999
DXF file: 6f3_c_042.dxf
999
Pro/ENGINEER 2016360 by Parametric Technology Corporation
  0
SECTION
  2
HEADER
  9
$ACADVER
  1
AC1014
  9
$DWGCODEPAGE
  3
ANSI_1252
  9
$EXTMAX
 10
3200.0
 20
2500.0
 30
0.0
  9
$EXTMIN
 10
0.0
 20
0.0
 30
0.0
  9
$LIMMIN
 10
0.0
 20
0.0
  9
$LIMMAX
 10
3200.0
 20
2500.0
  9
$VIEWCTR
 10
1600.0
 20
1250.0
  9
$VIEWSIZE
 40
2500.0
  9
$CLAYER
  8
0
  9
$LTSCALE
 40
176.0
  9
$CELTYPE
  6
BYLAYER
  9
$DIMSCALE
 40
1.0
  9
$DIMASZ
 40
2.5
  9
$DIMEXO
 40
0.75
  9
$DIMDLI
 40
121.6
  9
$DIMEXE
 40
0.75
  9
$DIMCEN
 40
28.8
  9
$DIMLFAC
 40
1.0
  9
$DIMBLK
  1
_CLOSED
  9
$DIMALT
 70
0
  9
$DIMALTF
 40
25.4
  9
$DIMTXT
 40
3.0
  9
$DIMTOL
 70
1
  9
$DIMLIM
 70
0
  9
$DIMTFAC
 40
1.0
  9
$DIMTP
 40
0.01
  9
$DIMTM
 40
0.01
  9
$DIMGAP
 40
0.625
  9
$AUNITS
 70
0
  9
$PDMODE
 70
3
  9
$PDSIZE
 40
0.3125
  9
$HANDSEED
  5
4E3
  9
$TILEMODE
 70
1
  9
$MEASUREMENT
 70
1
  0
ENDSEC
  0
SECTION
  2
CLASSES
  0
ENDSEC
  0
SECTION
  2
TABLES
  0
TABLE
  2
VPORT
  5
8
100
AcDbSymbolTable
 70
2
  0
VPORT
  5
1F4
100
AcDbSymbolTableRecord
100
AcDbViewportTableRecord
  2
*ACTIVE
 70
0
 10
0.0
 20
0.0
 11
1.0
 21
1.0
 12
1600.0
 22
1250.0
 13
0.0
 23
0.0
 14
1.0
 24
1.0
 15
0.0
 25
0.0
 16
0.0
 26
0.0
 36
1.0
 17
0.0
 27
0.0
 37
0.0
 40
2500.0
 41
1.28
 42
50.0
 43
0.0
 44
0.0
 50
0.0
 51
0.0
 71
0
 72
100
 73
1
 74
1
 75
0
 76
0
 77
0
 78
0
  0
ENDTAB
  0
TABLE
  2
LTYPE
  5
5
100
AcDbSymbolTable
 70
6
  0
LTYPE
  5
14
100
AcDbSymbolTableRecord
100
AcDbLinetypeTableRecord
  2
BYBLOCK
 70
0
  3

 72
65
 73
0
 40
0.0
  0
LTYPE
  5
15
100
AcDbSymbolTableRecord
100
AcDbLinetypeTableRecord
  2
BYLAYER
 70
0
  3

 72
65
 73
0
 40
0.0
  0
LTYPE
  5
16
100
AcDbSymbolTableRecord
100
AcDbLinetypeTableRecord
  2
CONTINUOUS
 70
64
  3
Solid line
 72
65
 73
0
 40
0.0
  0
LTYPE
  5
1F5
100
AcDbSymbolTableRecord
100
AcDbLinetypeTableRecord
  2
CENTER
 70
64
  3
____ _ ____ _ ____ _ ____ _ ____ _ ____ _ ____
 72
65
 73
4
 40
0.6
 49
0.375
 74
0
 49
-0.075
 74
0
 49
0.075
 74
0
 49
-0.075
 74
0
  0
LTYPE
  5
1F6
100
AcDbSymbolTableRecord
100
AcDbLinetypeTableRecord
  2
HIDDEN
 70
64
  3
- - - - - - - - - - - - - - - - - - - -
 72
65
 73
2
 40
0.2
 49
0.1
 74
0
 49
-0.1
 74
0
  0
LTYPE
  5
1F7
100
AcDbSymbolTableRecord
100
AcDbLinetypeTableRecord
  2
PHANTOM
 70
64
  3
_____ _ _ _____ _ _ _____ _ _ _____
 72
65
 73
6
 40
0.8
 49
0.45
 74
0
 49
-0.05
 74
0
 49
0.1
 74
0
 49
-0.05
 74
0
 49
0.1
 74
0
 49
-0.05
 74
0
  0
LTYPE
  5
1F8
100
AcDbSymbolTableRecord
100
AcDbLinetypeTableRecord
  2
DOT
 70
64
  3
. . . . . . . . . . . . . . . . . . . .
 72
65
 73
2
 40
0.2
 49
0.1
 74
0
 49
-0.1
 74
0
  0
LTYPE
  5
1F9
100
AcDbSymbolTableRecord
100
AcDbLinetypeTableRecord
  2
DASHED
 70
64
  3
- - - - - - - - - - - - - - - - - - - -
 72
65
 73
2
 40
0.2
 49
0.1
 74
0
 49
-0.1
 74
0
  0
ENDTAB
  0
TABLE
  2
LAYER
  5
2
100
AcDbSymbolTable
 70
36
  0
LAYER
  5
10
100
AcDbSymbolTableRecord
100
AcDbLayerTableRecord
  2
0
 70
0
 62
7
  6
CONTINUOUS
  0
LAYER
  5
1FA
100
AcDbSymbolTableRecord
100
AcDbLayerTableRecord
  2
DEFAULT_1
 70
0
 62
7
  6
CENTER
  0
LAYER
  5
1FB
100
AcDbSymbolTableRecord
100
AcDbLayerTableRecord
  2
DEFAULT_2
 70
0
 62
8
  6
HIDDEN
  0
LAYER
  5
1FC
100
AcDbSymbolTableRecord
100
AcDbLayerTableRecord
  2
DEFAULT_3
 70
0
 62
7
  6
PHANTOM
  0
LAYER
  5
1FD
100
AcDbSymbolTableRecord
100
AcDbLayerTableRecord
  2
1_ALL_PLANES
 70
0
 62
7
  6
CONTINUOUS
  0
LAYER
  5
1FE
100
AcDbSymbolTableRecord
100
AcDbLayerTableRecord
  2
2_ALL_CSYS
 70
0
 62
7
  6
CONTINUOUS
  0
LAYER
  5
1FF
100
AcDbSymbolTableRecord
100
AcDbLayerTableRecord
  2
3_ALL_AXES
 70
0
 62
7
  6
CONTINUOUS
  0
LAYER
  5
200
100
AcDbSymbolTableRecord
100
AcDbLayerTableRecord
  2
4_ALL_POINTS
 70
0
 62
7
  6
CONTINUOUS
  0
LAYER
  5
201
100
AcDbSymbolTableRecord
100
AcDbLayerTableRecord
  2
5_ALL_CURVES
 70
0
 62
7
  6
CONTINUOUS
  0
LAYER
  5
202
100
AcDbSymbolTableRecord
100
AcDbLayerTableRecord
  2
5__COSTRUZIONE
 70
0
 62
7
  6
CONTINUOUS
  0
LAYER
  5
203
100
AcDbSymbolTableRecord
100
AcDbLayerTableRecord
  2
6_ALL_SURFS
 70
0
 62
7
  6
CONTINUOUS
  0
LAYER
  5
204
100
AcDbSymbolTableRecord
100
AcDbLayerTableRecord
  2
7_ALL_FEATURES
 70
0
 62
7
  6
CONTINUOUS
  0
LAYER
  5
205
100
AcDbSymbolTableRecord
100
AcDbLayerTableRecord
  2
9_SOLID
 70
0
 62
7
  6
CONTINUOUS
  0
LAYER
  5
206
100
AcDbSymbolTableRecord
100
AcDbLayerTableRecord
  2
PR9034
 70
0
 62
7
  6
CONTINUOUS
  0
LAYER
  5
207
100
AcDbSymbolTableRecord
100
AcDbLayerTableRecord
  2
WHITE
 70
0
 62
7
  6
CONTINUOUS
  0
LAYER
  5
208
100
AcDbSymbolTableRecord
100
AcDbLayerTableRecord
  2
XXX_SOLIDO
 70
0
 62
7
  6
CONTINUOUS
  0
ENDTAB
  0
TABLE
  2
STYLE
  5
3
100
AcDbSymbolTable
 70
1
  0
STYLE
  5
11
100
AcDbSymbolTableRecord
100
AcDbTextStyleTableRecord
  2
STANDARD
 70
0
 40
0.0
 41
1.0
 50
0.0
 71
0
 42
0.2
  3
arial.ttf
  4

  0
STYLE
  5
209
100
AcDbSymbolTableRecord
100
AcDbTextStyleTableRecord
  2
TEXTSTYLE_1
 70
0
 40
0.0
 41
0.8
 50
0.0
 71
0
 42
0.2
  3
gdt
  4

  0
STYLE
  5
20A
100
AcDbSymbolTableRecord
100
AcDbTextStyleTableRecord
  2
TEXTSTYLE_2
 70
0
 40
0.0
 41
0.85
 50
0.0
 71
0
 42
0.2
  3
txt
  4

  0
ENDTAB
  0
TABLE
  2
VIEW
  5
6
100
AcDbSymbolTable
 70
0
  0
ENDTAB
  0
TABLE
  2
UCS
  5
7
100
AcDbSymbolTable
 70
0
  0
ENDTAB
  0
TABLE
  2
APPID
  5
9
100
AcDbSymbolTable
 70
1
  0
APPID
  5
20B
100
AcDbSymbolTableRecord
100
AcDbRegAppTableRecord
  2
ACAD
 70
0
  0
ENDTAB
  0
TABLE
  2
BLOCK_RECORD
  5
1
100
AcDbSymbolTable
 70
0
  0
BLOCK_RECORD
  5
1F
100
AcDbSymbolTableRecord
100
AcDbBlockTableRecord
  2
*MODEL_SPACE
  0
BLOCK_RECORD
  5
1B
100
AcDbSymbolTableRecord
100
AcDbBlockTableRecord
  2
*PAPER_SPACE
  0
BLOCK_RECORD
  5
20C
100
AcDbSymbolTableRecord
100
AcDbBlockTableRecord
  2
_CLOSED
  0
BLOCK_RECORD
  5
20D
100
AcDbSymbolTableRecord
100
AcDbBlockTableRecord
  2
*D0
  0
BLOCK_RECORD
  5
20E
100
AcDbSymbolTableRecord
100
AcDbBlockTableRecord
  2
*D1
  0
BLOCK_RECORD
  5
20F
100
AcDbSymbolTableRecord
100
AcDbBlockTableRecord
  2
*D2
  0
BLOCK_RECORD
  5
210
100
AcDbSymbolTableRecord
100
AcDbBlockTableRecord
  2
*D3
  0
BLOCK_RECORD
  5
211
100
AcDbSymbolTableRecord
100
AcDbBlockTableRecord
  2
LOGO2_BL0
  0
ENDTAB
  0
TABLE
  2
DIMSTYLE
  5
A
100
AcDbSymbolTable
 70
1
  0
DIMSTYLE
105
212
100
AcDbSymbolTableRecord
100
AcDbDimStyleTableRecord
  2
STANDARD
 70
0
  3

  4

  5
_CLOSED
  6
_CLOSED
  7
_CLOSED
 40
1.0
 41
2.5
 42
0.75
 43
0.38
 44
0.75
 45
0.0
 46
0.0
 47
0.01
 48
0.01
140
3.0
141
0.09
142
0.0
143
25.4
144
1.0
145
0.0
146
1.0
147
0.625
 71
1.0
 72
0.0
 73
0
 74
0
 75
0
 76
0
 77
1
 78
8
 79
2
170
0
171
1
172
0
173
0
174
0
175
0
176
0
177
0
178
0
270
2
179
2
271
2
272
2
273
2
274
2
275
0
280
0
281
0
282
0
283
1
284
8
285
0
286
0
287
3
288
0
340
11
  0
DIMSTYLE
105
213
100
AcDbSymbolTableRecord
100
AcDbDimStyleTableRecord
  2
DIMSTYLE_1
 70
0
  3

  4

  5
_CLOSED
  6
_CLOSED
  7
_CLOSED
 40
1.0
 41
2.5
 42
0.75
 43
0.38
 44
0.75
 45
0.0
 46
0.0
 47
0.3
 48
0.3
140
10.0
141
0.09
142
0.0
143
25.4
144
1.0
145
0.0
146
1.0
147
2.5
 71
0.0
 72
0.0
 73
0
 74
0
 75
0
 76
0
 77
1
 78
8
 79
2
170
0
171
1
172
0
173
0
174
0
175
0
176
0
177
0
178
0
270
2
179
2
271
2
272
2
273
2
274
2
275
0
280
0
281
0
282
0
283
1
284
8
285
0
286
0
287
3
288
0
340
11
  0
DIMSTYLE
105
214
100
AcDbSymbolTableRecord
100
AcDbDimStyleTableRecord
  2
DIMSTYLE_2
 70
0
  3

  4

  5
_CLOSED
  6
_CLOSED
  7
_CLOSED
 40
1.0
 41
2.5
 42
0.75
 43
0.38
 44
0.75
 45
0.0
 46
0.0
 47
1.2
 48
1.2
140
10.0
141
0.09
142
0.0
143
25.4
144
1.0
145
0.0
146
1.0
147
2.5
 71
0.0
 72
0.0
 73
0
 74
0
 75
0
 76
0
 77
1
 78
8
 79
2
170
0
171
1
172
0
173
0
174
0
175
0
176
0
177
0
178
0
270
2
179
2
271
2
272
2
273
2
274
2
275
0
280
0
281
0
282
0
283
1
284
8
285
0
286
0
287
3
288
0
340
11
  0
ENDTAB
  0
ENDSEC
  0
SECTION
  2
BLOCKS
  0
BLOCK
  5
20
100
AcDbEntity
  8
0
100
AcDbBlockBegin
  2
*MODEL_SPACE
 70
0
 10
0.0
 20
0.0
 30
0.0
  3
*MODEL_SPACE
  1

  0
ENDBLK
  5
21
100
AcDbEntity
  8
0
100
AcDbBlockEnd
  0
BLOCK
  5
1C
100
AcDbEntity
  8
0
100
AcDbBlockBegin
  2
*PAPER_SPACE
 70
0
 10
0.0
 20
0.0
 30
0.0
  3
*PAPER_SPACE
  1

  0
ENDBLK
  5
1D
100
AcDbEntity
  8
0
100
AcDbBlockEnd
  0
BLOCK
  5
215
100
AcDbEntity
  8
0
100
AcDbBlockBegin
 62
2
  6
CONTINUOUS
  2
LOGO2_BL0
 70
64
 10
3046.2721949569
 20
69.9043976201
  3
LOGO2_BL0
  1

  0
LINE
  5
216
100
AcDbEntity
  8
0
100
AcDbLine
 62
7
  6
CONTINUOUS
 10
3038.0151201851
 20
73.0998889589
 11
3036.7107792557
 21
73.0998889589
  0
LINE
  5
217
100
AcDbEntity
  8
0
100
AcDbLine
 62
7
  6
CONTINUOUS
 10
3036.7107792557
 20
73.0998889589
 11
3036.7107792557
 21
62.6408228991
  0
LINE
  5
218
100
AcDbEntity
  8
0
100
AcDbLine
 62
7
  6
CONTINUOUS
 10
3036.7107792557
 20
62.6408228991
 11
3041.191834144
 21
62.6408228991
  0
LINE
  5
219
100
AcDbEntity
  8
0
100
AcDbLine
 62
7
  6
CONTINUOUS
 10
3041.191834144
 20
62.6408228991
 11
3041.191834144
 21
63.8336772241
  0
LINE
  5
21A
100
AcDbEntity
  8
0
100
AcDbLine
 62
7
  6
CONTINUOUS
 10
3041.191834144
 20
63.8336772241
 11
3038.0151201851
 21
63.8336772241
  0
LINE
  5
21B
100
AcDbEntity
  8
0
100
AcDbLine
 62
7
  6
CONTINUOUS
 10
3038.0151201851
 20
63.8336772241
 11
3038.0151201851
 21
73.0998889589
  0
LINE
  5
21C
100
AcDbEntity
  8
0
100
AcDbLine
 62
7
  6
CONTINUOUS
 10
3052.9514464014
 20
73.0998889589
 11
3051.6476288833
 21
73.0998889589
  0
LINE
  5
21D
100
AcDbEntity
  8
0
100
AcDbLine
 62
7
  6
CONTINUOUS
 10
3051.6476288833
 20
73.0998889589
 11
3051.6476288833
 21
62.6408228991
  0
LINE
  5
21E
100
AcDbEntity
  8
0
100
AcDbLine
 62
7
  6
CONTINUOUS
 10
3051.6476288833
 20
62.6408228991
 11
3056.1288146244
 21
62.6408228991
  0
LINE
  5
21F
100
AcDbEntity
  8
0
100
AcDbLine
 62
7
  6
CONTINUOUS
 10
3056.1288146244
 20
62.6408228991
 11
3056.1288146244
 21
63.8336772241
  0
LINE
  5
220
100
AcDbEntity
  8
0
100
AcDbLine
 62
7
  6
CONTINUOUS
 10
3056.1288146244
 20
63.8336772241
 11
3052.9514464014
 21
63.8336772241
  0
LINE
  5
221
100
AcDbEntity
  8
0
100
AcDbLine
 62
7
  6
CONTINUOUS
 10
3052.9514464014
 20
63.8336772241
 11
3052.9514464014
 21
73.0998889589
  0
LWPOLYLINE
  5
222
100
AcDbEntity
  8
0
100
AcDbPolyline
 62
7
  6
CONTINUOUS
 90
2
 70
0
 43
0.2
 10
3035.0651741667
 20
59.2972715921
 10
3035.0651741667
 20
57.4402083428
  0
LWPOLYLINE
  5
223
100
AcDbEntity
  8
0
100
AcDbPolyline
 62
7
  6
CONTINUOUS
 90
2
 70
0
 43
0.2
 10
3035.0651741667
 20
57.4402083428
 10
3035.8608901771
 20
57.4402083428
  0
LWPOLYLINE
  5
224
100
AcDbEntity
  8
0
100
AcDbPolyline
 62
7
  6
CONTINUOUS
 90
2
 70
0
 43
0.2
 10
3035.8608901771
 20
57.4402083428
 10
3035.8608901771
 20
57.6521899144
  0
LWPOLYLINE
  5
225
100
AcDbEntity
  8
0
100
AcDbPolyline
 62
7
  6
CONTINUOUS
 90
2
 70
0
 43
0.2
 10
3035.8608901771
 20
57.6521899144
 10
3035.2967836616
 20
57.6521899144
  0
LWPOLYLINE
  5
226
100
AcDbEntity
  8
0
100
AcDbPolyline
 62
7
  6
CONTINUOUS
 90
2
 70
0
 43
0.2
 10
3035.2967836616
 20
57.6521899144
 10
3035.2967836616
 20
59.2972715921
  0
LWPOLYLINE
  5
227
100
AcDbEntity
  8
0
100
AcDbPolyline
 62
7
  6
CONTINUOUS
 90
2
 70
0
 43
0.2
 10
3035.2967836616
 20
59.2972715921
 10
3035.0651741667
 20
59.2972715921
  0
SPLINE
  5
228
100
AcDbEntity
  8
0
100
AcDbSpline
 62
7
  6
CONTINUOUS
 70
2
 71
3
 72
35
 73
31
 74
0
 42
0.0000001
 43
0.0000001
 44
0.0000000001
 40
0.0
 40
0.0
 40
0.0
 40
0.0
 40
1.0
 40
1.0
 40
1.0
 40
2.0
 40
2.0
 40
2.0
 40
3.0
 40
3.0
 40
3.0
 40
4.0
 40
4.0
 40
4.0
 40
5.0
 40
5.0
 40
5.0
 40
6.0
 40
6.0
 40
6.0
 40
7.0
 40
7.0
 40
7.0
 40
8.0
 40
8.0
 40
8.0
 40
9.0
 40
9.0
 40
9.0
 40
10.0
 40
10.0
 40
10.0
 40
10.0
 10
3037.2591834326
 20
58.5927599987
 30
0.0
 10
3037.2591834326
 20
58.5927599987
 30
0.0
 10
3037.2591834326
 20
57.9306447195
 30
0.0
 10
3037.2591834326
 20
57.9306447195
 30
0.0
 10
3037.2591834326
 20
57.6155511242
 30
0.0
 10
3037.4070471214
 20
57.4009524962
 30
0.0
 10
3037.7471336057
 20
57.4009524962
 30
0.0
 10
3038.0866966787
 20
57.4009524962
 30
0.0
 10
3038.2348220732
 20
57.6155511242
 30
0.0
 10
3038.2348220732
 20
57.9306447195
 30
0.0
 10
3038.2348220732
 20
57.9306447195
 30
0.0
 10
3038.2348220732
 20
58.5927599987
 30
0.0
 10
3038.2348220732
 20
58.5927599987
 30
0.0
 10
3038.2348220732
 20
58.5927599987
 30
0.0
 10
3038.0127648343
 20
58.5927599987
 30
0.0
 10
3038.0127648343
 20
58.5927599987
 30
0.0
 10
3038.0127648343
 20
58.5927599987
 30
0.0
 10
3038.0127648343
 20
57.9557684613
 30
0.0
 10
3038.0127648343
 20
57.9557684613
 30
0.0
 10
3038.0127648343
 20
57.7699574541
 30
0.0
 10
3037.9660503769
 20
57.6071765436
 30
0.0
 10
3037.7471336057
 20
57.6071765436
 30
0.0
 10
3037.5276934233
 20
57.6071765436
 30
0.0
 10
3037.4809789658
 20
57.7699574541
 30
0.0
 10
3037.4809789658
 20
57.9557684613
 30
0.0
 10
3037.4809789658
 20
57.9557684613
 30
0.0
 10
3037.4809789658
 20
58.5927599987
 30
0.0
 10
3037.4809789658
 20
58.5927599987
 30
0.0
 10
3037.4809789658
 20
58.5927599987
 30
0.0
 10
3037.2591834326
 20
58.5927599987
 30
0.0
 10
3037.2591834326
 20
58.5927599987
 30
0.0
  0
SPLINE
  5
229
100
AcDbEntity
  8
0
100
AcDbSpline
 62
7
  6
CONTINUOUS
 70
2
 71
3
 72
35
 73
31
 74
0
 42
0.0000001
 43
0.0000001
 44
0.0000000001
 40
0.0
 40
0.0
 40
0.0
 40
0.0
 40
1.0
 40
1.0
 40
1.0
 40
2.0
 40
2.0
 40
2.0
 40
3.0
 40
3.0
 40
3.0
 40
4.0
 40
4.0
 40
4.0
 40
5.0
 40
5.0
 40
5.0
 40
6.0
 40
6.0
 40
6.0
 40
7.0
 40
7.0
 40
7.0
 40
8.0
 40
8.0
 40
8.0
 40
9.0
 40
9.0
 40
9.0
 40
10.0
 40
10.0
 40
10.0
 40
10.0
 10
3040.6579546304
 20
58.5514105069
 30
0.0
 10
3040.5694981227
 20
58.6027048131
 30
0.0
 10
3040.4560487261
 20
58.627828555
 30
0.0
 10
3040.3524132911
 20
58.627828555
 30
0.0
 10
3039.9975404379
 20
58.627828555
 30
0.0
 10
3039.7220952477
 20
58.3640292659
 30
0.0
 10
3039.7220952477
 20
58.0065393563
 30
0.0
 10
3039.7220952477
 20
57.6616113176
 30
0.0
 10
3040.0005500528
 20
57.4014759075
 30
0.0
 10
3040.3401131258
 20
57.4014759075
 30
0.0
 10
3040.4560487261
 20
57.4014759075
 30
0.0
 10
3040.556805399
 20
57.4234591816
 30
0.0
 10
3040.6579546304
 20
57.4773705442
 30
0.0
 10
3040.6579546304
 20
57.4773705442
 30
0.0
 10
3040.6579546304
 20
57.7600126397
 30
0.0
 10
3040.6579546304
 20
57.7600126397
 30
0.0
 10
3040.5740779715
 20
57.6668454304
 30
0.0
 10
3040.4705733893
 20
57.6076999549
 30
0.0
 10
3040.3424684766
 20
57.6076999549
 30
0.0
 10
3040.1087653366
 20
57.6076999549
 30
0.0
 10
3039.9434982224
 20
57.7799022686
 30
0.0
 10
3039.9434982224
 20
58.0164841707
 30
0.0
 10
3039.9434982224
 20
58.2284657423
 30
0.0
 10
3040.1112515402
 20
58.420557685
 30
0.0
 10
3040.3280746662
 20
58.420557685
 30
0.0
 10
3040.4608902805
 20
58.420557685
 30
0.0
 10
3040.5694981227
 20
58.3666463223
 30
0.0
 10
3040.6579546304
 20
58.2656279438
 30
0.0
 10
3040.6579546304
 20
58.2656279438
 30
0.0
 10
3040.6579546304
 20
58.5514105069
 30
0.0
 10
3040.6579546304
 20
58.5514105069
 30
0.0
  0
SPLINE
  5
22A
100
AcDbEntity
  8
0
100
AcDbSpline
 62
7
  6
CONTINUOUS
 70
2
 71
3
 72
32
 73
28
 74
0
 42
0.0000001
 43
0.0000001
 44
0.0000000001
 40
0.0
 40
0.0
 40
0.0
 40
0.0
 40
1.0
 40
1.0
 40
1.0
 40
2.0
 40
2.0
 40
2.0
 40
3.0
 40
3.0
 40
3.0
 40
4.0
 40
4.0
 40
4.0
 40
5.0
 40
5.0
 40
5.0
 40
6.0
 40
6.0
 40
6.0
 40
7.0
 40
7.0
 40
7.0
 40
8.0
 40
8.0
 40
8.0
 40
9.0
 40
9.0
 40
9.0
 40
9.0
 10
3043.1898258826
 20
57.9798453806
 30
0.0
 10
3043.1898258826
 20
57.9798453806
 30
0.0
 10
3043.1898258826
 20
58.0138671143
 30
0.0
 10
3043.1898258826
 20
58.0138671143
 30
0.0
 10
3043.1898258826
 20
58.3561780966
 30
0.0
 10
3043.0169693048
 20
58.627828555
 30
0.0
 10
3042.6503196977
 20
58.627828555
 30
0.0
 10
3042.2786976833
 20
58.627828555
 30
0.0
 10
3042.0889610914
 20
58.3614122094
 30
0.0
 10
3042.0889610914
 20
58.0065393563
 30
0.0
 10
3042.0889610914
 20
57.6668454304
 30
0.0
 10
3042.3030363082
 20
57.4009524962
 30
0.0
 10
3042.6551612521
 20
57.4009524962
 30
0.0
 10
3042.8791812833
 20
57.4009524962
 30
0.0
 10
3043.0813488932
 20
57.5166263908
 30
0.0
 10
3043.1898258826
 20
57.7160460915
 30
0.0
 10
3043.1898258826
 20
57.7160460915
 30
0.0
 10
3043.0021829359
 20
57.8228219942
 30
0.0
 10
3043.0021829359
 20
57.8228219942
 30
0.0
 10
3042.9186988355
 20
57.6841180029
 30
0.0
 10
3042.8274944186
 20
57.5982785517
 30
0.0
 10
3042.6579091613
 20
57.5982785517
 30
0.0
 10
3042.4459275898
 20
57.5982785517
 30
0.0
 10
3042.3129811226
 20
57.7830427363
 30
0.0
 10
3042.3106257718
 20
57.9798453806
 30
0.0
 10
3042.3106257718
 20
57.9798453806
 30
0.0
 10
3043.1898258826
 20
57.9798453806
 30
0.0
 10
3043.1898258826
 20
57.9798453806
 30
0.0
  0
SPLINE
  5
22B
100
AcDbEntity
  8
0
100
AcDbSpline
 62
7
  6
CONTINUOUS
 70
2
 71
3
 72
14
 73
10
 74
0
 42
0.0000001
 43
0.0000001
 44
0.0000000001
 40
0.0
 40
0.0
 40
0.0
 40
0.0
 40
1.0
 40
1.0
 40
1.0
 40
2.0
 40
2.0
 40
2.0
 40
3.0
 40
3.0
 40
3.0
 40
3.0
 10
3042.3226642315
 20
58.1473369927
 30
0.0
 10
3042.3502741769
 20
58.3122115484
 30
0.0
 10
3042.478117384
 20
58.435213201
 30
0.0
 10
3042.6503196977
 20
58.435213201
 30
0.0
 10
3042.8274944186
 20
58.435213201
 30
0.0
 10
3042.9409438153
 20
58.3195393064
 30
0.0
 10
3042.9681612022
 20
58.1473369927
 30
0.0
 10
3042.9681612022
 20
58.1473369927
 30
0.0
 10
3042.3226642315
 20
58.1473369927
 30
0.0
 10
3042.3226642315
 20
58.1473369927
 30
0.0
  0
SPLINE
  5
22C
100
AcDbEntity
  8
0
100
AcDbSpline
 62
7
  6
CONTINUOUS
 70
2
 71
3
 72
20
 73
16
 74
0
 42
0.0000001
 43
0.0000001
 44
0.0000000001
 40
0.0
 40
0.0
 40
0.0
 40
0.0
 40
1.0
 40
1.0
 40
1.0
 40
2.0
 40
2.0
 40
2.0
 40
3.0
 40
3.0
 40
3.0
 40
4.0
 40
4.0
 40
4.0
 40
5.0
 40
5.0
 40
5.0
 40
5.0
 10
3045.2138573328
 20
58.3567015078
 30
0.0
 10
3045.2138573328
 20
58.3567015078
 30
0.0
 10
3045.6249968995
 20
57.8542266715
 30
0.0
 10
3045.6249968995
 20
57.8542266715
 30
0.0
 10
3045.5089304464
 20
57.7385527769
 30
0.0
 10
3045.3711424248
 20
57.6082233662
 30
0.0
 10
3045.1992018168
 20
57.6082233662
 30
0.0
 10
3045.0217653902
 20
57.6082233662
 30
0.0
 10
3044.8542737781
 20
57.7725745106
 30
0.0
 10
3044.8542737781
 20
57.9494875259
 30
0.0
 10
3044.8542737781
 20
58.1274473638
 30
0.0
 10
3045.0640308517
 20
58.2535894841
 30
0.0
 10
3045.1916123531
 20
58.3415225805
 30
0.0
 10
3045.1916123531
 20
58.3415225805
 30
0.0
 10
3045.2138573328
 20
58.3567015078
 30
0.0
 10
3045.2138573328
 20
58.3567015078
 30
0.0
  0
SPLINE
  5
22D
100
AcDbEntity
  8
0
100
AcDbSpline
 62
7
  6
CONTINUOUS
 70
2
 71
3
 72
23
 73
19
 74
0
 42
0.0000001
 43
0.0000001
 44
0.0000000001
 40
0.0
 40
0.0
 40
0.0
 40
0.0
 40
1.0
 40
1.0
 40
1.0
 40
2.0
 40
2.0
 40
2.0
 40
3.0
 40
3.0
 40
3.0
 40
4.0
 40
4.0
 40
4.0
 40
5.0
 40
5.0
 40
5.0
 40
6.0
 40
6.0
 40
6.0
 40
6.0
 10
3045.2631888467
 20
58.6477181839
 30
0.0
 10
3045.2631888467
 20
58.6477181839
 30
0.0
 10
3045.2015571676
 20
58.7262298771
 30
0.0
 10
3045.2015571676
 20
58.7262298771
 30
0.0
 10
3045.1476458049
 20
58.7947967558
 30
0.0
 10
3045.0908556802
 20
58.8638870458
 30
0.0
 10
3045.0908556802
 20
58.9575776663
 30
0.0
 10
3045.0908556802
 20
59.0763920287
 30
0.0
 10
3045.1867707987
 20
59.1538568993
 30
0.0
 10
3045.2977339917
 20
59.1538568993
 30
0.0
 10
3045.42099735
 20
59.1538568993
 30
0.0
 10
3045.5142954121
 20
59.0826729641
 30
0.0
 10
3045.5142954121
 20
58.9523435534
 30
0.0
 10
3045.5142954121
 20
58.8173034412
 30
0.0
 10
3045.3861904994
 20
58.7408853931
 30
0.0
 10
3045.2926307317
 20
58.6670844016
 30
0.0
 10
3045.2926307317
 20
58.6670844016
 30
0.0
 10
3045.2631888467
 20
58.6477181839
 30
0.0
 10
3045.2631888467
 20
58.6477181839
 30
0.0
  0
SPLINE
  5
22E
100
AcDbEntity
  8
0
100
AcDbSpline
 62
7
  6
CONTINUOUS
 70
2
 71
3
 72
50
 73
46
 74
0
 42
0.0000001
 43
0.0000001
 44
0.0000000001
 40
0.0
 40
0.0
 40
0.0
 40
0.0
 40
1.0
 40
1.0
 40
1.0
 40
2.0
 40
2.0
 40
2.0
 40
3.0
 40
3.0
 40
3.0
 40
4.0
 40
4.0
 40
4.0
 40
5.0
 40
5.0
 40
5.0
 40
6.0
 40
6.0
 40
6.0
 40
7.0
 40
7.0
 40
7.0
 40
8.0
 40
8.0
 40
8.0
 40
9.0
 40
9.0
 40
9.0
 40
10.0
 40
10.0
 40
10.0
 40
11.0
 40
11.0
 40
11.0
 40
12.0
 40
12.0
 40
12.0
 40
13.0
 40
13.0
 40
13.0
 40
14.0
 40
14.0
 40
14.0
 40
15.0
 40
15.0
 40
15.0
 40
15.0
 10
3045.9653450894
 20
57.4407317541
 30
0.0
 10
3045.9653450894
 20
57.4407317541
 30
0.0
 10
3046.2507350941
 20
57.4407317541
 30
0.0
 10
3046.2507350941
 20
57.4407317541
 30
0.0
 10
3046.2507350941
 20
57.4407317541
 30
0.0
 10
3045.9183689263
 20
57.8516096151
 30
0.0
 10
3045.9183689263
 20
57.8516096151
 30
0.0
 10
3045.9183689263
 20
57.8516096151
 30
0.0
 10
3046.1448751611
 20
58.1175025493
 30
0.0
 10
3046.1448751611
 20
58.1175025493
 30
0.0
 10
3046.1448751611
 20
58.1175025493
 30
0.0
 10
3045.9966189138
 20
58.2703386453
 30
0.0
 10
3045.9966189138
 20
58.2703386453
 30
0.0
 10
3045.9966189138
 20
58.2703386453
 30
0.0
 10
3045.7807117576
 20
58.0191012272
 30
0.0
 10
3045.7807117576
 20
58.0191012272
 30
0.0
 10
3045.7807117576
 20
58.0191012272
 30
0.0
 10
3045.3936491102
 20
58.4870309185
 30
0.0
 10
3045.3936491102
 20
58.4870309185
 30
0.0
 10
3045.5491022627
 20
58.6011345793
 30
0.0
 10
3045.7313802437
 20
58.7408853931
 30
0.0
 10
3045.7313802437
 20
58.9502499083
 30
0.0
 10
3045.7313802437
 20
59.1941595684
 30
0.0
 10
3045.5293434866
 20
59.3375742613
 30
0.0
 10
3045.3028372518
 20
59.3375742613
 30
0.0
 10
3045.058665886
 20
59.3375742613
 30
0.0
 10
3044.8742942598
 20
59.1868318104
 30
0.0
 10
3044.8742942598
 20
58.9303602794
 30
0.0
 10
3044.8742942598
 20
58.7728134817
 30
0.0
 10
3044.9729572876
 20
58.635156313
 30
0.0
 10
3045.0782938093
 20
58.52419312
 30
0.0
 10
3045.0782938093
 20
58.52419312
 30
0.0
 10
3044.9627507675
 20
58.4404473139
 30
0.0
 10
3044.9627507675
 20
58.4404473139
 30
0.0
 10
3044.7850526352
 20
58.3122115484
 30
0.0
 10
3044.6377123577
 20
58.1844991941
 30
0.0
 10
3044.6377123577
 20
57.9473938807
 30
0.0
 10
3044.6377123577
 20
57.6270661726
 30
0.0
 10
3044.8962775339
 20
57.4009524962
 30
0.0
 10
3045.2066604276
 20
57.4009524962
 30
0.0
 10
3045.4255771988
 20
57.4009524962
 30
0.0
 10
3045.6227724015
 20
57.526047794
 30
0.0
 10
3045.7630466266
 20
57.6919691723
 30
0.0
 10
3045.7630466266
 20
57.6919691723
 30
0.0
 10
3045.9653450894
 20
57.4407317541
 30
0.0
 10
3045.9653450894
 20
57.4407317541
 30
0.0
  0
LWPOLYLINE
  5
22F
100
AcDbEntity
  8
0
100
AcDbPolyline
 62
7
  6
CONTINUOUS
 90
2
 70
0
 43
0.2
 10
3047.9007891791
 20
59.2972715921
 10
3047.6694413899
 20
59.2972715921
  0
LWPOLYLINE
  5
230
100
AcDbEntity
  8
0
100
AcDbPolyline
 62
7
  6
CONTINUOUS
 90
2
 70
0
 43
0.2
 10
3047.6694413899
 20
59.2972715921
 10
3047.6694413899
 20
57.4402083428
  0
LWPOLYLINE
  5
231
100
AcDbEntity
  8
0
100
AcDbPolyline
 62
7
  6
CONTINUOUS
 90
2
 70
0
 43
0.2
 10
3047.6694413899
 20
57.4402083428
 10
3048.4647648418
 20
57.4402083428
  0
LWPOLYLINE
  5
232
100
AcDbEntity
  8
0
100
AcDbPolyline
 62
7
  6
CONTINUOUS
 90
2
 70
0
 43
0.2
 10
3048.4647648418
 20
57.4402083428
 10
3048.4647648418
 20
57.6521899144
  0
LWPOLYLINE
  5
233
100
AcDbEntity
  8
0
100
AcDbPolyline
 62
7
  6
CONTINUOUS
 90
2
 70
0
 43
0.2
 10
3048.4647648418
 20
57.6521899144
 10
3047.9007891791
 20
57.6521899144
  0
LWPOLYLINE
  5
234
100
AcDbEntity
  8
0
100
AcDbPolyline
 62
7
  6
CONTINUOUS
 90
2
 70
0
 43
0.2
 10
3047.9007891791
 20
57.6521899144
 10
3047.9007891791
 20
59.2972715921
  0
LWPOLYLINE
  5
235
100
AcDbEntity
  8
0
100
AcDbPolyline
 62
7
  6
CONTINUOUS
 90
2
 70
0
 43
0.2
 10
3050.1438682533
 20
58.5927599987
 10
3049.9227269842
 20
58.5927599987
  0
LWPOLYLINE
  5
236
100
AcDbEntity
  8
0
100
AcDbPolyline
 62
7
  6
CONTINUOUS
 90
2
 70
0
 43
0.2
 10
3049.9227269842
 20
58.5927599987
 10
3049.9227269842
 20
57.4407317541
  0
LWPOLYLINE
  5
237
100
AcDbEntity
  8
0
100
AcDbPolyline
 62
7
  6
CONTINUOUS
 90
2
 70
0
 43
0.2
 10
3049.9227269842
 20
57.4407317541
 10
3050.1438682533
 20
57.4407317541
  0
LWPOLYLINE
  5
238
100
AcDbEntity
  8
0
100
AcDbPolyline
 62
7
  6
CONTINUOUS
 90
2
 70
0
 43
0.2
 10
3050.1438682533
 20
57.4407317541
 10
3050.1438682533
 20
58.5927599987
  0
LWPOLYLINE
  5
239
100
AcDbEntity
  8
0
100
AcDbPolyline
 62
7
  6
CONTINUOUS
 90
2
 70
1
 43
0.2
 10
3049.8808449761
 20
59.1227139276
 42
1.0
 10
3050.186011967
 20
59.1227139276
 42
1.0
  0
SPLINE
  5
23A
100
AcDbEntity
  8
0
100
AcDbSpline
 62
7
  6
CONTINUOUS
 70
2
 71
3
 72
17
 73
13
 74
0
 42
0.0000001
 43
0.0000001
 44
0.0000000001
 40
0.0
 40
0.0
 40
0.0
 40
0.0
 40
1.0
 40
1.0
 40
1.0
 40
2.0
 40
2.0
 40
2.0
 40
3.0
 40
3.0
 40
3.0
 40
4.0
 40
4.0
 40
4.0
 40
4.0
 10
3052.2741521949
 20
57.5982785517
 30
0.0
 10
3052.0401873492
 20
57.5982785517
 30
0.0
 10
3051.9098579386
 20
57.8003153088
 30
0.0
 10
3051.9098579386
 20
58.0164841707
 30
0.0
 10
3051.9098579386
 20
58.2310827988
 30
0.0
 10
3052.0456831678
 20
58.4299790881
 30
0.0
 10
3052.2741521949
 20
58.4299790881
 30
0.0
 10
3052.5136128591
 20
58.4299790881
 30
0.0
 10
3052.6491763827
 20
58.2410276132
 30
0.0
 10
3052.6491763827
 20
58.0164841707
 30
0.0
 10
3052.6491763827
 20
57.7903704944
 30
0.0
 10
3052.5159682099
 20
57.5982785517
 30
0.0
 10
3052.2741521949
 20
57.5982785517
 30
0.0
  0
SPLINE
  5
23B
100
AcDbEntity
  8
0
100
AcDbSpline
 62
7
  6
CONTINUOUS
 70
2
 71
3
 72
50
 73
46
 74
0
 42
0.0000001
 43
0.0000001
 44
0.0000000001
 40
0.0
 40
0.0
 40
0.0
 40
0.0
 40
1.0
 40
1.0
 40
1.0
 40
2.0
 40
2.0
 40
2.0
 40
3.0
 40
3.0
 40
3.0
 40
4.0
 40
4.0
 40
4.0
 40
5.0
 40
5.0
 40
5.0
 40
6.0
 40
6.0
 40
6.0
 40
7.0
 40
7.0
 40
7.0
 40
8.0
 40
8.0
 40
8.0
 40
9.0
 40
9.0
 40
9.0
 40
10.0
 40
10.0
 40
10.0
 40
11.0
 40
11.0
 40
11.0
 40
12.0
 40
12.0
 40
12.0
 40
13.0
 40
13.0
 40
13.0
 40
14.0
 40
14.0
 40
14.0
 40
15.0
 40
15.0
 40
15.0
 40
15.0
 10
3052.8582791922
 20
58.59328341
 30
0.0
 10
3052.8582791922
 20
58.59328341
 30
0.0
 10
3052.6366145118
 20
58.59328341
 30
0.0
 10
3052.6366145118
 20
58.59328341
 30
0.0
 10
3052.6366145118
 20
58.59328341
 30
0.0
 10
3052.6366145118
 20
58.3959573544
 30
0.0
 10
3052.6366145118
 20
58.3959573544
 30
0.0
 10
3052.6366145118
 20
58.3959573544
 30
0.0
 10
3052.6319038102
 20
58.3959573544
 30
0.0
 10
3052.6319038102
 20
58.3959573544
 30
0.0
 10
3052.5405685404
 20
58.538848636
 30
0.0
 10
3052.4026496661
 20
58.6273051437
 30
0.0
 10
3052.2299239411
 20
58.6273051437
 30
0.0
 10
3051.8975577733
 20
58.6273051437
 30
0.0
 10
3051.6884549638
 20
58.3394289353
 30
0.0
 10
3051.6884549638
 20
58.0238119288
 30
0.0
 10
3051.6884549638
 20
57.6940628174
 30
0.0
 10
3051.8855193137
 20
57.4009524962
 30
0.0
 10
3052.2403921668
 20
57.4009524962
 30
0.0
 10
3052.4026496661
 20
57.4009524962
 30
0.0
 10
3052.5426621856
 20
57.4894090038
 30
0.0
 10
3052.6319038102
 20
57.6202618258
 30
0.0
 10
3052.6319038102
 20
57.6202618258
 30
0.0
 10
3052.6366145118
 20
57.6202618258
 30
0.0
 10
3052.6366145118
 20
57.6202618258
 30
0.0
 10
3052.6366145118
 20
57.6202618258
 30
0.0
 10
3052.6366145118
 20
57.4009524962
 30
0.0
 10
3052.6366145118
 20
57.4009524962
 30
0.0
 10
3052.6366145118
 20
57.1643705941
 30
0.0
 10
3052.5800860927
 20
56.9775127643
 30
0.0
 10
3052.3068654004
 20
56.9775127643
 30
0.0
 10
3052.1045669376
 20
56.9775127643
 30
0.0
 10
3051.9619373617
 20
57.0958037154
 30
0.0
 10
3051.9619373617
 20
57.3020277628
 30
0.0
 10
3051.9619373617
 20
57.3020277628
 30
0.0
 10
3051.7402726813
 20
57.3020277628
 30
0.0
 10
3051.7402726813
 20
57.3020277628
 30
0.0
 10
3051.7452450885
 20
56.9775127643
 30
0.0
 10
3051.9763311721
 20
56.7807101201
 30
0.0
 10
3052.2966588803
 20
56.7807101201
 30
0.0
 10
3052.7446989427
 20
56.7807101201
 30
0.0
 10
3052.8582791922
 20
57.065969272
 30
0.0
 10
3052.8582791922
 20
57.4627150282
 30
0.0
 10
3052.8582791922
 20
57.4627150282
 30
0.0
 10
3052.8582791922
 20
58.59328341
 30
0.0
 10
3052.8582791922
 20
58.59328341
 30
0.0
  0
SPLINE
  5
23C
100
AcDbEntity
  8
0
100
AcDbSpline
 62
7
  6
CONTINUOUS
 70
2
 71
3
 72
44
 73
40
 74
0
 42
0.0000001
 43
0.0000001
 44
0.0000000001
 40
0.0
 40
0.0
 40
0.0
 40
0.0
 40
1.0
 40
1.0
 40
1.0
 40
2.0
 40
2.0
 40
2.0
 40
3.0
 40
3.0
 40
3.0
 40
4.0
 40
4.0
 40
4.0
 40
5.0
 40
5.0
 40
5.0
 40
6.0
 40
6.0
 40
6.0
 40
7.0
 40
7.0
 40
7.0
 40
8.0
 40
8.0
 40
8.0
 40
9.0
 40
9.0
 40
9.0
 40
10.0
 40
10.0
 40
10.0
 40
11.0
 40
11.0
 40
11.0
 40
12.0
 40
12.0
 40
12.0
 40
13.0
 40
13.0
 40
13.0
 40
13.0
 10
3054.4272045276
 20
59.5783434537
 30
0.0
 10
3054.4272045276
 20
59.5783434537
 30
0.0
 10
3054.4272045276
 20
57.4402083428
 30
0.0
 10
3054.4272045276
 20
57.4402083428
 30
0.0
 10
3054.4272045276
 20
57.4402083428
 30
0.0
 10
3054.6486075023
 20
57.4402083428
 30
0.0
 10
3054.6486075023
 20
57.4402083428
 30
0.0
 10
3054.6486075023
 20
57.4402083428
 30
0.0
 10
3054.6486075023
 20
57.9699005661
 30
0.0
 10
3054.6486075023
 20
57.9699005661
 30
0.0
 10
3054.6486075023
 20
58.1797884925
 30
0.0
 10
3054.6486075023
 20
58.4305024994
 30
0.0
 10
3054.9338666542
 20
58.4305024994
 30
0.0
 10
3055.1607654475
 20
58.4305024994
 30
0.0
 10
3055.1877211288
 20
58.2975560323
 30
0.0
 10
3055.1877211288
 20
58.1012767994
 30
0.0
 10
3055.1877211288
 20
58.1012767994
 30
0.0
 10
3055.1877211288
 20
57.4402083428
 30
0.0
 10
3055.1877211288
 20
57.4402083428
 30
0.0
 10
3055.1877211288
 20
57.4402083428
 30
0.0
 10
3055.4096475149
 20
57.4402083428
 30
0.0
 10
3055.4096475149
 20
57.4402083428
 30
0.0
 10
3055.4096475149
 20
57.4402083428
 30
0.0
 10
3055.4096475149
 20
58.1274473638
 30
0.0
 10
3055.4096475149
 20
58.1274473638
 30
0.0
 10
3055.4096475149
 20
58.4079958141
 30
0.0
 10
3055.3256400032
 20
58.627828555
 30
0.0
 10
3055.0006015934
 20
58.627828555
 30
0.0
 10
3054.8608507796
 20
58.627828555
 30
0.0
 10
3054.7226701996
 20
58.5613553214
 30
0.0
 10
3054.6533182039
 20
58.4383536688
 30
0.0
 10
3054.6533182039
 20
58.4383536688
 30
0.0
 10
3054.6486075023
 20
58.4383536688
 30
0.0
 10
3054.6486075023
 20
58.4383536688
 30
0.0
 10
3054.6486075023
 20
58.4383536688
 30
0.0
 10
3054.6486075023
 20
59.5783434537
 30
0.0
 10
3054.6486075023
 20
59.5783434537
 30
0.0
 10
3054.6486075023
 20
59.5783434537
 30
0.0
 10
3054.4272045276
 20
59.5783434537
 30
0.0
 10
3054.4272045276
 20
59.5783434537
 30
0.0
  0
LWPOLYLINE
  5
23D
100
AcDbEntity
  8
0
100
AcDbPolyline
 62
7
  6
CONTINUOUS
 90
2
 70
0
 43
0.2
 10
3057.2494381918
 20
58.38601254
 10
3057.4658687593
 20
58.38601254
  0
LWPOLYLINE
  5
23E
100
AcDbEntity
  8
0
100
AcDbPolyline
 62
7
  6
CONTINUOUS
 90
2
 70
0
 43
0.2
 10
3057.4658687593
 20
58.38601254
 10
3057.4658687593
 20
58.5927599987
  0
LWPOLYLINE
  5
23F
100
AcDbEntity
  8
0
100
AcDbPolyline
 62
7
  6
CONTINUOUS
 90
2
 70
0
 43
0.2
 10
3057.4658687593
 20
58.5927599987
 10
3057.2494381918
 20
58.5927599987
  0
LWPOLYLINE
  5
240
100
AcDbEntity
  8
0
100
AcDbPolyline
 62
7
  6
CONTINUOUS
 90
2
 70
0
 43
0.2
 10
3057.2494381918
 20
58.5927599987
 10
3057.2494381918
 20
59.0334723031
  0
LWPOLYLINE
  5
241
100
AcDbEntity
  8
0
100
AcDbPolyline
 62
7
  6
CONTINUOUS
 90
2
 70
0
 43
0.2
 10
3057.2494381918
 20
59.0334723031
 10
3057.0277735114
 20
59.0334723031
  0
LWPOLYLINE
  5
242
100
AcDbEntity
  8
0
100
AcDbPolyline
 62
7
  6
CONTINUOUS
 90
2
 70
0
 43
0.2
 10
3057.0277735114
 20
59.0334723031
 10
3057.0277735114
 20
58.5927599987
  0
LWPOLYLINE
  5
243
100
AcDbEntity
  8
0
100
AcDbPolyline
 62
7
  6
CONTINUOUS
 90
2
 70
0
 43
0.2
 10
3057.0277735114
 20
58.5927599987
 10
3056.9071272095
 20
58.5927599987
  0
LWPOLYLINE
  5
244
100
AcDbEntity
  8
0
100
AcDbPolyline
 62
7
  6
CONTINUOUS
 90
2
 70
0
 43
0.2
 10
3056.9071272095
 20
58.5927599987
 10
3056.9071272095
 20
58.38601254
  0
LWPOLYLINE
  5
245
100
AcDbEntity
  8
0
100
AcDbPolyline
 62
7
  6
CONTINUOUS
 90
2
 70
0
 43
0.2
 10
3056.9071272095
 20
58.38601254
 10
3057.0277735114
 20
58.38601254
  0
LWPOLYLINE
  5
246
100
AcDbEntity
  8
0
100
AcDbPolyline
 62
7
  6
CONTINUOUS
 90
2
 70
0
 43
0.2
 10
3057.0277735114
 20
58.38601254
 10
3057.0277735114
 20
57.4402083428
  0
LWPOLYLINE
  5
247
100
AcDbEntity
  8
0
100
AcDbPolyline
 62
7
  6
CONTINUOUS
 90
2
 70
0
 43
0.2
 10
3057.0277735114
 20
57.4402083428
 10
3057.2494381918
 20
57.4402083428
  0
LWPOLYLINE
  5
248
100
AcDbEntity
  8
0
100
AcDbPolyline
 62
7
  6
CONTINUOUS
 90
2
 70
0
 43
0.2
 10
3057.2494381918
 20
57.4402083428
 10
3057.2494381918
 20
58.38601254
  0
SPLINE
  5
249
100
AcDbEntity
  8
0
100
AcDbSpline
 62
7
  6
CONTINUOUS
 70
2
 71
3
 72
20
 73
16
 74
0
 42
0.0000001
 43
0.0000001
 44
0.0000000001
 40
0.0
 40
0.0
 40
0.0
 40
0.0
 40
1.0
 40
1.0
 40
1.0
 40
2.0
 40
2.0
 40
2.0
 40
3.0
 40
3.0
 40
3.0
 40
4.0
 40
4.0
 40
4.0
 40
5.0
 40
5.0
 40
5.0
 40
5.0
 10
3045.031448499
 20
67.8011347862
 30
0.0
 10
3045.031448499
 20
67.8011347862
 30
0.0
 10
3047.3478051535
 20
64.9715733639
 30
0.0
 10
3047.3478051535
 20
64.9715733639
 30
0.0
 10
3046.6961581001
 20
64.3194028993
 30
0.0
 10
3045.9192848961
 20
63.5834866285
 30
0.0
 10
3044.9480952514
 20
63.5834866285
 30
0.0
 10
3043.949557367
 20
63.5834866285
 30
0.0
 10
3043.0062393734
 20
64.5130650758
 30
0.0
 10
3043.0062393734
 20
65.5122572243
 30
0.0
 10
3043.0062393734
 20
66.5114493729
 30
0.0
 10
3044.1850924465
 20
67.2180546115
 30
0.0
 10
3044.9066149069
 20
67.7179123914
 30
0.0
 10
3044.9066149069
 20
67.7179123914
 30
0.0
 10
3045.031448499
 20
67.8011347862
 30
0.0
 10
3045.031448499
 20
67.8011347862
 30
0.0
  0
SPLINE
  5
24A
100
AcDbEntity
  8
0
100
AcDbSpline
 62
7
  6
CONTINUOUS
 70
2
 71
3
 72
23
 73
19
 74
0
 42
0.0000001
 43
0.0000001
 44
0.0000000001
 40
0.0
 40
0.0
 40
0.0
 40
0.0
 40
1.0
 40
1.0
 40
1.0
 40
2.0
 40
2.0
 40
2.0
 40
3.0
 40
3.0
 40
3.0
 40
4.0
 40
4.0
 40
4.0
 40
5.0
 40
5.0
 40
5.0
 40
6.0
 40
6.0
 40
6.0
 40
6.0
 10
3045.3088564816
 20
69.4388887059
 30
0.0
 10
3045.3088564816
 20
69.4388887059
 30
0.0
 10
3044.962358209
 20
69.8822180667
 30
0.0
 10
3044.962358209
 20
69.8822180667
 30
0.0
 10
3044.6565551641
 20
70.2703275367
 30
0.0
 10
3044.3376668369
 20
70.6588295651
 30
0.0
 10
3044.3376668369
 20
71.1857738792
 30
0.0
 10
3044.3376668369
 20
71.8519455958
 30
0.0
 10
3044.8790049614
 20
72.2956675151
 30
0.0
 10
3045.5029112166
 20
72.2956675151
 30
0.0
 10
3046.1966928786
 20
72.2956675151
 30
0.0
 10
3046.7238988983
 20
71.8934259404
 30
0.0
 10
3046.7238988983
 20
71.1584256394
 30
0.0
 10
3046.7238988983
 20
70.3951611289
 30
0.0
 10
3046.0026381437
 20
69.9650479031
 30
0.0
 10
3045.4755629768
 20
69.5493284877
 30
0.0
 10
3045.4755629768
 20
69.5493284877
 30
0.0
 10
3045.3088564816
 20
69.4388887059
 30
0.0
 10
3045.3088564816
 20
69.4388887059
 30
0.0
  0
SPLINE
  5
24B
100
AcDbEntity
  8
0
100
AcDbSpline
 62
7
  6
CONTINUOUS
 70
2
 71
3
 72
50
 73
46
 74
0
 42
0.0000001
 43
0.0000001
 44
0.0000000001
 40
0.0
 40
0.0
 40
0.0
 40
0.0
 40
1.0
 40
1.0
 40
1.0
 40
2.0
 40
2.0
 40
2.0
 40
3.0
 40
3.0
 40
3.0
 40
4.0
 40
4.0
 40
4.0
 40
5.0
 40
5.0
 40
5.0
 40
6.0
 40
6.0
 40
6.0
 40
7.0
 40
7.0
 40
7.0
 40
8.0
 40
8.0
 40
8.0
 40
9.0
 40
9.0
 40
9.0
 40
10.0
 40
10.0
 40
10.0
 40
11.0
 40
11.0
 40
11.0
 40
12.0
 40
12.0
 40
12.0
 40
13.0
 40
13.0
 40
13.0
 40
14.0
 40
14.0
 40
14.0
 40
15.0
 40
15.0
 40
15.0
 40
15.0
 10
3049.2624436445
 20
62.6402994878
 30
0.0
 10
3049.2624436445
 20
62.6402994878
 30
0.0
 10
3050.8716716491
 20
62.6402994878
 30
0.0
 10
3050.8716716491
 20
62.6402994878
 30
0.0
 10
3050.8716716491
 20
62.6402994878
 30
0.0
 10
3048.9986443554
 20
64.9574412592
 30
0.0
 10
3048.9986443554
 20
64.9574412592
 30
0.0
 10
3048.9986443554
 20
64.9574412592
 30
0.0
 10
3050.2749827809
 20
66.4549209538
 30
0.0
 10
3050.2749827809
 20
66.4549209538
 30
0.0
 10
3050.2749827809
 20
66.4549209538
 30
0.0
 10
3049.4427588332
 20
67.3159325223
 30
0.0
 10
3049.4427588332
 20
67.3159325223
 30
0.0
 10
3049.4427588332
 20
67.3159325223
 30
0.0
 10
3048.2221637099
 20
65.9006283999
 30
0.0
 10
3048.2221637099
 20
65.9006283999
 30
0.0
 10
3048.2221637099
 20
65.9006283999
 30
0.0
 10
3046.044249341
 20
68.5360042343
 30
0.0
 10
3046.044249341
 20
68.5360042343
 30
0.0
 10
3046.9178227805
 20
69.1740425943
 30
0.0
 10
3047.9444940217
 20
69.9650479031
 30
0.0
 10
3047.9444940217
 20
71.1439009762
 30
0.0
 10
3047.9444940217
 20
72.5175939012
 30
0.0
 10
3046.8065978818
 20
73.3220770506
 30
0.0
 10
3045.5313062789
 20
73.3220770506
 30
0.0
 10
3044.1578750596
 20
73.3220770506
 30
0.0
 10
3043.1169408608
 20
72.475851851
 30
0.0
 10
3043.1169408608
 20
71.0331994888
 30
0.0
 10
3043.1169408608
 20
70.1456247974
 30
0.0
 10
3043.6722802372
 20
69.3687515933
 30
0.0
 10
3044.2684456941
 20
68.7443219269
 30
0.0
 10
3044.2684456941
 20
68.7443219269
 30
0.0
 10
3043.6165369351
 20
68.2727283565
 30
0.0
 10
3043.6165369351
 20
68.2727283565
 30
0.0
 10
3042.6179990506
 20
67.5514676019
 30
0.0
 10
3041.7851208388
 20
66.8302068472
 30
0.0
 10
3041.7851208388
 20
65.4986485308
 30
0.0
 10
3041.7851208388
 20
63.6949732328
 30
0.0
 10
3043.2421670114
 20
62.4183731017
 30
0.0
 10
3044.9897064488
 20
62.4183731017
 30
0.0
 10
3046.2245645297
 20
62.4183731017
 30
0.0
 10
3047.3339347544
 20
63.1265485742
 30
0.0
 10
3048.1248092103
 20
64.0550801989
 30
0.0
 10
3048.1248092103
 20
64.0550801989
 30
0.0
 10
3049.2624436445
 20
62.6402994878
 30
0.0
 10
3049.2624436445
 20
62.6402994878
 30
0.0
  0
LINE
  5
24C
100
AcDbEntity
  8
0
100
AcDbLine
 62
7
  6
CONTINUOUS
 10
3035.0653050195
 20
60.6141743924
 11
3057.4792157471
 21
60.6141743924
  0
LINE
  5
24D
100
AcDbEntity
  8
0
100
AcDbLine
 62
7
  6
CONTINUOUS
 10
3057.4792157471
 20
60.6141743924
 11
3057.4792157471
 21
83.0280851201
  0
LINE
  5
24E
100
AcDbEntity
  8
0
100
AcDbLine
 62
7
  6
CONTINUOUS
 10
3057.4792157471
 20
83.0280851201
 11
3035.0653050195
 21
83.0280851201
  0
LINE
  5
24F
100
AcDbEntity
  8
0
100
AcDbLine
 62
7
  6
CONTINUOUS
 10
3035.0653050195
 20
83.0280851201
 11
3035.0653050195
 21
60.6141743924
  0
ENDBLK
  5
250
100
AcDbEntity
  8
0
  6
BYBLOCK
 62
0
100
AcDbBlockEnd
  0
BLOCK
  5
251
100
AcDbEntity
  8
0
100
AcDbBlockBegin
  2
_CLOSED
 70
64
 10
0.0
 20
0.0
  3
_CLOSED
  1

  0
LINE
  5
252
100
AcDbEntity
  8
0
  6
BYBLOCK
 62
0
100
AcDbLine
 10
0.0
 20
0.0
 11
-1.0
 21
0.2
  0
LINE
  5
253
100
AcDbEntity
  8
0
  6
BYBLOCK
 62
0
100
AcDbLine
 10
-1.0
 20
0.2
 11
-1.0
 21
-0.2
  0
LINE
  5
254
100
AcDbEntity
  8
0
  6
BYBLOCK
 62
0
100
AcDbLine
 10
-1.0
 20
-0.2
 11
0.0
 21
0.0
  0
LINE
  5
255
100
AcDbEntity
  8
0
  6
BYBLOCK
 62
0
100
AcDbLine
 10
-1.0
 20
0.0
 11
0.0
 21
0.0
  0
ENDBLK
  5
256
100
AcDbEntity
  8
0
  6
BYBLOCK
 62
0
100
AcDbBlockEnd
  0
BLOCK
  5
257
100
AcDbEntity
  8
0
100
AcDbBlockBegin
 62
7
  6
CONTINUOUS
  2
*D0
 70
65
 10
0.0
 20
0.0
  3
*D0
  1

  0
MTEXT
  5
258
100
AcDbEntity
  8
0
100
AcDbMText
 62
7
  6
CONTINUOUS
  7
STANDARD
 71
2
 72
1
 10
461.1434765188
 20
456.9500856247
 30
0.0
 11
0.0
 21
1.0
 31
0.0
  1
79,8
 40
10.0
 41
27.1747211896
  0
LINE
  5
259
100
AcDbEntity
  8
0
100
AcDbLine
 62
7
  6
CONTINUOUS
 10
538.8205012701
 20
417.0500856247
 11
472.8934765188
 21
417.0500856247
  0
LINE
  5
25A
100
AcDbEntity
  8
0
100
AcDbLine
 62
7
  6
CONTINUOUS
 10
542.4580274957
 20
496.8500856247
 11
472.8934765188
 21
496.8500856247
  0
LINE
  5
25B
100
AcDbEntity
  8
0
100
AcDbLine
 62
7
  6
CONTINUOUS
 10
473.6434765188
 20
417.0500856247
 11
473.6434765188
 21
456.9500856247
  0
LINE
  5
25C
100
AcDbEntity
  8
0
100
AcDbLine
 62
7
  6
CONTINUOUS
 10
473.6434765188
 20
496.8500856247
 11
473.6434765188
 21
456.9500856247
  0
INSERT
  5
25D
100
AcDbEntity
  8
0
100
AcDbBlockReference
 62
7
  6
CONTINUOUS
  2
_CLOSED
 10
473.6434765188
 20
417.0500856247
 41
2.5
 42
2.5
 43
2.5
 50
270.0
  0
INSERT
  5
25E
100
AcDbEntity
  8
0
100
AcDbBlockReference
 62
7
  6
CONTINUOUS
  2
_CLOSED
 10
473.6434765188
 20
496.8500856247
 41
2.5
 42
2.5
 43
2.5
 50
90.0
  0
ENDBLK
  5
25F
100
AcDbEntity
  8
0
  6
BYBLOCK
 62
0
100
AcDbBlockEnd
  0
BLOCK
  5
260
100
AcDbEntity
  8
0
100
AcDbBlockBegin
 62
7
  6
CONTINUOUS
  2
*D1
 70
65
 10
0.0
 20
0.0
  3
*D1
  1

  0
MTEXT
  5
261
100
AcDbEntity
  8
0
100
AcDbMText
 62
7
  6
CONTINUOUS
  7
STANDARD
 71
2
 72
1
 10
577.5202075434
 20
385.5153001638
 30
0.0
 11
1.0
 21
0.0
 31
0.0
  1
42,4
 40
10.0
 41
27.1747211896
  0
LINE
  5
262
100
AcDbEntity
  8
0
100
AcDbLine
 62
7
  6
CONTINUOUS
 10
556.3202075434
 20
409.2377167528
 11
556.3202075434
 21
372.2653001638
  0
LINE
  5
263
100
AcDbEntity
  8
0
100
AcDbLine
 62
7
  6
CONTINUOUS
 10
598.7202075434
 20
408.0691148794
 11
598.7202075434
 21
372.2653001638
  0
LINE
  5
264
100
AcDbEntity
  8
0
100
AcDbLine
 62
7
  6
CONTINUOUS
 10
556.3202075434
 20
373.0153001638
 11
577.5202075434
 21
373.0153001638
  0
LINE
  5
265
100
AcDbEntity
  8
0
100
AcDbLine
 62
7
  6
CONTINUOUS
 10
598.7202075434
 20
373.0153001638
 11
577.5202075434
 21
373.0153001638
  0
INSERT
  5
266
100
AcDbEntity
  8
0
100
AcDbBlockReference
 62
7
  6
CONTINUOUS
  2
_CLOSED
 10
556.3202075434
 20
373.0153001638
 41
2.5
 42
2.5
 43
2.5
 50
180.0
  0
INSERT
  5
267
100
AcDbEntity
  8
0
100
AcDbBlockReference
 62
7
  6
CONTINUOUS
  2
_CLOSED
 10
598.7202075434
 20
373.0153001638
 41
2.5
 42
2.5
 43
2.5
  0
ENDBLK
  5
268
100
AcDbEntity
  8
0
  6
BYBLOCK
 62
0
100
AcDbBlockEnd
  0
BLOCK
  5
269
100
AcDbEntity
  8
0
100
AcDbBlockBegin
 62
7
  6
CONTINUOUS
  2
*D2
 70
65
 10
0.0
 20
0.0
  3
*D2
  1

  0
MTEXT
  5
26A
100
AcDbEntity
  8
0
100
AcDbMText
 62
7
  6
CONTINUOUS
  7
STANDARD
 71
2
 72
1
 10
577.5202075434
 20
352.9161113119
 30
0.0
 11
1.0
 21
0.0
 31
0.0
  1
82,1
 40
10.0
 41
27.1747211896
  0
LINE
  5
26B
100
AcDbEntity
  8
0
100
AcDbLine
 62
7
  6
CONTINUOUS
 10
536.4702075434
 20
397.3479463779
 11
536.4702075434
 21
339.6661113119
  0
LINE
  5
26C
100
AcDbEntity
  8
0
100
AcDbLine
 62
7
  6
CONTINUOUS
 10
618.5702075434
 20
397.3479463779
 11
618.5702075434
 21
339.6661113119
  0
LINE
  5
26D
100
AcDbEntity
  8
0
100
AcDbLine
 62
7
  6
CONTINUOUS
 10
536.4702075434
 20
340.4161113119
 11
577.5202075434
 21
340.4161113119
  0
LINE
  5
26E
100
AcDbEntity
  8
0
100
AcDbLine
 62
7
  6
CONTINUOUS
 10
618.5702075434
 20
340.4161113119
 11
577.5202075434
 21
340.4161113119
  0
INSERT
  5
26F
100
AcDbEntity
  8
0
100
AcDbBlockReference
 62
7
  6
CONTINUOUS
  2
_CLOSED
 10
536.4702075434
 20
340.4161113119
 41
2.5
 42
2.5
 43
2.5
 50
180.0
  0
INSERT
  5
270
100
AcDbEntity
  8
0
100
AcDbBlockReference
 62
7
  6
CONTINUOUS
  2
_CLOSED
 10
618.5702075434
 20
340.4161113119
 41
2.5
 42
2.5
 43
2.5
  0
ENDBLK
  5
271
100
AcDbEntity
  8
0
  6
BYBLOCK
 62
0
100
AcDbBlockEnd
  0
BLOCK
  5
272
100
AcDbEntity
  8
0
100
AcDbBlockBegin
 62
7
  6
CONTINUOUS
  2
*D3
 70
65
 10
0.0
 20
0.0
  3
*D3
  1

  0
MTEXT
  5
273
100
AcDbEntity
  8
0
100
AcDbMText
 62
7
  6
CONTINUOUS
  7
STANDARD
 71
2
 72
1
 10
1731.7238082028
 20
352.9161113119
 30
0.0
 11
1.0
 21
0.0
 31
0.0
  1
1127
 40
10.0
 41
31.0780669145
  0
LINE
  5
274
100
AcDbEntity
  8
0
100
AcDbLine
 62
7
  6
CONTINUOUS
 10
1168.2238082028
 20
396.5426173358
 11
1168.2238082028
 21
339.6661113119
  0
LINE
  5
275
100
AcDbEntity
  8
0
100
AcDbLine
 62
7
  6
CONTINUOUS
 10
2295.2238082028
 20
397.3479463779
 11
2295.2238082028
 21
339.6661113119
  0
LINE
  5
276
100
AcDbEntity
  8
0
100
AcDbLine
 62
7
  6
CONTINUOUS
 10
1168.2238082028
 20
340.4161113119
 11
1731.7238082028
 21
340.4161113119
  0
LINE
  5
277
100
AcDbEntity
  8
0
100
AcDbLine
 62
7
  6
CONTINUOUS
 10
2295.2238082028
 20
340.4161113119
 11
1731.7238082028
 21
340.4161113119
  0
INSERT
  5
278
100
AcDbEntity
  8
0
100
AcDbBlockReference
 62
7
  6
CONTINUOUS
  2
_CLOSED
 10
1168.2238082028
 20
340.4161113119
 41
2.5
 42
2.5
 43
2.5
 50
180.0
  0
INSERT
  5
279
100
AcDbEntity
  8
0
100
AcDbBlockReference
 62
7
  6
CONTINUOUS
  2
_CLOSED
 10
2295.2238082028
 20
340.4161113119
 41
2.5
 42
2.5
 43
2.5
  0
ENDBLK
  5
27A
100
AcDbEntity
  8
0
  6
BYBLOCK
 62
0
100
AcDbBlockEnd
  0
ENDSEC
  0
SECTION
  2
ENTITIES
  0
DIMENSION
  5
27B
100
AcDbEntity
  8
0
100
AcDbDimension
 62
7
  6
CONTINUOUS
  2
*D0
 10
473.6434765188
 20
496.8500856247
 11
473.6434765188
 21
456.9370951908
 70
160
  3
DIMSTYLE_1
100
AcDbAlignedDimension
 13
539.5705012701
 23
417.0500856247
 14
543.2080274957
 24
496.8500856247
 50
90.0
100
AcDbRotatedDimension
  0
DIMENSION
  5
27C
100
AcDbEntity
  8
0
100
AcDbDimension
 62
7
  6
CONTINUOUS
  2
*D1
 10
598.7202075434
 20
373.0153001638
 11
577.2655761719
 21
373.0153001638
 70
160
  3
DIMSTYLE_1
100
AcDbAlignedDimension
 13
556.3202075434
 23
409.9877167528
 14
598.7202075434
 24
408.8191148794
100
AcDbRotatedDimension
  0
DIMENSION
  5
27D
100
AcDbEntity
  8
0
100
AcDbDimension
 62
7
  6
CONTINUOUS
  2
*D2
 10
618.5702075434
 20
340.4161113119
 11
576.503515625
 21
340.4161113119
 70
160
  3
DIMSTYLE_1
100
AcDbAlignedDimension
 13
536.4702075434
 23
398.0979463779
 14
618.5702075434
 24
398.0979463779
100
AcDbRotatedDimension
  0
DIMENSION
  5
27E
100
AcDbEntity
  8
0
100
AcDbDimension
 62
7
  6
CONTINUOUS
  2
*D3
 10
2295.2238082028
 20
340.4161113119
 11
1732.1452148438
 21
340.4161113119
 70
160
  3
DIMSTYLE_2
100
AcDbAlignedDimension
 13
1168.2238082028
 23
397.2926173358
 14
2295.2238082028
 24
398.0979463779
100
AcDbRotatedDimension
  0
LINE
  5
27F
100
AcDbEntity
  8
0
100
AcDbLine
 62
2
  6
CONTINUOUS
 10
3032.4461479121
 20
83.4043976201
 11
3122.4461479121
 21
83.4043976201
  0
LINE
  5
280
100
AcDbEntity
  8
0
100
AcDbLine
 62
2
  6
CONTINUOUS
 10
3032.4461479121
 20
83.4043976201
 11
3032.4461479121
 21
43.4043976201
  0
LINE
  5
281
100
AcDbEntity
  8
0
100
AcDbLine
 62
2
  6
CONTINUOUS
 10
3062.4461479121
 20
77.4043976201
 11
3122.4461479121
 21
77.4043976201
  0
LINE
  5
282
100
AcDbEntity
  8
0
100
AcDbLine
 62
2
  6
CONTINUOUS
 10
3062.4461479121
 20
71.4043976201
 11
3122.4461479121
 21
71.4043976201
  0
LINE
  5
283
100
AcDbEntity
  8
0
100
AcDbLine
 62
2
  6
CONTINUOUS
 10
3062.4461479121
 20
61.4043976201
 11
3122.4461479121
 21
61.4043976201
  0
LINE
  5
284
100
AcDbEntity
  8
0
100
AcDbLine
 62
2
  6
CONTINUOUS
 10
3032.4461479121
 20
56.4043976201
 11
3122.4461479121
 21
56.4043976201
  0
LINE
  5
285
100
AcDbEntity
  8
0
100
AcDbLine
 62
2
  6
CONTINUOUS
 10
3032.4461479121
 20
43.4043976201
 11
3122.4461479121
 21
43.4043976201
  0
LINE
  5
286
100
AcDbEntity
  8
0
100
AcDbLine
 62
2
  6
CONTINUOUS
 10
3062.4461479121
 20
83.4043976201
 11
3062.4461479121
 21
56.4043976201
  0
LINE
  5
287
100
AcDbEntity
  8
0
100
AcDbLine
 62
2
  6
CONTINUOUS
 10
3102.4461479121
 20
83.4043976201
 11
3102.4461479121
 21
71.4043976201
  0
LINE
  5
288
100
AcDbEntity
  8
0
100
AcDbLine
 62
2
  6
CONTINUOUS
 10
3122.4461479121
 20
83.4043976201
 11
3122.4461479121
 21
43.4043976201
  0
INSERT
  5
289
100
AcDbEntity
  8
0
100
AcDbBlockReference
 62
2
  6
CONTINUOUS
  2
LOGO2_BL0
 10
3046.2721949569
 20
69.9043976201
  0
MTEXT
  5
28A
100
AcDbEntity
  8
9_SOLID
100
AcDbMText
 62
2
  6
CONTINUOUS
  7
TEXTSTYLE_2
 71
1
 72
1
 10
3063.9336479121
 20
81.9043976201
 30
0.0
 11
1.0
 21
0.0
 31
0.0
  1
6F3_C_042
 40
3.0
 41
32.25
  0
MTEXT
  5
28B
100
AcDbEntity
  8
0
100
AcDbMText
 62
2
  6
CONTINUOUS
  7
TEXTSTYLE_2
 71
1
 72
1
 10
3103.9336479121
 20
81.6543976201
 30
0.0
 11
1.0
 21
0.0
 31
0.0
  1
Rev:00
 40
3.5
 41
22.75
  0
MTEXT
  5
28C
100
AcDbEntity
  8
9_SOLID
100
AcDbMText
 62
2
  6
CONTINUOUS
  7
TEXTSTYLE_2
 71
1
 72
1
 10
3063.9336479121
 20
75.6543976201
 30
0.0
 11
1.0
 21
0.0
 31
0.0
  1
Scale:1:1
 40
3.5
 41
28.375
  0
MTEXT
  5
28D
100
AcDbEntity
  8
9_SOLID
100
AcDbMText
 62
2
  6
CONTINUOUS
  7
TEXTSTYLE_2
 71
1
 72
1
 10
3103.9336479121
 20
76.1543976201
 30
0.0
 11
1.0
 21
0.0
 31
0.0
  1
3200 by 2500
 40
3.5
 41
48.5
  0
MTEXT
  5
28E
100
AcDbEntity
  8
0
100
AcDbMText
 62
2
  6
CONTINUOUS
  7
TEXTSTYLE_2
 71
1
 72
1
 10
3063.9336479121
 20
68.0043976201
 30
0.0
 11
1.0
 21
0.0
 31
0.0
  1
CASS. BRENTA 1.3 A FILO
 40
3.2
 41
83.7714285714
  0
MTEXT
  5
28F
100
AcDbEntity
  8
0
100
AcDbMText
 62
2
  6
CONTINUOUS
  7
TEXTSTYLE_2
 71
1
 72
1
 10
3063.9336479121
 20
60.1543976201
 30
0.0
 11
1.0
 21
0.0
 31
0.0
  1
DATE: 08/05/18
 40
2.5
 41
39.8214285714
  0
MTEXT
  5
290
100
AcDbEntity
  8
9_SOLID
100
AcDbMText
 62
2
  6
CONTINUOUS
  7
TEXTSTYLE_2
 71
1
 72
1
 10
3033.9336479121
 20
56.0918976201
 30
0.0
 11
1.0
 21
0.0
 31
0.0
  1
Any integral or partial reproductions are prohibited \Pwithout prior authorisation of L {\Ftxt.shx;\W0.190476;\H2.250000; }& L Luce & Light s.r.l., \Pin accordance with the law in force. \PAll rights reserved.
 40
2.25
 41
134.5982142857
  0
LINE
  5
291
100
AcDbEntity
  8
0
100
AcDbLine
 62
7
  6
CONTINUOUS
 10
0.0
 20
0.0
 11
0.0
 21
2500.0
  0
LINE
  5
292
100
AcDbEntity
  8
0
100
AcDbLine
 62
7
  6
CONTINUOUS
 10
0.0
 20
0.0
 11
3200.0
 21
0.0
  0
LINE
  5
293
100
AcDbEntity
  8
0
100
AcDbLine
 62
7
  6
CONTINUOUS
 10
0.0
 20
2500.0
 11
3200.0
 21
2500.0
  0
LINE
  5
294
100
AcDbEntity
  8
0
100
AcDbLine
 62
7
  6
CONTINUOUS
 10
3200.0
 20
0.0
 11
3200.0
 21
2500.0
  0
LINE
  5
295
100
AcDbEntity
  8
6_ALL_SURFS
100
AcDbLine
 62
7
  6
CONTINUOUS
 10
539.1702075434
 20
419.7000856247
 11
539.4702075434
 21
419.5500856247
  0
LINE
  5
296
100
AcDbEntity
  8
6_ALL_SURFS
100
AcDbLine
 62
7
  6
CONTINUOUS
 10
542.1702075434
 20
419.7000856247
 11
542.4702075434
 21
419.5500856247
  0
LINE
  5
297
100
AcDbEntity
  8
6_ALL_SURFS
100
AcDbLine
 62
7
  6
CONTINUOUS
 10
545.1702075434
 20
419.7000856247
 11
545.4702075434
 21
419.5500856247
  0
LINE
  5
298
100
AcDbEntity
  8
6_ALL_SURFS
100
AcDbLine
 62
7
  6
CONTINUOUS
 10
548.1702075434
 20
419.7000856247
 11
548.4702075434
 21
419.5500856247
  0
LINE
  5
299
100
AcDbEntity
  8
7_ALL_FEATURES
100
AcDbLine
 62
7
  6
CONTINUOUS
 10
616.0702075434
 20
418.5500856247
 11
618.2156791338
 21
418.7646327838
  0
LINE
  5
29A
100
AcDbEntity
  8
6_ALL_SURFS
100
AcDbLine
 62
7
  6
CONTINUOUS
 10
538.9702075434
 20
418.5500856247
 11
536.824735953
 21
418.7646327838
  0
LINE
  5
29B
100
AcDbEntity
  8
6_ALL_SURFS
100
AcDbLine
 62
7
  6
CONTINUOUS
 10
551.1702075434
 20
419.7000856247
 11
551.4702075434
 21
419.5500856247
  0
LINE
  5
29C
100
AcDbEntity
  8
6_ALL_SURFS
100
AcDbLine
 62
7
  6
CONTINUOUS
 10
554.1702075434
 20
419.7000856247
 11
554.4702075434
 21
419.5500856247
  0
LINE
  5
29D
100
AcDbEntity
  8
7_ALL_FEATURES
100
AcDbLine
 62
7
  6
CONTINUOUS
 10
557.0702075434
 20
417.0500856247
 11
597.9702075434
 21
417.0500856247
  0
LINE
  5
29E
100
AcDbEntity
  8
6_ALL_SURFS
100
AcDbLine
 62
7
  6
CONTINUOUS
 10
556.3202075434
 20
418.5500856247
 11
554.4702075434
 21
418.5500856247
  0
LINE
  5
29F
100
AcDbEntity
  8
6_ALL_SURFS
100
AcDbLine
 62
7
  6
CONTINUOUS
 10
553.8702075434
 20
418.5500856247
 11
551.4702075434
 21
418.5500856247
  0
LINE
  5
2A0
100
AcDbEntity
  8
6_ALL_SURFS
100
AcDbLine
 62
7
  6
CONTINUOUS
 10
550.8702075434
 20
418.5500856247
 11
548.4702075434
 21
418.5500856247
  0
LINE
  5
2A1
100
AcDbEntity
  8
6_ALL_SURFS
100
AcDbLine
 62
7
  6
CONTINUOUS
 10
547.8702075434
 20
418.5500856247
 11
545.4702075434
 21
418.5500856247
  0
LINE
  5
2A2
100
AcDbEntity
  8
6_ALL_SURFS
100
AcDbLine
 62
7
  6
CONTINUOUS
 10
544.8702075434
 20
418.5500856247
 11
542.4702075434
 21
418.5500856247
  0
LINE
  5
2A3
100
AcDbEntity
  8
6_ALL_SURFS
100
AcDbLine
 62
7
  6
CONTINUOUS
 10
541.8702075434
 20
418.5500856247
 11
538.9702075434
 21
418.5500856247
  0
LINE
  5
2A4
100
AcDbEntity
  8
3_ALL_AXES
100
AcDbLine
 62
7
  6
CONTINUOUS
 10
601.1702075434
 20
418.5500856247
 11
603.5702075434
 21
418.5500856247
  0
LINE
  5
2A5
100
AcDbEntity
  8
7_ALL_FEATURES
100
AcDbLine
 62
7
  6
CONTINUOUS
 10
598.7202075434
 20
418.5500856247
 11
600.5702075434
 21
418.5500856247
  0
LINE
  5
2A6
100
AcDbEntity
  8
3_ALL_AXES
100
AcDbLine
 62
7
  6
CONTINUOUS
 10
604.1702075434
 20
418.5500856247
 11
606.5702075434
 21
418.5500856247
  0
LINE
  5
2A7
100
AcDbEntity
  8
3_ALL_AXES
100
AcDbLine
 62
7
  6
CONTINUOUS
 10
607.1702075434
 20
418.5500856247
 11
609.5702075434
 21
418.5500856247
  0
LINE
  5
2A8
100
AcDbEntity
  8
3_ALL_AXES
100
AcDbLine
 62
7
  6
CONTINUOUS
 10
610.1702075434
 20
418.5500856247
 11
612.5702075434
 21
418.5500856247
  0
LINE
  5
2A9
100
AcDbEntity
  8
3_ALL_AXES
100
AcDbLine
 62
7
  6
CONTINUOUS
 10
613.1702075434
 20
418.5500856247
 11
616.0702075434
 21
418.5500856247
  0
LINE
  5
2AA
100
AcDbEntity
  8
7_ALL_FEATURES
100
AcDbLine
 62
7
  6
CONTINUOUS
 10
618.1765041855
 20
419.5500856247
 11
616.1702075434
 21
419.5500856247
  0
LINE
  5
2AB
100
AcDbEntity
  8
3_ALL_AXES
100
AcDbLine
 62
7
  6
CONTINUOUS
 10
615.5702075434
 20
419.5500856247
 11
613.1702075434
 21
419.5500856247
  0
LINE
  5
2AC
100
AcDbEntity
  8
3_ALL_AXES
100
AcDbLine
 62
7
  6
CONTINUOUS
 10
612.5702075434
 20
419.5500856247
 11
610.1702075434
 21
419.5500856247
  0
LINE
  5
2AD
100
AcDbEntity
  8
3_ALL_AXES
100
AcDbLine
 62
7
  6
CONTINUOUS
 10
609.5702075434
 20
419.5500856247
 11
607.1702075434
 21
419.5500856247
  0
LINE
  5
2AE
100
AcDbEntity
  8
3_ALL_AXES
100
AcDbLine
 62
7
  6
CONTINUOUS
 10
606.5702075434
 20
419.5500856247
 11
604.1702075434
 21
419.5500856247
  0
LINE
  5
2AF
100
AcDbEntity
  8
7_ALL_FEATURES
100
AcDbLine
 62
7
  6
CONTINUOUS
 10
600.5702075434
 20
419.5500856247
 11
598.8702075434
 21
419.5500856247
  0
LINE
  5
2B0
100
AcDbEntity
  8
3_ALL_AXES
100
AcDbLine
 62
7
  6
CONTINUOUS
 10
603.5702075434
 20
419.5500856247
 11
601.1702075434
 21
419.5500856247
  0
LINE
  5
2B1
100
AcDbEntity
  8
6_ALL_SURFS
100
AcDbLine
 62
7
  6
CONTINUOUS
 10
536.8639109013
 20
419.5500856247
 11
538.8702075434
 21
419.5500856247
  0
LINE
  5
2B2
100
AcDbEntity
  8
6_ALL_SURFS
100
AcDbLine
 62
7
  6
CONTINUOUS
 10
539.4702075434
 20
419.5500856247
 11
541.8702075434
 21
419.5500856247
  0
LINE
  5
2B3
100
AcDbEntity
  8
6_ALL_SURFS
100
AcDbLine
 62
7
  6
CONTINUOUS
 10
542.4702075434
 20
419.5500856247
 11
544.8702075434
 21
419.5500856247
  0
LINE
  5
2B4
100
AcDbEntity
  8
6_ALL_SURFS
100
AcDbLine
 62
7
  6
CONTINUOUS
 10
545.4702075434
 20
419.5500856247
 11
547.8702075434
 21
419.5500856247
  0
LINE
  5
2B5
100
AcDbEntity
  8
6_ALL_SURFS
100
AcDbLine
 62
7
  6
CONTINUOUS
 10
548.4702075434
 20
419.5500856247
 11
550.8702075434
 21
419.5500856247
  0
LINE
  5
2B6
100
AcDbEntity
  8
6_ALL_SURFS
100
AcDbLine
 62
7
  6
CONTINUOUS
 10
551.4702075434
 20
419.5500856247
 11
553.8702075434
 21
419.5500856247
  0
LINE
  5
2B7
100
AcDbEntity
  8
6_ALL_SURFS
100
AcDbLine
 62
7
  6
CONTINUOUS
 10
554.4702075434
 20
419.5500856247
 11
556.1702075434
 21
419.5500856247
  0
LINE
  5
2B8
100
AcDbEntity
  8
7_ALL_FEATURES
100
AcDbLine
 62
7
  6
CONTINUOUS
 10
596.1952075434
 20
426.8000856247
 11
595.4452075434
 21
426.8000856247
  0
LINE
  5
2B9
100
AcDbEntity
  8
7_ALL_FEATURES
100
AcDbLine
 62
7
  6
CONTINUOUS
 10
559.5952075434
 20
426.8000856247
 11
558.8452075434
 21
426.8000856247
  0
LINE
  5
2BA
100
AcDbEntity
  8
7_ALL_FEATURES
100
AcDbLine
 62
7
  6
CONTINUOUS
 10
559.5952075434
 20
427.6750856247
 11
560.4702075434
 21
427.6750856247
  0
LINE
  5
2BB
100
AcDbEntity
  8
7_ALL_FEATURES
100
AcDbLine
 62
7
  6
CONTINUOUS
 10
557.9702075434
 20
427.6750856247
 11
558.8452075434
 21
427.6750856247
  0
LINE
  5
2BC
100
AcDbEntity
  8
7_ALL_FEATURES
100
AcDbLine
 62
7
  6
CONTINUOUS
 10
594.5702075434
 20
427.6750856247
 11
595.4452075434
 21
427.6750856247
  0
LINE
  5
2BD
100
AcDbEntity
  8
7_ALL_FEATURES
100
AcDbLine
 62
7
  6
CONTINUOUS
 10
596.1952075434
 20
427.6750856247
 11
597.0702075434
 21
427.6750856247
  0
LINE
  5
2BE
100
AcDbEntity
  8
7_ALL_FEATURES
100
AcDbLine
 62
7
  6
CONTINUOUS
 10
597.0702075434
 20
428.4250856247
 11
596.1952075434
 21
428.4250856247
  0
LINE
  5
2BF
100
AcDbEntity
  8
7_ALL_FEATURES
100
AcDbLine
 62
7
  6
CONTINUOUS
 10
595.4452075434
 20
428.4250856247
 11
594.5702075434
 21
428.4250856247
  0
LINE
  5
2C0
100
AcDbEntity
  8
7_ALL_FEATURES
100
AcDbLine
 62
7
  6
CONTINUOUS
 10
560.4702075434
 20
428.4250856247
 11
559.5952075434
 21
428.4250856247
  0
LINE
  5
2C1
100
AcDbEntity
  8
7_ALL_FEATURES
100
AcDbLine
 62
7
  6
CONTINUOUS
 10
558.8452075434
 20
428.4250856247
 11
557.9702075434
 21
428.4250856247
  0
LINE
  5
2C2
100
AcDbEntity
  8
7_ALL_FEATURES
100
AcDbLine
 62
7
  6
CONTINUOUS
 10
558.8452075434
 20
429.3000856247
 11
559.5952075434
 21
429.3000856247
  0
LINE
  5
2C3
100
AcDbEntity
  8
7_ALL_FEATURES
100
AcDbLine
 62
7
  6
CONTINUOUS
 10
595.4452075434
 20
429.3000856247
 11
596.1952075434
 21
429.3000856247
  0
LINE
  5
2C4
100
AcDbEntity
  8
7_ALL_FEATURES
100
AcDbLine
 62
7
  6
CONTINUOUS
 10
597.9702075434
 20
431.9500856247
 11
597.0202075434
 21
431.9500856247
  0
LINE
  5
2C5
100
AcDbEntity
  8
7_ALL_FEATURES
100
AcDbLine
 62
7
  6
CONTINUOUS
 10
557.0702075434
 20
431.9500856247
 11
558.0202075434
 21
431.9500856247
  0
LINE
  5
2C6
100
AcDbEntity
  8
3_ALL_AXES
100
AcDbLine
 62
7
  6
CONTINUOUS
 10
601.1702075434
 20
419.5500856247
 11
600.8702075434
 21
419.7000856247
  0
LINE
  5
2C7
100
AcDbEntity
  8
7_ALL_FEATURES
100
AcDbLine
 62
7
  6
CONTINUOUS
 10
556.3202075434
 20
431.2000856247
 11
556.3202075434
 21
417.8000856247
  0
LINE
  5
2C8
100
AcDbEntity
  8
7_ALL_FEATURES
100
AcDbLine
 62
7
  6
CONTINUOUS
 10
557.9702075434
 20
427.6750856247
 11
557.9702075434
 21
428.4250856247
  0
LINE
  5
2C9
100
AcDbEntity
  8
7_ALL_FEATURES
100
AcDbLine
 62
7
  6
CONTINUOUS
 10
558.8452075434
 20
429.3000856247
 11
558.8452075434
 21
428.4250856247
  0
LINE
  5
2CA
100
AcDbEntity
  8
7_ALL_FEATURES
100
AcDbLine
 62
7
  6
CONTINUOUS
 10
558.8452075434
 20
427.6750856247
 11
558.8452075434
 21
426.8000856247
  0
LINE
  5
2CB
100
AcDbEntity
  8
7_ALL_FEATURES
100
AcDbLine
 62
7
  6
CONTINUOUS
 10
559.5202075434
 20
476.5431886124
 11
561.5202075434
 21
485.5646056198
  0
LINE
  5
2CC
100
AcDbEntity
  8
3_ALL_AXES
100
AcDbLine
 62
7
  6
CONTINUOUS
 10
604.1702075434
 20
419.5500856247
 11
603.8702075434
 21
419.7000856247
  0
LINE
  5
2CD
100
AcDbEntity
  8
3_ALL_AXES
100
AcDbLine
 62
7
  6
CONTINUOUS
 10
607.1702075434
 20
419.5500856247
 11
606.8702075434
 21
419.7000856247
  0
LINE
  5
2CE
100
AcDbEntity
  8
3_ALL_AXES
100
AcDbLine
 62
7
  6
CONTINUOUS
 10
610.1702075434
 20
419.5500856247
 11
609.8702075434
 21
419.7000856247
  0
LINE
  5
2CF
100
AcDbEntity
  8
7_ALL_FEATURES
100
AcDbLine
 62
7
  6
CONTINUOUS
 10
559.5202075434
 20
433.4500856247
 11
559.5202075434
 21
476.5431886124
  0
LINE
  5
2D0
100
AcDbEntity
  8
7_ALL_FEATURES
100
AcDbLine
 62
7
  6
CONTINUOUS
 10
559.5952075434
 20
426.8000856247
 11
559.5952075434
 21
427.6750856247
  0
LINE
  5
2D1
100
AcDbEntity
  8
7_ALL_FEATURES
100
AcDbLine
 62
7
  6
CONTINUOUS
 10
559.5952075434
 20
428.4250856247
 11
559.5952075434
 21
429.3000856247
  0
LINE
  5
2D2
100
AcDbEntity
  8
7_ALL_FEATURES
100
AcDbLine
 62
7
  6
CONTINUOUS
 10
560.4702075434
 20
428.4250856247
 11
560.4702075434
 21
427.6750856247
  0
LINE
  5
2D3
100
AcDbEntity
  8
7_ALL_FEATURES
100
AcDbLine
 62
7
  6
CONTINUOUS
 10
561.5202075434
 20
496.1000856247
 11
561.5202075434
 21
485.5646056198
  0
LINE
  5
2D4
100
AcDbEntity
  8
6_ALL_SURFS
100
AcDbLine
 62
7
  6
CONTINUOUS
 10
561.5202075434
 20
496.1000856247
 11
561.5202075434
 21
496.5500856247
  0
LINE
  5
2D5
100
AcDbEntity
  8
3_ALL_AXES
100
AcDbLine
 62
7
  6
CONTINUOUS
 10
613.1702075434
 20
419.5500856247
 11
612.8702075434
 21
419.7000856247
  0
LINE
  5
2D6
100
AcDbEntity
  8
3_ALL_AXES
100
AcDbLine
 62
7
  6
CONTINUOUS
 10
616.1702075434
 20
419.5500856247
 11
615.8702075434
 21
419.7000856247
  0
LINE
  5
2D7
100
AcDbEntity
  8
7_ALL_FEATURES
100
AcDbLine
 62
7
  6
CONTINUOUS
 10
564.2702075434
 20
493.2750856247
 11
564.2702075434
 21
494.0250856247
  0
LINE
  5
2D8
100
AcDbEntity
  8
7_ALL_FEATURES
100
AcDbLine
 62
7
  6
CONTINUOUS
 10
565.1452075434
 20
494.9000856247
 11
565.1452075434
 21
494.0250856247
  0
LINE
  5
2D9
100
AcDbEntity
  8
7_ALL_FEATURES
100
AcDbLine
 62
7
  6
CONTINUOUS
 10
565.1452075434
 20
493.2750856247
 11
565.1452075434
 21
492.4000856247
  0
LINE
  5
2DA
100
AcDbEntity
  8
7_ALL_FEATURES
100
AcDbLine
 62
7
  6
CONTINUOUS
 10
565.8952075434
 20
492.4000856247
 11
565.8952075434
 21
493.2750856247
  0
LINE
  5
2DB
100
AcDbEntity
  8
7_ALL_FEATURES
100
AcDbLine
 62
7
  6
CONTINUOUS
 10
565.8952075434
 20
494.0250856247
 11
565.8952075434
 21
494.9000856247
  0
LINE
  5
2DC
100
AcDbEntity
  8
7_ALL_FEATURES
100
AcDbLine
 62
7
  6
CONTINUOUS
 10
566.7702075434
 20
494.0250856247
 11
566.7702075434
 21
493.2750856247
  0
LINE
  5
2DD
100
AcDbEntity
  8
7_ALL_FEATURES
100
AcDbLine
 62
7
  6
CONTINUOUS
 10
588.2702075434
 20
493.2750856247
 11
588.2702075434
 21
494.0250856247
  0
LINE
  5
2DE
100
AcDbEntity
  8
7_ALL_FEATURES
100
AcDbLine
 62
7
  6
CONTINUOUS
 10
589.1452075434
 20
494.9000856247
 11
589.1452075434
 21
494.0250856247
  0
LINE
  5
2DF
100
AcDbEntity
  8
7_ALL_FEATURES
100
AcDbLine
 62
7
  6
CONTINUOUS
 10
589.1452075434
 20
493.2750856247
 11
589.1452075434
 21
492.4000856247
  0
LINE
  5
2E0
100
AcDbEntity
  8
7_ALL_FEATURES
100
AcDbLine
 62
7
  6
CONTINUOUS
 10
589.8952075434
 20
492.4000856247
 11
589.8952075434
 21
493.2750856247
  0
LINE
  5
2E1
100
AcDbEntity
  8
7_ALL_FEATURES
100
AcDbLine
 62
7
  6
CONTINUOUS
 10
589.8952075434
 20
494.0250856247
 11
589.8952075434
 21
494.9000856247
  0
LINE
  5
2E2
100
AcDbEntity
  8
7_ALL_FEATURES
100
AcDbLine
 62
7
  6
CONTINUOUS
 10
590.7702075434
 20
494.0250856247
 11
590.7702075434
 21
493.2750856247
  0
LINE
  5
2E3
100
AcDbEntity
  8
7_ALL_FEATURES
100
AcDbLine
 62
7
  6
CONTINUOUS
 10
593.5202075434
 20
485.5646056198
 11
593.5202075434
 21
496.5500856247
  0
LINE
  5
2E4
100
AcDbEntity
  8
7_ALL_FEATURES
100
AcDbLine
 62
7
  6
CONTINUOUS
 10
594.5702075434
 20
427.6750856247
 11
594.5702075434
 21
428.4250856247
  0
LINE
  5
2E5
100
AcDbEntity
  8
7_ALL_FEATURES
100
AcDbLine
 62
7
  6
CONTINUOUS
 10
595.4452075434
 20
429.3000856247
 11
595.4452075434
 21
428.4250856247
  0
LINE
  5
2E6
100
AcDbEntity
  8
7_ALL_FEATURES
100
AcDbLine
 62
7
  6
CONTINUOUS
 10
595.4452075434
 20
427.6750856247
 11
595.4452075434
 21
426.8000856247
  0
LINE
  5
2E7
100
AcDbEntity
  8
7_ALL_FEATURES
100
AcDbLine
 62
7
  6
CONTINUOUS
 10
595.5202075434
 20
476.5431886124
 11
595.5202075434
 21
433.4500856247
  0
LINE
  5
2E8
100
AcDbEntity
  8
7_ALL_FEATURES
100
AcDbLine
 62
7
  6
CONTINUOUS
 10
596.1952075434
 20
426.8000856247
 11
596.1952075434
 21
427.6750856247
  0
LINE
  5
2E9
100
AcDbEntity
  8
7_ALL_FEATURES
100
AcDbLine
 62
7
  6
CONTINUOUS
 10
596.1952075434
 20
428.4250856247
 11
596.1952075434
 21
429.3000856247
  0
LINE
  5
2EA
100
AcDbEntity
  8
7_ALL_FEATURES
100
AcDbLine
 62
7
  6
CONTINUOUS
 10
597.0702075434
 20
428.4250856247
 11
597.0702075434
 21
427.6750856247
  0
LINE
  5
2EB
100
AcDbEntity
  8
6_ALL_SURFS
100
AcDbLine
 62
7
  6
CONTINUOUS
 10
538.8702075434
 20
419.5500856247
 11
539.1702075434
 21
419.7000856247
  0
LINE
  5
2EC
100
AcDbEntity
  8
6_ALL_SURFS
100
AcDbLine
 62
7
  6
CONTINUOUS
 10
541.8702075434
 20
419.5500856247
 11
542.1702075434
 21
419.7000856247
  0
LINE
  5
2ED
100
AcDbEntity
  8
6_ALL_SURFS
100
AcDbLine
 62
7
  6
CONTINUOUS
 10
544.8702075434
 20
419.5500856247
 11
545.1702075434
 21
419.7000856247
  0
LINE
  5
2EE
100
AcDbEntity
  8
7_ALL_FEATURES
100
AcDbLine
 62
7
  6
CONTINUOUS
 10
566.5379775786
 20
473.7250856247
 11
567.2892801661
 21
473.7250856247
  0
LINE
  5
2EF
100
AcDbEntity
  8
7_ALL_FEATURES
100
AcDbLine
 62
7
  6
CONTINUOUS
 10
587.7511349207
 20
473.7250856247
 11
588.5024375082
 21
473.7250856247
  0
LINE
  5
2F0
100
AcDbEntity
  8
7_ALL_FEATURES
100
AcDbLine
 62
7
  6
CONTINUOUS
 10
588.5024375082
 20
474.9750856247
 11
587.7511349207
 21
474.9750856247
  0
LINE
  5
2F1
100
AcDbEntity
  8
7_ALL_FEATURES
100
AcDbLine
 62
7
  6
CONTINUOUS
 10
567.2892801661
 20
474.9750856247
 11
566.5379775786
 21
474.9750856247
  0
LINE
  5
2F2
100
AcDbEntity
  8
7_ALL_FEATURES
100
AcDbLine
 62
7
  6
CONTINUOUS
 10
598.7202075434
 20
417.8000856247
 11
598.7202075434
 21
431.2000856247
  0
LINE
  5
2F3
100
AcDbEntity
  8
6_ALL_SURFS
100
AcDbLine
 62
7
  6
CONTINUOUS
 10
547.8702075434
 20
419.5500856247
 11
548.1702075434
 21
419.7000856247
  0
LINE
  5
2F4
100
AcDbEntity
  8
6_ALL_SURFS
100
AcDbLine
 62
7
  6
CONTINUOUS
 10
550.8702075434
 20
419.5500856247
 11
551.1702075434
 21
419.7000856247
  0
LINE
  5
2F5
100
AcDbEntity
  8
6_ALL_SURFS
100
AcDbLine
 62
7
  6
CONTINUOUS
 10
553.8702075434
 20
419.5500856247
 11
554.1702075434
 21
419.7000856247
  0
LINE
  5
2F6
100
AcDbEntity
  8
7_ALL_FEATURES
100
AcDbLine
 62
7
  6
CONTINUOUS
 10
593.5202075434
 20
485.5646056198
 11
595.5202075434
 21
476.5431886124
  0
LINE
  5
2F7
100
AcDbEntity
  8
7_ALL_FEATURES
100
AcDbLine
 62
7
  6
CONTINUOUS
 10
589.8952075434
 20
492.4000856247
 11
589.1452075434
 21
492.4000856247
  0
LINE
  5
2F8
100
AcDbEntity
  8
7_ALL_FEATURES
100
AcDbLine
 62
7
  6
CONTINUOUS
 10
565.8952075434
 20
492.4000856247
 11
565.1452075434
 21
492.4000856247
  0
LINE
  5
2F9
100
AcDbEntity
  8
7_ALL_FEATURES
100
AcDbLine
 62
7
  6
CONTINUOUS
 10
565.8952075434
 20
493.2750856247
 11
566.7702075434
 21
493.2750856247
  0
LINE
  5
2FA
100
AcDbEntity
  8
7_ALL_FEATURES
100
AcDbLine
 62
7
  6
CONTINUOUS
 10
564.2702075434
 20
493.2750856247
 11
565.1452075434
 21
493.2750856247
  0
LINE
  5
2FB
100
AcDbEntity
  8
7_ALL_FEATURES
100
AcDbLine
 62
7
  6
CONTINUOUS
 10
588.2702075434
 20
493.2750856247
 11
589.1452075434
 21
493.2750856247
  0
LINE
  5
2FC
100
AcDbEntity
  8
7_ALL_FEATURES
100
AcDbLine
 62
7
  6
CONTINUOUS
 10
589.8952075434
 20
493.2750856247
 11
590.7702075434
 21
493.2750856247
  0
LINE
  5
2FD
100
AcDbEntity
  8
7_ALL_FEATURES
100
AcDbLine
 62
7
  6
CONTINUOUS
 10
590.7702075434
 20
494.0250856247
 11
589.8952075434
 21
494.0250856247
  0
LINE
  5
2FE
100
AcDbEntity
  8
7_ALL_FEATURES
100
AcDbLine
 62
7
  6
CONTINUOUS
 10
589.1452075434
 20
494.0250856247
 11
588.2702075434
 21
494.0250856247
  0
LINE
  5
2FF
100
AcDbEntity
  8
7_ALL_FEATURES
100
AcDbLine
 62
7
  6
CONTINUOUS
 10
566.7702075434
 20
494.0250856247
 11
565.8952075434
 21
494.0250856247
  0
LINE
  5
300
100
AcDbEntity
  8
7_ALL_FEATURES
100
AcDbLine
 62
7
  6
CONTINUOUS
 10
565.1452075434
 20
494.0250856247
 11
564.2702075434
 21
494.0250856247
  0
LINE
  5
301
100
AcDbEntity
  8
7_ALL_FEATURES
100
AcDbLine
 62
7
  6
CONTINUOUS
 10
565.1452075434
 20
494.9000856247
 11
565.8952075434
 21
494.9000856247
  0
LINE
  5
302
100
AcDbEntity
  8
7_ALL_FEATURES
100
AcDbLine
 62
7
  6
CONTINUOUS
 10
589.1452075434
 20
494.9000856247
 11
589.8952075434
 21
494.9000856247
  0
LINE
  5
303
100
AcDbEntity
  8
7_ALL_FEATURES
100
AcDbLine
 62
7
  6
CONTINUOUS
 10
593.2202075434
 20
496.8500856247
 11
580.1659588544
 21
496.8500856247
  0
LINE
  5
304
100
AcDbEntity
  8
7_ALL_FEATURES
100
AcDbLine
 62
7
  6
CONTINUOUS
 10
574.8744562323
 20
496.8500856247
 11
562.2702075434
 21
496.8500856247
  0
LINE
  5
305
100
AcDbEntity
  8
6_ALL_SURFS
100
AcDbLine
 62
7
  6
CONTINUOUS
 10
561.8202075434
 20
496.8500856247
 11
562.2702075434
 21
496.8500856247
  0
LINE
  5
306
100
AcDbEntity
  8
7_ALL_FEATURES
100
AcDbLine
 62
7
  6
CONTINUOUS
 10
575.7202075434
 20
496.8500856247
 11
579.3202075434
 21
496.8500856247
  0
LINE
  5
307
100
AcDbEntity
  8
3_ALL_AXES
100
AcDbLine
 62
7
  6
CONTINUOUS
 10
600.8702075434
 20
419.7000856247
 11
600.5702075434
 21
419.5500856247
  0
LINE
  5
308
100
AcDbEntity
  8
3_ALL_AXES
100
AcDbLine
 62
7
  6
CONTINUOUS
 10
603.8702075434
 20
419.7000856247
 11
603.5702075434
 21
419.5500856247
  0
LINE
  5
309
100
AcDbEntity
  8
3_ALL_AXES
100
AcDbLine
 62
7
  6
CONTINUOUS
 10
606.8702075434
 20
419.7000856247
 11
606.5702075434
 21
419.5500856247
  0
LINE
  5
30A
100
AcDbEntity
  8
3_ALL_AXES
100
AcDbLine
 62
7
  6
CONTINUOUS
 10
609.8702075434
 20
419.7000856247
 11
609.5702075434
 21
419.5500856247
  0
LINE
  5
30B
100
AcDbEntity
  8
3_ALL_AXES
100
AcDbLine
 62
7
  6
CONTINUOUS
 10
612.8702075434
 20
419.7000856247
 11
612.5702075434
 21
419.5500856247
  0
LINE
  5
30C
100
AcDbEntity
  8
3_ALL_AXES
100
AcDbLine
 62
7
  6
CONTINUOUS
 10
615.8702075434
 20
419.7000856247
 11
615.5702075434
 21
419.5500856247
  0
LINE
  5
30D
100
AcDbEntity
  8
3_ALL_AXES
100
AcDbLine
 62
7
  6
CONTINUOUS
 10
1167.2238082028
 20
425.3001336909
 11
1167.2238082028
 21
430.8000375585
  0
LINE
  5
30E
100
AcDbEntity
  8
3_ALL_AXES
100
AcDbLine
 62
7
  6
CONTINUOUS
 10
1167.2238082028
 20
490.9001336909
 11
1167.2238082028
 21
496.4000375585
  0
LINE
  5
30F
100
AcDbEntity
  8
3_ALL_AXES
100
AcDbLine
 62
7
  6
CONTINUOUS
 10
1167.3745285324
 20
425.3000856247
 11
1167.3745285324
 21
430.8000856247
  0
LINE
  5
310
100
AcDbEntity
  8
3_ALL_AXES
100
AcDbLine
 62
7
  6
CONTINUOUS
 10
1167.3745285324
 20
490.9000856247
 11
1167.3745285324
 21
496.4000856247
  0
LINE
  5
311
100
AcDbEntity
  8
7_ALL_FEATURES
100
AcDbLine
 62
7
  6
CONTINUOUS
 10
1168.2238082028
 20
417.0500856247
 11
1168.2238082028
 21
496.8500856247
  0
LINE
  5
312
100
AcDbEntity
  8
6_ALL_SURFS
100
AcDbLine
 62
7
  6
CONTINUOUS
 10
1169.7238082028
 20
417.0619545368
 11
1169.7238082028
 21
417.0500856247
  0
LINE
  5
313
100
AcDbEntity
  8
7_ALL_FEATURES
100
AcDbLine
 62
7
  6
CONTINUOUS
 10
1169.7238082028
 20
417.0619545368
 11
1169.7238082028
 21
418.5500856247
  0
LINE
  5
314
100
AcDbEntity
  8
6_ALL_SURFS
100
AcDbLine
 62
7
  6
CONTINUOUS
 10
1169.7238082028
 20
418.5500856247
 11
1169.7238082028
 21
419.7000856247
  0
LINE
  5
315
100
AcDbEntity
  8
6_ALL_SURFS
100
AcDbLine
 62
7
  6
CONTINUOUS
 10
1169.7238082028
 20
427.1500856247
 11
1169.7238082028
 21
428.9500856247
  0
LINE
  5
316
100
AcDbEntity
  8
7_ALL_FEATURES
100
AcDbLine
 62
7
  6
CONTINUOUS
 10
1169.7238082028
 20
419.7000856247
 11
1169.7238082028
 21
496.1000856247
  0
LINE
  5
317
100
AcDbEntity
  8
6_ALL_SURFS
100
AcDbLine
 62
7
  6
CONTINUOUS
 10
1169.7238082028
 20
433.4500856247
 11
1169.7238082028
 21
485.5646056198
  0
LINE
  5
318
100
AcDbEntity
  8
6_ALL_SURFS
100
AcDbLine
 62
7
  6
CONTINUOUS
 10
1169.7238082028
 20
495.8500856247
 11
1169.7238082028
 21
496.8500856247
  0
LINE
  5
319
100
AcDbEntity
  8
3_ALL_AXES
100
AcDbLine
 62
7
  6
CONTINUOUS
 10
1168.2238082028
 20
491.6127158829
 11
1167.3745285324
 21
490.9000856247
  0
LINE
  5
31A
100
AcDbEntity
  8
3_ALL_AXES
100
AcDbLine
 62
7
  6
CONTINUOUS
 10
1168.2238082028
 20
430.0874553665
 11
1167.3745285324
 21
430.8000856247
  0
LINE
  5
31B
100
AcDbEntity
  8
3_ALL_AXES
100
AcDbLine
 62
7
  6
CONTINUOUS
 10
1168.2238082028
 20
426.0127158829
 11
1167.3745285324
 21
425.3000856247
  0
LINE
  5
31C
100
AcDbEntity
  8
3_ALL_AXES
100
AcDbLine
 62
7
  6
CONTINUOUS
 10
1168.2238082028
 20
495.6874553665
 11
1167.3745285324
 21
496.4000856247
  0
LINE
  5
31D
100
AcDbEntity
  8
7_ALL_FEATURES
100
AcDbLine
 62
7
  6
CONTINUOUS
 10
2295.2238082028
 20
417.0500856247
 11
2293.7238082028
 21
417.0500856247
  0
LINE
  5
31E
100
AcDbEntity
  8
6_ALL_SURFS
100
AcDbLine
 62
7
  6
CONTINUOUS
 10
2293.7238082028
 20
417.0500856247
 11
1169.7238082028
 21
417.0500856247
  0
LINE
  5
31F
100
AcDbEntity
  8
7_ALL_FEATURES
100
AcDbLine
 62
7
  6
CONTINUOUS
 10
1168.2238082028
 20
417.0500856247
 11
1169.7238082028
 21
417.0500856247
  0
LINE
  5
320
100
AcDbEntity
  8
6_ALL_SURFS
100
AcDbLine
 62
9
  6
CONTINUOUS
 10
2293.7238082028
 20
417.3500856247
 11
1169.7238082028
 21
417.3500856247
  0
LINE
  5
321
100
AcDbEntity
  8
7_ALL_FEATURES
100
AcDbLine
 62
9
  6
CONTINUOUS
 10
2295.2238082028
 20
417.8000856247
 11
2293.7238082028
 21
417.8000856247
  0
LINE
  5
322
100
AcDbEntity
  8
7_ALL_FEATURES
100
AcDbLine
 62
9
  6
CONTINUOUS
 10
1168.2238082028
 20
417.8000856247
 11
1169.7238082028
 21
417.8000856247
  0
LINE
  5
323
100
AcDbEntity
  8
6_ALL_SURFS
100
AcDbLine
 62
9
  6
CONTINUOUS
 10
1169.7238082028
 20
418.2500856247
 11
2293.7238082028
 21
418.2500856247
  0
LINE
  5
324
100
AcDbEntity
  8
6_ALL_SURFS
100
AcDbLine
 62
7
  6
CONTINUOUS
 10
1169.7238082028
 20
418.5500856247
 11
2293.7238082028
 21
418.5500856247
  0
LINE
  5
325
100
AcDbEntity
  8
6_ALL_SURFS
100
AcDbLine
 62
9
  6
CONTINUOUS
 10
2293.7238082028
 20
418.7646327838
 11
1169.7238082028
 21
418.7646327838
  0
LINE
  5
326
100
AcDbEntity
  8
6_ALL_SURFS
100
AcDbLine
 62
7
  6
CONTINUOUS
 10
2293.7238082028
 20
419.5500856247
 11
1169.7238082028
 21
419.5500856247
  0
LINE
  5
327
100
AcDbEntity
  8
6_ALL_SURFS
100
AcDbLine
 62
7
  6
CONTINUOUS
 10
1169.7238082028
 20
419.7000856247
 11
2293.7238082028
 21
419.7000856247
  0
LINE
  5
328
100
AcDbEntity
  8
6_ALL_SURFS
100
AcDbLine
 62
9
  6
CONTINUOUS
 10
1169.7238082028
 20
419.8500856247
 11
2293.7238082028
 21
419.8500856247
  0
LINE
  5
329
100
AcDbEntity
  8
6_ALL_SURFS
100
AcDbLine
 62
9
  6
CONTINUOUS
 10
2293.7238082028
 20
420.7625850757
 11
1169.7238082028
 21
420.7625850757
  0
LINE
  5
32A
100
AcDbEntity
  8
6_ALL_SURFS
100
AcDbLine
 62
9
  6
CONTINUOUS
 10
2293.7238082028
 20
421.7855826158
 11
1169.7238082028
 21
421.7855826158
  0
LINE
  5
32B
100
AcDbEntity
  8
6_ALL_SURFS
100
AcDbLine
 62
9
  6
CONTINUOUS
 10
1169.7238082028
 20
424.3192761059
 11
2293.7238082028
 21
424.3192761059
  0
LINE
  5
32C
100
AcDbEntity
  8
6_ALL_SURFS
100
AcDbLine
 62
9
  6
CONTINUOUS
 10
1169.7238082028
 20
424.660275286
 11
2293.7238082028
 21
424.660275286
  0
LINE
  5
32D
100
AcDbEntity
  8
6_ALL_SURFS
100
AcDbLine
 62
9
  6
CONTINUOUS
 10
1169.7238082028
 20
424.8500856247
 11
2293.7238082028
 21
424.8500856247
  0
LINE
  5
32E
100
AcDbEntity
  8
6_ALL_SURFS
100
AcDbLine
 62
7
  6
CONTINUOUS
 10
2293.7238082028
 20
425.1500856247
 11
1169.7238082028
 21
425.1500856247
  0
LINE
  5
32F
100
AcDbEntity
  8
3_ALL_AXES
100
AcDbLine
 62
7
  6
CONTINUOUS
 10
1167.3745285324
 20
425.3000856247
 11
1167.2238082028
 21
425.3000856247
  0
LINE
  5
330
100
AcDbEntity
  8
3_ALL_AXES
100
AcDbLine
 62
7
  6
CONTINUOUS
 10
2296.0730878731
 20
425.3000856247
 11
2296.2238082028
 21
425.3000856247
  0
LINE
  5
331
100
AcDbEntity
  8
6_ALL_SURFS
100
AcDbLine
 62
9
  6
CONTINUOUS
 10
2293.7238082028
 20
427.1500856247
 11
1169.7238082028
 21
427.1500856247
  0
LINE
  5
332
100
AcDbEntity
  8
6_ALL_SURFS
100
AcDbLine
 62
9
  6
CONTINUOUS
 10
2293.7238082028
 20
428.9500856247
 11
1169.7238082028
 21
428.9500856247
  0
LINE
  5
333
100
AcDbEntity
  8
3_ALL_AXES
100
AcDbLine
 62
7
  6
CONTINUOUS
 10
1167.3745285324
 20
430.8000856247
 11
1167.2238082028
 21
430.8000856247
  0
LINE
  5
334
100
AcDbEntity
  8
3_ALL_AXES
100
AcDbLine
 62
7
  6
CONTINUOUS
 10
2296.0730878731
 20
430.8000856247
 11
2296.2238082028
 21
430.8000856247
  0
LINE
  5
335
100
AcDbEntity
  8
6_ALL_SURFS
100
AcDbLine
 62
7
  6
CONTINUOUS
 10
2293.7238082028
 20
430.9500856247
 11
1169.7238082028
 21
430.9500856247
  0
LINE
  5
336
100
AcDbEntity
  8
7_ALL_FEATURES
100
AcDbLine
 62
9
  6
CONTINUOUS
 10
2295.2238082028
 20
431.2000856247
 11
2293.7238082028
 21
431.2000856247
  0
LINE
  5
337
100
AcDbEntity
  8
7_ALL_FEATURES
100
AcDbLine
 62
9
  6
CONTINUOUS
 10
1169.7238082028
 20
431.2000856247
 11
1168.2238082028
 21
431.2000856247
  0
LINE
  5
338
100
AcDbEntity
  8
6_ALL_SURFS
100
AcDbLine
 62
9
  6
CONTINUOUS
 10
1169.7238082028
 20
431.2500856247
 11
2293.7238082028
 21
431.2500856247
  0
LINE
  5
339
100
AcDbEntity
  8
7_ALL_FEATURES
100
AcDbLine
 62
7
  6
CONTINUOUS
 10
2295.2238082028
 20
431.9500856247
 11
2293.7238082028
 21
431.9500856247
  0
LINE
  5
33A
100
AcDbEntity
  8
7_ALL_FEATURES
100
AcDbLine
 62
7
  6
CONTINUOUS
 10
1169.7238082028
 20
431.9500856247
 11
1168.2238082028
 21
431.9500856247
  0
LINE
  5
33B
100
AcDbEntity
  8
7_ALL_FEATURES
100
AcDbLine
 62
9
  6
CONTINUOUS
 10
2295.2238082028
 20
433.4500856247
 11
2293.7238082028
 21
433.4500856247
  0
LINE
  5
33C
100
AcDbEntity
  8
7_ALL_FEATURES
100
AcDbLine
 62
9
  6
CONTINUOUS
 10
1168.2238082028
 20
433.4500856247
 11
1169.7238082028
 21
433.4500856247
  0
LINE
  5
33D
100
AcDbEntity
  8
6_ALL_SURFS
100
AcDbLine
 62
9
  6
CONTINUOUS
 10
2293.7238082028
 20
475.995599554
 11
1169.7238082028
 21
475.995599554
  0
LINE
  5
33E
100
AcDbEntity
  8
7_ALL_FEATURES
100
AcDbLine
 62
7
  6
CONTINUOUS
 10
1169.7238082028
 20
476.5431886124
 11
1168.2238082028
 21
476.5431886124
  0
LINE
  5
33F
100
AcDbEntity
  8
7_ALL_FEATURES
100
AcDbLine
 62
7
  6
CONTINUOUS
 10
2293.7238082028
 20
476.5431886124
 11
2295.2238082028
 21
476.5431886124
  0
LINE
  5
340
100
AcDbEntity
  8
6_ALL_SURFS
100
AcDbLine
 62
9
  6
CONTINUOUS
 10
2293.7238082028
 20
477.0777976237
 11
1169.7238082028
 21
477.0777976237
  0
LINE
  5
341
100
AcDbEntity
  8
7_ALL_FEATURES
100
AcDbLine
 62
7
  6
CONTINUOUS
 10
1169.7238082028
 20
485.5646056198
 11
1168.2238082028
 21
485.5646056198
  0
LINE
  5
342
100
AcDbEntity
  8
7_ALL_FEATURES
100
AcDbLine
 62
7
  6
CONTINUOUS
 10
2293.7238082028
 20
485.5646056198
 11
2295.2238082028
 21
485.5646056198
  0
LINE
  5
343
100
AcDbEntity
  8
6_ALL_SURFS
100
AcDbLine
 62
9
  6
CONTINUOUS
 10
2293.7238082028
 20
490.7300629096
 11
1169.7238082028
 21
490.7300629096
  0
LINE
  5
344
100
AcDbEntity
  8
3_ALL_AXES
100
AcDbLine
 62
7
  6
CONTINUOUS
 10
1167.3745285324
 20
490.9000856247
 11
1167.2238082028
 21
490.9000856247
  0
LINE
  5
345
100
AcDbEntity
  8
3_ALL_AXES
100
AcDbLine
 62
7
  6
CONTINUOUS
 10
2296.0730878731
 20
490.9000856247
 11
2296.2238082028
 21
490.9000856247
  0
LINE
  5
346
100
AcDbEntity
  8
6_ALL_SURFS
100
AcDbLine
 62
9
  6
CONTINUOUS
 10
2293.7238082028
 20
491.4262866257
 11
1169.7238082028
 21
491.4262866257
  0
LINE
  5
347
100
AcDbEntity
  8
6_ALL_SURFS
100
AcDbLine
 62
9
  6
CONTINUOUS
 10
1169.7238082028
 20
491.8887953021
 11
2293.7238082028
 21
491.8887953021
  0
LINE
  5
348
100
AcDbEntity
  8
6_ALL_SURFS
100
AcDbLine
 62
9
  6
CONTINUOUS
 10
1169.7238082028
 20
494.9146017538
 11
2293.7238082028
 21
494.9146017538
  0
LINE
  5
349
100
AcDbEntity
  8
6_ALL_SURFS
100
AcDbLine
 62
7
  6
CONTINUOUS
 10
2293.7238082028
 20
495.3500856247
 11
1169.7238082028
 21
495.3500856247
  0
LINE
  5
34A
100
AcDbEntity
  8
6_ALL_SURFS
100
AcDbLine
 62
9
  6
CONTINUOUS
 10
2293.7238082028
 20
495.8500856247
 11
1169.7238082028
 21
495.8500856247
  0
LINE
  5
34B
100
AcDbEntity
  8
7_ALL_FEATURES
100
AcDbLine
 62
9
  6
CONTINUOUS
 10
1168.2238082028
 20
496.1000856247
 11
1169.7238082028
 21
496.1000856247
  0
LINE
  5
34C
100
AcDbEntity
  8
7_ALL_FEATURES
100
AcDbLine
 62
9
  6
CONTINUOUS
 10
2293.7238082028
 20
496.1000856247
 11
2295.2238082028
 21
496.1000856247
  0
LINE
  5
34D
100
AcDbEntity
  8
3_ALL_AXES
100
AcDbLine
 62
7
  6
CONTINUOUS
 10
1167.3745285324
 20
496.4000856247
 11
1167.2238082028
 21
496.4000856247
  0
LINE
  5
34E
100
AcDbEntity
  8
3_ALL_AXES
100
AcDbLine
 62
7
  6
CONTINUOUS
 10
2296.0730878731
 20
496.4000856247
 11
2296.2238082028
 21
496.4000856247
  0
LINE
  5
34F
100
AcDbEntity
  8
6_ALL_SURFS
100
AcDbLine
 62
9
  6
CONTINUOUS
 10
1169.7238082028
 20
496.5500856247
 11
2293.7238082028
 21
496.5500856247
  0
LINE
  5
350
100
AcDbEntity
  8
7_ALL_FEATURES
100
AcDbLine
 62
7
  6
CONTINUOUS
 10
1168.2238082028
 20
496.8500856247
 11
1169.7238082028
 21
496.8500856247
  0
LINE
  5
351
100
AcDbEntity
  8
6_ALL_SURFS
100
AcDbLine
 62
7
  6
CONTINUOUS
 10
1169.7238082028
 20
496.8500856247
 11
2293.7238082028
 21
496.8500856247
  0
LINE
  5
352
100
AcDbEntity
  8
7_ALL_FEATURES
100
AcDbLine
 62
7
  6
CONTINUOUS
 10
2293.7238082028
 20
496.8500856247
 11
2295.2238082028
 21
496.8500856247
  0
LINE
  5
353
100
AcDbEntity
  8
3_ALL_AXES
100
AcDbLine
 62
7
  6
CONTINUOUS
 10
2295.2238082028
 20
495.6874553665
 11
2296.0730878731
 21
496.4000856247
  0
LINE
  5
354
100
AcDbEntity
  8
3_ALL_AXES
100
AcDbLine
 62
7
  6
CONTINUOUS
 10
2295.2238082028
 20
426.0127158829
 11
2296.0730878731
 21
425.3000856247
  0
LINE
  5
355
100
AcDbEntity
  8
3_ALL_AXES
100
AcDbLine
 62
7
  6
CONTINUOUS
 10
2295.2238082028
 20
430.0874553665
 11
2296.0730878731
 21
430.8000856247
  0
LINE
  5
356
100
AcDbEntity
  8
3_ALL_AXES
100
AcDbLine
 62
7
  6
CONTINUOUS
 10
2295.2238082028
 20
491.6127158829
 11
2296.0730878731
 21
490.9000856247
  0
LINE
  5
357
100
AcDbEntity
  8
7_ALL_FEATURES
100
AcDbLine
 62
7
  6
CONTINUOUS
 10
2293.7238082028
 20
417.0619545368
 11
2293.7238082028
 21
418.5500856247
  0
LINE
  5
358
100
AcDbEntity
  8
6_ALL_SURFS
100
AcDbLine
 62
7
  6
CONTINUOUS
 10
2293.7238082028
 20
417.0500856247
 11
2293.7238082028
 21
417.0619545368
  0
LINE
  5
359
100
AcDbEntity
  8
6_ALL_SURFS
100
AcDbLine
 62
7
  6
CONTINUOUS
 10
2293.7238082028
 20
418.5500856247
 11
2293.7238082028
 21
419.7000856247
  0
LINE
  5
35A
100
AcDbEntity
  8
6_ALL_SURFS
100
AcDbLine
 62
7
  6
CONTINUOUS
 10
2293.7238082028
 20
427.1500856247
 11
2293.7238082028
 21
428.9500856247
  0
LINE
  5
35B
100
AcDbEntity
  8
7_ALL_FEATURES
100
AcDbLine
 62
7
  6
CONTINUOUS
 10
2293.7238082028
 20
419.7000856247
 11
2293.7238082028
 21
496.1000856247
  0
LINE
  5
35C
100
AcDbEntity
  8
6_ALL_SURFS
100
AcDbLine
 62
7
  6
CONTINUOUS
 10
2293.7238082028
 20
433.4500856247
 11
2293.7238082028
 21
485.5646056198
  0
LINE
  5
35D
100
AcDbEntity
  8
6_ALL_SURFS
100
AcDbLine
 62
7
  6
CONTINUOUS
 10
2293.7238082028
 20
495.8500856247
 11
2293.7238082028
 21
496.8500856247
  0
LINE
  5
35E
100
AcDbEntity
  8
7_ALL_FEATURES
100
AcDbLine
 62
7
  6
CONTINUOUS
 10
2295.2238082028
 20
417.0500856247
 11
2295.2238082028
 21
496.8500856247
  0
LINE
  5
35F
100
AcDbEntity
  8
3_ALL_AXES
100
AcDbLine
 62
7
  6
CONTINUOUS
 10
2296.0730878731
 20
425.3000856247
 11
2296.0730878731
 21
430.8000856247
  0
LINE
  5
360
100
AcDbEntity
  8
3_ALL_AXES
100
AcDbLine
 62
7
  6
CONTINUOUS
 10
2296.0730878731
 20
490.9000856247
 11
2296.0730878731
 21
496.4000856247
  0
LINE
  5
361
100
AcDbEntity
  8
3_ALL_AXES
100
AcDbLine
 62
7
  6
CONTINUOUS
 10
2296.2238082028
 20
425.3001336909
 11
2296.2238082028
 21
430.8000375585
  0
LINE
  5
362
100
AcDbEntity
  8
3_ALL_AXES
100
AcDbLine
 62
7
  6
CONTINUOUS
 10
2296.2238082028
 20
490.9001336909
 11
2296.2238082028
 21
496.4000375585
  0
LINE
  5
363
100
AcDbEntity
  8
3_ALL_AXES
100
AcDbLine
 62
7
  6
CONTINUOUS
 10
1167.2238082028
 20
732.3540975724
 11
1167.2238082028
 21
726.8540975724
  0
LINE
  5
364
100
AcDbEntity
  8
3_ALL_AXES
100
AcDbLine
 62
7
  6
CONTINUOUS
 10
1167.2238082028
 20
726.0540975724
 11
1167.2238082028
 21
720.5540975724
  0
LINE
  5
365
100
AcDbEntity
  8
3_ALL_AXES
100
AcDbLine
 62
7
  6
CONTINUOUS
 10
1167.2238082028
 20
702.0540975724
 11
1167.2238082028
 21
696.5540975724
  0
LINE
  5
366
100
AcDbEntity
  8
3_ALL_AXES
100
AcDbLine
 62
7
  6
CONTINUOUS
 10
1167.2238082028
 20
695.7540975724
 11
1167.2238082028
 21
690.2540975724
  0
LINE
  5
367
100
AcDbEntity
  8
3_ALL_AXES
100
AcDbLine
 62
7
  6
CONTINUOUS
 10
1167.3745285324
 20
732.3540975724
 11
1167.3745285324
 21
726.8540975724
  0
LINE
  5
368
100
AcDbEntity
  8
3_ALL_AXES
100
AcDbLine
 62
7
  6
CONTINUOUS
 10
1167.3745285324
 20
726.0540975724
 11
1167.3745285324
 21
720.5540975724
  0
LINE
  5
369
100
AcDbEntity
  8
3_ALL_AXES
100
AcDbLine
 62
7
  6
CONTINUOUS
 10
1167.3745285324
 20
702.0540975724
 11
1167.3745285324
 21
696.5540975724
  0
LINE
  5
36A
100
AcDbEntity
  8
3_ALL_AXES
100
AcDbLine
 62
7
  6
CONTINUOUS
 10
1167.3745285324
 20
695.7540975724
 11
1167.3745285324
 21
690.2540975724
  0
LINE
  5
36B
100
AcDbEntity
  8
7_ALL_FEATURES
100
AcDbLine
 62
7
  6
CONTINUOUS
 10
1168.2238082028
 20
690.1040975724
 11
1168.2238082028
 21
732.5040975724
  0
LINE
  5
36C
100
AcDbEntity
  8
7_ALL_FEATURES
100
AcDbLine
 62
7
  6
CONTINUOUS
 10
1169.7238082028
 20
732.5040975724
 11
1169.7238082028
 21
731.8832776814
  0
LINE
  5
36D
100
AcDbEntity
  8
3_ALL_AXES
100
AcDbLine
 62
7
  6
CONTINUOUS
 10
1169.7238082028
 20
688.2540975724
 11
1169.7238082028
 21
672.7540975724
  0
LINE
  5
36E
100
AcDbEntity
  8
7_ALL_FEATURES
100
AcDbLine
 62
7
  6
CONTINUOUS
 10
1169.7238082028
 20
670.2541078479
 11
1169.7238082028
 21
672.7540975724
  0
LINE
  5
36F
100
AcDbEntity
  8
7_ALL_FEATURES
100
AcDbLine
 62
7
  6
CONTINUOUS
 10
1169.7238082028
 20
688.2540975724
 11
1169.7238082028
 21
731.8040975724
  0
LINE
  5
370
100
AcDbEntity
  8
6_ALL_SURFS
100
AcDbLine
 62
7
  6
CONTINUOUS
 10
1169.7238082028
 20
731.1540975724
 11
1169.7238082028
 21
731.8832776814
  0
LINE
  5
371
100
AcDbEntity
  8
6_ALL_SURFS
100
AcDbLine
 62
7
  6
CONTINUOUS
 10
1169.7238082028
 20
732.5040975724
 11
1169.7238082028
 21
752.354087297
  0
LINE
  5
372
100
AcDbEntity
  8
7_ALL_FEATURES
100
AcDbLine
 62
7
  6
CONTINUOUS
 10
1170.4738082028
 20
730.6540975724
 11
1170.4738082028
 21
691.9540975724
  0
LINE
  5
373
100
AcDbEntity
  8
3_ALL_AXES
100
AcDbLine
 62
7
  6
CONTINUOUS
 10
1167.3745285324
 20
726.8540975724
 11
1168.2238082028
 21
727.5667278306
  0
LINE
  5
374
100
AcDbEntity
  8
3_ALL_AXES
100
AcDbLine
 62
7
  6
CONTINUOUS
 10
1167.3745285324
 20
695.7540975724
 11
1168.2238082028
 21
695.0414673143
  0
LINE
  5
375
100
AcDbEntity
  8
3_ALL_AXES
100
AcDbLine
 62
7
  6
CONTINUOUS
 10
1167.3745285324
 20
720.5540975724
 11
1168.2238082028
 21
721.2667278306
  0
LINE
  5
376
100
AcDbEntity
  8
3_ALL_AXES
100
AcDbLine
 62
7
  6
CONTINUOUS
 10
1167.3745285324
 20
696.5540975724
 11
1168.2238082028
 21
697.2667278306
  0
LINE
  5
377
100
AcDbEntity
  8
3_ALL_AXES
100
AcDbLine
 62
7
  6
CONTINUOUS
 10
1167.3745285324
 20
690.2540975724
 11
1168.2238082028
 21
690.9667278306
  0
LINE
  5
378
100
AcDbEntity
  8
3_ALL_AXES
100
AcDbLine
 62
7
  6
CONTINUOUS
 10
1167.3745285324
 20
702.0540975724
 11
1168.2238082028
 21
701.3414673143
  0
LINE
  5
379
100
AcDbEntity
  8
3_ALL_AXES
100
AcDbLine
 62
7
  6
CONTINUOUS
 10
1167.3745285324
 20
726.0540975724
 11
1168.2238082028
 21
725.3414673143
  0
LINE
  5
37A
100
AcDbEntity
  8
3_ALL_AXES
100
AcDbLine
 62
7
  6
CONTINUOUS
 10
1167.3745285324
 20
732.3540975724
 11
1168.2238082028
 21
731.6414673143
  0
LINE
  5
37B
100
AcDbEntity
  8
7_ALL_FEATURES
100
AcDbLine
 62
7
  6
CONTINUOUS
 10
2293.7238082028
 20
670.2540975724
 11
1169.7238082028
 21
670.2540975724
  0
LINE
  5
37C
100
AcDbEntity
  8
7_ALL_FEATURES
100
AcDbLine
 62
9
  6
CONTINUOUS
 10
2293.7238082028
 20
670.608625982
 11
1169.7238082028
 21
670.608625982
  0
LINE
  5
37D
100
AcDbEntity
  8
7_ALL_FEATURES
100
AcDbLine
 62
7
  6
CONTINUOUS
 10
1169.7238082028
 20
672.7540975724
 11
1228.4404004091
 21
672.7540975724
  0
LINE
  5
37E
100
AcDbEntity
  8
7_ALL_FEATURES
100
AcDbLine
 62
7
  6
CONTINUOUS
 10
1235.0072159965
 20
672.7540975724
 11
1478.4404004091
 21
672.7540975724
  0
LINE
  5
37F
100
AcDbEntity
  8
7_ALL_FEATURES
100
AcDbLine
 62
7
  6
CONTINUOUS
 10
1485.0072159965
 20
672.7540975724
 11
1728.4404004091
 21
672.7540975724
  0
LINE
  5
380
100
AcDbEntity
  8
7_ALL_FEATURES
100
AcDbLine
 62
7
  6
CONTINUOUS
 10
1735.0072159965
 20
672.7540975724
 11
1978.4404004091
 21
672.7540975724
  0
LINE
  5
381
100
AcDbEntity
  8
7_ALL_FEATURES
100
AcDbLine
 62
7
  6
CONTINUOUS
 10
1985.0072159965
 20
672.7540975724
 11
2228.4404004091
 21
672.7540975724
  0
LINE
  5
382
100
AcDbEntity
  8
7_ALL_FEATURES
100
AcDbLine
 62
7
  6
CONTINUOUS
 10
2235.0072159965
 20
672.7540975724
 11
2293.7238082028
 21
672.7540975724
  0
LINE
  5
383
100
AcDbEntity
  8
7_ALL_FEATURES
100
AcDbLine
 62
7
  6
CONTINUOUS
 10
1169.7238082028
 20
675.6540975724
 11
1226.9624253427
 21
675.6540975724
  0
LINE
  5
384
100
AcDbEntity
  8
7_ALL_FEATURES
100
AcDbLine
 62
7
  6
CONTINUOUS
 10
1236.4851910628
 20
675.6540975724
 11
1476.9624253427
 21
675.6540975724
  0
LINE
  5
385
100
AcDbEntity
  8
7_ALL_FEATURES
100
AcDbLine
 62
7
  6
CONTINUOUS
 10
1486.4851910628
 20
675.6540975724
 11
1726.9624253427
 21
675.6540975724
  0
LINE
  5
386
100
AcDbEntity
  8
7_ALL_FEATURES
100
AcDbLine
 62
7
  6
CONTINUOUS
 10
1736.4851910628
 20
675.6540975724
 11
1976.9624253427
 21
675.6540975724
  0
LINE
  5
387
100
AcDbEntity
  8
7_ALL_FEATURES
100
AcDbLine
 62
7
  6
CONTINUOUS
 10
1986.4851910628
 20
675.6540975724
 11
2226.9624253427
 21
675.6540975724
  0
LINE
  5
388
100
AcDbEntity
  8
7_ALL_FEATURES
100
AcDbLine
 62
7
  6
CONTINUOUS
 10
2236.4851910628
 20
675.6540975724
 11
2293.7238082028
 21
675.6540975724
  0
LINE
  5
389
100
AcDbEntity
  8
7_ALL_FEATURES
100
AcDbLine
 62
7
  6
CONTINUOUS
 10
1169.7238082028
 20
676.2540975724
 11
1226.9247700971
 21
676.2540975724
  0
LINE
  5
38A
100
AcDbEntity
  8
7_ALL_FEATURES
100
AcDbLine
 62
7
  6
CONTINUOUS
 10
1236.5228463084
 20
676.2540975724
 11
1476.9247700971
 21
676.2540975724
  0
LINE
  5
38B
100
AcDbEntity
  8
7_ALL_FEATURES
100
AcDbLine
 62
7
  6
CONTINUOUS
 10
1486.5228463084
 20
676.2540975724
 11
1726.9247700971
 21
676.2540975724
  0
LINE
  5
38C
100
AcDbEntity
  8
7_ALL_FEATURES
100
AcDbLine
 62
7
  6
CONTINUOUS
 10
1736.5228463084
 20
676.2540975724
 11
1976.9247700971
 21
676.2540975724
  0
LINE
  5
38D
100
AcDbEntity
  8
7_ALL_FEATURES
100
AcDbLine
 62
7
  6
CONTINUOUS
 10
1986.5228463084
 20
676.2540975724
 11
2226.9247700971
 21
676.2540975724
  0
LINE
  5
38E
100
AcDbEntity
  8
7_ALL_FEATURES
100
AcDbLine
 62
7
  6
CONTINUOUS
 10
2236.5228463084
 20
676.2540975724
 11
2293.7238082028
 21
676.2540975724
  0
LINE
  5
38F
100
AcDbEntity
  8
7_ALL_FEATURES
100
AcDbLine
 62
7
  6
CONTINUOUS
 10
1169.7238082028
 20
678.6540975724
 11
1227.5679970016
 21
678.6540975724
  0
LINE
  5
390
100
AcDbEntity
  8
7_ALL_FEATURES
100
AcDbLine
 62
7
  6
CONTINUOUS
 10
1235.8796194039
 20
678.6540975724
 11
1477.5679970016
 21
678.6540975724
  0
LINE
  5
391
100
AcDbEntity
  8
7_ALL_FEATURES
100
AcDbLine
 62
7
  6
CONTINUOUS
 10
1485.8796194039
 20
678.6540975724
 11
1727.5679970016
 21
678.6540975724
  0
LINE
  5
392
100
AcDbEntity
  8
7_ALL_FEATURES
100
AcDbLine
 62
7
  6
CONTINUOUS
 10
1735.8796194039
 20
678.6540975724
 11
1977.5679970016
 21
678.6540975724
  0
LINE
  5
393
100
AcDbEntity
  8
7_ALL_FEATURES
100
AcDbLine
 62
7
  6
CONTINUOUS
 10
1985.8796194039
 20
678.6540975724
 11
2227.5679970016
 21
678.6540975724
  0
LINE
  5
394
100
AcDbEntity
  8
7_ALL_FEATURES
100
AcDbLine
 62
7
  6
CONTINUOUS
 10
2235.8796194039
 20
678.6540975724
 11
2293.7238082028
 21
678.6540975724
  0
LINE
  5
395
100
AcDbEntity
  8
7_ALL_FEATURES
100
AcDbLine
 62
7
  6
CONTINUOUS
 10
1169.7238082028
 20
679.2540975724
 11
1227.9780416938
 21
679.2540975724
  0
LINE
  5
396
100
AcDbEntity
  8
7_ALL_FEATURES
100
AcDbLine
 62
7
  6
CONTINUOUS
 10
1235.4695747117
 20
679.2540975724
 11
1477.9780416938
 21
679.2540975724
  0
LINE
  5
397
100
AcDbEntity
  8
7_ALL_FEATURES
100
AcDbLine
 62
7
  6
CONTINUOUS
 10
1485.4695747117
 20
679.2540975724
 11
1727.9780416938
 21
679.2540975724
  0
LINE
  5
398
100
AcDbEntity
  8
7_ALL_FEATURES
100
AcDbLine
 62
7
  6
CONTINUOUS
 10
1735.4695747117
 20
679.2540975724
 11
1977.9780416938
 21
679.2540975724
  0
LINE
  5
399
100
AcDbEntity
  8
7_ALL_FEATURES
100
AcDbLine
 62
7
  6
CONTINUOUS
 10
1985.4695747117
 20
679.2540975724
 11
2227.9780416938
 21
679.2540975724
  0
LINE
  5
39A
100
AcDbEntity
  8
7_ALL_FEATURES
100
AcDbLine
 62
7
  6
CONTINUOUS
 10
2235.4695747117
 20
679.2540975724
 11
2293.7238082028
 21
679.2540975724
  0
LINE
  5
39B
100
AcDbEntity
  8
3_ALL_AXES
100
AcDbLine
 62
7
  6
CONTINUOUS
 10
1169.7238082028
 20
681.6540975724
 11
2293.7238082028
 21
681.6540975724
  0
LINE
  5
39C
100
AcDbEntity
  8
3_ALL_AXES
100
AcDbLine
 62
7
  6
CONTINUOUS
 10
1169.7238082028
 20
682.2540975724
 11
2293.7238082028
 21
682.2540975724
  0
LINE
  5
39D
100
AcDbEntity
  8
3_ALL_AXES
100
AcDbLine
 62
7
  6
CONTINUOUS
 10
1169.7238082028
 20
684.6540975724
 11
2293.7238082028
 21
684.6540975724
  0
LINE
  5
39E
100
AcDbEntity
  8
3_ALL_AXES
100
AcDbLine
 62
7
  6
CONTINUOUS
 10
1169.7238082028
 20
685.2540975724
 11
2293.7238082028
 21
685.2540975724
  0
LINE
  5
39F
100
AcDbEntity
  8
3_ALL_AXES
100
AcDbLine
 62
7
  6
CONTINUOUS
 10
1169.7238082028
 20
687.6540975724
 11
2293.7238082028
 21
687.6540975724
  0
LINE
  5
3A0
100
AcDbEntity
  8
3_ALL_AXES
100
AcDbLine
 62
7
  6
CONTINUOUS
 10
1169.7238082028
 20
688.2540975724
 11
2293.7238082028
 21
688.2540975724
  0
LINE
  5
3A1
100
AcDbEntity
  8
7_ALL_FEATURES
100
AcDbLine
 62
7
  6
CONTINUOUS
 10
2295.2238082028
 20
690.1040975724
 11
2293.7238082028
 21
690.1040975724
  0
LINE
  5
3A2
100
AcDbEntity
  8
7_ALL_FEATURES
100
AcDbLine
 62
7
  6
CONTINUOUS
 10
1168.2238082028
 20
690.1040975724
 11
1169.7238082028
 21
690.1040975724
  0
LINE
  5
3A3
100
AcDbEntity
  8
7_ALL_FEATURES
100
AcDbLine
 62
9
  6
CONTINUOUS
 10
1169.7238082028
 20
690.2040975724
 11
2293.7238082028
 21
690.2040975724
  0
LINE
  5
3A4
100
AcDbEntity
  8
3_ALL_AXES
100
AcDbLine
 62
7
  6
CONTINUOUS
 10
2296.2238082028
 20
690.2540975724
 11
2296.0730878731
 21
690.2540975724
  0
LINE
  5
3A5
100
AcDbEntity
  8
3_ALL_AXES
100
AcDbLine
 62
7
  6
CONTINUOUS
 10
1167.2238082028
 20
690.2540975724
 11
1167.3745285324
 21
690.2540975724
  0
LINE
  5
3A6
100
AcDbEntity
  8
7_ALL_FEATURES
100
AcDbLine
 62
7
  6
CONTINUOUS
 10
2293.7238082028
 20
690.5040975724
 11
1169.7238082028
 21
690.5040975724
  0
LINE
  5
3A7
100
AcDbEntity
  8
7_ALL_FEATURES
100
AcDbLine
 62
9
  6
CONTINUOUS
 10
2293.7238082028
 20
690.8040975724
 11
1169.7238082028
 21
690.8040975724
  0
LINE
  5
3A8
100
AcDbEntity
  8
7_ALL_FEATURES
100
AcDbLine
 62
9
  6
CONTINUOUS
 10
2295.2238082028
 20
690.8540975724
 11
2293.7238082028
 21
690.8540975724
  0
LINE
  5
3A9
100
AcDbEntity
  8
7_ALL_FEATURES
100
AcDbLine
 62
9
  6
CONTINUOUS
 10
1168.2238082028
 20
690.8540975724
 11
1169.7238082028
 21
690.8540975724
  0
LINE
  5
3AA
100
AcDbEntity
  8
7_ALL_FEATURES
100
AcDbLine
 62
9
  6
CONTINUOUS
 10
2293.7238082028
 20
691.4540975724
 11
1169.7238082028
 21
691.4540975724
  0
LINE
  5
3AB
100
AcDbEntity
  8
7_ALL_FEATURES
100
AcDbLine
 62
7
  6
CONTINUOUS
 10
2293.7238082028
 20
691.7540975724
 11
1169.7238082028
 21
691.7540975724
  0
LINE
  5
3AC
100
AcDbEntity
  8
7_ALL_FEATURES
100
AcDbLine
 62
7
  6
CONTINUOUS
 10
1170.4738082028
 20
691.9540975724
 11
2292.9738082028
 21
691.9540975724
  0
LINE
  5
3AD
100
AcDbEntity
  8
7_ALL_FEATURES
100
AcDbLine
 62
9
  6
CONTINUOUS
 10
1169.7238082028
 20
692.0540975724
 11
1170.4738082028
 21
692.0540975724
  0
LINE
  5
3AE
100
AcDbEntity
  8
7_ALL_FEATURES
100
AcDbLine
 62
9
  6
CONTINUOUS
 10
2292.9738082028
 20
692.0540975724
 11
2293.7238082028
 21
692.0540975724
  0
LINE
  5
3AF
100
AcDbEntity
  8
7_ALL_FEATURES
100
AcDbLine
 62
9
  6
CONTINUOUS
 10
1170.4738082028
 20
692.1540975724
 11
2292.9738082028
 21
692.1540975724
  0
LINE
  5
3B0
100
AcDbEntity
  8
7_ALL_FEATURES
100
AcDbLine
 62
9
  6
CONTINUOUS
 10
2293.7238082028
 20
692.7040975724
 11
2292.9738082028
 21
692.7040975724
  0
LINE
  5
3B1
100
AcDbEntity
  8
7_ALL_FEATURES
100
AcDbLine
 62
9
  6
CONTINUOUS
 10
1170.4738082028
 20
692.7040975724
 11
1169.7238082028
 21
692.7040975724
  0
LINE
  5
3B2
100
AcDbEntity
  8
7_ALL_FEATURES
100
AcDbLine
 62
7
  6
CONTINUOUS
 10
2293.7238082028
 20
693.0040975724
 11
2292.9738082028
 21
693.0040975724
  0
LINE
  5
3B3
100
AcDbEntity
  8
7_ALL_FEATURES
100
AcDbLine
 62
7
  6
CONTINUOUS
 10
1170.4738082028
 20
693.0040975724
 11
1169.7238082028
 21
693.0040975724
  0
LINE
  5
3B4
100
AcDbEntity
  8
7_ALL_FEATURES
100
AcDbLine
 62
9
  6
CONTINUOUS
 10
1169.7238082028
 20
693.5651351744
 11
1170.4738082028
 21
693.5651351744
  0
LINE
  5
3B5
100
AcDbEntity
  8
7_ALL_FEATURES
100
AcDbLine
 62
9
  6
CONTINUOUS
 10
2292.9738082028
 20
693.5651351744
 11
2293.7238082028
 21
693.5651351744
  0
LINE
  5
3B6
100
AcDbEntity
  8
7_ALL_FEATURES
100
AcDbLine
 62
9
  6
CONTINUOUS
 10
1169.7238082028
 20
693.7845412849
 11
1170.4738082028
 21
693.7845412849
  0
LINE
  5
3B7
100
AcDbEntity
  8
7_ALL_FEATURES
100
AcDbLine
 62
9
  6
CONTINUOUS
 10
2292.9738082028
 20
693.7845412849
 11
2293.7238082028
 21
693.7845412849
  0
LINE
  5
3B8
100
AcDbEntity
  8
7_ALL_FEATURES
100
AcDbLine
 62
9
  6
CONTINUOUS
 10
2293.7238082028
 20
694.6040975724
 11
2292.9738082028
 21
694.6040975724
  0
LINE
  5
3B9
100
AcDbEntity
  8
7_ALL_FEATURES
100
AcDbLine
 62
9
  6
CONTINUOUS
 10
1170.4738082028
 20
694.6040975724
 11
1169.7238082028
 21
694.6040975724
  0
LINE
  5
3BA
100
AcDbEntity
  8
7_ALL_FEATURES
100
AcDbLine
 62
7
  6
CONTINUOUS
 10
2293.7238082028
 20
694.9040975724
 11
2292.9738082028
 21
694.9040975724
  0
LINE
  5
3BB
100
AcDbEntity
  8
7_ALL_FEATURES
100
AcDbLine
 62
7
  6
CONTINUOUS
 10
1170.4738082028
 20
694.9040975724
 11
1169.7238082028
 21
694.9040975724
  0
LINE
  5
3BC
100
AcDbEntity
  8
7_ALL_FEATURES
100
AcDbLine
 62
9
  6
CONTINUOUS
 10
1169.7238082028
 20
694.9644049516
 11
1170.4738082028
 21
694.9644049516
  0
LINE
  5
3BD
100
AcDbEntity
  8
7_ALL_FEATURES
100
AcDbLine
 62
9
  6
CONTINUOUS
 10
2292.9738082028
 20
694.9644049516
 11
2293.7238082028
 21
694.9644049516
  0
LINE
  5
3BE
100
AcDbEntity
  8
7_ALL_FEATURES
100
AcDbLine
 62
9
  6
CONTINUOUS
 10
2293.7238082028
 20
695.3194611584
 11
2292.9738082028
 21
695.3194611584
  0
LINE
  5
3BF
100
AcDbEntity
  8
7_ALL_FEATURES
100
AcDbLine
 62
9
  6
CONTINUOUS
 10
1170.4738082028
 20
695.3194611584
 11
1169.7238082028
 21
695.3194611584
  0
LINE
  5
3C0
100
AcDbEntity
  8
7_ALL_FEATURES
100
AcDbLine
 62
7
  6
CONTINUOUS
 10
2293.7238082028
 20
695.3375533721
 11
2292.9738082028
 21
695.3375533721
  0
LINE
  5
3C1
100
AcDbEntity
  8
7_ALL_FEATURES
100
AcDbLine
 62
7
  6
CONTINUOUS
 10
1170.4738082028
 20
695.3375533721
 11
1169.7238082028
 21
695.3375533721
  0
LINE
  5
3C2
100
AcDbEntity
  8
3_ALL_AXES
100
AcDbLine
 62
7
  6
CONTINUOUS
 10
2296.2238082028
 20
695.7540975724
 11
2296.0730878731
 21
695.7540975724
  0
LINE
  5
3C3
100
AcDbEntity
  8
3_ALL_AXES
100
AcDbLine
 62
7
  6
CONTINUOUS
 10
1167.2238082028
 20
695.7540975724
 11
1167.3745285324
 21
695.7540975724
  0
LINE
  5
3C4
100
AcDbEntity
  8
3_ALL_AXES
100
AcDbLine
 62
7
  6
CONTINUOUS
 10
2296.2238082028
 20
696.5540975724
 11
2296.0730878731
 21
696.5540975724
  0
LINE
  5
3C5
100
AcDbEntity
  8
3_ALL_AXES
100
AcDbLine
 62
7
  6
CONTINUOUS
 10
1167.2238082028
 20
696.5540975724
 11
1167.3745285324
 21
696.5540975724
  0
LINE
  5
3C6
100
AcDbEntity
  8
7_ALL_FEATURES
100
AcDbLine
 62
9
  6
CONTINUOUS
 10
1169.7238082028
 20
697.730386417
 11
1170.4738082028
 21
697.730386417
  0
LINE
  5
3C7
100
AcDbEntity
  8
7_ALL_FEATURES
100
AcDbLine
 62
9
  6
CONTINUOUS
 10
2292.9738082028
 20
697.730386417
 11
2293.7238082028
 21
697.730386417
  0
LINE
  5
3C8
100
AcDbEntity
  8
7_ALL_FEATURES
100
AcDbLine
 62
9
  6
CONTINUOUS
 10
1169.7238082028
 20
698.7066824241
 11
1170.4738082028
 21
698.7066824241
  0
LINE
  5
3C9
100
AcDbEntity
  8
7_ALL_FEATURES
100
AcDbLine
 62
9
  6
CONTINUOUS
 10
2292.9738082028
 20
698.7066824241
 11
2293.7238082028
 21
698.7066824241
  0
LINE
  5
3CA
100
AcDbEntity
  8
3_ALL_AXES
100
AcDbLine
 62
7
  6
CONTINUOUS
 10
2296.2238082028
 20
702.0540975724
 11
2296.0730878731
 21
702.0540975724
  0
LINE
  5
3CB
100
AcDbEntity
  8
3_ALL_AXES
100
AcDbLine
 62
7
  6
CONTINUOUS
 10
1167.2238082028
 20
702.0540975724
 11
1167.3745285324
 21
702.0540975724
  0
LINE
  5
3CC
100
AcDbEntity
  8
7_ALL_FEATURES
100
AcDbLine
 62
9
  6
CONTINUOUS
 10
2293.7238082028
 20
709.3040975724
 11
2292.9738082028
 21
709.3040975724
  0
LINE
  5
3CD
100
AcDbEntity
  8
7_ALL_FEATURES
100
AcDbLine
 62
9
  6
CONTINUOUS
 10
1170.4738082028
 20
709.3040975724
 11
1169.7238082028
 21
709.3040975724
  0
LINE
  5
3CE
100
AcDbEntity
  8
7_ALL_FEATURES
100
AcDbLine
 62
7
  6
CONTINUOUS
 10
2293.7238082028
 20
709.6040975724
 11
2292.9738082028
 21
709.6040975724
  0
LINE
  5
3CF
100
AcDbEntity
  8
7_ALL_FEATURES
100
AcDbLine
 62
7
  6
CONTINUOUS
 10
1170.4738082028
 20
709.6040975724
 11
1169.7238082028
 21
709.6040975724
  0
LINE
  5
3D0
100
AcDbEntity
  8
7_ALL_FEATURES
100
AcDbLine
 62
9
  6
CONTINUOUS
 10
1169.7238082028
 20
709.9040975724
 11
1170.4738082028
 21
709.9040975724
  0
LINE
  5
3D1
100
AcDbEntity
  8
7_ALL_FEATURES
100
AcDbLine
 62
9
  6
CONTINUOUS
 10
2292.9738082028
 20
709.9040975724
 11
2293.7238082028
 21
709.9040975724
  0
LINE
  5
3D2
100
AcDbEntity
  8
6_ALL_SURFS
100
AcDbLine
 62
9
  6
CONTINUOUS
 10
1169.7238082028
 20
712.7040975724
 11
1170.4738082028
 21
712.7040975724
  0
LINE
  5
3D3
100
AcDbEntity
  8
6_ALL_SURFS
100
AcDbLine
 62
9
  6
CONTINUOUS
 10
2292.9738082028
 20
712.7040975724
 11
2293.7238082028
 21
712.7040975724
  0
LINE
  5
3D4
100
AcDbEntity
  8
6_ALL_SURFS
100
AcDbLine
 62
7
  6
CONTINUOUS
 10
2293.7238082028
 20
713.0040975724
 11
2292.9738082028
 21
713.0040975724
  0
LINE
  5
3D5
100
AcDbEntity
  8
6_ALL_SURFS
100
AcDbLine
 62
7
  6
CONTINUOUS
 10
1170.4738082028
 20
713.0040975724
 11
1169.7238082028
 21
713.0040975724
  0
LINE
  5
3D6
100
AcDbEntity
  8
6_ALL_SURFS
100
AcDbLine
 62
9
  6
CONTINUOUS
 10
2293.7238082028
 20
713.3040975724
 11
2292.9738082028
 21
713.3040975724
  0
LINE
  5
3D7
100
AcDbEntity
  8
6_ALL_SURFS
100
AcDbLine
 62
9
  6
CONTINUOUS
 10
1170.4738082028
 20
713.3040975724
 11
1169.7238082028
 21
713.3040975724
  0
LINE
  5
3D8
100
AcDbEntity
  8
3_ALL_AXES
100
AcDbLine
 62
7
  6
CONTINUOUS
 10
2296.2238082028
 20
720.5540975724
 11
2296.0730878731
 21
720.5540975724
  0
LINE
  5
3D9
100
AcDbEntity
  8
3_ALL_AXES
100
AcDbLine
 62
7
  6
CONTINUOUS
 10
1167.2238082028
 20
720.5540975724
 11
1167.3745285324
 21
720.5540975724
  0
LINE
  5
3DA
100
AcDbEntity
  8
6_ALL_SURFS
100
AcDbLine
 62
9
  6
CONTINUOUS
 10
1169.7238082028
 20
723.9015127208
 11
1170.4738082028
 21
723.9015127208
  0
LINE
  5
3DB
100
AcDbEntity
  8
6_ALL_SURFS
100
AcDbLine
 62
9
  6
CONTINUOUS
 10
2292.9738082028
 20
723.9015127208
 11
2293.7238082028
 21
723.9015127208
  0
LINE
  5
3DC
100
AcDbEntity
  8
6_ALL_SURFS
100
AcDbLine
 62
9
  6
CONTINUOUS
 10
1169.7238082028
 20
724.8778087279
 11
1170.4738082028
 21
724.8778087279
  0
LINE
  5
3DD
100
AcDbEntity
  8
6_ALL_SURFS
100
AcDbLine
 62
9
  6
CONTINUOUS
 10
2292.9738082028
 20
724.8778087279
 11
2293.7238082028
 21
724.8778087279
  0
LINE
  5
3DE
100
AcDbEntity
  8
3_ALL_AXES
100
AcDbLine
 62
7
  6
CONTINUOUS
 10
2296.2238082028
 20
726.0540975724
 11
2296.0730878731
 21
726.0540975724
  0
LINE
  5
3DF
100
AcDbEntity
  8
3_ALL_AXES
100
AcDbLine
 62
7
  6
CONTINUOUS
 10
1167.2238082028
 20
726.0540975724
 11
1167.3745285324
 21
726.0540975724
  0
LINE
  5
3E0
100
AcDbEntity
  8
3_ALL_AXES
100
AcDbLine
 62
7
  6
CONTINUOUS
 10
2296.2238082028
 20
726.8540975724
 11
2296.0730878731
 21
726.8540975724
  0
LINE
  5
3E1
100
AcDbEntity
  8
3_ALL_AXES
100
AcDbLine
 62
7
  6
CONTINUOUS
 10
1167.2238082028
 20
726.8540975724
 11
1167.3745285324
 21
726.8540975724
  0
LINE
  5
3E2
100
AcDbEntity
  8
6_ALL_SURFS
100
AcDbLine
 62
7
  6
CONTINUOUS
 10
1169.7238082028
 20
727.2706417727
 11
1170.4738082028
 21
727.2706417727
  0
LINE
  5
3E3
100
AcDbEntity
  8
6_ALL_SURFS
100
AcDbLine
 62
7
  6
CONTINUOUS
 10
2292.9738082028
 20
727.2706417727
 11
2293.7238082028
 21
727.2706417727
  0
LINE
  5
3E4
100
AcDbEntity
  8
6_ALL_SURFS
100
AcDbLine
 62
9
  6
CONTINUOUS
 10
2293.7238082028
 20
727.2887339865
 11
2292.9738082028
 21
727.2887339865
  0
LINE
  5
3E5
100
AcDbEntity
  8
6_ALL_SURFS
100
AcDbLine
 62
9
  6
CONTINUOUS
 10
1170.4738082028
 20
727.2887339865
 11
1169.7238082028
 21
727.2887339865
  0
LINE
  5
3E6
100
AcDbEntity
  8
6_ALL_SURFS
100
AcDbLine
 62
9
  6
CONTINUOUS
 10
1169.7238082028
 20
727.6437901932
 11
1170.4738082028
 21
727.6437901932
  0
LINE
  5
3E7
100
AcDbEntity
  8
6_ALL_SURFS
100
AcDbLine
 62
9
  6
CONTINUOUS
 10
2292.9738082028
 20
727.6437901932
 11
2293.7238082028
 21
727.6437901932
  0
LINE
  5
3E8
100
AcDbEntity
  8
6_ALL_SURFS
100
AcDbLine
 62
7
  6
CONTINUOUS
 10
2293.7238082028
 20
727.7040975724
 11
2292.9738082028
 21
727.7040975724
  0
LINE
  5
3E9
100
AcDbEntity
  8
6_ALL_SURFS
100
AcDbLine
 62
7
  6
CONTINUOUS
 10
1170.4738082028
 20
727.7040975724
 11
1169.7238082028
 21
727.7040975724
  0
LINE
  5
3EA
100
AcDbEntity
  8
6_ALL_SURFS
100
AcDbLine
 62
9
  6
CONTINUOUS
 10
2293.7238082028
 20
728.0040975724
 11
2292.9738082028
 21
728.0040975724
  0
LINE
  5
3EB
100
AcDbEntity
  8
6_ALL_SURFS
100
AcDbLine
 62
9
  6
CONTINUOUS
 10
1170.4738082028
 20
728.0040975724
 11
1169.7238082028
 21
728.0040975724
  0
LINE
  5
3EC
100
AcDbEntity
  8
6_ALL_SURFS
100
AcDbLine
 62
9
  6
CONTINUOUS
 10
1169.7238082028
 20
728.8236538599
 11
1170.4738082028
 21
728.8236538599
  0
LINE
  5
3ED
100
AcDbEntity
  8
6_ALL_SURFS
100
AcDbLine
 62
9
  6
CONTINUOUS
 10
2292.9738082028
 20
728.8236538599
 11
2293.7238082028
 21
728.8236538599
  0
LINE
  5
3EE
100
AcDbEntity
  8
6_ALL_SURFS
100
AcDbLine
 62
9
  6
CONTINUOUS
 10
1169.7238082028
 20
729.0430599704
 11
1170.4738082028
 21
729.0430599704
  0
LINE
  5
3EF
100
AcDbEntity
  8
6_ALL_SURFS
100
AcDbLine
 62
9
  6
CONTINUOUS
 10
2292.9738082028
 20
729.0430599704
 11
2293.7238082028
 21
729.0430599704
  0
LINE
  5
3F0
100
AcDbEntity
  8
6_ALL_SURFS
100
AcDbLine
 62
7
  6
CONTINUOUS
 10
2293.7238082028
 20
729.6040975724
 11
2292.9738082028
 21
729.6040975724
  0
LINE
  5
3F1
100
AcDbEntity
  8
6_ALL_SURFS
100
AcDbLine
 62
7
  6
CONTINUOUS
 10
1170.4738082028
 20
729.6040975724
 11
1169.7238082028
 21
729.6040975724
  0
LINE
  5
3F2
100
AcDbEntity
  8
6_ALL_SURFS
100
AcDbLine
 62
9
  6
CONTINUOUS
 10
2293.7238082028
 20
729.9040975724
 11
2292.9738082028
 21
729.9040975724
  0
LINE
  5
3F3
100
AcDbEntity
  8
6_ALL_SURFS
100
AcDbLine
 62
9
  6
CONTINUOUS
 10
1170.4738082028
 20
729.9040975724
 11
1169.7238082028
 21
729.9040975724
  0
LINE
  5
3F4
100
AcDbEntity
  8
7_ALL_FEATURES
100
AcDbLine
 62
9
  6
CONTINUOUS
 10
1170.4738082028
 20
730.4540975724
 11
2292.9738082028
 21
730.4540975724
  0
LINE
  5
3F5
100
AcDbEntity
  8
6_ALL_SURFS
100
AcDbLine
 62
9
  6
CONTINUOUS
 10
1169.7238082028
 20
730.5540975724
 11
1170.4738082028
 21
730.5540975724
  0
LINE
  5
3F6
100
AcDbEntity
  8
6_ALL_SURFS
100
AcDbLine
 62
9
  6
CONTINUOUS
 10
2292.9738082028
 20
730.5540975724
 11
2293.7238082028
 21
730.5540975724
  0
LINE
  5
3F7
100
AcDbEntity
  8
7_ALL_FEATURES
100
AcDbLine
 62
7
  6
CONTINUOUS
 10
1170.4738082028
 20
730.6540975724
 11
2292.9738082028
 21
730.6540975724
  0
LINE
  5
3F8
100
AcDbEntity
  8
6_ALL_SURFS
100
AcDbLine
 62
7
  6
CONTINUOUS
 10
2293.7238082028
 20
730.8540975724
 11
1169.7238082028
 21
730.8540975724
  0
LINE
  5
3F9
100
AcDbEntity
  8
6_ALL_SURFS
100
AcDbLine
 62
9
  6
CONTINUOUS
 10
2293.7238082028
 20
731.1540975724
 11
1169.7238082028
 21
731.1540975724
  0
LINE
  5
3FA
100
AcDbEntity
  8
7_ALL_FEATURES
100
AcDbLine
 62
9
  6
CONTINUOUS
 10
2295.2238082028
 20
731.7540975724
 11
2293.7238082028
 21
731.7540975724
  0
LINE
  5
3FB
100
AcDbEntity
  8
7_ALL_FEATURES
100
AcDbLine
 62
9
  6
CONTINUOUS
 10
1168.2238082028
 20
731.7540975724
 11
1169.7238082028
 21
731.7540975724
  0
LINE
  5
3FC
100
AcDbEntity
  8
6_ALL_SURFS
100
AcDbLine
 62
9
  6
CONTINUOUS
 10
2293.7238082028
 20
731.8040975724
 11
1169.7238082028
 21
731.8040975724
  0
LINE
  5
3FD
100
AcDbEntity
  8
6_ALL_SURFS
100
AcDbLine
 62
7
  6
CONTINUOUS
 10
2293.7238082028
 20
732.1040975724
 11
1169.7238082028
 21
732.1040975724
  0
LINE
  5
3FE
100
AcDbEntity
  8
3_ALL_AXES
100
AcDbLine
 62
7
  6
CONTINUOUS
 10
2296.2238082028
 20
732.3540975724
 11
2296.0730878731
 21
732.3540975724
  0
LINE
  5
3FF
100
AcDbEntity
  8
3_ALL_AXES
100
AcDbLine
 62
7
  6
CONTINUOUS
 10
1167.2238082028
 20
732.3540975724
 11
1167.3745285324
 21
732.3540975724
  0
LINE
  5
400
100
AcDbEntity
  8
6_ALL_SURFS
100
AcDbLine
 62
9
  6
CONTINUOUS
 10
1169.7238082028
 20
732.4040975724
 11
2293.7238082028
 21
732.4040975724
  0
LINE
  5
401
100
AcDbEntity
  8
7_ALL_FEATURES
100
AcDbLine
 62
7
  6
CONTINUOUS
 10
2295.2238082028
 20
732.5040975724
 11
2293.7238082028
 21
732.5040975724
  0
LINE
  5
402
100
AcDbEntity
  8
7_ALL_FEATURES
100
AcDbLine
 62
7
  6
CONTINUOUS
 10
1168.2238082028
 20
732.5040975724
 11
1169.7238082028
 21
732.5040975724
  0
LINE
  5
403
100
AcDbEntity
  8
6_ALL_SURFS
100
AcDbLine
 62
7
  6
CONTINUOUS
 10
1169.7238082028
 20
734.3540975724
 11
2293.7238082028
 21
734.3540975724
  0
LINE
  5
404
100
AcDbEntity
  8
6_ALL_SURFS
100
AcDbLine
 62
7
  6
CONTINUOUS
 10
1169.7238082028
 20
734.9540975724
 11
2293.7238082028
 21
734.9540975724
  0
LINE
  5
405
100
AcDbEntity
  8
6_ALL_SURFS
100
AcDbLine
 62
7
  6
CONTINUOUS
 10
1169.7238082028
 20
737.3540975724
 11
2293.7238082028
 21
737.3540975724
  0
LINE
  5
406
100
AcDbEntity
  8
6_ALL_SURFS
100
AcDbLine
 62
7
  6
CONTINUOUS
 10
1169.7238082028
 20
737.9540975724
 11
2293.7238082028
 21
737.9540975724
  0
LINE
  5
407
100
AcDbEntity
  8
6_ALL_SURFS
100
AcDbLine
 62
7
  6
CONTINUOUS
 10
1169.7238082028
 20
740.3540975724
 11
2293.7238082028
 21
740.3540975724
  0
LINE
  5
408
100
AcDbEntity
  8
6_ALL_SURFS
100
AcDbLine
 62
7
  6
CONTINUOUS
 10
1169.7238082028
 20
740.9540975724
 11
2293.7238082028
 21
740.9540975724
  0
LINE
  5
409
100
AcDbEntity
  8
6_ALL_SURFS
100
AcDbLine
 62
7
  6
CONTINUOUS
 10
1169.7238082028
 20
743.3540975724
 11
1227.9780416938
 21
743.3540975724
  0
LINE
  5
40A
100
AcDbEntity
  8
6_ALL_SURFS
100
AcDbLine
 62
7
  6
CONTINUOUS
 10
1235.4695747117
 20
743.3540975724
 11
1477.9780416938
 21
743.3540975724
  0
LINE
  5
40B
100
AcDbEntity
  8
6_ALL_SURFS
100
AcDbLine
 62
7
  6
CONTINUOUS
 10
1485.4695747117
 20
743.3540975724
 11
1727.9780416938
 21
743.3540975724
  0
LINE
  5
40C
100
AcDbEntity
  8
6_ALL_SURFS
100
AcDbLine
 62
7
  6
CONTINUOUS
 10
1735.4695747117
 20
743.3540975724
 11
1977.9780416938
 21
743.3540975724
  0
LINE
  5
40D
100
AcDbEntity
  8
6_ALL_SURFS
100
AcDbLine
 62
7
  6
CONTINUOUS
 10
1985.4695747117
 20
743.3540975724
 11
2227.9780416938
 21
743.3540975724
  0
LINE
  5
40E
100
AcDbEntity
  8
6_ALL_SURFS
100
AcDbLine
 62
7
  6
CONTINUOUS
 10
2235.4695747117
 20
743.3540975724
 11
2293.7238082028
 21
743.3540975724
  0
LINE
  5
40F
100
AcDbEntity
  8
6_ALL_SURFS
100
AcDbLine
 62
7
  6
CONTINUOUS
 10
1169.7238082028
 20
743.9540975724
 11
1227.5679970016
 21
743.9540975724
  0
LINE
  5
410
100
AcDbEntity
  8
6_ALL_SURFS
100
AcDbLine
 62
7
  6
CONTINUOUS
 10
1235.8796194039
 20
743.9540975724
 11
1477.5679970016
 21
743.9540975724
  0
LINE
  5
411
100
AcDbEntity
  8
6_ALL_SURFS
100
AcDbLine
 62
7
  6
CONTINUOUS
 10
1485.8796194039
 20
743.9540975724
 11
1727.5679970016
 21
743.9540975724
  0
LINE
  5
412
100
AcDbEntity
  8
6_ALL_SURFS
100
AcDbLine
 62
7
  6
CONTINUOUS
 10
1735.8796194039
 20
743.9540975724
 11
1977.5679970016
 21
743.9540975724
  0
LINE
  5
413
100
AcDbEntity
  8
6_ALL_SURFS
100
AcDbLine
 62
7
  6
CONTINUOUS
 10
1985.8796194039
 20
743.9540975724
 11
2227.5679970016
 21
743.9540975724
  0
LINE
  5
414
100
AcDbEntity
  8
6_ALL_SURFS
100
AcDbLine
 62
7
  6
CONTINUOUS
 10
2235.8796194039
 20
743.9540975724
 11
2293.7238082028
 21
743.9540975724
  0
LINE
  5
415
100
AcDbEntity
  8
6_ALL_SURFS
100
AcDbLine
 62
7
  6
CONTINUOUS
 10
1169.7238082028
 20
746.3540975724
 11
1226.9247700971
 21
746.3540975724
  0
LINE
  5
416
100
AcDbEntity
  8
6_ALL_SURFS
100
AcDbLine
 62
7
  6
CONTINUOUS
 10
1236.5228463084
 20
746.3540975724
 11
1476.9247700971
 21
746.3540975724
  0
LINE
  5
417
100
AcDbEntity
  8
6_ALL_SURFS
100
AcDbLine
 62
7
  6
CONTINUOUS
 10
1486.5228463084
 20
746.3540975724
 11
1726.9247700971
 21
746.3540975724
  0
LINE
  5
418
100
AcDbEntity
  8
6_ALL_SURFS
100
AcDbLine
 62
7
  6
CONTINUOUS
 10
1736.5228463084
 20
746.3540975724
 11
1976.9247700971
 21
746.3540975724
  0
LINE
  5
419
100
AcDbEntity
  8
6_ALL_SURFS
100
AcDbLine
 62
7
  6
CONTINUOUS
 10
1986.5228463084
 20
746.3540975724
 11
2226.9247700971
 21
746.3540975724
  0
LINE
  5
41A
100
AcDbEntity
  8
6_ALL_SURFS
100
AcDbLine
 62
7
  6
CONTINUOUS
 10
2236.5228463084
 20
746.3540975724
 11
2293.7238082028
 21
746.3540975724
  0
LINE
  5
41B
100
AcDbEntity
  8
6_ALL_SURFS
100
AcDbLine
 62
7
  6
CONTINUOUS
 10
1169.7238082028
 20
746.9540975724
 11
1226.9624253427
 21
746.9540975724
  0
LINE
  5
41C
100
AcDbEntity
  8
6_ALL_SURFS
100
AcDbLine
 62
7
  6
CONTINUOUS
 10
1236.4851910628
 20
746.9540975724
 11
1476.9624253427
 21
746.9540975724
  0
LINE
  5
41D
100
AcDbEntity
  8
6_ALL_SURFS
100
AcDbLine
 62
7
  6
CONTINUOUS
 10
1486.4851910628
 20
746.9540975724
 11
1726.9624253427
 21
746.9540975724
  0
LINE
  5
41E
100
AcDbEntity
  8
6_ALL_SURFS
100
AcDbLine
 62
7
  6
CONTINUOUS
 10
1736.4851910628
 20
746.9540975724
 11
1976.9624253427
 21
746.9540975724
  0
LINE
  5
41F
100
AcDbEntity
  8
6_ALL_SURFS
100
AcDbLine
 62
7
  6
CONTINUOUS
 10
1986.4851910628
 20
746.9540975724
 11
2226.9624253427
 21
746.9540975724
  0
LINE
  5
420
100
AcDbEntity
  8
6_ALL_SURFS
100
AcDbLine
 62
7
  6
CONTINUOUS
 10
2236.4851910628
 20
746.9540975724
 11
2293.7238082028
 21
746.9540975724
  0
LINE
  5
421
100
AcDbEntity
  8
6_ALL_SURFS
100
AcDbLine
 62
7
  6
CONTINUOUS
 10
1169.7238082028
 20
749.8540975724
 11
1228.4404004091
 21
749.8540975724
  0
LINE
  5
422
100
AcDbEntity
  8
6_ALL_SURFS
100
AcDbLine
 62
7
  6
CONTINUOUS
 10
1235.0072159965
 20
749.8540975724
 11
1478.4404004091
 21
749.8540975724
  0
LINE
  5
423
100
AcDbEntity
  8
6_ALL_SURFS
100
AcDbLine
 62
7
  6
CONTINUOUS
 10
1485.0072159965
 20
749.8540975724
 11
1728.4404004091
 21
749.8540975724
  0
LINE
  5
424
100
AcDbEntity
  8
6_ALL_SURFS
100
AcDbLine
 62
7
  6
CONTINUOUS
 10
1735.0072159965
 20
749.8540975724
 11
1978.4404004091
 21
749.8540975724
  0
LINE
  5
425
100
AcDbEntity
  8
6_ALL_SURFS
100
AcDbLine
 62
7
  6
CONTINUOUS
 10
1985.0072159965
 20
749.8540975724
 11
2228.4404004091
 21
749.8540975724
  0
LINE
  5
426
100
AcDbEntity
  8
6_ALL_SURFS
100
AcDbLine
 62
7
  6
CONTINUOUS
 10
2235.0072159965
 20
749.8540975724
 11
2293.7238082028
 21
749.8540975724
  0
LINE
  5
427
100
AcDbEntity
  8
6_ALL_SURFS
100
AcDbLine
 62
9
  6
CONTINUOUS
 10
2293.7238082028
 20
751.9995691628
 11
1169.7238082028
 21
751.9995691628
  0
LINE
  5
428
100
AcDbEntity
  8
6_ALL_SURFS
100
AcDbLine
 62
7
  6
CONTINUOUS
 10
1169.7238082028
 20
752.3540975724
 11
2293.7238082028
 21
752.3540975724
  0
LINE
  5
429
100
AcDbEntity
  8
3_ALL_AXES
100
AcDbLine
 62
7
  6
CONTINUOUS
 10
2296.0730878731
 20
732.3540975724
 11
2295.2238082028
 21
731.6414673143
  0
LINE
  5
42A
100
AcDbEntity
  8
3_ALL_AXES
100
AcDbLine
 62
7
  6
CONTINUOUS
 10
2296.0730878731
 20
726.0540975724
 11
2295.2238082028
 21
725.3414673143
  0
LINE
  5
42B
100
AcDbEntity
  8
3_ALL_AXES
100
AcDbLine
 62
7
  6
CONTINUOUS
 10
2296.0730878731
 20
702.0540975724
 11
2295.2238082028
 21
701.3414673143
  0
LINE
  5
42C
100
AcDbEntity
  8
3_ALL_AXES
100
AcDbLine
 62
7
  6
CONTINUOUS
 10
2296.0730878731
 20
695.7540975724
 11
2295.2238082028
 21
695.0414673143
  0
LINE
  5
42D
100
AcDbEntity
  8
3_ALL_AXES
100
AcDbLine
 62
7
  6
CONTINUOUS
 10
2296.0730878731
 20
690.2540975724
 11
2295.2238082028
 21
690.9667278306
  0
LINE
  5
42E
100
AcDbEntity
  8
3_ALL_AXES
100
AcDbLine
 62
7
  6
CONTINUOUS
 10
2296.0730878731
 20
696.5540975724
 11
2295.2238082028
 21
697.2667278306
  0
LINE
  5
42F
100
AcDbEntity
  8
3_ALL_AXES
100
AcDbLine
 62
7
  6
CONTINUOUS
 10
2296.0730878731
 20
720.5540975724
 11
2295.2238082028
 21
721.2667278306
  0
LINE
  5
430
100
AcDbEntity
  8
3_ALL_AXES
100
AcDbLine
 62
7
  6
CONTINUOUS
 10
2296.0730878731
 20
726.8540975724
 11
2295.2238082028
 21
727.5667278306
  0
LINE
  5
431
100
AcDbEntity
  8
7_ALL_FEATURES
100
AcDbLine
 62
7
  6
CONTINUOUS
 10
2292.9738082028
 20
730.6540975724
 11
2292.9738082028
 21
691.9540975724
  0
LINE
  5
432
100
AcDbEntity
  8
3_ALL_AXES
100
AcDbLine
 62
7
  6
CONTINUOUS
 10
2293.7238082028
 20
688.2540975724
 11
2293.7238082028
 21
672.7540975724
  0
LINE
  5
433
100
AcDbEntity
  8
7_ALL_FEATURES
100
AcDbLine
 62
7
  6
CONTINUOUS
 10
2293.7238082028
 20
672.7540975724
 11
2293.7238082028
 21
670.2541078479
  0
LINE
  5
434
100
AcDbEntity
  8
7_ALL_FEATURES
100
AcDbLine
 62
7
  6
CONTINUOUS
 10
2293.7238082028
 20
688.2540975724
 11
2293.7238082028
 21
732.5040975724
  0
LINE
  5
435
100
AcDbEntity
  8
6_ALL_SURFS
100
AcDbLine
 62
7
  6
CONTINUOUS
 10
2293.7238082028
 20
731.1540975724
 11
2293.7238082028
 21
732.1040975724
  0
LINE
  5
436
100
AcDbEntity
  8
6_ALL_SURFS
100
AcDbLine
 62
7
  6
CONTINUOUS
 10
2293.7238082028
 20
732.5040975724
 11
2293.7238082028
 21
752.354087297
  0
LINE
  5
437
100
AcDbEntity
  8
7_ALL_FEATURES
100
AcDbLine
 62
7
  6
CONTINUOUS
 10
2295.2238082028
 20
732.5040975724
 11
2295.2238082028
 21
690.1040975724
  0
LINE
  5
438
100
AcDbEntity
  8
3_ALL_AXES
100
AcDbLine
 62
7
  6
CONTINUOUS
 10
2296.0730878731
 20
690.2540975724
 11
2296.0730878731
 21
695.7540975724
  0
LINE
  5
439
100
AcDbEntity
  8
3_ALL_AXES
100
AcDbLine
 62
7
  6
CONTINUOUS
 10
2296.0730878731
 20
696.5540975724
 11
2296.0730878731
 21
702.0540975724
  0
LINE
  5
43A
100
AcDbEntity
  8
3_ALL_AXES
100
AcDbLine
 62
7
  6
CONTINUOUS
 10
2296.0730878731
 20
720.5540975724
 11
2296.0730878731
 21
726.0540975724
  0
LINE
  5
43B
100
AcDbEntity
  8
3_ALL_AXES
100
AcDbLine
 62
7
  6
CONTINUOUS
 10
2296.0730878731
 20
726.8540975724
 11
2296.0730878731
 21
732.3540975724
  0
LINE
  5
43C
100
AcDbEntity
  8
3_ALL_AXES
100
AcDbLine
 62
7
  6
CONTINUOUS
 10
2296.2238082028
 20
690.2540975724
 11
2296.2238082028
 21
695.7540975724
  0
LINE
  5
43D
100
AcDbEntity
  8
3_ALL_AXES
100
AcDbLine
 62
7
  6
CONTINUOUS
 10
2296.2238082028
 20
696.5540975724
 11
2296.2238082028
 21
702.0540975724
  0
LINE
  5
43E
100
AcDbEntity
  8
3_ALL_AXES
100
AcDbLine
 62
7
  6
CONTINUOUS
 10
2296.2238082028
 20
720.5540975724
 11
2296.2238082028
 21
726.0540975724
  0
LINE
  5
43F
100
AcDbEntity
  8
3_ALL_AXES
100
AcDbLine
 62
7
  6
CONTINUOUS
 10
2296.2238082028
 20
726.8540975724
 11
2296.2238082028
 21
732.3540975724
  0
CIRCLE
  5
440
100
AcDbEntity
  8
3_ALL_AXES
100
AcDbCircle
 62
7
  6
CONTINUOUS
 10
559.2202075434
 20
428.0500856247
 40
2.75
  0
ARC
  5
441
100
AcDbEntity
  8
7_ALL_FEATURES
100
AcDbCircle
 62
7
  6
CONTINUOUS
 10
558.0202075434
 20
433.4500856247
 40
1.5
100
AcDbArc
 50
270.0
 51
360.0
  0
ARC
  5
442
100
AcDbEntity
  8
7_ALL_FEATURES
100
AcDbCircle
 62
7
  6
CONTINUOUS
 10
557.0702075434
 20
431.2000856247
 40
0.75
100
AcDbArc
 50
90.0
 51
180.0
  0
ARC
  5
443
100
AcDbEntity
  8
7_ALL_FEATURES
100
AcDbCircle
 62
7
  6
CONTINUOUS
 10
557.0702075434
 20
417.8000856247
 40
0.75
100
AcDbArc
 50
180.0
 51
270.0
  0
ARC
  5
444
100
AcDbEntity
  8
6_ALL_SURFS
100
AcDbCircle
 62
7
  6
CONTINUOUS
 10
554.1702075434
 20
418.1500856247
 40
0.5
100
AcDbArc
 50
53.1301023542
 51
126.8698976458
  0
ARC
  5
445
100
AcDbEntity
  8
6_ALL_SURFS
100
AcDbCircle
 62
7
  6
CONTINUOUS
 10
551.1702075434
 20
418.1500856247
 40
0.5
100
AcDbArc
 50
53.1301023542
 51
126.8698976458
  0
ARC
  5
446
100
AcDbEntity
  8
6_ALL_SURFS
100
AcDbCircle
 62
7
  6
CONTINUOUS
 10
548.1702075434
 20
418.1500856247
 40
0.5
100
AcDbArc
 50
53.1301023542
 51
126.8698976458
  0
ARC
  5
447
100
AcDbEntity
  8
6_ALL_SURFS
100
AcDbCircle
 62
7
  6
CONTINUOUS
 10
545.1702075434
 20
418.1500856247
 40
0.5
100
AcDbArc
 50
53.1301023542
 51
126.8698976458
  0
ARC
  5
448
100
AcDbEntity
  8
6_ALL_SURFS
100
AcDbCircle
 62
7
  6
CONTINUOUS
 10
542.1702075434
 20
418.1500856247
 40
0.5
100
AcDbArc
 50
53.1301023542
 51
126.8698976458
  0
ARC
  5
449
100
AcDbEntity
  8
6_ALL_SURFS
100
AcDbCircle
 62
7
  6
CONTINUOUS
 10
536.8639109013
 20
419.1563822668
 40
0.3937033579
100
AcDbArc
 50
90.0
 51
264.2894068625
  0
ARC
  5
44A
100
AcDbEntity
  8
6_ALL_SURFS
100
AcDbCircle
 62
7
  6
CONTINUOUS
 10
556.1702075434
 20
419.8500856247
 40
0.3
100
AcDbArc
 50
270.0
 51
300.1901662436
  0
ARC
  5
44B
100
AcDbEntity
  8
6_ALL_SURFS
100
AcDbCircle
 62
7
  6
CONTINUOUS
 10
557.0202075434
 20
417.3500856247
 40
0.3
100
AcDbArc
 50
254.6340910632
 51
270.0
  0
CIRCLE
  5
44C
100
AcDbEntity
  8
3_ALL_AXES
100
AcDbCircle
 62
7
  6
CONTINUOUS
 10
565.5202075434
 20
493.6500856247
 40
2.75
  0
ARC
  5
44D
100
AcDbEntity
  8
6_ALL_SURFS
100
AcDbCircle
 62
7
  6
CONTINUOUS
 10
575.7202075434
 20
495.0500856247
 40
1.8
100
AcDbArc
 50
90.0
 51
105.6234228216
  0
ARC
  5
44E
100
AcDbEntity
  8
7_ALL_FEATURES
100
AcDbCircle
 62
7
  6
CONTINUOUS
 10
574.8744562323
 20
495.8500856247
 40
1.0
100
AcDbArc
 50
48.5903778907
 51
90.0
  0
ARC
  5
44F
100
AcDbEntity
  8
7_ALL_FEATURES
100
AcDbCircle
 62
7
  6
CONTINUOUS
 10
562.2702075434
 20
496.1000856247
 40
0.75
100
AcDbArc
 50
90.0
 51
180.0
  0
ARC
  5
450
100
AcDbEntity
  8
6_ALL_SURFS
100
AcDbCircle
 62
7
  6
CONTINUOUS
 10
561.8202075434
 20
496.5500856247
 40
0.3
100
AcDbArc
 50
90.0
 51
180.0
  0
CIRCLE
  5
451
100
AcDbEntity
  8
3_ALL_AXES
100
AcDbCircle
 62
7
  6
CONTINUOUS
 10
595.8202075434
 20
428.0500856247
 40
2.75
  0
ARC
  5
452
100
AcDbEntity
  8
7_ALL_FEATURES
100
AcDbCircle
 62
7
  6
CONTINUOUS
 10
597.0202075434
 20
433.4500856247
 40
1.5
100
AcDbArc
 50
180.0
 51
270.0
  0
ARC
  5
453
100
AcDbEntity
  8
7_ALL_FEATURES
100
AcDbCircle
 62
7
  6
CONTINUOUS
 10
597.9702075434
 20
417.8000856247
 40
0.75
100
AcDbArc
 50
270.0
 51
360.0
  0
ARC
  5
454
100
AcDbEntity
  8
7_ALL_FEATURES
100
AcDbCircle
 62
7
  6
CONTINUOUS
 10
597.9702075434
 20
431.2000856247
 40
0.75
100
AcDbArc
 50
0.0
 51
90.0
  0
ARC
  5
455
100
AcDbEntity
  8
3_ALL_AXES
100
AcDbCircle
 62
7
  6
CONTINUOUS
 10
612.8702075434
 20
418.1500856247
 40
0.5
100
AcDbArc
 50
53.1301023542
 51
126.8698976458
  0
ARC
  5
456
100
AcDbEntity
  8
3_ALL_AXES
100
AcDbCircle
 62
7
  6
CONTINUOUS
 10
609.8702075434
 20
418.1500856247
 40
0.5
100
AcDbArc
 50
53.1301023542
 51
126.8698976458
  0
ARC
  5
457
100
AcDbEntity
  8
3_ALL_AXES
100
AcDbCircle
 62
7
  6
CONTINUOUS
 10
606.8702075434
 20
418.1500856247
 40
0.5
100
AcDbArc
 50
53.1301023542
 51
126.8698976458
  0
ARC
  5
458
100
AcDbEntity
  8
3_ALL_AXES
100
AcDbCircle
 62
7
  6
CONTINUOUS
 10
603.8702075434
 20
418.1500856247
 40
0.5
100
AcDbArc
 50
53.1301023542
 51
126.8698976458
  0
ARC
  5
459
100
AcDbEntity
  8
3_ALL_AXES
100
AcDbCircle
 62
7
  6
CONTINUOUS
 10
600.8702075434
 20
418.1500856247
 40
0.5
100
AcDbArc
 50
53.1301023542
 51
126.8698976458
  0
ARC
  5
45A
100
AcDbEntity
  8
7_ALL_FEATURES
100
AcDbCircle
 62
7
  6
CONTINUOUS
 10
618.1765041855
 20
419.1563822668
 40
0.3937033579
100
AcDbArc
 50
275.7105931375
 51
90.0
  0
ARC
  5
45B
100
AcDbEntity
  8
7_ALL_FEATURES
100
AcDbCircle
 62
7
  6
CONTINUOUS
 10
598.8702075434
 20
419.8500856247
 40
0.3
100
AcDbArc
 50
239.8098337564
 51
270.0
  0
ARC
  5
45C
100
AcDbEntity
  8
7_ALL_FEATURES
100
AcDbCircle
 62
7
  6
CONTINUOUS
 10
598.0202075434
 20
417.3500856247
 40
0.3
100
AcDbArc
 50
270.0
 51
285.3659089368
  0
ARC
  5
45D
100
AcDbEntity
  8
7_ALL_FEATURES
100
AcDbCircle
 62
7
  6
CONTINUOUS
 10
577.5202075434
 20
474.3500856247
 40
11.0
100
AcDbArc
 50
3.257196161
 51
176.742803839
  0
ARC
  5
45E
100
AcDbEntity
  8
7_ALL_FEATURES
100
AcDbCircle
 62
7
  6
CONTINUOUS
 10
577.5202075434
 20
474.3500856247
 40
11.0
100
AcDbArc
 50
183.257196161
 51
356.742803839
  0
ARC
  5
45F
100
AcDbEntity
  8
7_ALL_FEATURES
100
AcDbCircle
 62
7
  6
CONTINUOUS
 10
577.5202075434
 20
474.3500856247
 40
10.25
100
AcDbArc
 50
3.4958136324
 51
176.5041863676
  0
ARC
  5
460
100
AcDbEntity
  8
7_ALL_FEATURES
100
AcDbCircle
 62
7
  6
CONTINUOUS
 10
577.5202075434
 20
474.3500856247
 40
10.25
100
AcDbArc
 50
183.4958136324
 51
356.5041863676
  0
ARC
  5
461
100
AcDbEntity
  8
7_ALL_FEATURES
100
AcDbCircle
 62
7
  6
CONTINUOUS
 10
577.5202075434
 20
498.8500856247
 40
3.0
100
AcDbArc
 50
228.5903778907
 51
311.4096221093
  0
CIRCLE
  5
462
100
AcDbEntity
  8
3_ALL_AXES
100
AcDbCircle
 62
7
  6
CONTINUOUS
 10
589.5202075434
 20
493.6500856247
 40
2.75
  0
ARC
  5
463
100
AcDbEntity
  8
7_ALL_FEATURES
100
AcDbCircle
 62
7
  6
CONTINUOUS
 10
579.3202075434
 20
495.0500856247
 40
1.8
100
AcDbArc
 50
74.3765771784
 51
90.0
  0
ARC
  5
464
100
AcDbEntity
  8
7_ALL_FEATURES
100
AcDbCircle
 62
7
  6
CONTINUOUS
 10
580.1659588544
 20
495.8500856247
 40
1.0
100
AcDbArc
 50
90.0
 51
131.4096221093
  0
ARC
  5
465
100
AcDbEntity
  8
7_ALL_FEATURES
100
AcDbCircle
 62
7
  6
CONTINUOUS
 10
592.7702075434
 20
496.1000856247
 40
0.75
100
AcDbArc
 50
0.0
 51
90.0
  0
ARC
  5
466
100
AcDbEntity
  8
7_ALL_FEATURES
100
AcDbCircle
 62
7
  6
CONTINUOUS
 10
593.2202075434
 20
496.5500856247
 40
0.3
100
AcDbArc
 50
0.0
 51
90.0
  0
ARC
  5
467
100
AcDbEntity
  8
7_ALL_FEATURES
100
AcDbCircle
 62
7
  6
CONTINUOUS
 10
1481.7238082028
 20
676.2540975724
 40
4.7990381057
100
AcDbArc
 50
38.6913826582
 51
141.3086173418
  0
ARC
  5
468
100
AcDbEntity
  8
7_ALL_FEATURES
100
AcDbCircle
 62
7
  6
CONTINUOUS
 10
1231.7238082028
 20
676.2540975724
 40
4.7990381057
100
AcDbArc
 50
38.6913826582
 51
141.3086173418
  0
ARC
  5
469
100
AcDbEntity
  8
7_ALL_FEATURES
100
AcDbCircle
 62
7
  6
CONTINUOUS
 10
1231.7238082028
 20
676.2540975724
 40
4.7990381057
100
AcDbArc
 50
149.9933694481
 51
180.0
  0
ARC
  5
46A
100
AcDbEntity
  8
7_ALL_FEATURES
100
AcDbCircle
 62
7
  6
CONTINUOUS
 10
1481.7238082028
 20
676.2540975724
 40
4.7990381057
100
AcDbArc
 50
149.9933694481
 51
180.0
  0
ARC
  5
46B
100
AcDbEntity
  8
7_ALL_FEATURES
100
AcDbCircle
 62
7
  6
CONTINUOUS
 10
1231.7238082028
 20
676.2540975724
 40
4.7990381057
100
AcDbArc
 50
0.0
 51
30.0066305519
  0
ARC
  5
46C
100
AcDbEntity
  8
7_ALL_FEATURES
100
AcDbCircle
 62
7
  6
CONTINUOUS
 10
1481.7238082028
 20
676.2540975724
 40
4.7990381057
100
AcDbArc
 50
0.0
 51
30.0066305519
  0
ARC
  5
46D
100
AcDbEntity
  8
7_ALL_FEATURES
100
AcDbCircle
 62
7
  6
CONTINUOUS
 10
1231.7238082028
 20
676.2540975724
 40
4.7990381057
100
AcDbArc
 50
187.1822026405
 51
226.828815981
  0
ARC
  5
46E
100
AcDbEntity
  8
7_ALL_FEATURES
100
AcDbCircle
 62
7
  6
CONTINUOUS
 10
1481.7238082028
 20
676.2540975724
 40
4.7990381057
100
AcDbArc
 50
187.1822026405
 51
226.828815981
  0
ARC
  5
46F
100
AcDbEntity
  8
7_ALL_FEATURES
100
AcDbCircle
 62
7
  6
CONTINUOUS
 10
1231.7238082028
 20
676.2540975724
 40
4.7990381057
100
AcDbArc
 50
313.171184019
 51
352.8177973595
  0
ARC
  5
470
100
AcDbEntity
  8
7_ALL_FEATURES
100
AcDbCircle
 62
7
  6
CONTINUOUS
 10
1481.7238082028
 20
676.2540975724
 40
4.7990381057
100
AcDbArc
 50
313.171184019
 51
352.8177973595
  0
CIRCLE
  5
471
100
AcDbEntity
  8
6_ALL_SURFS
100
AcDbCircle
 62
7
  6
CONTINUOUS
 10
1481.7238082028
 20
676.2540975724
 40
3.5
  0
CIRCLE
  5
472
100
AcDbEntity
  8
6_ALL_SURFS
100
AcDbCircle
 62
7
  6
CONTINUOUS
 10
1231.7238082028
 20
676.2540975724
 40
3.5
  0
ARC
  5
473
100
AcDbEntity
  8
6_ALL_SURFS
100
AcDbCircle
 62
7
  6
CONTINUOUS
 10
1481.7238082028
 20
746.3540975724
 40
4.7990381057
100
AcDbArc
 50
218.6913826582
 51
321.3086173418
  0
ARC
  5
474
100
AcDbEntity
  8
6_ALL_SURFS
100
AcDbCircle
 62
7
  6
CONTINUOUS
 10
1231.7238082028
 20
746.3540975724
 40
4.7990381057
100
AcDbArc
 50
218.6913826582
 51
321.3086173418
  0
ARC
  5
475
100
AcDbEntity
  8
6_ALL_SURFS
100
AcDbCircle
 62
7
  6
CONTINUOUS
 10
1481.7238082028
 20
746.3540975724
 40
4.7990381057
100
AcDbArc
 50
7.1822026405
 51
46.828815981
  0
ARC
  5
476
100
AcDbEntity
  8
6_ALL_SURFS
100
AcDbCircle
 62
7
  6
CONTINUOUS
 10
1231.7238082028
 20
746.3540975724
 40
4.7990381057
100
AcDbArc
 50
7.1822026405
 51
46.828815981
  0
ARC
  5
477
100
AcDbEntity
  8
6_ALL_SURFS
100
AcDbCircle
 62
7
  6
CONTINUOUS
 10
1481.7238082028
 20
746.3540975724
 40
4.7990381057
100
AcDbArc
 50
133.171184019
 51
172.8177973595
  0
ARC
  5
478
100
AcDbEntity
  8
6_ALL_SURFS
100
AcDbCircle
 62
7
  6
CONTINUOUS
 10
1231.7238082028
 20
746.3540975724
 40
4.7990381057
100
AcDbArc
 50
133.171184019
 51
172.8177973595
  0
ARC
  5
479
100
AcDbEntity
  8
6_ALL_SURFS
100
AcDbCircle
 62
7
  6
CONTINUOUS
 10
1481.7238082028
 20
746.3540975724
 40
4.7990381057
100
AcDbArc
 50
329.9933694481
 51
360.0
  0
ARC
  5
47A
100
AcDbEntity
  8
6_ALL_SURFS
100
AcDbCircle
 62
7
  6
CONTINUOUS
 10
1231.7238082028
 20
746.3540975724
 40
4.7990381057
100
AcDbArc
 50
329.9933694481
 51
360.0
  0
ARC
  5
47B
100
AcDbEntity
  8
6_ALL_SURFS
100
AcDbCircle
 62
7
  6
CONTINUOUS
 10
1481.7238082028
 20
746.3540975724
 40
4.7990381057
100
AcDbArc
 50
180.0
 51
210.0066305519
  0
ARC
  5
47C
100
AcDbEntity
  8
6_ALL_SURFS
100
AcDbCircle
 62
7
  6
CONTINUOUS
 10
1231.7238082028
 20
746.3540975724
 40
4.7990381057
100
AcDbArc
 50
180.0
 51
210.0066305519
  0
CIRCLE
  5
47D
100
AcDbEntity
  8
6_ALL_SURFS
100
AcDbCircle
 62
7
  6
CONTINUOUS
 10
1481.7238082028
 20
746.3540975724
 40
3.5
  0
CIRCLE
  5
47E
100
AcDbEntity
  8
6_ALL_SURFS
100
AcDbCircle
 62
7
  6
CONTINUOUS
 10
1231.7238082028
 20
746.3540975724
 40
3.5
  0
ARC
  5
47F
100
AcDbEntity
  8
7_ALL_FEATURES
100
AcDbCircle
 62
7
  6
CONTINUOUS
 10
1981.7238082028
 20
676.2540975724
 40
4.7990381057
100
AcDbArc
 50
38.6913826582
 51
141.3086173418
  0
ARC
  5
480
100
AcDbEntity
  8
7_ALL_FEATURES
100
AcDbCircle
 62
7
  6
CONTINUOUS
 10
1731.7238082028
 20
676.2540975724
 40
4.7990381057
100
AcDbArc
 50
38.6913826582
 51
141.3086173418
  0
ARC
  5
481
100
AcDbEntity
  8
7_ALL_FEATURES
100
AcDbCircle
 62
7
  6
CONTINUOUS
 10
2231.7238082028
 20
676.2540975724
 40
4.7990381057
100
AcDbArc
 50
38.6913826582
 51
141.3086173418
  0
ARC
  5
482
100
AcDbEntity
  8
7_ALL_FEATURES
100
AcDbCircle
 62
7
  6
CONTINUOUS
 10
1731.7238082028
 20
676.2540975724
 40
4.7990381057
100
AcDbArc
 50
149.9933694481
 51
180.0
  0
ARC
  5
483
100
AcDbEntity
  8
7_ALL_FEATURES
100
AcDbCircle
 62
7
  6
CONTINUOUS
 10
1981.7238082028
 20
676.2540975724
 40
4.7990381057
100
AcDbArc
 50
149.9933694481
 51
180.0
  0
ARC
  5
484
100
AcDbEntity
  8
7_ALL_FEATURES
100
AcDbCircle
 62
7
  6
CONTINUOUS
 10
1731.7238082028
 20
676.2540975724
 40
4.7990381057
100
AcDbArc
 50
0.0
 51
30.0066305519
  0
ARC
  5
485
100
AcDbEntity
  8
7_ALL_FEATURES
100
AcDbCircle
 62
7
  6
CONTINUOUS
 10
2231.7238082028
 20
676.2540975724
 40
4.7990381057
100
AcDbArc
 50
149.9933694481
 51
180.0
  0
ARC
  5
486
100
AcDbEntity
  8
7_ALL_FEATURES
100
AcDbCircle
 62
7
  6
CONTINUOUS
 10
1981.7238082028
 20
676.2540975724
 40
4.7990381057
100
AcDbArc
 50
0.0
 51
30.0066305519
  0
ARC
  5
487
100
AcDbEntity
  8
7_ALL_FEATURES
100
AcDbCircle
 62
7
  6
CONTINUOUS
 10
2231.7238082028
 20
676.2540975724
 40
4.7990381057
100
AcDbArc
 50
0.0
 51
30.0066305519
  0
ARC
  5
488
100
AcDbEntity
  8
7_ALL_FEATURES
100
AcDbCircle
 62
7
  6
CONTINUOUS
 10
1731.7238082028
 20
676.2540975724
 40
4.7990381057
100
AcDbArc
 50
187.1822026405
 51
226.828815981
  0
ARC
  5
489
100
AcDbEntity
  8
7_ALL_FEATURES
100
AcDbCircle
 62
7
  6
CONTINUOUS
 10
1981.7238082028
 20
676.2540975724
 40
4.7990381057
100
AcDbArc
 50
187.1822026405
 51
226.828815981
  0
ARC
  5
48A
100
AcDbEntity
  8
7_ALL_FEATURES
100
AcDbCircle
 62
7
  6
CONTINUOUS
 10
1731.7238082028
 20
676.2540975724
 40
4.7990381057
100
AcDbArc
 50
313.171184019
 51
352.8177973595
  0
ARC
  5
48B
100
AcDbEntity
  8
7_ALL_FEATURES
100
AcDbCircle
 62
7
  6
CONTINUOUS
 10
2231.7238082028
 20
676.2540975724
 40
4.7990381057
100
AcDbArc
 50
187.1822026405
 51
226.828815981
  0
ARC
  5
48C
100
AcDbEntity
  8
7_ALL_FEATURES
100
AcDbCircle
 62
7
  6
CONTINUOUS
 10
1981.7238082028
 20
676.2540975724
 40
4.7990381057
100
AcDbArc
 50
313.171184019
 51
352.8177973595
  0
ARC
  5
48D
100
AcDbEntity
  8
7_ALL_FEATURES
100
AcDbCircle
 62
7
  6
CONTINUOUS
 10
2231.7238082028
 20
676.2540975724
 40
4.7990381057
100
AcDbArc
 50
313.171184019
 51
352.8177973595
  0
CIRCLE
  5
48E
100
AcDbEntity
  8
6_ALL_SURFS
100
AcDbCircle
 62
7
  6
CONTINUOUS
 10
2231.7238082028
 20
676.2540975724
 40
3.5
  0
CIRCLE
  5
48F
100
AcDbEntity
  8
6_ALL_SURFS
100
AcDbCircle
 62
7
  6
CONTINUOUS
 10
1981.7238082028
 20
676.2540975724
 40
3.5
  0
CIRCLE
  5
490
100
AcDbEntity
  8
6_ALL_SURFS
100
AcDbCircle
 62
7
  6
CONTINUOUS
 10
1731.7238082028
 20
676.2540975724
 40
3.5
  0
ARC
  5
491
100
AcDbEntity
  8
6_ALL_SURFS
100
AcDbCircle
 62
7
  6
CONTINUOUS
 10
1981.7238082028
 20
746.3540975724
 40
4.7990381057
100
AcDbArc
 50
218.6913826582
 51
321.3086173418
  0
ARC
  5
492
100
AcDbEntity
  8
6_ALL_SURFS
100
AcDbCircle
 62
7
  6
CONTINUOUS
 10
2231.7238082028
 20
746.3540975724
 40
4.7990381057
100
AcDbArc
 50
7.1822026405
 51
46.828815981
  0
ARC
  5
493
100
AcDbEntity
  8
6_ALL_SURFS
100
AcDbCircle
 62
7
  6
CONTINUOUS
 10
1981.7238082028
 20
746.3540975724
 40
4.7990381057
100
AcDbArc
 50
7.1822026405
 51
46.828815981
  0
ARC
  5
494
100
AcDbEntity
  8
6_ALL_SURFS
100
AcDbCircle
 62
7
  6
CONTINUOUS
 10
1731.7238082028
 20
746.3540975724
 40
4.7990381057
100
AcDbArc
 50
218.6913826582
 51
321.3086173418
  0
ARC
  5
495
100
AcDbEntity
  8
6_ALL_SURFS
100
AcDbCircle
 62
7
  6
CONTINUOUS
 10
2231.7238082028
 20
746.3540975724
 40
4.7990381057
100
AcDbArc
 50
133.171184019
 51
172.8177973595
  0
ARC
  5
496
100
AcDbEntity
  8
6_ALL_SURFS
100
AcDbCircle
 62
7
  6
CONTINUOUS
 10
1731.7238082028
 20
746.3540975724
 40
4.7990381057
100
AcDbArc
 50
7.1822026405
 51
46.828815981
  0
ARC
  5
497
100
AcDbEntity
  8
6_ALL_SURFS
100
AcDbCircle
 62
7
  6
CONTINUOUS
 10
1981.7238082028
 20
746.3540975724
 40
4.7990381057
100
AcDbArc
 50
133.171184019
 51
172.8177973595
  0
ARC
  5
498
100
AcDbEntity
  8
6_ALL_SURFS
100
AcDbCircle
 62
7
  6
CONTINUOUS
 10
1731.7238082028
 20
746.3540975724
 40
4.7990381057
100
AcDbArc
 50
133.171184019
 51
172.8177973595
  0
ARC
  5
499
100
AcDbEntity
  8
6_ALL_SURFS
100
AcDbCircle
 62
7
  6
CONTINUOUS
 10
2231.7238082028
 20
746.3540975724
 40
4.7990381057
100
AcDbArc
 50
218.6913826582
 51
321.3086173418
  0
ARC
  5
49A
100
AcDbEntity
  8
6_ALL_SURFS
100
AcDbCircle
 62
7
  6
CONTINUOUS
 10
2231.7238082028
 20
746.3540975724
 40
4.7990381057
100
AcDbArc
 50
329.9933694481
 51
360.0
  0
ARC
  5
49B
100
AcDbEntity
  8
6_ALL_SURFS
100
AcDbCircle
 62
7
  6
CONTINUOUS
 10
1981.7238082028
 20
746.3540975724
 40
4.7990381057
100
AcDbArc
 50
329.9933694481
 51
360.0
  0
ARC
  5
49C
100
AcDbEntity
  8
6_ALL_SURFS
100
AcDbCircle
 62
7
  6
CONTINUOUS
 10
2231.7238082028
 20
746.3540975724
 40
4.7990381057
100
AcDbArc
 50
180.0
 51
210.0066305519
  0
ARC
  5
49D
100
AcDbEntity
  8
6_ALL_SURFS
100
AcDbCircle
 62
7
  6
CONTINUOUS
 10
1731.7238082028
 20
746.3540975724
 40
4.7990381057
100
AcDbArc
 50
329.9933694481
 51
360.0
  0
ARC
  5
49E
100
AcDbEntity
  8
6_ALL_SURFS
100
AcDbCircle
 62
7
  6
CONTINUOUS
 10
1981.7238082028
 20
746.3540975724
 40
4.7990381057
100
AcDbArc
 50
180.0
 51
210.0066305519
  0
ARC
  5
49F
100
AcDbEntity
  8
6_ALL_SURFS
100
AcDbCircle
 62
7
  6
CONTINUOUS
 10
1731.7238082028
 20
746.3540975724
 40
4.7990381057
100
AcDbArc
 50
180.0
 51
210.0066305519
  0
CIRCLE
  5
4A0
100
AcDbEntity
  8
6_ALL_SURFS
100
AcDbCircle
 62
7
  6
CONTINUOUS
 10
2231.7238082028
 20
746.3540975724
 40
3.5
  0
CIRCLE
  5
4A1
100
AcDbEntity
  8
6_ALL_SURFS
100
AcDbCircle
 62
7
  6
CONTINUOUS
 10
1981.7238082028
 20
746.3540975724
 40
3.5
  0
CIRCLE
  5
4A2
100
AcDbEntity
  8
6_ALL_SURFS
100
AcDbCircle
 62
7
  6
CONTINUOUS
 10
1731.7238082028
 20
746.3540975724
 40
3.5
  0
SPLINE
  5
4A3
100
AcDbEntity
  8
6_ALL_SURFS
100
AcDbSpline
 62
7
  6
CONTINUOUS
 70
0
 71
3
 72
12
 73
8
 74
0
 42
0.0000001
 43
0.0000001
 44
0.0000000001
 40
0.0
 40
0.0
 40
0.0
 40
0.0
 40
0.2506175241
 40
0.5069491944
 40
0.7636947262
 40
0.8854517431
 40
1.0
 40
1.0
 40
1.0
 40
1.0
 10
1477.5679970016
 20
743.9540975724
 30
0.0
 10
1477.6302499027
 20
743.9241337889
 30
0.0
 10
1477.7532367466
 20
743.8558836362
 30
0.0
 10
1477.9185334865
 20
743.7269749335
 30
0.0
 10
1478.0298546738
 20
743.5789046099
 30
0.0
 10
1478.0332848124
 20
743.4366449964
 30
0.0
 10
1477.9986785885
 20
743.3779991807
 30
0.0
 10
1477.9780416938
 20
743.3540975724
 30
0.0
  0
SPLINE
  5
4A4
100
AcDbEntity
  8
6_ALL_SURFS
100
AcDbSpline
 62
7
  6
CONTINUOUS
 70
0
 71
3
 72
12
 73
8
 74
0
 42
0.0000001
 43
0.0000001
 44
0.0000000001
 40
0.0
 40
0.0
 40
0.0
 40
0.0
 40
0.2506175241
 40
0.5069491944
 40
0.7636947262
 40
0.8854517431
 40
1.0
 40
1.0
 40
1.0
 40
1.0
 10
1227.5679970016
 20
743.9540975724
 30
0.0
 10
1227.6302499027
 20
743.9241337889
 30
0.0
 10
1227.7532367466
 20
743.8558836362
 30
0.0
 10
1227.9185334865
 20
743.7269749335
 30
0.0
 10
1228.0298546738
 20
743.5789046099
 30
0.0
 10
1228.0332848124
 20
743.4366449964
 30
0.0
 10
1227.9986785885
 20
743.3779991807
 30
0.0
 10
1227.9780416938
 20
743.3540975724
 30
0.0
  0
SPLINE
  5
4A5
100
AcDbEntity
  8
6_ALL_SURFS
100
AcDbSpline
 62
7
  6
CONTINUOUS
 70
0
 71
3
 72
10
 73
6
 74
0
 42
0.0000001
 43
0.0000001
 44
0.0000000001
 40
0.0
 40
0.0
 40
0.0
 40
0.0
 40
0.4959750705
 40
0.7549913283
 40
1.0
 40
1.0
 40
1.0
 40
1.0
 10
2236.5228463084
 20
746.3540975724
 30
0.0
 10
2236.4318209531
 20
746.4241689237
 30
0.0
 10
2236.3084335073
 20
746.5874810089
 30
0.0
 10
2236.3622548784
 20
746.8276585155
 30
0.0
 10
2236.4418492338
 20
746.9174695716
 30
0.0
 10
2236.4851910628
 20
746.9540975724
 30
0.0
  0
SPLINE
  5
4A6
100
AcDbEntity
  8
6_ALL_SURFS
100
AcDbSpline
 62
7
  6
CONTINUOUS
 70
0
 71
3
 72
10
 73
6
 74
0
 42
0.0000001
 43
0.0000001
 44
0.0000000001
 40
0.0
 40
0.0
 40
0.0
 40
0.0
 40
0.4959750705
 40
0.7549913283
 40
1.0
 40
1.0
 40
1.0
 40
1.0
 10
1986.5228463084
 20
746.3540975724
 30
0.0
 10
1986.4318209531
 20
746.4241689237
 30
0.0
 10
1986.3084335073
 20
746.5874810089
 30
0.0
 10
1986.3622548784
 20
746.8276585155
 30
0.0
 10
1986.4418492338
 20
746.9174695716
 30
0.0
 10
1986.4851910628
 20
746.9540975724
 30
0.0
  0
SPLINE
  5
4A7
100
AcDbEntity
  8
6_ALL_SURFS
100
AcDbSpline
 62
7
  6
CONTINUOUS
 70
0
 71
3
 72
10
 73
6
 74
0
 42
0.0000001
 43
0.0000001
 44
0.0000000001
 40
0.0
 40
0.0
 40
0.0
 40
0.0
 40
0.2450091915
 40
0.5040328291
 40
1.0
 40
1.0
 40
1.0
 40
1.0
 10
2226.9624253427
 20
746.9540975724
 30
0.0
 10
2227.0057673032
 20
746.9174694605
 30
0.0
 10
2227.0853628734
 20
746.8276568606
 30
0.0
 10
2227.1391825939
 20
746.5874778559
 30
0.0
 10
2227.0157940856
 20
746.4241678715
 30
0.0
 10
2226.9247700971
 20
746.3540975724
 30
0.0
  0
SPLINE
  5
4A8
100
AcDbEntity
  8
6_ALL_SURFS
100
AcDbSpline
 62
7
  6
CONTINUOUS
 70
0
 71
3
 72
10
 73
6
 74
0
 42
0.0000001
 43
0.0000001
 44
0.0000000001
 40
0.0
 40
0.0
 40
0.0
 40
0.0
 40
0.4959750705
 40
0.7549913283
 40
1.0
 40
1.0
 40
1.0
 40
1.0
 10
1736.5228463084
 20
746.3540975724
 30
0.0
 10
1736.4318209531
 20
746.4241689237
 30
0.0
 10
1736.3084335073
 20
746.5874810089
 30
0.0
 10
1736.3622548784
 20
746.8276585155
 30
0.0
 10
1736.4418492338
 20
746.9174695716
 30
0.0
 10
1736.4851910628
 20
746.9540975724
 30
0.0
  0
SPLINE
  5
4A9
100
AcDbEntity
  8
6_ALL_SURFS
100
AcDbSpline
 62
7
  6
CONTINUOUS
 70
0
 71
3
 72
10
 73
6
 74
0
 42
0.0000001
 43
0.0000001
 44
0.0000000001
 40
0.0
 40
0.0
 40
0.0
 40
0.0
 40
0.2450091915
 40
0.5040328291
 40
1.0
 40
1.0
 40
1.0
 40
1.0
 10
1976.9624253427
 20
746.9540975724
 30
0.0
 10
1977.0057673032
 20
746.9174694605
 30
0.0
 10
1977.0853628734
 20
746.8276568606
 30
0.0
 10
1977.1391825939
 20
746.5874778559
 30
0.0
 10
1977.0157940856
 20
746.4241678715
 30
0.0
 10
1976.9247700971
 20
746.3540975724
 30
0.0
  0
SPLINE
  5
4AA
100
AcDbEntity
  8
6_ALL_SURFS
100
AcDbSpline
 62
7
  6
CONTINUOUS
 70
0
 71
3
 72
10
 73
6
 74
0
 42
0.0000001
 43
0.0000001
 44
0.0000000001
 40
0.0
 40
0.0
 40
0.0
 40
0.0
 40
0.4959750705
 40
0.7549913283
 40
1.0
 40
1.0
 40
1.0
 40
1.0
 10
1486.5228463084
 20
746.3540975724
 30
0.0
 10
1486.4318209531
 20
746.4241689237
 30
0.0
 10
1486.3084335073
 20
746.5874810089
 30
0.0
 10
1486.3622548784
 20
746.8276585155
 30
0.0
 10
1486.4418492338
 20
746.9174695716
 30
0.0
 10
1486.4851910628
 20
746.9540975724
 30
0.0
  0
SPLINE
  5
4AB
100
AcDbEntity
  8
6_ALL_SURFS
100
AcDbSpline
 62
7
  6
CONTINUOUS
 70
0
 71
3
 72
10
 73
6
 74
0
 42
0.0000001
 43
0.0000001
 44
0.0000000001
 40
0.0
 40
0.0
 40
0.0
 40
0.0
 40
0.2450091915
 40
0.5040328291
 40
1.0
 40
1.0
 40
1.0
 40
1.0
 10
1726.9624253427
 20
746.9540975724
 30
0.0
 10
1727.0057673032
 20
746.9174694605
 30
0.0
 10
1727.0853628734
 20
746.8276568606
 30
0.0
 10
1727.1391825939
 20
746.5874778559
 30
0.0
 10
1727.0157940856
 20
746.4241678715
 30
0.0
 10
1726.9247700971
 20
746.3540975724
 30
0.0
  0
SPLINE
  5
4AC
100
AcDbEntity
  8
6_ALL_SURFS
100
AcDbSpline
 62
7
  6
CONTINUOUS
 70
0
 71
3
 72
10
 73
6
 74
0
 42
0.0000001
 43
0.0000001
 44
0.0000000001
 40
0.0
 40
0.0
 40
0.0
 40
0.0
 40
0.4959750705
 40
0.7549913283
 40
1.0
 40
1.0
 40
1.0
 40
1.0
 10
1236.5228463084
 20
746.3540975724
 30
0.0
 10
1236.4318209531
 20
746.4241689237
 30
0.0
 10
1236.3084335073
 20
746.5874810089
 30
0.0
 10
1236.3622548784
 20
746.8276585155
 30
0.0
 10
1236.4418492338
 20
746.9174695716
 30
0.0
 10
1236.4851910628
 20
746.9540975724
 30
0.0
  0
SPLINE
  5
4AD
100
AcDbEntity
  8
6_ALL_SURFS
100
AcDbSpline
 62
7
  6
CONTINUOUS
 70
0
 71
3
 72
10
 73
6
 74
0
 42
0.0000001
 43
0.0000001
 44
0.0000000001
 40
0.0
 40
0.0
 40
0.0
 40
0.0
 40
0.2450091915
 40
0.5040328291
 40
1.0
 40
1.0
 40
1.0
 40
1.0
 10
1476.9624253427
 20
746.9540975724
 30
0.0
 10
1477.0057673032
 20
746.9174694605
 30
0.0
 10
1477.0853628734
 20
746.8276568606
 30
0.0
 10
1477.1391825939
 20
746.5874778559
 30
0.0
 10
1477.0157940856
 20
746.4241678715
 30
0.0
 10
1476.9247700971
 20
746.3540975724
 30
0.0
  0
SPLINE
  5
4AE
100
AcDbEntity
  8
6_ALL_SURFS
100
AcDbSpline
 62
7
  6
CONTINUOUS
 70
0
 71
3
 72
10
 73
6
 74
0
 42
0.0000001
 43
0.0000001
 44
0.0000000001
 40
0.0
 40
0.0
 40
0.0
 40
0.0
 40
0.2450091915
 40
0.5040328291
 40
1.0
 40
1.0
 40
1.0
 40
1.0
 10
1226.9624253427
 20
746.9540975724
 30
0.0
 10
1227.0057673032
 20
746.9174694605
 30
0.0
 10
1227.0853628734
 20
746.8276568606
 30
0.0
 10
1227.1391825939
 20
746.5874778559
 30
0.0
 10
1227.0157940856
 20
746.4241678715
 30
0.0
 10
1226.9247700971
 20
746.3540975724
 30
0.0
  0
SPLINE
  5
4AF
100
AcDbEntity
  8
7_ALL_FEATURES
100
AcDbSpline
 62
7
  6
CONTINUOUS
 70
0
 71
3
 72
12
 73
8
 74
0
 42
0.0000001
 43
0.0000001
 44
0.0000000001
 40
0.0
 40
0.0
 40
0.0
 40
0.0
 40
0.2506175241
 40
0.5069491944
 40
0.7636947262
 40
0.8854517431
 40
1.0
 40
1.0
 40
1.0
 40
1.0
 10
1227.5679970016
 20
678.6540975724
 30
0.0
 10
1227.6302499027
 20
678.684061356
 30
0.0
 10
1227.7532367466
 20
678.7523115086
 30
0.0
 10
1227.9185334865
 20
678.8812202114
 30
0.0
 10
1228.0298546738
 20
679.0292905349
 30
0.0
 10
1228.0332848124
 20
679.1715501484
 30
0.0
 10
1227.9986785885
 20
679.2301959641
 30
0.0
 10
1227.9780416938
 20
679.2540975724
 30
0.0
  0
SPLINE
  5
4B0
100
AcDbEntity
  8
7_ALL_FEATURES
100
AcDbSpline
 62
7
  6
CONTINUOUS
 70
0
 71
3
 72
12
 73
8
 74
0
 42
0.0000001
 43
0.0000001
 44
0.0000000001
 40
0.0
 40
0.0
 40
0.0
 40
0.0
 40
0.2506175241
 40
0.5069491944
 40
0.7636947262
 40
0.8854517431
 40
1.0
 40
1.0
 40
1.0
 40
1.0
 10
1477.5679970016
 20
678.6540975724
 30
0.0
 10
1477.6302499027
 20
678.684061356
 30
0.0
 10
1477.7532367466
 20
678.7523115086
 30
0.0
 10
1477.9185334865
 20
678.8812202114
 30
0.0
 10
1478.0298546738
 20
679.0292905349
 30
0.0
 10
1478.0332848124
 20
679.1715501484
 30
0.0
 10
1477.9986785885
 20
679.2301959641
 30
0.0
 10
1477.9780416938
 20
679.2540975724
 30
0.0
  0
SPLINE
  5
4B1
100
AcDbEntity
  8
7_ALL_FEATURES
100
AcDbSpline
 62
7
  6
CONTINUOUS
 70
0
 71
3
 72
12
 73
8
 74
0
 42
0.0000001
 43
0.0000001
 44
0.0000000001
 40
0.0
 40
0.0
 40
0.0
 40
0.0
 40
0.1145354921
 40
0.2362939734
 40
0.4930460514
 40
0.7493805782
 40
1.0
 40
1.0
 40
1.0
 40
1.0
 10
1235.4695747117
 20
679.2540975724
 30
0.0
 10
1235.4489400971
 20
679.2301986049
 30
0.0
 10
1235.4143329313
 20
679.1715579005
 30
0.0
 10
1235.4177563599
 20
679.0292983749
 30
0.0
 10
1235.5290788772
 20
678.8812234083
 30
0.0
 10
1235.6943778877
 20
678.7523126376
 30
0.0
 10
1235.8173659723
 20
678.6840616113
 30
0.0
 10
1235.8796194039
 20
678.6540975724
 30
0.0
  0
SPLINE
  5
4B2
100
AcDbEntity
  8
7_ALL_FEATURES
100
AcDbSpline
 62
7
  6
CONTINUOUS
 70
0
 71
3
 72
12
 73
8
 74
0
 42
0.0000001
 43
0.0000001
 44
0.0000000001
 40
0.0
 40
0.0
 40
0.0
 40
0.0
 40
0.2506175241
 40
0.5069491944
 40
0.7636947262
 40
0.8854517431
 40
1.0
 40
1.0
 40
1.0
 40
1.0
 10
1727.5679970016
 20
678.6540975724
 30
0.0
 10
1727.6302499027
 20
678.684061356
 30
0.0
 10
1727.7532367466
 20
678.7523115086
 30
0.0
 10
1727.9185334865
 20
678.8812202114
 30
0.0
 10
1728.0298546738
 20
679.0292905349
 30
0.0
 10
1728.0332848124
 20
679.1715501484
 30
0.0
 10
1727.9986785885
 20
679.2301959641
 30
0.0
 10
1727.9780416938
 20
679.2540975724
 30
0.0
  0
SPLINE
  5
4B3
100
AcDbEntity
  8
7_ALL_FEATURES
100
AcDbSpline
 62
7
  6
CONTINUOUS
 70
0
 71
3
 72
12
 73
8
 74
0
 42
0.0000001
 43
0.0000001
 44
0.0000000001
 40
0.0
 40
0.0
 40
0.0
 40
0.0
 40
0.1145354921
 40
0.2362939734
 40
0.4930460514
 40
0.7493805782
 40
1.0
 40
1.0
 40
1.0
 40
1.0
 10
1485.4695747117
 20
679.2540975724
 30
0.0
 10
1485.4489400971
 20
679.2301986049
 30
0.0
 10
1485.4143329313
 20
679.1715579005
 30
0.0
 10
1485.4177563599
 20
679.0292983749
 30
0.0
 10
1485.5290788772
 20
678.8812234083
 30
0.0
 10
1485.6943778877
 20
678.7523126376
 30
0.0
 10
1485.8173659723
 20
678.6840616113
 30
0.0
 10
1485.8796194039
 20
678.6540975724
 30
0.0
  0
SPLINE
  5
4B4
100
AcDbEntity
  8
7_ALL_FEATURES
100
AcDbSpline
 62
7
  6
CONTINUOUS
 70
0
 71
3
 72
12
 73
8
 74
0
 42
0.0000001
 43
0.0000001
 44
0.0000000001
 40
0.0
 40
0.0
 40
0.0
 40
0.0
 40
0.2506175241
 40
0.5069491944
 40
0.7636947262
 40
0.8854517431
 40
1.0
 40
1.0
 40
1.0
 40
1.0
 10
1977.5679970016
 20
678.6540975724
 30
0.0
 10
1977.6302499027
 20
678.684061356
 30
0.0
 10
1977.7532367466
 20
678.7523115086
 30
0.0
 10
1977.9185334865
 20
678.8812202114
 30
0.0
 10
1978.0298546738
 20
679.0292905349
 30
0.0
 10
1978.0332848124
 20
679.1715501484
 30
0.0
 10
1977.9986785885
 20
679.2301959641
 30
0.0
 10
1977.9780416938
 20
679.2540975724
 30
0.0
  0
SPLINE
  5
4B5
100
AcDbEntity
  8
7_ALL_FEATURES
100
AcDbSpline
 62
7
  6
CONTINUOUS
 70
0
 71
3
 72
12
 73
8
 74
0
 42
0.0000001
 43
0.0000001
 44
0.0000000001
 40
0.0
 40
0.0
 40
0.0
 40
0.0
 40
0.1145354921
 40
0.2362939734
 40
0.4930460514
 40
0.7493805782
 40
1.0
 40
1.0
 40
1.0
 40
1.0
 10
1735.4695747117
 20
679.2540975724
 30
0.0
 10
1735.4489400971
 20
679.2301986049
 30
0.0
 10
1735.4143329313
 20
679.1715579005
 30
0.0
 10
1735.4177563599
 20
679.0292983749
 30
0.0
 10
1735.5290788772
 20
678.8812234083
 30
0.0
 10
1735.6943778877
 20
678.7523126376
 30
0.0
 10
1735.8173659723
 20
678.6840616113
 30
0.0
 10
1735.8796194039
 20
678.6540975724
 30
0.0
  0
SPLINE
  5
4B6
100
AcDbEntity
  8
7_ALL_FEATURES
100
AcDbSpline
 62
7
  6
CONTINUOUS
 70
0
 71
3
 72
12
 73
8
 74
0
 42
0.0000001
 43
0.0000001
 44
0.0000000001
 40
0.0
 40
0.0
 40
0.0
 40
0.0
 40
0.2506175241
 40
0.5069491944
 40
0.7636947262
 40
0.8854517431
 40
1.0
 40
1.0
 40
1.0
 40
1.0
 10
2227.5679970016
 20
678.6540975724
 30
0.0
 10
2227.6302499027
 20
678.684061356
 30
0.0
 10
2227.7532367466
 20
678.7523115086
 30
0.0
 10
2227.9185334865
 20
678.8812202114
 30
0.0
 10
2228.0298546738
 20
679.0292905349
 30
0.0
 10
2228.0332848124
 20
679.1715501484
 30
0.0
 10
2227.9986785885
 20
679.2301959641
 30
0.0
 10
2227.9780416938
 20
679.2540975724
 30
0.0
  0
SPLINE
  5
4B7
100
AcDbEntity
  8
7_ALL_FEATURES
100
AcDbSpline
 62
7
  6
CONTINUOUS
 70
0
 71
3
 72
12
 73
8
 74
0
 42
0.0000001
 43
0.0000001
 44
0.0000000001
 40
0.0
 40
0.0
 40
0.0
 40
0.0
 40
0.1145354921
 40
0.2362939734
 40
0.4930460514
 40
0.7493805782
 40
1.0
 40
1.0
 40
1.0
 40
1.0
 10
1985.4695747117
 20
679.2540975724
 30
0.0
 10
1985.4489400971
 20
679.2301986049
 30
0.0
 10
1985.4143329313
 20
679.1715579005
 30
0.0
 10
1985.4177563599
 20
679.0292983749
 30
0.0
 10
1985.5290788772
 20
678.8812234083
 30
0.0
 10
1985.6943778877
 20
678.7523126376
 30
0.0
 10
1985.8173659723
 20
678.6840616113
 30
0.0
 10
1985.8796194039
 20
678.6540975724
 30
0.0
  0
SPLINE
  5
4B8
100
AcDbEntity
  8
7_ALL_FEATURES
100
AcDbSpline
 62
7
  6
CONTINUOUS
 70
0
 71
3
 72
12
 73
8
 74
0
 42
0.0000001
 43
0.0000001
 44
0.0000000001
 40
0.0
 40
0.0
 40
0.0
 40
0.0
 40
0.1145354921
 40
0.2362939734
 40
0.4930460514
 40
0.7493805782
 40
1.0
 40
1.0
 40
1.0
 40
1.0
 10
2235.4695747117
 20
679.2540975724
 30
0.0
 10
2235.4489400971
 20
679.2301986049
 30
0.0
 10
2235.4143329313
 20
679.1715579005
 30
0.0
 10
2235.4177563599
 20
679.0292983749
 30
0.0
 10
2235.5290788772
 20
678.8812234083
 30
0.0
 10
2235.6943778877
 20
678.7523126376
 30
0.0
 10
2235.8173659724
 20
678.6840616113
 30
0.0
 10
2235.8796194039
 20
678.6540975724
 30
0.0
  0
SPLINE
  5
4B9
100
AcDbEntity
  8
7_ALL_FEATURES
100
AcDbSpline
 62
7
  6
CONTINUOUS
 70
0
 71
3
 72
10
 73
6
 74
0
 42
0.0000001
 43
0.0000001
 44
0.0000000001
 40
0.0
 40
0.0
 40
0.0
 40
0.0
 40
0.2450091915
 40
0.5040328291
 40
1.0
 40
1.0
 40
1.0
 40
1.0
 10
1226.9624253427
 20
675.6540975724
 30
0.0
 10
1227.0057673032
 20
675.6907256843
 30
0.0
 10
1227.0853628734
 20
675.7805382843
 30
0.0
 10
1227.1391825939
 20
676.020717289
 30
0.0
 10
1227.0157940856
 20
676.1840272734
 30
0.0
 10
1226.9247700971
 20
676.2540975724
 30
0.0
  0
SPLINE
  5
4BA
100
AcDbEntity
  8
7_ALL_FEATURES
100
AcDbSpline
 62
7
  6
CONTINUOUS
 70
0
 71
3
 72
10
 73
6
 74
0
 42
0.0000001
 43
0.0000001
 44
0.0000000001
 40
0.0
 40
0.0
 40
0.0
 40
0.0
 40
0.2450091915
 40
0.5040328291
 40
1.0
 40
1.0
 40
1.0
 40
1.0
 10
1476.9624253427
 20
675.6540975724
 30
0.0
 10
1477.0057673032
 20
675.6907256843
 30
0.0
 10
1477.0853628734
 20
675.7805382843
 30
0.0
 10
1477.1391825939
 20
676.020717289
 30
0.0
 10
1477.0157940856
 20
676.1840272734
 30
0.0
 10
1476.9247700971
 20
676.2540975724
 30
0.0
  0
SPLINE
  5
4BB
100
AcDbEntity
  8
7_ALL_FEATURES
100
AcDbSpline
 62
7
  6
CONTINUOUS
 70
0
 71
3
 72
10
 73
6
 74
0
 42
0.0000001
 43
0.0000001
 44
0.0000000001
 40
0.0
 40
0.0
 40
0.0
 40
0.0
 40
0.4959750705
 40
0.7549913283
 40
1.0
 40
1.0
 40
1.0
 40
1.0
 10
1236.5228463084
 20
676.2540975724
 30
0.0
 10
1236.4318209531
 20
676.1840262212
 30
0.0
 10
1236.3084335073
 20
676.0207141359
 30
0.0
 10
1236.3622548784
 20
675.7805366293
 30
0.0
 10
1236.4418492338
 20
675.6907255732
 30
0.0
 10
1236.4851910628
 20
675.6540975724
 30
0.0
  0
SPLINE
  5
4BC
100
AcDbEntity
  8
7_ALL_FEATURES
100
AcDbSpline
 62
7
  6
CONTINUOUS
 70
0
 71
3
 72
10
 73
6
 74
0
 42
0.0000001
 43
0.0000001
 44
0.0000000001
 40
0.0
 40
0.0
 40
0.0
 40
0.0
 40
0.2450091915
 40
0.5040328291
 40
1.0
 40
1.0
 40
1.0
 40
1.0
 10
1726.9624253427
 20
675.6540975724
 30
0.0
 10
1727.0057673032
 20
675.6907256843
 30
0.0
 10
1727.0853628734
 20
675.7805382843
 30
0.0
 10
1727.1391825939
 20
676.020717289
 30
0.0
 10
1727.0157940856
 20
676.1840272734
 30
0.0
 10
1726.9247700971
 20
676.2540975724
 30
0.0
  0
SPLINE
  5
4BD
100
AcDbEntity
  8
7_ALL_FEATURES
100
AcDbSpline
 62
7
  6
CONTINUOUS
 70
0
 71
3
 72
10
 73
6
 74
0
 42
0.0000001
 43
0.0000001
 44
0.0000000001
 40
0.0
 40
0.0
 40
0.0
 40
0.0
 40
0.4959750705
 40
0.7549913283
 40
1.0
 40
1.0
 40
1.0
 40
1.0
 10
1486.5228463084
 20
676.2540975724
 30
0.0
 10
1486.4318209531
 20
676.1840262212
 30
0.0
 10
1486.3084335073
 20
676.0207141359
 30
0.0
 10
1486.3622548784
 20
675.7805366293
 30
0.0
 10
1486.4418492338
 20
675.6907255732
 30
0.0
 10
1486.4851910628
 20
675.6540975724
 30
0.0
  0
SPLINE
  5
4BE
100
AcDbEntity
  8
7_ALL_FEATURES
100
AcDbSpline
 62
7
  6
CONTINUOUS
 70
0
 71
3
 72
10
 73
6
 74
0
 42
0.0000001
 43
0.0000001
 44
0.0000000001
 40
0.0
 40
0.0
 40
0.0
 40
0.0
 40
0.2450091915
 40
0.5040328291
 40
1.0
 40
1.0
 40
1.0
 40
1.0
 10
1976.9624253427
 20
675.6540975724
 30
0.0
 10
1977.0057673032
 20
675.6907256843
 30
0.0
 10
1977.0853628734
 20
675.7805382843
 30
0.0
 10
1977.1391825939
 20
676.020717289
 30
0.0
 10
1977.0157940856
 20
676.1840272734
 30
0.0
 10
1976.9247700971
 20
676.2540975724
 30
0.0
  0
SPLINE
  5
4BF
100
AcDbEntity
  8
7_ALL_FEATURES
100
AcDbSpline
 62
7
  6
CONTINUOUS
 70
0
 71
3
 72
10
 73
6
 74
0
 42
0.0000001
 43
0.0000001
 44
0.0000000001
 40
0.0
 40
0.0
 40
0.0
 40
0.0
 40
0.4959750705
 40
0.7549913283
 40
1.0
 40
1.0
 40
1.0
 40
1.0
 10
1736.5228463084
 20
676.2540975724
 30
0.0
 10
1736.4318209531
 20
676.1840262212
 30
0.0
 10
1736.3084335073
 20
676.0207141359
 30
0.0
 10
1736.3622548784
 20
675.7805366293
 30
0.0
 10
1736.4418492338
 20
675.6907255732
 30
0.0
 10
1736.4851910628
 20
675.6540975724
 30
0.0
  0
SPLINE
  5
4C0
100
AcDbEntity
  8
7_ALL_FEATURES
100
AcDbSpline
 62
7
  6
CONTINUOUS
 70
0
 71
3
 72
10
 73
6
 74
0
 42
0.0000001
 43
0.0000001
 44
0.0000000001
 40
0.0
 40
0.0
 40
0.0
 40
0.0
 40
0.2450091915
 40
0.5040328291
 40
1.0
 40
1.0
 40
1.0
 40
1.0
 10
2226.9624253427
 20
675.6540975724
 30
0.0
 10
2227.0057673032
 20
675.6907256843
 30
0.0
 10
2227.0853628734
 20
675.7805382843
 30
0.0
 10
2227.1391825939
 20
676.020717289
 30
0.0
 10
2227.0157940856
 20
676.1840272734
 30
0.0
 10
2226.9247700971
 20
676.2540975724
 30
0.0
  0
SPLINE
  5
4C1
100
AcDbEntity
  8
7_ALL_FEATURES
100
AcDbSpline
 62
7
  6
CONTINUOUS
 70
0
 71
3
 72
10
 73
6
 74
0
 42
0.0000001
 43
0.0000001
 44
0.0000000001
 40
0.0
 40
0.0
 40
0.0
 40
0.0
 40
0.4959750705
 40
0.7549913283
 40
1.0
 40
1.0
 40
1.0
 40
1.0
 10
1986.5228463084
 20
676.2540975724
 30
0.0
 10
1986.4318209531
 20
676.1840262212
 30
0.0
 10
1986.3084335073
 20
676.0207141359
 30
0.0
 10
1986.3622548784
 20
675.7805366293
 30
0.0
 10
1986.4418492338
 20
675.6907255732
 30
0.0
 10
1986.4851910628
 20
675.6540975724
 30
0.0
  0
SPLINE
  5
4C2
100
AcDbEntity
  8
7_ALL_FEATURES
100
AcDbSpline
 62
7
  6
CONTINUOUS
 70
0
 71
3
 72
10
 73
6
 74
0
 42
0.0000001
 43
0.0000001
 44
0.0000000001
 40
0.0
 40
0.0
 40
0.0
 40
0.0
 40
0.4959750705
 40
0.7549913283
 40
1.0
 40
1.0
 40
1.0
 40
1.0
 10
2236.5228463084
 20
676.2540975724
 30
0.0
 10
2236.4318209531
 20
676.1840262212
 30
0.0
 10
2236.3084335073
 20
676.0207141359
 30
0.0
 10
2236.3622548784
 20
675.7805366293
 30
0.0
 10
2236.4418492338
 20
675.6907255732
 30
0.0
 10
2236.4851910628
 20
675.6540975724
 30
0.0
  0
SPLINE
  5
4C3
100
AcDbEntity
  8
6_ALL_SURFS
100
AcDbSpline
 62
7
  6
CONTINUOUS
 70
0
 71
3
 72
12
 73
8
 74
0
 42
0.0000001
 43
0.0000001
 44
0.0000000001
 40
0.0
 40
0.0
 40
0.0
 40
0.0
 40
0.1145354921
 40
0.2362939734
 40
0.4930460514
 40
0.7493805782
 40
1.0
 40
1.0
 40
1.0
 40
1.0
 10
2235.4695747117
 20
743.3540975724
 30
0.0
 10
2235.4489400971
 20
743.3779965399
 30
0.0
 10
2235.4143329313
 20
743.4366372444
 30
0.0
 10
2235.4177563599
 20
743.5788967699
 30
0.0
 10
2235.5290788772
 20
743.7269717366
 30
0.0
 10
2235.6943778877
 20
743.8558825072
 30
0.0
 10
2235.8173659724
 20
743.9241335335
 30
0.0
 10
2235.8796194039
 20
743.9540975724
 30
0.0
  0
SPLINE
  5
4C4
100
AcDbEntity
  8
6_ALL_SURFS
100
AcDbSpline
 62
7
  6
CONTINUOUS
 70
0
 71
3
 72
12
 73
8
 74
0
 42
0.0000001
 43
0.0000001
 44
0.0000000001
 40
0.0
 40
0.0
 40
0.0
 40
0.0
 40
0.1145354921
 40
0.2362939734
 40
0.4930460514
 40
0.7493805782
 40
1.0
 40
1.0
 40
1.0
 40
1.0
 10
1985.4695747117
 20
743.3540975724
 30
0.0
 10
1985.4489400971
 20
743.3779965399
 30
0.0
 10
1985.4143329313
 20
743.4366372444
 30
0.0
 10
1985.4177563599
 20
743.5788967699
 30
0.0
 10
1985.5290788772
 20
743.7269717366
 30
0.0
 10
1985.6943778877
 20
743.8558825072
 30
0.0
 10
1985.8173659723
 20
743.9241335335
 30
0.0
 10
1985.8796194039
 20
743.9540975724
 30
0.0
  0
SPLINE
  5
4C5
100
AcDbEntity
  8
6_ALL_SURFS
100
AcDbSpline
 62
7
  6
CONTINUOUS
 70
0
 71
3
 72
12
 73
8
 74
0
 42
0.0000001
 43
0.0000001
 44
0.0000000001
 40
0.0
 40
0.0
 40
0.0
 40
0.0
 40
0.2506175241
 40
0.5069491944
 40
0.7636947262
 40
0.8854517431
 40
1.0
 40
1.0
 40
1.0
 40
1.0
 10
2227.5679970016
 20
743.9540975724
 30
0.0
 10
2227.6302499027
 20
743.9241337889
 30
0.0
 10
2227.7532367466
 20
743.8558836362
 30
0.0
 10
2227.9185334865
 20
743.7269749335
 30
0.0
 10
2228.0298546738
 20
743.5789046099
 30
0.0
 10
2228.0332848124
 20
743.4366449964
 30
0.0
 10
2227.9986785885
 20
743.3779991807
 30
0.0
 10
2227.9780416938
 20
743.3540975724
 30
0.0
  0
SPLINE
  5
4C6
100
AcDbEntity
  8
6_ALL_SURFS
100
AcDbSpline
 62
7
  6
CONTINUOUS
 70
0
 71
3
 72
12
 73
8
 74
0
 42
0.0000001
 43
0.0000001
 44
0.0000000001
 40
0.0
 40
0.0
 40
0.0
 40
0.0
 40
0.1145354921
 40
0.2362939734
 40
0.4930460514
 40
0.7493805782
 40
1.0
 40
1.0
 40
1.0
 40
1.0
 10
1735.4695747117
 20
743.3540975724
 30
0.0
 10
1735.4489400971
 20
743.3779965399
 30
0.0
 10
1735.4143329313
 20
743.4366372444
 30
0.0
 10
1735.4177563599
 20
743.5788967699
 30
0.0
 10
1735.5290788772
 20
743.7269717366
 30
0.0
 10
1735.6943778877
 20
743.8558825072
 30
0.0
 10
1735.8173659723
 20
743.9241335335
 30
0.0
 10
1735.8796194039
 20
743.9540975724
 30
0.0
  0
SPLINE
  5
4C7
100
AcDbEntity
  8
6_ALL_SURFS
100
AcDbSpline
 62
7
  6
CONTINUOUS
 70
0
 71
3
 72
12
 73
8
 74
0
 42
0.0000001
 43
0.0000001
 44
0.0000000001
 40
0.0
 40
0.0
 40
0.0
 40
0.0
 40
0.2506175241
 40
0.5069491944
 40
0.7636947262
 40
0.8854517431
 40
1.0
 40
1.0
 40
1.0
 40
1.0
 10
1977.5679970016
 20
743.9540975724
 30
0.0
 10
1977.6302499027
 20
743.9241337889
 30
0.0
 10
1977.7532367466
 20
743.8558836362
 30
0.0
 10
1977.9185334865
 20
743.7269749335
 30
0.0
 10
1978.0298546738
 20
743.5789046099
 30
0.0
 10
1978.0332848124
 20
743.4366449964
 30
0.0
 10
1977.9986785885
 20
743.3779991807
 30
0.0
 10
1977.9780416938
 20
743.3540975724
 30
0.0
  0
SPLINE
  5
4C8
100
AcDbEntity
  8
6_ALL_SURFS
100
AcDbSpline
 62
7
  6
CONTINUOUS
 70
0
 71
3
 72
12
 73
8
 74
0
 42
0.0000001
 43
0.0000001
 44
0.0000000001
 40
0.0
 40
0.0
 40
0.0
 40
0.0
 40
0.1145354921
 40
0.2362939734
 40
0.4930460514
 40
0.7493805782
 40
1.0
 40
1.0
 40
1.0
 40
1.0
 10
1485.4695747117
 20
743.3540975724
 30
0.0
 10
1485.4489400971
 20
743.3779965399
 30
0.0
 10
1485.4143329313
 20
743.4366372444
 30
0.0
 10
1485.4177563599
 20
743.5788967699
 30
0.0
 10
1485.5290788772
 20
743.7269717366
 30
0.0
 10
1485.6943778877
 20
743.8558825072
 30
0.0
 10
1485.8173659723
 20
743.9241335335
 30
0.0
 10
1485.8796194039
 20
743.9540975724
 30
0.0
  0
SPLINE
  5
4C9
100
AcDbEntity
  8
6_ALL_SURFS
100
AcDbSpline
 62
7
  6
CONTINUOUS
 70
0
 71
3
 72
12
 73
8
 74
0
 42
0.0000001
 43
0.0000001
 44
0.0000000001
 40
0.0
 40
0.0
 40
0.0
 40
0.0
 40
0.2506175241
 40
0.5069491944
 40
0.7636947262
 40
0.8854517431
 40
1.0
 40
1.0
 40
1.0
 40
1.0
 10
1727.5679970016
 20
743.9540975724
 30
0.0
 10
1727.6302499027
 20
743.9241337889
 30
0.0
 10
1727.7532367466
 20
743.8558836362
 30
0.0
 10
1727.9185334865
 20
743.7269749335
 30
0.0
 10
1728.0298546738
 20
743.5789046099
 30
0.0
 10
1728.0332848124
 20
743.4366449964
 30
0.0
 10
1727.9986785885
 20
743.3779991807
 30
0.0
 10
1727.9780416938
 20
743.3540975724
 30
0.0
  0
SPLINE
  5
4CA
100
AcDbEntity
  8
6_ALL_SURFS
100
AcDbSpline
 62
7
  6
CONTINUOUS
 70
0
 71
3
 72
12
 73
8
 74
0
 42
0.0000001
 43
0.0000001
 44
0.0000000001
 40
0.0
 40
0.0
 40
0.0
 40
0.0
 40
0.1145354921
 40
0.2362939734
 40
0.4930460514
 40
0.7493805782
 40
1.0
 40
1.0
 40
1.0
 40
1.0
 10
1235.4695747117
 20
743.3540975724
 30
0.0
 10
1235.4489400971
 20
743.3779965399
 30
0.0
 10
1235.4143329313
 20
743.4366372444
 30
0.0
 10
1235.4177563599
 20
743.5788967699
 30
0.0
 10
1235.5290788772
 20
743.7269717366
 30
0.0
 10
1235.6943778877
 20
743.8558825072
 30
0.0
 10
1235.8173659723
 20
743.9241335335
 30
0.0
 10
1235.8796194039
 20
743.9540975724
 30
0.0
  0
ELLIPSE
  5
4CB
100
AcDbEntity
  8
6_ALL_SURFS
100
AcDbEllipse
 62
7
  6
CONTINUOUS
 10
1981.7238082028
 20
421.3500856247
 30
0.0
 11
3.5
 21
0.0
 31
0.0
 40
0.5
 41
-1.910488903
 42
-1.2311037506
  0
ELLIPSE
  5
4CC
100
AcDbEntity
  8
6_ALL_SURFS
100
AcDbEllipse
 62
7
  6
CONTINUOUS
 10
1731.7238082028
 20
421.3500856247
 30
0.0
 11
3.5
 21
0.0
 31
0.0
 40
0.5
 41
-1.910488903
 42
-1.2311037506
  0
ELLIPSE
  5
4CD
100
AcDbEntity
  8
6_ALL_SURFS
100
AcDbEllipse
 62
7
  6
CONTINUOUS
 10
1481.7238082028
 20
421.3500856247
 30
0.0
 11
3.5
 21
0.0
 31
0.0
 40
0.5
 41
-1.910488903
 42
-1.2311037506
  0
ELLIPSE
  5
4CE
100
AcDbEntity
  8
6_ALL_SURFS
100
AcDbEllipse
 62
7
  6
CONTINUOUS
 10
1231.7238082028
 20
421.3500856247
 30
0.0
 11
3.5
 21
-0.0
 31
0.0
 40
0.5
 41
-1.910488903
 42
-1.2311037506
  0
ELLIPSE
  5
4CF
100
AcDbEntity
  8
6_ALL_SURFS
100
AcDbEllipse
 62
7
  6
CONTINUOUS
 10
2231.7238082028
 20
421.3500856247
 30
0.0
 11
3.5
 21
0.0
 31
0.0
 40
0.5
 41
-1.910488903
 42
-1.2311037506
  0
ELLIPSE
  5
4D0
100
AcDbEntity
  8
6_ALL_SURFS
100
AcDbEllipse
 62
7
  6
CONTINUOUS
 10
1231.7238082028
 20
418.1035683275
 30
0.0
 11
5.4882058378
 21
-0.0
 31
0.0
 40
0.1015346165
 41
0.9294607698
 42
2.2121318838
  0
ELLIPSE
  5
4D1
100
AcDbEntity
  8
6_ALL_SURFS
100
AcDbEllipse
 62
7
  6
CONTINUOUS
 10
1481.7238082028
 20
418.1035683275
 30
0.0
 11
5.4882058378
 21
-0.0
 31
0.0
 40
0.1015346165
 41
0.9294607698
 42
2.2121318838
  0
ELLIPSE
  5
4D2
100
AcDbEntity
  8
6_ALL_SURFS
100
AcDbEllipse
 62
7
  6
CONTINUOUS
 10
1731.7238082028
 20
418.1035683275
 30
0.0
 11
5.4882058378
 21
0.0
 31
0.0
 40
0.1015346165
 41
0.9294607698
 42
2.2121318838
  0
ELLIPSE
  5
4D3
100
AcDbEntity
  8
6_ALL_SURFS
100
AcDbEllipse
 62
7
  6
CONTINUOUS
 10
1981.7238082028
 20
418.1035683275
 30
0.0
 11
5.4882058378
 21
-0.0
 31
0.0
 40
0.1015346165
 41
0.9294607698
 42
2.2121318838
  0
ELLIPSE
  5
4D4
100
AcDbEntity
  8
6_ALL_SURFS
100
AcDbEllipse
 62
7
  6
CONTINUOUS
 10
2231.7238082028
 20
418.1035683275
 30
0.0
 11
5.4882058378
 21
0.0
 31
0.0
 40
0.1015346165
 41
7.212646077
 42
8.495317191
  0
ELLIPSE
  5
4D5
100
AcDbEntity
  8
6_ALL_SURFS
100
AcDbEllipse
 62
7
  6
CONTINUOUS
 10
2231.7238082028
 20
745.3889246006
 30
0.0
 11
0.0
 21
5.5724287509
 31
0.0
 40
0.9848857802
 41
-0.641335557
 42
0.641335557
  0
ELLIPSE
  5
4D6
100
AcDbEntity
  8
6_ALL_SURFS
100
AcDbEllipse
 62
7
  6
CONTINUOUS
 10
1231.7238082028
 20
745.3889246006
 30
0.0
 11
0.0
 21
5.5724287509
 31
0.0
 40
0.9848857802
 41
-0.641335557
 42
0.641335557
  0
ELLIPSE
  5
4D7
100
AcDbEntity
  8
7_ALL_FEATURES
100
AcDbEllipse
 62
7
  6
CONTINUOUS
 10
2231.7238082028
 20
677.2192705442
 30
0.0
 11
-0.0
 21
5.5724287509
 31
0.0
 40
0.9848857802
 41
2.5002570966
 42
3.7829282106
  0
ELLIPSE
  5
4D8
100
AcDbEntity
  8
7_ALL_FEATURES
100
AcDbEllipse
 62
7
  6
CONTINUOUS
 10
1231.7238082028
 20
677.2192705442
 30
0.0
 11
0.0
 21
5.5724287509
 31
0.0
 40
0.9848857802
 41
2.5002570966
 42
3.7829282106
  0
ELLIPSE
  5
4D9
100
AcDbEntity
  8
7_ALL_FEATURES
100
AcDbEllipse
 62
7
  6
CONTINUOUS
 10
1481.7238082028
 20
677.2192705442
 30
0.0
 11
0.0
 21
5.5724287509
 31
0.0
 40
0.9848857802
 41
2.5002570966
 42
3.7829282106
  0
ELLIPSE
  5
4DA
100
AcDbEntity
  8
7_ALL_FEATURES
100
AcDbEllipse
 62
7
  6
CONTINUOUS
 10
1731.7238082028
 20
677.2192705442
 30
0.0
 11
0.0
 21
5.5724287509
 31
0.0
 40
0.9848857802
 41
2.5002570966
 42
3.7829282106
  0
ELLIPSE
  5
4DB
100
AcDbEntity
  8
7_ALL_FEATURES
100
AcDbEllipse
 62
7
  6
CONTINUOUS
 10
1981.7238082028
 20
677.2192705442
 30
0.0
 11
0.0
 21
5.5724287509
 31
0.0
 40
0.9848857802
 41
2.5002570966
 42
3.7829282106
  0
ELLIPSE
  5
4DC
100
AcDbEntity
  8
6_ALL_SURFS
100
AcDbEllipse
 62
7
  6
CONTINUOUS
 10
1481.7238082028
 20
745.3889246006
 30
0.0
 11
0.0
 21
5.5724287509
 31
0.0
 40
0.9848857802
 41
-0.641335557
 42
0.641335557
  0
ELLIPSE
  5
4DD
100
AcDbEntity
  8
6_ALL_SURFS
100
AcDbEllipse
 62
7
  6
CONTINUOUS
 10
1731.7238082028
 20
745.3889246006
 30
0.0
 11
0.0
 21
5.5724287509
 31
0.0
 40
0.9848857802
 41
-0.641335557
 42
0.641335557
  0
ELLIPSE
  5
4DE
100
AcDbEntity
  8
6_ALL_SURFS
100
AcDbEllipse
 62
7
  6
CONTINUOUS
 10
1981.7238082028
 20
745.3889246006
 30
0.0
 11
0.0
 21
5.5724287509
 31
0.0
 40
0.9848857802
 41
5.6418497502
 42
6.9245208642
  0
ENDSEC
  0
SECTION
  2
OBJECTS
  0
DICTIONARY
  5
4DF
100
AcDbDictionary
  3
ACAD_GROUP
350
4E0
  3
ACAD_MLINESTYLE
350
4E1
  0
DICTIONARY
  5
4E0
102
{ACAD_REACTORS
330
4DF
102
}
100
AcDbDictionary
  0
DICTIONARY
  5
4E1
102
{ACAD_REACTORS
330
4DF
102
}
100
AcDbDictionary
  3
STANDARD
350
4E2
  0
MLINESTYLE
  5
4E2
102
{ACAD_REACTORS
330
4E1
102
}
100
AcDbMlineStyle
  2
STANDARD
 70
0
  3

 62
256
 51
90.0
 52
90.0
 71
2
 49
0.5
 62
256
  6
BYLAYER
 49
-0.5
 62
256
  6
BYLAYER
  0
ENDSEC
  0
EOF
