999
DXF file: 6f3_c_142.dxf
999
Pro/ENGINEER 2016360 by Parametric Technology Corporation
  0
SECTION
  2
HEADER
  9
$ACADVER
  1
AC1014
  9
$DWGCODEPAGE
  3
ANSI_1252
  9
$EXTMAX
 10
3200.0
 20
2500.0
 30
0.0
  9
$EXTMIN
 10
0.0
 20
0.0
 30
0.0
  9
$LIMMIN
 10
0.0
 20
0.0
  9
$LIMMAX
 10
3200.0
 20
2500.0
  9
$VIEWCTR
 10
1600.0
 20
1250.0
  9
$VIEWSIZE
 40
2500.0
  9
$CLAYER
  8
0
  9
$LTSCALE
 40
176.0
  9
$CELTYPE
  6
BYLAYER
  9
$DIMSCALE
 40
1.0
  9
$DIMASZ
 40
2.5
  9
$DIMEXO
 40
0.75
  9
$DIMDLI
 40
121.6
  9
$DIMEXE
 40
0.75
  9
$DIMCEN
 40
28.8
  9
$DIMLFAC
 40
1.0
  9
$DIMBLK
  1
_CLOSED
  9
$DIMALT
 70
0
  9
$DIMALTF
 40
25.4
  9
$DIMTXT
 40
3.0
  9
$DIMTOL
 70
1
  9
$DIMLIM
 70
0
  9
$DIMTFAC
 40
1.0
  9
$DIMTP
 40
0.01
  9
$DIMTM
 40
0.01
  9
$DIMGAP
 40
0.625
  9
$AUNITS
 70
0
  9
$PDMODE
 70
3
  9
$PDSIZE
 40
0.3125
  9
$HANDSEED
  5
4E8
  9
$TILEMODE
 70
1
  9
$MEASUREMENT
 70
1
  0
ENDSEC
  0
SECTION
  2
CLASSES
  0
ENDSEC
  0
SECTION
  2
TABLES
  0
TABLE
  2
VPORT
  5
8
100
AcDbSymbolTable
 70
2
  0
VPORT
  5
1F4
100
AcDbSymbolTableRecord
100
AcDbViewportTableRecord
  2
*ACTIVE
 70
0
 10
0.0
 20
0.0
 11
1.0
 21
1.0
 12
1600.0
 22
1250.0
 13
0.0
 23
0.0
 14
1.0
 24
1.0
 15
0.0
 25
0.0
 16
0.0
 26
0.0
 36
1.0
 17
0.0
 27
0.0
 37
0.0
 40
2500.0
 41
1.28
 42
50.0
 43
0.0
 44
0.0
 50
0.0
 51
0.0
 71
0
 72
100
 73
1
 74
1
 75
0
 76
0
 77
0
 78
0
  0
ENDTAB
  0
TABLE
  2
LTYPE
  5
5
100
AcDbSymbolTable
 70
6
  0
LTYPE
  5
14
100
AcDbSymbolTableRecord
100
AcDbLinetypeTableRecord
  2
BYBLOCK
 70
0
  3

 72
65
 73
0
 40
0.0
  0
LTYPE
  5
15
100
AcDbSymbolTableRecord
100
AcDbLinetypeTableRecord
  2
BYLAYER
 70
0
  3

 72
65
 73
0
 40
0.0
  0
LTYPE
  5
16
100
AcDbSymbolTableRecord
100
AcDbLinetypeTableRecord
  2
CONTINUOUS
 70
64
  3
Solid line
 72
65
 73
0
 40
0.0
  0
LTYPE
  5
1F5
100
AcDbSymbolTableRecord
100
AcDbLinetypeTableRecord
  2
CENTER
 70
64
  3
____ _ ____ _ ____ _ ____ _ ____ _ ____ _ ____
 72
65
 73
4
 40
0.6
 49
0.375
 74
0
 49
-0.075
 74
0
 49
0.075
 74
0
 49
-0.075
 74
0
  0
LTYPE
  5
1F6
100
AcDbSymbolTableRecord
100
AcDbLinetypeTableRecord
  2
HIDDEN
 70
64
  3
- - - - - - - - - - - - - - - - - - - -
 72
65
 73
2
 40
0.2
 49
0.1
 74
0
 49
-0.1
 74
0
  0
LTYPE
  5
1F7
100
AcDbSymbolTableRecord
100
AcDbLinetypeTableRecord
  2
PHANTOM
 70
64
  3
_____ _ _ _____ _ _ _____ _ _ _____
 72
65
 73
6
 40
0.8
 49
0.45
 74
0
 49
-0.05
 74
0
 49
0.1
 74
0
 49
-0.05
 74
0
 49
0.1
 74
0
 49
-0.05
 74
0
  0
LTYPE
  5
1F8
100
AcDbSymbolTableRecord
100
AcDbLinetypeTableRecord
  2
DOT
 70
64
  3
. . . . . . . . . . . . . . . . . . . .
 72
65
 73
2
 40
0.2
 49
0.1
 74
0
 49
-0.1
 74
0
  0
LTYPE
  5
1F9
100
AcDbSymbolTableRecord
100
AcDbLinetypeTableRecord
  2
DASHED
 70
64
  3
- - - - - - - - - - - - - - - - - - - -
 72
65
 73
2
 40
0.2
 49
0.1
 74
0
 49
-0.1
 74
0
  0
ENDTAB
  0
TABLE
  2
LAYER
  5
2
100
AcDbSymbolTable
 70
36
  0
LAYER
  5
10
100
AcDbSymbolTableRecord
100
AcDbLayerTableRecord
  2
0
 70
0
 62
7
  6
CONTINUOUS
  0
LAYER
  5
1FA
100
AcDbSymbolTableRecord
100
AcDbLayerTableRecord
  2
DEFAULT_1
 70
0
 62
7
  6
CENTER
  0
LAYER
  5
1FB
100
AcDbSymbolTableRecord
100
AcDbLayerTableRecord
  2
DEFAULT_2
 70
0
 62
8
  6
HIDDEN
  0
LAYER
  5
1FC
100
AcDbSymbolTableRecord
100
AcDbLayerTableRecord
  2
DEFAULT_3
 70
0
 62
7
  6
PHANTOM
  0
LAYER
  5
1FD
100
AcDbSymbolTableRecord
100
AcDbLayerTableRecord
  2
1_ALL_PLANES
 70
0
 62
7
  6
CONTINUOUS
  0
LAYER
  5
1FE
100
AcDbSymbolTableRecord
100
AcDbLayerTableRecord
  2
2_ALL_CSYS
 70
0
 62
7
  6
CONTINUOUS
  0
LAYER
  5
1FF
100
AcDbSymbolTableRecord
100
AcDbLayerTableRecord
  2
3_ALL_AXES
 70
0
 62
7
  6
CONTINUOUS
  0
LAYER
  5
200
100
AcDbSymbolTableRecord
100
AcDbLayerTableRecord
  2
4_ALL_POINTS
 70
0
 62
7
  6
CONTINUOUS
  0
LAYER
  5
201
100
AcDbSymbolTableRecord
100
AcDbLayerTableRecord
  2
5_ALL_CURVES
 70
0
 62
7
  6
CONTINUOUS
  0
LAYER
  5
202
100
AcDbSymbolTableRecord
100
AcDbLayerTableRecord
  2
5__COSTRUZIONE
 70
0
 62
7
  6
CONTINUOUS
  0
LAYER
  5
203
100
AcDbSymbolTableRecord
100
AcDbLayerTableRecord
  2
6_ALL_SURFS
 70
0
 62
7
  6
CONTINUOUS
  0
LAYER
  5
204
100
AcDbSymbolTableRecord
100
AcDbLayerTableRecord
  2
7_ALL_FEATURES
 70
0
 62
7
  6
CONTINUOUS
  0
LAYER
  5
205
100
AcDbSymbolTableRecord
100
AcDbLayerTableRecord
  2
9_SOLID
 70
0
 62
7
  6
CONTINUOUS
  0
LAYER
  5
206
100
AcDbSymbolTableRecord
100
AcDbLayerTableRecord
  2
PR9035
 70
0
 62
7
  6
CONTINUOUS
  0
LAYER
  5
207
100
AcDbSymbolTableRecord
100
AcDbLayerTableRecord
  2
WHITE
 70
0
 62
7
  6
CONTINUOUS
  0
LAYER
  5
208
100
AcDbSymbolTableRecord
100
AcDbLayerTableRecord
  2
XXX_SOLIDO
 70
0
 62
7
  6
CONTINUOUS
  0
ENDTAB
  0
TABLE
  2
STYLE
  5
3
100
AcDbSymbolTable
 70
1
  0
STYLE
  5
11
100
AcDbSymbolTableRecord
100
AcDbTextStyleTableRecord
  2
STANDARD
 70
0
 40
0.0
 41
1.0
 50
0.0
 71
0
 42
0.2
  3
arial.ttf
  4

  0
STYLE
  5
209
100
AcDbSymbolTableRecord
100
AcDbTextStyleTableRecord
  2
TEXTSTYLE_1
 70
0
 40
0.0
 41
0.8
 50
0.0
 71
0
 42
0.2
  3
gdt
  4

  0
STYLE
  5
20A
100
AcDbSymbolTableRecord
100
AcDbTextStyleTableRecord
  2
TEXTSTYLE_2
 70
0
 40
0.0
 41
0.85
 50
0.0
 71
0
 42
0.2
  3
txt
  4

  0
ENDTAB
  0
TABLE
  2
VIEW
  5
6
100
AcDbSymbolTable
 70
0
  0
ENDTAB
  0
TABLE
  2
UCS
  5
7
100
AcDbSymbolTable
 70
0
  0
ENDTAB
  0
TABLE
  2
APPID
  5
9
100
AcDbSymbolTable
 70
1
  0
APPID
  5
20B
100
AcDbSymbolTableRecord
100
AcDbRegAppTableRecord
  2
ACAD
 70
0
  0
ENDTAB
  0
TABLE
  2
BLOCK_RECORD
  5
1
100
AcDbSymbolTable
 70
0
  0
BLOCK_RECORD
  5
1F
100
AcDbSymbolTableRecord
100
AcDbBlockTableRecord
  2
*MODEL_SPACE
  0
BLOCK_RECORD
  5
1B
100
AcDbSymbolTableRecord
100
AcDbBlockTableRecord
  2
*PAPER_SPACE
  0
BLOCK_RECORD
  5
20C
100
AcDbSymbolTableRecord
100
AcDbBlockTableRecord
  2
_CLOSED
  0
BLOCK_RECORD
  5
20D
100
AcDbSymbolTableRecord
100
AcDbBlockTableRecord
  2
*D0
  0
BLOCK_RECORD
  5
20E
100
AcDbSymbolTableRecord
100
AcDbBlockTableRecord
  2
*D1
  0
BLOCK_RECORD
  5
20F
100
AcDbSymbolTableRecord
100
AcDbBlockTableRecord
  2
*D2
  0
BLOCK_RECORD
  5
210
100
AcDbSymbolTableRecord
100
AcDbBlockTableRecord
  2
*D3
  0
BLOCK_RECORD
  5
211
100
AcDbSymbolTableRecord
100
AcDbBlockTableRecord
  2
LOGO2_BL0
  0
ENDTAB
  0
TABLE
  2
DIMSTYLE
  5
A
100
AcDbSymbolTable
 70
1
  0
DIMSTYLE
105
212
100
AcDbSymbolTableRecord
100
AcDbDimStyleTableRecord
  2
STANDARD
 70
0
  3

  4

  5
_CLOSED
  6
_CLOSED
  7
_CLOSED
 40
1.0
 41
2.5
 42
0.75
 43
0.38
 44
0.75
 45
0.0
 46
0.0
 47
0.01
 48
0.01
140
3.0
141
0.09
142
0.0
143
25.4
144
1.0
145
0.0
146
1.0
147
0.625
 71
1.0
 72
0.0
 73
0
 74
0
 75
0
 76
0
 77
1
 78
8
 79
2
170
0
171
1
172
0
173
0
174
0
175
0
176
0
177
0
178
0
270
2
179
2
271
2
272
2
273
2
274
2
275
0
280
0
281
0
282
0
283
1
284
8
285
0
286
0
287
3
288
0
340
11
  0
DIMSTYLE
105
213
100
AcDbSymbolTableRecord
100
AcDbDimStyleTableRecord
  2
DIMSTYLE_1
 70
0
  3

  4

  5
_CLOSED
  6
_CLOSED
  7
_CLOSED
 40
1.0
 41
2.5
 42
0.75
 43
0.38
 44
0.75
 45
0.0
 46
0.0
 47
0.3
 48
0.3
140
6.0
141
0.09
142
0.0
143
25.4
144
1.0
145
0.0
146
1.0
147
1.5
 71
0.0
 72
0.0
 73
0
 74
0
 75
0
 76
0
 77
1
 78
8
 79
2
170
0
171
1
172
0
173
0
174
0
175
0
176
0
177
0
178
0
270
2
179
2
271
2
272
2
273
2
274
2
275
0
280
0
281
0
282
0
283
1
284
8
285
0
286
0
287
3
288
0
340
11
  0
DIMSTYLE
105
214
100
AcDbSymbolTableRecord
100
AcDbDimStyleTableRecord
  2
DIMSTYLE_2
 70
0
  3

  4

  5
_CLOSED
  6
_CLOSED
  7
_CLOSED
 40
1.0
 41
2.5
 42
0.75
 43
0.38
 44
0.75
 45
0.0
 46
0.0
 47
1.2
 48
1.2
140
6.0
141
0.09
142
0.0
143
25.4
144
1.0
145
0.0
146
1.0
147
1.5
 71
0.0
 72
0.0
 73
0
 74
0
 75
0
 76
0
 77
1
 78
8
 79
2
170
0
171
1
172
0
173
0
174
0
175
0
176
0
177
0
178
0
270
2
179
2
271
2
272
2
273
2
274
2
275
0
280
0
281
0
282
0
283
1
284
8
285
0
286
0
287
3
288
0
340
11
  0
ENDTAB
  0
ENDSEC
  0
SECTION
  2
BLOCKS
  0
BLOCK
  5
20
100
AcDbEntity
  8
0
100
AcDbBlockBegin
  2
*MODEL_SPACE
 70
0
 10
0.0
 20
0.0
 30
0.0
  3
*MODEL_SPACE
  1

  0
ENDBLK
  5
21
100
AcDbEntity
  8
0
100
AcDbBlockEnd
  0
BLOCK
  5
1C
100
AcDbEntity
  8
0
100
AcDbBlockBegin
  2
*PAPER_SPACE
 70
0
 10
0.0
 20
0.0
 30
0.0
  3
*PAPER_SPACE
  1

  0
ENDBLK
  5
1D
100
AcDbEntity
  8
0
100
AcDbBlockEnd
  0
BLOCK
  5
215
100
AcDbEntity
  8
0
100
AcDbBlockBegin
 62
2
  6
CONTINUOUS
  2
LOGO2_BL0
 70
64
 10
3096.881409736
 20
45.6249465926
  3
LOGO2_BL0
  1

  0
LINE
  5
216
100
AcDbEntity
  8
0
100
AcDbLine
 62
7
  6
CONTINUOUS
 10
3088.6243349642
 20
48.8204379315
 11
3087.3199940348
 21
48.8204379315
  0
LINE
  5
217
100
AcDbEntity
  8
0
100
AcDbLine
 62
7
  6
CONTINUOUS
 10
3087.3199940348
 20
48.8204379315
 11
3087.3199940348
 21
38.3613718716
  0
LINE
  5
218
100
AcDbEntity
  8
0
100
AcDbLine
 62
7
  6
CONTINUOUS
 10
3087.3199940348
 20
38.3613718716
 11
3091.8010489231
 21
38.3613718716
  0
LINE
  5
219
100
AcDbEntity
  8
0
100
AcDbLine
 62
7
  6
CONTINUOUS
 10
3091.8010489231
 20
38.3613718716
 11
3091.8010489231
 21
39.5542261967
  0
LINE
  5
21A
100
AcDbEntity
  8
0
100
AcDbLine
 62
7
  6
CONTINUOUS
 10
3091.8010489231
 20
39.5542261967
 11
3088.6243349642
 21
39.5542261967
  0
LINE
  5
21B
100
AcDbEntity
  8
0
100
AcDbLine
 62
7
  6
CONTINUOUS
 10
3088.6243349642
 20
39.5542261967
 11
3088.6243349642
 21
48.8204379315
  0
LINE
  5
21C
100
AcDbEntity
  8
0
100
AcDbLine
 62
7
  6
CONTINUOUS
 10
3103.5606611805
 20
48.8204379315
 11
3102.2568436624
 21
48.8204379315
  0
LINE
  5
21D
100
AcDbEntity
  8
0
100
AcDbLine
 62
7
  6
CONTINUOUS
 10
3102.2568436624
 20
48.8204379315
 11
3102.2568436624
 21
38.3613718716
  0
LINE
  5
21E
100
AcDbEntity
  8
0
100
AcDbLine
 62
7
  6
CONTINUOUS
 10
3102.2568436624
 20
38.3613718716
 11
3106.7380294035
 21
38.3613718716
  0
LINE
  5
21F
100
AcDbEntity
  8
0
100
AcDbLine
 62
7
  6
CONTINUOUS
 10
3106.7380294035
 20
38.3613718716
 11
3106.7380294035
 21
39.5542261967
  0
LINE
  5
220
100
AcDbEntity
  8
0
100
AcDbLine
 62
7
  6
CONTINUOUS
 10
3106.7380294035
 20
39.5542261967
 11
3103.5606611805
 21
39.5542261967
  0
LINE
  5
221
100
AcDbEntity
  8
0
100
AcDbLine
 62
7
  6
CONTINUOUS
 10
3103.5606611805
 20
39.5542261967
 11
3103.5606611805
 21
48.8204379315
  0
LWPOLYLINE
  5
222
100
AcDbEntity
  8
0
100
AcDbPolyline
 62
7
  6
CONTINUOUS
 90
2
 70
0
 43
0.2
 10
3085.6743889457
 20
35.0178205647
 10
3085.6743889457
 20
33.1607573154
  0
LWPOLYLINE
  5
223
100
AcDbEntity
  8
0
100
AcDbPolyline
 62
7
  6
CONTINUOUS
 90
2
 70
0
 43
0.2
 10
3085.6743889457
 20
33.1607573154
 10
3086.4701049561
 20
33.1607573154
  0
LWPOLYLINE
  5
224
100
AcDbEntity
  8
0
100
AcDbPolyline
 62
7
  6
CONTINUOUS
 90
2
 70
0
 43
0.2
 10
3086.4701049561
 20
33.1607573154
 10
3086.4701049561
 20
33.3727388869
  0
LWPOLYLINE
  5
225
100
AcDbEntity
  8
0
100
AcDbPolyline
 62
7
  6
CONTINUOUS
 90
2
 70
0
 43
0.2
 10
3086.4701049561
 20
33.3727388869
 10
3085.9059984406
 20
33.3727388869
  0
LWPOLYLINE
  5
226
100
AcDbEntity
  8
0
100
AcDbPolyline
 62
7
  6
CONTINUOUS
 90
2
 70
0
 43
0.2
 10
3085.9059984406
 20
33.3727388869
 10
3085.9059984406
 20
35.0178205647
  0
LWPOLYLINE
  5
227
100
AcDbEntity
  8
0
100
AcDbPolyline
 62
7
  6
CONTINUOUS
 90
2
 70
0
 43
0.2
 10
3085.9059984406
 20
35.0178205647
 10
3085.6743889457
 20
35.0178205647
  0
SPLINE
  5
228
100
AcDbEntity
  8
0
100
AcDbSpline
 62
7
  6
CONTINUOUS
 70
2
 71
3
 72
35
 73
31
 74
0
 42
0.0000001
 43
0.0000001
 44
0.0000000001
 40
0.0
 40
0.0
 40
0.0
 40
0.0
 40
1.0
 40
1.0
 40
1.0
 40
2.0
 40
2.0
 40
2.0
 40
3.0
 40
3.0
 40
3.0
 40
4.0
 40
4.0
 40
4.0
 40
5.0
 40
5.0
 40
5.0
 40
6.0
 40
6.0
 40
6.0
 40
7.0
 40
7.0
 40
7.0
 40
8.0
 40
8.0
 40
8.0
 40
9.0
 40
9.0
 40
9.0
 40
10.0
 40
10.0
 40
10.0
 40
10.0
 10
3087.8683982116
 20
34.3133089712
 30
0.0
 10
3087.8683982116
 20
34.3133089712
 30
0.0
 10
3087.8683982116
 20
33.6511936921
 30
0.0
 10
3087.8683982116
 20
33.6511936921
 30
0.0
 10
3087.8683982116
 20
33.3361000968
 30
0.0
 10
3088.0162619005
 20
33.1215014688
 30
0.0
 10
3088.3563483848
 20
33.1215014688
 30
0.0
 10
3088.6959114578
 20
33.1215014688
 30
0.0
 10
3088.8440368522
 20
33.3361000968
 30
0.0
 10
3088.8440368522
 20
33.6511936921
 30
0.0
 10
3088.8440368522
 20
33.6511936921
 30
0.0
 10
3088.8440368522
 20
34.3133089712
 30
0.0
 10
3088.8440368522
 20
34.3133089712
 30
0.0
 10
3088.8440368522
 20
34.3133089712
 30
0.0
 10
3088.6219796134
 20
34.3133089712
 30
0.0
 10
3088.6219796134
 20
34.3133089712
 30
0.0
 10
3088.6219796134
 20
34.3133089712
 30
0.0
 10
3088.6219796134
 20
33.6763174339
 30
0.0
 10
3088.6219796134
 20
33.6763174339
 30
0.0
 10
3088.6219796134
 20
33.4905064267
 30
0.0
 10
3088.5752651559
 20
33.3277255162
 30
0.0
 10
3088.3563483848
 20
33.3277255162
 30
0.0
 10
3088.1369082023
 20
33.3277255162
 30
0.0
 10
3088.0901937449
 20
33.4905064267
 30
0.0
 10
3088.0901937449
 20
33.6763174339
 30
0.0
 10
3088.0901937449
 20
33.6763174339
 30
0.0
 10
3088.0901937449
 20
34.3133089712
 30
0.0
 10
3088.0901937449
 20
34.3133089712
 30
0.0
 10
3088.0901937449
 20
34.3133089712
 30
0.0
 10
3087.8683982116
 20
34.3133089712
 30
0.0
 10
3087.8683982116
 20
34.3133089712
 30
0.0
  0
SPLINE
  5
229
100
AcDbEntity
  8
0
100
AcDbSpline
 62
7
  6
CONTINUOUS
 70
2
 71
3
 72
35
 73
31
 74
0
 42
0.0000001
 43
0.0000001
 44
0.0000000001
 40
0.0
 40
0.0
 40
0.0
 40
0.0
 40
1.0
 40
1.0
 40
1.0
 40
2.0
 40
2.0
 40
2.0
 40
3.0
 40
3.0
 40
3.0
 40
4.0
 40
4.0
 40
4.0
 40
5.0
 40
5.0
 40
5.0
 40
6.0
 40
6.0
 40
6.0
 40
7.0
 40
7.0
 40
7.0
 40
8.0
 40
8.0
 40
8.0
 40
9.0
 40
9.0
 40
9.0
 40
10.0
 40
10.0
 40
10.0
 40
10.0
 10
3091.2671694094
 20
34.2719594795
 30
0.0
 10
3091.1787129018
 20
34.3232537857
 30
0.0
 10
3091.0652635051
 20
34.3483775275
 30
0.0
 10
3090.9616280701
 20
34.3483775275
 30
0.0
 10
3090.606755217
 20
34.3483775275
 30
0.0
 10
3090.3313100267
 20
34.0845782384
 30
0.0
 10
3090.3313100267
 20
33.7270883288
 30
0.0
 10
3090.3313100267
 20
33.3821602901
 30
0.0
 10
3090.6097648319
 20
33.1220248801
 30
0.0
 10
3090.9493279049
 20
33.1220248801
 30
0.0
 10
3091.0652635051
 20
33.1220248801
 30
0.0
 10
3091.1660201781
 20
33.1440081541
 30
0.0
 10
3091.2671694094
 20
33.1979195168
 30
0.0
 10
3091.2671694094
 20
33.1979195168
 30
0.0
 10
3091.2671694094
 20
33.4805616122
 30
0.0
 10
3091.2671694094
 20
33.4805616122
 30
0.0
 10
3091.1832927506
 20
33.387394403
 30
0.0
 10
3091.0797881684
 20
33.3282489275
 30
0.0
 10
3090.9516832557
 20
33.3282489275
 30
0.0
 10
3090.7179801156
 20
33.3282489275
 30
0.0
 10
3090.5527130015
 20
33.5004512412
 30
0.0
 10
3090.5527130015
 20
33.7370331433
 30
0.0
 10
3090.5527130015
 20
33.9490147149
 30
0.0
 10
3090.7204663193
 20
34.1411066575
 30
0.0
 10
3090.9372894453
 20
34.1411066575
 30
0.0
 10
3091.0701050596
 20
34.1411066575
 30
0.0
 10
3091.1787129018
 20
34.0871952949
 30
0.0
 10
3091.2671694094
 20
33.9861769163
 30
0.0
 10
3091.2671694094
 20
33.9861769163
 30
0.0
 10
3091.2671694094
 20
34.2719594795
 30
0.0
 10
3091.2671694094
 20
34.2719594795
 30
0.0
  0
SPLINE
  5
22A
100
AcDbEntity
  8
0
100
AcDbSpline
 62
7
  6
CONTINUOUS
 70
2
 71
3
 72
32
 73
28
 74
0
 42
0.0000001
 43
0.0000001
 44
0.0000000001
 40
0.0
 40
0.0
 40
0.0
 40
0.0
 40
1.0
 40
1.0
 40
1.0
 40
2.0
 40
2.0
 40
2.0
 40
3.0
 40
3.0
 40
3.0
 40
4.0
 40
4.0
 40
4.0
 40
5.0
 40
5.0
 40
5.0
 40
6.0
 40
6.0
 40
6.0
 40
7.0
 40
7.0
 40
7.0
 40
8.0
 40
8.0
 40
8.0
 40
9.0
 40
9.0
 40
9.0
 40
9.0
 10
3093.7990406617
 20
33.7003943532
 30
0.0
 10
3093.7990406617
 20
33.7003943532
 30
0.0
 10
3093.7990406617
 20
33.7344160869
 30
0.0
 10
3093.7990406617
 20
33.7344160869
 30
0.0
 10
3093.7990406617
 20
34.0767270691
 30
0.0
 10
3093.6261840839
 20
34.3483775275
 30
0.0
 10
3093.2595344767
 20
34.3483775275
 30
0.0
 10
3092.8879124623
 20
34.3483775275
 30
0.0
 10
3092.6981758705
 20
34.081961182
 30
0.0
 10
3092.6981758705
 20
33.7270883288
 30
0.0
 10
3092.6981758705
 20
33.387394403
 30
0.0
 10
3092.9122510872
 20
33.1215014688
 30
0.0
 10
3093.2643760311
 20
33.1215014688
 30
0.0
 10
3093.4883960623
 20
33.1215014688
 30
0.0
 10
3093.6905636723
 20
33.2371753634
 30
0.0
 10
3093.7990406617
 20
33.4365950641
 30
0.0
 10
3093.7990406617
 20
33.4365950641
 30
0.0
 10
3093.611397715
 20
33.5433709668
 30
0.0
 10
3093.611397715
 20
33.5433709668
 30
0.0
 10
3093.5279136146
 20
33.4046669755
 30
0.0
 10
3093.4367091977
 20
33.3188275243
 30
0.0
 10
3093.2671239404
 20
33.3188275243
 30
0.0
 10
3093.0551423688
 20
33.3188275243
 30
0.0
 10
3092.9221959017
 20
33.5035917089
 30
0.0
 10
3092.9198405509
 20
33.7003943532
 30
0.0
 10
3092.9198405509
 20
33.7003943532
 30
0.0
 10
3093.7990406617
 20
33.7003943532
 30
0.0
 10
3093.7990406617
 20
33.7003943532
 30
0.0
  0
SPLINE
  5
22B
100
AcDbEntity
  8
0
100
AcDbSpline
 62
7
  6
CONTINUOUS
 70
2
 71
3
 72
14
 73
10
 74
0
 42
0.0000001
 43
0.0000001
 44
0.0000000001
 40
0.0
 40
0.0
 40
0.0
 40
0.0
 40
1.0
 40
1.0
 40
1.0
 40
2.0
 40
2.0
 40
2.0
 40
3.0
 40
3.0
 40
3.0
 40
3.0
 10
3092.9318790105
 20
33.8678859653
 30
0.0
 10
3092.9594889559
 20
34.0327605209
 30
0.0
 10
3093.087332163
 20
34.1557621736
 30
0.0
 10
3093.2595344767
 20
34.1557621736
 30
0.0
 10
3093.4367091977
 20
34.1557621736
 30
0.0
 10
3093.5501585943
 20
34.040088279
 30
0.0
 10
3093.5773759813
 20
33.8678859653
 30
0.0
 10
3093.5773759813
 20
33.8678859653
 30
0.0
 10
3092.9318790105
 20
33.8678859653
 30
0.0
 10
3092.9318790105
 20
33.8678859653
 30
0.0
  0
SPLINE
  5
22C
100
AcDbEntity
  8
0
100
AcDbSpline
 62
7
  6
CONTINUOUS
 70
2
 71
3
 72
20
 73
16
 74
0
 42
0.0000001
 43
0.0000001
 44
0.0000000001
 40
0.0
 40
0.0
 40
0.0
 40
0.0
 40
1.0
 40
1.0
 40
1.0
 40
2.0
 40
2.0
 40
2.0
 40
3.0
 40
3.0
 40
3.0
 40
4.0
 40
4.0
 40
4.0
 40
5.0
 40
5.0
 40
5.0
 40
5.0
 10
3095.8230721119
 20
34.0772504804
 30
0.0
 10
3095.8230721119
 20
34.0772504804
 30
0.0
 10
3096.2342116785
 20
33.5747756441
 30
0.0
 10
3096.2342116785
 20
33.5747756441
 30
0.0
 10
3096.1181452254
 20
33.4591017494
 30
0.0
 10
3095.9803572039
 20
33.3287723388
 30
0.0
 10
3095.8084165958
 20
33.3287723388
 30
0.0
 10
3095.6309801692
 20
33.3287723388
 30
0.0
 10
3095.4634885571
 20
33.4931234832
 30
0.0
 10
3095.4634885571
 20
33.6700364985
 30
0.0
 10
3095.4634885571
 20
33.8479963363
 30
0.0
 10
3095.6732456307
 20
33.9741384567
 30
0.0
 10
3095.8008271321
 20
34.0620715531
 30
0.0
 10
3095.8008271321
 20
34.0620715531
 30
0.0
 10
3095.8230721119
 20
34.0772504804
 30
0.0
 10
3095.8230721119
 20
34.0772504804
 30
0.0
  0
SPLINE
  5
22D
100
AcDbEntity
  8
0
100
AcDbSpline
 62
7
  6
CONTINUOUS
 70
2
 71
3
 72
23
 73
19
 74
0
 42
0.0000001
 43
0.0000001
 44
0.0000000001
 40
0.0
 40
0.0
 40
0.0
 40
0.0
 40
1.0
 40
1.0
 40
1.0
 40
2.0
 40
2.0
 40
2.0
 40
3.0
 40
3.0
 40
3.0
 40
4.0
 40
4.0
 40
4.0
 40
5.0
 40
5.0
 40
5.0
 40
6.0
 40
6.0
 40
6.0
 40
6.0
 10
3095.8724036258
 20
34.3682671565
 30
0.0
 10
3095.8724036258
 20
34.3682671565
 30
0.0
 10
3095.8107719466
 20
34.4467788497
 30
0.0
 10
3095.8107719466
 20
34.4467788497
 30
0.0
 10
3095.756860584
 20
34.5153457284
 30
0.0
 10
3095.7000704592
 20
34.5844360184
 30
0.0
 10
3095.7000704592
 20
34.6781266389
 30
0.0
 10
3095.7000704592
 20
34.7969410012
 30
0.0
 10
3095.7959855777
 20
34.8744058718
 30
0.0
 10
3095.9069487708
 20
34.8744058718
 30
0.0
 10
3096.0302121291
 20
34.8744058718
 30
0.0
 10
3096.1235101911
 20
34.8032219367
 30
0.0
 10
3096.1235101911
 20
34.672892526
 30
0.0
 10
3096.1235101911
 20
34.5378524137
 30
0.0
 10
3095.9954052784
 20
34.4614343657
 30
0.0
 10
3095.9018455107
 20
34.3876333741
 30
0.0
 10
3095.9018455107
 20
34.3876333741
 30
0.0
 10
3095.8724036258
 20
34.3682671565
 30
0.0
 10
3095.8724036258
 20
34.3682671565
 30
0.0
  0
SPLINE
  5
22E
100
AcDbEntity
  8
0
100
AcDbSpline
 62
7
  6
CONTINUOUS
 70
2
 71
3
 72
50
 73
46
 74
0
 42
0.0000001
 43
0.0000001
 44
0.0000000001
 40
0.0
 40
0.0
 40
0.0
 40
0.0
 40
1.0
 40
1.0
 40
1.0
 40
2.0
 40
2.0
 40
2.0
 40
3.0
 40
3.0
 40
3.0
 40
4.0
 40
4.0
 40
4.0
 40
5.0
 40
5.0
 40
5.0
 40
6.0
 40
6.0
 40
6.0
 40
7.0
 40
7.0
 40
7.0
 40
8.0
 40
8.0
 40
8.0
 40
9.0
 40
9.0
 40
9.0
 40
10.0
 40
10.0
 40
10.0
 40
11.0
 40
11.0
 40
11.0
 40
12.0
 40
12.0
 40
12.0
 40
13.0
 40
13.0
 40
13.0
 40
14.0
 40
14.0
 40
14.0
 40
15.0
 40
15.0
 40
15.0
 40
15.0
 10
3096.5745598684
 20
33.1612807266
 30
0.0
 10
3096.5745598684
 20
33.1612807266
 30
0.0
 10
3096.8599498731
 20
33.1612807266
 30
0.0
 10
3096.8599498731
 20
33.1612807266
 30
0.0
 10
3096.8599498731
 20
33.1612807266
 30
0.0
 10
3096.5275837054
 20
33.5721585876
 30
0.0
 10
3096.5275837054
 20
33.5721585876
 30
0.0
 10
3096.5275837054
 20
33.5721585876
 30
0.0
 10
3096.7540899402
 20
33.8380515219
 30
0.0
 10
3096.7540899402
 20
33.8380515219
 30
0.0
 10
3096.7540899402
 20
33.8380515219
 30
0.0
 10
3096.6058336929
 20
33.9908876179
 30
0.0
 10
3096.6058336929
 20
33.9908876179
 30
0.0
 10
3096.6058336929
 20
33.9908876179
 30
0.0
 10
3096.3899265366
 20
33.7396501997
 30
0.0
 10
3096.3899265366
 20
33.7396501997
 30
0.0
 10
3096.3899265366
 20
33.7396501997
 30
0.0
 10
3096.0028638893
 20
34.2075798911
 30
0.0
 10
3096.0028638893
 20
34.2075798911
 30
0.0
 10
3096.1583170418
 20
34.3216835519
 30
0.0
 10
3096.3405950228
 20
34.4614343657
 30
0.0
 10
3096.3405950228
 20
34.6707988809
 30
0.0
 10
3096.3405950228
 20
34.914708541
 30
0.0
 10
3096.1385582656
 20
35.0581232339
 30
0.0
 10
3095.9120520308
 20
35.0581232339
 30
0.0
 10
3095.667880665
 20
35.0581232339
 30
0.0
 10
3095.4835090389
 20
34.907380783
 30
0.0
 10
3095.4835090389
 20
34.6509092519
 30
0.0
 10
3095.4835090389
 20
34.4933624543
 30
0.0
 10
3095.5821720666
 20
34.3557052856
 30
0.0
 10
3095.6875085883
 20
34.2447420925
 30
0.0
 10
3095.6875085883
 20
34.2447420925
 30
0.0
 10
3095.5719655465
 20
34.1609962865
 30
0.0
 10
3095.5719655465
 20
34.1609962865
 30
0.0
 10
3095.3942674143
 20
34.0327605209
 30
0.0
 10
3095.2469271368
 20
33.9050481667
 30
0.0
 10
3095.2469271368
 20
33.6679428533
 30
0.0
 10
3095.2469271368
 20
33.3476151451
 30
0.0
 10
3095.505492313
 20
33.1215014688
 30
0.0
 10
3095.8158752067
 20
33.1215014688
 30
0.0
 10
3096.0347919778
 20
33.1215014688
 30
0.0
 10
3096.2319871805
 20
33.2465967666
 30
0.0
 10
3096.3722614057
 20
33.4125181448
 30
0.0
 10
3096.3722614057
 20
33.4125181448
 30
0.0
 10
3096.5745598684
 20
33.1612807266
 30
0.0
 10
3096.5745598684
 20
33.1612807266
 30
0.0
  0
LWPOLYLINE
  5
22F
100
AcDbEntity
  8
0
100
AcDbPolyline
 62
7
  6
CONTINUOUS
 90
2
 70
0
 43
0.2
 10
3098.5100039582
 20
35.0178205647
 10
3098.2786561689
 20
35.0178205647
  0
LWPOLYLINE
  5
230
100
AcDbEntity
  8
0
100
AcDbPolyline
 62
7
  6
CONTINUOUS
 90
2
 70
0
 43
0.2
 10
3098.2786561689
 20
35.0178205647
 10
3098.2786561689
 20
33.1607573154
  0
LWPOLYLINE
  5
231
100
AcDbEntity
  8
0
100
AcDbPolyline
 62
7
  6
CONTINUOUS
 90
2
 70
0
 43
0.2
 10
3098.2786561689
 20
33.1607573154
 10
3099.0739796208
 20
33.1607573154
  0
LWPOLYLINE
  5
232
100
AcDbEntity
  8
0
100
AcDbPolyline
 62
7
  6
CONTINUOUS
 90
2
 70
0
 43
0.2
 10
3099.0739796208
 20
33.1607573154
 10
3099.0739796208
 20
33.3727388869
  0
LWPOLYLINE
  5
233
100
AcDbEntity
  8
0
100
AcDbPolyline
 62
7
  6
CONTINUOUS
 90
2
 70
0
 43
0.2
 10
3099.0739796208
 20
33.3727388869
 10
3098.5100039582
 20
33.3727388869
  0
LWPOLYLINE
  5
234
100
AcDbEntity
  8
0
100
AcDbPolyline
 62
7
  6
CONTINUOUS
 90
2
 70
0
 43
0.2
 10
3098.5100039582
 20
33.3727388869
 10
3098.5100039582
 20
35.0178205647
  0
LWPOLYLINE
  5
235
100
AcDbEntity
  8
0
100
AcDbPolyline
 62
7
  6
CONTINUOUS
 90
2
 70
0
 43
0.2
 10
3100.7530830323
 20
34.3133089712
 10
3100.5319417632
 20
34.3133089712
  0
LWPOLYLINE
  5
236
100
AcDbEntity
  8
0
100
AcDbPolyline
 62
7
  6
CONTINUOUS
 90
2
 70
0
 43
0.2
 10
3100.5319417632
 20
34.3133089712
 10
3100.5319417632
 20
33.1612807266
  0
LWPOLYLINE
  5
237
100
AcDbEntity
  8
0
100
AcDbPolyline
 62
7
  6
CONTINUOUS
 90
2
 70
0
 43
0.2
 10
3100.5319417632
 20
33.1612807266
 10
3100.7530830323
 20
33.1612807266
  0
LWPOLYLINE
  5
238
100
AcDbEntity
  8
0
100
AcDbPolyline
 62
7
  6
CONTINUOUS
 90
2
 70
0
 43
0.2
 10
3100.7530830323
 20
33.1612807266
 10
3100.7530830323
 20
34.3133089712
  0
LWPOLYLINE
  5
239
100
AcDbEntity
  8
0
100
AcDbPolyline
 62
7
  6
CONTINUOUS
 90
2
 70
1
 43
0.2
 10
3100.4900597551
 20
34.8432629002
 42
1.0
 10
3100.795226746
 20
34.8432629002
 42
1.0
  0
SPLINE
  5
23A
100
AcDbEntity
  8
0
100
AcDbSpline
 62
7
  6
CONTINUOUS
 70
2
 71
3
 72
17
 73
13
 74
0
 42
0.0000001
 43
0.0000001
 44
0.0000000001
 40
0.0
 40
0.0
 40
0.0
 40
0.0
 40
1.0
 40
1.0
 40
1.0
 40
2.0
 40
2.0
 40
2.0
 40
3.0
 40
3.0
 40
3.0
 40
4.0
 40
4.0
 40
4.0
 40
4.0
 10
3102.883366974
 20
33.3188275243
 30
0.0
 10
3102.6494021283
 20
33.3188275243
 30
0.0
 10
3102.5190727176
 20
33.5208642814
 30
0.0
 10
3102.5190727176
 20
33.7370331433
 30
0.0
 10
3102.5190727176
 20
33.9516317713
 30
0.0
 10
3102.6548979468
 20
34.1505280607
 30
0.0
 10
3102.883366974
 20
34.1505280607
 30
0.0
 10
3103.1228276382
 20
34.1505280607
 30
0.0
 10
3103.2583911617
 20
33.9615765858
 30
0.0
 10
3103.2583911617
 20
33.7370331433
 30
0.0
 10
3103.2583911617
 20
33.5109194669
 30
0.0
 10
3103.125182989
 20
33.3188275243
 30
0.0
 10
3102.883366974
 20
33.3188275243
 30
0.0
  0
SPLINE
  5
23B
100
AcDbEntity
  8
0
100
AcDbSpline
 62
7
  6
CONTINUOUS
 70
2
 71
3
 72
50
 73
46
 74
0
 42
0.0000001
 43
0.0000001
 44
0.0000000001
 40
0.0
 40
0.0
 40
0.0
 40
0.0
 40
1.0
 40
1.0
 40
1.0
 40
2.0
 40
2.0
 40
2.0
 40
3.0
 40
3.0
 40
3.0
 40
4.0
 40
4.0
 40
4.0
 40
5.0
 40
5.0
 40
5.0
 40
6.0
 40
6.0
 40
6.0
 40
7.0
 40
7.0
 40
7.0
 40
8.0
 40
8.0
 40
8.0
 40
9.0
 40
9.0
 40
9.0
 40
10.0
 40
10.0
 40
10.0
 40
11.0
 40
11.0
 40
11.0
 40
12.0
 40
12.0
 40
12.0
 40
13.0
 40
13.0
 40
13.0
 40
14.0
 40
14.0
 40
14.0
 40
15.0
 40
15.0
 40
15.0
 40
15.0
 10
3103.4674939712
 20
34.3138323825
 30
0.0
 10
3103.4674939712
 20
34.3138323825
 30
0.0
 10
3103.2458292908
 20
34.3138323825
 30
0.0
 10
3103.2458292908
 20
34.3138323825
 30
0.0
 10
3103.2458292908
 20
34.3138323825
 30
0.0
 10
3103.2458292908
 20
34.116506327
 30
0.0
 10
3103.2458292908
 20
34.116506327
 30
0.0
 10
3103.2458292908
 20
34.116506327
 30
0.0
 10
3103.2411185892
 20
34.116506327
 30
0.0
 10
3103.2411185892
 20
34.116506327
 30
0.0
 10
3103.1497833195
 20
34.2593976086
 30
0.0
 10
3103.0118644451
 20
34.3478541162
 30
0.0
 10
3102.8391387201
 20
34.3478541162
 30
0.0
 10
3102.5067725523
 20
34.3478541162
 30
0.0
 10
3102.2976697428
 20
34.0599779079
 30
0.0
 10
3102.2976697428
 20
33.7443609013
 30
0.0
 10
3102.2976697428
 20
33.41461179
 30
0.0
 10
3102.4947340927
 20
33.1215014688
 30
0.0
 10
3102.8496069459
 20
33.1215014688
 30
0.0
 10
3103.0118644451
 20
33.1215014688
 30
0.0
 10
3103.1518769646
 20
33.2099579764
 30
0.0
 10
3103.2411185892
 20
33.3408107984
 30
0.0
 10
3103.2411185892
 20
33.3408107984
 30
0.0
 10
3103.2458292908
 20
33.3408107984
 30
0.0
 10
3103.2458292908
 20
33.3408107984
 30
0.0
 10
3103.2458292908
 20
33.3408107984
 30
0.0
 10
3103.2458292908
 20
33.1215014688
 30
0.0
 10
3103.2458292908
 20
33.1215014688
 30
0.0
 10
3103.2458292908
 20
32.8849195666
 30
0.0
 10
3103.1893008717
 20
32.6980617369
 30
0.0
 10
3102.9160801794
 20
32.6980617369
 30
0.0
 10
3102.7137817167
 20
32.6980617369
 30
0.0
 10
3102.5711521407
 20
32.8163526879
 30
0.0
 10
3102.5711521407
 20
33.0225767354
 30
0.0
 10
3102.5711521407
 20
33.0225767354
 30
0.0
 10
3102.3494874603
 20
33.0225767354
 30
0.0
 10
3102.3494874603
 20
33.0225767354
 30
0.0
 10
3102.3544598676
 20
32.6980617369
 30
0.0
 10
3102.5855459512
 20
32.5012590926
 30
0.0
 10
3102.9058736593
 20
32.5012590926
 30
0.0
 10
3103.3539137218
 20
32.5012590926
 30
0.0
 10
3103.4674939712
 20
32.7865182445
 30
0.0
 10
3103.4674939712
 20
33.1832640007
 30
0.0
 10
3103.4674939712
 20
33.1832640007
 30
0.0
 10
3103.4674939712
 20
34.3138323825
 30
0.0
 10
3103.4674939712
 20
34.3138323825
 30
0.0
  0
SPLINE
  5
23C
100
AcDbEntity
  8
0
100
AcDbSpline
 62
7
  6
CONTINUOUS
 70
2
 71
3
 72
44
 73
40
 74
0
 42
0.0000001
 43
0.0000001
 44
0.0000000001
 40
0.0
 40
0.0
 40
0.0
 40
0.0
 40
1.0
 40
1.0
 40
1.0
 40
2.0
 40
2.0
 40
2.0
 40
3.0
 40
3.0
 40
3.0
 40
4.0
 40
4.0
 40
4.0
 40
5.0
 40
5.0
 40
5.0
 40
6.0
 40
6.0
 40
6.0
 40
7.0
 40
7.0
 40
7.0
 40
8.0
 40
8.0
 40
8.0
 40
9.0
 40
9.0
 40
9.0
 40
10.0
 40
10.0
 40
10.0
 40
11.0
 40
11.0
 40
11.0
 40
12.0
 40
12.0
 40
12.0
 40
13.0
 40
13.0
 40
13.0
 40
13.0
 10
3105.0364193066
 20
35.2988924263
 30
0.0
 10
3105.0364193066
 20
35.2988924263
 30
0.0
 10
3105.0364193066
 20
33.1607573154
 30
0.0
 10
3105.0364193066
 20
33.1607573154
 30
0.0
 10
3105.0364193066
 20
33.1607573154
 30
0.0
 10
3105.2578222814
 20
33.1607573154
 30
0.0
 10
3105.2578222814
 20
33.1607573154
 30
0.0
 10
3105.2578222814
 20
33.1607573154
 30
0.0
 10
3105.2578222814
 20
33.6904495387
 30
0.0
 10
3105.2578222814
 20
33.6904495387
 30
0.0
 10
3105.2578222814
 20
33.9003374651
 30
0.0
 10
3105.2578222814
 20
34.151051472
 30
0.0
 10
3105.5430814333
 20
34.151051472
 30
0.0
 10
3105.7699802266
 20
34.151051472
 30
0.0
 10
3105.7969359079
 20
34.0181050049
 30
0.0
 10
3105.7969359079
 20
33.8218257719
 30
0.0
 10
3105.7969359079
 20
33.8218257719
 30
0.0
 10
3105.7969359079
 20
33.1607573154
 30
0.0
 10
3105.7969359079
 20
33.1607573154
 30
0.0
 10
3105.7969359079
 20
33.1607573154
 30
0.0
 10
3106.0188622939
 20
33.1607573154
 30
0.0
 10
3106.0188622939
 20
33.1607573154
 30
0.0
 10
3106.0188622939
 20
33.1607573154
 30
0.0
 10
3106.0188622939
 20
33.8479963363
 30
0.0
 10
3106.0188622939
 20
33.8479963363
 30
0.0
 10
3106.0188622939
 20
34.1285447866
 30
0.0
 10
3105.9348547822
 20
34.3483775275
 30
0.0
 10
3105.6098163725
 20
34.3483775275
 30
0.0
 10
3105.4700655586
 20
34.3483775275
 30
0.0
 10
3105.3318849786
 20
34.281904294
 30
0.0
 10
3105.262532983
 20
34.1589026413
 30
0.0
 10
3105.262532983
 20
34.1589026413
 30
0.0
 10
3105.2578222814
 20
34.1589026413
 30
0.0
 10
3105.2578222814
 20
34.1589026413
 30
0.0
 10
3105.2578222814
 20
34.1589026413
 30
0.0
 10
3105.2578222814
 20
35.2988924263
 30
0.0
 10
3105.2578222814
 20
35.2988924263
 30
0.0
 10
3105.2578222814
 20
35.2988924263
 30
0.0
 10
3105.0364193066
 20
35.2988924263
 30
0.0
 10
3105.0364193066
 20
35.2988924263
 30
0.0
  0
LWPOLYLINE
  5
23D
100
AcDbEntity
  8
0
100
AcDbPolyline
 62
7
  6
CONTINUOUS
 90
2
 70
0
 43
0.2
 10
3107.8586529708
 20
34.1065615125
 10
3108.0750835383
 20
34.1065615125
  0
LWPOLYLINE
  5
23E
100
AcDbEntity
  8
0
100
AcDbPolyline
 62
7
  6
CONTINUOUS
 90
2
 70
0
 43
0.2
 10
3108.0750835383
 20
34.1065615125
 10
3108.0750835383
 20
34.3133089712
  0
LWPOLYLINE
  5
23F
100
AcDbEntity
  8
0
100
AcDbPolyline
 62
7
  6
CONTINUOUS
 90
2
 70
0
 43
0.2
 10
3108.0750835383
 20
34.3133089712
 10
3107.8586529708
 20
34.3133089712
  0
LWPOLYLINE
  5
240
100
AcDbEntity
  8
0
100
AcDbPolyline
 62
7
  6
CONTINUOUS
 90
2
 70
0
 43
0.2
 10
3107.8586529708
 20
34.3133089712
 10
3107.8586529708
 20
34.7540212756
  0
LWPOLYLINE
  5
241
100
AcDbEntity
  8
0
100
AcDbPolyline
 62
7
  6
CONTINUOUS
 90
2
 70
0
 43
0.2
 10
3107.8586529708
 20
34.7540212756
 10
3107.6369882904
 20
34.7540212756
  0
LWPOLYLINE
  5
242
100
AcDbEntity
  8
0
100
AcDbPolyline
 62
7
  6
CONTINUOUS
 90
2
 70
0
 43
0.2
 10
3107.6369882904
 20
34.7540212756
 10
3107.6369882904
 20
34.3133089712
  0
LWPOLYLINE
  5
243
100
AcDbEntity
  8
0
100
AcDbPolyline
 62
7
  6
CONTINUOUS
 90
2
 70
0
 43
0.2
 10
3107.6369882904
 20
34.3133089712
 10
3107.5163419885
 20
34.3133089712
  0
LWPOLYLINE
  5
244
100
AcDbEntity
  8
0
100
AcDbPolyline
 62
7
  6
CONTINUOUS
 90
2
 70
0
 43
0.2
 10
3107.5163419885
 20
34.3133089712
 10
3107.5163419885
 20
34.1065615125
  0
LWPOLYLINE
  5
245
100
AcDbEntity
  8
0
100
AcDbPolyline
 62
7
  6
CONTINUOUS
 90
2
 70
0
 43
0.2
 10
3107.5163419885
 20
34.1065615125
 10
3107.6369882904
 20
34.1065615125
  0
LWPOLYLINE
  5
246
100
AcDbEntity
  8
0
100
AcDbPolyline
 62
7
  6
CONTINUOUS
 90
2
 70
0
 43
0.2
 10
3107.6369882904
 20
34.1065615125
 10
3107.6369882904
 20
33.1607573154
  0
LWPOLYLINE
  5
247
100
AcDbEntity
  8
0
100
AcDbPolyline
 62
7
  6
CONTINUOUS
 90
2
 70
0
 43
0.2
 10
3107.6369882904
 20
33.1607573154
 10
3107.8586529708
 20
33.1607573154
  0
LWPOLYLINE
  5
248
100
AcDbEntity
  8
0
100
AcDbPolyline
 62
7
  6
CONTINUOUS
 90
2
 70
0
 43
0.2
 10
3107.8586529708
 20
33.1607573154
 10
3107.8586529708
 20
34.1065615125
  0
SPLINE
  5
249
100
AcDbEntity
  8
0
100
AcDbSpline
 62
7
  6
CONTINUOUS
 70
2
 71
3
 72
20
 73
16
 74
0
 42
0.0000001
 43
0.0000001
 44
0.0000000001
 40
0.0
 40
0.0
 40
0.0
 40
0.0
 40
1.0
 40
1.0
 40
1.0
 40
2.0
 40
2.0
 40
2.0
 40
3.0
 40
3.0
 40
3.0
 40
4.0
 40
4.0
 40
4.0
 40
5.0
 40
5.0
 40
5.0
 40
5.0
 10
3095.6406632781
 20
43.5216837587
 30
0.0
 10
3095.6406632781
 20
43.5216837587
 30
0.0
 10
3097.9570199325
 20
40.6921223365
 30
0.0
 10
3097.9570199325
 20
40.6921223365
 30
0.0
 10
3097.3053728791
 20
40.0399518718
 30
0.0
 10
3096.5284996751
 20
39.3040356011
 30
0.0
 10
3095.5573100305
 20
39.3040356011
 30
0.0
 10
3094.558772146
 20
39.3040356011
 30
0.0
 10
3093.6154541525
 20
40.2336140483
 30
0.0
 10
3093.6154541525
 20
41.2328061969
 30
0.0
 10
3093.6154541525
 20
42.2319983454
 30
0.0
 10
3094.7943072256
 20
42.9386035841
 30
0.0
 10
3095.5158296859
 20
43.438461364
 30
0.0
 10
3095.5158296859
 20
43.438461364
 30
0.0
 10
3095.6406632781
 20
43.5216837587
 30
0.0
 10
3095.6406632781
 20
43.5216837587
 30
0.0
  0
SPLINE
  5
24A
100
AcDbEntity
  8
0
100
AcDbSpline
 62
7
  6
CONTINUOUS
 70
2
 71
3
 72
23
 73
19
 74
0
 42
0.0000001
 43
0.0000001
 44
0.0000000001
 40
0.0
 40
0.0
 40
0.0
 40
0.0
 40
1.0
 40
1.0
 40
1.0
 40
2.0
 40
2.0
 40
2.0
 40
3.0
 40
3.0
 40
3.0
 40
4.0
 40
4.0
 40
4.0
 40
5.0
 40
5.0
 40
5.0
 40
6.0
 40
6.0
 40
6.0
 40
6.0
 10
3095.9180712606
 20
45.1594376785
 30
0.0
 10
3095.9180712606
 20
45.1594376785
 30
0.0
 10
3095.5715729881
 20
45.6027670393
 30
0.0
 10
3095.5715729881
 20
45.6027670393
 30
0.0
 10
3095.2657699431
 20
45.9908765093
 30
0.0
 10
3094.946881616
 20
46.3793785377
 30
0.0
 10
3094.946881616
 20
46.9063228518
 30
0.0
 10
3094.946881616
 20
47.5724945684
 30
0.0
 10
3095.4882197405
 20
48.0162164877
 30
0.0
 10
3096.1121259956
 20
48.0162164877
 30
0.0
 10
3096.8059076577
 20
48.0162164877
 30
0.0
 10
3097.3331136774
 20
47.613974913
 30
0.0
 10
3097.3331136774
 20
46.878974612
 30
0.0
 10
3097.3331136774
 20
46.1157101014
 30
0.0
 10
3096.6118529227
 20
45.6855968756
 30
0.0
 10
3096.0847777558
 20
45.2698774602
 30
0.0
 10
3096.0847777558
 20
45.2698774602
 30
0.0
 10
3095.9180712606
 20
45.1594376785
 30
0.0
 10
3095.9180712606
 20
45.1594376785
 30
0.0
  0
SPLINE
  5
24B
100
AcDbEntity
  8
0
100
AcDbSpline
 62
7
  6
CONTINUOUS
 70
2
 71
3
 72
50
 73
46
 74
0
 42
0.0000001
 43
0.0000001
 44
0.0000000001
 40
0.0
 40
0.0
 40
0.0
 40
0.0
 40
1.0
 40
1.0
 40
1.0
 40
2.0
 40
2.0
 40
2.0
 40
3.0
 40
3.0
 40
3.0
 40
4.0
 40
4.0
 40
4.0
 40
5.0
 40
5.0
 40
5.0
 40
6.0
 40
6.0
 40
6.0
 40
7.0
 40
7.0
 40
7.0
 40
8.0
 40
8.0
 40
8.0
 40
9.0
 40
9.0
 40
9.0
 40
10.0
 40
10.0
 40
10.0
 40
11.0
 40
11.0
 40
11.0
 40
12.0
 40
12.0
 40
12.0
 40
13.0
 40
13.0
 40
13.0
 40
14.0
 40
14.0
 40
14.0
 40
15.0
 40
15.0
 40
15.0
 40
15.0
 10
3099.8716584236
 20
38.3608484603
 30
0.0
 10
3099.8716584236
 20
38.3608484603
 30
0.0
 10
3101.4808864281
 20
38.3608484603
 30
0.0
 10
3101.4808864281
 20
38.3608484603
 30
0.0
 10
3101.4808864281
 20
38.3608484603
 30
0.0
 10
3099.6078591345
 20
40.6779902317
 30
0.0
 10
3099.6078591345
 20
40.6779902317
 30
0.0
 10
3099.6078591345
 20
40.6779902317
 30
0.0
 10
3100.8841975599
 20
42.1754699263
 30
0.0
 10
3100.8841975599
 20
42.1754699263
 30
0.0
 10
3100.8841975599
 20
42.1754699263
 30
0.0
 10
3100.0519736122
 20
43.0364814949
 30
0.0
 10
3100.0519736122
 20
43.0364814949
 30
0.0
 10
3100.0519736122
 20
43.0364814949
 30
0.0
 10
3098.8313784889
 20
41.6211773725
 30
0.0
 10
3098.8313784889
 20
41.6211773725
 30
0.0
 10
3098.8313784889
 20
41.6211773725
 30
0.0
 10
3096.6534641201
 20
44.2565532069
 30
0.0
 10
3096.6534641201
 20
44.2565532069
 30
0.0
 10
3097.5270375595
 20
44.8945915668
 30
0.0
 10
3098.5537088007
 20
45.6855968756
 30
0.0
 10
3098.5537088007
 20
46.8644499487
 30
0.0
 10
3098.5537088007
 20
48.2381428737
 30
0.0
 10
3097.4158126609
 20
49.0426260232
 30
0.0
 10
3096.140521058
 20
49.0426260232
 30
0.0
 10
3094.7670898386
 20
49.0426260232
 30
0.0
 10
3093.7261556398
 20
48.1964008235
 30
0.0
 10
3093.7261556398
 20
46.7537484613
 30
0.0
 10
3093.7261556398
 20
45.8661737699
 30
0.0
 10
3094.2814950163
 20
45.0893005659
 30
0.0
 10
3094.8776604732
 20
44.4648708995
 30
0.0
 10
3094.8776604732
 20
44.4648708995
 30
0.0
 10
3094.2257517141
 20
43.9932773291
 30
0.0
 10
3094.2257517141
 20
43.9932773291
 30
0.0
 10
3093.2272138297
 20
43.2720165744
 30
0.0
 10
3092.3943356179
 20
42.5507558197
 30
0.0
 10
3092.3943356179
 20
41.2191975034
 30
0.0
 10
3092.3943356179
 20
39.4155222054
 30
0.0
 10
3093.8513817905
 20
38.1389220743
 30
0.0
 10
3095.5989212278
 20
38.1389220743
 30
0.0
 10
3096.8337793088
 20
38.1389220743
 30
0.0
 10
3097.9431495334
 20
38.8470975468
 30
0.0
 10
3098.7340239894
 20
39.7756291715
 30
0.0
 10
3098.7340239894
 20
39.7756291715
 30
0.0
 10
3099.8716584236
 20
38.3608484603
 30
0.0
 10
3099.8716584236
 20
38.3608484603
 30
0.0
  0
LINE
  5
24C
100
AcDbEntity
  8
0
100
AcDbLine
 62
7
  6
CONTINUOUS
 10
3085.6745197985
 20
36.334723365
 11
3108.0884305262
 21
36.334723365
  0
LINE
  5
24D
100
AcDbEntity
  8
0
100
AcDbLine
 62
7
  6
CONTINUOUS
 10
3108.0884305262
 20
36.334723365
 11
3108.0884305262
 21
58.7486340926
  0
LINE
  5
24E
100
AcDbEntity
  8
0
100
AcDbLine
 62
7
  6
CONTINUOUS
 10
3108.0884305262
 20
58.7486340926
 11
3085.6745197985
 21
58.7486340926
  0
LINE
  5
24F
100
AcDbEntity
  8
0
100
AcDbLine
 62
7
  6
CONTINUOUS
 10
3085.6745197985
 20
58.7486340926
 11
3085.6745197985
 21
36.334723365
  0
ENDBLK
  5
250
100
AcDbEntity
  8
0
  6
BYBLOCK
 62
0
100
AcDbBlockEnd
  0
BLOCK
  5
251
100
AcDbEntity
  8
0
100
AcDbBlockBegin
  2
_CLOSED
 70
64
 10
0.0
 20
0.0
  3
_CLOSED
  1

  0
LINE
  5
252
100
AcDbEntity
  8
0
  6
BYBLOCK
 62
0
100
AcDbLine
 10
0.0
 20
0.0
 11
-1.0
 21
0.2
  0
LINE
  5
253
100
AcDbEntity
  8
0
  6
BYBLOCK
 62
0
100
AcDbLine
 10
-1.0
 20
0.2
 11
-1.0
 21
-0.2
  0
LINE
  5
254
100
AcDbEntity
  8
0
  6
BYBLOCK
 62
0
100
AcDbLine
 10
-1.0
 20
-0.2
 11
0.0
 21
0.0
  0
LINE
  5
255
100
AcDbEntity
  8
0
  6
BYBLOCK
 62
0
100
AcDbLine
 10
-1.0
 20
0.0
 11
0.0
 21
0.0
  0
ENDBLK
  5
256
100
AcDbEntity
  8
0
  6
BYBLOCK
 62
0
100
AcDbBlockEnd
  0
BLOCK
  5
257
100
AcDbEntity
  8
0
100
AcDbBlockBegin
 62
7
  6
CONTINUOUS
  2
*D0
 70
65
 10
0.0
 20
0.0
  3
*D0
  1

  0
MTEXT
  5
258
100
AcDbEntity
  8
0
100
AcDbMText
 62
7
  6
CONTINUOUS
  7
STANDARD
 71
2
 72
1
 10
218.087283552
 20
244.5503184659
 30
0.0
 11
1.0
 21
0.0
 31
0.0
  1
82,1
 40
6.0
 41
16.3048327138
  0
LINE
  5
259
100
AcDbEntity
  8
0
100
AcDbLine
 62
7
  6
CONTINUOUS
 10
177.037283552
 20
270.2324421218
 11
177.037283552
 21
236.3003184659
  0
LINE
  5
25A
100
AcDbEntity
  8
0
100
AcDbLine
 62
7
  6
CONTINUOUS
 10
259.137283552
 20
275.0340108938
 11
259.137283552
 21
236.3003184659
  0
LINE
  5
25B
100
AcDbEntity
  8
0
100
AcDbLine
 62
7
  6
CONTINUOUS
 10
177.037283552
 20
237.0503184659
 11
218.087283552
 21
237.0503184659
  0
LINE
  5
25C
100
AcDbEntity
  8
0
100
AcDbLine
 62
7
  6
CONTINUOUS
 10
259.137283552
 20
237.0503184659
 11
218.087283552
 21
237.0503184659
  0
INSERT
  5
25D
100
AcDbEntity
  8
0
100
AcDbBlockReference
 62
7
  6
CONTINUOUS
  2
_CLOSED
 10
177.037283552
 20
237.0503184659
 41
2.5
 42
2.5
 43
2.5
 50
180.0
  0
INSERT
  5
25E
100
AcDbEntity
  8
0
100
AcDbBlockReference
 62
7
  6
CONTINUOUS
  2
_CLOSED
 10
259.137283552
 20
237.0503184659
 41
2.5
 42
2.5
 43
2.5
  0
ENDBLK
  5
25F
100
AcDbEntity
  8
0
  6
BYBLOCK
 62
0
100
AcDbBlockEnd
  0
BLOCK
  5
260
100
AcDbEntity
  8
0
100
AcDbBlockBegin
 62
7
  6
CONTINUOUS
  2
*D1
 70
65
 10
0.0
 20
0.0
  3
*D1
  1

  0
MTEXT
  5
261
100
AcDbEntity
  8
0
100
AcDbMText
 62
7
  6
CONTINUOUS
  7
STANDARD
 71
2
 72
1
 10
218.087283552
 20
266.8228741492
 30
0.0
 11
1.0
 21
0.0
 31
0.0
  1
42,4
 40
6.0
 41
16.3048327138
  0
LINE
  5
262
100
AcDbEntity
  8
0
100
AcDbLine
 62
7
  6
CONTINUOUS
 10
196.887283552
 20
270.2324421218
 11
196.887283552
 21
258.5728741492
  0
LINE
  5
263
100
AcDbEntity
  8
0
100
AcDbLine
 62
7
  6
CONTINUOUS
 10
239.287283552
 20
270.2324421218
 11
239.287283552
 21
258.5728741492
  0
LINE
  5
264
100
AcDbEntity
  8
0
100
AcDbLine
 62
7
  6
CONTINUOUS
 10
196.887283552
 20
259.3228741492
 11
218.087283552
 21
259.3228741492
  0
LINE
  5
265
100
AcDbEntity
  8
0
100
AcDbLine
 62
7
  6
CONTINUOUS
 10
239.287283552
 20
259.3228741492
 11
218.087283552
 21
259.3228741492
  0
INSERT
  5
266
100
AcDbEntity
  8
0
100
AcDbBlockReference
 62
7
  6
CONTINUOUS
  2
_CLOSED
 10
196.887283552
 20
259.3228741492
 41
2.5
 42
2.5
 43
2.5
 50
180.0
  0
INSERT
  5
267
100
AcDbEntity
  8
0
100
AcDbBlockReference
 62
7
  6
CONTINUOUS
  2
_CLOSED
 10
239.287283552
 20
259.3228741492
 41
2.5
 42
2.5
 43
2.5
  0
ENDBLK
  5
268
100
AcDbEntity
  8
0
  6
BYBLOCK
 62
0
100
AcDbBlockEnd
  0
BLOCK
  5
269
100
AcDbEntity
  8
0
100
AcDbBlockBegin
 62
7
  6
CONTINUOUS
  2
*D2
 70
65
 10
0.0
 20
0.0
  3
*D2
  1

  0
MTEXT
  5
26A
100
AcDbEntity
  8
0
100
AcDbMText
 62
7
  6
CONTINUOUS
  7
STANDARD
 71
2
 72
1
 10
140.317540278
 20
338.8752670882
 30
0.0
 11
0.0
 21
1.0
 31
0.0
  1
94,8
 40
6.0
 41
16.3048327138
  0
LINE
  5
26B
100
AcDbEntity
  8
0
100
AcDbLine
 62
7
  6
CONTINUOUS
 10
166.9761654544
 20
291.4752670882
 11
147.067540278
 21
291.4752670882
  0
LINE
  5
26C
100
AcDbEntity
  8
0
100
AcDbLine
 62
7
  6
CONTINUOUS
 10
167.975307282
 20
386.2752670882
 11
147.067540278
 21
386.2752670882
  0
LINE
  5
26D
100
AcDbEntity
  8
0
100
AcDbLine
 62
7
  6
CONTINUOUS
 10
147.817540278
 20
291.4752670882
 11
147.817540278
 21
338.8752670882
  0
LINE
  5
26E
100
AcDbEntity
  8
0
100
AcDbLine
 62
7
  6
CONTINUOUS
 10
147.817540278
 20
386.2752670882
 11
147.817540278
 21
338.8752670882
  0
INSERT
  5
26F
100
AcDbEntity
  8
0
100
AcDbBlockReference
 62
7
  6
CONTINUOUS
  2
_CLOSED
 10
147.817540278
 20
291.4752670882
 41
2.5
 42
2.5
 43
2.5
 50
270.0
  0
INSERT
  5
270
100
AcDbEntity
  8
0
100
AcDbBlockReference
 62
7
  6
CONTINUOUS
  2
_CLOSED
 10
147.817540278
 20
386.2752670882
 41
2.5
 42
2.5
 43
2.5
 50
90.0
  0
ENDBLK
  5
271
100
AcDbEntity
  8
0
  6
BYBLOCK
 62
0
100
AcDbBlockEnd
  0
BLOCK
  5
272
100
AcDbEntity
  8
0
100
AcDbBlockBegin
 62
7
  6
CONTINUOUS
  2
*D3
 70
65
 10
0.0
 20
0.0
  3
*D3
  1

  0
MTEXT
  5
273
100
AcDbEntity
  8
0
100
AcDbMText
 62
7
  6
CONTINUOUS
  7
STANDARD
 71
2
 72
1
 10
1027.4246614706
 20
244.5503184659
 30
0.0
 11
1.0
 21
0.0
 31
0.0
  1
1127
 40
6.0
 41
18.6468401487
  0
LINE
  5
274
100
AcDbEntity
  8
0
100
AcDbLine
 62
7
  6
CONTINUOUS
 10
463.9246614706
 20
270.2324421218
 11
463.9246614706
 21
236.3003184659
  0
LINE
  5
275
100
AcDbEntity
  8
0
100
AcDbLine
 62
7
  6
CONTINUOUS
 10
1590.9246614706
 20
270.2324421218
 11
1590.9246614706
 21
236.3003184659
  0
LINE
  5
276
100
AcDbEntity
  8
0
100
AcDbLine
 62
7
  6
CONTINUOUS
 10
463.9246614706
 20
237.0503184659
 11
1027.4246614706
 21
237.0503184659
  0
LINE
  5
277
100
AcDbEntity
  8
0
100
AcDbLine
 62
7
  6
CONTINUOUS
 10
1590.9246614706
 20
237.0503184659
 11
1027.4246614706
 21
237.0503184659
  0
INSERT
  5
278
100
AcDbEntity
  8
0
100
AcDbBlockReference
 62
7
  6
CONTINUOUS
  2
_CLOSED
 10
463.9246614706
 20
237.0503184659
 41
2.5
 42
2.5
 43
2.5
 50
180.0
  0
INSERT
  5
279
100
AcDbEntity
  8
0
100
AcDbBlockReference
 62
7
  6
CONTINUOUS
  2
_CLOSED
 10
1590.9246614706
 20
237.0503184659
 41
2.5
 42
2.5
 43
2.5
  0
ENDBLK
  5
27A
100
AcDbEntity
  8
0
  6
BYBLOCK
 62
0
100
AcDbBlockEnd
  0
ENDSEC
  0
SECTION
  2
ENTITIES
  0
DIMENSION
  5
27B
100
AcDbEntity
  8
0
100
AcDbDimension
 62
7
  6
CONTINUOUS
  2
*D0
 10
259.137283552
 20
237.0503184659
 11
217.4772583008
 21
237.0503184659
 70
160
  3
DIMSTYLE_1
100
AcDbAlignedDimension
 13
177.037283552
 23
270.9824421218
 14
259.137283552
 24
275.7840108938
100
AcDbRotatedDimension
  0
DIMENSION
  5
27C
100
AcDbEntity
  8
0
100
AcDbDimension
 62
7
  6
CONTINUOUS
  2
*D1
 10
239.287283552
 20
259.3228741492
 11
217.9345092773
 21
259.3228741492
 70
160
  3
DIMSTYLE_1
100
AcDbAlignedDimension
 13
196.887283552
 23
270.9824421218
 14
239.287283552
 24
270.9824421218
100
AcDbRotatedDimension
  0
DIMENSION
  5
27D
100
AcDbEntity
  8
0
100
AcDbDimension
 62
7
  6
CONTINUOUS
  2
*D2
 10
147.817540278
 20
386.2752670882
 11
147.817540278
 21
338.8451664104
 70
160
  3
DIMSTYLE_1
100
AcDbAlignedDimension
 13
167.7261654544
 23
291.4752670882
 14
168.725307282
 24
386.2752670882
 50
90.0
100
AcDbRotatedDimension
  0
DIMENSION
  5
27E
100
AcDbEntity
  8
0
100
AcDbDimension
 62
7
  6
CONTINUOUS
  2
*D3
 10
1590.9246614706
 20
237.0503184659
 11
1027.6774902344
 21
237.0503184659
 70
160
  3
DIMSTYLE_2
100
AcDbAlignedDimension
 13
463.9246614706
 23
270.9824421218
 14
1590.9246614706
 24
270.9824421218
100
AcDbRotatedDimension
  0
LINE
  5
27F
100
AcDbEntity
  8
0
100
AcDbLine
 62
2
  6
CONTINUOUS
 10
3083.0553626912
 20
59.1249465926
 11
3173.0553626912
 21
59.1249465926
  0
LINE
  5
280
100
AcDbEntity
  8
0
100
AcDbLine
 62
2
  6
CONTINUOUS
 10
3083.0553626912
 20
59.1249465926
 11
3083.0553626912
 21
19.1249465926
  0
LINE
  5
281
100
AcDbEntity
  8
0
100
AcDbLine
 62
2
  6
CONTINUOUS
 10
3113.0553626912
 20
53.1249465926
 11
3173.0553626912
 21
53.1249465926
  0
LINE
  5
282
100
AcDbEntity
  8
0
100
AcDbLine
 62
2
  6
CONTINUOUS
 10
3113.0553626912
 20
47.1249465926
 11
3173.0553626912
 21
47.1249465926
  0
LINE
  5
283
100
AcDbEntity
  8
0
100
AcDbLine
 62
2
  6
CONTINUOUS
 10
3113.0553626912
 20
37.1249465926
 11
3173.0553626912
 21
37.1249465926
  0
LINE
  5
284
100
AcDbEntity
  8
0
100
AcDbLine
 62
2
  6
CONTINUOUS
 10
3083.0553626912
 20
32.1249465926
 11
3173.0553626912
 21
32.1249465926
  0
LINE
  5
285
100
AcDbEntity
  8
0
100
AcDbLine
 62
2
  6
CONTINUOUS
 10
3083.0553626912
 20
19.1249465926
 11
3173.0553626912
 21
19.1249465926
  0
LINE
  5
286
100
AcDbEntity
  8
0
100
AcDbLine
 62
2
  6
CONTINUOUS
 10
3113.0553626912
 20
59.1249465926
 11
3113.0553626912
 21
32.1249465926
  0
LINE
  5
287
100
AcDbEntity
  8
0
100
AcDbLine
 62
2
  6
CONTINUOUS
 10
3153.0553626912
 20
59.1249465926
 11
3153.0553626912
 21
47.1249465926
  0
LINE
  5
288
100
AcDbEntity
  8
0
100
AcDbLine
 62
2
  6
CONTINUOUS
 10
3173.0553626912
 20
59.1249465926
 11
3173.0553626912
 21
19.1249465926
  0
INSERT
  5
289
100
AcDbEntity
  8
0
100
AcDbBlockReference
 62
2
  6
CONTINUOUS
  2
LOGO2_BL0
 10
3096.881409736
 20
45.6249465926
  0
MTEXT
  5
28A
100
AcDbEntity
  8
9_SOLID
100
AcDbMText
 62
2
  6
CONTINUOUS
  7
TEXTSTYLE_2
 71
1
 72
1
 10
3114.5428626912
 20
57.6249465926
 30
0.0
 11
1.0
 21
0.0
 31
0.0
  1
6F3_C_142
 40
3.0
 41
31.2857142857
  0
MTEXT
  5
28B
100
AcDbEntity
  8
0
100
AcDbMText
 62
2
  6
CONTINUOUS
  7
TEXTSTYLE_2
 71
1
 72
1
 10
3154.5428626912
 20
57.3749465926
 30
0.0
 11
1.0
 21
0.0
 31
0.0
  1
Rev:00
 40
3.5
 41
22.75
  0
MTEXT
  5
28C
100
AcDbEntity
  8
9_SOLID
100
AcDbMText
 62
2
  6
CONTINUOUS
  7
TEXTSTYLE_2
 71
1
 72
1
 10
3114.5428626912
 20
51.3749465926
 30
0.0
 11
1.0
 21
0.0
 31
0.0
  1
Scale:1:1
 40
3.5
 41
28.375
  0
MTEXT
  5
28D
100
AcDbEntity
  8
9_SOLID
100
AcDbMText
 62
2
  6
CONTINUOUS
  7
TEXTSTYLE_2
 71
1
 72
1
 10
3154.5428626912
 20
51.8749465926
 30
0.0
 11
1.0
 21
0.0
 31
0.0
  1
3200 by 2500
 40
3.5
 41
48.5
  0
MTEXT
  5
28E
100
AcDbEntity
  8
0
100
AcDbMText
 62
2
  6
CONTINUOUS
  7
TEXTSTYLE_2
 71
1
 72
1
 10
3114.5428626912
 20
43.8749465926
 30
0.0
 11
1.0
 21
0.0
 31
0.0
  1
CASS. BRENTA 1.3 ARRETRATA
 40
3.5
 41
107.0
  0
MTEXT
  5
28F
100
AcDbEntity
  8
0
100
AcDbMText
 62
2
  6
CONTINUOUS
  7
TEXTSTYLE_2
 71
1
 72
1
 10
3114.5428626912
 20
35.8749465926
 30
0.0
 11
1.0
 21
0.0
 31
0.0
  1
DATE:08/05/18
 40
2.5
 41
36.875
  0
MTEXT
  5
290
100
AcDbEntity
  8
9_SOLID
100
AcDbMText
 62
2
  6
CONTINUOUS
  7
TEXTSTYLE_2
 71
1
 72
1
 10
3084.5428626912
 20
31.8124465926
 30
0.0
 11
1.0
 21
0.0
 31
0.0
  1
Any integral or partial reproductions are prohibited \Pwithout prior authorisation of L {\Ftxt.shx;\W0.190476;\H2.250000; }& L Luce & Light s.r.l., \Pin accordance with the law in force. \PAll rights reserved.
 40
2.25
 41
134.5982142857
  0
LINE
  5
291
100
AcDbEntity
  8
0
100
AcDbLine
 62
7
  6
CONTINUOUS
 10
0.0
 20
0.0
 11
0.0
 21
2500.0
  0
LINE
  5
292
100
AcDbEntity
  8
0
100
AcDbLine
 62
7
  6
CONTINUOUS
 10
0.0
 20
0.0
 11
3200.0
 21
0.0
  0
LINE
  5
293
100
AcDbEntity
  8
0
100
AcDbLine
 62
7
  6
CONTINUOUS
 10
0.0
 20
2500.0
 11
3200.0
 21
2500.0
  0
LINE
  5
294
100
AcDbEntity
  8
0
100
AcDbLine
 62
7
  6
CONTINUOUS
 10
3200.0
 20
0.0
 11
3200.0
 21
2500.0
  0
LINE
  5
295
100
AcDbEntity
  8
6_ALL_SURFS
100
AcDbLine
 62
7
  6
CONTINUOUS
 10
179.737283552
 20
294.1252670882
 11
180.037283552
 21
293.9752670882
  0
LINE
  5
296
100
AcDbEntity
  8
6_ALL_SURFS
100
AcDbLine
 62
7
  6
CONTINUOUS
 10
182.737283552
 20
294.1252670882
 11
183.037283552
 21
293.9752670882
  0
LINE
  5
297
100
AcDbEntity
  8
6_ALL_SURFS
100
AcDbLine
 62
7
  6
CONTINUOUS
 10
185.737283552
 20
294.1252670882
 11
186.037283552
 21
293.9752670882
  0
LINE
  5
298
100
AcDbEntity
  8
6_ALL_SURFS
100
AcDbLine
 62
7
  6
CONTINUOUS
 10
188.737283552
 20
294.1252670882
 11
189.037283552
 21
293.9752670882
  0
LINE
  5
299
100
AcDbEntity
  8
6_ALL_SURFS
100
AcDbLine
 62
7
  6
CONTINUOUS
 10
191.737283552
 20
294.1252670882
 11
192.037283552
 21
293.9752670882
  0
LINE
  5
29A
100
AcDbEntity
  8
6_ALL_SURFS
100
AcDbLine
 62
7
  6
CONTINUOUS
 10
194.737283552
 20
294.1252670882
 11
195.037283552
 21
293.9752670882
  0
LINE
  5
29B
100
AcDbEntity
  8
7_ALL_FEATURES
100
AcDbLine
 62
7
  6
CONTINUOUS
 10
256.637283552
 20
292.9752670882
 11
258.7827551424
 21
293.1898142472
  0
LINE
  5
29C
100
AcDbEntity
  8
7_ALL_FEATURES
100
AcDbLine
 62
7
  6
CONTINUOUS
 10
238.537283552
 20
291.4752670882
 11
197.637283552
 21
291.4752670882
  0
LINE
  5
29D
100
AcDbEntity
  8
6_ALL_SURFS
100
AcDbLine
 62
7
  6
CONTINUOUS
 10
196.887283552
 20
292.9752670882
 11
195.037283552
 21
292.9752670882
  0
LINE
  5
29E
100
AcDbEntity
  8
6_ALL_SURFS
100
AcDbLine
 62
7
  6
CONTINUOUS
 10
194.437283552
 20
292.9752670882
 11
192.037283552
 21
292.9752670882
  0
LINE
  5
29F
100
AcDbEntity
  8
6_ALL_SURFS
100
AcDbLine
 62
7
  6
CONTINUOUS
 10
191.437283552
 20
292.9752670882
 11
189.037283552
 21
292.9752670882
  0
LINE
  5
2A0
100
AcDbEntity
  8
6_ALL_SURFS
100
AcDbLine
 62
7
  6
CONTINUOUS
 10
188.437283552
 20
292.9752670882
 11
186.037283552
 21
292.9752670882
  0
LINE
  5
2A1
100
AcDbEntity
  8
6_ALL_SURFS
100
AcDbLine
 62
7
  6
CONTINUOUS
 10
185.437283552
 20
292.9752670882
 11
183.037283552
 21
292.9752670882
  0
LINE
  5
2A2
100
AcDbEntity
  8
6_ALL_SURFS
100
AcDbLine
 62
7
  6
CONTINUOUS
 10
182.437283552
 20
292.9752670882
 11
179.537283552
 21
292.9752670882
  0
LINE
  5
2A3
100
AcDbEntity
  8
7_ALL_FEATURES
100
AcDbLine
 62
7
  6
CONTINUOUS
 10
239.287283552
 20
292.9752670882
 11
241.137283552
 21
292.9752670882
  0
LINE
  5
2A4
100
AcDbEntity
  8
7_ALL_FEATURES
100
AcDbLine
 62
7
  6
CONTINUOUS
 10
241.737283552
 20
292.9752670882
 11
244.137283552
 21
292.9752670882
  0
LINE
  5
2A5
100
AcDbEntity
  8
7_ALL_FEATURES
100
AcDbLine
 62
7
  6
CONTINUOUS
 10
244.737283552
 20
292.9752670882
 11
247.137283552
 21
292.9752670882
  0
LINE
  5
2A6
100
AcDbEntity
  8
7_ALL_FEATURES
100
AcDbLine
 62
7
  6
CONTINUOUS
 10
247.737283552
 20
292.9752670882
 11
250.137283552
 21
292.9752670882
  0
LINE
  5
2A7
100
AcDbEntity
  8
7_ALL_FEATURES
100
AcDbLine
 62
7
  6
CONTINUOUS
 10
250.737283552
 20
292.9752670882
 11
253.137283552
 21
292.9752670882
  0
LINE
  5
2A8
100
AcDbEntity
  8
7_ALL_FEATURES
100
AcDbLine
 62
7
  6
CONTINUOUS
 10
253.737283552
 20
292.9752670882
 11
256.637283552
 21
292.9752670882
  0
LINE
  5
2A9
100
AcDbEntity
  8
6_ALL_SURFS
100
AcDbLine
 62
7
  6
CONTINUOUS
 10
179.537283552
 20
292.9752670882
 11
177.3918119617
 21
293.1898142472
  0
LINE
  5
2AA
100
AcDbEntity
  8
7_ALL_FEATURES
100
AcDbLine
 62
7
  6
CONTINUOUS
 10
258.7435801941
 20
293.9752670882
 11
256.737283552
 21
293.9752670882
  0
LINE
  5
2AB
100
AcDbEntity
  8
7_ALL_FEATURES
100
AcDbLine
 62
7
  6
CONTINUOUS
 10
256.137283552
 20
293.9752670882
 11
253.737283552
 21
293.9752670882
  0
LINE
  5
2AC
100
AcDbEntity
  8
7_ALL_FEATURES
100
AcDbLine
 62
7
  6
CONTINUOUS
 10
253.137283552
 20
293.9752670882
 11
250.737283552
 21
293.9752670882
  0
LINE
  5
2AD
100
AcDbEntity
  8
7_ALL_FEATURES
100
AcDbLine
 62
7
  6
CONTINUOUS
 10
250.137283552
 20
293.9752670882
 11
247.737283552
 21
293.9752670882
  0
LINE
  5
2AE
100
AcDbEntity
  8
7_ALL_FEATURES
100
AcDbLine
 62
7
  6
CONTINUOUS
 10
247.137283552
 20
293.9752670882
 11
244.737283552
 21
293.9752670882
  0
LINE
  5
2AF
100
AcDbEntity
  8
7_ALL_FEATURES
100
AcDbLine
 62
7
  6
CONTINUOUS
 10
244.137283552
 20
293.9752670882
 11
241.737283552
 21
293.9752670882
  0
LINE
  5
2B0
100
AcDbEntity
  8
7_ALL_FEATURES
100
AcDbLine
 62
7
  6
CONTINUOUS
 10
241.137283552
 20
293.9752670882
 11
239.437283552
 21
293.9752670882
  0
LINE
  5
2B1
100
AcDbEntity
  8
6_ALL_SURFS
100
AcDbLine
 62
7
  6
CONTINUOUS
 10
177.43098691
 20
293.9752670882
 11
179.437283552
 21
293.9752670882
  0
LINE
  5
2B2
100
AcDbEntity
  8
6_ALL_SURFS
100
AcDbLine
 62
7
  6
CONTINUOUS
 10
180.037283552
 20
293.9752670882
 11
182.437283552
 21
293.9752670882
  0
LINE
  5
2B3
100
AcDbEntity
  8
6_ALL_SURFS
100
AcDbLine
 62
7
  6
CONTINUOUS
 10
183.037283552
 20
293.9752670882
 11
185.437283552
 21
293.9752670882
  0
LINE
  5
2B4
100
AcDbEntity
  8
6_ALL_SURFS
100
AcDbLine
 62
7
  6
CONTINUOUS
 10
186.037283552
 20
293.9752670882
 11
188.437283552
 21
293.9752670882
  0
LINE
  5
2B5
100
AcDbEntity
  8
6_ALL_SURFS
100
AcDbLine
 62
7
  6
CONTINUOUS
 10
189.037283552
 20
293.9752670882
 11
191.437283552
 21
293.9752670882
  0
LINE
  5
2B6
100
AcDbEntity
  8
6_ALL_SURFS
100
AcDbLine
 62
7
  6
CONTINUOUS
 10
192.037283552
 20
293.9752670882
 11
194.437283552
 21
293.9752670882
  0
LINE
  5
2B7
100
AcDbEntity
  8
6_ALL_SURFS
100
AcDbLine
 62
7
  6
CONTINUOUS
 10
195.037283552
 20
293.9752670882
 11
196.737283552
 21
293.9752670882
  0
LINE
  5
2B8
100
AcDbEntity
  8
7_ALL_FEATURES
100
AcDbLine
 62
7
  6
CONTINUOUS
 10
241.737283552
 20
293.9752670882
 11
241.437283552
 21
294.1252670882
  0
LINE
  5
2B9
100
AcDbEntity
  8
7_ALL_FEATURES
100
AcDbLine
 62
7
  6
CONTINUOUS
 10
244.737283552
 20
293.9752670882
 11
244.437283552
 21
294.1252670882
  0
LINE
  5
2BA
100
AcDbEntity
  8
7_ALL_FEATURES
100
AcDbLine
 62
7
  6
CONTINUOUS
 10
247.737283552
 20
293.9752670882
 11
247.437283552
 21
294.1252670882
  0
LINE
  5
2BB
100
AcDbEntity
  8
7_ALL_FEATURES
100
AcDbLine
 62
7
  6
CONTINUOUS
 10
250.737283552
 20
293.9752670882
 11
250.437283552
 21
294.1252670882
  0
LINE
  5
2BC
100
AcDbEntity
  8
7_ALL_FEATURES
100
AcDbLine
 62
7
  6
CONTINUOUS
 10
196.887283552
 20
320.6252670882
 11
196.887283552
 21
292.2252670882
  0
LINE
  5
2BD
100
AcDbEntity
  8
6_ALL_SURFS
100
AcDbLine
 62
7
  6
CONTINUOUS
 10
200.087283552
 20
365.9683700759
 11
202.087283552
 21
374.9897870832
  0
LINE
  5
2BE
100
AcDbEntity
  8
7_ALL_FEATURES
100
AcDbLine
 62
7
  6
CONTINUOUS
 10
236.762283552
 20
316.2252670882
 11
236.012283552
 21
316.2252670882
  0
LINE
  5
2BF
100
AcDbEntity
  8
7_ALL_FEATURES
100
AcDbLine
 62
7
  6
CONTINUOUS
 10
200.162283552
 20
316.2252670882
 11
199.412283552
 21
316.2252670882
  0
LINE
  5
2C0
100
AcDbEntity
  8
7_ALL_FEATURES
100
AcDbLine
 62
7
  6
CONTINUOUS
 10
200.162283552
 20
317.1002670882
 11
201.037283552
 21
317.1002670882
  0
LINE
  5
2C1
100
AcDbEntity
  8
7_ALL_FEATURES
100
AcDbLine
 62
7
  6
CONTINUOUS
 10
198.537283552
 20
317.1002670882
 11
199.412283552
 21
317.1002670882
  0
LINE
  5
2C2
100
AcDbEntity
  8
7_ALL_FEATURES
100
AcDbLine
 62
7
  6
CONTINUOUS
 10
236.762283552
 20
317.1002670882
 11
237.637283552
 21
317.1002670882
  0
LINE
  5
2C3
100
AcDbEntity
  8
7_ALL_FEATURES
100
AcDbLine
 62
7
  6
CONTINUOUS
 10
235.137283552
 20
317.1002670882
 11
236.012283552
 21
317.1002670882
  0
LINE
  5
2C4
100
AcDbEntity
  8
7_ALL_FEATURES
100
AcDbLine
 62
7
  6
CONTINUOUS
 10
237.637283552
 20
317.8502670882
 11
236.762283552
 21
317.8502670882
  0
LINE
  5
2C5
100
AcDbEntity
  8
7_ALL_FEATURES
100
AcDbLine
 62
7
  6
CONTINUOUS
 10
236.012283552
 20
317.8502670882
 11
235.137283552
 21
317.8502670882
  0
LINE
  5
2C6
100
AcDbEntity
  8
7_ALL_FEATURES
100
AcDbLine
 62
7
  6
CONTINUOUS
 10
201.037283552
 20
317.8502670882
 11
200.162283552
 21
317.8502670882
  0
LINE
  5
2C7
100
AcDbEntity
  8
7_ALL_FEATURES
100
AcDbLine
 62
7
  6
CONTINUOUS
 10
199.412283552
 20
317.8502670882
 11
198.537283552
 21
317.8502670882
  0
LINE
  5
2C8
100
AcDbEntity
  8
7_ALL_FEATURES
100
AcDbLine
 62
7
  6
CONTINUOUS
 10
253.737283552
 20
293.9752670882
 11
253.437283552
 21
294.1252670882
  0
LINE
  5
2C9
100
AcDbEntity
  8
7_ALL_FEATURES
100
AcDbLine
 62
7
  6
CONTINUOUS
 10
256.737283552
 20
293.9752670882
 11
256.437283552
 21
294.1252670882
  0
LINE
  5
2CA
100
AcDbEntity
  8
7_ALL_FEATURES
100
AcDbLine
 62
7
  6
CONTINUOUS
 10
198.537283552
 20
317.1002670882
 11
198.537283552
 21
317.8502670882
  0
LINE
  5
2CB
100
AcDbEntity
  8
7_ALL_FEATURES
100
AcDbLine
 62
7
  6
CONTINUOUS
 10
199.412283552
 20
318.7252670882
 11
199.412283552
 21
317.8502670882
  0
LINE
  5
2CC
100
AcDbEntity
  8
7_ALL_FEATURES
100
AcDbLine
 62
7
  6
CONTINUOUS
 10
199.412283552
 20
317.1002670882
 11
199.412283552
 21
316.2252670882
  0
LINE
  5
2CD
100
AcDbEntity
  8
6_ALL_SURFS
100
AcDbLine
 62
7
  6
CONTINUOUS
 10
200.087283552
 20
322.8752670882
 11
200.087283552
 21
365.9683700759
  0
LINE
  5
2CE
100
AcDbEntity
  8
7_ALL_FEATURES
100
AcDbLine
 62
7
  6
CONTINUOUS
 10
200.162283552
 20
316.2252670882
 11
200.162283552
 21
317.1002670882
  0
LINE
  5
2CF
100
AcDbEntity
  8
7_ALL_FEATURES
100
AcDbLine
 62
7
  6
CONTINUOUS
 10
200.162283552
 20
317.8502670882
 11
200.162283552
 21
318.7252670882
  0
LINE
  5
2D0
100
AcDbEntity
  8
7_ALL_FEATURES
100
AcDbLine
 62
7
  6
CONTINUOUS
 10
201.037283552
 20
317.8502670882
 11
201.037283552
 21
317.1002670882
  0
LINE
  5
2D1
100
AcDbEntity
  8
7_ALL_FEATURES
100
AcDbLine
 62
7
  6
CONTINUOUS
 10
199.412283552
 20
318.7252670882
 11
200.162283552
 21
318.7252670882
  0
LINE
  5
2D2
100
AcDbEntity
  8
7_ALL_FEATURES
100
AcDbLine
 62
7
  6
CONTINUOUS
 10
236.012283552
 20
318.7252670882
 11
236.762283552
 21
318.7252670882
  0
LINE
  5
2D3
100
AcDbEntity
  8
6_ALL_SURFS
100
AcDbLine
 62
7
  6
CONTINUOUS
 10
238.537283552
 20
321.3752670882
 11
237.587283552
 21
321.3752670882
  0
LINE
  5
2D4
100
AcDbEntity
  8
6_ALL_SURFS
100
AcDbLine
 62
7
  6
CONTINUOUS
 10
197.637283552
 20
321.3752670882
 11
198.587283552
 21
321.3752670882
  0
LINE
  5
2D5
100
AcDbEntity
  8
6_ALL_SURFS
100
AcDbLine
 62
7
  6
CONTINUOUS
 10
202.087283552
 20
374.9897870832
 11
202.087283552
 21
385.9752670882
  0
LINE
  5
2D6
100
AcDbEntity
  8
7_ALL_FEATURES
100
AcDbLine
 62
7
  6
CONTINUOUS
 10
204.837283552
 20
382.7002670882
 11
204.837283552
 21
383.4502670882
  0
LINE
  5
2D7
100
AcDbEntity
  8
7_ALL_FEATURES
100
AcDbLine
 62
7
  6
CONTINUOUS
 10
205.712283552
 20
384.3252670882
 11
205.712283552
 21
383.4502670882
  0
LINE
  5
2D8
100
AcDbEntity
  8
7_ALL_FEATURES
100
AcDbLine
 62
7
  6
CONTINUOUS
 10
205.712283552
 20
382.7002670882
 11
205.712283552
 21
381.8252670882
  0
LINE
  5
2D9
100
AcDbEntity
  8
7_ALL_FEATURES
100
AcDbLine
 62
7
  6
CONTINUOUS
 10
206.462283552
 20
381.8252670882
 11
206.462283552
 21
382.7002670882
  0
LINE
  5
2DA
100
AcDbEntity
  8
7_ALL_FEATURES
100
AcDbLine
 62
7
  6
CONTINUOUS
 10
206.462283552
 20
383.4502670882
 11
206.462283552
 21
384.3252670882
  0
LINE
  5
2DB
100
AcDbEntity
  8
7_ALL_FEATURES
100
AcDbLine
 62
7
  6
CONTINUOUS
 10
207.337283552
 20
383.4502670882
 11
207.337283552
 21
382.7002670882
  0
LINE
  5
2DC
100
AcDbEntity
  8
7_ALL_FEATURES
100
AcDbLine
 62
7
  6
CONTINUOUS
 10
228.837283552
 20
382.7002670882
 11
228.837283552
 21
383.4502670882
  0
LINE
  5
2DD
100
AcDbEntity
  8
7_ALL_FEATURES
100
AcDbLine
 62
7
  6
CONTINUOUS
 10
229.712283552
 20
384.3252670882
 11
229.712283552
 21
383.4502670882
  0
LINE
  5
2DE
100
AcDbEntity
  8
7_ALL_FEATURES
100
AcDbLine
 62
7
  6
CONTINUOUS
 10
229.712283552
 20
382.7002670882
 11
229.712283552
 21
381.8252670882
  0
LINE
  5
2DF
100
AcDbEntity
  8
7_ALL_FEATURES
100
AcDbLine
 62
7
  6
CONTINUOUS
 10
230.462283552
 20
381.8252670882
 11
230.462283552
 21
382.7002670882
  0
LINE
  5
2E0
100
AcDbEntity
  8
7_ALL_FEATURES
100
AcDbLine
 62
7
  6
CONTINUOUS
 10
230.462283552
 20
383.4502670882
 11
230.462283552
 21
384.3252670882
  0
LINE
  5
2E1
100
AcDbEntity
  8
7_ALL_FEATURES
100
AcDbLine
 62
7
  6
CONTINUOUS
 10
231.337283552
 20
383.4502670882
 11
231.337283552
 21
382.7002670882
  0
LINE
  5
2E2
100
AcDbEntity
  8
6_ALL_SURFS
100
AcDbLine
 62
7
  6
CONTINUOUS
 10
234.087283552
 20
385.5252670882
 11
234.087283552
 21
374.9897870832
  0
LINE
  5
2E3
100
AcDbEntity
  8
7_ALL_FEATURES
100
AcDbLine
 62
7
  6
CONTINUOUS
 10
234.087283552
 20
385.5252670882
 11
234.087283552
 21
385.9752670882
  0
LINE
  5
2E4
100
AcDbEntity
  8
7_ALL_FEATURES
100
AcDbLine
 62
7
  6
CONTINUOUS
 10
235.137283552
 20
317.1002670882
 11
235.137283552
 21
317.8502670882
  0
LINE
  5
2E5
100
AcDbEntity
  8
7_ALL_FEATURES
100
AcDbLine
 62
7
  6
CONTINUOUS
 10
236.012283552
 20
318.7252670882
 11
236.012283552
 21
317.8502670882
  0
LINE
  5
2E6
100
AcDbEntity
  8
7_ALL_FEATURES
100
AcDbLine
 62
7
  6
CONTINUOUS
 10
236.012283552
 20
317.1002670882
 11
236.012283552
 21
316.2252670882
  0
LINE
  5
2E7
100
AcDbEntity
  8
6_ALL_SURFS
100
AcDbLine
 62
7
  6
CONTINUOUS
 10
236.087283552
 20
365.9683700759
 11
236.087283552
 21
322.8752670882
  0
LINE
  5
2E8
100
AcDbEntity
  8
7_ALL_FEATURES
100
AcDbLine
 62
7
  6
CONTINUOUS
 10
236.762283552
 20
316.2252670882
 11
236.762283552
 21
317.1002670882
  0
LINE
  5
2E9
100
AcDbEntity
  8
7_ALL_FEATURES
100
AcDbLine
 62
7
  6
CONTINUOUS
 10
236.762283552
 20
317.8502670882
 11
236.762283552
 21
318.7252670882
  0
LINE
  5
2EA
100
AcDbEntity
  8
7_ALL_FEATURES
100
AcDbLine
 62
7
  6
CONTINUOUS
 10
237.637283552
 20
317.8502670882
 11
237.637283552
 21
317.1002670882
  0
LINE
  5
2EB
100
AcDbEntity
  8
7_ALL_FEATURES
100
AcDbLine
 62
7
  6
CONTINUOUS
 10
239.287283552
 20
292.2252670882
 11
239.287283552
 21
320.6252670882
  0
LINE
  5
2EC
100
AcDbEntity
  8
6_ALL_SURFS
100
AcDbLine
 62
7
  6
CONTINUOUS
 10
179.437283552
 20
293.9752670882
 11
179.737283552
 21
294.1252670882
  0
LINE
  5
2ED
100
AcDbEntity
  8
6_ALL_SURFS
100
AcDbLine
 62
7
  6
CONTINUOUS
 10
182.437283552
 20
293.9752670882
 11
182.737283552
 21
294.1252670882
  0
LINE
  5
2EE
100
AcDbEntity
  8
6_ALL_SURFS
100
AcDbLine
 62
7
  6
CONTINUOUS
 10
185.437283552
 20
293.9752670882
 11
185.737283552
 21
294.1252670882
  0
LINE
  5
2EF
100
AcDbEntity
  8
6_ALL_SURFS
100
AcDbLine
 62
7
  6
CONTINUOUS
 10
207.1050535872
 20
363.1502670882
 11
207.8563561747
 21
363.1502670882
  0
LINE
  5
2F0
100
AcDbEntity
  8
6_ALL_SURFS
100
AcDbLine
 62
7
  6
CONTINUOUS
 10
228.3182109294
 20
363.1502670882
 11
229.0695135168
 21
363.1502670882
  0
LINE
  5
2F1
100
AcDbEntity
  8
6_ALL_SURFS
100
AcDbLine
 62
7
  6
CONTINUOUS
 10
229.0695135168
 20
364.4002670882
 11
228.3182109294
 21
364.4002670882
  0
LINE
  5
2F2
100
AcDbEntity
  8
6_ALL_SURFS
100
AcDbLine
 62
7
  6
CONTINUOUS
 10
207.8563561747
 20
364.4002670882
 11
207.1050535872
 21
364.4002670882
  0
LINE
  5
2F3
100
AcDbEntity
  8
6_ALL_SURFS
100
AcDbLine
 62
7
  6
CONTINUOUS
 10
234.087283552
 20
374.9897870832
 11
236.087283552
 21
365.9683700759
  0
LINE
  5
2F4
100
AcDbEntity
  8
6_ALL_SURFS
100
AcDbLine
 62
7
  6
CONTINUOUS
 10
188.437283552
 20
293.9752670882
 11
188.737283552
 21
294.1252670882
  0
LINE
  5
2F5
100
AcDbEntity
  8
6_ALL_SURFS
100
AcDbLine
 62
7
  6
CONTINUOUS
 10
191.437283552
 20
293.9752670882
 11
191.737283552
 21
294.1252670882
  0
LINE
  5
2F6
100
AcDbEntity
  8
6_ALL_SURFS
100
AcDbLine
 62
7
  6
CONTINUOUS
 10
194.437283552
 20
293.9752670882
 11
194.737283552
 21
294.1252670882
  0
LINE
  5
2F7
100
AcDbEntity
  8
7_ALL_FEATURES
100
AcDbLine
 62
7
  6
CONTINUOUS
 10
230.462283552
 20
381.8252670882
 11
229.712283552
 21
381.8252670882
  0
LINE
  5
2F8
100
AcDbEntity
  8
7_ALL_FEATURES
100
AcDbLine
 62
7
  6
CONTINUOUS
 10
206.462283552
 20
381.8252670882
 11
205.712283552
 21
381.8252670882
  0
LINE
  5
2F9
100
AcDbEntity
  8
7_ALL_FEATURES
100
AcDbLine
 62
7
  6
CONTINUOUS
 10
206.462283552
 20
382.7002670882
 11
207.337283552
 21
382.7002670882
  0
LINE
  5
2FA
100
AcDbEntity
  8
7_ALL_FEATURES
100
AcDbLine
 62
7
  6
CONTINUOUS
 10
204.837283552
 20
382.7002670882
 11
205.712283552
 21
382.7002670882
  0
LINE
  5
2FB
100
AcDbEntity
  8
7_ALL_FEATURES
100
AcDbLine
 62
7
  6
CONTINUOUS
 10
228.837283552
 20
382.7002670882
 11
229.712283552
 21
382.7002670882
  0
LINE
  5
2FC
100
AcDbEntity
  8
7_ALL_FEATURES
100
AcDbLine
 62
7
  6
CONTINUOUS
 10
230.462283552
 20
382.7002670882
 11
231.337283552
 21
382.7002670882
  0
LINE
  5
2FD
100
AcDbEntity
  8
7_ALL_FEATURES
100
AcDbLine
 62
7
  6
CONTINUOUS
 10
231.337283552
 20
383.4502670882
 11
230.462283552
 21
383.4502670882
  0
LINE
  5
2FE
100
AcDbEntity
  8
7_ALL_FEATURES
100
AcDbLine
 62
7
  6
CONTINUOUS
 10
229.712283552
 20
383.4502670882
 11
228.837283552
 21
383.4502670882
  0
LINE
  5
2FF
100
AcDbEntity
  8
7_ALL_FEATURES
100
AcDbLine
 62
7
  6
CONTINUOUS
 10
207.337283552
 20
383.4502670882
 11
206.462283552
 21
383.4502670882
  0
LINE
  5
300
100
AcDbEntity
  8
7_ALL_FEATURES
100
AcDbLine
 62
7
  6
CONTINUOUS
 10
205.712283552
 20
383.4502670882
 11
204.837283552
 21
383.4502670882
  0
LINE
  5
301
100
AcDbEntity
  8
7_ALL_FEATURES
100
AcDbLine
 62
7
  6
CONTINUOUS
 10
205.712283552
 20
384.3252670882
 11
206.462283552
 21
384.3252670882
  0
LINE
  5
302
100
AcDbEntity
  8
7_ALL_FEATURES
100
AcDbLine
 62
7
  6
CONTINUOUS
 10
229.712283552
 20
384.3252670882
 11
230.462283552
 21
384.3252670882
  0
LINE
  5
303
100
AcDbEntity
  8
7_ALL_FEATURES
100
AcDbLine
 62
7
  6
CONTINUOUS
 10
241.437283552
 20
294.1252670882
 11
241.137283552
 21
293.9752670882
  0
LINE
  5
304
100
AcDbEntity
  8
7_ALL_FEATURES
100
AcDbLine
 62
7
  6
CONTINUOUS
 10
233.787283552
 20
386.2752670882
 11
233.337283552
 21
386.2752670882
  0
LINE
  5
305
100
AcDbEntity
  8
6_ALL_SURFS
100
AcDbLine
 62
7
  6
CONTINUOUS
 10
233.337283552
 20
386.2752670882
 11
220.7330348631
 21
386.2752670882
  0
LINE
  5
306
100
AcDbEntity
  8
6_ALL_SURFS
100
AcDbLine
 62
7
  6
CONTINUOUS
 10
202.387283552
 20
386.2752670882
 11
215.441532241
 21
386.2752670882
  0
LINE
  5
307
100
AcDbEntity
  8
7_ALL_FEATURES
100
AcDbLine
 62
7
  6
CONTINUOUS
 10
216.287283552
 20
386.2752670882
 11
219.887283552
 21
386.2752670882
  0
LINE
  5
308
100
AcDbEntity
  8
7_ALL_FEATURES
100
AcDbLine
 62
7
  6
CONTINUOUS
 10
244.437283552
 20
294.1252670882
 11
244.137283552
 21
293.9752670882
  0
LINE
  5
309
100
AcDbEntity
  8
7_ALL_FEATURES
100
AcDbLine
 62
7
  6
CONTINUOUS
 10
247.437283552
 20
294.1252670882
 11
247.137283552
 21
293.9752670882
  0
LINE
  5
30A
100
AcDbEntity
  8
7_ALL_FEATURES
100
AcDbLine
 62
7
  6
CONTINUOUS
 10
250.437283552
 20
294.1252670882
 11
250.137283552
 21
293.9752670882
  0
LINE
  5
30B
100
AcDbEntity
  8
7_ALL_FEATURES
100
AcDbLine
 62
7
  6
CONTINUOUS
 10
253.437283552
 20
294.1252670882
 11
253.137283552
 21
293.9752670882
  0
LINE
  5
30C
100
AcDbEntity
  8
7_ALL_FEATURES
100
AcDbLine
 62
7
  6
CONTINUOUS
 10
256.437283552
 20
294.1252670882
 11
256.137283552
 21
293.9752670882
  0
LINE
  5
30D
100
AcDbEntity
  8
3_ALL_AXES
100
AcDbLine
 62
7
  6
CONTINUOUS
 10
462.9246614706
 20
314.7253151544
 11
462.9246614706
 21
320.225219022
  0
LINE
  5
30E
100
AcDbEntity
  8
3_ALL_AXES
100
AcDbLine
 62
7
  6
CONTINUOUS
 10
462.9246614706
 20
380.3253151544
 11
462.9246614706
 21
385.825219022
  0
LINE
  5
30F
100
AcDbEntity
  8
3_ALL_AXES
100
AcDbLine
 62
7
  6
CONTINUOUS
 10
463.0753818002
 20
314.7252670882
 11
463.0753818002
 21
320.2252670882
  0
LINE
  5
310
100
AcDbEntity
  8
3_ALL_AXES
100
AcDbLine
 62
7
  6
CONTINUOUS
 10
463.0753818002
 20
380.3252670882
 11
463.0753818002
 21
385.8252670882
  0
LINE
  5
311
100
AcDbEntity
  8
7_ALL_FEATURES
100
AcDbLine
 62
7
  6
CONTINUOUS
 10
463.9246614706
 20
291.4752670882
 11
463.9246614706
 21
320.6252670882
  0
LINE
  5
312
100
AcDbEntity
  8
6_ALL_SURFS
100
AcDbLine
 62
7
  6
CONTINUOUS
 10
463.9246614706
 20
320.6252670882
 11
463.9246614706
 21
386.2752670882
  0
LINE
  5
313
100
AcDbEntity
  8
6_ALL_SURFS
100
AcDbLine
 62
7
  6
CONTINUOUS
 10
465.4246614706
 20
291.4876530683
 11
465.4246614706
 21
291.4752670882
  0
LINE
  5
314
100
AcDbEntity
  8
7_ALL_FEATURES
100
AcDbLine
 62
7
  6
CONTINUOUS
 10
465.4246614706
 20
291.4876530683
 11
465.4246614706
 21
292.9752670882
  0
LINE
  5
315
100
AcDbEntity
  8
6_ALL_SURFS
100
AcDbLine
 62
7
  6
CONTINUOUS
 10
465.4246614706
 20
292.9752670882
 11
465.4246614706
 21
294.1252670882
  0
LINE
  5
316
100
AcDbEntity
  8
7_ALL_FEATURES
100
AcDbLine
 62
7
  6
CONTINUOUS
 10
465.4246614706
 20
294.1252670882
 11
465.4246614706
 21
304.1230484266
  0
LINE
  5
317
100
AcDbEntity
  8
6_ALL_SURFS
100
AcDbLine
 62
7
  6
CONTINUOUS
 10
465.4246614706
 20
304.1230484266
 11
465.4246614706
 21
306.8313376101
  0
LINE
  5
318
100
AcDbEntity
  8
6_ALL_SURFS
100
AcDbLine
 62
7
  6
CONTINUOUS
 10
465.4246614706
 20
316.5752670882
 11
465.4246614706
 21
318.3752670882
  0
LINE
  5
319
100
AcDbEntity
  8
7_ALL_FEATURES
100
AcDbLine
 62
7
  6
CONTINUOUS
 10
465.4246614706
 20
306.8313376101
 11
465.4246614706
 21
320.6252670882
  0
LINE
  5
31A
100
AcDbEntity
  8
6_ALL_SURFS
100
AcDbLine
 62
7
  6
CONTINUOUS
 10
465.4246614706
 20
320.6252670882
 11
465.4246614706
 21
386.2752670882
  0
LINE
  5
31B
100
AcDbEntity
  8
3_ALL_AXES
100
AcDbLine
 62
7
  6
CONTINUOUS
 10
463.9246614706
 20
381.0378973464
 11
463.0753818002
 21
380.3252670882
  0
LINE
  5
31C
100
AcDbEntity
  8
3_ALL_AXES
100
AcDbLine
 62
7
  6
CONTINUOUS
 10
463.9246614706
 20
319.51263683
 11
463.0753818002
 21
320.2252670882
  0
LINE
  5
31D
100
AcDbEntity
  8
3_ALL_AXES
100
AcDbLine
 62
7
  6
CONTINUOUS
 10
463.9246614706
 20
315.4378973464
 11
463.0753818002
 21
314.7252670882
  0
LINE
  5
31E
100
AcDbEntity
  8
3_ALL_AXES
100
AcDbLine
 62
7
  6
CONTINUOUS
 10
463.9246614706
 20
385.11263683
 11
463.0753818002
 21
385.8252670882
  0
LINE
  5
31F
100
AcDbEntity
  8
6_ALL_SURFS
100
AcDbLine
 62
7
  6
CONTINUOUS
 10
1589.4246614706
 20
291.4752670882
 11
465.4246614706
 21
291.4752670882
  0
LINE
  5
320
100
AcDbEntity
  8
7_ALL_FEATURES
100
AcDbLine
 62
7
  6
CONTINUOUS
 10
465.4246614706
 20
291.4752670882
 11
463.9246614706
 21
291.4752670882
  0
LINE
  5
321
100
AcDbEntity
  8
7_ALL_FEATURES
100
AcDbLine
 62
7
  6
CONTINUOUS
 10
1589.4246614706
 20
291.4752670882
 11
1590.9246614706
 21
291.4752670882
  0
LINE
  5
322
100
AcDbEntity
  8
6_ALL_SURFS
100
AcDbLine
 62
9
  6
CONTINUOUS
 10
1589.4246614706
 20
291.7752670882
 11
465.4246614706
 21
291.7752670882
  0
LINE
  5
323
100
AcDbEntity
  8
7_ALL_FEATURES
100
AcDbLine
 62
9
  6
CONTINUOUS
 10
465.4246614706
 20
292.2252670882
 11
463.9246614706
 21
292.2252670882
  0
LINE
  5
324
100
AcDbEntity
  8
7_ALL_FEATURES
100
AcDbLine
 62
9
  6
CONTINUOUS
 10
1589.4246614706
 20
292.2252670882
 11
1590.9246614706
 21
292.2252670882
  0
LINE
  5
325
100
AcDbEntity
  8
6_ALL_SURFS
100
AcDbLine
 62
9
  6
CONTINUOUS
 10
465.4246614706
 20
292.6752670882
 11
1589.4246614706
 21
292.6752670882
  0
LINE
  5
326
100
AcDbEntity
  8
6_ALL_SURFS
100
AcDbLine
 62
7
  6
CONTINUOUS
 10
465.4246614706
 20
292.9752670882
 11
1589.4246614706
 21
292.9752670882
  0
LINE
  5
327
100
AcDbEntity
  8
6_ALL_SURFS
100
AcDbLine
 62
9
  6
CONTINUOUS
 10
1589.4246614706
 20
293.1898142472
 11
465.4246614706
 21
293.1898142472
  0
LINE
  5
328
100
AcDbEntity
  8
6_ALL_SURFS
100
AcDbLine
 62
7
  6
CONTINUOUS
 10
1589.4246614706
 20
293.9752670882
 11
465.4246614706
 21
293.9752670882
  0
LINE
  5
329
100
AcDbEntity
  8
6_ALL_SURFS
100
AcDbLine
 62
7
  6
CONTINUOUS
 10
465.4246614706
 20
294.1252670882
 11
1589.4246614706
 21
294.1252670882
  0
LINE
  5
32A
100
AcDbEntity
  8
6_ALL_SURFS
100
AcDbLine
 62
9
  6
CONTINUOUS
 10
465.4246614706
 20
294.2752670882
 11
1589.4246614706
 21
294.2752670882
  0
LINE
  5
32B
100
AcDbEntity
  8
6_ALL_SURFS
100
AcDbLine
 62
9
  6
CONTINUOUS
 10
465.4246614706
 20
303.4721992528
 11
1589.4246614706
 21
303.4721992528
  0
LINE
  5
32C
100
AcDbEntity
  8
6_ALL_SURFS
100
AcDbLine
 62
9
  6
CONTINUOUS
 10
465.4246614706
 20
304.2961692934
 11
1589.4246614706
 21
304.2961692934
  0
LINE
  5
32D
100
AcDbEntity
  8
6_ALL_SURFS
100
AcDbLine
 62
9
  6
CONTINUOUS
 10
465.4246614706
 20
306.6582167433
 11
1589.4246614706
 21
306.6582167433
  0
LINE
  5
32E
100
AcDbEntity
  8
6_ALL_SURFS
100
AcDbLine
 62
9
  6
CONTINUOUS
 10
465.4246614706
 20
307.4821867839
 11
1589.4246614706
 21
307.4821867839
  0
LINE
  5
32F
100
AcDbEntity
  8
6_ALL_SURFS
100
AcDbLine
 62
9
  6
CONTINUOUS
 10
1589.4246614706
 20
310.1877665391
 11
465.4246614706
 21
310.1877665391
  0
LINE
  5
330
100
AcDbEntity
  8
6_ALL_SURFS
100
AcDbLine
 62
9
  6
CONTINUOUS
 10
1589.4246614706
 20
311.2107640792
 11
465.4246614706
 21
311.2107640792
  0
LINE
  5
331
100
AcDbEntity
  8
6_ALL_SURFS
100
AcDbLine
 62
9
  6
CONTINUOUS
 10
465.4246614706
 20
313.8020751463
 11
1589.4246614706
 21
313.8020751463
  0
LINE
  5
332
100
AcDbEntity
  8
6_ALL_SURFS
100
AcDbLine
 62
9
  6
CONTINUOUS
 10
465.4246614706
 20
314.0066746543
 11
1589.4246614706
 21
314.0066746543
  0
LINE
  5
333
100
AcDbEntity
  8
6_ALL_SURFS
100
AcDbLine
 62
9
  6
CONTINUOUS
 10
465.4246614706
 20
314.2752670882
 11
1589.4246614706
 21
314.2752670882
  0
LINE
  5
334
100
AcDbEntity
  8
6_ALL_SURFS
100
AcDbLine
 62
7
  6
CONTINUOUS
 10
1589.4246614706
 20
314.5752670882
 11
465.4246614706
 21
314.5752670882
  0
LINE
  5
335
100
AcDbEntity
  8
3_ALL_AXES
100
AcDbLine
 62
7
  6
CONTINUOUS
 10
463.0753818002
 20
314.7252670882
 11
462.9246614706
 21
314.7252670882
  0
LINE
  5
336
100
AcDbEntity
  8
3_ALL_AXES
100
AcDbLine
 62
7
  6
CONTINUOUS
 10
1591.773941141
 20
314.7252670882
 11
1591.9246614706
 21
314.7252670882
  0
LINE
  5
337
100
AcDbEntity
  8
6_ALL_SURFS
100
AcDbLine
 62
9
  6
CONTINUOUS
 10
1589.4246614706
 20
316.5752670882
 11
465.4246614706
 21
316.5752670882
  0
LINE
  5
338
100
AcDbEntity
  8
6_ALL_SURFS
100
AcDbLine
 62
9
  6
CONTINUOUS
 10
1589.4246614706
 20
318.3752670882
 11
465.4246614706
 21
318.3752670882
  0
LINE
  5
339
100
AcDbEntity
  8
3_ALL_AXES
100
AcDbLine
 62
7
  6
CONTINUOUS
 10
463.0753818002
 20
320.2252670882
 11
462.9246614706
 21
320.2252670882
  0
LINE
  5
33A
100
AcDbEntity
  8
3_ALL_AXES
100
AcDbLine
 62
7
  6
CONTINUOUS
 10
1591.773941141
 20
320.2252670882
 11
1591.9246614706
 21
320.2252670882
  0
LINE
  5
33B
100
AcDbEntity
  8
6_ALL_SURFS
100
AcDbLine
 62
7
  6
CONTINUOUS
 10
1589.4246614706
 20
320.3752670882
 11
465.4246614706
 21
320.3752670882
  0
LINE
  5
33C
100
AcDbEntity
  8
6_ALL_SURFS
100
AcDbLine
 62
9
  6
CONTINUOUS
 10
1590.9246614706
 20
320.6252670882
 11
1589.4246614706
 21
320.6252670882
  0
LINE
  5
33D
100
AcDbEntity
  8
6_ALL_SURFS
100
AcDbLine
 62
9
  6
CONTINUOUS
 10
465.4246614706
 20
320.6252670882
 11
463.9246614706
 21
320.6252670882
  0
LINE
  5
33E
100
AcDbEntity
  8
6_ALL_SURFS
100
AcDbLine
 62
9
  6
CONTINUOUS
 10
465.4246614706
 20
320.6752670882
 11
1589.4246614706
 21
320.6752670882
  0
LINE
  5
33F
100
AcDbEntity
  8
6_ALL_SURFS
100
AcDbLine
 62
7
  6
CONTINUOUS
 10
1590.9246614706
 20
321.3752670882
 11
1589.4246614706
 21
321.3752670882
  0
LINE
  5
340
100
AcDbEntity
  8
6_ALL_SURFS
100
AcDbLine
 62
7
  6
CONTINUOUS
 10
465.4246614706
 20
321.3752670882
 11
463.9246614706
 21
321.3752670882
  0
LINE
  5
341
100
AcDbEntity
  8
6_ALL_SURFS
100
AcDbLine
 62
9
  6
CONTINUOUS
 10
1590.9246614706
 20
322.8752670882
 11
1589.4246614706
 21
322.8752670882
  0
LINE
  5
342
100
AcDbEntity
  8
6_ALL_SURFS
100
AcDbLine
 62
9
  6
CONTINUOUS
 10
463.9246614706
 20
322.8752670882
 11
465.4246614706
 21
322.8752670882
  0
LINE
  5
343
100
AcDbEntity
  8
6_ALL_SURFS
100
AcDbLine
 62
9
  6
CONTINUOUS
 10
1589.4246614706
 20
365.4207810175
 11
465.4246614706
 21
365.4207810175
  0
LINE
  5
344
100
AcDbEntity
  8
6_ALL_SURFS
100
AcDbLine
 62
7
  6
CONTINUOUS
 10
465.4246614706
 20
365.9683700759
 11
463.9246614706
 21
365.9683700759
  0
LINE
  5
345
100
AcDbEntity
  8
6_ALL_SURFS
100
AcDbLine
 62
7
  6
CONTINUOUS
 10
1589.4246614706
 20
365.9683700759
 11
1590.9246614706
 21
365.9683700759
  0
LINE
  5
346
100
AcDbEntity
  8
6_ALL_SURFS
100
AcDbLine
 62
9
  6
CONTINUOUS
 10
1589.4246614706
 20
366.5029790872
 11
465.4246614706
 21
366.5029790872
  0
LINE
  5
347
100
AcDbEntity
  8
6_ALL_SURFS
100
AcDbLine
 62
7
  6
CONTINUOUS
 10
465.4246614706
 20
374.9897870832
 11
463.9246614706
 21
374.9897870832
  0
LINE
  5
348
100
AcDbEntity
  8
6_ALL_SURFS
100
AcDbLine
 62
7
  6
CONTINUOUS
 10
1589.4246614706
 20
374.9897870832
 11
1590.9246614706
 21
374.9897870832
  0
LINE
  5
349
100
AcDbEntity
  8
3_ALL_AXES
100
AcDbLine
 62
7
  6
CONTINUOUS
 10
463.0753818002
 20
380.3252670882
 11
462.9246614706
 21
380.3252670882
  0
LINE
  5
34A
100
AcDbEntity
  8
3_ALL_AXES
100
AcDbLine
 62
7
  6
CONTINUOUS
 10
1591.773941141
 20
380.3252670882
 11
1591.9246614706
 21
380.3252670882
  0
LINE
  5
34B
100
AcDbEntity
  8
6_ALL_SURFS
100
AcDbLine
 62
9
  6
CONTINUOUS
 10
465.4246614706
 20
380.509926211
 11
1589.4246614706
 21
380.509926211
  0
LINE
  5
34C
100
AcDbEntity
  8
6_ALL_SURFS
100
AcDbLine
 62
9
  6
CONTINUOUS
 10
465.4246614706
 20
382.5428568496
 11
1589.4246614706
 21
382.5428568496
  0
LINE
  5
34D
100
AcDbEntity
  8
6_ALL_SURFS
100
AcDbLine
 62
9
  6
CONTINUOUS
 10
465.4246614706
 20
384.3397832172
 11
1589.4246614706
 21
384.3397832172
  0
LINE
  5
34E
100
AcDbEntity
  8
6_ALL_SURFS
100
AcDbLine
 62
7
  6
CONTINUOUS
 10
1589.4246614706
 20
384.7752670882
 11
465.4246614706
 21
384.7752670882
  0
LINE
  5
34F
100
AcDbEntity
  8
6_ALL_SURFS
100
AcDbLine
 62
9
  6
CONTINUOUS
 10
1589.4246614706
 20
385.2752670882
 11
465.4246614706
 21
385.2752670882
  0
LINE
  5
350
100
AcDbEntity
  8
6_ALL_SURFS
100
AcDbLine
 62
9
  6
CONTINUOUS
 10
463.9246614706
 20
385.5252670882
 11
465.4246614706
 21
385.5252670882
  0
LINE
  5
351
100
AcDbEntity
  8
6_ALL_SURFS
100
AcDbLine
 62
9
  6
CONTINUOUS
 10
1589.4246614706
 20
385.5252670882
 11
1590.9246614706
 21
385.5252670882
  0
LINE
  5
352
100
AcDbEntity
  8
3_ALL_AXES
100
AcDbLine
 62
7
  6
CONTINUOUS
 10
463.0753818002
 20
385.8252670882
 11
462.9246614706
 21
385.8252670882
  0
LINE
  5
353
100
AcDbEntity
  8
3_ALL_AXES
100
AcDbLine
 62
7
  6
CONTINUOUS
 10
1591.773941141
 20
385.8252670882
 11
1591.9246614706
 21
385.8252670882
  0
LINE
  5
354
100
AcDbEntity
  8
6_ALL_SURFS
100
AcDbLine
 62
9
  6
CONTINUOUS
 10
1589.4246614706
 20
385.9752670882
 11
465.4246614706
 21
385.9752670882
  0
LINE
  5
355
100
AcDbEntity
  8
6_ALL_SURFS
100
AcDbLine
 62
7
  6
CONTINUOUS
 10
463.9246614706
 20
386.2752670882
 11
1590.9246614706
 21
386.2752670882
  0
LINE
  5
356
100
AcDbEntity
  8
3_ALL_AXES
100
AcDbLine
 62
7
  6
CONTINUOUS
 10
1590.9246614706
 20
385.11263683
 11
1591.773941141
 21
385.8252670882
  0
LINE
  5
357
100
AcDbEntity
  8
3_ALL_AXES
100
AcDbLine
 62
7
  6
CONTINUOUS
 10
1590.9246614706
 20
315.4378973464
 11
1591.773941141
 21
314.7252670882
  0
LINE
  5
358
100
AcDbEntity
  8
3_ALL_AXES
100
AcDbLine
 62
7
  6
CONTINUOUS
 10
1590.9246614706
 20
319.51263683
 11
1591.773941141
 21
320.2252670882
  0
LINE
  5
359
100
AcDbEntity
  8
3_ALL_AXES
100
AcDbLine
 62
7
  6
CONTINUOUS
 10
1590.9246614706
 20
381.0378973464
 11
1591.773941141
 21
380.3252670882
  0
LINE
  5
35A
100
AcDbEntity
  8
7_ALL_FEATURES
100
AcDbLine
 62
7
  6
CONTINUOUS
 10
1589.4246614706
 20
320.6252670882
 11
1589.4246614706
 21
306.8313376101
  0
LINE
  5
35B
100
AcDbEntity
  8
7_ALL_FEATURES
100
AcDbLine
 62
7
  6
CONTINUOUS
 10
1589.4246614706
 20
304.1230484266
 11
1589.4246614706
 21
294.1252670882
  0
LINE
  5
35C
100
AcDbEntity
  8
7_ALL_FEATURES
100
AcDbLine
 62
7
  6
CONTINUOUS
 10
1589.4246614706
 20
291.4876530683
 11
1589.4246614706
 21
292.9752670882
  0
LINE
  5
35D
100
AcDbEntity
  8
6_ALL_SURFS
100
AcDbLine
 62
7
  6
CONTINUOUS
 10
1589.4246614706
 20
291.4752670882
 11
1589.4246614706
 21
291.4876530683
  0
LINE
  5
35E
100
AcDbEntity
  8
6_ALL_SURFS
100
AcDbLine
 62
7
  6
CONTINUOUS
 10
1589.4246614706
 20
292.9752670882
 11
1589.4246614706
 21
294.1252670882
  0
LINE
  5
35F
100
AcDbEntity
  8
6_ALL_SURFS
100
AcDbLine
 62
7
  6
CONTINUOUS
 10
1589.4246614706
 20
304.1230484266
 11
1589.4246614706
 21
306.8313376101
  0
LINE
  5
360
100
AcDbEntity
  8
6_ALL_SURFS
100
AcDbLine
 62
7
  6
CONTINUOUS
 10
1589.4246614706
 20
316.5752670882
 11
1589.4246614706
 21
318.3752670882
  0
LINE
  5
361
100
AcDbEntity
  8
6_ALL_SURFS
100
AcDbLine
 62
7
  6
CONTINUOUS
 10
1589.4246614706
 20
320.6252670882
 11
1589.4246614706
 21
386.2752670882
  0
LINE
  5
362
100
AcDbEntity
  8
7_ALL_FEATURES
100
AcDbLine
 62
7
  6
CONTINUOUS
 10
1590.9246614706
 20
320.6252670882
 11
1590.9246614706
 21
291.4752670882
  0
LINE
  5
363
100
AcDbEntity
  8
6_ALL_SURFS
100
AcDbLine
 62
7
  6
CONTINUOUS
 10
1590.9246614706
 20
320.6252670882
 11
1590.9246614706
 21
386.2752670882
  0
LINE
  5
364
100
AcDbEntity
  8
3_ALL_AXES
100
AcDbLine
 62
7
  6
CONTINUOUS
 10
1591.773941141
 20
314.7252670882
 11
1591.773941141
 21
320.2252670882
  0
LINE
  5
365
100
AcDbEntity
  8
3_ALL_AXES
100
AcDbLine
 62
7
  6
CONTINUOUS
 10
1591.773941141
 20
380.3252670882
 11
1591.773941141
 21
385.8252670882
  0
LINE
  5
366
100
AcDbEntity
  8
3_ALL_AXES
100
AcDbLine
 62
7
  6
CONTINUOUS
 10
1591.9246614706
 20
314.7253151544
 11
1591.9246614706
 21
320.225219022
  0
LINE
  5
367
100
AcDbEntity
  8
3_ALL_AXES
100
AcDbLine
 62
7
  6
CONTINUOUS
 10
1591.9246614706
 20
380.3253151544
 11
1591.9246614706
 21
385.825219022
  0
LINE
  5
368
100
AcDbEntity
  8
3_ALL_AXES
100
AcDbLine
 62
7
  6
CONTINUOUS
 10
462.9246614706
 20
582.7148185484
 11
462.9246614706
 21
577.2148185484
  0
LINE
  5
369
100
AcDbEntity
  8
3_ALL_AXES
100
AcDbLine
 62
7
  6
CONTINUOUS
 10
462.9246614706
 20
576.4148185484
 11
462.9246614706
 21
570.9148185484
  0
LINE
  5
36A
100
AcDbEntity
  8
3_ALL_AXES
100
AcDbLine
 62
7
  6
CONTINUOUS
 10
462.9246614706
 20
552.4148185484
 11
462.9246614706
 21
546.9148185484
  0
LINE
  5
36B
100
AcDbEntity
  8
3_ALL_AXES
100
AcDbLine
 62
7
  6
CONTINUOUS
 10
462.9246614706
 20
546.1148185484
 11
462.9246614706
 21
540.6148185484
  0
LINE
  5
36C
100
AcDbEntity
  8
3_ALL_AXES
100
AcDbLine
 62
7
  6
CONTINUOUS
 10
463.0753818002
 20
582.7148185484
 11
463.0753818002
 21
577.2148185484
  0
LINE
  5
36D
100
AcDbEntity
  8
3_ALL_AXES
100
AcDbLine
 62
7
  6
CONTINUOUS
 10
463.0753818002
 20
576.4148185484
 11
463.0753818002
 21
570.9148185484
  0
LINE
  5
36E
100
AcDbEntity
  8
3_ALL_AXES
100
AcDbLine
 62
7
  6
CONTINUOUS
 10
463.0753818002
 20
552.4148185484
 11
463.0753818002
 21
546.9148185484
  0
LINE
  5
36F
100
AcDbEntity
  8
3_ALL_AXES
100
AcDbLine
 62
7
  6
CONTINUOUS
 10
463.0753818002
 20
546.1148185484
 11
463.0753818002
 21
540.6148185484
  0
LINE
  5
370
100
AcDbEntity
  8
7_ALL_FEATURES
100
AcDbLine
 62
7
  6
CONTINUOUS
 10
463.9246614706
 20
540.4648185484
 11
463.9246614706
 21
582.8648185484
  0
LINE
  5
371
100
AcDbEntity
  8
7_ALL_FEATURES
100
AcDbLine
 62
7
  6
CONTINUOUS
 10
465.4246614706
 20
582.8648185484
 11
465.4246614706
 21
582.2454763529
  0
LINE
  5
372
100
AcDbEntity
  8
7_ALL_FEATURES
100
AcDbLine
 62
7
  6
CONTINUOUS
 10
465.4246614706
 20
520.6148288238
 11
465.4246614706
 21
582.1648185484
  0
LINE
  5
373
100
AcDbEntity
  8
6_ALL_SURFS
100
AcDbLine
 62
7
  6
CONTINUOUS
 10
465.4246614706
 20
581.5148185484
 11
465.4246614706
 21
582.2454763529
  0
LINE
  5
374
100
AcDbEntity
  8
6_ALL_SURFS
100
AcDbLine
 62
7
  6
CONTINUOUS
 10
465.4246614706
 20
582.8648185484
 11
465.4246614706
 21
602.714808273
  0
LINE
  5
375
100
AcDbEntity
  8
7_ALL_FEATURES
100
AcDbLine
 62
7
  6
CONTINUOUS
 10
466.1746614706
 20
581.0148185484
 11
466.1746614706
 21
542.3148185484
  0
LINE
  5
376
100
AcDbEntity
  8
3_ALL_AXES
100
AcDbLine
 62
7
  6
CONTINUOUS
 10
463.0753818002
 20
577.2148185484
 11
463.9246614706
 21
577.9274488066
  0
LINE
  5
377
100
AcDbEntity
  8
3_ALL_AXES
100
AcDbLine
 62
7
  6
CONTINUOUS
 10
463.0753818002
 20
546.1148185484
 11
463.9246614706
 21
545.4021882902
  0
LINE
  5
378
100
AcDbEntity
  8
3_ALL_AXES
100
AcDbLine
 62
7
  6
CONTINUOUS
 10
463.0753818002
 20
570.9148185484
 11
463.9246614706
 21
571.6274488066
  0
LINE
  5
379
100
AcDbEntity
  8
3_ALL_AXES
100
AcDbLine
 62
7
  6
CONTINUOUS
 10
463.0753818002
 20
546.9148185484
 11
463.9246614706
 21
547.6274488066
  0
LINE
  5
37A
100
AcDbEntity
  8
3_ALL_AXES
100
AcDbLine
 62
7
  6
CONTINUOUS
 10
463.0753818002
 20
540.6148185484
 11
463.9246614706
 21
541.3274488066
  0
LINE
  5
37B
100
AcDbEntity
  8
3_ALL_AXES
100
AcDbLine
 62
7
  6
CONTINUOUS
 10
463.0753818002
 20
552.4148185484
 11
463.9246614706
 21
551.7021882902
  0
LINE
  5
37C
100
AcDbEntity
  8
3_ALL_AXES
100
AcDbLine
 62
7
  6
CONTINUOUS
 10
463.0753818002
 20
576.4148185484
 11
463.9246614706
 21
575.7021882902
  0
LINE
  5
37D
100
AcDbEntity
  8
3_ALL_AXES
100
AcDbLine
 62
7
  6
CONTINUOUS
 10
463.0753818002
 20
582.7148185484
 11
463.9246614706
 21
582.0021882902
  0
LINE
  5
37E
100
AcDbEntity
  8
7_ALL_FEATURES
100
AcDbLine
 62
7
  6
CONTINUOUS
 10
1589.4246614706
 20
520.6148185484
 11
465.4246614706
 21
520.6148185484
  0
LINE
  5
37F
100
AcDbEntity
  8
7_ALL_FEATURES
100
AcDbLine
 62
9
  6
CONTINUOUS
 10
1589.4246614706
 20
520.969346958
 11
465.4246614706
 21
520.969346958
  0
LINE
  5
380
100
AcDbEntity
  8
7_ALL_FEATURES
100
AcDbLine
 62
7
  6
CONTINUOUS
 10
465.4246614706
 20
523.1148185484
 11
524.1412536769
 21
523.1148185484
  0
LINE
  5
381
100
AcDbEntity
  8
7_ALL_FEATURES
100
AcDbLine
 62
7
  6
CONTINUOUS
 10
530.7080692643
 20
523.1148185484
 11
774.1412536769
 21
523.1148185484
  0
LINE
  5
382
100
AcDbEntity
  8
7_ALL_FEATURES
100
AcDbLine
 62
7
  6
CONTINUOUS
 10
780.7080692643
 20
523.1148185484
 11
1024.1412536769
 21
523.1148185484
  0
LINE
  5
383
100
AcDbEntity
  8
7_ALL_FEATURES
100
AcDbLine
 62
7
  6
CONTINUOUS
 10
1030.7080692643
 20
523.1148185484
 11
1274.1412536769
 21
523.1148185484
  0
LINE
  5
384
100
AcDbEntity
  8
7_ALL_FEATURES
100
AcDbLine
 62
7
  6
CONTINUOUS
 10
1280.7080692643
 20
523.1148185484
 11
1524.1412536769
 21
523.1148185484
  0
LINE
  5
385
100
AcDbEntity
  8
7_ALL_FEATURES
100
AcDbLine
 62
7
  6
CONTINUOUS
 10
1530.7080692643
 20
523.1148185484
 11
1589.4246614706
 21
523.1148185484
  0
LINE
  5
386
100
AcDbEntity
  8
7_ALL_FEATURES
100
AcDbLine
 62
7
  6
CONTINUOUS
 10
465.4246614706
 20
526.0148185484
 11
522.6632786106
 21
526.0148185484
  0
LINE
  5
387
100
AcDbEntity
  8
7_ALL_FEATURES
100
AcDbLine
 62
7
  6
CONTINUOUS
 10
532.1860443306
 20
526.0148185484
 11
772.6632786106
 21
526.0148185484
  0
LINE
  5
388
100
AcDbEntity
  8
7_ALL_FEATURES
100
AcDbLine
 62
7
  6
CONTINUOUS
 10
782.1860443306
 20
526.0148185484
 11
1022.6632786106
 21
526.0148185484
  0
LINE
  5
389
100
AcDbEntity
  8
7_ALL_FEATURES
100
AcDbLine
 62
7
  6
CONTINUOUS
 10
1032.1860443306
 20
526.0148185484
 11
1272.6632786106
 21
526.0148185484
  0
LINE
  5
38A
100
AcDbEntity
  8
7_ALL_FEATURES
100
AcDbLine
 62
7
  6
CONTINUOUS
 10
1282.1860443306
 20
526.0148185484
 11
1522.6632786106
 21
526.0148185484
  0
LINE
  5
38B
100
AcDbEntity
  8
7_ALL_FEATURES
100
AcDbLine
 62
7
  6
CONTINUOUS
 10
1532.1860443306
 20
526.0148185484
 11
1589.4246614706
 21
526.0148185484
  0
LINE
  5
38C
100
AcDbEntity
  8
7_ALL_FEATURES
100
AcDbLine
 62
7
  6
CONTINUOUS
 10
465.4246614706
 20
526.6148185484
 11
522.6256233649
 21
526.6148185484
  0
LINE
  5
38D
100
AcDbEntity
  8
7_ALL_FEATURES
100
AcDbLine
 62
7
  6
CONTINUOUS
 10
532.2236995763
 20
526.6148185484
 11
772.6256233649
 21
526.6148185484
  0
LINE
  5
38E
100
AcDbEntity
  8
7_ALL_FEATURES
100
AcDbLine
 62
7
  6
CONTINUOUS
 10
782.2236995763
 20
526.6148185484
 11
1022.6256233649
 21
526.6148185484
  0
LINE
  5
38F
100
AcDbEntity
  8
7_ALL_FEATURES
100
AcDbLine
 62
7
  6
CONTINUOUS
 10
1032.2236995763
 20
526.6148185484
 11
1272.6256233649
 21
526.6148185484
  0
LINE
  5
390
100
AcDbEntity
  8
7_ALL_FEATURES
100
AcDbLine
 62
7
  6
CONTINUOUS
 10
1282.2236995763
 20
526.6148185484
 11
1522.6256233649
 21
526.6148185484
  0
LINE
  5
391
100
AcDbEntity
  8
7_ALL_FEATURES
100
AcDbLine
 62
7
  6
CONTINUOUS
 10
1532.2236995763
 20
526.6148185484
 11
1589.4246614706
 21
526.6148185484
  0
LINE
  5
392
100
AcDbEntity
  8
7_ALL_FEATURES
100
AcDbLine
 62
7
  6
CONTINUOUS
 10
465.4246614706
 20
529.0148185484
 11
523.2688502694
 21
529.0148185484
  0
LINE
  5
393
100
AcDbEntity
  8
7_ALL_FEATURES
100
AcDbLine
 62
7
  6
CONTINUOUS
 10
531.5804726717
 20
529.0148185484
 11
773.2688502694
 21
529.0148185484
  0
LINE
  5
394
100
AcDbEntity
  8
7_ALL_FEATURES
100
AcDbLine
 62
7
  6
CONTINUOUS
 10
781.5804726717
 20
529.0148185484
 11
1023.2688502694
 21
529.0148185484
  0
LINE
  5
395
100
AcDbEntity
  8
7_ALL_FEATURES
100
AcDbLine
 62
7
  6
CONTINUOUS
 10
1031.5804726717
 20
529.0148185484
 11
1273.2688502694
 21
529.0148185484
  0
LINE
  5
396
100
AcDbEntity
  8
7_ALL_FEATURES
100
AcDbLine
 62
7
  6
CONTINUOUS
 10
1281.5804726717
 20
529.0148185484
 11
1523.2688502694
 21
529.0148185484
  0
LINE
  5
397
100
AcDbEntity
  8
7_ALL_FEATURES
100
AcDbLine
 62
7
  6
CONTINUOUS
 10
1531.5804726717
 20
529.0148185484
 11
1589.4246614706
 21
529.0148185484
  0
LINE
  5
398
100
AcDbEntity
  8
7_ALL_FEATURES
100
AcDbLine
 62
7
  6
CONTINUOUS
 10
465.4246614706
 20
529.6148185484
 11
523.6788949616
 21
529.6148185484
  0
LINE
  5
399
100
AcDbEntity
  8
7_ALL_FEATURES
100
AcDbLine
 62
7
  6
CONTINUOUS
 10
531.1704279796
 20
529.6148185484
 11
773.6788949616
 21
529.6148185484
  0
LINE
  5
39A
100
AcDbEntity
  8
7_ALL_FEATURES
100
AcDbLine
 62
7
  6
CONTINUOUS
 10
781.1704279796
 20
529.6148185484
 11
1023.6788949616
 21
529.6148185484
  0
LINE
  5
39B
100
AcDbEntity
  8
7_ALL_FEATURES
100
AcDbLine
 62
7
  6
CONTINUOUS
 10
1031.1704279796
 20
529.6148185484
 11
1273.6788949616
 21
529.6148185484
  0
LINE
  5
39C
100
AcDbEntity
  8
7_ALL_FEATURES
100
AcDbLine
 62
7
  6
CONTINUOUS
 10
1281.1704279796
 20
529.6148185484
 11
1523.6788949616
 21
529.6148185484
  0
LINE
  5
39D
100
AcDbEntity
  8
7_ALL_FEATURES
100
AcDbLine
 62
7
  6
CONTINUOUS
 10
1531.1704279796
 20
529.6148185484
 11
1589.4246614706
 21
529.6148185484
  0
LINE
  5
39E
100
AcDbEntity
  8
7_ALL_FEATURES
100
AcDbLine
 62
7
  6
CONTINUOUS
 10
465.4246614706
 20
532.0148185484
 11
1589.4246614706
 21
532.0148185484
  0
LINE
  5
39F
100
AcDbEntity
  8
7_ALL_FEATURES
100
AcDbLine
 62
7
  6
CONTINUOUS
 10
465.4246614706
 20
532.6148185484
 11
1589.4246614706
 21
532.6148185484
  0
LINE
  5
3A0
100
AcDbEntity
  8
7_ALL_FEATURES
100
AcDbLine
 62
7
  6
CONTINUOUS
 10
465.4246614706
 20
535.0148185484
 11
1589.4246614706
 21
535.0148185484
  0
LINE
  5
3A1
100
AcDbEntity
  8
7_ALL_FEATURES
100
AcDbLine
 62
7
  6
CONTINUOUS
 10
465.4246614706
 20
535.6148185484
 11
1589.4246614706
 21
535.6148185484
  0
LINE
  5
3A2
100
AcDbEntity
  8
7_ALL_FEATURES
100
AcDbLine
 62
7
  6
CONTINUOUS
 10
465.4246614706
 20
538.0148185484
 11
1589.4246614706
 21
538.0148185484
  0
LINE
  5
3A3
100
AcDbEntity
  8
7_ALL_FEATURES
100
AcDbLine
 62
7
  6
CONTINUOUS
 10
465.4246614706
 20
538.6148185484
 11
1589.4246614706
 21
538.6148185484
  0
LINE
  5
3A4
100
AcDbEntity
  8
7_ALL_FEATURES
100
AcDbLine
 62
7
  6
CONTINUOUS
 10
465.4246614706
 20
540.4648185484
 11
463.9246614706
 21
540.4648185484
  0
LINE
  5
3A5
100
AcDbEntity
  8
7_ALL_FEATURES
100
AcDbLine
 62
7
  6
CONTINUOUS
 10
1589.4246614706
 20
540.4648185484
 11
1590.9246614706
 21
540.4648185484
  0
LINE
  5
3A6
100
AcDbEntity
  8
7_ALL_FEATURES
100
AcDbLine
 62
9
  6
CONTINUOUS
 10
465.4246614706
 20
540.5648185484
 11
1589.4246614706
 21
540.5648185484
  0
LINE
  5
3A7
100
AcDbEntity
  8
3_ALL_AXES
100
AcDbLine
 62
7
  6
CONTINUOUS
 10
1591.9246614706
 20
540.6148185484
 11
1591.773941141
 21
540.6148185484
  0
LINE
  5
3A8
100
AcDbEntity
  8
3_ALL_AXES
100
AcDbLine
 62
7
  6
CONTINUOUS
 10
462.9246614706
 20
540.6148185484
 11
463.0753818002
 21
540.6148185484
  0
LINE
  5
3A9
100
AcDbEntity
  8
7_ALL_FEATURES
100
AcDbLine
 62
7
  6
CONTINUOUS
 10
1589.4246614706
 20
540.8648185484
 11
465.4246614706
 21
540.8648185484
  0
LINE
  5
3AA
100
AcDbEntity
  8
7_ALL_FEATURES
100
AcDbLine
 62
9
  6
CONTINUOUS
 10
1589.4246614706
 20
541.1648185484
 11
465.4246614706
 21
541.1648185484
  0
LINE
  5
3AB
100
AcDbEntity
  8
7_ALL_FEATURES
100
AcDbLine
 62
9
  6
CONTINUOUS
 10
465.4246614706
 20
541.2148185484
 11
463.9246614706
 21
541.2148185484
  0
LINE
  5
3AC
100
AcDbEntity
  8
7_ALL_FEATURES
100
AcDbLine
 62
9
  6
CONTINUOUS
 10
1589.4246614706
 20
541.2148185484
 11
1590.9246614706
 21
541.2148185484
  0
LINE
  5
3AD
100
AcDbEntity
  8
7_ALL_FEATURES
100
AcDbLine
 62
9
  6
CONTINUOUS
 10
1589.4246614706
 20
541.8148185484
 11
465.4246614706
 21
541.8148185484
  0
LINE
  5
3AE
100
AcDbEntity
  8
7_ALL_FEATURES
100
AcDbLine
 62
7
  6
CONTINUOUS
 10
1589.4246614706
 20
542.1148185484
 11
465.4246614706
 21
542.1148185484
  0
LINE
  5
3AF
100
AcDbEntity
  8
7_ALL_FEATURES
100
AcDbLine
 62
9
  6
CONTINUOUS
 10
465.4246614706
 20
542.1768125463
 11
1589.4246614706
 21
542.1768125463
  0
LINE
  5
3B0
100
AcDbEntity
  8
7_ALL_FEATURES
100
AcDbLine
 62
7
  6
CONTINUOUS
 10
466.1746614706
 20
542.3148185484
 11
1588.6746614706
 21
542.3148185484
  0
LINE
  5
3B1
100
AcDbEntity
  8
7_ALL_FEATURES
100
AcDbLine
 62
9
  6
CONTINUOUS
 10
466.1746614706
 20
542.5148185484
 11
1588.6746614706
 21
542.5148185484
  0
LINE
  5
3B2
100
AcDbEntity
  8
7_ALL_FEATURES
100
AcDbLine
 62
9
  6
CONTINUOUS
 10
1589.4246614706
 20
543.2874842638
 11
1588.6746614706
 21
543.2874842638
  0
LINE
  5
3B3
100
AcDbEntity
  8
7_ALL_FEATURES
100
AcDbLine
 62
9
  6
CONTINUOUS
 10
466.1746614706
 20
543.2874842638
 11
465.4246614706
 21
543.2874842638
  0
LINE
  5
3B4
100
AcDbEntity
  8
6_ALL_SURFS
100
AcDbLine
 62
7
  6
CONTINUOUS
 10
1589.4246614706
 20
543.3288135958
 11
1588.6746614706
 21
543.3288135958
  0
LINE
  5
3B5
100
AcDbEntity
  8
6_ALL_SURFS
100
AcDbLine
 62
7
  6
CONTINUOUS
 10
466.1746614706
 20
543.3288135958
 11
465.4246614706
 21
543.3288135958
  0
LINE
  5
3B6
100
AcDbEntity
  8
7_ALL_FEATURES
100
AcDbLine
 62
9
  6
CONTINUOUS
 10
465.4246614706
 20
543.9258561504
 11
466.1746614706
 21
543.9258561504
  0
LINE
  5
3B7
100
AcDbEntity
  8
7_ALL_FEATURES
100
AcDbLine
 62
9
  6
CONTINUOUS
 10
1588.6746614706
 20
543.9258561504
 11
1589.4246614706
 21
543.9258561504
  0
LINE
  5
3B8
100
AcDbEntity
  8
7_ALL_FEATURES
100
AcDbLine
 62
9
  6
CONTINUOUS
 10
465.4246614706
 20
544.1452622609
 11
466.1746614706
 21
544.1452622609
  0
LINE
  5
3B9
100
AcDbEntity
  8
7_ALL_FEATURES
100
AcDbLine
 62
9
  6
CONTINUOUS
 10
1588.6746614706
 20
544.1452622609
 11
1589.4246614706
 21
544.1452622609
  0
LINE
  5
3BA
100
AcDbEntity
  8
7_ALL_FEATURES
100
AcDbLine
 62
9
  6
CONTINUOUS
 10
1589.4246614706
 20
544.9648185484
 11
1588.6746614706
 21
544.9648185484
  0
LINE
  5
3BB
100
AcDbEntity
  8
7_ALL_FEATURES
100
AcDbLine
 62
9
  6
CONTINUOUS
 10
466.1746614706
 20
544.9648185484
 11
465.4246614706
 21
544.9648185484
  0
LINE
  5
3BC
100
AcDbEntity
  8
7_ALL_FEATURES
100
AcDbLine
 62
7
  6
CONTINUOUS
 10
1589.4246614706
 20
545.2648185484
 11
1588.6746614706
 21
545.2648185484
  0
LINE
  5
3BD
100
AcDbEntity
  8
7_ALL_FEATURES
100
AcDbLine
 62
7
  6
CONTINUOUS
 10
466.1746614706
 20
545.2648185484
 11
465.4246614706
 21
545.2648185484
  0
LINE
  5
3BE
100
AcDbEntity
  8
7_ALL_FEATURES
100
AcDbLine
 62
9
  6
CONTINUOUS
 10
465.4246614706
 20
545.3251259276
 11
466.1746614706
 21
545.3251259276
  0
LINE
  5
3BF
100
AcDbEntity
  8
7_ALL_FEATURES
100
AcDbLine
 62
9
  6
CONTINUOUS
 10
1588.6746614706
 20
545.3251259276
 11
1589.4246614706
 21
545.3251259276
  0
LINE
  5
3C0
100
AcDbEntity
  8
7_ALL_FEATURES
100
AcDbLine
 62
9
  6
CONTINUOUS
 10
1589.4246614706
 20
545.6801821343
 11
1588.6746614706
 21
545.6801821343
  0
LINE
  5
3C1
100
AcDbEntity
  8
7_ALL_FEATURES
100
AcDbLine
 62
9
  6
CONTINUOUS
 10
466.1746614706
 20
545.6801821343
 11
465.4246614706
 21
545.6801821343
  0
LINE
  5
3C2
100
AcDbEntity
  8
7_ALL_FEATURES
100
AcDbLine
 62
7
  6
CONTINUOUS
 10
1589.4246614706
 20
545.6982743481
 11
1588.6746614706
 21
545.6982743481
  0
LINE
  5
3C3
100
AcDbEntity
  8
7_ALL_FEATURES
100
AcDbLine
 62
7
  6
CONTINUOUS
 10
466.1746614706
 20
545.6982743481
 11
465.4246614706
 21
545.6982743481
  0
LINE
  5
3C4
100
AcDbEntity
  8
3_ALL_AXES
100
AcDbLine
 62
7
  6
CONTINUOUS
 10
1591.9246614706
 20
546.1148185484
 11
1591.773941141
 21
546.1148185484
  0
LINE
  5
3C5
100
AcDbEntity
  8
3_ALL_AXES
100
AcDbLine
 62
7
  6
CONTINUOUS
 10
462.9246614706
 20
546.1148185484
 11
463.0753818002
 21
546.1148185484
  0
LINE
  5
3C6
100
AcDbEntity
  8
3_ALL_AXES
100
AcDbLine
 62
7
  6
CONTINUOUS
 10
1591.9246614706
 20
546.9148185484
 11
1591.773941141
 21
546.9148185484
  0
LINE
  5
3C7
100
AcDbEntity
  8
3_ALL_AXES
100
AcDbLine
 62
7
  6
CONTINUOUS
 10
462.9246614706
 20
546.9148185484
 11
463.0753818002
 21
546.9148185484
  0
LINE
  5
3C8
100
AcDbEntity
  8
7_ALL_FEATURES
100
AcDbLine
 62
9
  6
CONTINUOUS
 10
465.4246614706
 20
548.0911073929
 11
466.1746614706
 21
548.0911073929
  0
LINE
  5
3C9
100
AcDbEntity
  8
7_ALL_FEATURES
100
AcDbLine
 62
9
  6
CONTINUOUS
 10
1588.6746614706
 20
548.0911073929
 11
1589.4246614706
 21
548.0911073929
  0
LINE
  5
3CA
100
AcDbEntity
  8
7_ALL_FEATURES
100
AcDbLine
 62
9
  6
CONTINUOUS
 10
465.4246614706
 20
549.0674034001
 11
466.1746614706
 21
549.0674034001
  0
LINE
  5
3CB
100
AcDbEntity
  8
7_ALL_FEATURES
100
AcDbLine
 62
9
  6
CONTINUOUS
 10
1588.6746614706
 20
549.0674034001
 11
1589.4246614706
 21
549.0674034001
  0
LINE
  5
3CC
100
AcDbEntity
  8
3_ALL_AXES
100
AcDbLine
 62
7
  6
CONTINUOUS
 10
1591.9246614706
 20
552.4148185484
 11
1591.773941141
 21
552.4148185484
  0
LINE
  5
3CD
100
AcDbEntity
  8
3_ALL_AXES
100
AcDbLine
 62
7
  6
CONTINUOUS
 10
462.9246614706
 20
552.4148185484
 11
463.0753818002
 21
552.4148185484
  0
LINE
  5
3CE
100
AcDbEntity
  8
7_ALL_FEATURES
100
AcDbLine
 62
9
  6
CONTINUOUS
 10
1589.4246614706
 20
559.6648185484
 11
1588.6746614706
 21
559.6648185484
  0
LINE
  5
3CF
100
AcDbEntity
  8
7_ALL_FEATURES
100
AcDbLine
 62
9
  6
CONTINUOUS
 10
466.1746614706
 20
559.6648185484
 11
465.4246614706
 21
559.6648185484
  0
LINE
  5
3D0
100
AcDbEntity
  8
7_ALL_FEATURES
100
AcDbLine
 62
7
  6
CONTINUOUS
 10
1589.4246614706
 20
559.9648185484
 11
1588.6746614706
 21
559.9648185484
  0
LINE
  5
3D1
100
AcDbEntity
  8
7_ALL_FEATURES
100
AcDbLine
 62
7
  6
CONTINUOUS
 10
466.1746614706
 20
559.9648185484
 11
465.4246614706
 21
559.9648185484
  0
LINE
  5
3D2
100
AcDbEntity
  8
7_ALL_FEATURES
100
AcDbLine
 62
9
  6
CONTINUOUS
 10
465.4246614706
 20
560.2648185484
 11
466.1746614706
 21
560.2648185484
  0
LINE
  5
3D3
100
AcDbEntity
  8
7_ALL_FEATURES
100
AcDbLine
 62
9
  6
CONTINUOUS
 10
1588.6746614706
 20
560.2648185484
 11
1589.4246614706
 21
560.2648185484
  0
LINE
  5
3D4
100
AcDbEntity
  8
6_ALL_SURFS
100
AcDbLine
 62
9
  6
CONTINUOUS
 10
465.4246614706
 20
563.0648185484
 11
466.1746614706
 21
563.0648185484
  0
LINE
  5
3D5
100
AcDbEntity
  8
6_ALL_SURFS
100
AcDbLine
 62
9
  6
CONTINUOUS
 10
1588.6746614706
 20
563.0648185484
 11
1589.4246614706
 21
563.0648185484
  0
LINE
  5
3D6
100
AcDbEntity
  8
6_ALL_SURFS
100
AcDbLine
 62
7
  6
CONTINUOUS
 10
1589.4246614706
 20
563.3648185484
 11
1588.6746614706
 21
563.3648185484
  0
LINE
  5
3D7
100
AcDbEntity
  8
6_ALL_SURFS
100
AcDbLine
 62
7
  6
CONTINUOUS
 10
466.1746614706
 20
563.3648185484
 11
465.4246614706
 21
563.3648185484
  0
LINE
  5
3D8
100
AcDbEntity
  8
6_ALL_SURFS
100
AcDbLine
 62
9
  6
CONTINUOUS
 10
1589.4246614706
 20
563.6648185484
 11
1588.6746614706
 21
563.6648185484
  0
LINE
  5
3D9
100
AcDbEntity
  8
6_ALL_SURFS
100
AcDbLine
 62
9
  6
CONTINUOUS
 10
466.1746614706
 20
563.6648185484
 11
465.4246614706
 21
563.6648185484
  0
LINE
  5
3DA
100
AcDbEntity
  8
3_ALL_AXES
100
AcDbLine
 62
7
  6
CONTINUOUS
 10
1591.9246614706
 20
570.9148185484
 11
1591.773941141
 21
570.9148185484
  0
LINE
  5
3DB
100
AcDbEntity
  8
3_ALL_AXES
100
AcDbLine
 62
7
  6
CONTINUOUS
 10
462.9246614706
 20
570.9148185484
 11
463.0753818002
 21
570.9148185484
  0
LINE
  5
3DC
100
AcDbEntity
  8
6_ALL_SURFS
100
AcDbLine
 62
9
  6
CONTINUOUS
 10
465.4246614706
 20
574.2622336967
 11
466.1746614706
 21
574.2622336967
  0
LINE
  5
3DD
100
AcDbEntity
  8
6_ALL_SURFS
100
AcDbLine
 62
9
  6
CONTINUOUS
 10
1588.6746614706
 20
574.2622336967
 11
1589.4246614706
 21
574.2622336967
  0
LINE
  5
3DE
100
AcDbEntity
  8
6_ALL_SURFS
100
AcDbLine
 62
9
  6
CONTINUOUS
 10
465.4246614706
 20
575.2385297038
 11
466.1746614706
 21
575.2385297038
  0
LINE
  5
3DF
100
AcDbEntity
  8
6_ALL_SURFS
100
AcDbLine
 62
9
  6
CONTINUOUS
 10
1588.6746614706
 20
575.2385297038
 11
1589.4246614706
 21
575.2385297038
  0
LINE
  5
3E0
100
AcDbEntity
  8
3_ALL_AXES
100
AcDbLine
 62
7
  6
CONTINUOUS
 10
1591.9246614706
 20
576.4148185484
 11
1591.773941141
 21
576.4148185484
  0
LINE
  5
3E1
100
AcDbEntity
  8
3_ALL_AXES
100
AcDbLine
 62
7
  6
CONTINUOUS
 10
462.9246614706
 20
576.4148185484
 11
463.0753818002
 21
576.4148185484
  0
LINE
  5
3E2
100
AcDbEntity
  8
3_ALL_AXES
100
AcDbLine
 62
7
  6
CONTINUOUS
 10
1591.9246614706
 20
577.2148185484
 11
1591.773941141
 21
577.2148185484
  0
LINE
  5
3E3
100
AcDbEntity
  8
3_ALL_AXES
100
AcDbLine
 62
7
  6
CONTINUOUS
 10
462.9246614706
 20
577.2148185484
 11
463.0753818002
 21
577.2148185484
  0
LINE
  5
3E4
100
AcDbEntity
  8
6_ALL_SURFS
100
AcDbLine
 62
7
  6
CONTINUOUS
 10
465.4246614706
 20
577.6313627487
 11
466.1746614706
 21
577.6313627487
  0
LINE
  5
3E5
100
AcDbEntity
  8
6_ALL_SURFS
100
AcDbLine
 62
7
  6
CONTINUOUS
 10
1588.6746614706
 20
577.6313627487
 11
1589.4246614706
 21
577.6313627487
  0
LINE
  5
3E6
100
AcDbEntity
  8
6_ALL_SURFS
100
AcDbLine
 62
9
  6
CONTINUOUS
 10
1589.4246614706
 20
577.6494549625
 11
1588.6746614706
 21
577.6494549625
  0
LINE
  5
3E7
100
AcDbEntity
  8
6_ALL_SURFS
100
AcDbLine
 62
9
  6
CONTINUOUS
 10
466.1746614706
 20
577.6494549625
 11
465.4246614706
 21
577.6494549625
  0
LINE
  5
3E8
100
AcDbEntity
  8
6_ALL_SURFS
100
AcDbLine
 62
9
  6
CONTINUOUS
 10
465.4246614706
 20
578.0045111692
 11
466.1746614706
 21
578.0045111692
  0
LINE
  5
3E9
100
AcDbEntity
  8
6_ALL_SURFS
100
AcDbLine
 62
9
  6
CONTINUOUS
 10
1588.6746614706
 20
578.0045111692
 11
1589.4246614706
 21
578.0045111692
  0
LINE
  5
3EA
100
AcDbEntity
  8
6_ALL_SURFS
100
AcDbLine
 62
7
  6
CONTINUOUS
 10
1589.4246614706
 20
578.0648185484
 11
1588.6746614706
 21
578.0648185484
  0
LINE
  5
3EB
100
AcDbEntity
  8
6_ALL_SURFS
100
AcDbLine
 62
7
  6
CONTINUOUS
 10
466.1746614706
 20
578.0648185484
 11
465.4246614706
 21
578.0648185484
  0
LINE
  5
3EC
100
AcDbEntity
  8
6_ALL_SURFS
100
AcDbLine
 62
9
  6
CONTINUOUS
 10
1589.4246614706
 20
578.3648185484
 11
1588.6746614706
 21
578.3648185484
  0
LINE
  5
3ED
100
AcDbEntity
  8
6_ALL_SURFS
100
AcDbLine
 62
9
  6
CONTINUOUS
 10
466.1746614706
 20
578.3648185484
 11
465.4246614706
 21
578.3648185484
  0
LINE
  5
3EE
100
AcDbEntity
  8
6_ALL_SURFS
100
AcDbLine
 62
9
  6
CONTINUOUS
 10
465.4246614706
 20
579.1843748359
 11
466.1746614706
 21
579.1843748359
  0
LINE
  5
3EF
100
AcDbEntity
  8
6_ALL_SURFS
100
AcDbLine
 62
9
  6
CONTINUOUS
 10
1588.6746614706
 20
579.1843748359
 11
1589.4246614706
 21
579.1843748359
  0
LINE
  5
3F0
100
AcDbEntity
  8
6_ALL_SURFS
100
AcDbLine
 62
9
  6
CONTINUOUS
 10
465.4246614706
 20
579.4037809464
 11
466.1746614706
 21
579.4037809464
  0
LINE
  5
3F1
100
AcDbEntity
  8
6_ALL_SURFS
100
AcDbLine
 62
9
  6
CONTINUOUS
 10
1588.6746614706
 20
579.4037809464
 11
1589.4246614706
 21
579.4037809464
  0
LINE
  5
3F2
100
AcDbEntity
  8
6_ALL_SURFS
100
AcDbLine
 62
7
  6
CONTINUOUS
 10
465.4246614706
 20
580.000823501
 11
466.1746614706
 21
580.000823501
  0
LINE
  5
3F3
100
AcDbEntity
  8
6_ALL_SURFS
100
AcDbLine
 62
7
  6
CONTINUOUS
 10
1588.6746614706
 20
580.000823501
 11
1589.4246614706
 21
580.000823501
  0
LINE
  5
3F4
100
AcDbEntity
  8
6_ALL_SURFS
100
AcDbLine
 62
9
  6
CONTINUOUS
 10
1589.4246614706
 20
580.042152833
 11
1588.6746614706
 21
580.042152833
  0
LINE
  5
3F5
100
AcDbEntity
  8
6_ALL_SURFS
100
AcDbLine
 62
9
  6
CONTINUOUS
 10
466.1746614706
 20
580.042152833
 11
465.4246614706
 21
580.042152833
  0
LINE
  5
3F6
100
AcDbEntity
  8
7_ALL_FEATURES
100
AcDbLine
 62
9
  6
CONTINUOUS
 10
466.1746614706
 20
580.8148185484
 11
1588.6746614706
 21
580.8148185484
  0
LINE
  5
3F7
100
AcDbEntity
  8
7_ALL_FEATURES
100
AcDbLine
 62
7
  6
CONTINUOUS
 10
466.1746614706
 20
581.0148185484
 11
1588.6746614706
 21
581.0148185484
  0
LINE
  5
3F8
100
AcDbEntity
  8
6_ALL_SURFS
100
AcDbLine
 62
9
  6
CONTINUOUS
 10
465.4246614706
 20
581.1528245505
 11
1589.4246614706
 21
581.1528245505
  0
LINE
  5
3F9
100
AcDbEntity
  8
6_ALL_SURFS
100
AcDbLine
 62
7
  6
CONTINUOUS
 10
1589.4246614706
 20
581.2148185484
 11
465.4246614706
 21
581.2148185484
  0
LINE
  5
3FA
100
AcDbEntity
  8
6_ALL_SURFS
100
AcDbLine
 62
9
  6
CONTINUOUS
 10
1589.4246614706
 20
581.5148185484
 11
465.4246614706
 21
581.5148185484
  0
LINE
  5
3FB
100
AcDbEntity
  8
7_ALL_FEATURES
100
AcDbLine
 62
9
  6
CONTINUOUS
 10
465.4246614706
 20
582.1148185484
 11
463.9246614706
 21
582.1148185484
  0
LINE
  5
3FC
100
AcDbEntity
  8
7_ALL_FEATURES
100
AcDbLine
 62
9
  6
CONTINUOUS
 10
1589.4246614706
 20
582.1148185484
 11
1590.9246614706
 21
582.1148185484
  0
LINE
  5
3FD
100
AcDbEntity
  8
6_ALL_SURFS
100
AcDbLine
 62
9
  6
CONTINUOUS
 10
1589.4246614706
 20
582.1648185484
 11
465.4246614706
 21
582.1648185484
  0
LINE
  5
3FE
100
AcDbEntity
  8
6_ALL_SURFS
100
AcDbLine
 62
7
  6
CONTINUOUS
 10
1589.4246614706
 20
582.4648185484
 11
465.4246614706
 21
582.4648185484
  0
LINE
  5
3FF
100
AcDbEntity
  8
3_ALL_AXES
100
AcDbLine
 62
7
  6
CONTINUOUS
 10
1591.9246614706
 20
582.7148185484
 11
1591.773941141
 21
582.7148185484
  0
LINE
  5
400
100
AcDbEntity
  8
3_ALL_AXES
100
AcDbLine
 62
7
  6
CONTINUOUS
 10
462.9246614706
 20
582.7148185484
 11
463.0753818002
 21
582.7148185484
  0
LINE
  5
401
100
AcDbEntity
  8
6_ALL_SURFS
100
AcDbLine
 62
9
  6
CONTINUOUS
 10
465.4246614706
 20
582.7648185484
 11
1589.4246614706
 21
582.7648185484
  0
LINE
  5
402
100
AcDbEntity
  8
7_ALL_FEATURES
100
AcDbLine
 62
7
  6
CONTINUOUS
 10
465.4246614706
 20
582.8648185484
 11
463.9246614706
 21
582.8648185484
  0
LINE
  5
403
100
AcDbEntity
  8
7_ALL_FEATURES
100
AcDbLine
 62
7
  6
CONTINUOUS
 10
1589.4246614706
 20
582.8648185484
 11
1590.9246614706
 21
582.8648185484
  0
LINE
  5
404
100
AcDbEntity
  8
6_ALL_SURFS
100
AcDbLine
 62
7
  6
CONTINUOUS
 10
465.4246614706
 20
584.7148185484
 11
1589.4246614706
 21
584.7148185484
  0
LINE
  5
405
100
AcDbEntity
  8
6_ALL_SURFS
100
AcDbLine
 62
7
  6
CONTINUOUS
 10
465.4246614706
 20
585.3148185484
 11
1589.4246614706
 21
585.3148185484
  0
LINE
  5
406
100
AcDbEntity
  8
6_ALL_SURFS
100
AcDbLine
 62
7
  6
CONTINUOUS
 10
465.4246614706
 20
587.7148185484
 11
1589.4246614706
 21
587.7148185484
  0
LINE
  5
407
100
AcDbEntity
  8
6_ALL_SURFS
100
AcDbLine
 62
7
  6
CONTINUOUS
 10
465.4246614706
 20
588.3148185484
 11
1589.4246614706
 21
588.3148185484
  0
LINE
  5
408
100
AcDbEntity
  8
6_ALL_SURFS
100
AcDbLine
 62
7
  6
CONTINUOUS
 10
465.4246614706
 20
590.7148185484
 11
1589.4246614706
 21
590.7148185484
  0
LINE
  5
409
100
AcDbEntity
  8
6_ALL_SURFS
100
AcDbLine
 62
7
  6
CONTINUOUS
 10
465.4246614706
 20
591.3148185484
 11
1589.4246614706
 21
591.3148185484
  0
LINE
  5
40A
100
AcDbEntity
  8
6_ALL_SURFS
100
AcDbLine
 62
7
  6
CONTINUOUS
 10
465.4246614706
 20
593.7148185484
 11
523.6788949616
 21
593.7148185484
  0
LINE
  5
40B
100
AcDbEntity
  8
6_ALL_SURFS
100
AcDbLine
 62
7
  6
CONTINUOUS
 10
531.1704279796
 20
593.7148185484
 11
773.6788949616
 21
593.7148185484
  0
LINE
  5
40C
100
AcDbEntity
  8
6_ALL_SURFS
100
AcDbLine
 62
7
  6
CONTINUOUS
 10
781.1704279796
 20
593.7148185484
 11
1023.6788949616
 21
593.7148185484
  0
LINE
  5
40D
100
AcDbEntity
  8
6_ALL_SURFS
100
AcDbLine
 62
7
  6
CONTINUOUS
 10
1031.1704279796
 20
593.7148185484
 11
1273.6788949616
 21
593.7148185484
  0
LINE
  5
40E
100
AcDbEntity
  8
6_ALL_SURFS
100
AcDbLine
 62
7
  6
CONTINUOUS
 10
1281.1704279796
 20
593.7148185484
 11
1523.6788949616
 21
593.7148185484
  0
LINE
  5
40F
100
AcDbEntity
  8
6_ALL_SURFS
100
AcDbLine
 62
7
  6
CONTINUOUS
 10
1531.1704279796
 20
593.7148185484
 11
1589.4246614706
 21
593.7148185484
  0
LINE
  5
410
100
AcDbEntity
  8
6_ALL_SURFS
100
AcDbLine
 62
7
  6
CONTINUOUS
 10
465.4246614706
 20
594.3148185484
 11
523.2688502694
 21
594.3148185484
  0
LINE
  5
411
100
AcDbEntity
  8
6_ALL_SURFS
100
AcDbLine
 62
7
  6
CONTINUOUS
 10
531.5804726717
 20
594.3148185484
 11
773.2688502694
 21
594.3148185484
  0
LINE
  5
412
100
AcDbEntity
  8
6_ALL_SURFS
100
AcDbLine
 62
7
  6
CONTINUOUS
 10
781.5804726717
 20
594.3148185484
 11
1023.2688502694
 21
594.3148185484
  0
LINE
  5
413
100
AcDbEntity
  8
6_ALL_SURFS
100
AcDbLine
 62
7
  6
CONTINUOUS
 10
1031.5804726717
 20
594.3148185484
 11
1273.2688502694
 21
594.3148185484
  0
LINE
  5
414
100
AcDbEntity
  8
6_ALL_SURFS
100
AcDbLine
 62
7
  6
CONTINUOUS
 10
1281.5804726717
 20
594.3148185484
 11
1523.2688502694
 21
594.3148185484
  0
LINE
  5
415
100
AcDbEntity
  8
6_ALL_SURFS
100
AcDbLine
 62
7
  6
CONTINUOUS
 10
1531.5804726717
 20
594.3148185484
 11
1589.4246614706
 21
594.3148185484
  0
LINE
  5
416
100
AcDbEntity
  8
6_ALL_SURFS
100
AcDbLine
 62
7
  6
CONTINUOUS
 10
465.4246614706
 20
596.7148185484
 11
522.6256233649
 21
596.7148185484
  0
LINE
  5
417
100
AcDbEntity
  8
6_ALL_SURFS
100
AcDbLine
 62
7
  6
CONTINUOUS
 10
532.2236995763
 20
596.7148185484
 11
772.6256233649
 21
596.7148185484
  0
LINE
  5
418
100
AcDbEntity
  8
6_ALL_SURFS
100
AcDbLine
 62
7
  6
CONTINUOUS
 10
782.2236995763
 20
596.7148185484
 11
1022.6256233649
 21
596.7148185484
  0
LINE
  5
419
100
AcDbEntity
  8
6_ALL_SURFS
100
AcDbLine
 62
7
  6
CONTINUOUS
 10
1032.2236995763
 20
596.7148185484
 11
1272.6256233649
 21
596.7148185484
  0
LINE
  5
41A
100
AcDbEntity
  8
6_ALL_SURFS
100
AcDbLine
 62
7
  6
CONTINUOUS
 10
1282.2236995763
 20
596.7148185484
 11
1522.6256233649
 21
596.7148185484
  0
LINE
  5
41B
100
AcDbEntity
  8
6_ALL_SURFS
100
AcDbLine
 62
7
  6
CONTINUOUS
 10
1532.2236995763
 20
596.7148185484
 11
1589.4246614706
 21
596.7148185484
  0
LINE
  5
41C
100
AcDbEntity
  8
6_ALL_SURFS
100
AcDbLine
 62
7
  6
CONTINUOUS
 10
465.4246614706
 20
597.3148185484
 11
522.6632786106
 21
597.3148185484
  0
LINE
  5
41D
100
AcDbEntity
  8
6_ALL_SURFS
100
AcDbLine
 62
7
  6
CONTINUOUS
 10
532.1860443306
 20
597.3148185484
 11
772.6632786106
 21
597.3148185484
  0
LINE
  5
41E
100
AcDbEntity
  8
6_ALL_SURFS
100
AcDbLine
 62
7
  6
CONTINUOUS
 10
782.1860443306
 20
597.3148185484
 11
1022.6632786106
 21
597.3148185484
  0
LINE
  5
41F
100
AcDbEntity
  8
6_ALL_SURFS
100
AcDbLine
 62
7
  6
CONTINUOUS
 10
1032.1860443306
 20
597.3148185484
 11
1272.6632786106
 21
597.3148185484
  0
LINE
  5
420
100
AcDbEntity
  8
6_ALL_SURFS
100
AcDbLine
 62
7
  6
CONTINUOUS
 10
1282.1860443306
 20
597.3148185484
 11
1522.6632786106
 21
597.3148185484
  0
LINE
  5
421
100
AcDbEntity
  8
6_ALL_SURFS
100
AcDbLine
 62
7
  6
CONTINUOUS
 10
1532.1860443306
 20
597.3148185484
 11
1589.4246614706
 21
597.3148185484
  0
LINE
  5
422
100
AcDbEntity
  8
6_ALL_SURFS
100
AcDbLine
 62
7
  6
CONTINUOUS
 10
465.4246614706
 20
600.2148185484
 11
524.1412536769
 21
600.2148185484
  0
LINE
  5
423
100
AcDbEntity
  8
6_ALL_SURFS
100
AcDbLine
 62
7
  6
CONTINUOUS
 10
530.7080692643
 20
600.2148185484
 11
774.1412536769
 21
600.2148185484
  0
LINE
  5
424
100
AcDbEntity
  8
6_ALL_SURFS
100
AcDbLine
 62
7
  6
CONTINUOUS
 10
780.7080692643
 20
600.2148185484
 11
1024.1412536769
 21
600.2148185484
  0
LINE
  5
425
100
AcDbEntity
  8
6_ALL_SURFS
100
AcDbLine
 62
7
  6
CONTINUOUS
 10
1030.7080692643
 20
600.2148185484
 11
1274.1412536769
 21
600.2148185484
  0
LINE
  5
426
100
AcDbEntity
  8
6_ALL_SURFS
100
AcDbLine
 62
7
  6
CONTINUOUS
 10
1280.7080692643
 20
600.2148185484
 11
1524.1412536769
 21
600.2148185484
  0
LINE
  5
427
100
AcDbEntity
  8
6_ALL_SURFS
100
AcDbLine
 62
7
  6
CONTINUOUS
 10
1530.7080692643
 20
600.2148185484
 11
1589.4246614706
 21
600.2148185484
  0
LINE
  5
428
100
AcDbEntity
  8
6_ALL_SURFS
100
AcDbLine
 62
9
  6
CONTINUOUS
 10
1589.4246614706
 20
602.3602901388
 11
465.4246614706
 21
602.3602901388
  0
LINE
  5
429
100
AcDbEntity
  8
6_ALL_SURFS
100
AcDbLine
 62
7
  6
CONTINUOUS
 10
465.4246614706
 20
602.7148185484
 11
1589.4246614706
 21
602.7148185484
  0
LINE
  5
42A
100
AcDbEntity
  8
3_ALL_AXES
100
AcDbLine
 62
7
  6
CONTINUOUS
 10
1591.773941141
 20
582.7148185484
 11
1590.9246614706
 21
582.0021882902
  0
LINE
  5
42B
100
AcDbEntity
  8
3_ALL_AXES
100
AcDbLine
 62
7
  6
CONTINUOUS
 10
1591.773941141
 20
576.4148185484
 11
1590.9246614706
 21
575.7021882902
  0
LINE
  5
42C
100
AcDbEntity
  8
3_ALL_AXES
100
AcDbLine
 62
7
  6
CONTINUOUS
 10
1591.773941141
 20
552.4148185484
 11
1590.9246614706
 21
551.7021882902
  0
LINE
  5
42D
100
AcDbEntity
  8
3_ALL_AXES
100
AcDbLine
 62
7
  6
CONTINUOUS
 10
1591.773941141
 20
546.1148185484
 11
1590.9246614706
 21
545.4021882902
  0
LINE
  5
42E
100
AcDbEntity
  8
3_ALL_AXES
100
AcDbLine
 62
7
  6
CONTINUOUS
 10
1591.773941141
 20
540.6148185484
 11
1590.9246614706
 21
541.3274488066
  0
LINE
  5
42F
100
AcDbEntity
  8
3_ALL_AXES
100
AcDbLine
 62
7
  6
CONTINUOUS
 10
1591.773941141
 20
546.9148185484
 11
1590.9246614706
 21
547.6274488066
  0
LINE
  5
430
100
AcDbEntity
  8
3_ALL_AXES
100
AcDbLine
 62
7
  6
CONTINUOUS
 10
1591.773941141
 20
570.9148185484
 11
1590.9246614706
 21
571.6274488066
  0
LINE
  5
431
100
AcDbEntity
  8
3_ALL_AXES
100
AcDbLine
 62
7
  6
CONTINUOUS
 10
1591.773941141
 20
577.2148185484
 11
1590.9246614706
 21
577.9274488066
  0
LINE
  5
432
100
AcDbEntity
  8
7_ALL_FEATURES
100
AcDbLine
 62
7
  6
CONTINUOUS
 10
1588.6746614706
 20
581.0148185484
 11
1588.6746614706
 21
542.3148185484
  0
LINE
  5
433
100
AcDbEntity
  8
7_ALL_FEATURES
100
AcDbLine
 62
7
  6
CONTINUOUS
 10
1589.4246614706
 20
520.6148288238
 11
1589.4246614706
 21
582.8648185484
  0
LINE
  5
434
100
AcDbEntity
  8
6_ALL_SURFS
100
AcDbLine
 62
7
  6
CONTINUOUS
 10
1589.4246614706
 20
581.5148185484
 11
1589.4246614706
 21
582.4648185484
  0
LINE
  5
435
100
AcDbEntity
  8
6_ALL_SURFS
100
AcDbLine
 62
7
  6
CONTINUOUS
 10
1589.4246614706
 20
582.8648185484
 11
1589.4246614706
 21
602.714808273
  0
LINE
  5
436
100
AcDbEntity
  8
7_ALL_FEATURES
100
AcDbLine
 62
7
  6
CONTINUOUS
 10
1590.9246614706
 20
540.4648185484
 11
1590.9246614706
 21
582.8648185484
  0
LINE
  5
437
100
AcDbEntity
  8
3_ALL_AXES
100
AcDbLine
 62
7
  6
CONTINUOUS
 10
1591.773941141
 20
540.6148185484
 11
1591.773941141
 21
546.1148185484
  0
LINE
  5
438
100
AcDbEntity
  8
3_ALL_AXES
100
AcDbLine
 62
7
  6
CONTINUOUS
 10
1591.773941141
 20
546.9148185484
 11
1591.773941141
 21
552.4148185484
  0
LINE
  5
439
100
AcDbEntity
  8
3_ALL_AXES
100
AcDbLine
 62
7
  6
CONTINUOUS
 10
1591.773941141
 20
570.9148185484
 11
1591.773941141
 21
576.4148185484
  0
LINE
  5
43A
100
AcDbEntity
  8
3_ALL_AXES
100
AcDbLine
 62
7
  6
CONTINUOUS
 10
1591.773941141
 20
577.2148185484
 11
1591.773941141
 21
582.7148185484
  0
LINE
  5
43B
100
AcDbEntity
  8
3_ALL_AXES
100
AcDbLine
 62
7
  6
CONTINUOUS
 10
1591.9246614706
 20
540.6148185484
 11
1591.9246614706
 21
546.1148185484
  0
LINE
  5
43C
100
AcDbEntity
  8
3_ALL_AXES
100
AcDbLine
 62
7
  6
CONTINUOUS
 10
1591.9246614706
 20
546.9148185484
 11
1591.9246614706
 21
552.4148185484
  0
LINE
  5
43D
100
AcDbEntity
  8
3_ALL_AXES
100
AcDbLine
 62
7
  6
CONTINUOUS
 10
1591.9246614706
 20
570.9148185484
 11
1591.9246614706
 21
576.4148185484
  0
LINE
  5
43E
100
AcDbEntity
  8
3_ALL_AXES
100
AcDbLine
 62
7
  6
CONTINUOUS
 10
1591.9246614706
 20
577.2148185484
 11
1591.9246614706
 21
582.7148185484
  0
CIRCLE
  5
43F
100
AcDbEntity
  8
3_ALL_AXES
100
AcDbCircle
 62
7
  6
CONTINUOUS
 10
199.787283552
 20
317.4752670882
 40
2.75
  0
ARC
  5
440
100
AcDbEntity
  8
6_ALL_SURFS
100
AcDbCircle
 62
7
  6
CONTINUOUS
 10
198.587283552
 20
305.4771930184
 40
2.15
100
AcDbArc
 50
146.6800806294
 51
213.3199193706
  0
ARC
  5
441
100
AcDbEntity
  8
6_ALL_SURFS
100
AcDbCircle
 62
7
  6
CONTINUOUS
 10
198.587283552
 20
322.8752670882
 40
1.5
100
AcDbArc
 50
270.0
 51
360.0
  0
ARC
  5
442
100
AcDbEntity
  8
6_ALL_SURFS
100
AcDbCircle
 62
7
  6
CONTINUOUS
 10
195.537283552
 20
307.4821867839
 40
1.5
100
AcDbArc
 50
326.6800806294
 51
334.2614445208
  0
ARC
  5
443
100
AcDbEntity
  8
6_ALL_SURFS
100
AcDbCircle
 62
7
  6
CONTINUOUS
 10
195.537283552
 20
303.4721992528
 40
1.5
100
AcDbArc
 50
25.7385554792
 51
33.3199193706
  0
ARC
  5
444
100
AcDbEntity
  8
7_ALL_FEATURES
100
AcDbCircle
 62
7
  6
CONTINUOUS
 10
197.637283552
 20
292.2252670882
 40
0.75
100
AcDbArc
 50
180.0
 51
270.0
  0
ARC
  5
445
100
AcDbEntity
  8
6_ALL_SURFS
100
AcDbCircle
 62
7
  6
CONTINUOUS
 10
197.637283552
 20
320.6252670882
 40
0.75
100
AcDbArc
 50
90.0
 51
180.0
  0
ARC
  5
446
100
AcDbEntity
  8
6_ALL_SURFS
100
AcDbCircle
 62
7
  6
CONTINUOUS
 10
194.737283552
 20
292.5752670882
 40
0.5
100
AcDbArc
 50
53.1301023542
 51
126.8698976458
  0
ARC
  5
447
100
AcDbEntity
  8
6_ALL_SURFS
100
AcDbCircle
 62
7
  6
CONTINUOUS
 10
191.737283552
 20
292.5752670882
 40
0.5
100
AcDbArc
 50
53.1301023542
 51
126.8698976458
  0
ARC
  5
448
100
AcDbEntity
  8
6_ALL_SURFS
100
AcDbCircle
 62
7
  6
CONTINUOUS
 10
188.737283552
 20
292.5752670882
 40
0.5
100
AcDbArc
 50
53.1301023542
 51
126.8698976458
  0
ARC
  5
449
100
AcDbEntity
  8
6_ALL_SURFS
100
AcDbCircle
 62
7
  6
CONTINUOUS
 10
185.737283552
 20
292.5752670882
 40
0.5
100
AcDbArc
 50
53.1301023542
 51
126.8698976458
  0
ARC
  5
44A
100
AcDbEntity
  8
6_ALL_SURFS
100
AcDbCircle
 62
7
  6
CONTINUOUS
 10
182.737283552
 20
292.5752670882
 40
0.5
100
AcDbArc
 50
53.1301023542
 51
126.8698976458
  0
ARC
  5
44B
100
AcDbEntity
  8
6_ALL_SURFS
100
AcDbCircle
 62
7
  6
CONTINUOUS
 10
177.43098691
 20
293.5815637303
 40
0.3937033579
100
AcDbArc
 50
90.0
 51
264.2894068625
  0
ARC
  5
44C
100
AcDbEntity
  8
6_ALL_SURFS
100
AcDbCircle
 62
7
  6
CONTINUOUS
 10
196.737283552
 20
294.2752670882
 40
0.3
100
AcDbArc
 50
270.0
 51
300.1901662435
  0
ARC
  5
44D
100
AcDbEntity
  8
6_ALL_SURFS
100
AcDbCircle
 62
7
  6
CONTINUOUS
 10
197.587283552
 20
291.7752670882
 40
0.3
100
AcDbArc
 50
254.3345028135
 51
270.0
  0
CIRCLE
  5
44E
100
AcDbEntity
  8
3_ALL_AXES
100
AcDbCircle
 62
7
  6
CONTINUOUS
 10
206.087283552
 20
383.0752670882
 40
2.75
  0
ARC
  5
44F
100
AcDbEntity
  8
6_ALL_SURFS
100
AcDbCircle
 62
7
  6
CONTINUOUS
 10
216.287283552
 20
384.4752670882
 40
1.8
100
AcDbArc
 50
90.0
 51
105.6234228216
  0
ARC
  5
450
100
AcDbEntity
  8
6_ALL_SURFS
100
AcDbCircle
 62
7
  6
CONTINUOUS
 10
215.441532241
 20
385.2752670882
 40
1.0
100
AcDbArc
 50
48.5903778907
 51
90.0
  0
ARC
  5
451
100
AcDbEntity
  8
6_ALL_SURFS
100
AcDbCircle
 62
7
  6
CONTINUOUS
 10
202.837283552
 20
385.5252670882
 40
0.75
100
AcDbArc
 50
90.0
 51
180.0
  0
ARC
  5
452
100
AcDbEntity
  8
6_ALL_SURFS
100
AcDbCircle
 62
7
  6
CONTINUOUS
 10
202.387283552
 20
385.9752670882
 40
0.3
100
AcDbArc
 50
90.0
 51
180.0
  0
CIRCLE
  5
453
100
AcDbEntity
  8
3_ALL_AXES
100
AcDbCircle
 62
7
  6
CONTINUOUS
 10
236.387283552
 20
317.4752670882
 40
2.75
  0
ARC
  5
454
100
AcDbEntity
  8
7_ALL_FEATURES
100
AcDbCircle
 62
7
  6
CONTINUOUS
 10
237.587283552
 20
305.4771930184
 40
2.15
100
AcDbArc
 50
326.6800806294
 51
33.3199193706
  0
ARC
  5
455
100
AcDbEntity
  8
6_ALL_SURFS
100
AcDbCircle
 62
7
  6
CONTINUOUS
 10
237.587283552
 20
322.8752670882
 40
1.5
100
AcDbArc
 50
180.0
 51
270.0
  0
ARC
  5
456
100
AcDbEntity
  8
7_ALL_FEATURES
100
AcDbCircle
 62
7
  6
CONTINUOUS
 10
240.637283552
 20
307.4821867839
 40
1.5
100
AcDbArc
 50
205.7385554792
 51
213.3199193706
  0
ARC
  5
457
100
AcDbEntity
  8
7_ALL_FEATURES
100
AcDbCircle
 62
7
  6
CONTINUOUS
 10
240.637283552
 20
303.4721992528
 40
1.5
100
AcDbArc
 50
146.6800806294
 51
154.2614445208
  0
ARC
  5
458
100
AcDbEntity
  8
7_ALL_FEATURES
100
AcDbCircle
 62
7
  6
CONTINUOUS
 10
238.537283552
 20
292.2252670882
 40
0.75
100
AcDbArc
 50
270.0
 51
360.0
  0
ARC
  5
459
100
AcDbEntity
  8
6_ALL_SURFS
100
AcDbCircle
 62
7
  6
CONTINUOUS
 10
238.537283552
 20
320.6252670882
 40
0.75
100
AcDbArc
 50
0.0
 51
90.0
  0
ARC
  5
45A
100
AcDbEntity
  8
7_ALL_FEATURES
100
AcDbCircle
 62
7
  6
CONTINUOUS
 10
253.437283552
 20
292.5752670882
 40
0.5
100
AcDbArc
 50
53.1301023542
 51
126.8698976458
  0
ARC
  5
45B
100
AcDbEntity
  8
7_ALL_FEATURES
100
AcDbCircle
 62
7
  6
CONTINUOUS
 10
250.437283552
 20
292.5752670882
 40
0.5
100
AcDbArc
 50
53.1301023542
 51
126.8698976458
  0
ARC
  5
45C
100
AcDbEntity
  8
7_ALL_FEATURES
100
AcDbCircle
 62
7
  6
CONTINUOUS
 10
247.437283552
 20
292.5752670882
 40
0.5
100
AcDbArc
 50
53.1301023542
 51
126.8698976458
  0
ARC
  5
45D
100
AcDbEntity
  8
7_ALL_FEATURES
100
AcDbCircle
 62
7
  6
CONTINUOUS
 10
244.437283552
 20
292.5752670882
 40
0.5
100
AcDbArc
 50
53.1301023542
 51
126.8698976458
  0
ARC
  5
45E
100
AcDbEntity
  8
7_ALL_FEATURES
100
AcDbCircle
 62
7
  6
CONTINUOUS
 10
241.437283552
 20
292.5752670882
 40
0.5
100
AcDbArc
 50
53.1301023542
 51
126.8698976458
  0
ARC
  5
45F
100
AcDbEntity
  8
7_ALL_FEATURES
100
AcDbCircle
 62
7
  6
CONTINUOUS
 10
258.7435801941
 20
293.5815637303
 40
0.3937033579
100
AcDbArc
 50
275.7105931375
 51
90.0
  0
ARC
  5
460
100
AcDbEntity
  8
7_ALL_FEATURES
100
AcDbCircle
 62
7
  6
CONTINUOUS
 10
239.437283552
 20
294.2752670882
 40
0.3
100
AcDbArc
 50
239.8098337565
 51
270.0
  0
ARC
  5
461
100
AcDbEntity
  8
7_ALL_FEATURES
100
AcDbCircle
 62
7
  6
CONTINUOUS
 10
238.587283552
 20
291.7752670882
 40
0.3
100
AcDbArc
 50
270.0
 51
285.6654971865
  0
ARC
  5
462
100
AcDbEntity
  8
6_ALL_SURFS
100
AcDbCircle
 62
7
  6
CONTINUOUS
 10
218.087283552
 20
363.7752670882
 40
11.0
100
AcDbArc
 50
3.257196161
 51
176.742803839
  0
ARC
  5
463
100
AcDbEntity
  8
6_ALL_SURFS
100
AcDbCircle
 62
7
  6
CONTINUOUS
 10
218.087283552
 20
363.7752670882
 40
11.0
100
AcDbArc
 50
183.257196161
 51
356.742803839
  0
ARC
  5
464
100
AcDbEntity
  8
6_ALL_SURFS
100
AcDbCircle
 62
7
  6
CONTINUOUS
 10
218.087283552
 20
363.7752670882
 40
10.25
100
AcDbArc
 50
3.4958136324
 51
176.5041863676
  0
ARC
  5
465
100
AcDbEntity
  8
6_ALL_SURFS
100
AcDbCircle
 62
7
  6
CONTINUOUS
 10
218.087283552
 20
363.7752670882
 40
10.25
100
AcDbArc
 50
183.4958136324
 51
356.5041863676
  0
ARC
  5
466
100
AcDbEntity
  8
6_ALL_SURFS
100
AcDbCircle
 62
7
  6
CONTINUOUS
 10
218.087283552
 20
388.2752670882
 40
3.0
100
AcDbArc
 50
228.5903778907
 51
311.4096221093
  0
CIRCLE
  5
467
100
AcDbEntity
  8
3_ALL_AXES
100
AcDbCircle
 62
7
  6
CONTINUOUS
 10
230.087283552
 20
383.0752670882
 40
2.75
  0
ARC
  5
468
100
AcDbEntity
  8
7_ALL_FEATURES
100
AcDbCircle
 62
7
  6
CONTINUOUS
 10
219.887283552
 20
384.4752670882
 40
1.8
100
AcDbArc
 50
74.3765771784
 51
90.0
  0
ARC
  5
469
100
AcDbEntity
  8
6_ALL_SURFS
100
AcDbCircle
 62
7
  6
CONTINUOUS
 10
220.7330348631
 20
385.2752670882
 40
1.0
100
AcDbArc
 50
90.0
 51
131.4096221093
  0
ARC
  5
46A
100
AcDbEntity
  8
6_ALL_SURFS
100
AcDbCircle
 62
7
  6
CONTINUOUS
 10
233.337283552
 20
385.5252670882
 40
0.75
100
AcDbArc
 50
0.0
 51
90.0
  0
ARC
  5
46B
100
AcDbEntity
  8
7_ALL_FEATURES
100
AcDbCircle
 62
7
  6
CONTINUOUS
 10
233.787283552
 20
385.9752670882
 40
0.3
100
AcDbArc
 50
0.0
 51
90.0
  0
ARC
  5
46C
100
AcDbEntity
  8
7_ALL_FEATURES
100
AcDbCircle
 62
7
  6
CONTINUOUS
 10
527.4246614706
 20
526.6148185484
 40
4.7990381057
100
AcDbArc
 50
38.6913826582
 51
141.3086173418
  0
ARC
  5
46D
100
AcDbEntity
  8
7_ALL_FEATURES
100
AcDbCircle
 62
7
  6
CONTINUOUS
 10
777.4246614706
 20
526.6148185484
 40
4.7990381057
100
AcDbArc
 50
38.6913826582
 51
141.3086173418
  0
ARC
  5
46E
100
AcDbEntity
  8
7_ALL_FEATURES
100
AcDbCircle
 62
7
  6
CONTINUOUS
 10
777.4246614706
 20
526.6148185484
 40
4.7990381057
100
AcDbArc
 50
0.0
 51
30.0066305519
  0
ARC
  5
46F
100
AcDbEntity
  8
7_ALL_FEATURES
100
AcDbCircle
 62
7
  6
CONTINUOUS
 10
527.4246614706
 20
526.6148185484
 40
4.7990381057
100
AcDbArc
 50
0.0
 51
30.0066305519
  0
ARC
  5
470
100
AcDbEntity
  8
7_ALL_FEATURES
100
AcDbCircle
 62
7
  6
CONTINUOUS
 10
777.4246614706
 20
526.6148185484
 40
4.7990381057
100
AcDbArc
 50
149.9933694481
 51
180.0
  0
ARC
  5
471
100
AcDbEntity
  8
7_ALL_FEATURES
100
AcDbCircle
 62
7
  6
CONTINUOUS
 10
527.4246614706
 20
526.6148185484
 40
4.7990381057
100
AcDbArc
 50
149.9933694481
 51
180.0
  0
ARC
  5
472
100
AcDbEntity
  8
7_ALL_FEATURES
100
AcDbCircle
 62
7
  6
CONTINUOUS
 10
777.4246614706
 20
526.6148185484
 40
4.7990381057
100
AcDbArc
 50
313.171184019
 51
352.8177973595
  0
ARC
  5
473
100
AcDbEntity
  8
7_ALL_FEATURES
100
AcDbCircle
 62
7
  6
CONTINUOUS
 10
527.4246614706
 20
526.6148185484
 40
4.7990381057
100
AcDbArc
 50
313.171184019
 51
352.8177973595
  0
ARC
  5
474
100
AcDbEntity
  8
7_ALL_FEATURES
100
AcDbCircle
 62
7
  6
CONTINUOUS
 10
777.4246614706
 20
526.6148185484
 40
4.7990381057
100
AcDbArc
 50
187.1822026405
 51
226.828815981
  0
ARC
  5
475
100
AcDbEntity
  8
7_ALL_FEATURES
100
AcDbCircle
 62
7
  6
CONTINUOUS
 10
527.4246614706
 20
526.6148185484
 40
4.7990381057
100
AcDbArc
 50
187.1822026405
 51
226.828815981
  0
CIRCLE
  5
476
100
AcDbEntity
  8
6_ALL_SURFS
100
AcDbCircle
 62
7
  6
CONTINUOUS
 10
527.4246614706
 20
526.6148185484
 40
3.5
  0
CIRCLE
  5
477
100
AcDbEntity
  8
6_ALL_SURFS
100
AcDbCircle
 62
7
  6
CONTINUOUS
 10
777.4246614706
 20
526.6148185484
 40
3.5
  0
ARC
  5
478
100
AcDbEntity
  8
6_ALL_SURFS
100
AcDbCircle
 62
7
  6
CONTINUOUS
 10
777.4246614706
 20
596.7148185484
 40
4.7990381057
100
AcDbArc
 50
329.9933694481
 51
360.0
  0
ARC
  5
479
100
AcDbEntity
  8
6_ALL_SURFS
100
AcDbCircle
 62
7
  6
CONTINUOUS
 10
527.4246614706
 20
596.7148185484
 40
4.7990381057
100
AcDbArc
 50
133.171184019
 51
172.8177973595
  0
ARC
  5
47A
100
AcDbEntity
  8
6_ALL_SURFS
100
AcDbCircle
 62
7
  6
CONTINUOUS
 10
777.4246614706
 20
596.7148185484
 40
4.7990381057
100
AcDbArc
 50
133.171184019
 51
172.8177973595
  0
ARC
  5
47B
100
AcDbEntity
  8
6_ALL_SURFS
100
AcDbCircle
 62
7
  6
CONTINUOUS
 10
527.4246614706
 20
596.7148185484
 40
4.7990381057
100
AcDbArc
 50
7.1822026405
 51
46.828815981
  0
ARC
  5
47C
100
AcDbEntity
  8
6_ALL_SURFS
100
AcDbCircle
 62
7
  6
CONTINUOUS
 10
777.4246614706
 20
596.7148185484
 40
4.7990381057
100
AcDbArc
 50
7.1822026405
 51
46.828815981
  0
ARC
  5
47D
100
AcDbEntity
  8
6_ALL_SURFS
100
AcDbCircle
 62
7
  6
CONTINUOUS
 10
777.4246614706
 20
596.7148185484
 40
4.7990381057
100
AcDbArc
 50
218.6913826582
 51
321.3086173418
  0
ARC
  5
47E
100
AcDbEntity
  8
6_ALL_SURFS
100
AcDbCircle
 62
7
  6
CONTINUOUS
 10
527.4246614706
 20
596.7148185484
 40
4.7990381057
100
AcDbArc
 50
218.6913826582
 51
321.3086173418
  0
ARC
  5
47F
100
AcDbEntity
  8
6_ALL_SURFS
100
AcDbCircle
 62
7
  6
CONTINUOUS
 10
527.4246614706
 20
596.7148185484
 40
4.7990381057
100
AcDbArc
 50
180.0
 51
210.0066305519
  0
ARC
  5
480
100
AcDbEntity
  8
6_ALL_SURFS
100
AcDbCircle
 62
7
  6
CONTINUOUS
 10
777.4246614706
 20
596.7148185484
 40
4.7990381057
100
AcDbArc
 50
180.0
 51
210.0066305519
  0
ARC
  5
481
100
AcDbEntity
  8
6_ALL_SURFS
100
AcDbCircle
 62
7
  6
CONTINUOUS
 10
527.4246614706
 20
596.7148185484
 40
4.7990381057
100
AcDbArc
 50
329.9933694481
 51
360.0
  0
CIRCLE
  5
482
100
AcDbEntity
  8
6_ALL_SURFS
100
AcDbCircle
 62
7
  6
CONTINUOUS
 10
527.4246614706
 20
596.7148185484
 40
3.5
  0
CIRCLE
  5
483
100
AcDbEntity
  8
6_ALL_SURFS
100
AcDbCircle
 62
7
  6
CONTINUOUS
 10
777.4246614706
 20
596.7148185484
 40
3.5
  0
ARC
  5
484
100
AcDbEntity
  8
7_ALL_FEATURES
100
AcDbCircle
 62
7
  6
CONTINUOUS
 10
1527.4246614706
 20
526.6148185484
 40
4.7990381057
100
AcDbArc
 50
38.6913826582
 51
141.3086173418
  0
ARC
  5
485
100
AcDbEntity
  8
7_ALL_FEATURES
100
AcDbCircle
 62
7
  6
CONTINUOUS
 10
1277.4246614706
 20
526.6148185484
 40
4.7990381057
100
AcDbArc
 50
38.6913826582
 51
141.3086173418
  0
ARC
  5
486
100
AcDbEntity
  8
7_ALL_FEATURES
100
AcDbCircle
 62
7
  6
CONTINUOUS
 10
1027.4246614706
 20
526.6148185484
 40
4.7990381057
100
AcDbArc
 50
38.6913826582
 51
141.3086173418
  0
ARC
  5
487
100
AcDbEntity
  8
7_ALL_FEATURES
100
AcDbCircle
 62
7
  6
CONTINUOUS
 10
1527.4246614706
 20
526.6148185484
 40
4.7990381057
100
AcDbArc
 50
0.0
 51
30.0066305519
  0
ARC
  5
488
100
AcDbEntity
  8
7_ALL_FEATURES
100
AcDbCircle
 62
7
  6
CONTINUOUS
 10
1277.4246614706
 20
526.6148185484
 40
4.7990381057
100
AcDbArc
 50
0.0
 51
30.0066305519
  0
ARC
  5
489
100
AcDbEntity
  8
7_ALL_FEATURES
100
AcDbCircle
 62
7
  6
CONTINUOUS
 10
1527.4246614706
 20
526.6148185484
 40
4.7990381057
100
AcDbArc
 50
149.9933694481
 51
180.0
  0
ARC
  5
48A
100
AcDbEntity
  8
7_ALL_FEATURES
100
AcDbCircle
 62
7
  6
CONTINUOUS
 10
1027.4246614706
 20
526.6148185484
 40
4.7990381057
100
AcDbArc
 50
0.0
 51
30.0066305519
  0
ARC
  5
48B
100
AcDbEntity
  8
7_ALL_FEATURES
100
AcDbCircle
 62
7
  6
CONTINUOUS
 10
1277.4246614706
 20
526.6148185484
 40
4.7990381057
100
AcDbArc
 50
149.9933694481
 51
180.0
  0
ARC
  5
48C
100
AcDbEntity
  8
7_ALL_FEATURES
100
AcDbCircle
 62
7
  6
CONTINUOUS
 10
1027.4246614706
 20
526.6148185484
 40
4.7990381057
100
AcDbArc
 50
149.9933694481
 51
180.0
  0
ARC
  5
48D
100
AcDbEntity
  8
7_ALL_FEATURES
100
AcDbCircle
 62
7
  6
CONTINUOUS
 10
1527.4246614706
 20
526.6148185484
 40
4.7990381057
100
AcDbArc
 50
313.171184019
 51
352.8177973595
  0
ARC
  5
48E
100
AcDbEntity
  8
7_ALL_FEATURES
100
AcDbCircle
 62
7
  6
CONTINUOUS
 10
1277.4246614706
 20
526.6148185484
 40
4.7990381057
100
AcDbArc
 50
313.171184019
 51
352.8177973595
  0
ARC
  5
48F
100
AcDbEntity
  8
7_ALL_FEATURES
100
AcDbCircle
 62
7
  6
CONTINUOUS
 10
1527.4246614706
 20
526.6148185484
 40
4.7990381057
100
AcDbArc
 50
187.1822026405
 51
226.828815981
  0
ARC
  5
490
100
AcDbEntity
  8
7_ALL_FEATURES
100
AcDbCircle
 62
7
  6
CONTINUOUS
 10
1027.4246614706
 20
526.6148185484
 40
4.7990381057
100
AcDbArc
 50
313.171184019
 51
352.8177973595
  0
ARC
  5
491
100
AcDbEntity
  8
7_ALL_FEATURES
100
AcDbCircle
 62
7
  6
CONTINUOUS
 10
1277.4246614706
 20
526.6148185484
 40
4.7990381057
100
AcDbArc
 50
187.1822026405
 51
226.828815981
  0
ARC
  5
492
100
AcDbEntity
  8
7_ALL_FEATURES
100
AcDbCircle
 62
7
  6
CONTINUOUS
 10
1027.4246614706
 20
526.6148185484
 40
4.7990381057
100
AcDbArc
 50
187.1822026405
 51
226.828815981
  0
CIRCLE
  5
493
100
AcDbEntity
  8
6_ALL_SURFS
100
AcDbCircle
 62
7
  6
CONTINUOUS
 10
1027.4246614706
 20
526.6148185484
 40
3.5
  0
CIRCLE
  5
494
100
AcDbEntity
  8
6_ALL_SURFS
100
AcDbCircle
 62
7
  6
CONTINUOUS
 10
1277.4246614706
 20
526.6148185484
 40
3.5
  0
CIRCLE
  5
495
100
AcDbEntity
  8
6_ALL_SURFS
100
AcDbCircle
 62
7
  6
CONTINUOUS
 10
1527.4246614706
 20
526.6148185484
 40
3.5
  0
ARC
  5
496
100
AcDbEntity
  8
6_ALL_SURFS
100
AcDbCircle
 62
7
  6
CONTINUOUS
 10
1027.4246614706
 20
596.7148185484
 40
4.7990381057
100
AcDbArc
 50
133.171184019
 51
172.8177973595
  0
ARC
  5
497
100
AcDbEntity
  8
6_ALL_SURFS
100
AcDbCircle
 62
7
  6
CONTINUOUS
 10
1277.4246614706
 20
596.7148185484
 40
4.7990381057
100
AcDbArc
 50
180.0
 51
210.0066305519
  0
ARC
  5
498
100
AcDbEntity
  8
6_ALL_SURFS
100
AcDbCircle
 62
7
  6
CONTINUOUS
 10
1027.4246614706
 20
596.7148185484
 40
4.7990381057
100
AcDbArc
 50
329.9933694481
 51
360.0
  0
ARC
  5
499
100
AcDbEntity
  8
6_ALL_SURFS
100
AcDbCircle
 62
7
  6
CONTINUOUS
 10
1527.4246614706
 20
596.7148185484
 40
4.7990381057
100
AcDbArc
 50
180.0
 51
210.0066305519
  0
ARC
  5
49A
100
AcDbEntity
  8
6_ALL_SURFS
100
AcDbCircle
 62
7
  6
CONTINUOUS
 10
1277.4246614706
 20
596.7148185484
 40
4.7990381057
100
AcDbArc
 50
329.9933694481
 51
360.0
  0
ARC
  5
49B
100
AcDbEntity
  8
6_ALL_SURFS
100
AcDbCircle
 62
7
  6
CONTINUOUS
 10
1527.4246614706
 20
596.7148185484
 40
4.7990381057
100
AcDbArc
 50
329.9933694481
 51
360.0
  0
ARC
  5
49C
100
AcDbEntity
  8
6_ALL_SURFS
100
AcDbCircle
 62
7
  6
CONTINUOUS
 10
1277.4246614706
 20
596.7148185484
 40
4.7990381057
100
AcDbArc
 50
133.171184019
 51
172.8177973595
  0
ARC
  5
49D
100
AcDbEntity
  8
6_ALL_SURFS
100
AcDbCircle
 62
7
  6
CONTINUOUS
 10
1027.4246614706
 20
596.7148185484
 40
4.7990381057
100
AcDbArc
 50
7.1822026405
 51
46.828815981
  0
ARC
  5
49E
100
AcDbEntity
  8
6_ALL_SURFS
100
AcDbCircle
 62
7
  6
CONTINUOUS
 10
1527.4246614706
 20
596.7148185484
 40
4.7990381057
100
AcDbArc
 50
218.6913826582
 51
321.3086173418
  0
ARC
  5
49F
100
AcDbEntity
  8
6_ALL_SURFS
100
AcDbCircle
 62
7
  6
CONTINUOUS
 10
1277.4246614706
 20
596.7148185484
 40
4.7990381057
100
AcDbArc
 50
218.6913826582
 51
321.3086173418
  0
ARC
  5
4A0
100
AcDbEntity
  8
6_ALL_SURFS
100
AcDbCircle
 62
7
  6
CONTINUOUS
 10
1027.4246614706
 20
596.7148185484
 40
4.7990381057
100
AcDbArc
 50
218.6913826582
 51
321.3086173418
  0
ARC
  5
4A1
100
AcDbEntity
  8
6_ALL_SURFS
100
AcDbCircle
 62
7
  6
CONTINUOUS
 10
1527.4246614706
 20
596.7148185484
 40
4.7990381057
100
AcDbArc
 50
133.171184019
 51
172.8177973595
  0
ARC
  5
4A2
100
AcDbEntity
  8
6_ALL_SURFS
100
AcDbCircle
 62
7
  6
CONTINUOUS
 10
1277.4246614706
 20
596.7148185484
 40
4.7990381057
100
AcDbArc
 50
7.1822026405
 51
46.828815981
  0
ARC
  5
4A3
100
AcDbEntity
  8
6_ALL_SURFS
100
AcDbCircle
 62
7
  6
CONTINUOUS
 10
1527.4246614706
 20
596.7148185484
 40
4.7990381057
100
AcDbArc
 50
7.1822026405
 51
46.828815981
  0
ARC
  5
4A4
100
AcDbEntity
  8
6_ALL_SURFS
100
AcDbCircle
 62
7
  6
CONTINUOUS
 10
1027.4246614706
 20
596.7148185484
 40
4.7990381057
100
AcDbArc
 50
180.0
 51
210.0066305519
  0
CIRCLE
  5
4A5
100
AcDbEntity
  8
6_ALL_SURFS
100
AcDbCircle
 62
7
  6
CONTINUOUS
 10
1027.4246614706
 20
596.7148185484
 40
3.5
  0
CIRCLE
  5
4A6
100
AcDbEntity
  8
6_ALL_SURFS
100
AcDbCircle
 62
7
  6
CONTINUOUS
 10
1277.4246614706
 20
596.7148185484
 40
3.5
  0
CIRCLE
  5
4A7
100
AcDbEntity
  8
6_ALL_SURFS
100
AcDbCircle
 62
7
  6
CONTINUOUS
 10
1527.4246614706
 20
596.7148185484
 40
3.5
  0
SPLINE
  5
4A8
100
AcDbEntity
  8
6_ALL_SURFS
100
AcDbSpline
 62
7
  6
CONTINUOUS
 70
0
 71
3
 72
12
 73
8
 74
0
 42
0.0000001
 43
0.0000001
 44
0.0000000001
 40
0.0
 40
0.0
 40
0.0
 40
0.0
 40
0.2506175188
 40
0.5069491876
 40
0.763694762
 40
0.8854517872
 40
1.0
 40
1.0
 40
1.0
 40
1.0
 10
523.2688502694
 20
594.3148185484
 30
0.0
 10
523.3311031692
 20
594.2848547654
 30
0.0
 10
523.4540900122
 20
594.2166046142
 30
0.0
 10
523.6193867592
 20
594.0876959054
 30
0.0
 10
523.7307079554
 20
593.9396255661
 30
0.0
 10
523.7341380766
 20
593.7973659463
 30
0.0
 10
523.6995318484
 20
593.7387201475
 30
0.0
 10
523.6788949616
 20
593.7148185484
 30
0.0
  0
SPLINE
  5
4A9
100
AcDbEntity
  8
6_ALL_SURFS
100
AcDbSpline
 62
7
  6
CONTINUOUS
 70
0
 71
3
 72
12
 73
8
 74
0
 42
0.0000001
 43
0.0000001
 44
0.0000000001
 40
0.0
 40
0.0
 40
0.0
 40
0.0
 40
0.2506175188
 40
0.5069491876
 40
0.763694762
 40
0.8854517872
 40
1.0
 40
1.0
 40
1.0
 40
1.0
 10
773.2688502694
 20
594.3148185484
 30
0.0
 10
773.3311031692
 20
594.2848547654
 30
0.0
 10
773.4540900122
 20
594.2166046142
 30
0.0
 10
773.6193867592
 20
594.0876959054
 30
0.0
 10
773.7307079554
 20
593.9396255661
 30
0.0
 10
773.7341380766
 20
593.7973659463
 30
0.0
 10
773.6995318484
 20
593.7387201475
 30
0.0
 10
773.6788949616
 20
593.7148185484
 30
0.0
  0
SPLINE
  5
4AA
100
AcDbEntity
  8
6_ALL_SURFS
100
AcDbSpline
 62
7
  6
CONTINUOUS
 70
0
 71
3
 72
12
 73
8
 74
0
 42
0.0000001
 43
0.0000001
 44
0.0000000001
 40
0.0
 40
0.0
 40
0.0
 40
0.0
 40
0.1145355471
 40
0.2362940412
 40
0.4930461131
 40
0.7493806068
 40
1.0
 40
1.0
 40
1.0
 40
1.0
 10
531.1704279796
 20
593.7148185484
 30
0.0
 10
531.1497933552
 20
593.7387175272
 30
0.0
 10
531.1151861879
 20
593.7973582576
 30
0.0
 10
531.118609662
 20
593.9396177968
 30
0.0
 10
531.2299321798
 20
594.0876927407
 30
0.0
 10
531.395231178
 20
594.2166034981
 30
0.0
 10
531.5182192477
 20
594.2848545131
 30
0.0
 10
531.5804726717
 20
594.3148185484
 30
0.0
  0
SPLINE
  5
4AB
100
AcDbEntity
  8
6_ALL_SURFS
100
AcDbSpline
 62
7
  6
CONTINUOUS
 70
0
 71
3
 72
12
 73
8
 74
0
 42
0.0000001
 43
0.0000001
 44
0.0000000001
 40
0.0
 40
0.0
 40
0.0
 40
0.0
 40
0.2506175188
 40
0.5069491876
 40
0.763694762
 40
0.8854517872
 40
1.0
 40
1.0
 40
1.0
 40
1.0
 10
1023.2688502694
 20
594.3148185484
 30
0.0
 10
1023.3311031692
 20
594.2848547654
 30
0.0
 10
1023.4540900122
 20
594.2166046142
 30
0.0
 10
1023.6193867592
 20
594.0876959054
 30
0.0
 10
1023.7307079554
 20
593.9396255661
 30
0.0
 10
1023.7341380766
 20
593.7973659463
 30
0.0
 10
1023.6995318484
 20
593.7387201475
 30
0.0
 10
1023.6788949616
 20
593.7148185484
 30
0.0
  0
SPLINE
  5
4AC
100
AcDbEntity
  8
6_ALL_SURFS
100
AcDbSpline
 62
7
  6
CONTINUOUS
 70
0
 71
3
 72
12
 73
8
 74
0
 42
0.0000001
 43
0.0000001
 44
0.0000000001
 40
0.0
 40
0.0
 40
0.0
 40
0.0
 40
0.1145355471
 40
0.2362940412
 40
0.4930461131
 40
0.7493806068
 40
1.0
 40
1.0
 40
1.0
 40
1.0
 10
781.1704279796
 20
593.7148185484
 30
0.0
 10
781.1497933552
 20
593.7387175272
 30
0.0
 10
781.1151861879
 20
593.7973582576
 30
0.0
 10
781.118609662
 20
593.9396177968
 30
0.0
 10
781.2299321798
 20
594.0876927407
 30
0.0
 10
781.395231178
 20
594.2166034981
 30
0.0
 10
781.5182192477
 20
594.2848545131
 30
0.0
 10
781.5804726717
 20
594.3148185484
 30
0.0
  0
SPLINE
  5
4AD
100
AcDbEntity
  8
6_ALL_SURFS
100
AcDbSpline
 62
7
  6
CONTINUOUS
 70
0
 71
3
 72
12
 73
8
 74
0
 42
0.0000001
 43
0.0000001
 44
0.0000000001
 40
0.0
 40
0.0
 40
0.0
 40
0.0
 40
0.2506175188
 40
0.5069491876
 40
0.763694762
 40
0.8854517872
 40
1.0
 40
1.0
 40
1.0
 40
1.0
 10
1273.2688502694
 20
594.3148185484
 30
0.0
 10
1273.3311031692
 20
594.2848547654
 30
0.0
 10
1273.4540900122
 20
594.2166046142
 30
0.0
 10
1273.6193867592
 20
594.0876959054
 30
0.0
 10
1273.7307079554
 20
593.9396255661
 30
0.0
 10
1273.7341380766
 20
593.7973659463
 30
0.0
 10
1273.6995318484
 20
593.7387201475
 30
0.0
 10
1273.6788949616
 20
593.7148185484
 30
0.0
  0
SPLINE
  5
4AE
100
AcDbEntity
  8
6_ALL_SURFS
100
AcDbSpline
 62
7
  6
CONTINUOUS
 70
0
 71
3
 72
12
 73
8
 74
0
 42
0.0000001
 43
0.0000001
 44
0.0000000001
 40
0.0
 40
0.0
 40
0.0
 40
0.0
 40
0.1145355471
 40
0.2362940412
 40
0.4930461131
 40
0.7493806068
 40
1.0
 40
1.0
 40
1.0
 40
1.0
 10
1031.1704279796
 20
593.7148185484
 30
0.0
 10
1031.1497933552
 20
593.7387175272
 30
0.0
 10
1031.1151861879
 20
593.7973582576
 30
0.0
 10
1031.118609662
 20
593.9396177968
 30
0.0
 10
1031.2299321798
 20
594.0876927407
 30
0.0
 10
1031.395231178
 20
594.2166034981
 30
0.0
 10
1031.5182192477
 20
594.2848545131
 30
0.0
 10
1031.5804726717
 20
594.3148185484
 30
0.0
  0
SPLINE
  5
4AF
100
AcDbEntity
  8
6_ALL_SURFS
100
AcDbSpline
 62
7
  6
CONTINUOUS
 70
0
 71
3
 72
12
 73
8
 74
0
 42
0.0000001
 43
0.0000001
 44
0.0000000001
 40
0.0
 40
0.0
 40
0.0
 40
0.0
 40
0.2506175188
 40
0.5069491876
 40
0.763694762
 40
0.8854517872
 40
1.0
 40
1.0
 40
1.0
 40
1.0
 10
1523.2688502694
 20
594.3148185484
 30
0.0
 10
1523.3311031692
 20
594.2848547654
 30
0.0
 10
1523.4540900122
 20
594.2166046142
 30
0.0
 10
1523.6193867592
 20
594.0876959054
 30
0.0
 10
1523.7307079554
 20
593.9396255661
 30
0.0
 10
1523.7341380766
 20
593.7973659463
 30
0.0
 10
1523.6995318484
 20
593.7387201475
 30
0.0
 10
1523.6788949616
 20
593.7148185484
 30
0.0
  0
SPLINE
  5
4B0
100
AcDbEntity
  8
6_ALL_SURFS
100
AcDbSpline
 62
7
  6
CONTINUOUS
 70
0
 71
3
 72
12
 73
8
 74
0
 42
0.0000001
 43
0.0000001
 44
0.0000000001
 40
0.0
 40
0.0
 40
0.0
 40
0.0
 40
0.1145355471
 40
0.2362940412
 40
0.4930461131
 40
0.7493806068
 40
1.0
 40
1.0
 40
1.0
 40
1.0
 10
1281.1704279796
 20
593.7148185484
 30
0.0
 10
1281.1497933552
 20
593.7387175272
 30
0.0
 10
1281.1151861879
 20
593.7973582576
 30
0.0
 10
1281.118609662
 20
593.9396177968
 30
0.0
 10
1281.2299321798
 20
594.0876927407
 30
0.0
 10
1281.395231178
 20
594.2166034981
 30
0.0
 10
1281.5182192477
 20
594.2848545131
 30
0.0
 10
1281.5804726717
 20
594.3148185484
 30
0.0
  0
SPLINE
  5
4B1
100
AcDbEntity
  8
6_ALL_SURFS
100
AcDbSpline
 62
7
  6
CONTINUOUS
 70
0
 71
3
 72
12
 73
8
 74
0
 42
0.0000001
 43
0.0000001
 44
0.0000000001
 40
0.0
 40
0.0
 40
0.0
 40
0.0
 40
0.1145355471
 40
0.2362940412
 40
0.4930461131
 40
0.7493806068
 40
1.0
 40
1.0
 40
1.0
 40
1.0
 10
1531.1704279796
 20
593.7148185484
 30
0.0
 10
1531.1497933552
 20
593.7387175272
 30
0.0
 10
1531.1151861879
 20
593.7973582576
 30
0.0
 10
1531.118609662
 20
593.9396177968
 30
0.0
 10
1531.2299321798
 20
594.0876927407
 30
0.0
 10
1531.395231178
 20
594.2166034981
 30
0.0
 10
1531.5182192477
 20
594.2848545131
 30
0.0
 10
1531.5804726717
 20
594.3148185484
 30
0.0
  0
SPLINE
  5
4B2
100
AcDbEntity
  8
7_ALL_FEATURES
100
AcDbSpline
 62
7
  6
CONTINUOUS
 70
0
 71
3
 72
12
 73
8
 74
0
 42
0.0000001
 43
0.0000001
 44
0.0000000001
 40
0.0
 40
0.0
 40
0.0
 40
0.0
 40
0.1145355471
 40
0.2362940412
 40
0.4930461131
 40
0.7493806068
 40
1.0
 40
1.0
 40
1.0
 40
1.0
 10
1531.1704279796
 20
529.6148185484
 30
0.0
 10
1531.1497933552
 20
529.5909195696
 30
0.0
 10
1531.1151861879
 20
529.5322788392
 30
0.0
 10
1531.118609662
 20
529.3900192999
 30
0.0
 10
1531.2299321798
 20
529.2419443561
 30
0.0
 10
1531.395231178
 20
529.1130335987
 30
0.0
 10
1531.5182192477
 20
529.0447825837
 30
0.0
 10
1531.5804726717
 20
529.0148185484
 30
0.0
  0
SPLINE
  5
4B3
100
AcDbEntity
  8
7_ALL_FEATURES
100
AcDbSpline
 62
7
  6
CONTINUOUS
 70
0
 71
3
 72
12
 73
8
 74
0
 42
0.0000001
 43
0.0000001
 44
0.0000000001
 40
0.0
 40
0.0
 40
0.0
 40
0.0
 40
0.1145355471
 40
0.2362940412
 40
0.4930461131
 40
0.7493806068
 40
1.0
 40
1.0
 40
1.0
 40
1.0
 10
1281.1704279796
 20
529.6148185484
 30
0.0
 10
1281.1497933552
 20
529.5909195696
 30
0.0
 10
1281.1151861879
 20
529.5322788392
 30
0.0
 10
1281.118609662
 20
529.3900192999
 30
0.0
 10
1281.2299321798
 20
529.2419443561
 30
0.0
 10
1281.395231178
 20
529.1130335987
 30
0.0
 10
1281.5182192477
 20
529.0447825837
 30
0.0
 10
1281.5804726717
 20
529.0148185484
 30
0.0
  0
SPLINE
  5
4B4
100
AcDbEntity
  8
7_ALL_FEATURES
100
AcDbSpline
 62
7
  6
CONTINUOUS
 70
0
 71
3
 72
12
 73
8
 74
0
 42
0.0000001
 43
0.0000001
 44
0.0000000001
 40
0.0
 40
0.0
 40
0.0
 40
0.0
 40
0.2506175188
 40
0.5069491876
 40
0.763694762
 40
0.8854517872
 40
1.0
 40
1.0
 40
1.0
 40
1.0
 10
1523.2688502694
 20
529.0148185484
 30
0.0
 10
1523.3311031692
 20
529.0447823314
 30
0.0
 10
1523.4540900122
 20
529.1130324825
 30
0.0
 10
1523.6193867592
 20
529.2419411913
 30
0.0
 10
1523.7307079554
 20
529.3900115307
 30
0.0
 10
1523.7341380766
 20
529.5322711505
 30
0.0
 10
1523.6995318484
 20
529.5909169493
 30
0.0
 10
1523.6788949616
 20
529.6148185484
 30
0.0
  0
SPLINE
  5
4B5
100
AcDbEntity
  8
7_ALL_FEATURES
100
AcDbSpline
 62
7
  6
CONTINUOUS
 70
0
 71
3
 72
12
 73
8
 74
0
 42
0.0000001
 43
0.0000001
 44
0.0000000001
 40
0.0
 40
0.0
 40
0.0
 40
0.0
 40
0.1145355471
 40
0.2362940412
 40
0.4930461131
 40
0.7493806068
 40
1.0
 40
1.0
 40
1.0
 40
1.0
 10
1031.1704279796
 20
529.6148185484
 30
0.0
 10
1031.1497933552
 20
529.5909195696
 30
0.0
 10
1031.1151861879
 20
529.5322788392
 30
0.0
 10
1031.118609662
 20
529.3900192999
 30
0.0
 10
1031.2299321798
 20
529.2419443561
 30
0.0
 10
1031.395231178
 20
529.1130335987
 30
0.0
 10
1031.5182192477
 20
529.0447825837
 30
0.0
 10
1031.5804726717
 20
529.0148185484
 30
0.0
  0
SPLINE
  5
4B6
100
AcDbEntity
  8
7_ALL_FEATURES
100
AcDbSpline
 62
7
  6
CONTINUOUS
 70
0
 71
3
 72
12
 73
8
 74
0
 42
0.0000001
 43
0.0000001
 44
0.0000000001
 40
0.0
 40
0.0
 40
0.0
 40
0.0
 40
0.2506175188
 40
0.5069491876
 40
0.763694762
 40
0.8854517872
 40
1.0
 40
1.0
 40
1.0
 40
1.0
 10
1273.2688502694
 20
529.0148185484
 30
0.0
 10
1273.3311031692
 20
529.0447823314
 30
0.0
 10
1273.4540900122
 20
529.1130324825
 30
0.0
 10
1273.6193867592
 20
529.2419411913
 30
0.0
 10
1273.7307079554
 20
529.3900115307
 30
0.0
 10
1273.7341380766
 20
529.5322711505
 30
0.0
 10
1273.6995318484
 20
529.5909169493
 30
0.0
 10
1273.6788949616
 20
529.6148185484
 30
0.0
  0
SPLINE
  5
4B7
100
AcDbEntity
  8
7_ALL_FEATURES
100
AcDbSpline
 62
7
  6
CONTINUOUS
 70
0
 71
3
 72
12
 73
8
 74
0
 42
0.0000001
 43
0.0000001
 44
0.0000000001
 40
0.0
 40
0.0
 40
0.0
 40
0.0
 40
0.1145355471
 40
0.2362940412
 40
0.4930461131
 40
0.7493806068
 40
1.0
 40
1.0
 40
1.0
 40
1.0
 10
781.1704279796
 20
529.6148185484
 30
0.0
 10
781.1497933552
 20
529.5909195696
 30
0.0
 10
781.1151861879
 20
529.5322788392
 30
0.0
 10
781.118609662
 20
529.3900192999
 30
0.0
 10
781.2299321798
 20
529.2419443561
 30
0.0
 10
781.395231178
 20
529.1130335987
 30
0.0
 10
781.5182192477
 20
529.0447825837
 30
0.0
 10
781.5804726717
 20
529.0148185484
 30
0.0
  0
SPLINE
  5
4B8
100
AcDbEntity
  8
7_ALL_FEATURES
100
AcDbSpline
 62
7
  6
CONTINUOUS
 70
0
 71
3
 72
12
 73
8
 74
0
 42
0.0000001
 43
0.0000001
 44
0.0000000001
 40
0.0
 40
0.0
 40
0.0
 40
0.0
 40
0.2506175188
 40
0.5069491876
 40
0.763694762
 40
0.8854517872
 40
1.0
 40
1.0
 40
1.0
 40
1.0
 10
1023.2688502694
 20
529.0148185484
 30
0.0
 10
1023.3311031692
 20
529.0447823314
 30
0.0
 10
1023.4540900122
 20
529.1130324825
 30
0.0
 10
1023.6193867592
 20
529.2419411913
 30
0.0
 10
1023.7307079554
 20
529.3900115307
 30
0.0
 10
1023.7341380766
 20
529.5322711505
 30
0.0
 10
1023.6995318484
 20
529.5909169493
 30
0.0
 10
1023.6788949616
 20
529.6148185484
 30
0.0
  0
SPLINE
  5
4B9
100
AcDbEntity
  8
7_ALL_FEATURES
100
AcDbSpline
 62
7
  6
CONTINUOUS
 70
0
 71
3
 72
12
 73
8
 74
0
 42
0.0000001
 43
0.0000001
 44
0.0000000001
 40
0.0
 40
0.0
 40
0.0
 40
0.0
 40
0.1145355471
 40
0.2362940412
 40
0.4930461131
 40
0.7493806068
 40
1.0
 40
1.0
 40
1.0
 40
1.0
 10
531.1704279796
 20
529.6148185484
 30
0.0
 10
531.1497933552
 20
529.5909195696
 30
0.0
 10
531.1151861879
 20
529.5322788392
 30
0.0
 10
531.118609662
 20
529.3900192999
 30
0.0
 10
531.2299321798
 20
529.2419443561
 30
0.0
 10
531.395231178
 20
529.1130335987
 30
0.0
 10
531.5182192477
 20
529.0447825837
 30
0.0
 10
531.5804726717
 20
529.0148185484
 30
0.0
  0
SPLINE
  5
4BA
100
AcDbEntity
  8
7_ALL_FEATURES
100
AcDbSpline
 62
7
  6
CONTINUOUS
 70
0
 71
3
 72
12
 73
8
 74
0
 42
0.0000001
 43
0.0000001
 44
0.0000000001
 40
0.0
 40
0.0
 40
0.0
 40
0.0
 40
0.2506175188
 40
0.5069491876
 40
0.763694762
 40
0.8854517872
 40
1.0
 40
1.0
 40
1.0
 40
1.0
 10
773.2688502694
 20
529.0148185484
 30
0.0
 10
773.3311031692
 20
529.0447823314
 30
0.0
 10
773.4540900122
 20
529.1130324825
 30
0.0
 10
773.6193867592
 20
529.2419411913
 30
0.0
 10
773.7307079554
 20
529.3900115307
 30
0.0
 10
773.7341380766
 20
529.5322711505
 30
0.0
 10
773.6995318484
 20
529.5909169493
 30
0.0
 10
773.6788949616
 20
529.6148185484
 30
0.0
  0
SPLINE
  5
4BB
100
AcDbEntity
  8
7_ALL_FEATURES
100
AcDbSpline
 62
7
  6
CONTINUOUS
 70
0
 71
3
 72
12
 73
8
 74
0
 42
0.0000001
 43
0.0000001
 44
0.0000000001
 40
0.0
 40
0.0
 40
0.0
 40
0.0
 40
0.2506175188
 40
0.5069491876
 40
0.763694762
 40
0.8854517872
 40
1.0
 40
1.0
 40
1.0
 40
1.0
 10
523.2688502694
 20
529.0148185484
 30
0.0
 10
523.3311031692
 20
529.0447823314
 30
0.0
 10
523.4540900122
 20
529.1130324825
 30
0.0
 10
523.6193867592
 20
529.2419411913
 30
0.0
 10
523.7307079554
 20
529.3900115307
 30
0.0
 10
523.7341380766
 20
529.5322711505
 30
0.0
 10
523.6995318484
 20
529.5909169493
 30
0.0
 10
523.6788949616
 20
529.6148185484
 30
0.0
  0
SPLINE
  5
4BC
100
AcDbEntity
  8
7_ALL_FEATURES
100
AcDbSpline
 62
7
  6
CONTINUOUS
 70
0
 71
3
 72
10
 73
6
 74
0
 42
0.0000001
 43
0.0000001
 44
0.0000000001
 40
0.0
 40
0.0
 40
0.0
 40
0.0
 40
0.4959750682
 40
0.7549913453
 40
1.0
 40
1.0
 40
1.0
 40
1.0
 10
1532.2236995763
 20
526.6148185484
 30
0.0
 10
1532.1326742213
 20
526.5447471975
 30
0.0
 10
1532.0092867729
 20
526.3814351093
 30
0.0
 10
1532.0631081474
 20
526.1412576011
 30
0.0
 10
1532.1427025046
 20
526.0514465466
 30
0.0
 10
1532.1860443306
 20
526.0148185484
 30
0.0
  0
SPLINE
  5
4BD
100
AcDbEntity
  8
7_ALL_FEATURES
100
AcDbSpline
 62
7
  6
CONTINUOUS
 70
0
 71
3
 72
10
 73
6
 74
0
 42
0.0000001
 43
0.0000001
 44
0.0000000001
 40
0.0
 40
0.0
 40
0.0
 40
0.0
 40
0.4959750682
 40
0.7549913453
 40
1.0
 40
1.0
 40
1.0
 40
1.0
 10
1282.2236995763
 20
526.6148185484
 30
0.0
 10
1282.1326742213
 20
526.5447471975
 30
0.0
 10
1282.0092867729
 20
526.3814351093
 30
0.0
 10
1282.0631081474
 20
526.1412576011
 30
0.0
 10
1282.1427025046
 20
526.0514465466
 30
0.0
 10
1282.1860443306
 20
526.0148185484
 30
0.0
  0
SPLINE
  5
4BE
100
AcDbEntity
  8
7_ALL_FEATURES
100
AcDbSpline
 62
7
  6
CONTINUOUS
 70
0
 71
3
 72
10
 73
6
 74
0
 42
0.0000001
 43
0.0000001
 44
0.0000000001
 40
0.0
 40
0.0
 40
0.0
 40
0.0
 40
0.2450091721
 40
0.5040328342
 40
1.0
 40
1.0
 40
1.0
 40
1.0
 10
1522.6632786106
 20
526.0148185484
 30
0.0
 10
1522.7066205676
 20
526.0514466574
 30
0.0
 10
1522.7862161401
 20
526.1412592559
 30
0.0
 10
1522.8400358641
 20
526.3814382629
 30
0.0
 10
1522.7166473526
 20
526.54474825
 30
0.0
 10
1522.6256233649
 20
526.6148185484
 30
0.0
  0
SPLINE
  5
4BF
100
AcDbEntity
  8
7_ALL_FEATURES
100
AcDbSpline
 62
7
  6
CONTINUOUS
 70
0
 71
3
 72
10
 73
6
 74
0
 42
0.0000001
 43
0.0000001
 44
0.0000000001
 40
0.0
 40
0.0
 40
0.0
 40
0.0
 40
0.4959750682
 40
0.7549913453
 40
1.0
 40
1.0
 40
1.0
 40
1.0
 10
1032.2236995763
 20
526.6148185484
 30
0.0
 10
1032.1326742213
 20
526.5447471975
 30
0.0
 10
1032.0092867729
 20
526.3814351093
 30
0.0
 10
1032.0631081474
 20
526.1412576011
 30
0.0
 10
1032.1427025046
 20
526.0514465466
 30
0.0
 10
1032.1860443306
 20
526.0148185484
 30
0.0
  0
SPLINE
  5
4C0
100
AcDbEntity
  8
7_ALL_FEATURES
100
AcDbSpline
 62
7
  6
CONTINUOUS
 70
0
 71
3
 72
10
 73
6
 74
0
 42
0.0000001
 43
0.0000001
 44
0.0000000001
 40
0.0
 40
0.0
 40
0.0
 40
0.0
 40
0.2450091721
 40
0.5040328342
 40
1.0
 40
1.0
 40
1.0
 40
1.0
 10
1272.6632786106
 20
526.0148185484
 30
0.0
 10
1272.7066205676
 20
526.0514466574
 30
0.0
 10
1272.7862161401
 20
526.1412592559
 30
0.0
 10
1272.8400358641
 20
526.3814382629
 30
0.0
 10
1272.7166473526
 20
526.54474825
 30
0.0
 10
1272.6256233649
 20
526.6148185484
 30
0.0
  0
SPLINE
  5
4C1
100
AcDbEntity
  8
7_ALL_FEATURES
100
AcDbSpline
 62
7
  6
CONTINUOUS
 70
0
 71
3
 72
10
 73
6
 74
0
 42
0.0000001
 43
0.0000001
 44
0.0000000001
 40
0.0
 40
0.0
 40
0.0
 40
0.0
 40
0.4959750682
 40
0.7549913453
 40
1.0
 40
1.0
 40
1.0
 40
1.0
 10
782.2236995763
 20
526.6148185484
 30
0.0
 10
782.1326742213
 20
526.5447471975
 30
0.0
 10
782.0092867729
 20
526.3814351093
 30
0.0
 10
782.0631081474
 20
526.1412576011
 30
0.0
 10
782.1427025046
 20
526.0514465466
 30
0.0
 10
782.1860443306
 20
526.0148185484
 30
0.0
  0
SPLINE
  5
4C2
100
AcDbEntity
  8
7_ALL_FEATURES
100
AcDbSpline
 62
7
  6
CONTINUOUS
 70
0
 71
3
 72
10
 73
6
 74
0
 42
0.0000001
 43
0.0000001
 44
0.0000000001
 40
0.0
 40
0.0
 40
0.0
 40
0.0
 40
0.2450091721
 40
0.5040328342
 40
1.0
 40
1.0
 40
1.0
 40
1.0
 10
1022.6632786106
 20
526.0148185484
 30
0.0
 10
1022.7066205676
 20
526.0514466574
 30
0.0
 10
1022.7862161401
 20
526.1412592559
 30
0.0
 10
1022.8400358641
 20
526.3814382629
 30
0.0
 10
1022.7166473526
 20
526.54474825
 30
0.0
 10
1022.6256233649
 20
526.6148185484
 30
0.0
  0
SPLINE
  5
4C3
100
AcDbEntity
  8
7_ALL_FEATURES
100
AcDbSpline
 62
7
  6
CONTINUOUS
 70
0
 71
3
 72
10
 73
6
 74
0
 42
0.0000001
 43
0.0000001
 44
0.0000000001
 40
0.0
 40
0.0
 40
0.0
 40
0.0
 40
0.4959750682
 40
0.7549913453
 40
1.0
 40
1.0
 40
1.0
 40
1.0
 10
532.2236995763
 20
526.6148185484
 30
0.0
 10
532.1326742213
 20
526.5447471975
 30
0.0
 10
532.0092867729
 20
526.3814351093
 30
0.0
 10
532.0631081474
 20
526.1412576011
 30
0.0
 10
532.1427025046
 20
526.0514465466
 30
0.0
 10
532.1860443306
 20
526.0148185484
 30
0.0
  0
SPLINE
  5
4C4
100
AcDbEntity
  8
7_ALL_FEATURES
100
AcDbSpline
 62
7
  6
CONTINUOUS
 70
0
 71
3
 72
10
 73
6
 74
0
 42
0.0000001
 43
0.0000001
 44
0.0000000001
 40
0.0
 40
0.0
 40
0.0
 40
0.0
 40
0.2450091721
 40
0.5040328342
 40
1.0
 40
1.0
 40
1.0
 40
1.0
 10
772.6632786106
 20
526.0148185484
 30
0.0
 10
772.7066205676
 20
526.0514466574
 30
0.0
 10
772.7862161401
 20
526.1412592559
 30
0.0
 10
772.8400358641
 20
526.3814382629
 30
0.0
 10
772.7166473526
 20
526.54474825
 30
0.0
 10
772.6256233649
 20
526.6148185484
 30
0.0
  0
SPLINE
  5
4C5
100
AcDbEntity
  8
7_ALL_FEATURES
100
AcDbSpline
 62
7
  6
CONTINUOUS
 70
0
 71
3
 72
10
 73
6
 74
0
 42
0.0000001
 43
0.0000001
 44
0.0000000001
 40
0.0
 40
0.0
 40
0.0
 40
0.0
 40
0.2450091721
 40
0.5040328342
 40
1.0
 40
1.0
 40
1.0
 40
1.0
 10
522.6632786106
 20
526.0148185484
 30
0.0
 10
522.7066205676
 20
526.0514466574
 30
0.0
 10
522.7862161401
 20
526.1412592559
 30
0.0
 10
522.8400358641
 20
526.3814382629
 30
0.0
 10
522.7166473526
 20
526.54474825
 30
0.0
 10
522.6256233649
 20
526.6148185484
 30
0.0
  0
SPLINE
  5
4C6
100
AcDbEntity
  8
6_ALL_SURFS
100
AcDbSpline
 62
7
  6
CONTINUOUS
 70
0
 71
3
 72
10
 73
6
 74
0
 42
0.0000001
 43
0.0000001
 44
0.0000000001
 40
0.0
 40
0.0
 40
0.0
 40
0.0
 40
0.2450091721
 40
0.5040328342
 40
1.0
 40
1.0
 40
1.0
 40
1.0
 10
522.6632786106
 20
597.3148185484
 30
0.0
 10
522.7066205676
 20
597.2781904394
 30
0.0
 10
522.7862161401
 20
597.1883778409
 30
0.0
 10
522.8400358641
 20
596.9481988339
 30
0.0
 10
522.7166473526
 20
596.7848888468
 30
0.0
 10
522.6256233649
 20
596.7148185484
 30
0.0
  0
SPLINE
  5
4C7
100
AcDbEntity
  8
6_ALL_SURFS
100
AcDbSpline
 62
7
  6
CONTINUOUS
 70
0
 71
3
 72
10
 73
6
 74
0
 42
0.0000001
 43
0.0000001
 44
0.0000000001
 40
0.0
 40
0.0
 40
0.0
 40
0.0
 40
0.2450091721
 40
0.5040328342
 40
1.0
 40
1.0
 40
1.0
 40
1.0
 10
772.6632786106
 20
597.3148185484
 30
0.0
 10
772.7066205676
 20
597.2781904394
 30
0.0
 10
772.7862161401
 20
597.1883778409
 30
0.0
 10
772.8400358641
 20
596.9481988339
 30
0.0
 10
772.7166473526
 20
596.7848888468
 30
0.0
 10
772.6256233649
 20
596.7148185484
 30
0.0
  0
SPLINE
  5
4C8
100
AcDbEntity
  8
6_ALL_SURFS
100
AcDbSpline
 62
7
  6
CONTINUOUS
 70
0
 71
3
 72
10
 73
6
 74
0
 42
0.0000001
 43
0.0000001
 44
0.0000000001
 40
0.0
 40
0.0
 40
0.0
 40
0.0
 40
0.4959750682
 40
0.7549913453
 40
1.0
 40
1.0
 40
1.0
 40
1.0
 10
532.2236995763
 20
596.7148185484
 30
0.0
 10
532.1326742213
 20
596.7848898993
 30
0.0
 10
532.0092867729
 20
596.9482019875
 30
0.0
 10
532.0631081474
 20
597.1883794957
 30
0.0
 10
532.1427025046
 20
597.2781905501
 30
0.0
 10
532.1860443306
 20
597.3148185484
 30
0.0
  0
SPLINE
  5
4C9
100
AcDbEntity
  8
6_ALL_SURFS
100
AcDbSpline
 62
7
  6
CONTINUOUS
 70
0
 71
3
 72
10
 73
6
 74
0
 42
0.0000001
 43
0.0000001
 44
0.0000000001
 40
0.0
 40
0.0
 40
0.0
 40
0.0
 40
0.2450091721
 40
0.5040328342
 40
1.0
 40
1.0
 40
1.0
 40
1.0
 10
1022.6632786106
 20
597.3148185484
 30
0.0
 10
1022.7066205676
 20
597.2781904394
 30
0.0
 10
1022.7862161401
 20
597.1883778409
 30
0.0
 10
1022.8400358641
 20
596.9481988339
 30
0.0
 10
1022.7166473526
 20
596.7848888468
 30
0.0
 10
1022.6256233649
 20
596.7148185484
 30
0.0
  0
SPLINE
  5
4CA
100
AcDbEntity
  8
6_ALL_SURFS
100
AcDbSpline
 62
7
  6
CONTINUOUS
 70
0
 71
3
 72
10
 73
6
 74
0
 42
0.0000001
 43
0.0000001
 44
0.0000000001
 40
0.0
 40
0.0
 40
0.0
 40
0.0
 40
0.4959750682
 40
0.7549913453
 40
1.0
 40
1.0
 40
1.0
 40
1.0
 10
782.2236995763
 20
596.7148185484
 30
0.0
 10
782.1326742213
 20
596.7848898993
 30
0.0
 10
782.0092867729
 20
596.9482019875
 30
0.0
 10
782.0631081474
 20
597.1883794957
 30
0.0
 10
782.1427025046
 20
597.2781905501
 30
0.0
 10
782.1860443306
 20
597.3148185484
 30
0.0
  0
SPLINE
  5
4CB
100
AcDbEntity
  8
6_ALL_SURFS
100
AcDbSpline
 62
7
  6
CONTINUOUS
 70
0
 71
3
 72
10
 73
6
 74
0
 42
0.0000001
 43
0.0000001
 44
0.0000000001
 40
0.0
 40
0.0
 40
0.0
 40
0.0
 40
0.2450091721
 40
0.5040328342
 40
1.0
 40
1.0
 40
1.0
 40
1.0
 10
1272.6632786106
 20
597.3148185484
 30
0.0
 10
1272.7066205676
 20
597.2781904394
 30
0.0
 10
1272.7862161401
 20
597.1883778409
 30
0.0
 10
1272.8400358641
 20
596.9481988339
 30
0.0
 10
1272.7166473526
 20
596.7848888468
 30
0.0
 10
1272.6256233649
 20
596.7148185484
 30
0.0
  0
SPLINE
  5
4CC
100
AcDbEntity
  8
6_ALL_SURFS
100
AcDbSpline
 62
7
  6
CONTINUOUS
 70
0
 71
3
 72
10
 73
6
 74
0
 42
0.0000001
 43
0.0000001
 44
0.0000000001
 40
0.0
 40
0.0
 40
0.0
 40
0.0
 40
0.4959750682
 40
0.7549913453
 40
1.0
 40
1.0
 40
1.0
 40
1.0
 10
1032.2236995763
 20
596.7148185484
 30
0.0
 10
1032.1326742213
 20
596.7848898993
 30
0.0
 10
1032.0092867729
 20
596.9482019875
 30
0.0
 10
1032.0631081474
 20
597.1883794957
 30
0.0
 10
1032.1427025046
 20
597.2781905501
 30
0.0
 10
1032.1860443306
 20
597.3148185484
 30
0.0
  0
SPLINE
  5
4CD
100
AcDbEntity
  8
6_ALL_SURFS
100
AcDbSpline
 62
7
  6
CONTINUOUS
 70
0
 71
3
 72
10
 73
6
 74
0
 42
0.0000001
 43
0.0000001
 44
0.0000000001
 40
0.0
 40
0.0
 40
0.0
 40
0.0
 40
0.2450091721
 40
0.5040328342
 40
1.0
 40
1.0
 40
1.0
 40
1.0
 10
1522.6632786106
 20
597.3148185484
 30
0.0
 10
1522.7066205676
 20
597.2781904394
 30
0.0
 10
1522.7862161401
 20
597.1883778409
 30
0.0
 10
1522.8400358641
 20
596.9481988339
 30
0.0
 10
1522.7166473526
 20
596.7848888468
 30
0.0
 10
1522.6256233649
 20
596.7148185484
 30
0.0
  0
SPLINE
  5
4CE
100
AcDbEntity
  8
6_ALL_SURFS
100
AcDbSpline
 62
7
  6
CONTINUOUS
 70
0
 71
3
 72
10
 73
6
 74
0
 42
0.0000001
 43
0.0000001
 44
0.0000000001
 40
0.0
 40
0.0
 40
0.0
 40
0.0
 40
0.4959750682
 40
0.7549913453
 40
1.0
 40
1.0
 40
1.0
 40
1.0
 10
1282.2236995763
 20
596.7148185484
 30
0.0
 10
1282.1326742213
 20
596.7848898993
 30
0.0
 10
1282.0092867729
 20
596.9482019875
 30
0.0
 10
1282.0631081474
 20
597.1883794957
 30
0.0
 10
1282.1427025046
 20
597.2781905501
 30
0.0
 10
1282.1860443306
 20
597.3148185484
 30
0.0
  0
SPLINE
  5
4CF
100
AcDbEntity
  8
6_ALL_SURFS
100
AcDbSpline
 62
7
  6
CONTINUOUS
 70
0
 71
3
 72
10
 73
6
 74
0
 42
0.0000001
 43
0.0000001
 44
0.0000000001
 40
0.0
 40
0.0
 40
0.0
 40
0.0
 40
0.4959750682
 40
0.7549913453
 40
1.0
 40
1.0
 40
1.0
 40
1.0
 10
1532.2236995763
 20
596.7148185484
 30
0.0
 10
1532.1326742213
 20
596.7848898993
 30
0.0
 10
1532.0092867729
 20
596.9482019875
 30
0.0
 10
1532.0631081474
 20
597.1883794957
 30
0.0
 10
1532.1427025046
 20
597.2781905501
 30
0.0
 10
1532.1860443306
 20
597.3148185484
 30
0.0
  0
ELLIPSE
  5
4D0
100
AcDbEntity
  8
6_ALL_SURFS
100
AcDbEllipse
 62
7
  6
CONTINUOUS
 10
1527.4246614706
 20
295.7752670882
 30
0.0
 11
3.5
 21
-0.0
 31
0.0
 40
0.5
 41
-1.910488903
 42
-1.2311037506
  0
ELLIPSE
  5
4D1
100
AcDbEntity
  8
6_ALL_SURFS
100
AcDbEllipse
 62
7
  6
CONTINUOUS
 10
1277.4246614706
 20
295.7752670882
 30
0.0
 11
3.5
 21
-0.0
 31
0.0
 40
0.5
 41
-1.910488903
 42
-1.2311037506
  0
ELLIPSE
  5
4D2
100
AcDbEntity
  8
6_ALL_SURFS
100
AcDbEllipse
 62
7
  6
CONTINUOUS
 10
1027.4246614706
 20
295.7752670882
 30
0.0
 11
3.5
 21
-0.0
 31
0.0
 40
0.5
 41
-1.910488903
 42
-1.2311037506
  0
ELLIPSE
  5
4D3
100
AcDbEntity
  8
6_ALL_SURFS
100
AcDbEllipse
 62
7
  6
CONTINUOUS
 10
777.4246614706
 20
295.7752670882
 30
0.0
 11
3.5
 21
-0.0
 31
0.0
 40
0.5
 41
-1.910488903
 42
-1.2311037506
  0
ELLIPSE
  5
4D4
100
AcDbEntity
  8
6_ALL_SURFS
100
AcDbEllipse
 62
7
  6
CONTINUOUS
 10
527.4246614706
 20
295.7752670882
 30
0.0
 11
3.5
 21
-0.0
 31
0.0
 40
0.5
 41
4.3726964042
 42
5.0520815566
  0
ELLIPSE
  5
4D5
100
AcDbEntity
  8
6_ALL_SURFS
100
AcDbEllipse
 62
7
  6
CONTINUOUS
 10
527.4246614706
 20
292.528749791
 30
0.0
 11
5.4882058378
 21
0.0
 31
0.0
 40
0.1015346165
 41
0.9294607698
 42
2.2121318838
  0
ELLIPSE
  5
4D6
100
AcDbEntity
  8
6_ALL_SURFS
100
AcDbEllipse
 62
7
  6
CONTINUOUS
 10
777.4246614706
 20
292.528749791
 30
0.0
 11
5.4882058378
 21
0.0
 31
0.0
 40
0.1015346165
 41
0.9294607698
 42
2.2121318838
  0
ELLIPSE
  5
4D7
100
AcDbEntity
  8
6_ALL_SURFS
100
AcDbEllipse
 62
7
  6
CONTINUOUS
 10
1027.4246614706
 20
292.528749791
 30
0.0
 11
5.4882058378
 21
0.0
 31
0.0
 40
0.1015346165
 41
0.9294607698
 42
2.2121318838
  0
ELLIPSE
  5
4D8
100
AcDbEntity
  8
6_ALL_SURFS
100
AcDbEllipse
 62
7
  6
CONTINUOUS
 10
1277.4246614706
 20
292.528749791
 30
0.0
 11
5.4882058378
 21
0.0
 31
0.0
 40
0.1015346165
 41
0.9294607698
 42
2.2121318838
  0
ELLIPSE
  5
4D9
100
AcDbEntity
  8
6_ALL_SURFS
100
AcDbEllipse
 62
7
  6
CONTINUOUS
 10
1527.4246614706
 20
292.528749791
 30
0.0
 11
5.4882058378
 21
0.0
 31
0.0
 40
0.1015346165
 41
0.9294607698
 42
2.2121318838
  0
ELLIPSE
  5
4DA
100
AcDbEntity
  8
6_ALL_SURFS
100
AcDbEllipse
 62
7
  6
CONTINUOUS
 10
1527.4246614706
 20
595.7496455766
 30
0.0
 11
0.0
 21
5.5724287509
 31
0.0
 40
0.9848857802
 41
-0.641335557
 42
0.641335557
  0
ELLIPSE
  5
4DB
100
AcDbEntity
  8
7_ALL_FEATURES
100
AcDbEllipse
 62
7
  6
CONTINUOUS
 10
527.4246614706
 20
527.5799915202
 30
0.0
 11
0.0
 21
5.5724287509
 31
0.0
 40
0.9848857802
 41
2.5002570966
 42
3.7829282106
  0
ELLIPSE
  5
4DC
100
AcDbEntity
  8
7_ALL_FEATURES
100
AcDbEllipse
 62
7
  6
CONTINUOUS
 10
777.4246614706
 20
527.5799915202
 30
0.0
 11
-0.0
 21
5.5724287509
 31
0.0
 40
0.9848857802
 41
2.5002570966
 42
3.7829282106
  0
ELLIPSE
  5
4DD
100
AcDbEntity
  8
7_ALL_FEATURES
100
AcDbEllipse
 62
7
  6
CONTINUOUS
 10
1027.4246614706
 20
527.5799915202
 30
0.0
 11
0.0
 21
5.5724287509
 31
0.0
 40
0.9848857802
 41
2.5002570966
 42
3.7829282106
  0
ELLIPSE
  5
4DE
100
AcDbEntity
  8
7_ALL_FEATURES
100
AcDbEllipse
 62
7
  6
CONTINUOUS
 10
1277.4246614706
 20
527.5799915202
 30
0.0
 11
-0.0
 21
5.5724287509
 31
0.0
 40
0.9848857802
 41
2.5002570966
 42
3.7829282106
  0
ELLIPSE
  5
4DF
100
AcDbEntity
  8
7_ALL_FEATURES
100
AcDbEllipse
 62
7
  6
CONTINUOUS
 10
1527.4246614706
 20
527.5799915202
 30
0.0
 11
-0.0
 21
5.5724287509
 31
0.0
 40
0.9848857802
 41
2.5002570966
 42
3.7829282106
  0
ELLIPSE
  5
4E0
100
AcDbEntity
  8
6_ALL_SURFS
100
AcDbEllipse
 62
7
  6
CONTINUOUS
 10
527.4246614706
 20
595.7496455766
 30
0.0
 11
0.0
 21
5.5724287509
 31
0.0
 40
0.9848857802
 41
-0.641335557
 42
0.641335557
  0
ELLIPSE
  5
4E1
100
AcDbEntity
  8
6_ALL_SURFS
100
AcDbEllipse
 62
7
  6
CONTINUOUS
 10
777.4246614706
 20
595.7496455766
 30
0.0
 11
-0.0
 21
5.5724287509
 31
0.0
 40
0.9848857802
 41
-0.641335557
 42
0.641335557
  0
ELLIPSE
  5
4E2
100
AcDbEntity
  8
6_ALL_SURFS
100
AcDbEllipse
 62
7
  6
CONTINUOUS
 10
1027.4246614706
 20
595.7496455766
 30
0.0
 11
-0.0
 21
5.5724287509
 31
0.0
 40
0.9848857802
 41
-0.641335557
 42
0.641335557
  0
ELLIPSE
  5
4E3
100
AcDbEntity
  8
6_ALL_SURFS
100
AcDbEllipse
 62
7
  6
CONTINUOUS
 10
1277.4246614706
 20
595.7496455766
 30
0.0
 11
-0.0
 21
5.5724287509
 31
0.0
 40
0.9848857802
 41
5.6418497502
 42
6.9245208642
  0
ENDSEC
  0
SECTION
  2
OBJECTS
  0
DICTIONARY
  5
4E4
100
AcDbDictionary
  3
ACAD_GROUP
350
4E5
  3
ACAD_MLINESTYLE
350
4E6
  0
DICTIONARY
  5
4E5
102
{ACAD_REACTORS
330
4E4
102
}
100
AcDbDictionary
  0
DICTIONARY
  5
4E6
102
{ACAD_REACTORS
330
4E4
102
}
100
AcDbDictionary
  3
STANDARD
350
4E7
  0
MLINESTYLE
  5
4E7
102
{ACAD_REACTORS
330
4E6
102
}
100
AcDbMlineStyle
  2
STANDARD
 70
0
  3

 62
256
 51
90.0
 52
90.0
 71
2
 49
0.5
 62
256
  6
BYLAYER
 49
-0.5
 62
256
  6
BYLAYER
  0
ENDSEC
  0
EOF
