999
DXF file: 6f3_c_049.dxf
999
Pro/ENGINEER 2016360 by Parametric Technology Corporation
  0
SECTION
  2
HEADER
  9
$ACADVER
  1
AC1014
  9
$DWGCODEPAGE
  3
ANSI_1252
  9
$EXTMAX
 10
1189.0
 20
841.0
 30
0.0
  9
$EXTMIN
 10
0.0
 20
0.0
 30
0.0
  9
$LIMMIN
 10
0.0
 20
0.0
  9
$LIMMAX
 10
1189.0
 20
841.0
  9
$VIEWCTR
 10
594.5
 20
420.5
  9
$VIEWSIZE
 40
841.0
  9
$CLAYER
  8
0
  9
$LTSCALE
 40
65.395
  9
$CELTYPE
  6
BYLAYER
  9
$DIMSCALE
 40
1.0
  9
$DIMASZ
 40
2.5
  9
$DIMEXO
 40
0.75
  9
$DIMDLI
 40
45.182
  9
$DIMEXE
 40
0.75
  9
$DIMCEN
 40
10.701
  9
$DIMLFAC
 40
1.0
  9
$DIMBLK
  1
_CLOSED
  9
$DIMALT
 70
0
  9
$DIMALTF
 40
25.4
  9
$DIMTXT
 40
3.0
  9
$DIMTOL
 70
1
  9
$DIMLIM
 70
0
  9
$DIMTFAC
 40
1.0
  9
$DIMTP
 40
0.01
  9
$DIMTM
 40
0.01
  9
$DIMGAP
 40
0.625
  9
$AUNITS
 70
0
  9
$PDMODE
 70
3
  9
$PDSIZE
 40
0.3125
  9
$HANDSEED
  5
4C7
  9
$TILEMODE
 70
1
  9
$MEASUREMENT
 70
1
  0
ENDSEC
  0
SECTION
  2
CLASSES
  0
ENDSEC
  0
SECTION
  2
TABLES
  0
TABLE
  2
VPORT
  5
8
100
AcDbSymbolTable
 70
2
  0
VPORT
  5
1F4
100
AcDbSymbolTableRecord
100
AcDbViewportTableRecord
  2
*ACTIVE
 70
0
 10
0.0
 20
0.0
 11
1.0
 21
1.0
 12
594.5
 22
420.5
 13
0.0
 23
0.0
 14
1.0
 24
1.0
 15
0.0
 25
0.0
 16
0.0
 26
0.0
 36
1.0
 17
0.0
 27
0.0
 37
0.0
 40
841.0
 41
1.4137931034
 42
50.0
 43
0.0
 44
0.0
 50
0.0
 51
0.0
 71
0
 72
100
 73
1
 74
1
 75
0
 76
0
 77
0
 78
0
  0
ENDTAB
  0
TABLE
  2
LTYPE
  5
5
100
AcDbSymbolTable
 70
6
  0
LTYPE
  5
14
100
AcDbSymbolTableRecord
100
AcDbLinetypeTableRecord
  2
BYBLOCK
 70
0
  3

 72
65
 73
0
 40
0.0
  0
LTYPE
  5
15
100
AcDbSymbolTableRecord
100
AcDbLinetypeTableRecord
  2
BYLAYER
 70
0
  3

 72
65
 73
0
 40
0.0
  0
LTYPE
  5
16
100
AcDbSymbolTableRecord
100
AcDbLinetypeTableRecord
  2
CONTINUOUS
 70
64
  3
Solid line
 72
65
 73
0
 40
0.0
  0
LTYPE
  5
1F5
100
AcDbSymbolTableRecord
100
AcDbLinetypeTableRecord
  2
CENTER
 70
64
  3
____ _ ____ _ ____ _ ____ _ ____ _ ____ _ ____
 72
65
 73
4
 40
0.6
 49
0.375
 74
0
 49
-0.075
 74
0
 49
0.075
 74
0
 49
-0.075
 74
0
  0
LTYPE
  5
1F6
100
AcDbSymbolTableRecord
100
AcDbLinetypeTableRecord
  2
HIDDEN
 70
64
  3
- - - - - - - - - - - - - - - - - - - -
 72
65
 73
2
 40
0.2
 49
0.1
 74
0
 49
-0.1
 74
0
  0
LTYPE
  5
1F7
100
AcDbSymbolTableRecord
100
AcDbLinetypeTableRecord
  2
PHANTOM
 70
64
  3
_____ _ _ _____ _ _ _____ _ _ _____
 72
65
 73
6
 40
0.8
 49
0.45
 74
0
 49
-0.05
 74
0
 49
0.1
 74
0
 49
-0.05
 74
0
 49
0.1
 74
0
 49
-0.05
 74
0
  0
LTYPE
  5
1F8
100
AcDbSymbolTableRecord
100
AcDbLinetypeTableRecord
  2
DOT
 70
64
  3
. . . . . . . . . . . . . . . . . . . .
 72
65
 73
2
 40
0.2
 49
0.1
 74
0
 49
-0.1
 74
0
  0
LTYPE
  5
1F9
100
AcDbSymbolTableRecord
100
AcDbLinetypeTableRecord
  2
DASHED
 70
64
  3
- - - - - - - - - - - - - - - - - - - -
 72
65
 73
2
 40
0.2
 49
0.1
 74
0
 49
-0.1
 74
0
  0
ENDTAB
  0
TABLE
  2
LAYER
  5
2
100
AcDbSymbolTable
 70
36
  0
LAYER
  5
10
100
AcDbSymbolTableRecord
100
AcDbLayerTableRecord
  2
0
 70
0
 62
7
  6
CONTINUOUS
  0
LAYER
  5
1FA
100
AcDbSymbolTableRecord
100
AcDbLayerTableRecord
  2
DEFAULT_1
 70
0
 62
7
  6
CENTER
  0
LAYER
  5
1FB
100
AcDbSymbolTableRecord
100
AcDbLayerTableRecord
  2
DEFAULT_2
 70
0
 62
8
  6
HIDDEN
  0
LAYER
  5
1FC
100
AcDbSymbolTableRecord
100
AcDbLayerTableRecord
  2
DEFAULT_3
 70
0
 62
7
  6
PHANTOM
  0
LAYER
  5
1FD
100
AcDbSymbolTableRecord
100
AcDbLayerTableRecord
  2
1_ALL_PLANES
 70
0
 62
7
  6
CONTINUOUS
  0
LAYER
  5
1FE
100
AcDbSymbolTableRecord
100
AcDbLayerTableRecord
  2
2_ALL_CSYS
 70
0
 62
7
  6
CONTINUOUS
  0
LAYER
  5
1FF
100
AcDbSymbolTableRecord
100
AcDbLayerTableRecord
  2
3_ALL_AXES
 70
0
 62
7
  6
CONTINUOUS
  0
LAYER
  5
200
100
AcDbSymbolTableRecord
100
AcDbLayerTableRecord
  2
4_ALL_POINTS
 70
0
 62
7
  6
CONTINUOUS
  0
LAYER
  5
201
100
AcDbSymbolTableRecord
100
AcDbLayerTableRecord
  2
5_ALL_CURVES
 70
0
 62
7
  6
CONTINUOUS
  0
LAYER
  5
202
100
AcDbSymbolTableRecord
100
AcDbLayerTableRecord
  2
5__COSTRUZIONE
 70
0
 62
7
  6
CONTINUOUS
  0
LAYER
  5
203
100
AcDbSymbolTableRecord
100
AcDbLayerTableRecord
  2
6_ALL_SURFS
 70
0
 62
7
  6
CONTINUOUS
  0
LAYER
  5
204
100
AcDbSymbolTableRecord
100
AcDbLayerTableRecord
  2
7_ALL_FEATURES
 70
0
 62
7
  6
CONTINUOUS
  0
LAYER
  5
205
100
AcDbSymbolTableRecord
100
AcDbLayerTableRecord
  2
9_SOLID
 70
0
 62
7
  6
CONTINUOUS
  0
LAYER
  5
206
100
AcDbSymbolTableRecord
100
AcDbLayerTableRecord
  2
PR9034
 70
0
 62
7
  6
CONTINUOUS
  0
LAYER
  5
207
100
AcDbSymbolTableRecord
100
AcDbLayerTableRecord
  2
WHITE
 70
0
 62
7
  6
CONTINUOUS
  0
LAYER
  5
208
100
AcDbSymbolTableRecord
100
AcDbLayerTableRecord
  2
XXX_SOLIDO
 70
0
 62
7
  6
CONTINUOUS
  0
ENDTAB
  0
TABLE
  2
STYLE
  5
3
100
AcDbSymbolTable
 70
1
  0
STYLE
  5
11
100
AcDbSymbolTableRecord
100
AcDbTextStyleTableRecord
  2
STANDARD
 70
0
 40
0.0
 41
1.0
 50
0.0
 71
0
 42
0.2
  3
arial.ttf
  4

  0
STYLE
  5
209
100
AcDbSymbolTableRecord
100
AcDbTextStyleTableRecord
  2
TEXTSTYLE_1
 70
0
 40
0.0
 41
0.8
 50
0.0
 71
0
 42
0.2
  3
gdt
  4

  0
STYLE
  5
20A
100
AcDbSymbolTableRecord
100
AcDbTextStyleTableRecord
  2
TEXTSTYLE_2
 70
0
 40
0.0
 41
0.85
 50
0.0
 71
0
 42
0.2
  3
txt
  4

  0
ENDTAB
  0
TABLE
  2
VIEW
  5
6
100
AcDbSymbolTable
 70
0
  0
ENDTAB
  0
TABLE
  2
UCS
  5
7
100
AcDbSymbolTable
 70
0
  0
ENDTAB
  0
TABLE
  2
APPID
  5
9
100
AcDbSymbolTable
 70
1
  0
APPID
  5
20B
100
AcDbSymbolTableRecord
100
AcDbRegAppTableRecord
  2
ACAD
 70
0
  0
ENDTAB
  0
TABLE
  2
BLOCK_RECORD
  5
1
100
AcDbSymbolTable
 70
0
  0
BLOCK_RECORD
  5
1F
100
AcDbSymbolTableRecord
100
AcDbBlockTableRecord
  2
*MODEL_SPACE
  0
BLOCK_RECORD
  5
1B
100
AcDbSymbolTableRecord
100
AcDbBlockTableRecord
  2
*PAPER_SPACE
  0
BLOCK_RECORD
  5
20C
100
AcDbSymbolTableRecord
100
AcDbBlockTableRecord
  2
_CLOSED
  0
BLOCK_RECORD
  5
20D
100
AcDbSymbolTableRecord
100
AcDbBlockTableRecord
  2
*D0
  0
BLOCK_RECORD
  5
20E
100
AcDbSymbolTableRecord
100
AcDbBlockTableRecord
  2
*D1
  0
BLOCK_RECORD
  5
20F
100
AcDbSymbolTableRecord
100
AcDbBlockTableRecord
  2
*D2
  0
BLOCK_RECORD
  5
210
100
AcDbSymbolTableRecord
100
AcDbBlockTableRecord
  2
*D3
  0
BLOCK_RECORD
  5
211
100
AcDbSymbolTableRecord
100
AcDbBlockTableRecord
  2
LOGO2_BL0
  0
ENDTAB
  0
TABLE
  2
DIMSTYLE
  5
A
100
AcDbSymbolTable
 70
1
  0
DIMSTYLE
105
212
100
AcDbSymbolTableRecord
100
AcDbDimStyleTableRecord
  2
STANDARD
 70
0
  3

  4

  5
_CLOSED
  6
_CLOSED
  7
_CLOSED
 40
1.0
 41
2.5
 42
0.75
 43
0.38
 44
0.75
 45
0.0
 46
0.0
 47
0.01
 48
0.01
140
3.0
141
0.09
142
0.0
143
25.4
144
1.0
145
0.0
146
1.0
147
0.625
 71
1.0
 72
0.0
 73
0
 74
0
 75
0
 76
0
 77
1
 78
8
 79
2
170
0
171
1
172
0
173
0
174
0
175
0
176
0
177
0
178
0
270
2
179
2
271
2
272
2
273
2
274
2
275
0
280
0
281
0
282
0
283
1
284
8
285
0
286
0
287
3
288
0
340
11
  0
DIMSTYLE
105
213
100
AcDbSymbolTableRecord
100
AcDbDimStyleTableRecord
  2
DIMSTYLE_1
 70
0
  3

  4

  5
_CLOSED
  6
_CLOSED
  7
_CLOSED
 40
1.0
 41
2.5
 42
0.75
 43
0.38
 44
0.75
 45
0.0
 46
0.0
 47
0.3
 48
0.3
140
8.0
141
0.09
142
0.0
143
25.4
144
1.0
145
0.0
146
1.0
147
2.0
 71
0.0
 72
0.0
 73
0
 74
0
 75
0
 76
0
 77
1
 78
8
 79
2
170
0
171
1
172
0
173
0
174
0
175
0
176
0
177
0
178
0
270
2
179
2
271
2
272
2
273
2
274
2
275
0
280
0
281
0
282
0
283
1
284
8
285
0
286
0
287
3
288
0
340
11
  0
DIMSTYLE
105
214
100
AcDbSymbolTableRecord
100
AcDbDimStyleTableRecord
  2
DIMSTYLE_2
 70
0
  3

  4

  5
_CLOSED
  6
_CLOSED
  7
_CLOSED
 40
1.0
 41
2.5
 42
0.75
 43
0.38
 44
0.75
 45
0.0
 46
0.0
 47
0.8
 48
0.8
140
8.0
141
0.09
142
0.0
143
25.4
144
1.0
145
0.0
146
1.0
147
2.0
 71
0.0
 72
0.0
 73
0
 74
0
 75
0
 76
0
 77
1
 78
8
 79
2
170
0
171
1
172
0
173
0
174
0
175
0
176
0
177
0
178
0
270
2
179
2
271
2
272
2
273
2
274
2
275
0
280
0
281
0
282
0
283
1
284
8
285
0
286
0
287
3
288
0
340
11
  0
ENDTAB
  0
ENDSEC
  0
SECTION
  2
BLOCKS
  0
BLOCK
  5
20
100
AcDbEntity
  8
0
100
AcDbBlockBegin
  2
*MODEL_SPACE
 70
0
 10
0.0
 20
0.0
 30
0.0
  3
*MODEL_SPACE
  1

  0
ENDBLK
  5
21
100
AcDbEntity
  8
0
100
AcDbBlockEnd
  0
BLOCK
  5
1C
100
AcDbEntity
  8
0
100
AcDbBlockBegin
  2
*PAPER_SPACE
 70
0
 10
0.0
 20
0.0
 30
0.0
  3
*PAPER_SPACE
  1

  0
ENDBLK
  5
1D
100
AcDbEntity
  8
0
100
AcDbBlockEnd
  0
BLOCK
  5
215
100
AcDbEntity
  8
0
100
AcDbBlockBegin
 62
2
  6
CONTINUOUS
  2
LOGO2_BL0
 70
64
 10
1089.1478106897
 20
42.1141346962
  3
LOGO2_BL0
  1

  0
LINE
  5
216
100
AcDbEntity
  8
0
100
AcDbLine
 62
7
  6
CONTINUOUS
 10
1080.890735918
 20
45.3096260351
 11
1079.5863949886
 21
45.3096260351
  0
LINE
  5
217
100
AcDbEntity
  8
0
100
AcDbLine
 62
7
  6
CONTINUOUS
 10
1079.5863949886
 20
45.3096260351
 11
1079.5863949886
 21
34.8505599752
  0
LINE
  5
218
100
AcDbEntity
  8
0
100
AcDbLine
 62
7
  6
CONTINUOUS
 10
1079.5863949886
 20
34.8505599752
 11
1084.0674498769
 21
34.8505599752
  0
LINE
  5
219
100
AcDbEntity
  8
0
100
AcDbLine
 62
7
  6
CONTINUOUS
 10
1084.0674498769
 20
34.8505599752
 11
1084.0674498769
 21
36.0434143003
  0
LINE
  5
21A
100
AcDbEntity
  8
0
100
AcDbLine
 62
7
  6
CONTINUOUS
 10
1084.0674498769
 20
36.0434143003
 11
1080.890735918
 21
36.0434143003
  0
LINE
  5
21B
100
AcDbEntity
  8
0
100
AcDbLine
 62
7
  6
CONTINUOUS
 10
1080.890735918
 20
36.0434143003
 11
1080.890735918
 21
45.3096260351
  0
LINE
  5
21C
100
AcDbEntity
  8
0
100
AcDbLine
 62
7
  6
CONTINUOUS
 10
1095.8270621343
 20
45.3096260351
 11
1094.5232446162
 21
45.3096260351
  0
LINE
  5
21D
100
AcDbEntity
  8
0
100
AcDbLine
 62
7
  6
CONTINUOUS
 10
1094.5232446162
 20
45.3096260351
 11
1094.5232446162
 21
34.8505599752
  0
LINE
  5
21E
100
AcDbEntity
  8
0
100
AcDbLine
 62
7
  6
CONTINUOUS
 10
1094.5232446162
 20
34.8505599752
 11
1099.0044303573
 21
34.8505599752
  0
LINE
  5
21F
100
AcDbEntity
  8
0
100
AcDbLine
 62
7
  6
CONTINUOUS
 10
1099.0044303573
 20
34.8505599752
 11
1099.0044303573
 21
36.0434143003
  0
LINE
  5
220
100
AcDbEntity
  8
0
100
AcDbLine
 62
7
  6
CONTINUOUS
 10
1099.0044303573
 20
36.0434143003
 11
1095.8270621343
 21
36.0434143003
  0
LINE
  5
221
100
AcDbEntity
  8
0
100
AcDbLine
 62
7
  6
CONTINUOUS
 10
1095.8270621343
 20
36.0434143003
 11
1095.8270621343
 21
45.3096260351
  0
LWPOLYLINE
  5
222
100
AcDbEntity
  8
0
100
AcDbPolyline
 62
7
  6
CONTINUOUS
 90
2
 70
0
 43
0.2
 10
1077.9407898995
 20
31.5070086683
 10
1077.9407898995
 20
29.6499454189
  0
LWPOLYLINE
  5
223
100
AcDbEntity
  8
0
100
AcDbPolyline
 62
7
  6
CONTINUOUS
 90
2
 70
0
 43
0.2
 10
1077.9407898995
 20
29.6499454189
 10
1078.7365059099
 20
29.6499454189
  0
LWPOLYLINE
  5
224
100
AcDbEntity
  8
0
100
AcDbPolyline
 62
7
  6
CONTINUOUS
 90
2
 70
0
 43
0.2
 10
1078.7365059099
 20
29.6499454189
 10
1078.7365059099
 20
29.8619269905
  0
LWPOLYLINE
  5
225
100
AcDbEntity
  8
0
100
AcDbPolyline
 62
7
  6
CONTINUOUS
 90
2
 70
0
 43
0.2
 10
1078.7365059099
 20
29.8619269905
 10
1078.1723993944
 20
29.8619269905
  0
LWPOLYLINE
  5
226
100
AcDbEntity
  8
0
100
AcDbPolyline
 62
7
  6
CONTINUOUS
 90
2
 70
0
 43
0.2
 10
1078.1723993944
 20
29.8619269905
 10
1078.1723993944
 20
31.5070086683
  0
LWPOLYLINE
  5
227
100
AcDbEntity
  8
0
100
AcDbPolyline
 62
7
  6
CONTINUOUS
 90
2
 70
0
 43
0.2
 10
1078.1723993944
 20
31.5070086683
 10
1077.9407898995
 20
31.5070086683
  0
SPLINE
  5
228
100
AcDbEntity
  8
0
100
AcDbSpline
 62
7
  6
CONTINUOUS
 70
2
 71
3
 72
35
 73
31
 74
0
 42
0.0000001
 43
0.0000001
 44
0.0000000001
 40
0.0
 40
0.0
 40
0.0
 40
0.0
 40
1.0
 40
1.0
 40
1.0
 40
2.0
 40
2.0
 40
2.0
 40
3.0
 40
3.0
 40
3.0
 40
4.0
 40
4.0
 40
4.0
 40
5.0
 40
5.0
 40
5.0
 40
6.0
 40
6.0
 40
6.0
 40
7.0
 40
7.0
 40
7.0
 40
8.0
 40
8.0
 40
8.0
 40
9.0
 40
9.0
 40
9.0
 40
10.0
 40
10.0
 40
10.0
 40
10.0
 10
1080.1347991654
 20
30.8024970748
 30
0.0
 10
1080.1347991654
 20
30.8024970748
 30
0.0
 10
1080.1347991654
 20
30.1403817957
 30
0.0
 10
1080.1347991654
 20
30.1403817957
 30
0.0
 10
1080.1347991654
 20
29.8252882004
 30
0.0
 10
1080.2826628543
 20
29.6106895723
 30
0.0
 10
1080.6227493386
 20
29.6106895723
 30
0.0
 10
1080.9623124116
 20
29.6106895723
 30
0.0
 10
1081.110437806
 20
29.8252882004
 30
0.0
 10
1081.110437806
 20
30.1403817957
 30
0.0
 10
1081.110437806
 20
30.1403817957
 30
0.0
 10
1081.110437806
 20
30.8024970748
 30
0.0
 10
1081.110437806
 20
30.8024970748
 30
0.0
 10
1081.110437806
 20
30.8024970748
 30
0.0
 10
1080.8883805672
 20
30.8024970748
 30
0.0
 10
1080.8883805672
 20
30.8024970748
 30
0.0
 10
1080.8883805672
 20
30.8024970748
 30
0.0
 10
1080.8883805672
 20
30.1655055375
 30
0.0
 10
1080.8883805672
 20
30.1655055375
 30
0.0
 10
1080.8883805672
 20
29.9796945303
 30
0.0
 10
1080.8416661097
 20
29.8169136198
 30
0.0
 10
1080.6227493386
 20
29.8169136198
 30
0.0
 10
1080.4033091561
 20
29.8169136198
 30
0.0
 10
1080.3565946987
 20
29.9796945303
 30
0.0
 10
1080.3565946987
 20
30.1655055375
 30
0.0
 10
1080.3565946987
 20
30.1655055375
 30
0.0
 10
1080.3565946987
 20
30.8024970748
 30
0.0
 10
1080.3565946987
 20
30.8024970748
 30
0.0
 10
1080.3565946987
 20
30.8024970748
 30
0.0
 10
1080.1347991654
 20
30.8024970748
 30
0.0
 10
1080.1347991654
 20
30.8024970748
 30
0.0
  0
SPLINE
  5
229
100
AcDbEntity
  8
0
100
AcDbSpline
 62
7
  6
CONTINUOUS
 70
2
 71
3
 72
35
 73
31
 74
0
 42
0.0000001
 43
0.0000001
 44
0.0000000001
 40
0.0
 40
0.0
 40
0.0
 40
0.0
 40
1.0
 40
1.0
 40
1.0
 40
2.0
 40
2.0
 40
2.0
 40
3.0
 40
3.0
 40
3.0
 40
4.0
 40
4.0
 40
4.0
 40
5.0
 40
5.0
 40
5.0
 40
6.0
 40
6.0
 40
6.0
 40
7.0
 40
7.0
 40
7.0
 40
8.0
 40
8.0
 40
8.0
 40
9.0
 40
9.0
 40
9.0
 40
10.0
 40
10.0
 40
10.0
 40
10.0
 10
1083.5335703632
 20
30.7611475831
 30
0.0
 10
1083.4451138556
 20
30.8124418893
 30
0.0
 10
1083.3316644589
 20
30.8375656311
 30
0.0
 10
1083.2280290239
 20
30.8375656311
 30
0.0
 10
1082.8731561708
 20
30.8375656311
 30
0.0
 10
1082.5977109805
 20
30.573766342
 30
0.0
 10
1082.5977109805
 20
30.2162764324
 30
0.0
 10
1082.5977109805
 20
29.8713483937
 30
0.0
 10
1082.8761657857
 20
29.6112129836
 30
0.0
 10
1083.2157288587
 20
29.6112129836
 30
0.0
 10
1083.3316644589
 20
29.6112129836
 30
0.0
 10
1083.4324211319
 20
29.6331962577
 30
0.0
 10
1083.5335703632
 20
29.6871076204
 30
0.0
 10
1083.5335703632
 20
29.6871076204
 30
0.0
 10
1083.5335703632
 20
29.9697497158
 30
0.0
 10
1083.5335703632
 20
29.9697497158
 30
0.0
 10
1083.4496937044
 20
29.8765825066
 30
0.0
 10
1083.3461891222
 20
29.8174370311
 30
0.0
 10
1083.2180842095
 20
29.8174370311
 30
0.0
 10
1082.9843810694
 20
29.8174370311
 30
0.0
 10
1082.8191139553
 20
29.9896393448
 30
0.0
 10
1082.8191139553
 20
30.2262212469
 30
0.0
 10
1082.8191139553
 20
30.4382028185
 30
0.0
 10
1082.9868672731
 20
30.6302947611
 30
0.0
 10
1083.2036903991
 20
30.6302947611
 30
0.0
 10
1083.3365060133
 20
30.6302947611
 30
0.0
 10
1083.4451138556
 20
30.5763833985
 30
0.0
 10
1083.5335703632
 20
30.4753650199
 30
0.0
 10
1083.5335703632
 20
30.4753650199
 30
0.0
 10
1083.5335703632
 20
30.7611475831
 30
0.0
 10
1083.5335703632
 20
30.7611475831
 30
0.0
  0
SPLINE
  5
22A
100
AcDbEntity
  8
0
100
AcDbSpline
 62
7
  6
CONTINUOUS
 70
2
 71
3
 72
32
 73
28
 74
0
 42
0.0000001
 43
0.0000001
 44
0.0000000001
 40
0.0
 40
0.0
 40
0.0
 40
0.0
 40
1.0
 40
1.0
 40
1.0
 40
2.0
 40
2.0
 40
2.0
 40
3.0
 40
3.0
 40
3.0
 40
4.0
 40
4.0
 40
4.0
 40
5.0
 40
5.0
 40
5.0
 40
6.0
 40
6.0
 40
6.0
 40
7.0
 40
7.0
 40
7.0
 40
8.0
 40
8.0
 40
8.0
 40
9.0
 40
9.0
 40
9.0
 40
9.0
 10
1086.0654416155
 20
30.1895824567
 30
0.0
 10
1086.0654416155
 20
30.1895824567
 30
0.0
 10
1086.0654416155
 20
30.2236041904
 30
0.0
 10
1086.0654416155
 20
30.2236041904
 30
0.0
 10
1086.0654416155
 20
30.5659151727
 30
0.0
 10
1085.8925850377
 20
30.8375656311
 30
0.0
 10
1085.5259354305
 20
30.8375656311
 30
0.0
 10
1085.1543134161
 20
30.8375656311
 30
0.0
 10
1084.9645768243
 20
30.5711492856
 30
0.0
 10
1084.9645768243
 20
30.2162764324
 30
0.0
 10
1084.9645768243
 20
29.8765825066
 30
0.0
 10
1085.178652041
 20
29.6106895723
 30
0.0
 10
1085.5307769849
 20
29.6106895723
 30
0.0
 10
1085.7547970161
 20
29.6106895723
 30
0.0
 10
1085.9569646261
 20
29.726363467
 30
0.0
 10
1086.0654416155
 20
29.9257831676
 30
0.0
 10
1086.0654416155
 20
29.9257831676
 30
0.0
 10
1085.8777986688
 20
30.0325590704
 30
0.0
 10
1085.8777986688
 20
30.0325590704
 30
0.0
 10
1085.7943145684
 20
29.8938550791
 30
0.0
 10
1085.7031101515
 20
29.8080156279
 30
0.0
 10
1085.5335248942
 20
29.8080156279
 30
0.0
 10
1085.3215433226
 20
29.8080156279
 30
0.0
 10
1085.1885968555
 20
29.9927798125
 30
0.0
 10
1085.1862415047
 20
30.1895824567
 30
0.0
 10
1085.1862415047
 20
30.1895824567
 30
0.0
 10
1086.0654416155
 20
30.1895824567
 30
0.0
 10
1086.0654416155
 20
30.1895824567
 30
0.0
  0
SPLINE
  5
22B
100
AcDbEntity
  8
0
100
AcDbSpline
 62
7
  6
CONTINUOUS
 70
2
 71
3
 72
14
 73
10
 74
0
 42
0.0000001
 43
0.0000001
 44
0.0000000001
 40
0.0
 40
0.0
 40
0.0
 40
0.0
 40
1.0
 40
1.0
 40
1.0
 40
2.0
 40
2.0
 40
2.0
 40
3.0
 40
3.0
 40
3.0
 40
3.0
 10
1085.1982799643
 20
30.3570740689
 30
0.0
 10
1085.2258899097
 20
30.5219486245
 30
0.0
 10
1085.3537331168
 20
30.6449502772
 30
0.0
 10
1085.5259354305
 20
30.6449502772
 30
0.0
 10
1085.7031101515
 20
30.6449502772
 30
0.0
 10
1085.8165595481
 20
30.5292763826
 30
0.0
 10
1085.8437769351
 20
30.3570740689
 30
0.0
 10
1085.8437769351
 20
30.3570740689
 30
0.0
 10
1085.1982799643
 20
30.3570740689
 30
0.0
 10
1085.1982799643
 20
30.3570740689
 30
0.0
  0
SPLINE
  5
22C
100
AcDbEntity
  8
0
100
AcDbSpline
 62
7
  6
CONTINUOUS
 70
2
 71
3
 72
20
 73
16
 74
0
 42
0.0000001
 43
0.0000001
 44
0.0000000001
 40
0.0
 40
0.0
 40
0.0
 40
0.0
 40
1.0
 40
1.0
 40
1.0
 40
2.0
 40
2.0
 40
2.0
 40
3.0
 40
3.0
 40
3.0
 40
4.0
 40
4.0
 40
4.0
 40
5.0
 40
5.0
 40
5.0
 40
5.0
 10
1088.0894730657
 20
30.566438584
 30
0.0
 10
1088.0894730657
 20
30.566438584
 30
0.0
 10
1088.5006126323
 20
30.0639637476
 30
0.0
 10
1088.5006126323
 20
30.0639637476
 30
0.0
 10
1088.3845461792
 20
29.948289853
 30
0.0
 10
1088.2467581577
 20
29.8179604423
 30
0.0
 10
1088.0748175496
 20
29.8179604423
 30
0.0
 10
1087.897381123
 20
29.8179604423
 30
0.0
 10
1087.7298895109
 20
29.9823115867
 30
0.0
 10
1087.7298895109
 20
30.159224602
 30
0.0
 10
1087.7298895109
 20
30.3371844399
 30
0.0
 10
1087.9396465845
 20
30.4633265603
 30
0.0
 10
1088.0672280859
 20
30.5512596567
 30
0.0
 10
1088.0672280859
 20
30.5512596567
 30
0.0
 10
1088.0894730657
 20
30.566438584
 30
0.0
 10
1088.0894730657
 20
30.566438584
 30
0.0
  0
SPLINE
  5
22D
100
AcDbEntity
  8
0
100
AcDbSpline
 62
7
  6
CONTINUOUS
 70
2
 71
3
 72
23
 73
19
 74
0
 42
0.0000001
 43
0.0000001
 44
0.0000000001
 40
0.0
 40
0.0
 40
0.0
 40
0.0
 40
1.0
 40
1.0
 40
1.0
 40
2.0
 40
2.0
 40
2.0
 40
3.0
 40
3.0
 40
3.0
 40
4.0
 40
4.0
 40
4.0
 40
5.0
 40
5.0
 40
5.0
 40
6.0
 40
6.0
 40
6.0
 40
6.0
 10
1088.1388045796
 20
30.8574552601
 30
0.0
 10
1088.1388045796
 20
30.8574552601
 30
0.0
 10
1088.0771729004
 20
30.9359669532
 30
0.0
 10
1088.0771729004
 20
30.9359669532
 30
0.0
 10
1088.0232615378
 20
31.0045338319
 30
0.0
 10
1087.966471413
 20
31.0736241219
 30
0.0
 10
1087.966471413
 20
31.1673147425
 30
0.0
 10
1087.966471413
 20
31.2861291048
 30
0.0
 10
1088.0623865315
 20
31.3635939754
 30
0.0
 10
1088.1733497246
 20
31.3635939754
 30
0.0
 10
1088.2966130829
 20
31.3635939754
 30
0.0
 10
1088.3899111449
 20
31.2924100403
 30
0.0
 10
1088.3899111449
 20
31.1620806296
 30
0.0
 10
1088.3899111449
 20
31.0270405173
 30
0.0
 10
1088.2618062322
 20
30.9506224693
 30
0.0
 10
1088.1682464645
 20
30.8768214777
 30
0.0
 10
1088.1682464645
 20
30.8768214777
 30
0.0
 10
1088.1388045796
 20
30.8574552601
 30
0.0
 10
1088.1388045796
 20
30.8574552601
 30
0.0
  0
SPLINE
  5
22E
100
AcDbEntity
  8
0
100
AcDbSpline
 62
7
  6
CONTINUOUS
 70
2
 71
3
 72
50
 73
46
 74
0
 42
0.0000001
 43
0.0000001
 44
0.0000000001
 40
0.0
 40
0.0
 40
0.0
 40
0.0
 40
1.0
 40
1.0
 40
1.0
 40
2.0
 40
2.0
 40
2.0
 40
3.0
 40
3.0
 40
3.0
 40
4.0
 40
4.0
 40
4.0
 40
5.0
 40
5.0
 40
5.0
 40
6.0
 40
6.0
 40
6.0
 40
7.0
 40
7.0
 40
7.0
 40
8.0
 40
8.0
 40
8.0
 40
9.0
 40
9.0
 40
9.0
 40
10.0
 40
10.0
 40
10.0
 40
11.0
 40
11.0
 40
11.0
 40
12.0
 40
12.0
 40
12.0
 40
13.0
 40
13.0
 40
13.0
 40
14.0
 40
14.0
 40
14.0
 40
15.0
 40
15.0
 40
15.0
 40
15.0
 10
1088.8409608222
 20
29.6504688302
 30
0.0
 10
1088.8409608222
 20
29.6504688302
 30
0.0
 10
1089.1263508269
 20
29.6504688302
 30
0.0
 10
1089.1263508269
 20
29.6504688302
 30
0.0
 10
1089.1263508269
 20
29.6504688302
 30
0.0
 10
1088.7939846591
 20
30.0613466912
 30
0.0
 10
1088.7939846591
 20
30.0613466912
 30
0.0
 10
1088.7939846591
 20
30.0613466912
 30
0.0
 10
1089.020490894
 20
30.3272396254
 30
0.0
 10
1089.020490894
 20
30.3272396254
 30
0.0
 10
1089.020490894
 20
30.3272396254
 30
0.0
 10
1088.8722346467
 20
30.4800757215
 30
0.0
 10
1088.8722346467
 20
30.4800757215
 30
0.0
 10
1088.8722346467
 20
30.4800757215
 30
0.0
 10
1088.6563274904
 20
30.2288383033
 30
0.0
 10
1088.6563274904
 20
30.2288383033
 30
0.0
 10
1088.6563274904
 20
30.2288383033
 30
0.0
 10
1088.2692648431
 20
30.6967679947
 30
0.0
 10
1088.2692648431
 20
30.6967679947
 30
0.0
 10
1088.4247179956
 20
30.8108716554
 30
0.0
 10
1088.6069959766
 20
30.9506224693
 30
0.0
 10
1088.6069959766
 20
31.1599869844
 30
0.0
 10
1088.6069959766
 20
31.4038966446
 30
0.0
 10
1088.4049592194
 20
31.5473113375
 30
0.0
 10
1088.1784529846
 20
31.5473113375
 30
0.0
 10
1087.9342816188
 20
31.5473113375
 30
0.0
 10
1087.7499099927
 20
31.3965688866
 30
0.0
 10
1087.7499099927
 20
31.1400973555
 30
0.0
 10
1087.7499099927
 20
30.9825505579
 30
0.0
 10
1087.8485730204
 20
30.8448933891
 30
0.0
 10
1087.9539095421
 20
30.7339301961
 30
0.0
 10
1087.9539095421
 20
30.7339301961
 30
0.0
 10
1087.8383665003
 20
30.6501843901
 30
0.0
 10
1087.8383665003
 20
30.6501843901
 30
0.0
 10
1087.6606683681
 20
30.5219486245
 30
0.0
 10
1087.5133280906
 20
30.3942362703
 30
0.0
 10
1087.5133280906
 20
30.1571309569
 30
0.0
 10
1087.5133280906
 20
29.8368032487
 30
0.0
 10
1087.7718932668
 20
29.6106895723
 30
0.0
 10
1088.0822761605
 20
29.6106895723
 30
0.0
 10
1088.3011929316
 20
29.6106895723
 30
0.0
 10
1088.4983881343
 20
29.7357848701
 30
0.0
 10
1088.6386623595
 20
29.9017062484
 30
0.0
 10
1088.6386623595
 20
29.9017062484
 30
0.0
 10
1088.8409608222
 20
29.6504688302
 30
0.0
 10
1088.8409608222
 20
29.6504688302
 30
0.0
  0
LWPOLYLINE
  5
22F
100
AcDbEntity
  8
0
100
AcDbPolyline
 62
7
  6
CONTINUOUS
 90
2
 70
0
 43
0.2
 10
1090.776404912
 20
31.5070086683
 10
1090.5450571227
 20
31.5070086683
  0
LWPOLYLINE
  5
230
100
AcDbEntity
  8
0
100
AcDbPolyline
 62
7
  6
CONTINUOUS
 90
2
 70
0
 43
0.2
 10
1090.5450571227
 20
31.5070086683
 10
1090.5450571227
 20
29.6499454189
  0
LWPOLYLINE
  5
231
100
AcDbEntity
  8
0
100
AcDbPolyline
 62
7
  6
CONTINUOUS
 90
2
 70
0
 43
0.2
 10
1090.5450571227
 20
29.6499454189
 10
1091.3403805746
 20
29.6499454189
  0
LWPOLYLINE
  5
232
100
AcDbEntity
  8
0
100
AcDbPolyline
 62
7
  6
CONTINUOUS
 90
2
 70
0
 43
0.2
 10
1091.3403805746
 20
29.6499454189
 10
1091.3403805746
 20
29.8619269905
  0
LWPOLYLINE
  5
233
100
AcDbEntity
  8
0
100
AcDbPolyline
 62
7
  6
CONTINUOUS
 90
2
 70
0
 43
0.2
 10
1091.3403805746
 20
29.8619269905
 10
1090.776404912
 20
29.8619269905
  0
LWPOLYLINE
  5
234
100
AcDbEntity
  8
0
100
AcDbPolyline
 62
7
  6
CONTINUOUS
 90
2
 70
0
 43
0.2
 10
1090.776404912
 20
29.8619269905
 10
1090.776404912
 20
31.5070086683
  0
LWPOLYLINE
  5
235
100
AcDbEntity
  8
0
100
AcDbPolyline
 62
7
  6
CONTINUOUS
 90
2
 70
0
 43
0.2
 10
1093.0194839861
 20
30.8024970748
 10
1092.798342717
 20
30.8024970748
  0
LWPOLYLINE
  5
236
100
AcDbEntity
  8
0
100
AcDbPolyline
 62
7
  6
CONTINUOUS
 90
2
 70
0
 43
0.2
 10
1092.798342717
 20
30.8024970748
 10
1092.798342717
 20
29.6504688302
  0
LWPOLYLINE
  5
237
100
AcDbEntity
  8
0
100
AcDbPolyline
 62
7
  6
CONTINUOUS
 90
2
 70
0
 43
0.2
 10
1092.798342717
 20
29.6504688302
 10
1093.0194839861
 20
29.6504688302
  0
LWPOLYLINE
  5
238
100
AcDbEntity
  8
0
100
AcDbPolyline
 62
7
  6
CONTINUOUS
 90
2
 70
0
 43
0.2
 10
1093.0194839861
 20
29.6504688302
 10
1093.0194839861
 20
30.8024970748
  0
LWPOLYLINE
  5
239
100
AcDbEntity
  8
0
100
AcDbPolyline
 62
7
  6
CONTINUOUS
 90
2
 70
1
 43
0.2
 10
1092.7564607089
 20
31.3324510038
 42
1.0
 10
1093.0616276998
 20
31.3324510038
 42
1.0
  0
SPLINE
  5
23A
100
AcDbEntity
  8
0
100
AcDbSpline
 62
7
  6
CONTINUOUS
 70
2
 71
3
 72
17
 73
13
 74
0
 42
0.0000001
 43
0.0000001
 44
0.0000000001
 40
0.0
 40
0.0
 40
0.0
 40
0.0
 40
1.0
 40
1.0
 40
1.0
 40
2.0
 40
2.0
 40
2.0
 40
3.0
 40
3.0
 40
3.0
 40
4.0
 40
4.0
 40
4.0
 40
4.0
 10
1095.1497679278
 20
29.8080156279
 30
0.0
 10
1094.9158030821
 20
29.8080156279
 30
0.0
 10
1094.7854736714
 20
30.010052385
 30
0.0
 10
1094.7854736714
 20
30.2262212469
 30
0.0
 10
1094.7854736714
 20
30.4408198749
 30
0.0
 10
1094.9212989006
 20
30.6397161643
 30
0.0
 10
1095.1497679278
 20
30.6397161643
 30
0.0
 10
1095.389228592
 20
30.6397161643
 30
0.0
 10
1095.5247921155
 20
30.4507646894
 30
0.0
 10
1095.5247921155
 20
30.2262212469
 30
0.0
 10
1095.5247921155
 20
30.0001075705
 30
0.0
 10
1095.3915839428
 20
29.8080156279
 30
0.0
 10
1095.1497679278
 20
29.8080156279
 30
0.0
  0
SPLINE
  5
23B
100
AcDbEntity
  8
0
100
AcDbSpline
 62
7
  6
CONTINUOUS
 70
2
 71
3
 72
50
 73
46
 74
0
 42
0.0000001
 43
0.0000001
 44
0.0000000001
 40
0.0
 40
0.0
 40
0.0
 40
0.0
 40
1.0
 40
1.0
 40
1.0
 40
2.0
 40
2.0
 40
2.0
 40
3.0
 40
3.0
 40
3.0
 40
4.0
 40
4.0
 40
4.0
 40
5.0
 40
5.0
 40
5.0
 40
6.0
 40
6.0
 40
6.0
 40
7.0
 40
7.0
 40
7.0
 40
8.0
 40
8.0
 40
8.0
 40
9.0
 40
9.0
 40
9.0
 40
10.0
 40
10.0
 40
10.0
 40
11.0
 40
11.0
 40
11.0
 40
12.0
 40
12.0
 40
12.0
 40
13.0
 40
13.0
 40
13.0
 40
14.0
 40
14.0
 40
14.0
 40
15.0
 40
15.0
 40
15.0
 40
15.0
 10
1095.733894925
 20
30.8030204861
 30
0.0
 10
1095.733894925
 20
30.8030204861
 30
0.0
 10
1095.5122302446
 20
30.8030204861
 30
0.0
 10
1095.5122302446
 20
30.8030204861
 30
0.0
 10
1095.5122302446
 20
30.8030204861
 30
0.0
 10
1095.5122302446
 20
30.6056944306
 30
0.0
 10
1095.5122302446
 20
30.6056944306
 30
0.0
 10
1095.5122302446
 20
30.6056944306
 30
0.0
 10
1095.507519543
 20
30.6056944306
 30
0.0
 10
1095.507519543
 20
30.6056944306
 30
0.0
 10
1095.4161842733
 20
30.7485857122
 30
0.0
 10
1095.2782653989
 20
30.8370422198
 30
0.0
 10
1095.1055396739
 20
30.8370422198
 30
0.0
 10
1094.7731735061
 20
30.8370422198
 30
0.0
 10
1094.5640706966
 20
30.5491660115
 30
0.0
 10
1094.5640706966
 20
30.2335490049
 30
0.0
 10
1094.5640706966
 20
29.9037998936
 30
0.0
 10
1094.7611350465
 20
29.6106895723
 30
0.0
 10
1095.1160078997
 20
29.6106895723
 30
0.0
 10
1095.2782653989
 20
29.6106895723
 30
0.0
 10
1095.4182779184
 20
29.69914608
 30
0.0
 10
1095.507519543
 20
29.829998902
 30
0.0
 10
1095.507519543
 20
29.829998902
 30
0.0
 10
1095.5122302446
 20
29.829998902
 30
0.0
 10
1095.5122302446
 20
29.829998902
 30
0.0
 10
1095.5122302446
 20
29.829998902
 30
0.0
 10
1095.5122302446
 20
29.6106895723
 30
0.0
 10
1095.5122302446
 20
29.6106895723
 30
0.0
 10
1095.5122302446
 20
29.3741076702
 30
0.0
 10
1095.4557018255
 20
29.1872498405
 30
0.0
 10
1095.1824811332
 20
29.1872498405
 30
0.0
 10
1094.9801826705
 20
29.1872498405
 30
0.0
 10
1094.8375530945
 20
29.3055407915
 30
0.0
 10
1094.8375530945
 20
29.5117648389
 30
0.0
 10
1094.8375530945
 20
29.5117648389
 30
0.0
 10
1094.6158884141
 20
29.5117648389
 30
0.0
 10
1094.6158884141
 20
29.5117648389
 30
0.0
 10
1094.6208608214
 20
29.1872498405
 30
0.0
 10
1094.851946905
 20
28.9904471962
 30
0.0
 10
1095.1722746131
 20
28.9904471962
 30
0.0
 10
1095.6203146756
 20
28.9904471962
 30
0.0
 10
1095.733894925
 20
29.2757063481
 30
0.0
 10
1095.733894925
 20
29.6724521043
 30
0.0
 10
1095.733894925
 20
29.6724521043
 30
0.0
 10
1095.733894925
 20
30.8030204861
 30
0.0
 10
1095.733894925
 20
30.8030204861
 30
0.0
  0
SPLINE
  5
23C
100
AcDbEntity
  8
0
100
AcDbSpline
 62
7
  6
CONTINUOUS
 70
2
 71
3
 72
44
 73
40
 74
0
 42
0.0000001
 43
0.0000001
 44
0.0000000001
 40
0.0
 40
0.0
 40
0.0
 40
0.0
 40
1.0
 40
1.0
 40
1.0
 40
2.0
 40
2.0
 40
2.0
 40
3.0
 40
3.0
 40
3.0
 40
4.0
 40
4.0
 40
4.0
 40
5.0
 40
5.0
 40
5.0
 40
6.0
 40
6.0
 40
6.0
 40
7.0
 40
7.0
 40
7.0
 40
8.0
 40
8.0
 40
8.0
 40
9.0
 40
9.0
 40
9.0
 40
10.0
 40
10.0
 40
10.0
 40
11.0
 40
11.0
 40
11.0
 40
12.0
 40
12.0
 40
12.0
 40
13.0
 40
13.0
 40
13.0
 40
13.0
 10
1097.3028202604
 20
31.7880805299
 30
0.0
 10
1097.3028202604
 20
31.7880805299
 30
0.0
 10
1097.3028202604
 20
29.6499454189
 30
0.0
 10
1097.3028202604
 20
29.6499454189
 30
0.0
 10
1097.3028202604
 20
29.6499454189
 30
0.0
 10
1097.5242232352
 20
29.6499454189
 30
0.0
 10
1097.5242232352
 20
29.6499454189
 30
0.0
 10
1097.5242232352
 20
29.6499454189
 30
0.0
 10
1097.5242232352
 20
30.1796376423
 30
0.0
 10
1097.5242232352
 20
30.1796376423
 30
0.0
 10
1097.5242232352
 20
30.3895255687
 30
0.0
 10
1097.5242232352
 20
30.6402395756
 30
0.0
 10
1097.8094823871
 20
30.6402395756
 30
0.0
 10
1098.0363811804
 20
30.6402395756
 30
0.0
 10
1098.0633368617
 20
30.5072931085
 30
0.0
 10
1098.0633368617
 20
30.3110138755
 30
0.0
 10
1098.0633368617
 20
30.3110138755
 30
0.0
 10
1098.0633368617
 20
29.6499454189
 30
0.0
 10
1098.0633368617
 20
29.6499454189
 30
0.0
 10
1098.0633368617
 20
29.6499454189
 30
0.0
 10
1098.2852632477
 20
29.6499454189
 30
0.0
 10
1098.2852632477
 20
29.6499454189
 30
0.0
 10
1098.2852632477
 20
29.6499454189
 30
0.0
 10
1098.2852632477
 20
30.3371844399
 30
0.0
 10
1098.2852632477
 20
30.3371844399
 30
0.0
 10
1098.2852632477
 20
30.6177328902
 30
0.0
 10
1098.201255736
 20
30.8375656311
 30
0.0
 10
1097.8762173263
 20
30.8375656311
 30
0.0
 10
1097.7364665124
 20
30.8375656311
 30
0.0
 10
1097.5982859324
 20
30.7710923976
 30
0.0
 10
1097.5289339368
 20
30.6480907449
 30
0.0
 10
1097.5289339368
 20
30.6480907449
 30
0.0
 10
1097.5242232352
 20
30.6480907449
 30
0.0
 10
1097.5242232352
 20
30.6480907449
 30
0.0
 10
1097.5242232352
 20
30.6480907449
 30
0.0
 10
1097.5242232352
 20
31.7880805299
 30
0.0
 10
1097.5242232352
 20
31.7880805299
 30
0.0
 10
1097.5242232352
 20
31.7880805299
 30
0.0
 10
1097.3028202604
 20
31.7880805299
 30
0.0
 10
1097.3028202604
 20
31.7880805299
 30
0.0
  0
LWPOLYLINE
  5
23D
100
AcDbEntity
  8
0
100
AcDbPolyline
 62
7
  6
CONTINUOUS
 90
2
 70
0
 43
0.2
 10
1100.1250539246
 20
30.5957496161
 10
1100.3414844921
 20
30.5957496161
  0
LWPOLYLINE
  5
23E
100
AcDbEntity
  8
0
100
AcDbPolyline
 62
7
  6
CONTINUOUS
 90
2
 70
0
 43
0.2
 10
1100.3414844921
 20
30.5957496161
 10
1100.3414844921
 20
30.8024970748
  0
LWPOLYLINE
  5
23F
100
AcDbEntity
  8
0
100
AcDbPolyline
 62
7
  6
CONTINUOUS
 90
2
 70
0
 43
0.2
 10
1100.3414844921
 20
30.8024970748
 10
1100.1250539246
 20
30.8024970748
  0
LWPOLYLINE
  5
240
100
AcDbEntity
  8
0
100
AcDbPolyline
 62
7
  6
CONTINUOUS
 90
2
 70
0
 43
0.2
 10
1100.1250539246
 20
30.8024970748
 10
1100.1250539246
 20
31.2432093792
  0
LWPOLYLINE
  5
241
100
AcDbEntity
  8
0
100
AcDbPolyline
 62
7
  6
CONTINUOUS
 90
2
 70
0
 43
0.2
 10
1100.1250539246
 20
31.2432093792
 10
1099.9033892442
 20
31.2432093792
  0
LWPOLYLINE
  5
242
100
AcDbEntity
  8
0
100
AcDbPolyline
 62
7
  6
CONTINUOUS
 90
2
 70
0
 43
0.2
 10
1099.9033892442
 20
31.2432093792
 10
1099.9033892442
 20
30.8024970748
  0
LWPOLYLINE
  5
243
100
AcDbEntity
  8
0
100
AcDbPolyline
 62
7
  6
CONTINUOUS
 90
2
 70
0
 43
0.2
 10
1099.9033892442
 20
30.8024970748
 10
1099.7827429423
 20
30.8024970748
  0
LWPOLYLINE
  5
244
100
AcDbEntity
  8
0
100
AcDbPolyline
 62
7
  6
CONTINUOUS
 90
2
 70
0
 43
0.2
 10
1099.7827429423
 20
30.8024970748
 10
1099.7827429423
 20
30.5957496161
  0
LWPOLYLINE
  5
245
100
AcDbEntity
  8
0
100
AcDbPolyline
 62
7
  6
CONTINUOUS
 90
2
 70
0
 43
0.2
 10
1099.7827429423
 20
30.5957496161
 10
1099.9033892442
 20
30.5957496161
  0
LWPOLYLINE
  5
246
100
AcDbEntity
  8
0
100
AcDbPolyline
 62
7
  6
CONTINUOUS
 90
2
 70
0
 43
0.2
 10
1099.9033892442
 20
30.5957496161
 10
1099.9033892442
 20
29.6499454189
  0
LWPOLYLINE
  5
247
100
AcDbEntity
  8
0
100
AcDbPolyline
 62
7
  6
CONTINUOUS
 90
2
 70
0
 43
0.2
 10
1099.9033892442
 20
29.6499454189
 10
1100.1250539246
 20
29.6499454189
  0
LWPOLYLINE
  5
248
100
AcDbEntity
  8
0
100
AcDbPolyline
 62
7
  6
CONTINUOUS
 90
2
 70
0
 43
0.2
 10
1100.1250539246
 20
29.6499454189
 10
1100.1250539246
 20
30.5957496161
  0
SPLINE
  5
249
100
AcDbEntity
  8
0
100
AcDbSpline
 62
7
  6
CONTINUOUS
 70
2
 71
3
 72
20
 73
16
 74
0
 42
0.0000001
 43
0.0000001
 44
0.0000000001
 40
0.0
 40
0.0
 40
0.0
 40
0.0
 40
1.0
 40
1.0
 40
1.0
 40
2.0
 40
2.0
 40
2.0
 40
3.0
 40
3.0
 40
3.0
 40
4.0
 40
4.0
 40
4.0
 40
5.0
 40
5.0
 40
5.0
 40
5.0
 10
1087.9070642319
 20
40.0108718623
 30
0.0
 10
1087.9070642319
 20
40.0108718623
 30
0.0
 10
1090.2234208863
 20
37.1813104401
 30
0.0
 10
1090.2234208863
 20
37.1813104401
 30
0.0
 10
1089.5717738329
 20
36.5291399754
 30
0.0
 10
1088.7949006289
 20
35.7932237047
 30
0.0
 10
1087.8237109843
 20
35.7932237047
 30
0.0
 10
1086.8251730998
 20
35.7932237047
 30
0.0
 10
1085.8818551063
 20
36.7228021519
 30
0.0
 10
1085.8818551063
 20
37.7219943005
 30
0.0
 10
1085.8818551063
 20
38.721186449
 30
0.0
 10
1087.0607081794
 20
39.4277916876
 30
0.0
 10
1087.7822306397
 20
39.9276494676
 30
0.0
 10
1087.7822306397
 20
39.9276494676
 30
0.0
 10
1087.9070642319
 20
40.0108718623
 30
0.0
 10
1087.9070642319
 20
40.0108718623
 30
0.0
  0
SPLINE
  5
24A
100
AcDbEntity
  8
0
100
AcDbSpline
 62
7
  6
CONTINUOUS
 70
2
 71
3
 72
23
 73
19
 74
0
 42
0.0000001
 43
0.0000001
 44
0.0000000001
 40
0.0
 40
0.0
 40
0.0
 40
0.0
 40
1.0
 40
1.0
 40
1.0
 40
2.0
 40
2.0
 40
2.0
 40
3.0
 40
3.0
 40
3.0
 40
4.0
 40
4.0
 40
4.0
 40
5.0
 40
5.0
 40
5.0
 40
6.0
 40
6.0
 40
6.0
 40
6.0
 10
1088.1844722144
 20
41.6486257821
 30
0.0
 10
1088.1844722144
 20
41.6486257821
 30
0.0
 10
1087.8379739419
 20
42.0919551429
 30
0.0
 10
1087.8379739419
 20
42.0919551429
 30
0.0
 10
1087.5321708969
 20
42.4800646129
 30
0.0
 10
1087.2132825698
 20
42.8685666413
 30
0.0
 10
1087.2132825698
 20
43.3955109553
 30
0.0
 10
1087.2132825698
 20
44.061682672
 30
0.0
 10
1087.7546206943
 20
44.5054045913
 30
0.0
 10
1088.3785269494
 20
44.5054045913
 30
0.0
 10
1089.0723086115
 20
44.5054045913
 30
0.0
 10
1089.5995146312
 20
44.1031630165
 30
0.0
 10
1089.5995146312
 20
43.3681627155
 30
0.0
 10
1089.5995146312
 20
42.604898205
 30
0.0
 10
1088.8782538765
 20
42.1747849792
 30
0.0
 10
1088.3511787096
 20
41.7590655638
 30
0.0
 10
1088.3511787096
 20
41.7590655638
 30
0.0
 10
1088.1844722144
 20
41.6486257821
 30
0.0
 10
1088.1844722144
 20
41.6486257821
 30
0.0
  0
SPLINE
  5
24B
100
AcDbEntity
  8
0
100
AcDbSpline
 62
7
  6
CONTINUOUS
 70
2
 71
3
 72
50
 73
46
 74
0
 42
0.0000001
 43
0.0000001
 44
0.0000000001
 40
0.0
 40
0.0
 40
0.0
 40
0.0
 40
1.0
 40
1.0
 40
1.0
 40
2.0
 40
2.0
 40
2.0
 40
3.0
 40
3.0
 40
3.0
 40
4.0
 40
4.0
 40
4.0
 40
5.0
 40
5.0
 40
5.0
 40
6.0
 40
6.0
 40
6.0
 40
7.0
 40
7.0
 40
7.0
 40
8.0
 40
8.0
 40
8.0
 40
9.0
 40
9.0
 40
9.0
 40
10.0
 40
10.0
 40
10.0
 40
11.0
 40
11.0
 40
11.0
 40
12.0
 40
12.0
 40
12.0
 40
13.0
 40
13.0
 40
13.0
 40
14.0
 40
14.0
 40
14.0
 40
15.0
 40
15.0
 40
15.0
 40
15.0
 10
1092.1380593774
 20
34.8500365639
 30
0.0
 10
1092.1380593774
 20
34.8500365639
 30
0.0
 10
1093.7472873819
 20
34.8500365639
 30
0.0
 10
1093.7472873819
 20
34.8500365639
 30
0.0
 10
1093.7472873819
 20
34.8500365639
 30
0.0
 10
1091.8742600883
 20
37.1671783353
 30
0.0
 10
1091.8742600883
 20
37.1671783353
 30
0.0
 10
1091.8742600883
 20
37.1671783353
 30
0.0
 10
1093.1505985137
 20
38.6646580299
 30
0.0
 10
1093.1505985137
 20
38.6646580299
 30
0.0
 10
1093.1505985137
 20
38.6646580299
 30
0.0
 10
1092.318374566
 20
39.5256695985
 30
0.0
 10
1092.318374566
 20
39.5256695985
 30
0.0
 10
1092.318374566
 20
39.5256695985
 30
0.0
 10
1091.0977794427
 20
38.1103654761
 30
0.0
 10
1091.0977794427
 20
38.1103654761
 30
0.0
 10
1091.0977794427
 20
38.1103654761
 30
0.0
 10
1088.9198650739
 20
40.7457413105
 30
0.0
 10
1088.9198650739
 20
40.7457413105
 30
0.0
 10
1089.7934385133
 20
41.3837796704
 30
0.0
 10
1090.8201097545
 20
42.1747849792
 30
0.0
 10
1090.8201097545
 20
43.3536380523
 30
0.0
 10
1090.8201097545
 20
44.7273309773
 30
0.0
 10
1089.6822136147
 20
45.5318141268
 30
0.0
 10
1088.4069220118
 20
45.5318141268
 30
0.0
 10
1087.0334907924
 20
45.5318141268
 30
0.0
 10
1085.9925565936
 20
44.6855889271
 30
0.0
 10
1085.9925565936
 20
43.2429365649
 30
0.0
 10
1085.9925565936
 20
42.3553618735
 30
0.0
 10
1086.5478959701
 20
41.5784886695
 30
0.0
 10
1087.144061427
 20
40.9540590031
 30
0.0
 10
1087.144061427
 20
40.9540590031
 30
0.0
 10
1086.4921526679
 20
40.4824654327
 30
0.0
 10
1086.4921526679
 20
40.4824654327
 30
0.0
 10
1085.4936147835
 20
39.761204678
 30
0.0
 10
1084.6607365717
 20
39.0399439233
 30
0.0
 10
1084.6607365717
 20
37.708385607
 30
0.0
 10
1084.6607365717
 20
35.904710309
 30
0.0
 10
1086.1177827443
 20
34.6281101779
 30
0.0
 10
1087.8653221816
 20
34.6281101779
 30
0.0
 10
1089.1001802626
 20
34.6281101779
 30
0.0
 10
1090.2095504872
 20
35.3362856504
 30
0.0
 10
1091.0004249432
 20
36.264817275
 30
0.0
 10
1091.0004249432
 20
36.264817275
 30
0.0
 10
1092.1380593774
 20
34.8500365639
 30
0.0
 10
1092.1380593774
 20
34.8500365639
 30
0.0
  0
LINE
  5
24C
100
AcDbEntity
  8
0
100
AcDbLine
 62
7
  6
CONTINUOUS
 10
1077.9409207523
 20
32.8239114686
 11
1100.35483148
 21
32.8239114686
  0
LINE
  5
24D
100
AcDbEntity
  8
0
100
AcDbLine
 62
7
  6
CONTINUOUS
 10
1100.35483148
 20
32.8239114686
 11
1100.35483148
 21
55.2378221962
  0
LINE
  5
24E
100
AcDbEntity
  8
0
100
AcDbLine
 62
7
  6
CONTINUOUS
 10
1100.35483148
 20
55.2378221962
 11
1077.9409207523
 21
55.2378221962
  0
LINE
  5
24F
100
AcDbEntity
  8
0
100
AcDbLine
 62
7
  6
CONTINUOUS
 10
1077.9409207523
 20
55.2378221962
 11
1077.9409207523
 21
32.8239114686
  0
ENDBLK
  5
250
100
AcDbEntity
  8
0
  6
BYBLOCK
 62
0
100
AcDbBlockEnd
  0
BLOCK
  5
251
100
AcDbEntity
  8
0
100
AcDbBlockBegin
  2
_CLOSED
 70
64
 10
0.0
 20
0.0
  3
_CLOSED
  1

  0
LINE
  5
252
100
AcDbEntity
  8
0
  6
BYBLOCK
 62
0
100
AcDbLine
 10
0.0
 20
0.0
 11
-1.0
 21
0.2
  0
LINE
  5
253
100
AcDbEntity
  8
0
  6
BYBLOCK
 62
0
100
AcDbLine
 10
-1.0
 20
0.2
 11
-1.0
 21
-0.2
  0
LINE
  5
254
100
AcDbEntity
  8
0
  6
BYBLOCK
 62
0
100
AcDbLine
 10
-1.0
 20
-0.2
 11
0.0
 21
0.0
  0
LINE
  5
255
100
AcDbEntity
  8
0
  6
BYBLOCK
 62
0
100
AcDbLine
 10
-1.0
 20
0.0
 11
0.0
 21
0.0
  0
ENDBLK
  5
256
100
AcDbEntity
  8
0
  6
BYBLOCK
 62
0
100
AcDbBlockEnd
  0
BLOCK
  5
257
100
AcDbEntity
  8
0
100
AcDbBlockBegin
 62
7
  6
CONTINUOUS
  2
*D0
 70
65
 10
0.0
 20
0.0
  3
*D0
  1

  0
MTEXT
  5
258
100
AcDbEntity
  8
0
100
AcDbMText
 62
7
  6
CONTINUOUS
  7
STANDARD
 71
2
 72
1
 10
105.3012213546
 20
155.6680409795
 30
0.0
 11
1.0
 21
0.0
 31
0.0
  1
42,4
 40
8.0
 41
21.7397769517
  0
LINE
  5
259
100
AcDbEntity
  8
0
100
AcDbLine
 62
7
  6
CONTINUOUS
 10
84.1012213546
 20
156.6132607383
 11
84.1012213546
 21
144.9180409795
  0
LINE
  5
25A
100
AcDbEntity
  8
0
100
AcDbLine
 62
7
  6
CONTINUOUS
 10
126.5012213546
 20
156.6132607383
 11
126.5012213546
 21
144.9180409795
  0
LINE
  5
25B
100
AcDbEntity
  8
0
100
AcDbLine
 62
7
  6
CONTINUOUS
 10
84.1012213546
 20
145.6680409795
 11
105.3012213546
 21
145.6680409795
  0
LINE
  5
25C
100
AcDbEntity
  8
0
100
AcDbLine
 62
7
  6
CONTINUOUS
 10
126.5012213546
 20
145.6680409795
 11
105.3012213546
 21
145.6680409795
  0
INSERT
  5
25D
100
AcDbEntity
  8
0
100
AcDbBlockReference
 62
7
  6
CONTINUOUS
  2
_CLOSED
 10
84.1012213546
 20
145.6680409795
 41
2.5
 42
2.5
 43
2.5
 50
180.0
  0
INSERT
  5
25E
100
AcDbEntity
  8
0
100
AcDbBlockReference
 62
7
  6
CONTINUOUS
  2
_CLOSED
 10
126.5012213546
 20
145.6680409795
 41
2.5
 42
2.5
 43
2.5
  0
ENDBLK
  5
25F
100
AcDbEntity
  8
0
  6
BYBLOCK
 62
0
100
AcDbBlockEnd
  0
BLOCK
  5
260
100
AcDbEntity
  8
0
100
AcDbBlockBegin
 62
7
  6
CONTINUOUS
  2
*D1
 70
65
 10
0.0
 20
0.0
  3
*D1
  1

  0
MTEXT
  5
261
100
AcDbEntity
  8
0
100
AcDbMText
 62
7
  6
CONTINUOUS
  7
STANDARD
 71
2
 72
1
 10
105.3012213546
 20
136.939375835
 30
0.0
 11
1.0
 21
0.0
 31
0.0
  1
82,1
 40
8.0
 41
21.7397769517
  0
LINE
  5
262
100
AcDbEntity
  8
0
100
AcDbLine
 62
7
  6
CONTINUOUS
 10
64.2512213546
 20
156.6132607383
 11
64.2512213546
 21
126.189375835
  0
LINE
  5
263
100
AcDbEntity
  8
0
100
AcDbLine
 62
7
  6
CONTINUOUS
 10
146.3512213546
 20
156.6132607383
 11
146.3512213546
 21
126.189375835
  0
LINE
  5
264
100
AcDbEntity
  8
0
100
AcDbLine
 62
7
  6
CONTINUOUS
 10
64.2512213546
 20
126.939375835
 11
105.3012213546
 21
126.939375835
  0
LINE
  5
265
100
AcDbEntity
  8
0
100
AcDbLine
 62
7
  6
CONTINUOUS
 10
146.3512213546
 20
126.939375835
 11
105.3012213546
 21
126.939375835
  0
INSERT
  5
266
100
AcDbEntity
  8
0
100
AcDbBlockReference
 62
7
  6
CONTINUOUS
  2
_CLOSED
 10
64.2512213546
 20
126.939375835
 41
2.5
 42
2.5
 43
2.5
 50
180.0
  0
INSERT
  5
267
100
AcDbEntity
  8
0
100
AcDbBlockReference
 62
7
  6
CONTINUOUS
  2
_CLOSED
 10
146.3512213546
 20
126.939375835
 41
2.5
 42
2.5
 43
2.5
  0
ENDBLK
  5
268
100
AcDbEntity
  8
0
  6
BYBLOCK
 62
0
100
AcDbBlockEnd
  0
BLOCK
  5
269
100
AcDbEntity
  8
0
100
AcDbBlockBegin
 62
7
  6
CONTINUOUS
  2
*D2
 70
65
 10
0.0
 20
0.0
  3
*D2
  1

  0
MTEXT
  5
26A
100
AcDbEntity
  8
0
100
AcDbMText
 62
7
  6
CONTINUOUS
  7
STANDARD
 71
2
 72
1
 10
34.342635409
 20
215.3540592386
 30
0.0
 11
0.0
 21
1.0
 31
0.0
  1
79,8
 40
8.0
 41
21.7397769517
  0
LINE
  5
26B
100
AcDbEntity
  8
0
100
AcDbLine
 62
7
  6
CONTINUOUS
 10
60.3328600644
 20
175.4540592386
 11
43.592635409
 21
175.4540592386
  0
LINE
  5
26C
100
AcDbEntity
  8
0
100
AcDbLine
 62
7
  6
CONTINUOUS
 10
65.1671929675
 20
255.2540592386
 11
43.592635409
 21
255.2540592386
  0
LINE
  5
26D
100
AcDbEntity
  8
0
100
AcDbLine
 62
7
  6
CONTINUOUS
 10
44.342635409
 20
175.4540592386
 11
44.342635409
 21
215.3540592386
  0
LINE
  5
26E
100
AcDbEntity
  8
0
100
AcDbLine
 62
7
  6
CONTINUOUS
 10
44.342635409
 20
255.2540592386
 11
44.342635409
 21
215.3540592386
  0
INSERT
  5
26F
100
AcDbEntity
  8
0
100
AcDbBlockReference
 62
7
  6
CONTINUOUS
  2
_CLOSED
 10
44.342635409
 20
175.4540592386
 41
2.5
 42
2.5
 43
2.5
 50
270.0
  0
INSERT
  5
270
100
AcDbEntity
  8
0
100
AcDbBlockReference
 62
7
  6
CONTINUOUS
  2
_CLOSED
 10
44.342635409
 20
255.2540592386
 41
2.5
 42
2.5
 43
2.5
 50
90.0
  0
ENDBLK
  5
271
100
AcDbEntity
  8
0
  6
BYBLOCK
 62
0
100
AcDbBlockEnd
  0
BLOCK
  5
272
100
AcDbEntity
  8
0
100
AcDbBlockBegin
 62
7
  6
CONTINUOUS
  2
*D3
 70
65
 10
0.0
 20
0.0
  3
*D3
  1

  0
MTEXT
  5
273
100
AcDbEntity
  8
0
100
AcDbMText
 62
7
  6
CONTINUOUS
  7
STANDARD
 71
2
 72
1
 10
686.055944981
 20
136.939375835
 30
0.0
 11
1.0
 21
0.0
 31
0.0
  1
847
 40
8.0
 41
18.6468401487
  0
LINE
  5
274
100
AcDbEntity
  8
0
100
AcDbLine
 62
7
  6
CONTINUOUS
 10
1109.555944981
 20
156.6132607383
 11
1109.555944981
 21
126.189375835
  0
LINE
  5
275
100
AcDbEntity
  8
0
100
AcDbLine
 62
7
  6
CONTINUOUS
 10
262.555944981
 20
155.799452787
 11
262.555944981
 21
126.189375835
  0
LINE
  5
276
100
AcDbEntity
  8
0
100
AcDbLine
 62
7
  6
CONTINUOUS
 10
1109.555944981
 20
126.939375835
 11
686.055944981
 21
126.939375835
  0
LINE
  5
277
100
AcDbEntity
  8
0
100
AcDbLine
 62
7
  6
CONTINUOUS
 10
262.555944981
 20
126.939375835
 11
686.055944981
 21
126.939375835
  0
INSERT
  5
278
100
AcDbEntity
  8
0
100
AcDbBlockReference
 62
7
  6
CONTINUOUS
  2
_CLOSED
 10
1109.555944981
 20
126.939375835
 41
2.5
 42
2.5
 43
2.5
  0
INSERT
  5
279
100
AcDbEntity
  8
0
100
AcDbBlockReference
 62
7
  6
CONTINUOUS
  2
_CLOSED
 10
262.555944981
 20
126.939375835
 41
2.5
 42
2.5
 43
2.5
 50
180.0
  0
ENDBLK
  5
27A
100
AcDbEntity
  8
0
  6
BYBLOCK
 62
0
100
AcDbBlockEnd
  0
ENDSEC
  0
SECTION
  2
ENTITIES
  0
DIMENSION
  5
27B
100
AcDbEntity
  8
0
100
AcDbDimension
 62
7
  6
CONTINUOUS
  2
*D0
 10
126.5012213546
 20
145.6680409795
 11
105.0975235443
 21
145.6680409795
 70
160
  3
DIMSTYLE_1
100
AcDbAlignedDimension
 13
84.1012213546
 23
157.3632607383
 14
126.5012213546
 24
157.3632607383
100
AcDbRotatedDimension
  0
DIMENSION
  5
27C
100
AcDbEntity
  8
0
100
AcDbDimension
 62
7
  6
CONTINUOUS
  2
*D1
 10
146.3512213546
 20
126.939375835
 11
104.4878607826
 21
126.939375835
 70
160
  3
DIMSTYLE_1
100
AcDbAlignedDimension
 13
64.2512213546
 23
157.3632607383
 14
146.3512213546
 24
157.3632607383
100
AcDbRotatedDimension
  0
DIMENSION
  5
27D
100
AcDbEntity
  8
0
100
AcDbDimension
 62
7
  6
CONTINUOUS
  2
*D2
 10
44.342635409
 20
255.2540592386
 11
44.342635409
 21
215.3436679202
 70
160
  3
DIMSTYLE_1
100
AcDbAlignedDimension
 13
61.0828600644
 23
175.4540592386
 14
65.9171929675
 24
255.2540592386
 50
90.0
100
AcDbRotatedDimension
  0
DIMENSION
  5
27E
100
AcDbEntity
  8
0
100
AcDbDimension
 62
7
  6
CONTINUOUS
  2
*D3
 10
262.555944981
 20
126.939375835
 11
686.0130134888
 21
126.939375835
 70
160
  3
DIMSTYLE_2
100
AcDbAlignedDimension
 13
1109.555944981
 23
157.3632607383
 14
262.555944981
 24
156.549452787
 50
180.0
100
AcDbRotatedDimension
  0
LINE
  5
27F
100
AcDbEntity
  8
0
100
AcDbLine
 62
2
  6
CONTINUOUS
 10
1075.321763645
 20
55.6141346962
 11
1165.321763645
 21
55.6141346962
  0
LINE
  5
280
100
AcDbEntity
  8
0
100
AcDbLine
 62
2
  6
CONTINUOUS
 10
1075.321763645
 20
55.6141346962
 11
1075.321763645
 21
15.6141346962
  0
LINE
  5
281
100
AcDbEntity
  8
0
100
AcDbLine
 62
2
  6
CONTINUOUS
 10
1105.321763645
 20
49.6141346962
 11
1165.321763645
 21
49.6141346962
  0
LINE
  5
282
100
AcDbEntity
  8
0
100
AcDbLine
 62
2
  6
CONTINUOUS
 10
1105.321763645
 20
43.6141346962
 11
1165.321763645
 21
43.6141346962
  0
LINE
  5
283
100
AcDbEntity
  8
0
100
AcDbLine
 62
2
  6
CONTINUOUS
 10
1105.321763645
 20
33.6141346962
 11
1165.321763645
 21
33.6141346962
  0
LINE
  5
284
100
AcDbEntity
  8
0
100
AcDbLine
 62
2
  6
CONTINUOUS
 10
1075.321763645
 20
28.6141346962
 11
1165.321763645
 21
28.6141346962
  0
LINE
  5
285
100
AcDbEntity
  8
0
100
AcDbLine
 62
2
  6
CONTINUOUS
 10
1075.321763645
 20
15.6141346962
 11
1165.321763645
 21
15.6141346962
  0
LINE
  5
286
100
AcDbEntity
  8
0
100
AcDbLine
 62
2
  6
CONTINUOUS
 10
1105.321763645
 20
55.6141346962
 11
1105.321763645
 21
28.6141346962
  0
LINE
  5
287
100
AcDbEntity
  8
0
100
AcDbLine
 62
2
  6
CONTINUOUS
 10
1145.321763645
 20
55.6141346962
 11
1145.321763645
 21
43.6141346962
  0
LINE
  5
288
100
AcDbEntity
  8
0
100
AcDbLine
 62
2
  6
CONTINUOUS
 10
1165.321763645
 20
55.6141346962
 11
1165.321763645
 21
15.6141346962
  0
INSERT
  5
289
100
AcDbEntity
  8
0
100
AcDbBlockReference
 62
2
  6
CONTINUOUS
  2
LOGO2_BL0
 10
1089.1478106897
 20
42.1141346962
  0
MTEXT
  5
28A
100
AcDbEntity
  8
9_SOLID
100
AcDbMText
 62
2
  6
CONTINUOUS
  7
TEXTSTYLE_2
 71
1
 72
1
 10
1106.809263645
 20
54.1141346962
 30
0.0
 11
1.0
 21
0.0
 31
0.0
  1
6F3_C_049
 40
3.0
 41
32.25
  0
MTEXT
  5
28B
100
AcDbEntity
  8
0
100
AcDbMText
 62
2
  6
CONTINUOUS
  7
TEXTSTYLE_2
 71
1
 72
1
 10
1146.809263645
 20
53.8641346962
 30
0.0
 11
1.0
 21
0.0
 31
0.0
  1
Rev:00
 40
3.5
 41
22.75
  0
MTEXT
  5
28C
100
AcDbEntity
  8
9_SOLID
100
AcDbMText
 62
2
  6
CONTINUOUS
  7
TEXTSTYLE_2
 71
1
 72
1
 10
1106.809263645
 20
47.8641346962
 30
0.0
 11
1.0
 21
0.0
 31
0.0
  1
Scale:1:1
 40
3.5
 41
28.375
  0
MTEXT
  5
28D
100
AcDbEntity
  8
9_SOLID
100
AcDbMText
 62
2
  6
CONTINUOUS
  7
TEXTSTYLE_2
 71
1
 72
1
 10
1146.809263645
 20
48.3641346962
 30
0.0
 11
1.0
 21
0.0
 31
0.0
  1
A0
 40
3.5
 41
9.625
  0
MTEXT
  5
28E
100
AcDbEntity
  8
0
100
AcDbMText
 62
2
  6
CONTINUOUS
  7
TEXTSTYLE_2
 71
1
 72
1
 10
1106.809263645
 20
40.3641346962
 30
0.0
 11
1.0
 21
0.0
 31
0.0
  1
CASS. BRENTA 1.2 A FILO
 40
3.5
 41
92.0
  0
MTEXT
  5
28F
100
AcDbEntity
  8
0
100
AcDbMText
 62
2
  6
CONTINUOUS
  7
TEXTSTYLE_2
 71
1
 72
1
 10
1106.809263645
 20
32.3641346962
 30
0.0
 11
1.0
 21
0.0
 31
0.0
  1
DATE:08/05/18
 40
2.5
 41
36.875
  0
MTEXT
  5
290
100
AcDbEntity
  8
9_SOLID
100
AcDbMText
 62
2
  6
CONTINUOUS
  7
TEXTSTYLE_2
 71
1
 72
1
 10
1076.809263645
 20
28.3016346962
 30
0.0
 11
1.0
 21
0.0
 31
0.0
  1
Any integral or partial reproductions are prohibited \Pwithout prior authorisation of L {\Ftxt.shx;\W0.190476;\H2.250000; }& L Luce & Light s.r.l., \Pin accordance with the law in force. \PAll rights reserved.
 40
2.25
 41
134.5982142857
  0
LINE
  5
291
100
AcDbEntity
  8
0
100
AcDbLine
 62
7
  6
CONTINUOUS
 10
0.0
 20
0.0
 11
0.0
 21
841.0
  0
LINE
  5
292
100
AcDbEntity
  8
0
100
AcDbLine
 62
7
  6
CONTINUOUS
 10
0.0
 20
0.0
 11
1189.0
 21
0.0
  0
LINE
  5
293
100
AcDbEntity
  8
0
100
AcDbLine
 62
7
  6
CONTINUOUS
 10
0.0
 20
841.0
 11
1189.0
 21
841.0
  0
LINE
  5
294
100
AcDbEntity
  8
0
100
AcDbLine
 62
7
  6
CONTINUOUS
 10
1189.0
 20
0.0
 11
1189.0
 21
841.0
  0
LINE
  5
295
100
AcDbEntity
  8
6_ALL_SURFS
100
AcDbLine
 62
7
  6
CONTINUOUS
 10
66.9512213546
 20
178.1040592386
 11
67.2512213546
 21
177.9540592386
  0
LINE
  5
296
100
AcDbEntity
  8
6_ALL_SURFS
100
AcDbLine
 62
7
  6
CONTINUOUS
 10
69.9512213546
 20
178.1040592386
 11
70.2512213546
 21
177.9540592386
  0
LINE
  5
297
100
AcDbEntity
  8
6_ALL_SURFS
100
AcDbLine
 62
7
  6
CONTINUOUS
 10
72.9512213546
 20
178.1040592386
 11
73.2512213546
 21
177.9540592386
  0
LINE
  5
298
100
AcDbEntity
  8
6_ALL_SURFS
100
AcDbLine
 62
7
  6
CONTINUOUS
 10
75.9512213546
 20
178.1040592386
 11
76.2512213546
 21
177.9540592386
  0
LINE
  5
299
100
AcDbEntity
  8
7_ALL_FEATURES
100
AcDbLine
 62
7
  6
CONTINUOUS
 10
143.8512213546
 20
176.9540592386
 11
145.996692945
 21
177.1686063976
  0
LINE
  5
29A
100
AcDbEntity
  8
6_ALL_SURFS
100
AcDbLine
 62
7
  6
CONTINUOUS
 10
66.7512213546
 20
176.9540592386
 11
64.6057497642
 21
177.1686063976
  0
LINE
  5
29B
100
AcDbEntity
  8
6_ALL_SURFS
100
AcDbLine
 62
7
  6
CONTINUOUS
 10
78.9512213546
 20
178.1040592386
 11
79.2512213546
 21
177.9540592386
  0
LINE
  5
29C
100
AcDbEntity
  8
6_ALL_SURFS
100
AcDbLine
 62
7
  6
CONTINUOUS
 10
81.9512213546
 20
178.1040592386
 11
82.2512213546
 21
177.9540592386
  0
LINE
  5
29D
100
AcDbEntity
  8
7_ALL_FEATURES
100
AcDbLine
 62
7
  6
CONTINUOUS
 10
84.8512213546
 20
175.4540592386
 11
125.7512213546
 21
175.4540592386
  0
LINE
  5
29E
100
AcDbEntity
  8
6_ALL_SURFS
100
AcDbLine
 62
7
  6
CONTINUOUS
 10
84.1012213546
 20
176.9540592386
 11
82.2512213546
 21
176.9540592386
  0
LINE
  5
29F
100
AcDbEntity
  8
6_ALL_SURFS
100
AcDbLine
 62
7
  6
CONTINUOUS
 10
81.6512213546
 20
176.9540592386
 11
79.2512213546
 21
176.9540592386
  0
LINE
  5
2A0
100
AcDbEntity
  8
6_ALL_SURFS
100
AcDbLine
 62
7
  6
CONTINUOUS
 10
78.6512213546
 20
176.9540592386
 11
76.2512213546
 21
176.9540592386
  0
LINE
  5
2A1
100
AcDbEntity
  8
6_ALL_SURFS
100
AcDbLine
 62
7
  6
CONTINUOUS
 10
75.6512213546
 20
176.9540592386
 11
73.2512213546
 21
176.9540592386
  0
LINE
  5
2A2
100
AcDbEntity
  8
6_ALL_SURFS
100
AcDbLine
 62
7
  6
CONTINUOUS
 10
72.6512213546
 20
176.9540592386
 11
70.2512213546
 21
176.9540592386
  0
LINE
  5
2A3
100
AcDbEntity
  8
6_ALL_SURFS
100
AcDbLine
 62
7
  6
CONTINUOUS
 10
69.6512213546
 20
176.9540592386
 11
66.7512213546
 21
176.9540592386
  0
LINE
  5
2A4
100
AcDbEntity
  8
7_ALL_FEATURES
100
AcDbLine
 62
7
  6
CONTINUOUS
 10
126.5012213546
 20
176.9540592386
 11
128.3512213546
 21
176.9540592386
  0
LINE
  5
2A5
100
AcDbEntity
  8
3_ALL_AXES
100
AcDbLine
 62
7
  6
CONTINUOUS
 10
128.9512213546
 20
176.9540592386
 11
131.3512213546
 21
176.9540592386
  0
LINE
  5
2A6
100
AcDbEntity
  8
3_ALL_AXES
100
AcDbLine
 62
7
  6
CONTINUOUS
 10
131.9512213546
 20
176.9540592386
 11
134.3512213546
 21
176.9540592386
  0
LINE
  5
2A7
100
AcDbEntity
  8
3_ALL_AXES
100
AcDbLine
 62
7
  6
CONTINUOUS
 10
134.9512213546
 20
176.9540592386
 11
137.3512213546
 21
176.9540592386
  0
LINE
  5
2A8
100
AcDbEntity
  8
3_ALL_AXES
100
AcDbLine
 62
7
  6
CONTINUOUS
 10
137.9512213546
 20
176.9540592386
 11
140.3512213546
 21
176.9540592386
  0
LINE
  5
2A9
100
AcDbEntity
  8
3_ALL_AXES
100
AcDbLine
 62
7
  6
CONTINUOUS
 10
140.9512213546
 20
176.9540592386
 11
143.8512213546
 21
176.9540592386
  0
LINE
  5
2AA
100
AcDbEntity
  8
7_ALL_FEATURES
100
AcDbLine
 62
7
  6
CONTINUOUS
 10
145.9575179967
 20
177.9540592386
 11
143.9512213546
 21
177.9540592386
  0
LINE
  5
2AB
100
AcDbEntity
  8
3_ALL_AXES
100
AcDbLine
 62
7
  6
CONTINUOUS
 10
143.3512213546
 20
177.9540592386
 11
140.9512213546
 21
177.9540592386
  0
LINE
  5
2AC
100
AcDbEntity
  8
3_ALL_AXES
100
AcDbLine
 62
7
  6
CONTINUOUS
 10
140.3512213546
 20
177.9540592386
 11
137.9512213546
 21
177.9540592386
  0
LINE
  5
2AD
100
AcDbEntity
  8
3_ALL_AXES
100
AcDbLine
 62
7
  6
CONTINUOUS
 10
137.3512213546
 20
177.9540592386
 11
134.9512213546
 21
177.9540592386
  0
LINE
  5
2AE
100
AcDbEntity
  8
3_ALL_AXES
100
AcDbLine
 62
7
  6
CONTINUOUS
 10
134.3512213546
 20
177.9540592386
 11
131.9512213546
 21
177.9540592386
  0
LINE
  5
2AF
100
AcDbEntity
  8
3_ALL_AXES
100
AcDbLine
 62
7
  6
CONTINUOUS
 10
131.3512213546
 20
177.9540592386
 11
128.9512213546
 21
177.9540592386
  0
LINE
  5
2B0
100
AcDbEntity
  8
7_ALL_FEATURES
100
AcDbLine
 62
7
  6
CONTINUOUS
 10
128.3512213546
 20
177.9540592386
 11
126.6512213546
 21
177.9540592386
  0
LINE
  5
2B1
100
AcDbEntity
  8
6_ALL_SURFS
100
AcDbLine
 62
7
  6
CONTINUOUS
 10
64.6449247125
 20
177.9540592386
 11
66.6512213546
 21
177.9540592386
  0
LINE
  5
2B2
100
AcDbEntity
  8
6_ALL_SURFS
100
AcDbLine
 62
7
  6
CONTINUOUS
 10
67.2512213546
 20
177.9540592386
 11
69.6512213546
 21
177.9540592386
  0
LINE
  5
2B3
100
AcDbEntity
  8
6_ALL_SURFS
100
AcDbLine
 62
7
  6
CONTINUOUS
 10
70.2512213546
 20
177.9540592386
 11
72.6512213546
 21
177.9540592386
  0
LINE
  5
2B4
100
AcDbEntity
  8
6_ALL_SURFS
100
AcDbLine
 62
7
  6
CONTINUOUS
 10
73.2512213546
 20
177.9540592386
 11
75.6512213546
 21
177.9540592386
  0
LINE
  5
2B5
100
AcDbEntity
  8
6_ALL_SURFS
100
AcDbLine
 62
7
  6
CONTINUOUS
 10
76.2512213546
 20
177.9540592386
 11
78.6512213546
 21
177.9540592386
  0
LINE
  5
2B6
100
AcDbEntity
  8
6_ALL_SURFS
100
AcDbLine
 62
7
  6
CONTINUOUS
 10
79.2512213546
 20
177.9540592386
 11
81.6512213546
 21
177.9540592386
  0
LINE
  5
2B7
100
AcDbEntity
  8
6_ALL_SURFS
100
AcDbLine
 62
7
  6
CONTINUOUS
 10
82.2512213546
 20
177.9540592386
 11
83.9512213546
 21
177.9540592386
  0
LINE
  5
2B8
100
AcDbEntity
  8
7_ALL_FEATURES
100
AcDbLine
 62
7
  6
CONTINUOUS
 10
123.9762213546
 20
185.2040592386
 11
123.2262213546
 21
185.2040592386
  0
LINE
  5
2B9
100
AcDbEntity
  8
7_ALL_FEATURES
100
AcDbLine
 62
7
  6
CONTINUOUS
 10
87.3762213546
 20
185.2040592386
 11
86.6262213546
 21
185.2040592386
  0
LINE
  5
2BA
100
AcDbEntity
  8
7_ALL_FEATURES
100
AcDbLine
 62
7
  6
CONTINUOUS
 10
85.7512213546
 20
186.0790592386
 11
86.6262213546
 21
186.0790592386
  0
LINE
  5
2BB
100
AcDbEntity
  8
7_ALL_FEATURES
100
AcDbLine
 62
7
  6
CONTINUOUS
 10
87.3762213546
 20
186.0790592386
 11
88.2512213546
 21
186.0790592386
  0
LINE
  5
2BC
100
AcDbEntity
  8
7_ALL_FEATURES
100
AcDbLine
 62
7
  6
CONTINUOUS
 10
122.3512213546
 20
186.0790592386
 11
123.2262213546
 21
186.0790592386
  0
LINE
  5
2BD
100
AcDbEntity
  8
7_ALL_FEATURES
100
AcDbLine
 62
7
  6
CONTINUOUS
 10
123.9762213546
 20
186.0790592386
 11
124.8512213546
 21
186.0790592386
  0
LINE
  5
2BE
100
AcDbEntity
  8
7_ALL_FEATURES
100
AcDbLine
 62
7
  6
CONTINUOUS
 10
124.8512213546
 20
186.8290592386
 11
123.9762213546
 21
186.8290592386
  0
LINE
  5
2BF
100
AcDbEntity
  8
7_ALL_FEATURES
100
AcDbLine
 62
7
  6
CONTINUOUS
 10
123.2262213546
 20
186.8290592386
 11
122.3512213546
 21
186.8290592386
  0
LINE
  5
2C0
100
AcDbEntity
  8
7_ALL_FEATURES
100
AcDbLine
 62
7
  6
CONTINUOUS
 10
88.2512213546
 20
186.8290592386
 11
87.3762213546
 21
186.8290592386
  0
LINE
  5
2C1
100
AcDbEntity
  8
7_ALL_FEATURES
100
AcDbLine
 62
7
  6
CONTINUOUS
 10
86.6262213546
 20
186.8290592386
 11
85.7512213546
 21
186.8290592386
  0
LINE
  5
2C2
100
AcDbEntity
  8
7_ALL_FEATURES
100
AcDbLine
 62
7
  6
CONTINUOUS
 10
86.6262213546
 20
187.7040592386
 11
87.3762213546
 21
187.7040592386
  0
LINE
  5
2C3
100
AcDbEntity
  8
7_ALL_FEATURES
100
AcDbLine
 62
7
  6
CONTINUOUS
 10
123.2262213546
 20
187.7040592386
 11
123.9762213546
 21
187.7040592386
  0
LINE
  5
2C4
100
AcDbEntity
  8
7_ALL_FEATURES
100
AcDbLine
 62
7
  6
CONTINUOUS
 10
125.7512213546
 20
190.3540592386
 11
124.8012213546
 21
190.3540592386
  0
LINE
  5
2C5
100
AcDbEntity
  8
7_ALL_FEATURES
100
AcDbLine
 62
7
  6
CONTINUOUS
 10
84.8512213546
 20
190.3540592386
 11
85.8012213546
 21
190.3540592386
  0
LINE
  5
2C6
100
AcDbEntity
  8
3_ALL_AXES
100
AcDbLine
 62
7
  6
CONTINUOUS
 10
128.9512213546
 20
177.9540592386
 11
128.6512213546
 21
178.1040592386
  0
LINE
  5
2C7
100
AcDbEntity
  8
7_ALL_FEATURES
100
AcDbLine
 62
7
  6
CONTINUOUS
 10
84.1012213546
 20
189.6040592386
 11
84.1012213546
 21
176.2040592386
  0
LINE
  5
2C8
100
AcDbEntity
  8
7_ALL_FEATURES
100
AcDbLine
 62
7
  6
CONTINUOUS
 10
85.7512213546
 20
186.0790592386
 11
85.7512213546
 21
186.8290592386
  0
LINE
  5
2C9
100
AcDbEntity
  8
7_ALL_FEATURES
100
AcDbLine
 62
7
  6
CONTINUOUS
 10
86.6262213546
 20
187.7040592386
 11
86.6262213546
 21
186.8290592386
  0
LINE
  5
2CA
100
AcDbEntity
  8
7_ALL_FEATURES
100
AcDbLine
 62
7
  6
CONTINUOUS
 10
86.6262213546
 20
186.0790592386
 11
86.6262213546
 21
185.2040592386
  0
LINE
  5
2CB
100
AcDbEntity
  8
7_ALL_FEATURES
100
AcDbLine
 62
7
  6
CONTINUOUS
 10
87.3012213546
 20
234.9471622263
 11
89.3012213546
 21
243.9685792336
  0
LINE
  5
2CC
100
AcDbEntity
  8
3_ALL_AXES
100
AcDbLine
 62
7
  6
CONTINUOUS
 10
131.9512213546
 20
177.9540592386
 11
131.6512213546
 21
178.1040592386
  0
LINE
  5
2CD
100
AcDbEntity
  8
3_ALL_AXES
100
AcDbLine
 62
7
  6
CONTINUOUS
 10
134.9512213546
 20
177.9540592386
 11
134.6512213546
 21
178.1040592386
  0
LINE
  5
2CE
100
AcDbEntity
  8
3_ALL_AXES
100
AcDbLine
 62
7
  6
CONTINUOUS
 10
137.9512213546
 20
177.9540592386
 11
137.6512213546
 21
178.1040592386
  0
LINE
  5
2CF
100
AcDbEntity
  8
7_ALL_FEATURES
100
AcDbLine
 62
7
  6
CONTINUOUS
 10
87.3012213546
 20
191.8540592386
 11
87.3012213546
 21
234.9471622263
  0
LINE
  5
2D0
100
AcDbEntity
  8
7_ALL_FEATURES
100
AcDbLine
 62
7
  6
CONTINUOUS
 10
87.3762213546
 20
185.2040592386
 11
87.3762213546
 21
186.0790592386
  0
LINE
  5
2D1
100
AcDbEntity
  8
7_ALL_FEATURES
100
AcDbLine
 62
7
  6
CONTINUOUS
 10
87.3762213546
 20
186.8290592386
 11
87.3762213546
 21
187.7040592386
  0
LINE
  5
2D2
100
AcDbEntity
  8
7_ALL_FEATURES
100
AcDbLine
 62
7
  6
CONTINUOUS
 10
88.2512213546
 20
186.8290592386
 11
88.2512213546
 21
186.0790592386
  0
LINE
  5
2D3
100
AcDbEntity
  8
7_ALL_FEATURES
100
AcDbLine
 62
7
  6
CONTINUOUS
 10
89.3012213546
 20
254.5040592386
 11
89.3012213546
 21
243.9685792336
  0
LINE
  5
2D4
100
AcDbEntity
  8
6_ALL_SURFS
100
AcDbLine
 62
7
  6
CONTINUOUS
 10
89.3012213546
 20
254.5040592386
 11
89.3012213546
 21
254.9540592386
  0
LINE
  5
2D5
100
AcDbEntity
  8
3_ALL_AXES
100
AcDbLine
 62
7
  6
CONTINUOUS
 10
140.9512213546
 20
177.9540592386
 11
140.6512213546
 21
178.1040592386
  0
LINE
  5
2D6
100
AcDbEntity
  8
3_ALL_AXES
100
AcDbLine
 62
7
  6
CONTINUOUS
 10
143.9512213546
 20
177.9540592386
 11
143.6512213546
 21
178.1040592386
  0
LINE
  5
2D7
100
AcDbEntity
  8
7_ALL_FEATURES
100
AcDbLine
 62
7
  6
CONTINUOUS
 10
92.0512213546
 20
251.6790592386
 11
92.0512213546
 21
252.4290592386
  0
LINE
  5
2D8
100
AcDbEntity
  8
7_ALL_FEATURES
100
AcDbLine
 62
7
  6
CONTINUOUS
 10
92.9262213546
 20
253.3040592386
 11
92.9262213546
 21
252.4290592386
  0
LINE
  5
2D9
100
AcDbEntity
  8
7_ALL_FEATURES
100
AcDbLine
 62
7
  6
CONTINUOUS
 10
92.9262213546
 20
251.6790592386
 11
92.9262213546
 21
250.8040592386
  0
LINE
  5
2DA
100
AcDbEntity
  8
7_ALL_FEATURES
100
AcDbLine
 62
7
  6
CONTINUOUS
 10
93.6762213546
 20
250.8040592386
 11
93.6762213546
 21
251.6790592386
  0
LINE
  5
2DB
100
AcDbEntity
  8
7_ALL_FEATURES
100
AcDbLine
 62
7
  6
CONTINUOUS
 10
93.6762213546
 20
252.4290592386
 11
93.6762213546
 21
253.3040592386
  0
LINE
  5
2DC
100
AcDbEntity
  8
7_ALL_FEATURES
100
AcDbLine
 62
7
  6
CONTINUOUS
 10
94.5512213546
 20
252.4290592386
 11
94.5512213546
 21
251.6790592386
  0
LINE
  5
2DD
100
AcDbEntity
  8
7_ALL_FEATURES
100
AcDbLine
 62
7
  6
CONTINUOUS
 10
97.0012213546
 20
225.5383510791
 11
97.0012213546
 21
226.7450610478
  0
LINE
  5
2DE
100
AcDbEntity
  8
7_ALL_FEATURES
100
AcDbLine
 62
9
  6
CONTINUOUS
 10
102.9461569567
 20
222.0540592386
 11
102.9345695252
 21
222.7823673882
  0
LINE
  5
2DF
100
AcDbEntity
  8
7_ALL_FEATURES
100
AcDbLine
 62
9
  6
CONTINUOUS
 10
103.4955273873
 20
222.6662917352
 11
103.4895350592
 21
222.0540592386
  0
LINE
  5
2E0
100
AcDbEntity
  8
7_ALL_FEATURES
100
AcDbLine
 62
9
  6
CONTINUOUS
 10
107.11290765
 20
222.0540592386
 11
107.1069153219
 21
222.6662917352
  0
LINE
  5
2E1
100
AcDbEntity
  8
7_ALL_FEATURES
100
AcDbLine
 62
9
  6
CONTINUOUS
 10
107.667873184
 20
222.7823673882
 11
107.6562857525
 21
222.0540592386
  0
LINE
  5
2E2
100
AcDbEntity
  8
7_ALL_FEATURES
100
AcDbLine
 62
7
  6
CONTINUOUS
 10
102.7530318659
 20
222.0540592386
 11
107.8494108434
 21
222.0540592386
  0
LINE
  5
2E3
100
AcDbEntity
  8
7_ALL_FEATURES
100
AcDbLine
 62
7
  6
CONTINUOUS
 10
113.6012213546
 20
226.7450610478
 11
113.6012213546
 21
225.5383510791
  0
LINE
  5
2E4
100
AcDbEntity
  8
7_ALL_FEATURES
100
AcDbLine
 62
7
  6
CONTINUOUS
 10
116.0512213546
 20
251.6790592386
 11
116.0512213546
 21
252.4290592386
  0
LINE
  5
2E5
100
AcDbEntity
  8
7_ALL_FEATURES
100
AcDbLine
 62
7
  6
CONTINUOUS
 10
116.9262213546
 20
253.3040592386
 11
116.9262213546
 21
252.4290592386
  0
LINE
  5
2E6
100
AcDbEntity
  8
7_ALL_FEATURES
100
AcDbLine
 62
7
  6
CONTINUOUS
 10
116.9262213546
 20
251.6790592386
 11
116.9262213546
 21
250.8040592386
  0
LINE
  5
2E7
100
AcDbEntity
  8
7_ALL_FEATURES
100
AcDbLine
 62
7
  6
CONTINUOUS
 10
117.6762213546
 20
250.8040592386
 11
117.6762213546
 21
251.6790592386
  0
LINE
  5
2E8
100
AcDbEntity
  8
7_ALL_FEATURES
100
AcDbLine
 62
7
  6
CONTINUOUS
 10
117.6762213546
 20
252.4290592386
 11
117.6762213546
 21
253.3040592386
  0
LINE
  5
2E9
100
AcDbEntity
  8
7_ALL_FEATURES
100
AcDbLine
 62
7
  6
CONTINUOUS
 10
118.5512213546
 20
252.4290592386
 11
118.5512213546
 21
251.6790592386
  0
LINE
  5
2EA
100
AcDbEntity
  8
7_ALL_FEATURES
100
AcDbLine
 62
7
  6
CONTINUOUS
 10
121.3012213546
 20
243.9685792336
 11
121.3012213546
 21
254.9540592386
  0
LINE
  5
2EB
100
AcDbEntity
  8
7_ALL_FEATURES
100
AcDbLine
 62
7
  6
CONTINUOUS
 10
122.3512213546
 20
186.0790592386
 11
122.3512213546
 21
186.8290592386
  0
LINE
  5
2EC
100
AcDbEntity
  8
7_ALL_FEATURES
100
AcDbLine
 62
7
  6
CONTINUOUS
 10
123.2262213546
 20
187.7040592386
 11
123.2262213546
 21
186.8290592386
  0
LINE
  5
2ED
100
AcDbEntity
  8
7_ALL_FEATURES
100
AcDbLine
 62
7
  6
CONTINUOUS
 10
123.2262213546
 20
186.0790592386
 11
123.2262213546
 21
185.2040592386
  0
LINE
  5
2EE
100
AcDbEntity
  8
7_ALL_FEATURES
100
AcDbLine
 62
7
  6
CONTINUOUS
 10
123.3012213546
 20
234.9471622263
 11
123.3012213546
 21
191.8540592386
  0
LINE
  5
2EF
100
AcDbEntity
  8
7_ALL_FEATURES
100
AcDbLine
 62
7
  6
CONTINUOUS
 10
123.9762213546
 20
185.2040592386
 11
123.9762213546
 21
186.0790592386
  0
LINE
  5
2F0
100
AcDbEntity
  8
7_ALL_FEATURES
100
AcDbLine
 62
7
  6
CONTINUOUS
 10
123.9762213546
 20
186.8290592386
 11
123.9762213546
 21
187.7040592386
  0
LINE
  5
2F1
100
AcDbEntity
  8
7_ALL_FEATURES
100
AcDbLine
 62
7
  6
CONTINUOUS
 10
124.8512213546
 20
186.8290592386
 11
124.8512213546
 21
186.0790592386
  0
LINE
  5
2F2
100
AcDbEntity
  8
6_ALL_SURFS
100
AcDbLine
 62
7
  6
CONTINUOUS
 10
66.6512213546
 20
177.9540592386
 11
66.9512213546
 21
178.1040592386
  0
LINE
  5
2F3
100
AcDbEntity
  8
6_ALL_SURFS
100
AcDbLine
 62
7
  6
CONTINUOUS
 10
69.6512213546
 20
177.9540592386
 11
69.9512213546
 21
178.1040592386
  0
LINE
  5
2F4
100
AcDbEntity
  8
6_ALL_SURFS
100
AcDbLine
 62
7
  6
CONTINUOUS
 10
72.6512213546
 20
177.9540592386
 11
72.9512213546
 21
178.1040592386
  0
LINE
  5
2F5
100
AcDbEntity
  8
7_ALL_FEATURES
100
AcDbLine
 62
7
  6
CONTINUOUS
 10
94.3189913898
 20
232.1290592386
 11
95.0702939773
 21
232.1290592386
  0
LINE
  5
2F6
100
AcDbEntity
  8
7_ALL_FEATURES
100
AcDbLine
 62
7
  6
CONTINUOUS
 10
115.5321487319
 20
232.1290592386
 11
116.2834513194
 21
232.1290592386
  0
LINE
  5
2F7
100
AcDbEntity
  8
7_ALL_FEATURES
100
AcDbLine
 62
7
  6
CONTINUOUS
 10
116.2834513194
 20
233.3790592386
 11
115.5321487319
 21
233.3790592386
  0
LINE
  5
2F8
100
AcDbEntity
  8
7_ALL_FEATURES
100
AcDbLine
 62
7
  6
CONTINUOUS
 10
95.0702939773
 20
233.3790592386
 11
94.3189913898
 21
233.3790592386
  0
LINE
  5
2F9
100
AcDbEntity
  8
7_ALL_FEATURES
100
AcDbLine
 62
7
  6
CONTINUOUS
 10
126.5012213546
 20
176.2040592386
 11
126.5012213546
 21
189.6040592386
  0
LINE
  5
2FA
100
AcDbEntity
  8
6_ALL_SURFS
100
AcDbLine
 62
7
  6
CONTINUOUS
 10
75.6512213546
 20
177.9540592386
 11
75.9512213546
 21
178.1040592386
  0
LINE
  5
2FB
100
AcDbEntity
  8
6_ALL_SURFS
100
AcDbLine
 62
7
  6
CONTINUOUS
 10
78.6512213546
 20
177.9540592386
 11
78.9512213546
 21
178.1040592386
  0
LINE
  5
2FC
100
AcDbEntity
  8
6_ALL_SURFS
100
AcDbLine
 62
7
  6
CONTINUOUS
 10
81.6512213546
 20
177.9540592386
 11
81.9512213546
 21
178.1040592386
  0
LINE
  5
2FD
100
AcDbEntity
  8
7_ALL_FEATURES
100
AcDbLine
 62
7
  6
CONTINUOUS
 10
121.3012213546
 20
243.9685792336
 11
123.3012213546
 21
234.9471622263
  0
LINE
  5
2FE
100
AcDbEntity
  8
7_ALL_FEATURES
100
AcDbLine
 62
7
  6
CONTINUOUS
 10
117.6762213546
 20
250.8040592386
 11
116.9262213546
 21
250.8040592386
  0
LINE
  5
2FF
100
AcDbEntity
  8
7_ALL_FEATURES
100
AcDbLine
 62
7
  6
CONTINUOUS
 10
93.6762213546
 20
250.8040592386
 11
92.9262213546
 21
250.8040592386
  0
LINE
  5
300
100
AcDbEntity
  8
7_ALL_FEATURES
100
AcDbLine
 62
7
  6
CONTINUOUS
 10
92.0512213546
 20
251.6790592386
 11
92.9262213546
 21
251.6790592386
  0
LINE
  5
301
100
AcDbEntity
  8
7_ALL_FEATURES
100
AcDbLine
 62
7
  6
CONTINUOUS
 10
93.6762213546
 20
251.6790592386
 11
94.5512213546
 21
251.6790592386
  0
LINE
  5
302
100
AcDbEntity
  8
7_ALL_FEATURES
100
AcDbLine
 62
7
  6
CONTINUOUS
 10
116.0512213546
 20
251.6790592386
 11
116.9262213546
 21
251.6790592386
  0
LINE
  5
303
100
AcDbEntity
  8
7_ALL_FEATURES
100
AcDbLine
 62
7
  6
CONTINUOUS
 10
117.6762213546
 20
251.6790592386
 11
118.5512213546
 21
251.6790592386
  0
LINE
  5
304
100
AcDbEntity
  8
7_ALL_FEATURES
100
AcDbLine
 62
7
  6
CONTINUOUS
 10
118.5512213546
 20
252.4290592386
 11
117.6762213546
 21
252.4290592386
  0
LINE
  5
305
100
AcDbEntity
  8
7_ALL_FEATURES
100
AcDbLine
 62
7
  6
CONTINUOUS
 10
116.9262213546
 20
252.4290592386
 11
116.0512213546
 21
252.4290592386
  0
LINE
  5
306
100
AcDbEntity
  8
7_ALL_FEATURES
100
AcDbLine
 62
7
  6
CONTINUOUS
 10
94.5512213546
 20
252.4290592386
 11
93.6762213546
 21
252.4290592386
  0
LINE
  5
307
100
AcDbEntity
  8
7_ALL_FEATURES
100
AcDbLine
 62
7
  6
CONTINUOUS
 10
92.9262213546
 20
252.4290592386
 11
92.0512213546
 21
252.4290592386
  0
LINE
  5
308
100
AcDbEntity
  8
7_ALL_FEATURES
100
AcDbLine
 62
7
  6
CONTINUOUS
 10
92.9262213546
 20
253.3040592386
 11
93.6762213546
 21
253.3040592386
  0
LINE
  5
309
100
AcDbEntity
  8
7_ALL_FEATURES
100
AcDbLine
 62
7
  6
CONTINUOUS
 10
116.9262213546
 20
253.3040592386
 11
117.6762213546
 21
253.3040592386
  0
LINE
  5
30A
100
AcDbEntity
  8
7_ALL_FEATURES
100
AcDbLine
 62
7
  6
CONTINUOUS
 10
121.0012213546
 20
255.2540592386
 11
107.9469726657
 21
255.2540592386
  0
LINE
  5
30B
100
AcDbEntity
  8
7_ALL_FEATURES
100
AcDbLine
 62
7
  6
CONTINUOUS
 10
102.6554700436
 20
255.2540592386
 11
90.0512213546
 21
255.2540592386
  0
LINE
  5
30C
100
AcDbEntity
  8
6_ALL_SURFS
100
AcDbLine
 62
7
  6
CONTINUOUS
 10
89.6012213546
 20
255.2540592386
 11
90.0512213546
 21
255.2540592386
  0
LINE
  5
30D
100
AcDbEntity
  8
7_ALL_FEATURES
100
AcDbLine
 62
7
  6
CONTINUOUS
 10
103.5012213546
 20
255.2540592386
 11
107.1012213546
 21
255.2540592386
  0
LINE
  5
30E
100
AcDbEntity
  8
3_ALL_AXES
100
AcDbLine
 62
7
  6
CONTINUOUS
 10
128.6512213546
 20
178.1040592386
 11
128.3512213546
 21
177.9540592386
  0
LINE
  5
30F
100
AcDbEntity
  8
3_ALL_AXES
100
AcDbLine
 62
7
  6
CONTINUOUS
 10
131.6512213546
 20
178.1040592386
 11
131.3512213546
 21
177.9540592386
  0
LINE
  5
310
100
AcDbEntity
  8
3_ALL_AXES
100
AcDbLine
 62
7
  6
CONTINUOUS
 10
134.6512213546
 20
178.1040592386
 11
134.3512213546
 21
177.9540592386
  0
LINE
  5
311
100
AcDbEntity
  8
3_ALL_AXES
100
AcDbLine
 62
7
  6
CONTINUOUS
 10
137.6512213546
 20
178.1040592386
 11
137.3512213546
 21
177.9540592386
  0
LINE
  5
312
100
AcDbEntity
  8
3_ALL_AXES
100
AcDbLine
 62
7
  6
CONTINUOUS
 10
140.6512213546
 20
178.1040592386
 11
140.3512213546
 21
177.9540592386
  0
LINE
  5
313
100
AcDbEntity
  8
3_ALL_AXES
100
AcDbLine
 62
7
  6
CONTINUOUS
 10
143.6512213546
 20
178.1040592386
 11
143.3512213546
 21
177.9540592386
  0
LINE
  5
314
100
AcDbEntity
  8
3_ALL_AXES
100
AcDbLine
 62
7
  6
CONTINUOUS
 10
261.555944981
 20
183.7041073047
 11
261.555944981
 21
189.2040111724
  0
LINE
  5
315
100
AcDbEntity
  8
3_ALL_AXES
100
AcDbLine
 62
7
  6
CONTINUOUS
 10
261.555944981
 20
249.3041073047
 11
261.555944981
 21
254.8040111724
  0
LINE
  5
316
100
AcDbEntity
  8
3_ALL_AXES
100
AcDbLine
 62
7
  6
CONTINUOUS
 10
261.7066653106
 20
183.7040592386
 11
261.7066653106
 21
189.2040592386
  0
LINE
  5
317
100
AcDbEntity
  8
3_ALL_AXES
100
AcDbLine
 62
7
  6
CONTINUOUS
 10
261.7066653106
 20
249.3040592386
 11
261.7066653106
 21
254.8040592386
  0
LINE
  5
318
100
AcDbEntity
  8
7_ALL_FEATURES
100
AcDbLine
 62
7
  6
CONTINUOUS
 10
262.555944981
 20
175.4540592386
 11
262.555944981
 21
255.2540592386
  0
LINE
  5
319
100
AcDbEntity
  8
6_ALL_SURFS
100
AcDbLine
 62
7
  6
CONTINUOUS
 10
264.055944981
 20
175.4657745362
 11
264.055944981
 21
175.4540592386
  0
LINE
  5
31A
100
AcDbEntity
  8
7_ALL_FEATURES
100
AcDbLine
 62
7
  6
CONTINUOUS
 10
264.055944981
 20
175.4657745362
 11
264.055944981
 21
176.9540592386
  0
LINE
  5
31B
100
AcDbEntity
  8
6_ALL_SURFS
100
AcDbLine
 62
7
  6
CONTINUOUS
 10
264.055944981
 20
176.9540592386
 11
264.055944981
 21
178.1040592386
  0
LINE
  5
31C
100
AcDbEntity
  8
6_ALL_SURFS
100
AcDbLine
 62
7
  6
CONTINUOUS
 10
264.055944981
 20
185.5540592386
 11
264.055944981
 21
187.3540592386
  0
LINE
  5
31D
100
AcDbEntity
  8
7_ALL_FEATURES
100
AcDbLine
 62
7
  6
CONTINUOUS
 10
264.055944981
 20
178.1040592386
 11
264.055944981
 21
254.5040592386
  0
LINE
  5
31E
100
AcDbEntity
  8
6_ALL_SURFS
100
AcDbLine
 62
7
  6
CONTINUOUS
 10
264.055944981
 20
191.8540592386
 11
264.055944981
 21
243.9685792336
  0
LINE
  5
31F
100
AcDbEntity
  8
6_ALL_SURFS
100
AcDbLine
 62
7
  6
CONTINUOUS
 10
264.055944981
 20
254.2540592386
 11
264.055944981
 21
255.2540592386
  0
LINE
  5
320
100
AcDbEntity
  8
3_ALL_AXES
100
AcDbLine
 62
7
  6
CONTINUOUS
 10
262.555944981
 20
250.0166894967
 11
261.7066653106
 21
249.3040592386
  0
LINE
  5
321
100
AcDbEntity
  8
3_ALL_AXES
100
AcDbLine
 62
7
  6
CONTINUOUS
 10
262.555944981
 20
188.4914289804
 11
261.7066653106
 21
189.2040592386
  0
LINE
  5
322
100
AcDbEntity
  8
3_ALL_AXES
100
AcDbLine
 62
7
  6
CONTINUOUS
 10
262.555944981
 20
184.4166894967
 11
261.7066653106
 21
183.7040592386
  0
LINE
  5
323
100
AcDbEntity
  8
3_ALL_AXES
100
AcDbLine
 62
7
  6
CONTINUOUS
 10
262.555944981
 20
254.0914289804
 11
261.7066653106
 21
254.8040592386
  0
LINE
  5
324
100
AcDbEntity
  8
7_ALL_FEATURES
100
AcDbLine
 62
7
  6
CONTINUOUS
 10
1109.555944981
 20
175.4540592386
 11
1108.055944981
 21
175.4540592386
  0
LINE
  5
325
100
AcDbEntity
  8
6_ALL_SURFS
100
AcDbLine
 62
7
  6
CONTINUOUS
 10
1108.055944981
 20
175.4540592386
 11
264.055944981
 21
175.4540592386
  0
LINE
  5
326
100
AcDbEntity
  8
7_ALL_FEATURES
100
AcDbLine
 62
7
  6
CONTINUOUS
 10
262.555944981
 20
175.4540592386
 11
264.055944981
 21
175.4540592386
  0
LINE
  5
327
100
AcDbEntity
  8
6_ALL_SURFS
100
AcDbLine
 62
9
  6
CONTINUOUS
 10
1108.055944981
 20
175.7540592386
 11
264.055944981
 21
175.7540592386
  0
LINE
  5
328
100
AcDbEntity
  8
7_ALL_FEATURES
100
AcDbLine
 62
9
  6
CONTINUOUS
 10
1109.555944981
 20
176.2040592386
 11
1108.055944981
 21
176.2040592386
  0
LINE
  5
329
100
AcDbEntity
  8
7_ALL_FEATURES
100
AcDbLine
 62
9
  6
CONTINUOUS
 10
262.555944981
 20
176.2040592386
 11
264.055944981
 21
176.2040592386
  0
LINE
  5
32A
100
AcDbEntity
  8
6_ALL_SURFS
100
AcDbLine
 62
9
  6
CONTINUOUS
 10
264.055944981
 20
176.6540592386
 11
1108.055944981
 21
176.6540592386
  0
LINE
  5
32B
100
AcDbEntity
  8
6_ALL_SURFS
100
AcDbLine
 62
7
  6
CONTINUOUS
 10
264.055944981
 20
176.9540592386
 11
1108.055944981
 21
176.9540592386
  0
LINE
  5
32C
100
AcDbEntity
  8
6_ALL_SURFS
100
AcDbLine
 62
9
  6
CONTINUOUS
 10
1108.055944981
 20
177.1686063976
 11
264.055944981
 21
177.1686063976
  0
LINE
  5
32D
100
AcDbEntity
  8
6_ALL_SURFS
100
AcDbLine
 62
7
  6
CONTINUOUS
 10
1108.055944981
 20
177.9540592386
 11
264.055944981
 21
177.9540592386
  0
LINE
  5
32E
100
AcDbEntity
  8
6_ALL_SURFS
100
AcDbLine
 62
7
  6
CONTINUOUS
 10
264.055944981
 20
178.1040592386
 11
1108.055944981
 21
178.1040592386
  0
LINE
  5
32F
100
AcDbEntity
  8
6_ALL_SURFS
100
AcDbLine
 62
9
  6
CONTINUOUS
 10
264.055944981
 20
178.2540592386
 11
1108.055944981
 21
178.2540592386
  0
LINE
  5
330
100
AcDbEntity
  8
6_ALL_SURFS
100
AcDbLine
 62
9
  6
CONTINUOUS
 10
1108.055944981
 20
179.1665586895
 11
264.055944981
 21
179.1665586895
  0
LINE
  5
331
100
AcDbEntity
  8
6_ALL_SURFS
100
AcDbLine
 62
9
  6
CONTINUOUS
 10
1108.055944981
 20
180.1895562296
 11
264.055944981
 21
180.1895562296
  0
LINE
  5
332
100
AcDbEntity
  8
6_ALL_SURFS
100
AcDbLine
 62
9
  6
CONTINUOUS
 10
264.055944981
 20
182.7232497198
 11
1108.055944981
 21
182.7232497198
  0
LINE
  5
333
100
AcDbEntity
  8
6_ALL_SURFS
100
AcDbLine
 62
9
  6
CONTINUOUS
 10
264.055944981
 20
183.0642488998
 11
1108.055944981
 21
183.0642488998
  0
LINE
  5
334
100
AcDbEntity
  8
6_ALL_SURFS
100
AcDbLine
 62
9
  6
CONTINUOUS
 10
264.055944981
 20
183.2540592386
 11
1108.055944981
 21
183.2540592386
  0
LINE
  5
335
100
AcDbEntity
  8
6_ALL_SURFS
100
AcDbLine
 62
7
  6
CONTINUOUS
 10
1108.055944981
 20
183.5540592386
 11
264.055944981
 21
183.5540592386
  0
LINE
  5
336
100
AcDbEntity
  8
3_ALL_AXES
100
AcDbLine
 62
7
  6
CONTINUOUS
 10
261.7066653106
 20
183.7040592386
 11
261.555944981
 21
183.7040592386
  0
LINE
  5
337
100
AcDbEntity
  8
3_ALL_AXES
100
AcDbLine
 62
7
  6
CONTINUOUS
 10
1110.4052246514
 20
183.7040592386
 11
1110.555944981
 21
183.7040592386
  0
LINE
  5
338
100
AcDbEntity
  8
6_ALL_SURFS
100
AcDbLine
 62
9
  6
CONTINUOUS
 10
1108.055944981
 20
185.5540592386
 11
264.055944981
 21
185.5540592386
  0
LINE
  5
339
100
AcDbEntity
  8
6_ALL_SURFS
100
AcDbLine
 62
9
  6
CONTINUOUS
 10
1108.055944981
 20
187.3540592386
 11
264.055944981
 21
187.3540592386
  0
LINE
  5
33A
100
AcDbEntity
  8
3_ALL_AXES
100
AcDbLine
 62
7
  6
CONTINUOUS
 10
261.7066653106
 20
189.2040592386
 11
261.555944981
 21
189.2040592386
  0
LINE
  5
33B
100
AcDbEntity
  8
3_ALL_AXES
100
AcDbLine
 62
7
  6
CONTINUOUS
 10
1110.4052246514
 20
189.2040592386
 11
1110.555944981
 21
189.2040592386
  0
LINE
  5
33C
100
AcDbEntity
  8
6_ALL_SURFS
100
AcDbLine
 62
7
  6
CONTINUOUS
 10
1108.055944981
 20
189.3540592386
 11
264.055944981
 21
189.3540592386
  0
LINE
  5
33D
100
AcDbEntity
  8
7_ALL_FEATURES
100
AcDbLine
 62
9
  6
CONTINUOUS
 10
1109.555944981
 20
189.6040592386
 11
1108.055944981
 21
189.6040592386
  0
LINE
  5
33E
100
AcDbEntity
  8
7_ALL_FEATURES
100
AcDbLine
 62
9
  6
CONTINUOUS
 10
264.055944981
 20
189.6040592386
 11
262.555944981
 21
189.6040592386
  0
LINE
  5
33F
100
AcDbEntity
  8
6_ALL_SURFS
100
AcDbLine
 62
9
  6
CONTINUOUS
 10
264.055944981
 20
189.6540592386
 11
1108.055944981
 21
189.6540592386
  0
LINE
  5
340
100
AcDbEntity
  8
7_ALL_FEATURES
100
AcDbLine
 62
7
  6
CONTINUOUS
 10
1109.555944981
 20
190.3540592386
 11
1108.055944981
 21
190.3540592386
  0
LINE
  5
341
100
AcDbEntity
  8
7_ALL_FEATURES
100
AcDbLine
 62
7
  6
CONTINUOUS
 10
264.055944981
 20
190.3540592386
 11
262.555944981
 21
190.3540592386
  0
LINE
  5
342
100
AcDbEntity
  8
7_ALL_FEATURES
100
AcDbLine
 62
9
  6
CONTINUOUS
 10
1109.555944981
 20
191.8540592386
 11
1108.055944981
 21
191.8540592386
  0
LINE
  5
343
100
AcDbEntity
  8
7_ALL_FEATURES
100
AcDbLine
 62
9
  6
CONTINUOUS
 10
262.555944981
 20
191.8540592386
 11
264.055944981
 21
191.8540592386
  0
LINE
  5
344
100
AcDbEntity
  8
6_ALL_SURFS
100
AcDbLine
 62
9
  6
CONTINUOUS
 10
1108.055944981
 20
234.3995731679
 11
264.055944981
 21
234.3995731679
  0
LINE
  5
345
100
AcDbEntity
  8
7_ALL_FEATURES
100
AcDbLine
 62
7
  6
CONTINUOUS
 10
264.055944981
 20
234.9471622263
 11
262.555944981
 21
234.9471622263
  0
LINE
  5
346
100
AcDbEntity
  8
7_ALL_FEATURES
100
AcDbLine
 62
7
  6
CONTINUOUS
 10
1108.055944981
 20
234.9471622263
 11
1109.555944981
 21
234.9471622263
  0
LINE
  5
347
100
AcDbEntity
  8
6_ALL_SURFS
100
AcDbLine
 62
9
  6
CONTINUOUS
 10
1108.055944981
 20
235.4817712375
 11
264.055944981
 21
235.4817712375
  0
LINE
  5
348
100
AcDbEntity
  8
7_ALL_FEATURES
100
AcDbLine
 62
7
  6
CONTINUOUS
 10
264.055944981
 20
243.9685792336
 11
262.555944981
 21
243.9685792336
  0
LINE
  5
349
100
AcDbEntity
  8
7_ALL_FEATURES
100
AcDbLine
 62
7
  6
CONTINUOUS
 10
1108.055944981
 20
243.9685792336
 11
1109.555944981
 21
243.9685792336
  0
LINE
  5
34A
100
AcDbEntity
  8
6_ALL_SURFS
100
AcDbLine
 62
9
  6
CONTINUOUS
 10
1108.055944981
 20
249.1340365234
 11
264.055944981
 21
249.1340365234
  0
LINE
  5
34B
100
AcDbEntity
  8
3_ALL_AXES
100
AcDbLine
 62
7
  6
CONTINUOUS
 10
261.7066653106
 20
249.3040592386
 11
261.555944981
 21
249.3040592386
  0
LINE
  5
34C
100
AcDbEntity
  8
3_ALL_AXES
100
AcDbLine
 62
7
  6
CONTINUOUS
 10
1110.4052246514
 20
249.3040592386
 11
1110.555944981
 21
249.3040592386
  0
LINE
  5
34D
100
AcDbEntity
  8
6_ALL_SURFS
100
AcDbLine
 62
9
  6
CONTINUOUS
 10
1108.055944981
 20
249.8302602396
 11
264.055944981
 21
249.8302602396
  0
LINE
  5
34E
100
AcDbEntity
  8
6_ALL_SURFS
100
AcDbLine
 62
9
  6
CONTINUOUS
 10
264.055944981
 20
250.292768916
 11
1108.055944981
 21
250.292768916
  0
LINE
  5
34F
100
AcDbEntity
  8
6_ALL_SURFS
100
AcDbLine
 62
9
  6
CONTINUOUS
 10
264.055944981
 20
253.3185753676
 11
1108.055944981
 21
253.3185753676
  0
LINE
  5
350
100
AcDbEntity
  8
6_ALL_SURFS
100
AcDbLine
 62
7
  6
CONTINUOUS
 10
1108.055944981
 20
253.7540592386
 11
264.055944981
 21
253.7540592386
  0
LINE
  5
351
100
AcDbEntity
  8
6_ALL_SURFS
100
AcDbLine
 62
9
  6
CONTINUOUS
 10
1108.055944981
 20
254.2540592386
 11
264.055944981
 21
254.2540592386
  0
LINE
  5
352
100
AcDbEntity
  8
7_ALL_FEATURES
100
AcDbLine
 62
9
  6
CONTINUOUS
 10
262.555944981
 20
254.5040592386
 11
264.055944981
 21
254.5040592386
  0
LINE
  5
353
100
AcDbEntity
  8
7_ALL_FEATURES
100
AcDbLine
 62
9
  6
CONTINUOUS
 10
1108.055944981
 20
254.5040592386
 11
1109.555944981
 21
254.5040592386
  0
LINE
  5
354
100
AcDbEntity
  8
3_ALL_AXES
100
AcDbLine
 62
7
  6
CONTINUOUS
 10
261.7066653106
 20
254.8040592386
 11
261.555944981
 21
254.8040592386
  0
LINE
  5
355
100
AcDbEntity
  8
3_ALL_AXES
100
AcDbLine
 62
7
  6
CONTINUOUS
 10
1110.4052246514
 20
254.8040592386
 11
1110.555944981
 21
254.8040592386
  0
LINE
  5
356
100
AcDbEntity
  8
6_ALL_SURFS
100
AcDbLine
 62
9
  6
CONTINUOUS
 10
264.055944981
 20
254.9540592386
 11
1108.055944981
 21
254.9540592386
  0
LINE
  5
357
100
AcDbEntity
  8
7_ALL_FEATURES
100
AcDbLine
 62
7
  6
CONTINUOUS
 10
262.555944981
 20
255.2540592386
 11
264.055944981
 21
255.2540592386
  0
LINE
  5
358
100
AcDbEntity
  8
6_ALL_SURFS
100
AcDbLine
 62
7
  6
CONTINUOUS
 10
264.055944981
 20
255.2540592386
 11
1108.055944981
 21
255.2540592386
  0
LINE
  5
359
100
AcDbEntity
  8
7_ALL_FEATURES
100
AcDbLine
 62
7
  6
CONTINUOUS
 10
1108.055944981
 20
255.2540592386
 11
1109.555944981
 21
255.2540592386
  0
LINE
  5
35A
100
AcDbEntity
  8
3_ALL_AXES
100
AcDbLine
 62
7
  6
CONTINUOUS
 10
1109.555944981
 20
254.0914289804
 11
1110.4052246514
 21
254.8040592386
  0
LINE
  5
35B
100
AcDbEntity
  8
3_ALL_AXES
100
AcDbLine
 62
7
  6
CONTINUOUS
 10
1109.555944981
 20
184.4166894967
 11
1110.4052246514
 21
183.7040592386
  0
LINE
  5
35C
100
AcDbEntity
  8
3_ALL_AXES
100
AcDbLine
 62
7
  6
CONTINUOUS
 10
1109.555944981
 20
188.4914289804
 11
1110.4052246514
 21
189.2040592386
  0
LINE
  5
35D
100
AcDbEntity
  8
3_ALL_AXES
100
AcDbLine
 62
7
  6
CONTINUOUS
 10
1109.555944981
 20
250.0166894967
 11
1110.4052246514
 21
249.3040592386
  0
LINE
  5
35E
100
AcDbEntity
  8
6_ALL_SURFS
100
AcDbLine
 62
7
  6
CONTINUOUS
 10
1108.055944981
 20
175.4540592386
 11
1108.055944981
 21
175.4657745362
  0
LINE
  5
35F
100
AcDbEntity
  8
7_ALL_FEATURES
100
AcDbLine
 62
7
  6
CONTINUOUS
 10
1108.055944981
 20
175.4657745362
 11
1108.055944981
 21
176.9540592386
  0
LINE
  5
360
100
AcDbEntity
  8
6_ALL_SURFS
100
AcDbLine
 62
7
  6
CONTINUOUS
 10
1108.055944981
 20
176.9540592386
 11
1108.055944981
 21
178.1040592386
  0
LINE
  5
361
100
AcDbEntity
  8
6_ALL_SURFS
100
AcDbLine
 62
7
  6
CONTINUOUS
 10
1108.055944981
 20
185.5540592386
 11
1108.055944981
 21
187.3540592386
  0
LINE
  5
362
100
AcDbEntity
  8
7_ALL_FEATURES
100
AcDbLine
 62
7
  6
CONTINUOUS
 10
1108.055944981
 20
178.1040592386
 11
1108.055944981
 21
254.5040592386
  0
LINE
  5
363
100
AcDbEntity
  8
6_ALL_SURFS
100
AcDbLine
 62
7
  6
CONTINUOUS
 10
1108.055944981
 20
191.8540592386
 11
1108.055944981
 21
243.9685792336
  0
LINE
  5
364
100
AcDbEntity
  8
6_ALL_SURFS
100
AcDbLine
 62
7
  6
CONTINUOUS
 10
1108.055944981
 20
254.2540592386
 11
1108.055944981
 21
255.2540592386
  0
LINE
  5
365
100
AcDbEntity
  8
7_ALL_FEATURES
100
AcDbLine
 62
7
  6
CONTINUOUS
 10
1109.555944981
 20
175.4540592386
 11
1109.555944981
 21
255.2540592386
  0
LINE
  5
366
100
AcDbEntity
  8
3_ALL_AXES
100
AcDbLine
 62
7
  6
CONTINUOUS
 10
1110.4052246514
 20
183.7040592386
 11
1110.4052246514
 21
189.2040592386
  0
LINE
  5
367
100
AcDbEntity
  8
3_ALL_AXES
100
AcDbLine
 62
7
  6
CONTINUOUS
 10
1110.4052246514
 20
249.3040592386
 11
1110.4052246514
 21
254.8040592386
  0
LINE
  5
368
100
AcDbEntity
  8
3_ALL_AXES
100
AcDbLine
 62
7
  6
CONTINUOUS
 10
1110.555944981
 20
183.7041073047
 11
1110.555944981
 21
189.2040111724
  0
LINE
  5
369
100
AcDbEntity
  8
3_ALL_AXES
100
AcDbLine
 62
7
  6
CONTINUOUS
 10
1110.555944981
 20
249.3041073047
 11
1110.555944981
 21
254.8040111724
  0
LINE
  5
36A
100
AcDbEntity
  8
3_ALL_AXES
100
AcDbLine
 62
7
  6
CONTINUOUS
 10
261.555944981
 20
411.8594210263
 11
261.555944981
 21
406.3594210263
  0
LINE
  5
36B
100
AcDbEntity
  8
3_ALL_AXES
100
AcDbLine
 62
7
  6
CONTINUOUS
 10
261.555944981
 20
405.5594210263
 11
261.555944981
 21
400.0594210263
  0
LINE
  5
36C
100
AcDbEntity
  8
3_ALL_AXES
100
AcDbLine
 62
7
  6
CONTINUOUS
 10
261.555944981
 20
381.5594210263
 11
261.555944981
 21
376.0594210263
  0
LINE
  5
36D
100
AcDbEntity
  8
3_ALL_AXES
100
AcDbLine
 62
7
  6
CONTINUOUS
 10
261.555944981
 20
375.2594210263
 11
261.555944981
 21
369.7594210263
  0
LINE
  5
36E
100
AcDbEntity
  8
3_ALL_AXES
100
AcDbLine
 62
7
  6
CONTINUOUS
 10
261.7066653106
 20
411.8594210263
 11
261.7066653106
 21
406.3594210263
  0
LINE
  5
36F
100
AcDbEntity
  8
3_ALL_AXES
100
AcDbLine
 62
7
  6
CONTINUOUS
 10
261.7066653106
 20
405.5594210263
 11
261.7066653106
 21
400.0594210263
  0
LINE
  5
370
100
AcDbEntity
  8
3_ALL_AXES
100
AcDbLine
 62
7
  6
CONTINUOUS
 10
261.7066653106
 20
381.5594210263
 11
261.7066653106
 21
376.0594210263
  0
LINE
  5
371
100
AcDbEntity
  8
3_ALL_AXES
100
AcDbLine
 62
7
  6
CONTINUOUS
 10
261.7066653106
 20
375.2594210263
 11
261.7066653106
 21
369.7594210263
  0
LINE
  5
372
100
AcDbEntity
  8
7_ALL_FEATURES
100
AcDbLine
 62
7
  6
CONTINUOUS
 10
262.555944981
 20
369.6094210263
 11
262.555944981
 21
412.0094210263
  0
LINE
  5
373
100
AcDbEntity
  8
3_ALL_AXES
100
AcDbLine
 62
7
  6
CONTINUOUS
 10
264.055944981
 20
367.7594210263
 11
264.055944981
 21
352.2594210263
  0
LINE
  5
374
100
AcDbEntity
  8
7_ALL_FEATURES
100
AcDbLine
 62
7
  6
CONTINUOUS
 10
264.055944981
 20
349.7594299955
 11
264.055944981
 21
352.2594210263
  0
LINE
  5
375
100
AcDbEntity
  8
7_ALL_FEATURES
100
AcDbLine
 62
7
  6
CONTINUOUS
 10
264.055944981
 20
367.7594210263
 11
264.055944981
 21
412.0094210263
  0
LINE
  5
376
100
AcDbEntity
  8
6_ALL_SURFS
100
AcDbLine
 62
7
  6
CONTINUOUS
 10
264.055944981
 20
410.6594210263
 11
264.055944981
 21
411.387565551
  0
LINE
  5
377
100
AcDbEntity
  8
6_ALL_SURFS
100
AcDbLine
 62
7
  6
CONTINUOUS
 10
264.055944981
 20
412.0094210263
 11
264.055944981
 21
431.859412057
  0
LINE
  5
378
100
AcDbEntity
  8
7_ALL_FEATURES
100
AcDbLine
 62
7
  6
CONTINUOUS
 10
264.555944981
 20
410.1594210263
 11
264.555944981
 21
371.4594210263
  0
LINE
  5
379
100
AcDbEntity
  8
3_ALL_AXES
100
AcDbLine
 62
7
  6
CONTINUOUS
 10
261.7066653106
 20
406.3594210263
 11
262.555944981
 21
407.0720512844
  0
LINE
  5
37A
100
AcDbEntity
  8
3_ALL_AXES
100
AcDbLine
 62
7
  6
CONTINUOUS
 10
261.7066653106
 20
375.2594210263
 11
262.555944981
 21
374.5467907681
  0
LINE
  5
37B
100
AcDbEntity
  8
3_ALL_AXES
100
AcDbLine
 62
7
  6
CONTINUOUS
 10
261.7066653106
 20
400.0594210263
 11
262.555944981
 21
400.7720512844
  0
LINE
  5
37C
100
AcDbEntity
  8
3_ALL_AXES
100
AcDbLine
 62
7
  6
CONTINUOUS
 10
261.7066653106
 20
376.0594210263
 11
262.555944981
 21
376.7720512844
  0
LINE
  5
37D
100
AcDbEntity
  8
3_ALL_AXES
100
AcDbLine
 62
7
  6
CONTINUOUS
 10
261.7066653106
 20
369.7594210263
 11
262.555944981
 21
370.4720512844
  0
LINE
  5
37E
100
AcDbEntity
  8
3_ALL_AXES
100
AcDbLine
 62
7
  6
CONTINUOUS
 10
261.7066653106
 20
381.5594210263
 11
262.555944981
 21
380.8467907681
  0
LINE
  5
37F
100
AcDbEntity
  8
3_ALL_AXES
100
AcDbLine
 62
7
  6
CONTINUOUS
 10
261.7066653106
 20
405.5594210263
 11
262.555944981
 21
404.8467907681
  0
LINE
  5
380
100
AcDbEntity
  8
3_ALL_AXES
100
AcDbLine
 62
7
  6
CONTINUOUS
 10
261.7066653106
 20
411.8594210263
 11
262.555944981
 21
411.1467907681
  0
LINE
  5
381
100
AcDbEntity
  8
7_ALL_FEATURES
100
AcDbLine
 62
7
  6
CONTINUOUS
 10
1108.055944981
 20
349.7594210263
 11
264.055944981
 21
349.7594210263
  0
LINE
  5
382
100
AcDbEntity
  8
7_ALL_FEATURES
100
AcDbLine
 62
9
  6
CONTINUOUS
 10
1108.055944981
 20
350.1139494359
 11
264.055944981
 21
350.1139494359
  0
LINE
  5
383
100
AcDbEntity
  8
7_ALL_FEATURES
100
AcDbLine
 62
7
  6
CONTINUOUS
 10
264.055944981
 20
352.2594210263
 11
307.7725371873
 21
352.2594210263
  0
LINE
  5
384
100
AcDbEntity
  8
7_ALL_FEATURES
100
AcDbLine
 62
7
  6
CONTINUOUS
 10
314.3393527747
 20
352.2594210263
 11
557.7725371873
 21
352.2594210263
  0
LINE
  5
385
100
AcDbEntity
  8
7_ALL_FEATURES
100
AcDbLine
 62
7
  6
CONTINUOUS
 10
564.3393527747
 20
352.2594210263
 11
807.7725371873
 21
352.2594210263
  0
LINE
  5
386
100
AcDbEntity
  8
7_ALL_FEATURES
100
AcDbLine
 62
7
  6
CONTINUOUS
 10
814.3393527747
 20
352.2594210263
 11
1057.7725371873
 21
352.2594210263
  0
LINE
  5
387
100
AcDbEntity
  8
7_ALL_FEATURES
100
AcDbLine
 62
7
  6
CONTINUOUS
 10
1064.3393527747
 20
352.2594210263
 11
1108.055944981
 21
352.2594210263
  0
LINE
  5
388
100
AcDbEntity
  8
7_ALL_FEATURES
100
AcDbLine
 62
7
  6
CONTINUOUS
 10
264.055944981
 20
355.1594210263
 11
306.294562121
 21
355.1594210263
  0
LINE
  5
389
100
AcDbEntity
  8
7_ALL_FEATURES
100
AcDbLine
 62
7
  6
CONTINUOUS
 10
315.817327841
 20
355.1594210263
 11
556.294562121
 21
355.1594210263
  0
LINE
  5
38A
100
AcDbEntity
  8
7_ALL_FEATURES
100
AcDbLine
 62
7
  6
CONTINUOUS
 10
565.817327841
 20
355.1594210263
 11
806.294562121
 21
355.1594210263
  0
LINE
  5
38B
100
AcDbEntity
  8
7_ALL_FEATURES
100
AcDbLine
 62
7
  6
CONTINUOUS
 10
815.817327841
 20
355.1594210263
 11
1056.294562121
 21
355.1594210263
  0
LINE
  5
38C
100
AcDbEntity
  8
7_ALL_FEATURES
100
AcDbLine
 62
7
  6
CONTINUOUS
 10
1065.817327841
 20
355.1594210263
 11
1108.055944981
 21
355.1594210263
  0
LINE
  5
38D
100
AcDbEntity
  8
7_ALL_FEATURES
100
AcDbLine
 62
7
  6
CONTINUOUS
 10
264.055944981
 20
355.7594210263
 11
306.2569068753
 21
355.7594210263
  0
LINE
  5
38E
100
AcDbEntity
  8
7_ALL_FEATURES
100
AcDbLine
 62
7
  6
CONTINUOUS
 10
315.8549830867
 20
355.7594210263
 11
556.2569068753
 21
355.7594210263
  0
LINE
  5
38F
100
AcDbEntity
  8
7_ALL_FEATURES
100
AcDbLine
 62
7
  6
CONTINUOUS
 10
565.8549830867
 20
355.7594210263
 11
806.2569068753
 21
355.7594210263
  0
LINE
  5
390
100
AcDbEntity
  8
7_ALL_FEATURES
100
AcDbLine
 62
7
  6
CONTINUOUS
 10
815.8549830867
 20
355.7594210263
 11
1056.2569068753
 21
355.7594210263
  0
LINE
  5
391
100
AcDbEntity
  8
7_ALL_FEATURES
100
AcDbLine
 62
7
  6
CONTINUOUS
 10
1065.8549830867
 20
355.7594210263
 11
1108.055944981
 21
355.7594210263
  0
LINE
  5
392
100
AcDbEntity
  8
7_ALL_FEATURES
100
AcDbLine
 62
7
  6
CONTINUOUS
 10
264.055944981
 20
358.1594210263
 11
306.9001337798
 21
358.1594210263
  0
LINE
  5
393
100
AcDbEntity
  8
7_ALL_FEATURES
100
AcDbLine
 62
7
  6
CONTINUOUS
 10
315.2117561821
 20
358.1594210263
 11
556.9001337798
 21
358.1594210263
  0
LINE
  5
394
100
AcDbEntity
  8
7_ALL_FEATURES
100
AcDbLine
 62
7
  6
CONTINUOUS
 10
565.2117561821
 20
358.1594210263
 11
806.9001337798
 21
358.1594210263
  0
LINE
  5
395
100
AcDbEntity
  8
7_ALL_FEATURES
100
AcDbLine
 62
7
  6
CONTINUOUS
 10
815.2117561821
 20
358.1594210263
 11
1056.9001337798
 21
358.1594210263
  0
LINE
  5
396
100
AcDbEntity
  8
7_ALL_FEATURES
100
AcDbLine
 62
7
  6
CONTINUOUS
 10
1065.2117561821
 20
358.1594210263
 11
1108.055944981
 21
358.1594210263
  0
LINE
  5
397
100
AcDbEntity
  8
7_ALL_FEATURES
100
AcDbLine
 62
7
  6
CONTINUOUS
 10
264.055944981
 20
358.7594210263
 11
307.310178472
 21
358.7594210263
  0
LINE
  5
398
100
AcDbEntity
  8
7_ALL_FEATURES
100
AcDbLine
 62
7
  6
CONTINUOUS
 10
314.80171149
 20
358.7594210263
 11
557.310178472
 21
358.7594210263
  0
LINE
  5
399
100
AcDbEntity
  8
7_ALL_FEATURES
100
AcDbLine
 62
7
  6
CONTINUOUS
 10
564.80171149
 20
358.7594210263
 11
807.310178472
 21
358.7594210263
  0
LINE
  5
39A
100
AcDbEntity
  8
7_ALL_FEATURES
100
AcDbLine
 62
7
  6
CONTINUOUS
 10
814.80171149
 20
358.7594210263
 11
1057.310178472
 21
358.7594210263
  0
LINE
  5
39B
100
AcDbEntity
  8
7_ALL_FEATURES
100
AcDbLine
 62
7
  6
CONTINUOUS
 10
1064.80171149
 20
358.7594210263
 11
1108.055944981
 21
358.7594210263
  0
LINE
  5
39C
100
AcDbEntity
  8
3_ALL_AXES
100
AcDbLine
 62
7
  6
CONTINUOUS
 10
264.055944981
 20
361.1594210263
 11
1108.055944981
 21
361.1594210263
  0
LINE
  5
39D
100
AcDbEntity
  8
3_ALL_AXES
100
AcDbLine
 62
7
  6
CONTINUOUS
 10
264.055944981
 20
361.7594210263
 11
1108.055944981
 21
361.7594210263
  0
LINE
  5
39E
100
AcDbEntity
  8
3_ALL_AXES
100
AcDbLine
 62
7
  6
CONTINUOUS
 10
264.055944981
 20
364.1594210263
 11
1108.055944981
 21
364.1594210263
  0
LINE
  5
39F
100
AcDbEntity
  8
3_ALL_AXES
100
AcDbLine
 62
7
  6
CONTINUOUS
 10
264.055944981
 20
364.7594210263
 11
1108.055944981
 21
364.7594210263
  0
LINE
  5
3A0
100
AcDbEntity
  8
3_ALL_AXES
100
AcDbLine
 62
7
  6
CONTINUOUS
 10
264.055944981
 20
367.1594210263
 11
1108.055944981
 21
367.1594210263
  0
LINE
  5
3A1
100
AcDbEntity
  8
3_ALL_AXES
100
AcDbLine
 62
7
  6
CONTINUOUS
 10
264.055944981
 20
367.7594210263
 11
1108.055944981
 21
367.7594210263
  0
LINE
  5
3A2
100
AcDbEntity
  8
7_ALL_FEATURES
100
AcDbLine
 62
7
  6
CONTINUOUS
 10
1109.555944981
 20
369.6094210263
 11
1108.055944981
 21
369.6094210263
  0
LINE
  5
3A3
100
AcDbEntity
  8
7_ALL_FEATURES
100
AcDbLine
 62
7
  6
CONTINUOUS
 10
262.555944981
 20
369.6094210263
 11
264.055944981
 21
369.6094210263
  0
LINE
  5
3A4
100
AcDbEntity
  8
7_ALL_FEATURES
100
AcDbLine
 62
9
  6
CONTINUOUS
 10
264.055944981
 20
369.7094210263
 11
1108.055944981
 21
369.7094210263
  0
LINE
  5
3A5
100
AcDbEntity
  8
3_ALL_AXES
100
AcDbLine
 62
7
  6
CONTINUOUS
 10
1110.555944981
 20
369.7594210263
 11
1110.4052246514
 21
369.7594210263
  0
LINE
  5
3A6
100
AcDbEntity
  8
3_ALL_AXES
100
AcDbLine
 62
7
  6
CONTINUOUS
 10
261.555944981
 20
369.7594210263
 11
261.7066653106
 21
369.7594210263
  0
LINE
  5
3A7
100
AcDbEntity
  8
7_ALL_FEATURES
100
AcDbLine
 62
7
  6
CONTINUOUS
 10
1108.055944981
 20
370.0094210263
 11
264.055944981
 21
370.0094210263
  0
LINE
  5
3A8
100
AcDbEntity
  8
7_ALL_FEATURES
100
AcDbLine
 62
9
  6
CONTINUOUS
 10
1108.055944981
 20
370.3094210263
 11
264.055944981
 21
370.3094210263
  0
LINE
  5
3A9
100
AcDbEntity
  8
7_ALL_FEATURES
100
AcDbLine
 62
9
  6
CONTINUOUS
 10
1109.555944981
 20
370.3594210263
 11
1108.055944981
 21
370.3594210263
  0
LINE
  5
3AA
100
AcDbEntity
  8
7_ALL_FEATURES
100
AcDbLine
 62
9
  6
CONTINUOUS
 10
262.555944981
 20
370.3594210263
 11
264.055944981
 21
370.3594210263
  0
LINE
  5
3AB
100
AcDbEntity
  8
7_ALL_FEATURES
100
AcDbLine
 62
9
  6
CONTINUOUS
 10
1108.055944981
 20
370.9594210263
 11
264.055944981
 21
370.9594210263
  0
LINE
  5
3AC
100
AcDbEntity
  8
7_ALL_FEATURES
100
AcDbLine
 62
7
  6
CONTINUOUS
 10
1108.055944981
 20
371.2594210263
 11
264.055944981
 21
371.2594210263
  0
LINE
  5
3AD
100
AcDbEntity
  8
7_ALL_FEATURES
100
AcDbLine
 62
7
  6
CONTINUOUS
 10
264.555944981
 20
371.4594210263
 11
1107.555944981
 21
371.4594210263
  0
LINE
  5
3AE
100
AcDbEntity
  8
7_ALL_FEATURES
100
AcDbLine
 62
9
  6
CONTINUOUS
 10
264.055944981
 20
371.5594210263
 11
264.555944981
 21
371.5594210263
  0
LINE
  5
3AF
100
AcDbEntity
  8
7_ALL_FEATURES
100
AcDbLine
 62
9
  6
CONTINUOUS
 10
1107.555944981
 20
371.5594210263
 11
1108.055944981
 21
371.5594210263
  0
LINE
  5
3B0
100
AcDbEntity
  8
7_ALL_FEATURES
100
AcDbLine
 62
9
  6
CONTINUOUS
 10
264.555944981
 20
371.6594210263
 11
1107.555944981
 21
371.6594210263
  0
LINE
  5
3B1
100
AcDbEntity
  8
7_ALL_FEATURES
100
AcDbLine
 62
9
  6
CONTINUOUS
 10
1108.055944981
 20
372.2094210263
 11
1107.555944981
 21
372.2094210263
  0
LINE
  5
3B2
100
AcDbEntity
  8
7_ALL_FEATURES
100
AcDbLine
 62
9
  6
CONTINUOUS
 10
264.555944981
 20
372.2094210263
 11
264.055944981
 21
372.2094210263
  0
LINE
  5
3B3
100
AcDbEntity
  8
7_ALL_FEATURES
100
AcDbLine
 62
7
  6
CONTINUOUS
 10
1108.055944981
 20
372.5094210263
 11
1107.555944981
 21
372.5094210263
  0
LINE
  5
3B4
100
AcDbEntity
  8
7_ALL_FEATURES
100
AcDbLine
 62
7
  6
CONTINUOUS
 10
264.555944981
 20
372.5094210263
 11
264.055944981
 21
372.5094210263
  0
LINE
  5
3B5
100
AcDbEntity
  8
7_ALL_FEATURES
100
AcDbLine
 62
9
  6
CONTINUOUS
 10
264.055944981
 20
373.0704586283
 11
264.555944981
 21
373.0704586283
  0
LINE
  5
3B6
100
AcDbEntity
  8
7_ALL_FEATURES
100
AcDbLine
 62
9
  6
CONTINUOUS
 10
1107.555944981
 20
373.0704586283
 11
1108.055944981
 21
373.0704586283
  0
LINE
  5
3B7
100
AcDbEntity
  8
7_ALL_FEATURES
100
AcDbLine
 62
9
  6
CONTINUOUS
 10
264.055944981
 20
373.2898647387
 11
264.555944981
 21
373.2898647387
  0
LINE
  5
3B8
100
AcDbEntity
  8
7_ALL_FEATURES
100
AcDbLine
 62
9
  6
CONTINUOUS
 10
1107.555944981
 20
373.2898647387
 11
1108.055944981
 21
373.2898647387
  0
LINE
  5
3B9
100
AcDbEntity
  8
7_ALL_FEATURES
100
AcDbLine
 62
9
  6
CONTINUOUS
 10
1108.055944981
 20
374.1094210263
 11
1107.555944981
 21
374.1094210263
  0
LINE
  5
3BA
100
AcDbEntity
  8
7_ALL_FEATURES
100
AcDbLine
 62
9
  6
CONTINUOUS
 10
264.555944981
 20
374.1094210263
 11
264.055944981
 21
374.1094210263
  0
LINE
  5
3BB
100
AcDbEntity
  8
7_ALL_FEATURES
100
AcDbLine
 62
7
  6
CONTINUOUS
 10
1108.055944981
 20
374.4094210263
 11
1107.555944981
 21
374.4094210263
  0
LINE
  5
3BC
100
AcDbEntity
  8
7_ALL_FEATURES
100
AcDbLine
 62
7
  6
CONTINUOUS
 10
264.555944981
 20
374.4094210263
 11
264.055944981
 21
374.4094210263
  0
LINE
  5
3BD
100
AcDbEntity
  8
7_ALL_FEATURES
100
AcDbLine
 62
9
  6
CONTINUOUS
 10
264.055944981
 20
374.4697284055
 11
264.555944981
 21
374.4697284055
  0
LINE
  5
3BE
100
AcDbEntity
  8
7_ALL_FEATURES
100
AcDbLine
 62
9
  6
CONTINUOUS
 10
1107.555944981
 20
374.4697284055
 11
1108.055944981
 21
374.4697284055
  0
LINE
  5
3BF
100
AcDbEntity
  8
7_ALL_FEATURES
100
AcDbLine
 62
9
  6
CONTINUOUS
 10
1108.055944981
 20
374.8247846122
 11
1107.555944981
 21
374.8247846122
  0
LINE
  5
3C0
100
AcDbEntity
  8
7_ALL_FEATURES
100
AcDbLine
 62
9
  6
CONTINUOUS
 10
264.555944981
 20
374.8247846122
 11
264.055944981
 21
374.8247846122
  0
LINE
  5
3C1
100
AcDbEntity
  8
7_ALL_FEATURES
100
AcDbLine
 62
7
  6
CONTINUOUS
 10
1108.055944981
 20
374.842876826
 11
1107.555944981
 21
374.842876826
  0
LINE
  5
3C2
100
AcDbEntity
  8
7_ALL_FEATURES
100
AcDbLine
 62
7
  6
CONTINUOUS
 10
264.555944981
 20
374.842876826
 11
264.055944981
 21
374.842876826
  0
LINE
  5
3C3
100
AcDbEntity
  8
3_ALL_AXES
100
AcDbLine
 62
7
  6
CONTINUOUS
 10
1110.555944981
 20
375.2594210263
 11
1110.4052246514
 21
375.2594210263
  0
LINE
  5
3C4
100
AcDbEntity
  8
3_ALL_AXES
100
AcDbLine
 62
7
  6
CONTINUOUS
 10
261.555944981
 20
375.2594210263
 11
261.7066653106
 21
375.2594210263
  0
LINE
  5
3C5
100
AcDbEntity
  8
3_ALL_AXES
100
AcDbLine
 62
7
  6
CONTINUOUS
 10
1110.555944981
 20
376.0594210263
 11
1110.4052246514
 21
376.0594210263
  0
LINE
  5
3C6
100
AcDbEntity
  8
3_ALL_AXES
100
AcDbLine
 62
7
  6
CONTINUOUS
 10
261.555944981
 20
376.0594210263
 11
261.7066653106
 21
376.0594210263
  0
LINE
  5
3C7
100
AcDbEntity
  8
7_ALL_FEATURES
100
AcDbLine
 62
9
  6
CONTINUOUS
 10
264.055944981
 20
377.2357098708
 11
264.555944981
 21
377.2357098708
  0
LINE
  5
3C8
100
AcDbEntity
  8
7_ALL_FEATURES
100
AcDbLine
 62
9
  6
CONTINUOUS
 10
1107.555944981
 20
377.2357098708
 11
1108.055944981
 21
377.2357098708
  0
LINE
  5
3C9
100
AcDbEntity
  8
7_ALL_FEATURES
100
AcDbLine
 62
9
  6
CONTINUOUS
 10
264.055944981
 20
378.2120058779
 11
264.555944981
 21
378.2120058779
  0
LINE
  5
3CA
100
AcDbEntity
  8
7_ALL_FEATURES
100
AcDbLine
 62
9
  6
CONTINUOUS
 10
1107.555944981
 20
378.2120058779
 11
1108.055944981
 21
378.2120058779
  0
LINE
  5
3CB
100
AcDbEntity
  8
3_ALL_AXES
100
AcDbLine
 62
7
  6
CONTINUOUS
 10
1110.555944981
 20
381.5594210263
 11
1110.4052246514
 21
381.5594210263
  0
LINE
  5
3CC
100
AcDbEntity
  8
3_ALL_AXES
100
AcDbLine
 62
7
  6
CONTINUOUS
 10
261.555944981
 20
381.5594210263
 11
261.7066653106
 21
381.5594210263
  0
LINE
  5
3CD
100
AcDbEntity
  8
7_ALL_FEATURES
100
AcDbLine
 62
9
  6
CONTINUOUS
 10
1108.055944981
 20
388.8094210263
 11
1107.555944981
 21
388.8094210263
  0
LINE
  5
3CE
100
AcDbEntity
  8
7_ALL_FEATURES
100
AcDbLine
 62
9
  6
CONTINUOUS
 10
264.555944981
 20
388.8094210263
 11
264.055944981
 21
388.8094210263
  0
LINE
  5
3CF
100
AcDbEntity
  8
7_ALL_FEATURES
100
AcDbLine
 62
7
  6
CONTINUOUS
 10
1108.055944981
 20
389.1094210263
 11
1107.555944981
 21
389.1094210263
  0
LINE
  5
3D0
100
AcDbEntity
  8
7_ALL_FEATURES
100
AcDbLine
 62
7
  6
CONTINUOUS
 10
264.555944981
 20
389.1094210263
 11
264.055944981
 21
389.1094210263
  0
LINE
  5
3D1
100
AcDbEntity
  8
7_ALL_FEATURES
100
AcDbLine
 62
9
  6
CONTINUOUS
 10
264.055944981
 20
389.4094210263
 11
264.555944981
 21
389.4094210263
  0
LINE
  5
3D2
100
AcDbEntity
  8
7_ALL_FEATURES
100
AcDbLine
 62
9
  6
CONTINUOUS
 10
1107.555944981
 20
389.4094210263
 11
1108.055944981
 21
389.4094210263
  0
LINE
  5
3D3
100
AcDbEntity
  8
6_ALL_SURFS
100
AcDbLine
 62
9
  6
CONTINUOUS
 10
264.055944981
 20
392.2094210263
 11
264.555944981
 21
392.2094210263
  0
LINE
  5
3D4
100
AcDbEntity
  8
6_ALL_SURFS
100
AcDbLine
 62
9
  6
CONTINUOUS
 10
1107.555944981
 20
392.2094210263
 11
1108.055944981
 21
392.2094210263
  0
LINE
  5
3D5
100
AcDbEntity
  8
6_ALL_SURFS
100
AcDbLine
 62
7
  6
CONTINUOUS
 10
1108.055944981
 20
392.5094210263
 11
1107.555944981
 21
392.5094210263
  0
LINE
  5
3D6
100
AcDbEntity
  8
6_ALL_SURFS
100
AcDbLine
 62
7
  6
CONTINUOUS
 10
264.555944981
 20
392.5094210263
 11
264.055944981
 21
392.5094210263
  0
LINE
  5
3D7
100
AcDbEntity
  8
6_ALL_SURFS
100
AcDbLine
 62
9
  6
CONTINUOUS
 10
1108.055944981
 20
392.8094210263
 11
1107.555944981
 21
392.8094210263
  0
LINE
  5
3D8
100
AcDbEntity
  8
6_ALL_SURFS
100
AcDbLine
 62
9
  6
CONTINUOUS
 10
264.555944981
 20
392.8094210263
 11
264.055944981
 21
392.8094210263
  0
LINE
  5
3D9
100
AcDbEntity
  8
3_ALL_AXES
100
AcDbLine
 62
7
  6
CONTINUOUS
 10
1110.555944981
 20
400.0594210263
 11
1110.4052246514
 21
400.0594210263
  0
LINE
  5
3DA
100
AcDbEntity
  8
3_ALL_AXES
100
AcDbLine
 62
7
  6
CONTINUOUS
 10
261.555944981
 20
400.0594210263
 11
261.7066653106
 21
400.0594210263
  0
LINE
  5
3DB
100
AcDbEntity
  8
6_ALL_SURFS
100
AcDbLine
 62
9
  6
CONTINUOUS
 10
264.055944981
 20
403.4068361746
 11
264.555944981
 21
403.4068361746
  0
LINE
  5
3DC
100
AcDbEntity
  8
6_ALL_SURFS
100
AcDbLine
 62
9
  6
CONTINUOUS
 10
1107.555944981
 20
403.4068361746
 11
1108.055944981
 21
403.4068361746
  0
LINE
  5
3DD
100
AcDbEntity
  8
6_ALL_SURFS
100
AcDbLine
 62
9
  6
CONTINUOUS
 10
264.055944981
 20
404.3831321817
 11
264.555944981
 21
404.3831321817
  0
LINE
  5
3DE
100
AcDbEntity
  8
6_ALL_SURFS
100
AcDbLine
 62
9
  6
CONTINUOUS
 10
1107.555944981
 20
404.3831321817
 11
1108.055944981
 21
404.3831321817
  0
LINE
  5
3DF
100
AcDbEntity
  8
3_ALL_AXES
100
AcDbLine
 62
7
  6
CONTINUOUS
 10
1110.555944981
 20
405.5594210263
 11
1110.4052246514
 21
405.5594210263
  0
LINE
  5
3E0
100
AcDbEntity
  8
3_ALL_AXES
100
AcDbLine
 62
7
  6
CONTINUOUS
 10
261.555944981
 20
405.5594210263
 11
261.7066653106
 21
405.5594210263
  0
LINE
  5
3E1
100
AcDbEntity
  8
3_ALL_AXES
100
AcDbLine
 62
7
  6
CONTINUOUS
 10
1110.555944981
 20
406.3594210263
 11
1110.4052246514
 21
406.3594210263
  0
LINE
  5
3E2
100
AcDbEntity
  8
3_ALL_AXES
100
AcDbLine
 62
7
  6
CONTINUOUS
 10
261.555944981
 20
406.3594210263
 11
261.7066653106
 21
406.3594210263
  0
LINE
  5
3E3
100
AcDbEntity
  8
6_ALL_SURFS
100
AcDbLine
 62
7
  6
CONTINUOUS
 10
264.055944981
 20
406.7759652266
 11
264.555944981
 21
406.7759652266
  0
LINE
  5
3E4
100
AcDbEntity
  8
6_ALL_SURFS
100
AcDbLine
 62
7
  6
CONTINUOUS
 10
1107.555944981
 20
406.7759652266
 11
1108.055944981
 21
406.7759652266
  0
LINE
  5
3E5
100
AcDbEntity
  8
6_ALL_SURFS
100
AcDbLine
 62
9
  6
CONTINUOUS
 10
1108.055944981
 20
406.7940574403
 11
1107.555944981
 21
406.7940574403
  0
LINE
  5
3E6
100
AcDbEntity
  8
6_ALL_SURFS
100
AcDbLine
 62
9
  6
CONTINUOUS
 10
264.555944981
 20
406.7940574403
 11
264.055944981
 21
406.7940574403
  0
LINE
  5
3E7
100
AcDbEntity
  8
6_ALL_SURFS
100
AcDbLine
 62
9
  6
CONTINUOUS
 10
264.055944981
 20
407.149113647
 11
264.555944981
 21
407.149113647
  0
LINE
  5
3E8
100
AcDbEntity
  8
6_ALL_SURFS
100
AcDbLine
 62
9
  6
CONTINUOUS
 10
1107.555944981
 20
407.149113647
 11
1108.055944981
 21
407.149113647
  0
LINE
  5
3E9
100
AcDbEntity
  8
6_ALL_SURFS
100
AcDbLine
 62
7
  6
CONTINUOUS
 10
1108.055944981
 20
407.2094210263
 11
1107.555944981
 21
407.2094210263
  0
LINE
  5
3EA
100
AcDbEntity
  8
6_ALL_SURFS
100
AcDbLine
 62
7
  6
CONTINUOUS
 10
264.555944981
 20
407.2094210263
 11
264.055944981
 21
407.2094210263
  0
LINE
  5
3EB
100
AcDbEntity
  8
6_ALL_SURFS
100
AcDbLine
 62
9
  6
CONTINUOUS
 10
1108.055944981
 20
407.5094210263
 11
1107.555944981
 21
407.5094210263
  0
LINE
  5
3EC
100
AcDbEntity
  8
6_ALL_SURFS
100
AcDbLine
 62
9
  6
CONTINUOUS
 10
264.555944981
 20
407.5094210263
 11
264.055944981
 21
407.5094210263
  0
LINE
  5
3ED
100
AcDbEntity
  8
6_ALL_SURFS
100
AcDbLine
 62
9
  6
CONTINUOUS
 10
264.055944981
 20
408.3289773138
 11
264.555944981
 21
408.3289773138
  0
LINE
  5
3EE
100
AcDbEntity
  8
6_ALL_SURFS
100
AcDbLine
 62
9
  6
CONTINUOUS
 10
1107.555944981
 20
408.3289773138
 11
1108.055944981
 21
408.3289773138
  0
LINE
  5
3EF
100
AcDbEntity
  8
6_ALL_SURFS
100
AcDbLine
 62
9
  6
CONTINUOUS
 10
264.055944981
 20
408.5483834243
 11
264.555944981
 21
408.5483834243
  0
LINE
  5
3F0
100
AcDbEntity
  8
6_ALL_SURFS
100
AcDbLine
 62
9
  6
CONTINUOUS
 10
1107.555944981
 20
408.5483834243
 11
1108.055944981
 21
408.5483834243
  0
LINE
  5
3F1
100
AcDbEntity
  8
6_ALL_SURFS
100
AcDbLine
 62
7
  6
CONTINUOUS
 10
1108.055944981
 20
409.1094210263
 11
1107.555944981
 21
409.1094210263
  0
LINE
  5
3F2
100
AcDbEntity
  8
6_ALL_SURFS
100
AcDbLine
 62
7
  6
CONTINUOUS
 10
264.555944981
 20
409.1094210263
 11
264.055944981
 21
409.1094210263
  0
LINE
  5
3F3
100
AcDbEntity
  8
6_ALL_SURFS
100
AcDbLine
 62
9
  6
CONTINUOUS
 10
1108.055944981
 20
409.4094210263
 11
1107.555944981
 21
409.4094210263
  0
LINE
  5
3F4
100
AcDbEntity
  8
6_ALL_SURFS
100
AcDbLine
 62
9
  6
CONTINUOUS
 10
264.555944981
 20
409.4094210263
 11
264.055944981
 21
409.4094210263
  0
LINE
  5
3F5
100
AcDbEntity
  8
7_ALL_FEATURES
100
AcDbLine
 62
9
  6
CONTINUOUS
 10
264.555944981
 20
409.9594210263
 11
1107.555944981
 21
409.9594210263
  0
LINE
  5
3F6
100
AcDbEntity
  8
6_ALL_SURFS
100
AcDbLine
 62
9
  6
CONTINUOUS
 10
264.055944981
 20
410.0594210263
 11
264.555944981
 21
410.0594210263
  0
LINE
  5
3F7
100
AcDbEntity
  8
6_ALL_SURFS
100
AcDbLine
 62
9
  6
CONTINUOUS
 10
1107.555944981
 20
410.0594210263
 11
1108.055944981
 21
410.0594210263
  0
LINE
  5
3F8
100
AcDbEntity
  8
7_ALL_FEATURES
100
AcDbLine
 62
7
  6
CONTINUOUS
 10
264.555944981
 20
410.1594210263
 11
1107.555944981
 21
410.1594210263
  0
LINE
  5
3F9
100
AcDbEntity
  8
6_ALL_SURFS
100
AcDbLine
 62
7
  6
CONTINUOUS
 10
1108.055944981
 20
410.3594210263
 11
264.055944981
 21
410.3594210263
  0
LINE
  5
3FA
100
AcDbEntity
  8
6_ALL_SURFS
100
AcDbLine
 62
9
  6
CONTINUOUS
 10
1108.055944981
 20
410.6594210263
 11
264.055944981
 21
410.6594210263
  0
LINE
  5
3FB
100
AcDbEntity
  8
7_ALL_FEATURES
100
AcDbLine
 62
9
  6
CONTINUOUS
 10
1109.555944981
 20
411.2594210263
 11
1108.055944981
 21
411.2594210263
  0
LINE
  5
3FC
100
AcDbEntity
  8
7_ALL_FEATURES
100
AcDbLine
 62
9
  6
CONTINUOUS
 10
262.555944981
 20
411.2594210263
 11
264.055944981
 21
411.2594210263
  0
LINE
  5
3FD
100
AcDbEntity
  8
6_ALL_SURFS
100
AcDbLine
 62
9
  6
CONTINUOUS
 10
1108.055944981
 20
411.3094210263
 11
264.055944981
 21
411.3094210263
  0
LINE
  5
3FE
100
AcDbEntity
  8
6_ALL_SURFS
100
AcDbLine
 62
7
  6
CONTINUOUS
 10
1108.055944981
 20
411.6094210263
 11
264.055944981
 21
411.6094210263
  0
LINE
  5
3FF
100
AcDbEntity
  8
3_ALL_AXES
100
AcDbLine
 62
7
  6
CONTINUOUS
 10
1110.555944981
 20
411.8594210263
 11
1110.4052246514
 21
411.8594210263
  0
LINE
  5
400
100
AcDbEntity
  8
3_ALL_AXES
100
AcDbLine
 62
7
  6
CONTINUOUS
 10
261.555944981
 20
411.8594210263
 11
261.7066653106
 21
411.8594210263
  0
LINE
  5
401
100
AcDbEntity
  8
6_ALL_SURFS
100
AcDbLine
 62
9
  6
CONTINUOUS
 10
264.055944981
 20
411.9094210263
 11
1108.055944981
 21
411.9094210263
  0
LINE
  5
402
100
AcDbEntity
  8
7_ALL_FEATURES
100
AcDbLine
 62
7
  6
CONTINUOUS
 10
1109.555944981
 20
412.0094210263
 11
1108.055944981
 21
412.0094210263
  0
LINE
  5
403
100
AcDbEntity
  8
7_ALL_FEATURES
100
AcDbLine
 62
7
  6
CONTINUOUS
 10
262.555944981
 20
412.0094210263
 11
264.055944981
 21
412.0094210263
  0
LINE
  5
404
100
AcDbEntity
  8
6_ALL_SURFS
100
AcDbLine
 62
7
  6
CONTINUOUS
 10
264.055944981
 20
413.8594210263
 11
1108.055944981
 21
413.8594210263
  0
LINE
  5
405
100
AcDbEntity
  8
6_ALL_SURFS
100
AcDbLine
 62
7
  6
CONTINUOUS
 10
264.055944981
 20
414.4594210263
 11
1108.055944981
 21
414.4594210263
  0
LINE
  5
406
100
AcDbEntity
  8
6_ALL_SURFS
100
AcDbLine
 62
7
  6
CONTINUOUS
 10
264.055944981
 20
416.8594210263
 11
1108.055944981
 21
416.8594210263
  0
LINE
  5
407
100
AcDbEntity
  8
6_ALL_SURFS
100
AcDbLine
 62
7
  6
CONTINUOUS
 10
264.055944981
 20
417.4594210263
 11
1108.055944981
 21
417.4594210263
  0
LINE
  5
408
100
AcDbEntity
  8
6_ALL_SURFS
100
AcDbLine
 62
7
  6
CONTINUOUS
 10
264.055944981
 20
419.8594210263
 11
1108.055944981
 21
419.8594210263
  0
LINE
  5
409
100
AcDbEntity
  8
6_ALL_SURFS
100
AcDbLine
 62
7
  6
CONTINUOUS
 10
264.055944981
 20
420.4594210263
 11
1108.055944981
 21
420.4594210263
  0
LINE
  5
40A
100
AcDbEntity
  8
6_ALL_SURFS
100
AcDbLine
 62
7
  6
CONTINUOUS
 10
264.055944981
 20
422.8594210263
 11
307.310178472
 21
422.8594210263
  0
LINE
  5
40B
100
AcDbEntity
  8
6_ALL_SURFS
100
AcDbLine
 62
7
  6
CONTINUOUS
 10
314.80171149
 20
422.8594210263
 11
557.310178472
 21
422.8594210263
  0
LINE
  5
40C
100
AcDbEntity
  8
6_ALL_SURFS
100
AcDbLine
 62
7
  6
CONTINUOUS
 10
564.80171149
 20
422.8594210263
 11
807.310178472
 21
422.8594210263
  0
LINE
  5
40D
100
AcDbEntity
  8
6_ALL_SURFS
100
AcDbLine
 62
7
  6
CONTINUOUS
 10
814.80171149
 20
422.8594210263
 11
1057.310178472
 21
422.8594210263
  0
LINE
  5
40E
100
AcDbEntity
  8
6_ALL_SURFS
100
AcDbLine
 62
7
  6
CONTINUOUS
 10
1064.80171149
 20
422.8594210263
 11
1108.055944981
 21
422.8594210263
  0
LINE
  5
40F
100
AcDbEntity
  8
6_ALL_SURFS
100
AcDbLine
 62
7
  6
CONTINUOUS
 10
264.055944981
 20
423.4594210263
 11
306.9001337798
 21
423.4594210263
  0
LINE
  5
410
100
AcDbEntity
  8
6_ALL_SURFS
100
AcDbLine
 62
7
  6
CONTINUOUS
 10
315.2117561821
 20
423.4594210263
 11
556.9001337798
 21
423.4594210263
  0
LINE
  5
411
100
AcDbEntity
  8
6_ALL_SURFS
100
AcDbLine
 62
7
  6
CONTINUOUS
 10
565.2117561821
 20
423.4594210263
 11
806.9001337798
 21
423.4594210263
  0
LINE
  5
412
100
AcDbEntity
  8
6_ALL_SURFS
100
AcDbLine
 62
7
  6
CONTINUOUS
 10
815.2117561821
 20
423.4594210263
 11
1056.9001337798
 21
423.4594210263
  0
LINE
  5
413
100
AcDbEntity
  8
6_ALL_SURFS
100
AcDbLine
 62
7
  6
CONTINUOUS
 10
1065.2117561821
 20
423.4594210263
 11
1108.055944981
 21
423.4594210263
  0
LINE
  5
414
100
AcDbEntity
  8
6_ALL_SURFS
100
AcDbLine
 62
7
  6
CONTINUOUS
 10
264.055944981
 20
425.8594210263
 11
306.2569068753
 21
425.8594210263
  0
LINE
  5
415
100
AcDbEntity
  8
6_ALL_SURFS
100
AcDbLine
 62
7
  6
CONTINUOUS
 10
315.8549830867
 20
425.8594210263
 11
556.2569068753
 21
425.8594210263
  0
LINE
  5
416
100
AcDbEntity
  8
6_ALL_SURFS
100
AcDbLine
 62
7
  6
CONTINUOUS
 10
565.8549830867
 20
425.8594210263
 11
806.2569068753
 21
425.8594210263
  0
LINE
  5
417
100
AcDbEntity
  8
6_ALL_SURFS
100
AcDbLine
 62
7
  6
CONTINUOUS
 10
815.8549830867
 20
425.8594210263
 11
1056.2569068753
 21
425.8594210263
  0
LINE
  5
418
100
AcDbEntity
  8
6_ALL_SURFS
100
AcDbLine
 62
7
  6
CONTINUOUS
 10
1065.8549830867
 20
425.8594210263
 11
1108.055944981
 21
425.8594210263
  0
LINE
  5
419
100
AcDbEntity
  8
6_ALL_SURFS
100
AcDbLine
 62
7
  6
CONTINUOUS
 10
264.055944981
 20
426.4594210263
 11
306.294562121
 21
426.4594210263
  0
LINE
  5
41A
100
AcDbEntity
  8
6_ALL_SURFS
100
AcDbLine
 62
7
  6
CONTINUOUS
 10
315.817327841
 20
426.4594210263
 11
556.294562121
 21
426.4594210263
  0
LINE
  5
41B
100
AcDbEntity
  8
6_ALL_SURFS
100
AcDbLine
 62
7
  6
CONTINUOUS
 10
565.817327841
 20
426.4594210263
 11
806.294562121
 21
426.4594210263
  0
LINE
  5
41C
100
AcDbEntity
  8
6_ALL_SURFS
100
AcDbLine
 62
7
  6
CONTINUOUS
 10
815.817327841
 20
426.4594210263
 11
1056.294562121
 21
426.4594210263
  0
LINE
  5
41D
100
AcDbEntity
  8
6_ALL_SURFS
100
AcDbLine
 62
7
  6
CONTINUOUS
 10
1065.817327841
 20
426.4594210263
 11
1108.055944981
 21
426.4594210263
  0
LINE
  5
41E
100
AcDbEntity
  8
6_ALL_SURFS
100
AcDbLine
 62
7
  6
CONTINUOUS
 10
264.055944981
 20
429.3594210263
 11
307.7725371873
 21
429.3594210263
  0
LINE
  5
41F
100
AcDbEntity
  8
6_ALL_SURFS
100
AcDbLine
 62
7
  6
CONTINUOUS
 10
314.3393527747
 20
429.3594210263
 11
557.7725371873
 21
429.3594210263
  0
LINE
  5
420
100
AcDbEntity
  8
6_ALL_SURFS
100
AcDbLine
 62
7
  6
CONTINUOUS
 10
564.3393527747
 20
429.3594210263
 11
807.7725371873
 21
429.3594210263
  0
LINE
  5
421
100
AcDbEntity
  8
6_ALL_SURFS
100
AcDbLine
 62
7
  6
CONTINUOUS
 10
814.3393527747
 20
429.3594210263
 11
1057.7725371873
 21
429.3594210263
  0
LINE
  5
422
100
AcDbEntity
  8
6_ALL_SURFS
100
AcDbLine
 62
7
  6
CONTINUOUS
 10
1064.3393527747
 20
429.3594210263
 11
1108.055944981
 21
429.3594210263
  0
LINE
  5
423
100
AcDbEntity
  8
6_ALL_SURFS
100
AcDbLine
 62
9
  6
CONTINUOUS
 10
1108.055944981
 20
431.5048926166
 11
264.055944981
 21
431.5048926166
  0
LINE
  5
424
100
AcDbEntity
  8
6_ALL_SURFS
100
AcDbLine
 62
7
  6
CONTINUOUS
 10
264.055944981
 20
431.8594210263
 11
1108.055944981
 21
431.8594210263
  0
LINE
  5
425
100
AcDbEntity
  8
3_ALL_AXES
100
AcDbLine
 62
7
  6
CONTINUOUS
 10
1110.4052246514
 20
411.8594210263
 11
1109.555944981
 21
411.1467907681
  0
LINE
  5
426
100
AcDbEntity
  8
3_ALL_AXES
100
AcDbLine
 62
7
  6
CONTINUOUS
 10
1110.4052246514
 20
369.7594210263
 11
1109.555944981
 21
370.4720512844
  0
LINE
  5
427
100
AcDbEntity
  8
3_ALL_AXES
100
AcDbLine
 62
7
  6
CONTINUOUS
 10
1110.4052246514
 20
405.5594210263
 11
1109.555944981
 21
404.8467907681
  0
LINE
  5
428
100
AcDbEntity
  8
3_ALL_AXES
100
AcDbLine
 62
7
  6
CONTINUOUS
 10
1110.4052246514
 20
381.5594210263
 11
1109.555944981
 21
380.8467907681
  0
LINE
  5
429
100
AcDbEntity
  8
3_ALL_AXES
100
AcDbLine
 62
7
  6
CONTINUOUS
 10
1110.4052246514
 20
375.2594210263
 11
1109.555944981
 21
374.5467907681
  0
LINE
  5
42A
100
AcDbEntity
  8
3_ALL_AXES
100
AcDbLine
 62
7
  6
CONTINUOUS
 10
1110.4052246514
 20
376.0594210263
 11
1109.555944981
 21
376.7720512844
  0
LINE
  5
42B
100
AcDbEntity
  8
3_ALL_AXES
100
AcDbLine
 62
7
  6
CONTINUOUS
 10
1110.4052246514
 20
400.0594210263
 11
1109.555944981
 21
400.7720512844
  0
LINE
  5
42C
100
AcDbEntity
  8
3_ALL_AXES
100
AcDbLine
 62
7
  6
CONTINUOUS
 10
1110.4052246514
 20
406.3594210263
 11
1109.555944981
 21
407.0720512844
  0
LINE
  5
42D
100
AcDbEntity
  8
7_ALL_FEATURES
100
AcDbLine
 62
7
  6
CONTINUOUS
 10
1107.555944981
 20
410.1594210263
 11
1107.555944981
 21
371.4594210263
  0
LINE
  5
42E
100
AcDbEntity
  8
3_ALL_AXES
100
AcDbLine
 62
7
  6
CONTINUOUS
 10
1108.055944981
 20
367.7594210263
 11
1108.055944981
 21
352.2594210263
  0
LINE
  5
42F
100
AcDbEntity
  8
7_ALL_FEATURES
100
AcDbLine
 62
7
  6
CONTINUOUS
 10
1108.055944981
 20
352.2594210263
 11
1108.055944981
 21
349.7594299955
  0
LINE
  5
430
100
AcDbEntity
  8
7_ALL_FEATURES
100
AcDbLine
 62
7
  6
CONTINUOUS
 10
1108.055944981
 20
367.7594210263
 11
1108.055944981
 21
412.0094210263
  0
LINE
  5
431
100
AcDbEntity
  8
6_ALL_SURFS
100
AcDbLine
 62
7
  6
CONTINUOUS
 10
1108.055944981
 20
410.6594210263
 11
1108.055944981
 21
411.387565551
  0
LINE
  5
432
100
AcDbEntity
  8
6_ALL_SURFS
100
AcDbLine
 62
7
  6
CONTINUOUS
 10
1108.055944981
 20
412.0094210263
 11
1108.055944981
 21
431.859412057
  0
LINE
  5
433
100
AcDbEntity
  8
7_ALL_FEATURES
100
AcDbLine
 62
7
  6
CONTINUOUS
 10
1109.555944981
 20
412.0094210263
 11
1109.555944981
 21
369.6094210263
  0
LINE
  5
434
100
AcDbEntity
  8
3_ALL_AXES
100
AcDbLine
 62
7
  6
CONTINUOUS
 10
1110.4052246514
 20
369.7594210263
 11
1110.4052246514
 21
375.2594210263
  0
LINE
  5
435
100
AcDbEntity
  8
3_ALL_AXES
100
AcDbLine
 62
7
  6
CONTINUOUS
 10
1110.4052246514
 20
376.0594210263
 11
1110.4052246514
 21
381.5594210263
  0
LINE
  5
436
100
AcDbEntity
  8
3_ALL_AXES
100
AcDbLine
 62
7
  6
CONTINUOUS
 10
1110.4052246514
 20
400.0594210263
 11
1110.4052246514
 21
405.5594210263
  0
LINE
  5
437
100
AcDbEntity
  8
3_ALL_AXES
100
AcDbLine
 62
7
  6
CONTINUOUS
 10
1110.4052246514
 20
406.3594210263
 11
1110.4052246514
 21
411.8594210263
  0
LINE
  5
438
100
AcDbEntity
  8
3_ALL_AXES
100
AcDbLine
 62
7
  6
CONTINUOUS
 10
1110.555944981
 20
369.7594210263
 11
1110.555944981
 21
375.2594210263
  0
LINE
  5
439
100
AcDbEntity
  8
3_ALL_AXES
100
AcDbLine
 62
7
  6
CONTINUOUS
 10
1110.555944981
 20
376.0594210263
 11
1110.555944981
 21
381.5594210263
  0
LINE
  5
43A
100
AcDbEntity
  8
3_ALL_AXES
100
AcDbLine
 62
7
  6
CONTINUOUS
 10
1110.555944981
 20
400.0594210263
 11
1110.555944981
 21
405.5594210263
  0
LINE
  5
43B
100
AcDbEntity
  8
3_ALL_AXES
100
AcDbLine
 62
7
  6
CONTINUOUS
 10
1110.555944981
 20
406.3594210263
 11
1110.555944981
 21
411.8594210263
  0
CIRCLE
  5
43C
100
AcDbEntity
  8
3_ALL_AXES
100
AcDbCircle
 62
7
  6
CONTINUOUS
 10
87.0012213546
 20
186.4540592386
 40
2.75
  0
ARC
  5
43D
100
AcDbEntity
  8
7_ALL_FEATURES
100
AcDbCircle
 62
7
  6
CONTINUOUS
 10
85.8012213546
 20
191.8540592386
 40
1.5
100
AcDbArc
 50
270.0
 51
360.0
  0
ARC
  5
43E
100
AcDbEntity
  8
7_ALL_FEATURES
100
AcDbCircle
 62
7
  6
CONTINUOUS
 10
84.8512213546
 20
189.6040592386
 40
0.75
100
AcDbArc
 50
90.0
 51
180.0
  0
ARC
  5
43F
100
AcDbEntity
  8
7_ALL_FEATURES
100
AcDbCircle
 62
7
  6
CONTINUOUS
 10
84.8512213546
 20
176.2040592386
 40
0.75
100
AcDbArc
 50
180.0
 51
270.0
  0
ARC
  5
440
100
AcDbEntity
  8
6_ALL_SURFS
100
AcDbCircle
 62
7
  6
CONTINUOUS
 10
81.9512213546
 20
176.5540592386
 40
0.5
100
AcDbArc
 50
53.1301023542
 51
126.8698976458
  0
ARC
  5
441
100
AcDbEntity
  8
6_ALL_SURFS
100
AcDbCircle
 62
7
  6
CONTINUOUS
 10
78.9512213546
 20
176.5540592386
 40
0.5
100
AcDbArc
 50
53.1301023542
 51
126.8698976458
  0
ARC
  5
442
100
AcDbEntity
  8
6_ALL_SURFS
100
AcDbCircle
 62
7
  6
CONTINUOUS
 10
75.9512213546
 20
176.5540592386
 40
0.5
100
AcDbArc
 50
53.1301023542
 51
126.8698976458
  0
ARC
  5
443
100
AcDbEntity
  8
6_ALL_SURFS
100
AcDbCircle
 62
7
  6
CONTINUOUS
 10
72.9512213546
 20
176.5540592386
 40
0.5
100
AcDbArc
 50
53.1301023542
 51
126.8698976458
  0
ARC
  5
444
100
AcDbEntity
  8
6_ALL_SURFS
100
AcDbCircle
 62
7
  6
CONTINUOUS
 10
69.9512213546
 20
176.5540592386
 40
0.5
100
AcDbArc
 50
53.1301023542
 51
126.8698976458
  0
ARC
  5
445
100
AcDbEntity
  8
6_ALL_SURFS
100
AcDbCircle
 62
7
  6
CONTINUOUS
 10
64.6449247125
 20
177.5603558806
 40
0.3937033579
100
AcDbArc
 50
90.0
 51
264.2894068625
  0
ARC
  5
446
100
AcDbEntity
  8
6_ALL_SURFS
100
AcDbCircle
 62
7
  6
CONTINUOUS
 10
83.9512213546
 20
178.2540592386
 40
0.3
100
AcDbArc
 50
270.0
 51
300.1396113324
  0
ARC
  5
447
100
AcDbEntity
  8
6_ALL_SURFS
100
AcDbCircle
 62
7
  6
CONTINUOUS
 10
84.8012213546
 20
175.7540592386
 40
0.3
100
AcDbArc
 50
254.8334492506
 51
270.0
  0
CIRCLE
  5
448
100
AcDbEntity
  8
3_ALL_AXES
100
AcDbCircle
 62
7
  6
CONTINUOUS
 10
93.3012213546
 20
252.0540592386
 40
2.75
  0
ARC
  5
449
100
AcDbEntity
  8
6_ALL_SURFS
100
AcDbCircle
 62
7
  6
CONTINUOUS
 10
103.5012213546
 20
253.4540592386
 40
1.8
100
AcDbArc
 50
90.0
 51
105.6234228216
  0
ARC
  5
44A
100
AcDbEntity
  8
7_ALL_FEATURES
100
AcDbCircle
 62
7
  6
CONTINUOUS
 10
102.6554700436
 20
254.2540592386
 40
1.0
100
AcDbArc
 50
48.5903778907
 51
90.0
  0
ARC
  5
44B
100
AcDbEntity
  8
7_ALL_FEATURES
100
AcDbCircle
 62
7
  6
CONTINUOUS
 10
90.0512213546
 20
254.5040592386
 40
0.75
100
AcDbArc
 50
90.0
 51
180.0
  0
ARC
  5
44C
100
AcDbEntity
  8
6_ALL_SURFS
100
AcDbCircle
 62
7
  6
CONTINUOUS
 10
89.6012213546
 20
254.9540592386
 40
0.3
100
AcDbArc
 50
90.0
 51
180.0
  0
CIRCLE
  5
44D
100
AcDbEntity
  8
3_ALL_AXES
100
AcDbCircle
 62
7
  6
CONTINUOUS
 10
123.6012213546
 20
186.4540592386
 40
2.75
  0
ARC
  5
44E
100
AcDbEntity
  8
7_ALL_FEATURES
100
AcDbCircle
 62
7
  6
CONTINUOUS
 10
124.8012213546
 20
191.8540592386
 40
1.5
100
AcDbArc
 50
180.0
 51
270.0
  0
ARC
  5
44F
100
AcDbEntity
  8
7_ALL_FEATURES
100
AcDbCircle
 62
7
  6
CONTINUOUS
 10
125.7512213546
 20
176.2040592386
 40
0.75
100
AcDbArc
 50
270.0
 51
360.0
  0
ARC
  5
450
100
AcDbEntity
  8
7_ALL_FEATURES
100
AcDbCircle
 62
7
  6
CONTINUOUS
 10
125.7512213546
 20
189.6040592386
 40
0.75
100
AcDbArc
 50
0.0
 51
90.0
  0
ARC
  5
451
100
AcDbEntity
  8
3_ALL_AXES
100
AcDbCircle
 62
7
  6
CONTINUOUS
 10
140.6512213546
 20
176.5540592386
 40
0.5
100
AcDbArc
 50
53.1301023542
 51
126.8698976458
  0
ARC
  5
452
100
AcDbEntity
  8
3_ALL_AXES
100
AcDbCircle
 62
7
  6
CONTINUOUS
 10
137.6512213546
 20
176.5540592386
 40
0.5
100
AcDbArc
 50
53.1301023542
 51
126.8698976458
  0
ARC
  5
453
100
AcDbEntity
  8
3_ALL_AXES
100
AcDbCircle
 62
7
  6
CONTINUOUS
 10
134.6512213546
 20
176.5540592386
 40
0.5
100
AcDbArc
 50
53.1301023542
 51
126.8698976458
  0
ARC
  5
454
100
AcDbEntity
  8
3_ALL_AXES
100
AcDbCircle
 62
7
  6
CONTINUOUS
 10
131.6512213546
 20
176.5540592386
 40
0.5
100
AcDbArc
 50
53.1301023542
 51
126.8698976458
  0
ARC
  5
455
100
AcDbEntity
  8
3_ALL_AXES
100
AcDbCircle
 62
7
  6
CONTINUOUS
 10
128.6512213546
 20
176.5540592386
 40
0.5
100
AcDbArc
 50
53.1301023542
 51
126.8698976458
  0
ARC
  5
456
100
AcDbEntity
  8
7_ALL_FEATURES
100
AcDbCircle
 62
7
  6
CONTINUOUS
 10
145.9575179967
 20
177.5603558806
 40
0.3937033579
100
AcDbArc
 50
275.7105931375
 51
90.0
  0
ARC
  5
457
100
AcDbEntity
  8
7_ALL_FEATURES
100
AcDbCircle
 62
7
  6
CONTINUOUS
 10
126.6512213546
 20
178.2540592386
 40
0.3
100
AcDbArc
 50
239.8603886676
 51
270.0
  0
ARC
  5
458
100
AcDbEntity
  8
7_ALL_FEATURES
100
AcDbCircle
 62
7
  6
CONTINUOUS
 10
125.8012213546
 20
175.7540592386
 40
0.3
100
AcDbArc
 50
270.0
 51
285.1665507494
  0
ARC
  5
459
100
AcDbEntity
  8
7_ALL_FEATURES
100
AcDbCircle
 62
7
  6
CONTINUOUS
 10
105.3012213546
 20
232.7540592386
 40
11.0
100
AcDbArc
 50
3.257196161
 51
176.742803839
  0
ARC
  5
45A
100
AcDbEntity
  8
7_ALL_FEATURES
100
AcDbCircle
 62
7
  6
CONTINUOUS
 10
105.3012213546
 20
232.7540592386
 40
11.0
100
AcDbArc
 50
183.257196161
 51
356.742803839
  0
ARC
  5
45B
100
AcDbEntity
  8
7_ALL_FEATURES
100
AcDbCircle
 62
7
  6
CONTINUOUS
 10
105.3012213546
 20
232.7540592386
 40
10.25
100
AcDbArc
 50
3.4958136324
 51
176.5041863676
  0
ARC
  5
45C
100
AcDbEntity
  8
7_ALL_FEATURES
100
AcDbCircle
 62
7
  6
CONTINUOUS
 10
105.3012213546
 20
232.7540592386
 40
10.25
100
AcDbArc
 50
183.4958136324
 51
356.5041863676
  0
ARC
  5
45D
100
AcDbEntity
  8
7_ALL_FEATURES
100
AcDbCircle
 62
7
  6
CONTINUOUS
 10
105.3012213546
 20
257.2540592386
 40
3.0
100
AcDbArc
 50
228.5903778907
 51
311.4096221093
  0
CIRCLE
  5
45E
100
AcDbEntity
  8
3_ALL_AXES
100
AcDbCircle
 62
7
  6
CONTINUOUS
 10
117.3012213546
 20
252.0540592386
 40
2.75
  0
ARC
  5
45F
100
AcDbEntity
  8
7_ALL_FEATURES
100
AcDbCircle
 62
7
  6
CONTINUOUS
 10
107.1012213546
 20
253.4540592386
 40
1.8
100
AcDbArc
 50
74.3765771784
 51
90.0
  0
ARC
  5
460
100
AcDbEntity
  8
7_ALL_FEATURES
100
AcDbCircle
 62
7
  6
CONTINUOUS
 10
107.9469726657
 20
254.2540592386
 40
1.0
100
AcDbArc
 50
90.0
 51
131.4096221093
  0
ARC
  5
461
100
AcDbEntity
  8
7_ALL_FEATURES
100
AcDbCircle
 62
7
  6
CONTINUOUS
 10
120.5512213546
 20
254.5040592386
 40
0.75
100
AcDbArc
 50
0.0
 51
90.0
  0
ARC
  5
462
100
AcDbEntity
  8
7_ALL_FEATURES
100
AcDbCircle
 62
7
  6
CONTINUOUS
 10
121.0012213546
 20
254.9540592386
 40
0.3
100
AcDbArc
 50
0.0
 51
90.0
  0
ARC
  5
463
100
AcDbEntity
  8
7_ALL_FEATURES
100
AcDbCircle
 62
7
  6
CONTINUOUS
 10
561.055944981
 20
355.7594210263
 40
4.7990381057
100
AcDbArc
 50
38.6913826582
 51
141.3086173418
  0
ARC
  5
464
100
AcDbEntity
  8
7_ALL_FEATURES
100
AcDbCircle
 62
7
  6
CONTINUOUS
 10
311.055944981
 20
355.7594210263
 40
4.7990381057
100
AcDbArc
 50
38.6913826582
 51
141.3086173418
  0
ARC
  5
465
100
AcDbEntity
  8
7_ALL_FEATURES
100
AcDbCircle
 62
7
  6
CONTINUOUS
 10
311.055944981
 20
355.7594210263
 40
4.7990381057
100
AcDbArc
 50
149.9933694481
 51
180.0
  0
ARC
  5
466
100
AcDbEntity
  8
7_ALL_FEATURES
100
AcDbCircle
 62
7
  6
CONTINUOUS
 10
561.055944981
 20
355.7594210263
 40
4.7990381057
100
AcDbArc
 50
149.9933694481
 51
180.0
  0
ARC
  5
467
100
AcDbEntity
  8
7_ALL_FEATURES
100
AcDbCircle
 62
7
  6
CONTINUOUS
 10
311.055944981
 20
355.7594210263
 40
4.7990381057
100
AcDbArc
 50
0.0
 51
30.0066305519
  0
ARC
  5
468
100
AcDbEntity
  8
7_ALL_FEATURES
100
AcDbCircle
 62
7
  6
CONTINUOUS
 10
561.055944981
 20
355.7594210263
 40
4.7990381057
100
AcDbArc
 50
0.0
 51
30.0066305519
  0
ARC
  5
469
100
AcDbEntity
  8
7_ALL_FEATURES
100
AcDbCircle
 62
7
  6
CONTINUOUS
 10
311.055944981
 20
355.7594210263
 40
4.7990381057
100
AcDbArc
 50
187.1822026405
 51
226.828815981
  0
ARC
  5
46A
100
AcDbEntity
  8
7_ALL_FEATURES
100
AcDbCircle
 62
7
  6
CONTINUOUS
 10
561.055944981
 20
355.7594210263
 40
4.7990381057
100
AcDbArc
 50
187.1822026405
 51
226.828815981
  0
ARC
  5
46B
100
AcDbEntity
  8
7_ALL_FEATURES
100
AcDbCircle
 62
7
  6
CONTINUOUS
 10
311.055944981
 20
355.7594210263
 40
4.7990381057
100
AcDbArc
 50
313.171184019
 51
352.8177973595
  0
ARC
  5
46C
100
AcDbEntity
  8
7_ALL_FEATURES
100
AcDbCircle
 62
7
  6
CONTINUOUS
 10
561.055944981
 20
355.7594210263
 40
4.7990381057
100
AcDbArc
 50
313.171184019
 51
352.8177973595
  0
CIRCLE
  5
46D
100
AcDbEntity
  8
6_ALL_SURFS
100
AcDbCircle
 62
7
  6
CONTINUOUS
 10
561.055944981
 20
355.7594210263
 40
3.5
  0
CIRCLE
  5
46E
100
AcDbEntity
  8
6_ALL_SURFS
100
AcDbCircle
 62
7
  6
CONTINUOUS
 10
311.055944981
 20
355.7594210263
 40
3.5
  0
ARC
  5
46F
100
AcDbEntity
  8
6_ALL_SURFS
100
AcDbCircle
 62
7
  6
CONTINUOUS
 10
561.055944981
 20
425.8594210263
 40
4.7990381057
100
AcDbArc
 50
7.1822026405
 51
46.828815981
  0
ARC
  5
470
100
AcDbEntity
  8
6_ALL_SURFS
100
AcDbCircle
 62
7
  6
CONTINUOUS
 10
311.055944981
 20
425.8594210263
 40
4.7990381057
100
AcDbArc
 50
7.1822026405
 51
46.828815981
  0
ARC
  5
471
100
AcDbEntity
  8
6_ALL_SURFS
100
AcDbCircle
 62
7
  6
CONTINUOUS
 10
561.055944981
 20
425.8594210263
 40
4.7990381057
100
AcDbArc
 50
133.171184019
 51
172.8177973595
  0
ARC
  5
472
100
AcDbEntity
  8
6_ALL_SURFS
100
AcDbCircle
 62
7
  6
CONTINUOUS
 10
311.055944981
 20
425.8594210263
 40
4.7990381057
100
AcDbArc
 50
133.171184019
 51
172.8177973595
  0
ARC
  5
473
100
AcDbEntity
  8
6_ALL_SURFS
100
AcDbCircle
 62
7
  6
CONTINUOUS
 10
561.055944981
 20
425.8594210263
 40
4.7990381057
100
AcDbArc
 50
329.9933694481
 51
360.0
  0
ARC
  5
474
100
AcDbEntity
  8
6_ALL_SURFS
100
AcDbCircle
 62
7
  6
CONTINUOUS
 10
311.055944981
 20
425.8594210263
 40
4.7990381057
100
AcDbArc
 50
329.9933694481
 51
360.0
  0
ARC
  5
475
100
AcDbEntity
  8
6_ALL_SURFS
100
AcDbCircle
 62
7
  6
CONTINUOUS
 10
561.055944981
 20
425.8594210263
 40
4.7990381057
100
AcDbArc
 50
180.0
 51
210.0066305519
  0
ARC
  5
476
100
AcDbEntity
  8
6_ALL_SURFS
100
AcDbCircle
 62
7
  6
CONTINUOUS
 10
311.055944981
 20
425.8594210263
 40
4.7990381057
100
AcDbArc
 50
180.0
 51
210.0066305519
  0
ARC
  5
477
100
AcDbEntity
  8
6_ALL_SURFS
100
AcDbCircle
 62
7
  6
CONTINUOUS
 10
561.055944981
 20
425.8594210263
 40
4.7990381057
100
AcDbArc
 50
218.6913826582
 51
321.3086173418
  0
ARC
  5
478
100
AcDbEntity
  8
6_ALL_SURFS
100
AcDbCircle
 62
7
  6
CONTINUOUS
 10
311.055944981
 20
425.8594210263
 40
4.7990381057
100
AcDbArc
 50
218.6913826582
 51
321.3086173418
  0
CIRCLE
  5
479
100
AcDbEntity
  8
6_ALL_SURFS
100
AcDbCircle
 62
7
  6
CONTINUOUS
 10
561.055944981
 20
425.8594210263
 40
3.5
  0
CIRCLE
  5
47A
100
AcDbEntity
  8
6_ALL_SURFS
100
AcDbCircle
 62
7
  6
CONTINUOUS
 10
311.055944981
 20
425.8594210263
 40
3.5
  0
ARC
  5
47B
100
AcDbEntity
  8
7_ALL_FEATURES
100
AcDbCircle
 62
7
  6
CONTINUOUS
 10
811.055944981
 20
355.7594210263
 40
4.7990381057
100
AcDbArc
 50
38.6913826582
 51
141.3086173418
  0
ARC
  5
47C
100
AcDbEntity
  8
7_ALL_FEATURES
100
AcDbCircle
 62
7
  6
CONTINUOUS
 10
1061.055944981
 20
355.7594210263
 40
4.7990381057
100
AcDbArc
 50
38.6913826582
 51
141.3086173418
  0
ARC
  5
47D
100
AcDbEntity
  8
7_ALL_FEATURES
100
AcDbCircle
 62
7
  6
CONTINUOUS
 10
811.055944981
 20
355.7594210263
 40
4.7990381057
100
AcDbArc
 50
149.9933694481
 51
180.0
  0
ARC
  5
47E
100
AcDbEntity
  8
7_ALL_FEATURES
100
AcDbCircle
 62
7
  6
CONTINUOUS
 10
1061.055944981
 20
355.7594210263
 40
4.7990381057
100
AcDbArc
 50
149.9933694481
 51
180.0
  0
ARC
  5
47F
100
AcDbEntity
  8
7_ALL_FEATURES
100
AcDbCircle
 62
7
  6
CONTINUOUS
 10
811.055944981
 20
355.7594210263
 40
4.7990381057
100
AcDbArc
 50
0.0
 51
30.0066305519
  0
ARC
  5
480
100
AcDbEntity
  8
7_ALL_FEATURES
100
AcDbCircle
 62
7
  6
CONTINUOUS
 10
1061.055944981
 20
355.7594210263
 40
4.7990381057
100
AcDbArc
 50
0.0
 51
30.0066305519
  0
ARC
  5
481
100
AcDbEntity
  8
7_ALL_FEATURES
100
AcDbCircle
 62
7
  6
CONTINUOUS
 10
811.055944981
 20
355.7594210263
 40
4.7990381057
100
AcDbArc
 50
187.1822026405
 51
226.828815981
  0
ARC
  5
482
100
AcDbEntity
  8
7_ALL_FEATURES
100
AcDbCircle
 62
7
  6
CONTINUOUS
 10
1061.055944981
 20
355.7594210263
 40
4.7990381057
100
AcDbArc
 50
187.1822026405
 51
226.828815981
  0
ARC
  5
483
100
AcDbEntity
  8
7_ALL_FEATURES
100
AcDbCircle
 62
7
  6
CONTINUOUS
 10
811.055944981
 20
355.7594210263
 40
4.7990381057
100
AcDbArc
 50
313.171184019
 51
352.8177973595
  0
ARC
  5
484
100
AcDbEntity
  8
7_ALL_FEATURES
100
AcDbCircle
 62
7
  6
CONTINUOUS
 10
1061.055944981
 20
355.7594210263
 40
4.7990381057
100
AcDbArc
 50
313.171184019
 51
352.8177973595
  0
CIRCLE
  5
485
100
AcDbEntity
  8
6_ALL_SURFS
100
AcDbCircle
 62
7
  6
CONTINUOUS
 10
1061.055944981
 20
355.7594210263
 40
3.5
  0
CIRCLE
  5
486
100
AcDbEntity
  8
6_ALL_SURFS
100
AcDbCircle
 62
7
  6
CONTINUOUS
 10
811.055944981
 20
355.7594210263
 40
3.5
  0
ARC
  5
487
100
AcDbEntity
  8
6_ALL_SURFS
100
AcDbCircle
 62
7
  6
CONTINUOUS
 10
1061.055944981
 20
425.8594210263
 40
4.7990381057
100
AcDbArc
 50
133.171184019
 51
172.8177973595
  0
ARC
  5
488
100
AcDbEntity
  8
6_ALL_SURFS
100
AcDbCircle
 62
7
  6
CONTINUOUS
 10
811.055944981
 20
425.8594210263
 40
4.7990381057
100
AcDbArc
 50
133.171184019
 51
172.8177973595
  0
ARC
  5
489
100
AcDbEntity
  8
6_ALL_SURFS
100
AcDbCircle
 62
7
  6
CONTINUOUS
 10
1061.055944981
 20
425.8594210263
 40
4.7990381057
100
AcDbArc
 50
329.9933694481
 51
360.0
  0
ARC
  5
48A
100
AcDbEntity
  8
6_ALL_SURFS
100
AcDbCircle
 62
7
  6
CONTINUOUS
 10
811.055944981
 20
425.8594210263
 40
4.7990381057
100
AcDbArc
 50
329.9933694481
 51
360.0
  0
ARC
  5
48B
100
AcDbEntity
  8
6_ALL_SURFS
100
AcDbCircle
 62
7
  6
CONTINUOUS
 10
1061.055944981
 20
425.8594210263
 40
4.7990381057
100
AcDbArc
 50
180.0
 51
210.0066305519
  0
ARC
  5
48C
100
AcDbEntity
  8
6_ALL_SURFS
100
AcDbCircle
 62
7
  6
CONTINUOUS
 10
811.055944981
 20
425.8594210263
 40
4.7990381057
100
AcDbArc
 50
180.0
 51
210.0066305519
  0
ARC
  5
48D
100
AcDbEntity
  8
6_ALL_SURFS
100
AcDbCircle
 62
7
  6
CONTINUOUS
 10
811.055944981
 20
425.8594210263
 40
4.7990381057
100
AcDbArc
 50
218.6913826582
 51
321.3086173418
  0
ARC
  5
48E
100
AcDbEntity
  8
6_ALL_SURFS
100
AcDbCircle
 62
7
  6
CONTINUOUS
 10
1061.055944981
 20
425.8594210263
 40
4.7990381057
100
AcDbArc
 50
218.6913826582
 51
321.3086173418
  0
ARC
  5
48F
100
AcDbEntity
  8
6_ALL_SURFS
100
AcDbCircle
 62
7
  6
CONTINUOUS
 10
1061.055944981
 20
425.8594210263
 40
4.7990381057
100
AcDbArc
 50
7.1822026405
 51
46.828815981
  0
ARC
  5
490
100
AcDbEntity
  8
6_ALL_SURFS
100
AcDbCircle
 62
7
  6
CONTINUOUS
 10
811.055944981
 20
425.8594210263
 40
4.7990381057
100
AcDbArc
 50
7.1822026405
 51
46.828815981
  0
CIRCLE
  5
491
100
AcDbEntity
  8
6_ALL_SURFS
100
AcDbCircle
 62
7
  6
CONTINUOUS
 10
1061.055944981
 20
425.8594210263
 40
3.5
  0
CIRCLE
  5
492
100
AcDbEntity
  8
6_ALL_SURFS
100
AcDbCircle
 62
7
  6
CONTINUOUS
 10
811.055944981
 20
425.8594210263
 40
3.5
  0
SPLINE
  5
493
100
AcDbEntity
  8
6_ALL_SURFS
100
AcDbSpline
 62
7
  6
CONTINUOUS
 70
0
 71
3
 72
11
 73
7
 74
0
 42
0.0000001
 43
0.0000001
 44
0.0000000001
 40
0.0
 40
0.0
 40
0.0
 40
0.0
 40
0.2446013188
 40
0.5012248577
 40
0.7575225868
 40
1.0
 40
1.0
 40
1.0
 40
1.0
 10
1065.8549830867
 20
425.8594210263
 30
0.0
 10
1065.80961866
 20
425.8943425782
 30
0.0
 10
1065.7247258181
 20
425.9779037098
 30
0.0
 10
1065.6537406753
 20
426.1497464635
 30
0.0
 10
1065.694269529
 20
426.3329447616
 30
0.0
 10
1065.7739816276
 20
426.4227893202
 30
0.0
 10
1065.817327841
 20
426.4594210263
 30
0.0
  0
SPLINE
  5
494
100
AcDbEntity
  8
6_ALL_SURFS
100
AcDbSpline
 62
7
  6
CONTINUOUS
 70
0
 71
3
 72
11
 73
7
 74
0
 42
0.0000001
 43
0.0000001
 44
0.0000000001
 40
0.0
 40
0.0
 40
0.0
 40
0.0
 40
0.2446013188
 40
0.5012248577
 40
0.7575225868
 40
1.0
 40
1.0
 40
1.0
 40
1.0
 10
815.8549830867
 20
425.8594210263
 30
0.0
 10
815.80961866
 20
425.8943425782
 30
0.0
 10
815.7247258181
 20
425.9779037098
 30
0.0
 10
815.6537406753
 20
426.1497464635
 30
0.0
 10
815.694269529
 20
426.3329447616
 30
0.0
 10
815.7739816276
 20
426.4227893202
 30
0.0
 10
815.817327841
 20
426.4594210263
 30
0.0
  0
SPLINE
  5
495
100
AcDbEntity
  8
6_ALL_SURFS
100
AcDbSpline
 62
7
  6
CONTINUOUS
 70
0
 71
3
 72
11
 73
7
 74
0
 42
0.0000001
 43
0.0000001
 44
0.0000000001
 40
0.0
 40
0.0
 40
0.0
 40
0.0
 40
0.2424774132
 40
0.4987751423
 40
0.7553986812
 40
1.0
 40
1.0
 40
1.0
 40
1.0
 10
1056.294562121
 20
426.4594210263
 30
0.0
 10
1056.3379083344
 20
426.4227893202
 30
0.0
 10
1056.417620433
 20
426.3329447616
 30
0.0
 10
1056.4581492867
 20
426.1497464635
 30
0.0
 10
1056.3871641438
 20
425.9779037098
 30
0.0
 10
1056.302271302
 20
425.8943425782
 30
0.0
 10
1056.2569068753
 20
425.8594210263
 30
0.0
  0
SPLINE
  5
496
100
AcDbEntity
  8
6_ALL_SURFS
100
AcDbSpline
 62
7
  6
CONTINUOUS
 70
0
 71
3
 72
11
 73
7
 74
0
 42
0.0000001
 43
0.0000001
 44
0.0000000001
 40
0.0
 40
0.0
 40
0.0
 40
0.0
 40
0.2446013188
 40
0.5012248577
 40
0.7575225868
 40
1.0
 40
1.0
 40
1.0
 40
1.0
 10
565.8549830867
 20
425.8594210263
 30
0.0
 10
565.80961866
 20
425.8943425782
 30
0.0
 10
565.7247258181
 20
425.9779037098
 30
0.0
 10
565.6537406753
 20
426.1497464635
 30
0.0
 10
565.694269529
 20
426.3329447616
 30
0.0
 10
565.7739816276
 20
426.4227893202
 30
0.0
 10
565.817327841
 20
426.4594210263
 30
0.0
  0
SPLINE
  5
497
100
AcDbEntity
  8
6_ALL_SURFS
100
AcDbSpline
 62
7
  6
CONTINUOUS
 70
0
 71
3
 72
11
 73
7
 74
0
 42
0.0000001
 43
0.0000001
 44
0.0000000001
 40
0.0
 40
0.0
 40
0.0
 40
0.0
 40
0.2424774132
 40
0.4987751423
 40
0.7553986812
 40
1.0
 40
1.0
 40
1.0
 40
1.0
 10
806.294562121
 20
426.4594210263
 30
0.0
 10
806.3379083344
 20
426.4227893202
 30
0.0
 10
806.417620433
 20
426.3329447616
 30
0.0
 10
806.4581492867
 20
426.1497464635
 30
0.0
 10
806.3871641438
 20
425.9779037098
 30
0.0
 10
806.302271302
 20
425.8943425782
 30
0.0
 10
806.2569068753
 20
425.8594210263
 30
0.0
  0
SPLINE
  5
498
100
AcDbEntity
  8
6_ALL_SURFS
100
AcDbSpline
 62
7
  6
CONTINUOUS
 70
0
 71
3
 72
11
 73
7
 74
0
 42
0.0000001
 43
0.0000001
 44
0.0000000001
 40
0.0
 40
0.0
 40
0.0
 40
0.0
 40
0.2446013188
 40
0.5012248577
 40
0.7575225868
 40
1.0
 40
1.0
 40
1.0
 40
1.0
 10
315.8549830867
 20
425.8594210263
 30
0.0
 10
315.80961866
 20
425.8943425782
 30
0.0
 10
315.7247258181
 20
425.9779037098
 30
0.0
 10
315.6537406753
 20
426.1497464635
 30
0.0
 10
315.694269529
 20
426.3329447616
 30
0.0
 10
315.7739816276
 20
426.4227893202
 30
0.0
 10
315.817327841
 20
426.4594210263
 30
0.0
  0
SPLINE
  5
499
100
AcDbEntity
  8
6_ALL_SURFS
100
AcDbSpline
 62
7
  6
CONTINUOUS
 70
0
 71
3
 72
11
 73
7
 74
0
 42
0.0000001
 43
0.0000001
 44
0.0000000001
 40
0.0
 40
0.0
 40
0.0
 40
0.0
 40
0.2424774132
 40
0.4987751423
 40
0.7553986812
 40
1.0
 40
1.0
 40
1.0
 40
1.0
 10
556.294562121
 20
426.4594210263
 30
0.0
 10
556.3379083344
 20
426.4227893202
 30
0.0
 10
556.417620433
 20
426.3329447616
 30
0.0
 10
556.4581492867
 20
426.1497464635
 30
0.0
 10
556.3871641438
 20
425.9779037098
 30
0.0
 10
556.302271302
 20
425.8943425782
 30
0.0
 10
556.2569068753
 20
425.8594210263
 30
0.0
  0
SPLINE
  5
49A
100
AcDbEntity
  8
6_ALL_SURFS
100
AcDbSpline
 62
7
  6
CONTINUOUS
 70
0
 71
3
 72
11
 73
7
 74
0
 42
0.0000001
 43
0.0000001
 44
0.0000000001
 40
0.0
 40
0.0
 40
0.0
 40
0.0
 40
0.2424774132
 40
0.4987751423
 40
0.7553986812
 40
1.0
 40
1.0
 40
1.0
 40
1.0
 10
306.294562121
 20
426.4594210263
 30
0.0
 10
306.3379083344
 20
426.4227893202
 30
0.0
 10
306.417620433
 20
426.3329447616
 30
0.0
 10
306.4581492867
 20
426.1497464635
 30
0.0
 10
306.3871641438
 20
425.9779037098
 30
0.0
 10
306.302271302
 20
425.8943425782
 30
0.0
 10
306.2569068753
 20
425.8594210263
 30
0.0
  0
SPLINE
  5
49B
100
AcDbEntity
  8
6_ALL_SURFS
100
AcDbSpline
 62
7
  6
CONTINUOUS
 70
0
 71
3
 72
13
 73
9
 74
0
 42
0.0000001
 43
0.0000001
 44
0.0000000001
 40
0.0
 40
0.0
 40
0.0
 40
0.0
 40
0.1142575552
 40
0.2357180382
 40
0.364209608
 40
0.4940607082
 40
0.7498801917
 40
1.0
 40
1.0
 40
1.0
 40
1.0
 10
1064.80171149
 20
422.8594210263
 30
0.0
 10
1064.781082682
 20
422.8833132685
 30
0.0
 10
1064.7465983642
 20
422.9419312075
 30
0.0
 10
1064.7485550917
 20
423.0472524942
 30
0.0
 10
1064.7957664226
 20
423.143112748
 30
0.0
 10
1064.8870112534
 20
423.2527874234
 30
0.0
 10
1065.0270432439
 20
423.3614911552
 30
0.0
 10
1065.149493247
 20
423.4294524131
 30
0.0
 10
1065.2117561821
 20
423.4594210263
 30
0.0
  0
SPLINE
  5
49C
100
AcDbEntity
  8
6_ALL_SURFS
100
AcDbSpline
 62
7
  6
CONTINUOUS
 70
0
 71
3
 72
13
 73
9
 74
0
 42
0.0000001
 43
0.0000001
 44
0.0000000001
 40
0.0
 40
0.0
 40
0.0
 40
0.0
 40
0.1142575552
 40
0.2357180382
 40
0.364209608
 40
0.4940607082
 40
0.7498801917
 40
1.0
 40
1.0
 40
1.0
 40
1.0
 10
814.80171149
 20
422.8594210263
 30
0.0
 10
814.781082682
 20
422.8833132685
 30
0.0
 10
814.7465983642
 20
422.9419312075
 30
0.0
 10
814.7485550917
 20
423.0472524942
 30
0.0
 10
814.7957664226
 20
423.143112748
 30
0.0
 10
814.8870112534
 20
423.2527874234
 30
0.0
 10
815.0270432439
 20
423.3614911552
 30
0.0
 10
815.149493247
 20
423.4294524131
 30
0.0
 10
815.2117561821
 20
423.4594210263
 30
0.0
  0
SPLINE
  5
49D
100
AcDbEntity
  8
6_ALL_SURFS
100
AcDbSpline
 62
7
  6
CONTINUOUS
 70
0
 71
3
 72
13
 73
9
 74
0
 42
0.0000001
 43
0.0000001
 44
0.0000000001
 40
0.0
 40
0.0
 40
0.0
 40
0.0
 40
0.2500859869
 40
0.5058800602
 40
0.6357186883
 40
0.7642144082
 40
0.8857068604
 40
1.0
 40
1.0
 40
1.0
 40
1.0
 10
1056.9001337798
 20
423.4594210263
 30
0.0
 10
1056.9623882337
 20
423.4294564953
 30
0.0
 10
1057.0848221818
 20
423.3615016941
 30
0.0
 10
1057.2248475102
 20
423.2528219572
 30
0.0
 10
1057.3160891449
 20
423.1431572892
 30
0.0
 10
1057.3633212246
 20
423.0473027681
 30
0.0
 10
1057.3653061622
 20
422.9419592049
 30
0.0
 10
1057.3308136841
 20
422.8833206857
 30
0.0
 10
1057.310178472
 20
422.8594210263
 30
0.0
  0
SPLINE
  5
49E
100
AcDbEntity
  8
6_ALL_SURFS
100
AcDbSpline
 62
7
  6
CONTINUOUS
 70
0
 71
3
 72
13
 73
9
 74
0
 42
0.0000001
 43
0.0000001
 44
0.0000000001
 40
0.0
 40
0.0
 40
0.0
 40
0.0
 40
0.1142575552
 40
0.2357180382
 40
0.364209608
 40
0.4940607082
 40
0.7498801917
 40
1.0
 40
1.0
 40
1.0
 40
1.0
 10
564.80171149
 20
422.8594210263
 30
0.0
 10
564.781082682
 20
422.8833132685
 30
0.0
 10
564.7465983642
 20
422.9419312075
 30
0.0
 10
564.7485550917
 20
423.0472524942
 30
0.0
 10
564.7957664226
 20
423.143112748
 30
0.0
 10
564.8870112534
 20
423.2527874234
 30
0.0
 10
565.0270432439
 20
423.3614911552
 30
0.0
 10
565.149493247
 20
423.4294524131
 30
0.0
 10
565.2117561821
 20
423.4594210263
 30
0.0
  0
SPLINE
  5
49F
100
AcDbEntity
  8
6_ALL_SURFS
100
AcDbSpline
 62
7
  6
CONTINUOUS
 70
0
 71
3
 72
13
 73
9
 74
0
 42
0.0000001
 43
0.0000001
 44
0.0000000001
 40
0.0
 40
0.0
 40
0.0
 40
0.0
 40
0.2500859869
 40
0.5058800602
 40
0.6357186883
 40
0.7642144082
 40
0.8857068604
 40
1.0
 40
1.0
 40
1.0
 40
1.0
 10
806.9001337798
 20
423.4594210263
 30
0.0
 10
806.9623882337
 20
423.4294564953
 30
0.0
 10
807.0848221818
 20
423.3615016941
 30
0.0
 10
807.2248475102
 20
423.2528219572
 30
0.0
 10
807.3160891449
 20
423.1431572892
 30
0.0
 10
807.3633212246
 20
423.0473027681
 30
0.0
 10
807.3653061622
 20
422.9419592049
 30
0.0
 10
807.3308136841
 20
422.8833206857
 30
0.0
 10
807.310178472
 20
422.8594210263
 30
0.0
  0
SPLINE
  5
4A0
100
AcDbEntity
  8
6_ALL_SURFS
100
AcDbSpline
 62
7
  6
CONTINUOUS
 70
0
 71
3
 72
13
 73
9
 74
0
 42
0.0000001
 43
0.0000001
 44
0.0000000001
 40
0.0
 40
0.0
 40
0.0
 40
0.0
 40
0.1142575552
 40
0.2357180382
 40
0.364209608
 40
0.4940607082
 40
0.7498801917
 40
1.0
 40
1.0
 40
1.0
 40
1.0
 10
314.80171149
 20
422.8594210263
 30
0.0
 10
314.781082682
 20
422.8833132685
 30
0.0
 10
314.7465983642
 20
422.9419312075
 30
0.0
 10
314.7485550917
 20
423.0472524942
 30
0.0
 10
314.7957664226
 20
423.143112748
 30
0.0
 10
314.8870112534
 20
423.2527874234
 30
0.0
 10
315.0270432439
 20
423.3614911552
 30
0.0
 10
315.149493247
 20
423.4294524131
 30
0.0
 10
315.2117561821
 20
423.4594210263
 30
0.0
  0
SPLINE
  5
4A1
100
AcDbEntity
  8
6_ALL_SURFS
100
AcDbSpline
 62
7
  6
CONTINUOUS
 70
0
 71
3
 72
13
 73
9
 74
0
 42
0.0000001
 43
0.0000001
 44
0.0000000001
 40
0.0
 40
0.0
 40
0.0
 40
0.0
 40
0.2500859869
 40
0.5058800602
 40
0.6357186883
 40
0.7642144082
 40
0.8857068604
 40
1.0
 40
1.0
 40
1.0
 40
1.0
 10
556.9001337798
 20
423.4594210263
 30
0.0
 10
556.9623882337
 20
423.4294564953
 30
0.0
 10
557.0848221818
 20
423.3615016941
 30
0.0
 10
557.2248475102
 20
423.2528219572
 30
0.0
 10
557.3160891449
 20
423.1431572892
 30
0.0
 10
557.3633212246
 20
423.0473027681
 30
0.0
 10
557.3653061622
 20
422.9419592049
 30
0.0
 10
557.3308136841
 20
422.8833206857
 30
0.0
 10
557.310178472
 20
422.8594210263
 30
0.0
  0
SPLINE
  5
4A2
100
AcDbEntity
  8
6_ALL_SURFS
100
AcDbSpline
 62
7
  6
CONTINUOUS
 70
0
 71
3
 72
13
 73
9
 74
0
 42
0.0000001
 43
0.0000001
 44
0.0000000001
 40
0.0
 40
0.0
 40
0.0
 40
0.0
 40
0.2500859869
 40
0.5058800602
 40
0.6357186883
 40
0.7642144082
 40
0.8857068604
 40
1.0
 40
1.0
 40
1.0
 40
1.0
 10
306.9001337798
 20
423.4594210263
 30
0.0
 10
306.9623882337
 20
423.4294564953
 30
0.0
 10
307.0848221818
 20
423.3615016941
 30
0.0
 10
307.2248475102
 20
423.2528219572
 30
0.0
 10
307.3160891449
 20
423.1431572892
 30
0.0
 10
307.3633212246
 20
423.0473027681
 30
0.0
 10
307.3653061622
 20
422.9419592049
 30
0.0
 10
307.3308136841
 20
422.8833206857
 30
0.0
 10
307.310178472
 20
422.8594210263
 30
0.0
  0
SPLINE
  5
4A3
100
AcDbEntity
  8
7_ALL_FEATURES
100
AcDbSpline
 62
7
  6
CONTINUOUS
 70
0
 71
3
 72
13
 73
9
 74
0
 42
0.0000001
 43
0.0000001
 44
0.0000000001
 40
0.0
 40
0.0
 40
0.0
 40
0.0
 40
0.2500859869
 40
0.5058800602
 40
0.6357186883
 40
0.7642144082
 40
0.8857068604
 40
1.0
 40
1.0
 40
1.0
 40
1.0
 10
306.9001337798
 20
358.1594210263
 30
0.0
 10
306.9623882337
 20
358.1893855572
 30
0.0
 10
307.0848221818
 20
358.2573403585
 30
0.0
 10
307.2248475102
 20
358.3660200953
 30
0.0
 10
307.3160891449
 20
358.4756847633
 30
0.0
 10
307.3633212246
 20
358.5715392844
 30
0.0
 10
307.3653061622
 20
358.6768828476
 30
0.0
 10
307.3308136841
 20
358.7355213668
 30
0.0
 10
307.310178472
 20
358.7594210263
 30
0.0
  0
SPLINE
  5
4A4
100
AcDbEntity
  8
7_ALL_FEATURES
100
AcDbSpline
 62
7
  6
CONTINUOUS
 70
0
 71
3
 72
13
 73
9
 74
0
 42
0.0000001
 43
0.0000001
 44
0.0000000001
 40
0.0
 40
0.0
 40
0.0
 40
0.0
 40
0.2500859869
 40
0.5058800602
 40
0.6357186883
 40
0.7642144082
 40
0.8857068604
 40
1.0
 40
1.0
 40
1.0
 40
1.0
 10
556.9001337798
 20
358.1594210263
 30
0.0
 10
556.9623882337
 20
358.1893855572
 30
0.0
 10
557.0848221818
 20
358.2573403585
 30
0.0
 10
557.2248475102
 20
358.3660200953
 30
0.0
 10
557.3160891449
 20
358.4756847633
 30
0.0
 10
557.3633212246
 20
358.5715392844
 30
0.0
 10
557.3653061622
 20
358.6768828476
 30
0.0
 10
557.3308136841
 20
358.7355213668
 30
0.0
 10
557.310178472
 20
358.7594210263
 30
0.0
  0
SPLINE
  5
4A5
100
AcDbEntity
  8
7_ALL_FEATURES
100
AcDbSpline
 62
7
  6
CONTINUOUS
 70
0
 71
3
 72
13
 73
9
 74
0
 42
0.0000001
 43
0.0000001
 44
0.0000000001
 40
0.0
 40
0.0
 40
0.0
 40
0.0
 40
0.1142575552
 40
0.2357180382
 40
0.364209608
 40
0.4940607082
 40
0.7498801917
 40
1.0
 40
1.0
 40
1.0
 40
1.0
 10
314.80171149
 20
358.7594210263
 30
0.0
 10
314.781082682
 20
358.735528784
 30
0.0
 10
314.7465983642
 20
358.676910845
 30
0.0
 10
314.7485550917
 20
358.5715895583
 30
0.0
 10
314.7957664226
 20
358.4757293045
 30
0.0
 10
314.8870112534
 20
358.3660546292
 30
0.0
 10
315.0270432439
 20
358.2573508973
 30
0.0
 10
315.149493247
 20
358.1893896395
 30
0.0
 10
315.2117561821
 20
358.1594210263
 30
0.0
  0
SPLINE
  5
4A6
100
AcDbEntity
  8
7_ALL_FEATURES
100
AcDbSpline
 62
7
  6
CONTINUOUS
 70
0
 71
3
 72
13
 73
9
 74
0
 42
0.0000001
 43
0.0000001
 44
0.0000000001
 40
0.0
 40
0.0
 40
0.0
 40
0.0
 40
0.2500859869
 40
0.5058800602
 40
0.6357186883
 40
0.7642144082
 40
0.8857068604
 40
1.0
 40
1.0
 40
1.0
 40
1.0
 10
806.9001337798
 20
358.1594210263
 30
0.0
 10
806.9623882337
 20
358.1893855572
 30
0.0
 10
807.0848221818
 20
358.2573403585
 30
0.0
 10
807.2248475102
 20
358.3660200953
 30
0.0
 10
807.3160891449
 20
358.4756847633
 30
0.0
 10
807.3633212246
 20
358.5715392844
 30
0.0
 10
807.3653061622
 20
358.6768828476
 30
0.0
 10
807.3308136841
 20
358.7355213668
 30
0.0
 10
807.310178472
 20
358.7594210263
 30
0.0
  0
SPLINE
  5
4A7
100
AcDbEntity
  8
7_ALL_FEATURES
100
AcDbSpline
 62
7
  6
CONTINUOUS
 70
0
 71
3
 72
13
 73
9
 74
0
 42
0.0000001
 43
0.0000001
 44
0.0000000001
 40
0.0
 40
0.0
 40
0.0
 40
0.0
 40
0.1142575552
 40
0.2357180382
 40
0.364209608
 40
0.4940607082
 40
0.7498801917
 40
1.0
 40
1.0
 40
1.0
 40
1.0
 10
564.80171149
 20
358.7594210263
 30
0.0
 10
564.781082682
 20
358.735528784
 30
0.0
 10
564.7465983642
 20
358.676910845
 30
0.0
 10
564.7485550917
 20
358.5715895583
 30
0.0
 10
564.7957664226
 20
358.4757293045
 30
0.0
 10
564.8870112534
 20
358.3660546292
 30
0.0
 10
565.0270432439
 20
358.2573508973
 30
0.0
 10
565.149493247
 20
358.1893896395
 30
0.0
 10
565.2117561821
 20
358.1594210263
 30
0.0
  0
SPLINE
  5
4A8
100
AcDbEntity
  8
7_ALL_FEATURES
100
AcDbSpline
 62
7
  6
CONTINUOUS
 70
0
 71
3
 72
13
 73
9
 74
0
 42
0.0000001
 43
0.0000001
 44
0.0000000001
 40
0.0
 40
0.0
 40
0.0
 40
0.0
 40
0.2500859869
 40
0.5058800602
 40
0.6357186883
 40
0.7642144082
 40
0.8857068604
 40
1.0
 40
1.0
 40
1.0
 40
1.0
 10
1056.9001337798
 20
358.1594210263
 30
0.0
 10
1056.9623882337
 20
358.1893855572
 30
0.0
 10
1057.0848221818
 20
358.2573403585
 30
0.0
 10
1057.2248475102
 20
358.3660200953
 30
0.0
 10
1057.3160891449
 20
358.4756847633
 30
0.0
 10
1057.3633212246
 20
358.5715392844
 30
0.0
 10
1057.3653061622
 20
358.6768828476
 30
0.0
 10
1057.3308136841
 20
358.7355213668
 30
0.0
 10
1057.310178472
 20
358.7594210263
 30
0.0
  0
SPLINE
  5
4A9
100
AcDbEntity
  8
7_ALL_FEATURES
100
AcDbSpline
 62
7
  6
CONTINUOUS
 70
0
 71
3
 72
13
 73
9
 74
0
 42
0.0000001
 43
0.0000001
 44
0.0000000001
 40
0.0
 40
0.0
 40
0.0
 40
0.0
 40
0.1142575552
 40
0.2357180382
 40
0.364209608
 40
0.4940607082
 40
0.7498801917
 40
1.0
 40
1.0
 40
1.0
 40
1.0
 10
814.80171149
 20
358.7594210263
 30
0.0
 10
814.781082682
 20
358.735528784
 30
0.0
 10
814.7465983642
 20
358.676910845
 30
0.0
 10
814.7485550917
 20
358.5715895583
 30
0.0
 10
814.7957664226
 20
358.4757293045
 30
0.0
 10
814.8870112534
 20
358.3660546292
 30
0.0
 10
815.0270432439
 20
358.2573508973
 30
0.0
 10
815.149493247
 20
358.1893896395
 30
0.0
 10
815.2117561821
 20
358.1594210263
 30
0.0
  0
SPLINE
  5
4AA
100
AcDbEntity
  8
7_ALL_FEATURES
100
AcDbSpline
 62
7
  6
CONTINUOUS
 70
0
 71
3
 72
13
 73
9
 74
0
 42
0.0000001
 43
0.0000001
 44
0.0000000001
 40
0.0
 40
0.0
 40
0.0
 40
0.0
 40
0.1142575552
 40
0.2357180382
 40
0.364209608
 40
0.4940607082
 40
0.7498801917
 40
1.0
 40
1.0
 40
1.0
 40
1.0
 10
1064.80171149
 20
358.7594210263
 30
0.0
 10
1064.781082682
 20
358.735528784
 30
0.0
 10
1064.7465983642
 20
358.676910845
 30
0.0
 10
1064.7485550917
 20
358.5715895583
 30
0.0
 10
1064.7957664226
 20
358.4757293045
 30
0.0
 10
1064.8870112534
 20
358.3660546292
 30
0.0
 10
1065.0270432439
 20
358.2573508973
 30
0.0
 10
1065.149493247
 20
358.1893896395
 30
0.0
 10
1065.2117561821
 20
358.1594210263
 30
0.0
  0
SPLINE
  5
4AB
100
AcDbEntity
  8
7_ALL_FEATURES
100
AcDbSpline
 62
7
  6
CONTINUOUS
 70
0
 71
3
 72
11
 73
7
 74
0
 42
0.0000001
 43
0.0000001
 44
0.0000000001
 40
0.0
 40
0.0
 40
0.0
 40
0.0
 40
0.2424774132
 40
0.4987751423
 40
0.7553986812
 40
1.0
 40
1.0
 40
1.0
 40
1.0
 10
306.294562121
 20
355.1594210263
 30
0.0
 10
306.3379083344
 20
355.1960527324
 30
0.0
 10
306.417620433
 20
355.285897291
 30
0.0
 10
306.4581492867
 20
355.469095589
 30
0.0
 10
306.3871641438
 20
355.6409383427
 30
0.0
 10
306.302271302
 20
355.7244994743
 30
0.0
 10
306.2569068753
 20
355.7594210263
 30
0.0
  0
SPLINE
  5
4AC
100
AcDbEntity
  8
7_ALL_FEATURES
100
AcDbSpline
 62
7
  6
CONTINUOUS
 70
0
 71
3
 72
11
 73
7
 74
0
 42
0.0000001
 43
0.0000001
 44
0.0000000001
 40
0.0
 40
0.0
 40
0.0
 40
0.0
 40
0.2424774132
 40
0.4987751423
 40
0.7553986812
 40
1.0
 40
1.0
 40
1.0
 40
1.0
 10
556.294562121
 20
355.1594210263
 30
0.0
 10
556.3379083344
 20
355.1960527324
 30
0.0
 10
556.417620433
 20
355.285897291
 30
0.0
 10
556.4581492867
 20
355.469095589
 30
0.0
 10
556.3871641438
 20
355.6409383427
 30
0.0
 10
556.302271302
 20
355.7244994743
 30
0.0
 10
556.2569068753
 20
355.7594210263
 30
0.0
  0
SPLINE
  5
4AD
100
AcDbEntity
  8
7_ALL_FEATURES
100
AcDbSpline
 62
7
  6
CONTINUOUS
 70
0
 71
3
 72
11
 73
7
 74
0
 42
0.0000001
 43
0.0000001
 44
0.0000000001
 40
0.0
 40
0.0
 40
0.0
 40
0.0
 40
0.2446013188
 40
0.5012248577
 40
0.7575225868
 40
1.0
 40
1.0
 40
1.0
 40
1.0
 10
315.8549830867
 20
355.7594210263
 30
0.0
 10
315.80961866
 20
355.7244994743
 30
0.0
 10
315.7247258181
 20
355.6409383427
 30
0.0
 10
315.6537406753
 20
355.469095589
 30
0.0
 10
315.694269529
 20
355.285897291
 30
0.0
 10
315.7739816276
 20
355.1960527324
 30
0.0
 10
315.817327841
 20
355.1594210263
 30
0.0
  0
SPLINE
  5
4AE
100
AcDbEntity
  8
7_ALL_FEATURES
100
AcDbSpline
 62
7
  6
CONTINUOUS
 70
0
 71
3
 72
11
 73
7
 74
0
 42
0.0000001
 43
0.0000001
 44
0.0000000001
 40
0.0
 40
0.0
 40
0.0
 40
0.0
 40
0.2424774132
 40
0.4987751423
 40
0.7553986812
 40
1.0
 40
1.0
 40
1.0
 40
1.0
 10
806.294562121
 20
355.1594210263
 30
0.0
 10
806.3379083344
 20
355.1960527324
 30
0.0
 10
806.417620433
 20
355.285897291
 30
0.0
 10
806.4581492867
 20
355.469095589
 30
0.0
 10
806.3871641438
 20
355.6409383427
 30
0.0
 10
806.302271302
 20
355.7244994743
 30
0.0
 10
806.2569068753
 20
355.7594210263
 30
0.0
  0
SPLINE
  5
4AF
100
AcDbEntity
  8
7_ALL_FEATURES
100
AcDbSpline
 62
7
  6
CONTINUOUS
 70
0
 71
3
 72
11
 73
7
 74
0
 42
0.0000001
 43
0.0000001
 44
0.0000000001
 40
0.0
 40
0.0
 40
0.0
 40
0.0
 40
0.2446013188
 40
0.5012248577
 40
0.7575225868
 40
1.0
 40
1.0
 40
1.0
 40
1.0
 10
565.8549830867
 20
355.7594210263
 30
0.0
 10
565.80961866
 20
355.7244994743
 30
0.0
 10
565.7247258181
 20
355.6409383427
 30
0.0
 10
565.6537406753
 20
355.469095589
 30
0.0
 10
565.694269529
 20
355.285897291
 30
0.0
 10
565.7739816276
 20
355.1960527324
 30
0.0
 10
565.817327841
 20
355.1594210263
 30
0.0
  0
SPLINE
  5
4B0
100
AcDbEntity
  8
7_ALL_FEATURES
100
AcDbSpline
 62
7
  6
CONTINUOUS
 70
0
 71
3
 72
11
 73
7
 74
0
 42
0.0000001
 43
0.0000001
 44
0.0000000001
 40
0.0
 40
0.0
 40
0.0
 40
0.0
 40
0.2424774132
 40
0.4987751423
 40
0.7553986812
 40
1.0
 40
1.0
 40
1.0
 40
1.0
 10
1056.294562121
 20
355.1594210263
 30
0.0
 10
1056.3379083344
 20
355.1960527324
 30
0.0
 10
1056.417620433
 20
355.285897291
 30
0.0
 10
1056.4581492867
 20
355.469095589
 30
0.0
 10
1056.3871641438
 20
355.6409383427
 30
0.0
 10
1056.302271302
 20
355.7244994743
 30
0.0
 10
1056.2569068753
 20
355.7594210263
 30
0.0
  0
SPLINE
  5
4B1
100
AcDbEntity
  8
7_ALL_FEATURES
100
AcDbSpline
 62
7
  6
CONTINUOUS
 70
0
 71
3
 72
11
 73
7
 74
0
 42
0.0000001
 43
0.0000001
 44
0.0000000001
 40
0.0
 40
0.0
 40
0.0
 40
0.0
 40
0.2446013188
 40
0.5012248577
 40
0.7575225868
 40
1.0
 40
1.0
 40
1.0
 40
1.0
 10
815.8549830867
 20
355.7594210263
 30
0.0
 10
815.80961866
 20
355.7244994743
 30
0.0
 10
815.7247258181
 20
355.6409383427
 30
0.0
 10
815.6537406753
 20
355.469095589
 30
0.0
 10
815.694269529
 20
355.285897291
 30
0.0
 10
815.7739816276
 20
355.1960527324
 30
0.0
 10
815.817327841
 20
355.1594210263
 30
0.0
  0
SPLINE
  5
4B2
100
AcDbEntity
  8
7_ALL_FEATURES
100
AcDbSpline
 62
7
  6
CONTINUOUS
 70
0
 71
3
 72
11
 73
7
 74
0
 42
0.0000001
 43
0.0000001
 44
0.0000000001
 40
0.0
 40
0.0
 40
0.0
 40
0.0
 40
0.2446013188
 40
0.5012248577
 40
0.7575225868
 40
1.0
 40
1.0
 40
1.0
 40
1.0
 10
1065.8549830867
 20
355.7594210263
 30
0.0
 10
1065.80961866
 20
355.7244994743
 30
0.0
 10
1065.7247258181
 20
355.6409383427
 30
0.0
 10
1065.6537406753
 20
355.469095589
 30
0.0
 10
1065.694269529
 20
355.285897291
 30
0.0
 10
1065.7739816276
 20
355.1960527324
 30
0.0
 10
1065.817327841
 20
355.1594210263
 30
0.0
  0
ELLIPSE
  5
4B3
100
AcDbEntity
  8
6_ALL_SURFS
100
AcDbEllipse
 62
7
  6
CONTINUOUS
 10
811.055944981
 20
179.7540592386
 30
0.0
 11
3.5
 21
0.0
 31
0.0
 40
0.5
 41
-1.910488903
 42
-1.2311037506
  0
ELLIPSE
  5
4B4
100
AcDbEntity
  8
6_ALL_SURFS
100
AcDbEllipse
 62
7
  6
CONTINUOUS
 10
561.055944981
 20
179.7540592386
 30
0.0
 11
3.5
 21
-0.0
 31
0.0
 40
0.5
 41
-1.910488903
 42
-1.2311037506
  0
ELLIPSE
  5
4B5
100
AcDbEntity
  8
6_ALL_SURFS
100
AcDbEllipse
 62
7
  6
CONTINUOUS
 10
311.055944981
 20
179.7540592386
 30
0.0
 11
3.5
 21
0.0
 31
0.0
 40
0.5
 41
-1.910488903
 42
-1.2311037506
  0
ELLIPSE
  5
4B6
100
AcDbEntity
  8
6_ALL_SURFS
100
AcDbEllipse
 62
7
  6
CONTINUOUS
 10
1061.055944981
 20
179.7540592386
 30
0.0
 11
3.5
 21
0.0
 31
0.0
 40
0.5
 41
-1.910488903
 42
-1.2311037506
  0
ELLIPSE
  5
4B7
100
AcDbEntity
  8
6_ALL_SURFS
100
AcDbEllipse
 62
7
  6
CONTINUOUS
 10
311.055944981
 20
176.5075419414
 30
0.0
 11
5.4882058378
 21
0.0
 31
0.0
 40
0.1015346165
 41
0.9294607698
 42
2.2121318838
  0
ELLIPSE
  5
4B8
100
AcDbEntity
  8
6_ALL_SURFS
100
AcDbEllipse
 62
7
  6
CONTINUOUS
 10
561.055944981
 20
176.5075419414
 30
0.0
 11
5.4882058378
 21
-0.0
 31
0.0
 40
0.1015346165
 41
0.9294607698
 42
2.2121318838
  0
ELLIPSE
  5
4B9
100
AcDbEntity
  8
6_ALL_SURFS
100
AcDbEllipse
 62
7
  6
CONTINUOUS
 10
811.055944981
 20
176.5075419414
 30
0.0
 11
5.4882058378
 21
0.0
 31
0.0
 40
0.1015346165
 41
0.9294607698
 42
2.2121318838
  0
ELLIPSE
  5
4BA
100
AcDbEntity
  8
6_ALL_SURFS
100
AcDbEllipse
 62
7
  6
CONTINUOUS
 10
1061.055944981
 20
176.5075419414
 30
0.0
 11
5.4882058378
 21
-0.0
 31
0.0
 40
0.1015346165
 41
7.212646077
 42
8.495317191
  0
ELLIPSE
  5
4BB
100
AcDbEntity
  8
6_ALL_SURFS
100
AcDbEllipse
 62
7
  6
CONTINUOUS
 10
311.055944981
 20
424.8942480545
 30
0.0
 11
-0.0
 21
5.5724287509
 31
0.0
 40
0.9848857802
 41
-0.641335557
 42
0.641335557
  0
ELLIPSE
  5
4BC
100
AcDbEntity
  8
6_ALL_SURFS
100
AcDbEllipse
 62
7
  6
CONTINUOUS
 10
561.055944981
 20
424.8942480545
 30
0.0
 11
-0.0
 21
5.5724287509
 31
0.0
 40
0.9848857802
 41
-0.641335557
 42
0.641335557
  0
ELLIPSE
  5
4BD
100
AcDbEntity
  8
6_ALL_SURFS
100
AcDbEllipse
 62
7
  6
CONTINUOUS
 10
811.055944981
 20
424.8942480545
 30
0.0
 11
0.0
 21
5.5724287509
 31
0.0
 40
0.9848857802
 41
-0.641335557
 42
0.641335557
  0
ELLIPSE
  5
4BE
100
AcDbEntity
  8
7_ALL_FEATURES
100
AcDbEllipse
 62
7
  6
CONTINUOUS
 10
1061.055944981
 20
356.7245939981
 30
0.0
 11
-0.0
 21
5.5724287509
 31
0.0
 40
0.9848857802
 41
2.5002570966
 42
3.7829282106
  0
ELLIPSE
  5
4BF
100
AcDbEntity
  8
7_ALL_FEATURES
100
AcDbEllipse
 62
7
  6
CONTINUOUS
 10
311.055944981
 20
356.7245939981
 30
0.0
 11
-0.0
 21
5.5724287509
 31
0.0
 40
0.9848857802
 41
2.5002570966
 42
3.7829282106
  0
ELLIPSE
  5
4C0
100
AcDbEntity
  8
7_ALL_FEATURES
100
AcDbEllipse
 62
7
  6
CONTINUOUS
 10
561.055944981
 20
356.7245939981
 30
0.0
 11
0.0
 21
5.5724287509
 31
0.0
 40
0.9848857802
 41
2.5002570966
 42
3.7829282106
  0
ELLIPSE
  5
4C1
100
AcDbEntity
  8
7_ALL_FEATURES
100
AcDbEllipse
 62
7
  6
CONTINUOUS
 10
811.055944981
 20
356.7245939981
 30
0.0
 11
-0.0
 21
5.5724287509
 31
0.0
 40
0.9848857802
 41
2.5002570966
 42
3.7829282106
  0
ELLIPSE
  5
4C2
100
AcDbEntity
  8
6_ALL_SURFS
100
AcDbEllipse
 62
7
  6
CONTINUOUS
 10
1061.055944981
 20
424.8942480545
 30
0.0
 11
0.0
 21
5.5724287509
 31
0.0
 40
0.9848857802
 41
5.6418497502
 42
6.9245208642
  0
ENDSEC
  0
SECTION
  2
OBJECTS
  0
DICTIONARY
  5
4C3
100
AcDbDictionary
  3
ACAD_GROUP
350
4C4
  3
ACAD_MLINESTYLE
350
4C5
  0
DICTIONARY
  5
4C4
102
{ACAD_REACTORS
330
4C3
102
}
100
AcDbDictionary
  0
DICTIONARY
  5
4C5
102
{ACAD_REACTORS
330
4C3
102
}
100
AcDbDictionary
  3
STANDARD
350
4C6
  0
MLINESTYLE
  5
4C6
102
{ACAD_REACTORS
330
4C5
102
}
100
AcDbMlineStyle
  2
STANDARD
 70
0
  3

 62
256
 51
90.0
 52
90.0
 71
2
 49
0.5
 62
256
  6
BYLAYER
 49
-0.5
 62
256
  6
BYLAYER
  0
ENDSEC
  0
EOF
