999
DXF file: 6f3_c_149.dxf
999
Pro/ENGINEER 2016360 by Parametric Technology Corporation
  0
SECTION
  2
HEADER
  9
$ACADVER
  1
AC1014
  9
$DWGCODEPAGE
  3
ANSI_1252
  9
$EXTMAX
 10
1189.0
 20
841.0
 30
0.0
  9
$EXTMIN
 10
0.0
 20
0.0
 30
0.0
  9
$LIMMIN
 10
0.0
 20
0.0
  9
$LIMMAX
 10
1189.0
 20
841.0
  9
$VIEWCTR
 10
594.5
 20
420.5
  9
$VIEWSIZE
 40
841.0
  9
$CLAYER
  8
0
  9
$LTSCALE
 40
65.395
  9
$CELTYPE
  6
BYLAYER
  9
$DIMSCALE
 40
1.0
  9
$DIMASZ
 40
2.5
  9
$DIMEXO
 40
0.75
  9
$DIMDLI
 40
45.182
  9
$DIMEXE
 40
0.75
  9
$DIMCEN
 40
10.701
  9
$DIMLFAC
 40
1.0
  9
$DIMBLK
  1
_CLOSED
  9
$DIMALT
 70
0
  9
$DIMALTF
 40
25.4
  9
$DIMTXT
 40
3.0
  9
$DIMTOL
 70
1
  9
$DIMLIM
 70
0
  9
$DIMTFAC
 40
1.0
  9
$DIMTP
 40
0.01
  9
$DIMTM
 40
0.01
  9
$DIMGAP
 40
0.625
  9
$AUNITS
 70
0
  9
$PDMODE
 70
3
  9
$PDSIZE
 40
0.3125
  9
$HANDSEED
  5
4C5
  9
$TILEMODE
 70
1
  9
$MEASUREMENT
 70
1
  0
ENDSEC
  0
SECTION
  2
CLASSES
  0
ENDSEC
  0
SECTION
  2
TABLES
  0
TABLE
  2
VPORT
  5
8
100
AcDbSymbolTable
 70
2
  0
VPORT
  5
1F4
100
AcDbSymbolTableRecord
100
AcDbViewportTableRecord
  2
*ACTIVE
 70
0
 10
0.0
 20
0.0
 11
1.0
 21
1.0
 12
594.5
 22
420.5
 13
0.0
 23
0.0
 14
1.0
 24
1.0
 15
0.0
 25
0.0
 16
0.0
 26
0.0
 36
1.0
 17
0.0
 27
0.0
 37
0.0
 40
841.0
 41
1.4137931034
 42
50.0
 43
0.0
 44
0.0
 50
0.0
 51
0.0
 71
0
 72
100
 73
1
 74
1
 75
0
 76
0
 77
0
 78
0
  0
ENDTAB
  0
TABLE
  2
LTYPE
  5
5
100
AcDbSymbolTable
 70
6
  0
LTYPE
  5
14
100
AcDbSymbolTableRecord
100
AcDbLinetypeTableRecord
  2
BYBLOCK
 70
0
  3

 72
65
 73
0
 40
0.0
  0
LTYPE
  5
15
100
AcDbSymbolTableRecord
100
AcDbLinetypeTableRecord
  2
BYLAYER
 70
0
  3

 72
65
 73
0
 40
0.0
  0
LTYPE
  5
16
100
AcDbSymbolTableRecord
100
AcDbLinetypeTableRecord
  2
CONTINUOUS
 70
64
  3
Solid line
 72
65
 73
0
 40
0.0
  0
LTYPE
  5
1F5
100
AcDbSymbolTableRecord
100
AcDbLinetypeTableRecord
  2
CENTER
 70
64
  3
____ _ ____ _ ____ _ ____ _ ____ _ ____ _ ____
 72
65
 73
4
 40
0.6
 49
0.375
 74
0
 49
-0.075
 74
0
 49
0.075
 74
0
 49
-0.075
 74
0
  0
LTYPE
  5
1F6
100
AcDbSymbolTableRecord
100
AcDbLinetypeTableRecord
  2
HIDDEN
 70
64
  3
- - - - - - - - - - - - - - - - - - - -
 72
65
 73
2
 40
0.2
 49
0.1
 74
0
 49
-0.1
 74
0
  0
LTYPE
  5
1F7
100
AcDbSymbolTableRecord
100
AcDbLinetypeTableRecord
  2
PHANTOM
 70
64
  3
_____ _ _ _____ _ _ _____ _ _ _____
 72
65
 73
6
 40
0.8
 49
0.45
 74
0
 49
-0.05
 74
0
 49
0.1
 74
0
 49
-0.05
 74
0
 49
0.1
 74
0
 49
-0.05
 74
0
  0
LTYPE
  5
1F8
100
AcDbSymbolTableRecord
100
AcDbLinetypeTableRecord
  2
DOT
 70
64
  3
. . . . . . . . . . . . . . . . . . . .
 72
65
 73
2
 40
0.2
 49
0.1
 74
0
 49
-0.1
 74
0
  0
LTYPE
  5
1F9
100
AcDbSymbolTableRecord
100
AcDbLinetypeTableRecord
  2
DASHED
 70
64
  3
- - - - - - - - - - - - - - - - - - - -
 72
65
 73
2
 40
0.2
 49
0.1
 74
0
 49
-0.1
 74
0
  0
ENDTAB
  0
TABLE
  2
LAYER
  5
2
100
AcDbSymbolTable
 70
36
  0
LAYER
  5
10
100
AcDbSymbolTableRecord
100
AcDbLayerTableRecord
  2
0
 70
0
 62
7
  6
CONTINUOUS
  0
LAYER
  5
1FA
100
AcDbSymbolTableRecord
100
AcDbLayerTableRecord
  2
DEFAULT_1
 70
0
 62
7
  6
CENTER
  0
LAYER
  5
1FB
100
AcDbSymbolTableRecord
100
AcDbLayerTableRecord
  2
DEFAULT_2
 70
0
 62
8
  6
HIDDEN
  0
LAYER
  5
1FC
100
AcDbSymbolTableRecord
100
AcDbLayerTableRecord
  2
DEFAULT_3
 70
0
 62
7
  6
PHANTOM
  0
LAYER
  5
1FD
100
AcDbSymbolTableRecord
100
AcDbLayerTableRecord
  2
1_ALL_PLANES
 70
0
 62
7
  6
CONTINUOUS
  0
LAYER
  5
1FE
100
AcDbSymbolTableRecord
100
AcDbLayerTableRecord
  2
2_ALL_CSYS
 70
0
 62
7
  6
CONTINUOUS
  0
LAYER
  5
1FF
100
AcDbSymbolTableRecord
100
AcDbLayerTableRecord
  2
3_ALL_AXES
 70
0
 62
7
  6
CONTINUOUS
  0
LAYER
  5
200
100
AcDbSymbolTableRecord
100
AcDbLayerTableRecord
  2
4_ALL_POINTS
 70
0
 62
7
  6
CONTINUOUS
  0
LAYER
  5
201
100
AcDbSymbolTableRecord
100
AcDbLayerTableRecord
  2
5_ALL_CURVES
 70
0
 62
7
  6
CONTINUOUS
  0
LAYER
  5
202
100
AcDbSymbolTableRecord
100
AcDbLayerTableRecord
  2
5__COSTRUZIONE
 70
0
 62
7
  6
CONTINUOUS
  0
LAYER
  5
203
100
AcDbSymbolTableRecord
100
AcDbLayerTableRecord
  2
6_ALL_SURFS
 70
0
 62
7
  6
CONTINUOUS
  0
LAYER
  5
204
100
AcDbSymbolTableRecord
100
AcDbLayerTableRecord
  2
7_ALL_FEATURES
 70
0
 62
7
  6
CONTINUOUS
  0
LAYER
  5
205
100
AcDbSymbolTableRecord
100
AcDbLayerTableRecord
  2
9_SOLID
 70
0
 62
7
  6
CONTINUOUS
  0
LAYER
  5
206
100
AcDbSymbolTableRecord
100
AcDbLayerTableRecord
  2
PR9035
 70
0
 62
7
  6
CONTINUOUS
  0
LAYER
  5
207
100
AcDbSymbolTableRecord
100
AcDbLayerTableRecord
  2
WHITE
 70
0
 62
7
  6
CONTINUOUS
  0
LAYER
  5
208
100
AcDbSymbolTableRecord
100
AcDbLayerTableRecord
  2
XXX_SOLIDO
 70
0
 62
7
  6
CONTINUOUS
  0
ENDTAB
  0
TABLE
  2
STYLE
  5
3
100
AcDbSymbolTable
 70
1
  0
STYLE
  5
11
100
AcDbSymbolTableRecord
100
AcDbTextStyleTableRecord
  2
STANDARD
 70
0
 40
0.0
 41
1.0
 50
0.0
 71
0
 42
0.2
  3
arial.ttf
  4

  0
STYLE
  5
209
100
AcDbSymbolTableRecord
100
AcDbTextStyleTableRecord
  2
TEXTSTYLE_1
 70
0
 40
0.0
 41
0.8
 50
0.0
 71
0
 42
0.2
  3
gdt
  4

  0
STYLE
  5
20A
100
AcDbSymbolTableRecord
100
AcDbTextStyleTableRecord
  2
TEXTSTYLE_2
 70
0
 40
0.0
 41
0.85
 50
0.0
 71
0
 42
0.2
  3
txt
  4

  0
ENDTAB
  0
TABLE
  2
VIEW
  5
6
100
AcDbSymbolTable
 70
0
  0
ENDTAB
  0
TABLE
  2
UCS
  5
7
100
AcDbSymbolTable
 70
0
  0
ENDTAB
  0
TABLE
  2
APPID
  5
9
100
AcDbSymbolTable
 70
1
  0
APPID
  5
20B
100
AcDbSymbolTableRecord
100
AcDbRegAppTableRecord
  2
ACAD
 70
0
  0
ENDTAB
  0
TABLE
  2
BLOCK_RECORD
  5
1
100
AcDbSymbolTable
 70
0
  0
BLOCK_RECORD
  5
1F
100
AcDbSymbolTableRecord
100
AcDbBlockTableRecord
  2
*MODEL_SPACE
  0
BLOCK_RECORD
  5
1B
100
AcDbSymbolTableRecord
100
AcDbBlockTableRecord
  2
*PAPER_SPACE
  0
BLOCK_RECORD
  5
20C
100
AcDbSymbolTableRecord
100
AcDbBlockTableRecord
  2
_CLOSED
  0
BLOCK_RECORD
  5
20D
100
AcDbSymbolTableRecord
100
AcDbBlockTableRecord
  2
*D0
  0
BLOCK_RECORD
  5
20E
100
AcDbSymbolTableRecord
100
AcDbBlockTableRecord
  2
*D1
  0
BLOCK_RECORD
  5
20F
100
AcDbSymbolTableRecord
100
AcDbBlockTableRecord
  2
*D2
  0
BLOCK_RECORD
  5
210
100
AcDbSymbolTableRecord
100
AcDbBlockTableRecord
  2
*D3
  0
BLOCK_RECORD
  5
211
100
AcDbSymbolTableRecord
100
AcDbBlockTableRecord
  2
LOGO2_BL0
  0
ENDTAB
  0
TABLE
  2
DIMSTYLE
  5
A
100
AcDbSymbolTable
 70
1
  0
DIMSTYLE
105
212
100
AcDbSymbolTableRecord
100
AcDbDimStyleTableRecord
  2
STANDARD
 70
0
  3

  4

  5
_CLOSED
  6
_CLOSED
  7
_CLOSED
 40
1.0
 41
2.5
 42
0.75
 43
0.38
 44
0.75
 45
0.0
 46
0.0
 47
0.01
 48
0.01
140
3.0
141
0.09
142
0.0
143
25.4
144
1.0
145
0.0
146
1.0
147
0.625
 71
1.0
 72
0.0
 73
0
 74
0
 75
0
 76
0
 77
1
 78
8
 79
2
170
0
171
1
172
0
173
0
174
0
175
0
176
0
177
0
178
0
270
2
179
2
271
2
272
2
273
2
274
2
275
0
280
0
281
0
282
0
283
1
284
8
285
0
286
0
287
3
288
0
340
11
  0
DIMSTYLE
105
213
100
AcDbSymbolTableRecord
100
AcDbDimStyleTableRecord
  2
DIMSTYLE_1
 70
0
  3

  4

  5
_CLOSED
  6
_CLOSED
  7
_CLOSED
 40
1.0
 41
2.5
 42
0.75
 43
0.38
 44
0.75
 45
0.0
 46
0.0
 47
0.3
 48
0.3
140
6.0
141
0.09
142
0.0
143
25.4
144
1.0
145
0.0
146
1.0
147
1.5
 71
0.0
 72
0.0
 73
0
 74
0
 75
0
 76
0
 77
1
 78
8
 79
2
170
0
171
1
172
0
173
0
174
0
175
0
176
0
177
0
178
0
270
2
179
2
271
2
272
2
273
2
274
2
275
0
280
0
281
0
282
0
283
1
284
8
285
0
286
0
287
3
288
0
340
11
  0
DIMSTYLE
105
214
100
AcDbSymbolTableRecord
100
AcDbDimStyleTableRecord
  2
DIMSTYLE_2
 70
0
  3

  4

  5
_CLOSED
  6
_CLOSED
  7
_CLOSED
 40
1.0
 41
2.5
 42
0.75
 43
0.38
 44
0.75
 45
0.0
 46
0.0
 47
0.8
 48
0.8
140
6.0
141
0.09
142
0.0
143
25.4
144
1.0
145
0.0
146
1.0
147
1.5
 71
0.0
 72
0.0
 73
0
 74
0
 75
0
 76
0
 77
1
 78
8
 79
2
170
0
171
1
172
0
173
0
174
0
175
0
176
0
177
0
178
0
270
2
179
2
271
2
272
2
273
2
274
2
275
0
280
0
281
0
282
0
283
1
284
8
285
0
286
0
287
3
288
0
340
11
  0
ENDTAB
  0
ENDSEC
  0
SECTION
  2
BLOCKS
  0
BLOCK
  5
20
100
AcDbEntity
  8
0
100
AcDbBlockBegin
  2
*MODEL_SPACE
 70
0
 10
0.0
 20
0.0
 30
0.0
  3
*MODEL_SPACE
  1

  0
ENDBLK
  5
21
100
AcDbEntity
  8
0
100
AcDbBlockEnd
  0
BLOCK
  5
1C
100
AcDbEntity
  8
0
100
AcDbBlockBegin
  2
*PAPER_SPACE
 70
0
 10
0.0
 20
0.0
 30
0.0
  3
*PAPER_SPACE
  1

  0
ENDBLK
  5
1D
100
AcDbEntity
  8
0
100
AcDbBlockEnd
  0
BLOCK
  5
215
100
AcDbEntity
  8
0
100
AcDbBlockBegin
 62
2
  6
CONTINUOUS
  2
LOGO2_BL0
 70
64
 10
1102.8066660318
 20
36.5195544423
  3
LOGO2_BL0
  1

  0
LINE
  5
216
100
AcDbEntity
  8
0
100
AcDbLine
 62
7
  6
CONTINUOUS
 10
1094.54959126
 20
39.7150457811
 11
1093.2452503307
 21
39.7150457811
  0
LINE
  5
217
100
AcDbEntity
  8
0
100
AcDbLine
 62
7
  6
CONTINUOUS
 10
1093.2452503307
 20
39.7150457811
 11
1093.2452503307
 21
29.2559797212
  0
LINE
  5
218
100
AcDbEntity
  8
0
100
AcDbLine
 62
7
  6
CONTINUOUS
 10
1093.2452503307
 20
29.2559797212
 11
1097.7263052189
 21
29.2559797212
  0
LINE
  5
219
100
AcDbEntity
  8
0
100
AcDbLine
 62
7
  6
CONTINUOUS
 10
1097.7263052189
 20
29.2559797212
 11
1097.7263052189
 21
30.4488340463
  0
LINE
  5
21A
100
AcDbEntity
  8
0
100
AcDbLine
 62
7
  6
CONTINUOUS
 10
1097.7263052189
 20
30.4488340463
 11
1094.54959126
 21
30.4488340463
  0
LINE
  5
21B
100
AcDbEntity
  8
0
100
AcDbLine
 62
7
  6
CONTINUOUS
 10
1094.54959126
 20
30.4488340463
 11
1094.54959126
 21
39.7150457811
  0
LINE
  5
21C
100
AcDbEntity
  8
0
100
AcDbLine
 62
7
  6
CONTINUOUS
 10
1109.4859174763
 20
39.7150457811
 11
1108.1820999583
 21
39.7150457811
  0
LINE
  5
21D
100
AcDbEntity
  8
0
100
AcDbLine
 62
7
  6
CONTINUOUS
 10
1108.1820999583
 20
39.7150457811
 11
1108.1820999583
 21
29.2559797212
  0
LINE
  5
21E
100
AcDbEntity
  8
0
100
AcDbLine
 62
7
  6
CONTINUOUS
 10
1108.1820999583
 20
29.2559797212
 11
1112.6632856994
 21
29.2559797212
  0
LINE
  5
21F
100
AcDbEntity
  8
0
100
AcDbLine
 62
7
  6
CONTINUOUS
 10
1112.6632856994
 20
29.2559797212
 11
1112.6632856994
 21
30.4488340463
  0
LINE
  5
220
100
AcDbEntity
  8
0
100
AcDbLine
 62
7
  6
CONTINUOUS
 10
1112.6632856994
 20
30.4488340463
 11
1109.4859174763
 21
30.4488340463
  0
LINE
  5
221
100
AcDbEntity
  8
0
100
AcDbLine
 62
7
  6
CONTINUOUS
 10
1109.4859174763
 20
30.4488340463
 11
1109.4859174763
 21
39.7150457811
  0
LWPOLYLINE
  5
222
100
AcDbEntity
  8
0
100
AcDbPolyline
 62
7
  6
CONTINUOUS
 90
2
 70
0
 43
0.2
 10
1091.5996452416
 20
25.9124284143
 10
1091.5996452416
 20
24.055365165
  0
LWPOLYLINE
  5
223
100
AcDbEntity
  8
0
100
AcDbPolyline
 62
7
  6
CONTINUOUS
 90
2
 70
0
 43
0.2
 10
1091.5996452416
 20
24.055365165
 10
1092.395361252
 20
24.055365165
  0
LWPOLYLINE
  5
224
100
AcDbEntity
  8
0
100
AcDbPolyline
 62
7
  6
CONTINUOUS
 90
2
 70
0
 43
0.2
 10
1092.395361252
 20
24.055365165
 10
1092.395361252
 20
24.2673467366
  0
LWPOLYLINE
  5
225
100
AcDbEntity
  8
0
100
AcDbPolyline
 62
7
  6
CONTINUOUS
 90
2
 70
0
 43
0.2
 10
1092.395361252
 20
24.2673467366
 10
1091.8312547365
 20
24.2673467366
  0
LWPOLYLINE
  5
226
100
AcDbEntity
  8
0
100
AcDbPolyline
 62
7
  6
CONTINUOUS
 90
2
 70
0
 43
0.2
 10
1091.8312547365
 20
24.2673467366
 10
1091.8312547365
 20
25.9124284143
  0
LWPOLYLINE
  5
227
100
AcDbEntity
  8
0
100
AcDbPolyline
 62
7
  6
CONTINUOUS
 90
2
 70
0
 43
0.2
 10
1091.8312547365
 20
25.9124284143
 10
1091.5996452416
 20
25.9124284143
  0
SPLINE
  5
228
100
AcDbEntity
  8
0
100
AcDbSpline
 62
7
  6
CONTINUOUS
 70
2
 71
3
 72
35
 73
31
 74
0
 42
0.0000001
 43
0.0000001
 44
0.0000000001
 40
0.0
 40
0.0
 40
0.0
 40
0.0
 40
1.0
 40
1.0
 40
1.0
 40
2.0
 40
2.0
 40
2.0
 40
3.0
 40
3.0
 40
3.0
 40
4.0
 40
4.0
 40
4.0
 40
5.0
 40
5.0
 40
5.0
 40
6.0
 40
6.0
 40
6.0
 40
7.0
 40
7.0
 40
7.0
 40
8.0
 40
8.0
 40
8.0
 40
9.0
 40
9.0
 40
9.0
 40
10.0
 40
10.0
 40
10.0
 40
10.0
 10
1093.7936545075
 20
25.2079168209
 30
0.0
 10
1093.7936545075
 20
25.2079168209
 30
0.0
 10
1093.7936545075
 20
24.5458015417
 30
0.0
 10
1093.7936545075
 20
24.5458015417
 30
0.0
 10
1093.7936545075
 20
24.2307079464
 30
0.0
 10
1093.9415181963
 20
24.0161093184
 30
0.0
 10
1094.2816046806
 20
24.0161093184
 30
0.0
 10
1094.6211677536
 20
24.0161093184
 30
0.0
 10
1094.7692931481
 20
24.2307079464
 30
0.0
 10
1094.7692931481
 20
24.5458015417
 30
0.0
 10
1094.7692931481
 20
24.5458015417
 30
0.0
 10
1094.7692931481
 20
25.2079168209
 30
0.0
 10
1094.7692931481
 20
25.2079168209
 30
0.0
 10
1094.7692931481
 20
25.2079168209
 30
0.0
 10
1094.5472359092
 20
25.2079168209
 30
0.0
 10
1094.5472359092
 20
25.2079168209
 30
0.0
 10
1094.5472359092
 20
25.2079168209
 30
0.0
 10
1094.5472359092
 20
24.5709252835
 30
0.0
 10
1094.5472359092
 20
24.5709252835
 30
0.0
 10
1094.5472359092
 20
24.3851142763
 30
0.0
 10
1094.5005214518
 20
24.2223333658
 30
0.0
 10
1094.2816046806
 20
24.2223333658
 30
0.0
 10
1094.0621644982
 20
24.2223333658
 30
0.0
 10
1094.0154500408
 20
24.3851142763
 30
0.0
 10
1094.0154500408
 20
24.5709252835
 30
0.0
 10
1094.0154500408
 20
24.5709252835
 30
0.0
 10
1094.0154500408
 20
25.2079168209
 30
0.0
 10
1094.0154500408
 20
25.2079168209
 30
0.0
 10
1094.0154500408
 20
25.2079168209
 30
0.0
 10
1093.7936545075
 20
25.2079168209
 30
0.0
 10
1093.7936545075
 20
25.2079168209
 30
0.0
  0
SPLINE
  5
229
100
AcDbEntity
  8
0
100
AcDbSpline
 62
7
  6
CONTINUOUS
 70
2
 71
3
 72
35
 73
31
 74
0
 42
0.0000001
 43
0.0000001
 44
0.0000000001
 40
0.0
 40
0.0
 40
0.0
 40
0.0
 40
1.0
 40
1.0
 40
1.0
 40
2.0
 40
2.0
 40
2.0
 40
3.0
 40
3.0
 40
3.0
 40
4.0
 40
4.0
 40
4.0
 40
5.0
 40
5.0
 40
5.0
 40
6.0
 40
6.0
 40
6.0
 40
7.0
 40
7.0
 40
7.0
 40
8.0
 40
8.0
 40
8.0
 40
9.0
 40
9.0
 40
9.0
 40
10.0
 40
10.0
 40
10.0
 40
10.0
 10
1097.1924257053
 20
25.1665673291
 30
0.0
 10
1097.1039691977
 20
25.2178616353
 30
0.0
 10
1096.990519801
 20
25.2429853771
 30
0.0
 10
1096.886884366
 20
25.2429853771
 30
0.0
 10
1096.5320115128
 20
25.2429853771
 30
0.0
 10
1096.2565663226
 20
24.9791860881
 30
0.0
 10
1096.2565663226
 20
24.6216961784
 30
0.0
 10
1096.2565663226
 20
24.2767681397
 30
0.0
 10
1096.5350211277
 20
24.0166327297
 30
0.0
 10
1096.8745842008
 20
24.0166327297
 30
0.0
 10
1096.990519801
 20
24.0166327297
 30
0.0
 10
1097.0912764739
 20
24.0386160038
 30
0.0
 10
1097.1924257053
 20
24.0925273664
 30
0.0
 10
1097.1924257053
 20
24.0925273664
 30
0.0
 10
1097.1924257053
 20
24.3751694619
 30
0.0
 10
1097.1924257053
 20
24.3751694619
 30
0.0
 10
1097.1085490464
 20
24.2820022526
 30
0.0
 10
1097.0050444643
 20
24.2228567771
 30
0.0
 10
1096.8769395515
 20
24.2228567771
 30
0.0
 10
1096.6432364115
 20
24.2228567771
 30
0.0
 10
1096.4779692974
 20
24.3950590908
 30
0.0
 10
1096.4779692974
 20
24.6316409929
 30
0.0
 10
1096.4779692974
 20
24.8436225645
 30
0.0
 10
1096.6457226151
 20
25.0357145071
 30
0.0
 10
1096.8625457411
 20
25.0357145071
 30
0.0
 10
1096.9953613554
 20
25.0357145071
 30
0.0
 10
1097.1039691977
 20
24.9818031445
 30
0.0
 10
1097.1924257053
 20
24.8807847659
 30
0.0
 10
1097.1924257053
 20
24.8807847659
 30
0.0
 10
1097.1924257053
 20
25.1665673291
 30
0.0
 10
1097.1924257053
 20
25.1665673291
 30
0.0
  0
SPLINE
  5
22A
100
AcDbEntity
  8
0
100
AcDbSpline
 62
7
  6
CONTINUOUS
 70
2
 71
3
 72
32
 73
28
 74
0
 42
0.0000001
 43
0.0000001
 44
0.0000000001
 40
0.0
 40
0.0
 40
0.0
 40
0.0
 40
1.0
 40
1.0
 40
1.0
 40
2.0
 40
2.0
 40
2.0
 40
3.0
 40
3.0
 40
3.0
 40
4.0
 40
4.0
 40
4.0
 40
5.0
 40
5.0
 40
5.0
 40
6.0
 40
6.0
 40
6.0
 40
7.0
 40
7.0
 40
7.0
 40
8.0
 40
8.0
 40
8.0
 40
9.0
 40
9.0
 40
9.0
 40
9.0
 10
1099.7242969576
 20
24.5950022028
 30
0.0
 10
1099.7242969576
 20
24.5950022028
 30
0.0
 10
1099.7242969576
 20
24.6290239365
 30
0.0
 10
1099.7242969576
 20
24.6290239365
 30
0.0
 10
1099.7242969576
 20
24.9713349187
 30
0.0
 10
1099.5514403797
 20
25.2429853771
 30
0.0
 10
1099.1847907726
 20
25.2429853771
 30
0.0
 10
1098.8131687582
 20
25.2429853771
 30
0.0
 10
1098.6234321663
 20
24.9765690316
 30
0.0
 10
1098.6234321663
 20
24.6216961784
 30
0.0
 10
1098.6234321663
 20
24.2820022526
 30
0.0
 10
1098.8375073831
 20
24.0161093184
 30
0.0
 10
1099.189632327
 20
24.0161093184
 30
0.0
 10
1099.4136523582
 20
24.0161093184
 30
0.0
 10
1099.6158199681
 20
24.131783213
 30
0.0
 10
1099.7242969576
 20
24.3312029137
 30
0.0
 10
1099.7242969576
 20
24.3312029137
 30
0.0
 10
1099.5366540109
 20
24.4379788164
 30
0.0
 10
1099.5366540109
 20
24.4379788164
 30
0.0
 10
1099.4531699104
 20
24.2992748251
 30
0.0
 10
1099.3619654935
 20
24.2134353739
 30
0.0
 10
1099.1923802363
 20
24.2134353739
 30
0.0
 10
1098.9803986647
 20
24.2134353739
 30
0.0
 10
1098.8474521976
 20
24.3981995585
 30
0.0
 10
1098.8450968468
 20
24.5950022028
 30
0.0
 10
1098.8450968468
 20
24.5950022028
 30
0.0
 10
1099.7242969576
 20
24.5950022028
 30
0.0
 10
1099.7242969576
 20
24.5950022028
 30
0.0
  0
SPLINE
  5
22B
100
AcDbEntity
  8
0
100
AcDbSpline
 62
7
  6
CONTINUOUS
 70
2
 71
3
 72
14
 73
10
 74
0
 42
0.0000001
 43
0.0000001
 44
0.0000000001
 40
0.0
 40
0.0
 40
0.0
 40
0.0
 40
1.0
 40
1.0
 40
1.0
 40
2.0
 40
2.0
 40
2.0
 40
3.0
 40
3.0
 40
3.0
 40
3.0
 10
1098.8571353064
 20
24.7624938149
 30
0.0
 10
1098.8847452518
 20
24.9273683706
 30
0.0
 10
1099.0125884589
 20
25.0503700232
 30
0.0
 10
1099.1847907726
 20
25.0503700232
 30
0.0
 10
1099.3619654935
 20
25.0503700232
 30
0.0
 10
1099.4754148902
 20
24.9346961286
 30
0.0
 10
1099.5026322771
 20
24.7624938149
 30
0.0
 10
1099.5026322771
 20
24.7624938149
 30
0.0
 10
1098.8571353064
 20
24.7624938149
 30
0.0
 10
1098.8571353064
 20
24.7624938149
 30
0.0
  0
SPLINE
  5
22C
100
AcDbEntity
  8
0
100
AcDbSpline
 62
7
  6
CONTINUOUS
 70
2
 71
3
 72
20
 73
16
 74
0
 42
0.0000001
 43
0.0000001
 44
0.0000000001
 40
0.0
 40
0.0
 40
0.0
 40
0.0
 40
1.0
 40
1.0
 40
1.0
 40
2.0
 40
2.0
 40
2.0
 40
3.0
 40
3.0
 40
3.0
 40
4.0
 40
4.0
 40
4.0
 40
5.0
 40
5.0
 40
5.0
 40
5.0
 10
1101.7483284078
 20
24.97185833
 30
0.0
 10
1101.7483284078
 20
24.97185833
 30
0.0
 10
1102.1594679744
 20
24.4693834937
 30
0.0
 10
1102.1594679744
 20
24.4693834937
 30
0.0
 10
1102.0434015213
 20
24.3537095991
 30
0.0
 10
1101.9056134998
 20
24.2233801884
 30
0.0
 10
1101.7336728917
 20
24.2233801884
 30
0.0
 10
1101.5562364651
 20
24.2233801884
 30
0.0
 10
1101.388744853
 20
24.3877313328
 30
0.0
 10
1101.388744853
 20
24.5646443481
 30
0.0
 10
1101.388744853
 20
24.7426041859
 30
0.0
 10
1101.5985019266
 20
24.8687463063
 30
0.0
 10
1101.726083428
 20
24.9566794027
 30
0.0
 10
1101.726083428
 20
24.9566794027
 30
0.0
 10
1101.7483284078
 20
24.97185833
 30
0.0
 10
1101.7483284078
 20
24.97185833
 30
0.0
  0
SPLINE
  5
22D
100
AcDbEntity
  8
0
100
AcDbSpline
 62
7
  6
CONTINUOUS
 70
2
 71
3
 72
23
 73
19
 74
0
 42
0.0000001
 43
0.0000001
 44
0.0000000001
 40
0.0
 40
0.0
 40
0.0
 40
0.0
 40
1.0
 40
1.0
 40
1.0
 40
2.0
 40
2.0
 40
2.0
 40
3.0
 40
3.0
 40
3.0
 40
4.0
 40
4.0
 40
4.0
 40
5.0
 40
5.0
 40
5.0
 40
6.0
 40
6.0
 40
6.0
 40
6.0
 10
1101.7976599216
 20
25.2628750061
 30
0.0
 10
1101.7976599216
 20
25.2628750061
 30
0.0
 10
1101.7360282425
 20
25.3413866993
 30
0.0
 10
1101.7360282425
 20
25.3413866993
 30
0.0
 10
1101.6821168798
 20
25.409953578
 30
0.0
 10
1101.6253267551
 20
25.479043868
 30
0.0
 10
1101.6253267551
 20
25.5727344885
 30
0.0
 10
1101.6253267551
 20
25.6915488509
 30
0.0
 10
1101.7212418736
 20
25.7690137215
 30
0.0
 10
1101.8322050666
 20
25.7690137215
 30
0.0
 10
1101.9554684249
 20
25.7690137215
 30
0.0
 10
1102.048766487
 20
25.6978297863
 30
0.0
 10
1102.048766487
 20
25.5675003756
 30
0.0
 10
1102.048766487
 20
25.4324602634
 30
0.0
 10
1101.9206615743
 20
25.3560422153
 30
0.0
 10
1101.8271018066
 20
25.2822412237
 30
0.0
 10
1101.8271018066
 20
25.2822412237
 30
0.0
 10
1101.7976599216
 20
25.2628750061
 30
0.0
 10
1101.7976599216
 20
25.2628750061
 30
0.0
  0
SPLINE
  5
22E
100
AcDbEntity
  8
0
100
AcDbSpline
 62
7
  6
CONTINUOUS
 70
2
 71
3
 72
50
 73
46
 74
0
 42
0.0000001
 43
0.0000001
 44
0.0000000001
 40
0.0
 40
0.0
 40
0.0
 40
0.0
 40
1.0
 40
1.0
 40
1.0
 40
2.0
 40
2.0
 40
2.0
 40
3.0
 40
3.0
 40
3.0
 40
4.0
 40
4.0
 40
4.0
 40
5.0
 40
5.0
 40
5.0
 40
6.0
 40
6.0
 40
6.0
 40
7.0
 40
7.0
 40
7.0
 40
8.0
 40
8.0
 40
8.0
 40
9.0
 40
9.0
 40
9.0
 40
10.0
 40
10.0
 40
10.0
 40
11.0
 40
11.0
 40
11.0
 40
12.0
 40
12.0
 40
12.0
 40
13.0
 40
13.0
 40
13.0
 40
14.0
 40
14.0
 40
14.0
 40
15.0
 40
15.0
 40
15.0
 40
15.0
 10
1102.4998161643
 20
24.0558885763
 30
0.0
 10
1102.4998161643
 20
24.0558885763
 30
0.0
 10
1102.785206169
 20
24.0558885763
 30
0.0
 10
1102.785206169
 20
24.0558885763
 30
0.0
 10
1102.785206169
 20
24.0558885763
 30
0.0
 10
1102.4528400012
 20
24.4667664372
 30
0.0
 10
1102.4528400012
 20
24.4667664372
 30
0.0
 10
1102.4528400012
 20
24.4667664372
 30
0.0
 10
1102.6793462361
 20
24.7326593715
 30
0.0
 10
1102.6793462361
 20
24.7326593715
 30
0.0
 10
1102.6793462361
 20
24.7326593715
 30
0.0
 10
1102.5310899888
 20
24.8854954675
 30
0.0
 10
1102.5310899888
 20
24.8854954675
 30
0.0
 10
1102.5310899888
 20
24.8854954675
 30
0.0
 10
1102.3151828325
 20
24.6342580494
 30
0.0
 10
1102.3151828325
 20
24.6342580494
 30
0.0
 10
1102.3151828325
 20
24.6342580494
 30
0.0
 10
1101.9281201851
 20
25.1021877407
 30
0.0
 10
1101.9281201851
 20
25.1021877407
 30
0.0
 10
1102.0835733376
 20
25.2162914015
 30
0.0
 10
1102.2658513186
 20
25.3560422153
 30
0.0
 10
1102.2658513186
 20
25.5654067305
 30
0.0
 10
1102.2658513186
 20
25.8093163906
 30
0.0
 10
1102.0638145615
 20
25.9527310835
 30
0.0
 10
1101.8373083267
 20
25.9527310835
 30
0.0
 10
1101.5931369609
 20
25.9527310835
 30
0.0
 10
1101.4087653347
 20
25.8019886326
 30
0.0
 10
1101.4087653347
 20
25.5455171015
 30
0.0
 10
1101.4087653347
 20
25.3879703039
 30
0.0
 10
1101.5074283625
 20
25.2503131352
 30
0.0
 10
1101.6127648842
 20
25.1393499421
 30
0.0
 10
1101.6127648842
 20
25.1393499421
 30
0.0
 10
1101.4972218424
 20
25.0556041361
 30
0.0
 10
1101.4972218424
 20
25.0556041361
 30
0.0
 10
1101.3195237102
 20
24.9273683706
 30
0.0
 10
1101.1721834326
 20
24.7996560163
 30
0.0
 10
1101.1721834326
 20
24.5625507029
 30
0.0
 10
1101.1721834326
 20
24.2422229947
 30
0.0
 10
1101.4307486088
 20
24.0161093184
 30
0.0
 10
1101.7411315025
 20
24.0161093184
 30
0.0
 10
1101.9600482737
 20
24.0161093184
 30
0.0
 10
1102.1572434764
 20
24.1412046162
 30
0.0
 10
1102.2975177016
 20
24.3071259944
 30
0.0
 10
1102.2975177016
 20
24.3071259944
 30
0.0
 10
1102.4998161643
 20
24.0558885763
 30
0.0
 10
1102.4998161643
 20
24.0558885763
 30
0.0
  0
LWPOLYLINE
  5
22F
100
AcDbEntity
  8
0
100
AcDbPolyline
 62
7
  6
CONTINUOUS
 90
2
 70
0
 43
0.2
 10
1104.435260254
 20
25.9124284143
 10
1104.2039124648
 20
25.9124284143
  0
LWPOLYLINE
  5
230
100
AcDbEntity
  8
0
100
AcDbPolyline
 62
7
  6
CONTINUOUS
 90
2
 70
0
 43
0.2
 10
1104.2039124648
 20
25.9124284143
 10
1104.2039124648
 20
24.055365165
  0
LWPOLYLINE
  5
231
100
AcDbEntity
  8
0
100
AcDbPolyline
 62
7
  6
CONTINUOUS
 90
2
 70
0
 43
0.2
 10
1104.2039124648
 20
24.055365165
 10
1104.9992359167
 20
24.055365165
  0
LWPOLYLINE
  5
232
100
AcDbEntity
  8
0
100
AcDbPolyline
 62
7
  6
CONTINUOUS
 90
2
 70
0
 43
0.2
 10
1104.9992359167
 20
24.055365165
 10
1104.9992359167
 20
24.2673467366
  0
LWPOLYLINE
  5
233
100
AcDbEntity
  8
0
100
AcDbPolyline
 62
7
  6
CONTINUOUS
 90
2
 70
0
 43
0.2
 10
1104.9992359167
 20
24.2673467366
 10
1104.435260254
 20
24.2673467366
  0
LWPOLYLINE
  5
234
100
AcDbEntity
  8
0
100
AcDbPolyline
 62
7
  6
CONTINUOUS
 90
2
 70
0
 43
0.2
 10
1104.435260254
 20
24.2673467366
 10
1104.435260254
 20
25.9124284143
  0
LWPOLYLINE
  5
235
100
AcDbEntity
  8
0
100
AcDbPolyline
 62
7
  6
CONTINUOUS
 90
2
 70
0
 43
0.2
 10
1106.6783393282
 20
25.2079168209
 10
1106.4571980591
 20
25.2079168209
  0
LWPOLYLINE
  5
236
100
AcDbEntity
  8
0
100
AcDbPolyline
 62
7
  6
CONTINUOUS
 90
2
 70
0
 43
0.2
 10
1106.4571980591
 20
25.2079168209
 10
1106.4571980591
 20
24.0558885763
  0
LWPOLYLINE
  5
237
100
AcDbEntity
  8
0
100
AcDbPolyline
 62
7
  6
CONTINUOUS
 90
2
 70
0
 43
0.2
 10
1106.4571980591
 20
24.0558885763
 10
1106.6783393282
 20
24.0558885763
  0
LWPOLYLINE
  5
238
100
AcDbEntity
  8
0
100
AcDbPolyline
 62
7
  6
CONTINUOUS
 90
2
 70
0
 43
0.2
 10
1106.6783393282
 20
24.0558885763
 10
1106.6783393282
 20
25.2079168209
  0
LWPOLYLINE
  5
239
100
AcDbEntity
  8
0
100
AcDbPolyline
 62
7
  6
CONTINUOUS
 90
2
 70
1
 43
0.2
 10
1106.415316051
 20
25.7378707498
 42
1.0
 10
1106.7204830419
 20
25.7378707498
 42
1.0
  0
SPLINE
  5
23A
100
AcDbEntity
  8
0
100
AcDbSpline
 62
7
  6
CONTINUOUS
 70
2
 71
3
 72
17
 73
13
 74
0
 42
0.0000001
 43
0.0000001
 44
0.0000000001
 40
0.0
 40
0.0
 40
0.0
 40
0.0
 40
1.0
 40
1.0
 40
1.0
 40
2.0
 40
2.0
 40
2.0
 40
3.0
 40
3.0
 40
3.0
 40
4.0
 40
4.0
 40
4.0
 40
4.0
 10
1108.8086232698
 20
24.2134353739
 30
0.0
 10
1108.5746584242
 20
24.2134353739
 30
0.0
 10
1108.4443290135
 20
24.415472131
 30
0.0
 10
1108.4443290135
 20
24.6316409929
 30
0.0
 10
1108.4443290135
 20
24.8462396209
 30
0.0
 10
1108.5801542427
 20
25.0451359103
 30
0.0
 10
1108.8086232698
 20
25.0451359103
 30
0.0
 10
1109.048083934
 20
25.0451359103
 30
0.0
 10
1109.1836474576
 20
24.8561844354
 30
0.0
 10
1109.1836474576
 20
24.6316409929
 30
0.0
 10
1109.1836474576
 20
24.4055273166
 30
0.0
 10
1109.0504392848
 20
24.2134353739
 30
0.0
 10
1108.8086232698
 20
24.2134353739
 30
0.0
  0
SPLINE
  5
23B
100
AcDbEntity
  8
0
100
AcDbSpline
 62
7
  6
CONTINUOUS
 70
2
 71
3
 72
50
 73
46
 74
0
 42
0.0000001
 43
0.0000001
 44
0.0000000001
 40
0.0
 40
0.0
 40
0.0
 40
0.0
 40
1.0
 40
1.0
 40
1.0
 40
2.0
 40
2.0
 40
2.0
 40
3.0
 40
3.0
 40
3.0
 40
4.0
 40
4.0
 40
4.0
 40
5.0
 40
5.0
 40
5.0
 40
6.0
 40
6.0
 40
6.0
 40
7.0
 40
7.0
 40
7.0
 40
8.0
 40
8.0
 40
8.0
 40
9.0
 40
9.0
 40
9.0
 40
10.0
 40
10.0
 40
10.0
 40
11.0
 40
11.0
 40
11.0
 40
12.0
 40
12.0
 40
12.0
 40
13.0
 40
13.0
 40
13.0
 40
14.0
 40
14.0
 40
14.0
 40
15.0
 40
15.0
 40
15.0
 40
15.0
 10
1109.3927502671
 20
25.2084402321
 30
0.0
 10
1109.3927502671
 20
25.2084402321
 30
0.0
 10
1109.1710855867
 20
25.2084402321
 30
0.0
 10
1109.1710855867
 20
25.2084402321
 30
0.0
 10
1109.1710855867
 20
25.2084402321
 30
0.0
 10
1109.1710855867
 20
25.0111141766
 30
0.0
 10
1109.1710855867
 20
25.0111141766
 30
0.0
 10
1109.1710855867
 20
25.0111141766
 30
0.0
 10
1109.1663748851
 20
25.0111141766
 30
0.0
 10
1109.1663748851
 20
25.0111141766
 30
0.0
 10
1109.0750396154
 20
25.1540054582
 30
0.0
 10
1108.937120741
 20
25.2424619659
 30
0.0
 10
1108.764395016
 20
25.2424619659
 30
0.0
 10
1108.4320288482
 20
25.2424619659
 30
0.0
 10
1108.2229260387
 20
24.9545857575
 30
0.0
 10
1108.2229260387
 20
24.6389687509
 30
0.0
 10
1108.2229260387
 20
24.3092196396
 30
0.0
 10
1108.4199903886
 20
24.0161093184
 30
0.0
 10
1108.7748632418
 20
24.0161093184
 30
0.0
 10
1108.937120741
 20
24.0161093184
 30
0.0
 10
1109.0771332605
 20
24.104565826
 30
0.0
 10
1109.1663748851
 20
24.235418648
 30
0.0
 10
1109.1663748851
 20
24.235418648
 30
0.0
 10
1109.1710855867
 20
24.235418648
 30
0.0
 10
1109.1710855867
 20
24.235418648
 30
0.0
 10
1109.1710855867
 20
24.235418648
 30
0.0
 10
1109.1710855867
 20
24.0161093184
 30
0.0
 10
1109.1710855867
 20
24.0161093184
 30
0.0
 10
1109.1710855867
 20
23.7795274163
 30
0.0
 10
1109.1145571676
 20
23.5926695865
 30
0.0
 10
1108.8413364753
 20
23.5926695865
 30
0.0
 10
1108.6390380126
 20
23.5926695865
 30
0.0
 10
1108.4964084366
 20
23.7109605375
 30
0.0
 10
1108.4964084366
 20
23.917184585
 30
0.0
 10
1108.4964084366
 20
23.917184585
 30
0.0
 10
1108.2747437562
 20
23.917184585
 30
0.0
 10
1108.2747437562
 20
23.917184585
 30
0.0
 10
1108.2797161634
 20
23.5926695865
 30
0.0
 10
1108.510802247
 20
23.3958669423
 30
0.0
 10
1108.8311299552
 20
23.3958669423
 30
0.0
 10
1109.2791700176
 20
23.3958669423
 30
0.0
 10
1109.3927502671
 20
23.6811260941
 30
0.0
 10
1109.3927502671
 20
24.0778718503
 30
0.0
 10
1109.3927502671
 20
24.0778718503
 30
0.0
 10
1109.3927502671
 20
25.2084402321
 30
0.0
 10
1109.3927502671
 20
25.2084402321
 30
0.0
  0
SPLINE
  5
23C
100
AcDbEntity
  8
0
100
AcDbSpline
 62
7
  6
CONTINUOUS
 70
2
 71
3
 72
44
 73
40
 74
0
 42
0.0000001
 43
0.0000001
 44
0.0000000001
 40
0.0
 40
0.0
 40
0.0
 40
0.0
 40
1.0
 40
1.0
 40
1.0
 40
2.0
 40
2.0
 40
2.0
 40
3.0
 40
3.0
 40
3.0
 40
4.0
 40
4.0
 40
4.0
 40
5.0
 40
5.0
 40
5.0
 40
6.0
 40
6.0
 40
6.0
 40
7.0
 40
7.0
 40
7.0
 40
8.0
 40
8.0
 40
8.0
 40
9.0
 40
9.0
 40
9.0
 40
10.0
 40
10.0
 40
10.0
 40
11.0
 40
11.0
 40
11.0
 40
12.0
 40
12.0
 40
12.0
 40
13.0
 40
13.0
 40
13.0
 40
13.0
 10
1110.9616756025
 20
26.1935002759
 30
0.0
 10
1110.9616756025
 20
26.1935002759
 30
0.0
 10
1110.9616756025
 20
24.055365165
 30
0.0
 10
1110.9616756025
 20
24.055365165
 30
0.0
 10
1110.9616756025
 20
24.055365165
 30
0.0
 10
1111.1830785773
 20
24.055365165
 30
0.0
 10
1111.1830785773
 20
24.055365165
 30
0.0
 10
1111.1830785773
 20
24.055365165
 30
0.0
 10
1111.1830785773
 20
24.5850573883
 30
0.0
 10
1111.1830785773
 20
24.5850573883
 30
0.0
 10
1111.1830785773
 20
24.7949453147
 30
0.0
 10
1111.1830785773
 20
25.0456593216
 30
0.0
 10
1111.4683377291
 20
25.0456593216
 30
0.0
 10
1111.6952365224
 20
25.0456593216
 30
0.0
 10
1111.7221922038
 20
24.9127128545
 30
0.0
 10
1111.7221922038
 20
24.7164336215
 30
0.0
 10
1111.7221922038
 20
24.7164336215
 30
0.0
 10
1111.7221922038
 20
24.055365165
 30
0.0
 10
1111.7221922038
 20
24.055365165
 30
0.0
 10
1111.7221922038
 20
24.055365165
 30
0.0
 10
1111.9441185898
 20
24.055365165
 30
0.0
 10
1111.9441185898
 20
24.055365165
 30
0.0
 10
1111.9441185898
 20
24.055365165
 30
0.0
 10
1111.9441185898
 20
24.7426041859
 30
0.0
 10
1111.9441185898
 20
24.7426041859
 30
0.0
 10
1111.9441185898
 20
25.0231526362
 30
0.0
 10
1111.8601110781
 20
25.2429853771
 30
0.0
 10
1111.5350726683
 20
25.2429853771
 30
0.0
 10
1111.3953218545
 20
25.2429853771
 30
0.0
 10
1111.2571412745
 20
25.1765121436
 30
0.0
 10
1111.1877892788
 20
25.0535104909
 30
0.0
 10
1111.1877892788
 20
25.0535104909
 30
0.0
 10
1111.1830785773
 20
25.0535104909
 30
0.0
 10
1111.1830785773
 20
25.0535104909
 30
0.0
 10
1111.1830785773
 20
25.0535104909
 30
0.0
 10
1111.1830785773
 20
26.1935002759
 30
0.0
 10
1111.1830785773
 20
26.1935002759
 30
0.0
 10
1111.1830785773
 20
26.1935002759
 30
0.0
 10
1110.9616756025
 20
26.1935002759
 30
0.0
 10
1110.9616756025
 20
26.1935002759
 30
0.0
  0
LWPOLYLINE
  5
23D
100
AcDbEntity
  8
0
100
AcDbPolyline
 62
7
  6
CONTINUOUS
 90
2
 70
0
 43
0.2
 10
1113.7839092667
 20
25.0011693621
 10
1114.0003398342
 20
25.0011693621
  0
LWPOLYLINE
  5
23E
100
AcDbEntity
  8
0
100
AcDbPolyline
 62
7
  6
CONTINUOUS
 90
2
 70
0
 43
0.2
 10
1114.0003398342
 20
25.0011693621
 10
1114.0003398342
 20
25.2079168209
  0
LWPOLYLINE
  5
23F
100
AcDbEntity
  8
0
100
AcDbPolyline
 62
7
  6
CONTINUOUS
 90
2
 70
0
 43
0.2
 10
1114.0003398342
 20
25.2079168209
 10
1113.7839092667
 20
25.2079168209
  0
LWPOLYLINE
  5
240
100
AcDbEntity
  8
0
100
AcDbPolyline
 62
7
  6
CONTINUOUS
 90
2
 70
0
 43
0.2
 10
1113.7839092667
 20
25.2079168209
 10
1113.7839092667
 20
25.6486291252
  0
LWPOLYLINE
  5
241
100
AcDbEntity
  8
0
100
AcDbPolyline
 62
7
  6
CONTINUOUS
 90
2
 70
0
 43
0.2
 10
1113.7839092667
 20
25.6486291252
 10
1113.5622445863
 20
25.6486291252
  0
LWPOLYLINE
  5
242
100
AcDbEntity
  8
0
100
AcDbPolyline
 62
7
  6
CONTINUOUS
 90
2
 70
0
 43
0.2
 10
1113.5622445863
 20
25.6486291252
 10
1113.5622445863
 20
25.2079168209
  0
LWPOLYLINE
  5
243
100
AcDbEntity
  8
0
100
AcDbPolyline
 62
7
  6
CONTINUOUS
 90
2
 70
0
 43
0.2
 10
1113.5622445863
 20
25.2079168209
 10
1113.4415982844
 20
25.2079168209
  0
LWPOLYLINE
  5
244
100
AcDbEntity
  8
0
100
AcDbPolyline
 62
7
  6
CONTINUOUS
 90
2
 70
0
 43
0.2
 10
1113.4415982844
 20
25.2079168209
 10
1113.4415982844
 20
25.0011693621
  0
LWPOLYLINE
  5
245
100
AcDbEntity
  8
0
100
AcDbPolyline
 62
7
  6
CONTINUOUS
 90
2
 70
0
 43
0.2
 10
1113.4415982844
 20
25.0011693621
 10
1113.5622445863
 20
25.0011693621
  0
LWPOLYLINE
  5
246
100
AcDbEntity
  8
0
100
AcDbPolyline
 62
7
  6
CONTINUOUS
 90
2
 70
0
 43
0.2
 10
1113.5622445863
 20
25.0011693621
 10
1113.5622445863
 20
24.055365165
  0
LWPOLYLINE
  5
247
100
AcDbEntity
  8
0
100
AcDbPolyline
 62
7
  6
CONTINUOUS
 90
2
 70
0
 43
0.2
 10
1113.5622445863
 20
24.055365165
 10
1113.7839092667
 20
24.055365165
  0
LWPOLYLINE
  5
248
100
AcDbEntity
  8
0
100
AcDbPolyline
 62
7
  6
CONTINUOUS
 90
2
 70
0
 43
0.2
 10
1113.7839092667
 20
24.055365165
 10
1113.7839092667
 20
25.0011693621
  0
SPLINE
  5
249
100
AcDbEntity
  8
0
100
AcDbSpline
 62
7
  6
CONTINUOUS
 70
2
 71
3
 72
20
 73
16
 74
0
 42
0.0000001
 43
0.0000001
 44
0.0000000001
 40
0.0
 40
0.0
 40
0.0
 40
0.0
 40
1.0
 40
1.0
 40
1.0
 40
2.0
 40
2.0
 40
2.0
 40
3.0
 40
3.0
 40
3.0
 40
4.0
 40
4.0
 40
4.0
 40
5.0
 40
5.0
 40
5.0
 40
5.0
 10
1101.5659195739
 20
34.4162916084
 30
0.0
 10
1101.5659195739
 20
34.4162916084
 30
0.0
 10
1103.8822762284
 20
31.5867301861
 30
0.0
 10
1103.8822762284
 20
31.5867301861
 30
0.0
 10
1103.230629175
 20
30.9345597214
 30
0.0
 10
1102.453755971
 20
30.1986434507
 30
0.0
 10
1101.4825663263
 20
30.1986434507
 30
0.0
 10
1100.4840284419
 20
30.1986434507
 30
0.0
 10
1099.5407104483
 20
31.128221898
 30
0.0
 10
1099.5407104483
 20
32.1274140465
 30
0.0
 10
1099.5407104483
 20
33.126606195
 30
0.0
 10
1100.7195635214
 20
33.8332114337
 30
0.0
 10
1101.4410859818
 20
34.3330692136
 30
0.0
 10
1101.4410859818
 20
34.3330692136
 30
0.0
 10
1101.5659195739
 20
34.4162916084
 30
0.0
 10
1101.5659195739
 20
34.4162916084
 30
0.0
  0
SPLINE
  5
24A
100
AcDbEntity
  8
0
100
AcDbSpline
 62
7
  6
CONTINUOUS
 70
2
 71
3
 72
23
 73
19
 74
0
 42
0.0000001
 43
0.0000001
 44
0.0000000001
 40
0.0
 40
0.0
 40
0.0
 40
0.0
 40
1.0
 40
1.0
 40
1.0
 40
2.0
 40
2.0
 40
2.0
 40
3.0
 40
3.0
 40
3.0
 40
4.0
 40
4.0
 40
4.0
 40
5.0
 40
5.0
 40
5.0
 40
6.0
 40
6.0
 40
6.0
 40
6.0
 10
1101.8433275565
 20
36.0540455281
 30
0.0
 10
1101.8433275565
 20
36.0540455281
 30
0.0
 10
1101.4968292839
 20
36.4973748889
 30
0.0
 10
1101.4968292839
 20
36.4973748889
 30
0.0
 10
1101.191026239
 20
36.8854843589
 30
0.0
 10
1100.8721379119
 20
37.2739863873
 30
0.0
 10
1100.8721379119
 20
37.8009307014
 30
0.0
 10
1100.8721379119
 20
38.467102418
 30
0.0
 10
1101.4134760363
 20
38.9108243373
 30
0.0
 10
1102.0373822915
 20
38.9108243373
 30
0.0
 10
1102.7311639536
 20
38.9108243373
 30
0.0
 10
1103.2583699733
 20
38.5085827626
 30
0.0
 10
1103.2583699733
 20
37.7735824616
 30
0.0
 10
1103.2583699733
 20
37.010317951
 30
0.0
 10
1102.5371092186
 20
36.5802047252
 30
0.0
 10
1102.0100340517
 20
36.1644853098
 30
0.0
 10
1102.0100340517
 20
36.1644853098
 30
0.0
 10
1101.8433275565
 20
36.0540455281
 30
0.0
 10
1101.8433275565
 20
36.0540455281
 30
0.0
  0
SPLINE
  5
24B
100
AcDbEntity
  8
0
100
AcDbSpline
 62
7
  6
CONTINUOUS
 70
2
 71
3
 72
50
 73
46
 74
0
 42
0.0000001
 43
0.0000001
 44
0.0000000001
 40
0.0
 40
0.0
 40
0.0
 40
0.0
 40
1.0
 40
1.0
 40
1.0
 40
2.0
 40
2.0
 40
2.0
 40
3.0
 40
3.0
 40
3.0
 40
4.0
 40
4.0
 40
4.0
 40
5.0
 40
5.0
 40
5.0
 40
6.0
 40
6.0
 40
6.0
 40
7.0
 40
7.0
 40
7.0
 40
8.0
 40
8.0
 40
8.0
 40
9.0
 40
9.0
 40
9.0
 40
10.0
 40
10.0
 40
10.0
 40
11.0
 40
11.0
 40
11.0
 40
12.0
 40
12.0
 40
12.0
 40
13.0
 40
13.0
 40
13.0
 40
14.0
 40
14.0
 40
14.0
 40
15.0
 40
15.0
 40
15.0
 40
15.0
 10
1105.7969147194
 20
29.25545631
 30
0.0
 10
1105.7969147194
 20
29.25545631
 30
0.0
 10
1107.406142724
 20
29.25545631
 30
0.0
 10
1107.406142724
 20
29.25545631
 30
0.0
 10
1107.406142724
 20
29.25545631
 30
0.0
 10
1105.5331154303
 20
31.5725980814
 30
0.0
 10
1105.5331154303
 20
31.5725980814
 30
0.0
 10
1105.5331154303
 20
31.5725980814
 30
0.0
 10
1106.8094538558
 20
33.070077776
 30
0.0
 10
1106.8094538558
 20
33.070077776
 30
0.0
 10
1106.8094538558
 20
33.070077776
 30
0.0
 10
1105.9772299081
 20
33.9310893445
 30
0.0
 10
1105.9772299081
 20
33.9310893445
 30
0.0
 10
1105.9772299081
 20
33.9310893445
 30
0.0
 10
1104.7566347848
 20
32.5157852221
 30
0.0
 10
1104.7566347848
 20
32.5157852221
 30
0.0
 10
1104.7566347848
 20
32.5157852221
 30
0.0
 10
1102.578720416
 20
35.1511610565
 30
0.0
 10
1102.578720416
 20
35.1511610565
 30
0.0
 10
1103.4522938554
 20
35.7891994164
 30
0.0
 10
1104.4789650966
 20
36.5802047252
 30
0.0
 10
1104.4789650966
 20
37.7590577983
 30
0.0
 10
1104.4789650966
 20
39.1327507234
 30
0.0
 10
1103.3410689567
 20
39.9372338728
 30
0.0
 10
1102.0657773538
 20
39.9372338728
 30
0.0
 10
1100.6923461345
 20
39.9372338728
 30
0.0
 10
1099.6514119357
 20
39.0910086731
 30
0.0
 10
1099.6514119357
 20
37.648356311
 30
0.0
 10
1099.6514119357
 20
36.7607816195
 30
0.0
 10
1100.2067513122
 20
35.9839084155
 30
0.0
 10
1100.802916769
 20
35.3594787491
 30
0.0
 10
1100.802916769
 20
35.3594787491
 30
0.0
 10
1100.15100801
 20
34.8878851787
 30
0.0
 10
1100.15100801
 20
34.8878851787
 30
0.0
 10
1099.1524701256
 20
34.166624424
 30
0.0
 10
1098.3195919137
 20
33.4453636694
 30
0.0
 10
1098.3195919137
 20
32.113805353
 30
0.0
 10
1098.3195919137
 20
30.310130055
 30
0.0
 10
1099.7766380863
 20
29.0335299239
 30
0.0
 10
1101.5241775237
 20
29.0335299239
 30
0.0
 10
1102.7590356046
 20
29.0335299239
 30
0.0
 10
1103.8684058293
 20
29.7417053964
 30
0.0
 10
1104.6592802852
 20
30.6702370211
 30
0.0
 10
1104.6592802852
 20
30.6702370211
 30
0.0
 10
1105.7969147194
 20
29.25545631
 30
0.0
 10
1105.7969147194
 20
29.25545631
 30
0.0
  0
LINE
  5
24C
100
AcDbEntity
  8
0
100
AcDbLine
 62
7
  6
CONTINUOUS
 10
1091.5997760944
 20
27.2293312146
 11
1114.0136868221
 21
27.2293312146
  0
LINE
  5
24D
100
AcDbEntity
  8
0
100
AcDbLine
 62
7
  6
CONTINUOUS
 10
1114.0136868221
 20
27.2293312146
 11
1114.0136868221
 21
49.6432419423
  0
LINE
  5
24E
100
AcDbEntity
  8
0
100
AcDbLine
 62
7
  6
CONTINUOUS
 10
1114.0136868221
 20
49.6432419423
 11
1091.5997760944
 21
49.6432419423
  0
LINE
  5
24F
100
AcDbEntity
  8
0
100
AcDbLine
 62
7
  6
CONTINUOUS
 10
1091.5997760944
 20
49.6432419423
 11
1091.5997760944
 21
27.2293312146
  0
ENDBLK
  5
250
100
AcDbEntity
  8
0
  6
BYBLOCK
 62
0
100
AcDbBlockEnd
  0
BLOCK
  5
251
100
AcDbEntity
  8
0
100
AcDbBlockBegin
  2
_CLOSED
 70
64
 10
0.0
 20
0.0
  3
_CLOSED
  1

  0
LINE
  5
252
100
AcDbEntity
  8
0
  6
BYBLOCK
 62
0
100
AcDbLine
 10
0.0
 20
0.0
 11
-1.0
 21
0.2
  0
LINE
  5
253
100
AcDbEntity
  8
0
  6
BYBLOCK
 62
0
100
AcDbLine
 10
-1.0
 20
0.2
 11
-1.0
 21
-0.2
  0
LINE
  5
254
100
AcDbEntity
  8
0
  6
BYBLOCK
 62
0
100
AcDbLine
 10
-1.0
 20
-0.2
 11
0.0
 21
0.0
  0
LINE
  5
255
100
AcDbEntity
  8
0
  6
BYBLOCK
 62
0
100
AcDbLine
 10
-1.0
 20
0.0
 11
0.0
 21
0.0
  0
ENDBLK
  5
256
100
AcDbEntity
  8
0
  6
BYBLOCK
 62
0
100
AcDbBlockEnd
  0
BLOCK
  5
257
100
AcDbEntity
  8
0
100
AcDbBlockBegin
 62
7
  6
CONTINUOUS
  2
*D0
 70
65
 10
0.0
 20
0.0
  3
*D0
  1

  0
MTEXT
  5
258
100
AcDbEntity
  8
0
100
AcDbMText
 62
7
  6
CONTINUOUS
  7
STANDARD
 71
2
 72
1
 10
125.8801177419
 20
315.0784841196
 30
0.0
 11
1.0
 21
0.0
 31
0.0
  1
42,4
 40
6.0
 41
16.3048327138
  0
LINE
  5
259
100
AcDbEntity
  8
0
100
AcDbLine
 62
7
  6
CONTINUOUS
 10
147.0801177419
 20
310.5982597289
 11
147.0801177419
 21
306.8284841196
  0
LINE
  5
25A
100
AcDbEntity
  8
0
100
AcDbLine
 62
7
  6
CONTINUOUS
 10
104.6801177419
 20
310.5982597289
 11
104.6801177419
 21
306.8284841196
  0
LINE
  5
25B
100
AcDbEntity
  8
0
100
AcDbLine
 62
7
  6
CONTINUOUS
 10
147.0801177419
 20
307.5784841196
 11
125.8801177419
 21
307.5784841196
  0
LINE
  5
25C
100
AcDbEntity
  8
0
100
AcDbLine
 62
7
  6
CONTINUOUS
 10
104.6801177419
 20
307.5784841196
 11
125.8801177419
 21
307.5784841196
  0
INSERT
  5
25D
100
AcDbEntity
  8
0
100
AcDbBlockReference
 62
7
  6
CONTINUOUS
  2
_CLOSED
 10
147.0801177419
 20
307.5784841196
 41
2.5
 42
2.5
 43
2.5
  0
INSERT
  5
25E
100
AcDbEntity
  8
0
100
AcDbBlockReference
 62
7
  6
CONTINUOUS
  2
_CLOSED
 10
104.6801177419
 20
307.5784841196
 41
2.5
 42
2.5
 43
2.5
 50
180.0
  0
ENDBLK
  5
25F
100
AcDbEntity
  8
0
  6
BYBLOCK
 62
0
100
AcDbBlockEnd
  0
BLOCK
  5
260
100
AcDbEntity
  8
0
100
AcDbBlockBegin
 62
7
  6
CONTINUOUS
  2
*D1
 70
65
 10
0.0
 20
0.0
  3
*D1
  1

  0
MTEXT
  5
261
100
AcDbEntity
  8
0
100
AcDbMText
 62
7
  6
CONTINUOUS
  7
STANDARD
 71
2
 72
1
 10
125.8801177419
 20
295.5785395885
 30
0.0
 11
1.0
 21
0.0
 31
0.0
  1
82,1
 40
6.0
 41
16.3048327138
  0
LINE
  5
262
100
AcDbEntity
  8
0
100
AcDbLine
 62
7
  6
CONTINUOUS
 10
84.8301177419
 20
310.5982597289
 11
84.8301177419
 21
287.3285395885
  0
LINE
  5
263
100
AcDbEntity
  8
0
100
AcDbLine
 62
7
  6
CONTINUOUS
 10
166.9301177419
 20
310.5982597289
 11
166.9301177419
 21
287.3285395885
  0
LINE
  5
264
100
AcDbEntity
  8
0
100
AcDbLine
 62
7
  6
CONTINUOUS
 10
84.8301177419
 20
288.0785395885
 11
125.8801177419
 21
288.0785395885
  0
LINE
  5
265
100
AcDbEntity
  8
0
100
AcDbLine
 62
7
  6
CONTINUOUS
 10
166.9301177419
 20
288.0785395885
 11
125.8801177419
 21
288.0785395885
  0
INSERT
  5
266
100
AcDbEntity
  8
0
100
AcDbBlockReference
 62
7
  6
CONTINUOUS
  2
_CLOSED
 10
84.8301177419
 20
288.0785395885
 41
2.5
 42
2.5
 43
2.5
 50
180.0
  0
INSERT
  5
267
100
AcDbEntity
  8
0
100
AcDbBlockReference
 62
7
  6
CONTINUOUS
  2
_CLOSED
 10
166.9301177419
 20
288.0785395885
 41
2.5
 42
2.5
 43
2.5
  0
ENDBLK
  5
268
100
AcDbEntity
  8
0
  6
BYBLOCK
 62
0
100
AcDbBlockEnd
  0
BLOCK
  5
269
100
AcDbEntity
  8
0
100
AcDbBlockBegin
 62
7
  6
CONTINUOUS
  2
*D2
 70
65
 10
0.0
 20
0.0
  3
*D2
  1

  0
MTEXT
  5
26A
100
AcDbEntity
  8
0
100
AcDbMText
 62
7
  6
CONTINUOUS
  7
STANDARD
 71
2
 72
1
 10
667.0352822581
 20
295.5785395885
 30
0.0
 11
1.0
 21
0.0
 31
0.0
  1
847
 40
6.0
 41
13.9851301115
  0
LINE
  5
26B
100
AcDbEntity
  8
0
100
AcDbLine
 62
7
  6
CONTINUOUS
 10
1090.5352822581
 20
310.5982597289
 11
1090.5352822581
 21
287.3285395885
  0
LINE
  5
26C
100
AcDbEntity
  8
0
100
AcDbLine
 62
7
  6
CONTINUOUS
 10
243.5352822581
 20
311.5034846774
 11
243.5352822581
 21
287.3285395885
  0
LINE
  5
26D
100
AcDbEntity
  8
0
100
AcDbLine
 62
7
  6
CONTINUOUS
 10
1090.5352822581
 20
288.0785395885
 11
667.0352822581
 21
288.0785395885
  0
LINE
  5
26E
100
AcDbEntity
  8
0
100
AcDbLine
 62
7
  6
CONTINUOUS
 10
243.5352822581
 20
288.0785395885
 11
667.0352822581
 21
288.0785395885
  0
INSERT
  5
26F
100
AcDbEntity
  8
0
100
AcDbBlockReference
 62
7
  6
CONTINUOUS
  2
_CLOSED
 10
1090.5352822581
 20
288.0785395885
 41
2.5
 42
2.5
 43
2.5
  0
INSERT
  5
270
100
AcDbEntity
  8
0
100
AcDbBlockReference
 62
7
  6
CONTINUOUS
  2
_CLOSED
 10
243.5352822581
 20
288.0785395885
 41
2.5
 42
2.5
 43
2.5
 50
180.0
  0
ENDBLK
  5
271
100
AcDbEntity
  8
0
  6
BYBLOCK
 62
0
100
AcDbBlockEnd
  0
BLOCK
  5
272
100
AcDbEntity
  8
0
100
AcDbBlockBegin
 62
7
  6
CONTINUOUS
  2
*D3
 70
65
 10
0.0
 20
0.0
  3
*D3
  1

  0
MTEXT
  5
273
100
AcDbEntity
  8
0
100
AcDbMText
 62
7
  6
CONTINUOUS
  7
STANDARD
 71
2
 72
1
 10
49.8055612889
 20
375.3585040323
 30
0.0
 11
0.0
 21
1.0
 31
0.0
  1
94,8
 40
6.0
 41
16.3048327138
  0
LINE
  5
274
100
AcDbEntity
  8
0
100
AcDbLine
 62
7
  6
CONTINUOUS
 10
77.2550854838
 20
327.9585040323
 11
56.5555612889
 21
327.9585040323
  0
LINE
  5
275
100
AcDbEntity
  8
0
100
AcDbLine
 62
7
  6
CONTINUOUS
 10
72.8563241935
 20
422.7585040323
 11
56.5555612889
 21
422.7585040323
  0
LINE
  5
276
100
AcDbEntity
  8
0
100
AcDbLine
 62
7
  6
CONTINUOUS
 10
57.3055612889
 20
327.9585040323
 11
57.3055612889
 21
375.3585040323
  0
LINE
  5
277
100
AcDbEntity
  8
0
100
AcDbLine
 62
7
  6
CONTINUOUS
 10
57.3055612889
 20
422.7585040323
 11
57.3055612889
 21
375.3585040323
  0
INSERT
  5
278
100
AcDbEntity
  8
0
100
AcDbBlockReference
 62
7
  6
CONTINUOUS
  2
_CLOSED
 10
57.3055612889
 20
327.9585040323
 41
2.5
 42
2.5
 43
2.5
 50
270.0
  0
INSERT
  5
279
100
AcDbEntity
  8
0
100
AcDbBlockReference
 62
7
  6
CONTINUOUS
  2
_CLOSED
 10
57.3055612889
 20
422.7585040323
 41
2.5
 42
2.5
 43
2.5
 50
90.0
  0
ENDBLK
  5
27A
100
AcDbEntity
  8
0
  6
BYBLOCK
 62
0
100
AcDbBlockEnd
  0
ENDSEC
  0
SECTION
  2
ENTITIES
  0
DIMENSION
  5
27B
100
AcDbEntity
  8
0
100
AcDbDimension
 62
7
  6
CONTINUOUS
  2
*D0
 10
104.6801177419
 20
307.5784841196
 11
125.7273430099
 21
307.5784841196
 70
160
  3
DIMSTYLE_1
100
AcDbAlignedDimension
 13
147.0801177419
 23
311.3482597289
 14
104.6801177419
 24
311.3482597289
 50
180.0
100
AcDbRotatedDimension
  0
DIMENSION
  5
27C
100
AcDbEntity
  8
0
100
AcDbDimension
 62
7
  6
CONTINUOUS
  2
*D1
 10
166.9301177419
 20
288.0785395885
 11
125.2700925369
 21
288.0785395885
 70
160
  3
DIMSTYLE_1
100
AcDbAlignedDimension
 13
84.8301177419
 23
311.3482597289
 14
166.9301177419
 24
311.3482597289
100
AcDbRotatedDimension
  0
DIMENSION
  5
27D
100
AcDbEntity
  8
0
100
AcDbDimension
 62
7
  6
CONTINUOUS
  2
*D2
 10
243.5352822581
 20
288.0785395885
 11
667.0030922241
 21
288.0785395885
 70
160
  3
DIMSTYLE_2
100
AcDbAlignedDimension
 13
1090.5352822581
 23
311.3482597289
 14
243.5352822581
 24
312.2534846774
 50
180.0
100
AcDbRotatedDimension
  0
DIMENSION
  5
27E
100
AcDbEntity
  8
0
100
AcDbDimension
 62
7
  6
CONTINUOUS
  2
*D3
 10
57.3055612889
 20
422.7585040323
 11
57.3055612889
 21
375.328405596
 70
160
  3
DIMSTYLE_1
100
AcDbAlignedDimension
 13
78.0050854838
 23
327.9585040323
 14
73.6063241935
 24
422.7585040323
 50
90.0
100
AcDbRotatedDimension
  0
LINE
  5
27F
100
AcDbEntity
  8
0
100
AcDbLine
 62
2
  6
CONTINUOUS
 10
1088.980618987
 20
50.0195544423
 11
1178.980618987
 21
50.0195544423
  0
LINE
  5
280
100
AcDbEntity
  8
0
100
AcDbLine
 62
2
  6
CONTINUOUS
 10
1088.980618987
 20
50.0195544423
 11
1088.980618987
 21
10.0195544423
  0
LINE
  5
281
100
AcDbEntity
  8
0
100
AcDbLine
 62
2
  6
CONTINUOUS
 10
1118.980618987
 20
44.0195544423
 11
1178.980618987
 21
44.0195544423
  0
LINE
  5
282
100
AcDbEntity
  8
0
100
AcDbLine
 62
2
  6
CONTINUOUS
 10
1118.980618987
 20
38.0195544423
 11
1178.980618987
 21
38.0195544423
  0
LINE
  5
283
100
AcDbEntity
  8
0
100
AcDbLine
 62
2
  6
CONTINUOUS
 10
1118.980618987
 20
28.0195544423
 11
1178.980618987
 21
28.0195544423
  0
LINE
  5
284
100
AcDbEntity
  8
0
100
AcDbLine
 62
2
  6
CONTINUOUS
 10
1088.980618987
 20
23.0195544423
 11
1178.980618987
 21
23.0195544423
  0
LINE
  5
285
100
AcDbEntity
  8
0
100
AcDbLine
 62
2
  6
CONTINUOUS
 10
1088.980618987
 20
10.0195544423
 11
1178.980618987
 21
10.0195544423
  0
LINE
  5
286
100
AcDbEntity
  8
0
100
AcDbLine
 62
2
  6
CONTINUOUS
 10
1118.980618987
 20
50.0195544423
 11
1118.980618987
 21
23.0195544423
  0
LINE
  5
287
100
AcDbEntity
  8
0
100
AcDbLine
 62
2
  6
CONTINUOUS
 10
1158.980618987
 20
50.0195544423
 11
1158.980618987
 21
38.0195544423
  0
LINE
  5
288
100
AcDbEntity
  8
0
100
AcDbLine
 62
2
  6
CONTINUOUS
 10
1178.980618987
 20
50.0195544423
 11
1178.980618987
 21
10.0195544423
  0
INSERT
  5
289
100
AcDbEntity
  8
0
100
AcDbBlockReference
 62
2
  6
CONTINUOUS
  2
LOGO2_BL0
 10
1102.8066660318
 20
36.5195544423
  0
MTEXT
  5
28A
100
AcDbEntity
  8
9_SOLID
100
AcDbMText
 62
2
  6
CONTINUOUS
  7
TEXTSTYLE_2
 71
1
 72
1
 10
1120.468118987
 20
48.5195544423
 30
0.0
 11
1.0
 21
0.0
 31
0.0
  1
6F3_C_149
 40
3.0
 41
31.2857142857
  0
MTEXT
  5
28B
100
AcDbEntity
  8
0
100
AcDbMText
 62
2
  6
CONTINUOUS
  7
TEXTSTYLE_2
 71
1
 72
1
 10
1160.468118987
 20
48.2695544423
 30
0.0
 11
1.0
 21
0.0
 31
0.0
  1
Rev:00
 40
3.5
 41
22.75
  0
MTEXT
  5
28C
100
AcDbEntity
  8
9_SOLID
100
AcDbMText
 62
2
  6
CONTINUOUS
  7
TEXTSTYLE_2
 71
1
 72
1
 10
1120.468118987
 20
42.2695544423
 30
0.0
 11
1.0
 21
0.0
 31
0.0
  1
Scale:1:1
 40
3.5
 41
28.375
  0
MTEXT
  5
28D
100
AcDbEntity
  8
9_SOLID
100
AcDbMText
 62
2
  6
CONTINUOUS
  7
TEXTSTYLE_2
 71
1
 72
1
 10
1160.468118987
 20
42.7695544423
 30
0.0
 11
1.0
 21
0.0
 31
0.0
  1
A0
 40
3.5
 41
9.625
  0
MTEXT
  5
28E
100
AcDbEntity
  8
0
100
AcDbMText
 62
2
  6
CONTINUOUS
  7
TEXTSTYLE_2
 71
1
 72
1
 10
1120.468118987
 20
34.7695544423
 30
0.0
 11
1.0
 21
0.0
 31
0.0
  1
CASS. BRENTA 1.2 ARRETRATA
 40
3.5
 41
107.375
  0
MTEXT
  5
28F
100
AcDbEntity
  8
0
100
AcDbMText
 62
2
  6
CONTINUOUS
  7
TEXTSTYLE_2
 71
1
 72
1
 10
1120.468118987
 20
26.7695544423
 30
0.0
 11
1.0
 21
0.0
 31
0.0
  1
DATE:08/05/18
 40
2.5
 41
36.875
  0
MTEXT
  5
290
100
AcDbEntity
  8
9_SOLID
100
AcDbMText
 62
2
  6
CONTINUOUS
  7
TEXTSTYLE_2
 71
1
 72
1
 10
1090.468118987
 20
22.7070544423
 30
0.0
 11
1.0
 21
0.0
 31
0.0
  1
Any integral or partial reproductions are prohibited \Pwithout prior authorisation of L {\Ftxt.shx;\W0.190476;\H2.250000; }& L Luce & Light s.r.l., \Pin accordance with the law in force. \PAll rights reserved.
 40
2.25
 41
134.5982142857
  0
LINE
  5
291
100
AcDbEntity
  8
0
100
AcDbLine
 62
7
  6
CONTINUOUS
 10
0.0
 20
0.0
 11
0.0
 21
841.0
  0
LINE
  5
292
100
AcDbEntity
  8
0
100
AcDbLine
 62
7
  6
CONTINUOUS
 10
0.0
 20
0.0
 11
1189.0
 21
0.0
  0
LINE
  5
293
100
AcDbEntity
  8
0
100
AcDbLine
 62
7
  6
CONTINUOUS
 10
0.0
 20
841.0
 11
1189.0
 21
841.0
  0
LINE
  5
294
100
AcDbEntity
  8
0
100
AcDbLine
 62
7
  6
CONTINUOUS
 10
1189.0
 20
0.0
 11
1189.0
 21
841.0
  0
LINE
  5
295
100
AcDbEntity
  8
6_ALL_SURFS
100
AcDbLine
 62
7
  6
CONTINUOUS
 10
87.5301177419
 20
330.6085040323
 11
87.8301177419
 21
330.4585040323
  0
LINE
  5
296
100
AcDbEntity
  8
6_ALL_SURFS
100
AcDbLine
 62
7
  6
CONTINUOUS
 10
90.5301177419
 20
330.6085040323
 11
90.8301177419
 21
330.4585040323
  0
LINE
  5
297
100
AcDbEntity
  8
6_ALL_SURFS
100
AcDbLine
 62
7
  6
CONTINUOUS
 10
93.5301177419
 20
330.6085040323
 11
93.8301177419
 21
330.4585040323
  0
LINE
  5
298
100
AcDbEntity
  8
6_ALL_SURFS
100
AcDbLine
 62
7
  6
CONTINUOUS
 10
96.5301177419
 20
330.6085040323
 11
96.8301177419
 21
330.4585040323
  0
LINE
  5
299
100
AcDbEntity
  8
6_ALL_SURFS
100
AcDbLine
 62
7
  6
CONTINUOUS
 10
99.5301177419
 20
330.6085040323
 11
99.8301177419
 21
330.4585040323
  0
LINE
  5
29A
100
AcDbEntity
  8
6_ALL_SURFS
100
AcDbLine
 62
7
  6
CONTINUOUS
 10
102.5301177419
 20
330.6085040323
 11
102.8301177419
 21
330.4585040323
  0
LINE
  5
29B
100
AcDbEntity
  8
7_ALL_FEATURES
100
AcDbLine
 62
7
  6
CONTINUOUS
 10
164.4301177419
 20
329.4585040323
 11
166.5755893323
 21
329.6730511913
  0
LINE
  5
29C
100
AcDbEntity
  8
7_ALL_FEATURES
100
AcDbLine
 62
7
  6
CONTINUOUS
 10
146.3301177419
 20
327.9585040323
 11
105.4301177419
 21
327.9585040323
  0
LINE
  5
29D
100
AcDbEntity
  8
6_ALL_SURFS
100
AcDbLine
 62
7
  6
CONTINUOUS
 10
104.6801177419
 20
329.4585040323
 11
102.8301177419
 21
329.4585040323
  0
LINE
  5
29E
100
AcDbEntity
  8
6_ALL_SURFS
100
AcDbLine
 62
7
  6
CONTINUOUS
 10
102.2301177419
 20
329.4585040323
 11
99.8301177419
 21
329.4585040323
  0
LINE
  5
29F
100
AcDbEntity
  8
6_ALL_SURFS
100
AcDbLine
 62
7
  6
CONTINUOUS
 10
99.2301177419
 20
329.4585040323
 11
96.8301177419
 21
329.4585040323
  0
LINE
  5
2A0
100
AcDbEntity
  8
6_ALL_SURFS
100
AcDbLine
 62
7
  6
CONTINUOUS
 10
96.2301177419
 20
329.4585040323
 11
93.8301177419
 21
329.4585040323
  0
LINE
  5
2A1
100
AcDbEntity
  8
6_ALL_SURFS
100
AcDbLine
 62
7
  6
CONTINUOUS
 10
93.2301177419
 20
329.4585040323
 11
90.8301177419
 21
329.4585040323
  0
LINE
  5
2A2
100
AcDbEntity
  8
6_ALL_SURFS
100
AcDbLine
 62
7
  6
CONTINUOUS
 10
90.2301177419
 20
329.4585040323
 11
87.3301177419
 21
329.4585040323
  0
LINE
  5
2A3
100
AcDbEntity
  8
7_ALL_FEATURES
100
AcDbLine
 62
7
  6
CONTINUOUS
 10
147.0801177419
 20
329.4585040323
 11
148.9301177419
 21
329.4585040323
  0
LINE
  5
2A4
100
AcDbEntity
  8
7_ALL_FEATURES
100
AcDbLine
 62
7
  6
CONTINUOUS
 10
149.5301177419
 20
329.4585040323
 11
151.9301177419
 21
329.4585040323
  0
LINE
  5
2A5
100
AcDbEntity
  8
7_ALL_FEATURES
100
AcDbLine
 62
7
  6
CONTINUOUS
 10
152.5301177419
 20
329.4585040323
 11
154.9301177419
 21
329.4585040323
  0
LINE
  5
2A6
100
AcDbEntity
  8
7_ALL_FEATURES
100
AcDbLine
 62
7
  6
CONTINUOUS
 10
155.5301177419
 20
329.4585040323
 11
157.9301177419
 21
329.4585040323
  0
LINE
  5
2A7
100
AcDbEntity
  8
7_ALL_FEATURES
100
AcDbLine
 62
7
  6
CONTINUOUS
 10
158.5301177419
 20
329.4585040323
 11
160.9301177419
 21
329.4585040323
  0
LINE
  5
2A8
100
AcDbEntity
  8
7_ALL_FEATURES
100
AcDbLine
 62
7
  6
CONTINUOUS
 10
161.5301177419
 20
329.4585040323
 11
164.4301177419
 21
329.4585040323
  0
LINE
  5
2A9
100
AcDbEntity
  8
6_ALL_SURFS
100
AcDbLine
 62
7
  6
CONTINUOUS
 10
87.3301177419
 20
329.4585040323
 11
85.1846461516
 21
329.6730511913
  0
LINE
  5
2AA
100
AcDbEntity
  8
7_ALL_FEATURES
100
AcDbLine
 62
7
  6
CONTINUOUS
 10
166.536414384
 20
330.4585040323
 11
164.5301177419
 21
330.4585040323
  0
LINE
  5
2AB
100
AcDbEntity
  8
7_ALL_FEATURES
100
AcDbLine
 62
7
  6
CONTINUOUS
 10
163.9301177419
 20
330.4585040323
 11
161.5301177419
 21
330.4585040323
  0
LINE
  5
2AC
100
AcDbEntity
  8
7_ALL_FEATURES
100
AcDbLine
 62
7
  6
CONTINUOUS
 10
160.9301177419
 20
330.4585040323
 11
158.5301177419
 21
330.4585040323
  0
LINE
  5
2AD
100
AcDbEntity
  8
7_ALL_FEATURES
100
AcDbLine
 62
7
  6
CONTINUOUS
 10
157.9301177419
 20
330.4585040323
 11
155.5301177419
 21
330.4585040323
  0
LINE
  5
2AE
100
AcDbEntity
  8
7_ALL_FEATURES
100
AcDbLine
 62
7
  6
CONTINUOUS
 10
154.9301177419
 20
330.4585040323
 11
152.5301177419
 21
330.4585040323
  0
LINE
  5
2AF
100
AcDbEntity
  8
7_ALL_FEATURES
100
AcDbLine
 62
7
  6
CONTINUOUS
 10
151.9301177419
 20
330.4585040323
 11
149.5301177419
 21
330.4585040323
  0
LINE
  5
2B0
100
AcDbEntity
  8
7_ALL_FEATURES
100
AcDbLine
 62
7
  6
CONTINUOUS
 10
148.9301177419
 20
330.4585040323
 11
147.2301177419
 21
330.4585040323
  0
LINE
  5
2B1
100
AcDbEntity
  8
6_ALL_SURFS
100
AcDbLine
 62
7
  6
CONTINUOUS
 10
85.2238210999
 20
330.4585040323
 11
87.2301177419
 21
330.4585040323
  0
LINE
  5
2B2
100
AcDbEntity
  8
6_ALL_SURFS
100
AcDbLine
 62
7
  6
CONTINUOUS
 10
87.8301177419
 20
330.4585040323
 11
90.2301177419
 21
330.4585040323
  0
LINE
  5
2B3
100
AcDbEntity
  8
6_ALL_SURFS
100
AcDbLine
 62
7
  6
CONTINUOUS
 10
90.8301177419
 20
330.4585040323
 11
93.2301177419
 21
330.4585040323
  0
LINE
  5
2B4
100
AcDbEntity
  8
6_ALL_SURFS
100
AcDbLine
 62
7
  6
CONTINUOUS
 10
93.8301177419
 20
330.4585040323
 11
96.2301177419
 21
330.4585040323
  0
LINE
  5
2B5
100
AcDbEntity
  8
6_ALL_SURFS
100
AcDbLine
 62
7
  6
CONTINUOUS
 10
96.8301177419
 20
330.4585040323
 11
99.2301177419
 21
330.4585040323
  0
LINE
  5
2B6
100
AcDbEntity
  8
6_ALL_SURFS
100
AcDbLine
 62
7
  6
CONTINUOUS
 10
99.8301177419
 20
330.4585040323
 11
102.2301177419
 21
330.4585040323
  0
LINE
  5
2B7
100
AcDbEntity
  8
6_ALL_SURFS
100
AcDbLine
 62
7
  6
CONTINUOUS
 10
102.8301177419
 20
330.4585040323
 11
104.5301177419
 21
330.4585040323
  0
LINE
  5
2B8
100
AcDbEntity
  8
7_ALL_FEATURES
100
AcDbLine
 62
7
  6
CONTINUOUS
 10
149.5301177419
 20
330.4585040323
 11
149.2301177419
 21
330.6085040323
  0
LINE
  5
2B9
100
AcDbEntity
  8
7_ALL_FEATURES
100
AcDbLine
 62
7
  6
CONTINUOUS
 10
152.5301177419
 20
330.4585040323
 11
152.2301177419
 21
330.6085040323
  0
LINE
  5
2BA
100
AcDbEntity
  8
7_ALL_FEATURES
100
AcDbLine
 62
7
  6
CONTINUOUS
 10
155.5301177419
 20
330.4585040323
 11
155.2301177419
 21
330.6085040323
  0
LINE
  5
2BB
100
AcDbEntity
  8
7_ALL_FEATURES
100
AcDbLine
 62
7
  6
CONTINUOUS
 10
158.5301177419
 20
330.4585040323
 11
158.2301177419
 21
330.6085040323
  0
LINE
  5
2BC
100
AcDbEntity
  8
7_ALL_FEATURES
100
AcDbLine
 62
7
  6
CONTINUOUS
 10
104.6801177419
 20
357.1085040323
 11
104.6801177419
 21
328.7085040323
  0
LINE
  5
2BD
100
AcDbEntity
  8
6_ALL_SURFS
100
AcDbLine
 62
7
  6
CONTINUOUS
 10
107.8801177419
 20
402.45160702
 11
109.8801177419
 21
411.4730240273
  0
LINE
  5
2BE
100
AcDbEntity
  8
7_ALL_FEATURES
100
AcDbLine
 62
7
  6
CONTINUOUS
 10
144.5551177419
 20
352.7085040323
 11
143.8051177419
 21
352.7085040323
  0
LINE
  5
2BF
100
AcDbEntity
  8
7_ALL_FEATURES
100
AcDbLine
 62
7
  6
CONTINUOUS
 10
107.9551177419
 20
352.7085040323
 11
107.2051177419
 21
352.7085040323
  0
LINE
  5
2C0
100
AcDbEntity
  8
7_ALL_FEATURES
100
AcDbLine
 62
7
  6
CONTINUOUS
 10
106.3301177419
 20
353.5835040323
 11
107.2051177419
 21
353.5835040323
  0
LINE
  5
2C1
100
AcDbEntity
  8
7_ALL_FEATURES
100
AcDbLine
 62
7
  6
CONTINUOUS
 10
107.9551177419
 20
353.5835040323
 11
108.8301177419
 21
353.5835040323
  0
LINE
  5
2C2
100
AcDbEntity
  8
7_ALL_FEATURES
100
AcDbLine
 62
7
  6
CONTINUOUS
 10
142.9301177419
 20
353.5835040323
 11
143.8051177419
 21
353.5835040323
  0
LINE
  5
2C3
100
AcDbEntity
  8
7_ALL_FEATURES
100
AcDbLine
 62
7
  6
CONTINUOUS
 10
144.5551177419
 20
353.5835040323
 11
145.4301177419
 21
353.5835040323
  0
LINE
  5
2C4
100
AcDbEntity
  8
7_ALL_FEATURES
100
AcDbLine
 62
7
  6
CONTINUOUS
 10
145.4301177419
 20
354.3335040323
 11
144.5551177419
 21
354.3335040323
  0
LINE
  5
2C5
100
AcDbEntity
  8
7_ALL_FEATURES
100
AcDbLine
 62
7
  6
CONTINUOUS
 10
143.8051177419
 20
354.3335040323
 11
142.9301177419
 21
354.3335040323
  0
LINE
  5
2C6
100
AcDbEntity
  8
7_ALL_FEATURES
100
AcDbLine
 62
7
  6
CONTINUOUS
 10
108.8301177419
 20
354.3335040323
 11
107.9551177419
 21
354.3335040323
  0
LINE
  5
2C7
100
AcDbEntity
  8
7_ALL_FEATURES
100
AcDbLine
 62
7
  6
CONTINUOUS
 10
107.2051177419
 20
354.3335040323
 11
106.3301177419
 21
354.3335040323
  0
LINE
  5
2C8
100
AcDbEntity
  8
7_ALL_FEATURES
100
AcDbLine
 62
7
  6
CONTINUOUS
 10
161.5301177419
 20
330.4585040323
 11
161.2301177419
 21
330.6085040323
  0
LINE
  5
2C9
100
AcDbEntity
  8
7_ALL_FEATURES
100
AcDbLine
 62
7
  6
CONTINUOUS
 10
164.5301177419
 20
330.4585040323
 11
164.2301177419
 21
330.6085040323
  0
LINE
  5
2CA
100
AcDbEntity
  8
7_ALL_FEATURES
100
AcDbLine
 62
7
  6
CONTINUOUS
 10
106.3301177419
 20
353.5835040323
 11
106.3301177419
 21
354.3335040323
  0
LINE
  5
2CB
100
AcDbEntity
  8
7_ALL_FEATURES
100
AcDbLine
 62
7
  6
CONTINUOUS
 10
107.2051177419
 20
355.2085040323
 11
107.2051177419
 21
354.3335040323
  0
LINE
  5
2CC
100
AcDbEntity
  8
7_ALL_FEATURES
100
AcDbLine
 62
7
  6
CONTINUOUS
 10
107.2051177419
 20
353.5835040323
 11
107.2051177419
 21
352.7085040323
  0
LINE
  5
2CD
100
AcDbEntity
  8
6_ALL_SURFS
100
AcDbLine
 62
7
  6
CONTINUOUS
 10
107.8801177419
 20
359.3585040323
 11
107.8801177419
 21
402.45160702
  0
LINE
  5
2CE
100
AcDbEntity
  8
7_ALL_FEATURES
100
AcDbLine
 62
7
  6
CONTINUOUS
 10
107.9551177419
 20
352.7085040323
 11
107.9551177419
 21
353.5835040323
  0
LINE
  5
2CF
100
AcDbEntity
  8
7_ALL_FEATURES
100
AcDbLine
 62
7
  6
CONTINUOUS
 10
107.9551177419
 20
354.3335040323
 11
107.9551177419
 21
355.2085040323
  0
LINE
  5
2D0
100
AcDbEntity
  8
7_ALL_FEATURES
100
AcDbLine
 62
7
  6
CONTINUOUS
 10
108.8301177419
 20
354.3335040323
 11
108.8301177419
 21
353.5835040323
  0
LINE
  5
2D1
100
AcDbEntity
  8
7_ALL_FEATURES
100
AcDbLine
 62
7
  6
CONTINUOUS
 10
107.2051177419
 20
355.2085040323
 11
107.9551177419
 21
355.2085040323
  0
LINE
  5
2D2
100
AcDbEntity
  8
7_ALL_FEATURES
100
AcDbLine
 62
7
  6
CONTINUOUS
 10
143.8051177419
 20
355.2085040323
 11
144.5551177419
 21
355.2085040323
  0
LINE
  5
2D3
100
AcDbEntity
  8
6_ALL_SURFS
100
AcDbLine
 62
7
  6
CONTINUOUS
 10
146.3301177419
 20
357.8585040323
 11
145.3801177419
 21
357.8585040323
  0
LINE
  5
2D4
100
AcDbEntity
  8
6_ALL_SURFS
100
AcDbLine
 62
7
  6
CONTINUOUS
 10
105.4301177419
 20
357.8585040323
 11
106.3801177419
 21
357.8585040323
  0
LINE
  5
2D5
100
AcDbEntity
  8
6_ALL_SURFS
100
AcDbLine
 62
7
  6
CONTINUOUS
 10
109.8801177419
 20
411.4730240273
 11
109.8801177419
 21
422.4585040323
  0
LINE
  5
2D6
100
AcDbEntity
  8
7_ALL_FEATURES
100
AcDbLine
 62
7
  6
CONTINUOUS
 10
112.6301177419
 20
419.1835040323
 11
112.6301177419
 21
419.9335040323
  0
LINE
  5
2D7
100
AcDbEntity
  8
7_ALL_FEATURES
100
AcDbLine
 62
7
  6
CONTINUOUS
 10
113.5051177419
 20
420.8085040323
 11
113.5051177419
 21
419.9335040323
  0
LINE
  5
2D8
100
AcDbEntity
  8
7_ALL_FEATURES
100
AcDbLine
 62
7
  6
CONTINUOUS
 10
113.5051177419
 20
419.1835040323
 11
113.5051177419
 21
418.3085040323
  0
LINE
  5
2D9
100
AcDbEntity
  8
7_ALL_FEATURES
100
AcDbLine
 62
7
  6
CONTINUOUS
 10
114.2551177419
 20
418.3085040323
 11
114.2551177419
 21
419.1835040323
  0
LINE
  5
2DA
100
AcDbEntity
  8
7_ALL_FEATURES
100
AcDbLine
 62
7
  6
CONTINUOUS
 10
114.2551177419
 20
419.9335040323
 11
114.2551177419
 21
420.8085040323
  0
LINE
  5
2DB
100
AcDbEntity
  8
7_ALL_FEATURES
100
AcDbLine
 62
7
  6
CONTINUOUS
 10
115.1301177419
 20
419.9335040323
 11
115.1301177419
 21
419.1835040323
  0
LINE
  5
2DC
100
AcDbEntity
  8
7_ALL_FEATURES
100
AcDbLine
 62
7
  6
CONTINUOUS
 10
136.6301177419
 20
419.1835040323
 11
136.6301177419
 21
419.9335040323
  0
LINE
  5
2DD
100
AcDbEntity
  8
7_ALL_FEATURES
100
AcDbLine
 62
7
  6
CONTINUOUS
 10
137.5051177419
 20
420.8085040323
 11
137.5051177419
 21
419.9335040323
  0
LINE
  5
2DE
100
AcDbEntity
  8
7_ALL_FEATURES
100
AcDbLine
 62
7
  6
CONTINUOUS
 10
137.5051177419
 20
419.1835040323
 11
137.5051177419
 21
418.3085040323
  0
LINE
  5
2DF
100
AcDbEntity
  8
7_ALL_FEATURES
100
AcDbLine
 62
7
  6
CONTINUOUS
 10
138.2551177419
 20
418.3085040323
 11
138.2551177419
 21
419.1835040323
  0
LINE
  5
2E0
100
AcDbEntity
  8
7_ALL_FEATURES
100
AcDbLine
 62
7
  6
CONTINUOUS
 10
138.2551177419
 20
419.9335040323
 11
138.2551177419
 21
420.8085040323
  0
LINE
  5
2E1
100
AcDbEntity
  8
7_ALL_FEATURES
100
AcDbLine
 62
7
  6
CONTINUOUS
 10
139.1301177419
 20
419.9335040323
 11
139.1301177419
 21
419.1835040323
  0
LINE
  5
2E2
100
AcDbEntity
  8
6_ALL_SURFS
100
AcDbLine
 62
7
  6
CONTINUOUS
 10
141.8801177419
 20
422.0085040323
 11
141.8801177419
 21
411.4730240273
  0
LINE
  5
2E3
100
AcDbEntity
  8
7_ALL_FEATURES
100
AcDbLine
 62
7
  6
CONTINUOUS
 10
141.8801177419
 20
422.0085040323
 11
141.8801177419
 21
422.4585040323
  0
LINE
  5
2E4
100
AcDbEntity
  8
7_ALL_FEATURES
100
AcDbLine
 62
7
  6
CONTINUOUS
 10
142.9301177419
 20
353.5835040323
 11
142.9301177419
 21
354.3335040323
  0
LINE
  5
2E5
100
AcDbEntity
  8
7_ALL_FEATURES
100
AcDbLine
 62
7
  6
CONTINUOUS
 10
143.8051177419
 20
355.2085040323
 11
143.8051177419
 21
354.3335040323
  0
LINE
  5
2E6
100
AcDbEntity
  8
7_ALL_FEATURES
100
AcDbLine
 62
7
  6
CONTINUOUS
 10
143.8051177419
 20
353.5835040323
 11
143.8051177419
 21
352.7085040323
  0
LINE
  5
2E7
100
AcDbEntity
  8
6_ALL_SURFS
100
AcDbLine
 62
7
  6
CONTINUOUS
 10
143.8801177419
 20
402.45160702
 11
143.8801177419
 21
359.3585040323
  0
LINE
  5
2E8
100
AcDbEntity
  8
7_ALL_FEATURES
100
AcDbLine
 62
7
  6
CONTINUOUS
 10
144.5551177419
 20
352.7085040323
 11
144.5551177419
 21
353.5835040323
  0
LINE
  5
2E9
100
AcDbEntity
  8
7_ALL_FEATURES
100
AcDbLine
 62
7
  6
CONTINUOUS
 10
144.5551177419
 20
354.3335040323
 11
144.5551177419
 21
355.2085040323
  0
LINE
  5
2EA
100
AcDbEntity
  8
7_ALL_FEATURES
100
AcDbLine
 62
7
  6
CONTINUOUS
 10
145.4301177419
 20
354.3335040323
 11
145.4301177419
 21
353.5835040323
  0
LINE
  5
2EB
100
AcDbEntity
  8
7_ALL_FEATURES
100
AcDbLine
 62
7
  6
CONTINUOUS
 10
147.0801177419
 20
328.7085040323
 11
147.0801177419
 21
357.1085040323
  0
LINE
  5
2EC
100
AcDbEntity
  8
6_ALL_SURFS
100
AcDbLine
 62
7
  6
CONTINUOUS
 10
87.2301177419
 20
330.4585040323
 11
87.5301177419
 21
330.6085040323
  0
LINE
  5
2ED
100
AcDbEntity
  8
6_ALL_SURFS
100
AcDbLine
 62
7
  6
CONTINUOUS
 10
90.2301177419
 20
330.4585040323
 11
90.5301177419
 21
330.6085040323
  0
LINE
  5
2EE
100
AcDbEntity
  8
6_ALL_SURFS
100
AcDbLine
 62
7
  6
CONTINUOUS
 10
93.2301177419
 20
330.4585040323
 11
93.5301177419
 21
330.6085040323
  0
LINE
  5
2EF
100
AcDbEntity
  8
6_ALL_SURFS
100
AcDbLine
 62
7
  6
CONTINUOUS
 10
114.8978877771
 20
399.6335040323
 11
115.6491903646
 21
399.6335040323
  0
LINE
  5
2F0
100
AcDbEntity
  8
6_ALL_SURFS
100
AcDbLine
 62
7
  6
CONTINUOUS
 10
136.1110451193
 20
399.6335040323
 11
136.8623477067
 21
399.6335040323
  0
LINE
  5
2F1
100
AcDbEntity
  8
6_ALL_SURFS
100
AcDbLine
 62
7
  6
CONTINUOUS
 10
136.8623477067
 20
400.8835040323
 11
136.1110451193
 21
400.8835040323
  0
LINE
  5
2F2
100
AcDbEntity
  8
6_ALL_SURFS
100
AcDbLine
 62
7
  6
CONTINUOUS
 10
115.6491903646
 20
400.8835040323
 11
114.8978877771
 21
400.8835040323
  0
LINE
  5
2F3
100
AcDbEntity
  8
6_ALL_SURFS
100
AcDbLine
 62
7
  6
CONTINUOUS
 10
141.8801177419
 20
411.4730240273
 11
143.8801177419
 21
402.45160702
  0
LINE
  5
2F4
100
AcDbEntity
  8
6_ALL_SURFS
100
AcDbLine
 62
7
  6
CONTINUOUS
 10
96.2301177419
 20
330.4585040323
 11
96.5301177419
 21
330.6085040323
  0
LINE
  5
2F5
100
AcDbEntity
  8
6_ALL_SURFS
100
AcDbLine
 62
7
  6
CONTINUOUS
 10
99.2301177419
 20
330.4585040323
 11
99.5301177419
 21
330.6085040323
  0
LINE
  5
2F6
100
AcDbEntity
  8
6_ALL_SURFS
100
AcDbLine
 62
7
  6
CONTINUOUS
 10
102.2301177419
 20
330.4585040323
 11
102.5301177419
 21
330.6085040323
  0
LINE
  5
2F7
100
AcDbEntity
  8
7_ALL_FEATURES
100
AcDbLine
 62
7
  6
CONTINUOUS
 10
138.2551177419
 20
418.3085040323
 11
137.5051177419
 21
418.3085040323
  0
LINE
  5
2F8
100
AcDbEntity
  8
7_ALL_FEATURES
100
AcDbLine
 62
7
  6
CONTINUOUS
 10
114.2551177419
 20
418.3085040323
 11
113.5051177419
 21
418.3085040323
  0
LINE
  5
2F9
100
AcDbEntity
  8
7_ALL_FEATURES
100
AcDbLine
 62
7
  6
CONTINUOUS
 10
112.6301177419
 20
419.1835040323
 11
113.5051177419
 21
419.1835040323
  0
LINE
  5
2FA
100
AcDbEntity
  8
7_ALL_FEATURES
100
AcDbLine
 62
7
  6
CONTINUOUS
 10
114.2551177419
 20
419.1835040323
 11
115.1301177419
 21
419.1835040323
  0
LINE
  5
2FB
100
AcDbEntity
  8
7_ALL_FEATURES
100
AcDbLine
 62
7
  6
CONTINUOUS
 10
136.6301177419
 20
419.1835040323
 11
137.5051177419
 21
419.1835040323
  0
LINE
  5
2FC
100
AcDbEntity
  8
7_ALL_FEATURES
100
AcDbLine
 62
7
  6
CONTINUOUS
 10
138.2551177419
 20
419.1835040323
 11
139.1301177419
 21
419.1835040323
  0
LINE
  5
2FD
100
AcDbEntity
  8
7_ALL_FEATURES
100
AcDbLine
 62
7
  6
CONTINUOUS
 10
139.1301177419
 20
419.9335040323
 11
138.2551177419
 21
419.9335040323
  0
LINE
  5
2FE
100
AcDbEntity
  8
7_ALL_FEATURES
100
AcDbLine
 62
7
  6
CONTINUOUS
 10
137.5051177419
 20
419.9335040323
 11
136.6301177419
 21
419.9335040323
  0
LINE
  5
2FF
100
AcDbEntity
  8
7_ALL_FEATURES
100
AcDbLine
 62
7
  6
CONTINUOUS
 10
115.1301177419
 20
419.9335040323
 11
114.2551177419
 21
419.9335040323
  0
LINE
  5
300
100
AcDbEntity
  8
7_ALL_FEATURES
100
AcDbLine
 62
7
  6
CONTINUOUS
 10
113.5051177419
 20
419.9335040323
 11
112.6301177419
 21
419.9335040323
  0
LINE
  5
301
100
AcDbEntity
  8
7_ALL_FEATURES
100
AcDbLine
 62
7
  6
CONTINUOUS
 10
113.5051177419
 20
420.8085040323
 11
114.2551177419
 21
420.8085040323
  0
LINE
  5
302
100
AcDbEntity
  8
7_ALL_FEATURES
100
AcDbLine
 62
7
  6
CONTINUOUS
 10
137.5051177419
 20
420.8085040323
 11
138.2551177419
 21
420.8085040323
  0
LINE
  5
303
100
AcDbEntity
  8
7_ALL_FEATURES
100
AcDbLine
 62
7
  6
CONTINUOUS
 10
149.2301177419
 20
330.6085040323
 11
148.9301177419
 21
330.4585040323
  0
LINE
  5
304
100
AcDbEntity
  8
7_ALL_FEATURES
100
AcDbLine
 62
7
  6
CONTINUOUS
 10
141.5801177419
 20
422.7585040323
 11
141.1301177419
 21
422.7585040323
  0
LINE
  5
305
100
AcDbEntity
  8
6_ALL_SURFS
100
AcDbLine
 62
7
  6
CONTINUOUS
 10
141.1301177419
 20
422.7585040323
 11
128.525869053
 21
422.7585040323
  0
LINE
  5
306
100
AcDbEntity
  8
6_ALL_SURFS
100
AcDbLine
 62
7
  6
CONTINUOUS
 10
110.1801177419
 20
422.7585040323
 11
123.2343664309
 21
422.7585040323
  0
LINE
  5
307
100
AcDbEntity
  8
7_ALL_FEATURES
100
AcDbLine
 62
7
  6
CONTINUOUS
 10
124.0801177419
 20
422.7585040323
 11
127.6801177419
 21
422.7585040323
  0
LINE
  5
308
100
AcDbEntity
  8
7_ALL_FEATURES
100
AcDbLine
 62
7
  6
CONTINUOUS
 10
152.2301177419
 20
330.6085040323
 11
151.9301177419
 21
330.4585040323
  0
LINE
  5
309
100
AcDbEntity
  8
7_ALL_FEATURES
100
AcDbLine
 62
7
  6
CONTINUOUS
 10
155.2301177419
 20
330.6085040323
 11
154.9301177419
 21
330.4585040323
  0
LINE
  5
30A
100
AcDbEntity
  8
7_ALL_FEATURES
100
AcDbLine
 62
7
  6
CONTINUOUS
 10
158.2301177419
 20
330.6085040323
 11
157.9301177419
 21
330.4585040323
  0
LINE
  5
30B
100
AcDbEntity
  8
7_ALL_FEATURES
100
AcDbLine
 62
7
  6
CONTINUOUS
 10
161.2301177419
 20
330.6085040323
 11
160.9301177419
 21
330.4585040323
  0
LINE
  5
30C
100
AcDbEntity
  8
7_ALL_FEATURES
100
AcDbLine
 62
7
  6
CONTINUOUS
 10
164.2301177419
 20
330.6085040323
 11
163.9301177419
 21
330.4585040323
  0
LINE
  5
30D
100
AcDbEntity
  8
3_ALL_AXES
100
AcDbLine
 62
7
  6
CONTINUOUS
 10
242.5352822581
 20
351.2085520984
 11
242.5352822581
 21
356.7084559661
  0
LINE
  5
30E
100
AcDbEntity
  8
3_ALL_AXES
100
AcDbLine
 62
7
  6
CONTINUOUS
 10
242.5352822581
 20
416.8085520984
 11
242.5352822581
 21
422.3084559661
  0
LINE
  5
30F
100
AcDbEntity
  8
3_ALL_AXES
100
AcDbLine
 62
7
  6
CONTINUOUS
 10
242.6860025877
 20
351.2085040323
 11
242.6860025877
 21
356.7085040323
  0
LINE
  5
310
100
AcDbEntity
  8
3_ALL_AXES
100
AcDbLine
 62
7
  6
CONTINUOUS
 10
242.6860025877
 20
416.8085040323
 11
242.6860025877
 21
422.3085040323
  0
LINE
  5
311
100
AcDbEntity
  8
7_ALL_FEATURES
100
AcDbLine
 62
7
  6
CONTINUOUS
 10
243.5352822581
 20
327.9585040323
 11
243.5352822581
 21
357.1085040323
  0
LINE
  5
312
100
AcDbEntity
  8
6_ALL_SURFS
100
AcDbLine
 62
7
  6
CONTINUOUS
 10
243.5352822581
 20
357.1085040323
 11
243.5352822581
 21
422.7585040323
  0
LINE
  5
313
100
AcDbEntity
  8
6_ALL_SURFS
100
AcDbLine
 62
7
  6
CONTINUOUS
 10
245.0352822581
 20
327.970789808
 11
245.0352822581
 21
327.9585040323
  0
LINE
  5
314
100
AcDbEntity
  8
7_ALL_FEATURES
100
AcDbLine
 62
7
  6
CONTINUOUS
 10
245.0352822581
 20
327.970789808
 11
245.0352822581
 21
329.4585040323
  0
LINE
  5
315
100
AcDbEntity
  8
6_ALL_SURFS
100
AcDbLine
 62
7
  6
CONTINUOUS
 10
245.0352822581
 20
329.4585040323
 11
245.0352822581
 21
330.6085040323
  0
LINE
  5
316
100
AcDbEntity
  8
7_ALL_FEATURES
100
AcDbLine
 62
7
  6
CONTINUOUS
 10
245.0352822581
 20
330.6085040323
 11
245.0352822581
 21
340.6062853707
  0
LINE
  5
317
100
AcDbEntity
  8
6_ALL_SURFS
100
AcDbLine
 62
7
  6
CONTINUOUS
 10
245.0352822581
 20
340.6062853707
 11
245.0352822581
 21
343.3145745541
  0
LINE
  5
318
100
AcDbEntity
  8
6_ALL_SURFS
100
AcDbLine
 62
7
  6
CONTINUOUS
 10
245.0352822581
 20
353.0585040323
 11
245.0352822581
 21
354.8585040323
  0
LINE
  5
319
100
AcDbEntity
  8
7_ALL_FEATURES
100
AcDbLine
 62
7
  6
CONTINUOUS
 10
245.0352822581
 20
343.3145745541
 11
245.0352822581
 21
357.1085040323
  0
LINE
  5
31A
100
AcDbEntity
  8
6_ALL_SURFS
100
AcDbLine
 62
7
  6
CONTINUOUS
 10
245.0352822581
 20
357.1085040323
 11
245.0352822581
 21
422.7585040323
  0
LINE
  5
31B
100
AcDbEntity
  8
3_ALL_AXES
100
AcDbLine
 62
7
  6
CONTINUOUS
 10
243.5352822581
 20
417.5211342904
 11
242.6860025877
 21
416.8085040323
  0
LINE
  5
31C
100
AcDbEntity
  8
3_ALL_AXES
100
AcDbLine
 62
7
  6
CONTINUOUS
 10
243.5352822581
 20
355.9958737741
 11
242.6860025877
 21
356.7085040323
  0
LINE
  5
31D
100
AcDbEntity
  8
3_ALL_AXES
100
AcDbLine
 62
7
  6
CONTINUOUS
 10
243.5352822581
 20
351.9211342904
 11
242.6860025877
 21
351.2085040323
  0
LINE
  5
31E
100
AcDbEntity
  8
3_ALL_AXES
100
AcDbLine
 62
7
  6
CONTINUOUS
 10
243.5352822581
 20
421.5958737741
 11
242.6860025877
 21
422.3085040323
  0
LINE
  5
31F
100
AcDbEntity
  8
6_ALL_SURFS
100
AcDbLine
 62
7
  6
CONTINUOUS
 10
1089.0352822581
 20
327.9585040323
 11
245.0352822581
 21
327.9585040323
  0
LINE
  5
320
100
AcDbEntity
  8
7_ALL_FEATURES
100
AcDbLine
 62
7
  6
CONTINUOUS
 10
245.0352822581
 20
327.9585040323
 11
243.5352822581
 21
327.9585040323
  0
LINE
  5
321
100
AcDbEntity
  8
7_ALL_FEATURES
100
AcDbLine
 62
7
  6
CONTINUOUS
 10
1089.0352822581
 20
327.9585040323
 11
1090.5352822581
 21
327.9585040323
  0
LINE
  5
322
100
AcDbEntity
  8
6_ALL_SURFS
100
AcDbLine
 62
9
  6
CONTINUOUS
 10
1089.0352822581
 20
328.2585040323
 11
245.0352822581
 21
328.2585040323
  0
LINE
  5
323
100
AcDbEntity
  8
7_ALL_FEATURES
100
AcDbLine
 62
9
  6
CONTINUOUS
 10
245.0352822581
 20
328.7085040323
 11
243.5352822581
 21
328.7085040323
  0
LINE
  5
324
100
AcDbEntity
  8
7_ALL_FEATURES
100
AcDbLine
 62
9
  6
CONTINUOUS
 10
1089.0352822581
 20
328.7085040323
 11
1090.5352822581
 21
328.7085040323
  0
LINE
  5
325
100
AcDbEntity
  8
6_ALL_SURFS
100
AcDbLine
 62
9
  6
CONTINUOUS
 10
245.0352822581
 20
329.1585040323
 11
1089.0352822581
 21
329.1585040323
  0
LINE
  5
326
100
AcDbEntity
  8
6_ALL_SURFS
100
AcDbLine
 62
7
  6
CONTINUOUS
 10
245.0352822581
 20
329.4585040323
 11
1089.0352822581
 21
329.4585040323
  0
LINE
  5
327
100
AcDbEntity
  8
6_ALL_SURFS
100
AcDbLine
 62
9
  6
CONTINUOUS
 10
1089.0352822581
 20
329.6730511913
 11
245.0352822581
 21
329.6730511913
  0
LINE
  5
328
100
AcDbEntity
  8
6_ALL_SURFS
100
AcDbLine
 62
7
  6
CONTINUOUS
 10
1089.0352822581
 20
330.4585040323
 11
245.0352822581
 21
330.4585040323
  0
LINE
  5
329
100
AcDbEntity
  8
6_ALL_SURFS
100
AcDbLine
 62
7
  6
CONTINUOUS
 10
245.0352822581
 20
330.6085040323
 11
1089.0352822581
 21
330.6085040323
  0
LINE
  5
32A
100
AcDbEntity
  8
6_ALL_SURFS
100
AcDbLine
 62
9
  6
CONTINUOUS
 10
245.0352822581
 20
330.7585040323
 11
1089.0352822581
 21
330.7585040323
  0
LINE
  5
32B
100
AcDbEntity
  8
6_ALL_SURFS
100
AcDbLine
 62
9
  6
CONTINUOUS
 10
245.0352822581
 20
339.9554361968
 11
1089.0352822581
 21
339.9554361968
  0
LINE
  5
32C
100
AcDbEntity
  8
6_ALL_SURFS
100
AcDbLine
 62
9
  6
CONTINUOUS
 10
245.0352822581
 20
340.7794062375
 11
1089.0352822581
 21
340.7794062375
  0
LINE
  5
32D
100
AcDbEntity
  8
6_ALL_SURFS
100
AcDbLine
 62
9
  6
CONTINUOUS
 10
245.0352822581
 20
343.1414536873
 11
1089.0352822581
 21
343.1414536873
  0
LINE
  5
32E
100
AcDbEntity
  8
6_ALL_SURFS
100
AcDbLine
 62
9
  6
CONTINUOUS
 10
245.0352822581
 20
343.965423728
 11
1089.0352822581
 21
343.965423728
  0
LINE
  5
32F
100
AcDbEntity
  8
6_ALL_SURFS
100
AcDbLine
 62
9
  6
CONTINUOUS
 10
1089.0352822581
 20
346.6710034832
 11
245.0352822581
 21
346.6710034832
  0
LINE
  5
330
100
AcDbEntity
  8
6_ALL_SURFS
100
AcDbLine
 62
9
  6
CONTINUOUS
 10
1089.0352822581
 20
347.6940010233
 11
245.0352822581
 21
347.6940010233
  0
LINE
  5
331
100
AcDbEntity
  8
6_ALL_SURFS
100
AcDbLine
 62
9
  6
CONTINUOUS
 10
245.0352822581
 20
350.2853120904
 11
1089.0352822581
 21
350.2853120904
  0
LINE
  5
332
100
AcDbEntity
  8
6_ALL_SURFS
100
AcDbLine
 62
9
  6
CONTINUOUS
 10
245.0352822581
 20
350.4899115984
 11
1089.0352822581
 21
350.4899115984
  0
LINE
  5
333
100
AcDbEntity
  8
6_ALL_SURFS
100
AcDbLine
 62
9
  6
CONTINUOUS
 10
245.0352822581
 20
350.7585040323
 11
1089.0352822581
 21
350.7585040323
  0
LINE
  5
334
100
AcDbEntity
  8
6_ALL_SURFS
100
AcDbLine
 62
7
  6
CONTINUOUS
 10
1089.0352822581
 20
351.0585040323
 11
245.0352822581
 21
351.0585040323
  0
LINE
  5
335
100
AcDbEntity
  8
3_ALL_AXES
100
AcDbLine
 62
7
  6
CONTINUOUS
 10
242.6860025877
 20
351.2085040323
 11
242.5352822581
 21
351.2085040323
  0
LINE
  5
336
100
AcDbEntity
  8
3_ALL_AXES
100
AcDbLine
 62
7
  6
CONTINUOUS
 10
1091.3845619284
 20
351.2085040323
 11
1091.5352822581
 21
351.2085040323
  0
LINE
  5
337
100
AcDbEntity
  8
6_ALL_SURFS
100
AcDbLine
 62
9
  6
CONTINUOUS
 10
1089.0352822581
 20
353.0585040323
 11
245.0352822581
 21
353.0585040323
  0
LINE
  5
338
100
AcDbEntity
  8
6_ALL_SURFS
100
AcDbLine
 62
9
  6
CONTINUOUS
 10
1089.0352822581
 20
354.8585040323
 11
245.0352822581
 21
354.8585040323
  0
LINE
  5
339
100
AcDbEntity
  8
3_ALL_AXES
100
AcDbLine
 62
7
  6
CONTINUOUS
 10
242.6860025877
 20
356.7085040323
 11
242.5352822581
 21
356.7085040323
  0
LINE
  5
33A
100
AcDbEntity
  8
3_ALL_AXES
100
AcDbLine
 62
7
  6
CONTINUOUS
 10
1091.3845619284
 20
356.7085040323
 11
1091.5352822581
 21
356.7085040323
  0
LINE
  5
33B
100
AcDbEntity
  8
6_ALL_SURFS
100
AcDbLine
 62
7
  6
CONTINUOUS
 10
1089.0352822581
 20
356.8585040323
 11
245.0352822581
 21
356.8585040323
  0
LINE
  5
33C
100
AcDbEntity
  8
6_ALL_SURFS
100
AcDbLine
 62
9
  6
CONTINUOUS
 10
1090.5352822581
 20
357.1085040323
 11
1089.0352822581
 21
357.1085040323
  0
LINE
  5
33D
100
AcDbEntity
  8
6_ALL_SURFS
100
AcDbLine
 62
9
  6
CONTINUOUS
 10
245.0352822581
 20
357.1085040323
 11
243.5352822581
 21
357.1085040323
  0
LINE
  5
33E
100
AcDbEntity
  8
6_ALL_SURFS
100
AcDbLine
 62
9
  6
CONTINUOUS
 10
245.0352822581
 20
357.1585040323
 11
1089.0352822581
 21
357.1585040323
  0
LINE
  5
33F
100
AcDbEntity
  8
6_ALL_SURFS
100
AcDbLine
 62
7
  6
CONTINUOUS
 10
1090.5352822581
 20
357.8585040323
 11
1089.0352822581
 21
357.8585040323
  0
LINE
  5
340
100
AcDbEntity
  8
6_ALL_SURFS
100
AcDbLine
 62
7
  6
CONTINUOUS
 10
245.0352822581
 20
357.8585040323
 11
243.5352822581
 21
357.8585040323
  0
LINE
  5
341
100
AcDbEntity
  8
6_ALL_SURFS
100
AcDbLine
 62
9
  6
CONTINUOUS
 10
1090.5352822581
 20
359.3585040323
 11
1089.0352822581
 21
359.3585040323
  0
LINE
  5
342
100
AcDbEntity
  8
6_ALL_SURFS
100
AcDbLine
 62
9
  6
CONTINUOUS
 10
243.5352822581
 20
359.3585040323
 11
245.0352822581
 21
359.3585040323
  0
LINE
  5
343
100
AcDbEntity
  8
6_ALL_SURFS
100
AcDbLine
 62
9
  6
CONTINUOUS
 10
1089.0352822581
 20
401.9040179615
 11
245.0352822581
 21
401.9040179615
  0
LINE
  5
344
100
AcDbEntity
  8
6_ALL_SURFS
100
AcDbLine
 62
7
  6
CONTINUOUS
 10
245.0352822581
 20
402.45160702
 11
243.5352822581
 21
402.45160702
  0
LINE
  5
345
100
AcDbEntity
  8
6_ALL_SURFS
100
AcDbLine
 62
7
  6
CONTINUOUS
 10
1089.0352822581
 20
402.45160702
 11
1090.5352822581
 21
402.45160702
  0
LINE
  5
346
100
AcDbEntity
  8
6_ALL_SURFS
100
AcDbLine
 62
9
  6
CONTINUOUS
 10
1089.0352822581
 20
402.9862160312
 11
245.0352822581
 21
402.9862160312
  0
LINE
  5
347
100
AcDbEntity
  8
6_ALL_SURFS
100
AcDbLine
 62
7
  6
CONTINUOUS
 10
245.0352822581
 20
411.4730240273
 11
243.5352822581
 21
411.4730240273
  0
LINE
  5
348
100
AcDbEntity
  8
6_ALL_SURFS
100
AcDbLine
 62
7
  6
CONTINUOUS
 10
1089.0352822581
 20
411.4730240273
 11
1090.5352822581
 21
411.4730240273
  0
LINE
  5
349
100
AcDbEntity
  8
3_ALL_AXES
100
AcDbLine
 62
7
  6
CONTINUOUS
 10
242.6860025877
 20
416.8085040323
 11
242.5352822581
 21
416.8085040323
  0
LINE
  5
34A
100
AcDbEntity
  8
3_ALL_AXES
100
AcDbLine
 62
7
  6
CONTINUOUS
 10
1091.3845619284
 20
416.8085040323
 11
1091.5352822581
 21
416.8085040323
  0
LINE
  5
34B
100
AcDbEntity
  8
6_ALL_SURFS
100
AcDbLine
 62
9
  6
CONTINUOUS
 10
245.0352822581
 20
416.9931631551
 11
1089.0352822581
 21
416.9931631551
  0
LINE
  5
34C
100
AcDbEntity
  8
6_ALL_SURFS
100
AcDbLine
 62
9
  6
CONTINUOUS
 10
245.0352822581
 20
419.0260937937
 11
1089.0352822581
 21
419.0260937937
  0
LINE
  5
34D
100
AcDbEntity
  8
6_ALL_SURFS
100
AcDbLine
 62
9
  6
CONTINUOUS
 10
245.0352822581
 20
420.8230201613
 11
1089.0352822581
 21
420.8230201613
  0
LINE
  5
34E
100
AcDbEntity
  8
6_ALL_SURFS
100
AcDbLine
 62
7
  6
CONTINUOUS
 10
1089.0352822581
 20
421.2585040323
 11
245.0352822581
 21
421.2585040323
  0
LINE
  5
34F
100
AcDbEntity
  8
6_ALL_SURFS
100
AcDbLine
 62
9
  6
CONTINUOUS
 10
1089.0352822581
 20
421.7585040323
 11
245.0352822581
 21
421.7585040323
  0
LINE
  5
350
100
AcDbEntity
  8
6_ALL_SURFS
100
AcDbLine
 62
9
  6
CONTINUOUS
 10
243.5352822581
 20
422.0085040323
 11
245.0352822581
 21
422.0085040323
  0
LINE
  5
351
100
AcDbEntity
  8
6_ALL_SURFS
100
AcDbLine
 62
9
  6
CONTINUOUS
 10
1089.0352822581
 20
422.0085040323
 11
1090.5352822581
 21
422.0085040323
  0
LINE
  5
352
100
AcDbEntity
  8
3_ALL_AXES
100
AcDbLine
 62
7
  6
CONTINUOUS
 10
242.6860025877
 20
422.3085040323
 11
242.5352822581
 21
422.3085040323
  0
LINE
  5
353
100
AcDbEntity
  8
3_ALL_AXES
100
AcDbLine
 62
7
  6
CONTINUOUS
 10
1091.3845619284
 20
422.3085040323
 11
1091.5352822581
 21
422.3085040323
  0
LINE
  5
354
100
AcDbEntity
  8
6_ALL_SURFS
100
AcDbLine
 62
9
  6
CONTINUOUS
 10
1089.0352822581
 20
422.4585040323
 11
245.0352822581
 21
422.4585040323
  0
LINE
  5
355
100
AcDbEntity
  8
6_ALL_SURFS
100
AcDbLine
 62
7
  6
CONTINUOUS
 10
243.5352822581
 20
422.7585040323
 11
1090.5352822581
 21
422.7585040323
  0
LINE
  5
356
100
AcDbEntity
  8
3_ALL_AXES
100
AcDbLine
 62
7
  6
CONTINUOUS
 10
1090.5352822581
 20
421.5958737741
 11
1091.3845619284
 21
422.3085040323
  0
LINE
  5
357
100
AcDbEntity
  8
3_ALL_AXES
100
AcDbLine
 62
7
  6
CONTINUOUS
 10
1090.5352822581
 20
351.9211342904
 11
1091.3845619284
 21
351.2085040323
  0
LINE
  5
358
100
AcDbEntity
  8
3_ALL_AXES
100
AcDbLine
 62
7
  6
CONTINUOUS
 10
1090.5352822581
 20
355.9958737741
 11
1091.3845619284
 21
356.7085040323
  0
LINE
  5
359
100
AcDbEntity
  8
3_ALL_AXES
100
AcDbLine
 62
7
  6
CONTINUOUS
 10
1090.5352822581
 20
417.5211342904
 11
1091.3845619284
 21
416.8085040323
  0
LINE
  5
35A
100
AcDbEntity
  8
7_ALL_FEATURES
100
AcDbLine
 62
7
  6
CONTINUOUS
 10
1089.0352822581
 20
357.1085040323
 11
1089.0352822581
 21
343.3145745541
  0
LINE
  5
35B
100
AcDbEntity
  8
7_ALL_FEATURES
100
AcDbLine
 62
7
  6
CONTINUOUS
 10
1089.0352822581
 20
340.6062853707
 11
1089.0352822581
 21
330.6085040323
  0
LINE
  5
35C
100
AcDbEntity
  8
7_ALL_FEATURES
100
AcDbLine
 62
7
  6
CONTINUOUS
 10
1089.0352822581
 20
327.970789808
 11
1089.0352822581
 21
329.4585040323
  0
LINE
  5
35D
100
AcDbEntity
  8
6_ALL_SURFS
100
AcDbLine
 62
7
  6
CONTINUOUS
 10
1089.0352822581
 20
327.9585040323
 11
1089.0352822581
 21
327.970789808
  0
LINE
  5
35E
100
AcDbEntity
  8
6_ALL_SURFS
100
AcDbLine
 62
7
  6
CONTINUOUS
 10
1089.0352822581
 20
329.4585040323
 11
1089.0352822581
 21
330.6085040323
  0
LINE
  5
35F
100
AcDbEntity
  8
6_ALL_SURFS
100
AcDbLine
 62
7
  6
CONTINUOUS
 10
1089.0352822581
 20
340.6062853707
 11
1089.0352822581
 21
343.3145745541
  0
LINE
  5
360
100
AcDbEntity
  8
6_ALL_SURFS
100
AcDbLine
 62
7
  6
CONTINUOUS
 10
1089.0352822581
 20
353.0585040323
 11
1089.0352822581
 21
354.8585040323
  0
LINE
  5
361
100
AcDbEntity
  8
6_ALL_SURFS
100
AcDbLine
 62
7
  6
CONTINUOUS
 10
1089.0352822581
 20
357.1085040323
 11
1089.0352822581
 21
422.7585040323
  0
LINE
  5
362
100
AcDbEntity
  8
7_ALL_FEATURES
100
AcDbLine
 62
7
  6
CONTINUOUS
 10
1090.5352822581
 20
357.1085040323
 11
1090.5352822581
 21
327.9585040323
  0
LINE
  5
363
100
AcDbEntity
  8
6_ALL_SURFS
100
AcDbLine
 62
7
  6
CONTINUOUS
 10
1090.5352822581
 20
357.1085040323
 11
1090.5352822581
 21
422.7585040323
  0
LINE
  5
364
100
AcDbEntity
  8
3_ALL_AXES
100
AcDbLine
 62
7
  6
CONTINUOUS
 10
1091.3845619284
 20
351.2085040323
 11
1091.3845619284
 21
356.7085040323
  0
LINE
  5
365
100
AcDbEntity
  8
3_ALL_AXES
100
AcDbLine
 62
7
  6
CONTINUOUS
 10
1091.3845619284
 20
416.8085040323
 11
1091.3845619284
 21
422.3085040323
  0
LINE
  5
366
100
AcDbEntity
  8
3_ALL_AXES
100
AcDbLine
 62
7
  6
CONTINUOUS
 10
1091.5352822581
 20
351.2085520984
 11
1091.5352822581
 21
356.7084559661
  0
LINE
  5
367
100
AcDbEntity
  8
3_ALL_AXES
100
AcDbLine
 62
7
  6
CONTINUOUS
 10
1091.5352822581
 20
416.8085520984
 11
1091.5352822581
 21
422.3084559661
  0
LINE
  5
368
100
AcDbEntity
  8
3_ALL_AXES
100
AcDbLine
 62
7
  6
CONTINUOUS
 10
242.5352822581
 20
565.9759072581
 11
242.5352822581
 21
560.4759072581
  0
LINE
  5
369
100
AcDbEntity
  8
3_ALL_AXES
100
AcDbLine
 62
7
  6
CONTINUOUS
 10
242.5352822581
 20
559.6759072581
 11
242.5352822581
 21
554.1759072581
  0
LINE
  5
36A
100
AcDbEntity
  8
3_ALL_AXES
100
AcDbLine
 62
7
  6
CONTINUOUS
 10
242.5352822581
 20
535.6759072581
 11
242.5352822581
 21
530.1759072581
  0
LINE
  5
36B
100
AcDbEntity
  8
3_ALL_AXES
100
AcDbLine
 62
7
  6
CONTINUOUS
 10
242.5352822581
 20
529.3759072581
 11
242.5352822581
 21
523.8759072581
  0
LINE
  5
36C
100
AcDbEntity
  8
3_ALL_AXES
100
AcDbLine
 62
7
  6
CONTINUOUS
 10
242.6860025877
 20
565.9759072581
 11
242.6860025877
 21
560.4759072581
  0
LINE
  5
36D
100
AcDbEntity
  8
3_ALL_AXES
100
AcDbLine
 62
7
  6
CONTINUOUS
 10
242.6860025877
 20
559.6759072581
 11
242.6860025877
 21
554.1759072581
  0
LINE
  5
36E
100
AcDbEntity
  8
3_ALL_AXES
100
AcDbLine
 62
7
  6
CONTINUOUS
 10
242.6860025877
 20
535.6759072581
 11
242.6860025877
 21
530.1759072581
  0
LINE
  5
36F
100
AcDbEntity
  8
3_ALL_AXES
100
AcDbLine
 62
7
  6
CONTINUOUS
 10
242.6860025877
 20
529.3759072581
 11
242.6860025877
 21
523.8759072581
  0
LINE
  5
370
100
AcDbEntity
  8
7_ALL_FEATURES
100
AcDbLine
 62
7
  6
CONTINUOUS
 10
243.5352822581
 20
523.7259072581
 11
243.5352822581
 21
566.1259072581
  0
LINE
  5
371
100
AcDbEntity
  8
7_ALL_FEATURES
100
AcDbLine
 62
7
  6
CONTINUOUS
 10
245.0352822581
 20
503.8759162273
 11
245.0352822581
 21
566.1259072581
  0
LINE
  5
372
100
AcDbEntity
  8
6_ALL_SURFS
100
AcDbLine
 62
7
  6
CONTINUOUS
 10
245.0352822581
 20
564.7759072581
 11
245.0352822581
 21
565.505932397
  0
LINE
  5
373
100
AcDbEntity
  8
6_ALL_SURFS
100
AcDbLine
 62
7
  6
CONTINUOUS
 10
245.0352822581
 20
566.1259072581
 11
245.0352822581
 21
585.9758982888
  0
LINE
  5
374
100
AcDbEntity
  8
7_ALL_FEATURES
100
AcDbLine
 62
7
  6
CONTINUOUS
 10
245.5352822581
 20
564.2759072581
 11
245.5352822581
 21
525.5759072581
  0
LINE
  5
375
100
AcDbEntity
  8
3_ALL_AXES
100
AcDbLine
 62
7
  6
CONTINUOUS
 10
242.6860025877
 20
560.4759072581
 11
243.5352822581
 21
561.1885375162
  0
LINE
  5
376
100
AcDbEntity
  8
3_ALL_AXES
100
AcDbLine
 62
7
  6
CONTINUOUS
 10
242.6860025877
 20
529.3759072581
 11
243.5352822581
 21
528.6632769999
  0
LINE
  5
377
100
AcDbEntity
  8
3_ALL_AXES
100
AcDbLine
 62
7
  6
CONTINUOUS
 10
242.6860025877
 20
554.1759072581
 11
243.5352822581
 21
554.8885375162
  0
LINE
  5
378
100
AcDbEntity
  8
3_ALL_AXES
100
AcDbLine
 62
7
  6
CONTINUOUS
 10
242.6860025877
 20
530.1759072581
 11
243.5352822581
 21
530.8885375162
  0
LINE
  5
379
100
AcDbEntity
  8
3_ALL_AXES
100
AcDbLine
 62
7
  6
CONTINUOUS
 10
242.6860025877
 20
523.8759072581
 11
243.5352822581
 21
524.5885375162
  0
LINE
  5
37A
100
AcDbEntity
  8
3_ALL_AXES
100
AcDbLine
 62
7
  6
CONTINUOUS
 10
242.6860025877
 20
535.6759072581
 11
243.5352822581
 21
534.9632769999
  0
LINE
  5
37B
100
AcDbEntity
  8
3_ALL_AXES
100
AcDbLine
 62
7
  6
CONTINUOUS
 10
242.6860025877
 20
559.6759072581
 11
243.5352822581
 21
558.9632769999
  0
LINE
  5
37C
100
AcDbEntity
  8
3_ALL_AXES
100
AcDbLine
 62
7
  6
CONTINUOUS
 10
242.6860025877
 20
565.9759072581
 11
243.5352822581
 21
565.2632769999
  0
LINE
  5
37D
100
AcDbEntity
  8
7_ALL_FEATURES
100
AcDbLine
 62
7
  6
CONTINUOUS
 10
1089.0352822581
 20
503.8759072581
 11
245.0352822581
 21
503.8759072581
  0
LINE
  5
37E
100
AcDbEntity
  8
7_ALL_FEATURES
100
AcDbLine
 62
9
  6
CONTINUOUS
 10
1089.0352822581
 20
504.2304356677
 11
245.0352822581
 21
504.2304356677
  0
LINE
  5
37F
100
AcDbEntity
  8
7_ALL_FEATURES
100
AcDbLine
 62
7
  6
CONTINUOUS
 10
245.0352822581
 20
506.3759072581
 11
288.7518744644
 21
506.3759072581
  0
LINE
  5
380
100
AcDbEntity
  8
7_ALL_FEATURES
100
AcDbLine
 62
7
  6
CONTINUOUS
 10
295.3186900518
 20
506.3759072581
 11
538.7518744644
 21
506.3759072581
  0
LINE
  5
381
100
AcDbEntity
  8
7_ALL_FEATURES
100
AcDbLine
 62
7
  6
CONTINUOUS
 10
545.3186900518
 20
506.3759072581
 11
788.7518744644
 21
506.3759072581
  0
LINE
  5
382
100
AcDbEntity
  8
7_ALL_FEATURES
100
AcDbLine
 62
7
  6
CONTINUOUS
 10
795.3186900518
 20
506.3759072581
 11
1038.7518744644
 21
506.3759072581
  0
LINE
  5
383
100
AcDbEntity
  8
7_ALL_FEATURES
100
AcDbLine
 62
7
  6
CONTINUOUS
 10
1045.3186900518
 20
506.3759072581
 11
1089.0352822581
 21
506.3759072581
  0
LINE
  5
384
100
AcDbEntity
  8
7_ALL_FEATURES
100
AcDbLine
 62
7
  6
CONTINUOUS
 10
245.0352822581
 20
509.2759072581
 11
287.273899398
 21
509.2759072581
  0
LINE
  5
385
100
AcDbEntity
  8
7_ALL_FEATURES
100
AcDbLine
 62
7
  6
CONTINUOUS
 10
296.7966651181
 20
509.2759072581
 11
537.273899398
 21
509.2759072581
  0
LINE
  5
386
100
AcDbEntity
  8
7_ALL_FEATURES
100
AcDbLine
 62
7
  6
CONTINUOUS
 10
546.7966651181
 20
509.2759072581
 11
787.273899398
 21
509.2759072581
  0
LINE
  5
387
100
AcDbEntity
  8
7_ALL_FEATURES
100
AcDbLine
 62
7
  6
CONTINUOUS
 10
796.7966651181
 20
509.2759072581
 11
1037.273899398
 21
509.2759072581
  0
LINE
  5
388
100
AcDbEntity
  8
7_ALL_FEATURES
100
AcDbLine
 62
7
  6
CONTINUOUS
 10
1046.7966651181
 20
509.2759072581
 11
1089.0352822581
 21
509.2759072581
  0
LINE
  5
389
100
AcDbEntity
  8
7_ALL_FEATURES
100
AcDbLine
 62
7
  6
CONTINUOUS
 10
245.0352822581
 20
509.8759072581
 11
287.2362441524
 21
509.8759072581
  0
LINE
  5
38A
100
AcDbEntity
  8
7_ALL_FEATURES
100
AcDbLine
 62
7
  6
CONTINUOUS
 10
296.8343203637
 20
509.8759072581
 11
537.2362441524
 21
509.8759072581
  0
LINE
  5
38B
100
AcDbEntity
  8
7_ALL_FEATURES
100
AcDbLine
 62
7
  6
CONTINUOUS
 10
546.8343203637
 20
509.8759072581
 11
787.2362441524
 21
509.8759072581
  0
LINE
  5
38C
100
AcDbEntity
  8
7_ALL_FEATURES
100
AcDbLine
 62
7
  6
CONTINUOUS
 10
796.8343203637
 20
509.8759072581
 11
1037.2362441524
 21
509.8759072581
  0
LINE
  5
38D
100
AcDbEntity
  8
7_ALL_FEATURES
100
AcDbLine
 62
7
  6
CONTINUOUS
 10
1046.8343203637
 20
509.8759072581
 11
1089.0352822581
 21
509.8759072581
  0
LINE
  5
38E
100
AcDbEntity
  8
7_ALL_FEATURES
100
AcDbLine
 62
7
  6
CONTINUOUS
 10
245.0352822581
 20
512.2759072581
 11
287.8794710569
 21
512.2759072581
  0
LINE
  5
38F
100
AcDbEntity
  8
7_ALL_FEATURES
100
AcDbLine
 62
7
  6
CONTINUOUS
 10
296.1910934592
 20
512.2759072581
 11
537.8794710569
 21
512.2759072581
  0
LINE
  5
390
100
AcDbEntity
  8
7_ALL_FEATURES
100
AcDbLine
 62
7
  6
CONTINUOUS
 10
546.1910934592
 20
512.2759072581
 11
787.8794710569
 21
512.2759072581
  0
LINE
  5
391
100
AcDbEntity
  8
7_ALL_FEATURES
100
AcDbLine
 62
7
  6
CONTINUOUS
 10
796.1910934592
 20
512.2759072581
 11
1037.8794710569
 21
512.2759072581
  0
LINE
  5
392
100
AcDbEntity
  8
7_ALL_FEATURES
100
AcDbLine
 62
7
  6
CONTINUOUS
 10
1046.1910934592
 20
512.2759072581
 11
1089.0352822581
 21
512.2759072581
  0
LINE
  5
393
100
AcDbEntity
  8
7_ALL_FEATURES
100
AcDbLine
 62
7
  6
CONTINUOUS
 10
245.0352822581
 20
512.8759072581
 11
288.2895157491
 21
512.8759072581
  0
LINE
  5
394
100
AcDbEntity
  8
7_ALL_FEATURES
100
AcDbLine
 62
7
  6
CONTINUOUS
 10
295.781048767
 20
512.8759072581
 11
538.2895157491
 21
512.8759072581
  0
LINE
  5
395
100
AcDbEntity
  8
7_ALL_FEATURES
100
AcDbLine
 62
7
  6
CONTINUOUS
 10
545.781048767
 20
512.8759072581
 11
788.2895157491
 21
512.8759072581
  0
LINE
  5
396
100
AcDbEntity
  8
7_ALL_FEATURES
100
AcDbLine
 62
7
  6
CONTINUOUS
 10
795.781048767
 20
512.8759072581
 11
1038.2895157491
 21
512.8759072581
  0
LINE
  5
397
100
AcDbEntity
  8
7_ALL_FEATURES
100
AcDbLine
 62
7
  6
CONTINUOUS
 10
1045.781048767
 20
512.8759072581
 11
1089.0352822581
 21
512.8759072581
  0
LINE
  5
398
100
AcDbEntity
  8
7_ALL_FEATURES
100
AcDbLine
 62
7
  6
CONTINUOUS
 10
245.0352822581
 20
515.2759072581
 11
1089.0352822581
 21
515.2759072581
  0
LINE
  5
399
100
AcDbEntity
  8
7_ALL_FEATURES
100
AcDbLine
 62
7
  6
CONTINUOUS
 10
245.0352822581
 20
515.8759072581
 11
1089.0352822581
 21
515.8759072581
  0
LINE
  5
39A
100
AcDbEntity
  8
7_ALL_FEATURES
100
AcDbLine
 62
7
  6
CONTINUOUS
 10
245.0352822581
 20
518.2759072581
 11
1089.0352822581
 21
518.2759072581
  0
LINE
  5
39B
100
AcDbEntity
  8
7_ALL_FEATURES
100
AcDbLine
 62
7
  6
CONTINUOUS
 10
245.0352822581
 20
518.8759072581
 11
1089.0352822581
 21
518.8759072581
  0
LINE
  5
39C
100
AcDbEntity
  8
7_ALL_FEATURES
100
AcDbLine
 62
7
  6
CONTINUOUS
 10
245.0352822581
 20
521.2759072581
 11
1089.0352822581
 21
521.2759072581
  0
LINE
  5
39D
100
AcDbEntity
  8
7_ALL_FEATURES
100
AcDbLine
 62
7
  6
CONTINUOUS
 10
245.0352822581
 20
521.8759072581
 11
1089.0352822581
 21
521.8759072581
  0
LINE
  5
39E
100
AcDbEntity
  8
7_ALL_FEATURES
100
AcDbLine
 62
7
  6
CONTINUOUS
 10
245.0352822581
 20
523.7259072581
 11
243.5352822581
 21
523.7259072581
  0
LINE
  5
39F
100
AcDbEntity
  8
7_ALL_FEATURES
100
AcDbLine
 62
7
  6
CONTINUOUS
 10
1089.0352822581
 20
523.7259072581
 11
1090.5352822581
 21
523.7259072581
  0
LINE
  5
3A0
100
AcDbEntity
  8
7_ALL_FEATURES
100
AcDbLine
 62
9
  6
CONTINUOUS
 10
245.0352822581
 20
523.8259072581
 11
1089.0352822581
 21
523.8259072581
  0
LINE
  5
3A1
100
AcDbEntity
  8
3_ALL_AXES
100
AcDbLine
 62
7
  6
CONTINUOUS
 10
1091.5352822581
 20
523.8759072581
 11
1091.3845619284
 21
523.8759072581
  0
LINE
  5
3A2
100
AcDbEntity
  8
3_ALL_AXES
100
AcDbLine
 62
7
  6
CONTINUOUS
 10
242.5352822581
 20
523.8759072581
 11
242.6860025877
 21
523.8759072581
  0
LINE
  5
3A3
100
AcDbEntity
  8
7_ALL_FEATURES
100
AcDbLine
 62
7
  6
CONTINUOUS
 10
1089.0352822581
 20
524.1259072581
 11
245.0352822581
 21
524.1259072581
  0
LINE
  5
3A4
100
AcDbEntity
  8
7_ALL_FEATURES
100
AcDbLine
 62
9
  6
CONTINUOUS
 10
1089.0352822581
 20
524.4259072581
 11
245.0352822581
 21
524.4259072581
  0
LINE
  5
3A5
100
AcDbEntity
  8
7_ALL_FEATURES
100
AcDbLine
 62
9
  6
CONTINUOUS
 10
245.0352822581
 20
524.4759072581
 11
243.5352822581
 21
524.4759072581
  0
LINE
  5
3A6
100
AcDbEntity
  8
7_ALL_FEATURES
100
AcDbLine
 62
9
  6
CONTINUOUS
 10
1089.0352822581
 20
524.4759072581
 11
1090.5352822581
 21
524.4759072581
  0
LINE
  5
3A7
100
AcDbEntity
  8
7_ALL_FEATURES
100
AcDbLine
 62
9
  6
CONTINUOUS
 10
1089.0352822581
 20
525.0759072581
 11
245.0352822581
 21
525.0759072581
  0
LINE
  5
3A8
100
AcDbEntity
  8
7_ALL_FEATURES
100
AcDbLine
 62
7
  6
CONTINUOUS
 10
1089.0352822581
 20
525.3759072581
 11
245.0352822581
 21
525.3759072581
  0
LINE
  5
3A9
100
AcDbEntity
  8
7_ALL_FEATURES
100
AcDbLine
 62
9
  6
CONTINUOUS
 10
245.0352822581
 20
525.437901256
 11
1089.0352822581
 21
525.437901256
  0
LINE
  5
3AA
100
AcDbEntity
  8
7_ALL_FEATURES
100
AcDbLine
 62
7
  6
CONTINUOUS
 10
245.5352822581
 20
525.5759072581
 11
1088.5352822581
 21
525.5759072581
  0
LINE
  5
3AB
100
AcDbEntity
  8
7_ALL_FEATURES
100
AcDbLine
 62
9
  6
CONTINUOUS
 10
245.5352822581
 20
525.7759072581
 11
1088.5352822581
 21
525.7759072581
  0
LINE
  5
3AC
100
AcDbEntity
  8
7_ALL_FEATURES
100
AcDbLine
 62
9
  6
CONTINUOUS
 10
1089.0352822581
 20
526.5485729735
 11
1088.5352822581
 21
526.5485729735
  0
LINE
  5
3AD
100
AcDbEntity
  8
7_ALL_FEATURES
100
AcDbLine
 62
9
  6
CONTINUOUS
 10
245.5352822581
 20
526.5485729735
 11
245.0352822581
 21
526.5485729735
  0
LINE
  5
3AE
100
AcDbEntity
  8
6_ALL_SURFS
100
AcDbLine
 62
7
  6
CONTINUOUS
 10
1089.0352822581
 20
526.5899023054
 11
1088.5352822581
 21
526.5899023054
  0
LINE
  5
3AF
100
AcDbEntity
  8
6_ALL_SURFS
100
AcDbLine
 62
7
  6
CONTINUOUS
 10
245.5352822581
 20
526.5899023054
 11
245.0352822581
 21
526.5899023054
  0
LINE
  5
3B0
100
AcDbEntity
  8
7_ALL_FEATURES
100
AcDbLine
 62
9
  6
CONTINUOUS
 10
245.0352822581
 20
527.1869448601
 11
245.5352822581
 21
527.1869448601
  0
LINE
  5
3B1
100
AcDbEntity
  8
7_ALL_FEATURES
100
AcDbLine
 62
9
  6
CONTINUOUS
 10
1088.5352822581
 20
527.1869448601
 11
1089.0352822581
 21
527.1869448601
  0
LINE
  5
3B2
100
AcDbEntity
  8
7_ALL_FEATURES
100
AcDbLine
 62
9
  6
CONTINUOUS
 10
245.0352822581
 20
527.4063509706
 11
245.5352822581
 21
527.4063509706
  0
LINE
  5
3B3
100
AcDbEntity
  8
7_ALL_FEATURES
100
AcDbLine
 62
9
  6
CONTINUOUS
 10
1088.5352822581
 20
527.4063509706
 11
1089.0352822581
 21
527.4063509706
  0
LINE
  5
3B4
100
AcDbEntity
  8
7_ALL_FEATURES
100
AcDbLine
 62
9
  6
CONTINUOUS
 10
1089.0352822581
 20
528.2259072581
 11
1088.5352822581
 21
528.2259072581
  0
LINE
  5
3B5
100
AcDbEntity
  8
7_ALL_FEATURES
100
AcDbLine
 62
9
  6
CONTINUOUS
 10
245.5352822581
 20
528.2259072581
 11
245.0352822581
 21
528.2259072581
  0
LINE
  5
3B6
100
AcDbEntity
  8
7_ALL_FEATURES
100
AcDbLine
 62
7
  6
CONTINUOUS
 10
1089.0352822581
 20
528.5259072581
 11
1088.5352822581
 21
528.5259072581
  0
LINE
  5
3B7
100
AcDbEntity
  8
7_ALL_FEATURES
100
AcDbLine
 62
7
  6
CONTINUOUS
 10
245.5352822581
 20
528.5259072581
 11
245.0352822581
 21
528.5259072581
  0
LINE
  5
3B8
100
AcDbEntity
  8
7_ALL_FEATURES
100
AcDbLine
 62
9
  6
CONTINUOUS
 10
245.0352822581
 20
528.5862146373
 11
245.5352822581
 21
528.5862146373
  0
LINE
  5
3B9
100
AcDbEntity
  8
7_ALL_FEATURES
100
AcDbLine
 62
9
  6
CONTINUOUS
 10
1088.5352822581
 20
528.5862146373
 11
1089.0352822581
 21
528.5862146373
  0
LINE
  5
3BA
100
AcDbEntity
  8
7_ALL_FEATURES
100
AcDbLine
 62
9
  6
CONTINUOUS
 10
1089.0352822581
 20
528.941270844
 11
1088.5352822581
 21
528.941270844
  0
LINE
  5
3BB
100
AcDbEntity
  8
7_ALL_FEATURES
100
AcDbLine
 62
9
  6
CONTINUOUS
 10
245.5352822581
 20
528.941270844
 11
245.0352822581
 21
528.941270844
  0
LINE
  5
3BC
100
AcDbEntity
  8
7_ALL_FEATURES
100
AcDbLine
 62
7
  6
CONTINUOUS
 10
1089.0352822581
 20
528.9593630578
 11
1088.5352822581
 21
528.9593630578
  0
LINE
  5
3BD
100
AcDbEntity
  8
7_ALL_FEATURES
100
AcDbLine
 62
7
  6
CONTINUOUS
 10
245.5352822581
 20
528.9593630578
 11
245.0352822581
 21
528.9593630578
  0
LINE
  5
3BE
100
AcDbEntity
  8
3_ALL_AXES
100
AcDbLine
 62
7
  6
CONTINUOUS
 10
1091.5352822581
 20
529.3759072581
 11
1091.3845619284
 21
529.3759072581
  0
LINE
  5
3BF
100
AcDbEntity
  8
3_ALL_AXES
100
AcDbLine
 62
7
  6
CONTINUOUS
 10
242.5352822581
 20
529.3759072581
 11
242.6860025877
 21
529.3759072581
  0
LINE
  5
3C0
100
AcDbEntity
  8
3_ALL_AXES
100
AcDbLine
 62
7
  6
CONTINUOUS
 10
1091.5352822581
 20
530.1759072581
 11
1091.3845619284
 21
530.1759072581
  0
LINE
  5
3C1
100
AcDbEntity
  8
3_ALL_AXES
100
AcDbLine
 62
7
  6
CONTINUOUS
 10
242.5352822581
 20
530.1759072581
 11
242.6860025877
 21
530.1759072581
  0
LINE
  5
3C2
100
AcDbEntity
  8
7_ALL_FEATURES
100
AcDbLine
 62
9
  6
CONTINUOUS
 10
245.0352822581
 20
531.3521961026
 11
245.5352822581
 21
531.3521961026
  0
LINE
  5
3C3
100
AcDbEntity
  8
7_ALL_FEATURES
100
AcDbLine
 62
9
  6
CONTINUOUS
 10
1088.5352822581
 20
531.3521961026
 11
1089.0352822581
 21
531.3521961026
  0
LINE
  5
3C4
100
AcDbEntity
  8
7_ALL_FEATURES
100
AcDbLine
 62
9
  6
CONTINUOUS
 10
245.0352822581
 20
532.3284921097
 11
245.5352822581
 21
532.3284921097
  0
LINE
  5
3C5
100
AcDbEntity
  8
7_ALL_FEATURES
100
AcDbLine
 62
9
  6
CONTINUOUS
 10
1088.5352822581
 20
532.3284921097
 11
1089.0352822581
 21
532.3284921097
  0
LINE
  5
3C6
100
AcDbEntity
  8
3_ALL_AXES
100
AcDbLine
 62
7
  6
CONTINUOUS
 10
1091.5352822581
 20
535.6759072581
 11
1091.3845619284
 21
535.6759072581
  0
LINE
  5
3C7
100
AcDbEntity
  8
3_ALL_AXES
100
AcDbLine
 62
7
  6
CONTINUOUS
 10
242.5352822581
 20
535.6759072581
 11
242.6860025877
 21
535.6759072581
  0
LINE
  5
3C8
100
AcDbEntity
  8
7_ALL_FEATURES
100
AcDbLine
 62
9
  6
CONTINUOUS
 10
1089.0352822581
 20
542.9259072581
 11
1088.5352822581
 21
542.9259072581
  0
LINE
  5
3C9
100
AcDbEntity
  8
7_ALL_FEATURES
100
AcDbLine
 62
9
  6
CONTINUOUS
 10
245.5352822581
 20
542.9259072581
 11
245.0352822581
 21
542.9259072581
  0
LINE
  5
3CA
100
AcDbEntity
  8
7_ALL_FEATURES
100
AcDbLine
 62
7
  6
CONTINUOUS
 10
1089.0352822581
 20
543.2259072581
 11
1088.5352822581
 21
543.2259072581
  0
LINE
  5
3CB
100
AcDbEntity
  8
7_ALL_FEATURES
100
AcDbLine
 62
7
  6
CONTINUOUS
 10
245.5352822581
 20
543.2259072581
 11
245.0352822581
 21
543.2259072581
  0
LINE
  5
3CC
100
AcDbEntity
  8
7_ALL_FEATURES
100
AcDbLine
 62
9
  6
CONTINUOUS
 10
245.0352822581
 20
543.5259072581
 11
245.5352822581
 21
543.5259072581
  0
LINE
  5
3CD
100
AcDbEntity
  8
7_ALL_FEATURES
100
AcDbLine
 62
9
  6
CONTINUOUS
 10
1088.5352822581
 20
543.5259072581
 11
1089.0352822581
 21
543.5259072581
  0
LINE
  5
3CE
100
AcDbEntity
  8
6_ALL_SURFS
100
AcDbLine
 62
9
  6
CONTINUOUS
 10
245.0352822581
 20
546.3259072581
 11
245.5352822581
 21
546.3259072581
  0
LINE
  5
3CF
100
AcDbEntity
  8
6_ALL_SURFS
100
AcDbLine
 62
9
  6
CONTINUOUS
 10
1088.5352822581
 20
546.3259072581
 11
1089.0352822581
 21
546.3259072581
  0
LINE
  5
3D0
100
AcDbEntity
  8
6_ALL_SURFS
100
AcDbLine
 62
7
  6
CONTINUOUS
 10
1089.0352822581
 20
546.6259072581
 11
1088.5352822581
 21
546.6259072581
  0
LINE
  5
3D1
100
AcDbEntity
  8
6_ALL_SURFS
100
AcDbLine
 62
7
  6
CONTINUOUS
 10
245.5352822581
 20
546.6259072581
 11
245.0352822581
 21
546.6259072581
  0
LINE
  5
3D2
100
AcDbEntity
  8
6_ALL_SURFS
100
AcDbLine
 62
9
  6
CONTINUOUS
 10
1089.0352822581
 20
546.9259072581
 11
1088.5352822581
 21
546.9259072581
  0
LINE
  5
3D3
100
AcDbEntity
  8
6_ALL_SURFS
100
AcDbLine
 62
9
  6
CONTINUOUS
 10
245.5352822581
 20
546.9259072581
 11
245.0352822581
 21
546.9259072581
  0
LINE
  5
3D4
100
AcDbEntity
  8
3_ALL_AXES
100
AcDbLine
 62
7
  6
CONTINUOUS
 10
1091.5352822581
 20
554.1759072581
 11
1091.3845619284
 21
554.1759072581
  0
LINE
  5
3D5
100
AcDbEntity
  8
3_ALL_AXES
100
AcDbLine
 62
7
  6
CONTINUOUS
 10
242.5352822581
 20
554.1759072581
 11
242.6860025877
 21
554.1759072581
  0
LINE
  5
3D6
100
AcDbEntity
  8
6_ALL_SURFS
100
AcDbLine
 62
9
  6
CONTINUOUS
 10
245.0352822581
 20
557.5233224064
 11
245.5352822581
 21
557.5233224064
  0
LINE
  5
3D7
100
AcDbEntity
  8
6_ALL_SURFS
100
AcDbLine
 62
9
  6
CONTINUOUS
 10
1088.5352822581
 20
557.5233224064
 11
1089.0352822581
 21
557.5233224064
  0
LINE
  5
3D8
100
AcDbEntity
  8
6_ALL_SURFS
100
AcDbLine
 62
9
  6
CONTINUOUS
 10
245.0352822581
 20
558.4996184135
 11
245.5352822581
 21
558.4996184135
  0
LINE
  5
3D9
100
AcDbEntity
  8
6_ALL_SURFS
100
AcDbLine
 62
9
  6
CONTINUOUS
 10
1088.5352822581
 20
558.4996184135
 11
1089.0352822581
 21
558.4996184135
  0
LINE
  5
3DA
100
AcDbEntity
  8
3_ALL_AXES
100
AcDbLine
 62
7
  6
CONTINUOUS
 10
1091.5352822581
 20
559.6759072581
 11
1091.3845619284
 21
559.6759072581
  0
LINE
  5
3DB
100
AcDbEntity
  8
3_ALL_AXES
100
AcDbLine
 62
7
  6
CONTINUOUS
 10
242.5352822581
 20
559.6759072581
 11
242.6860025877
 21
559.6759072581
  0
LINE
  5
3DC
100
AcDbEntity
  8
3_ALL_AXES
100
AcDbLine
 62
7
  6
CONTINUOUS
 10
1091.5352822581
 20
560.4759072581
 11
1091.3845619284
 21
560.4759072581
  0
LINE
  5
3DD
100
AcDbEntity
  8
3_ALL_AXES
100
AcDbLine
 62
7
  6
CONTINUOUS
 10
242.5352822581
 20
560.4759072581
 11
242.6860025877
 21
560.4759072581
  0
LINE
  5
3DE
100
AcDbEntity
  8
6_ALL_SURFS
100
AcDbLine
 62
7
  6
CONTINUOUS
 10
245.0352822581
 20
560.8924514584
 11
245.5352822581
 21
560.8924514584
  0
LINE
  5
3DF
100
AcDbEntity
  8
6_ALL_SURFS
100
AcDbLine
 62
7
  6
CONTINUOUS
 10
1088.5352822581
 20
560.8924514584
 11
1089.0352822581
 21
560.8924514584
  0
LINE
  5
3E0
100
AcDbEntity
  8
6_ALL_SURFS
100
AcDbLine
 62
9
  6
CONTINUOUS
 10
1089.0352822581
 20
560.9105436721
 11
1088.5352822581
 21
560.9105436721
  0
LINE
  5
3E1
100
AcDbEntity
  8
6_ALL_SURFS
100
AcDbLine
 62
9
  6
CONTINUOUS
 10
245.5352822581
 20
560.9105436721
 11
245.0352822581
 21
560.9105436721
  0
LINE
  5
3E2
100
AcDbEntity
  8
6_ALL_SURFS
100
AcDbLine
 62
9
  6
CONTINUOUS
 10
245.0352822581
 20
561.2655998789
 11
245.5352822581
 21
561.2655998789
  0
LINE
  5
3E3
100
AcDbEntity
  8
6_ALL_SURFS
100
AcDbLine
 62
9
  6
CONTINUOUS
 10
1088.5352822581
 20
561.2655998789
 11
1089.0352822581
 21
561.2655998789
  0
LINE
  5
3E4
100
AcDbEntity
  8
6_ALL_SURFS
100
AcDbLine
 62
7
  6
CONTINUOUS
 10
1089.0352822581
 20
561.3259072581
 11
1088.5352822581
 21
561.3259072581
  0
LINE
  5
3E5
100
AcDbEntity
  8
6_ALL_SURFS
100
AcDbLine
 62
7
  6
CONTINUOUS
 10
245.5352822581
 20
561.3259072581
 11
245.0352822581
 21
561.3259072581
  0
LINE
  5
3E6
100
AcDbEntity
  8
6_ALL_SURFS
100
AcDbLine
 62
9
  6
CONTINUOUS
 10
1089.0352822581
 20
561.6259072581
 11
1088.5352822581
 21
561.6259072581
  0
LINE
  5
3E7
100
AcDbEntity
  8
6_ALL_SURFS
100
AcDbLine
 62
9
  6
CONTINUOUS
 10
245.5352822581
 20
561.6259072581
 11
245.0352822581
 21
561.6259072581
  0
LINE
  5
3E8
100
AcDbEntity
  8
6_ALL_SURFS
100
AcDbLine
 62
9
  6
CONTINUOUS
 10
245.0352822581
 20
562.4454635456
 11
245.5352822581
 21
562.4454635456
  0
LINE
  5
3E9
100
AcDbEntity
  8
6_ALL_SURFS
100
AcDbLine
 62
9
  6
CONTINUOUS
 10
1088.5352822581
 20
562.4454635456
 11
1089.0352822581
 21
562.4454635456
  0
LINE
  5
3EA
100
AcDbEntity
  8
6_ALL_SURFS
100
AcDbLine
 62
9
  6
CONTINUOUS
 10
245.0352822581
 20
562.6648696561
 11
245.5352822581
 21
562.6648696561
  0
LINE
  5
3EB
100
AcDbEntity
  8
6_ALL_SURFS
100
AcDbLine
 62
9
  6
CONTINUOUS
 10
1088.5352822581
 20
562.6648696561
 11
1089.0352822581
 21
562.6648696561
  0
LINE
  5
3EC
100
AcDbEntity
  8
6_ALL_SURFS
100
AcDbLine
 62
7
  6
CONTINUOUS
 10
245.0352822581
 20
563.2619122107
 11
245.5352822581
 21
563.2619122107
  0
LINE
  5
3ED
100
AcDbEntity
  8
6_ALL_SURFS
100
AcDbLine
 62
7
  6
CONTINUOUS
 10
1088.5352822581
 20
563.2619122107
 11
1089.0352822581
 21
563.2619122107
  0
LINE
  5
3EE
100
AcDbEntity
  8
6_ALL_SURFS
100
AcDbLine
 62
9
  6
CONTINUOUS
 10
1089.0352822581
 20
563.3032415426
 11
1088.5352822581
 21
563.3032415426
  0
LINE
  5
3EF
100
AcDbEntity
  8
6_ALL_SURFS
100
AcDbLine
 62
9
  6
CONTINUOUS
 10
245.5352822581
 20
563.3032415426
 11
245.0352822581
 21
563.3032415426
  0
LINE
  5
3F0
100
AcDbEntity
  8
7_ALL_FEATURES
100
AcDbLine
 62
9
  6
CONTINUOUS
 10
245.5352822581
 20
564.0759072581
 11
1088.5352822581
 21
564.0759072581
  0
LINE
  5
3F1
100
AcDbEntity
  8
7_ALL_FEATURES
100
AcDbLine
 62
7
  6
CONTINUOUS
 10
245.5352822581
 20
564.2759072581
 11
1088.5352822581
 21
564.2759072581
  0
LINE
  5
3F2
100
AcDbEntity
  8
6_ALL_SURFS
100
AcDbLine
 62
9
  6
CONTINUOUS
 10
245.0352822581
 20
564.4139132602
 11
1089.0352822581
 21
564.4139132602
  0
LINE
  5
3F3
100
AcDbEntity
  8
6_ALL_SURFS
100
AcDbLine
 62
7
  6
CONTINUOUS
 10
1089.0352822581
 20
564.4759072581
 11
245.0352822581
 21
564.4759072581
  0
LINE
  5
3F4
100
AcDbEntity
  8
6_ALL_SURFS
100
AcDbLine
 62
9
  6
CONTINUOUS
 10
1089.0352822581
 20
564.7759072581
 11
245.0352822581
 21
564.7759072581
  0
LINE
  5
3F5
100
AcDbEntity
  8
7_ALL_FEATURES
100
AcDbLine
 62
9
  6
CONTINUOUS
 10
245.0352822581
 20
565.3759072581
 11
243.5352822581
 21
565.3759072581
  0
LINE
  5
3F6
100
AcDbEntity
  8
7_ALL_FEATURES
100
AcDbLine
 62
9
  6
CONTINUOUS
 10
1089.0352822581
 20
565.3759072581
 11
1090.5352822581
 21
565.3759072581
  0
LINE
  5
3F7
100
AcDbEntity
  8
6_ALL_SURFS
100
AcDbLine
 62
9
  6
CONTINUOUS
 10
1089.0352822581
 20
565.4259072581
 11
245.0352822581
 21
565.4259072581
  0
LINE
  5
3F8
100
AcDbEntity
  8
6_ALL_SURFS
100
AcDbLine
 62
7
  6
CONTINUOUS
 10
1089.0352822581
 20
565.7259072581
 11
245.0352822581
 21
565.7259072581
  0
LINE
  5
3F9
100
AcDbEntity
  8
3_ALL_AXES
100
AcDbLine
 62
7
  6
CONTINUOUS
 10
1091.5352822581
 20
565.9759072581
 11
1091.3845619284
 21
565.9759072581
  0
LINE
  5
3FA
100
AcDbEntity
  8
3_ALL_AXES
100
AcDbLine
 62
7
  6
CONTINUOUS
 10
242.5352822581
 20
565.9759072581
 11
242.6860025877
 21
565.9759072581
  0
LINE
  5
3FB
100
AcDbEntity
  8
6_ALL_SURFS
100
AcDbLine
 62
9
  6
CONTINUOUS
 10
245.0352822581
 20
566.0259072581
 11
1089.0352822581
 21
566.0259072581
  0
LINE
  5
3FC
100
AcDbEntity
  8
7_ALL_FEATURES
100
AcDbLine
 62
7
  6
CONTINUOUS
 10
245.0352822581
 20
566.1259072581
 11
243.5352822581
 21
566.1259072581
  0
LINE
  5
3FD
100
AcDbEntity
  8
7_ALL_FEATURES
100
AcDbLine
 62
7
  6
CONTINUOUS
 10
1089.0352822581
 20
566.1259072581
 11
1090.5352822581
 21
566.1259072581
  0
LINE
  5
3FE
100
AcDbEntity
  8
6_ALL_SURFS
100
AcDbLine
 62
7
  6
CONTINUOUS
 10
245.0352822581
 20
567.9759072581
 11
1089.0352822581
 21
567.9759072581
  0
LINE
  5
3FF
100
AcDbEntity
  8
6_ALL_SURFS
100
AcDbLine
 62
7
  6
CONTINUOUS
 10
245.0352822581
 20
568.5759072581
 11
1089.0352822581
 21
568.5759072581
  0
LINE
  5
400
100
AcDbEntity
  8
6_ALL_SURFS
100
AcDbLine
 62
7
  6
CONTINUOUS
 10
245.0352822581
 20
570.9759072581
 11
1089.0352822581
 21
570.9759072581
  0
LINE
  5
401
100
AcDbEntity
  8
6_ALL_SURFS
100
AcDbLine
 62
7
  6
CONTINUOUS
 10
245.0352822581
 20
571.5759072581
 11
1089.0352822581
 21
571.5759072581
  0
LINE
  5
402
100
AcDbEntity
  8
6_ALL_SURFS
100
AcDbLine
 62
7
  6
CONTINUOUS
 10
245.0352822581
 20
573.9759072581
 11
1089.0352822581
 21
573.9759072581
  0
LINE
  5
403
100
AcDbEntity
  8
6_ALL_SURFS
100
AcDbLine
 62
7
  6
CONTINUOUS
 10
245.0352822581
 20
574.5759072581
 11
1089.0352822581
 21
574.5759072581
  0
LINE
  5
404
100
AcDbEntity
  8
6_ALL_SURFS
100
AcDbLine
 62
7
  6
CONTINUOUS
 10
245.0352822581
 20
576.9759072581
 11
288.2895157491
 21
576.9759072581
  0
LINE
  5
405
100
AcDbEntity
  8
6_ALL_SURFS
100
AcDbLine
 62
7
  6
CONTINUOUS
 10
295.781048767
 20
576.9759072581
 11
538.2895157491
 21
576.9759072581
  0
LINE
  5
406
100
AcDbEntity
  8
6_ALL_SURFS
100
AcDbLine
 62
7
  6
CONTINUOUS
 10
545.781048767
 20
576.9759072581
 11
788.2895157491
 21
576.9759072581
  0
LINE
  5
407
100
AcDbEntity
  8
6_ALL_SURFS
100
AcDbLine
 62
7
  6
CONTINUOUS
 10
795.781048767
 20
576.9759072581
 11
1038.2895157491
 21
576.9759072581
  0
LINE
  5
408
100
AcDbEntity
  8
6_ALL_SURFS
100
AcDbLine
 62
7
  6
CONTINUOUS
 10
1045.781048767
 20
576.9759072581
 11
1089.0352822581
 21
576.9759072581
  0
LINE
  5
409
100
AcDbEntity
  8
6_ALL_SURFS
100
AcDbLine
 62
7
  6
CONTINUOUS
 10
245.0352822581
 20
577.5759072581
 11
287.8794710569
 21
577.5759072581
  0
LINE
  5
40A
100
AcDbEntity
  8
6_ALL_SURFS
100
AcDbLine
 62
7
  6
CONTINUOUS
 10
296.1910934592
 20
577.5759072581
 11
537.8794710569
 21
577.5759072581
  0
LINE
  5
40B
100
AcDbEntity
  8
6_ALL_SURFS
100
AcDbLine
 62
7
  6
CONTINUOUS
 10
546.1910934592
 20
577.5759072581
 11
787.8794710569
 21
577.5759072581
  0
LINE
  5
40C
100
AcDbEntity
  8
6_ALL_SURFS
100
AcDbLine
 62
7
  6
CONTINUOUS
 10
796.1910934592
 20
577.5759072581
 11
1037.8794710569
 21
577.5759072581
  0
LINE
  5
40D
100
AcDbEntity
  8
6_ALL_SURFS
100
AcDbLine
 62
7
  6
CONTINUOUS
 10
1046.1910934592
 20
577.5759072581
 11
1089.0352822581
 21
577.5759072581
  0
LINE
  5
40E
100
AcDbEntity
  8
6_ALL_SURFS
100
AcDbLine
 62
7
  6
CONTINUOUS
 10
245.0352822581
 20
579.9759072581
 11
287.2362441524
 21
579.9759072581
  0
LINE
  5
40F
100
AcDbEntity
  8
6_ALL_SURFS
100
AcDbLine
 62
7
  6
CONTINUOUS
 10
296.8343203637
 20
579.9759072581
 11
537.2362441524
 21
579.9759072581
  0
LINE
  5
410
100
AcDbEntity
  8
6_ALL_SURFS
100
AcDbLine
 62
7
  6
CONTINUOUS
 10
546.8343203637
 20
579.9759072581
 11
787.2362441524
 21
579.9759072581
  0
LINE
  5
411
100
AcDbEntity
  8
6_ALL_SURFS
100
AcDbLine
 62
7
  6
CONTINUOUS
 10
796.8343203637
 20
579.9759072581
 11
1037.2362441524
 21
579.9759072581
  0
LINE
  5
412
100
AcDbEntity
  8
6_ALL_SURFS
100
AcDbLine
 62
7
  6
CONTINUOUS
 10
1046.8343203637
 20
579.9759072581
 11
1089.0352822581
 21
579.9759072581
  0
LINE
  5
413
100
AcDbEntity
  8
6_ALL_SURFS
100
AcDbLine
 62
7
  6
CONTINUOUS
 10
245.0352822581
 20
580.5759072581
 11
287.273899398
 21
580.5759072581
  0
LINE
  5
414
100
AcDbEntity
  8
6_ALL_SURFS
100
AcDbLine
 62
7
  6
CONTINUOUS
 10
296.7966651181
 20
580.5759072581
 11
537.273899398
 21
580.5759072581
  0
LINE
  5
415
100
AcDbEntity
  8
6_ALL_SURFS
100
AcDbLine
 62
7
  6
CONTINUOUS
 10
546.7966651181
 20
580.5759072581
 11
787.273899398
 21
580.5759072581
  0
LINE
  5
416
100
AcDbEntity
  8
6_ALL_SURFS
100
AcDbLine
 62
7
  6
CONTINUOUS
 10
796.7966651181
 20
580.5759072581
 11
1037.273899398
 21
580.5759072581
  0
LINE
  5
417
100
AcDbEntity
  8
6_ALL_SURFS
100
AcDbLine
 62
7
  6
CONTINUOUS
 10
1046.7966651181
 20
580.5759072581
 11
1089.0352822581
 21
580.5759072581
  0
LINE
  5
418
100
AcDbEntity
  8
6_ALL_SURFS
100
AcDbLine
 62
7
  6
CONTINUOUS
 10
245.0352822581
 20
583.4759072581
 11
288.7518744644
 21
583.4759072581
  0
LINE
  5
419
100
AcDbEntity
  8
6_ALL_SURFS
100
AcDbLine
 62
7
  6
CONTINUOUS
 10
295.3186900518
 20
583.4759072581
 11
538.7518744644
 21
583.4759072581
  0
LINE
  5
41A
100
AcDbEntity
  8
6_ALL_SURFS
100
AcDbLine
 62
7
  6
CONTINUOUS
 10
545.3186900518
 20
583.4759072581
 11
788.7518744644
 21
583.4759072581
  0
LINE
  5
41B
100
AcDbEntity
  8
6_ALL_SURFS
100
AcDbLine
 62
7
  6
CONTINUOUS
 10
795.3186900518
 20
583.4759072581
 11
1038.7518744644
 21
583.4759072581
  0
LINE
  5
41C
100
AcDbEntity
  8
6_ALL_SURFS
100
AcDbLine
 62
7
  6
CONTINUOUS
 10
1045.3186900518
 20
583.4759072581
 11
1089.0352822581
 21
583.4759072581
  0
LINE
  5
41D
100
AcDbEntity
  8
6_ALL_SURFS
100
AcDbLine
 62
9
  6
CONTINUOUS
 10
1089.0352822581
 20
585.6213788484
 11
245.0352822581
 21
585.6213788484
  0
LINE
  5
41E
100
AcDbEntity
  8
6_ALL_SURFS
100
AcDbLine
 62
7
  6
CONTINUOUS
 10
245.0352822581
 20
585.9759072581
 11
1089.0352822581
 21
585.9759072581
  0
LINE
  5
41F
100
AcDbEntity
  8
3_ALL_AXES
100
AcDbLine
 62
7
  6
CONTINUOUS
 10
1091.3845619284
 20
565.9759072581
 11
1090.5352822581
 21
565.2632769999
  0
LINE
  5
420
100
AcDbEntity
  8
3_ALL_AXES
100
AcDbLine
 62
7
  6
CONTINUOUS
 10
1091.3845619284
 20
523.8759072581
 11
1090.5352822581
 21
524.5885375162
  0
LINE
  5
421
100
AcDbEntity
  8
3_ALL_AXES
100
AcDbLine
 62
7
  6
CONTINUOUS
 10
1091.3845619284
 20
559.6759072581
 11
1090.5352822581
 21
558.9632769999
  0
LINE
  5
422
100
AcDbEntity
  8
3_ALL_AXES
100
AcDbLine
 62
7
  6
CONTINUOUS
 10
1091.3845619284
 20
535.6759072581
 11
1090.5352822581
 21
534.9632769999
  0
LINE
  5
423
100
AcDbEntity
  8
3_ALL_AXES
100
AcDbLine
 62
7
  6
CONTINUOUS
 10
1091.3845619284
 20
529.3759072581
 11
1090.5352822581
 21
528.6632769999
  0
LINE
  5
424
100
AcDbEntity
  8
3_ALL_AXES
100
AcDbLine
 62
7
  6
CONTINUOUS
 10
1091.3845619284
 20
530.1759072581
 11
1090.5352822581
 21
530.8885375162
  0
LINE
  5
425
100
AcDbEntity
  8
3_ALL_AXES
100
AcDbLine
 62
7
  6
CONTINUOUS
 10
1091.3845619284
 20
554.1759072581
 11
1090.5352822581
 21
554.8885375162
  0
LINE
  5
426
100
AcDbEntity
  8
3_ALL_AXES
100
AcDbLine
 62
7
  6
CONTINUOUS
 10
1091.3845619284
 20
560.4759072581
 11
1090.5352822581
 21
561.1885375162
  0
LINE
  5
427
100
AcDbEntity
  8
7_ALL_FEATURES
100
AcDbLine
 62
7
  6
CONTINUOUS
 10
1088.5352822581
 20
564.2759072581
 11
1088.5352822581
 21
525.5759072581
  0
LINE
  5
428
100
AcDbEntity
  8
6_ALL_SURFS
100
AcDbLine
 62
7
  6
CONTINUOUS
 10
1089.0352822581
 20
564.7759072581
 11
1089.0352822581
 21
565.505932397
  0
LINE
  5
429
100
AcDbEntity
  8
7_ALL_FEATURES
100
AcDbLine
 62
7
  6
CONTINUOUS
 10
1089.0352822581
 20
503.8759162273
 11
1089.0352822581
 21
566.1259072581
  0
LINE
  5
42A
100
AcDbEntity
  8
6_ALL_SURFS
100
AcDbLine
 62
7
  6
CONTINUOUS
 10
1089.0352822581
 20
566.1259072581
 11
1089.0352822581
 21
585.9758982888
  0
LINE
  5
42B
100
AcDbEntity
  8
7_ALL_FEATURES
100
AcDbLine
 62
7
  6
CONTINUOUS
 10
1090.5352822581
 20
523.7259072581
 11
1090.5352822581
 21
566.1259072581
  0
LINE
  5
42C
100
AcDbEntity
  8
3_ALL_AXES
100
AcDbLine
 62
7
  6
CONTINUOUS
 10
1091.3845619284
 20
523.8759072581
 11
1091.3845619284
 21
529.3759072581
  0
LINE
  5
42D
100
AcDbEntity
  8
3_ALL_AXES
100
AcDbLine
 62
7
  6
CONTINUOUS
 10
1091.3845619284
 20
530.1759072581
 11
1091.3845619284
 21
535.6759072581
  0
LINE
  5
42E
100
AcDbEntity
  8
3_ALL_AXES
100
AcDbLine
 62
7
  6
CONTINUOUS
 10
1091.3845619284
 20
554.1759072581
 11
1091.3845619284
 21
559.6759072581
  0
LINE
  5
42F
100
AcDbEntity
  8
3_ALL_AXES
100
AcDbLine
 62
7
  6
CONTINUOUS
 10
1091.3845619284
 20
560.4759072581
 11
1091.3845619284
 21
565.9759072581
  0
LINE
  5
430
100
AcDbEntity
  8
3_ALL_AXES
100
AcDbLine
 62
7
  6
CONTINUOUS
 10
1091.5352822581
 20
523.8759072581
 11
1091.5352822581
 21
529.3759072581
  0
LINE
  5
431
100
AcDbEntity
  8
3_ALL_AXES
100
AcDbLine
 62
7
  6
CONTINUOUS
 10
1091.5352822581
 20
530.1759072581
 11
1091.5352822581
 21
535.6759072581
  0
LINE
  5
432
100
AcDbEntity
  8
3_ALL_AXES
100
AcDbLine
 62
7
  6
CONTINUOUS
 10
1091.5352822581
 20
554.1759072581
 11
1091.5352822581
 21
559.6759072581
  0
LINE
  5
433
100
AcDbEntity
  8
3_ALL_AXES
100
AcDbLine
 62
7
  6
CONTINUOUS
 10
1091.5352822581
 20
560.4759072581
 11
1091.5352822581
 21
565.9759072581
  0
CIRCLE
  5
434
100
AcDbEntity
  8
3_ALL_AXES
100
AcDbCircle
 62
7
  6
CONTINUOUS
 10
107.5801177419
 20
353.9585040323
 40
2.75
  0
ARC
  5
435
100
AcDbEntity
  8
6_ALL_SURFS
100
AcDbCircle
 62
7
  6
CONTINUOUS
 10
106.3801177419
 20
341.9604299624
 40
2.15
100
AcDbArc
 50
146.6800806294
 51
213.3199193706
  0
ARC
  5
436
100
AcDbEntity
  8
6_ALL_SURFS
100
AcDbCircle
 62
7
  6
CONTINUOUS
 10
106.3801177419
 20
359.3585040323
 40
1.5
100
AcDbArc
 50
270.0
 51
360.0
  0
ARC
  5
437
100
AcDbEntity
  8
6_ALL_SURFS
100
AcDbCircle
 62
7
  6
CONTINUOUS
 10
103.3301177419
 20
343.965423728
 40
1.5
100
AcDbArc
 50
326.6800806294
 51
334.2614445208
  0
ARC
  5
438
100
AcDbEntity
  8
6_ALL_SURFS
100
AcDbCircle
 62
7
  6
CONTINUOUS
 10
103.3301177419
 20
339.9554361968
 40
1.5
100
AcDbArc
 50
25.7385554792
 51
33.3199193706
  0
ARC
  5
439
100
AcDbEntity
  8
7_ALL_FEATURES
100
AcDbCircle
 62
7
  6
CONTINUOUS
 10
105.4301177419
 20
328.7085040323
 40
0.75
100
AcDbArc
 50
180.0
 51
270.0
  0
ARC
  5
43A
100
AcDbEntity
  8
6_ALL_SURFS
100
AcDbCircle
 62
7
  6
CONTINUOUS
 10
105.4301177419
 20
357.1085040323
 40
0.75
100
AcDbArc
 50
90.0
 51
180.0
  0
ARC
  5
43B
100
AcDbEntity
  8
6_ALL_SURFS
100
AcDbCircle
 62
7
  6
CONTINUOUS
 10
102.5301177419
 20
329.0585040323
 40
0.5
100
AcDbArc
 50
53.1301023542
 51
126.8698976458
  0
ARC
  5
43C
100
AcDbEntity
  8
6_ALL_SURFS
100
AcDbCircle
 62
7
  6
CONTINUOUS
 10
99.5301177419
 20
329.0585040323
 40
0.5
100
AcDbArc
 50
53.1301023542
 51
126.8698976458
  0
ARC
  5
43D
100
AcDbEntity
  8
6_ALL_SURFS
100
AcDbCircle
 62
7
  6
CONTINUOUS
 10
96.5301177419
 20
329.0585040323
 40
0.5
100
AcDbArc
 50
53.1301023542
 51
126.8698976458
  0
ARC
  5
43E
100
AcDbEntity
  8
6_ALL_SURFS
100
AcDbCircle
 62
7
  6
CONTINUOUS
 10
93.5301177419
 20
329.0585040323
 40
0.5
100
AcDbArc
 50
53.1301023542
 51
126.8698976458
  0
ARC
  5
43F
100
AcDbEntity
  8
6_ALL_SURFS
100
AcDbCircle
 62
7
  6
CONTINUOUS
 10
90.5301177419
 20
329.0585040323
 40
0.5
100
AcDbArc
 50
53.1301023542
 51
126.8698976458
  0
ARC
  5
440
100
AcDbEntity
  8
6_ALL_SURFS
100
AcDbCircle
 62
7
  6
CONTINUOUS
 10
85.2238210999
 20
330.0648006743
 40
0.3937033579
100
AcDbArc
 50
90.0
 51
264.2894068625
  0
ARC
  5
441
100
AcDbEntity
  8
6_ALL_SURFS
100
AcDbCircle
 62
7
  6
CONTINUOUS
 10
104.5301177419
 20
330.7585040323
 40
0.3
100
AcDbArc
 50
270.0
 51
300.1396113324
  0
ARC
  5
442
100
AcDbEntity
  8
6_ALL_SURFS
100
AcDbCircle
 62
7
  6
CONTINUOUS
 10
105.3801177419
 20
328.2585040323
 40
0.3
100
AcDbArc
 50
254.456567368
 51
270.0
  0
CIRCLE
  5
443
100
AcDbEntity
  8
3_ALL_AXES
100
AcDbCircle
 62
7
  6
CONTINUOUS
 10
113.8801177419
 20
419.5585040323
 40
2.75
  0
ARC
  5
444
100
AcDbEntity
  8
6_ALL_SURFS
100
AcDbCircle
 62
7
  6
CONTINUOUS
 10
124.0801177419
 20
420.9585040323
 40
1.8
100
AcDbArc
 50
90.0
 51
105.6234228216
  0
ARC
  5
445
100
AcDbEntity
  8
6_ALL_SURFS
100
AcDbCircle
 62
7
  6
CONTINUOUS
 10
123.2343664309
 20
421.7585040323
 40
1.0
100
AcDbArc
 50
48.5903778907
 51
90.0
  0
ARC
  5
446
100
AcDbEntity
  8
6_ALL_SURFS
100
AcDbCircle
 62
7
  6
CONTINUOUS
 10
110.6301177419
 20
422.0085040323
 40
0.75
100
AcDbArc
 50
90.0
 51
180.0
  0
ARC
  5
447
100
AcDbEntity
  8
6_ALL_SURFS
100
AcDbCircle
 62
7
  6
CONTINUOUS
 10
110.1801177419
 20
422.4585040323
 40
0.3
100
AcDbArc
 50
90.0
 51
180.0
  0
CIRCLE
  5
448
100
AcDbEntity
  8
3_ALL_AXES
100
AcDbCircle
 62
7
  6
CONTINUOUS
 10
144.1801177419
 20
353.9585040323
 40
2.75
  0
ARC
  5
449
100
AcDbEntity
  8
7_ALL_FEATURES
100
AcDbCircle
 62
7
  6
CONTINUOUS
 10
145.3801177419
 20
341.9604299624
 40
2.15
100
AcDbArc
 50
326.6800806294
 51
33.3199193706
  0
ARC
  5
44A
100
AcDbEntity
  8
6_ALL_SURFS
100
AcDbCircle
 62
7
  6
CONTINUOUS
 10
145.3801177419
 20
359.3585040323
 40
1.5
100
AcDbArc
 50
180.0
 51
270.0
  0
ARC
  5
44B
100
AcDbEntity
  8
7_ALL_FEATURES
100
AcDbCircle
 62
7
  6
CONTINUOUS
 10
148.4301177419
 20
343.965423728
 40
1.5
100
AcDbArc
 50
205.7385554792
 51
213.3199193706
  0
ARC
  5
44C
100
AcDbEntity
  8
7_ALL_FEATURES
100
AcDbCircle
 62
7
  6
CONTINUOUS
 10
148.4301177419
 20
339.9554361968
 40
1.5
100
AcDbArc
 50
146.6800806294
 51
154.2614445208
  0
ARC
  5
44D
100
AcDbEntity
  8
7_ALL_FEATURES
100
AcDbCircle
 62
7
  6
CONTINUOUS
 10
146.3301177419
 20
328.7085040323
 40
0.75
100
AcDbArc
 50
270.0
 51
360.0
  0
ARC
  5
44E
100
AcDbEntity
  8
6_ALL_SURFS
100
AcDbCircle
 62
7
  6
CONTINUOUS
 10
146.3301177419
 20
357.1085040323
 40
0.75
100
AcDbArc
 50
0.0
 51
90.0
  0
ARC
  5
44F
100
AcDbEntity
  8
7_ALL_FEATURES
100
AcDbCircle
 62
7
  6
CONTINUOUS
 10
161.2301177419
 20
329.0585040323
 40
0.5
100
AcDbArc
 50
53.1301023542
 51
126.8698976458
  0
ARC
  5
450
100
AcDbEntity
  8
7_ALL_FEATURES
100
AcDbCircle
 62
7
  6
CONTINUOUS
 10
158.2301177419
 20
329.0585040323
 40
0.5
100
AcDbArc
 50
53.1301023542
 51
126.8698976458
  0
ARC
  5
451
100
AcDbEntity
  8
7_ALL_FEATURES
100
AcDbCircle
 62
7
  6
CONTINUOUS
 10
155.2301177419
 20
329.0585040323
 40
0.5
100
AcDbArc
 50
53.1301023542
 51
126.8698976458
  0
ARC
  5
452
100
AcDbEntity
  8
7_ALL_FEATURES
100
AcDbCircle
 62
7
  6
CONTINUOUS
 10
152.2301177419
 20
329.0585040323
 40
0.5
100
AcDbArc
 50
53.1301023542
 51
126.8698976458
  0
ARC
  5
453
100
AcDbEntity
  8
7_ALL_FEATURES
100
AcDbCircle
 62
7
  6
CONTINUOUS
 10
149.2301177419
 20
329.0585040323
 40
0.5
100
AcDbArc
 50
53.1301023542
 51
126.8698976458
  0
ARC
  5
454
100
AcDbEntity
  8
7_ALL_FEATURES
100
AcDbCircle
 62
7
  6
CONTINUOUS
 10
166.536414384
 20
330.0648006743
 40
0.3937033579
100
AcDbArc
 50
275.7105931375
 51
90.0
  0
ARC
  5
455
100
AcDbEntity
  8
7_ALL_FEATURES
100
AcDbCircle
 62
7
  6
CONTINUOUS
 10
147.2301177419
 20
330.7585040323
 40
0.3
100
AcDbArc
 50
239.8603886676
 51
270.0
  0
ARC
  5
456
100
AcDbEntity
  8
7_ALL_FEATURES
100
AcDbCircle
 62
7
  6
CONTINUOUS
 10
146.3801177419
 20
328.2585040323
 40
0.3
100
AcDbArc
 50
270.0
 51
285.543432632
  0
ARC
  5
457
100
AcDbEntity
  8
6_ALL_SURFS
100
AcDbCircle
 62
7
  6
CONTINUOUS
 10
125.8801177419
 20
400.2585040323
 40
11.0
100
AcDbArc
 50
3.257196161
 51
176.742803839
  0
ARC
  5
458
100
AcDbEntity
  8
6_ALL_SURFS
100
AcDbCircle
 62
7
  6
CONTINUOUS
 10
125.8801177419
 20
400.2585040323
 40
11.0
100
AcDbArc
 50
183.257196161
 51
356.742803839
  0
ARC
  5
459
100
AcDbEntity
  8
6_ALL_SURFS
100
AcDbCircle
 62
7
  6
CONTINUOUS
 10
125.8801177419
 20
400.2585040323
 40
10.25
100
AcDbArc
 50
3.4958136324
 51
176.5041863676
  0
ARC
  5
45A
100
AcDbEntity
  8
6_ALL_SURFS
100
AcDbCircle
 62
7
  6
CONTINUOUS
 10
125.8801177419
 20
400.2585040323
 40
10.25
100
AcDbArc
 50
183.4958136324
 51
356.5041863676
  0
ARC
  5
45B
100
AcDbEntity
  8
6_ALL_SURFS
100
AcDbCircle
 62
7
  6
CONTINUOUS
 10
125.8801177419
 20
424.7585040323
 40
3.0
100
AcDbArc
 50
228.5903778907
 51
311.4096221093
  0
CIRCLE
  5
45C
100
AcDbEntity
  8
3_ALL_AXES
100
AcDbCircle
 62
7
  6
CONTINUOUS
 10
137.8801177419
 20
419.5585040323
 40
2.75
  0
ARC
  5
45D
100
AcDbEntity
  8
7_ALL_FEATURES
100
AcDbCircle
 62
7
  6
CONTINUOUS
 10
127.6801177419
 20
420.9585040323
 40
1.8
100
AcDbArc
 50
74.3765771784
 51
90.0
  0
ARC
  5
45E
100
AcDbEntity
  8
6_ALL_SURFS
100
AcDbCircle
 62
7
  6
CONTINUOUS
 10
128.525869053
 20
421.7585040323
 40
1.0
100
AcDbArc
 50
90.0
 51
131.4096221093
  0
ARC
  5
45F
100
AcDbEntity
  8
6_ALL_SURFS
100
AcDbCircle
 62
7
  6
CONTINUOUS
 10
141.1301177419
 20
422.0085040323
 40
0.75
100
AcDbArc
 50
0.0
 51
90.0
  0
ARC
  5
460
100
AcDbEntity
  8
7_ALL_FEATURES
100
AcDbCircle
 62
7
  6
CONTINUOUS
 10
141.5801177419
 20
422.4585040323
 40
0.3
100
AcDbArc
 50
0.0
 51
90.0
  0
ARC
  5
461
100
AcDbEntity
  8
7_ALL_FEATURES
100
AcDbCircle
 62
7
  6
CONTINUOUS
 10
292.0352822581
 20
509.8759072581
 40
4.7990381057
100
AcDbArc
 50
38.6913826582
 51
141.3086173418
  0
ARC
  5
462
100
AcDbEntity
  8
7_ALL_FEATURES
100
AcDbCircle
 62
7
  6
CONTINUOUS
 10
542.0352822581
 20
509.8759072581
 40
4.7990381057
100
AcDbArc
 50
38.6913826582
 51
141.3086173418
  0
ARC
  5
463
100
AcDbEntity
  8
7_ALL_FEATURES
100
AcDbCircle
 62
7
  6
CONTINUOUS
 10
542.0352822581
 20
509.8759072581
 40
4.7990381057
100
AcDbArc
 50
0.0
 51
30.0066305519
  0
ARC
  5
464
100
AcDbEntity
  8
7_ALL_FEATURES
100
AcDbCircle
 62
7
  6
CONTINUOUS
 10
292.0352822581
 20
509.8759072581
 40
4.7990381057
100
AcDbArc
 50
0.0
 51
30.0066305519
  0
ARC
  5
465
100
AcDbEntity
  8
7_ALL_FEATURES
100
AcDbCircle
 62
7
  6
CONTINUOUS
 10
542.0352822581
 20
509.8759072581
 40
4.7990381057
100
AcDbArc
 50
149.9933694481
 51
180.0
  0
ARC
  5
466
100
AcDbEntity
  8
7_ALL_FEATURES
100
AcDbCircle
 62
7
  6
CONTINUOUS
 10
292.0352822581
 20
509.8759072581
 40
4.7990381057
100
AcDbArc
 50
149.9933694481
 51
180.0
  0
ARC
  5
467
100
AcDbEntity
  8
7_ALL_FEATURES
100
AcDbCircle
 62
7
  6
CONTINUOUS
 10
542.0352822581
 20
509.8759072581
 40
4.7990381057
100
AcDbArc
 50
313.171184019
 51
352.8177973595
  0
ARC
  5
468
100
AcDbEntity
  8
7_ALL_FEATURES
100
AcDbCircle
 62
7
  6
CONTINUOUS
 10
292.0352822581
 20
509.8759072581
 40
4.7990381057
100
AcDbArc
 50
313.171184019
 51
352.8177973595
  0
ARC
  5
469
100
AcDbEntity
  8
7_ALL_FEATURES
100
AcDbCircle
 62
7
  6
CONTINUOUS
 10
542.0352822581
 20
509.8759072581
 40
4.7990381057
100
AcDbArc
 50
187.1822026405
 51
226.828815981
  0
ARC
  5
46A
100
AcDbEntity
  8
7_ALL_FEATURES
100
AcDbCircle
 62
7
  6
CONTINUOUS
 10
292.0352822581
 20
509.8759072581
 40
4.7990381057
100
AcDbArc
 50
187.1822026405
 51
226.828815981
  0
CIRCLE
  5
46B
100
AcDbEntity
  8
6_ALL_SURFS
100
AcDbCircle
 62
7
  6
CONTINUOUS
 10
292.0352822581
 20
509.8759072581
 40
3.5
  0
CIRCLE
  5
46C
100
AcDbEntity
  8
6_ALL_SURFS
100
AcDbCircle
 62
7
  6
CONTINUOUS
 10
542.0352822581
 20
509.8759072581
 40
3.5
  0
ARC
  5
46D
100
AcDbEntity
  8
6_ALL_SURFS
100
AcDbCircle
 62
7
  6
CONTINUOUS
 10
292.0352822581
 20
579.9759072581
 40
4.7990381057
100
AcDbArc
 50
133.171184019
 51
172.8177973595
  0
ARC
  5
46E
100
AcDbEntity
  8
6_ALL_SURFS
100
AcDbCircle
 62
7
  6
CONTINUOUS
 10
542.0352822581
 20
579.9759072581
 40
4.7990381057
100
AcDbArc
 50
133.171184019
 51
172.8177973595
  0
ARC
  5
46F
100
AcDbEntity
  8
6_ALL_SURFS
100
AcDbCircle
 62
7
  6
CONTINUOUS
 10
292.0352822581
 20
579.9759072581
 40
4.7990381057
100
AcDbArc
 50
7.1822026405
 51
46.828815981
  0
ARC
  5
470
100
AcDbEntity
  8
6_ALL_SURFS
100
AcDbCircle
 62
7
  6
CONTINUOUS
 10
542.0352822581
 20
579.9759072581
 40
4.7990381057
100
AcDbArc
 50
7.1822026405
 51
46.828815981
  0
ARC
  5
471
100
AcDbEntity
  8
6_ALL_SURFS
100
AcDbCircle
 62
7
  6
CONTINUOUS
 10
542.0352822581
 20
579.9759072581
 40
4.7990381057
100
AcDbArc
 50
218.6913826582
 51
321.3086173418
  0
ARC
  5
472
100
AcDbEntity
  8
6_ALL_SURFS
100
AcDbCircle
 62
7
  6
CONTINUOUS
 10
292.0352822581
 20
579.9759072581
 40
4.7990381057
100
AcDbArc
 50
218.6913826582
 51
321.3086173418
  0
ARC
  5
473
100
AcDbEntity
  8
6_ALL_SURFS
100
AcDbCircle
 62
7
  6
CONTINUOUS
 10
292.0352822581
 20
579.9759072581
 40
4.7990381057
100
AcDbArc
 50
180.0
 51
210.0066305519
  0
ARC
  5
474
100
AcDbEntity
  8
6_ALL_SURFS
100
AcDbCircle
 62
7
  6
CONTINUOUS
 10
542.0352822581
 20
579.9759072581
 40
4.7990381057
100
AcDbArc
 50
180.0
 51
210.0066305519
  0
ARC
  5
475
100
AcDbEntity
  8
6_ALL_SURFS
100
AcDbCircle
 62
7
  6
CONTINUOUS
 10
292.0352822581
 20
579.9759072581
 40
4.7990381057
100
AcDbArc
 50
329.9933694481
 51
360.0
  0
ARC
  5
476
100
AcDbEntity
  8
6_ALL_SURFS
100
AcDbCircle
 62
7
  6
CONTINUOUS
 10
542.0352822581
 20
579.9759072581
 40
4.7990381057
100
AcDbArc
 50
329.9933694481
 51
360.0
  0
CIRCLE
  5
477
100
AcDbEntity
  8
6_ALL_SURFS
100
AcDbCircle
 62
7
  6
CONTINUOUS
 10
292.0352822581
 20
579.9759072581
 40
3.5
  0
CIRCLE
  5
478
100
AcDbEntity
  8
6_ALL_SURFS
100
AcDbCircle
 62
7
  6
CONTINUOUS
 10
542.0352822581
 20
579.9759072581
 40
3.5
  0
ARC
  5
479
100
AcDbEntity
  8
7_ALL_FEATURES
100
AcDbCircle
 62
7
  6
CONTINUOUS
 10
1042.0352822581
 20
509.8759072581
 40
4.7990381057
100
AcDbArc
 50
38.6913826582
 51
141.3086173418
  0
ARC
  5
47A
100
AcDbEntity
  8
7_ALL_FEATURES
100
AcDbCircle
 62
7
  6
CONTINUOUS
 10
792.0352822581
 20
509.8759072581
 40
4.7990381057
100
AcDbArc
 50
38.6913826582
 51
141.3086173418
  0
ARC
  5
47B
100
AcDbEntity
  8
7_ALL_FEATURES
100
AcDbCircle
 62
7
  6
CONTINUOUS
 10
1042.0352822581
 20
509.8759072581
 40
4.7990381057
100
AcDbArc
 50
0.0
 51
30.0066305519
  0
ARC
  5
47C
100
AcDbEntity
  8
7_ALL_FEATURES
100
AcDbCircle
 62
7
  6
CONTINUOUS
 10
792.0352822581
 20
509.8759072581
 40
4.7990381057
100
AcDbArc
 50
0.0
 51
30.0066305519
  0
ARC
  5
47D
100
AcDbEntity
  8
7_ALL_FEATURES
100
AcDbCircle
 62
7
  6
CONTINUOUS
 10
1042.0352822581
 20
509.8759072581
 40
4.7990381057
100
AcDbArc
 50
149.9933694481
 51
180.0
  0
ARC
  5
47E
100
AcDbEntity
  8
7_ALL_FEATURES
100
AcDbCircle
 62
7
  6
CONTINUOUS
 10
792.0352822581
 20
509.8759072581
 40
4.7990381057
100
AcDbArc
 50
149.9933694481
 51
180.0
  0
ARC
  5
47F
100
AcDbEntity
  8
7_ALL_FEATURES
100
AcDbCircle
 62
7
  6
CONTINUOUS
 10
1042.0352822581
 20
509.8759072581
 40
4.7990381057
100
AcDbArc
 50
313.171184019
 51
352.8177973595
  0
ARC
  5
480
100
AcDbEntity
  8
7_ALL_FEATURES
100
AcDbCircle
 62
7
  6
CONTINUOUS
 10
792.0352822581
 20
509.8759072581
 40
4.7990381057
100
AcDbArc
 50
313.171184019
 51
352.8177973595
  0
ARC
  5
481
100
AcDbEntity
  8
7_ALL_FEATURES
100
AcDbCircle
 62
7
  6
CONTINUOUS
 10
1042.0352822581
 20
509.8759072581
 40
4.7990381057
100
AcDbArc
 50
187.1822026405
 51
226.828815981
  0
ARC
  5
482
100
AcDbEntity
  8
7_ALL_FEATURES
100
AcDbCircle
 62
7
  6
CONTINUOUS
 10
792.0352822581
 20
509.8759072581
 40
4.7990381057
100
AcDbArc
 50
187.1822026405
 51
226.828815981
  0
CIRCLE
  5
483
100
AcDbEntity
  8
6_ALL_SURFS
100
AcDbCircle
 62
7
  6
CONTINUOUS
 10
792.0352822581
 20
509.8759072581
 40
3.5
  0
CIRCLE
  5
484
100
AcDbEntity
  8
6_ALL_SURFS
100
AcDbCircle
 62
7
  6
CONTINUOUS
 10
1042.0352822581
 20
509.8759072581
 40
3.5
  0
ARC
  5
485
100
AcDbEntity
  8
6_ALL_SURFS
100
AcDbCircle
 62
7
  6
CONTINUOUS
 10
792.0352822581
 20
579.9759072581
 40
4.7990381057
100
AcDbArc
 50
133.171184019
 51
172.8177973595
  0
ARC
  5
486
100
AcDbEntity
  8
6_ALL_SURFS
100
AcDbCircle
 62
7
  6
CONTINUOUS
 10
1042.0352822581
 20
579.9759072581
 40
4.7990381057
100
AcDbArc
 50
133.171184019
 51
172.8177973595
  0
ARC
  5
487
100
AcDbEntity
  8
6_ALL_SURFS
100
AcDbCircle
 62
7
  6
CONTINUOUS
 10
792.0352822581
 20
579.9759072581
 40
4.7990381057
100
AcDbArc
 50
7.1822026405
 51
46.828815981
  0
ARC
  5
488
100
AcDbEntity
  8
6_ALL_SURFS
100
AcDbCircle
 62
7
  6
CONTINUOUS
 10
1042.0352822581
 20
579.9759072581
 40
4.7990381057
100
AcDbArc
 50
7.1822026405
 51
46.828815981
  0
ARC
  5
489
100
AcDbEntity
  8
6_ALL_SURFS
100
AcDbCircle
 62
7
  6
CONTINUOUS
 10
1042.0352822581
 20
579.9759072581
 40
4.7990381057
100
AcDbArc
 50
218.6913826582
 51
321.3086173418
  0
ARC
  5
48A
100
AcDbEntity
  8
6_ALL_SURFS
100
AcDbCircle
 62
7
  6
CONTINUOUS
 10
792.0352822581
 20
579.9759072581
 40
4.7990381057
100
AcDbArc
 50
218.6913826582
 51
321.3086173418
  0
ARC
  5
48B
100
AcDbEntity
  8
6_ALL_SURFS
100
AcDbCircle
 62
7
  6
CONTINUOUS
 10
792.0352822581
 20
579.9759072581
 40
4.7990381057
100
AcDbArc
 50
180.0
 51
210.0066305519
  0
ARC
  5
48C
100
AcDbEntity
  8
6_ALL_SURFS
100
AcDbCircle
 62
7
  6
CONTINUOUS
 10
1042.0352822581
 20
579.9759072581
 40
4.7990381057
100
AcDbArc
 50
180.0
 51
210.0066305519
  0
ARC
  5
48D
100
AcDbEntity
  8
6_ALL_SURFS
100
AcDbCircle
 62
7
  6
CONTINUOUS
 10
792.0352822581
 20
579.9759072581
 40
4.7990381057
100
AcDbArc
 50
329.9933694481
 51
360.0
  0
ARC
  5
48E
100
AcDbEntity
  8
6_ALL_SURFS
100
AcDbCircle
 62
7
  6
CONTINUOUS
 10
1042.0352822581
 20
579.9759072581
 40
4.7990381057
100
AcDbArc
 50
329.9933694481
 51
360.0
  0
CIRCLE
  5
48F
100
AcDbEntity
  8
6_ALL_SURFS
100
AcDbCircle
 62
7
  6
CONTINUOUS
 10
792.0352822581
 20
579.9759072581
 40
3.5
  0
CIRCLE
  5
490
100
AcDbEntity
  8
6_ALL_SURFS
100
AcDbCircle
 62
7
  6
CONTINUOUS
 10
1042.0352822581
 20
579.9759072581
 40
3.5
  0
SPLINE
  5
491
100
AcDbEntity
  8
6_ALL_SURFS
100
AcDbSpline
 62
7
  6
CONTINUOUS
 70
0
 71
3
 72
13
 73
9
 74
0
 42
0.0000001
 43
0.0000001
 44
0.0000000001
 40
0.0
 40
0.0
 40
0.0
 40
0.0
 40
0.2500858993
 40
0.5058798476
 40
0.6357184254
 40
0.7642140718
 40
0.8857065344
 40
1.0
 40
1.0
 40
1.0
 40
1.0
 10
787.8794710569
 20
577.5759072581
 30
0.0
 10
787.9417254872
 20
577.5459427384
 30
0.0
 10
788.0641593883
 20
577.477987976
 30
0.0
 10
788.2041846429
 20
577.3693082873
 30
0.0
 10
788.2954263004
 20
577.2596437294
 30
0.0
 10
788.3426583862
 20
577.1637892596
 30
0.0
 10
788.3446434894
 20
577.058445645
 30
0.0
 10
788.3101510194
 20
576.999806985
 30
0.0
 10
788.2895157491
 20
576.9759072581
 30
0.0
  0
SPLINE
  5
492
100
AcDbEntity
  8
6_ALL_SURFS
100
AcDbSpline
 62
7
  6
CONTINUOUS
 70
0
 71
3
 72
13
 73
9
 74
0
 42
0.0000001
 43
0.0000001
 44
0.0000000001
 40
0.0
 40
0.0
 40
0.0
 40
0.0
 40
0.1142576051
 40
0.2357181397
 40
0.3642097168
 40
0.4940607889
 40
0.749880224
 40
1.0
 40
1.0
 40
1.0
 40
1.0
 10
545.781048767
 20
576.9759072581
 30
0.0
 10
545.76041995
 20
576.9997995108
 30
0.0
 10
545.7259356155
 20
577.0584174776
 30
0.0
 10
545.7278923807
 20
577.1637388003
 30
0.0
 10
545.7751037474
 20
577.2595990435
 30
0.0
 10
545.8663485794
 20
577.3692736916
 30
0.0
 10
546.0063805462
 20
577.4779774042
 30
0.0
 10
546.1288305319
 20
577.5459386486
 30
0.0
 10
546.1910934592
 20
577.5759072581
 30
0.0
  0
SPLINE
  5
493
100
AcDbEntity
  8
6_ALL_SURFS
100
AcDbSpline
 62
7
  6
CONTINUOUS
 70
0
 71
3
 72
13
 73
9
 74
0
 42
0.0000001
 43
0.0000001
 44
0.0000000001
 40
0.0
 40
0.0
 40
0.0
 40
0.0
 40
0.2500858993
 40
0.5058798476
 40
0.6357184254
 40
0.7642140718
 40
0.8857065344
 40
1.0
 40
1.0
 40
1.0
 40
1.0
 10
1037.8794710569
 20
577.5759072581
 30
0.0
 10
1037.9417254872
 20
577.5459427384
 30
0.0
 10
1038.0641593883
 20
577.477987976
 30
0.0
 10
1038.2041846429
 20
577.3693082873
 30
0.0
 10
1038.2954263004
 20
577.2596437294
 30
0.0
 10
1038.3426583862
 20
577.1637892596
 30
0.0
 10
1038.3446434894
 20
577.058445645
 30
0.0
 10
1038.3101510194
 20
576.999806985
 30
0.0
 10
1038.2895157491
 20
576.9759072581
 30
0.0
  0
SPLINE
  5
494
100
AcDbEntity
  8
6_ALL_SURFS
100
AcDbSpline
 62
7
  6
CONTINUOUS
 70
0
 71
3
 72
13
 73
9
 74
0
 42
0.0000001
 43
0.0000001
 44
0.0000000001
 40
0.0
 40
0.0
 40
0.0
 40
0.0
 40
0.1142576051
 40
0.2357181397
 40
0.3642097168
 40
0.4940607889
 40
0.749880224
 40
1.0
 40
1.0
 40
1.0
 40
1.0
 10
795.781048767
 20
576.9759072581
 30
0.0
 10
795.76041995
 20
576.9997995108
 30
0.0
 10
795.7259356155
 20
577.0584174776
 30
0.0
 10
795.7278923807
 20
577.1637388003
 30
0.0
 10
795.7751037474
 20
577.2595990435
 30
0.0
 10
795.8663485794
 20
577.3692736916
 30
0.0
 10
796.0063805462
 20
577.4779774042
 30
0.0
 10
796.1288305319
 20
577.5459386486
 30
0.0
 10
796.1910934592
 20
577.5759072581
 30
0.0
  0
SPLINE
  5
495
100
AcDbEntity
  8
6_ALL_SURFS
100
AcDbSpline
 62
7
  6
CONTINUOUS
 70
0
 71
3
 72
13
 73
9
 74
0
 42
0.0000001
 43
0.0000001
 44
0.0000000001
 40
0.0
 40
0.0
 40
0.0
 40
0.0
 40
0.1142576051
 40
0.2357181397
 40
0.3642097168
 40
0.4940607889
 40
0.749880224
 40
1.0
 40
1.0
 40
1.0
 40
1.0
 10
1045.781048767
 20
576.9759072581
 30
0.0
 10
1045.76041995
 20
576.9997995108
 30
0.0
 10
1045.7259356155
 20
577.0584174776
 30
0.0
 10
1045.7278923807
 20
577.1637388003
 30
0.0
 10
1045.7751037474
 20
577.2595990435
 30
0.0
 10
1045.8663485794
 20
577.3692736916
 30
0.0
 10
1046.0063805462
 20
577.4779774042
 30
0.0
 10
1046.1288305319
 20
577.5459386486
 30
0.0
 10
1046.1910934592
 20
577.5759072581
 30
0.0
  0
SPLINE
  5
496
100
AcDbEntity
  8
6_ALL_SURFS
100
AcDbSpline
 62
7
  6
CONTINUOUS
 70
0
 71
3
 72
11
 73
7
 74
0
 42
0.0000001
 43
0.0000001
 44
0.0000000001
 40
0.0
 40
0.0
 40
0.0
 40
0.0
 40
0.2424773787
 40
0.4987751534
 40
0.7553987117
 40
1.0
 40
1.0
 40
1.0
 40
1.0
 10
287.273899398
 20
580.5759072581
 30
0.0
 10
287.3172456053
 20
580.5392755572
 30
0.0
 10
287.396957709
 20
580.4494310011
 30
0.0
 10
287.4374865654
 20
580.2662326925
 30
0.0
 10
287.3665014154
 20
580.0943899323
 30
0.0
 10
287.2816085734
 20
580.0108288056
 30
0.0
 10
287.2362441524
 20
579.9759072581
 30
0.0
  0
SPLINE
  5
497
100
AcDbEntity
  8
6_ALL_SURFS
100
AcDbSpline
 62
7
  6
CONTINUOUS
 70
0
 71
3
 72
11
 73
7
 74
0
 42
0.0000001
 43
0.0000001
 44
0.0000000001
 40
0.0
 40
0.0
 40
0.0
 40
0.0
 40
0.2424773787
 40
0.4987751534
 40
0.7553987117
 40
1.0
 40
1.0
 40
1.0
 40
1.0
 10
537.273899398
 20
580.5759072581
 30
0.0
 10
537.3172456053
 20
580.5392755572
 30
0.0
 10
537.396957709
 20
580.4494310011
 30
0.0
 10
537.4374865654
 20
580.2662326925
 30
0.0
 10
537.3665014154
 20
580.0943899323
 30
0.0
 10
537.2816085734
 20
580.0108288056
 30
0.0
 10
537.2362441524
 20
579.9759072581
 30
0.0
  0
SPLINE
  5
498
100
AcDbEntity
  8
6_ALL_SURFS
100
AcDbSpline
 62
7
  6
CONTINUOUS
 70
0
 71
3
 72
11
 73
7
 74
0
 42
0.0000001
 43
0.0000001
 44
0.0000000001
 40
0.0
 40
0.0
 40
0.0
 40
0.0
 40
0.2446012883
 40
0.5012248466
 40
0.7575226213
 40
1.0
 40
1.0
 40
1.0
 40
1.0
 10
296.8343203637
 20
579.9759072581
 30
0.0
 10
296.7889559428
 20
580.0108288056
 30
0.0
 10
296.7040631007
 20
580.0943899323
 30
0.0
 10
296.6330779507
 20
580.2662326925
 30
0.0
 10
296.6736068072
 20
580.4494310011
 30
0.0
 10
296.7533189109
 20
580.5392755572
 30
0.0
 10
296.7966651181
 20
580.5759072581
 30
0.0
  0
SPLINE
  5
499
100
AcDbEntity
  8
6_ALL_SURFS
100
AcDbSpline
 62
7
  6
CONTINUOUS
 70
0
 71
3
 72
11
 73
7
 74
0
 42
0.0000001
 43
0.0000001
 44
0.0000000001
 40
0.0
 40
0.0
 40
0.0
 40
0.0
 40
0.2424773787
 40
0.4987751534
 40
0.7553987117
 40
1.0
 40
1.0
 40
1.0
 40
1.0
 10
787.273899398
 20
580.5759072581
 30
0.0
 10
787.3172456053
 20
580.5392755572
 30
0.0
 10
787.396957709
 20
580.4494310011
 30
0.0
 10
787.4374865654
 20
580.2662326925
 30
0.0
 10
787.3665014154
 20
580.0943899323
 30
0.0
 10
787.2816085734
 20
580.0108288056
 30
0.0
 10
787.2362441524
 20
579.9759072581
 30
0.0
  0
SPLINE
  5
49A
100
AcDbEntity
  8
6_ALL_SURFS
100
AcDbSpline
 62
7
  6
CONTINUOUS
 70
0
 71
3
 72
11
 73
7
 74
0
 42
0.0000001
 43
0.0000001
 44
0.0000000001
 40
0.0
 40
0.0
 40
0.0
 40
0.0
 40
0.2446012883
 40
0.5012248466
 40
0.7575226213
 40
1.0
 40
1.0
 40
1.0
 40
1.0
 10
546.8343203637
 20
579.9759072581
 30
0.0
 10
546.7889559428
 20
580.0108288056
 30
0.0
 10
546.7040631007
 20
580.0943899323
 30
0.0
 10
546.6330779507
 20
580.2662326925
 30
0.0
 10
546.6736068072
 20
580.4494310011
 30
0.0
 10
546.7533189109
 20
580.5392755572
 30
0.0
 10
546.7966651181
 20
580.5759072581
 30
0.0
  0
SPLINE
  5
49B
100
AcDbEntity
  8
6_ALL_SURFS
100
AcDbSpline
 62
7
  6
CONTINUOUS
 70
0
 71
3
 72
11
 73
7
 74
0
 42
0.0000001
 43
0.0000001
 44
0.0000000001
 40
0.0
 40
0.0
 40
0.0
 40
0.0
 40
0.2424773787
 40
0.4987751534
 40
0.7553987117
 40
1.0
 40
1.0
 40
1.0
 40
1.0
 10
1037.273899398
 20
580.5759072581
 30
0.0
 10
1037.3172456053
 20
580.5392755572
 30
0.0
 10
1037.396957709
 20
580.4494310011
 30
0.0
 10
1037.4374865654
 20
580.2662326925
 30
0.0
 10
1037.3665014154
 20
580.0943899323
 30
0.0
 10
1037.2816085734
 20
580.0108288056
 30
0.0
 10
1037.2362441524
 20
579.9759072581
 30
0.0
  0
SPLINE
  5
49C
100
AcDbEntity
  8
6_ALL_SURFS
100
AcDbSpline
 62
7
  6
CONTINUOUS
 70
0
 71
3
 72
11
 73
7
 74
0
 42
0.0000001
 43
0.0000001
 44
0.0000000001
 40
0.0
 40
0.0
 40
0.0
 40
0.0
 40
0.2446012883
 40
0.5012248466
 40
0.7575226213
 40
1.0
 40
1.0
 40
1.0
 40
1.0
 10
796.8343203637
 20
579.9759072581
 30
0.0
 10
796.7889559428
 20
580.0108288056
 30
0.0
 10
796.7040631007
 20
580.0943899323
 30
0.0
 10
796.6330779507
 20
580.2662326925
 30
0.0
 10
796.6736068072
 20
580.4494310011
 30
0.0
 10
796.7533189109
 20
580.5392755572
 30
0.0
 10
796.7966651181
 20
580.5759072581
 30
0.0
  0
SPLINE
  5
49D
100
AcDbEntity
  8
7_ALL_FEATURES
100
AcDbSpline
 62
7
  6
CONTINUOUS
 70
0
 71
3
 72
13
 73
9
 74
0
 42
0.0000001
 43
0.0000001
 44
0.0000000001
 40
0.0
 40
0.0
 40
0.0
 40
0.0
 40
0.1142576051
 40
0.2357181397
 40
0.3642097168
 40
0.4940607889
 40
0.749880224
 40
1.0
 40
1.0
 40
1.0
 40
1.0
 10
1045.781048767
 20
512.8759072581
 30
0.0
 10
1045.76041995
 20
512.8520150053
 30
0.0
 10
1045.7259356155
 20
512.7933970385
 30
0.0
 10
1045.7278923807
 20
512.6880757158
 30
0.0
 10
1045.7751037474
 20
512.5922154726
 30
0.0
 10
1045.8663485794
 20
512.4825408245
 30
0.0
 10
1046.0063805462
 20
512.3738371119
 30
0.0
 10
1046.1288305319
 20
512.3058758675
 30
0.0
 10
1046.1910934592
 20
512.2759072581
 30
0.0
  0
SPLINE
  5
49E
100
AcDbEntity
  8
7_ALL_FEATURES
100
AcDbSpline
 62
7
  6
CONTINUOUS
 70
0
 71
3
 72
13
 73
9
 74
0
 42
0.0000001
 43
0.0000001
 44
0.0000000001
 40
0.0
 40
0.0
 40
0.0
 40
0.0
 40
0.1142576051
 40
0.2357181397
 40
0.3642097168
 40
0.4940607889
 40
0.749880224
 40
1.0
 40
1.0
 40
1.0
 40
1.0
 10
795.781048767
 20
512.8759072581
 30
0.0
 10
795.76041995
 20
512.8520150053
 30
0.0
 10
795.7259356155
 20
512.7933970385
 30
0.0
 10
795.7278923807
 20
512.6880757158
 30
0.0
 10
795.7751037474
 20
512.5922154726
 30
0.0
 10
795.8663485794
 20
512.4825408245
 30
0.0
 10
796.0063805462
 20
512.3738371119
 30
0.0
 10
796.1288305319
 20
512.3058758675
 30
0.0
 10
796.1910934592
 20
512.2759072581
 30
0.0
  0
SPLINE
  5
49F
100
AcDbEntity
  8
7_ALL_FEATURES
100
AcDbSpline
 62
7
  6
CONTINUOUS
 70
0
 71
3
 72
13
 73
9
 74
0
 42
0.0000001
 43
0.0000001
 44
0.0000000001
 40
0.0
 40
0.0
 40
0.0
 40
0.0
 40
0.2500858993
 40
0.5058798476
 40
0.6357184254
 40
0.7642140718
 40
0.8857065344
 40
1.0
 40
1.0
 40
1.0
 40
1.0
 10
1037.8794710569
 20
512.2759072581
 30
0.0
 10
1037.9417254872
 20
512.3058717777
 30
0.0
 10
1038.0641593883
 20
512.3738265401
 30
0.0
 10
1038.2041846429
 20
512.4825062288
 30
0.0
 10
1038.2954263004
 20
512.5921707868
 30
0.0
 10
1038.3426583862
 20
512.6880252566
 30
0.0
 10
1038.3446434894
 20
512.7933688711
 30
0.0
 10
1038.3101510194
 20
512.8520075311
 30
0.0
 10
1038.2895157491
 20
512.8759072581
 30
0.0
  0
SPLINE
  5
4A0
100
AcDbEntity
  8
7_ALL_FEATURES
100
AcDbSpline
 62
7
  6
CONTINUOUS
 70
0
 71
3
 72
13
 73
9
 74
0
 42
0.0000001
 43
0.0000001
 44
0.0000000001
 40
0.0
 40
0.0
 40
0.0
 40
0.0
 40
0.1142576051
 40
0.2357181397
 40
0.3642097168
 40
0.4940607889
 40
0.749880224
 40
1.0
 40
1.0
 40
1.0
 40
1.0
 10
545.781048767
 20
512.8759072581
 30
0.0
 10
545.76041995
 20
512.8520150053
 30
0.0
 10
545.7259356155
 20
512.7933970385
 30
0.0
 10
545.7278923807
 20
512.6880757158
 30
0.0
 10
545.7751037474
 20
512.5922154726
 30
0.0
 10
545.8663485794
 20
512.4825408245
 30
0.0
 10
546.0063805462
 20
512.3738371119
 30
0.0
 10
546.1288305319
 20
512.3058758675
 30
0.0
 10
546.1910934592
 20
512.2759072581
 30
0.0
  0
SPLINE
  5
4A1
100
AcDbEntity
  8
7_ALL_FEATURES
100
AcDbSpline
 62
7
  6
CONTINUOUS
 70
0
 71
3
 72
13
 73
9
 74
0
 42
0.0000001
 43
0.0000001
 44
0.0000000001
 40
0.0
 40
0.0
 40
0.0
 40
0.0
 40
0.2500858993
 40
0.5058798476
 40
0.6357184254
 40
0.7642140718
 40
0.8857065344
 40
1.0
 40
1.0
 40
1.0
 40
1.0
 10
787.8794710569
 20
512.2759072581
 30
0.0
 10
787.9417254872
 20
512.3058717777
 30
0.0
 10
788.0641593883
 20
512.3738265401
 30
0.0
 10
788.2041846429
 20
512.4825062288
 30
0.0
 10
788.2954263004
 20
512.5921707868
 30
0.0
 10
788.3426583862
 20
512.6880252566
 30
0.0
 10
788.3446434894
 20
512.7933688711
 30
0.0
 10
788.3101510194
 20
512.8520075311
 30
0.0
 10
788.2895157491
 20
512.8759072581
 30
0.0
  0
SPLINE
  5
4A2
100
AcDbEntity
  8
7_ALL_FEATURES
100
AcDbSpline
 62
7
  6
CONTINUOUS
 70
0
 71
3
 72
13
 73
9
 74
0
 42
0.0000001
 43
0.0000001
 44
0.0000000001
 40
0.0
 40
0.0
 40
0.0
 40
0.0
 40
0.1142576051
 40
0.2357181397
 40
0.3642097168
 40
0.4940607889
 40
0.749880224
 40
1.0
 40
1.0
 40
1.0
 40
1.0
 10
295.781048767
 20
512.8759072581
 30
0.0
 10
295.76041995
 20
512.8520150053
 30
0.0
 10
295.7259356155
 20
512.7933970385
 30
0.0
 10
295.7278923807
 20
512.6880757158
 30
0.0
 10
295.7751037474
 20
512.5922154726
 30
0.0
 10
295.8663485794
 20
512.4825408245
 30
0.0
 10
296.0063805462
 20
512.3738371119
 30
0.0
 10
296.1288305319
 20
512.3058758675
 30
0.0
 10
296.1910934592
 20
512.2759072581
 30
0.0
  0
SPLINE
  5
4A3
100
AcDbEntity
  8
7_ALL_FEATURES
100
AcDbSpline
 62
7
  6
CONTINUOUS
 70
0
 71
3
 72
13
 73
9
 74
0
 42
0.0000001
 43
0.0000001
 44
0.0000000001
 40
0.0
 40
0.0
 40
0.0
 40
0.0
 40
0.2500858993
 40
0.5058798476
 40
0.6357184254
 40
0.7642140718
 40
0.8857065344
 40
1.0
 40
1.0
 40
1.0
 40
1.0
 10
537.8794710569
 20
512.2759072581
 30
0.0
 10
537.9417254872
 20
512.3058717777
 30
0.0
 10
538.0641593883
 20
512.3738265401
 30
0.0
 10
538.2041846429
 20
512.4825062288
 30
0.0
 10
538.2954263004
 20
512.5921707868
 30
0.0
 10
538.3426583862
 20
512.6880252566
 30
0.0
 10
538.3446434894
 20
512.7933688711
 30
0.0
 10
538.3101510194
 20
512.8520075311
 30
0.0
 10
538.2895157491
 20
512.8759072581
 30
0.0
  0
SPLINE
  5
4A4
100
AcDbEntity
  8
7_ALL_FEATURES
100
AcDbSpline
 62
7
  6
CONTINUOUS
 70
0
 71
3
 72
13
 73
9
 74
0
 42
0.0000001
 43
0.0000001
 44
0.0000000001
 40
0.0
 40
0.0
 40
0.0
 40
0.0
 40
0.2500858993
 40
0.5058798476
 40
0.6357184254
 40
0.7642140718
 40
0.8857065344
 40
1.0
 40
1.0
 40
1.0
 40
1.0
 10
287.8794710569
 20
512.2759072581
 30
0.0
 10
287.9417254872
 20
512.3058717777
 30
0.0
 10
288.0641593883
 20
512.3738265401
 30
0.0
 10
288.2041846429
 20
512.4825062288
 30
0.0
 10
288.2954263004
 20
512.5921707868
 30
0.0
 10
288.3426583862
 20
512.6880252566
 30
0.0
 10
288.3446434894
 20
512.7933688711
 30
0.0
 10
288.3101510194
 20
512.8520075311
 30
0.0
 10
288.2895157491
 20
512.8759072581
 30
0.0
  0
SPLINE
  5
4A5
100
AcDbEntity
  8
7_ALL_FEATURES
100
AcDbSpline
 62
7
  6
CONTINUOUS
 70
0
 71
3
 72
11
 73
7
 74
0
 42
0.0000001
 43
0.0000001
 44
0.0000000001
 40
0.0
 40
0.0
 40
0.0
 40
0.0
 40
0.2446012883
 40
0.5012248466
 40
0.7575226213
 40
1.0
 40
1.0
 40
1.0
 40
1.0
 10
1046.8343203637
 20
509.8759072581
 30
0.0
 10
1046.7889559428
 20
509.8409857105
 30
0.0
 10
1046.7040631007
 20
509.7574245838
 30
0.0
 10
1046.6330779507
 20
509.5855818236
 30
0.0
 10
1046.6736068072
 20
509.402383515
 30
0.0
 10
1046.7533189109
 20
509.3125389589
 30
0.0
 10
1046.7966651181
 20
509.2759072581
 30
0.0
  0
SPLINE
  5
4A6
100
AcDbEntity
  8
7_ALL_FEATURES
100
AcDbSpline
 62
7
  6
CONTINUOUS
 70
0
 71
3
 72
11
 73
7
 74
0
 42
0.0000001
 43
0.0000001
 44
0.0000000001
 40
0.0
 40
0.0
 40
0.0
 40
0.0
 40
0.2446012883
 40
0.5012248466
 40
0.7575226213
 40
1.0
 40
1.0
 40
1.0
 40
1.0
 10
796.8343203637
 20
509.8759072581
 30
0.0
 10
796.7889559428
 20
509.8409857105
 30
0.0
 10
796.7040631007
 20
509.7574245838
 30
0.0
 10
796.6330779507
 20
509.5855818236
 30
0.0
 10
796.6736068072
 20
509.402383515
 30
0.0
 10
796.7533189109
 20
509.3125389589
 30
0.0
 10
796.7966651181
 20
509.2759072581
 30
0.0
  0
SPLINE
  5
4A7
100
AcDbEntity
  8
7_ALL_FEATURES
100
AcDbSpline
 62
7
  6
CONTINUOUS
 70
0
 71
3
 72
11
 73
7
 74
0
 42
0.0000001
 43
0.0000001
 44
0.0000000001
 40
0.0
 40
0.0
 40
0.0
 40
0.0
 40
0.2424773787
 40
0.4987751534
 40
0.7553987117
 40
1.0
 40
1.0
 40
1.0
 40
1.0
 10
1037.273899398
 20
509.2759072581
 30
0.0
 10
1037.3172456053
 20
509.3125389589
 30
0.0
 10
1037.396957709
 20
509.402383515
 30
0.0
 10
1037.4374865654
 20
509.5855818236
 30
0.0
 10
1037.3665014154
 20
509.7574245838
 30
0.0
 10
1037.2816085734
 20
509.8409857105
 30
0.0
 10
1037.2362441524
 20
509.8759072581
 30
0.0
  0
SPLINE
  5
4A8
100
AcDbEntity
  8
7_ALL_FEATURES
100
AcDbSpline
 62
7
  6
CONTINUOUS
 70
0
 71
3
 72
11
 73
7
 74
0
 42
0.0000001
 43
0.0000001
 44
0.0000000001
 40
0.0
 40
0.0
 40
0.0
 40
0.0
 40
0.2446012883
 40
0.5012248466
 40
0.7575226213
 40
1.0
 40
1.0
 40
1.0
 40
1.0
 10
546.8343203637
 20
509.8759072581
 30
0.0
 10
546.7889559428
 20
509.8409857105
 30
0.0
 10
546.7040631007
 20
509.7574245838
 30
0.0
 10
546.6330779507
 20
509.5855818236
 30
0.0
 10
546.6736068072
 20
509.402383515
 30
0.0
 10
546.7533189109
 20
509.3125389589
 30
0.0
 10
546.7966651181
 20
509.2759072581
 30
0.0
  0
SPLINE
  5
4A9
100
AcDbEntity
  8
7_ALL_FEATURES
100
AcDbSpline
 62
7
  6
CONTINUOUS
 70
0
 71
3
 72
11
 73
7
 74
0
 42
0.0000001
 43
0.0000001
 44
0.0000000001
 40
0.0
 40
0.0
 40
0.0
 40
0.0
 40
0.2424773787
 40
0.4987751534
 40
0.7553987117
 40
1.0
 40
1.0
 40
1.0
 40
1.0
 10
787.273899398
 20
509.2759072581
 30
0.0
 10
787.3172456053
 20
509.3125389589
 30
0.0
 10
787.396957709
 20
509.402383515
 30
0.0
 10
787.4374865654
 20
509.5855818236
 30
0.0
 10
787.3665014154
 20
509.7574245838
 30
0.0
 10
787.2816085734
 20
509.8409857105
 30
0.0
 10
787.2362441524
 20
509.8759072581
 30
0.0
  0
SPLINE
  5
4AA
100
AcDbEntity
  8
7_ALL_FEATURES
100
AcDbSpline
 62
7
  6
CONTINUOUS
 70
0
 71
3
 72
11
 73
7
 74
0
 42
0.0000001
 43
0.0000001
 44
0.0000000001
 40
0.0
 40
0.0
 40
0.0
 40
0.0
 40
0.2446012883
 40
0.5012248466
 40
0.7575226213
 40
1.0
 40
1.0
 40
1.0
 40
1.0
 10
296.8343203637
 20
509.8759072581
 30
0.0
 10
296.7889559428
 20
509.8409857105
 30
0.0
 10
296.7040631007
 20
509.7574245838
 30
0.0
 10
296.6330779507
 20
509.5855818236
 30
0.0
 10
296.6736068072
 20
509.402383515
 30
0.0
 10
296.7533189109
 20
509.3125389589
 30
0.0
 10
296.7966651181
 20
509.2759072581
 30
0.0
  0
SPLINE
  5
4AB
100
AcDbEntity
  8
7_ALL_FEATURES
100
AcDbSpline
 62
7
  6
CONTINUOUS
 70
0
 71
3
 72
11
 73
7
 74
0
 42
0.0000001
 43
0.0000001
 44
0.0000000001
 40
0.0
 40
0.0
 40
0.0
 40
0.0
 40
0.2424773787
 40
0.4987751534
 40
0.7553987117
 40
1.0
 40
1.0
 40
1.0
 40
1.0
 10
537.273899398
 20
509.2759072581
 30
0.0
 10
537.3172456053
 20
509.3125389589
 30
0.0
 10
537.396957709
 20
509.402383515
 30
0.0
 10
537.4374865654
 20
509.5855818236
 30
0.0
 10
537.3665014154
 20
509.7574245838
 30
0.0
 10
537.2816085734
 20
509.8409857105
 30
0.0
 10
537.2362441524
 20
509.8759072581
 30
0.0
  0
SPLINE
  5
4AC
100
AcDbEntity
  8
7_ALL_FEATURES
100
AcDbSpline
 62
7
  6
CONTINUOUS
 70
0
 71
3
 72
11
 73
7
 74
0
 42
0.0000001
 43
0.0000001
 44
0.0000000001
 40
0.0
 40
0.0
 40
0.0
 40
0.0
 40
0.2424773787
 40
0.4987751534
 40
0.7553987117
 40
1.0
 40
1.0
 40
1.0
 40
1.0
 10
287.273899398
 20
509.2759072581
 30
0.0
 10
287.3172456053
 20
509.3125389589
 30
0.0
 10
287.396957709
 20
509.402383515
 30
0.0
 10
287.4374865654
 20
509.5855818236
 30
0.0
 10
287.3665014154
 20
509.7574245838
 30
0.0
 10
287.2816085734
 20
509.8409857105
 30
0.0
 10
287.2362441524
 20
509.8759072581
 30
0.0
  0
SPLINE
  5
4AD
100
AcDbEntity
  8
6_ALL_SURFS
100
AcDbSpline
 62
7
  6
CONTINUOUS
 70
0
 71
3
 72
11
 73
7
 74
0
 42
0.0000001
 43
0.0000001
 44
0.0000000001
 40
0.0
 40
0.0
 40
0.0
 40
0.0
 40
0.2446012883
 40
0.5012248466
 40
0.7575226213
 40
1.0
 40
1.0
 40
1.0
 40
1.0
 10
1046.8343203637
 20
579.9759072581
 30
0.0
 10
1046.7889559428
 20
580.0108288056
 30
0.0
 10
1046.7040631007
 20
580.0943899323
 30
0.0
 10
1046.6330779507
 20
580.2662326925
 30
0.0
 10
1046.6736068072
 20
580.4494310011
 30
0.0
 10
1046.7533189109
 20
580.5392755572
 30
0.0
 10
1046.7966651181
 20
580.5759072581
 30
0.0
  0
SPLINE
  5
4AE
100
AcDbEntity
  8
6_ALL_SURFS
100
AcDbSpline
 62
7
  6
CONTINUOUS
 70
0
 71
3
 72
13
 73
9
 74
0
 42
0.0000001
 43
0.0000001
 44
0.0000000001
 40
0.0
 40
0.0
 40
0.0
 40
0.0
 40
0.2500858993
 40
0.5058798476
 40
0.6357184254
 40
0.7642140718
 40
0.8857065344
 40
1.0
 40
1.0
 40
1.0
 40
1.0
 10
287.8794710569
 20
577.5759072581
 30
0.0
 10
287.9417254872
 20
577.5459427384
 30
0.0
 10
288.0641593883
 20
577.477987976
 30
0.0
 10
288.2041846429
 20
577.3693082873
 30
0.0
 10
288.2954263004
 20
577.2596437294
 30
0.0
 10
288.3426583862
 20
577.1637892596
 30
0.0
 10
288.3446434894
 20
577.058445645
 30
0.0
 10
288.3101510194
 20
576.999806985
 30
0.0
 10
288.2895157491
 20
576.9759072581
 30
0.0
  0
SPLINE
  5
4AF
100
AcDbEntity
  8
6_ALL_SURFS
100
AcDbSpline
 62
7
  6
CONTINUOUS
 70
0
 71
3
 72
13
 73
9
 74
0
 42
0.0000001
 43
0.0000001
 44
0.0000000001
 40
0.0
 40
0.0
 40
0.0
 40
0.0
 40
0.2500858993
 40
0.5058798476
 40
0.6357184254
 40
0.7642140718
 40
0.8857065344
 40
1.0
 40
1.0
 40
1.0
 40
1.0
 10
537.8794710569
 20
577.5759072581
 30
0.0
 10
537.9417254872
 20
577.5459427384
 30
0.0
 10
538.0641593883
 20
577.477987976
 30
0.0
 10
538.2041846429
 20
577.3693082873
 30
0.0
 10
538.2954263004
 20
577.2596437294
 30
0.0
 10
538.3426583862
 20
577.1637892596
 30
0.0
 10
538.3446434894
 20
577.058445645
 30
0.0
 10
538.3101510194
 20
576.999806985
 30
0.0
 10
538.2895157491
 20
576.9759072581
 30
0.0
  0
SPLINE
  5
4B0
100
AcDbEntity
  8
6_ALL_SURFS
100
AcDbSpline
 62
7
  6
CONTINUOUS
 70
0
 71
3
 72
13
 73
9
 74
0
 42
0.0000001
 43
0.0000001
 44
0.0000000001
 40
0.0
 40
0.0
 40
0.0
 40
0.0
 40
0.1142576051
 40
0.2357181397
 40
0.3642097168
 40
0.4940607889
 40
0.749880224
 40
1.0
 40
1.0
 40
1.0
 40
1.0
 10
295.781048767
 20
576.9759072581
 30
0.0
 10
295.76041995
 20
576.9997995108
 30
0.0
 10
295.7259356155
 20
577.0584174776
 30
0.0
 10
295.7278923807
 20
577.1637388003
 30
0.0
 10
295.7751037474
 20
577.2595990435
 30
0.0
 10
295.8663485794
 20
577.3692736916
 30
0.0
 10
296.0063805462
 20
577.4779774042
 30
0.0
 10
296.1288305319
 20
577.5459386486
 30
0.0
 10
296.1910934592
 20
577.5759072581
 30
0.0
  0
ELLIPSE
  5
4B1
100
AcDbEntity
  8
6_ALL_SURFS
100
AcDbEllipse
 62
7
  6
CONTINUOUS
 10
1042.0352822581
 20
332.2585040323
 30
0.0
 11
3.5
 21
0.0
 31
0.0
 40
0.5
 41
-1.910488903
 42
-1.2311037506
  0
ELLIPSE
  5
4B2
100
AcDbEntity
  8
6_ALL_SURFS
100
AcDbEllipse
 62
7
  6
CONTINUOUS
 10
792.0352822581
 20
332.2585040323
 30
0.0
 11
3.5
 21
-0.0
 31
0.0
 40
0.5
 41
-1.910488903
 42
-1.2311037506
  0
ELLIPSE
  5
4B3
100
AcDbEntity
  8
6_ALL_SURFS
100
AcDbEllipse
 62
7
  6
CONTINUOUS
 10
542.0352822581
 20
332.2585040323
 30
0.0
 11
3.5
 21
0.0
 31
0.0
 40
0.5
 41
-1.910488903
 42
-1.2311037506
  0
ELLIPSE
  5
4B4
100
AcDbEntity
  8
6_ALL_SURFS
100
AcDbEllipse
 62
7
  6
CONTINUOUS
 10
292.0352822581
 20
332.2585040323
 30
0.0
 11
3.5
 21
0.0
 31
0.0
 40
0.5
 41
4.3726964042
 42
5.0520815566
  0
ELLIPSE
  5
4B5
100
AcDbEntity
  8
6_ALL_SURFS
100
AcDbEllipse
 62
7
  6
CONTINUOUS
 10
292.0352822581
 20
329.0119867351
 30
0.0
 11
5.4882058378
 21
-0.0
 31
0.0
 40
0.1015346165
 41
0.9294607698
 42
2.2121318838
  0
ELLIPSE
  5
4B6
100
AcDbEntity
  8
6_ALL_SURFS
100
AcDbEllipse
 62
7
  6
CONTINUOUS
 10
542.0352822581
 20
329.0119867351
 30
0.0
 11
5.4882058378
 21
0.0
 31
0.0
 40
0.1015346165
 41
0.9294607698
 42
2.2121318838
  0
ELLIPSE
  5
4B7
100
AcDbEntity
  8
6_ALL_SURFS
100
AcDbEllipse
 62
7
  6
CONTINUOUS
 10
792.0352822581
 20
329.0119867351
 30
0.0
 11
5.4882058378
 21
0.0
 31
0.0
 40
0.1015346165
 41
0.9294607698
 42
2.2121318838
  0
ELLIPSE
  5
4B8
100
AcDbEntity
  8
6_ALL_SURFS
100
AcDbEllipse
 62
7
  6
CONTINUOUS
 10
1042.0352822581
 20
329.0119867351
 30
0.0
 11
5.4882058378
 21
-0.0
 31
0.0
 40
0.1015346165
 41
0.9294607698
 42
2.2121318838
  0
ELLIPSE
  5
4B9
100
AcDbEntity
  8
7_ALL_FEATURES
100
AcDbEllipse
 62
7
  6
CONTINUOUS
 10
292.0352822581
 20
510.8410802299
 30
0.0
 11
0.0
 21
5.5724287509
 31
0.0
 40
0.9848857802
 41
2.5002570966
 42
3.7829282106
  0
ELLIPSE
  5
4BA
100
AcDbEntity
  8
7_ALL_FEATURES
100
AcDbEllipse
 62
7
  6
CONTINUOUS
 10
542.0352822581
 20
510.8410802299
 30
0.0
 11
0.0
 21
5.5724287509
 31
0.0
 40
0.9848857802
 41
2.5002570966
 42
3.7829282106
  0
ELLIPSE
  5
4BB
100
AcDbEntity
  8
7_ALL_FEATURES
100
AcDbEllipse
 62
7
  6
CONTINUOUS
 10
792.0352822581
 20
510.8410802299
 30
0.0
 11
0.0
 21
5.5724287509
 31
0.0
 40
0.9848857802
 41
2.5002570966
 42
3.7829282106
  0
ELLIPSE
  5
4BC
100
AcDbEntity
  8
7_ALL_FEATURES
100
AcDbEllipse
 62
7
  6
CONTINUOUS
 10
1042.0352822581
 20
510.8410802299
 30
0.0
 11
0.0
 21
5.5724287509
 31
0.0
 40
0.9848857802
 41
2.5002570966
 42
3.7829282106
  0
ELLIPSE
  5
4BD
100
AcDbEntity
  8
6_ALL_SURFS
100
AcDbEllipse
 62
7
  6
CONTINUOUS
 10
292.0352822581
 20
579.0107342863
 30
0.0
 11
0.0
 21
5.5724287509
 31
0.0
 40
0.9848857802
 41
-0.641335557
 42
0.641335557
  0
ELLIPSE
  5
4BE
100
AcDbEntity
  8
6_ALL_SURFS
100
AcDbEllipse
 62
7
  6
CONTINUOUS
 10
542.0352822581
 20
579.0107342863
 30
0.0
 11
-0.0
 21
5.5724287509
 31
0.0
 40
0.9848857802
 41
-0.641335557
 42
0.641335557
  0
ELLIPSE
  5
4BF
100
AcDbEntity
  8
6_ALL_SURFS
100
AcDbEllipse
 62
7
  6
CONTINUOUS
 10
792.0352822581
 20
579.0107342863
 30
0.0
 11
-0.0
 21
5.5724287509
 31
0.0
 40
0.9848857802
 41
-0.641335557
 42
0.641335557
  0
ELLIPSE
  5
4C0
100
AcDbEntity
  8
6_ALL_SURFS
100
AcDbEllipse
 62
7
  6
CONTINUOUS
 10
1042.0352822581
 20
579.0107342863
 30
0.0
 11
-0.0
 21
5.5724287509
 31
0.0
 40
0.9848857802
 41
-0.641335557
 42
0.641335557
  0
ENDSEC
  0
SECTION
  2
OBJECTS
  0
DICTIONARY
  5
4C1
100
AcDbDictionary
  3
ACAD_GROUP
350
4C2
  3
ACAD_MLINESTYLE
350
4C3
  0
DICTIONARY
  5
4C2
102
{ACAD_REACTORS
330
4C1
102
}
100
AcDbDictionary
  0
DICTIONARY
  5
4C3
102
{ACAD_REACTORS
330
4C1
102
}
100
AcDbDictionary
  3
STANDARD
350
4C4
  0
MLINESTYLE
  5
4C4
102
{ACAD_REACTORS
330
4C3
102
}
100
AcDbMlineStyle
  2
STANDARD
 70
0
  3

 62
256
 51
90.0
 52
90.0
 71
2
 49
0.5
 62
256
  6
BYLAYER
 49
-0.5
 62
256
  6
BYLAYER
  0
ENDSEC
  0
EOF
