999
DXF file: 6f3_c_041.dxf
999
Pro/ENGINEER 2016360 by Parametric Technology Corporation
  0
SECTION
  2
HEADER
  9
$ACADVER
  1
AC1014
  9
$DWGCODEPAGE
  3
ANSI_1252
  9
$EXTMAX
 10
841.0
 20
594.0
 30
0.0
  9
$EXTMIN
 10
0.0
 20
0.0
 30
0.0
  9
$LIMMIN
 10
0.0
 20
0.0
  9
$LIMMAX
 10
841.0
 20
594.0
  9
$VIEWCTR
 10
420.5
 20
297.0
  9
$VIEWSIZE
 40
594.0
  9
$CLAYER
  8
0
  9
$LTSCALE
 40
46.255
  9
$CELTYPE
  6
BYLAYER
  9
$DIMSCALE
 40
1.0
  9
$DIMASZ
 40
2.5
  9
$DIMEXO
 40
0.75
  9
$DIMDLI
 40
31.958
  9
$DIMEXE
 40
0.75
  9
$DIMCEN
 40
7.569
  9
$DIMLFAC
 40
1.0
  9
$DIMBLK
  1
_CLOSED
  9
$DIMALT
 70
0
  9
$DIMALTF
 40
25.4
  9
$DIMTXT
 40
3.0
  9
$DIMTOL
 70
1
  9
$DIMLIM
 70
0
  9
$DIMTFAC
 40
1.0
  9
$DIMTP
 40
0.01
  9
$DIMTM
 40
0.01
  9
$DIMGAP
 40
0.625
  9
$AUNITS
 70
0
  9
$PDMODE
 70
3
  9
$PDSIZE
 40
0.3125
  9
$HANDSEED
  5
49E
  9
$TILEMODE
 70
1
  9
$MEASUREMENT
 70
1
  0
ENDSEC
  0
SECTION
  2
CLASSES
  0
ENDSEC
  0
SECTION
  2
TABLES
  0
TABLE
  2
VPORT
  5
8
100
AcDbSymbolTable
 70
2
  0
VPORT
  5
1F4
100
AcDbSymbolTableRecord
100
AcDbViewportTableRecord
  2
*ACTIVE
 70
0
 10
0.0
 20
0.0
 11
1.0
 21
1.0
 12
420.5
 22
297.0
 13
0.0
 23
0.0
 14
1.0
 24
1.0
 15
0.0
 25
0.0
 16
0.0
 26
0.0
 36
1.0
 17
0.0
 27
0.0
 37
0.0
 40
594.0
 41
1.4158249158
 42
50.0
 43
0.0
 44
0.0
 50
0.0
 51
0.0
 71
0
 72
100
 73
1
 74
1
 75
0
 76
0
 77
0
 78
0
  0
ENDTAB
  0
TABLE
  2
LTYPE
  5
5
100
AcDbSymbolTable
 70
6
  0
LTYPE
  5
14
100
AcDbSymbolTableRecord
100
AcDbLinetypeTableRecord
  2
BYBLOCK
 70
0
  3

 72
65
 73
0
 40
0.0
  0
LTYPE
  5
15
100
AcDbSymbolTableRecord
100
AcDbLinetypeTableRecord
  2
BYLAYER
 70
0
  3

 72
65
 73
0
 40
0.0
  0
LTYPE
  5
16
100
AcDbSymbolTableRecord
100
AcDbLinetypeTableRecord
  2
CONTINUOUS
 70
64
  3
Solid line
 72
65
 73
0
 40
0.0
  0
LTYPE
  5
1F5
100
AcDbSymbolTableRecord
100
AcDbLinetypeTableRecord
  2
CENTER
 70
64
  3
____ _ ____ _ ____ _ ____ _ ____ _ ____ _ ____
 72
65
 73
4
 40
0.6
 49
0.375
 74
0
 49
-0.075
 74
0
 49
0.075
 74
0
 49
-0.075
 74
0
  0
LTYPE
  5
1F6
100
AcDbSymbolTableRecord
100
AcDbLinetypeTableRecord
  2
HIDDEN
 70
64
  3
- - - - - - - - - - - - - - - - - - - -
 72
65
 73
2
 40
0.2
 49
0.1
 74
0
 49
-0.1
 74
0
  0
LTYPE
  5
1F7
100
AcDbSymbolTableRecord
100
AcDbLinetypeTableRecord
  2
PHANTOM
 70
64
  3
_____ _ _ _____ _ _ _____ _ _ _____
 72
65
 73
6
 40
0.8
 49
0.45
 74
0
 49
-0.05
 74
0
 49
0.1
 74
0
 49
-0.05
 74
0
 49
0.1
 74
0
 49
-0.05
 74
0
  0
LTYPE
  5
1F8
100
AcDbSymbolTableRecord
100
AcDbLinetypeTableRecord
  2
DOT
 70
64
  3
. . . . . . . . . . . . . . . . . . . .
 72
65
 73
2
 40
0.2
 49
0.1
 74
0
 49
-0.1
 74
0
  0
LTYPE
  5
1F9
100
AcDbSymbolTableRecord
100
AcDbLinetypeTableRecord
  2
DASHED
 70
64
  3
- - - - - - - - - - - - - - - - - - - -
 72
65
 73
2
 40
0.2
 49
0.1
 74
0
 49
-0.1
 74
0
  0
ENDTAB
  0
TABLE
  2
LAYER
  5
2
100
AcDbSymbolTable
 70
36
  0
LAYER
  5
10
100
AcDbSymbolTableRecord
100
AcDbLayerTableRecord
  2
0
 70
0
 62
7
  6
CONTINUOUS
  0
LAYER
  5
1FA
100
AcDbSymbolTableRecord
100
AcDbLayerTableRecord
  2
DEFAULT_1
 70
0
 62
7
  6
CENTER
  0
LAYER
  5
1FB
100
AcDbSymbolTableRecord
100
AcDbLayerTableRecord
  2
DEFAULT_2
 70
0
 62
8
  6
HIDDEN
  0
LAYER
  5
1FC
100
AcDbSymbolTableRecord
100
AcDbLayerTableRecord
  2
DEFAULT_3
 70
0
 62
7
  6
PHANTOM
  0
LAYER
  5
1FD
100
AcDbSymbolTableRecord
100
AcDbLayerTableRecord
  2
1_ALL_PLANES
 70
0
 62
7
  6
CONTINUOUS
  0
LAYER
  5
1FE
100
AcDbSymbolTableRecord
100
AcDbLayerTableRecord
  2
2_ALL_CSYS
 70
0
 62
7
  6
CONTINUOUS
  0
LAYER
  5
1FF
100
AcDbSymbolTableRecord
100
AcDbLayerTableRecord
  2
3_ALL_AXES
 70
0
 62
7
  6
CONTINUOUS
  0
LAYER
  5
200
100
AcDbSymbolTableRecord
100
AcDbLayerTableRecord
  2
4_ALL_POINTS
 70
0
 62
7
  6
CONTINUOUS
  0
LAYER
  5
201
100
AcDbSymbolTableRecord
100
AcDbLayerTableRecord
  2
5_ALL_CURVES
 70
0
 62
7
  6
CONTINUOUS
  0
LAYER
  5
202
100
AcDbSymbolTableRecord
100
AcDbLayerTableRecord
  2
5__COSTRUZIONE
 70
0
 62
7
  6
CONTINUOUS
  0
LAYER
  5
203
100
AcDbSymbolTableRecord
100
AcDbLayerTableRecord
  2
6_ALL_SURFS
 70
0
 62
7
  6
CONTINUOUS
  0
LAYER
  5
204
100
AcDbSymbolTableRecord
100
AcDbLayerTableRecord
  2
7_ALL_FEATURES
 70
0
 62
7
  6
CONTINUOUS
  0
LAYER
  5
205
100
AcDbSymbolTableRecord
100
AcDbLayerTableRecord
  2
9_SOLID
 70
0
 62
7
  6
CONTINUOUS
  0
LAYER
  5
206
100
AcDbSymbolTableRecord
100
AcDbLayerTableRecord
  2
PR9034
 70
0
 62
7
  6
CONTINUOUS
  0
LAYER
  5
207
100
AcDbSymbolTableRecord
100
AcDbLayerTableRecord
  2
WHITE
 70
0
 62
7
  6
CONTINUOUS
  0
LAYER
  5
208
100
AcDbSymbolTableRecord
100
AcDbLayerTableRecord
  2
XXX_SOLIDO
 70
0
 62
7
  6
CONTINUOUS
  0
ENDTAB
  0
TABLE
  2
STYLE
  5
3
100
AcDbSymbolTable
 70
1
  0
STYLE
  5
11
100
AcDbSymbolTableRecord
100
AcDbTextStyleTableRecord
  2
STANDARD
 70
0
 40
0.0
 41
1.0
 50
0.0
 71
0
 42
0.2
  3
arial.ttf
  4

  0
STYLE
  5
209
100
AcDbSymbolTableRecord
100
AcDbTextStyleTableRecord
  2
TEXTSTYLE_1
 70
0
 40
0.0
 41
0.8
 50
0.0
 71
0
 42
0.2
  3
gdt
  4

  0
STYLE
  5
20A
100
AcDbSymbolTableRecord
100
AcDbTextStyleTableRecord
  2
TEXTSTYLE_2
 70
0
 40
0.0
 41
0.85
 50
0.0
 71
0
 42
0.2
  3
txt
  4

  0
ENDTAB
  0
TABLE
  2
VIEW
  5
6
100
AcDbSymbolTable
 70
0
  0
ENDTAB
  0
TABLE
  2
UCS
  5
7
100
AcDbSymbolTable
 70
0
  0
ENDTAB
  0
TABLE
  2
APPID
  5
9
100
AcDbSymbolTable
 70
1
  0
APPID
  5
20B
100
AcDbSymbolTableRecord
100
AcDbRegAppTableRecord
  2
ACAD
 70
0
  0
ENDTAB
  0
TABLE
  2
BLOCK_RECORD
  5
1
100
AcDbSymbolTable
 70
0
  0
BLOCK_RECORD
  5
1F
100
AcDbSymbolTableRecord
100
AcDbBlockTableRecord
  2
*MODEL_SPACE
  0
BLOCK_RECORD
  5
1B
100
AcDbSymbolTableRecord
100
AcDbBlockTableRecord
  2
*PAPER_SPACE
  0
BLOCK_RECORD
  5
20C
100
AcDbSymbolTableRecord
100
AcDbBlockTableRecord
  2
_CLOSED
  0
BLOCK_RECORD
  5
20D
100
AcDbSymbolTableRecord
100
AcDbBlockTableRecord
  2
*D0
  0
BLOCK_RECORD
  5
20E
100
AcDbSymbolTableRecord
100
AcDbBlockTableRecord
  2
*D1
  0
BLOCK_RECORD
  5
20F
100
AcDbSymbolTableRecord
100
AcDbBlockTableRecord
  2
*D2
  0
BLOCK_RECORD
  5
210
100
AcDbSymbolTableRecord
100
AcDbBlockTableRecord
  2
*D3
  0
BLOCK_RECORD
  5
211
100
AcDbSymbolTableRecord
100
AcDbBlockTableRecord
  2
LOGO2_BL0
  0
ENDTAB
  0
TABLE
  2
DIMSTYLE
  5
A
100
AcDbSymbolTable
 70
1
  0
DIMSTYLE
105
212
100
AcDbSymbolTableRecord
100
AcDbDimStyleTableRecord
  2
STANDARD
 70
0
  3

  4

  5
_CLOSED
  6
_CLOSED
  7
_CLOSED
 40
1.0
 41
2.5
 42
0.75
 43
0.38
 44
0.75
 45
0.0
 46
0.0
 47
0.01
 48
0.01
140
3.0
141
0.09
142
0.0
143
25.4
144
1.0
145
0.0
146
1.0
147
0.625
 71
1.0
 72
0.0
 73
0
 74
0
 75
0
 76
0
 77
1
 78
8
 79
2
170
0
171
1
172
0
173
0
174
0
175
0
176
0
177
0
178
0
270
2
179
2
271
2
272
2
273
2
274
2
275
0
280
0
281
0
282
0
283
1
284
8
285
0
286
0
287
3
288
0
340
11
  0
DIMSTYLE
105
213
100
AcDbSymbolTableRecord
100
AcDbDimStyleTableRecord
  2
DIMSTYLE_1
 70
0
  3

  4

  5
_CLOSED
  6
_CLOSED
  7
_CLOSED
 40
1.0
 41
2.5
 42
0.75
 43
0.38
 44
0.75
 45
0.0
 46
0.0
 47
0.3
 48
0.3
140
8.0
141
0.09
142
0.0
143
25.4
144
1.0
145
0.0
146
1.0
147
2.0
 71
0.0
 72
0.0
 73
0
 74
0
 75
0
 76
0
 77
1
 78
8
 79
2
170
0
171
1
172
0
173
0
174
0
175
0
176
0
177
0
178
0
270
2
179
2
271
2
272
2
273
2
274
2
275
0
280
0
281
0
282
0
283
1
284
8
285
0
286
0
287
3
288
0
340
11
  0
DIMSTYLE
105
214
100
AcDbSymbolTableRecord
100
AcDbDimStyleTableRecord
  2
DIMSTYLE_2
 70
0
  3

  4

  5
_CLOSED
  6
_CLOSED
  7
_CLOSED
 40
1.0
 41
2.5
 42
0.75
 43
0.38
 44
0.75
 45
0.0
 46
0.0
 47
0.8
 48
0.8
140
8.0
141
0.09
142
0.0
143
25.4
144
1.0
145
0.0
146
1.0
147
2.0
 71
0.0
 72
0.0
 73
0
 74
0
 75
0
 76
0
 77
1
 78
8
 79
2
170
0
171
1
172
0
173
0
174
0
175
0
176
0
177
0
178
0
270
2
179
2
271
2
272
2
273
2
274
2
275
0
280
0
281
0
282
0
283
1
284
8
285
0
286
0
287
3
288
0
340
11
  0
ENDTAB
  0
ENDSEC
  0
SECTION
  2
BLOCKS
  0
BLOCK
  5
20
100
AcDbEntity
  8
0
100
AcDbBlockBegin
  2
*MODEL_SPACE
 70
0
 10
0.0
 20
0.0
 30
0.0
  3
*MODEL_SPACE
  1

  0
ENDBLK
  5
21
100
AcDbEntity
  8
0
100
AcDbBlockEnd
  0
BLOCK
  5
1C
100
AcDbEntity
  8
0
100
AcDbBlockBegin
  2
*PAPER_SPACE
 70
0
 10
0.0
 20
0.0
 30
0.0
  3
*PAPER_SPACE
  1

  0
ENDBLK
  5
1D
100
AcDbEntity
  8
0
100
AcDbBlockEnd
  0
BLOCK
  5
215
100
AcDbEntity
  8
0
100
AcDbBlockBegin
 62
2
  6
CONTINUOUS
  2
LOGO2_BL0
 70
64
 10
754.8956694115
 20
36.581561713
  3
LOGO2_BL0
  1

  0
LINE
  5
216
100
AcDbEntity
  8
0
100
AcDbLine
 62
7
  6
CONTINUOUS
 10
746.6385946397
 20
39.7770530518
 11
745.3342537104
 21
39.7770530518
  0
LINE
  5
217
100
AcDbEntity
  8
0
100
AcDbLine
 62
7
  6
CONTINUOUS
 10
745.3342537104
 20
39.7770530518
 11
745.3342537104
 21
29.317986992
  0
LINE
  5
218
100
AcDbEntity
  8
0
100
AcDbLine
 62
7
  6
CONTINUOUS
 10
745.3342537104
 20
29.317986992
 11
749.8153085986
 21
29.317986992
  0
LINE
  5
219
100
AcDbEntity
  8
0
100
AcDbLine
 62
7
  6
CONTINUOUS
 10
749.8153085986
 20
29.317986992
 11
749.8153085986
 21
30.510841317
  0
LINE
  5
21A
100
AcDbEntity
  8
0
100
AcDbLine
 62
7
  6
CONTINUOUS
 10
749.8153085986
 20
30.510841317
 11
746.6385946397
 21
30.510841317
  0
LINE
  5
21B
100
AcDbEntity
  8
0
100
AcDbLine
 62
7
  6
CONTINUOUS
 10
746.6385946397
 20
30.510841317
 11
746.6385946397
 21
39.7770530518
  0
LINE
  5
21C
100
AcDbEntity
  8
0
100
AcDbLine
 62
7
  6
CONTINUOUS
 10
761.574920856
 20
39.7770530518
 11
760.2711033379
 21
39.7770530518
  0
LINE
  5
21D
100
AcDbEntity
  8
0
100
AcDbLine
 62
7
  6
CONTINUOUS
 10
760.2711033379
 20
39.7770530518
 11
760.2711033379
 21
29.317986992
  0
LINE
  5
21E
100
AcDbEntity
  8
0
100
AcDbLine
 62
7
  6
CONTINUOUS
 10
760.2711033379
 20
29.317986992
 11
764.752289079
 21
29.317986992
  0
LINE
  5
21F
100
AcDbEntity
  8
0
100
AcDbLine
 62
7
  6
CONTINUOUS
 10
764.752289079
 20
29.317986992
 11
764.752289079
 21
30.510841317
  0
LINE
  5
220
100
AcDbEntity
  8
0
100
AcDbLine
 62
7
  6
CONTINUOUS
 10
764.752289079
 20
30.510841317
 11
761.574920856
 21
30.510841317
  0
LINE
  5
221
100
AcDbEntity
  8
0
100
AcDbLine
 62
7
  6
CONTINUOUS
 10
761.574920856
 20
30.510841317
 11
761.574920856
 21
39.7770530518
  0
LWPOLYLINE
  5
222
100
AcDbEntity
  8
0
100
AcDbPolyline
 62
7
  6
CONTINUOUS
 90
2
 70
0
 43
0.2
 10
743.6886486213
 20
25.974435685
 10
743.6886486213
 20
24.1173724357
  0
LWPOLYLINE
  5
223
100
AcDbEntity
  8
0
100
AcDbPolyline
 62
7
  6
CONTINUOUS
 90
2
 70
0
 43
0.2
 10
743.6886486213
 20
24.1173724357
 10
744.4843646317
 20
24.1173724357
  0
LWPOLYLINE
  5
224
100
AcDbEntity
  8
0
100
AcDbPolyline
 62
7
  6
CONTINUOUS
 90
2
 70
0
 43
0.2
 10
744.4843646317
 20
24.1173724357
 10
744.4843646317
 20
24.3293540073
  0
LWPOLYLINE
  5
225
100
AcDbEntity
  8
0
100
AcDbPolyline
 62
7
  6
CONTINUOUS
 90
2
 70
0
 43
0.2
 10
744.4843646317
 20
24.3293540073
 10
743.9202581162
 20
24.3293540073
  0
LWPOLYLINE
  5
226
100
AcDbEntity
  8
0
100
AcDbPolyline
 62
7
  6
CONTINUOUS
 90
2
 70
0
 43
0.2
 10
743.9202581162
 20
24.3293540073
 10
743.9202581162
 20
25.974435685
  0
LWPOLYLINE
  5
227
100
AcDbEntity
  8
0
100
AcDbPolyline
 62
7
  6
CONTINUOUS
 90
2
 70
0
 43
0.2
 10
743.9202581162
 20
25.974435685
 10
743.6886486213
 20
25.974435685
  0
SPLINE
  5
228
100
AcDbEntity
  8
0
100
AcDbSpline
 62
7
  6
CONTINUOUS
 70
2
 71
3
 72
35
 73
31
 74
0
 42
0.0000001
 43
0.0000001
 44
0.0000000001
 40
0.0
 40
0.0
 40
0.0
 40
0.0
 40
1.0
 40
1.0
 40
1.0
 40
2.0
 40
2.0
 40
2.0
 40
3.0
 40
3.0
 40
3.0
 40
4.0
 40
4.0
 40
4.0
 40
5.0
 40
5.0
 40
5.0
 40
6.0
 40
6.0
 40
6.0
 40
7.0
 40
7.0
 40
7.0
 40
8.0
 40
8.0
 40
8.0
 40
9.0
 40
9.0
 40
9.0
 40
10.0
 40
10.0
 40
10.0
 40
10.0
 10
745.8826578872
 20
25.2699240916
 30
0.0
 10
745.8826578872
 20
25.2699240916
 30
0.0
 10
745.8826578872
 20
24.6078088124
 30
0.0
 10
745.8826578872
 20
24.6078088124
 30
0.0
 10
745.8826578872
 20
24.2927152171
 30
0.0
 10
746.030521576
 20
24.0781165891
 30
0.0
 10
746.3706080603
 20
24.0781165891
 30
0.0
 10
746.7101711333
 20
24.0781165891
 30
0.0
 10
746.8582965278
 20
24.2927152171
 30
0.0
 10
746.8582965278
 20
24.6078088124
 30
0.0
 10
746.8582965278
 20
24.6078088124
 30
0.0
 10
746.8582965278
 20
25.2699240916
 30
0.0
 10
746.8582965278
 20
25.2699240916
 30
0.0
 10
746.8582965278
 20
25.2699240916
 30
0.0
 10
746.6362392889
 20
25.2699240916
 30
0.0
 10
746.6362392889
 20
25.2699240916
 30
0.0
 10
746.6362392889
 20
25.2699240916
 30
0.0
 10
746.6362392889
 20
24.6329325542
 30
0.0
 10
746.6362392889
 20
24.6329325542
 30
0.0
 10
746.6362392889
 20
24.447121547
 30
0.0
 10
746.5895248315
 20
24.2843406365
 30
0.0
 10
746.3706080603
 20
24.2843406365
 30
0.0
 10
746.1511678779
 20
24.2843406365
 30
0.0
 10
746.1044534205
 20
24.447121547
 30
0.0
 10
746.1044534205
 20
24.6329325542
 30
0.0
 10
746.1044534205
 20
24.6329325542
 30
0.0
 10
746.1044534205
 20
25.2699240916
 30
0.0
 10
746.1044534205
 20
25.2699240916
 30
0.0
 10
746.1044534205
 20
25.2699240916
 30
0.0
 10
745.8826578872
 20
25.2699240916
 30
0.0
 10
745.8826578872
 20
25.2699240916
 30
0.0
  0
SPLINE
  5
229
100
AcDbEntity
  8
0
100
AcDbSpline
 62
7
  6
CONTINUOUS
 70
2
 71
3
 72
35
 73
31
 74
0
 42
0.0000001
 43
0.0000001
 44
0.0000000001
 40
0.0
 40
0.0
 40
0.0
 40
0.0
 40
1.0
 40
1.0
 40
1.0
 40
2.0
 40
2.0
 40
2.0
 40
3.0
 40
3.0
 40
3.0
 40
4.0
 40
4.0
 40
4.0
 40
5.0
 40
5.0
 40
5.0
 40
6.0
 40
6.0
 40
6.0
 40
7.0
 40
7.0
 40
7.0
 40
8.0
 40
8.0
 40
8.0
 40
9.0
 40
9.0
 40
9.0
 40
10.0
 40
10.0
 40
10.0
 40
10.0
 10
749.281429085
 20
25.2285745998
 30
0.0
 10
749.1929725774
 20
25.279868906
 30
0.0
 10
749.0795231807
 20
25.3049926479
 30
0.0
 10
748.9758877457
 20
25.3049926479
 30
0.0
 10
748.6210148925
 20
25.3049926479
 30
0.0
 10
748.3455697023
 20
25.0411933588
 30
0.0
 10
748.3455697023
 20
24.6837034492
 30
0.0
 10
748.3455697023
 20
24.3387754104
 30
0.0
 10
748.6240245074
 20
24.0786400004
 30
0.0
 10
748.9635875804
 20
24.0786400004
 30
0.0
 10
749.0795231807
 20
24.0786400004
 30
0.0
 10
749.1802798536
 20
24.1006232745
 30
0.0
 10
749.281429085
 20
24.1545346371
 30
0.0
 10
749.281429085
 20
24.1545346371
 30
0.0
 10
749.281429085
 20
24.4371767326
 30
0.0
 10
749.281429085
 20
24.4371767326
 30
0.0
 10
749.1975524261
 20
24.3440095233
 30
0.0
 10
749.0940478439
 20
24.2848640478
 30
0.0
 10
748.9659429312
 20
24.2848640478
 30
0.0
 10
748.7322397912
 20
24.2848640478
 30
0.0
 10
748.5669726771
 20
24.4570663615
 30
0.0
 10
748.5669726771
 20
24.6936482636
 30
0.0
 10
748.5669726771
 20
24.9056298352
 30
0.0
 10
748.7347259948
 20
25.0977217779
 30
0.0
 10
748.9515491208
 20
25.0977217779
 30
0.0
 10
749.0843647351
 20
25.0977217779
 30
0.0
 10
749.1929725774
 20
25.0438104152
 30
0.0
 10
749.281429085
 20
24.9427920367
 30
0.0
 10
749.281429085
 20
24.9427920367
 30
0.0
 10
749.281429085
 20
25.2285745998
 30
0.0
 10
749.281429085
 20
25.2285745998
 30
0.0
  0
SPLINE
  5
22A
100
AcDbEntity
  8
0
100
AcDbSpline
 62
7
  6
CONTINUOUS
 70
2
 71
3
 72
32
 73
28
 74
0
 42
0.0000001
 43
0.0000001
 44
0.0000000001
 40
0.0
 40
0.0
 40
0.0
 40
0.0
 40
1.0
 40
1.0
 40
1.0
 40
2.0
 40
2.0
 40
2.0
 40
3.0
 40
3.0
 40
3.0
 40
4.0
 40
4.0
 40
4.0
 40
5.0
 40
5.0
 40
5.0
 40
6.0
 40
6.0
 40
6.0
 40
7.0
 40
7.0
 40
7.0
 40
8.0
 40
8.0
 40
8.0
 40
9.0
 40
9.0
 40
9.0
 40
9.0
 10
751.8133003373
 20
24.6570094735
 30
0.0
 10
751.8133003373
 20
24.6570094735
 30
0.0
 10
751.8133003373
 20
24.6910312072
 30
0.0
 10
751.8133003373
 20
24.6910312072
 30
0.0
 10
751.8133003373
 20
25.0333421895
 30
0.0
 10
751.6404437594
 20
25.3049926479
 30
0.0
 10
751.2737941523
 20
25.3049926479
 30
0.0
 10
750.9021721379
 20
25.3049926479
 30
0.0
 10
750.712435546
 20
25.0385763023
 30
0.0
 10
750.712435546
 20
24.6837034492
 30
0.0
 10
750.712435546
 20
24.3440095233
 30
0.0
 10
750.9265107628
 20
24.0781165891
 30
0.0
 10
751.2786357067
 20
24.0781165891
 30
0.0
 10
751.5026557379
 20
24.0781165891
 30
0.0
 10
751.7048233478
 20
24.1937904837
 30
0.0
 10
751.8133003373
 20
24.3932101844
 30
0.0
 10
751.8133003373
 20
24.3932101844
 30
0.0
 10
751.6256573906
 20
24.4999860871
 30
0.0
 10
751.6256573906
 20
24.4999860871
 30
0.0
 10
751.5421732901
 20
24.3612820958
 30
0.0
 10
751.4509688732
 20
24.2754426446
 30
0.0
 10
751.281383616
 20
24.2754426446
 30
0.0
 10
751.0694020444
 20
24.2754426446
 30
0.0
 10
750.9364555773
 20
24.4602068292
 30
0.0
 10
750.9341002265
 20
24.6570094735
 30
0.0
 10
750.9341002265
 20
24.6570094735
 30
0.0
 10
751.8133003373
 20
24.6570094735
 30
0.0
 10
751.8133003373
 20
24.6570094735
 30
0.0
  0
SPLINE
  5
22B
100
AcDbEntity
  8
0
100
AcDbSpline
 62
7
  6
CONTINUOUS
 70
2
 71
3
 72
14
 73
10
 74
0
 42
0.0000001
 43
0.0000001
 44
0.0000000001
 40
0.0
 40
0.0
 40
0.0
 40
0.0
 40
1.0
 40
1.0
 40
1.0
 40
2.0
 40
2.0
 40
2.0
 40
3.0
 40
3.0
 40
3.0
 40
3.0
 10
750.9461386861
 20
24.8245010856
 30
0.0
 10
750.9737486315
 20
24.9893756413
 30
0.0
 10
751.1015918386
 20
25.1123772939
 30
0.0
 10
751.2737941523
 20
25.1123772939
 30
0.0
 10
751.4509688732
 20
25.1123772939
 30
0.0
 10
751.5644182699
 20
24.9967033993
 30
0.0
 10
751.5916356568
 20
24.8245010856
 30
0.0
 10
751.5916356568
 20
24.8245010856
 30
0.0
 10
750.9461386861
 20
24.8245010856
 30
0.0
 10
750.9461386861
 20
24.8245010856
 30
0.0
  0
SPLINE
  5
22C
100
AcDbEntity
  8
0
100
AcDbSpline
 62
7
  6
CONTINUOUS
 70
2
 71
3
 72
20
 73
16
 74
0
 42
0.0000001
 43
0.0000001
 44
0.0000000001
 40
0.0
 40
0.0
 40
0.0
 40
0.0
 40
1.0
 40
1.0
 40
1.0
 40
2.0
 40
2.0
 40
2.0
 40
3.0
 40
3.0
 40
3.0
 40
4.0
 40
4.0
 40
4.0
 40
5.0
 40
5.0
 40
5.0
 40
5.0
 10
753.8373317875
 20
25.0338656007
 30
0.0
 10
753.8373317875
 20
25.0338656007
 30
0.0
 10
754.2484713541
 20
24.5313907644
 30
0.0
 10
754.2484713541
 20
24.5313907644
 30
0.0
 10
754.132404901
 20
24.4157168698
 30
0.0
 10
753.9946168795
 20
24.2853874591
 30
0.0
 10
753.8226762714
 20
24.2853874591
 30
0.0
 10
753.6452398448
 20
24.2853874591
 30
0.0
 10
753.4777482327
 20
24.4497386035
 30
0.0
 10
753.4777482327
 20
24.6266516188
 30
0.0
 10
753.4777482327
 20
24.8046114567
 30
0.0
 10
753.6875053063
 20
24.930753577
 30
0.0
 10
753.8150868077
 20
25.0186866734
 30
0.0
 10
753.8150868077
 20
25.0186866734
 30
0.0
 10
753.8373317875
 20
25.0338656007
 30
0.0
 10
753.8373317875
 20
25.0338656007
 30
0.0
  0
SPLINE
  5
22D
100
AcDbEntity
  8
0
100
AcDbSpline
 62
7
  6
CONTINUOUS
 70
2
 71
3
 72
23
 73
19
 74
0
 42
0.0000001
 43
0.0000001
 44
0.0000000001
 40
0.0
 40
0.0
 40
0.0
 40
0.0
 40
1.0
 40
1.0
 40
1.0
 40
2.0
 40
2.0
 40
2.0
 40
3.0
 40
3.0
 40
3.0
 40
4.0
 40
4.0
 40
4.0
 40
5.0
 40
5.0
 40
5.0
 40
6.0
 40
6.0
 40
6.0
 40
6.0
 10
753.8866633013
 20
25.3248822768
 30
0.0
 10
753.8866633013
 20
25.3248822768
 30
0.0
 10
753.8250316222
 20
25.40339397
 30
0.0
 10
753.8250316222
 20
25.40339397
 30
0.0
 10
753.7711202595
 20
25.4719608487
 30
0.0
 10
753.7143301348
 20
25.5410511387
 30
0.0
 10
753.7143301348
 20
25.6347417592
 30
0.0
 10
753.7143301348
 20
25.7535561216
 30
0.0
 10
753.8102452533
 20
25.8310209922
 30
0.0
 10
753.9212084463
 20
25.8310209922
 30
0.0
 10
754.0444718046
 20
25.8310209922
 30
0.0
 10
754.1377698667
 20
25.759837057
 30
0.0
 10
754.1377698667
 20
25.6295076463
 30
0.0
 10
754.1377698667
 20
25.4944675341
 30
0.0
 10
754.009664954
 20
25.418049486
 30
0.0
 10
753.9161051863
 20
25.3442484944
 30
0.0
 10
753.9161051863
 20
25.3442484944
 30
0.0
 10
753.8866633013
 20
25.3248822768
 30
0.0
 10
753.8866633013
 20
25.3248822768
 30
0.0
  0
SPLINE
  5
22E
100
AcDbEntity
  8
0
100
AcDbSpline
 62
7
  6
CONTINUOUS
 70
2
 71
3
 72
50
 73
46
 74
0
 42
0.0000001
 43
0.0000001
 44
0.0000000001
 40
0.0
 40
0.0
 40
0.0
 40
0.0
 40
1.0
 40
1.0
 40
1.0
 40
2.0
 40
2.0
 40
2.0
 40
3.0
 40
3.0
 40
3.0
 40
4.0
 40
4.0
 40
4.0
 40
5.0
 40
5.0
 40
5.0
 40
6.0
 40
6.0
 40
6.0
 40
7.0
 40
7.0
 40
7.0
 40
8.0
 40
8.0
 40
8.0
 40
9.0
 40
9.0
 40
9.0
 40
10.0
 40
10.0
 40
10.0
 40
11.0
 40
11.0
 40
11.0
 40
12.0
 40
12.0
 40
12.0
 40
13.0
 40
13.0
 40
13.0
 40
14.0
 40
14.0
 40
14.0
 40
15.0
 40
15.0
 40
15.0
 40
15.0
 10
754.588819544
 20
24.117895847
 30
0.0
 10
754.588819544
 20
24.117895847
 30
0.0
 10
754.8742095487
 20
24.117895847
 30
0.0
 10
754.8742095487
 20
24.117895847
 30
0.0
 10
754.8742095487
 20
24.117895847
 30
0.0
 10
754.5418433809
 20
24.5287737079
 30
0.0
 10
754.5418433809
 20
24.5287737079
 30
0.0
 10
754.5418433809
 20
24.5287737079
 30
0.0
 10
754.7683496157
 20
24.7946666422
 30
0.0
 10
754.7683496157
 20
24.7946666422
 30
0.0
 10
754.7683496157
 20
24.7946666422
 30
0.0
 10
754.6200933685
 20
24.9475027382
 30
0.0
 10
754.6200933685
 20
24.9475027382
 30
0.0
 10
754.6200933685
 20
24.9475027382
 30
0.0
 10
754.4041862122
 20
24.6962653201
 30
0.0
 10
754.4041862122
 20
24.6962653201
 30
0.0
 10
754.4041862122
 20
24.6962653201
 30
0.0
 10
754.0171235648
 20
25.1641950114
 30
0.0
 10
754.0171235648
 20
25.1641950114
 30
0.0
 10
754.1725767173
 20
25.2782986722
 30
0.0
 10
754.3548546983
 20
25.418049486
 30
0.0
 10
754.3548546983
 20
25.6274140012
 30
0.0
 10
754.3548546983
 20
25.8713236613
 30
0.0
 10
754.1528179412
 20
26.0147383542
 30
0.0
 10
753.9263117064
 20
26.0147383542
 30
0.0
 10
753.6821403406
 20
26.0147383542
 30
0.0
 10
753.4977687144
 20
25.8639959033
 30
0.0
 10
753.4977687144
 20
25.6075243722
 30
0.0
 10
753.4977687144
 20
25.4499775746
 30
0.0
 10
753.5964317422
 20
25.3123204059
 30
0.0
 10
753.7017682639
 20
25.2013572129
 30
0.0
 10
753.7017682639
 20
25.2013572129
 30
0.0
 10
753.5862252221
 20
25.1176114068
 30
0.0
 10
753.5862252221
 20
25.1176114068
 30
0.0
 10
753.4085270899
 20
24.9893756413
 30
0.0
 10
753.2611868123
 20
24.861663287
 30
0.0
 10
753.2611868123
 20
24.6245579736
 30
0.0
 10
753.2611868123
 20
24.3042302655
 30
0.0
 10
753.5197519885
 20
24.0781165891
 30
0.0
 10
753.8301348822
 20
24.0781165891
 30
0.0
 10
754.0490516534
 20
24.0781165891
 30
0.0
 10
754.2462468561
 20
24.2032118869
 30
0.0
 10
754.3865210812
 20
24.3691332651
 30
0.0
 10
754.3865210812
 20
24.3691332651
 30
0.0
 10
754.588819544
 20
24.117895847
 30
0.0
 10
754.588819544
 20
24.117895847
 30
0.0
  0
LWPOLYLINE
  5
22F
100
AcDbEntity
  8
0
100
AcDbPolyline
 62
7
  6
CONTINUOUS
 90
2
 70
0
 43
0.2
 10
756.5242636337
 20
25.974435685
 10
756.2929158445
 20
25.974435685
  0
LWPOLYLINE
  5
230
100
AcDbEntity
  8
0
100
AcDbPolyline
 62
7
  6
CONTINUOUS
 90
2
 70
0
 43
0.2
 10
756.2929158445
 20
25.974435685
 10
756.2929158445
 20
24.1173724357
  0
LWPOLYLINE
  5
231
100
AcDbEntity
  8
0
100
AcDbPolyline
 62
7
  6
CONTINUOUS
 90
2
 70
0
 43
0.2
 10
756.2929158445
 20
24.1173724357
 10
757.0882392964
 20
24.1173724357
  0
LWPOLYLINE
  5
232
100
AcDbEntity
  8
0
100
AcDbPolyline
 62
7
  6
CONTINUOUS
 90
2
 70
0
 43
0.2
 10
757.0882392964
 20
24.1173724357
 10
757.0882392964
 20
24.3293540073
  0
LWPOLYLINE
  5
233
100
AcDbEntity
  8
0
100
AcDbPolyline
 62
7
  6
CONTINUOUS
 90
2
 70
0
 43
0.2
 10
757.0882392964
 20
24.3293540073
 10
756.5242636337
 20
24.3293540073
  0
LWPOLYLINE
  5
234
100
AcDbEntity
  8
0
100
AcDbPolyline
 62
7
  6
CONTINUOUS
 90
2
 70
0
 43
0.2
 10
756.5242636337
 20
24.3293540073
 10
756.5242636337
 20
25.974435685
  0
LWPOLYLINE
  5
235
100
AcDbEntity
  8
0
100
AcDbPolyline
 62
7
  6
CONTINUOUS
 90
2
 70
0
 43
0.2
 10
758.7673427079
 20
25.2699240916
 10
758.5462014388
 20
25.2699240916
  0
LWPOLYLINE
  5
236
100
AcDbEntity
  8
0
100
AcDbPolyline
 62
7
  6
CONTINUOUS
 90
2
 70
0
 43
0.2
 10
758.5462014388
 20
25.2699240916
 10
758.5462014388
 20
24.117895847
  0
LWPOLYLINE
  5
237
100
AcDbEntity
  8
0
100
AcDbPolyline
 62
7
  6
CONTINUOUS
 90
2
 70
0
 43
0.2
 10
758.5462014388
 20
24.117895847
 10
758.7673427079
 20
24.117895847
  0
LWPOLYLINE
  5
238
100
AcDbEntity
  8
0
100
AcDbPolyline
 62
7
  6
CONTINUOUS
 90
2
 70
0
 43
0.2
 10
758.7673427079
 20
24.117895847
 10
758.7673427079
 20
25.2699240916
  0
LWPOLYLINE
  5
239
100
AcDbEntity
  8
0
100
AcDbPolyline
 62
7
  6
CONTINUOUS
 90
2
 70
1
 43
0.2
 10
758.5043194307
 20
25.7998780205
 42
1.0
 10
758.8094864216
 20
25.7998780205
 42
1.0
  0
SPLINE
  5
23A
100
AcDbEntity
  8
0
100
AcDbSpline
 62
7
  6
CONTINUOUS
 70
2
 71
3
 72
17
 73
13
 74
0
 42
0.0000001
 43
0.0000001
 44
0.0000000001
 40
0.0
 40
0.0
 40
0.0
 40
0.0
 40
1.0
 40
1.0
 40
1.0
 40
2.0
 40
2.0
 40
2.0
 40
3.0
 40
3.0
 40
3.0
 40
4.0
 40
4.0
 40
4.0
 40
4.0
 10
760.8976266495
 20
24.2754426446
 30
0.0
 10
760.6636618039
 20
24.2754426446
 30
0.0
 10
760.5333323932
 20
24.4774794017
 30
0.0
 10
760.5333323932
 20
24.6936482636
 30
0.0
 10
760.5333323932
 20
24.9082468917
 30
0.0
 10
760.6691576224
 20
25.107143181
 30
0.0
 10
760.8976266495
 20
25.107143181
 30
0.0
 10
761.1370873137
 20
25.107143181
 30
0.0
 10
761.2726508373
 20
24.9181917061
 30
0.0
 10
761.2726508373
 20
24.6936482636
 30
0.0
 10
761.2726508373
 20
24.4675345873
 30
0.0
 10
761.1394426645
 20
24.2754426446
 30
0.0
 10
760.8976266495
 20
24.2754426446
 30
0.0
  0
SPLINE
  5
23B
100
AcDbEntity
  8
0
100
AcDbSpline
 62
7
  6
CONTINUOUS
 70
2
 71
3
 72
50
 73
46
 74
0
 42
0.0000001
 43
0.0000001
 44
0.0000000001
 40
0.0
 40
0.0
 40
0.0
 40
0.0
 40
1.0
 40
1.0
 40
1.0
 40
2.0
 40
2.0
 40
2.0
 40
3.0
 40
3.0
 40
3.0
 40
4.0
 40
4.0
 40
4.0
 40
5.0
 40
5.0
 40
5.0
 40
6.0
 40
6.0
 40
6.0
 40
7.0
 40
7.0
 40
7.0
 40
8.0
 40
8.0
 40
8.0
 40
9.0
 40
9.0
 40
9.0
 40
10.0
 40
10.0
 40
10.0
 40
11.0
 40
11.0
 40
11.0
 40
12.0
 40
12.0
 40
12.0
 40
13.0
 40
13.0
 40
13.0
 40
14.0
 40
14.0
 40
14.0
 40
15.0
 40
15.0
 40
15.0
 40
15.0
 10
761.4817536468
 20
25.2704475029
 30
0.0
 10
761.4817536468
 20
25.2704475029
 30
0.0
 10
761.2600889664
 20
25.2704475029
 30
0.0
 10
761.2600889664
 20
25.2704475029
 30
0.0
 10
761.2600889664
 20
25.2704475029
 30
0.0
 10
761.2600889664
 20
25.0731214473
 30
0.0
 10
761.2600889664
 20
25.0731214473
 30
0.0
 10
761.2600889664
 20
25.0731214473
 30
0.0
 10
761.2553782648
 20
25.0731214473
 30
0.0
 10
761.2553782648
 20
25.0731214473
 30
0.0
 10
761.1640429951
 20
25.2160127289
 30
0.0
 10
761.0261241207
 20
25.3044692366
 30
0.0
 10
760.8533983957
 20
25.3044692366
 30
0.0
 10
760.5210322279
 20
25.3044692366
 30
0.0
 10
760.3119294184
 20
25.0165930282
 30
0.0
 10
760.3119294184
 20
24.7009760217
 30
0.0
 10
760.3119294184
 20
24.3712269103
 30
0.0
 10
760.5089937683
 20
24.0781165891
 30
0.0
 10
760.8638666215
 20
24.0781165891
 30
0.0
 10
761.0261241207
 20
24.0781165891
 30
0.0
 10
761.1661366402
 20
24.1665730967
 30
0.0
 10
761.2553782648
 20
24.2974259187
 30
0.0
 10
761.2553782648
 20
24.2974259187
 30
0.0
 10
761.2600889664
 20
24.2974259187
 30
0.0
 10
761.2600889664
 20
24.2974259187
 30
0.0
 10
761.2600889664
 20
24.2974259187
 30
0.0
 10
761.2600889664
 20
24.0781165891
 30
0.0
 10
761.2600889664
 20
24.0781165891
 30
0.0
 10
761.2600889664
 20
23.841534687
 30
0.0
 10
761.2035605473
 20
23.6546768572
 30
0.0
 10
760.930339855
 20
23.6546768572
 30
0.0
 10
760.7280413923
 20
23.6546768572
 30
0.0
 10
760.5854118163
 20
23.7729678083
 30
0.0
 10
760.5854118163
 20
23.9791918557
 30
0.0
 10
760.5854118163
 20
23.9791918557
 30
0.0
 10
760.3637471359
 20
23.9791918557
 30
0.0
 10
760.3637471359
 20
23.9791918557
 30
0.0
 10
760.3687195431
 20
23.6546768572
 30
0.0
 10
760.5998056267
 20
23.457874213
 30
0.0
 10
760.9201333349
 20
23.457874213
 30
0.0
 10
761.3681733973
 20
23.457874213
 30
0.0
 10
761.4817536468
 20
23.7431333649
 30
0.0
 10
761.4817536468
 20
24.1398791211
 30
0.0
 10
761.4817536468
 20
24.1398791211
 30
0.0
 10
761.4817536468
 20
25.2704475029
 30
0.0
 10
761.4817536468
 20
25.2704475029
 30
0.0
  0
SPLINE
  5
23C
100
AcDbEntity
  8
0
100
AcDbSpline
 62
7
  6
CONTINUOUS
 70
2
 71
3
 72
44
 73
40
 74
0
 42
0.0000001
 43
0.0000001
 44
0.0000000001
 40
0.0
 40
0.0
 40
0.0
 40
0.0
 40
1.0
 40
1.0
 40
1.0
 40
2.0
 40
2.0
 40
2.0
 40
3.0
 40
3.0
 40
3.0
 40
4.0
 40
4.0
 40
4.0
 40
5.0
 40
5.0
 40
5.0
 40
6.0
 40
6.0
 40
6.0
 40
7.0
 40
7.0
 40
7.0
 40
8.0
 40
8.0
 40
8.0
 40
9.0
 40
9.0
 40
9.0
 40
10.0
 40
10.0
 40
10.0
 40
11.0
 40
11.0
 40
11.0
 40
12.0
 40
12.0
 40
12.0
 40
13.0
 40
13.0
 40
13.0
 40
13.0
 10
763.0506789822
 20
26.2555075466
 30
0.0
 10
763.0506789822
 20
26.2555075466
 30
0.0
 10
763.0506789822
 20
24.1173724357
 30
0.0
 10
763.0506789822
 20
24.1173724357
 30
0.0
 10
763.0506789822
 20
24.1173724357
 30
0.0
 10
763.272081957
 20
24.1173724357
 30
0.0
 10
763.272081957
 20
24.1173724357
 30
0.0
 10
763.272081957
 20
24.1173724357
 30
0.0
 10
763.272081957
 20
24.647064659
 30
0.0
 10
763.272081957
 20
24.647064659
 30
0.0
 10
763.272081957
 20
24.8569525854
 30
0.0
 10
763.272081957
 20
25.1076665923
 30
0.0
 10
763.5573411088
 20
25.1076665923
 30
0.0
 10
763.7842399021
 20
25.1076665923
 30
0.0
 10
763.8111955835
 20
24.9747201252
 30
0.0
 10
763.8111955835
 20
24.7784408923
 30
0.0
 10
763.8111955835
 20
24.7784408923
 30
0.0
 10
763.8111955835
 20
24.1173724357
 30
0.0
 10
763.8111955835
 20
24.1173724357
 30
0.0
 10
763.8111955835
 20
24.1173724357
 30
0.0
 10
764.0331219695
 20
24.1173724357
 30
0.0
 10
764.0331219695
 20
24.1173724357
 30
0.0
 10
764.0331219695
 20
24.1173724357
 30
0.0
 10
764.0331219695
 20
24.8046114567
 30
0.0
 10
764.0331219695
 20
24.8046114567
 30
0.0
 10
764.0331219695
 20
25.085159907
 30
0.0
 10
763.9491144578
 20
25.3049926479
 30
0.0
 10
763.624076048
 20
25.3049926479
 30
0.0
 10
763.4843252342
 20
25.3049926479
 30
0.0
 10
763.3461446542
 20
25.2385194143
 30
0.0
 10
763.2767926585
 20
25.1155177616
 30
0.0
 10
763.2767926585
 20
25.1155177616
 30
0.0
 10
763.272081957
 20
25.1155177616
 30
0.0
 10
763.272081957
 20
25.1155177616
 30
0.0
 10
763.272081957
 20
25.1155177616
 30
0.0
 10
763.272081957
 20
26.2555075466
 30
0.0
 10
763.272081957
 20
26.2555075466
 30
0.0
 10
763.272081957
 20
26.2555075466
 30
0.0
 10
763.0506789822
 20
26.2555075466
 30
0.0
 10
763.0506789822
 20
26.2555075466
 30
0.0
  0
LWPOLYLINE
  5
23D
100
AcDbEntity
  8
0
100
AcDbPolyline
 62
7
  6
CONTINUOUS
 90
2
 70
0
 43
0.2
 10
765.8729126464
 20
25.0631766329
 10
766.0893432139
 20
25.0631766329
  0
LWPOLYLINE
  5
23E
100
AcDbEntity
  8
0
100
AcDbPolyline
 62
7
  6
CONTINUOUS
 90
2
 70
0
 43
0.2
 10
766.0893432139
 20
25.0631766329
 10
766.0893432139
 20
25.2699240916
  0
LWPOLYLINE
  5
23F
100
AcDbEntity
  8
0
100
AcDbPolyline
 62
7
  6
CONTINUOUS
 90
2
 70
0
 43
0.2
 10
766.0893432139
 20
25.2699240916
 10
765.8729126464
 20
25.2699240916
  0
LWPOLYLINE
  5
240
100
AcDbEntity
  8
0
100
AcDbPolyline
 62
7
  6
CONTINUOUS
 90
2
 70
0
 43
0.2
 10
765.8729126464
 20
25.2699240916
 10
765.8729126464
 20
25.710636396
  0
LWPOLYLINE
  5
241
100
AcDbEntity
  8
0
100
AcDbPolyline
 62
7
  6
CONTINUOUS
 90
2
 70
0
 43
0.2
 10
765.8729126464
 20
25.710636396
 10
765.651247966
 20
25.710636396
  0
LWPOLYLINE
  5
242
100
AcDbEntity
  8
0
100
AcDbPolyline
 62
7
  6
CONTINUOUS
 90
2
 70
0
 43
0.2
 10
765.651247966
 20
25.710636396
 10
765.651247966
 20
25.2699240916
  0
LWPOLYLINE
  5
243
100
AcDbEntity
  8
0
100
AcDbPolyline
 62
7
  6
CONTINUOUS
 90
2
 70
0
 43
0.2
 10
765.651247966
 20
25.2699240916
 10
765.5306016641
 20
25.2699240916
  0
LWPOLYLINE
  5
244
100
AcDbEntity
  8
0
100
AcDbPolyline
 62
7
  6
CONTINUOUS
 90
2
 70
0
 43
0.2
 10
765.5306016641
 20
25.2699240916
 10
765.5306016641
 20
25.0631766329
  0
LWPOLYLINE
  5
245
100
AcDbEntity
  8
0
100
AcDbPolyline
 62
7
  6
CONTINUOUS
 90
2
 70
0
 43
0.2
 10
765.5306016641
 20
25.0631766329
 10
765.651247966
 20
25.0631766329
  0
LWPOLYLINE
  5
246
100
AcDbEntity
  8
0
100
AcDbPolyline
 62
7
  6
CONTINUOUS
 90
2
 70
0
 43
0.2
 10
765.651247966
 20
25.0631766329
 10
765.651247966
 20
24.1173724357
  0
LWPOLYLINE
  5
247
100
AcDbEntity
  8
0
100
AcDbPolyline
 62
7
  6
CONTINUOUS
 90
2
 70
0
 43
0.2
 10
765.651247966
 20
24.1173724357
 10
765.8729126464
 20
24.1173724357
  0
LWPOLYLINE
  5
248
100
AcDbEntity
  8
0
100
AcDbPolyline
 62
7
  6
CONTINUOUS
 90
2
 70
0
 43
0.2
 10
765.8729126464
 20
24.1173724357
 10
765.8729126464
 20
25.0631766329
  0
SPLINE
  5
249
100
AcDbEntity
  8
0
100
AcDbSpline
 62
7
  6
CONTINUOUS
 70
2
 71
3
 72
20
 73
16
 74
0
 42
0.0000001
 43
0.0000001
 44
0.0000000001
 40
0.0
 40
0.0
 40
0.0
 40
0.0
 40
1.0
 40
1.0
 40
1.0
 40
2.0
 40
2.0
 40
2.0
 40
3.0
 40
3.0
 40
3.0
 40
4.0
 40
4.0
 40
4.0
 40
5.0
 40
5.0
 40
5.0
 40
5.0
 10
753.6549229536
 20
34.4782988791
 30
0.0
 10
753.6549229536
 20
34.4782988791
 30
0.0
 10
755.9712796081
 20
31.6487374568
 30
0.0
 10
755.9712796081
 20
31.6487374568
 30
0.0
 10
755.3196325547
 20
30.9965669922
 30
0.0
 10
754.5427593507
 20
30.2606507214
 30
0.0
 10
753.571569706
 20
30.2606507214
 30
0.0
 10
752.5730318216
 20
30.2606507214
 30
0.0
 10
751.629713828
 20
31.1902291687
 30
0.0
 10
751.629713828
 20
32.1894213172
 30
0.0
 10
751.629713828
 20
33.1886134658
 30
0.0
 10
752.8085669011
 20
33.8952187044
 30
0.0
 10
753.5300893615
 20
34.3950764843
 30
0.0
 10
753.5300893615
 20
34.3950764843
 30
0.0
 10
753.6549229536
 20
34.4782988791
 30
0.0
 10
753.6549229536
 20
34.4782988791
 30
0.0
  0
SPLINE
  5
24A
100
AcDbEntity
  8
0
100
AcDbSpline
 62
7
  6
CONTINUOUS
 70
2
 71
3
 72
23
 73
19
 74
0
 42
0.0000001
 43
0.0000001
 44
0.0000000001
 40
0.0
 40
0.0
 40
0.0
 40
0.0
 40
1.0
 40
1.0
 40
1.0
 40
2.0
 40
2.0
 40
2.0
 40
3.0
 40
3.0
 40
3.0
 40
4.0
 40
4.0
 40
4.0
 40
5.0
 40
5.0
 40
5.0
 40
6.0
 40
6.0
 40
6.0
 40
6.0
 10
753.9323309362
 20
36.1160527988
 30
0.0
 10
753.9323309362
 20
36.1160527988
 30
0.0
 10
753.5858326636
 20
36.5593821596
 30
0.0
 10
753.5858326636
 20
36.5593821596
 30
0.0
 10
753.2800296187
 20
36.9474916296
 30
0.0
 10
752.9611412916
 20
37.335993658
 30
0.0
 10
752.9611412916
 20
37.8629379721
 30
0.0
 10
752.9611412916
 20
38.5291096887
 30
0.0
 10
753.502479416
 20
38.972831608
 30
0.0
 10
754.1263856712
 20
38.972831608
 30
0.0
 10
754.8201673332
 20
38.972831608
 30
0.0
 10
755.347373353
 20
38.5705900333
 30
0.0
 10
755.347373353
 20
37.8355897323
 30
0.0
 10
755.347373353
 20
37.0723252218
 30
0.0
 10
754.6261125983
 20
36.6422119959
 30
0.0
 10
754.0990374314
 20
36.2264925806
 30
0.0
 10
754.0990374314
 20
36.2264925806
 30
0.0
 10
753.9323309362
 20
36.1160527988
 30
0.0
 10
753.9323309362
 20
36.1160527988
 30
0.0
  0
SPLINE
  5
24B
100
AcDbEntity
  8
0
100
AcDbSpline
 62
7
  6
CONTINUOUS
 70
2
 71
3
 72
50
 73
46
 74
0
 42
0.0000001
 43
0.0000001
 44
0.0000000001
 40
0.0
 40
0.0
 40
0.0
 40
0.0
 40
1.0
 40
1.0
 40
1.0
 40
2.0
 40
2.0
 40
2.0
 40
3.0
 40
3.0
 40
3.0
 40
4.0
 40
4.0
 40
4.0
 40
5.0
 40
5.0
 40
5.0
 40
6.0
 40
6.0
 40
6.0
 40
7.0
 40
7.0
 40
7.0
 40
8.0
 40
8.0
 40
8.0
 40
9.0
 40
9.0
 40
9.0
 40
10.0
 40
10.0
 40
10.0
 40
11.0
 40
11.0
 40
11.0
 40
12.0
 40
12.0
 40
12.0
 40
13.0
 40
13.0
 40
13.0
 40
14.0
 40
14.0
 40
14.0
 40
15.0
 40
15.0
 40
15.0
 40
15.0
 10
757.8859180991
 20
29.3174635807
 30
0.0
 10
757.8859180991
 20
29.3174635807
 30
0.0
 10
759.4951461037
 20
29.3174635807
 30
0.0
 10
759.4951461037
 20
29.3174635807
 30
0.0
 10
759.4951461037
 20
29.3174635807
 30
0.0
 10
757.62211881
 20
31.6346053521
 30
0.0
 10
757.62211881
 20
31.6346053521
 30
0.0
 10
757.62211881
 20
31.6346053521
 30
0.0
 10
758.8984572355
 20
33.1320850467
 30
0.0
 10
758.8984572355
 20
33.1320850467
 30
0.0
 10
758.8984572355
 20
33.1320850467
 30
0.0
 10
758.0662332878
 20
33.9930966152
 30
0.0
 10
758.0662332878
 20
33.9930966152
 30
0.0
 10
758.0662332878
 20
33.9930966152
 30
0.0
 10
756.8456381645
 20
32.5777924928
 30
0.0
 10
756.8456381645
 20
32.5777924928
 30
0.0
 10
756.8456381645
 20
32.5777924928
 30
0.0
 10
754.6677237957
 20
35.2131683272
 30
0.0
 10
754.6677237957
 20
35.2131683272
 30
0.0
 10
755.5412972351
 20
35.8512066872
 30
0.0
 10
756.5679684763
 20
36.6422119959
 30
0.0
 10
756.5679684763
 20
37.8210650691
 30
0.0
 10
756.5679684763
 20
39.1947579941
 30
0.0
 10
755.4300723364
 20
39.9992411435
 30
0.0
 10
754.1547807335
 20
39.9992411435
 30
0.0
 10
752.7813495142
 20
39.9992411435
 30
0.0
 10
751.7404153154
 20
39.1530159439
 30
0.0
 10
751.7404153154
 20
37.7103635817
 30
0.0
 10
751.7404153154
 20
36.8227888903
 30
0.0
 10
752.2957546919
 20
36.0459156862
 30
0.0
 10
752.8919201487
 20
35.4214860198
 30
0.0
 10
752.8919201487
 20
35.4214860198
 30
0.0
 10
752.2400113897
 20
34.9498924494
 30
0.0
 10
752.2400113897
 20
34.9498924494
 30
0.0
 10
751.2414735053
 20
34.2286316948
 30
0.0
 10
750.4085952934
 20
33.5073709401
 30
0.0
 10
750.4085952934
 20
32.1758126237
 30
0.0
 10
750.4085952934
 20
30.3721373257
 30
0.0
 10
751.865641466
 20
29.0955371946
 30
0.0
 10
753.6131809034
 20
29.0955371946
 30
0.0
 10
754.8480389843
 20
29.0955371946
 30
0.0
 10
755.957409209
 20
29.8037126671
 30
0.0
 10
756.7482836649
 20
30.7322442918
 30
0.0
 10
756.7482836649
 20
30.7322442918
 30
0.0
 10
757.8859180991
 20
29.3174635807
 30
0.0
 10
757.8859180991
 20
29.3174635807
 30
0.0
  0
LINE
  5
24C
100
AcDbEntity
  8
0
100
AcDbLine
 62
7
  6
CONTINUOUS
 10
743.6887794741
 20
27.2913384853
 11
766.1026902018
 21
27.2913384853
  0
LINE
  5
24D
100
AcDbEntity
  8
0
100
AcDbLine
 62
7
  6
CONTINUOUS
 10
766.1026902018
 20
27.2913384853
 11
766.1026902018
 21
49.705249213
  0
LINE
  5
24E
100
AcDbEntity
  8
0
100
AcDbLine
 62
7
  6
CONTINUOUS
 10
766.1026902018
 20
49.705249213
 11
743.6887794741
 21
49.705249213
  0
LINE
  5
24F
100
AcDbEntity
  8
0
100
AcDbLine
 62
7
  6
CONTINUOUS
 10
743.6887794741
 20
49.705249213
 11
743.6887794741
 21
27.2913384853
  0
ENDBLK
  5
250
100
AcDbEntity
  8
0
  6
BYBLOCK
 62
0
100
AcDbBlockEnd
  0
BLOCK
  5
251
100
AcDbEntity
  8
0
100
AcDbBlockBegin
  2
_CLOSED
 70
64
 10
0.0
 20
0.0
  3
_CLOSED
  1

  0
LINE
  5
252
100
AcDbEntity
  8
0
  6
BYBLOCK
 62
0
100
AcDbLine
 10
0.0
 20
0.0
 11
-1.0
 21
0.2
  0
LINE
  5
253
100
AcDbEntity
  8
0
  6
BYBLOCK
 62
0
100
AcDbLine
 10
-1.0
 20
0.2
 11
-1.0
 21
-0.2
  0
LINE
  5
254
100
AcDbEntity
  8
0
  6
BYBLOCK
 62
0
100
AcDbLine
 10
-1.0
 20
-0.2
 11
0.0
 21
0.0
  0
LINE
  5
255
100
AcDbEntity
  8
0
  6
BYBLOCK
 62
0
100
AcDbLine
 10
-1.0
 20
0.0
 11
0.0
 21
0.0
  0
ENDBLK
  5
256
100
AcDbEntity
  8
0
  6
BYBLOCK
 62
0
100
AcDbBlockEnd
  0
BLOCK
  5
257
100
AcDbEntity
  8
0
100
AcDbBlockBegin
 62
2
  6
CONTINUOUS
  2
*D0
 70
65
 10
0.0
 20
0.0
  3
*D0
  1

  0
MTEXT
  5
258
100
AcDbEntity
  8
0
100
AcDbMText
 62
2
  6
CONTINUOUS
  7
STANDARD
 71
2
 72
1
 10
30.2035309447
 20
237.1259479756
 30
0.0
 11
0.0
 21
1.0
 31
0.0
  1
79,8
 40
8.0
 41
21.7397769517
  0
LINE
  5
259
100
AcDbEntity
  8
0
100
AcDbLine
 62
2
  6
CONTINUOUS
 10
52.1745308015
 20
197.2259479756
 11
39.4535309447
 21
197.2259479756
  0
LINE
  5
25A
100
AcDbEntity
  8
0
100
AcDbLine
 62
2
  6
CONTINUOUS
 10
56.1975563642
 20
277.0259479756
 11
39.4535309447
 21
277.0259479756
  0
LINE
  5
25B
100
AcDbEntity
  8
0
100
AcDbLine
 62
2
  6
CONTINUOUS
 10
40.2035309447
 20
197.2259479756
 11
40.2035309447
 21
237.1259479756
  0
LINE
  5
25C
100
AcDbEntity
  8
0
100
AcDbLine
 62
2
  6
CONTINUOUS
 10
40.2035309447
 20
277.0259479756
 11
40.2035309447
 21
237.1259479756
  0
INSERT
  5
25D
100
AcDbEntity
  8
0
100
AcDbBlockReference
 62
2
  6
CONTINUOUS
  2
_CLOSED
 10
40.2035309447
 20
197.2259479756
 41
2.5
 42
2.5
 43
2.5
 50
270.0
  0
INSERT
  5
25E
100
AcDbEntity
  8
0
100
AcDbBlockReference
 62
2
  6
CONTINUOUS
  2
_CLOSED
 10
40.2035309447
 20
277.0259479756
 41
2.5
 42
2.5
 43
2.5
 50
90.0
  0
ENDBLK
  5
25F
100
AcDbEntity
  8
0
  6
BYBLOCK
 62
0
100
AcDbBlockEnd
  0
BLOCK
  5
260
100
AcDbEntity
  8
0
100
AcDbBlockBegin
 62
2
  6
CONTINUOUS
  2
*D1
 70
65
 10
0.0
 20
0.0
  3
*D1
  1

  0
MTEXT
  5
261
100
AcDbEntity
  8
0
100
AcDbMText
 62
2
  6
CONTINUOUS
  7
STANDARD
 71
2
 72
1
 10
95.5518722707
 20
175.9227372852
 30
0.0
 11
1.0
 21
0.0
 31
0.0
  1
42,4
 40
8.0
 41
21.7397769517
  0
LINE
  5
262
100
AcDbEntity
  8
0
100
AcDbLine
 62
2
  6
CONTINUOUS
 10
74.3518722707
 20
175.9125666445
 11
74.3518722707
 21
165.1727372852
  0
LINE
  5
263
100
AcDbEntity
  8
0
100
AcDbLine
 62
2
  6
CONTINUOUS
 10
116.7518722707
 20
175.9125666445
 11
116.7518722707
 21
165.1727372852
  0
LINE
  5
264
100
AcDbEntity
  8
0
100
AcDbLine
 62
2
  6
CONTINUOUS
 10
74.3518722707
 20
165.9227372852
 11
95.5518722707
 21
165.9227372852
  0
LINE
  5
265
100
AcDbEntity
  8
0
100
AcDbLine
 62
2
  6
CONTINUOUS
 10
116.7518722707
 20
165.9227372852
 11
95.5518722707
 21
165.9227372852
  0
INSERT
  5
266
100
AcDbEntity
  8
0
100
AcDbBlockReference
 62
2
  6
CONTINUOUS
  2
_CLOSED
 10
74.3518722707
 20
165.9227372852
 41
2.5
 42
2.5
 43
2.5
 50
180.0
  0
INSERT
  5
267
100
AcDbEntity
  8
0
100
AcDbBlockReference
 62
2
  6
CONTINUOUS
  2
_CLOSED
 10
116.7518722707
 20
165.9227372852
 41
2.5
 42
2.5
 43
2.5
  0
ENDBLK
  5
268
100
AcDbEntity
  8
0
  6
BYBLOCK
 62
0
100
AcDbBlockEnd
  0
BLOCK
  5
269
100
AcDbEntity
  8
0
100
AcDbBlockBegin
 62
2
  6
CONTINUOUS
  2
*D2
 70
65
 10
0.0
 20
0.0
  3
*D2
  1

  0
MTEXT
  5
26A
100
AcDbEntity
  8
0
100
AcDbMText
 62
2
  6
CONTINUOUS
  7
STANDARD
 71
2
 72
1
 10
95.5518722707
 20
149.1385310744
 30
0.0
 11
1.0
 21
0.0
 31
0.0
  1
82,1
 40
8.0
 41
21.7397769517
  0
LINE
  5
26B
100
AcDbEntity
  8
0
100
AcDbLine
 62
2
  6
CONTINUOUS
 10
54.5018722707
 20
175.9125666445
 11
54.5018722707
 21
138.3885310744
  0
LINE
  5
26C
100
AcDbEntity
  8
0
100
AcDbLine
 62
2
  6
CONTINUOUS
 10
136.6018722707
 20
175.9125666445
 11
136.6018722707
 21
138.3885310744
  0
LINE
  5
26D
100
AcDbEntity
  8
0
100
AcDbLine
 62
2
  6
CONTINUOUS
 10
54.5018722707
 20
139.1385310744
 11
95.5518722707
 21
139.1385310744
  0
LINE
  5
26E
100
AcDbEntity
  8
0
100
AcDbLine
 62
2
  6
CONTINUOUS
 10
136.6018722707
 20
139.1385310744
 11
95.5518722707
 21
139.1385310744
  0
INSERT
  5
26F
100
AcDbEntity
  8
0
100
AcDbBlockReference
 62
2
  6
CONTINUOUS
  2
_CLOSED
 10
54.5018722707
 20
139.1385310744
 41
2.5
 42
2.5
 43
2.5
 50
180.0
  0
INSERT
  5
270
100
AcDbEntity
  8
0
100
AcDbBlockReference
 62
2
  6
CONTINUOUS
  2
_CLOSED
 10
136.6018722707
 20
139.1385310744
 41
2.5
 42
2.5
 43
2.5
  0
ENDBLK
  5
271
100
AcDbEntity
  8
0
  6
BYBLOCK
 62
0
100
AcDbBlockEnd
  0
BLOCK
  5
272
100
AcDbEntity
  8
0
100
AcDbBlockBegin
 62
2
  6
CONTINUOUS
  2
*D3
 70
65
 10
0.0
 20
0.0
  3
*D3
  1

  0
MTEXT
  5
273
100
AcDbEntity
  8
0
100
AcDbMText
 62
2
  6
CONTINUOUS
  7
STANDARD
 71
2
 72
1
 10
501.5339684274
 20
175.9227372852
 30
0.0
 11
1.0
 21
0.0
 31
0.0
  1
567
 40
8.0
 41
18.6468401487
  0
LINE
  5
274
100
AcDbEntity
  8
0
100
AcDbLine
 62
2
  6
CONTINUOUS
 10
218.0339684274
 20
178.9497576244
 11
218.0339684274
 21
165.1727372852
  0
LINE
  5
275
100
AcDbEntity
  8
0
100
AcDbLine
 62
2
  6
CONTINUOUS
 10
785.0339684274
 20
175.9125666445
 11
785.0339684274
 21
165.1727372852
  0
LINE
  5
276
100
AcDbEntity
  8
0
100
AcDbLine
 62
2
  6
CONTINUOUS
 10
218.0339684274
 20
165.9227372852
 11
501.5339684274
 21
165.9227372852
  0
LINE
  5
277
100
AcDbEntity
  8
0
100
AcDbLine
 62
2
  6
CONTINUOUS
 10
785.0339684274
 20
165.9227372852
 11
501.5339684274
 21
165.9227372852
  0
INSERT
  5
278
100
AcDbEntity
  8
0
100
AcDbBlockReference
 62
2
  6
CONTINUOUS
  2
_CLOSED
 10
218.0339684274
 20
165.9227372852
 41
2.5
 42
2.5
 43
2.5
 50
180.0
  0
INSERT
  5
279
100
AcDbEntity
  8
0
100
AcDbBlockReference
 62
2
  6
CONTINUOUS
  2
_CLOSED
 10
785.0339684274
 20
165.9227372852
 41
2.5
 42
2.5
 43
2.5
  0
ENDBLK
  5
27A
100
AcDbEntity
  8
0
  6
BYBLOCK
 62
0
100
AcDbBlockEnd
  0
ENDSEC
  0
SECTION
  2
ENTITIES
  0
DIMENSION
  5
27B
100
AcDbEntity
  8
0
100
AcDbDimension
 62
2
  6
CONTINUOUS
  2
*D0
 10
40.2035309447
 20
277.0259479756
 11
40.2035309447
 21
237.1155591699
 70
160
  3
DIMSTYLE_1
100
AcDbAlignedDimension
 13
52.9245308015
 23
197.2259479756
 14
56.9475563642
 24
277.0259479756
 50
90.0
100
AcDbRotatedDimension
  0
DIMENSION
  5
27C
100
AcDbEntity
  8
0
100
AcDbDimension
 62
2
  6
CONTINUOUS
  2
*D1
 10
116.7518722707
 20
165.9227372852
 11
95.3481760941
 21
165.9227372852
 70
160
  3
DIMSTYLE_1
100
AcDbAlignedDimension
 13
74.3518722707
 23
176.6625666445
 14
116.7518722707
 24
176.6625666445
100
AcDbRotatedDimension
  0
DIMENSION
  5
27D
100
AcDbEntity
  8
0
100
AcDbDimension
 62
2
  6
CONTINUOUS
  2
*D2
 10
136.6018722707
 20
139.1385310744
 11
94.738506916
 21
139.1385310744
 70
160
  3
DIMSTYLE_1
100
AcDbAlignedDimension
 13
54.5018722707
 23
176.6625666445
 14
136.6018722707
 24
176.6625666445
100
AcDbRotatedDimension
  0
DIMENSION
  5
27E
100
AcDbEntity
  8
0
100
AcDbDimension
 62
2
  6
CONTINUOUS
  2
*D3
 10
785.0339684274
 20
165.9227372852
 11
501.5059217834
 21
165.9227372852
 70
160
  3
DIMSTYLE_2
100
AcDbAlignedDimension
 13
218.0339684274
 23
179.6997576244
 14
785.0339684274
 24
176.6625666445
100
AcDbRotatedDimension
  0
LINE
  5
27F
100
AcDbEntity
  8
0
100
AcDbLine
 62
2
  6
CONTINUOUS
 10
741.0696223667
 20
50.081561713
 11
831.0696223667
 21
50.081561713
  0
LINE
  5
280
100
AcDbEntity
  8
0
100
AcDbLine
 62
2
  6
CONTINUOUS
 10
741.0696223667
 20
50.081561713
 11
741.0696223667
 21
10.081561713
  0
LINE
  5
281
100
AcDbEntity
  8
0
100
AcDbLine
 62
2
  6
CONTINUOUS
 10
771.0696223667
 20
44.081561713
 11
831.0696223667
 21
44.081561713
  0
LINE
  5
282
100
AcDbEntity
  8
0
100
AcDbLine
 62
2
  6
CONTINUOUS
 10
771.0696223667
 20
38.081561713
 11
831.0696223667
 21
38.081561713
  0
LINE
  5
283
100
AcDbEntity
  8
0
100
AcDbLine
 62
2
  6
CONTINUOUS
 10
771.0696223667
 20
28.081561713
 11
831.0696223667
 21
28.081561713
  0
LINE
  5
284
100
AcDbEntity
  8
0
100
AcDbLine
 62
2
  6
CONTINUOUS
 10
741.0696223667
 20
23.081561713
 11
831.0696223667
 21
23.081561713
  0
LINE
  5
285
100
AcDbEntity
  8
0
100
AcDbLine
 62
2
  6
CONTINUOUS
 10
741.0696223667
 20
10.081561713
 11
831.0696223667
 21
10.081561713
  0
LINE
  5
286
100
AcDbEntity
  8
0
100
AcDbLine
 62
2
  6
CONTINUOUS
 10
771.0696223667
 20
50.081561713
 11
771.0696223667
 21
23.081561713
  0
LINE
  5
287
100
AcDbEntity
  8
0
100
AcDbLine
 62
2
  6
CONTINUOUS
 10
811.0696223667
 20
50.081561713
 11
811.0696223667
 21
38.081561713
  0
LINE
  5
288
100
AcDbEntity
  8
0
100
AcDbLine
 62
2
  6
CONTINUOUS
 10
831.0696223667
 20
50.081561713
 11
831.0696223667
 21
10.081561713
  0
INSERT
  5
289
100
AcDbEntity
  8
0
100
AcDbBlockReference
 62
2
  6
CONTINUOUS
  2
LOGO2_BL0
 10
754.8956694115
 20
36.581561713
  0
MTEXT
  5
28A
100
AcDbEntity
  8
9_SOLID
100
AcDbMText
 62
2
  6
CONTINUOUS
  7
TEXTSTYLE_2
 71
1
 72
1
 10
772.5571223667
 20
48.581561713
 30
0.0
 11
1.0
 21
0.0
 31
0.0
  1
6F3_C_041
 40
3.0
 41
31.2857142857
  0
MTEXT
  5
28B
100
AcDbEntity
  8
0
100
AcDbMText
 62
2
  6
CONTINUOUS
  7
TEXTSTYLE_2
 71
1
 72
1
 10
812.5571223667
 20
48.331561713
 30
0.0
 11
1.0
 21
0.0
 31
0.0
  1
Rev:00
 40
3.5
 41
22.75
  0
MTEXT
  5
28C
100
AcDbEntity
  8
9_SOLID
100
AcDbMText
 62
2
  6
CONTINUOUS
  7
TEXTSTYLE_2
 71
1
 72
1
 10
772.5571223667
 20
42.331561713
 30
0.0
 11
1.0
 21
0.0
 31
0.0
  1
Scale:1:1
 40
3.5
 41
28.375
  0
MTEXT
  5
28D
100
AcDbEntity
  8
9_SOLID
100
AcDbMText
 62
2
  6
CONTINUOUS
  7
TEXTSTYLE_2
 71
1
 72
1
 10
812.5571223667
 20
42.831561713
 30
0.0
 11
1.0
 21
0.0
 31
0.0
  1
A1
 40
3.5
 41
8.5
  0
MTEXT
  5
28E
100
AcDbEntity
  8
0
100
AcDbMText
 62
2
  6
CONTINUOUS
  7
TEXTSTYLE_2
 71
1
 72
1
 10
772.5571223667
 20
34.831561713
 30
0.0
 11
1.0
 21
0.0
 31
0.0
  1
CASS. BRENTA 1.1 A FILO
 40
3.5
 41
90.875
  0
MTEXT
  5
28F
100
AcDbEntity
  8
0
100
AcDbMText
 62
2
  6
CONTINUOUS
  7
TEXTSTYLE_2
 71
1
 72
1
 10
772.5571223667
 20
26.831561713
 30
0.0
 11
1.0
 21
0.0
 31
0.0
  1
DATE:07/05/18
 40
2.5
 41
36.875
  0
MTEXT
  5
290
100
AcDbEntity
  8
9_SOLID
100
AcDbMText
 62
2
  6
CONTINUOUS
  7
TEXTSTYLE_2
 71
1
 72
1
 10
742.5571223667
 20
22.769061713
 30
0.0
 11
1.0
 21
0.0
 31
0.0
  1
Any integral or partial reproductions are prohibited \Pwithout prior authorisation of L {\Ftxt.shx;\W0.190476;\H2.250000; }& L Luce & Light s.r.l., \Pin accordance with the law in force. \PAll rights reserved.
 40
2.25
 41
134.5982142857
  0
LINE
  5
291
100
AcDbEntity
  8
0
100
AcDbLine
 62
7
  6
CONTINUOUS
 10
0.0
 20
0.0
 11
0.0
 21
594.0
  0
LINE
  5
292
100
AcDbEntity
  8
0
100
AcDbLine
 62
7
  6
CONTINUOUS
 10
0.0
 20
0.0
 11
841.0
 21
0.0
  0
LINE
  5
293
100
AcDbEntity
  8
0
100
AcDbLine
 62
7
  6
CONTINUOUS
 10
0.0
 20
594.0
 11
841.0
 21
594.0
  0
LINE
  5
294
100
AcDbEntity
  8
0
100
AcDbLine
 62
7
  6
CONTINUOUS
 10
841.0
 20
0.0
 11
841.0
 21
594.0
  0
LINE
  5
295
100
AcDbEntity
  8
3_ALL_AXES
100
AcDbLine
 62
7
  6
CONTINUOUS
 10
217.0339684274
 20
205.4759960418
 11
217.0339684274
 21
210.9758999094
  0
LINE
  5
296
100
AcDbEntity
  8
3_ALL_AXES
100
AcDbLine
 62
7
  6
CONTINUOUS
 10
217.0339684274
 20
271.0759960418
 11
217.0339684274
 21
276.5758999094
  0
LINE
  5
297
100
AcDbEntity
  8
3_ALL_AXES
100
AcDbLine
 62
7
  6
CONTINUOUS
 10
217.1846887571
 20
205.4759479756
 11
217.1846887571
 21
210.9759479756
  0
LINE
  5
298
100
AcDbEntity
  8
3_ALL_AXES
100
AcDbLine
 62
7
  6
CONTINUOUS
 10
217.1846887571
 20
271.0759479756
 11
217.1846887571
 21
276.5759479756
  0
LINE
  5
299
100
AcDbEntity
  8
7_ALL_FEATURES
100
AcDbLine
 62
7
  6
CONTINUOUS
 10
218.0339684274
 20
197.2259479756
 11
218.0339684274
 21
277.0259479756
  0
LINE
  5
29A
100
AcDbEntity
  8
6_ALL_SURFS
100
AcDbLine
 62
7
  6
CONTINUOUS
 10
219.5339684274
 20
197.2376632732
 11
219.5339684274
 21
197.2259479756
  0
LINE
  5
29B
100
AcDbEntity
  8
7_ALL_FEATURES
100
AcDbLine
 62
7
  6
CONTINUOUS
 10
219.5339684274
 20
197.2376632732
 11
219.5339684274
 21
198.7259479756
  0
LINE
  5
29C
100
AcDbEntity
  8
6_ALL_SURFS
100
AcDbLine
 62
7
  6
CONTINUOUS
 10
219.5339684274
 20
198.7259479756
 11
219.5339684274
 21
199.8759479756
  0
LINE
  5
29D
100
AcDbEntity
  8
6_ALL_SURFS
100
AcDbLine
 62
7
  6
CONTINUOUS
 10
219.5339684274
 20
207.3259479756
 11
219.5339684274
 21
209.1259479756
  0
LINE
  5
29E
100
AcDbEntity
  8
7_ALL_FEATURES
100
AcDbLine
 62
7
  6
CONTINUOUS
 10
219.5339684274
 20
199.8759479756
 11
219.5339684274
 21
276.2759479756
  0
LINE
  5
29F
100
AcDbEntity
  8
6_ALL_SURFS
100
AcDbLine
 62
7
  6
CONTINUOUS
 10
219.5339684274
 20
213.6259479756
 11
219.5339684274
 21
265.7404679706
  0
LINE
  5
2A0
100
AcDbEntity
  8
6_ALL_SURFS
100
AcDbLine
 62
7
  6
CONTINUOUS
 10
219.5339684274
 20
276.0259479756
 11
219.5339684274
 21
277.0259479756
  0
LINE
  5
2A1
100
AcDbEntity
  8
3_ALL_AXES
100
AcDbLine
 62
7
  6
CONTINUOUS
 10
218.0339684274
 20
271.7885782338
 11
217.1846887571
 21
271.0759479756
  0
LINE
  5
2A2
100
AcDbEntity
  8
3_ALL_AXES
100
AcDbLine
 62
7
  6
CONTINUOUS
 10
218.0339684274
 20
210.2633177174
 11
217.1846887571
 21
210.9759479756
  0
LINE
  5
2A3
100
AcDbEntity
  8
3_ALL_AXES
100
AcDbLine
 62
7
  6
CONTINUOUS
 10
218.0339684274
 20
206.1885782338
 11
217.1846887571
 21
205.4759479756
  0
LINE
  5
2A4
100
AcDbEntity
  8
3_ALL_AXES
100
AcDbLine
 62
7
  6
CONTINUOUS
 10
218.0339684274
 20
275.8633177174
 11
217.1846887571
 21
276.5759479756
  0
LINE
  5
2A5
100
AcDbEntity
  8
7_ALL_FEATURES
100
AcDbLine
 62
7
  6
CONTINUOUS
 10
785.0339684274
 20
197.2259479756
 11
783.5339684274
 21
197.2259479756
  0
LINE
  5
2A6
100
AcDbEntity
  8
6_ALL_SURFS
100
AcDbLine
 62
7
  6
CONTINUOUS
 10
783.5339684274
 20
197.2259479756
 11
219.5339684274
 21
197.2259479756
  0
LINE
  5
2A7
100
AcDbEntity
  8
7_ALL_FEATURES
100
AcDbLine
 62
7
  6
CONTINUOUS
 10
218.0339684274
 20
197.2259479756
 11
219.5339684274
 21
197.2259479756
  0
LINE
  5
2A8
100
AcDbEntity
  8
6_ALL_SURFS
100
AcDbLine
 62
9
  6
CONTINUOUS
 10
783.5339684274
 20
197.5259479756
 11
219.5339684274
 21
197.5259479756
  0
LINE
  5
2A9
100
AcDbEntity
  8
7_ALL_FEATURES
100
AcDbLine
 62
9
  6
CONTINUOUS
 10
785.0339684274
 20
197.9759479756
 11
783.5339684274
 21
197.9759479756
  0
LINE
  5
2AA
100
AcDbEntity
  8
7_ALL_FEATURES
100
AcDbLine
 62
9
  6
CONTINUOUS
 10
218.0339684274
 20
197.9759479756
 11
219.5339684274
 21
197.9759479756
  0
LINE
  5
2AB
100
AcDbEntity
  8
6_ALL_SURFS
100
AcDbLine
 62
9
  6
CONTINUOUS
 10
219.5339684274
 20
198.4259479756
 11
783.5339684274
 21
198.4259479756
  0
LINE
  5
2AC
100
AcDbEntity
  8
6_ALL_SURFS
100
AcDbLine
 62
7
  6
CONTINUOUS
 10
219.5339684274
 20
198.7259479756
 11
783.5339684274
 21
198.7259479756
  0
LINE
  5
2AD
100
AcDbEntity
  8
6_ALL_SURFS
100
AcDbLine
 62
9
  6
CONTINUOUS
 10
783.5339684274
 20
198.9404951346
 11
219.5339684274
 21
198.9404951346
  0
LINE
  5
2AE
100
AcDbEntity
  8
6_ALL_SURFS
100
AcDbLine
 62
7
  6
CONTINUOUS
 10
783.5339684274
 20
199.7259479756
 11
219.5339684274
 21
199.7259479756
  0
LINE
  5
2AF
100
AcDbEntity
  8
6_ALL_SURFS
100
AcDbLine
 62
7
  6
CONTINUOUS
 10
219.5339684274
 20
199.8759479756
 11
783.5339684274
 21
199.8759479756
  0
LINE
  5
2B0
100
AcDbEntity
  8
6_ALL_SURFS
100
AcDbLine
 62
9
  6
CONTINUOUS
 10
219.5339684274
 20
200.0259479756
 11
783.5339684274
 21
200.0259479756
  0
LINE
  5
2B1
100
AcDbEntity
  8
6_ALL_SURFS
100
AcDbLine
 62
9
  6
CONTINUOUS
 10
783.5339684274
 20
200.9384474266
 11
219.5339684274
 21
200.9384474266
  0
LINE
  5
2B2
100
AcDbEntity
  8
6_ALL_SURFS
100
AcDbLine
 62
9
  6
CONTINUOUS
 10
783.5339684274
 20
201.9614449666
 11
219.5339684274
 21
201.9614449666
  0
LINE
  5
2B3
100
AcDbEntity
  8
6_ALL_SURFS
100
AcDbLine
 62
9
  6
CONTINUOUS
 10
219.5339684274
 20
204.4951384568
 11
783.5339684274
 21
204.4951384568
  0
LINE
  5
2B4
100
AcDbEntity
  8
6_ALL_SURFS
100
AcDbLine
 62
9
  6
CONTINUOUS
 10
219.5339684274
 20
204.8361376369
 11
783.5339684274
 21
204.8361376369
  0
LINE
  5
2B5
100
AcDbEntity
  8
6_ALL_SURFS
100
AcDbLine
 62
9
  6
CONTINUOUS
 10
219.5339684274
 20
205.0259479756
 11
783.5339684274
 21
205.0259479756
  0
LINE
  5
2B6
100
AcDbEntity
  8
6_ALL_SURFS
100
AcDbLine
 62
7
  6
CONTINUOUS
 10
783.5339684274
 20
205.3259479756
 11
219.5339684274
 21
205.3259479756
  0
LINE
  5
2B7
100
AcDbEntity
  8
3_ALL_AXES
100
AcDbLine
 62
7
  6
CONTINUOUS
 10
217.1846887571
 20
205.4759479756
 11
217.0339684274
 21
205.4759479756
  0
LINE
  5
2B8
100
AcDbEntity
  8
3_ALL_AXES
100
AcDbLine
 62
7
  6
CONTINUOUS
 10
785.8832480978
 20
205.4759479756
 11
786.0339684274
 21
205.4759479756
  0
LINE
  5
2B9
100
AcDbEntity
  8
6_ALL_SURFS
100
AcDbLine
 62
9
  6
CONTINUOUS
 10
783.5339684274
 20
207.3259479756
 11
219.5339684274
 21
207.3259479756
  0
LINE
  5
2BA
100
AcDbEntity
  8
6_ALL_SURFS
100
AcDbLine
 62
9
  6
CONTINUOUS
 10
783.5339684274
 20
209.1259479756
 11
219.5339684274
 21
209.1259479756
  0
LINE
  5
2BB
100
AcDbEntity
  8
3_ALL_AXES
100
AcDbLine
 62
7
  6
CONTINUOUS
 10
217.1846887571
 20
210.9759479756
 11
217.0339684274
 21
210.9759479756
  0
LINE
  5
2BC
100
AcDbEntity
  8
3_ALL_AXES
100
AcDbLine
 62
7
  6
CONTINUOUS
 10
785.8832480978
 20
210.9759479756
 11
786.0339684274
 21
210.9759479756
  0
LINE
  5
2BD
100
AcDbEntity
  8
6_ALL_SURFS
100
AcDbLine
 62
7
  6
CONTINUOUS
 10
783.5339684274
 20
211.1259479756
 11
219.5339684274
 21
211.1259479756
  0
LINE
  5
2BE
100
AcDbEntity
  8
7_ALL_FEATURES
100
AcDbLine
 62
9
  6
CONTINUOUS
 10
785.0339684274
 20
211.3759479756
 11
783.5339684274
 21
211.3759479756
  0
LINE
  5
2BF
100
AcDbEntity
  8
7_ALL_FEATURES
100
AcDbLine
 62
9
  6
CONTINUOUS
 10
219.5339684274
 20
211.3759479756
 11
218.0339684274
 21
211.3759479756
  0
LINE
  5
2C0
100
AcDbEntity
  8
6_ALL_SURFS
100
AcDbLine
 62
9
  6
CONTINUOUS
 10
219.5339684274
 20
211.4259479756
 11
783.5339684274
 21
211.4259479756
  0
LINE
  5
2C1
100
AcDbEntity
  8
7_ALL_FEATURES
100
AcDbLine
 62
7
  6
CONTINUOUS
 10
785.0339684274
 20
212.1259479756
 11
783.5339684274
 21
212.1259479756
  0
LINE
  5
2C2
100
AcDbEntity
  8
7_ALL_FEATURES
100
AcDbLine
 62
7
  6
CONTINUOUS
 10
219.5339684274
 20
212.1259479756
 11
218.0339684274
 21
212.1259479756
  0
LINE
  5
2C3
100
AcDbEntity
  8
7_ALL_FEATURES
100
AcDbLine
 62
9
  6
CONTINUOUS
 10
785.0339684274
 20
213.6259479756
 11
783.5339684274
 21
213.6259479756
  0
LINE
  5
2C4
100
AcDbEntity
  8
7_ALL_FEATURES
100
AcDbLine
 62
9
  6
CONTINUOUS
 10
218.0339684274
 20
213.6259479756
 11
219.5339684274
 21
213.6259479756
  0
LINE
  5
2C5
100
AcDbEntity
  8
6_ALL_SURFS
100
AcDbLine
 62
9
  6
CONTINUOUS
 10
783.5339684274
 20
256.1714619049
 11
219.5339684274
 21
256.1714619049
  0
LINE
  5
2C6
100
AcDbEntity
  8
7_ALL_FEATURES
100
AcDbLine
 62
7
  6
CONTINUOUS
 10
219.5339684274
 20
256.7190509633
 11
218.0339684274
 21
256.7190509633
  0
LINE
  5
2C7
100
AcDbEntity
  8
7_ALL_FEATURES
100
AcDbLine
 62
7
  6
CONTINUOUS
 10
783.5339684274
 20
256.7190509633
 11
785.0339684274
 21
256.7190509633
  0
LINE
  5
2C8
100
AcDbEntity
  8
6_ALL_SURFS
100
AcDbLine
 62
9
  6
CONTINUOUS
 10
783.5339684274
 20
257.2536599746
 11
219.5339684274
 21
257.2536599746
  0
LINE
  5
2C9
100
AcDbEntity
  8
7_ALL_FEATURES
100
AcDbLine
 62
7
  6
CONTINUOUS
 10
219.5339684274
 20
265.7404679706
 11
218.0339684274
 21
265.7404679706
  0
LINE
  5
2CA
100
AcDbEntity
  8
7_ALL_FEATURES
100
AcDbLine
 62
7
  6
CONTINUOUS
 10
783.5339684274
 20
265.7404679706
 11
785.0339684274
 21
265.7404679706
  0
LINE
  5
2CB
100
AcDbEntity
  8
6_ALL_SURFS
100
AcDbLine
 62
9
  6
CONTINUOUS
 10
783.5339684274
 20
270.9059252605
 11
219.5339684274
 21
270.9059252605
  0
LINE
  5
2CC
100
AcDbEntity
  8
3_ALL_AXES
100
AcDbLine
 62
7
  6
CONTINUOUS
 10
217.1846887571
 20
271.0759479756
 11
217.0339684274
 21
271.0759479756
  0
LINE
  5
2CD
100
AcDbEntity
  8
3_ALL_AXES
100
AcDbLine
 62
7
  6
CONTINUOUS
 10
785.8832480978
 20
271.0759479756
 11
786.0339684274
 21
271.0759479756
  0
LINE
  5
2CE
100
AcDbEntity
  8
6_ALL_SURFS
100
AcDbLine
 62
9
  6
CONTINUOUS
 10
783.5339684274
 20
271.6021489766
 11
219.5339684274
 21
271.6021489766
  0
LINE
  5
2CF
100
AcDbEntity
  8
6_ALL_SURFS
100
AcDbLine
 62
9
  6
CONTINUOUS
 10
219.5339684274
 20
272.064657653
 11
783.5339684274
 21
272.064657653
  0
LINE
  5
2D0
100
AcDbEntity
  8
6_ALL_SURFS
100
AcDbLine
 62
9
  6
CONTINUOUS
 10
219.5339684274
 20
275.0904641046
 11
783.5339684274
 21
275.0904641046
  0
LINE
  5
2D1
100
AcDbEntity
  8
6_ALL_SURFS
100
AcDbLine
 62
7
  6
CONTINUOUS
 10
783.5339684274
 20
275.5259479756
 11
219.5339684274
 21
275.5259479756
  0
LINE
  5
2D2
100
AcDbEntity
  8
6_ALL_SURFS
100
AcDbLine
 62
9
  6
CONTINUOUS
 10
783.5339684274
 20
276.0259479756
 11
219.5339684274
 21
276.0259479756
  0
LINE
  5
2D3
100
AcDbEntity
  8
7_ALL_FEATURES
100
AcDbLine
 62
9
  6
CONTINUOUS
 10
218.0339684274
 20
276.2759479756
 11
219.5339684274
 21
276.2759479756
  0
LINE
  5
2D4
100
AcDbEntity
  8
7_ALL_FEATURES
100
AcDbLine
 62
9
  6
CONTINUOUS
 10
783.5339684274
 20
276.2759479756
 11
785.0339684274
 21
276.2759479756
  0
LINE
  5
2D5
100
AcDbEntity
  8
3_ALL_AXES
100
AcDbLine
 62
7
  6
CONTINUOUS
 10
217.1846887571
 20
276.5759479756
 11
217.0339684274
 21
276.5759479756
  0
LINE
  5
2D6
100
AcDbEntity
  8
3_ALL_AXES
100
AcDbLine
 62
7
  6
CONTINUOUS
 10
785.8832480978
 20
276.5759479756
 11
786.0339684274
 21
276.5759479756
  0
LINE
  5
2D7
100
AcDbEntity
  8
6_ALL_SURFS
100
AcDbLine
 62
9
  6
CONTINUOUS
 10
219.5339684274
 20
276.7259479756
 11
783.5339684274
 21
276.7259479756
  0
LINE
  5
2D8
100
AcDbEntity
  8
7_ALL_FEATURES
100
AcDbLine
 62
7
  6
CONTINUOUS
 10
218.0339684274
 20
277.0259479756
 11
219.5339684274
 21
277.0259479756
  0
LINE
  5
2D9
100
AcDbEntity
  8
6_ALL_SURFS
100
AcDbLine
 62
7
  6
CONTINUOUS
 10
219.5339684274
 20
277.0259479756
 11
783.5339684274
 21
277.0259479756
  0
LINE
  5
2DA
100
AcDbEntity
  8
7_ALL_FEATURES
100
AcDbLine
 62
7
  6
CONTINUOUS
 10
783.5339684274
 20
277.0259479756
 11
785.0339684274
 21
277.0259479756
  0
LINE
  5
2DB
100
AcDbEntity
  8
3_ALL_AXES
100
AcDbLine
 62
7
  6
CONTINUOUS
 10
785.0339684274
 20
275.8633177174
 11
785.8832480978
 21
276.5759479756
  0
LINE
  5
2DC
100
AcDbEntity
  8
3_ALL_AXES
100
AcDbLine
 62
7
  6
CONTINUOUS
 10
785.0339684274
 20
206.1885782338
 11
785.8832480978
 21
205.4759479756
  0
LINE
  5
2DD
100
AcDbEntity
  8
3_ALL_AXES
100
AcDbLine
 62
7
  6
CONTINUOUS
 10
785.0339684274
 20
210.2633177174
 11
785.8832480978
 21
210.9759479756
  0
LINE
  5
2DE
100
AcDbEntity
  8
3_ALL_AXES
100
AcDbLine
 62
7
  6
CONTINUOUS
 10
785.0339684274
 20
271.7885782338
 11
785.8832480978
 21
271.0759479756
  0
LINE
  5
2DF
100
AcDbEntity
  8
6_ALL_SURFS
100
AcDbLine
 62
7
  6
CONTINUOUS
 10
783.5339684274
 20
197.2259479756
 11
783.5339684274
 21
197.2376632732
  0
LINE
  5
2E0
100
AcDbEntity
  8
7_ALL_FEATURES
100
AcDbLine
 62
7
  6
CONTINUOUS
 10
783.5339684274
 20
197.2376632732
 11
783.5339684274
 21
198.7259479756
  0
LINE
  5
2E1
100
AcDbEntity
  8
6_ALL_SURFS
100
AcDbLine
 62
7
  6
CONTINUOUS
 10
783.5339684274
 20
198.7259479756
 11
783.5339684274
 21
199.8759479756
  0
LINE
  5
2E2
100
AcDbEntity
  8
6_ALL_SURFS
100
AcDbLine
 62
7
  6
CONTINUOUS
 10
783.5339684274
 20
207.3259479756
 11
783.5339684274
 21
209.1259479756
  0
LINE
  5
2E3
100
AcDbEntity
  8
7_ALL_FEATURES
100
AcDbLine
 62
7
  6
CONTINUOUS
 10
783.5339684274
 20
199.8759479756
 11
783.5339684274
 21
276.2759479756
  0
LINE
  5
2E4
100
AcDbEntity
  8
6_ALL_SURFS
100
AcDbLine
 62
7
  6
CONTINUOUS
 10
783.5339684274
 20
213.6259479756
 11
783.5339684274
 21
265.7404679706
  0
LINE
  5
2E5
100
AcDbEntity
  8
6_ALL_SURFS
100
AcDbLine
 62
7
  6
CONTINUOUS
 10
783.5339684274
 20
276.0259479756
 11
783.5339684274
 21
277.0259479756
  0
LINE
  5
2E6
100
AcDbEntity
  8
7_ALL_FEATURES
100
AcDbLine
 62
7
  6
CONTINUOUS
 10
785.0339684274
 20
197.2259479756
 11
785.0339684274
 21
277.0259479756
  0
LINE
  5
2E7
100
AcDbEntity
  8
3_ALL_AXES
100
AcDbLine
 62
7
  6
CONTINUOUS
 10
785.8832480978
 20
205.4759479756
 11
785.8832480978
 21
210.9759479756
  0
LINE
  5
2E8
100
AcDbEntity
  8
3_ALL_AXES
100
AcDbLine
 62
7
  6
CONTINUOUS
 10
785.8832480978
 20
271.0759479756
 11
785.8832480978
 21
276.5759479756
  0
LINE
  5
2E9
100
AcDbEntity
  8
3_ALL_AXES
100
AcDbLine
 62
7
  6
CONTINUOUS
 10
786.0339684274
 20
205.4759960418
 11
786.0339684274
 21
210.9758999094
  0
LINE
  5
2EA
100
AcDbEntity
  8
3_ALL_AXES
100
AcDbLine
 62
7
  6
CONTINUOUS
 10
786.0339684274
 20
271.0759960418
 11
786.0339684274
 21
276.5758999094
  0
LINE
  5
2EB
100
AcDbEntity
  8
3_ALL_AXES
100
AcDbLine
 62
7
  6
CONTINUOUS
 10
217.0339684274
 20
376.2098512755
 11
217.0339684274
 21
370.7098512755
  0
LINE
  5
2EC
100
AcDbEntity
  8
3_ALL_AXES
100
AcDbLine
 62
7
  6
CONTINUOUS
 10
217.0339684274
 20
369.9098512755
 11
217.0339684274
 21
364.4098512755
  0
LINE
  5
2ED
100
AcDbEntity
  8
3_ALL_AXES
100
AcDbLine
 62
7
  6
CONTINUOUS
 10
217.0339684274
 20
345.9098512755
 11
217.0339684274
 21
340.4098512755
  0
LINE
  5
2EE
100
AcDbEntity
  8
3_ALL_AXES
100
AcDbLine
 62
7
  6
CONTINUOUS
 10
217.0339684274
 20
339.6098512755
 11
217.0339684274
 21
334.1098512755
  0
LINE
  5
2EF
100
AcDbEntity
  8
3_ALL_AXES
100
AcDbLine
 62
7
  6
CONTINUOUS
 10
217.1846887571
 20
376.2098512755
 11
217.1846887571
 21
370.7098512755
  0
LINE
  5
2F0
100
AcDbEntity
  8
3_ALL_AXES
100
AcDbLine
 62
7
  6
CONTINUOUS
 10
217.1846887571
 20
369.9098512755
 11
217.1846887571
 21
364.4098512755
  0
LINE
  5
2F1
100
AcDbEntity
  8
3_ALL_AXES
100
AcDbLine
 62
7
  6
CONTINUOUS
 10
217.1846887571
 20
345.9098512755
 11
217.1846887571
 21
340.4098512755
  0
LINE
  5
2F2
100
AcDbEntity
  8
3_ALL_AXES
100
AcDbLine
 62
7
  6
CONTINUOUS
 10
217.1846887571
 20
339.6098512755
 11
217.1846887571
 21
334.1098512755
  0
LINE
  5
2F3
100
AcDbEntity
  8
7_ALL_FEATURES
100
AcDbLine
 62
7
  6
CONTINUOUS
 10
218.0339684274
 20
333.9598512755
 11
218.0339684274
 21
376.3598512755
  0
LINE
  5
2F4
100
AcDbEntity
  8
3_ALL_AXES
100
AcDbLine
 62
7
  6
CONTINUOUS
 10
219.5339684274
 20
332.1098512755
 11
219.5339684274
 21
316.6098512755
  0
LINE
  5
2F5
100
AcDbEntity
  8
7_ALL_FEATURES
100
AcDbLine
 62
7
  6
CONTINUOUS
 10
219.5339684274
 20
314.1098557751
 11
219.5339684274
 21
316.6098512755
  0
LINE
  5
2F6
100
AcDbEntity
  8
7_ALL_FEATURES
100
AcDbLine
 62
7
  6
CONTINUOUS
 10
219.5339684274
 20
332.1098512755
 11
219.5339684274
 21
376.3598512755
  0
LINE
  5
2F7
100
AcDbEntity
  8
6_ALL_SURFS
100
AcDbLine
 62
7
  6
CONTINUOUS
 10
219.5339684274
 20
375.0098512755
 11
219.5339684274
 21
375.7379958002
  0
LINE
  5
2F8
100
AcDbEntity
  8
6_ALL_SURFS
100
AcDbLine
 62
7
  6
CONTINUOUS
 10
219.5339684274
 20
376.3598512755
 11
219.5339684274
 21
396.2098467759
  0
LINE
  5
2F9
100
AcDbEntity
  8
7_ALL_FEATURES
100
AcDbLine
 62
7
  6
CONTINUOUS
 10
220.0339684274
 20
374.5098512755
 11
220.0339684274
 21
335.8098512755
  0
LINE
  5
2FA
100
AcDbEntity
  8
3_ALL_AXES
100
AcDbLine
 62
7
  6
CONTINUOUS
 10
217.1846887571
 20
370.7098512755
 11
218.0339684274
 21
371.4224815337
  0
LINE
  5
2FB
100
AcDbEntity
  8
3_ALL_AXES
100
AcDbLine
 62
7
  6
CONTINUOUS
 10
217.1846887571
 20
364.4098512755
 11
218.0339684274
 21
365.1224815337
  0
LINE
  5
2FC
100
AcDbEntity
  8
3_ALL_AXES
100
AcDbLine
 62
7
  6
CONTINUOUS
 10
217.1846887571
 20
339.6098512755
 11
218.0339684274
 21
338.8972210173
  0
LINE
  5
2FD
100
AcDbEntity
  8
3_ALL_AXES
100
AcDbLine
 62
7
  6
CONTINUOUS
 10
217.1846887571
 20
345.9098512755
 11
218.0339684274
 21
345.1972210173
  0
LINE
  5
2FE
100
AcDbEntity
  8
3_ALL_AXES
100
AcDbLine
 62
7
  6
CONTINUOUS
 10
217.1846887571
 20
340.4098512755
 11
218.0339684274
 21
341.1224815337
  0
LINE
  5
2FF
100
AcDbEntity
  8
3_ALL_AXES
100
AcDbLine
 62
7
  6
CONTINUOUS
 10
217.1846887571
 20
369.9098512755
 11
218.0339684274
 21
369.1972210173
  0
LINE
  5
300
100
AcDbEntity
  8
3_ALL_AXES
100
AcDbLine
 62
7
  6
CONTINUOUS
 10
217.1846887571
 20
334.1098512755
 11
218.0339684274
 21
334.8224815337
  0
LINE
  5
301
100
AcDbEntity
  8
3_ALL_AXES
100
AcDbLine
 62
7
  6
CONTINUOUS
 10
217.1846887571
 20
376.2098512755
 11
218.0339684274
 21
375.4972210173
  0
LINE
  5
302
100
AcDbEntity
  8
7_ALL_FEATURES
100
AcDbLine
 62
7
  6
CONTINUOUS
 10
783.5339684274
 20
314.1098512755
 11
219.5339684274
 21
314.1098512755
  0
LINE
  5
303
100
AcDbEntity
  8
7_ALL_FEATURES
100
AcDbLine
 62
9
  6
CONTINUOUS
 10
783.5339684274
 20
314.4643796851
 11
219.5339684274
 21
314.4643796851
  0
LINE
  5
304
100
AcDbEntity
  8
7_ALL_FEATURES
100
AcDbLine
 62
7
  6
CONTINUOUS
 10
219.5339684274
 20
316.6098512755
 11
248.2505606337
 21
316.6098512755
  0
LINE
  5
305
100
AcDbEntity
  8
7_ALL_FEATURES
100
AcDbLine
 62
7
  6
CONTINUOUS
 10
254.8173762212
 20
316.6098512755
 11
498.2505606337
 21
316.6098512755
  0
LINE
  5
306
100
AcDbEntity
  8
7_ALL_FEATURES
100
AcDbLine
 62
7
  6
CONTINUOUS
 10
504.8173762212
 20
316.6098512755
 11
748.2505606337
 21
316.6098512755
  0
LINE
  5
307
100
AcDbEntity
  8
7_ALL_FEATURES
100
AcDbLine
 62
7
  6
CONTINUOUS
 10
754.8173762212
 20
316.6098512755
 11
783.5339684274
 21
316.6098512755
  0
LINE
  5
308
100
AcDbEntity
  8
7_ALL_FEATURES
100
AcDbLine
 62
7
  6
CONTINUOUS
 10
219.5339684274
 20
319.5098512755
 11
246.7725855674
 21
319.5098512755
  0
LINE
  5
309
100
AcDbEntity
  8
7_ALL_FEATURES
100
AcDbLine
 62
7
  6
CONTINUOUS
 10
256.2953512875
 20
319.5098512755
 11
496.7725855674
 21
319.5098512755
  0
LINE
  5
30A
100
AcDbEntity
  8
7_ALL_FEATURES
100
AcDbLine
 62
7
  6
CONTINUOUS
 10
506.2953512875
 20
319.5098512755
 11
746.7725855674
 21
319.5098512755
  0
LINE
  5
30B
100
AcDbEntity
  8
7_ALL_FEATURES
100
AcDbLine
 62
7
  6
CONTINUOUS
 10
756.2953512875
 20
319.5098512755
 11
783.5339684274
 21
319.5098512755
  0
LINE
  5
30C
100
AcDbEntity
  8
7_ALL_FEATURES
100
AcDbLine
 62
7
  6
CONTINUOUS
 10
219.5339684274
 20
320.1098512755
 11
246.7349303218
 21
320.1098512755
  0
LINE
  5
30D
100
AcDbEntity
  8
7_ALL_FEATURES
100
AcDbLine
 62
7
  6
CONTINUOUS
 10
256.3330065331
 20
320.1098512755
 11
496.7349303218
 21
320.1098512755
  0
LINE
  5
30E
100
AcDbEntity
  8
7_ALL_FEATURES
100
AcDbLine
 62
7
  6
CONTINUOUS
 10
506.3330065331
 20
320.1098512755
 11
746.7349303218
 21
320.1098512755
  0
LINE
  5
30F
100
AcDbEntity
  8
7_ALL_FEATURES
100
AcDbLine
 62
7
  6
CONTINUOUS
 10
756.3330065331
 20
320.1098512755
 11
783.5339684274
 21
320.1098512755
  0
LINE
  5
310
100
AcDbEntity
  8
7_ALL_FEATURES
100
AcDbLine
 62
7
  6
CONTINUOUS
 10
219.5339684274
 20
322.5098512755
 11
247.3781572263
 21
322.5098512755
  0
LINE
  5
311
100
AcDbEntity
  8
7_ALL_FEATURES
100
AcDbLine
 62
7
  6
CONTINUOUS
 10
255.6897796286
 20
322.5098512755
 11
497.3781572263
 21
322.5098512755
  0
LINE
  5
312
100
AcDbEntity
  8
7_ALL_FEATURES
100
AcDbLine
 62
7
  6
CONTINUOUS
 10
505.6897796286
 20
322.5098512755
 11
747.3781572263
 21
322.5098512755
  0
LINE
  5
313
100
AcDbEntity
  8
7_ALL_FEATURES
100
AcDbLine
 62
7
  6
CONTINUOUS
 10
755.6897796286
 20
322.5098512755
 11
783.5339684274
 21
322.5098512755
  0
LINE
  5
314
100
AcDbEntity
  8
7_ALL_FEATURES
100
AcDbLine
 62
7
  6
CONTINUOUS
 10
219.5339684274
 20
323.1098512755
 11
247.7882019185
 21
323.1098512755
  0
LINE
  5
315
100
AcDbEntity
  8
7_ALL_FEATURES
100
AcDbLine
 62
7
  6
CONTINUOUS
 10
255.2797349364
 20
323.1098512755
 11
497.7882019185
 21
323.1098512755
  0
LINE
  5
316
100
AcDbEntity
  8
7_ALL_FEATURES
100
AcDbLine
 62
7
  6
CONTINUOUS
 10
505.2797349364
 20
323.1098512755
 11
747.7882019185
 21
323.1098512755
  0
LINE
  5
317
100
AcDbEntity
  8
7_ALL_FEATURES
100
AcDbLine
 62
7
  6
CONTINUOUS
 10
755.2797349364
 20
323.1098512755
 11
783.5339684274
 21
323.1098512755
  0
LINE
  5
318
100
AcDbEntity
  8
3_ALL_AXES
100
AcDbLine
 62
7
  6
CONTINUOUS
 10
219.5339684274
 20
325.5098512755
 11
783.5339684274
 21
325.5098512755
  0
LINE
  5
319
100
AcDbEntity
  8
3_ALL_AXES
100
AcDbLine
 62
7
  6
CONTINUOUS
 10
219.5339684274
 20
326.1098512755
 11
783.5339684274
 21
326.1098512755
  0
LINE
  5
31A
100
AcDbEntity
  8
3_ALL_AXES
100
AcDbLine
 62
7
  6
CONTINUOUS
 10
219.5339684274
 20
328.5098512755
 11
783.5339684274
 21
328.5098512755
  0
LINE
  5
31B
100
AcDbEntity
  8
3_ALL_AXES
100
AcDbLine
 62
7
  6
CONTINUOUS
 10
219.5339684274
 20
329.1098512755
 11
783.5339684274
 21
329.1098512755
  0
LINE
  5
31C
100
AcDbEntity
  8
3_ALL_AXES
100
AcDbLine
 62
7
  6
CONTINUOUS
 10
219.5339684274
 20
331.5098512755
 11
783.5339684274
 21
331.5098512755
  0
LINE
  5
31D
100
AcDbEntity
  8
3_ALL_AXES
100
AcDbLine
 62
7
  6
CONTINUOUS
 10
219.5339684274
 20
332.1098512755
 11
783.5339684274
 21
332.1098512755
  0
LINE
  5
31E
100
AcDbEntity
  8
7_ALL_FEATURES
100
AcDbLine
 62
7
  6
CONTINUOUS
 10
785.0339684274
 20
333.9598512755
 11
783.5339684274
 21
333.9598512755
  0
LINE
  5
31F
100
AcDbEntity
  8
7_ALL_FEATURES
100
AcDbLine
 62
7
  6
CONTINUOUS
 10
218.0339684274
 20
333.9598512755
 11
219.5339684274
 21
333.9598512755
  0
LINE
  5
320
100
AcDbEntity
  8
7_ALL_FEATURES
100
AcDbLine
 62
9
  6
CONTINUOUS
 10
219.5339684274
 20
334.0598512755
 11
783.5339684274
 21
334.0598512755
  0
LINE
  5
321
100
AcDbEntity
  8
3_ALL_AXES
100
AcDbLine
 62
7
  6
CONTINUOUS
 10
786.0339684274
 20
334.1098512755
 11
785.8832480978
 21
334.1098512755
  0
LINE
  5
322
100
AcDbEntity
  8
3_ALL_AXES
100
AcDbLine
 62
7
  6
CONTINUOUS
 10
217.0339684274
 20
334.1098512755
 11
217.1846887571
 21
334.1098512755
  0
LINE
  5
323
100
AcDbEntity
  8
7_ALL_FEATURES
100
AcDbLine
 62
7
  6
CONTINUOUS
 10
783.5339684274
 20
334.3598512755
 11
219.5339684274
 21
334.3598512755
  0
LINE
  5
324
100
AcDbEntity
  8
7_ALL_FEATURES
100
AcDbLine
 62
9
  6
CONTINUOUS
 10
783.5339684274
 20
334.6598512755
 11
219.5339684274
 21
334.6598512755
  0
LINE
  5
325
100
AcDbEntity
  8
7_ALL_FEATURES
100
AcDbLine
 62
9
  6
CONTINUOUS
 10
785.0339684274
 20
334.7098512755
 11
783.5339684274
 21
334.7098512755
  0
LINE
  5
326
100
AcDbEntity
  8
7_ALL_FEATURES
100
AcDbLine
 62
9
  6
CONTINUOUS
 10
218.0339684274
 20
334.7098512755
 11
219.5339684274
 21
334.7098512755
  0
LINE
  5
327
100
AcDbEntity
  8
7_ALL_FEATURES
100
AcDbLine
 62
9
  6
CONTINUOUS
 10
783.5339684274
 20
335.3098512755
 11
219.5339684274
 21
335.3098512755
  0
LINE
  5
328
100
AcDbEntity
  8
7_ALL_FEATURES
100
AcDbLine
 62
7
  6
CONTINUOUS
 10
783.5339684274
 20
335.6098512755
 11
219.5339684274
 21
335.6098512755
  0
LINE
  5
329
100
AcDbEntity
  8
7_ALL_FEATURES
100
AcDbLine
 62
7
  6
CONTINUOUS
 10
220.0339684274
 20
335.8098512755
 11
783.0339684274
 21
335.8098512755
  0
LINE
  5
32A
100
AcDbEntity
  8
7_ALL_FEATURES
100
AcDbLine
 62
9
  6
CONTINUOUS
 10
219.5339684274
 20
335.9098512755
 11
220.0339684274
 21
335.9098512755
  0
LINE
  5
32B
100
AcDbEntity
  8
7_ALL_FEATURES
100
AcDbLine
 62
9
  6
CONTINUOUS
 10
783.0339684274
 20
335.9098512755
 11
783.5339684274
 21
335.9098512755
  0
LINE
  5
32C
100
AcDbEntity
  8
7_ALL_FEATURES
100
AcDbLine
 62
9
  6
CONTINUOUS
 10
220.0339684274
 20
336.0098512755
 11
783.0339684274
 21
336.0098512755
  0
LINE
  5
32D
100
AcDbEntity
  8
7_ALL_FEATURES
100
AcDbLine
 62
9
  6
CONTINUOUS
 10
783.5339684274
 20
336.5598512755
 11
783.0339684274
 21
336.5598512755
  0
LINE
  5
32E
100
AcDbEntity
  8
7_ALL_FEATURES
100
AcDbLine
 62
9
  6
CONTINUOUS
 10
220.0339684274
 20
336.5598512755
 11
219.5339684274
 21
336.5598512755
  0
LINE
  5
32F
100
AcDbEntity
  8
7_ALL_FEATURES
100
AcDbLine
 62
7
  6
CONTINUOUS
 10
783.5339684274
 20
336.8598512755
 11
783.0339684274
 21
336.8598512755
  0
LINE
  5
330
100
AcDbEntity
  8
7_ALL_FEATURES
100
AcDbLine
 62
7
  6
CONTINUOUS
 10
220.0339684274
 20
336.8598512755
 11
219.5339684274
 21
336.8598512755
  0
LINE
  5
331
100
AcDbEntity
  8
7_ALL_FEATURES
100
AcDbLine
 62
9
  6
CONTINUOUS
 10
219.5339684274
 20
337.4208888775
 11
220.0339684274
 21
337.4208888775
  0
LINE
  5
332
100
AcDbEntity
  8
7_ALL_FEATURES
100
AcDbLine
 62
9
  6
CONTINUOUS
 10
783.0339684274
 20
337.4208888775
 11
783.5339684274
 21
337.4208888775
  0
LINE
  5
333
100
AcDbEntity
  8
7_ALL_FEATURES
100
AcDbLine
 62
9
  6
CONTINUOUS
 10
219.5339684274
 20
337.640294988
 11
220.0339684274
 21
337.640294988
  0
LINE
  5
334
100
AcDbEntity
  8
7_ALL_FEATURES
100
AcDbLine
 62
9
  6
CONTINUOUS
 10
783.0339684274
 20
337.640294988
 11
783.5339684274
 21
337.640294988
  0
LINE
  5
335
100
AcDbEntity
  8
7_ALL_FEATURES
100
AcDbLine
 62
9
  6
CONTINUOUS
 10
783.5339684274
 20
338.4598512755
 11
783.0339684274
 21
338.4598512755
  0
LINE
  5
336
100
AcDbEntity
  8
7_ALL_FEATURES
100
AcDbLine
 62
9
  6
CONTINUOUS
 10
220.0339684274
 20
338.4598512755
 11
219.5339684274
 21
338.4598512755
  0
LINE
  5
337
100
AcDbEntity
  8
7_ALL_FEATURES
100
AcDbLine
 62
7
  6
CONTINUOUS
 10
783.5339684274
 20
338.7598512755
 11
783.0339684274
 21
338.7598512755
  0
LINE
  5
338
100
AcDbEntity
  8
7_ALL_FEATURES
100
AcDbLine
 62
7
  6
CONTINUOUS
 10
220.0339684274
 20
338.7598512755
 11
219.5339684274
 21
338.7598512755
  0
LINE
  5
339
100
AcDbEntity
  8
7_ALL_FEATURES
100
AcDbLine
 62
9
  6
CONTINUOUS
 10
219.5339684274
 20
338.8201586547
 11
220.0339684274
 21
338.8201586547
  0
LINE
  5
33A
100
AcDbEntity
  8
7_ALL_FEATURES
100
AcDbLine
 62
9
  6
CONTINUOUS
 10
783.0339684274
 20
338.8201586547
 11
783.5339684274
 21
338.8201586547
  0
LINE
  5
33B
100
AcDbEntity
  8
7_ALL_FEATURES
100
AcDbLine
 62
9
  6
CONTINUOUS
 10
783.5339684274
 20
339.1752148615
 11
783.0339684274
 21
339.1752148615
  0
LINE
  5
33C
100
AcDbEntity
  8
7_ALL_FEATURES
100
AcDbLine
 62
9
  6
CONTINUOUS
 10
220.0339684274
 20
339.1752148615
 11
219.5339684274
 21
339.1752148615
  0
LINE
  5
33D
100
AcDbEntity
  8
7_ALL_FEATURES
100
AcDbLine
 62
7
  6
CONTINUOUS
 10
783.5339684274
 20
339.1933070752
 11
783.0339684274
 21
339.1933070752
  0
LINE
  5
33E
100
AcDbEntity
  8
7_ALL_FEATURES
100
AcDbLine
 62
7
  6
CONTINUOUS
 10
220.0339684274
 20
339.1933070752
 11
219.5339684274
 21
339.1933070752
  0
LINE
  5
33F
100
AcDbEntity
  8
3_ALL_AXES
100
AcDbLine
 62
7
  6
CONTINUOUS
 10
786.0339684274
 20
339.6098512755
 11
785.8832480978
 21
339.6098512755
  0
LINE
  5
340
100
AcDbEntity
  8
3_ALL_AXES
100
AcDbLine
 62
7
  6
CONTINUOUS
 10
217.0339684274
 20
339.6098512755
 11
217.1846887571
 21
339.6098512755
  0
LINE
  5
341
100
AcDbEntity
  8
3_ALL_AXES
100
AcDbLine
 62
7
  6
CONTINUOUS
 10
786.0339684274
 20
340.4098512755
 11
785.8832480978
 21
340.4098512755
  0
LINE
  5
342
100
AcDbEntity
  8
3_ALL_AXES
100
AcDbLine
 62
7
  6
CONTINUOUS
 10
217.0339684274
 20
340.4098512755
 11
217.1846887571
 21
340.4098512755
  0
LINE
  5
343
100
AcDbEntity
  8
7_ALL_FEATURES
100
AcDbLine
 62
9
  6
CONTINUOUS
 10
219.5339684274
 20
341.5861401201
 11
220.0339684274
 21
341.5861401201
  0
LINE
  5
344
100
AcDbEntity
  8
7_ALL_FEATURES
100
AcDbLine
 62
9
  6
CONTINUOUS
 10
783.0339684274
 20
341.5861401201
 11
783.5339684274
 21
341.5861401201
  0
LINE
  5
345
100
AcDbEntity
  8
7_ALL_FEATURES
100
AcDbLine
 62
9
  6
CONTINUOUS
 10
219.5339684274
 20
342.5624361272
 11
220.0339684274
 21
342.5624361272
  0
LINE
  5
346
100
AcDbEntity
  8
7_ALL_FEATURES
100
AcDbLine
 62
9
  6
CONTINUOUS
 10
783.0339684274
 20
342.5624361272
 11
783.5339684274
 21
342.5624361272
  0
LINE
  5
347
100
AcDbEntity
  8
3_ALL_AXES
100
AcDbLine
 62
7
  6
CONTINUOUS
 10
786.0339684274
 20
345.9098512755
 11
785.8832480978
 21
345.9098512755
  0
LINE
  5
348
100
AcDbEntity
  8
3_ALL_AXES
100
AcDbLine
 62
7
  6
CONTINUOUS
 10
217.0339684274
 20
345.9098512755
 11
217.1846887571
 21
345.9098512755
  0
LINE
  5
349
100
AcDbEntity
  8
7_ALL_FEATURES
100
AcDbLine
 62
9
  6
CONTINUOUS
 10
783.5339684274
 20
353.1598512755
 11
783.0339684274
 21
353.1598512755
  0
LINE
  5
34A
100
AcDbEntity
  8
7_ALL_FEATURES
100
AcDbLine
 62
9
  6
CONTINUOUS
 10
220.0339684274
 20
353.1598512755
 11
219.5339684274
 21
353.1598512755
  0
LINE
  5
34B
100
AcDbEntity
  8
7_ALL_FEATURES
100
AcDbLine
 62
7
  6
CONTINUOUS
 10
783.5339684274
 20
353.4598512755
 11
783.0339684274
 21
353.4598512755
  0
LINE
  5
34C
100
AcDbEntity
  8
7_ALL_FEATURES
100
AcDbLine
 62
7
  6
CONTINUOUS
 10
220.0339684274
 20
353.4598512755
 11
219.5339684274
 21
353.4598512755
  0
LINE
  5
34D
100
AcDbEntity
  8
7_ALL_FEATURES
100
AcDbLine
 62
9
  6
CONTINUOUS
 10
219.5339684274
 20
353.7598512755
 11
220.0339684274
 21
353.7598512755
  0
LINE
  5
34E
100
AcDbEntity
  8
7_ALL_FEATURES
100
AcDbLine
 62
9
  6
CONTINUOUS
 10
783.0339684274
 20
353.7598512755
 11
783.5339684274
 21
353.7598512755
  0
LINE
  5
34F
100
AcDbEntity
  8
6_ALL_SURFS
100
AcDbLine
 62
9
  6
CONTINUOUS
 10
219.5339684274
 20
356.5598512755
 11
220.0339684274
 21
356.5598512755
  0
LINE
  5
350
100
AcDbEntity
  8
6_ALL_SURFS
100
AcDbLine
 62
9
  6
CONTINUOUS
 10
783.0339684274
 20
356.5598512755
 11
783.5339684274
 21
356.5598512755
  0
LINE
  5
351
100
AcDbEntity
  8
6_ALL_SURFS
100
AcDbLine
 62
7
  6
CONTINUOUS
 10
783.5339684274
 20
356.8598512755
 11
783.0339684274
 21
356.8598512755
  0
LINE
  5
352
100
AcDbEntity
  8
6_ALL_SURFS
100
AcDbLine
 62
7
  6
CONTINUOUS
 10
220.0339684274
 20
356.8598512755
 11
219.5339684274
 21
356.8598512755
  0
LINE
  5
353
100
AcDbEntity
  8
6_ALL_SURFS
100
AcDbLine
 62
9
  6
CONTINUOUS
 10
783.5339684274
 20
357.1598512755
 11
783.0339684274
 21
357.1598512755
  0
LINE
  5
354
100
AcDbEntity
  8
6_ALL_SURFS
100
AcDbLine
 62
9
  6
CONTINUOUS
 10
220.0339684274
 20
357.1598512755
 11
219.5339684274
 21
357.1598512755
  0
LINE
  5
355
100
AcDbEntity
  8
3_ALL_AXES
100
AcDbLine
 62
7
  6
CONTINUOUS
 10
786.0339684274
 20
364.4098512755
 11
785.8832480978
 21
364.4098512755
  0
LINE
  5
356
100
AcDbEntity
  8
3_ALL_AXES
100
AcDbLine
 62
7
  6
CONTINUOUS
 10
217.0339684274
 20
364.4098512755
 11
217.1846887571
 21
364.4098512755
  0
LINE
  5
357
100
AcDbEntity
  8
6_ALL_SURFS
100
AcDbLine
 62
9
  6
CONTINUOUS
 10
219.5339684274
 20
367.7572664238
 11
220.0339684274
 21
367.7572664238
  0
LINE
  5
358
100
AcDbEntity
  8
6_ALL_SURFS
100
AcDbLine
 62
9
  6
CONTINUOUS
 10
783.0339684274
 20
367.7572664238
 11
783.5339684274
 21
367.7572664238
  0
LINE
  5
359
100
AcDbEntity
  8
6_ALL_SURFS
100
AcDbLine
 62
9
  6
CONTINUOUS
 10
219.5339684274
 20
368.733562431
 11
220.0339684274
 21
368.733562431
  0
LINE
  5
35A
100
AcDbEntity
  8
6_ALL_SURFS
100
AcDbLine
 62
9
  6
CONTINUOUS
 10
783.0339684274
 20
368.733562431
 11
783.5339684274
 21
368.733562431
  0
LINE
  5
35B
100
AcDbEntity
  8
3_ALL_AXES
100
AcDbLine
 62
7
  6
CONTINUOUS
 10
786.0339684274
 20
369.9098512755
 11
785.8832480978
 21
369.9098512755
  0
LINE
  5
35C
100
AcDbEntity
  8
3_ALL_AXES
100
AcDbLine
 62
7
  6
CONTINUOUS
 10
217.0339684274
 20
369.9098512755
 11
217.1846887571
 21
369.9098512755
  0
LINE
  5
35D
100
AcDbEntity
  8
3_ALL_AXES
100
AcDbLine
 62
7
  6
CONTINUOUS
 10
786.0339684274
 20
370.7098512755
 11
785.8832480978
 21
370.7098512755
  0
LINE
  5
35E
100
AcDbEntity
  8
3_ALL_AXES
100
AcDbLine
 62
7
  6
CONTINUOUS
 10
217.0339684274
 20
370.7098512755
 11
217.1846887571
 21
370.7098512755
  0
LINE
  5
35F
100
AcDbEntity
  8
6_ALL_SURFS
100
AcDbLine
 62
7
  6
CONTINUOUS
 10
219.5339684274
 20
371.1263954758
 11
220.0339684274
 21
371.1263954758
  0
LINE
  5
360
100
AcDbEntity
  8
6_ALL_SURFS
100
AcDbLine
 62
7
  6
CONTINUOUS
 10
783.0339684274
 20
371.1263954758
 11
783.5339684274
 21
371.1263954758
  0
LINE
  5
361
100
AcDbEntity
  8
6_ALL_SURFS
100
AcDbLine
 62
9
  6
CONTINUOUS
 10
783.5339684274
 20
371.1444876896
 11
783.0339684274
 21
371.1444876896
  0
LINE
  5
362
100
AcDbEntity
  8
6_ALL_SURFS
100
AcDbLine
 62
9
  6
CONTINUOUS
 10
220.0339684274
 20
371.1444876896
 11
219.5339684274
 21
371.1444876896
  0
LINE
  5
363
100
AcDbEntity
  8
6_ALL_SURFS
100
AcDbLine
 62
9
  6
CONTINUOUS
 10
219.5339684274
 20
371.4995438963
 11
220.0339684274
 21
371.4995438963
  0
LINE
  5
364
100
AcDbEntity
  8
6_ALL_SURFS
100
AcDbLine
 62
9
  6
CONTINUOUS
 10
783.0339684274
 20
371.4995438963
 11
783.5339684274
 21
371.4995438963
  0
LINE
  5
365
100
AcDbEntity
  8
6_ALL_SURFS
100
AcDbLine
 62
7
  6
CONTINUOUS
 10
783.5339684274
 20
371.5598512755
 11
783.0339684274
 21
371.5598512755
  0
LINE
  5
366
100
AcDbEntity
  8
6_ALL_SURFS
100
AcDbLine
 62
7
  6
CONTINUOUS
 10
220.0339684274
 20
371.5598512755
 11
219.5339684274
 21
371.5598512755
  0
LINE
  5
367
100
AcDbEntity
  8
6_ALL_SURFS
100
AcDbLine
 62
9
  6
CONTINUOUS
 10
783.5339684274
 20
371.8598512755
 11
783.0339684274
 21
371.8598512755
  0
LINE
  5
368
100
AcDbEntity
  8
6_ALL_SURFS
100
AcDbLine
 62
9
  6
CONTINUOUS
 10
220.0339684274
 20
371.8598512755
 11
219.5339684274
 21
371.8598512755
  0
LINE
  5
369
100
AcDbEntity
  8
6_ALL_SURFS
100
AcDbLine
 62
9
  6
CONTINUOUS
 10
219.5339684274
 20
372.679407563
 11
220.0339684274
 21
372.679407563
  0
LINE
  5
36A
100
AcDbEntity
  8
6_ALL_SURFS
100
AcDbLine
 62
9
  6
CONTINUOUS
 10
783.0339684274
 20
372.679407563
 11
783.5339684274
 21
372.679407563
  0
LINE
  5
36B
100
AcDbEntity
  8
6_ALL_SURFS
100
AcDbLine
 62
9
  6
CONTINUOUS
 10
219.5339684274
 20
372.8988136735
 11
220.0339684274
 21
372.8988136735
  0
LINE
  5
36C
100
AcDbEntity
  8
6_ALL_SURFS
100
AcDbLine
 62
9
  6
CONTINUOUS
 10
783.0339684274
 20
372.8988136735
 11
783.5339684274
 21
372.8988136735
  0
LINE
  5
36D
100
AcDbEntity
  8
6_ALL_SURFS
100
AcDbLine
 62
7
  6
CONTINUOUS
 10
783.5339684274
 20
373.4598512755
 11
783.0339684274
 21
373.4598512755
  0
LINE
  5
36E
100
AcDbEntity
  8
6_ALL_SURFS
100
AcDbLine
 62
7
  6
CONTINUOUS
 10
220.0339684274
 20
373.4598512755
 11
219.5339684274
 21
373.4598512755
  0
LINE
  5
36F
100
AcDbEntity
  8
6_ALL_SURFS
100
AcDbLine
 62
9
  6
CONTINUOUS
 10
783.5339684274
 20
373.7598512755
 11
783.0339684274
 21
373.7598512755
  0
LINE
  5
370
100
AcDbEntity
  8
6_ALL_SURFS
100
AcDbLine
 62
9
  6
CONTINUOUS
 10
220.0339684274
 20
373.7598512755
 11
219.5339684274
 21
373.7598512755
  0
LINE
  5
371
100
AcDbEntity
  8
7_ALL_FEATURES
100
AcDbLine
 62
9
  6
CONTINUOUS
 10
220.0339684274
 20
374.3098512755
 11
783.0339684274
 21
374.3098512755
  0
LINE
  5
372
100
AcDbEntity
  8
6_ALL_SURFS
100
AcDbLine
 62
9
  6
CONTINUOUS
 10
219.5339684274
 20
374.4098512755
 11
220.0339684274
 21
374.4098512755
  0
LINE
  5
373
100
AcDbEntity
  8
6_ALL_SURFS
100
AcDbLine
 62
9
  6
CONTINUOUS
 10
783.0339684274
 20
374.4098512755
 11
783.5339684274
 21
374.4098512755
  0
LINE
  5
374
100
AcDbEntity
  8
7_ALL_FEATURES
100
AcDbLine
 62
7
  6
CONTINUOUS
 10
220.0339684274
 20
374.5098512755
 11
783.0339684274
 21
374.5098512755
  0
LINE
  5
375
100
AcDbEntity
  8
6_ALL_SURFS
100
AcDbLine
 62
7
  6
CONTINUOUS
 10
783.5339684274
 20
374.7098512755
 11
219.5339684274
 21
374.7098512755
  0
LINE
  5
376
100
AcDbEntity
  8
6_ALL_SURFS
100
AcDbLine
 62
9
  6
CONTINUOUS
 10
783.5339684274
 20
375.0098512755
 11
219.5339684274
 21
375.0098512755
  0
LINE
  5
377
100
AcDbEntity
  8
7_ALL_FEATURES
100
AcDbLine
 62
9
  6
CONTINUOUS
 10
785.0339684274
 20
375.6098512755
 11
783.5339684274
 21
375.6098512755
  0
LINE
  5
378
100
AcDbEntity
  8
7_ALL_FEATURES
100
AcDbLine
 62
9
  6
CONTINUOUS
 10
218.0339684274
 20
375.6098512755
 11
219.5339684274
 21
375.6098512755
  0
LINE
  5
379
100
AcDbEntity
  8
6_ALL_SURFS
100
AcDbLine
 62
9
  6
CONTINUOUS
 10
783.5339684274
 20
375.6598512755
 11
219.5339684274
 21
375.6598512755
  0
LINE
  5
37A
100
AcDbEntity
  8
6_ALL_SURFS
100
AcDbLine
 62
7
  6
CONTINUOUS
 10
783.5339684274
 20
375.9598512755
 11
219.5339684274
 21
375.9598512755
  0
LINE
  5
37B
100
AcDbEntity
  8
3_ALL_AXES
100
AcDbLine
 62
7
  6
CONTINUOUS
 10
786.0339684274
 20
376.2098512755
 11
785.8832480978
 21
376.2098512755
  0
LINE
  5
37C
100
AcDbEntity
  8
3_ALL_AXES
100
AcDbLine
 62
7
  6
CONTINUOUS
 10
217.0339684274
 20
376.2098512755
 11
217.1846887571
 21
376.2098512755
  0
LINE
  5
37D
100
AcDbEntity
  8
6_ALL_SURFS
100
AcDbLine
 62
9
  6
CONTINUOUS
 10
219.5339684274
 20
376.2598512755
 11
783.5339684274
 21
376.2598512755
  0
LINE
  5
37E
100
AcDbEntity
  8
7_ALL_FEATURES
100
AcDbLine
 62
7
  6
CONTINUOUS
 10
785.0339684274
 20
376.3598512755
 11
783.5339684274
 21
376.3598512755
  0
LINE
  5
37F
100
AcDbEntity
  8
7_ALL_FEATURES
100
AcDbLine
 62
7
  6
CONTINUOUS
 10
218.0339684274
 20
376.3598512755
 11
219.5339684274
 21
376.3598512755
  0
LINE
  5
380
100
AcDbEntity
  8
6_ALL_SURFS
100
AcDbLine
 62
7
  6
CONTINUOUS
 10
219.5339684274
 20
378.2098512755
 11
783.5339684274
 21
378.2098512755
  0
LINE
  5
381
100
AcDbEntity
  8
6_ALL_SURFS
100
AcDbLine
 62
7
  6
CONTINUOUS
 10
219.5339684274
 20
378.8098512755
 11
783.5339684274
 21
378.8098512755
  0
LINE
  5
382
100
AcDbEntity
  8
6_ALL_SURFS
100
AcDbLine
 62
7
  6
CONTINUOUS
 10
219.5339684274
 20
381.2098512755
 11
783.5339684274
 21
381.2098512755
  0
LINE
  5
383
100
AcDbEntity
  8
6_ALL_SURFS
100
AcDbLine
 62
7
  6
CONTINUOUS
 10
219.5339684274
 20
381.8098512755
 11
783.5339684274
 21
381.8098512755
  0
LINE
  5
384
100
AcDbEntity
  8
6_ALL_SURFS
100
AcDbLine
 62
7
  6
CONTINUOUS
 10
219.5339684274
 20
384.2098512755
 11
783.5339684274
 21
384.2098512755
  0
LINE
  5
385
100
AcDbEntity
  8
6_ALL_SURFS
100
AcDbLine
 62
7
  6
CONTINUOUS
 10
219.5339684274
 20
384.8098512755
 11
783.5339684274
 21
384.8098512755
  0
LINE
  5
386
100
AcDbEntity
  8
6_ALL_SURFS
100
AcDbLine
 62
7
  6
CONTINUOUS
 10
219.5339684274
 20
387.2098512755
 11
247.7882019185
 21
387.2098512755
  0
LINE
  5
387
100
AcDbEntity
  8
6_ALL_SURFS
100
AcDbLine
 62
7
  6
CONTINUOUS
 10
255.2797349364
 20
387.2098512755
 11
497.7882019185
 21
387.2098512755
  0
LINE
  5
388
100
AcDbEntity
  8
6_ALL_SURFS
100
AcDbLine
 62
7
  6
CONTINUOUS
 10
505.2797349364
 20
387.2098512755
 11
747.7882019185
 21
387.2098512755
  0
LINE
  5
389
100
AcDbEntity
  8
6_ALL_SURFS
100
AcDbLine
 62
7
  6
CONTINUOUS
 10
755.2797349364
 20
387.2098512755
 11
783.5339684274
 21
387.2098512755
  0
LINE
  5
38A
100
AcDbEntity
  8
6_ALL_SURFS
100
AcDbLine
 62
7
  6
CONTINUOUS
 10
219.5339684274
 20
387.8098512755
 11
247.3781572263
 21
387.8098512755
  0
LINE
  5
38B
100
AcDbEntity
  8
6_ALL_SURFS
100
AcDbLine
 62
7
  6
CONTINUOUS
 10
255.6897796286
 20
387.8098512755
 11
497.3781572263
 21
387.8098512755
  0
LINE
  5
38C
100
AcDbEntity
  8
6_ALL_SURFS
100
AcDbLine
 62
7
  6
CONTINUOUS
 10
505.6897796286
 20
387.8098512755
 11
747.3781572263
 21
387.8098512755
  0
LINE
  5
38D
100
AcDbEntity
  8
6_ALL_SURFS
100
AcDbLine
 62
7
  6
CONTINUOUS
 10
755.6897796286
 20
387.8098512755
 11
783.5339684274
 21
387.8098512755
  0
LINE
  5
38E
100
AcDbEntity
  8
6_ALL_SURFS
100
AcDbLine
 62
7
  6
CONTINUOUS
 10
219.5339684274
 20
390.2098512755
 11
246.7349303218
 21
390.2098512755
  0
LINE
  5
38F
100
AcDbEntity
  8
6_ALL_SURFS
100
AcDbLine
 62
7
  6
CONTINUOUS
 10
256.3330065331
 20
390.2098512755
 11
496.7349303218
 21
390.2098512755
  0
LINE
  5
390
100
AcDbEntity
  8
6_ALL_SURFS
100
AcDbLine
 62
7
  6
CONTINUOUS
 10
506.3330065331
 20
390.2098512755
 11
746.7349303218
 21
390.2098512755
  0
LINE
  5
391
100
AcDbEntity
  8
6_ALL_SURFS
100
AcDbLine
 62
7
  6
CONTINUOUS
 10
756.3330065331
 20
390.2098512755
 11
783.5339684274
 21
390.2098512755
  0
LINE
  5
392
100
AcDbEntity
  8
6_ALL_SURFS
100
AcDbLine
 62
7
  6
CONTINUOUS
 10
219.5339684274
 20
390.8098512755
 11
246.7725855674
 21
390.8098512755
  0
LINE
  5
393
100
AcDbEntity
  8
6_ALL_SURFS
100
AcDbLine
 62
7
  6
CONTINUOUS
 10
256.2953512875
 20
390.8098512755
 11
496.7725855674
 21
390.8098512755
  0
LINE
  5
394
100
AcDbEntity
  8
6_ALL_SURFS
100
AcDbLine
 62
7
  6
CONTINUOUS
 10
506.2953512875
 20
390.8098512755
 11
746.7725855674
 21
390.8098512755
  0
LINE
  5
395
100
AcDbEntity
  8
6_ALL_SURFS
100
AcDbLine
 62
7
  6
CONTINUOUS
 10
756.2953512875
 20
390.8098512755
 11
783.5339684274
 21
390.8098512755
  0
LINE
  5
396
100
AcDbEntity
  8
6_ALL_SURFS
100
AcDbLine
 62
7
  6
CONTINUOUS
 10
219.5339684274
 20
393.7098512755
 11
248.2505606337
 21
393.7098512755
  0
LINE
  5
397
100
AcDbEntity
  8
6_ALL_SURFS
100
AcDbLine
 62
7
  6
CONTINUOUS
 10
254.8173762212
 20
393.7098512755
 11
498.2505606337
 21
393.7098512755
  0
LINE
  5
398
100
AcDbEntity
  8
6_ALL_SURFS
100
AcDbLine
 62
7
  6
CONTINUOUS
 10
504.8173762212
 20
393.7098512755
 11
748.2505606337
 21
393.7098512755
  0
LINE
  5
399
100
AcDbEntity
  8
6_ALL_SURFS
100
AcDbLine
 62
7
  6
CONTINUOUS
 10
754.8173762212
 20
393.7098512755
 11
783.5339684274
 21
393.7098512755
  0
LINE
  5
39A
100
AcDbEntity
  8
6_ALL_SURFS
100
AcDbLine
 62
9
  6
CONTINUOUS
 10
783.5339684274
 20
395.8553228659
 11
219.5339684274
 21
395.8553228659
  0
LINE
  5
39B
100
AcDbEntity
  8
6_ALL_SURFS
100
AcDbLine
 62
7
  6
CONTINUOUS
 10
219.5339684274
 20
396.2098512755
 11
783.5339684274
 21
396.2098512755
  0
LINE
  5
39C
100
AcDbEntity
  8
3_ALL_AXES
100
AcDbLine
 62
7
  6
CONTINUOUS
 10
785.8832480978
 20
376.2098512755
 11
785.0339684274
 21
375.4972210173
  0
LINE
  5
39D
100
AcDbEntity
  8
3_ALL_AXES
100
AcDbLine
 62
7
  6
CONTINUOUS
 10
785.8832480978
 20
369.9098512755
 11
785.0339684274
 21
369.1972210173
  0
LINE
  5
39E
100
AcDbEntity
  8
3_ALL_AXES
100
AcDbLine
 62
7
  6
CONTINUOUS
 10
785.8832480978
 20
334.1098512755
 11
785.0339684274
 21
334.8224815337
  0
LINE
  5
39F
100
AcDbEntity
  8
3_ALL_AXES
100
AcDbLine
 62
7
  6
CONTINUOUS
 10
785.8832480978
 20
340.4098512755
 11
785.0339684274
 21
341.1224815337
  0
LINE
  5
3A0
100
AcDbEntity
  8
3_ALL_AXES
100
AcDbLine
 62
7
  6
CONTINUOUS
 10
785.8832480978
 20
345.9098512755
 11
785.0339684274
 21
345.1972210173
  0
LINE
  5
3A1
100
AcDbEntity
  8
3_ALL_AXES
100
AcDbLine
 62
7
  6
CONTINUOUS
 10
785.8832480978
 20
364.4098512755
 11
785.0339684274
 21
365.1224815337
  0
LINE
  5
3A2
100
AcDbEntity
  8
3_ALL_AXES
100
AcDbLine
 62
7
  6
CONTINUOUS
 10
785.8832480978
 20
339.6098512755
 11
785.0339684274
 21
338.8972210173
  0
LINE
  5
3A3
100
AcDbEntity
  8
3_ALL_AXES
100
AcDbLine
 62
7
  6
CONTINUOUS
 10
785.8832480978
 20
370.7098512755
 11
785.0339684274
 21
371.4224815337
  0
LINE
  5
3A4
100
AcDbEntity
  8
7_ALL_FEATURES
100
AcDbLine
 62
7
  6
CONTINUOUS
 10
783.0339684274
 20
374.5098512755
 11
783.0339684274
 21
335.8098512755
  0
LINE
  5
3A5
100
AcDbEntity
  8
3_ALL_AXES
100
AcDbLine
 62
7
  6
CONTINUOUS
 10
783.5339684274
 20
332.1098512755
 11
783.5339684274
 21
316.6098512755
  0
LINE
  5
3A6
100
AcDbEntity
  8
7_ALL_FEATURES
100
AcDbLine
 62
7
  6
CONTINUOUS
 10
783.5339684274
 20
316.6098512755
 11
783.5339684274
 21
314.1098557751
  0
LINE
  5
3A7
100
AcDbEntity
  8
6_ALL_SURFS
100
AcDbLine
 62
7
  6
CONTINUOUS
 10
783.5339684274
 20
375.0098512755
 11
783.5339684274
 21
375.7379958002
  0
LINE
  5
3A8
100
AcDbEntity
  8
7_ALL_FEATURES
100
AcDbLine
 62
7
  6
CONTINUOUS
 10
783.5339684274
 20
332.1098512755
 11
783.5339684274
 21
376.3598512755
  0
LINE
  5
3A9
100
AcDbEntity
  8
6_ALL_SURFS
100
AcDbLine
 62
7
  6
CONTINUOUS
 10
783.5339684274
 20
376.3598512755
 11
783.5339684274
 21
396.2098467759
  0
LINE
  5
3AA
100
AcDbEntity
  8
7_ALL_FEATURES
100
AcDbLine
 62
7
  6
CONTINUOUS
 10
785.0339684274
 20
376.3598512755
 11
785.0339684274
 21
333.9598512755
  0
LINE
  5
3AB
100
AcDbEntity
  8
3_ALL_AXES
100
AcDbLine
 62
7
  6
CONTINUOUS
 10
785.8832480978
 20
334.1098512755
 11
785.8832480978
 21
339.6098512755
  0
LINE
  5
3AC
100
AcDbEntity
  8
3_ALL_AXES
100
AcDbLine
 62
7
  6
CONTINUOUS
 10
785.8832480978
 20
340.4098512755
 11
785.8832480978
 21
345.9098512755
  0
LINE
  5
3AD
100
AcDbEntity
  8
3_ALL_AXES
100
AcDbLine
 62
7
  6
CONTINUOUS
 10
785.8832480978
 20
364.4098512755
 11
785.8832480978
 21
369.9098512755
  0
LINE
  5
3AE
100
AcDbEntity
  8
3_ALL_AXES
100
AcDbLine
 62
7
  6
CONTINUOUS
 10
785.8832480978
 20
370.7098512755
 11
785.8832480978
 21
376.2098512755
  0
LINE
  5
3AF
100
AcDbEntity
  8
3_ALL_AXES
100
AcDbLine
 62
7
  6
CONTINUOUS
 10
786.0339684274
 20
334.1098512755
 11
786.0339684274
 21
339.6098512755
  0
LINE
  5
3B0
100
AcDbEntity
  8
3_ALL_AXES
100
AcDbLine
 62
7
  6
CONTINUOUS
 10
786.0339684274
 20
340.4098512755
 11
786.0339684274
 21
345.9098512755
  0
LINE
  5
3B1
100
AcDbEntity
  8
3_ALL_AXES
100
AcDbLine
 62
7
  6
CONTINUOUS
 10
786.0339684274
 20
364.4098512755
 11
786.0339684274
 21
369.9098512755
  0
LINE
  5
3B2
100
AcDbEntity
  8
3_ALL_AXES
100
AcDbLine
 62
7
  6
CONTINUOUS
 10
786.0339684274
 20
370.7098512755
 11
786.0339684274
 21
376.2098512755
  0
LINE
  5
3B3
100
AcDbEntity
  8
6_ALL_SURFS
100
AcDbLine
 62
7
  6
CONTINUOUS
 10
57.2018722707
 20
199.8759479756
 11
57.5018722707
 21
199.7259479756
  0
LINE
  5
3B4
100
AcDbEntity
  8
6_ALL_SURFS
100
AcDbLine
 62
7
  6
CONTINUOUS
 10
60.2018722707
 20
199.8759479756
 11
60.5018722707
 21
199.7259479756
  0
LINE
  5
3B5
100
AcDbEntity
  8
6_ALL_SURFS
100
AcDbLine
 62
7
  6
CONTINUOUS
 10
63.2018722707
 20
199.8759479756
 11
63.5018722707
 21
199.7259479756
  0
LINE
  5
3B6
100
AcDbEntity
  8
6_ALL_SURFS
100
AcDbLine
 62
7
  6
CONTINUOUS
 10
66.2018722707
 20
199.8759479756
 11
66.5018722707
 21
199.7259479756
  0
LINE
  5
3B7
100
AcDbEntity
  8
7_ALL_FEATURES
100
AcDbLine
 62
7
  6
CONTINUOUS
 10
134.1018722707
 20
198.7259479756
 11
136.2473438611
 21
198.9404951346
  0
LINE
  5
3B8
100
AcDbEntity
  8
6_ALL_SURFS
100
AcDbLine
 62
7
  6
CONTINUOUS
 10
57.0018722707
 20
198.7259479756
 11
54.8564006803
 21
198.9404951346
  0
LINE
  5
3B9
100
AcDbEntity
  8
6_ALL_SURFS
100
AcDbLine
 62
7
  6
CONTINUOUS
 10
69.2018722707
 20
199.8759479756
 11
69.5018722707
 21
199.7259479756
  0
LINE
  5
3BA
100
AcDbEntity
  8
6_ALL_SURFS
100
AcDbLine
 62
7
  6
CONTINUOUS
 10
72.2018722707
 20
199.8759479756
 11
72.5018722707
 21
199.7259479756
  0
LINE
  5
3BB
100
AcDbEntity
  8
7_ALL_FEATURES
100
AcDbLine
 62
7
  6
CONTINUOUS
 10
75.1018722707
 20
197.2259479756
 11
116.0018722707
 21
197.2259479756
  0
LINE
  5
3BC
100
AcDbEntity
  8
6_ALL_SURFS
100
AcDbLine
 62
7
  6
CONTINUOUS
 10
74.3518722707
 20
198.7259479756
 11
72.5018722707
 21
198.7259479756
  0
LINE
  5
3BD
100
AcDbEntity
  8
6_ALL_SURFS
100
AcDbLine
 62
7
  6
CONTINUOUS
 10
71.9018722707
 20
198.7259479756
 11
69.5018722707
 21
198.7259479756
  0
LINE
  5
3BE
100
AcDbEntity
  8
6_ALL_SURFS
100
AcDbLine
 62
7
  6
CONTINUOUS
 10
68.9018722707
 20
198.7259479756
 11
66.5018722707
 21
198.7259479756
  0
LINE
  5
3BF
100
AcDbEntity
  8
6_ALL_SURFS
100
AcDbLine
 62
7
  6
CONTINUOUS
 10
65.9018722707
 20
198.7259479756
 11
63.5018722707
 21
198.7259479756
  0
LINE
  5
3C0
100
AcDbEntity
  8
6_ALL_SURFS
100
AcDbLine
 62
7
  6
CONTINUOUS
 10
62.9018722707
 20
198.7259479756
 11
60.5018722707
 21
198.7259479756
  0
LINE
  5
3C1
100
AcDbEntity
  8
6_ALL_SURFS
100
AcDbLine
 62
7
  6
CONTINUOUS
 10
59.9018722707
 20
198.7259479756
 11
57.0018722707
 21
198.7259479756
  0
LINE
  5
3C2
100
AcDbEntity
  8
7_ALL_FEATURES
100
AcDbLine
 62
7
  6
CONTINUOUS
 10
116.7518722707
 20
198.7259479756
 11
118.6018722707
 21
198.7259479756
  0
LINE
  5
3C3
100
AcDbEntity
  8
3_ALL_AXES
100
AcDbLine
 62
7
  6
CONTINUOUS
 10
119.2018722707
 20
198.7259479756
 11
121.6018722707
 21
198.7259479756
  0
LINE
  5
3C4
100
AcDbEntity
  8
3_ALL_AXES
100
AcDbLine
 62
7
  6
CONTINUOUS
 10
122.2018722707
 20
198.7259479756
 11
124.6018722707
 21
198.7259479756
  0
LINE
  5
3C5
100
AcDbEntity
  8
3_ALL_AXES
100
AcDbLine
 62
7
  6
CONTINUOUS
 10
125.2018722707
 20
198.7259479756
 11
127.6018722707
 21
198.7259479756
  0
LINE
  5
3C6
100
AcDbEntity
  8
3_ALL_AXES
100
AcDbLine
 62
7
  6
CONTINUOUS
 10
128.2018722707
 20
198.7259479756
 11
130.6018722707
 21
198.7259479756
  0
LINE
  5
3C7
100
AcDbEntity
  8
3_ALL_AXES
100
AcDbLine
 62
7
  6
CONTINUOUS
 10
131.2018722707
 20
198.7259479756
 11
134.1018722707
 21
198.7259479756
  0
LINE
  5
3C8
100
AcDbEntity
  8
7_ALL_FEATURES
100
AcDbLine
 62
7
  6
CONTINUOUS
 10
136.2081689128
 20
199.7259479756
 11
134.2018722707
 21
199.7259479756
  0
LINE
  5
3C9
100
AcDbEntity
  8
3_ALL_AXES
100
AcDbLine
 62
7
  6
CONTINUOUS
 10
133.6018722707
 20
199.7259479756
 11
131.2018722707
 21
199.7259479756
  0
LINE
  5
3CA
100
AcDbEntity
  8
3_ALL_AXES
100
AcDbLine
 62
7
  6
CONTINUOUS
 10
130.6018722707
 20
199.7259479756
 11
128.2018722707
 21
199.7259479756
  0
LINE
  5
3CB
100
AcDbEntity
  8
3_ALL_AXES
100
AcDbLine
 62
7
  6
CONTINUOUS
 10
127.6018722707
 20
199.7259479756
 11
125.2018722707
 21
199.7259479756
  0
LINE
  5
3CC
100
AcDbEntity
  8
3_ALL_AXES
100
AcDbLine
 62
7
  6
CONTINUOUS
 10
124.6018722707
 20
199.7259479756
 11
122.2018722707
 21
199.7259479756
  0
LINE
  5
3CD
100
AcDbEntity
  8
3_ALL_AXES
100
AcDbLine
 62
7
  6
CONTINUOUS
 10
121.6018722707
 20
199.7259479756
 11
119.2018722707
 21
199.7259479756
  0
LINE
  5
3CE
100
AcDbEntity
  8
7_ALL_FEATURES
100
AcDbLine
 62
7
  6
CONTINUOUS
 10
118.6018722707
 20
199.7259479756
 11
116.9018722707
 21
199.7259479756
  0
LINE
  5
3CF
100
AcDbEntity
  8
6_ALL_SURFS
100
AcDbLine
 62
7
  6
CONTINUOUS
 10
54.8955756286
 20
199.7259479756
 11
56.9018722707
 21
199.7259479756
  0
LINE
  5
3D0
100
AcDbEntity
  8
6_ALL_SURFS
100
AcDbLine
 62
7
  6
CONTINUOUS
 10
57.5018722707
 20
199.7259479756
 11
59.9018722707
 21
199.7259479756
  0
LINE
  5
3D1
100
AcDbEntity
  8
6_ALL_SURFS
100
AcDbLine
 62
7
  6
CONTINUOUS
 10
60.5018722707
 20
199.7259479756
 11
62.9018722707
 21
199.7259479756
  0
LINE
  5
3D2
100
AcDbEntity
  8
6_ALL_SURFS
100
AcDbLine
 62
7
  6
CONTINUOUS
 10
63.5018722707
 20
199.7259479756
 11
65.9018722707
 21
199.7259479756
  0
LINE
  5
3D3
100
AcDbEntity
  8
6_ALL_SURFS
100
AcDbLine
 62
7
  6
CONTINUOUS
 10
66.5018722707
 20
199.7259479756
 11
68.9018722707
 21
199.7259479756
  0
LINE
  5
3D4
100
AcDbEntity
  8
6_ALL_SURFS
100
AcDbLine
 62
7
  6
CONTINUOUS
 10
69.5018722707
 20
199.7259479756
 11
71.9018722707
 21
199.7259479756
  0
LINE
  5
3D5
100
AcDbEntity
  8
6_ALL_SURFS
100
AcDbLine
 62
7
  6
CONTINUOUS
 10
72.5018722707
 20
199.7259479756
 11
74.2018722707
 21
199.7259479756
  0
LINE
  5
3D6
100
AcDbEntity
  8
7_ALL_FEATURES
100
AcDbLine
 62
7
  6
CONTINUOUS
 10
114.2268722707
 20
206.9759479756
 11
113.4768722707
 21
206.9759479756
  0
LINE
  5
3D7
100
AcDbEntity
  8
7_ALL_FEATURES
100
AcDbLine
 62
7
  6
CONTINUOUS
 10
77.6268722707
 20
206.9759479756
 11
76.8768722707
 21
206.9759479756
  0
LINE
  5
3D8
100
AcDbEntity
  8
7_ALL_FEATURES
100
AcDbLine
 62
7
  6
CONTINUOUS
 10
76.0018722707
 20
207.8509479756
 11
76.8768722707
 21
207.8509479756
  0
LINE
  5
3D9
100
AcDbEntity
  8
7_ALL_FEATURES
100
AcDbLine
 62
7
  6
CONTINUOUS
 10
77.6268722707
 20
207.8509479756
 11
78.5018722707
 21
207.8509479756
  0
LINE
  5
3DA
100
AcDbEntity
  8
7_ALL_FEATURES
100
AcDbLine
 62
7
  6
CONTINUOUS
 10
112.6018722707
 20
207.8509479756
 11
113.4768722707
 21
207.8509479756
  0
LINE
  5
3DB
100
AcDbEntity
  8
7_ALL_FEATURES
100
AcDbLine
 62
7
  6
CONTINUOUS
 10
114.2268722707
 20
207.8509479756
 11
115.1018722707
 21
207.8509479756
  0
LINE
  5
3DC
100
AcDbEntity
  8
7_ALL_FEATURES
100
AcDbLine
 62
7
  6
CONTINUOUS
 10
115.1018722707
 20
208.6009479756
 11
114.2268722707
 21
208.6009479756
  0
LINE
  5
3DD
100
AcDbEntity
  8
7_ALL_FEATURES
100
AcDbLine
 62
7
  6
CONTINUOUS
 10
113.4768722707
 20
208.6009479756
 11
112.6018722707
 21
208.6009479756
  0
LINE
  5
3DE
100
AcDbEntity
  8
7_ALL_FEATURES
100
AcDbLine
 62
7
  6
CONTINUOUS
 10
78.5018722707
 20
208.6009479756
 11
77.6268722707
 21
208.6009479756
  0
LINE
  5
3DF
100
AcDbEntity
  8
7_ALL_FEATURES
100
AcDbLine
 62
7
  6
CONTINUOUS
 10
76.8768722707
 20
208.6009479756
 11
76.0018722707
 21
208.6009479756
  0
LINE
  5
3E0
100
AcDbEntity
  8
7_ALL_FEATURES
100
AcDbLine
 62
7
  6
CONTINUOUS
 10
76.8768722707
 20
209.4759479756
 11
77.6268722707
 21
209.4759479756
  0
LINE
  5
3E1
100
AcDbEntity
  8
7_ALL_FEATURES
100
AcDbLine
 62
7
  6
CONTINUOUS
 10
113.4768722707
 20
209.4759479756
 11
114.2268722707
 21
209.4759479756
  0
LINE
  5
3E2
100
AcDbEntity
  8
7_ALL_FEATURES
100
AcDbLine
 62
7
  6
CONTINUOUS
 10
116.0018722707
 20
212.1259479756
 11
115.0518722707
 21
212.1259479756
  0
LINE
  5
3E3
100
AcDbEntity
  8
7_ALL_FEATURES
100
AcDbLine
 62
7
  6
CONTINUOUS
 10
75.1018722707
 20
212.1259479756
 11
76.0518722707
 21
212.1259479756
  0
LINE
  5
3E4
100
AcDbEntity
  8
3_ALL_AXES
100
AcDbLine
 62
7
  6
CONTINUOUS
 10
119.2018722707
 20
199.7259479756
 11
118.9018722707
 21
199.8759479756
  0
LINE
  5
3E5
100
AcDbEntity
  8
7_ALL_FEATURES
100
AcDbLine
 62
7
  6
CONTINUOUS
 10
74.3518722707
 20
211.3759479756
 11
74.3518722707
 21
197.9759479756
  0
LINE
  5
3E6
100
AcDbEntity
  8
7_ALL_FEATURES
100
AcDbLine
 62
7
  6
CONTINUOUS
 10
76.0018722707
 20
207.8509479756
 11
76.0018722707
 21
208.6009479756
  0
LINE
  5
3E7
100
AcDbEntity
  8
7_ALL_FEATURES
100
AcDbLine
 62
7
  6
CONTINUOUS
 10
76.8768722707
 20
209.4759479756
 11
76.8768722707
 21
208.6009479756
  0
LINE
  5
3E8
100
AcDbEntity
  8
7_ALL_FEATURES
100
AcDbLine
 62
7
  6
CONTINUOUS
 10
76.8768722707
 20
207.8509479756
 11
76.8768722707
 21
206.9759479756
  0
LINE
  5
3E9
100
AcDbEntity
  8
7_ALL_FEATURES
100
AcDbLine
 62
7
  6
CONTINUOUS
 10
77.5518722707
 20
256.7190509633
 11
79.5518722707
 21
265.7404679706
  0
LINE
  5
3EA
100
AcDbEntity
  8
3_ALL_AXES
100
AcDbLine
 62
7
  6
CONTINUOUS
 10
122.2018722707
 20
199.7259479756
 11
121.9018722707
 21
199.8759479756
  0
LINE
  5
3EB
100
AcDbEntity
  8
3_ALL_AXES
100
AcDbLine
 62
7
  6
CONTINUOUS
 10
125.2018722707
 20
199.7259479756
 11
124.9018722707
 21
199.8759479756
  0
LINE
  5
3EC
100
AcDbEntity
  8
3_ALL_AXES
100
AcDbLine
 62
7
  6
CONTINUOUS
 10
128.2018722707
 20
199.7259479756
 11
127.9018722707
 21
199.8759479756
  0
LINE
  5
3ED
100
AcDbEntity
  8
7_ALL_FEATURES
100
AcDbLine
 62
7
  6
CONTINUOUS
 10
77.5518722707
 20
213.6259479756
 11
77.5518722707
 21
256.7190509633
  0
LINE
  5
3EE
100
AcDbEntity
  8
7_ALL_FEATURES
100
AcDbLine
 62
7
  6
CONTINUOUS
 10
77.6268722707
 20
206.9759479756
 11
77.6268722707
 21
207.8509479756
  0
LINE
  5
3EF
100
AcDbEntity
  8
7_ALL_FEATURES
100
AcDbLine
 62
7
  6
CONTINUOUS
 10
77.6268722707
 20
208.6009479756
 11
77.6268722707
 21
209.4759479756
  0
LINE
  5
3F0
100
AcDbEntity
  8
7_ALL_FEATURES
100
AcDbLine
 62
7
  6
CONTINUOUS
 10
78.5018722707
 20
208.6009479756
 11
78.5018722707
 21
207.8509479756
  0
LINE
  5
3F1
100
AcDbEntity
  8
7_ALL_FEATURES
100
AcDbLine
 62
7
  6
CONTINUOUS
 10
79.5518722707
 20
276.2759479756
 11
79.5518722707
 21
265.7404679706
  0
LINE
  5
3F2
100
AcDbEntity
  8
6_ALL_SURFS
100
AcDbLine
 62
7
  6
CONTINUOUS
 10
79.5518722707
 20
276.2759479756
 11
79.5518722707
 21
276.7259479756
  0
LINE
  5
3F3
100
AcDbEntity
  8
3_ALL_AXES
100
AcDbLine
 62
7
  6
CONTINUOUS
 10
131.2018722707
 20
199.7259479756
 11
130.9018722707
 21
199.8759479756
  0
LINE
  5
3F4
100
AcDbEntity
  8
3_ALL_AXES
100
AcDbLine
 62
7
  6
CONTINUOUS
 10
134.2018722707
 20
199.7259479756
 11
133.9018722707
 21
199.8759479756
  0
LINE
  5
3F5
100
AcDbEntity
  8
7_ALL_FEATURES
100
AcDbLine
 62
7
  6
CONTINUOUS
 10
82.3018722707
 20
273.4509479756
 11
82.3018722707
 21
274.2009479756
  0
LINE
  5
3F6
100
AcDbEntity
  8
7_ALL_FEATURES
100
AcDbLine
 62
7
  6
CONTINUOUS
 10
83.1768722707
 20
275.0759479756
 11
83.1768722707
 21
274.2009479756
  0
LINE
  5
3F7
100
AcDbEntity
  8
7_ALL_FEATURES
100
AcDbLine
 62
7
  6
CONTINUOUS
 10
83.1768722707
 20
273.4509479756
 11
83.1768722707
 21
272.5759479756
  0
LINE
  5
3F8
100
AcDbEntity
  8
7_ALL_FEATURES
100
AcDbLine
 62
7
  6
CONTINUOUS
 10
83.9268722707
 20
272.5759479756
 11
83.9268722707
 21
273.4509479756
  0
LINE
  5
3F9
100
AcDbEntity
  8
7_ALL_FEATURES
100
AcDbLine
 62
7
  6
CONTINUOUS
 10
83.9268722707
 20
274.2009479756
 11
83.9268722707
 21
275.0759479756
  0
LINE
  5
3FA
100
AcDbEntity
  8
7_ALL_FEATURES
100
AcDbLine
 62
7
  6
CONTINUOUS
 10
84.8018722707
 20
274.2009479756
 11
84.8018722707
 21
273.4509479756
  0
LINE
  5
3FB
100
AcDbEntity
  8
7_ALL_FEATURES
100
AcDbLine
 62
7
  6
CONTINUOUS
 10
106.3018722707
 20
273.4509479756
 11
106.3018722707
 21
274.2009479756
  0
LINE
  5
3FC
100
AcDbEntity
  8
7_ALL_FEATURES
100
AcDbLine
 62
7
  6
CONTINUOUS
 10
107.1768722707
 20
275.0759479756
 11
107.1768722707
 21
274.2009479756
  0
LINE
  5
3FD
100
AcDbEntity
  8
7_ALL_FEATURES
100
AcDbLine
 62
7
  6
CONTINUOUS
 10
107.1768722707
 20
273.4509479756
 11
107.1768722707
 21
272.5759479756
  0
LINE
  5
3FE
100
AcDbEntity
  8
7_ALL_FEATURES
100
AcDbLine
 62
7
  6
CONTINUOUS
 10
107.9268722707
 20
272.5759479756
 11
107.9268722707
 21
273.4509479756
  0
LINE
  5
3FF
100
AcDbEntity
  8
7_ALL_FEATURES
100
AcDbLine
 62
7
  6
CONTINUOUS
 10
107.9268722707
 20
274.2009479756
 11
107.9268722707
 21
275.0759479756
  0
LINE
  5
400
100
AcDbEntity
  8
7_ALL_FEATURES
100
AcDbLine
 62
7
  6
CONTINUOUS
 10
108.8018722707
 20
274.2009479756
 11
108.8018722707
 21
273.4509479756
  0
LINE
  5
401
100
AcDbEntity
  8
7_ALL_FEATURES
100
AcDbLine
 62
7
  6
CONTINUOUS
 10
111.5518722707
 20
265.7404679706
 11
111.5518722707
 21
276.7259479756
  0
LINE
  5
402
100
AcDbEntity
  8
7_ALL_FEATURES
100
AcDbLine
 62
7
  6
CONTINUOUS
 10
112.6018722707
 20
207.8509479756
 11
112.6018722707
 21
208.6009479756
  0
LINE
  5
403
100
AcDbEntity
  8
7_ALL_FEATURES
100
AcDbLine
 62
7
  6
CONTINUOUS
 10
113.4768722707
 20
209.4759479756
 11
113.4768722707
 21
208.6009479756
  0
LINE
  5
404
100
AcDbEntity
  8
7_ALL_FEATURES
100
AcDbLine
 62
7
  6
CONTINUOUS
 10
113.4768722707
 20
207.8509479756
 11
113.4768722707
 21
206.9759479756
  0
LINE
  5
405
100
AcDbEntity
  8
7_ALL_FEATURES
100
AcDbLine
 62
7
  6
CONTINUOUS
 10
113.5518722707
 20
256.7190509633
 11
113.5518722707
 21
213.6259479756
  0
LINE
  5
406
100
AcDbEntity
  8
7_ALL_FEATURES
100
AcDbLine
 62
7
  6
CONTINUOUS
 10
114.2268722707
 20
206.9759479756
 11
114.2268722707
 21
207.8509479756
  0
LINE
  5
407
100
AcDbEntity
  8
7_ALL_FEATURES
100
AcDbLine
 62
7
  6
CONTINUOUS
 10
114.2268722707
 20
208.6009479756
 11
114.2268722707
 21
209.4759479756
  0
LINE
  5
408
100
AcDbEntity
  8
7_ALL_FEATURES
100
AcDbLine
 62
7
  6
CONTINUOUS
 10
115.1018722707
 20
208.6009479756
 11
115.1018722707
 21
207.8509479756
  0
LINE
  5
409
100
AcDbEntity
  8
6_ALL_SURFS
100
AcDbLine
 62
7
  6
CONTINUOUS
 10
56.9018722707
 20
199.7259479756
 11
57.2018722707
 21
199.8759479756
  0
LINE
  5
40A
100
AcDbEntity
  8
6_ALL_SURFS
100
AcDbLine
 62
7
  6
CONTINUOUS
 10
59.9018722707
 20
199.7259479756
 11
60.2018722707
 21
199.8759479756
  0
LINE
  5
40B
100
AcDbEntity
  8
6_ALL_SURFS
100
AcDbLine
 62
7
  6
CONTINUOUS
 10
62.9018722707
 20
199.7259479756
 11
63.2018722707
 21
199.8759479756
  0
LINE
  5
40C
100
AcDbEntity
  8
7_ALL_FEATURES
100
AcDbLine
 62
7
  6
CONTINUOUS
 10
84.5696423059
 20
253.9009479756
 11
85.3209448934
 21
253.9009479756
  0
LINE
  5
40D
100
AcDbEntity
  8
7_ALL_FEATURES
100
AcDbLine
 62
7
  6
CONTINUOUS
 10
105.782799648
 20
253.9009479756
 11
106.5341022355
 21
253.9009479756
  0
LINE
  5
40E
100
AcDbEntity
  8
7_ALL_FEATURES
100
AcDbLine
 62
7
  6
CONTINUOUS
 10
106.5341022355
 20
255.1509479756
 11
105.782799648
 21
255.1509479756
  0
LINE
  5
40F
100
AcDbEntity
  8
7_ALL_FEATURES
100
AcDbLine
 62
7
  6
CONTINUOUS
 10
85.3209448934
 20
255.1509479756
 11
84.5696423059
 21
255.1509479756
  0
LINE
  5
410
100
AcDbEntity
  8
7_ALL_FEATURES
100
AcDbLine
 62
7
  6
CONTINUOUS
 10
116.7518722707
 20
197.9759479756
 11
116.7518722707
 21
211.3759479756
  0
LINE
  5
411
100
AcDbEntity
  8
6_ALL_SURFS
100
AcDbLine
 62
7
  6
CONTINUOUS
 10
65.9018722707
 20
199.7259479756
 11
66.2018722707
 21
199.8759479756
  0
LINE
  5
412
100
AcDbEntity
  8
6_ALL_SURFS
100
AcDbLine
 62
7
  6
CONTINUOUS
 10
68.9018722707
 20
199.7259479756
 11
69.2018722707
 21
199.8759479756
  0
LINE
  5
413
100
AcDbEntity
  8
6_ALL_SURFS
100
AcDbLine
 62
7
  6
CONTINUOUS
 10
71.9018722707
 20
199.7259479756
 11
72.2018722707
 21
199.8759479756
  0
LINE
  5
414
100
AcDbEntity
  8
7_ALL_FEATURES
100
AcDbLine
 62
7
  6
CONTINUOUS
 10
111.5518722707
 20
265.7404679706
 11
113.5518722707
 21
256.7190509633
  0
LINE
  5
415
100
AcDbEntity
  8
7_ALL_FEATURES
100
AcDbLine
 62
7
  6
CONTINUOUS
 10
107.9268722707
 20
272.5759479756
 11
107.1768722707
 21
272.5759479756
  0
LINE
  5
416
100
AcDbEntity
  8
7_ALL_FEATURES
100
AcDbLine
 62
7
  6
CONTINUOUS
 10
83.9268722707
 20
272.5759479756
 11
83.1768722707
 21
272.5759479756
  0
LINE
  5
417
100
AcDbEntity
  8
7_ALL_FEATURES
100
AcDbLine
 62
7
  6
CONTINUOUS
 10
82.3018722707
 20
273.4509479756
 11
83.1768722707
 21
273.4509479756
  0
LINE
  5
418
100
AcDbEntity
  8
7_ALL_FEATURES
100
AcDbLine
 62
7
  6
CONTINUOUS
 10
83.9268722707
 20
273.4509479756
 11
84.8018722707
 21
273.4509479756
  0
LINE
  5
419
100
AcDbEntity
  8
7_ALL_FEATURES
100
AcDbLine
 62
7
  6
CONTINUOUS
 10
106.3018722707
 20
273.4509479756
 11
107.1768722707
 21
273.4509479756
  0
LINE
  5
41A
100
AcDbEntity
  8
7_ALL_FEATURES
100
AcDbLine
 62
7
  6
CONTINUOUS
 10
107.9268722707
 20
273.4509479756
 11
108.8018722707
 21
273.4509479756
  0
LINE
  5
41B
100
AcDbEntity
  8
7_ALL_FEATURES
100
AcDbLine
 62
7
  6
CONTINUOUS
 10
108.8018722707
 20
274.2009479756
 11
107.9268722707
 21
274.2009479756
  0
LINE
  5
41C
100
AcDbEntity
  8
7_ALL_FEATURES
100
AcDbLine
 62
7
  6
CONTINUOUS
 10
107.1768722707
 20
274.2009479756
 11
106.3018722707
 21
274.2009479756
  0
LINE
  5
41D
100
AcDbEntity
  8
7_ALL_FEATURES
100
AcDbLine
 62
7
  6
CONTINUOUS
 10
84.8018722707
 20
274.2009479756
 11
83.9268722707
 21
274.2009479756
  0
LINE
  5
41E
100
AcDbEntity
  8
7_ALL_FEATURES
100
AcDbLine
 62
7
  6
CONTINUOUS
 10
83.1768722707
 20
274.2009479756
 11
82.3018722707
 21
274.2009479756
  0
LINE
  5
41F
100
AcDbEntity
  8
7_ALL_FEATURES
100
AcDbLine
 62
7
  6
CONTINUOUS
 10
83.1768722707
 20
275.0759479756
 11
83.9268722707
 21
275.0759479756
  0
LINE
  5
420
100
AcDbEntity
  8
7_ALL_FEATURES
100
AcDbLine
 62
7
  6
CONTINUOUS
 10
107.1768722707
 20
275.0759479756
 11
107.9268722707
 21
275.0759479756
  0
LINE
  5
421
100
AcDbEntity
  8
7_ALL_FEATURES
100
AcDbLine
 62
7
  6
CONTINUOUS
 10
111.2518722707
 20
277.0259479756
 11
98.1976235818
 21
277.0259479756
  0
LINE
  5
422
100
AcDbEntity
  8
7_ALL_FEATURES
100
AcDbLine
 62
7
  6
CONTINUOUS
 10
92.9061209596
 20
277.0259479756
 11
80.3018722707
 21
277.0259479756
  0
LINE
  5
423
100
AcDbEntity
  8
6_ALL_SURFS
100
AcDbLine
 62
7
  6
CONTINUOUS
 10
79.8518722707
 20
277.0259479756
 11
80.3018722707
 21
277.0259479756
  0
LINE
  5
424
100
AcDbEntity
  8
7_ALL_FEATURES
100
AcDbLine
 62
7
  6
CONTINUOUS
 10
93.7518722707
 20
277.0259479756
 11
97.3518722707
 21
277.0259479756
  0
LINE
  5
425
100
AcDbEntity
  8
3_ALL_AXES
100
AcDbLine
 62
7
  6
CONTINUOUS
 10
118.9018722707
 20
199.8759479756
 11
118.6018722707
 21
199.7259479756
  0
LINE
  5
426
100
AcDbEntity
  8
3_ALL_AXES
100
AcDbLine
 62
7
  6
CONTINUOUS
 10
121.9018722707
 20
199.8759479756
 11
121.6018722707
 21
199.7259479756
  0
LINE
  5
427
100
AcDbEntity
  8
3_ALL_AXES
100
AcDbLine
 62
7
  6
CONTINUOUS
 10
124.9018722707
 20
199.8759479756
 11
124.6018722707
 21
199.7259479756
  0
LINE
  5
428
100
AcDbEntity
  8
3_ALL_AXES
100
AcDbLine
 62
7
  6
CONTINUOUS
 10
127.9018722707
 20
199.8759479756
 11
127.6018722707
 21
199.7259479756
  0
LINE
  5
429
100
AcDbEntity
  8
3_ALL_AXES
100
AcDbLine
 62
7
  6
CONTINUOUS
 10
130.9018722707
 20
199.8759479756
 11
130.6018722707
 21
199.7259479756
  0
LINE
  5
42A
100
AcDbEntity
  8
3_ALL_AXES
100
AcDbLine
 62
7
  6
CONTINUOUS
 10
133.9018722707
 20
199.8759479756
 11
133.6018722707
 21
199.7259479756
  0
ARC
  5
42B
100
AcDbEntity
  8
7_ALL_FEATURES
100
AcDbCircle
 62
7
  6
CONTINUOUS
 10
251.5339684274
 20
320.1098512755
 40
4.7990381057
100
AcDbArc
 50
38.6913826582
 51
141.3086173418
  0
ARC
  5
42C
100
AcDbEntity
  8
7_ALL_FEATURES
100
AcDbCircle
 62
7
  6
CONTINUOUS
 10
251.5339684274
 20
320.1098512755
 40
4.7990381057
100
AcDbArc
 50
149.9933694481
 51
180.0
  0
ARC
  5
42D
100
AcDbEntity
  8
7_ALL_FEATURES
100
AcDbCircle
 62
7
  6
CONTINUOUS
 10
251.5339684274
 20
320.1098512755
 40
4.7990381057
100
AcDbArc
 50
0.0
 51
30.0066305519
  0
ARC
  5
42E
100
AcDbEntity
  8
7_ALL_FEATURES
100
AcDbCircle
 62
7
  6
CONTINUOUS
 10
251.5339684274
 20
320.1098512755
 40
4.7990381057
100
AcDbArc
 50
187.1822026405
 51
226.828815981
  0
ARC
  5
42F
100
AcDbEntity
  8
7_ALL_FEATURES
100
AcDbCircle
 62
7
  6
CONTINUOUS
 10
251.5339684274
 20
320.1098512755
 40
4.7990381057
100
AcDbArc
 50
313.171184019
 51
352.8177973595
  0
CIRCLE
  5
430
100
AcDbEntity
  8
6_ALL_SURFS
100
AcDbCircle
 62
7
  6
CONTINUOUS
 10
251.5339684274
 20
320.1098512755
 40
3.5
  0
ARC
  5
431
100
AcDbEntity
  8
6_ALL_SURFS
100
AcDbCircle
 62
7
  6
CONTINUOUS
 10
251.5339684274
 20
390.2098512755
 40
4.7990381057
100
AcDbArc
 50
329.9933694481
 51
360.0
  0
ARC
  5
432
100
AcDbEntity
  8
6_ALL_SURFS
100
AcDbCircle
 62
7
  6
CONTINUOUS
 10
251.5339684274
 20
390.2098512755
 40
4.7990381057
100
AcDbArc
 50
180.0
 51
210.0066305519
  0
ARC
  5
433
100
AcDbEntity
  8
6_ALL_SURFS
100
AcDbCircle
 62
7
  6
CONTINUOUS
 10
251.5339684274
 20
390.2098512755
 40
4.7990381057
100
AcDbArc
 50
218.6913826582
 51
321.3086173418
  0
ARC
  5
434
100
AcDbEntity
  8
6_ALL_SURFS
100
AcDbCircle
 62
7
  6
CONTINUOUS
 10
251.5339684274
 20
390.2098512755
 40
4.7990381057
100
AcDbArc
 50
7.1822026405
 51
46.828815981
  0
ARC
  5
435
100
AcDbEntity
  8
6_ALL_SURFS
100
AcDbCircle
 62
7
  6
CONTINUOUS
 10
251.5339684274
 20
390.2098512755
 40
4.7990381057
100
AcDbArc
 50
133.171184019
 51
172.8177973595
  0
CIRCLE
  5
436
100
AcDbEntity
  8
6_ALL_SURFS
100
AcDbCircle
 62
7
  6
CONTINUOUS
 10
251.5339684274
 20
390.2098512755
 40
3.5
  0
ARC
  5
437
100
AcDbEntity
  8
7_ALL_FEATURES
100
AcDbCircle
 62
7
  6
CONTINUOUS
 10
501.5339684274
 20
320.1098512755
 40
4.7990381057
100
AcDbArc
 50
38.6913826582
 51
141.3086173418
  0
ARC
  5
438
100
AcDbEntity
  8
7_ALL_FEATURES
100
AcDbCircle
 62
7
  6
CONTINUOUS
 10
751.5339684274
 20
320.1098512755
 40
4.7990381057
100
AcDbArc
 50
38.6913826582
 51
141.3086173418
  0
ARC
  5
439
100
AcDbEntity
  8
7_ALL_FEATURES
100
AcDbCircle
 62
7
  6
CONTINUOUS
 10
501.5339684274
 20
320.1098512755
 40
4.7990381057
100
AcDbArc
 50
149.9933694481
 51
180.0
  0
ARC
  5
43A
100
AcDbEntity
  8
7_ALL_FEATURES
100
AcDbCircle
 62
7
  6
CONTINUOUS
 10
751.5339684274
 20
320.1098512755
 40
4.7990381057
100
AcDbArc
 50
149.9933694481
 51
180.0
  0
ARC
  5
43B
100
AcDbEntity
  8
7_ALL_FEATURES
100
AcDbCircle
 62
7
  6
CONTINUOUS
 10
501.5339684274
 20
320.1098512755
 40
4.7990381057
100
AcDbArc
 50
0.0
 51
30.0066305519
  0
ARC
  5
43C
100
AcDbEntity
  8
7_ALL_FEATURES
100
AcDbCircle
 62
7
  6
CONTINUOUS
 10
751.5339684274
 20
320.1098512755
 40
4.7990381057
100
AcDbArc
 50
0.0
 51
30.0066305519
  0
ARC
  5
43D
100
AcDbEntity
  8
7_ALL_FEATURES
100
AcDbCircle
 62
7
  6
CONTINUOUS
 10
501.5339684274
 20
320.1098512755
 40
4.7990381057
100
AcDbArc
 50
187.1822026405
 51
226.828815981
  0
ARC
  5
43E
100
AcDbEntity
  8
7_ALL_FEATURES
100
AcDbCircle
 62
7
  6
CONTINUOUS
 10
751.5339684274
 20
320.1098512755
 40
4.7990381057
100
AcDbArc
 50
187.1822026405
 51
226.828815981
  0
ARC
  5
43F
100
AcDbEntity
  8
7_ALL_FEATURES
100
AcDbCircle
 62
7
  6
CONTINUOUS
 10
501.5339684274
 20
320.1098512755
 40
4.7990381057
100
AcDbArc
 50
313.171184019
 51
352.8177973595
  0
ARC
  5
440
100
AcDbEntity
  8
7_ALL_FEATURES
100
AcDbCircle
 62
7
  6
CONTINUOUS
 10
751.5339684274
 20
320.1098512755
 40
4.7990381057
100
AcDbArc
 50
313.171184019
 51
352.8177973595
  0
CIRCLE
  5
441
100
AcDbEntity
  8
6_ALL_SURFS
100
AcDbCircle
 62
7
  6
CONTINUOUS
 10
751.5339684274
 20
320.1098512755
 40
3.5
  0
CIRCLE
  5
442
100
AcDbEntity
  8
6_ALL_SURFS
100
AcDbCircle
 62
7
  6
CONTINUOUS
 10
501.5339684274
 20
320.1098512755
 40
3.5
  0
ARC
  5
443
100
AcDbEntity
  8
6_ALL_SURFS
100
AcDbCircle
 62
7
  6
CONTINUOUS
 10
751.5339684274
 20
390.2098512755
 40
4.7990381057
100
AcDbArc
 50
329.9933694481
 51
360.0
  0
ARC
  5
444
100
AcDbEntity
  8
6_ALL_SURFS
100
AcDbCircle
 62
7
  6
CONTINUOUS
 10
501.5339684274
 20
390.2098512755
 40
4.7990381057
100
AcDbArc
 50
329.9933694481
 51
360.0
  0
ARC
  5
445
100
AcDbEntity
  8
6_ALL_SURFS
100
AcDbCircle
 62
7
  6
CONTINUOUS
 10
751.5339684274
 20
390.2098512755
 40
4.7990381057
100
AcDbArc
 50
180.0
 51
210.0066305519
  0
ARC
  5
446
100
AcDbEntity
  8
6_ALL_SURFS
100
AcDbCircle
 62
7
  6
CONTINUOUS
 10
501.5339684274
 20
390.2098512755
 40
4.7990381057
100
AcDbArc
 50
180.0
 51
210.0066305519
  0
ARC
  5
447
100
AcDbEntity
  8
6_ALL_SURFS
100
AcDbCircle
 62
7
  6
CONTINUOUS
 10
501.5339684274
 20
390.2098512755
 40
4.7990381057
100
AcDbArc
 50
218.6913826582
 51
321.3086173418
  0
ARC
  5
448
100
AcDbEntity
  8
6_ALL_SURFS
100
AcDbCircle
 62
7
  6
CONTINUOUS
 10
751.5339684274
 20
390.2098512755
 40
4.7990381057
100
AcDbArc
 50
218.6913826582
 51
321.3086173418
  0
ARC
  5
449
100
AcDbEntity
  8
6_ALL_SURFS
100
AcDbCircle
 62
7
  6
CONTINUOUS
 10
751.5339684274
 20
390.2098512755
 40
4.7990381057
100
AcDbArc
 50
7.1822026405
 51
46.828815981
  0
ARC
  5
44A
100
AcDbEntity
  8
6_ALL_SURFS
100
AcDbCircle
 62
7
  6
CONTINUOUS
 10
501.5339684274
 20
390.2098512755
 40
4.7990381057
100
AcDbArc
 50
7.1822026405
 51
46.828815981
  0
ARC
  5
44B
100
AcDbEntity
  8
6_ALL_SURFS
100
AcDbCircle
 62
7
  6
CONTINUOUS
 10
751.5339684274
 20
390.2098512755
 40
4.7990381057
100
AcDbArc
 50
133.171184019
 51
172.8177973595
  0
ARC
  5
44C
100
AcDbEntity
  8
6_ALL_SURFS
100
AcDbCircle
 62
7
  6
CONTINUOUS
 10
501.5339684274
 20
390.2098512755
 40
4.7990381057
100
AcDbArc
 50
133.171184019
 51
172.8177973595
  0
CIRCLE
  5
44D
100
AcDbEntity
  8
6_ALL_SURFS
100
AcDbCircle
 62
7
  6
CONTINUOUS
 10
751.5339684274
 20
390.2098512755
 40
3.5
  0
CIRCLE
  5
44E
100
AcDbEntity
  8
6_ALL_SURFS
100
AcDbCircle
 62
7
  6
CONTINUOUS
 10
501.5339684274
 20
390.2098512755
 40
3.5
  0
CIRCLE
  5
44F
100
AcDbEntity
  8
3_ALL_AXES
100
AcDbCircle
 62
7
  6
CONTINUOUS
 10
77.2518722707
 20
208.2259479756
 40
2.75
  0
ARC
  5
450
100
AcDbEntity
  8
7_ALL_FEATURES
100
AcDbCircle
 62
7
  6
CONTINUOUS
 10
76.0518722707
 20
213.6259479756
 40
1.5
100
AcDbArc
 50
270.0
 51
360.0
  0
ARC
  5
451
100
AcDbEntity
  8
7_ALL_FEATURES
100
AcDbCircle
 62
7
  6
CONTINUOUS
 10
75.1018722707
 20
211.3759479756
 40
0.75
100
AcDbArc
 50
90.0
 51
180.0
  0
ARC
  5
452
100
AcDbEntity
  8
7_ALL_FEATURES
100
AcDbCircle
 62
7
  6
CONTINUOUS
 10
75.1018722707
 20
197.9759479756
 40
0.75
100
AcDbArc
 50
180.0
 51
270.0
  0
ARC
  5
453
100
AcDbEntity
  8
6_ALL_SURFS
100
AcDbCircle
 62
7
  6
CONTINUOUS
 10
60.2018722707
 20
198.3259479756
 40
0.5
100
AcDbArc
 50
53.1301023542
 51
126.8698976458
  0
ARC
  5
454
100
AcDbEntity
  8
6_ALL_SURFS
100
AcDbCircle
 62
7
  6
CONTINUOUS
 10
63.2018722707
 20
198.3259479756
 40
0.5
100
AcDbArc
 50
53.1301023542
 51
126.8698976458
  0
ARC
  5
455
100
AcDbEntity
  8
6_ALL_SURFS
100
AcDbCircle
 62
7
  6
CONTINUOUS
 10
66.2018722707
 20
198.3259479756
 40
0.5
100
AcDbArc
 50
53.1301023542
 51
126.8698976458
  0
ARC
  5
456
100
AcDbEntity
  8
6_ALL_SURFS
100
AcDbCircle
 62
7
  6
CONTINUOUS
 10
69.2018722707
 20
198.3259479756
 40
0.5
100
AcDbArc
 50
53.1301023542
 51
126.8698976458
  0
ARC
  5
457
100
AcDbEntity
  8
6_ALL_SURFS
100
AcDbCircle
 62
7
  6
CONTINUOUS
 10
72.2018722707
 20
198.3259479756
 40
0.5
100
AcDbArc
 50
53.1301023542
 51
126.8698976458
  0
ARC
  5
458
100
AcDbEntity
  8
6_ALL_SURFS
100
AcDbCircle
 62
7
  6
CONTINUOUS
 10
54.8955756286
 20
199.3322446177
 40
0.3937033579
100
AcDbArc
 50
90.0
 51
264.2894068625
  0
ARC
  5
459
100
AcDbEntity
  8
6_ALL_SURFS
100
AcDbCircle
 62
7
  6
CONTINUOUS
 10
74.2018722707
 20
200.0259479756
 40
0.3
100
AcDbArc
 50
270.0
 51
300.1396113324
  0
ARC
  5
45A
100
AcDbEntity
  8
6_ALL_SURFS
100
AcDbCircle
 62
7
  6
CONTINUOUS
 10
75.0518722707
 20
197.5259479756
 40
0.3
100
AcDbArc
 50
254.8334492506
 51
270.0
  0
CIRCLE
  5
45B
100
AcDbEntity
  8
3_ALL_AXES
100
AcDbCircle
 62
7
  6
CONTINUOUS
 10
83.5518722707
 20
273.8259479756
 40
2.75
  0
ARC
  5
45C
100
AcDbEntity
  8
6_ALL_SURFS
100
AcDbCircle
 62
7
  6
CONTINUOUS
 10
93.7518722707
 20
275.2259479756
 40
1.8
100
AcDbArc
 50
90.0
 51
105.5854918115
  0
ARC
  5
45D
100
AcDbEntity
  8
7_ALL_FEATURES
100
AcDbCircle
 62
7
  6
CONTINUOUS
 10
92.9061209596
 20
276.0259479756
 40
1.0
100
AcDbArc
 50
48.5903778907
 51
90.0
  0
ARC
  5
45E
100
AcDbEntity
  8
7_ALL_FEATURES
100
AcDbCircle
 62
7
  6
CONTINUOUS
 10
80.3018722707
 20
276.2759479756
 40
0.75
100
AcDbArc
 50
90.0
 51
180.0
  0
ARC
  5
45F
100
AcDbEntity
  8
6_ALL_SURFS
100
AcDbCircle
 62
7
  6
CONTINUOUS
 10
79.8518722707
 20
276.7259479756
 40
0.3
100
AcDbArc
 50
90.0
 51
180.0
  0
CIRCLE
  5
460
100
AcDbEntity
  8
3_ALL_AXES
100
AcDbCircle
 62
7
  6
CONTINUOUS
 10
113.8518722707
 20
208.2259479756
 40
2.75
  0
ARC
  5
461
100
AcDbEntity
  8
7_ALL_FEATURES
100
AcDbCircle
 62
7
  6
CONTINUOUS
 10
115.0518722707
 20
213.6259479756
 40
1.5
100
AcDbArc
 50
180.0
 51
270.0
  0
ARC
  5
462
100
AcDbEntity
  8
7_ALL_FEATURES
100
AcDbCircle
 62
7
  6
CONTINUOUS
 10
116.0018722707
 20
197.9759479756
 40
0.75
100
AcDbArc
 50
270.0
 51
360.0
  0
ARC
  5
463
100
AcDbEntity
  8
7_ALL_FEATURES
100
AcDbCircle
 62
7
  6
CONTINUOUS
 10
116.0018722707
 20
211.3759479756
 40
0.75
100
AcDbArc
 50
0.0
 51
90.0
  0
ARC
  5
464
100
AcDbEntity
  8
3_ALL_AXES
100
AcDbCircle
 62
7
  6
CONTINUOUS
 10
130.9018722707
 20
198.3259479756
 40
0.5
100
AcDbArc
 50
53.1301023542
 51
126.8698976458
  0
ARC
  5
465
100
AcDbEntity
  8
3_ALL_AXES
100
AcDbCircle
 62
7
  6
CONTINUOUS
 10
127.9018722707
 20
198.3259479756
 40
0.5
100
AcDbArc
 50
53.1301023542
 51
126.8698976458
  0
ARC
  5
466
100
AcDbEntity
  8
3_ALL_AXES
100
AcDbCircle
 62
7
  6
CONTINUOUS
 10
124.9018722707
 20
198.3259479756
 40
0.5
100
AcDbArc
 50
53.1301023542
 51
126.8698976458
  0
ARC
  5
467
100
AcDbEntity
  8
3_ALL_AXES
100
AcDbCircle
 62
7
  6
CONTINUOUS
 10
121.9018722707
 20
198.3259479756
 40
0.5
100
AcDbArc
 50
53.1301023542
 51
126.8698976458
  0
ARC
  5
468
100
AcDbEntity
  8
3_ALL_AXES
100
AcDbCircle
 62
7
  6
CONTINUOUS
 10
118.9018722707
 20
198.3259479756
 40
0.5
100
AcDbArc
 50
53.1301023542
 51
126.8698976458
  0
ARC
  5
469
100
AcDbEntity
  8
7_ALL_FEATURES
100
AcDbCircle
 62
7
  6
CONTINUOUS
 10
136.2081689128
 20
199.3322446177
 40
0.3937033579
100
AcDbArc
 50
275.7105931375
 51
90.0
  0
ARC
  5
46A
100
AcDbEntity
  8
7_ALL_FEATURES
100
AcDbCircle
 62
7
  6
CONTINUOUS
 10
116.9018722707
 20
200.0259479756
 40
0.3
100
AcDbArc
 50
239.8603886676
 51
270.0
  0
ARC
  5
46B
100
AcDbEntity
  8
7_ALL_FEATURES
100
AcDbCircle
 62
7
  6
CONTINUOUS
 10
116.0518722707
 20
197.5259479756
 40
0.3
100
AcDbArc
 50
270.0
 51
285.1665507494
  0
ARC
  5
46C
100
AcDbEntity
  8
7_ALL_FEATURES
100
AcDbCircle
 62
7
  6
CONTINUOUS
 10
95.5518722707
 20
254.5259479756
 40
11.0
100
AcDbArc
 50
3.257196161
 51
176.742803839
  0
ARC
  5
46D
100
AcDbEntity
  8
7_ALL_FEATURES
100
AcDbCircle
 62
7
  6
CONTINUOUS
 10
95.5518722707
 20
254.5259479756
 40
11.0
100
AcDbArc
 50
183.257196161
 51
356.742803839
  0
ARC
  5
46E
100
AcDbEntity
  8
7_ALL_FEATURES
100
AcDbCircle
 62
7
  6
CONTINUOUS
 10
95.5518722707
 20
254.5259479756
 40
10.25
100
AcDbArc
 50
3.4958136324
 51
176.5041863676
  0
ARC
  5
46F
100
AcDbEntity
  8
7_ALL_FEATURES
100
AcDbCircle
 62
7
  6
CONTINUOUS
 10
95.5518722707
 20
254.5259479756
 40
10.25
100
AcDbArc
 50
183.4958136324
 51
356.5041863676
  0
ARC
  5
470
100
AcDbEntity
  8
7_ALL_FEATURES
100
AcDbCircle
 62
7
  6
CONTINUOUS
 10
95.5518722707
 20
279.0259479756
 40
3.0
100
AcDbArc
 50
228.5903778907
 51
311.4096221093
  0
CIRCLE
  5
471
100
AcDbEntity
  8
3_ALL_AXES
100
AcDbCircle
 62
7
  6
CONTINUOUS
 10
107.5518722707
 20
273.8259479756
 40
2.75
  0
ARC
  5
472
100
AcDbEntity
  8
7_ALL_FEATURES
100
AcDbCircle
 62
7
  6
CONTINUOUS
 10
97.3518722707
 20
275.2259479756
 40
1.8
100
AcDbArc
 50
74.4145081885
 51
90.0
  0
ARC
  5
473
100
AcDbEntity
  8
7_ALL_FEATURES
100
AcDbCircle
 62
7
  6
CONTINUOUS
 10
98.1976235818
 20
276.0259479756
 40
1.0
100
AcDbArc
 50
90.0
 51
131.4096221093
  0
ARC
  5
474
100
AcDbEntity
  8
7_ALL_FEATURES
100
AcDbCircle
 62
7
  6
CONTINUOUS
 10
110.8018722707
 20
276.2759479756
 40
0.75
100
AcDbArc
 50
0.0
 51
90.0
  0
ARC
  5
475
100
AcDbEntity
  8
7_ALL_FEATURES
100
AcDbCircle
 62
7
  6
CONTINUOUS
 10
111.2518722707
 20
276.7259479756
 40
0.3
100
AcDbArc
 50
0.0
 51
90.0
  0
SPLINE
  5
476
100
AcDbEntity
  8
6_ALL_SURFS
100
AcDbSpline
 62
7
  6
CONTINUOUS
 70
0
 71
3
 72
12
 73
8
 74
0
 42
0.0000001
 43
0.0000001
 44
0.0000000001
 40
0.0
 40
0.0
 40
0.0
 40
0.0
 40
0.2439671116
 40
0.4998878571
 40
0.6306633697
 40
0.758158015
 40
1.0
 40
1.0
 40
1.0
 40
1.0
 10
756.3330065331
 20
390.2098512755
 30
0.0
 10
756.2876377136
 20
390.2447762091
 30
0.0
 10
756.2025695797
 20
390.3282537758
 30
0.0
 10
756.1439964993
 20
390.4720447081
 30
0.0
 10
756.1517279882
 20
390.5944156442
 30
0.0
 10
756.1930853475
 20
390.7056857104
 30
0.0
 10
756.2520020826
 20
390.7732170413
 30
0.0
 10
756.2953512875
 20
390.8098512755
 30
0.0
  0
SPLINE
  5
477
100
AcDbEntity
  8
6_ALL_SURFS
100
AcDbSpline
 62
7
  6
CONTINUOUS
 70
0
 71
3
 72
12
 73
8
 74
0
 42
0.0000001
 43
0.0000001
 44
0.0000000001
 40
0.0
 40
0.0
 40
0.0
 40
0.0
 40
0.2439671116
 40
0.4998878571
 40
0.6306633697
 40
0.758158015
 40
1.0
 40
1.0
 40
1.0
 40
1.0
 10
506.3330065331
 20
390.2098512755
 30
0.0
 10
506.2876377136
 20
390.2447762091
 30
0.0
 10
506.2025695797
 20
390.3282537758
 30
0.0
 10
506.1439964993
 20
390.4720447081
 30
0.0
 10
506.1517279882
 20
390.5944156442
 30
0.0
 10
506.1930853475
 20
390.7056857104
 30
0.0
 10
506.2520020826
 20
390.7732170413
 30
0.0
 10
506.2953512875
 20
390.8098512755
 30
0.0
  0
SPLINE
  5
478
100
AcDbEntity
  8
6_ALL_SURFS
100
AcDbSpline
 62
7
  6
CONTINUOUS
 70
0
 71
3
 72
12
 73
8
 74
0
 42
0.0000001
 43
0.0000001
 44
0.0000000001
 40
0.0
 40
0.0
 40
0.0
 40
0.0
 40
0.241841985
 40
0.3693366303
 40
0.5001121429
 40
0.7560328884
 40
1.0
 40
1.0
 40
1.0
 40
1.0
 10
746.7725855674
 20
390.8098512755
 30
0.0
 10
746.8159347723
 20
390.7732170413
 30
0.0
 10
746.8748515074
 20
390.7056857104
 30
0.0
 10
746.9162088667
 20
390.5944156442
 30
0.0
 10
746.9239403556
 20
390.4720447081
 30
0.0
 10
746.8653672752
 20
390.3282537758
 30
0.0
 10
746.7802991413
 20
390.2447762091
 30
0.0
 10
746.7349303218
 20
390.2098512755
 30
0.0
  0
SPLINE
  5
479
100
AcDbEntity
  8
6_ALL_SURFS
100
AcDbSpline
 62
7
  6
CONTINUOUS
 70
0
 71
3
 72
12
 73
8
 74
0
 42
0.0000001
 43
0.0000001
 44
0.0000000001
 40
0.0
 40
0.0
 40
0.0
 40
0.0
 40
0.2439671116
 40
0.4998878571
 40
0.6306633697
 40
0.758158015
 40
1.0
 40
1.0
 40
1.0
 40
1.0
 10
256.3330065331
 20
390.2098512755
 30
0.0
 10
256.2876377136
 20
390.2447762091
 30
0.0
 10
256.2025695797
 20
390.3282537758
 30
0.0
 10
256.1439964993
 20
390.4720447081
 30
0.0
 10
256.1517279882
 20
390.5944156442
 30
0.0
 10
256.1930853475
 20
390.7056857104
 30
0.0
 10
256.2520020826
 20
390.7732170413
 30
0.0
 10
256.2953512875
 20
390.8098512755
 30
0.0
  0
SPLINE
  5
47A
100
AcDbEntity
  8
6_ALL_SURFS
100
AcDbSpline
 62
7
  6
CONTINUOUS
 70
0
 71
3
 72
12
 73
8
 74
0
 42
0.0000001
 43
0.0000001
 44
0.0000000001
 40
0.0
 40
0.0
 40
0.0
 40
0.0
 40
0.241841985
 40
0.3693366303
 40
0.5001121429
 40
0.7560328884
 40
1.0
 40
1.0
 40
1.0
 40
1.0
 10
496.7725855674
 20
390.8098512755
 30
0.0
 10
496.8159347723
 20
390.7732170413
 30
0.0
 10
496.8748515074
 20
390.7056857104
 30
0.0
 10
496.9162088667
 20
390.5944156442
 30
0.0
 10
496.9239403556
 20
390.4720447081
 30
0.0
 10
496.8653672752
 20
390.3282537758
 30
0.0
 10
496.7802991413
 20
390.2447762091
 30
0.0
 10
496.7349303218
 20
390.2098512755
 30
0.0
  0
SPLINE
  5
47B
100
AcDbEntity
  8
6_ALL_SURFS
100
AcDbSpline
 62
7
  6
CONTINUOUS
 70
0
 71
3
 72
12
 73
8
 74
0
 42
0.0000001
 43
0.0000001
 44
0.0000000001
 40
0.0
 40
0.0
 40
0.0
 40
0.0
 40
0.241841985
 40
0.3693366303
 40
0.5001121429
 40
0.7560328884
 40
1.0
 40
1.0
 40
1.0
 40
1.0
 10
246.7725855674
 20
390.8098512755
 30
0.0
 10
246.8159347723
 20
390.7732170413
 30
0.0
 10
246.8748515074
 20
390.7056857104
 30
0.0
 10
246.9162088667
 20
390.5944156442
 30
0.0
 10
246.9239403556
 20
390.4720447081
 30
0.0
 10
246.8653672752
 20
390.3282537758
 30
0.0
 10
246.7802991413
 20
390.2447762091
 30
0.0
 10
246.7349303218
 20
390.2098512755
 30
0.0
  0
SPLINE
  5
47C
100
AcDbEntity
  8
6_ALL_SURFS
100
AcDbSpline
 62
7
  6
CONTINUOUS
 70
0
 71
3
 72
13
 73
9
 74
0
 42
0.0000001
 43
0.0000001
 44
0.0000000001
 40
0.0
 40
0.0
 40
0.0
 40
0.0
 40
0.1142402995
 40
0.2356684165
 40
0.3641485376
 40
0.4940030118
 40
0.7498496516
 40
1.0
 40
1.0
 40
1.0
 40
1.0
 10
755.2797349364
 20
387.2098512755
 30
0.0
 10
755.2591092772
 20
387.2337398709
 30
0.0
 10
755.2246344566
 20
387.2923448674
 30
0.0
 10
755.226570448
 20
387.39764628
 30
0.0
 10
755.2737661266
 20
387.4935031295
 30
0.0
 10
755.3650021324
 20
387.6031915357
 30
0.0
 10
755.5050460506
 20
387.7119094566
 30
0.0
 10
755.6275091915
 20
387.7798790514
 30
0.0
 10
755.6897796286
 20
387.8098512755
 30
0.0
  0
SPLINE
  5
47D
100
AcDbEntity
  8
6_ALL_SURFS
100
AcDbSpline
 62
7
  6
CONTINUOUS
 70
0
 71
3
 72
13
 73
9
 74
0
 42
0.0000001
 43
0.0000001
 44
0.0000000001
 40
0.0
 40
0.0
 40
0.0
 40
0.0
 40
0.1142402995
 40
0.2356684165
 40
0.3641485376
 40
0.4940030118
 40
0.7498496516
 40
1.0
 40
1.0
 40
1.0
 40
1.0
 10
505.2797349364
 20
387.2098512755
 30
0.0
 10
505.2591092772
 20
387.2337398709
 30
0.0
 10
505.2246344566
 20
387.2923448674
 30
0.0
 10
505.226570448
 20
387.39764628
 30
0.0
 10
505.2737661266
 20
387.4935031295
 30
0.0
 10
505.3650021324
 20
387.6031915357
 30
0.0
 10
505.5050460506
 20
387.7119094566
 30
0.0
 10
505.6275091915
 20
387.7798790514
 30
0.0
 10
505.6897796286
 20
387.8098512755
 30
0.0
  0
SPLINE
  5
47E
100
AcDbEntity
  8
6_ALL_SURFS
100
AcDbSpline
 62
7
  6
CONTINUOUS
 70
0
 71
3
 72
13
 73
9
 74
0
 42
0.0000001
 43
0.0000001
 44
0.0000000001
 40
0.0
 40
0.0
 40
0.0
 40
0.0
 40
0.2501525934
 40
0.5060012853
 40
0.6358569015
 40
0.7643379363
 40
0.8857625293
 40
1.0
 40
1.0
 40
1.0
 40
1.0
 10
747.3781572263
 20
387.8098512755
 30
0.0
 10
747.4404282367
 20
387.7798787755
 30
0.0
 10
747.5628924653
 20
387.7119085702
 30
0.0
 10
747.7029371169
 20
387.6031890073
 30
0.0
 10
747.7941734934
 20
387.4934994337
 30
0.0
 10
747.8413679626
 20
387.3976420809
 30
0.0
 10
747.8433011005
 20
387.2923423586
 30
0.0
 10
747.8088270718
 20
387.233739285
 30
0.0
 10
747.7882019185
 20
387.2098512755
 30
0.0
  0
SPLINE
  5
47F
100
AcDbEntity
  8
6_ALL_SURFS
100
AcDbSpline
 62
7
  6
CONTINUOUS
 70
0
 71
3
 72
13
 73
9
 74
0
 42
0.0000001
 43
0.0000001
 44
0.0000000001
 40
0.0
 40
0.0
 40
0.0
 40
0.0
 40
0.1142402995
 40
0.2356684165
 40
0.3641485376
 40
0.4940030118
 40
0.7498496516
 40
1.0
 40
1.0
 40
1.0
 40
1.0
 10
255.2797349364
 20
387.2098512755
 30
0.0
 10
255.2591092772
 20
387.2337398709
 30
0.0
 10
255.2246344566
 20
387.2923448674
 30
0.0
 10
255.226570448
 20
387.39764628
 30
0.0
 10
255.2737661266
 20
387.4935031295
 30
0.0
 10
255.3650021324
 20
387.6031915357
 30
0.0
 10
255.5050460506
 20
387.7119094566
 30
0.0
 10
255.6275091915
 20
387.7798790514
 30
0.0
 10
255.6897796286
 20
387.8098512755
 30
0.0
  0
SPLINE
  5
480
100
AcDbEntity
  8
6_ALL_SURFS
100
AcDbSpline
 62
7
  6
CONTINUOUS
 70
0
 71
3
 72
13
 73
9
 74
0
 42
0.0000001
 43
0.0000001
 44
0.0000000001
 40
0.0
 40
0.0
 40
0.0
 40
0.0
 40
0.2501525934
 40
0.5060012853
 40
0.6358569015
 40
0.7643379363
 40
0.8857625293
 40
1.0
 40
1.0
 40
1.0
 40
1.0
 10
497.3781572263
 20
387.8098512755
 30
0.0
 10
497.4404282367
 20
387.7798787755
 30
0.0
 10
497.5628924653
 20
387.7119085702
 30
0.0
 10
497.7029371169
 20
387.6031890073
 30
0.0
 10
497.7941734934
 20
387.4934994337
 30
0.0
 10
497.8413679626
 20
387.3976420809
 30
0.0
 10
497.8433011005
 20
387.2923423586
 30
0.0
 10
497.8088270718
 20
387.233739285
 30
0.0
 10
497.7882019185
 20
387.2098512755
 30
0.0
  0
SPLINE
  5
481
100
AcDbEntity
  8
6_ALL_SURFS
100
AcDbSpline
 62
7
  6
CONTINUOUS
 70
0
 71
3
 72
13
 73
9
 74
0
 42
0.0000001
 43
0.0000001
 44
0.0000000001
 40
0.0
 40
0.0
 40
0.0
 40
0.0
 40
0.2501525934
 40
0.5060012853
 40
0.6358569015
 40
0.7643379363
 40
0.8857625293
 40
1.0
 40
1.0
 40
1.0
 40
1.0
 10
247.3781572263
 20
387.8098512755
 30
0.0
 10
247.4404282367
 20
387.7798787755
 30
0.0
 10
247.5628924653
 20
387.7119085702
 30
0.0
 10
247.7029371169
 20
387.6031890073
 30
0.0
 10
247.7941734934
 20
387.4934994337
 30
0.0
 10
247.8413679626
 20
387.3976420809
 30
0.0
 10
247.8433011005
 20
387.2923423586
 30
0.0
 10
247.8088270718
 20
387.233739285
 30
0.0
 10
247.7882019185
 20
387.2098512755
 30
0.0
  0
SPLINE
  5
482
100
AcDbEntity
  8
7_ALL_FEATURES
100
AcDbSpline
 62
7
  6
CONTINUOUS
 70
0
 71
3
 72
13
 73
9
 74
0
 42
0.0000001
 43
0.0000001
 44
0.0000000001
 40
0.0
 40
0.0
 40
0.0
 40
0.0
 40
0.2501525934
 40
0.5060012853
 40
0.6358569015
 40
0.7643379363
 40
0.8857625293
 40
1.0
 40
1.0
 40
1.0
 40
1.0
 10
247.3781572263
 20
322.5098512755
 30
0.0
 10
247.4404282367
 20
322.5398237756
 30
0.0
 10
247.5628924653
 20
322.6077939808
 30
0.0
 10
247.7029371169
 20
322.7165135437
 30
0.0
 10
247.7941734934
 20
322.8262031173
 30
0.0
 10
247.8413679626
 20
322.9220604702
 30
0.0
 10
247.8433011005
 20
323.0273601924
 30
0.0
 10
247.8088270718
 20
323.0859632661
 30
0.0
 10
247.7882019185
 20
323.1098512755
 30
0.0
  0
SPLINE
  5
483
100
AcDbEntity
  8
7_ALL_FEATURES
100
AcDbSpline
 62
7
  6
CONTINUOUS
 70
0
 71
3
 72
13
 73
9
 74
0
 42
0.0000001
 43
0.0000001
 44
0.0000000001
 40
0.0
 40
0.0
 40
0.0
 40
0.0
 40
0.2501525934
 40
0.5060012853
 40
0.6358569015
 40
0.7643379363
 40
0.8857625293
 40
1.0
 40
1.0
 40
1.0
 40
1.0
 10
497.3781572263
 20
322.5098512755
 30
0.0
 10
497.4404282367
 20
322.5398237756
 30
0.0
 10
497.5628924653
 20
322.6077939808
 30
0.0
 10
497.7029371169
 20
322.7165135437
 30
0.0
 10
497.7941734934
 20
322.8262031173
 30
0.0
 10
497.8413679626
 20
322.9220604702
 30
0.0
 10
497.8433011005
 20
323.0273601924
 30
0.0
 10
497.8088270718
 20
323.0859632661
 30
0.0
 10
497.7882019185
 20
323.1098512755
 30
0.0
  0
SPLINE
  5
484
100
AcDbEntity
  8
7_ALL_FEATURES
100
AcDbSpline
 62
7
  6
CONTINUOUS
 70
0
 71
3
 72
13
 73
9
 74
0
 42
0.0000001
 43
0.0000001
 44
0.0000000001
 40
0.0
 40
0.0
 40
0.0
 40
0.0
 40
0.1142402995
 40
0.2356684165
 40
0.3641485376
 40
0.4940030118
 40
0.7498496516
 40
1.0
 40
1.0
 40
1.0
 40
1.0
 10
255.2797349364
 20
323.1098512755
 30
0.0
 10
255.2591092772
 20
323.0859626801
 30
0.0
 10
255.2246344566
 20
323.0273576837
 30
0.0
 10
255.226570448
 20
322.922056271
 30
0.0
 10
255.2737661266
 20
322.8261994215
 30
0.0
 10
255.3650021324
 20
322.7165110153
 30
0.0
 10
255.5050460506
 20
322.6077930945
 30
0.0
 10
255.6275091915
 20
322.5398234996
 30
0.0
 10
255.6897796286
 20
322.5098512755
 30
0.0
  0
SPLINE
  5
485
100
AcDbEntity
  8
7_ALL_FEATURES
100
AcDbSpline
 62
7
  6
CONTINUOUS
 70
0
 71
3
 72
13
 73
9
 74
0
 42
0.0000001
 43
0.0000001
 44
0.0000000001
 40
0.0
 40
0.0
 40
0.0
 40
0.0
 40
0.2501525934
 40
0.5060012853
 40
0.6358569015
 40
0.7643379363
 40
0.8857625293
 40
1.0
 40
1.0
 40
1.0
 40
1.0
 10
747.3781572263
 20
322.5098512755
 30
0.0
 10
747.4404282367
 20
322.5398237756
 30
0.0
 10
747.5628924653
 20
322.6077939808
 30
0.0
 10
747.7029371169
 20
322.7165135437
 30
0.0
 10
747.7941734934
 20
322.8262031173
 30
0.0
 10
747.8413679626
 20
322.9220604702
 30
0.0
 10
747.8433011005
 20
323.0273601924
 30
0.0
 10
747.8088270718
 20
323.0859632661
 30
0.0
 10
747.7882019185
 20
323.1098512755
 30
0.0
  0
SPLINE
  5
486
100
AcDbEntity
  8
7_ALL_FEATURES
100
AcDbSpline
 62
7
  6
CONTINUOUS
 70
0
 71
3
 72
13
 73
9
 74
0
 42
0.0000001
 43
0.0000001
 44
0.0000000001
 40
0.0
 40
0.0
 40
0.0
 40
0.0
 40
0.1142402995
 40
0.2356684165
 40
0.3641485376
 40
0.4940030118
 40
0.7498496516
 40
1.0
 40
1.0
 40
1.0
 40
1.0
 10
505.2797349364
 20
323.1098512755
 30
0.0
 10
505.2591092772
 20
323.0859626801
 30
0.0
 10
505.2246344566
 20
323.0273576837
 30
0.0
 10
505.226570448
 20
322.922056271
 30
0.0
 10
505.2737661266
 20
322.8261994215
 30
0.0
 10
505.3650021324
 20
322.7165110153
 30
0.0
 10
505.5050460506
 20
322.6077930945
 30
0.0
 10
505.6275091915
 20
322.5398234996
 30
0.0
 10
505.6897796286
 20
322.5098512755
 30
0.0
  0
SPLINE
  5
487
100
AcDbEntity
  8
7_ALL_FEATURES
100
AcDbSpline
 62
7
  6
CONTINUOUS
 70
0
 71
3
 72
13
 73
9
 74
0
 42
0.0000001
 43
0.0000001
 44
0.0000000001
 40
0.0
 40
0.0
 40
0.0
 40
0.0
 40
0.1142402995
 40
0.2356684165
 40
0.3641485376
 40
0.4940030118
 40
0.7498496516
 40
1.0
 40
1.0
 40
1.0
 40
1.0
 10
755.2797349364
 20
323.1098512755
 30
0.0
 10
755.2591092772
 20
323.0859626801
 30
0.0
 10
755.2246344566
 20
323.0273576837
 30
0.0
 10
755.226570448
 20
322.922056271
 30
0.0
 10
755.2737661266
 20
322.8261994215
 30
0.0
 10
755.3650021324
 20
322.7165110153
 30
0.0
 10
755.5050460506
 20
322.6077930945
 30
0.0
 10
755.6275091915
 20
322.5398234996
 30
0.0
 10
755.6897796286
 20
322.5098512755
 30
0.0
  0
SPLINE
  5
488
100
AcDbEntity
  8
7_ALL_FEATURES
100
AcDbSpline
 62
7
  6
CONTINUOUS
 70
0
 71
3
 72
12
 73
8
 74
0
 42
0.0000001
 43
0.0000001
 44
0.0000000001
 40
0.0
 40
0.0
 40
0.0
 40
0.0
 40
0.241841985
 40
0.3693366303
 40
0.5001121429
 40
0.7560328884
 40
1.0
 40
1.0
 40
1.0
 40
1.0
 10
246.7725855674
 20
319.5098512755
 30
0.0
 10
246.8159347723
 20
319.5464855097
 30
0.0
 10
246.8748515074
 20
319.6140168406
 30
0.0
 10
246.9162088667
 20
319.7252869068
 30
0.0
 10
246.9239403556
 20
319.847657843
 30
0.0
 10
246.8653672752
 20
319.9914487753
 30
0.0
 10
246.7802991413
 20
320.074926342
 30
0.0
 10
246.7349303218
 20
320.1098512755
 30
0.0
  0
SPLINE
  5
489
100
AcDbEntity
  8
7_ALL_FEATURES
100
AcDbSpline
 62
7
  6
CONTINUOUS
 70
0
 71
3
 72
12
 73
8
 74
0
 42
0.0000001
 43
0.0000001
 44
0.0000000001
 40
0.0
 40
0.0
 40
0.0
 40
0.0
 40
0.241841985
 40
0.3693366303
 40
0.5001121429
 40
0.7560328884
 40
1.0
 40
1.0
 40
1.0
 40
1.0
 10
496.7725855674
 20
319.5098512755
 30
0.0
 10
496.8159347723
 20
319.5464855097
 30
0.0
 10
496.8748515074
 20
319.6140168406
 30
0.0
 10
496.9162088667
 20
319.7252869068
 30
0.0
 10
496.9239403556
 20
319.847657843
 30
0.0
 10
496.8653672752
 20
319.9914487753
 30
0.0
 10
496.7802991413
 20
320.074926342
 30
0.0
 10
496.7349303218
 20
320.1098512755
 30
0.0
  0
SPLINE
  5
48A
100
AcDbEntity
  8
7_ALL_FEATURES
100
AcDbSpline
 62
7
  6
CONTINUOUS
 70
0
 71
3
 72
12
 73
8
 74
0
 42
0.0000001
 43
0.0000001
 44
0.0000000001
 40
0.0
 40
0.0
 40
0.0
 40
0.0
 40
0.2439671116
 40
0.4998878571
 40
0.6306633697
 40
0.758158015
 40
1.0
 40
1.0
 40
1.0
 40
1.0
 10
256.3330065331
 20
320.1098512755
 30
0.0
 10
256.2876377136
 20
320.074926342
 30
0.0
 10
256.2025695797
 20
319.9914487753
 30
0.0
 10
256.1439964993
 20
319.847657843
 30
0.0
 10
256.1517279882
 20
319.7252869068
 30
0.0
 10
256.1930853475
 20
319.6140168406
 30
0.0
 10
256.2520020826
 20
319.5464855097
 30
0.0
 10
256.2953512875
 20
319.5098512755
 30
0.0
  0
SPLINE
  5
48B
100
AcDbEntity
  8
7_ALL_FEATURES
100
AcDbSpline
 62
7
  6
CONTINUOUS
 70
0
 71
3
 72
12
 73
8
 74
0
 42
0.0000001
 43
0.0000001
 44
0.0000000001
 40
0.0
 40
0.0
 40
0.0
 40
0.0
 40
0.241841985
 40
0.3693366303
 40
0.5001121429
 40
0.7560328884
 40
1.0
 40
1.0
 40
1.0
 40
1.0
 10
746.7725855674
 20
319.5098512755
 30
0.0
 10
746.8159347723
 20
319.5464855097
 30
0.0
 10
746.8748515074
 20
319.6140168406
 30
0.0
 10
746.9162088667
 20
319.7252869068
 30
0.0
 10
746.9239403556
 20
319.847657843
 30
0.0
 10
746.8653672752
 20
319.9914487753
 30
0.0
 10
746.7802991413
 20
320.074926342
 30
0.0
 10
746.7349303218
 20
320.1098512755
 30
0.0
  0
SPLINE
  5
48C
100
AcDbEntity
  8
7_ALL_FEATURES
100
AcDbSpline
 62
7
  6
CONTINUOUS
 70
0
 71
3
 72
12
 73
8
 74
0
 42
0.0000001
 43
0.0000001
 44
0.0000000001
 40
0.0
 40
0.0
 40
0.0
 40
0.0
 40
0.2439671116
 40
0.4998878571
 40
0.6306633697
 40
0.758158015
 40
1.0
 40
1.0
 40
1.0
 40
1.0
 10
506.3330065331
 20
320.1098512755
 30
0.0
 10
506.2876377136
 20
320.074926342
 30
0.0
 10
506.2025695797
 20
319.9914487753
 30
0.0
 10
506.1439964993
 20
319.847657843
 30
0.0
 10
506.1517279882
 20
319.7252869068
 30
0.0
 10
506.1930853475
 20
319.6140168406
 30
0.0
 10
506.2520020826
 20
319.5464855097
 30
0.0
 10
506.2953512875
 20
319.5098512755
 30
0.0
  0
SPLINE
  5
48D
100
AcDbEntity
  8
7_ALL_FEATURES
100
AcDbSpline
 62
7
  6
CONTINUOUS
 70
0
 71
3
 72
12
 73
8
 74
0
 42
0.0000001
 43
0.0000001
 44
0.0000000001
 40
0.0
 40
0.0
 40
0.0
 40
0.0
 40
0.2439671116
 40
0.4998878571
 40
0.6306633697
 40
0.758158015
 40
1.0
 40
1.0
 40
1.0
 40
1.0
 10
756.3330065331
 20
320.1098512755
 30
0.0
 10
756.2876377136
 20
320.074926342
 30
0.0
 10
756.2025695797
 20
319.9914487753
 30
0.0
 10
756.1439964993
 20
319.847657843
 30
0.0
 10
756.1517279882
 20
319.7252869068
 30
0.0
 10
756.1930853475
 20
319.6140168406
 30
0.0
 10
756.2520020826
 20
319.5464855097
 30
0.0
 10
756.2953512875
 20
319.5098512755
 30
0.0
  0
ELLIPSE
  5
48E
100
AcDbEntity
  8
6_ALL_SURFS
100
AcDbEllipse
 62
7
  6
CONTINUOUS
 10
501.5339684274
 20
201.5259479756
 30
0.0
 11
3.5
 21
0.0
 31
0.0
 40
0.5
 41
-1.910488903
 42
-1.2311037506
  0
ELLIPSE
  5
48F
100
AcDbEntity
  8
6_ALL_SURFS
100
AcDbEllipse
 62
7
  6
CONTINUOUS
 10
251.5339684274
 20
201.5259479756
 30
0.0
 11
3.5
 21
-0.0
 31
0.0
 40
0.5
 41
-1.910488903
 42
-1.2311037506
  0
ELLIPSE
  5
490
100
AcDbEntity
  8
6_ALL_SURFS
100
AcDbEllipse
 62
7
  6
CONTINUOUS
 10
751.5339684274
 20
201.5259479756
 30
0.0
 11
3.5
 21
0.0
 31
0.0
 40
0.5
 41
-1.910488903
 42
-1.2311037506
  0
ELLIPSE
  5
491
100
AcDbEntity
  8
6_ALL_SURFS
100
AcDbEllipse
 62
7
  6
CONTINUOUS
 10
251.5339684274
 20
198.2794306784
 30
0.0
 11
5.4882058378
 21
0.0
 31
0.0
 40
0.1015346165
 41
0.9294607698
 42
2.2121318838
  0
ELLIPSE
  5
492
100
AcDbEntity
  8
6_ALL_SURFS
100
AcDbEllipse
 62
7
  6
CONTINUOUS
 10
501.5339684274
 20
198.2794306784
 30
0.0
 11
5.4882058378
 21
0.0
 31
0.0
 40
0.1015346165
 41
0.9294607698
 42
2.2121318838
  0
ELLIPSE
  5
493
100
AcDbEntity
  8
6_ALL_SURFS
100
AcDbEllipse
 62
7
  6
CONTINUOUS
 10
751.5339684274
 20
198.2794306784
 30
0.0
 11
5.4882058378
 21
-0.0
 31
0.0
 40
0.1015346165
 41
7.212646077
 42
8.495317191
  0
ELLIPSE
  5
494
100
AcDbEntity
  8
6_ALL_SURFS
100
AcDbEllipse
 62
7
  6
CONTINUOUS
 10
501.5339684274
 20
389.2446783037
 30
0.0
 11
-0.0
 21
5.5724287509
 31
0.0
 40
0.9848857802
 41
-0.641335557
 42
0.641335557
  0
ELLIPSE
  5
495
100
AcDbEntity
  8
6_ALL_SURFS
100
AcDbEllipse
 62
7
  6
CONTINUOUS
 10
751.5339684274
 20
389.2446783037
 30
0.0
 11
-0.0
 21
5.5724287509
 31
0.0
 40
0.9848857802
 41
-0.641335557
 42
0.641335557
  0
ELLIPSE
  5
496
100
AcDbEntity
  8
7_ALL_FEATURES
100
AcDbEllipse
 62
7
  6
CONTINUOUS
 10
751.5339684274
 20
321.0750242473
 30
0.0
 11
-0.0
 21
5.5724287509
 31
0.0
 40
0.9848857802
 41
2.5002570966
 42
3.7829282106
  0
ELLIPSE
  5
497
100
AcDbEntity
  8
7_ALL_FEATURES
100
AcDbEllipse
 62
7
  6
CONTINUOUS
 10
251.5339684274
 20
321.0750242473
 30
0.0
 11
-0.0
 21
5.5724287509
 31
0.0
 40
0.9848857802
 41
2.5002570966
 42
3.7829282106
  0
ELLIPSE
  5
498
100
AcDbEntity
  8
7_ALL_FEATURES
100
AcDbEllipse
 62
7
  6
CONTINUOUS
 10
501.5339684274
 20
321.0750242473
 30
0.0
 11
0.0
 21
5.5724287509
 31
0.0
 40
0.9848857802
 41
2.5002570966
 42
3.7829282106
  0
ELLIPSE
  5
499
100
AcDbEntity
  8
6_ALL_SURFS
100
AcDbEllipse
 62
7
  6
CONTINUOUS
 10
251.5339684274
 20
389.2446783037
 30
0.0
 11
0.0
 21
5.5724287509
 31
0.0
 40
0.9848857802
 41
-0.641335557
 42
0.641335557
  0
ENDSEC
  0
SECTION
  2
OBJECTS
  0
DICTIONARY
  5
49A
100
AcDbDictionary
  3
ACAD_GROUP
350
49B
  3
ACAD_MLINESTYLE
350
49C
  0
DICTIONARY
  5
49B
102
{ACAD_REACTORS
330
49A
102
}
100
AcDbDictionary
  0
DICTIONARY
  5
49C
102
{ACAD_REACTORS
330
49A
102
}
100
AcDbDictionary
  3
STANDARD
350
49D
  0
MLINESTYLE
  5
49D
102
{ACAD_REACTORS
330
49C
102
}
100
AcDbMlineStyle
  2
STANDARD
 70
0
  3

 62
256
 51
90.0
 52
90.0
 71
2
 49
0.5
 62
256
  6
BYLAYER
 49
-0.5
 62
256
  6
BYLAYER
  0
ENDSEC
  0
EOF
