  0
SECTION
  2
HEADER
  9
$ACADVER
  1
AC1027
  9
$ACADMAINTVER
 70
     8
  9
$DWGCODEPAGE
  3
ANSI_1252
  9
$REQUIREDVERSIONS
160
                 0
  9
$INSBASE
 10
0.0
 20
0.0
 30
0.0
  9
$EXTMIN
 10
0.0
 20
0.0
 30
0.0
  9
$EXTMAX
 10
1189.0
 20
841.0
 30
0.0
  9
$LIMMIN
 10
0.0
 20
0.0
  9
$LIMMAX
 10
1189.0
 20
841.0
  9
$ORTHOMODE
 70
     0
  9
$REGENMODE
 70
     1
  9
$FILLMODE
 70
     1
  9
$QTEXTMODE
 70
     0
  9
$MIRRTEXT
 70
     1
  9
$LTSCALE
 40
65.395
  9
$ATTMODE
 70
     1
  9
$TEXTSIZE
 40
0.2
  9
$TRACEWID
 40
0.05
  9
$TEXTSTYLE
  7
STANDARD
  9
$CLAYER
  8
0
  9
$CELTYPE
  6
BYLAYER
  9
$CECOLOR
 62
   256
  9
$CELTSCALE
 40
1.0
  9
$DISPSILH
 70
     0
  9
$DIMSCALE
 40
1.0
  9
$DIMASZ
 40
2.5
  9
$DIMEXO
 40
0.75
  9
$DIMDLI
 40
45.182
  9
$DIMRND
 40
0.0
  9
$DIMDLE
 40
0.0
  9
$DIMEXE
 40
0.75
  9
$DIMTP
 40
0.01
  9
$DIMTM
 40
0.01
  9
$DIMTXT
 40
3.0
  9
$DIMCEN
 40
10.701
  9
$DIMTSZ
 40
0.0
  9
$DIMTOL
 70
     1
  9
$DIMLIM
 70
     0
  9
$DIMTIH
 70
     1
  9
$DIMTOH
 70
     1
  9
$DIMSE1
 70
     0
  9
$DIMSE2
 70
     0
  9
$DIMTAD
 70
     0
  9
$DIMZIN
 70
     0
  9
$DIMBLK
  1
CLOSED
  9
$DIMASO
 70
     1
  9
$DIMSHO
 70
     1
  9
$DIMPOST
  1

  9
$DIMAPOST
  1

  9
$DIMALT
 70
     0
  9
$DIMALTD
 70
     2
  9
$DIMALTF
 40
25.4
  9
$DIMLFAC
 40
1.0
  9
$DIMTOFL
 70
     0
  9
$DIMTVP
 40
0.0
  9
$DIMTIX
 70
     0
  9
$DIMSOXD
 70
     0
  9
$DIMSAH
 70
     0
  9
$DIMBLK1
  1

  9
$DIMBLK2
  1

  9
$DIMSTYLE
  2
STANDARD
  9
$DIMCLRD
 70
     0
  9
$DIMCLRE
 70
     0
  9
$DIMCLRT
 70
     0
  9
$DIMTFAC
 40
1.0
  9
$DIMGAP
 40
0.625
  9
$DIMJUST
 70
     0
  9
$DIMSD1
 70
     0
  9
$DIMSD2
 70
     0
  9
$DIMTOLJ
 70
     1
  9
$DIMTZIN
 70
     0
  9
$DIMALTZ
 70
     0
  9
$DIMALTTZ
 70
     0
  9
$DIMUPT
 70
     0
  9
$DIMDEC
 70
     4
  9
$DIMTDEC
 70
     4
  9
$DIMALTU
 70
     2
  9
$DIMALTTD
 70
     2
  9
$DIMTXSTY
  7
STANDARD
  9
$DIMAUNIT
 70
     0
  9
$DIMADEC
 70
     0
  9
$DIMALTRND
 40
0.0
  9
$DIMAZIN
 70
     0
  9
$DIMDSEP
 70
    44
  9
$DIMATFIT
 70
     3
  9
$DIMFRAC
 70
     0
  9
$DIMLDRBLK
  1

  9
$DIMLUNIT
 70
     2
  9
$DIMLWD
 70
    -2
  9
$DIMLWE
 70
    -2
  9
$DIMTMOVE
 70
     0
  9
$DIMFXL
 40
1.0
  9
$DIMFXLON
 70
     0
  9
$DIMJOGANG
 40
0.785398
  9
$DIMTFILL
 70
     0
  9
$DIMTFILLCLR
 70
     0
  9
$DIMARCSYM
 70
     0
  9
$DIMLTYPE
  6

  9
$DIMLTEX1
  6

  9
$DIMLTEX2
  6

  9
$DIMTXTDIRECTION
 70
     0
  9
$LUNITS
 70
     2
  9
$LUPREC
 70
     4
  9
$SKETCHINC
 40
0.1
  9
$FILLETRAD
 40
0.5
  9
$AUNITS
 70
     0
  9
$AUPREC
 70
     0
  9
$MENU
  1
.
  9
$ELEVATION
 40
0.0
  9
$PELEVATION
 40
0.0
  9
$THICKNESS
 40
0.0
  9
$LIMCHECK
 70
     0
  9
$CHAMFERA
 40
0.0
  9
$CHAMFERB
 40
0.0
  9
$CHAMFERC
 40
0.0
  9
$CHAMFERD
 40
0.0
  9
$SKPOLY
 70
     0
  9
$TDCREATE
 40
2447893.041666667
  9
$TDUCREATE
 40
0.0
  9
$TDUPDATE
 40
2460336.391579803
  9
$TDUUPDATE
 40
2460336.349913137
  9
$TDINDWG
 40
0.0
  9
$TDUSRTIMER
 40
0.0
  9
$USRTIMER
 70
     1
  9
$ANGBASE
 50
0.0
  9
$ANGDIR
 70
     0
  9
$PDMODE
 70
     3
  9
$PDSIZE
 40
0.3125
  9
$PLINEWID
 40
0.0
  9
$SPLFRAME
 70
     0
  9
$SPLINETYPE
 70
     6
  9
$SPLINESEGS
 70
     8
  9
$HANDSEED
  5
658
  9
$SURFTAB1
 70
     6
  9
$SURFTAB2
 70
     6
  9
$SURFTYPE
 70
     6
  9
$SURFU
 70
     6
  9
$SURFV
 70
     6
  9
$UCSBASE
  2

  9
$UCSNAME
  2

  9
$UCSORG
 10
0.0
 20
0.0
 30
0.0
  9
$UCSXDIR
 10
1.0
 20
0.0
 30
0.0
  9
$UCSYDIR
 10
0.0
 20
1.0
 30
0.0
  9
$UCSORTHOREF
  2

  9
$UCSORTHOVIEW
 70
     0
  9
$UCSORGTOP
 10
0.0
 20
0.0
 30
0.0
  9
$UCSORGBOTTOM
 10
0.0
 20
0.0
 30
0.0
  9
$UCSORGLEFT
 10
0.0
 20
0.0
 30
0.0
  9
$UCSORGRIGHT
 10
0.0
 20
0.0
 30
0.0
  9
$UCSORGFRONT
 10
0.0
 20
0.0
 30
0.0
  9
$UCSORGBACK
 10
0.0
 20
0.0
 30
0.0
  9
$PUCSBASE
  2

  9
$PUCSNAME
  2

  9
$PUCSORG
 10
0.0
 20
0.0
 30
0.0
  9
$PUCSXDIR
 10
1.0
 20
0.0
 30
0.0
  9
$PUCSYDIR
 10
0.0
 20
1.0
 30
0.0
  9
$PUCSORTHOREF
  2

  9
$PUCSORTHOVIEW
 70
     0
  9
$PUCSORGTOP
 10
0.0
 20
0.0
 30
0.0
  9
$PUCSORGBOTTOM
 10
0.0
 20
0.0
 30
0.0
  9
$PUCSORGLEFT
 10
0.0
 20
0.0
 30
0.0
  9
$PUCSORGRIGHT
 10
0.0
 20
0.0
 30
0.0
  9
$PUCSORGFRONT
 10
0.0
 20
0.0
 30
0.0
  9
$PUCSORGBACK
 10
0.0
 20
0.0
 30
0.0
  9
$USERI1
 70
     0
  9
$USERI2
 70
     0
  9
$USERI3
 70
     0
  9
$USERI4
 70
     0
  9
$USERI5
 70
     0
  9
$USERR1
 40
0.0
  9
$USERR2
 40
0.0
  9
$USERR3
 40
0.0
  9
$USERR4
 40
0.0
  9
$USERR5
 40
0.0
  9
$WORLDVIEW
 70
     1
  9
$SHADEDGE
 70
     3
  9
$SHADEDIF
 70
    70
  9
$TILEMODE
 70
     1
  9
$MAXACTVP
 70
    64
  9
$PINSBASE
 10
0.0
 20
0.0
 30
0.0
  9
$PLIMCHECK
 70
     0
  9
$PEXTMIN
 10
1.000000E+20
 20
1.000000E+20
 30
1.000000E+20
  9
$PEXTMAX
 10
-1.000000E+20
 20
-1.000000E+20
 30
-1.000000E+20
  9
$PLIMMIN
 10
0.0
 20
0.0
  9
$PLIMMAX
 10
12.0
 20
9.0
  9
$UNITMODE
 70
     0
  9
$VISRETAIN
 70
     1
  9
$PLINEGEN
 70
     0
  9
$PSLTSCALE
 70
     0
  9
$TREEDEPTH
 70
  3020
  9
$CMLSTYLE
  2

  9
$CMLJUST
 70
     0
  9
$CMLSCALE
 40
1.0
  9
$PROXYGRAPHICS
 70
     1
  9
$MEASUREMENT
 70
     1
  9
$CELWEIGHT
370
    -1
  9
$ENDCAPS
280
     0
  9
$JOINSTYLE
280
     0
  9
$LWDISPLAY
290
     0
  9
$INSUNITS
 70
     4
  9
$HYPERLINKBASE
  1

  9
$STYLESHEET
  1

  9
$XEDIT
290
     1
  9
$CEPSNTYPE
380
     0
  9
$PSTYLEMODE
290
     1
  9
$FINGERPRINTGUID
  2
{6C36B11A-6F56-4AFA-9992-311EA178989A}
  9
$VERSIONGUID
  2
{FAEB1C32-E019-11D5-929B-00C0DF256EC4}
  9
$EXTNAMES
290
     1
  9
$PSVPSCALE
 40
0.0
  9
$OLESTARTUP
290
     0
  9
$SORTENTS
280
   127
  9
$INDEXCTL
280
     0
  9
$HIDETEXT
280
     1
  9
$XCLIPFRAME
280
     2
  9
$HALOGAP
280
     0
  9
$OBSCOLOR
 70
   257
  9
$OBSLTYPE
280
     0
  9
$INTERSECTIONDISPLAY
280
     0
  9
$INTERSECTIONCOLOR
 70
   257
  9
$DIMASSOC
280
     2
  9
$PROJECTNAME
  1

  9
$CAMERADISPLAY
290
     0
  9
$LENSLENGTH
 40
50.0
  9
$CAMERAHEIGHT
 40
0.0
  9
$STEPSPERSEC
 40
2.0
  9
$STEPSIZE
 40
6.0
  9
$3DDWFPREC
 40
2.0
  9
$PSOLWIDTH
 40
0.25
  9
$PSOLHEIGHT
 40
4.0
  9
$LOFTANG1
 40
1.570796
  9
$LOFTANG2
 40
1.570796
  9
$LOFTMAG1
 40
0.0
  9
$LOFTMAG2
 40
0.0
  9
$LOFTPARAM
 70
     7
  9
$LOFTNORMALS
280
     1
  9
$LATITUDE
 40
37.795
  9
$LONGITUDE
 40
-122.394
  9
$NORTHDIRECTION
 40
0.0
  9
$TIMEZONE
 70
 -8000
  9
$LIGHTGLYPHDISPLAY
280
     1
  9
$TILEMODELIGHTSYNCH
280
     1
  9
$SOLIDHIST
280
     1
  9
$SHOWHIST
280
     1
  9
$DWFFRAME
280
     2
  9
$DGNFRAME
280
     2
  9
$REALWORLDSCALE
290
     1
  9
$INTERFERECOLOR
 62
   256
  9
$CSHADOW
280
     0
  9
$SHADOWPLANELOCATION
 40
0.0
  0
ENDSEC
  0
SECTION
  2
CLASSES
  0
CLASS
  1
ACDBDICTIONARYWDFLT
  2
AcDbDictionaryWithDefault
  3
ObjectDBX Classes
 90
        0
 91
        6
280
     0
281
     0
  0
CLASS
  1
ACDBPLACEHOLDER
  2
AcDbPlaceHolder
  3
ObjectDBX Classes
 90
        0
 91
        1
280
     0
281
     0
  0
CLASS
  1
LAYOUT
  2
AcDbLayout
  3
ObjectDBX Classes
 90
        0
 91
        1
280
     0
281
     0
  0
CLASS
  1
TABLESTYLE
  2
AcDbTableStyle
  3
ObjectDBX Classes
 90
     4095
 91
        5
280
     0
281
     0
  0
CLASS
  1
ACAD_TABLE
  2
AcDbTable
  3
ObjectDBX Classes
 90
     1025
 91
        5
280
     0
281
     1
  0
CLASS
  1
SCALE
  2
AcDbScale
  3
ObjectDBX Classes
 90
     1153
 91
        5
280
     0
281
     0
  0
CLASS
  1
TABLEGEOMETRY
  2
AcDbTableGeometry
  3
ObjectDBX Classes
 90
     1152
 91
        4
280
     0
281
     0
  0
CLASS
  1
VISUALSTYLE
  2
AcDbVisualStyle
  3
ObjectDBX Classes
 90
     4095
 91
        5
280
     0
281
     0
  0
CLASS
  1
MATERIAL
  2
AcDbMaterial
  3
ObjectDBX Classes
 90
     1153
 91
        5
280
     0
281
     0
  0
CLASS
  1
SUN
  2
AcDbSun
  3
SCENEOE
 90
     1153
 91
        5
280
     0
281
     0
  0
CLASS
  1
CSACDOCUMENTOPTIONS
  2
CDocDataContainer
  3
"DERU003_CSAPP"
 90
     4095
 91
        4
280
     0
281
     0
  0
CLASS
  1
TABLECONTENT
  2
AcDbTableContent
  3
ObjectDBX Classes
 90
     1152
 91
        4
280
     0
281
     0
  0
CLASS
  1
DICTIONARYVAR
  2
AcDbDictionaryVar
  3
ObjectDBX Classes
 90
        0
 91
        4
280
     0
281
     0
  0
CLASS
  1
CELLSTYLEMAP
  2
AcDbCellStyleMap
  3
ObjectDBX Classes
 90
     1152
 91
        4
280
     0
281
     0
  0
ENDSEC
  0
SECTION
  2
TABLES
  0
TABLE
  2
VPORT
  5
8
330
0
100
AcDbSymbolTable
 70
     1
  0
VPORT
  5
1F4
330
8
100
AcDbSymbolTableRecord
100
AcDbViewportTableRecord
  2
*ACTIVE
 70
     0
 10
0.0
 20
0.0
 11
1.0
 21
1.0
 12
594.5
 22
420.5
 13
0.0
 23
0.0
 14
1.0
 24
1.0
 15
0.0
 25
0.0
 16
0.0
 26
0.0
 36
1.0
 17
0.0
 27
0.0
 37
0.0
 40
841.0
 41
1.980415
 42
50.0
 43
0.0
 44
0.0
 50
0.0
 51
0.0
 71
    16
 72
   100
 73
     1
 74
     1
 75
     0
 76
     0
 77
     0
 78
     0
281
     0
 65
     1
110
0.0
120
0.0
130
0.0
111
1.0
121
0.0
131
0.0
112
0.0
122
1.0
132
0.0
 79
     0
146
0.0
 60
     3
 61
     5
292
     1
282
     1
141
0.0
142
0.0
 63
   256
361
643
  0
ENDTAB
  0
TABLE
  2
LTYPE
  5
5
330
0
100
AcDbSymbolTable
 70
     6
  0
LTYPE
  5
14
330
5
100
AcDbSymbolTableRecord
100
AcDbLinetypeTableRecord
  2
BYBLOCK
 70
     0
  3

 72
    65
 73
     0
 40
0.0
  0
LTYPE
  5
15
330
5
100
AcDbSymbolTableRecord
100
AcDbLinetypeTableRecord
  2
BYLAYER
 70
     0
  3

 72
    65
 73
     0
 40
0.0
  0
LTYPE
  5
16
330
5
100
AcDbSymbolTableRecord
100
AcDbLinetypeTableRecord
  2
CONTINUOUS
 70
     0
  3
Solid line
 72
    65
 73
     0
 40
0.0
  0
LTYPE
  5
1F5
330
5
100
AcDbSymbolTableRecord
100
AcDbLinetypeTableRecord
  2
CENTER
 70
     0
  3
____ _ ____ _ ____ _ ____ _ ____ _ ____ _ ____
 72
    65
 73
     4
 40
0.6
 49
0.375
 74
     0
 49
-0.075
 74
     0
 49
0.075
 74
     0
 49
-0.075
 74
     0
  0
LTYPE
  5
1F6
330
5
100
AcDbSymbolTableRecord
100
AcDbLinetypeTableRecord
  2
HIDDEN
 70
     0
  3
- - - - - - - - - - - - - - - - - - - -
 72
    65
 73
     2
 40
0.2
 49
0.1
 74
     0
 49
-0.1
 74
     0
  0
LTYPE
  5
1F7
330
5
100
AcDbSymbolTableRecord
100
AcDbLinetypeTableRecord
  2
PHANTOM
 70
     0
  3
_____ _ _ _____ _ _ _____ _ _ _____
 72
    65
 73
     6
 40
0.8
 49
0.45
 74
     0
 49
-0.05
 74
     0
 49
0.1
 74
     0
 49
-0.05
 74
     0
 49
0.1
 74
     0
 49
-0.05
 74
     0
  0
LTYPE
  5
1F8
330
5
100
AcDbSymbolTableRecord
100
AcDbLinetypeTableRecord
  2
DOT
 70
     0
  3
. . . . . . . . . . . . . . . . . . . .
 72
    65
 73
     2
 40
0.2
 49
0.1
 74
     0
 49
-0.1
 74
     0
  0
LTYPE
  5
1F9
330
5
100
AcDbSymbolTableRecord
100
AcDbLinetypeTableRecord
  2
DASHED
 70
     0
  3
- - - - - - - - - - - - - - - - - - - -
 72
    65
 73
     2
 40
0.2
 49
0.1
 74
     0
 49
-0.1
 74
     0
  0
ENDTAB
  0
TABLE
  2
LAYER
  5
2
330
0
100
AcDbSymbolTable
 70
    20
  0
LAYER
  5
10
330
2
100
AcDbSymbolTableRecord
100
AcDbLayerTableRecord
  2
0
 70
     0
 62
     7
  6
CONTINUOUS
370
    -3
390
F
347
63D
348
0
  0
LAYER
  5
1FA
330
2
100
AcDbSymbolTableRecord
100
AcDbLayerTableRecord
  2
DEFAULT_1
 70
     0
 62
     7
  6
CENTER
370
    -3
390
F
347
63D
348
0
  0
LAYER
  5
1FB
330
2
100
AcDbSymbolTableRecord
100
AcDbLayerTableRecord
  2
DEFAULT_2
 70
     0
 62
     8
  6
HIDDEN
370
    -3
390
F
347
63D
348
0
  0
LAYER
  5
1FC
330
2
100
AcDbSymbolTableRecord
100
AcDbLayerTableRecord
  2
DEFAULT_3
 70
     0
 62
     7
  6
PHANTOM
370
    -3
390
F
347
63D
348
0
  0
LAYER
  5
1FD
330
2
100
AcDbSymbolTableRecord
100
AcDbLayerTableRecord
  2
01___PRT_ALL_DTM_PLN
 70
     0
 62
     7
  6
CONTINUOUS
370
    -3
390
F
347
63D
348
0
  0
LAYER
  5
1FE
330
2
100
AcDbSymbolTableRecord
100
AcDbLayerTableRecord
  2
01___PRT_DEF_DTM_PLN
 70
     0
 62
     7
  6
CONTINUOUS
370
    -3
390
F
347
63D
348
0
  0
LAYER
  5
1FF
330
2
100
AcDbSymbolTableRecord
100
AcDbLayerTableRecord
  2
02___PRT_ALL_AXES
 70
     0
 62
     7
  6
CONTINUOUS
370
    -3
390
F
347
63D
348
0
  0
LAYER
  5
200
330
2
100
AcDbSymbolTableRecord
100
AcDbLayerTableRecord
  2
03___PRT_ALL_CURVES
 70
     0
 62
     7
  6
CONTINUOUS
370
    -3
390
F
347
63D
348
0
  0
LAYER
  5
201
330
2
100
AcDbSymbolTableRecord
100
AcDbLayerTableRecord
  2
04___PRT_ALL_DTM_PNT
 70
     0
 62
     7
  6
CONTINUOUS
370
    -3
390
F
347
63D
348
0
  0
LAYER
  5
202
330
2
100
AcDbSymbolTableRecord
100
AcDbLayerTableRecord
  2
05___PRT_ALL_DTM_CSYS
 70
     0
 62
     7
  6
CONTINUOUS
370
    -3
390
F
347
63D
348
0
  0
LAYER
  5
203
330
2
100
AcDbSymbolTableRecord
100
AcDbLayerTableRecord
  2
05___PRT_DEF_DTM_CSYS
 70
     0
 62
     7
  6
CONTINUOUS
370
    -3
390
F
347
63D
348
0
  0
LAYER
  5
204
330
2
100
AcDbSymbolTableRecord
100
AcDbLayerTableRecord
  2
06___PRT_ALL_SURFS
 70
     0
 62
     7
  6
CONTINUOUS
370
    -3
390
F
347
63D
348
0
  0
LAYER
  5
205
330
2
100
AcDbSymbolTableRecord
100
AcDbLayerTableRecord
  2
1_ALL_PLANES
 70
     0
 62
     7
  6
CONTINUOUS
370
    -3
390
F
347
63D
348
0
  0
LAYER
  5
206
330
2
100
AcDbSymbolTableRecord
100
AcDbLayerTableRecord
  2
2_ALL_CSYS
 70
     0
 62
     7
  6
CONTINUOUS
370
    -3
390
F
347
63D
348
0
  0
LAYER
  5
207
330
2
100
AcDbSymbolTableRecord
100
AcDbLayerTableRecord
  2
3_ALL_AXES
 70
     0
 62
     7
  6
CONTINUOUS
370
    -3
390
F
347
63D
348
0
  0
LAYER
  5
208
330
2
100
AcDbSymbolTableRecord
100
AcDbLayerTableRecord
  2
4_ALL_POINTS
 70
     0
 62
     7
  6
CONTINUOUS
370
    -3
390
F
347
63D
348
0
  0
LAYER
  5
209
330
2
100
AcDbSymbolTableRecord
100
AcDbLayerTableRecord
  2
5_ALL_CURVES
 70
     0
 62
     7
  6
CONTINUOUS
370
    -3
390
F
347
63D
348
0
  0
LAYER
  5
20A
330
2
100
AcDbSymbolTableRecord
100
AcDbLayerTableRecord
  2
6_ALL_SURFS
 70
     0
 62
     7
  6
CONTINUOUS
370
    -3
390
F
347
63D
348
0
  0
LAYER
  5
20B
330
2
100
AcDbSymbolTableRecord
100
AcDbLayerTableRecord
  2
7_ALL_FEATURES
 70
     0
 62
     7
  6
CONTINUOUS
370
    -3
390
F
347
63D
348
0
  0
LAYER
  5
20C
330
2
100
AcDbSymbolTableRecord
100
AcDbLayerTableRecord
  2
9_SOLID
 70
     0
 62
     7
  6
CONTINUOUS
370
    -3
390
F
347
63D
348
0
  0
ENDTAB
  0
TABLE
  2
STYLE
  5
3
330
0
100
AcDbSymbolTable
 70
     3
  0
STYLE
  5
11
330
3
100
AcDbSymbolTableRecord
100
AcDbTextStyleTableRecord
  2
STANDARD
 70
     0
 40
0.0
 41
1.0
 50
0.0
 71
     0
 42
0.2
  3
arial.ttf
  4

  0
STYLE
  5
20D
330
3
100
AcDbSymbolTableRecord
100
AcDbTextStyleTableRecord
  2
TEXTSTYLE_1
 70
     0
 40
0.0
 41
0.8
 50
0.0
 71
     0
 42
0.2
  3
gdt
  4

  0
STYLE
  5
20E
330
3
100
AcDbSymbolTableRecord
100
AcDbTextStyleTableRecord
  2
TEXTSTYLE_2
 70
     0
 40
0.0
 41
0.85
 50
0.0
 71
     0
 42
0.2
  3
txt
  4

  0
ENDTAB
  0
TABLE
  2
VIEW
  5
6
330
0
100
AcDbSymbolTable
 70
     0
  0
ENDTAB
  0
TABLE
  2
UCS
  5
7
330
0
100
AcDbSymbolTable
 70
     0
  0
ENDTAB
  0
TABLE
  2
APPID
  5
9
330
0
100
AcDbSymbolTable
 70
     6
  0
APPID
  5
20F
330
9
100
AcDbSymbolTableRecord
100
AcDbRegAppTableRecord
  2
ACAD
 70
     0
  0
APPID
  5
63E
330
9
100
AcDbSymbolTableRecord
100
AcDbRegAppTableRecord
  2
MCS_DIM1
 70
     0
  0
APPID
  5
63F
330
9
100
AcDbSymbolTableRecord
100
AcDbRegAppTableRecord
  2
McsXdata5
 70
     0
  0
APPID
  5
642
330
9
100
AcDbSymbolTableRecord
100
AcDbRegAppTableRecord
  2
MCS_DOCUMENT_ID
 70
     0
  0
APPID
  5
648
330
9
100
AcDbSymbolTableRecord
100
AcDbRegAppTableRecord
  2
MCS_PARAMS_DATA
 70
     0
  0
APPID
  5
64A
330
9
100
AcDbSymbolTableRecord
100
AcDbRegAppTableRecord
  2
MC_VERSION_DATA
 70
     0
  0
ENDTAB
  0
TABLE
  2
DIMSTYLE
  5
A
330
0
100
AcDbSymbolTable
 70
     5
100
AcDbDimStyleTable
  0
DIMSTYLE
105
21C
330
A
100
AcDbSymbolTableRecord
100
AcDbDimStyleTableRecord
  2
STANDARD
 70
     0
 41
2.5
 42
0.75
 44
0.75
 47
0.01
 48
0.01
 71
     1
 73
     0
 74
     0
 77
     1
 78
     8
 79
     2
140
3.0
147
0.625
171
     1
178
     0
179
     2
271
     2
272
     2
278
    44
284
     8
340
11
341
212
342
212
343
212
344
212
  0
DIMSTYLE
105
21D
330
A
100
AcDbSymbolTableRecord
100
AcDbDimStyleTableRecord
  2
DIMSTYLE_1
 70
     0
 41
2.5
 42
0.75
 44
0.75
 47
0.2
 48
0.2
 73
     0
 74
     0
 77
     1
 78
     8
 79
     2
140
3.0
147
0.75
171
     1
178
     0
179
     2
271
     2
272
     2
278
    44
284
     8
340
11
341
212
342
212
343
212
344
212
  0
DIMSTYLE
105
21E
330
A
100
AcDbSymbolTableRecord
100
AcDbDimStyleTableRecord
  2
DIMSTYLE_2
 70
     0
 41
2.5
 42
0.75
 44
0.75
 47
0.5
 48
0.5
 73
     0
 74
     0
 77
     1
 78
     8
 79
     2
140
3.0
147
0.75
171
     1
178
     0
179
     2
271
     2
272
     2
278
    44
284
     8
340
11
341
212
342
212
343
212
344
212
  0
DIMSTYLE
105
21F
330
A
100
AcDbSymbolTableRecord
100
AcDbDimStyleTableRecord
  2
DIMSTYLE_3
 70
     0
 41
2.5
 42
0.75
 44
0.75
 47
0.3
 48
0.3
 73
     0
 74
     0
 77
     1
 78
     8
 79
     2
140
3.0
147
0.75
171
     1
178
     0
179
     2
271
     2
272
     2
278
    44
284
     8
340
11
341
212
342
212
343
212
344
212
  0
DIMSTYLE
105
220
330
A
100
AcDbSymbolTableRecord
100
AcDbDimStyleTableRecord
  2
DIMSTYLE_4
 70
     0
 41
2.5
 42
0.75
 44
0.75
 47
0.8
 48
0.8
 73
     0
 74
     0
 77
     1
 78
     8
 79
     2
140
3.0
147
0.75
171
     1
178
     0
179
     2
271
     2
272
     2
278
    44
284
     8
340
11
341
212
342
212
343
212
344
212
  0
ENDTAB
  0
TABLE
  2
BLOCK_RECORD
  5
1
330
0
100
AcDbSymbolTable
 70
    10
  0
BLOCK_RECORD
  5
210
330
1
100
AcDbSymbolTableRecord
100
AcDbBlockTableRecord
  2
*Model_Space
340
5F8
 70
     0
280
     1
281
     0
  0
BLOCK_RECORD
  5
211
330
1
100
AcDbSymbolTableRecord
100
AcDbBlockTableRecord
  2
*Paper_Space
340
5F9
 70
     0
280
     1
281
     0
  0
BLOCK_RECORD
  5
212
330
1
100
AcDbSymbolTableRecord
100
AcDbBlockTableRecord
  2
_CLOSED
340
0
102
{BLKREFS
331
269
331
26A
331
272
331
273
331
27B
331
27C
331
284
331
285
331
28D
331
28E
331
296
331
297
331
29F
331
2A0
102
}
 70
     0
280
     1
281
     0
  0
BLOCK_RECORD
  5
213
330
1
100
AcDbSymbolTableRecord
100
AcDbBlockTableRecord
  2
*D1
340
0
 70
     0
280
     1
281
     0
  0
BLOCK_RECORD
  5
214
330
1
100
AcDbSymbolTableRecord
100
AcDbBlockTableRecord
  2
*D2
340
0
 70
     0
280
     1
281
     0
  0
BLOCK_RECORD
  5
215
330
1
100
AcDbSymbolTableRecord
100
AcDbBlockTableRecord
  2
*D3
340
0
 70
     0
280
     1
281
     0
  0
BLOCK_RECORD
  5
216
330
1
100
AcDbSymbolTableRecord
100
AcDbBlockTableRecord
  2
*D4
340
0
 70
     0
280
     1
281
     0
  0
BLOCK_RECORD
  5
217
330
1
100
AcDbSymbolTableRecord
100
AcDbBlockTableRecord
  2
*D5
340
0
 70
     0
280
     1
281
     0
  0
BLOCK_RECORD
  5
218
330
1
100
AcDbSymbolTableRecord
100
AcDbBlockTableRecord
  2
*D6
340
0
 70
     0
280
     1
281
     0
  0
BLOCK_RECORD
  5
219
330
1
100
AcDbSymbolTableRecord
100
AcDbBlockTableRecord
  2
*D7
340
0
 70
     0
280
     1
281
     0
  0
BLOCK_RECORD
  5
21A
330
1
100
AcDbSymbolTableRecord
100
AcDbBlockTableRecord
  2
LOGO2_BL0
340
0
102
{BLKREFS
331
5F4
102
}
 70
     0
280
     1
281
     0
  0
BLOCK_RECORD
  5
21B
330
1
100
AcDbSymbolTableRecord
100
AcDbBlockTableRecord
  2
*T9
340
0
102
{BLKREFS
331
5F5
102
}
 70
     0
280
     1
281
     0
  0
ENDTAB
  0
ENDSEC
  0
SECTION
  2
BLOCKS
  0
BLOCK
  5
20
330
210
100
AcDbEntity
  8
0
100
AcDbBlockBegin
  2
*Model_Space
 70
     0
 10
0.0
 20
0.0
 30
0.0
  3
*Model_Space
  1
*Model_Space
  0
ENDBLK
  5
21
330
210
100
AcDbEntity
  8
0
100
AcDbBlockEnd
  0
BLOCK
  5
1C
330
211
100
AcDbEntity
 67
     1
  8
0
100
AcDbBlockBegin
  2
*Paper_Space
 70
     0
 10
0.0
 20
0.0
 30
0.0
  3
*Paper_Space
  1
*Paper_Space
  0
ENDBLK
  5
1D
330
211
100
AcDbEntity
 67
     1
  8
0
100
AcDbBlockEnd
  0
BLOCK
  5
25D
330
212
100
AcDbEntity
  8
0
100
AcDbBlockBegin
  2
_CLOSED
 70
     0
 10
0.0
 20
0.0
 30
0.0
  3
_CLOSED
  1
_CLOSED
  0
LINE
  5
25E
330
212
100
AcDbEntity
  8
0
  6
ByBlock
 62
     0
100
AcDbLine
 10
0.0
 20
0.0
 30
0.0
 11
-1.0
 21
0.2
 31
0.0
  0
LINE
  5
25F
330
212
100
AcDbEntity
  8
0
  6
ByBlock
 62
     0
100
AcDbLine
 10
-1.0
 20
0.2
 30
0.0
 11
-1.0
 21
-0.2
 31
0.0
  0
LINE
  5
260
330
212
100
AcDbEntity
  8
0
  6
ByBlock
 62
     0
100
AcDbLine
 10
-1.0
 20
-0.2
 30
0.0
 11
0.0
 21
0.0
 31
0.0
  0
LINE
  5
261
330
212
100
AcDbEntity
  8
0
  6
ByBlock
 62
     0
100
AcDbLine
 10
-1.0
 20
0.0
 30
0.0
 11
0.0
 21
0.0
 31
0.0
  0
ENDBLK
  5
262
330
212
100
AcDbEntity
  8
0
  6
ByBlock
 62
     0
100
AcDbBlockEnd
  0
BLOCK
  5
263
330
213
100
AcDbEntity
  8
0
100
AcDbBlockBegin
  2
*D1
 70
     1
 10
0.0
 20
0.0
 30
0.0
  3
*D1
  1
*D1
  0
MTEXT
  5
264
330
213
100
AcDbEntity
  8
0
  6
Continuous
 62
     2
100
AcDbMText
 10
669.819189
 20
698.971213
 30
0.0
 40
3.0
 41
4.66171
 46
0.0
 71
     2
 72
     1
  1
20
 11
0.0
 21
1.0
 31
0.0
 73
     1
 44
0.9
  0
LINE
  5
265
330
213
100
AcDbEntity
  8
0
  6
Continuous
 62
     2
100
AcDbLine
 10
566.772831
 20
708.971213
 30
0.0
 11
674.319189
 21
708.971213
 31
0.0
  0
LINE
  5
266
330
213
100
AcDbEntity
  8
0
  6
Continuous
 62
     2
100
AcDbLine
 10
626.04339
 20
688.971213
 30
0.0
 11
674.319189
 21
688.971213
 31
0.0
  0
LINE
  5
267
330
213
100
AcDbEntity
  8
0
  6
Continuous
 62
     2
100
AcDbLine
 10
673.569189
 20
708.971213
 30
0.0
 11
673.569189
 21
698.971213
 31
0.0
  0
LINE
  5
268
330
213
100
AcDbEntity
  8
0
  6
Continuous
 62
     2
100
AcDbLine
 10
673.569189
 20
688.971213
 30
0.0
 11
673.569189
 21
698.971213
 31
0.0
  0
INSERT
  5
269
330
213
100
AcDbEntity
  8
0
  6
Continuous
 62
     2
100
AcDbBlockReference
  2
_CLOSED
 10
673.569189
 20
708.971213
 30
0.0
 41
2.5
 42
2.5
 43
2.5
 50
90.0
  0
INSERT
  5
26A
330
213
100
AcDbEntity
  8
0
  6
Continuous
 62
     2
100
AcDbBlockReference
  2
_CLOSED
 10
673.569189
 20
688.971213
 30
0.0
 41
2.5
 42
2.5
 43
2.5
 50
270.0
  0
ENDBLK
  5
26B
330
213
100
AcDbEntity
  8
0
  6
ByBlock
 62
     0
100
AcDbBlockEnd
  0
BLOCK
  5
26C
330
214
100
AcDbEntity
  8
0
100
AcDbBlockBegin
  2
*D2
 70
     1
 10
0.0
 20
0.0
 30
0.0
  3
*D2
  1
*D2
  0
MTEXT
  5
26D
330
214
100
AcDbEntity
  8
0
  6
Continuous
 62
     2
100
AcDbMText
 10
669.819189
 20
628.221213
 30
0.0
 40
3.0
 41
10.483271
 46
0.0
 71
     2
 72
     1
  1
121,5
 11
0.0
 21
1.0
 31
0.0
 73
     1
 44
0.9
  0
LINE
  5
26E
330
214
100
AcDbEntity
  8
0
  6
Continuous
 62
     2
100
AcDbLine
 10
628.363018
 20
688.971213
 30
0.0
 11
674.319189
 21
688.971213
 31
0.0
  0
LINE
  5
26F
330
214
100
AcDbEntity
  8
0
  6
Continuous
 62
     2
100
AcDbLine
 10
664.723471
 20
567.471213
 30
0.0
 11
674.319189
 21
567.471213
 31
0.0
  0
LINE
  5
270
330
214
100
AcDbEntity
  8
0
  6
Continuous
 62
     2
100
AcDbLine
 10
673.569189
 20
688.971213
 30
0.0
 11
673.569189
 21
628.221213
 31
0.0
  0
LINE
  5
271
330
214
100
AcDbEntity
  8
0
  6
Continuous
 62
     2
100
AcDbLine
 10
673.569189
 20
567.471213
 30
0.0
 11
673.569189
 21
628.221213
 31
0.0
  0
INSERT
  5
272
330
214
100
AcDbEntity
  8
0
  6
Continuous
 62
     2
100
AcDbBlockReference
  2
_CLOSED
 10
673.569189
 20
688.971213
 30
0.0
 41
2.5
 42
2.5
 43
2.5
 50
90.0
  0
INSERT
  5
273
330
214
100
AcDbEntity
  8
0
  6
Continuous
 62
     2
100
AcDbBlockReference
  2
_CLOSED
 10
673.569189
 20
567.471213
 30
0.0
 41
2.5
 42
2.5
 43
2.5
 50
270.0
  0
ENDBLK
  5
274
330
214
100
AcDbEntity
  8
0
  6
ByBlock
 62
     0
100
AcDbBlockEnd
  0
BLOCK
  5
275
330
215
100
AcDbEntity
  8
0
100
AcDbBlockBegin
  2
*D3
 70
     1
 10
0.0
 20
0.0
 30
0.0
  3
*D3
  1
*D3
  0
MTEXT
  5
276
330
215
100
AcDbEntity
  8
0
  6
Continuous
 62
     2
100
AcDbMText
 10
693.346469
 20
638.221213
 30
0.0
 40
3.0
 41
10.483271
 46
0.0
 71
     2
 72
     1
  1
141,5
 11
0.0
 21
1.0
 31
0.0
 73
     1
 44
0.9
  0
LINE
  5
277
330
215
100
AcDbEntity
  8
0
  6
Continuous
 62
     2
100
AcDbLine
 10
567.004794
 20
708.971213
 30
0.0
 11
697.846469
 21
708.971213
 31
0.0
  0
LINE
  5
278
330
215
100
AcDbEntity
  8
0
  6
Continuous
 62
     2
100
AcDbLine
 10
663.689361
 20
567.471213
 30
0.0
 11
697.846469
 21
567.471213
 31
0.0
  0
LINE
  5
279
330
215
100
AcDbEntity
  8
0
  6
Continuous
 62
     2
100
AcDbLine
 10
697.096469
 20
708.971213
 30
0.0
 11
697.096469
 21
638.221213
 31
0.0
  0
LINE
  5
27A
330
215
100
AcDbEntity
  8
0
  6
Continuous
 62
     2
100
AcDbLine
 10
697.096469
 20
567.471213
 30
0.0
 11
697.096469
 21
638.221213
 31
0.0
  0
INSERT
  5
27B
330
215
100
AcDbEntity
  8
0
  6
Continuous
 62
     2
100
AcDbBlockReference
  2
_CLOSED
 10
697.096469
 20
708.971213
 30
0.0
 41
2.5
 42
2.5
 43
2.5
 50
90.0
  0
INSERT
  5
27C
330
215
100
AcDbEntity
  8
0
  6
Continuous
 62
     2
100
AcDbBlockReference
  2
_CLOSED
 10
697.096469
 20
567.471213
 30
0.0
 41
2.5
 42
2.5
 43
2.5
 50
270.0
  0
ENDBLK
  5
27D
330
215
100
AcDbEntity
  8
0
  6
ByBlock
 62
     0
100
AcDbBlockEnd
  0
BLOCK
  5
27E
330
216
100
AcDbEntity
  8
0
100
AcDbBlockBegin
  2
*D4
 70
     1
 10
0.0
 20
0.0
 30
0.0
  3
*D4
  1
*D4
  0
MTEXT
  5
27F
330
216
100
AcDbEntity
  8
0
  6
Continuous
 62
     2
100
AcDbMText
 10
396.334507
 20
340.490662
 30
0.0
 40
3.0
 41
10.483271
 46
0.0
 71
     2
 72
     1
  1
323,5
 73
     1
 44
0.9
  0
LINE
  5
280
330
216
100
AcDbEntity
  8
0
  6
Continuous
 62
     2
100
AcDbLine
 10
234.584507
 20
317.997756
 30
0.0
 11
234.584507
 21
337.490662
 31
0.0
  0
LINE
  5
281
330
216
100
AcDbEntity
  8
0
  6
Continuous
 62
     2
100
AcDbLine
 10
558.084507
 20
319.34722
 30
0.0
 11
558.084507
 21
337.490662
 31
0.0
  0
LINE
  5
282
330
216
100
AcDbEntity
  8
0
  6
Continuous
 62
     2
100
AcDbLine
 10
234.584507
 20
336.740662
 30
0.0
 11
396.334507
 21
336.740662
 31
0.0
  0
LINE
  5
283
330
216
100
AcDbEntity
  8
0
  6
Continuous
 62
     2
100
AcDbLine
 10
558.084507
 20
336.740662
 30
0.0
 11
396.334507
 21
336.740662
 31
0.0
  0
INSERT
  5
284
330
216
100
AcDbEntity
  8
0
  6
Continuous
 62
     2
100
AcDbBlockReference
  2
_CLOSED
 10
234.584507
 20
336.740662
 30
0.0
 41
2.5
 42
2.5
 43
2.5
 50
180.0
  0
INSERT
  5
285
330
216
100
AcDbEntity
  8
0
  6
Continuous
 62
     2
100
AcDbBlockReference
  2
_CLOSED
 10
558.084507
 20
336.740662
 30
0.0
 41
2.5
 42
2.5
 43
2.5
  0
ENDBLK
  5
286
330
216
100
AcDbEntity
  8
0
  6
ByBlock
 62
     0
100
AcDbBlockEnd
  0
BLOCK
  5
287
330
217
100
AcDbEntity
  8
0
100
AcDbBlockBegin
  2
*D5
 70
     1
 10
0.0
 20
0.0
 30
0.0
  3
*D5
  1
*D5
  0
MTEXT
  5
288
330
217
100
AcDbEntity
  8
0
  6
Continuous
 62
     2
100
AcDbMText
 10
215.983828
 20
292.73736
 30
0.0
 40
3.0
 41
4.66171
 46
0.0
 71
     2
 72
     1
  1
44
 11
0.0
 21
1.0
 31
0.0
 73
     1
 44
0.9
  0
LINE
  5
289
330
217
100
AcDbEntity
  8
0
  6
Continuous
 62
     2
100
AcDbLine
 10
231.435454
 20
314.73736
 30
0.0
 11
218.983828
 21
314.73736
 31
0.0
  0
LINE
  5
28A
330
217
100
AcDbEntity
  8
0
  6
Continuous
 62
     2
100
AcDbLine
 10
232.029279
 20
270.73736
 30
0.0
 11
218.983828
 21
270.73736
 31
0.0
  0
LINE
  5
28B
330
217
100
AcDbEntity
  8
0
  6
Continuous
 62
     2
100
AcDbLine
 10
219.733828
 20
314.73736
 30
0.0
 11
219.733828
 21
292.73736
 31
0.0
  0
LINE
  5
28C
330
217
100
AcDbEntity
  8
0
  6
Continuous
 62
     2
100
AcDbLine
 10
219.733828
 20
270.73736
 30
0.0
 11
219.733828
 21
292.73736
 31
0.0
  0
INSERT
  5
28D
330
217
100
AcDbEntity
  8
0
  6
Continuous
 62
     2
100
AcDbBlockReference
  2
_CLOSED
 10
219.733828
 20
314.73736
 30
0.0
 41
2.5
 42
2.5
 43
2.5
 50
90.0
  0
INSERT
  5
28E
330
217
100
AcDbEntity
  8
0
  6
Continuous
 62
     2
100
AcDbBlockReference
  2
_CLOSED
 10
219.733828
 20
270.73736
 30
0.0
 41
2.5
 42
2.5
 43
2.5
 50
270.0
  0
ENDBLK
  5
28F
330
217
100
AcDbEntity
  8
0
  6
ByBlock
 62
     0
100
AcDbBlockEnd
  0
BLOCK
  5
290
330
218
100
AcDbEntity
  8
0
100
AcDbBlockBegin
  2
*D6
 70
     1
 10
0.0
 20
0.0
 30
0.0
  3
*D6
  1
*D6
  0
MTEXT
  5
291
330
218
100
AcDbEntity
  8
0
  6
Continuous
 62
     2
100
AcDbMText
 10
396.334507
 20
478.859664
 30
0.0
 40
3.0
 41
6.992565
 46
0.0
 71
     2
 72
     1
  1
532
 73
     1
 44
0.9
  0
LINE
  5
292
330
218
100
AcDbEntity
  8
0
  6
Continuous
 62
     2
100
AcDbLine
 10
130.334507
 20
388.48736
 30
0.0
 11
130.334507
 21
475.859664
 31
0.0
  0
LINE
  5
293
330
218
100
AcDbEntity
  8
0
  6
Continuous
 62
     2
100
AcDbLine
 10
662.334507
 20
388.48736
 30
0.0
 11
662.334507
 21
475.859664
 31
0.0
  0
LINE
  5
294
330
218
100
AcDbEntity
  8
0
  6
Continuous
 62
     2
100
AcDbLine
 10
130.334507
 20
475.109664
 30
0.0
 11
396.334507
 21
475.109664
 31
0.0
  0
LINE
  5
295
330
218
100
AcDbEntity
  8
0
  6
Continuous
 62
     2
100
AcDbLine
 10
662.334507
 20
475.109664
 30
0.0
 11
396.334507
 21
475.109664
 31
0.0
  0
INSERT
  5
296
330
218
100
AcDbEntity
  8
0
  6
Continuous
 62
     2
100
AcDbBlockReference
  2
_CLOSED
 10
130.334507
 20
475.109664
 30
0.0
 41
2.5
 42
2.5
 43
2.5
 50
180.0
  0
INSERT
  5
297
330
218
100
AcDbEntity
  8
0
  6
Continuous
 62
     2
100
AcDbBlockReference
  2
_CLOSED
 10
662.334507
 20
475.109664
 30
0.0
 41
2.5
 42
2.5
 43
2.5
  0
ENDBLK
  5
298
330
218
100
AcDbEntity
  8
0
  6
ByBlock
 62
     0
100
AcDbBlockEnd
  0
BLOCK
  5
299
330
219
100
AcDbEntity
  8
0
100
AcDbBlockBegin
  2
*D7
 70
     1
 10
0.0
 20
0.0
 30
0.0
  3
*D7
  1
*D7
  0
MTEXT
  5
29A
330
219
100
AcDbEntity
  8
0
  6
Continuous
 62
     2
100
AcDbMText
 10
966.395171
 20
552.059538
 30
0.0
 40
3.0
 41
6.992565
 46
0.0
 71
     2
 72
     1
  1
256
 73
     1
 44
0.9
  0
LINE
  5
29B
330
219
100
AcDbEntity
  8
0
  6
Continuous
 62
     2
100
AcDbLine
 10
838.395171
 20
632.221213
 30
0.0
 11
838.395171
 21
547.559538
 31
0.0
  0
LINE
  5
29C
330
219
100
AcDbEntity
  8
0
  6
Continuous
 62
     2
100
AcDbLine
 10
1094.395171
 20
632.221213
 30
0.0
 11
1094.395171
 21
547.559538
 31
0.0
  0
LINE
  5
29D
330
219
100
AcDbEntity
  8
0
  6
Continuous
 62
     2
100
AcDbLine
 10
838.395171
 20
548.309538
 30
0.0
 11
966.395171
 21
548.309538
 31
0.0
  0
LINE
  5
29E
330
219
100
AcDbEntity
  8
0
  6
Continuous
 62
     2
100
AcDbLine
 10
1094.395171
 20
548.309538
 30
0.0
 11
966.395171
 21
548.309538
 31
0.0
  0
INSERT
  5
29F
330
219
100
AcDbEntity
  8
0
  6
Continuous
 62
     2
100
AcDbBlockReference
  2
_CLOSED
 10
838.395171
 20
548.309538
 30
0.0
 41
2.5
 42
2.5
 43
2.5
 50
180.0
  0
INSERT
  5
2A0
330
219
100
AcDbEntity
  8
0
  6
Continuous
 62
     2
100
AcDbBlockReference
  2
_CLOSED
 10
1094.395171
 20
548.309538
 30
0.0
 41
2.5
 42
2.5
 43
2.5
  0
ENDBLK
  5
2A1
330
219
100
AcDbEntity
  8
0
  6
ByBlock
 62
     0
100
AcDbBlockEnd
  0
BLOCK
  5
221
330
21A
100
AcDbEntity
  8
0
100
AcDbBlockBegin
  2
LOGO2_BL0
 70
     0
 10
1102.806666
 20
36.519554
 30
0.0
  3
LOGO2_BL0
  1
LOGO2_BL0
  0
LINE
  5
222
330
21A
100
AcDbEntity
  8
0
  6
Continuous
 62
     7
100
AcDbLine
 10
1094.549591
 20
39.715046
 30
0.0
 11
1093.24525
 21
39.715046
 31
0.0
  0
LINE
  5
223
330
21A
100
AcDbEntity
  8
0
  6
Continuous
 62
     7
100
AcDbLine
 10
1093.24525
 20
39.715046
 30
0.0
 11
1093.24525
 21
29.25598
 31
0.0
  0
LINE
  5
224
330
21A
100
AcDbEntity
  8
0
  6
Continuous
 62
     7
100
AcDbLine
 10
1093.24525
 20
29.25598
 30
0.0
 11
1097.726305
 21
29.25598
 31
0.0
  0
LINE
  5
225
330
21A
100
AcDbEntity
  8
0
  6
Continuous
 62
     7
100
AcDbLine
 10
1097.726305
 20
29.25598
 30
0.0
 11
1097.726305
 21
30.448834
 31
0.0
  0
LINE
  5
226
330
21A
100
AcDbEntity
  8
0
  6
Continuous
 62
     7
100
AcDbLine
 10
1097.726305
 20
30.448834
 30
0.0
 11
1094.549591
 21
30.448834
 31
0.0
  0
LINE
  5
227
330
21A
100
AcDbEntity
  8
0
  6
Continuous
 62
     7
100
AcDbLine
 10
1094.549591
 20
30.448834
 30
0.0
 11
1094.549591
 21
39.715046
 31
0.0
  0
LINE
  5
228
330
21A
100
AcDbEntity
  8
0
  6
Continuous
 62
     7
100
AcDbLine
 10
1109.485917
 20
39.715046
 30
0.0
 11
1108.1821
 21
39.715046
 31
0.0
  0
LINE
  5
229
330
21A
100
AcDbEntity
  8
0
  6
Continuous
 62
     7
100
AcDbLine
 10
1108.1821
 20
39.715046
 30
0.0
 11
1108.1821
 21
29.25598
 31
0.0
  0
LINE
  5
22A
330
21A
100
AcDbEntity
  8
0
  6
Continuous
 62
     7
100
AcDbLine
 10
1108.1821
 20
29.25598
 30
0.0
 11
1112.663286
 21
29.25598
 31
0.0
  0
LINE
  5
22B
330
21A
100
AcDbEntity
  8
0
  6
Continuous
 62
     7
100
AcDbLine
 10
1112.663286
 20
29.25598
 30
0.0
 11
1112.663286
 21
30.448834
 31
0.0
  0
LINE
  5
22C
330
21A
100
AcDbEntity
  8
0
  6
Continuous
 62
     7
100
AcDbLine
 10
1112.663286
 20
30.448834
 30
0.0
 11
1109.485917
 21
30.448834
 31
0.0
  0
LINE
  5
22D
330
21A
100
AcDbEntity
  8
0
  6
Continuous
 62
     7
100
AcDbLine
 10
1109.485917
 20
30.448834
 30
0.0
 11
1109.485917
 21
39.715046
 31
0.0
  0
LWPOLYLINE
  5
22E
330
21A
100
AcDbEntity
  8
0
  6
Continuous
 62
     7
100
AcDbPolyline
 90
        2
 70
     0
 43
0.2
 10
1091.599645
 20
25.912428
 10
1091.599645
 20
24.055365
  0
LWPOLYLINE
  5
22F
330
21A
100
AcDbEntity
  8
0
  6
Continuous
 62
     7
100
AcDbPolyline
 90
        2
 70
     0
 43
0.2
 10
1091.599645
 20
24.055365
 10
1092.395361
 20
24.055365
  0
LWPOLYLINE
  5
230
330
21A
100
AcDbEntity
  8
0
  6
Continuous
 62
     7
100
AcDbPolyline
 90
        2
 70
     0
 43
0.2
 10
1092.395361
 20
24.055365
 10
1092.395361
 20
24.267347
  0
LWPOLYLINE
  5
231
330
21A
100
AcDbEntity
  8
0
  6
Continuous
 62
     7
100
AcDbPolyline
 90
        2
 70
     0
 43
0.2
 10
1092.395361
 20
24.267347
 10
1091.831255
 20
24.267347
  0
LWPOLYLINE
  5
232
330
21A
100
AcDbEntity
  8
0
  6
Continuous
 62
     7
100
AcDbPolyline
 90
        2
 70
     0
 43
0.2
 10
1091.831255
 20
24.267347
 10
1091.831255
 20
25.912428
  0
LWPOLYLINE
  5
233
330
21A
100
AcDbEntity
  8
0
  6
Continuous
 62
     7
100
AcDbPolyline
 90
        2
 70
     0
 43
0.2
 10
1091.831255
 20
25.912428
 10
1091.599645
 20
25.912428
  0
SPLINE
  5
234
330
21A
100
AcDbEntity
  8
0
  6
Continuous
 62
     7
100
AcDbSpline
 70
     3
 71
     3
 72
    35
 73
    31
 74
     0
 42
0.000000001
 43
0.0000001
 40
0.0
 40
0.0
 40
0.0
 40
0.0
 40
1.0
 40
1.0
 40
1.0
 40
2.0
 40
2.0
 40
2.0
 40
3.0
 40
3.0
 40
3.0
 40
4.0
 40
4.0
 40
4.0
 40
5.0
 40
5.0
 40
5.0
 40
6.0
 40
6.0
 40
6.0
 40
7.0
 40
7.0
 40
7.0
 40
8.0
 40
8.0
 40
8.0
 40
9.0
 40
9.0
 40
9.0
 40
10.0
 40
10.0
 40
10.0
 40
10.0
 10
1093.7936545075
 20
25.2079168209
 30
0.0
 10
1093.7936545075
 20
25.2079168209
 30
0.0
 10
1093.7936545075
 20
24.5458015417
 30
0.0
 10
1093.7936545075
 20
24.5458015417
 30
0.0
 10
1093.7936545075
 20
24.2307079464
 30
0.0
 10
1093.9415181963
 20
24.0161093184
 30
0.0
 10
1094.2816046806
 20
24.0161093184
 30
0.0
 10
1094.6211677536
 20
24.0161093184
 30
0.0
 10
1094.7692931481
 20
24.2307079464
 30
0.0
 10
1094.7692931481
 20
24.5458015417
 30
0.0
 10
1094.7692931481
 20
24.5458015417
 30
0.0
 10
1094.7692931481
 20
25.2079168209
 30
0.0
 10
1094.7692931481
 20
25.2079168209
 30
0.0
 10
1094.7692931481
 20
25.2079168209
 30
0.0
 10
1094.5472359092
 20
25.2079168209
 30
0.0
 10
1094.5472359092
 20
25.2079168209
 30
0.0
 10
1094.5472359092
 20
25.2079168209
 30
0.0
 10
1094.5472359092
 20
24.5709252835
 30
0.0
 10
1094.5472359092
 20
24.5709252835
 30
0.0
 10
1094.5472359092
 20
24.3851142763
 30
0.0
 10
1094.5005214518
 20
24.2223333658
 30
0.0
 10
1094.2816046806
 20
24.2223333658
 30
0.0
 10
1094.0621644982
 20
24.2223333658
 30
0.0
 10
1094.0154500408
 20
24.3851142763
 30
0.0
 10
1094.0154500408
 20
24.5709252835
 30
0.0
 10
1094.0154500408
 20
24.5709252835
 30
0.0
 10
1094.0154500408
 20
25.2079168209
 30
0.0
 10
1094.0154500408
 20
25.2079168209
 30
0.0
 10
1094.0154500408
 20
25.2079168209
 30
0.0
 10
1093.7936545075
 20
25.2079168209
 30
0.0
 10
1093.7936545075
 20
25.2079168209
 30
0.0
  0
SPLINE
  5
235
330
21A
100
AcDbEntity
  8
0
  6
Continuous
 62
     7
100
AcDbSpline
 70
     3
 71
     3
 72
    35
 73
    31
 74
     0
 42
0.000000001
 43
0.0000001
 40
0.0
 40
0.0
 40
0.0
 40
0.0
 40
1.0
 40
1.0
 40
1.0
 40
2.0
 40
2.0
 40
2.0
 40
3.0
 40
3.0
 40
3.0
 40
4.0
 40
4.0
 40
4.0
 40
5.0
 40
5.0
 40
5.0
 40
6.0
 40
6.0
 40
6.0
 40
7.0
 40
7.0
 40
7.0
 40
8.0
 40
8.0
 40
8.0
 40
9.0
 40
9.0
 40
9.0
 40
10.0
 40
10.0
 40
10.0
 40
10.0
 10
1097.1924257053
 20
25.1665673291
 30
0.0
 10
1097.1039691977
 20
25.2178616353
 30
0.0
 10
1096.990519801
 20
25.2429853771
 30
0.0
 10
1096.886884366
 20
25.2429853771
 30
0.0
 10
1096.5320115128
 20
25.2429853771
 30
0.0
 10
1096.2565663226
 20
24.9791860881
 30
0.0
 10
1096.2565663226
 20
24.6216961784
 30
0.0
 10
1096.2565663226
 20
24.2767681397
 30
0.0
 10
1096.5350211277
 20
24.0166327297
 30
0.0
 10
1096.8745842008
 20
24.0166327297
 30
0.0
 10
1096.990519801
 20
24.0166327297
 30
0.0
 10
1097.0912764739
 20
24.0386160038
 30
0.0
 10
1097.1924257053
 20
24.0925273664
 30
0.0
 10
1097.1924257053
 20
24.0925273664
 30
0.0
 10
1097.1924257053
 20
24.3751694619
 30
0.0
 10
1097.1924257053
 20
24.3751694619
 30
0.0
 10
1097.1085490464
 20
24.2820022526
 30
0.0
 10
1097.0050444643
 20
24.2228567771
 30
0.0
 10
1096.8769395515
 20
24.2228567771
 30
0.0
 10
1096.6432364115
 20
24.2228567771
 30
0.0
 10
1096.4779692974
 20
24.3950590908
 30
0.0
 10
1096.4779692974
 20
24.6316409929
 30
0.0
 10
1096.4779692974
 20
24.8436225645
 30
0.0
 10
1096.6457226151
 20
25.0357145071
 30
0.0
 10
1096.8625457411
 20
25.0357145071
 30
0.0
 10
1096.9953613554
 20
25.0357145071
 30
0.0
 10
1097.1039691977
 20
24.9818031445
 30
0.0
 10
1097.1924257053
 20
24.8807847659
 30
0.0
 10
1097.1924257053
 20
24.8807847659
 30
0.0
 10
1097.1924257053
 20
25.1665673291
 30
0.0
 10
1097.1924257053
 20
25.1665673291
 30
0.0
  0
SPLINE
  5
236
330
21A
100
AcDbEntity
  8
0
  6
Continuous
 62
     7
100
AcDbSpline
 70
     3
 71
     3
 72
    32
 73
    28
 74
     0
 42
0.000000001
 43
0.0000001
 40
0.0
 40
0.0
 40
0.0
 40
0.0
 40
1.0
 40
1.0
 40
1.0
 40
2.0
 40
2.0
 40
2.0
 40
3.0
 40
3.0
 40
3.0
 40
4.0
 40
4.0
 40
4.0
 40
5.0
 40
5.0
 40
5.0
 40
6.0
 40
6.0
 40
6.0
 40
7.0
 40
7.0
 40
7.0
 40
8.0
 40
8.0
 40
8.0
 40
9.0
 40
9.0
 40
9.0
 40
9.0
 10
1099.7242969576
 20
24.5950022028
 30
0.0
 10
1099.7242969576
 20
24.5950022028
 30
0.0
 10
1099.7242969576
 20
24.6290239365
 30
0.0
 10
1099.7242969576
 20
24.6290239365
 30
0.0
 10
1099.7242969576
 20
24.9713349187
 30
0.0
 10
1099.5514403797
 20
25.2429853771
 30
0.0
 10
1099.1847907726
 20
25.2429853771
 30
0.0
 10
1098.8131687582
 20
25.2429853771
 30
0.0
 10
1098.6234321663
 20
24.9765690316
 30
0.0
 10
1098.6234321663
 20
24.6216961784
 30
0.0
 10
1098.6234321663
 20
24.2820022526
 30
0.0
 10
1098.8375073831
 20
24.0161093184
 30
0.0
 10
1099.189632327
 20
24.0161093184
 30
0.0
 10
1099.4136523582
 20
24.0161093184
 30
0.0
 10
1099.6158199681
 20
24.131783213
 30
0.0
 10
1099.7242969576
 20
24.3312029137
 30
0.0
 10
1099.7242969576
 20
24.3312029137
 30
0.0
 10
1099.5366540109
 20
24.4379788164
 30
0.0
 10
1099.5366540109
 20
24.4379788164
 30
0.0
 10
1099.4531699104
 20
24.2992748251
 30
0.0
 10
1099.3619654935
 20
24.2134353739
 30
0.0
 10
1099.1923802363
 20
24.2134353739
 30
0.0
 10
1098.9803986647
 20
24.2134353739
 30
0.0
 10
1098.8474521976
 20
24.3981995585
 30
0.0
 10
1098.8450968468
 20
24.5950022028
 30
0.0
 10
1098.8450968468
 20
24.5950022028
 30
0.0
 10
1099.7242969576
 20
24.5950022028
 30
0.0
 10
1099.7242969576
 20
24.5950022028
 30
0.0
  0
SPLINE
  5
237
330
21A
100
AcDbEntity
  8
0
  6
Continuous
 62
     7
100
AcDbSpline
 70
     3
 71
     3
 72
    14
 73
    10
 74
     0
 42
0.000000001
 43
0.0000001
 40
0.0
 40
0.0
 40
0.0
 40
0.0
 40
1.0
 40
1.0
 40
1.0
 40
2.0
 40
2.0
 40
2.0
 40
3.0
 40
3.0
 40
3.0
 40
3.0
 10
1098.8571353064
 20
24.7624938149
 30
0.0
 10
1098.8847452518
 20
24.9273683706
 30
0.0
 10
1099.0125884589
 20
25.0503700232
 30
0.0
 10
1099.1847907726
 20
25.0503700232
 30
0.0
 10
1099.3619654935
 20
25.0503700232
 30
0.0
 10
1099.4754148902
 20
24.9346961286
 30
0.0
 10
1099.5026322771
 20
24.7624938149
 30
0.0
 10
1099.5026322771
 20
24.7624938149
 30
0.0
 10
1098.8571353064
 20
24.7624938149
 30
0.0
 10
1098.8571353064
 20
24.7624938149
 30
0.0
  0
SPLINE
  5
238
330
21A
100
AcDbEntity
  8
0
  6
Continuous
 62
     7
100
AcDbSpline
 70
     3
 71
     3
 72
    20
 73
    16
 74
     0
 42
0.000000001
 43
0.0000001
 40
0.0
 40
0.0
 40
0.0
 40
0.0
 40
1.0
 40
1.0
 40
1.0
 40
2.0
 40
2.0
 40
2.0
 40
3.0
 40
3.0
 40
3.0
 40
4.0
 40
4.0
 40
4.0
 40
5.0
 40
5.0
 40
5.0
 40
5.0
 10
1101.7483284078
 20
24.97185833
 30
0.0
 10
1101.7483284078
 20
24.97185833
 30
0.0
 10
1102.1594679744
 20
24.4693834937
 30
0.0
 10
1102.1594679744
 20
24.4693834937
 30
0.0
 10
1102.0434015213
 20
24.3537095991
 30
0.0
 10
1101.9056134998
 20
24.2233801884
 30
0.0
 10
1101.7336728917
 20
24.2233801884
 30
0.0
 10
1101.5562364651
 20
24.2233801884
 30
0.0
 10
1101.388744853
 20
24.3877313328
 30
0.0
 10
1101.388744853
 20
24.5646443481
 30
0.0
 10
1101.388744853
 20
24.7426041859
 30
0.0
 10
1101.5985019266
 20
24.8687463063
 30
0.0
 10
1101.726083428
 20
24.9566794027
 30
0.0
 10
1101.726083428
 20
24.9566794027
 30
0.0
 10
1101.7483284078
 20
24.97185833
 30
0.0
 10
1101.7483284078
 20
24.97185833
 30
0.0
  0
SPLINE
  5
239
330
21A
100
AcDbEntity
  8
0
  6
Continuous
 62
     7
100
AcDbSpline
 70
     3
 71
     3
 72
    23
 73
    19
 74
     0
 42
0.000000001
 43
0.0000001
 40
0.0
 40
0.0
 40
0.0
 40
0.0
 40
1.0
 40
1.0
 40
1.0
 40
2.0
 40
2.0
 40
2.0
 40
3.0
 40
3.0
 40
3.0
 40
4.0
 40
4.0
 40
4.0
 40
5.0
 40
5.0
 40
5.0
 40
6.0
 40
6.0
 40
6.0
 40
6.0
 10
1101.7976599216
 20
25.2628750061
 30
0.0
 10
1101.7976599216
 20
25.2628750061
 30
0.0
 10
1101.7360282425
 20
25.3413866993
 30
0.0
 10
1101.7360282425
 20
25.3413866993
 30
0.0
 10
1101.6821168798
 20
25.409953578
 30
0.0
 10
1101.6253267551
 20
25.479043868
 30
0.0
 10
1101.6253267551
 20
25.5727344885
 30
0.0
 10
1101.6253267551
 20
25.6915488509
 30
0.0
 10
1101.7212418736
 20
25.7690137215
 30
0.0
 10
1101.8322050666
 20
25.7690137215
 30
0.0
 10
1101.9554684249
 20
25.7690137215
 30
0.0
 10
1102.048766487
 20
25.6978297863
 30
0.0
 10
1102.048766487
 20
25.5675003756
 30
0.0
 10
1102.048766487
 20
25.4324602634
 30
0.0
 10
1101.9206615743
 20
25.3560422153
 30
0.0
 10
1101.8271018066
 20
25.2822412237
 30
0.0
 10
1101.8271018066
 20
25.2822412237
 30
0.0
 10
1101.7976599216
 20
25.2628750061
 30
0.0
 10
1101.7976599216
 20
25.2628750061
 30
0.0
  0
SPLINE
  5
23A
330
21A
100
AcDbEntity
  8
0
  6
Continuous
 62
     7
100
AcDbSpline
 70
     3
 71
     3
 72
    50
 73
    46
 74
     0
 42
0.000000001
 43
0.0000001
 40
0.0
 40
0.0
 40
0.0
 40
0.0
 40
1.0
 40
1.0
 40
1.0
 40
2.0
 40
2.0
 40
2.0
 40
3.0
 40
3.0
 40
3.0
 40
4.0
 40
4.0
 40
4.0
 40
5.0
 40
5.0
 40
5.0
 40
6.0
 40
6.0
 40
6.0
 40
7.0
 40
7.0
 40
7.0
 40
8.0
 40
8.0
 40
8.0
 40
9.0
 40
9.0
 40
9.0
 40
10.0
 40
10.0
 40
10.0
 40
11.0
 40
11.0
 40
11.0
 40
12.0
 40
12.0
 40
12.0
 40
13.0
 40
13.0
 40
13.0
 40
14.0
 40
14.0
 40
14.0
 40
15.0
 40
15.0
 40
15.0
 40
15.0
 10
1102.4998161643
 20
24.0558885763
 30
0.0
 10
1102.4998161643
 20
24.0558885763
 30
0.0
 10
1102.785206169
 20
24.0558885763
 30
0.0
 10
1102.785206169
 20
24.0558885763
 30
0.0
 10
1102.785206169
 20
24.0558885763
 30
0.0
 10
1102.4528400012
 20
24.4667664372
 30
0.0
 10
1102.4528400012
 20
24.4667664372
 30
0.0
 10
1102.4528400012
 20
24.4667664372
 30
0.0
 10
1102.6793462361
 20
24.7326593715
 30
0.0
 10
1102.6793462361
 20
24.7326593715
 30
0.0
 10
1102.6793462361
 20
24.7326593715
 30
0.0
 10
1102.5310899888
 20
24.8854954675
 30
0.0
 10
1102.5310899888
 20
24.8854954675
 30
0.0
 10
1102.5310899888
 20
24.8854954675
 30
0.0
 10
1102.3151828325
 20
24.6342580494
 30
0.0
 10
1102.3151828325
 20
24.6342580494
 30
0.0
 10
1102.3151828325
 20
24.6342580494
 30
0.0
 10
1101.9281201851
 20
25.1021877407
 30
0.0
 10
1101.9281201851
 20
25.1021877407
 30
0.0
 10
1102.0835733376
 20
25.2162914015
 30
0.0
 10
1102.2658513186
 20
25.3560422153
 30
0.0
 10
1102.2658513186
 20
25.5654067305
 30
0.0
 10
1102.2658513186
 20
25.8093163906
 30
0.0
 10
1102.0638145615
 20
25.9527310835
 30
0.0
 10
1101.8373083267
 20
25.9527310835
 30
0.0
 10
1101.5931369609
 20
25.9527310835
 30
0.0
 10
1101.4087653347
 20
25.8019886326
 30
0.0
 10
1101.4087653347
 20
25.5455171015
 30
0.0
 10
1101.4087653347
 20
25.3879703039
 30
0.0
 10
1101.5074283625
 20
25.2503131352
 30
0.0
 10
1101.6127648842
 20
25.1393499421
 30
0.0
 10
1101.6127648842
 20
25.1393499421
 30
0.0
 10
1101.4972218424
 20
25.0556041361
 30
0.0
 10
1101.4972218424
 20
25.0556041361
 30
0.0
 10
1101.3195237102
 20
24.9273683706
 30
0.0
 10
1101.1721834326
 20
24.7996560163
 30
0.0
 10
1101.1721834326
 20
24.5625507029
 30
0.0
 10
1101.1721834326
 20
24.2422229947
 30
0.0
 10
1101.4307486088
 20
24.0161093184
 30
0.0
 10
1101.7411315025
 20
24.0161093184
 30
0.0
 10
1101.9600482737
 20
24.0161093184
 30
0.0
 10
1102.1572434764
 20
24.1412046162
 30
0.0
 10
1102.2975177016
 20
24.3071259944
 30
0.0
 10
1102.2975177016
 20
24.3071259944
 30
0.0
 10
1102.4998161643
 20
24.0558885763
 30
0.0
 10
1102.4998161643
 20
24.0558885763
 30
0.0
  0
LWPOLYLINE
  5
23B
330
21A
100
AcDbEntity
  8
0
  6
Continuous
 62
     7
100
AcDbPolyline
 90
        2
 70
     0
 43
0.2
 10
1104.43526
 20
25.912428
 10
1104.203912
 20
25.912428
  0
LWPOLYLINE
  5
23C
330
21A
100
AcDbEntity
  8
0
  6
Continuous
 62
     7
100
AcDbPolyline
 90
        2
 70
     0
 43
0.2
 10
1104.203912
 20
25.912428
 10
1104.203912
 20
24.055365
  0
LWPOLYLINE
  5
23D
330
21A
100
AcDbEntity
  8
0
  6
Continuous
 62
     7
100
AcDbPolyline
 90
        2
 70
     0
 43
0.2
 10
1104.203912
 20
24.055365
 10
1104.999236
 20
24.055365
  0
LWPOLYLINE
  5
23E
330
21A
100
AcDbEntity
  8
0
  6
Continuous
 62
     7
100
AcDbPolyline
 90
        2
 70
     0
 43
0.2
 10
1104.999236
 20
24.055365
 10
1104.999236
 20
24.267347
  0
LWPOLYLINE
  5
23F
330
21A
100
AcDbEntity
  8
0
  6
Continuous
 62
     7
100
AcDbPolyline
 90
        2
 70
     0
 43
0.2
 10
1104.999236
 20
24.267347
 10
1104.43526
 20
24.267347
  0
LWPOLYLINE
  5
240
330
21A
100
AcDbEntity
  8
0
  6
Continuous
 62
     7
100
AcDbPolyline
 90
        2
 70
     0
 43
0.2
 10
1104.43526
 20
24.267347
 10
1104.43526
 20
25.912428
  0
LWPOLYLINE
  5
241
330
21A
100
AcDbEntity
  8
0
  6
Continuous
 62
     7
100
AcDbPolyline
 90
        2
 70
     0
 43
0.2
 10
1106.678339
 20
25.207917
 10
1106.457198
 20
25.207917
  0
LWPOLYLINE
  5
242
330
21A
100
AcDbEntity
  8
0
  6
Continuous
 62
     7
100
AcDbPolyline
 90
        2
 70
     0
 43
0.2
 10
1106.457198
 20
25.207917
 10
1106.457198
 20
24.055889
  0
LWPOLYLINE
  5
243
330
21A
100
AcDbEntity
  8
0
  6
Continuous
 62
     7
100
AcDbPolyline
 90
        2
 70
     0
 43
0.2
 10
1106.457198
 20
24.055889
 10
1106.678339
 20
24.055889
  0
LWPOLYLINE
  5
244
330
21A
100
AcDbEntity
  8
0
  6
Continuous
 62
     7
100
AcDbPolyline
 90
        2
 70
     0
 43
0.2
 10
1106.678339
 20
24.055889
 10
1106.678339
 20
25.207917
  0
LWPOLYLINE
  5
245
330
21A
100
AcDbEntity
  8
0
  6
Continuous
 62
     7
100
AcDbPolyline
 90
        2
 70
     1
 43
0.2
 10
1106.415316
 20
25.737871
 42
1.0
 10
1106.720483
 20
25.737871
 42
1.0
  0
SPLINE
  5
246
330
21A
100
AcDbEntity
  8
0
  6
Continuous
 62
     7
100
AcDbSpline
 70
     3
 71
     3
 72
    17
 73
    13
 74
     0
 42
0.000000001
 43
0.0000001
 40
0.0
 40
0.0
 40
0.0
 40
0.0
 40
1.0
 40
1.0
 40
1.0
 40
2.0
 40
2.0
 40
2.0
 40
3.0
 40
3.0
 40
3.0
 40
4.0
 40
4.0
 40
4.0
 40
4.0
 10
1108.8086232698
 20
24.2134353739
 30
0.0
 10
1108.5746584242
 20
24.2134353739
 30
0.0
 10
1108.4443290135
 20
24.415472131
 30
0.0
 10
1108.4443290135
 20
24.6316409929
 30
0.0
 10
1108.4443290135
 20
24.8462396209
 30
0.0
 10
1108.5801542427
 20
25.0451359103
 30
0.0
 10
1108.8086232698
 20
25.0451359103
 30
0.0
 10
1109.048083934
 20
25.0451359103
 30
0.0
 10
1109.1836474576
 20
24.8561844354
 30
0.0
 10
1109.1836474576
 20
24.6316409929
 30
0.0
 10
1109.1836474576
 20
24.4055273166
 30
0.0
 10
1109.0504392848
 20
24.2134353739
 30
0.0
 10
1108.8086232698
 20
24.2134353739
 30
0.0
  0
SPLINE
  5
247
330
21A
100
AcDbEntity
  8
0
  6
Continuous
 62
     7
100
AcDbSpline
 70
     3
 71
     3
 72
    50
 73
    46
 74
     0
 42
0.000000001
 43
0.0000001
 40
0.0
 40
0.0
 40
0.0
 40
0.0
 40
1.0
 40
1.0
 40
1.0
 40
2.0
 40
2.0
 40
2.0
 40
3.0
 40
3.0
 40
3.0
 40
4.0
 40
4.0
 40
4.0
 40
5.0
 40
5.0
 40
5.0
 40
6.0
 40
6.0
 40
6.0
 40
7.0
 40
7.0
 40
7.0
 40
8.0
 40
8.0
 40
8.0
 40
9.0
 40
9.0
 40
9.0
 40
10.0
 40
10.0
 40
10.0
 40
11.0
 40
11.0
 40
11.0
 40
12.0
 40
12.0
 40
12.0
 40
13.0
 40
13.0
 40
13.0
 40
14.0
 40
14.0
 40
14.0
 40
15.0
 40
15.0
 40
15.0
 40
15.0
 10
1109.3927502671
 20
25.2084402321
 30
0.0
 10
1109.3927502671
 20
25.2084402321
 30
0.0
 10
1109.1710855867
 20
25.2084402321
 30
0.0
 10
1109.1710855867
 20
25.2084402321
 30
0.0
 10
1109.1710855867
 20
25.2084402321
 30
0.0
 10
1109.1710855867
 20
25.0111141766
 30
0.0
 10
1109.1710855867
 20
25.0111141766
 30
0.0
 10
1109.1710855867
 20
25.0111141766
 30
0.0
 10
1109.1663748851
 20
25.0111141766
 30
0.0
 10
1109.1663748851
 20
25.0111141766
 30
0.0
 10
1109.0750396154
 20
25.1540054582
 30
0.0
 10
1108.937120741
 20
25.2424619659
 30
0.0
 10
1108.764395016
 20
25.2424619659
 30
0.0
 10
1108.4320288482
 20
25.2424619659
 30
0.0
 10
1108.2229260387
 20
24.9545857575
 30
0.0
 10
1108.2229260387
 20
24.6389687509
 30
0.0
 10
1108.2229260387
 20
24.3092196396
 30
0.0
 10
1108.4199903886
 20
24.0161093184
 30
0.0
 10
1108.7748632418
 20
24.0161093184
 30
0.0
 10
1108.937120741
 20
24.0161093184
 30
0.0
 10
1109.0771332605
 20
24.104565826
 30
0.0
 10
1109.1663748851
 20
24.235418648
 30
0.0
 10
1109.1663748851
 20
24.235418648
 30
0.0
 10
1109.1710855867
 20
24.235418648
 30
0.0
 10
1109.1710855867
 20
24.235418648
 30
0.0
 10
1109.1710855867
 20
24.235418648
 30
0.0
 10
1109.1710855867
 20
24.0161093184
 30
0.0
 10
1109.1710855867
 20
24.0161093184
 30
0.0
 10
1109.1710855867
 20
23.7795274163
 30
0.0
 10
1109.1145571676
 20
23.5926695865
 30
0.0
 10
1108.8413364753
 20
23.5926695865
 30
0.0
 10
1108.6390380126
 20
23.5926695865
 30
0.0
 10
1108.4964084366
 20
23.7109605375
 30
0.0
 10
1108.4964084366
 20
23.917184585
 30
0.0
 10
1108.4964084366
 20
23.917184585
 30
0.0
 10
1108.2747437562
 20
23.917184585
 30
0.0
 10
1108.2747437562
 20
23.917184585
 30
0.0
 10
1108.2797161634
 20
23.5926695865
 30
0.0
 10
1108.510802247
 20
23.3958669423
 30
0.0
 10
1108.8311299552
 20
23.3958669423
 30
0.0
 10
1109.2791700176
 20
23.3958669423
 30
0.0
 10
1109.3927502671
 20
23.6811260941
 30
0.0
 10
1109.3927502671
 20
24.0778718503
 30
0.0
 10
1109.3927502671
 20
24.0778718503
 30
0.0
 10
1109.3927502671
 20
25.2084402321
 30
0.0
 10
1109.3927502671
 20
25.2084402321
 30
0.0
  0
SPLINE
  5
248
330
21A
100
AcDbEntity
  8
0
  6
Continuous
 62
     7
100
AcDbSpline
 70
     3
 71
     3
 72
    44
 73
    40
 74
     0
 42
0.000000001
 43
0.0000001
 40
0.0
 40
0.0
 40
0.0
 40
0.0
 40
1.0
 40
1.0
 40
1.0
 40
2.0
 40
2.0
 40
2.0
 40
3.0
 40
3.0
 40
3.0
 40
4.0
 40
4.0
 40
4.0
 40
5.0
 40
5.0
 40
5.0
 40
6.0
 40
6.0
 40
6.0
 40
7.0
 40
7.0
 40
7.0
 40
8.0
 40
8.0
 40
8.0
 40
9.0
 40
9.0
 40
9.0
 40
10.0
 40
10.0
 40
10.0
 40
11.0
 40
11.0
 40
11.0
 40
12.0
 40
12.0
 40
12.0
 40
13.0
 40
13.0
 40
13.0
 40
13.0
 10
1110.9616756025
 20
26.1935002759
 30
0.0
 10
1110.9616756025
 20
26.1935002759
 30
0.0
 10
1110.9616756025
 20
24.055365165
 30
0.0
 10
1110.9616756025
 20
24.055365165
 30
0.0
 10
1110.9616756025
 20
24.055365165
 30
0.0
 10
1111.1830785773
 20
24.055365165
 30
0.0
 10
1111.1830785773
 20
24.055365165
 30
0.0
 10
1111.1830785773
 20
24.055365165
 30
0.0
 10
1111.1830785773
 20
24.5850573883
 30
0.0
 10
1111.1830785773
 20
24.5850573883
 30
0.0
 10
1111.1830785773
 20
24.7949453147
 30
0.0
 10
1111.1830785773
 20
25.0456593216
 30
0.0
 10
1111.4683377291
 20
25.0456593216
 30
0.0
 10
1111.6952365224
 20
25.0456593216
 30
0.0
 10
1111.7221922038
 20
24.9127128545
 30
0.0
 10
1111.7221922038
 20
24.7164336215
 30
0.0
 10
1111.7221922038
 20
24.7164336215
 30
0.0
 10
1111.7221922038
 20
24.055365165
 30
0.0
 10
1111.7221922038
 20
24.055365165
 30
0.0
 10
1111.7221922038
 20
24.055365165
 30
0.0
 10
1111.9441185898
 20
24.055365165
 30
0.0
 10
1111.9441185898
 20
24.055365165
 30
0.0
 10
1111.9441185898
 20
24.055365165
 30
0.0
 10
1111.9441185898
 20
24.7426041859
 30
0.0
 10
1111.9441185898
 20
24.7426041859
 30
0.0
 10
1111.9441185898
 20
25.0231526362
 30
0.0
 10
1111.8601110781
 20
25.2429853771
 30
0.0
 10
1111.5350726683
 20
25.2429853771
 30
0.0
 10
1111.3953218545
 20
25.2429853771
 30
0.0
 10
1111.2571412745
 20
25.1765121436
 30
0.0
 10
1111.1877892788
 20
25.0535104909
 30
0.0
 10
1111.1877892788
 20
25.0535104909
 30
0.0
 10
1111.1830785773
 20
25.0535104909
 30
0.0
 10
1111.1830785773
 20
25.0535104909
 30
0.0
 10
1111.1830785773
 20
25.0535104909
 30
0.0
 10
1111.1830785773
 20
26.1935002759
 30
0.0
 10
1111.1830785773
 20
26.1935002759
 30
0.0
 10
1111.1830785773
 20
26.1935002759
 30
0.0
 10
1110.9616756025
 20
26.1935002759
 30
0.0
 10
1110.9616756025
 20
26.1935002759
 30
0.0
  0
LWPOLYLINE
  5
249
330
21A
100
AcDbEntity
  8
0
  6
Continuous
 62
     7
100
AcDbPolyline
 90
        2
 70
     0
 43
0.2
 10
1113.783909
 20
25.001169
 10
1114.00034
 20
25.001169
  0
LWPOLYLINE
  5
24A
330
21A
100
AcDbEntity
  8
0
  6
Continuous
 62
     7
100
AcDbPolyline
 90
        2
 70
     0
 43
0.2
 10
1114.00034
 20
25.001169
 10
1114.00034
 20
25.207917
  0
LWPOLYLINE
  5
24B
330
21A
100
AcDbEntity
  8
0
  6
Continuous
 62
     7
100
AcDbPolyline
 90
        2
 70
     0
 43
0.2
 10
1114.00034
 20
25.207917
 10
1113.783909
 20
25.207917
  0
LWPOLYLINE
  5
24C
330
21A
100
AcDbEntity
  8
0
  6
Continuous
 62
     7
100
AcDbPolyline
 90
        2
 70
     0
 43
0.2
 10
1113.783909
 20
25.207917
 10
1113.783909
 20
25.648629
  0
LWPOLYLINE
  5
24D
330
21A
100
AcDbEntity
  8
0
  6
Continuous
 62
     7
100
AcDbPolyline
 90
        2
 70
     0
 43
0.2
 10
1113.783909
 20
25.648629
 10
1113.562245
 20
25.648629
  0
LWPOLYLINE
  5
24E
330
21A
100
AcDbEntity
  8
0
  6
Continuous
 62
     7
100
AcDbPolyline
 90
        2
 70
     0
 43
0.2
 10
1113.562245
 20
25.648629
 10
1113.562245
 20
25.207917
  0
LWPOLYLINE
  5
24F
330
21A
100
AcDbEntity
  8
0
  6
Continuous
 62
     7
100
AcDbPolyline
 90
        2
 70
     0
 43
0.2
 10
1113.562245
 20
25.207917
 10
1113.441598
 20
25.207917
  0
LWPOLYLINE
  5
250
330
21A
100
AcDbEntity
  8
0
  6
Continuous
 62
     7
100
AcDbPolyline
 90
        2
 70
     0
 43
0.2
 10
1113.441598
 20
25.207917
 10
1113.441598
 20
25.001169
  0
LWPOLYLINE
  5
251
330
21A
100
AcDbEntity
  8
0
  6
Continuous
 62
     7
100
AcDbPolyline
 90
        2
 70
     0
 43
0.2
 10
1113.441598
 20
25.001169
 10
1113.562245
 20
25.001169
  0
LWPOLYLINE
  5
252
330
21A
100
AcDbEntity
  8
0
  6
Continuous
 62
     7
100
AcDbPolyline
 90
        2
 70
     0
 43
0.2
 10
1113.562245
 20
25.001169
 10
1113.562245
 20
24.055365
  0
LWPOLYLINE
  5
253
330
21A
100
AcDbEntity
  8
0
  6
Continuous
 62
     7
100
AcDbPolyline
 90
        2
 70
     0
 43
0.2
 10
1113.562245
 20
24.055365
 10
1113.783909
 20
24.055365
  0
LWPOLYLINE
  5
254
330
21A
100
AcDbEntity
  8
0
  6
Continuous
 62
     7
100
AcDbPolyline
 90
        2
 70
     0
 43
0.2
 10
1113.783909
 20
24.055365
 10
1113.783909
 20
25.001169
  0
SPLINE
  5
255
330
21A
100
AcDbEntity
  8
0
  6
Continuous
 62
     7
100
AcDbSpline
 70
     3
 71
     3
 72
    20
 73
    16
 74
     0
 42
0.000000001
 43
0.0000001
 40
0.0
 40
0.0
 40
0.0
 40
0.0
 40
1.0
 40
1.0
 40
1.0
 40
2.0
 40
2.0
 40
2.0
 40
3.0
 40
3.0
 40
3.0
 40
4.0
 40
4.0
 40
4.0
 40
5.0
 40
5.0
 40
5.0
 40
5.0
 10
1101.5659195739
 20
34.4162916084
 30
0.0
 10
1101.5659195739
 20
34.4162916084
 30
0.0
 10
1103.8822762284
 20
31.5867301861
 30
0.0
 10
1103.8822762284
 20
31.5867301861
 30
0.0
 10
1103.230629175
 20
30.9345597214
 30
0.0
 10
1102.453755971
 20
30.1986434507
 30
0.0
 10
1101.4825663263
 20
30.1986434507
 30
0.0
 10
1100.4840284419
 20
30.1986434507
 30
0.0
 10
1099.5407104483
 20
31.128221898
 30
0.0
 10
1099.5407104483
 20
32.1274140465
 30
0.0
 10
1099.5407104483
 20
33.126606195
 30
0.0
 10
1100.7195635214
 20
33.8332114337
 30
0.0
 10
1101.4410859818
 20
34.3330692136
 30
0.0
 10
1101.4410859818
 20
34.3330692136
 30
0.0
 10
1101.5659195739
 20
34.4162916084
 30
0.0
 10
1101.5659195739
 20
34.4162916084
 30
0.0
  0
SPLINE
  5
256
330
21A
100
AcDbEntity
  8
0
  6
Continuous
 62
     7
100
AcDbSpline
 70
     3
 71
     3
 72
    23
 73
    19
 74
     0
 42
0.000000001
 43
0.0000001
 40
0.0
 40
0.0
 40
0.0
 40
0.0
 40
1.0
 40
1.0
 40
1.0
 40
2.0
 40
2.0
 40
2.0
 40
3.0
 40
3.0
 40
3.0
 40
4.0
 40
4.0
 40
4.0
 40
5.0
 40
5.0
 40
5.0
 40
6.0
 40
6.0
 40
6.0
 40
6.0
 10
1101.8433275565
 20
36.0540455281
 30
0.0
 10
1101.8433275565
 20
36.0540455281
 30
0.0
 10
1101.4968292839
 20
36.4973748889
 30
0.0
 10
1101.4968292839
 20
36.4973748889
 30
0.0
 10
1101.191026239
 20
36.8854843589
 30
0.0
 10
1100.8721379119
 20
37.2739863873
 30
0.0
 10
1100.8721379119
 20
37.8009307014
 30
0.0
 10
1100.8721379119
 20
38.467102418
 30
0.0
 10
1101.4134760363
 20
38.9108243373
 30
0.0
 10
1102.0373822915
 20
38.9108243373
 30
0.0
 10
1102.7311639536
 20
38.9108243373
 30
0.0
 10
1103.2583699733
 20
38.5085827626
 30
0.0
 10
1103.2583699733
 20
37.7735824616
 30
0.0
 10
1103.2583699733
 20
37.010317951
 30
0.0
 10
1102.5371092186
 20
36.5802047252
 30
0.0
 10
1102.0100340517
 20
36.1644853098
 30
0.0
 10
1102.0100340517
 20
36.1644853098
 30
0.0
 10
1101.8433275565
 20
36.0540455281
 30
0.0
 10
1101.8433275565
 20
36.0540455281
 30
0.0
  0
SPLINE
  5
257
330
21A
100
AcDbEntity
  8
0
  6
Continuous
 62
     7
100
AcDbSpline
 70
     3
 71
     3
 72
    50
 73
    46
 74
     0
 42
0.000000001
 43
0.0000001
 40
0.0
 40
0.0
 40
0.0
 40
0.0
 40
1.0
 40
1.0
 40
1.0
 40
2.0
 40
2.0
 40
2.0
 40
3.0
 40
3.0
 40
3.0
 40
4.0
 40
4.0
 40
4.0
 40
5.0
 40
5.0
 40
5.0
 40
6.0
 40
6.0
 40
6.0
 40
7.0
 40
7.0
 40
7.0
 40
8.0
 40
8.0
 40
8.0
 40
9.0
 40
9.0
 40
9.0
 40
10.0
 40
10.0
 40
10.0
 40
11.0
 40
11.0
 40
11.0
 40
12.0
 40
12.0
 40
12.0
 40
13.0
 40
13.0
 40
13.0
 40
14.0
 40
14.0
 40
14.0
 40
15.0
 40
15.0
 40
15.0
 40
15.0
 10
1105.7969147194
 20
29.25545631
 30
0.0
 10
1105.7969147194
 20
29.25545631
 30
0.0
 10
1107.406142724
 20
29.25545631
 30
0.0
 10
1107.406142724
 20
29.25545631
 30
0.0
 10
1107.406142724
 20
29.25545631
 30
0.0
 10
1105.5331154303
 20
31.5725980814
 30
0.0
 10
1105.5331154303
 20
31.5725980814
 30
0.0
 10
1105.5331154303
 20
31.5725980814
 30
0.0
 10
1106.8094538558
 20
33.070077776
 30
0.0
 10
1106.8094538558
 20
33.070077776
 30
0.0
 10
1106.8094538558
 20
33.070077776
 30
0.0
 10
1105.9772299081
 20
33.9310893445
 30
0.0
 10
1105.9772299081
 20
33.9310893445
 30
0.0
 10
1105.9772299081
 20
33.9310893445
 30
0.0
 10
1104.7566347848
 20
32.5157852221
 30
0.0
 10
1104.7566347848
 20
32.5157852221
 30
0.0
 10
1104.7566347848
 20
32.5157852221
 30
0.0
 10
1102.578720416
 20
35.1511610565
 30
0.0
 10
1102.578720416
 20
35.1511610565
 30
0.0
 10
1103.4522938554
 20
35.7891994164
 30
0.0
 10
1104.4789650966
 20
36.5802047252
 30
0.0
 10
1104.4789650966
 20
37.7590577983
 30
0.0
 10
1104.4789650966
 20
39.1327507234
 30
0.0
 10
1103.3410689567
 20
39.9372338728
 30
0.0
 10
1102.0657773538
 20
39.9372338728
 30
0.0
 10
1100.6923461345
 20
39.9372338728
 30
0.0
 10
1099.6514119357
 20
39.0910086731
 30
0.0
 10
1099.6514119357
 20
37.648356311
 30
0.0
 10
1099.6514119357
 20
36.7607816195
 30
0.0
 10
1100.2067513122
 20
35.9839084155
 30
0.0
 10
1100.802916769
 20
35.3594787491
 30
0.0
 10
1100.802916769
 20
35.3594787491
 30
0.0
 10
1100.15100801
 20
34.8878851787
 30
0.0
 10
1100.15100801
 20
34.8878851787
 30
0.0
 10
1099.1524701256
 20
34.166624424
 30
0.0
 10
1098.3195919137
 20
33.4453636694
 30
0.0
 10
1098.3195919137
 20
32.113805353
 30
0.0
 10
1098.3195919137
 20
30.310130055
 30
0.0
 10
1099.7766380863
 20
29.0335299239
 30
0.0
 10
1101.5241775237
 20
29.0335299239
 30
0.0
 10
1102.7590356046
 20
29.0335299239
 30
0.0
 10
1103.8684058293
 20
29.7417053964
 30
0.0
 10
1104.6592802852
 20
30.6702370211
 30
0.0
 10
1104.6592802852
 20
30.6702370211
 30
0.0
 10
1105.7969147194
 20
29.25545631
 30
0.0
 10
1105.7969147194
 20
29.25545631
 30
0.0
  0
LINE
  5
258
330
21A
100
AcDbEntity
  8
0
  6
Continuous
 62
     7
100
AcDbLine
 10
1091.599776
 20
27.229331
 30
0.0
 11
1114.013687
 21
27.229331
 31
0.0
  0
LINE
  5
259
330
21A
100
AcDbEntity
  8
0
  6
Continuous
 62
     7
100
AcDbLine
 10
1114.013687
 20
27.229331
 30
0.0
 11
1114.013687
 21
49.643242
 31
0.0
  0
LINE
  5
25A
330
21A
100
AcDbEntity
  8
0
  6
Continuous
 62
     7
100
AcDbLine
 10
1114.013687
 20
49.643242
 30
0.0
 11
1091.599776
 21
49.643242
 31
0.0
  0
LINE
  5
25B
330
21A
100
AcDbEntity
  8
0
  6
Continuous
 62
     7
100
AcDbLine
 10
1091.599776
 20
49.643242
 30
0.0
 11
1091.599776
 21
27.229331
 31
0.0
  0
ENDBLK
  5
25C
330
21A
100
AcDbEntity
  8
0
  6
ByBlock
 62
     0
100
AcDbBlockEnd
  0
BLOCK
  5
2A2
330
21B
100
AcDbEntity
  8
0
100
AcDbBlockBegin
  2
*T9
 70
     1
 10
0.0
 20
0.0
 30
0.0
  3
*T9
  1
*T9
  0
LINE
  5
2A3
330
21B
100
AcDbEntity
  8
0
  6
Continuous
 62
     2
100
AcDbLine
 10
0.0
 20
0.0
 30
0.0
 11
90.0
 21
0.0
 31
0.0
  0
LINE
  5
2A4
330
21B
100
AcDbEntity
  8
0
  6
Continuous
 62
     2
100
AcDbLine
 10
0.0
 20
0.0
 30
0.0
 11
0.0
 21
-40.0
 31
0.0
  0
LINE
  5
2A5
330
21B
100
AcDbEntity
  8
0
  6
Continuous
 62
     2
100
AcDbLine
 10
30.0
 20
-6.0
 30
0.0
 11
90.0
 21
-6.0
 31
0.0
  0
LINE
  5
2A6
330
21B
100
AcDbEntity
  8
0
  6
Continuous
 62
     2
100
AcDbLine
 10
30.0
 20
-12.0
 30
0.0
 11
90.0
 21
-12.0
 31
0.0
  0
LINE
  5
2A7
330
21B
100
AcDbEntity
  8
0
  6
Continuous
 62
     2
100
AcDbLine
 10
30.0
 20
-22.0
 30
0.0
 11
90.0
 21
-22.0
 31
0.0
  0
LINE
  5
2A8
330
21B
100
AcDbEntity
  8
0
  6
Continuous
 62
     2
100
AcDbLine
 10
0.0
 20
-27.0
 30
0.0
 11
90.0
 21
-27.0
 31
0.0
  0
LINE
  5
2A9
330
21B
100
AcDbEntity
  8
0
  6
Continuous
 62
     2
100
AcDbLine
 10
0.0
 20
-40.0
 30
0.0
 11
90.0
 21
-40.0
 31
0.0
  0
LINE
  5
2AA
330
21B
100
AcDbEntity
  8
0
  6
Continuous
 62
     2
100
AcDbLine
 10
30.0
 20
0.0
 30
0.0
 11
30.0
 21
-27.0
 31
0.0
  0
LINE
  5
2AB
330
21B
100
AcDbEntity
  8
0
  6
Continuous
 62
     2
100
AcDbLine
 10
70.0
 20
0.0
 30
0.0
 11
70.0
 21
-12.0
 31
0.0
  0
LINE
  5
2AC
330
21B
100
AcDbEntity
  8
0
  6
Continuous
 62
     2
100
AcDbLine
 10
90.0
 20
0.0
 30
0.0
 11
90.0
 21
-40.0
 31
0.0
  0
MTEXT
  5
2AD
330
21B
100
AcDbEntity
  8
9_SOLID
  6
Continuous
 62
     2
100
AcDbMText
 10
31.4875
 20
-1.5
 30
0.0
 40
3.0
 41
42.571429
 46
0.0
 71
     1
 72
     1
  1
6E3_C_003
  7
TEXTSTYLE_2
 73
     1
 44
0.9
  0
MTEXT
  5
2AE
330
21B
100
AcDbEntity
  8
0
  6
Continuous
 62
     2
100
AcDbMText
 10
71.4875
 20
-1.75
 30
0.0
 40
3.5
 41
41.333333
 46
0.0
 71
     1
 72
     1
  1
Rev: 00 
  7
TEXTSTYLE_2
 73
     1
 44
0.9
  0
MTEXT
  5
2AF
330
21B
100
AcDbEntity
  8
9_SOLID
  6
Continuous
 62
     2
100
AcDbMText
 10
31.4875
 20
-7.75
 30
0.0
 40
3.5
 41
37.833333
 46
0.0
 71
     1
 72
     1
  1
Scale:1:1
  7
TEXTSTYLE_2
 73
     1
 44
0.9
  0
MTEXT
  5
2B0
330
21B
100
AcDbEntity
  8
9_SOLID
  6
Continuous
 62
     2
100
AcDbMText
 10
71.4875
 20
-7.25
 30
0.0
 40
3.5
 41
12.833333
 46
0.0
 71
     1
 72
     1
  1
A0
  7
TEXTSTYLE_2
 73
     1
 44
0.9
  0
MTEXT
  5
2B1
330
21B
100
AcDbEntity
  8
0
  6
Continuous
 62
     2
100
AcDbMText
 10
31.4875
 20
-15.85
 30
0.0
 40
2.3
 41
113.138095
 46
0.0
 71
     1
 72
     1
  1
CASSAFORMA MURATURA BITPOP 8.1 
  7
TEXTSTYLE_2
 73
     1
 44
0.9
  0
MTEXT
  5
2B2
330
21B
100
AcDbEntity
  8
0
  6
Continuous
 62
     2
100
AcDbMText
 10
31.4875
 20
-23.25
 30
0.0
 40
2.5
 41
61.309524
 46
0.0
 71
     1
 72
     1
  1
DATE: 06/07/2018
  7
TEXTSTYLE_2
 73
     1
 44
0.9
  0
MTEXT
  5
2B3
330
21B
100
AcDbEntity
  8
9_SOLID
  6
Continuous
 62
     2
100
AcDbMText
 10
1.4875
 20
-27.3125
 30
0.0
 40
2.25
 41
179.464286
 46
0.0
 71
     1
 72
     1
  1
Any integral or partial reproductions are prohibited \Pwithout prior authorisation of L {\Ftxt.shx;\W0.190476;\H2.250000; }& L Luce & Light s.r.l., \Pin accordance with the law in force. \PAll rights reserved.
  7
TEXTSTYLE_2
 73
     1
 44
0.9
  0
ENDBLK
  5
2B4
330
21B
100
AcDbEntity
  8
0
  6
ByBlock
 62
     0
100
AcDbBlockEnd
  0
ENDSEC
  0
SECTION
  2
ENTITIES
  0
LINE
  5
2B5
330
210
100
AcDbEntity
  8
0
  6
Continuous
 62
     7
100
AcDbLine
 10
1189.0
 20
0.0
 30
0.0
 11
1189.0
 21
841.0
 31
0.0
  0
LINE
  5
2B6
330
210
100
AcDbEntity
  8
0
  6
Continuous
 62
     7
100
AcDbLine
 10
0.0
 20
841.0
 30
0.0
 11
1189.0
 21
841.0
 31
0.0
  0
LINE
  5
2B7
330
210
100
AcDbEntity
  8
0
  6
Continuous
 62
     7
100
AcDbLine
 10
0.0
 20
0.0
 30
0.0
 11
0.0
 21
841.0
 31
0.0
  0
LINE
  5
2B8
330
210
100
AcDbEntity
  8
0
  6
Continuous
 62
     7
100
AcDbLine
 10
0.0
 20
0.0
 30
0.0
 11
1189.0
 21
0.0
 31
0.0
  0
ARC
  5
2B9
330
210
100
AcDbEntity
  8
3_ALL_AXES
  6
Continuous
 62
     7
100
AcDbCircle
 10
321.334507
 20
330.23736
 30
0.0
 40
2.9
100
AcDbArc
 50
180.0
 51
360.0
  0
ARC
  5
2BA
330
210
100
AcDbEntity
  8
3_ALL_AXES
  6
Continuous
 62
     7
100
AcDbCircle
 10
321.334507
 20
330.23736
 30
0.0
 40
2.9
100
AcDbArc
 50
0.0
 51
180.0
  0
ARC
  5
2BB
330
210
100
AcDbEntity
  8
3_ALL_AXES
  6
Continuous
 62
     7
100
AcDbCircle
 10
321.334507
 20
255.23736
 30
0.0
 40
2.9
100
AcDbArc
 50
180.0
 51
360.0
  0
ARC
  5
2BC
330
210
100
AcDbEntity
  8
3_ALL_AXES
  6
Continuous
 62
     7
100
AcDbCircle
 10
321.334507
 20
255.23736
 30
0.0
 40
2.9
100
AcDbArc
 50
0.0
 51
180.0
  0
ARC
  5
2BD
330
210
100
AcDbEntity
  8
3_ALL_AXES
  6
Continuous
 62
     7
100
AcDbCircle
 10
471.334507
 20
255.23736
 30
0.0
 40
2.9
100
AcDbArc
 50
180.0
 51
360.0
  0
ARC
  5
2BE
330
210
100
AcDbEntity
  8
3_ALL_AXES
  6
Continuous
 62
     7
100
AcDbCircle
 10
471.334507
 20
255.23736
 30
0.0
 40
2.9
100
AcDbArc
 50
0.0
 51
180.0
  0
ARC
  5
2BF
330
210
100
AcDbEntity
  8
3_ALL_AXES
  6
Continuous
 62
     7
100
AcDbCircle
 10
471.334507
 20
330.23736
 30
0.0
 40
2.9
100
AcDbArc
 50
180.0
 51
360.0
  0
ARC
  5
2C0
330
210
100
AcDbEntity
  8
3_ALL_AXES
  6
Continuous
 62
     7
100
AcDbCircle
 10
471.334507
 20
330.23736
 30
0.0
 40
2.9
100
AcDbArc
 50
0.0
 51
180.0
  0
LINE
  5
2C1
330
210
100
AcDbEntity
  8
7_ALL_FEATURES
  6
Continuous
 62
     7
100
AcDbLine
 10
235.584507
 20
273.23736
 30
0.0
 11
235.584507
 21
312.23736
 31
0.0
  0
LINE
  5
2C2
330
210
100
AcDbEntity
  8
7_ALL_FEATURES
  6
Continuous
 62
     7
100
AcDbLine
 10
237.084507
 20
313.73736
 30
0.0
 11
557.084507
 21
313.73736
 31
0.0
  0
LINE
  5
2C3
330
210
100
AcDbEntity
  8
7_ALL_FEATURES
  6
Continuous
 62
     7
100
AcDbLine
 10
555.584507
 20
271.73736
 30
0.0
 11
237.084507
 21
271.73736
 31
0.0
  0
LINE
  5
2C4
330
210
100
AcDbEntity
  8
7_ALL_FEATURES
  6
Continuous
 62
     7
100
AcDbLine
 10
557.084507
 20
314.73736
 30
0.0
 11
557.084507
 21
313.73736
 31
0.0
  0
ARC
  5
2C5
330
210
100
AcDbEntity
  8
7_ALL_FEATURES
  6
Continuous
 62
     7
100
AcDbCircle
 10
237.084507
 20
273.23736
 30
0.0
 40
1.5
100
AcDbArc
 50
180.0
 51
270.0
  0
ARC
  5
2C6
330
210
100
AcDbEntity
  8
7_ALL_FEATURES
  6
Continuous
 62
     7
100
AcDbCircle
 10
555.584507
 20
273.23736
 30
0.0
 40
1.5
100
AcDbArc
 50
270.0
 51
360.0
  0
LINE
  5
2C7
330
210
100
AcDbEntity
  8
7_ALL_FEATURES
  6
Continuous
 62
     7
100
AcDbLine
 10
558.084507
 20
314.73736
 30
0.0
 11
557.084507
 21
314.73736
 31
0.0
  0
LINE
  5
2C8
330
210
100
AcDbEntity
  8
7_ALL_FEATURES
  6
Continuous
 62
     7
100
AcDbLine
 10
557.084507
 20
314.73736
 30
0.0
 11
557.084507
 21
313.73736
 31
0.0
  0
LINE
  5
2C9
330
210
100
AcDbEntity
  8
7_ALL_FEATURES
  6
Continuous
 62
     7
100
AcDbLine
 10
557.084507
 20
313.73736
 30
0.0
 11
557.084507
 21
273.23736
 31
0.0
  0
ARC
  5
2CA
330
210
100
AcDbEntity
  8
7_ALL_FEATURES
  6
Continuous
 62
     7
100
AcDbCircle
 10
237.084507
 20
312.23736
 30
0.0
 40
1.5
100
AcDbArc
 50
90.0
 51
180.0
  0
LINE
  5
2CB
330
210
100
AcDbEntity
  8
7_ALL_FEATURES
  6
Continuous
 62
     9
100
AcDbLine
 10
237.084507
 20
314.73736
 30
0.0
 11
237.084507
 21
313.73736
 31
0.0
  0
LINE
  5
2CC
330
210
100
AcDbEntity
  8
7_ALL_FEATURES
  6
Continuous
 62
     9
100
AcDbLine
 10
234.584507
 20
273.23736
 30
0.0
 11
235.584507
 21
273.23736
 31
0.0
  0
LINE
  5
2CD
330
210
100
AcDbEntity
  8
7_ALL_FEATURES
  6
Continuous
 62
     9
100
AcDbLine
 10
555.584507
 20
270.73736
 30
0.0
 11
555.584507
 21
271.73736
 31
0.0
  0
LINE
  5
2CE
330
210
100
AcDbEntity
  8
7_ALL_FEATURES
  6
Continuous
 62
     9
100
AcDbLine
 10
237.084507
 20
270.73736
 30
0.0
 11
237.084507
 21
271.73736
 31
0.0
  0
LINE
  5
2CF
330
210
100
AcDbEntity
  8
7_ALL_FEATURES
  6
Continuous
 62
     9
100
AcDbLine
 10
558.084507
 20
273.23736
 30
0.0
 11
557.084507
 21
273.23736
 31
0.0
  0
LINE
  5
2D0
330
210
100
AcDbEntity
  8
7_ALL_FEATURES
  6
Continuous
 62
     9
100
AcDbLine
 10
234.584507
 20
312.23736
 30
0.0
 11
235.584507
 21
312.23736
 31
0.0
  0
LINE
  5
2D1
330
210
100
AcDbEntity
  8
7_ALL_FEATURES
  6
Continuous
 62
     7
100
AcDbLine
 10
168.334507
 20
414.23736
 30
0.0
 11
168.334507
 21
413.23736
 31
0.0
  0
LINE
  5
2D2
330
210
100
AcDbEntity
  8
7_ALL_FEATURES
  6
Continuous
 62
     7
100
AcDbLine
 10
163.334507
 20
414.23736
 30
0.0
 11
163.334507
 21
413.23736
 31
0.0
  0
LINE
  5
2D3
330
210
100
AcDbEntity
  8
7_ALL_FEATURES
  6
Continuous
 62
     7
100
AcDbLine
 10
629.334507
 20
414.23736
 30
0.0
 11
629.334507
 21
413.23736
 31
0.0
  0
LINE
  5
2D4
330
210
100
AcDbEntity
  8
7_ALL_FEATURES
  6
Continuous
 62
     7
100
AcDbLine
 10
624.334507
 20
414.23736
 30
0.0
 11
624.334507
 21
413.23736
 31
0.0
  0
LINE
  5
2D5
330
210
100
AcDbEntity
  8
7_ALL_FEATURES
  6
Continuous
 62
     7
100
AcDbLine
 10
163.334507
 20
171.23736
 30
0.0
 11
163.334507
 21
172.23736
 31
0.0
  0
LINE
  5
2D6
330
210
100
AcDbEntity
  8
7_ALL_FEATURES
  6
Continuous
 62
     7
100
AcDbLine
 10
168.334507
 20
171.23736
 30
0.0
 11
168.334507
 21
172.23736
 31
0.0
  0
LINE
  5
2D7
330
210
100
AcDbEntity
  8
7_ALL_FEATURES
  6
Continuous
 62
     7
100
AcDbLine
 10
231.334507
 20
173.23736
 30
0.0
 11
231.334507
 21
172.48736
 31
0.0
  0
LINE
  5
2D8
330
210
100
AcDbEntity
  8
7_ALL_FEATURES
  6
Continuous
 62
     7
100
AcDbLine
 10
231.334507
 20
172.48736
 30
0.0
 11
231.334507
 21
171.823147
 31
0.0
  0
LINE
  5
2D9
330
210
100
AcDbEntity
  8
7_ALL_FEATURES
  6
Continuous
 62
     7
100
AcDbLine
 10
231.334507
 20
171.823147
 30
0.0
 11
231.334507
 21
171.23736
 31
0.0
  0
LINE
  5
2DA
330
210
100
AcDbEntity
  8
7_ALL_FEATURES
  6
Continuous
 62
     7
100
AcDbLine
 10
231.334507
 20
171.23736
 30
0.0
 11
261.334507
 21
171.23736
 31
0.0
  0
LINE
  5
2DB
330
210
100
AcDbEntity
  8
7_ALL_FEATURES
  6
Continuous
 62
     7
100
AcDbLine
 10
261.334507
 20
173.23736
 30
0.0
 11
261.334507
 21
172.48736
 31
0.0
  0
LINE
  5
2DC
330
210
100
AcDbEntity
  8
7_ALL_FEATURES
  6
Continuous
 62
     7
100
AcDbLine
 10
261.334507
 20
172.48736
 30
0.0
 11
261.334507
 21
172.23736
 31
0.0
  0
LINE
  5
2DD
330
210
100
AcDbEntity
  8
7_ALL_FEATURES
  6
Continuous
 62
     7
100
AcDbLine
 10
261.334507
 20
172.23736
 30
0.0
 11
261.334507
 21
171.823147
 31
0.0
  0
LINE
  5
2DE
330
210
100
AcDbEntity
  8
7_ALL_FEATURES
  6
Continuous
 62
     7
100
AcDbLine
 10
261.334507
 20
171.823147
 30
0.0
 11
261.334507
 21
171.23736
 31
0.0
  0
LINE
  5
2DF
330
210
100
AcDbEntity
  8
7_ALL_FEATURES
  6
Continuous
 62
     7
100
AcDbLine
 10
231.334507
 20
196.23736
 30
0.0
 11
231.334507
 21
173.23736
 31
0.0
  0
LINE
  5
2E0
330
210
100
AcDbEntity
  8
7_ALL_FEATURES
  6
Continuous
 62
     7
100
AcDbLine
 10
261.334507
 20
173.23736
 30
0.0
 11
261.334507
 21
196.23736
 31
0.0
  0
ARC
  5
2E1
330
210
100
AcDbEntity
  8
7_ALL_FEATURES
  6
Continuous
 62
     7
100
AcDbCircle
 10
251.334507
 20
196.23736
 30
0.0
 40
10.0
100
AcDbArc
 50
0.0
 51
90.0
  0
LINE
  5
2E2
330
210
100
AcDbEntity
  8
7_ALL_FEATURES
  6
Continuous
 62
     7
100
AcDbLine
 10
251.334507
 20
206.23736
 30
0.0
 11
241.334507
 21
206.23736
 31
0.0
  0
ARC
  5
2E3
330
210
100
AcDbEntity
  8
7_ALL_FEATURES
  6
Continuous
 62
     7
100
AcDbCircle
 10
241.334507
 20
196.23736
 30
0.0
 40
10.0
100
AcDbArc
 50
90.0
 51
180.0
  0
LINE
  5
2E4
330
210
100
AcDbEntity
  8
7_ALL_FEATURES
  6
Continuous
 62
     7
100
AcDbLine
 10
261.334507
 20
412.23736
 30
0.0
 11
261.334507
 21
412.98736
 31
0.0
  0
LINE
  5
2E5
330
210
100
AcDbEntity
  8
7_ALL_FEATURES
  6
Continuous
 62
     7
100
AcDbLine
 10
261.334507
 20
412.98736
 30
0.0
 11
261.334507
 21
413.651574
 31
0.0
  0
LINE
  5
2E6
330
210
100
AcDbEntity
  8
7_ALL_FEATURES
  6
Continuous
 62
     7
100
AcDbLine
 10
261.334507
 20
413.651574
 30
0.0
 11
261.334507
 21
414.23736
 31
0.0
  0
LINE
  5
2E7
330
210
100
AcDbEntity
  8
7_ALL_FEATURES
  6
Continuous
 62
     7
100
AcDbLine
 10
231.334507
 20
414.23736
 30
0.0
 11
261.334507
 21
414.23736
 31
0.0
  0
LINE
  5
2E8
330
210
100
AcDbEntity
  8
7_ALL_FEATURES
  6
Continuous
 62
     7
100
AcDbLine
 10
231.334507
 20
412.23736
 30
0.0
 11
231.334507
 21
412.98736
 31
0.0
  0
LINE
  5
2E9
330
210
100
AcDbEntity
  8
7_ALL_FEATURES
  6
Continuous
 62
     7
100
AcDbLine
 10
231.334507
 20
412.98736
 30
0.0
 11
231.334507
 21
413.23736
 31
0.0
  0
LINE
  5
2EA
330
210
100
AcDbEntity
  8
7_ALL_FEATURES
  6
Continuous
 62
     7
100
AcDbLine
 10
231.334507
 20
413.23736
 30
0.0
 11
231.334507
 21
413.651574
 31
0.0
  0
LINE
  5
2EB
330
210
100
AcDbEntity
  8
7_ALL_FEATURES
  6
Continuous
 62
     7
100
AcDbLine
 10
231.334507
 20
413.651574
 30
0.0
 11
231.334507
 21
414.23736
 31
0.0
  0
LINE
  5
2EC
330
210
100
AcDbEntity
  8
7_ALL_FEATURES
  6
Continuous
 62
     7
100
AcDbLine
 10
251.334507
 20
379.23736
 30
0.0
 11
241.334507
 21
379.23736
 31
0.0
  0
ARC
  5
2ED
330
210
100
AcDbEntity
  8
7_ALL_FEATURES
  6
Continuous
 62
     7
100
AcDbCircle
 10
251.334507
 20
389.23736
 30
0.0
 40
10.0
100
AcDbArc
 50
270.0
 51
360.0
  0
LINE
  5
2EE
330
210
100
AcDbEntity
  8
7_ALL_FEATURES
  6
Continuous
 62
     7
100
AcDbLine
 10
261.334507
 20
412.23736
 30
0.0
 11
261.334507
 21
389.23736
 31
0.0
  0
LINE
  5
2EF
330
210
100
AcDbEntity
  8
7_ALL_FEATURES
  6
Continuous
 62
     7
100
AcDbLine
 10
231.334507
 20
389.23736
 30
0.0
 11
231.334507
 21
412.23736
 31
0.0
  0
ARC
  5
2F0
330
210
100
AcDbEntity
  8
7_ALL_FEATURES
  6
Continuous
 62
     7
100
AcDbCircle
 10
241.334507
 20
389.23736
 30
0.0
 40
10.0
100
AcDbArc
 50
180.0
 51
270.0
  0
LINE
  5
2F1
330
210
100
AcDbEntity
  8
7_ALL_FEATURES
  6
Continuous
 62
     7
100
AcDbLine
 10
624.334507
 20
171.23736
 30
0.0
 11
624.334507
 21
172.23736
 31
0.0
  0
LINE
  5
2F2
330
210
100
AcDbEntity
  8
7_ALL_FEATURES
  6
Continuous
 62
     7
100
AcDbLine
 10
629.334507
 20
171.23736
 30
0.0
 11
629.334507
 21
172.23736
 31
0.0
  0
LINE
  5
2F3
330
210
100
AcDbEntity
  8
7_ALL_FEATURES
  6
Continuous
 62
     7
100
AcDbLine
 10
531.334507
 20
173.23736
 30
0.0
 11
531.334507
 21
172.48736
 31
0.0
  0
LINE
  5
2F4
330
210
100
AcDbEntity
  8
7_ALL_FEATURES
  6
Continuous
 62
     7
100
AcDbLine
 10
531.334507
 20
172.48736
 30
0.0
 11
531.334507
 21
171.823147
 31
0.0
  0
LINE
  5
2F5
330
210
100
AcDbEntity
  8
7_ALL_FEATURES
  6
Continuous
 62
     7
100
AcDbLine
 10
531.334507
 20
171.823147
 30
0.0
 11
531.334507
 21
171.23736
 31
0.0
  0
LINE
  5
2F6
330
210
100
AcDbEntity
  8
7_ALL_FEATURES
  6
Continuous
 62
     7
100
AcDbLine
 10
561.334507
 20
171.23736
 30
0.0
 11
531.334507
 21
171.23736
 31
0.0
  0
LINE
  5
2F7
330
210
100
AcDbEntity
  8
7_ALL_FEATURES
  6
Continuous
 62
     7
100
AcDbLine
 10
561.334507
 20
173.23736
 30
0.0
 11
561.334507
 21
172.48736
 31
0.0
  0
LINE
  5
2F8
330
210
100
AcDbEntity
  8
7_ALL_FEATURES
  6
Continuous
 62
     7
100
AcDbLine
 10
561.334507
 20
172.48736
 30
0.0
 11
561.334507
 21
172.23736
 31
0.0
  0
LINE
  5
2F9
330
210
100
AcDbEntity
  8
7_ALL_FEATURES
  6
Continuous
 62
     7
100
AcDbLine
 10
561.334507
 20
172.23736
 30
0.0
 11
561.334507
 21
171.823147
 31
0.0
  0
LINE
  5
2FA
330
210
100
AcDbEntity
  8
7_ALL_FEATURES
  6
Continuous
 62
     7
100
AcDbLine
 10
561.334507
 20
171.823147
 30
0.0
 11
561.334507
 21
171.23736
 31
0.0
  0
LINE
  5
2FB
330
210
100
AcDbEntity
  8
7_ALL_FEATURES
  6
Continuous
 62
     7
100
AcDbLine
 10
531.334507
 20
173.23736
 30
0.0
 11
531.334507
 21
196.23736
 31
0.0
  0
LINE
  5
2FC
330
210
100
AcDbEntity
  8
7_ALL_FEATURES
  6
Continuous
 62
     7
100
AcDbLine
 10
561.334507
 20
196.23736
 30
0.0
 11
561.334507
 21
173.23736
 31
0.0
  0
ARC
  5
2FD
330
210
100
AcDbEntity
  8
7_ALL_FEATURES
  6
Continuous
 62
     7
100
AcDbCircle
 10
551.334507
 20
196.23736
 30
0.0
 40
10.0
100
AcDbArc
 50
0.0
 51
90.0
  0
LINE
  5
2FE
330
210
100
AcDbEntity
  8
7_ALL_FEATURES
  6
Continuous
 62
     7
100
AcDbLine
 10
541.334507
 20
206.23736
 30
0.0
 11
551.334507
 21
206.23736
 31
0.0
  0
ARC
  5
2FF
330
210
100
AcDbEntity
  8
7_ALL_FEATURES
  6
Continuous
 62
     7
100
AcDbCircle
 10
541.334507
 20
196.23736
 30
0.0
 40
10.0
100
AcDbArc
 50
90.0
 51
180.0
  0
LINE
  5
300
330
210
100
AcDbEntity
  8
7_ALL_FEATURES
  6
Continuous
 62
     7
100
AcDbLine
 10
561.334507
 20
412.23736
 30
0.0
 11
561.334507
 21
412.98736
 31
0.0
  0
LINE
  5
301
330
210
100
AcDbEntity
  8
7_ALL_FEATURES
  6
Continuous
 62
     7
100
AcDbLine
 10
561.334507
 20
412.98736
 30
0.0
 11
561.334507
 21
413.23736
 31
0.0
  0
LINE
  5
302
330
210
100
AcDbEntity
  8
7_ALL_FEATURES
  6
Continuous
 62
     7
100
AcDbLine
 10
561.334507
 20
413.23736
 30
0.0
 11
561.334507
 21
413.651574
 31
0.0
  0
LINE
  5
303
330
210
100
AcDbEntity
  8
7_ALL_FEATURES
  6
Continuous
 62
     7
100
AcDbLine
 10
561.334507
 20
413.651574
 30
0.0
 11
561.334507
 21
414.23736
 31
0.0
  0
LINE
  5
304
330
210
100
AcDbEntity
  8
7_ALL_FEATURES
  6
Continuous
 62
     7
100
AcDbLine
 10
561.334507
 20
414.23736
 30
0.0
 11
531.334507
 21
414.23736
 31
0.0
  0
LINE
  5
305
330
210
100
AcDbEntity
  8
7_ALL_FEATURES
  6
Continuous
 62
     7
100
AcDbLine
 10
531.334507
 20
412.23736
 30
0.0
 11
531.334507
 21
412.98736
 31
0.0
  0
LINE
  5
306
330
210
100
AcDbEntity
  8
7_ALL_FEATURES
  6
Continuous
 62
     7
100
AcDbLine
 10
531.334507
 20
412.98736
 30
0.0
 11
531.334507
 21
413.23736
 31
0.0
  0
LINE
  5
307
330
210
100
AcDbEntity
  8
7_ALL_FEATURES
  6
Continuous
 62
     7
100
AcDbLine
 10
531.334507
 20
413.23736
 30
0.0
 11
531.334507
 21
413.651574
 31
0.0
  0
LINE
  5
308
330
210
100
AcDbEntity
  8
7_ALL_FEATURES
  6
Continuous
 62
     7
100
AcDbLine
 10
531.334507
 20
413.651574
 30
0.0
 11
531.334507
 21
414.23736
 31
0.0
  0
LINE
  5
309
330
210
100
AcDbEntity
  8
7_ALL_FEATURES
  6
Continuous
 62
     7
100
AcDbLine
 10
541.334507
 20
379.23736
 30
0.0
 11
551.334507
 21
379.23736
 31
0.0
  0
ARC
  5
30A
330
210
100
AcDbEntity
  8
7_ALL_FEATURES
  6
Continuous
 62
     7
100
AcDbCircle
 10
551.334507
 20
389.23736
 30
0.0
 40
10.0
100
AcDbArc
 50
270.0
 51
360.0
  0
LINE
  5
30B
330
210
100
AcDbEntity
  8
7_ALL_FEATURES
  6
Continuous
 62
     7
100
AcDbLine
 10
561.334507
 20
389.23736
 30
0.0
 11
561.334507
 21
412.23736
 31
0.0
  0
LINE
  5
30C
330
210
100
AcDbEntity
  8
7_ALL_FEATURES
  6
Continuous
 62
     7
100
AcDbLine
 10
531.334507
 20
412.23736
 30
0.0
 11
531.334507
 21
389.23736
 31
0.0
  0
ARC
  5
30D
330
210
100
AcDbEntity
  8
7_ALL_FEATURES
  6
Continuous
 62
     7
100
AcDbCircle
 10
541.334507
 20
389.23736
 30
0.0
 40
10.0
100
AcDbArc
 50
180.0
 51
270.0
  0
LINE
  5
30E
330
210
100
AcDbEntity
  8
7_ALL_FEATURES
  6
Continuous
 62
     7
100
AcDbLine
 10
621.334507
 20
171.23736
 30
0.0
 11
622.334507
 21
171.23736
 31
0.0
  0
LINE
  5
30F
330
210
100
AcDbEntity
  8
7_ALL_FEATURES
  6
Continuous
 62
     7
100
AcDbLine
 10
623.334507
 20
171.23736
 30
0.0
 11
624.334507
 21
171.23736
 31
0.0
  0
LINE
  5
310
330
210
100
AcDbEntity
  8
7_ALL_FEATURES
  6
Continuous
 62
     7
100
AcDbLine
 10
562.334507
 20
171.23736
 30
0.0
 11
561.334507
 21
171.23736
 31
0.0
  0
LINE
  5
311
330
210
100
AcDbEntity
  8
7_ALL_FEATURES
  6
Continuous
 62
     7
100
AcDbLine
 10
531.334507
 20
171.23736
 30
0.0
 11
530.334507
 21
171.23736
 31
0.0
  0
LINE
  5
312
330
210
100
AcDbEntity
  8
7_ALL_FEATURES
  6
Continuous
 62
     7
100
AcDbLine
 10
262.334507
 20
171.23736
 30
0.0
 11
261.334507
 21
171.23736
 31
0.0
  0
LINE
  5
313
330
210
100
AcDbEntity
  8
7_ALL_FEATURES
  6
Continuous
 62
     7
100
AcDbLine
 10
231.334507
 20
171.23736
 30
0.0
 11
230.334507
 21
171.23736
 31
0.0
  0
LINE
  5
314
330
210
100
AcDbEntity
  8
7_ALL_FEATURES
  6
Continuous
 62
     7
100
AcDbLine
 10
171.334507
 20
171.23736
 30
0.0
 11
170.334507
 21
171.23736
 31
0.0
  0
LINE
  5
315
330
210
100
AcDbEntity
  8
7_ALL_FEATURES
  6
Continuous
 62
     7
100
AcDbLine
 10
169.334507
 20
171.23736
 30
0.0
 11
168.334507
 21
171.23736
 31
0.0
  0
LINE
  5
316
330
210
100
AcDbEntity
  8
7_ALL_FEATURES
  6
Continuous
 62
     7
100
AcDbLine
 10
168.334507
 20
171.23736
 30
0.0
 11
167.334507
 21
171.23736
 31
0.0
  0
LINE
  5
317
330
210
100
AcDbEntity
  8
7_ALL_FEATURES
  6
Continuous
 62
     7
100
AcDbLine
 10
167.334507
 20
171.23736
 30
0.0
 11
165.334507
 21
171.23736
 31
0.0
  0
LINE
  5
318
330
210
100
AcDbEntity
  8
7_ALL_FEATURES
  6
Continuous
 62
     7
100
AcDbLine
 10
165.334507
 20
171.23736
 30
0.0
 11
163.334507
 21
171.23736
 31
0.0
  0
LINE
  5
319
330
210
100
AcDbEntity
  8
7_ALL_FEATURES
  6
Continuous
 62
     7
100
AcDbLine
 10
629.334507
 20
171.23736
 30
0.0
 11
627.334507
 21
171.23736
 31
0.0
  0
LINE
  5
31A
330
210
100
AcDbEntity
  8
7_ALL_FEATURES
  6
Continuous
 62
     7
100
AcDbLine
 10
625.334507
 20
171.23736
 30
0.0
 11
627.334507
 21
171.23736
 31
0.0
  0
LINE
  5
31B
330
210
100
AcDbEntity
  8
7_ALL_FEATURES
  6
Continuous
 62
     7
100
AcDbLine
 10
625.334507
 20
171.23736
 30
0.0
 11
624.334507
 21
171.23736
 31
0.0
  0
LINE
  5
31C
330
210
100
AcDbEntity
  8
7_ALL_FEATURES
  6
Continuous
 62
     7
100
AcDbLine
 10
624.334507
 20
414.23736
 30
0.0
 11
625.334507
 21
414.23736
 31
0.0
  0
LINE
  5
31D
330
210
100
AcDbEntity
  8
7_ALL_FEATURES
  6
Continuous
 62
     7
100
AcDbLine
 10
621.334507
 20
414.23736
 30
0.0
 11
622.334507
 21
414.23736
 31
0.0
  0
LINE
  5
31E
330
210
100
AcDbEntity
  8
7_ALL_FEATURES
  6
Continuous
 62
     7
100
AcDbLine
 10
623.334507
 20
414.23736
 30
0.0
 11
624.334507
 21
414.23736
 31
0.0
  0
LINE
  5
31F
330
210
100
AcDbEntity
  8
7_ALL_FEATURES
  6
Continuous
 62
     7
100
AcDbLine
 10
561.334507
 20
414.23736
 30
0.0
 11
562.334507
 21
414.23736
 31
0.0
  0
LINE
  5
320
330
210
100
AcDbEntity
  8
7_ALL_FEATURES
  6
Continuous
 62
     7
100
AcDbLine
 10
261.334507
 20
414.23736
 30
0.0
 11
262.334507
 21
414.23736
 31
0.0
  0
LINE
  5
321
330
210
100
AcDbEntity
  8
7_ALL_FEATURES
  6
Continuous
 62
     7
100
AcDbLine
 10
530.334507
 20
414.23736
 30
0.0
 11
531.334507
 21
414.23736
 31
0.0
  0
LINE
  5
322
330
210
100
AcDbEntity
  8
7_ALL_FEATURES
  6
Continuous
 62
     7
100
AcDbLine
 10
230.334507
 20
414.23736
 30
0.0
 11
231.334507
 21
414.23736
 31
0.0
  0
LINE
  5
323
330
210
100
AcDbEntity
  8
7_ALL_FEATURES
  6
Continuous
 62
     7
100
AcDbLine
 10
171.334507
 20
414.23736
 30
0.0
 11
170.334507
 21
414.23736
 31
0.0
  0
LINE
  5
324
330
210
100
AcDbEntity
  8
7_ALL_FEATURES
  6
Continuous
 62
     7
100
AcDbLine
 10
169.334507
 20
414.23736
 30
0.0
 11
168.334507
 21
414.23736
 31
0.0
  0
LINE
  5
325
330
210
100
AcDbEntity
  8
7_ALL_FEATURES
  6
Continuous
 62
     7
100
AcDbLine
 10
167.334507
 20
414.23736
 30
0.0
 11
168.334507
 21
414.23736
 31
0.0
  0
LINE
  5
326
330
210
100
AcDbEntity
  8
7_ALL_FEATURES
  6
Continuous
 62
     7
100
AcDbLine
 10
167.334507
 20
414.23736
 30
0.0
 11
165.334507
 21
414.23736
 31
0.0
  0
LINE
  5
327
330
210
100
AcDbEntity
  8
7_ALL_FEATURES
  6
Continuous
 62
     7
100
AcDbLine
 10
163.334507
 20
414.23736
 30
0.0
 11
165.334507
 21
414.23736
 31
0.0
  0
LINE
  5
328
330
210
100
AcDbEntity
  8
7_ALL_FEATURES
  6
Continuous
 62
     7
100
AcDbLine
 10
625.334507
 20
414.23736
 30
0.0
 11
627.334507
 21
414.23736
 31
0.0
  0
LINE
  5
329
330
210
100
AcDbEntity
  8
7_ALL_FEATURES
  6
Continuous
 62
     7
100
AcDbLine
 10
627.334507
 20
414.23736
 30
0.0
 11
629.334507
 21
414.23736
 31
0.0
  0
LINE
  5
32A
330
210
100
AcDbEntity
  8
7_ALL_FEATURES
  6
Continuous
 62
     9
100
AcDbLine
 10
165.334507
 20
414.23736
 30
0.0
 11
165.334507
 21
413.23736
 31
0.0
  0
LINE
  5
32B
330
210
100
AcDbEntity
  8
7_ALL_FEATURES
  6
Continuous
 62
     9
100
AcDbLine
 10
561.334507
 20
412.23736
 30
0.0
 11
531.334507
 21
412.23736
 31
0.0
  0
LINE
  5
32C
330
210
100
AcDbEntity
  8
7_ALL_FEATURES
  6
Continuous
 62
     9
100
AcDbLine
 10
231.334507
 20
173.23736
 30
0.0
 11
261.334507
 21
173.23736
 31
0.0
  0
LINE
  5
32D
330
210
100
AcDbEntity
  8
7_ALL_FEATURES
  6
Continuous
 62
     9
100
AcDbLine
 10
165.334507
 20
171.23736
 30
0.0
 11
165.334507
 21
172.23736
 31
0.0
  0
LINE
  5
32E
330
210
100
AcDbEntity
  8
7_ALL_FEATURES
  6
Continuous
 62
     9
100
AcDbLine
 10
167.334507
 20
171.23736
 30
0.0
 11
167.334507
 21
172.23736
 31
0.0
  0
LINE
  5
32F
330
210
100
AcDbEntity
  8
7_ALL_FEATURES
  6
Continuous
 62
     9
100
AcDbLine
 10
627.334507
 20
414.23736
 30
0.0
 11
627.334507
 21
413.23736
 31
0.0
  0
LINE
  5
330
330
210
100
AcDbEntity
  8
7_ALL_FEATURES
  6
Continuous
 62
     9
100
AcDbLine
 10
625.334507
 20
414.23736
 30
0.0
 11
625.334507
 21
413.23736
 31
0.0
  0
LINE
  5
331
330
210
100
AcDbEntity
  8
7_ALL_FEATURES
  6
Continuous
 62
     9
100
AcDbLine
 10
627.334507
 20
171.23736
 30
0.0
 11
627.334507
 21
172.23736
 31
0.0
  0
LINE
  5
332
330
210
100
AcDbEntity
  8
7_ALL_FEATURES
  6
Continuous
 62
     9
100
AcDbLine
 10
625.334507
 20
171.23736
 30
0.0
 11
625.334507
 21
172.23736
 31
0.0
  0
LINE
  5
333
330
210
100
AcDbEntity
  8
7_ALL_FEATURES
  6
Continuous
 62
     9
100
AcDbLine
 10
561.334507
 20
173.23736
 30
0.0
 11
531.334507
 21
173.23736
 31
0.0
  0
LINE
  5
334
330
210
100
AcDbEntity
  8
7_ALL_FEATURES
  6
Continuous
 62
     9
100
AcDbLine
 10
167.334507
 20
414.23736
 30
0.0
 11
167.334507
 21
413.23736
 31
0.0
  0
LINE
  5
335
330
210
100
AcDbEntity
  8
7_ALL_FEATURES
  6
Continuous
 62
     9
100
AcDbLine
 10
231.334507
 20
412.23736
 30
0.0
 11
261.334507
 21
412.23736
 31
0.0
  0
LINE
  5
336
330
210
100
AcDbEntity
  8
7_ALL_FEATURES
  6
Continuous
 62
     7
100
AcDbLine
 10
622.334507
 20
164.73736
 30
0.0
 11
623.334507
 21
164.73736
 31
0.0
  0
LINE
  5
337
330
210
100
AcDbEntity
  8
7_ALL_FEATURES
  6
Continuous
 62
     7
100
AcDbLine
 10
622.334507
 20
420.73736
 30
0.0
 11
623.334507
 21
420.73736
 31
0.0
  0
LINE
  5
338
330
210
100
AcDbEntity
  8
7_ALL_FEATURES
  6
Continuous
 62
     7
100
AcDbLine
 10
170.334507
 20
164.73736
 30
0.0
 11
169.334507
 21
164.73736
 31
0.0
  0
LINE
  5
339
330
210
100
AcDbEntity
  8
7_ALL_FEATURES
  6
Continuous
 62
     7
100
AcDbLine
 10
170.334507
 20
420.73736
 30
0.0
 11
169.334507
 21
420.73736
 31
0.0
  0
LINE
  5
33A
330
210
100
AcDbEntity
  8
7_ALL_FEATURES
  6
Continuous
 62
     7
100
AcDbLine
 10
622.334507
 20
164.73736
 30
0.0
 11
622.334507
 21
166.73736
 31
0.0
  0
LINE
  5
33B
330
210
100
AcDbEntity
  8
7_ALL_FEATURES
  6
Continuous
 62
     7
100
AcDbLine
 10
622.334507
 20
172.73736
 30
0.0
 11
622.334507
 21
166.73736
 31
0.0
  0
LINE
  5
33C
330
210
100
AcDbEntity
  8
7_ALL_FEATURES
  6
Continuous
 62
     7
100
AcDbLine
 10
622.334507
 20
412.73736
 30
0.0
 11
622.334507
 21
418.73736
 31
0.0
  0
LINE
  5
33D
330
210
100
AcDbEntity
  8
7_ALL_FEATURES
  6
Continuous
 62
     7
100
AcDbLine
 10
622.334507
 20
418.73736
 30
0.0
 11
622.334507
 21
420.73736
 31
0.0
  0
LINE
  5
33E
330
210
100
AcDbEntity
  8
7_ALL_FEATURES
  6
Continuous
 62
     7
100
AcDbLine
 10
170.334507
 20
166.73736
 30
0.0
 11
170.334507
 21
164.73736
 31
0.0
  0
LINE
  5
33F
330
210
100
AcDbEntity
  8
7_ALL_FEATURES
  6
Continuous
 62
     7
100
AcDbLine
 10
170.334507
 20
172.73736
 30
0.0
 11
170.334507
 21
166.73736
 31
0.0
  0
LINE
  5
340
330
210
100
AcDbEntity
  8
7_ALL_FEATURES
  6
Continuous
 62
     7
100
AcDbLine
 10
170.334507
 20
412.73736
 30
0.0
 11
170.334507
 21
418.73736
 31
0.0
  0
LINE
  5
341
330
210
100
AcDbEntity
  8
7_ALL_FEATURES
  6
Continuous
 62
     7
100
AcDbLine
 10
170.334507
 20
420.73736
 30
0.0
 11
170.334507
 21
418.73736
 31
0.0
  0
LINE
  5
342
330
210
100
AcDbEntity
  8
7_ALL_FEATURES
  6
Continuous
 62
     9
100
AcDbLine
 10
622.334507
 20
166.73736
 30
0.0
 11
623.334507
 21
166.73736
 31
0.0
  0
LINE
  5
343
330
210
100
AcDbEntity
  8
7_ALL_FEATURES
  6
Continuous
 62
     9
100
AcDbLine
 10
170.334507
 20
166.73736
 30
0.0
 11
169.334507
 21
166.73736
 31
0.0
  0
LINE
  5
344
330
210
100
AcDbEntity
  8
7_ALL_FEATURES
  6
Continuous
 62
     9
100
AcDbLine
 10
622.334507
 20
418.73736
 30
0.0
 11
623.334507
 21
418.73736
 31
0.0
  0
LINE
  5
345
330
210
100
AcDbEntity
  8
7_ALL_FEATURES
  6
Continuous
 62
     9
100
AcDbLine
 10
170.334507
 20
418.73736
 30
0.0
 11
169.334507
 21
418.73736
 31
0.0
  0
LINE
  5
346
330
210
100
AcDbEntity
  8
7_ALL_FEATURES
  6
Continuous
 62
     3
100
AcDbLine
 10
234.584507
 20
273.23736
 30
0.0
 11
234.584507
 21
312.23736
 31
0.0
  0
LINE
  5
347
330
210
100
AcDbEntity
  8
7_ALL_FEATURES
  6
Continuous
 62
     3
100
AcDbLine
 10
555.584507
 20
270.73736
 30
0.0
 11
237.084507
 21
270.73736
 31
0.0
  0
ARC
  5
348
330
210
100
AcDbEntity
  8
7_ALL_FEATURES
  6
Continuous
 62
     3
100
AcDbCircle
 10
237.084507
 20
273.23736
 30
0.0
 40
2.5
100
AcDbArc
 50
180.0
 51
270.0
  0
LINE
  5
349
330
210
100
AcDbEntity
  8
7_ALL_FEATURES
  6
Continuous
 62
     3
100
AcDbLine
 10
505.584507
 20
270.23736
 30
0.0
 11
505.584507
 21
270.73736
 31
0.0
  0
LINE
  5
34A
330
210
100
AcDbEntity
  8
7_ALL_FEATURES
  6
Continuous
 62
     3
100
AcDbLine
 10
287.084507
 20
270.23736
 30
0.0
 11
287.084507
 21
270.73736
 31
0.0
  0
LINE
  5
34B
330
210
100
AcDbEntity
  8
7_ALL_FEATURES
  6
Continuous
 62
     3
100
AcDbLine
 10
558.084507
 20
314.73736
 30
0.0
 11
558.084507
 21
273.23736
 31
0.0
  0
ARC
  5
34C
330
210
100
AcDbEntity
  8
7_ALL_FEATURES
  6
Continuous
 62
     3
100
AcDbCircle
 10
555.584507
 20
273.23736
 30
0.0
 40
2.5
100
AcDbArc
 50
270.0
 51
360.0
  0
LINE
  5
34D
330
210
100
AcDbEntity
  8
7_ALL_FEATURES
  6
Continuous
 62
     3
100
AcDbLine
 10
287.084507
 20
315.23736
 30
0.0
 11
287.084507
 21
314.73736
 31
0.0
  0
LINE
  5
34E
330
210
100
AcDbEntity
  8
7_ALL_FEATURES
  6
Continuous
 62
     3
100
AcDbLine
 10
507.084507
 20
315.23736
 30
0.0
 11
507.084507
 21
314.73736
 31
0.0
  0
LINE
  5
34F
330
210
100
AcDbEntity
  8
7_ALL_FEATURES
  6
Continuous
 62
     3
100
AcDbLine
 10
237.084507
 20
314.73736
 30
0.0
 11
557.084507
 21
314.73736
 31
0.0
  0
ARC
  5
350
330
210
100
AcDbEntity
  8
7_ALL_FEATURES
  6
Continuous
 62
     3
100
AcDbCircle
 10
237.084507
 20
312.23736
 30
0.0
 40
2.5
100
AcDbArc
 50
90.0
 51
180.0
  0
LINE
  5
351
330
210
100
AcDbEntity
  8
7_ALL_FEATURES
  6
Continuous
 62
     3
100
AcDbLine
 10
395.834507
 20
279.746979
 30
0.0
 11
395.834507
 21
280.747781
 31
0.0
  0
ARC
  5
352
330
210
100
AcDbEntity
  8
7_ALL_FEATURES
  6
Continuous
 62
     3
100
AcDbCircle
 10
396.334507
 20
292.73736
 30
0.0
 40
12.0
100
AcDbArc
 50
182.388015
 51
267.611985
  0
LINE
  5
353
330
210
100
AcDbEntity
  8
7_ALL_FEATURES
  6
Continuous
 62
     3
100
AcDbLine
 10
384.344929
 20
292.23736
 30
0.0
 11
383.344126
 21
292.23736
 31
0.0
  0
ARC
  5
354
330
210
100
AcDbEntity
  8
7_ALL_FEATURES
  6
Continuous
 62
     3
100
AcDbCircle
 10
396.334507
 20
292.73736
 30
0.0
 40
13.0
100
AcDbArc
 50
182.204228
 51
267.795772
  0
ARC
  5
355
330
210
100
AcDbEntity
  8
7_ALL_FEATURES
  6
Continuous
 62
     3
100
AcDbCircle
 10
396.334507
 20
292.73736
 30
0.0
 40
13.0
100
AcDbArc
 50
272.204228
 51
357.795772
  0
LINE
  5
356
330
210
100
AcDbEntity
  8
7_ALL_FEATURES
  6
Continuous
 62
     3
100
AcDbLine
 10
409.324888
 20
292.23736
 30
0.0
 11
408.324086
 21
292.23736
 31
0.0
  0
ARC
  5
357
330
210
100
AcDbEntity
  8
7_ALL_FEATURES
  6
Continuous
 62
     3
100
AcDbCircle
 10
396.334507
 20
292.73736
 30
0.0
 40
12.0
100
AcDbArc
 50
272.388015
 51
357.611985
  0
LINE
  5
358
330
210
100
AcDbEntity
  8
7_ALL_FEATURES
  6
Continuous
 62
     3
100
AcDbLine
 10
396.834507
 20
280.747781
 30
0.0
 11
396.834507
 21
279.746979
 31
0.0
  0
LINE
  5
359
330
210
100
AcDbEntity
  8
7_ALL_FEATURES
  6
Continuous
 62
     3
100
AcDbLine
 10
408.324086
 20
293.23736
 30
0.0
 11
409.324888
 21
293.23736
 31
0.0
  0
ARC
  5
35A
330
210
100
AcDbEntity
  8
7_ALL_FEATURES
  6
Continuous
 62
     3
100
AcDbCircle
 10
396.334507
 20
292.73736
 30
0.0
 40
13.0
100
AcDbArc
 50
2.204228
 51
177.795772
  0
LINE
  5
35B
330
210
100
AcDbEntity
  8
7_ALL_FEATURES
  6
Continuous
 62
     3
100
AcDbLine
 10
383.344126
 20
293.23736
 30
0.0
 11
384.344929
 21
293.23736
 31
0.0
  0
ARC
  5
35C
330
210
100
AcDbEntity
  8
7_ALL_FEATURES
  6
Continuous
 62
     3
100
AcDbCircle
 10
396.334507
 20
292.73736
 30
0.0
 40
12.0
100
AcDbArc
 50
2.388015
 51
177.611985
  0
ARC
  5
35D
330
210
100
AcDbEntity
  8
7_ALL_FEATURES
  6
Continuous
 62
     3
100
AcDbCircle
 10
167.334507
 20
402.23736
 30
0.0
 40
2.0
100
AcDbArc
 50
180.0
 51
270.0
  0
LINE
  5
35E
330
210
100
AcDbEntity
  8
7_ALL_FEATURES
  6
Continuous
 62
     3
100
AcDbLine
 10
165.334507
 20
402.23736
 30
0.0
 11
165.334507
 21
409.23736
 31
0.0
  0
ARC
  5
35F
330
210
100
AcDbEntity
  8
7_ALL_FEATURES
  6
Continuous
 62
     3
100
AcDbCircle
 10
168.334507
 20
409.23736
 30
0.0
 40
3.0
100
AcDbArc
 50
90.0
 51
180.0
  0
LINE
  5
360
330
210
100
AcDbEntity
  8
7_ALL_FEATURES
  6
Continuous
 62
     3
100
AcDbLine
 10
168.334507
 20
412.23736
 30
0.0
 11
169.334507
 21
412.23736
 31
0.0
  0
LINE
  5
361
330
210
100
AcDbEntity
  8
7_ALL_FEATURES
  6
Continuous
 62
     3
100
AcDbLine
 10
623.334507
 20
412.23736
 30
0.0
 11
624.334507
 21
412.23736
 31
0.0
  0
ARC
  5
362
330
210
100
AcDbEntity
  8
7_ALL_FEATURES
  6
Continuous
 62
     3
100
AcDbCircle
 10
624.334507
 20
409.23736
 30
0.0
 40
3.0
100
AcDbArc
 50
0.0
 51
90.0
  0
LINE
  5
363
330
210
100
AcDbEntity
  8
7_ALL_FEATURES
  6
Continuous
 62
     3
100
AcDbLine
 10
627.334507
 20
409.23736
 30
0.0
 11
627.334507
 21
402.23736
 31
0.0
  0
ARC
  5
364
330
210
100
AcDbEntity
  8
7_ALL_FEATURES
  6
Continuous
 62
     3
100
AcDbCircle
 10
625.334507
 20
402.23736
 30
0.0
 40
2.0
100
AcDbArc
 50
270.0
 51
360.0
  0
LINE
  5
365
330
210
100
AcDbEntity
  8
7_ALL_FEATURES
  6
Continuous
 62
     3
100
AcDbLine
 10
625.334507
 20
400.23736
 30
0.0
 11
623.334507
 21
400.23736
 31
0.0
  0
LINE
  5
366
330
210
100
AcDbEntity
  8
7_ALL_FEATURES
  6
Continuous
 62
     3
100
AcDbLine
 10
625.334507
 20
365.23736
 30
0.0
 11
623.334507
 21
365.23736
 31
0.0
  0
ARC
  5
367
330
210
100
AcDbEntity
  8
7_ALL_FEATURES
  6
Continuous
 62
     3
100
AcDbCircle
 10
625.334507
 20
363.23736
 30
0.0
 40
2.0
100
AcDbArc
 50
0.0
 51
90.0
  0
LINE
  5
368
330
210
100
AcDbEntity
  8
7_ALL_FEATURES
  6
Continuous
 62
     3
100
AcDbLine
 10
627.334507
 20
363.23736
 30
0.0
 11
627.334507
 21
222.23736
 31
0.0
  0
ARC
  5
369
330
210
100
AcDbEntity
  8
7_ALL_FEATURES
  6
Continuous
 62
     3
100
AcDbCircle
 10
625.334507
 20
222.23736
 30
0.0
 40
2.0
100
AcDbArc
 50
270.0
 51
360.0
  0
LINE
  5
36A
330
210
100
AcDbEntity
  8
7_ALL_FEATURES
  6
Continuous
 62
     3
100
AcDbLine
 10
625.334507
 20
220.23736
 30
0.0
 11
623.334507
 21
220.23736
 31
0.0
  0
LINE
  5
36B
330
210
100
AcDbEntity
  8
7_ALL_FEATURES
  6
Continuous
 62
     3
100
AcDbLine
 10
625.334507
 20
185.23736
 30
0.0
 11
623.334507
 21
185.23736
 31
0.0
  0
ARC
  5
36C
330
210
100
AcDbEntity
  8
7_ALL_FEATURES
  6
Continuous
 62
     3
100
AcDbCircle
 10
625.334507
 20
183.23736
 30
0.0
 40
2.0
100
AcDbArc
 50
0.0
 51
90.0
  0
LINE
  5
36D
330
210
100
AcDbEntity
  8
7_ALL_FEATURES
  6
Continuous
 62
     3
100
AcDbLine
 10
627.334507
 20
183.23736
 30
0.0
 11
627.334507
 21
176.23736
 31
0.0
  0
ARC
  5
36E
330
210
100
AcDbEntity
  8
7_ALL_FEATURES
  6
Continuous
 62
     3
100
AcDbCircle
 10
624.334507
 20
176.23736
 30
0.0
 40
3.0
100
AcDbArc
 50
270.0
 51
360.0
  0
LINE
  5
36F
330
210
100
AcDbEntity
  8
7_ALL_FEATURES
  6
Continuous
 62
     3
100
AcDbLine
 10
624.334507
 20
173.23736
 30
0.0
 11
623.334507
 21
173.23736
 31
0.0
  0
LINE
  5
370
330
210
100
AcDbEntity
  8
7_ALL_FEATURES
  6
Continuous
 62
     3
100
AcDbLine
 10
169.334507
 20
173.23736
 30
0.0
 11
168.334507
 21
173.23736
 31
0.0
  0
ARC
  5
371
330
210
100
AcDbEntity
  8
7_ALL_FEATURES
  6
Continuous
 62
     3
100
AcDbCircle
 10
168.334507
 20
176.23736
 30
0.0
 40
3.0
100
AcDbArc
 50
180.0
 51
270.0
  0
LINE
  5
372
330
210
100
AcDbEntity
  8
7_ALL_FEATURES
  6
Continuous
 62
     3
100
AcDbLine
 10
165.334507
 20
176.23736
 30
0.0
 11
165.334507
 21
183.23736
 31
0.0
  0
ARC
  5
373
330
210
100
AcDbEntity
  8
7_ALL_FEATURES
  6
Continuous
 62
     3
100
AcDbCircle
 10
167.334507
 20
183.23736
 30
0.0
 40
2.0
100
AcDbArc
 50
90.0
 51
180.0
  0
LINE
  5
374
330
210
100
AcDbEntity
  8
7_ALL_FEATURES
  6
Continuous
 62
     3
100
AcDbLine
 10
167.334507
 20
185.23736
 30
0.0
 11
169.334507
 21
185.23736
 31
0.0
  0
LINE
  5
375
330
210
100
AcDbEntity
  8
7_ALL_FEATURES
  6
Continuous
 62
     3
100
AcDbLine
 10
167.334507
 20
220.23736
 30
0.0
 11
169.334507
 21
220.23736
 31
0.0
  0
ARC
  5
376
330
210
100
AcDbEntity
  8
7_ALL_FEATURES
  6
Continuous
 62
     3
100
AcDbCircle
 10
167.334507
 20
222.23736
 30
0.0
 40
2.0
100
AcDbArc
 50
180.0
 51
270.0
  0
LINE
  5
377
330
210
100
AcDbEntity
  8
7_ALL_FEATURES
  6
Continuous
 62
     3
100
AcDbLine
 10
165.334507
 20
222.23736
 30
0.0
 11
165.334507
 21
363.23736
 31
0.0
  0
ARC
  5
378
330
210
100
AcDbEntity
  8
7_ALL_FEATURES
  6
Continuous
 62
     3
100
AcDbCircle
 10
167.334507
 20
363.23736
 30
0.0
 40
2.0
100
AcDbArc
 50
90.0
 51
180.0
  0
LINE
  5
379
330
210
100
AcDbEntity
  8
7_ALL_FEATURES
  6
Continuous
 62
     3
100
AcDbLine
 10
167.334507
 20
365.23736
 30
0.0
 11
169.334507
 21
365.23736
 31
0.0
  0
LINE
  5
37A
330
210
100
AcDbEntity
  8
7_ALL_FEATURES
  6
Continuous
 62
     3
100
AcDbLine
 10
167.334507
 20
400.23736
 30
0.0
 11
169.334507
 21
400.23736
 31
0.0
  0
LINE
  5
37B
330
210
100
AcDbEntity
  8
7_ALL_FEATURES
  6
Continuous
 62
     3
100
AcDbLine
 10
625.334507
 20
413.23736
 30
0.0
 11
624.334507
 21
413.23736
 31
0.0
  0
LINE
  5
37C
330
210
100
AcDbEntity
  8
7_ALL_FEATURES
  6
Continuous
 62
     3
100
AcDbLine
 10
625.334507
 20
413.23736
 30
0.0
 11
627.334507
 21
413.23736
 31
0.0
  0
LINE
  5
37D
330
210
100
AcDbEntity
  8
7_ALL_FEATURES
  6
Continuous
 62
     3
100
AcDbLine
 10
629.334507
 20
413.23736
 30
0.0
 11
627.334507
 21
413.23736
 31
0.0
  0
LINE
  5
37E
330
210
100
AcDbEntity
  8
7_ALL_FEATURES
  6
Continuous
 62
     3
100
AcDbLine
 10
165.334507
 20
413.23736
 30
0.0
 11
163.334507
 21
413.23736
 31
0.0
  0
LINE
  5
37F
330
210
100
AcDbEntity
  8
7_ALL_FEATURES
  6
Continuous
 62
     3
100
AcDbLine
 10
167.334507
 20
413.23736
 30
0.0
 11
165.334507
 21
413.23736
 31
0.0
  0
LINE
  5
380
330
210
100
AcDbEntity
  8
7_ALL_FEATURES
  6
Continuous
 62
     3
100
AcDbLine
 10
168.334507
 20
413.23736
 30
0.0
 11
167.334507
 21
413.23736
 31
0.0
  0
LINE
  5
381
330
210
100
AcDbEntity
  8
7_ALL_FEATURES
  6
Continuous
 62
     3
100
AcDbLine
 10
171.334507
 20
413.23736
 30
0.0
 11
170.334507
 21
413.23736
 31
0.0
  0
LINE
  5
382
330
210
100
AcDbEntity
  8
7_ALL_FEATURES
  6
Continuous
 62
     3
100
AcDbLine
 10
169.334507
 20
413.23736
 30
0.0
 11
168.334507
 21
413.23736
 31
0.0
  0
LINE
  5
383
330
210
100
AcDbEntity
  8
7_ALL_FEATURES
  6
Continuous
 62
     3
100
AcDbLine
 10
230.334507
 20
413.23736
 30
0.0
 11
231.334507
 21
413.23736
 31
0.0
  0
LINE
  5
384
330
210
100
AcDbEntity
  8
7_ALL_FEATURES
  6
Continuous
 62
     3
100
AcDbLine
 10
261.334507
 20
413.23736
 30
0.0
 11
262.334507
 21
413.23736
 31
0.0
  0
LINE
  5
385
330
210
100
AcDbEntity
  8
7_ALL_FEATURES
  6
Continuous
 62
     3
100
AcDbLine
 10
530.334507
 20
413.23736
 30
0.0
 11
531.334507
 21
413.23736
 31
0.0
  0
LINE
  5
386
330
210
100
AcDbEntity
  8
7_ALL_FEATURES
  6
Continuous
 62
     3
100
AcDbLine
 10
561.334507
 20
413.23736
 30
0.0
 11
562.334507
 21
413.23736
 31
0.0
  0
LINE
  5
387
330
210
100
AcDbEntity
  8
7_ALL_FEATURES
  6
Continuous
 62
     3
100
AcDbLine
 10
621.334507
 20
413.23736
 30
0.0
 11
622.334507
 21
413.23736
 31
0.0
  0
LINE
  5
388
330
210
100
AcDbEntity
  8
7_ALL_FEATURES
  6
Continuous
 62
     3
100
AcDbLine
 10
623.334507
 20
413.23736
 30
0.0
 11
624.334507
 21
413.23736
 31
0.0
  0
LINE
  5
389
330
210
100
AcDbEntity
  8
7_ALL_FEATURES
  6
Continuous
 62
     3
100
AcDbLine
 10
624.334507
 20
172.23736
 30
0.0
 11
625.334507
 21
172.23736
 31
0.0
  0
LINE
  5
38A
330
210
100
AcDbEntity
  8
7_ALL_FEATURES
  6
Continuous
 62
     3
100
AcDbLine
 10
621.334507
 20
172.23736
 30
0.0
 11
622.334507
 21
172.23736
 31
0.0
  0
LINE
  5
38B
330
210
100
AcDbEntity
  8
7_ALL_FEATURES
  6
Continuous
 62
     3
100
AcDbLine
 10
623.334507
 20
172.23736
 30
0.0
 11
624.334507
 21
172.23736
 31
0.0
  0
LINE
  5
38C
330
210
100
AcDbEntity
  8
7_ALL_FEATURES
  6
Continuous
 62
     3
100
AcDbLine
 10
562.334507
 20
172.23736
 30
0.0
 11
561.334507
 21
172.23736
 31
0.0
  0
LINE
  5
38D
330
210
100
AcDbEntity
  8
7_ALL_FEATURES
  6
Continuous
 62
     3
100
AcDbLine
 10
531.334507
 20
172.23736
 30
0.0
 11
530.334507
 21
172.23736
 31
0.0
  0
LINE
  5
38E
330
210
100
AcDbEntity
  8
7_ALL_FEATURES
  6
Continuous
 62
     3
100
AcDbLine
 10
262.334507
 20
172.23736
 30
0.0
 11
261.334507
 21
172.23736
 31
0.0
  0
LINE
  5
38F
330
210
100
AcDbEntity
  8
7_ALL_FEATURES
  6
Continuous
 62
     3
100
AcDbLine
 10
231.334507
 20
172.23736
 30
0.0
 11
230.334507
 21
172.23736
 31
0.0
  0
LINE
  5
390
330
210
100
AcDbEntity
  8
7_ALL_FEATURES
  6
Continuous
 62
     3
100
AcDbLine
 10
171.334507
 20
172.23736
 30
0.0
 11
170.334507
 21
172.23736
 31
0.0
  0
LINE
  5
391
330
210
100
AcDbEntity
  8
7_ALL_FEATURES
  6
Continuous
 62
     3
100
AcDbLine
 10
169.334507
 20
172.23736
 30
0.0
 11
168.334507
 21
172.23736
 31
0.0
  0
LINE
  5
392
330
210
100
AcDbEntity
  8
7_ALL_FEATURES
  6
Continuous
 62
     3
100
AcDbLine
 10
167.334507
 20
172.23736
 30
0.0
 11
168.334507
 21
172.23736
 31
0.0
  0
LINE
  5
393
330
210
100
AcDbEntity
  8
7_ALL_FEATURES
  6
Continuous
 62
     3
100
AcDbLine
 10
167.334507
 20
172.23736
 30
0.0
 11
165.334507
 21
172.23736
 31
0.0
  0
LINE
  5
394
330
210
100
AcDbEntity
  8
7_ALL_FEATURES
  6
Continuous
 62
     3
100
AcDbLine
 10
163.334507
 20
172.23736
 30
0.0
 11
165.334507
 21
172.23736
 31
0.0
  0
LINE
  5
395
330
210
100
AcDbEntity
  8
7_ALL_FEATURES
  6
Continuous
 62
     3
100
AcDbLine
 10
627.334507
 20
172.23736
 30
0.0
 11
629.334507
 21
172.23736
 31
0.0
  0
LINE
  5
396
330
210
100
AcDbEntity
  8
7_ALL_FEATURES
  6
Continuous
 62
     3
100
AcDbLine
 10
625.334507
 20
172.23736
 30
0.0
 11
627.334507
 21
172.23736
 31
0.0
  0
LINE
  5
397
330
210
100
AcDbEntity
  8
7_ALL_FEATURES
  6
Continuous
 62
     3
100
AcDbLine
 10
559.834507
 20
315.23736
 30
0.0
 11
559.834507
 21
270.23736
 31
0.0
  0
LINE
  5
398
330
210
100
AcDbEntity
  8
7_ALL_FEATURES
  6
Continuous
 62
     3
100
AcDbLine
 10
232.834507
 20
315.23736
 30
0.0
 11
287.084507
 21
315.23736
 31
0.0
  0
LINE
  5
399
330
210
100
AcDbEntity
  8
7_ALL_FEATURES
  6
Continuous
 62
     3
100
AcDbLine
 10
287.084507
 20
315.23736
 30
0.0
 11
507.084507
 21
315.23736
 31
0.0
  0
LINE
  5
39A
330
210
100
AcDbEntity
  8
7_ALL_FEATURES
  6
Continuous
 62
     3
100
AcDbLine
 10
507.084507
 20
315.23736
 30
0.0
 11
559.834507
 21
315.23736
 31
0.0
  0
LINE
  5
39B
330
210
100
AcDbEntity
  8
7_ALL_FEATURES
  6
Continuous
 62
     3
100
AcDbLine
 10
232.834507
 20
270.23736
 30
0.0
 11
232.834507
 21
315.23736
 31
0.0
  0
LINE
  5
39C
330
210
100
AcDbEntity
  8
7_ALL_FEATURES
  6
Continuous
 62
     3
100
AcDbLine
 10
559.834507
 20
270.23736
 30
0.0
 11
505.584507
 21
270.23736
 31
0.0
  0
LINE
  5
39D
330
210
100
AcDbEntity
  8
7_ALL_FEATURES
  6
Continuous
 62
     3
100
AcDbLine
 10
505.584507
 20
270.23736
 30
0.0
 11
287.084507
 21
270.23736
 31
0.0
  0
LINE
  5
39E
330
210
100
AcDbEntity
  8
7_ALL_FEATURES
  6
Continuous
 62
     3
100
AcDbLine
 10
287.084507
 20
270.23736
 30
0.0
 11
232.834507
 21
270.23736
 31
0.0
  0
LINE
  5
39F
330
210
100
AcDbEntity
  8
7_ALL_FEATURES
  6
Continuous
 62
     3
100
AcDbLine
 10
562.334507
 20
414.48736
 30
0.0
 11
562.334507
 21
414.23736
 31
0.0
  0
LINE
  5
3A0
330
210
100
AcDbEntity
  8
7_ALL_FEATURES
  6
Continuous
 62
     3
100
AcDbLine
 10
562.334507
 20
414.23736
 30
0.0
 11
562.334507
 21
413.23736
 31
0.0
  0
LINE
  5
3A1
330
210
100
AcDbEntity
  8
7_ALL_FEATURES
  6
Continuous
 62
     3
100
AcDbLine
 10
562.334507
 20
413.23736
 30
0.0
 11
562.334507
 21
412.98736
 31
0.0
  0
LINE
  5
3A2
330
210
100
AcDbEntity
  8
7_ALL_FEATURES
  6
Continuous
 62
     3
100
AcDbLine
 10
530.334507
 20
414.48736
 30
0.0
 11
531.334507
 21
414.48736
 31
0.0
  0
LINE
  5
3A3
330
210
100
AcDbEntity
  8
7_ALL_FEATURES
  6
Continuous
 62
     3
100
AcDbLine
 10
531.334507
 20
414.48736
 30
0.0
 11
561.334507
 21
414.48736
 31
0.0
  0
LINE
  5
3A4
330
210
100
AcDbEntity
  8
7_ALL_FEATURES
  6
Continuous
 62
     3
100
AcDbLine
 10
561.334507
 20
414.48736
 30
0.0
 11
562.334507
 21
414.48736
 31
0.0
  0
LINE
  5
3A5
330
210
100
AcDbEntity
  8
7_ALL_FEATURES
  6
Continuous
 62
     3
100
AcDbLine
 10
530.334507
 20
412.98736
 30
0.0
 11
530.334507
 21
413.23736
 31
0.0
  0
LINE
  5
3A6
330
210
100
AcDbEntity
  8
7_ALL_FEATURES
  6
Continuous
 62
     3
100
AcDbLine
 10
530.334507
 20
413.23736
 30
0.0
 11
530.334507
 21
414.23736
 31
0.0
  0
LINE
  5
3A7
330
210
100
AcDbEntity
  8
7_ALL_FEATURES
  6
Continuous
 62
     3
100
AcDbLine
 10
530.334507
 20
414.23736
 30
0.0
 11
530.334507
 21
414.48736
 31
0.0
  0
LINE
  5
3A8
330
210
100
AcDbEntity
  8
7_ALL_FEATURES
  6
Continuous
 62
     3
100
AcDbLine
 10
562.334507
 20
412.98736
 30
0.0
 11
561.334507
 21
412.98736
 31
0.0
  0
LINE
  5
3A9
330
210
100
AcDbEntity
  8
7_ALL_FEATURES
  6
Continuous
 62
     3
100
AcDbLine
 10
531.334507
 20
412.98736
 30
0.0
 11
530.334507
 21
412.98736
 31
0.0
  0
LINE
  5
3AA
330
210
100
AcDbEntity
  8
7_ALL_FEATURES
  6
Continuous
 62
     3
100
AcDbLine
 10
562.334507
 20
170.98736
 30
0.0
 11
561.334507
 21
170.98736
 31
0.0
  0
LINE
  5
3AB
330
210
100
AcDbEntity
  8
7_ALL_FEATURES
  6
Continuous
 62
     3
100
AcDbLine
 10
561.334507
 20
170.98736
 30
0.0
 11
531.334507
 21
170.98736
 31
0.0
  0
LINE
  5
3AC
330
210
100
AcDbEntity
  8
7_ALL_FEATURES
  6
Continuous
 62
     3
100
AcDbLine
 10
531.334507
 20
170.98736
 30
0.0
 11
530.334507
 21
170.98736
 31
0.0
  0
LINE
  5
3AD
330
210
100
AcDbEntity
  8
7_ALL_FEATURES
  6
Continuous
 62
     3
100
AcDbLine
 10
562.334507
 20
172.48736
 30
0.0
 11
562.334507
 21
172.23736
 31
0.0
  0
LINE
  5
3AE
330
210
100
AcDbEntity
  8
7_ALL_FEATURES
  6
Continuous
 62
     3
100
AcDbLine
 10
562.334507
 20
172.23736
 30
0.0
 11
562.334507
 21
171.23736
 31
0.0
  0
LINE
  5
3AF
330
210
100
AcDbEntity
  8
7_ALL_FEATURES
  6
Continuous
 62
     3
100
AcDbLine
 10
562.334507
 20
171.23736
 30
0.0
 11
562.334507
 21
170.98736
 31
0.0
  0
LINE
  5
3B0
330
210
100
AcDbEntity
  8
7_ALL_FEATURES
  6
Continuous
 62
     3
100
AcDbLine
 10
530.334507
 20
172.48736
 30
0.0
 11
531.334507
 21
172.48736
 31
0.0
  0
LINE
  5
3B1
330
210
100
AcDbEntity
  8
7_ALL_FEATURES
  6
Continuous
 62
     3
100
AcDbLine
 10
561.334507
 20
172.48736
 30
0.0
 11
562.334507
 21
172.48736
 31
0.0
  0
LINE
  5
3B2
330
210
100
AcDbEntity
  8
7_ALL_FEATURES
  6
Continuous
 62
     3
100
AcDbLine
 10
530.334507
 20
170.98736
 30
0.0
 11
530.334507
 21
171.23736
 31
0.0
  0
LINE
  5
3B3
330
210
100
AcDbEntity
  8
7_ALL_FEATURES
  6
Continuous
 62
     3
100
AcDbLine
 10
530.334507
 20
171.23736
 30
0.0
 11
530.334507
 21
172.23736
 31
0.0
  0
LINE
  5
3B4
330
210
100
AcDbEntity
  8
7_ALL_FEATURES
  6
Continuous
 62
     3
100
AcDbLine
 10
530.334507
 20
172.23736
 30
0.0
 11
530.334507
 21
172.48736
 31
0.0
  0
LINE
  5
3B5
330
210
100
AcDbEntity
  8
7_ALL_FEATURES
  6
Continuous
 62
     3
100
AcDbLine
 10
230.334507
 20
414.48736
 30
0.0
 11
231.334507
 21
414.48736
 31
0.0
  0
LINE
  5
3B6
330
210
100
AcDbEntity
  8
7_ALL_FEATURES
  6
Continuous
 62
     3
100
AcDbLine
 10
231.334507
 20
414.48736
 30
0.0
 11
261.334507
 21
414.48736
 31
0.0
  0
LINE
  5
3B7
330
210
100
AcDbEntity
  8
7_ALL_FEATURES
  6
Continuous
 62
     3
100
AcDbLine
 10
261.334507
 20
414.48736
 30
0.0
 11
262.334507
 21
414.48736
 31
0.0
  0
LINE
  5
3B8
330
210
100
AcDbEntity
  8
7_ALL_FEATURES
  6
Continuous
 62
     3
100
AcDbLine
 10
230.334507
 20
412.98736
 30
0.0
 11
230.334507
 21
413.23736
 31
0.0
  0
LINE
  5
3B9
330
210
100
AcDbEntity
  8
7_ALL_FEATURES
  6
Continuous
 62
     3
100
AcDbLine
 10
230.334507
 20
413.23736
 30
0.0
 11
230.334507
 21
414.23736
 31
0.0
  0
LINE
  5
3BA
330
210
100
AcDbEntity
  8
7_ALL_FEATURES
  6
Continuous
 62
     3
100
AcDbLine
 10
230.334507
 20
414.23736
 30
0.0
 11
230.334507
 21
414.48736
 31
0.0
  0
LINE
  5
3BB
330
210
100
AcDbEntity
  8
7_ALL_FEATURES
  6
Continuous
 62
     3
100
AcDbLine
 10
262.334507
 20
412.98736
 30
0.0
 11
261.334507
 21
412.98736
 31
0.0
  0
LINE
  5
3BC
330
210
100
AcDbEntity
  8
7_ALL_FEATURES
  6
Continuous
 62
     3
100
AcDbLine
 10
231.334507
 20
412.98736
 30
0.0
 11
230.334507
 21
412.98736
 31
0.0
  0
LINE
  5
3BD
330
210
100
AcDbEntity
  8
7_ALL_FEATURES
  6
Continuous
 62
     3
100
AcDbLine
 10
262.334507
 20
414.48736
 30
0.0
 11
262.334507
 21
414.23736
 31
0.0
  0
LINE
  5
3BE
330
210
100
AcDbEntity
  8
7_ALL_FEATURES
  6
Continuous
 62
     3
100
AcDbLine
 10
262.334507
 20
414.23736
 30
0.0
 11
262.334507
 21
413.23736
 31
0.0
  0
LINE
  5
3BF
330
210
100
AcDbEntity
  8
7_ALL_FEATURES
  6
Continuous
 62
     3
100
AcDbLine
 10
262.334507
 20
413.23736
 30
0.0
 11
262.334507
 21
412.98736
 31
0.0
  0
LINE
  5
3C0
330
210
100
AcDbEntity
  8
7_ALL_FEATURES
  6
Continuous
 62
     3
100
AcDbLine
 10
230.334507
 20
170.98736
 30
0.0
 11
230.334507
 21
171.23736
 31
0.0
  0
LINE
  5
3C1
330
210
100
AcDbEntity
  8
7_ALL_FEATURES
  6
Continuous
 62
     3
100
AcDbLine
 10
230.334507
 20
171.23736
 30
0.0
 11
230.334507
 21
172.23736
 31
0.0
  0
LINE
  5
3C2
330
210
100
AcDbEntity
  8
7_ALL_FEATURES
  6
Continuous
 62
     3
100
AcDbLine
 10
230.334507
 20
172.23736
 30
0.0
 11
230.334507
 21
172.48736
 31
0.0
  0
LINE
  5
3C3
330
210
100
AcDbEntity
  8
7_ALL_FEATURES
  6
Continuous
 62
     3
100
AcDbLine
 10
262.334507
 20
170.98736
 30
0.0
 11
261.334507
 21
170.98736
 31
0.0
  0
LINE
  5
3C4
330
210
100
AcDbEntity
  8
7_ALL_FEATURES
  6
Continuous
 62
     3
100
AcDbLine
 10
261.334507
 20
170.98736
 30
0.0
 11
231.334507
 21
170.98736
 31
0.0
  0
LINE
  5
3C5
330
210
100
AcDbEntity
  8
7_ALL_FEATURES
  6
Continuous
 62
     3
100
AcDbLine
 10
231.334507
 20
170.98736
 30
0.0
 11
230.334507
 21
170.98736
 31
0.0
  0
LINE
  5
3C6
330
210
100
AcDbEntity
  8
7_ALL_FEATURES
  6
Continuous
 62
     3
100
AcDbLine
 10
262.334507
 20
172.48736
 30
0.0
 11
262.334507
 21
172.23736
 31
0.0
  0
LINE
  5
3C7
330
210
100
AcDbEntity
  8
7_ALL_FEATURES
  6
Continuous
 62
     3
100
AcDbLine
 10
262.334507
 20
172.23736
 30
0.0
 11
262.334507
 21
171.23736
 31
0.0
  0
LINE
  5
3C8
330
210
100
AcDbEntity
  8
7_ALL_FEATURES
  6
Continuous
 62
     3
100
AcDbLine
 10
262.334507
 20
171.23736
 30
0.0
 11
262.334507
 21
170.98736
 31
0.0
  0
LINE
  5
3C9
330
210
100
AcDbEntity
  8
7_ALL_FEATURES
  6
Continuous
 62
     3
100
AcDbLine
 10
230.334507
 20
172.48736
 30
0.0
 11
231.334507
 21
172.48736
 31
0.0
  0
LINE
  5
3CA
330
210
100
AcDbEntity
  8
7_ALL_FEATURES
  6
Continuous
 62
     3
100
AcDbLine
 10
261.334507
 20
172.48736
 30
0.0
 11
262.334507
 21
172.48736
 31
0.0
  0
ARC
  5
3CB
330
210
100
AcDbEntity
  8
7_ALL_FEATURES
  6
Continuous
 62
     3
100
AcDbCircle
 10
174.334507
 20
170.73736
 30
0.0
 40
3.0
100
AcDbArc
 50
180.0
 51
270.0
  0
LINE
  5
3CC
330
210
100
AcDbEntity
  8
7_ALL_FEATURES
  6
Continuous
 62
     3
100
AcDbLine
 10
171.334507
 20
172.73736
 30
0.0
 11
171.334507
 21
170.73736
 31
0.0
  0
LINE
  5
3CD
330
210
100
AcDbEntity
  8
7_ALL_FEATURES
  6
Continuous
 62
     3
100
AcDbLine
 10
171.334507
 20
414.73736
 30
0.0
 11
171.334507
 21
412.73736
 31
0.0
  0
ARC
  5
3CE
330
210
100
AcDbEntity
  8
7_ALL_FEATURES
  6
Continuous
 62
     3
100
AcDbCircle
 10
174.334507
 20
414.73736
 30
0.0
 40
3.0
100
AcDbArc
 50
90.0
 51
180.0
  0
LINE
  5
3CF
330
210
100
AcDbEntity
  8
7_ALL_FEATURES
  6
Continuous
 62
     3
100
AcDbLine
 10
618.334507
 20
417.73736
 30
0.0
 11
174.334507
 21
417.73736
 31
0.0
  0
ARC
  5
3D0
330
210
100
AcDbEntity
  8
7_ALL_FEATURES
  6
Continuous
 62
     3
100
AcDbCircle
 10
618.334507
 20
414.73736
 30
0.0
 40
3.0
100
AcDbArc
 50
0.0
 51
90.0
  0
LINE
  5
3D1
330
210
100
AcDbEntity
  8
7_ALL_FEATURES
  6
Continuous
 62
     3
100
AcDbLine
 10
621.334507
 20
412.73736
 30
0.0
 11
621.334507
 21
414.73736
 31
0.0
  0
LINE
  5
3D2
330
210
100
AcDbEntity
  8
7_ALL_FEATURES
  6
Continuous
 62
     3
100
AcDbLine
 10
621.334507
 20
170.73736
 30
0.0
 11
621.334507
 21
172.73736
 31
0.0
  0
ARC
  5
3D3
330
210
100
AcDbEntity
  8
7_ALL_FEATURES
  6
Continuous
 62
     3
100
AcDbCircle
 10
618.334507
 20
170.73736
 30
0.0
 40
3.0
100
AcDbArc
 50
270.0
 51
360.0
  0
LINE
  5
3D4
330
210
100
AcDbEntity
  8
7_ALL_FEATURES
  6
Continuous
 62
     3
100
AcDbLine
 10
174.334507
 20
167.73736
 30
0.0
 11
618.334507
 21
167.73736
 31
0.0
  0
LINE
  5
3D5
330
210
100
AcDbEntity
  8
7_ALL_FEATURES
  6
Continuous
 62
     3
100
AcDbLine
 10
168.334507
 20
187.73736
 30
0.0
 11
169.334507
 21
187.73736
 31
0.0
  0
LINE
  5
3D6
330
210
100
AcDbEntity
  8
7_ALL_FEATURES
  6
Continuous
 62
     3
100
AcDbLine
 10
168.334507
 20
217.73736
 30
0.0
 11
169.334507
 21
217.73736
 31
0.0
  0
LINE
  5
3D7
330
210
100
AcDbEntity
  8
7_ALL_FEATURES
  6
Continuous
 62
     3
100
AcDbLine
 10
130.334507
 20
197.73736
 30
0.0
 11
130.334507
 21
207.73736
 31
0.0
  0
ARC
  5
3D8
330
210
100
AcDbEntity
  8
7_ALL_FEATURES
  6
Continuous
 62
     3
100
AcDbCircle
 10
140.334507
 20
197.73736
 30
0.0
 40
10.0
100
AcDbArc
 50
180.0
 51
270.0
  0
LINE
  5
3D9
330
210
100
AcDbEntity
  8
7_ALL_FEATURES
  6
Continuous
 62
     3
100
AcDbLine
 10
168.334507
 20
187.73736
 30
0.0
 11
140.334507
 21
187.73736
 31
0.0
  0
LINE
  5
3DA
330
210
100
AcDbEntity
  8
7_ALL_FEATURES
  6
Continuous
 62
     3
100
AcDbLine
 10
140.334507
 20
217.73736
 30
0.0
 11
168.334507
 21
217.73736
 31
0.0
  0
ARC
  5
3DB
330
210
100
AcDbEntity
  8
7_ALL_FEATURES
  6
Continuous
 62
     3
100
AcDbCircle
 10
140.334507
 20
207.73736
 30
0.0
 40
10.0
100
AcDbArc
 50
90.0
 51
180.0
  0
LINE
  5
3DC
330
210
100
AcDbEntity
  8
7_ALL_FEATURES
  6
Continuous
 62
     3
100
AcDbLine
 10
168.334507
 20
367.73736
 30
0.0
 11
169.334507
 21
367.73736
 31
0.0
  0
LINE
  5
3DD
330
210
100
AcDbEntity
  8
7_ALL_FEATURES
  6
Continuous
 62
     3
100
AcDbLine
 10
168.334507
 20
397.73736
 30
0.0
 11
169.334507
 21
397.73736
 31
0.0
  0
LINE
  5
3DE
330
210
100
AcDbEntity
  8
7_ALL_FEATURES
  6
Continuous
 62
     3
100
AcDbLine
 10
130.334507
 20
387.73736
 30
0.0
 11
130.334507
 21
377.73736
 31
0.0
  0
ARC
  5
3DF
330
210
100
AcDbEntity
  8
7_ALL_FEATURES
  6
Continuous
 62
     3
100
AcDbCircle
 10
140.334507
 20
377.73736
 30
0.0
 40
10.0
100
AcDbArc
 50
180.0
 51
270.0
  0
LINE
  5
3E0
330
210
100
AcDbEntity
  8
7_ALL_FEATURES
  6
Continuous
 62
     3
100
AcDbLine
 10
140.334507
 20
367.73736
 30
0.0
 11
168.334507
 21
367.73736
 31
0.0
  0
LINE
  5
3E1
330
210
100
AcDbEntity
  8
7_ALL_FEATURES
  6
Continuous
 62
     3
100
AcDbLine
 10
168.334507
 20
397.73736
 30
0.0
 11
140.334507
 21
397.73736
 31
0.0
  0
ARC
  5
3E2
330
210
100
AcDbEntity
  8
7_ALL_FEATURES
  6
Continuous
 62
     3
100
AcDbCircle
 10
140.334507
 20
387.73736
 30
0.0
 40
10.0
100
AcDbArc
 50
90.0
 51
180.0
  0
LINE
  5
3E3
330
210
100
AcDbEntity
  8
7_ALL_FEATURES
  6
Continuous
 62
     3
100
AcDbLine
 10
624.334507
 20
217.73736
 30
0.0
 11
623.334507
 21
217.73736
 31
0.0
  0
LINE
  5
3E4
330
210
100
AcDbEntity
  8
7_ALL_FEATURES
  6
Continuous
 62
     3
100
AcDbLine
 10
624.334507
 20
187.73736
 30
0.0
 11
623.334507
 21
187.73736
 31
0.0
  0
LINE
  5
3E5
330
210
100
AcDbEntity
  8
7_ALL_FEATURES
  6
Continuous
 62
     3
100
AcDbLine
 10
652.334507
 20
217.73736
 30
0.0
 11
624.334507
 21
217.73736
 31
0.0
  0
LINE
  5
3E6
330
210
100
AcDbEntity
  8
7_ALL_FEATURES
  6
Continuous
 62
     3
100
AcDbLine
 10
624.334507
 20
187.73736
 30
0.0
 11
652.334507
 21
187.73736
 31
0.0
  0
LINE
  5
3E7
330
210
100
AcDbEntity
  8
7_ALL_FEATURES
  6
Continuous
 62
     3
100
AcDbLine
 10
169.334507
 20
418.73736
 30
0.0
 11
169.334507
 21
420.73736
 31
0.0
  0
LINE
  5
3E8
330
210
100
AcDbEntity
  8
7_ALL_FEATURES
  6
Continuous
 62
     3
100
AcDbLine
 10
169.334507
 20
412.73736
 30
0.0
 11
169.334507
 21
418.73736
 31
0.0
  0
ARC
  5
3E9
330
210
100
AcDbEntity
  8
7_ALL_FEATURES
  6
Continuous
 62
     3
100
AcDbCircle
 10
652.334507
 20
197.73736
 30
0.0
 40
10.0
100
AcDbArc
 50
270.0
 51
360.0
  0
LINE
  5
3EA
330
210
100
AcDbEntity
  8
7_ALL_FEATURES
  6
Continuous
 62
     3
100
AcDbLine
 10
662.334507
 20
197.73736
 30
0.0
 11
662.334507
 21
207.73736
 31
0.0
  0
LINE
  5
3EB
330
210
100
AcDbEntity
  8
7_ALL_FEATURES
  6
Continuous
 62
     3
100
AcDbLine
 10
169.334507
 20
172.73736
 30
0.0
 11
169.334507
 21
166.73736
 31
0.0
  0
LINE
  5
3EC
330
210
100
AcDbEntity
  8
7_ALL_FEATURES
  6
Continuous
 62
     3
100
AcDbLine
 10
169.334507
 20
164.73736
 30
0.0
 11
169.334507
 21
166.73736
 31
0.0
  0
ARC
  5
3ED
330
210
100
AcDbEntity
  8
7_ALL_FEATURES
  6
Continuous
 62
     3
100
AcDbCircle
 10
652.334507
 20
207.73736
 30
0.0
 40
10.0
100
AcDbArc
 50
0.0
 51
90.0
  0
LINE
  5
3EE
330
210
100
AcDbEntity
  8
7_ALL_FEATURES
  6
Continuous
 62
     3
100
AcDbLine
 10
624.334507
 20
397.73736
 30
0.0
 11
623.334507
 21
397.73736
 31
0.0
  0
LINE
  5
3EF
330
210
100
AcDbEntity
  8
7_ALL_FEATURES
  6
Continuous
 62
     3
100
AcDbLine
 10
624.334507
 20
367.73736
 30
0.0
 11
623.334507
 21
367.73736
 31
0.0
  0
LINE
  5
3F0
330
210
100
AcDbEntity
  8
7_ALL_FEATURES
  6
Continuous
 62
     3
100
AcDbLine
 10
624.334507
 20
397.73736
 30
0.0
 11
652.334507
 21
397.73736
 31
0.0
  0
LINE
  5
3F1
330
210
100
AcDbEntity
  8
7_ALL_FEATURES
  6
Continuous
 62
     3
100
AcDbLine
 10
652.334507
 20
367.73736
 30
0.0
 11
624.334507
 21
367.73736
 31
0.0
  0
ARC
  5
3F2
330
210
100
AcDbEntity
  8
7_ALL_FEATURES
  6
Continuous
 62
     3
100
AcDbCircle
 10
652.334507
 20
377.73736
 30
0.0
 40
10.0
100
AcDbArc
 50
270.0
 51
360.0
  0
LINE
  5
3F3
330
210
100
AcDbEntity
  8
7_ALL_FEATURES
  6
Continuous
 62
     3
100
AcDbLine
 10
169.334507
 20
172.73736
 30
0.0
 11
169.334507
 21
412.73736
 31
0.0
  0
LINE
  5
3F4
330
210
100
AcDbEntity
  8
7_ALL_FEATURES
  6
Continuous
 62
     3
100
AcDbLine
 10
169.334507
 20
412.73736
 30
0.0
 11
170.569141
 21
412.73736
 31
0.0
  0
LINE
  5
3F5
330
210
100
AcDbEntity
  8
7_ALL_FEATURES
  6
Continuous
 62
     3
100
AcDbLine
 10
170.569141
 20
412.73736
 30
0.0
 11
171.334507
 21
412.73736
 31
0.0
  0
LINE
  5
3F6
330
210
100
AcDbEntity
  8
7_ALL_FEATURES
  6
Continuous
 62
     3
100
AcDbLine
 10
169.334507
 20
172.73736
 30
0.0
 11
170.334507
 21
172.73736
 31
0.0
  0
LINE
  5
3F7
330
210
100
AcDbEntity
  8
7_ALL_FEATURES
  6
Continuous
 62
     3
100
AcDbLine
 10
170.334507
 20
172.73736
 30
0.0
 11
170.569141
 21
172.73736
 31
0.0
  0
LINE
  5
3F8
330
210
100
AcDbEntity
  8
7_ALL_FEATURES
  6
Continuous
 62
     3
100
AcDbLine
 10
170.569141
 20
172.73736
 30
0.0
 11
171.334507
 21
172.73736
 31
0.0
  0
LINE
  5
3F9
330
210
100
AcDbEntity
  8
7_ALL_FEATURES
  6
Continuous
 62
     3
100
AcDbLine
 10
662.334507
 20
387.73736
 30
0.0
 11
662.334507
 21
377.73736
 31
0.0
  0
ARC
  5
3FA
330
210
100
AcDbEntity
  8
7_ALL_FEATURES
  6
Continuous
 62
     3
100
AcDbCircle
 10
652.334507
 20
387.73736
 30
0.0
 40
10.0
100
AcDbArc
 50
0.0
 51
90.0
  0
LINE
  5
3FB
330
210
100
AcDbEntity
  8
7_ALL_FEATURES
  6
Continuous
 62
     3
100
AcDbLine
 10
623.334507
 20
166.73736
 30
0.0
 11
623.334507
 21
164.73736
 31
0.0
  0
LINE
  5
3FC
330
210
100
AcDbEntity
  8
7_ALL_FEATURES
  6
Continuous
 62
     3
100
AcDbLine
 10
623.334507
 20
172.73736
 30
0.0
 11
623.334507
 21
166.73736
 31
0.0
  0
LINE
  5
3FD
330
210
100
AcDbEntity
  8
7_ALL_FEATURES
  6
Continuous
 62
     3
100
AcDbLine
 10
623.334507
 20
412.73736
 30
0.0
 11
623.334507
 21
418.73736
 31
0.0
  0
LINE
  5
3FE
330
210
100
AcDbEntity
  8
7_ALL_FEATURES
  6
Continuous
 62
     3
100
AcDbLine
 10
623.334507
 20
420.73736
 30
0.0
 11
623.334507
 21
418.73736
 31
0.0
  0
LINE
  5
3FF
330
210
100
AcDbEntity
  8
7_ALL_FEATURES
  6
Continuous
 62
     3
100
AcDbLine
 10
623.334507
 20
412.73736
 30
0.0
 11
623.334507
 21
172.73736
 31
0.0
  0
LINE
  5
400
330
210
100
AcDbEntity
  8
7_ALL_FEATURES
  6
Continuous
 62
     3
100
AcDbLine
 10
623.334507
 20
172.73736
 30
0.0
 11
622.099874
 21
172.73736
 31
0.0
  0
LINE
  5
401
330
210
100
AcDbEntity
  8
7_ALL_FEATURES
  6
Continuous
 62
     3
100
AcDbLine
 10
622.099874
 20
172.73736
 30
0.0
 11
621.334507
 21
172.73736
 31
0.0
  0
LINE
  5
402
330
210
100
AcDbEntity
  8
7_ALL_FEATURES
  6
Continuous
 62
     3
100
AcDbLine
 10
623.334507
 20
412.73736
 30
0.0
 11
622.334507
 21
412.73736
 31
0.0
  0
LINE
  5
403
330
210
100
AcDbEntity
  8
7_ALL_FEATURES
  6
Continuous
 62
     3
100
AcDbLine
 10
622.334507
 20
412.73736
 30
0.0
 11
622.099874
 21
412.73736
 31
0.0
  0
LINE
  5
404
330
210
100
AcDbEntity
  8
7_ALL_FEATURES
  6
Continuous
 62
     3
100
AcDbLine
 10
622.099874
 20
412.73736
 30
0.0
 11
621.334507
 21
412.73736
 31
0.0
  0
LINE
  5
405
330
210
100
AcDbEntity
  8
7_ALL_FEATURES
  6
Continuous
 62
     9
100
AcDbLine
 10
168.334507
 20
217.73736
 30
0.0
 11
168.334507
 21
187.73736
 31
0.0
  0
LINE
  5
406
330
210
100
AcDbEntity
  8
7_ALL_FEATURES
  6
Continuous
 62
     9
100
AcDbLine
 10
171.334507
 20
172.73736
 30
0.0
 11
171.334507
 21
412.73736
 31
0.0
  0
LINE
  5
407
330
210
100
AcDbEntity
  8
7_ALL_FEATURES
  6
Continuous
 62
     9
100
AcDbLine
 10
621.334507
 20
412.73736
 30
0.0
 11
621.334507
 21
172.73736
 31
0.0
  0
LINE
  5
408
330
210
100
AcDbEntity
  8
7_ALL_FEATURES
  6
Continuous
 62
     9
100
AcDbLine
 10
624.334507
 20
217.73736
 30
0.0
 11
624.334507
 21
187.73736
 31
0.0
  0
LINE
  5
409
330
210
100
AcDbEntity
  8
7_ALL_FEATURES
  6
Continuous
 62
     9
100
AcDbLine
 10
168.334507
 20
367.73736
 30
0.0
 11
168.334507
 21
397.73736
 31
0.0
  0
LINE
  5
40A
330
210
100
AcDbEntity
  8
7_ALL_FEATURES
  6
Continuous
 62
     9
100
AcDbLine
 10
624.334507
 20
367.73736
 30
0.0
 11
624.334507
 21
397.73736
 31
0.0
  0
ARC
  5
40B
330
210
100
AcDbEntity
  8
3_ALL_AXES
  6
Continuous
 62
     7
100
AcDbCircle
 10
321.334507
 20
682.221213
 30
0.0
 40
8.0
100
AcDbArc
 50
68.746191
 51
90.0
  0
LINE
  5
40C
330
210
100
AcDbEntity
  8
3_ALL_AXES
  6
Continuous
 62
     7
100
AcDbLine
 10
318.434507
 20
688.971213
 30
0.0
 11
318.434507
 21
689.677083
 31
0.0
  0
LINE
  5
40D
330
210
100
AcDbEntity
  8
3_ALL_AXES
  6
Continuous
 62
     7
100
AcDbLine
 10
324.234507
 20
688.971213
 30
0.0
 11
324.234507
 21
689.677083
 31
0.0
  0
ARC
  5
40E
330
210
100
AcDbEntity
  8
3_ALL_AXES
  6
Continuous
 62
     7
100
AcDbCircle
 10
321.334507
 20
682.221213
 30
0.0
 40
8.0
100
AcDbArc
 50
90.0
 51
111.253809
  0
LINE
  5
40F
330
210
100
AcDbEntity
  8
3_ALL_AXES
  6
Continuous
 62
     7
100
AcDbLine
 10
318.434507
 20
689.677083
 30
0.0
 11
324.234507
 21
689.677083
 31
0.0
  0
ARC
  5
410
330
210
100
AcDbEntity
  8
3_ALL_AXES
  6
Continuous
 62
     7
100
AcDbCircle
 10
471.334507
 20
682.221213
 30
0.0
 40
8.0
100
AcDbArc
 50
68.746191
 51
90.0
  0
LINE
  5
411
330
210
100
AcDbEntity
  8
3_ALL_AXES
  6
Continuous
 62
     7
100
AcDbLine
 10
468.434507
 20
688.971213
 30
0.0
 11
468.434507
 21
689.677083
 31
0.0
  0
LINE
  5
412
330
210
100
AcDbEntity
  8
3_ALL_AXES
  6
Continuous
 62
     7
100
AcDbLine
 10
474.234507
 20
688.971213
 30
0.0
 11
474.234507
 21
689.677083
 31
0.0
  0
ARC
  5
413
330
210
100
AcDbEntity
  8
3_ALL_AXES
  6
Continuous
 62
     7
100
AcDbCircle
 10
471.334507
 20
682.221213
 30
0.0
 40
8.0
100
AcDbArc
 50
90.0
 51
111.253809
  0
LINE
  5
414
330
210
100
AcDbEntity
  8
3_ALL_AXES
  6
Continuous
 62
     7
100
AcDbLine
 10
468.434507
 20
689.677083
 30
0.0
 11
474.234507
 21
689.677083
 31
0.0
  0
LINE
  5
415
330
210
100
AcDbEntity
  8
7_ALL_FEATURES
  6
Continuous
 62
     7
100
AcDbLine
 10
627.334507
 20
567.971213
 30
0.0
 11
624.334507
 21
567.971213
 31
0.0
  0
LINE
  5
416
330
210
100
AcDbEntity
  8
7_ALL_FEATURES
  6
Continuous
 62
     7
100
AcDbLine
 10
624.334507
 20
567.971213
 30
0.0
 11
621.334507
 21
567.971213
 31
0.0
  0
LINE
  5
417
330
210
100
AcDbEntity
  8
7_ALL_FEATURES
  6
Continuous
 62
     7
100
AcDbLine
 10
171.334507
 20
567.971213
 30
0.0
 11
168.334507
 21
567.971213
 31
0.0
  0
LINE
  5
418
330
210
100
AcDbEntity
  8
7_ALL_FEATURES
  6
Continuous
 62
     7
100
AcDbLine
 10
168.334507
 20
567.971213
 30
0.0
 11
165.334507
 21
567.971213
 31
0.0
  0
LINE
  5
419
330
210
100
AcDbEntity
  8
7_ALL_FEATURES
  6
Continuous
 62
     7
100
AcDbLine
 10
165.334507
 20
568.971213
 30
0.0
 11
165.334507
 21
567.971213
 31
0.0
  0
LINE
  5
41A
330
210
100
AcDbEntity
  8
7_ALL_FEATURES
  6
Continuous
 62
     7
100
AcDbLine
 10
627.334507
 20
568.971213
 30
0.0
 11
627.334507
 21
567.971213
 31
0.0
  0
LINE
  5
41B
330
210
100
AcDbEntity
  8
7_ALL_FEATURES
  6
Continuous
 62
     7
100
AcDbLine
 10
231.334507
 20
689.971213
 30
0.0
 11
231.334507
 21
688.971213
 31
0.0
  0
LINE
  5
41C
330
210
100
AcDbEntity
  8
7_ALL_FEATURES
  6
Continuous
 62
     7
100
AcDbLine
 10
621.334507
 20
569.971213
 30
0.0
 11
621.334507
 21
568.557
 31
0.0
  0
LINE
  5
41D
330
210
100
AcDbEntity
  8
7_ALL_FEATURES
  6
Continuous
 62
     7
100
AcDbLine
 10
621.334507
 20
568.557
 30
0.0
 11
621.334507
 21
567.971213
 31
0.0
  0
LINE
  5
41E
330
210
100
AcDbEntity
  8
7_ALL_FEATURES
  6
Continuous
 62
     7
100
AcDbLine
 10
171.334507
 20
567.971213
 30
0.0
 11
621.334507
 21
567.971213
 31
0.0
  0
LINE
  5
41F
330
210
100
AcDbEntity
  8
7_ALL_FEATURES
  6
Continuous
 62
     7
100
AcDbLine
 10
171.334507
 20
569.971213
 30
0.0
 11
171.334507
 21
568.971213
 31
0.0
  0
LINE
  5
420
330
210
100
AcDbEntity
  8
7_ALL_FEATURES
  6
Continuous
 62
     7
100
AcDbLine
 10
171.334507
 20
568.971213
 30
0.0
 11
171.334507
 21
568.557
 31
0.0
  0
LINE
  5
421
330
210
100
AcDbEntity
  8
7_ALL_FEATURES
  6
Continuous
 62
     7
100
AcDbLine
 10
171.334507
 20
568.557
 30
0.0
 11
171.334507
 21
567.971213
 31
0.0
  0
LINE
  5
422
330
210
100
AcDbEntity
  8
7_ALL_FEATURES
  6
Continuous
 62
     7
100
AcDbLine
 10
261.334507
 20
689.971213
 30
0.0
 11
261.334507
 21
688.971213
 31
0.0
  0
LINE
  5
423
330
210
100
AcDbEntity
  8
7_ALL_FEATURES
  6
Continuous
 62
     7
100
AcDbLine
 10
231.334507
 20
689.971213
 30
0.0
 11
261.334507
 21
689.971213
 31
0.0
  0
LINE
  5
424
330
210
100
AcDbEntity
  8
7_ALL_FEATURES
  6
Continuous
 62
     7
100
AcDbLine
 10
531.334507
 20
689.971213
 30
0.0
 11
531.334507
 21
688.971213
 31
0.0
  0
LINE
  5
425
330
210
100
AcDbEntity
  8
7_ALL_FEATURES
  6
Continuous
 62
     7
100
AcDbLine
 10
561.334507
 20
689.971213
 30
0.0
 11
561.334507
 21
688.971213
 31
0.0
  0
LINE
  5
426
330
210
100
AcDbEntity
  8
7_ALL_FEATURES
  6
Continuous
 62
     7
100
AcDbLine
 10
561.334507
 20
689.971213
 30
0.0
 11
531.334507
 21
689.971213
 31
0.0
  0
LINE
  5
427
330
210
100
AcDbEntity
  8
7_ALL_FEATURES
  6
Continuous
 62
     7
100
AcDbLine
 10
624.334507
 20
633.971213
 30
0.0
 11
624.334507
 21
636.971213
 31
0.0
  0
LINE
  5
428
330
210
100
AcDbEntity
  8
7_ALL_FEATURES
  6
Continuous
 62
     7
100
AcDbLine
 10
621.334507
 20
633.971213
 30
0.0
 11
622.334507
 21
633.971213
 31
0.0
  0
LINE
  5
429
330
210
100
AcDbEntity
  8
7_ALL_FEATURES
  6
Continuous
 62
     7
100
AcDbLine
 10
623.334507
 20
633.971213
 30
0.0
 11
624.334507
 21
633.971213
 31
0.0
  0
LINE
  5
42A
330
210
100
AcDbEntity
  8
7_ALL_FEATURES
  6
Continuous
 62
     7
100
AcDbLine
 10
621.334507
 20
633.971213
 30
0.0
 11
621.334507
 21
684.971213
 31
0.0
  0
ARC
  5
42B
330
210
100
AcDbEntity
  8
7_ALL_FEATURES
  6
Continuous
 62
     7
100
AcDbCircle
 10
618.334507
 20
684.971213
 30
0.0
 40
3.0
100
AcDbArc
 50
0.0
 51
54.0
  0
ARC
  5
42C
330
210
100
AcDbEntity
  8
7_ALL_FEATURES
  6
Continuous
 62
     7
100
AcDbCircle
 10
618.334507
 20
684.971213
 30
0.0
 40
3.0
100
AcDbArc
 50
54.0
 51
90.0
  0
ARC
  5
42D
330
210
100
AcDbEntity
  8
7_ALL_FEATURES
  6
Continuous
 62
     7
100
AcDbCircle
 10
174.334507
 20
684.971213
 30
0.0
 40
3.0
100
AcDbArc
 50
90.0
 51
126.0
  0
ARC
  5
42E
330
210
100
AcDbEntity
  8
7_ALL_FEATURES
  6
Continuous
 62
     7
100
AcDbCircle
 10
174.334507
 20
684.971213
 30
0.0
 40
3.0
100
AcDbArc
 50
126.0
 51
180.0
  0
LINE
  5
42F
330
210
100
AcDbEntity
  8
7_ALL_FEATURES
  6
Continuous
 62
     7
100
AcDbLine
 10
171.334507
 20
684.971213
 30
0.0
 11
171.334507
 21
633.971213
 31
0.0
  0
LINE
  5
430
330
210
100
AcDbEntity
  8
7_ALL_FEATURES
  6
Continuous
 62
     7
100
AcDbLine
 10
171.334507
 20
633.971213
 30
0.0
 11
170.334507
 21
633.971213
 31
0.0
  0
LINE
  5
431
330
210
100
AcDbEntity
  8
7_ALL_FEATURES
  6
Continuous
 62
     7
100
AcDbLine
 10
169.334507
 20
633.971213
 30
0.0
 11
168.334507
 21
633.971213
 31
0.0
  0
LINE
  5
432
330
210
100
AcDbEntity
  8
7_ALL_FEATURES
  6
Continuous
 62
     7
100
AcDbLine
 10
168.334507
 20
633.971213
 30
0.0
 11
168.334507
 21
636.971213
 31
0.0
  0
ARC
  5
433
330
210
100
AcDbEntity
  8
7_ALL_FEATURES
  6
Continuous
 62
     7
100
AcDbCircle
 10
167.334507
 20
636.971213
 30
0.0
 40
1.0
100
AcDbArc
 50
0.0
 51
90.0
  0
LINE
  5
434
330
210
100
AcDbEntity
  8
7_ALL_FEATURES
  6
Continuous
 62
     7
100
AcDbLine
 10
167.334507
 20
637.971213
 30
0.0
 11
165.334507
 21
637.971213
 31
0.0
  0
ARC
  5
435
330
210
100
AcDbEntity
  8
7_ALL_FEATURES
  6
Continuous
 62
     7
100
AcDbCircle
 10
165.334507
 20
635.971213
 30
0.0
 40
2.0
100
AcDbArc
 50
90.0
 51
180.0
  0
LINE
  5
436
330
210
100
AcDbEntity
  8
7_ALL_FEATURES
  6
Continuous
 62
     7
100
AcDbLine
 10
163.334507
 20
635.971213
 30
0.0
 11
163.334507
 21
616.971213
 31
0.0
  0
ARC
  5
437
330
210
100
AcDbEntity
  8
7_ALL_FEATURES
  6
Continuous
 62
     7
100
AcDbCircle
 10
165.334507
 20
616.971213
 30
0.0
 40
2.0
100
AcDbArc
 50
180.0
 51
270.0
  0
LINE
  5
438
330
210
100
AcDbEntity
  8
7_ALL_FEATURES
  6
Continuous
 62
     7
100
AcDbLine
 10
165.334507
 20
614.971213
 30
0.0
 11
171.334507
 21
614.971213
 31
0.0
  0
LINE
  5
439
330
210
100
AcDbEntity
  8
7_ALL_FEATURES
  6
Continuous
 62
     7
100
AcDbLine
 10
171.334507
 20
614.971213
 30
0.0
 11
171.334507
 21
569.971213
 31
0.0
  0
LINE
  5
43A
330
210
100
AcDbEntity
  8
7_ALL_FEATURES
  6
Continuous
 62
     7
100
AcDbLine
 10
621.334507
 20
569.971213
 30
0.0
 11
621.334507
 21
614.971213
 31
0.0
  0
LINE
  5
43B
330
210
100
AcDbEntity
  8
7_ALL_FEATURES
  6
Continuous
 62
     7
100
AcDbLine
 10
627.334507
 20
614.971213
 30
0.0
 11
621.334507
 21
614.971213
 31
0.0
  0
ARC
  5
43C
330
210
100
AcDbEntity
  8
7_ALL_FEATURES
  6
Continuous
 62
     7
100
AcDbCircle
 10
627.334507
 20
616.971213
 30
0.0
 40
2.0
100
AcDbArc
 50
270.0
 51
360.0
  0
LINE
  5
43D
330
210
100
AcDbEntity
  8
7_ALL_FEATURES
  6
Continuous
 62
     7
100
AcDbLine
 10
629.334507
 20
635.971213
 30
0.0
 11
629.334507
 21
616.971213
 31
0.0
  0
ARC
  5
43E
330
210
100
AcDbEntity
  8
7_ALL_FEATURES
  6
Continuous
 62
     7
100
AcDbCircle
 10
627.334507
 20
635.971213
 30
0.0
 40
2.0
100
AcDbArc
 50
0.0
 51
90.0
  0
LINE
  5
43F
330
210
100
AcDbEntity
  8
7_ALL_FEATURES
  6
Continuous
 62
     7
100
AcDbLine
 10
625.334507
 20
637.971213
 30
0.0
 11
627.334507
 21
637.971213
 31
0.0
  0
ARC
  5
440
330
210
100
AcDbEntity
  8
7_ALL_FEATURES
  6
Continuous
 62
     7
100
AcDbCircle
 10
625.334507
 20
636.971213
 30
0.0
 40
1.0
100
AcDbArc
 50
90.0
 51
180.0
  0
ARC
  5
441
330
210
100
AcDbEntity
  8
7_ALL_FEATURES
  6
Continuous
 62
     7
100
AcDbCircle
 10
596.334507
 20
592.971213
 30
0.0
 40
13.0
100
AcDbArc
 50
2.204228
 51
87.795772
  0
LINE
  5
442
330
210
100
AcDbEntity
  8
7_ALL_FEATURES
  6
Continuous
 62
     7
100
AcDbLine
 10
608.324086
 20
593.471213
 30
0.0
 11
609.324888
 21
593.471213
 31
0.0
  0
ARC
  5
443
330
210
100
AcDbEntity
  8
7_ALL_FEATURES
  6
Continuous
 62
     7
100
AcDbCircle
 10
596.334507
 20
592.971213
 30
0.0
 40
12.0
100
AcDbArc
 50
2.388015
 51
87.611985
  0
LINE
  5
444
330
210
100
AcDbEntity
  8
7_ALL_FEATURES
  6
Continuous
 62
     7
100
AcDbLine
 10
596.834507
 20
605.961594
 30
0.0
 11
596.834507
 21
604.960792
 31
0.0
  0
LINE
  5
445
330
210
100
AcDbEntity
  8
7_ALL_FEATURES
  6
Continuous
 62
     7
100
AcDbLine
 10
595.834507
 20
604.960792
 30
0.0
 11
595.834507
 21
605.961594
 31
0.0
  0
ARC
  5
446
330
210
100
AcDbEntity
  8
7_ALL_FEATURES
  6
Continuous
 62
     7
100
AcDbCircle
 10
596.334507
 20
592.971213
 30
0.0
 40
12.0
100
AcDbArc
 50
92.388015
 51
177.611985
  0
LINE
  5
447
330
210
100
AcDbEntity
  8
7_ALL_FEATURES
  6
Continuous
 62
     7
100
AcDbLine
 10
583.344126
 20
593.471213
 30
0.0
 11
584.344929
 21
593.471213
 31
0.0
  0
ARC
  5
448
330
210
100
AcDbEntity
  8
7_ALL_FEATURES
  6
Continuous
 62
     7
100
AcDbCircle
 10
596.334507
 20
592.971213
 30
0.0
 40
13.0
100
AcDbArc
 50
92.204228
 51
177.795772
  0
ARC
  5
449
330
210
100
AcDbEntity
  8
7_ALL_FEATURES
  6
Continuous
 62
     7
100
AcDbCircle
 10
596.334507
 20
592.971213
 30
0.0
 40
13.0
100
AcDbArc
 50
182.204228
 51
357.795772
  0
LINE
  5
44A
330
210
100
AcDbEntity
  8
7_ALL_FEATURES
  6
Continuous
 62
     7
100
AcDbLine
 10
584.344929
 20
592.471213
 30
0.0
 11
583.344126
 21
592.471213
 31
0.0
  0
ARC
  5
44B
330
210
100
AcDbEntity
  8
7_ALL_FEATURES
  6
Continuous
 62
     7
100
AcDbCircle
 10
596.334507
 20
592.971213
 30
0.0
 40
12.0
100
AcDbArc
 50
182.388015
 51
357.611985
  0
LINE
  5
44C
330
210
100
AcDbEntity
  8
7_ALL_FEATURES
  6
Continuous
 62
     7
100
AcDbLine
 10
609.324888
 20
592.471213
 30
0.0
 11
608.324086
 21
592.471213
 31
0.0
  0
LINE
  5
44D
330
210
100
AcDbEntity
  8
7_ALL_FEATURES
  6
Continuous
 62
     7
100
AcDbLine
 10
195.834507
 20
604.960792
 30
0.0
 11
195.834507
 21
605.961594
 31
0.0
  0
ARC
  5
44E
330
210
100
AcDbEntity
  8
7_ALL_FEATURES
  6
Continuous
 62
     7
100
AcDbCircle
 10
196.334507
 20
592.971213
 30
0.0
 40
12.0
100
AcDbArc
 50
92.388015
 51
177.611985
  0
LINE
  5
44F
330
210
100
AcDbEntity
  8
7_ALL_FEATURES
  6
Continuous
 62
     7
100
AcDbLine
 10
183.344126
 20
593.471213
 30
0.0
 11
184.344929
 21
593.471213
 31
0.0
  0
ARC
  5
450
330
210
100
AcDbEntity
  8
7_ALL_FEATURES
  6
Continuous
 62
     7
100
AcDbCircle
 10
196.334507
 20
592.971213
 30
0.0
 40
13.0
100
AcDbArc
 50
92.204228
 51
177.795772
  0
ARC
  5
451
330
210
100
AcDbEntity
  8
7_ALL_FEATURES
  6
Continuous
 62
     7
100
AcDbCircle
 10
196.334507
 20
592.971213
 30
0.0
 40
13.0
100
AcDbArc
 50
2.204228
 51
87.795772
  0
LINE
  5
452
330
210
100
AcDbEntity
  8
7_ALL_FEATURES
  6
Continuous
 62
     7
100
AcDbLine
 10
208.324086
 20
593.471213
 30
0.0
 11
209.324888
 21
593.471213
 31
0.0
  0
ARC
  5
453
330
210
100
AcDbEntity
  8
7_ALL_FEATURES
  6
Continuous
 62
     7
100
AcDbCircle
 10
196.334507
 20
592.971213
 30
0.0
 40
12.0
100
AcDbArc
 50
2.388015
 51
87.611985
  0
LINE
  5
454
330
210
100
AcDbEntity
  8
7_ALL_FEATURES
  6
Continuous
 62
     7
100
AcDbLine
 10
196.834507
 20
605.961594
 30
0.0
 11
196.834507
 21
604.960792
 31
0.0
  0
LINE
  5
455
330
210
100
AcDbEntity
  8
7_ALL_FEATURES
  6
Continuous
 62
     7
100
AcDbLine
 10
184.344929
 20
592.471213
 30
0.0
 11
183.344126
 21
592.471213
 31
0.0
  0
ARC
  5
456
330
210
100
AcDbEntity
  8
7_ALL_FEATURES
  6
Continuous
 62
     7
100
AcDbCircle
 10
196.334507
 20
592.971213
 30
0.0
 40
12.0
100
AcDbArc
 50
182.388015
 51
357.611985
  0
LINE
  5
457
330
210
100
AcDbEntity
  8
7_ALL_FEATURES
  6
Continuous
 62
     7
100
AcDbLine
 10
209.324888
 20
592.471213
 30
0.0
 11
208.324086
 21
592.471213
 31
0.0
  0
ARC
  5
458
330
210
100
AcDbEntity
  8
7_ALL_FEATURES
  6
Continuous
 62
     7
100
AcDbCircle
 10
196.334507
 20
592.971213
 30
0.0
 40
13.0
100
AcDbArc
 50
182.204228
 51
357.795772
  0
LINE
  5
459
330
210
100
AcDbEntity
  8
7_ALL_FEATURES
  6
Continuous
 62
     7
100
AcDbLine
 10
395.834507
 20
604.960792
 30
0.0
 11
395.834507
 21
605.961594
 31
0.0
  0
ARC
  5
45A
330
210
100
AcDbEntity
  8
7_ALL_FEATURES
  6
Continuous
 62
     7
100
AcDbCircle
 10
396.334507
 20
592.971213
 30
0.0
 40
12.0
100
AcDbArc
 50
92.388015
 51
177.611985
  0
LINE
  5
45B
330
210
100
AcDbEntity
  8
7_ALL_FEATURES
  6
Continuous
 62
     7
100
AcDbLine
 10
383.344126
 20
593.471213
 30
0.0
 11
384.344929
 21
593.471213
 31
0.0
  0
ARC
  5
45C
330
210
100
AcDbEntity
  8
7_ALL_FEATURES
  6
Continuous
 62
     7
100
AcDbCircle
 10
396.334507
 20
592.971213
 30
0.0
 40
13.0
100
AcDbArc
 50
92.204228
 51
177.795772
  0
ARC
  5
45D
330
210
100
AcDbEntity
  8
7_ALL_FEATURES
  6
Continuous
 62
     7
100
AcDbCircle
 10
396.334507
 20
592.971213
 30
0.0
 40
13.0
100
AcDbArc
 50
2.204228
 51
87.795772
  0
LINE
  5
45E
330
210
100
AcDbEntity
  8
7_ALL_FEATURES
  6
Continuous
 62
     7
100
AcDbLine
 10
408.324086
 20
593.471213
 30
0.0
 11
409.324888
 21
593.471213
 31
0.0
  0
ARC
  5
45F
330
210
100
AcDbEntity
  8
7_ALL_FEATURES
  6
Continuous
 62
     7
100
AcDbCircle
 10
396.334507
 20
592.971213
 30
0.0
 40
12.0
100
AcDbArc
 50
2.388015
 51
87.611985
  0
LINE
  5
460
330
210
100
AcDbEntity
  8
7_ALL_FEATURES
  6
Continuous
 62
     7
100
AcDbLine
 10
396.834507
 20
605.961594
 30
0.0
 11
396.834507
 21
604.960792
 31
0.0
  0
LINE
  5
461
330
210
100
AcDbEntity
  8
7_ALL_FEATURES
  6
Continuous
 62
     7
100
AcDbLine
 10
384.344929
 20
592.471213
 30
0.0
 11
383.344126
 21
592.471213
 31
0.0
  0
ARC
  5
462
330
210
100
AcDbEntity
  8
7_ALL_FEATURES
  6
Continuous
 62
     7
100
AcDbCircle
 10
396.334507
 20
592.971213
 30
0.0
 40
12.0
100
AcDbArc
 50
182.388015
 51
357.611985
  0
LINE
  5
463
330
210
100
AcDbEntity
  8
7_ALL_FEATURES
  6
Continuous
 62
     7
100
AcDbLine
 10
409.324888
 20
592.471213
 30
0.0
 11
408.324086
 21
592.471213
 31
0.0
  0
ARC
  5
464
330
210
100
AcDbEntity
  8
7_ALL_FEATURES
  6
Continuous
 62
     7
100
AcDbCircle
 10
396.334507
 20
592.971213
 30
0.0
 40
13.0
100
AcDbArc
 50
182.204228
 51
357.795772
  0
LINE
  5
465
330
210
100
AcDbEntity
  8
7_ALL_FEATURES
  6
Continuous
 62
     9
100
AcDbLine
 10
624.334507
 20
568.971213
 30
0.0
 11
624.334507
 21
567.971213
 31
0.0
  0
LINE
  5
466
330
210
100
AcDbEntity
  8
7_ALL_FEATURES
  6
Continuous
 62
     9
100
AcDbLine
 10
168.334507
 20
568.971213
 30
0.0
 11
168.334507
 21
567.971213
 31
0.0
  0
LINE
  5
467
330
210
100
AcDbEntity
  8
7_ALL_FEATURES
  6
Continuous
 62
     9
100
AcDbLine
 10
171.334507
 20
569.971213
 30
0.0
 11
621.334507
 21
569.971213
 31
0.0
  0
LINE
  5
468
330
210
100
AcDbEntity
  8
7_ALL_FEATURES
  6
Continuous
 62
     7
100
AcDbLine
 10
621.334507
 20
687.971213
 30
0.0
 11
618.334507
 21
687.971213
 31
0.0
  0
LINE
  5
469
330
210
100
AcDbEntity
  8
7_ALL_FEATURES
  6
Continuous
 62
     7
100
AcDbLine
 10
174.334507
 20
687.971213
 30
0.0
 11
618.334507
 21
687.971213
 31
0.0
  0
LINE
  5
46A
330
210
100
AcDbEntity
  8
7_ALL_FEATURES
  6
Continuous
 62
     7
100
AcDbLine
 10
174.334507
 20
687.971213
 30
0.0
 11
171.334507
 21
687.971213
 31
0.0
  0
LINE
  5
46B
330
210
100
AcDbEntity
  8
7_ALL_FEATURES
  6
Continuous
 62
     7
100
AcDbLine
 10
621.334507
 20
687.971213
 30
0.0
 11
621.334507
 21
688.971213
 31
0.0
  0
LINE
  5
46C
330
210
100
AcDbEntity
  8
7_ALL_FEATURES
  6
Continuous
 62
     7
100
AcDbLine
 10
171.334507
 20
687.971213
 30
0.0
 11
171.334507
 21
688.971213
 31
0.0
  0
LINE
  5
46D
330
210
100
AcDbEntity
  8
7_ALL_FEATURES
  6
Continuous
 62
     7
100
AcDbLine
 10
130.334507
 20
568.471213
 30
0.0
 11
130.334507
 21
567.471213
 31
0.0
  0
ARC
  5
46E
330
210
100
AcDbEntity
  8
7_ALL_FEATURES
  6
Continuous
 62
     7
100
AcDbCircle
 10
168.334507
 20
569.471213
 30
0.0
 40
2.0
100
AcDbArc
 50
270.0
 51
272.926111
  0
ARC
  5
46F
330
210
100
AcDbEntity
  8
7_ALL_FEATURES
  6
Continuous
 62
     7
100
AcDbCircle
 10
168.334507
 20
569.471213
 30
0.0
 40
2.0
100
AcDbArc
 50
272.926111
 51
292.5
  0
ARC
  5
470
330
210
100
AcDbEntity
  8
7_ALL_FEATURES
  6
Continuous
 62
     7
100
AcDbCircle
 10
168.334507
 20
569.471213
 30
0.0
 40
2.0
100
AcDbArc
 50
292.5
 51
310.603734
  0
ARC
  5
471
330
210
100
AcDbEntity
  8
7_ALL_FEATURES
  6
Continuous
 62
     7
100
AcDbCircle
 10
168.334507
 20
569.471213
 30
0.0
 40
2.0
100
AcDbArc
 50
345.127037
 51
354.19144
  0
ARC
  5
472
330
210
100
AcDbEntity
  8
7_ALL_FEATURES
  6
Continuous
 62
     7
100
AcDbCircle
 10
168.334507
 20
569.471213
 30
0.0
 40
2.0
100
AcDbArc
 50
354.19144
 51
360.0
  0
LINE
  5
473
330
210
100
AcDbEntity
  8
7_ALL_FEATURES
  6
Continuous
 62
     7
100
AcDbLine
 10
168.334507
 20
567.471213
 30
0.0
 11
165.334507
 21
567.471213
 31
0.0
  0
LINE
  5
474
330
210
100
AcDbEntity
  8
7_ALL_FEATURES
  6
Continuous
 62
     7
100
AcDbLine
 10
165.334507
 20
567.471213
 30
0.0
 11
140.334507
 21
567.471213
 31
0.0
  0
LINE
  5
475
330
210
100
AcDbEntity
  8
7_ALL_FEATURES
  6
Continuous
 62
     7
100
AcDbLine
 10
140.334507
 20
567.471213
 30
0.0
 11
130.334507
 21
567.471213
 31
0.0
  0
LINE
  5
476
330
210
100
AcDbEntity
  8
7_ALL_FEATURES
  6
Continuous
 62
     7
100
AcDbLine
 10
662.334507
 20
568.471213
 30
0.0
 11
662.334507
 21
567.471213
 31
0.0
  0
ARC
  5
477
330
210
100
AcDbEntity
  8
7_ALL_FEATURES
  6
Continuous
 62
     7
100
AcDbCircle
 10
624.334507
 20
569.471213
 30
0.0
 40
2.0
100
AcDbArc
 50
267.073889
 51
270.0
  0
ARC
  5
478
330
210
100
AcDbEntity
  8
7_ALL_FEATURES
  6
Continuous
 62
     7
100
AcDbCircle
 10
624.334507
 20
569.471213
 30
0.0
 40
2.0
100
AcDbArc
 50
247.5
 51
267.073889
  0
ARC
  5
479
330
210
100
AcDbEntity
  8
7_ALL_FEATURES
  6
Continuous
 62
     7
100
AcDbCircle
 10
624.334507
 20
569.471213
 30
0.0
 40
2.0
100
AcDbArc
 50
229.396266
 51
247.5
  0
ARC
  5
47A
330
210
100
AcDbEntity
  8
7_ALL_FEATURES
  6
Continuous
 62
     7
100
AcDbCircle
 10
624.334507
 20
569.471213
 30
0.0
 40
2.0
100
AcDbArc
 50
185.80856
 51
194.872963
  0
ARC
  5
47B
330
210
100
AcDbEntity
  8
7_ALL_FEATURES
  6
Continuous
 62
     7
100
AcDbCircle
 10
624.334507
 20
569.471213
 30
0.0
 40
2.0
100
AcDbArc
 50
180.0
 51
185.80856
  0
LINE
  5
47C
330
210
100
AcDbEntity
  8
7_ALL_FEATURES
  6
Continuous
 62
     7
100
AcDbLine
 10
662.334507
 20
567.471213
 30
0.0
 11
652.334507
 21
567.471213
 31
0.0
  0
ARC
  5
47D
330
210
100
AcDbEntity
  8
7_ALL_FEATURES
  6
Continuous
 62
     7
100
AcDbCircle
 10
171.334507
 20
686.971213
 30
0.0
 40
1.0
100
AcDbArc
 50
90.0
 51
180.0
  0
LINE
  5
47E
330
210
100
AcDbEntity
  8
7_ALL_FEATURES
  6
Continuous
 62
     7
100
AcDbLine
 10
624.334507
 20
567.471213
 30
0.0
 11
627.334507
 21
567.471213
 31
0.0
  0
LINE
  5
47F
330
210
100
AcDbEntity
  8
7_ALL_FEATURES
  6
Continuous
 62
     7
100
AcDbLine
 10
627.334507
 20
567.471213
 30
0.0
 11
652.334507
 21
567.471213
 31
0.0
  0
ARC
  5
480
330
210
100
AcDbEntity
  8
7_ALL_FEATURES
  6
Continuous
 62
     7
100
AcDbCircle
 10
621.334507
 20
569.471213
 30
0.0
 40
1.0
100
AcDbArc
 50
329.401107
 51
337.5
  0
ARC
  5
481
330
210
100
AcDbEntity
  8
7_ALL_FEATURES
  6
Continuous
 62
     7
100
AcDbCircle
 10
621.334507
 20
569.471213
 30
0.0
 40
1.0
100
AcDbArc
 50
337.5
 51
360.0
  0
LINE
  5
482
330
210
100
AcDbEntity
  8
7_ALL_FEATURES
  6
Continuous
 62
     7
100
AcDbLine
 10
588.334507
 20
567.971213
 30
0.0
 11
588.334507
 21
567.471213
 31
0.0
  0
ARC
  5
483
330
210
100
AcDbEntity
  8
7_ALL_FEATURES
  6
Continuous
 62
     7
100
AcDbCircle
 10
171.334507
 20
569.471213
 30
0.0
 40
1.0
100
AcDbArc
 50
202.5
 51
210.598893
  0
ARC
  5
484
330
210
100
AcDbEntity
  8
7_ALL_FEATURES
  6
Continuous
 62
     7
100
AcDbCircle
 10
171.334507
 20
569.471213
 30
0.0
 40
1.0
100
AcDbArc
 50
180.0
 51
202.5
  0
LINE
  5
485
330
210
100
AcDbEntity
  8
7_ALL_FEATURES
  6
Continuous
 62
     7
100
AcDbLine
 10
204.334507
 20
567.971213
 30
0.0
 11
204.334507
 21
567.471213
 31
0.0
  0
ARC
  5
486
330
210
100
AcDbEntity
  8
7_ALL_FEATURES
  6
Continuous
 62
     7
100
AcDbCircle
 10
621.334507
 20
686.971213
 30
0.0
 40
1.0
100
AcDbArc
 50
0.0
 51
90.0
  0
LINE
  5
487
330
210
100
AcDbEntity
  8
7_ALL_FEATURES
  6
Continuous
 62
     7
100
AcDbLine
 10
170.334507
 20
569.471213
 30
0.0
 11
169.334507
 21
569.471213
 31
0.0
  0
LINE
  5
488
330
210
100
AcDbEntity
  8
7_ALL_FEATURES
  6
Continuous
 62
     7
100
AcDbLine
 10
622.334507
 20
569.471213
 30
0.0
 11
623.334507
 21
569.471213
 31
0.0
  0
LINE
  5
489
330
210
100
AcDbEntity
  8
7_ALL_FEATURES
  6
Continuous
 62
     7
100
AcDbLine
 10
622.334507
 20
630.971213
 30
0.0
 11
623.334507
 21
630.971213
 31
0.0
  0
LINE
  5
48A
330
210
100
AcDbEntity
  8
7_ALL_FEATURES
  6
Continuous
 62
     7
100
AcDbLine
 10
622.334507
 20
656.471213
 30
0.0
 11
623.334507
 21
656.471213
 31
0.0
  0
LINE
  5
48B
330
210
100
AcDbEntity
  8
7_ALL_FEATURES
  6
Continuous
 62
     7
100
AcDbLine
 10
170.334507
 20
630.971213
 30
0.0
 11
169.334507
 21
630.971213
 31
0.0
  0
LINE
  5
48C
330
210
100
AcDbEntity
  8
7_ALL_FEATURES
  6
Continuous
 62
     7
100
AcDbLine
 10
170.334507
 20
656.471213
 30
0.0
 11
169.334507
 21
656.471213
 31
0.0
  0
LINE
  5
48D
330
210
100
AcDbEntity
  8
7_ALL_FEATURES
  6
Continuous
 62
     7
100
AcDbLine
 10
170.334507
 20
572.471213
 30
0.0
 11
170.334507
 21
569.471213
 31
0.0
  0
LINE
  5
48E
330
210
100
AcDbEntity
  8
7_ALL_FEATURES
  6
Continuous
 62
     7
100
AcDbLine
 10
170.334507
 20
572.471213
 30
0.0
 11
170.334507
 21
614.971213
 31
0.0
  0
LINE
  5
48F
330
210
100
AcDbEntity
  8
7_ALL_FEATURES
  6
Continuous
 62
     7
100
AcDbLine
 10
170.334507
 20
632.971213
 30
0.0
 11
170.334507
 21
630.971213
 31
0.0
  0
LINE
  5
490
330
210
100
AcDbEntity
  8
7_ALL_FEATURES
  6
Continuous
 62
     7
100
AcDbLine
 10
170.334507
 20
654.471213
 30
0.0
 11
170.334507
 21
632.971213
 31
0.0
  0
LINE
  5
491
330
210
100
AcDbEntity
  8
7_ALL_FEATURES
  6
Continuous
 62
     7
100
AcDbLine
 10
170.334507
 20
656.471213
 30
0.0
 11
170.334507
 21
654.471213
 31
0.0
  0
LINE
  5
492
330
210
100
AcDbEntity
  8
7_ALL_FEATURES
  6
Continuous
 62
     7
100
AcDbLine
 10
170.334507
 20
656.471213
 30
0.0
 11
170.334507
 21
686.971213
 31
0.0
  0
LINE
  5
493
330
210
100
AcDbEntity
  8
7_ALL_FEATURES
  6
Continuous
 62
     7
100
AcDbLine
 10
622.334507
 20
569.471213
 30
0.0
 11
622.334507
 21
572.471213
 31
0.0
  0
LINE
  5
494
330
210
100
AcDbEntity
  8
7_ALL_FEATURES
  6
Continuous
 62
     7
100
AcDbLine
 10
622.334507
 20
614.971213
 30
0.0
 11
622.334507
 21
572.471213
 31
0.0
  0
LINE
  5
495
330
210
100
AcDbEntity
  8
7_ALL_FEATURES
  6
Continuous
 62
     7
100
AcDbLine
 10
622.334507
 20
630.971213
 30
0.0
 11
622.334507
 21
632.971213
 31
0.0
  0
LINE
  5
496
330
210
100
AcDbEntity
  8
7_ALL_FEATURES
  6
Continuous
 62
     7
100
AcDbLine
 10
622.334507
 20
654.471213
 30
0.0
 11
622.334507
 21
632.971213
 31
0.0
  0
LINE
  5
497
330
210
100
AcDbEntity
  8
7_ALL_FEATURES
  6
Continuous
 62
     7
100
AcDbLine
 10
622.334507
 20
654.471213
 30
0.0
 11
622.334507
 21
656.471213
 31
0.0
  0
LINE
  5
498
330
210
100
AcDbEntity
  8
7_ALL_FEATURES
  6
Continuous
 62
     7
100
AcDbLine
 10
622.334507
 20
686.971213
 30
0.0
 11
622.334507
 21
656.471213
 31
0.0
  0
LINE
  5
499
330
210
100
AcDbEntity
  8
7_ALL_FEATURES
  6
Continuous
 62
     9
100
AcDbLine
 10
194.334507
 20
567.971213
 30
0.0
 11
194.334507
 21
567.471213
 31
0.0
  0
LINE
  5
49A
330
210
100
AcDbEntity
  8
7_ALL_FEATURES
  6
Continuous
 62
     9
100
AcDbLine
 10
622.334507
 20
572.471213
 30
0.0
 11
623.334507
 21
572.471213
 31
0.0
  0
LINE
  5
49B
330
210
100
AcDbEntity
  8
7_ALL_FEATURES
  6
Continuous
 62
     9
100
AcDbLine
 10
622.334507
 20
654.471213
 30
0.0
 11
623.334507
 21
654.471213
 31
0.0
  0
LINE
  5
49C
330
210
100
AcDbEntity
  8
7_ALL_FEATURES
  6
Continuous
 62
     9
100
AcDbLine
 10
622.334507
 20
632.971213
 30
0.0
 11
623.334507
 21
632.971213
 31
0.0
  0
LINE
  5
49D
330
210
100
AcDbEntity
  8
7_ALL_FEATURES
  6
Continuous
 62
     9
100
AcDbLine
 10
652.334507
 20
568.471213
 30
0.0
 11
652.334507
 21
567.471213
 31
0.0
  0
LINE
  5
49E
330
210
100
AcDbEntity
  8
7_ALL_FEATURES
  6
Continuous
 62
     9
100
AcDbLine
 10
623.334507
 20
686.971213
 30
0.0
 11
622.334507
 21
686.971213
 31
0.0
  0
LINE
  5
49F
330
210
100
AcDbEntity
  8
7_ALL_FEATURES
  6
Continuous
 62
     9
100
AcDbLine
 10
168.334507
 20
567.471213
 30
0.0
 11
168.334507
 21
567.971213
 31
0.0
  0
LINE
  5
4A0
330
210
100
AcDbEntity
  8
7_ALL_FEATURES
  6
Continuous
 62
     9
100
AcDbLine
 10
174.334507
 20
687.971213
 30
0.0
 11
174.334507
 21
688.971213
 31
0.0
  0
LINE
  5
4A1
330
210
100
AcDbEntity
  8
7_ALL_FEATURES
  6
Continuous
 62
     9
100
AcDbLine
 10
618.334507
 20
687.971213
 30
0.0
 11
618.334507
 21
688.971213
 31
0.0
  0
LINE
  5
4A2
330
210
100
AcDbEntity
  8
7_ALL_FEATURES
  6
Continuous
 62
     9
100
AcDbLine
 10
621.334507
 20
567.471213
 30
0.0
 11
621.334507
 21
567.971213
 31
0.0
  0
LINE
  5
4A3
330
210
100
AcDbEntity
  8
7_ALL_FEATURES
  6
Continuous
 62
     9
100
AcDbLine
 10
169.334507
 20
686.971213
 30
0.0
 11
170.334507
 21
686.971213
 31
0.0
  0
LINE
  5
4A4
330
210
100
AcDbEntity
  8
7_ALL_FEATURES
  6
Continuous
 62
     9
100
AcDbLine
 10
170.334507
 20
572.471213
 30
0.0
 11
169.334507
 21
572.471213
 31
0.0
  0
LINE
  5
4A5
330
210
100
AcDbEntity
  8
7_ALL_FEATURES
  6
Continuous
 62
     9
100
AcDbLine
 10
140.334507
 20
568.471213
 30
0.0
 11
140.334507
 21
567.471213
 31
0.0
  0
LINE
  5
4A6
330
210
100
AcDbEntity
  8
7_ALL_FEATURES
  6
Continuous
 62
     9
100
AcDbLine
 10
624.334507
 20
567.471213
 30
0.0
 11
624.334507
 21
567.971213
 31
0.0
  0
LINE
  5
4A7
330
210
100
AcDbEntity
  8
7_ALL_FEATURES
  6
Continuous
 62
     9
100
AcDbLine
 10
170.334507
 20
654.471213
 30
0.0
 11
169.334507
 21
654.471213
 31
0.0
  0
LINE
  5
4A8
330
210
100
AcDbEntity
  8
7_ALL_FEATURES
  6
Continuous
 62
     9
100
AcDbLine
 10
170.334507
 20
632.971213
 30
0.0
 11
169.334507
 21
632.971213
 31
0.0
  0
LINE
  5
4A9
330
210
100
AcDbEntity
  8
7_ALL_FEATURES
  6
Continuous
 62
     9
100
AcDbLine
 10
598.334507
 20
567.971213
 30
0.0
 11
598.334507
 21
567.471213
 31
0.0
  0
LINE
  5
4AA
330
210
100
AcDbEntity
  8
7_ALL_FEATURES
  6
Continuous
 62
     9
100
AcDbLine
 10
171.334507
 20
567.471213
 30
0.0
 11
171.334507
 21
567.971213
 31
0.0
  0
LINE
  5
4AB
330
210
100
AcDbEntity
  8
7_ALL_FEATURES
  6
Continuous
 62
     3
100
AcDbLine
 10
555.584507
 20
708.971213
 30
0.0
 11
237.084507
 21
708.971213
 31
0.0
  0
LINE
  5
4AC
330
210
100
AcDbEntity
  8
7_ALL_FEATURES
  6
Continuous
 62
     3
100
AcDbLine
 10
234.584507
 20
708.971213
 30
0.0
 11
234.584507
 21
689.971213
 31
0.0
  0
LINE
  5
4AD
330
210
100
AcDbEntity
  8
7_ALL_FEATURES
  6
Continuous
 62
     3
100
AcDbLine
 10
237.084507
 20
708.971213
 30
0.0
 11
235.31674
 21
708.971213
 31
0.0
  0
LINE
  5
4AE
330
210
100
AcDbEntity
  8
7_ALL_FEATURES
  6
Continuous
 62
     3
100
AcDbLine
 10
235.31674
 20
708.971213
 30
0.0
 11
234.584507
 21
708.971213
 31
0.0
  0
LINE
  5
4AF
330
210
100
AcDbEntity
  8
7_ALL_FEATURES
  6
Continuous
 62
     3
100
AcDbLine
 10
558.084507
 20
708.971213
 30
0.0
 11
558.084507
 21
689.971213
 31
0.0
  0
LINE
  5
4B0
330
210
100
AcDbEntity
  8
7_ALL_FEATURES
  6
Continuous
 62
     3
100
AcDbLine
 10
558.084507
 20
708.971213
 30
0.0
 11
557.053971
 21
708.971213
 31
0.0
  0
LINE
  5
4B1
330
210
100
AcDbEntity
  8
7_ALL_FEATURES
  6
Continuous
 62
     3
100
AcDbLine
 10
557.053971
 20
708.971213
 30
0.0
 11
555.584507
 21
708.971213
 31
0.0
  0
LINE
  5
4B2
330
210
100
AcDbEntity
  8
7_ALL_FEATURES
  6
Continuous
 62
     9
100
AcDbLine
 10
555.584507
 20
708.971213
 30
0.0
 11
555.584507
 21
689.971213
 31
0.0
  0
LINE
  5
4B3
330
210
100
AcDbEntity
  8
7_ALL_FEATURES
  6
Continuous
 62
     9
100
AcDbLine
 10
237.084507
 20
708.971213
 30
0.0
 11
237.084507
 21
689.971213
 31
0.0
  0
LINE
  5
4B4
330
210
100
AcDbEntity
  8
7_ALL_FEATURES
  6
Continuous
 62
     3
100
AcDbLine
 10
624.334507
 20
568.971213
 30
0.0
 11
627.334507
 21
568.971213
 31
0.0
  0
LINE
  5
4B5
330
210
100
AcDbEntity
  8
7_ALL_FEATURES
  6
Continuous
 62
     3
100
AcDbLine
 10
624.334507
 20
568.971213
 30
0.0
 11
623.334507
 21
568.971213
 31
0.0
  0
LINE
  5
4B6
330
210
100
AcDbEntity
  8
7_ALL_FEATURES
  6
Continuous
 62
     3
100
AcDbLine
 10
623.334507
 20
568.971213
 30
0.0
 11
622.334507
 21
568.971213
 31
0.0
  0
LINE
  5
4B7
330
210
100
AcDbEntity
  8
7_ALL_FEATURES
  6
Continuous
 62
     3
100
AcDbLine
 10
622.334507
 20
568.971213
 30
0.0
 11
621.334507
 21
568.971213
 31
0.0
  0
LINE
  5
4B8
330
210
100
AcDbEntity
  8
7_ALL_FEATURES
  6
Continuous
 62
     3
100
AcDbLine
 10
171.334507
 20
568.971213
 30
0.0
 11
170.334507
 21
568.971213
 31
0.0
  0
LINE
  5
4B9
330
210
100
AcDbEntity
  8
7_ALL_FEATURES
  6
Continuous
 62
     3
100
AcDbLine
 10
170.334507
 20
568.971213
 30
0.0
 11
169.334507
 21
568.971213
 31
0.0
  0
LINE
  5
4BA
330
210
100
AcDbEntity
  8
7_ALL_FEATURES
  6
Continuous
 62
     3
100
AcDbLine
 10
169.334507
 20
568.971213
 30
0.0
 11
168.334507
 21
568.971213
 31
0.0
  0
LINE
  5
4BB
330
210
100
AcDbEntity
  8
7_ALL_FEATURES
  6
Continuous
 62
     3
100
AcDbLine
 10
165.334507
 20
568.971213
 30
0.0
 11
168.334507
 21
568.971213
 31
0.0
  0
LINE
  5
4BC
330
210
100
AcDbEntity
  8
7_ALL_FEATURES
  6
Continuous
 62
     3
100
AcDbLine
 10
171.334507
 20
688.971213
 30
0.0
 11
174.334507
 21
688.971213
 31
0.0
  0
LINE
  5
4BD
330
210
100
AcDbEntity
  8
7_ALL_FEATURES
  6
Continuous
 62
     3
100
AcDbLine
 10
618.334507
 20
688.971213
 30
0.0
 11
621.334507
 21
688.971213
 31
0.0
  0
LINE
  5
4BE
330
210
100
AcDbEntity
  8
7_ALL_FEATURES
  6
Continuous
 62
     3
100
AcDbLine
 10
174.334507
 20
688.971213
 30
0.0
 11
618.334507
 21
688.971213
 31
0.0
  0
ARC
  5
4BF
330
210
100
AcDbEntity
  8
7_ALL_FEATURES
  6
Continuous
 62
     3
100
AcDbCircle
 10
168.334507
 20
569.471213
 30
0.0
 40
1.0
100
AcDbArc
 50
329.401107
 51
337.5
  0
ARC
  5
4C0
330
210
100
AcDbEntity
  8
7_ALL_FEATURES
  6
Continuous
 62
     3
100
AcDbCircle
 10
168.334507
 20
569.471213
 30
0.0
 40
1.0
100
AcDbArc
 50
337.5
 51
360.0
  0
LINE
  5
4C1
330
210
100
AcDbEntity
  8
7_ALL_FEATURES
  6
Continuous
 62
     3
100
AcDbLine
 10
130.334507
 20
568.471213
 30
0.0
 11
140.334507
 21
568.471213
 31
0.0
  0
LINE
  5
4C2
330
210
100
AcDbEntity
  8
7_ALL_FEATURES
  6
Continuous
 62
     3
100
AcDbLine
 10
165.334507
 20
568.471213
 30
0.0
 11
140.334507
 21
568.471213
 31
0.0
  0
LINE
  5
4C3
330
210
100
AcDbEntity
  8
7_ALL_FEATURES
  6
Continuous
 62
     3
100
AcDbLine
 10
169.334507
 20
656.471213
 30
0.0
 11
169.334507
 21
686.971213
 31
0.0
  0
LINE
  5
4C4
330
210
100
AcDbEntity
  8
7_ALL_FEATURES
  6
Continuous
 62
     3
100
AcDbLine
 10
169.334507
 20
654.471213
 30
0.0
 11
169.334507
 21
656.471213
 31
0.0
  0
LINE
  5
4C5
330
210
100
AcDbEntity
  8
7_ALL_FEATURES
  6
Continuous
 62
     3
100
AcDbLine
 10
169.334507
 20
654.471213
 30
0.0
 11
169.334507
 21
632.971213
 31
0.0
  0
LINE
  5
4C6
330
210
100
AcDbEntity
  8
7_ALL_FEATURES
  6
Continuous
 62
     3
100
AcDbLine
 10
169.334507
 20
630.971213
 30
0.0
 11
169.334507
 21
632.971213
 31
0.0
  0
ARC
  5
4C7
330
210
100
AcDbEntity
  8
7_ALL_FEATURES
  6
Continuous
 62
     3
100
AcDbCircle
 10
624.334507
 20
569.471213
 30
0.0
 40
1.0
100
AcDbArc
 50
202.5
 51
210.598893
  0
ARC
  5
4C8
330
210
100
AcDbEntity
  8
7_ALL_FEATURES
  6
Continuous
 62
     3
100
AcDbCircle
 10
624.334507
 20
569.471213
 30
0.0
 40
1.0
100
AcDbArc
 50
180.0
 51
202.5
  0
LINE
  5
4C9
330
210
100
AcDbEntity
  8
7_ALL_FEATURES
  6
Continuous
 62
     3
100
AcDbLine
 10
627.334507
 20
568.471213
 30
0.0
 11
652.334507
 21
568.471213
 31
0.0
  0
LINE
  5
4CA
330
210
100
AcDbEntity
  8
7_ALL_FEATURES
  6
Continuous
 62
     3
100
AcDbLine
 10
169.334507
 20
572.471213
 30
0.0
 11
169.334507
 21
614.971213
 31
0.0
  0
LINE
  5
4CB
330
210
100
AcDbEntity
  8
7_ALL_FEATURES
  6
Continuous
 62
     3
100
AcDbLine
 10
169.334507
 20
569.471213
 30
0.0
 11
169.334507
 21
572.471213
 31
0.0
  0
LINE
  5
4CC
330
210
100
AcDbEntity
  8
7_ALL_FEATURES
  6
Continuous
 62
     3
100
AcDbLine
 10
652.334507
 20
568.471213
 30
0.0
 11
662.334507
 21
568.471213
 31
0.0
  0
ARC
  5
4CD
330
210
100
AcDbEntity
  8
7_ALL_FEATURES
  6
Continuous
 62
     3
100
AcDbCircle
 10
171.334507
 20
686.971213
 30
0.0
 40
2.0
100
AcDbArc
 50
95.80856
 51
180.0
  0
ARC
  5
4CE
330
210
100
AcDbEntity
  8
7_ALL_FEATURES
  6
Continuous
 62
     3
100
AcDbCircle
 10
171.334507
 20
686.971213
 30
0.0
 40
2.0
100
AcDbArc
 50
90.0
 51
95.80856
  0
ARC
  5
4CF
330
210
100
AcDbEntity
  8
7_ALL_FEATURES
  6
Continuous
 62
     3
100
AcDbCircle
 10
621.334507
 20
569.471213
 30
0.0
 40
2.0
100
AcDbArc
 50
270.0
 51
272.926111
  0
ARC
  5
4D0
330
210
100
AcDbEntity
  8
7_ALL_FEATURES
  6
Continuous
 62
     3
100
AcDbCircle
 10
621.334507
 20
569.471213
 30
0.0
 40
2.0
100
AcDbArc
 50
272.926111
 51
292.5
  0
ARC
  5
4D1
330
210
100
AcDbEntity
  8
7_ALL_FEATURES
  6
Continuous
 62
     3
100
AcDbCircle
 10
621.334507
 20
569.471213
 30
0.0
 40
2.0
100
AcDbArc
 50
292.5
 51
310.603734
  0
LINE
  5
4D2
330
210
100
AcDbEntity
  8
7_ALL_FEATURES
  6
Continuous
 62
     3
100
AcDbLine
 10
623.334507
 20
572.471213
 30
0.0
 11
623.334507
 21
569.471213
 31
0.0
  0
LINE
  5
4D3
330
210
100
AcDbEntity
  8
7_ALL_FEATURES
  6
Continuous
 62
     3
100
AcDbLine
 10
623.334507
 20
614.971213
 30
0.0
 11
623.334507
 21
572.471213
 31
0.0
  0
LINE
  5
4D4
330
210
100
AcDbEntity
  8
7_ALL_FEATURES
  6
Continuous
 62
     3
100
AcDbLine
 10
621.334507
 20
567.471213
 30
0.0
 11
620.334507
 21
567.471213
 31
0.0
  0
LINE
  5
4D5
330
210
100
AcDbEntity
  8
7_ALL_FEATURES
  6
Continuous
 62
     3
100
AcDbLine
 10
620.334507
 20
567.471213
 30
0.0
 11
608.824888
 21
567.471213
 31
0.0
  0
LINE
  5
4D6
330
210
100
AcDbEntity
  8
7_ALL_FEATURES
  6
Continuous
 62
     3
100
AcDbLine
 10
608.824888
 20
567.471213
 30
0.0
 11
607.824086
 21
567.471213
 31
0.0
  0
LINE
  5
4D7
330
210
100
AcDbEntity
  8
7_ALL_FEATURES
  6
Continuous
 62
     3
100
AcDbLine
 10
607.824086
 20
567.471213
 30
0.0
 11
598.334507
 21
567.471213
 31
0.0
  0
LINE
  5
4D8
330
210
100
AcDbEntity
  8
7_ALL_FEATURES
  6
Continuous
 62
     3
100
AcDbLine
 10
598.334507
 20
567.471213
 30
0.0
 11
596.334507
 21
567.471213
 31
0.0
  0
LINE
  5
4D9
330
210
100
AcDbEntity
  8
7_ALL_FEATURES
  6
Continuous
 62
     3
100
AcDbLine
 10
596.334507
 20
567.471213
 30
0.0
 11
595.746317
 21
567.471213
 31
0.0
  0
LINE
  5
4DA
330
210
100
AcDbEntity
  8
7_ALL_FEATURES
  6
Continuous
 62
     3
100
AcDbLine
 10
595.746317
 20
567.471213
 30
0.0
 11
595.334507
 21
567.471213
 31
0.0
  0
LINE
  5
4DB
330
210
100
AcDbEntity
  8
7_ALL_FEATURES
  6
Continuous
 62
     3
100
AcDbLine
 10
595.334507
 20
567.471213
 30
0.0
 11
588.334507
 21
567.471213
 31
0.0
  0
LINE
  5
4DC
330
210
100
AcDbEntity
  8
7_ALL_FEATURES
  6
Continuous
 62
     3
100
AcDbLine
 10
623.334507
 20
632.971213
 30
0.0
 11
623.334507
 21
630.971213
 31
0.0
  0
LINE
  5
4DD
330
210
100
AcDbEntity
  8
7_ALL_FEATURES
  6
Continuous
 62
     3
100
AcDbLine
 10
623.334507
 20
654.471213
 30
0.0
 11
623.334507
 21
632.971213
 31
0.0
  0
LINE
  5
4DE
330
210
100
AcDbEntity
  8
7_ALL_FEATURES
  6
Continuous
 62
     3
100
AcDbLine
 10
623.334507
 20
656.471213
 30
0.0
 11
623.334507
 21
654.471213
 31
0.0
  0
LINE
  5
4DF
330
210
100
AcDbEntity
  8
7_ALL_FEATURES
  6
Continuous
 62
     3
100
AcDbLine
 10
623.334507
 20
686.971213
 30
0.0
 11
623.334507
 21
656.471213
 31
0.0
  0
ARC
  5
4E0
330
210
100
AcDbEntity
  8
7_ALL_FEATURES
  6
Continuous
 62
     3
100
AcDbCircle
 10
621.334507
 20
686.971213
 30
0.0
 40
2.0
100
AcDbArc
 50
0.0
 51
84.19144
  0
ARC
  5
4E1
330
210
100
AcDbEntity
  8
7_ALL_FEATURES
  6
Continuous
 62
     3
100
AcDbCircle
 10
621.334507
 20
686.971213
 30
0.0
 40
2.0
100
AcDbArc
 50
84.19144
 51
90.0
  0
ARC
  5
4E2
330
210
100
AcDbEntity
  8
7_ALL_FEATURES
  6
Continuous
 62
     3
100
AcDbCircle
 10
171.334507
 20
569.471213
 30
0.0
 40
2.0
100
AcDbArc
 50
267.073889
 51
270.0
  0
ARC
  5
4E3
330
210
100
AcDbEntity
  8
7_ALL_FEATURES
  6
Continuous
 62
     3
100
AcDbCircle
 10
171.334507
 20
569.471213
 30
0.0
 40
2.0
100
AcDbArc
 50
247.5
 51
267.073889
  0
ARC
  5
4E4
330
210
100
AcDbEntity
  8
7_ALL_FEATURES
  6
Continuous
 62
     3
100
AcDbCircle
 10
171.334507
 20
569.471213
 30
0.0
 40
2.0
100
AcDbArc
 50
229.396266
 51
247.5
  0
LINE
  5
4E5
330
210
100
AcDbEntity
  8
7_ALL_FEATURES
  6
Continuous
 62
     3
100
AcDbLine
 10
171.334507
 20
567.471213
 30
0.0
 11
172.334507
 21
567.471213
 31
0.0
  0
LINE
  5
4E6
330
210
100
AcDbEntity
  8
7_ALL_FEATURES
  6
Continuous
 62
     3
100
AcDbLine
 10
172.334507
 20
567.471213
 30
0.0
 11
183.844126
 21
567.471213
 31
0.0
  0
LINE
  5
4E7
330
210
100
AcDbEntity
  8
7_ALL_FEATURES
  6
Continuous
 62
     3
100
AcDbLine
 10
183.844126
 20
567.471213
 30
0.0
 11
184.844929
 21
567.471213
 31
0.0
  0
LINE
  5
4E8
330
210
100
AcDbEntity
  8
7_ALL_FEATURES
  6
Continuous
 62
     3
100
AcDbLine
 10
184.844929
 20
567.471213
 30
0.0
 11
194.334507
 21
567.471213
 31
0.0
  0
LINE
  5
4E9
330
210
100
AcDbEntity
  8
7_ALL_FEATURES
  6
Continuous
 62
     3
100
AcDbLine
 10
204.334507
 20
567.471213
 30
0.0
 11
197.334507
 21
567.471213
 31
0.0
  0
LINE
  5
4EA
330
210
100
AcDbEntity
  8
7_ALL_FEATURES
  6
Continuous
 62
     3
100
AcDbLine
 10
197.334507
 20
567.471213
 30
0.0
 11
196.922698
 21
567.471213
 31
0.0
  0
LINE
  5
4EB
330
210
100
AcDbEntity
  8
7_ALL_FEATURES
  6
Continuous
 62
     3
100
AcDbLine
 10
196.922698
 20
567.471213
 30
0.0
 11
196.334507
 21
567.471213
 31
0.0
  0
LINE
  5
4EC
330
210
100
AcDbEntity
  8
7_ALL_FEATURES
  6
Continuous
 62
     3
100
AcDbLine
 10
196.334507
 20
567.471213
 30
0.0
 11
194.334507
 21
567.471213
 31
0.0
  0
ARC
  5
4ED
330
210
100
AcDbEntity
  8
3_ALL_AXES
  6
Continuous
 62
     7
100
AcDbCircle
 10
928.895171
 20
682.221213
 30
0.0
 40
8.0
100
AcDbArc
 50
68.746191
 51
90.0
  0
LINE
  5
4EE
330
210
100
AcDbEntity
  8
3_ALL_AXES
  6
Continuous
 62
     7
100
AcDbLine
 10
925.995171
 20
689.677083
 30
0.0
 11
925.995171
 21
688.971213
 31
0.0
  0
LINE
  5
4EF
330
210
100
AcDbEntity
  8
3_ALL_AXES
  6
Continuous
 62
     7
100
AcDbLine
 10
931.795171
 20
689.677083
 30
0.0
 11
931.795171
 21
688.971213
 31
0.0
  0
ARC
  5
4F0
330
210
100
AcDbEntity
  8
3_ALL_AXES
  6
Continuous
 62
     7
100
AcDbCircle
 10
928.895171
 20
682.221213
 30
0.0
 40
8.0
100
AcDbArc
 50
90.0
 51
111.253809
  0
LINE
  5
4F1
330
210
100
AcDbEntity
  8
3_ALL_AXES
  6
Continuous
 62
     7
100
AcDbLine
 10
928.895171
 20
689.677083
 30
0.0
 11
931.795171
 21
689.677083
 31
0.0
  0
LINE
  5
4F2
330
210
100
AcDbEntity
  8
3_ALL_AXES
  6
Continuous
 62
     7
100
AcDbLine
 10
928.895171
 20
689.677083
 30
0.0
 11
925.995171
 21
689.677083
 31
0.0
  0
ARC
  5
4F3
330
210
100
AcDbEntity
  8
3_ALL_AXES
  6
Continuous
 62
     7
100
AcDbCircle
 10
1003.895171
 20
682.221213
 30
0.0
 40
8.0
100
AcDbArc
 50
68.746191
 51
90.0
  0
LINE
  5
4F4
330
210
100
AcDbEntity
  8
3_ALL_AXES
  6
Continuous
 62
     7
100
AcDbLine
 10
1000.995171
 20
689.677083
 30
0.0
 11
1000.995171
 21
688.971213
 31
0.0
  0
LINE
  5
4F5
330
210
100
AcDbEntity
  8
3_ALL_AXES
  6
Continuous
 62
     7
100
AcDbLine
 10
1006.795171
 20
689.677083
 30
0.0
 11
1006.795171
 21
688.971213
 31
0.0
  0
ARC
  5
4F6
330
210
100
AcDbEntity
  8
3_ALL_AXES
  6
Continuous
 62
     7
100
AcDbCircle
 10
1003.895171
 20
682.221213
 30
0.0
 40
8.0
100
AcDbArc
 50
90.0
 51
111.253809
  0
LINE
  5
4F7
330
210
100
AcDbEntity
  8
3_ALL_AXES
  6
Continuous
 62
     7
100
AcDbLine
 10
1003.895171
 20
689.677083
 30
0.0
 11
1006.795171
 21
689.677083
 31
0.0
  0
LINE
  5
4F8
330
210
100
AcDbEntity
  8
3_ALL_AXES
  6
Continuous
 62
     7
100
AcDbLine
 10
1003.895171
 20
689.677083
 30
0.0
 11
1000.995171
 21
689.677083
 31
0.0
  0
LINE
  5
4F9
330
210
100
AcDbEntity
  8
7_ALL_FEATURES
  6
Continuous
 62
     7
100
AcDbLine
 10
856.895171
 20
567.971213
 30
0.0
 11
849.895171
 21
567.971213
 31
0.0
  0
LINE
  5
4FA
330
210
100
AcDbEntity
  8
7_ALL_FEATURES
  6
Continuous
 62
     7
100
AcDbLine
 10
849.895171
 20
567.971213
 30
0.0
 11
846.895171
 21
567.971213
 31
0.0
  0
LINE
  5
4FB
330
210
100
AcDbEntity
  8
7_ALL_FEATURES
  6
Continuous
 62
     7
100
AcDbLine
 10
1085.895171
 20
567.971213
 30
0.0
 11
1082.895171
 21
567.971213
 31
0.0
  0
LINE
  5
4FC
330
210
100
AcDbEntity
  8
7_ALL_FEATURES
  6
Continuous
 62
     7
100
AcDbLine
 10
1082.895171
 20
567.971213
 30
0.0
 11
1075.895171
 21
567.971213
 31
0.0
  0
LINE
  5
4FD
330
210
100
AcDbEntity
  8
7_ALL_FEATURES
  6
Continuous
 62
     7
100
AcDbLine
 10
1075.895171
 20
567.971213
 30
0.0
 11
1073.895171
 21
567.971213
 31
0.0
  0
LINE
  5
4FE
330
210
100
AcDbEntity
  8
7_ALL_FEATURES
  6
Continuous
 62
     7
100
AcDbLine
 10
1073.895171
 20
567.971213
 30
0.0
 11
1071.395171
 21
567.971213
 31
0.0
  0
LINE
  5
4FF
330
210
100
AcDbEntity
  8
7_ALL_FEATURES
  6
Continuous
 62
     7
100
AcDbLine
 10
1041.395171
 20
567.971213
 30
0.0
 11
1038.895171
 21
567.971213
 31
0.0
  0
LINE
  5
500
330
210
100
AcDbEntity
  8
7_ALL_FEATURES
  6
Continuous
 62
     7
100
AcDbLine
 10
1038.895171
 20
567.971213
 30
0.0
 11
1036.895171
 21
567.971213
 31
0.0
  0
LINE
  5
501
330
210
100
AcDbEntity
  8
7_ALL_FEATURES
  6
Continuous
 62
     7
100
AcDbLine
 10
1036.895171
 20
567.971213
 30
0.0
 11
895.895171
 21
567.971213
 31
0.0
  0
LINE
  5
502
330
210
100
AcDbEntity
  8
7_ALL_FEATURES
  6
Continuous
 62
     7
100
AcDbLine
 10
895.895171
 20
567.971213
 30
0.0
 11
893.895171
 21
567.971213
 31
0.0
  0
LINE
  5
503
330
210
100
AcDbEntity
  8
7_ALL_FEATURES
  6
Continuous
 62
     7
100
AcDbLine
 10
893.895171
 20
567.971213
 30
0.0
 11
891.395171
 21
567.971213
 31
0.0
  0
LINE
  5
504
330
210
100
AcDbEntity
  8
7_ALL_FEATURES
  6
Continuous
 62
     7
100
AcDbLine
 10
861.395171
 20
567.971213
 30
0.0
 11
858.895171
 21
567.971213
 31
0.0
  0
LINE
  5
505
330
210
100
AcDbEntity
  8
7_ALL_FEATURES
  6
Continuous
 62
     7
100
AcDbLine
 10
858.895171
 20
567.971213
 30
0.0
 11
856.895171
 21
567.971213
 31
0.0
  0
LINE
  5
506
330
210
100
AcDbEntity
  8
7_ALL_FEATURES
  6
Continuous
 62
     7
100
AcDbLine
 10
1085.895171
 20
568.971213
 30
0.0
 11
1085.895171
 21
567.971213
 31
0.0
  0
ARC
  5
507
330
210
100
AcDbEntity
  8
7_ALL_FEATURES
  6
Continuous
 62
     7
100
AcDbCircle
 10
846.895171
 20
569.971213
 30
0.0
 40
2.0
100
AcDbArc
 50
180.0
 51
264.19144
  0
ARC
  5
508
330
210
100
AcDbEntity
  8
7_ALL_FEATURES
  6
Continuous
 62
     7
100
AcDbCircle
 10
846.895171
 20
569.971213
 30
0.0
 40
2.0
100
AcDbArc
 50
264.19144
 51
270.0
  0
LINE
  5
509
330
210
100
AcDbEntity
  8
7_ALL_FEATURES
  6
Continuous
 62
     7
100
AcDbLine
 10
846.895171
 20
568.971213
 30
0.0
 11
846.895171
 21
567.971213
 31
0.0
  0
LINE
  5
50A
330
210
100
AcDbEntity
  8
7_ALL_FEATURES
  6
Continuous
 62
     7
100
AcDbLine
 10
858.895171
 20
567.971213
 30
0.0
 11
858.895171
 21
568.971213
 31
0.0
  0
LINE
  5
50B
330
210
100
AcDbEntity
  8
7_ALL_FEATURES
  6
Continuous
 62
     7
100
AcDbLine
 10
893.895171
 20
567.971213
 30
0.0
 11
893.895171
 21
568.971213
 31
0.0
  0
LINE
  5
50C
330
210
100
AcDbEntity
  8
7_ALL_FEATURES
  6
Continuous
 62
     7
100
AcDbLine
 10
1038.895171
 20
567.971213
 30
0.0
 11
1038.895171
 21
568.971213
 31
0.0
  0
LINE
  5
50D
330
210
100
AcDbEntity
  8
7_ALL_FEATURES
  6
Continuous
 62
     7
100
AcDbLine
 10
1073.895171
 20
567.971213
 30
0.0
 11
1073.895171
 21
568.971213
 31
0.0
  0
LINE
  5
50E
330
210
100
AcDbEntity
  8
7_ALL_FEATURES
  6
Continuous
 62
     7
100
AcDbLine
 10
844.895171
 20
637.971213
 30
0.0
 11
845.895171
 21
637.971213
 31
0.0
  0
LINE
  5
50F
330
210
100
AcDbEntity
  8
7_ALL_FEATURES
  6
Continuous
 62
     7
100
AcDbLine
 10
844.895171
 20
614.971213
 30
0.0
 11
845.895171
 21
614.971213
 31
0.0
  0
LINE
  5
510
330
210
100
AcDbEntity
  8
7_ALL_FEATURES
  6
Continuous
 62
     7
100
AcDbLine
 10
1087.895171
 20
614.971213
 30
0.0
 11
1086.895171
 21
614.971213
 31
0.0
  0
LINE
  5
511
330
210
100
AcDbEntity
  8
7_ALL_FEATURES
  6
Continuous
 62
     7
100
AcDbLine
 10
1087.895171
 20
637.971213
 30
0.0
 11
1086.895171
 21
637.971213
 31
0.0
  0
LINE
  5
512
330
210
100
AcDbEntity
  8
7_ALL_FEATURES
  6
Continuous
 62
     7
100
AcDbLine
 10
1052.895171
 20
688.971213
 30
0.0
 11
1052.895171
 21
689.971213
 31
0.0
  0
ARC
  5
513
330
210
100
AcDbEntity
  8
7_ALL_FEATURES
  6
Continuous
 62
     7
100
AcDbCircle
 10
1085.895171
 20
687.971213
 30
0.0
 40
2.0
100
AcDbArc
 50
45.0
 51
90.0
  0
ARC
  5
514
330
210
100
AcDbEntity
  8
7_ALL_FEATURES
  6
Continuous
 62
     7
100
AcDbCircle
 10
1085.895171
 20
687.971213
 30
0.0
 40
2.0
100
AcDbArc
 50
30.598893
 51
45.0
  0
LINE
  5
515
330
210
100
AcDbEntity
  8
7_ALL_FEATURES
  6
Continuous
 62
     7
100
AcDbLine
 10
1062.895171
 20
689.971213
 30
0.0
 11
1085.895171
 21
689.971213
 31
0.0
  0
LINE
  5
516
330
210
100
AcDbEntity
  8
7_ALL_FEATURES
  6
Continuous
 62
     7
100
AcDbLine
 10
1052.895171
 20
689.971213
 30
0.0
 11
1062.895171
 21
689.971213
 31
0.0
  0
LINE
  5
517
330
210
100
AcDbEntity
  8
7_ALL_FEATURES
  6
Continuous
 62
     7
100
AcDbLine
 10
879.895171
 20
688.971213
 30
0.0
 11
879.895171
 21
689.971213
 31
0.0
  0
ARC
  5
518
330
210
100
AcDbEntity
  8
7_ALL_FEATURES
  6
Continuous
 62
     7
100
AcDbCircle
 10
846.895171
 20
687.971213
 30
0.0
 40
2.0
100
AcDbArc
 50
90.0
 51
135.0
  0
ARC
  5
519
330
210
100
AcDbEntity
  8
7_ALL_FEATURES
  6
Continuous
 62
     7
100
AcDbCircle
 10
846.895171
 20
687.971213
 30
0.0
 40
2.0
100
AcDbArc
 50
135.0
 51
149.401107
  0
ARC
  5
51A
330
210
100
AcDbEntity
  8
7_ALL_FEATURES
  6
Continuous
 62
     7
100
AcDbCircle
 10
1085.895171
 20
569.971213
 30
0.0
 40
2.0
100
AcDbArc
 50
275.80856
 51
360.0
  0
ARC
  5
51B
330
210
100
AcDbEntity
  8
7_ALL_FEATURES
  6
Continuous
 62
     7
100
AcDbCircle
 10
1085.895171
 20
569.971213
 30
0.0
 40
2.0
100
AcDbArc
 50
270.0
 51
275.80856
  0
LINE
  5
51C
330
210
100
AcDbEntity
  8
7_ALL_FEATURES
  6
Continuous
 62
     7
100
AcDbLine
 10
869.895171
 20
689.971213
 30
0.0
 11
846.895171
 21
689.971213
 31
0.0
  0
LINE
  5
51D
330
210
100
AcDbEntity
  8
7_ALL_FEATURES
  6
Continuous
 62
     7
100
AcDbLine
 10
869.895171
 20
689.971213
 30
0.0
 11
879.895171
 21
689.971213
 31
0.0
  0
LINE
  5
51E
330
210
100
AcDbEntity
  8
7_ALL_FEATURES
  6
Continuous
 62
     7
100
AcDbLine
 10
1087.895171
 20
687.971213
 30
0.0
 11
1087.895171
 21
687.398264
 31
0.0
  0
LINE
  5
51F
330
210
100
AcDbEntity
  8
7_ALL_FEATURES
  6
Continuous
 62
     7
100
AcDbLine
 10
1087.895171
 20
687.398264
 30
0.0
 11
1087.895171
 21
684.971213
 31
0.0
  0
LINE
  5
520
330
210
100
AcDbEntity
  8
7_ALL_FEATURES
  6
Continuous
 62
     7
100
AcDbLine
 10
1087.895171
 20
684.971213
 30
0.0
 11
1087.895171
 21
656.471213
 31
0.0
  0
LINE
  5
521
330
210
100
AcDbEntity
  8
7_ALL_FEATURES
  6
Continuous
 62
     7
100
AcDbLine
 10
1087.895171
 20
637.971213
 30
0.0
 11
1087.895171
 21
635.971213
 31
0.0
  0
LINE
  5
522
330
210
100
AcDbEntity
  8
7_ALL_FEATURES
  6
Continuous
 62
     7
100
AcDbLine
 10
1087.895171
 20
635.971213
 30
0.0
 11
1087.895171
 21
616.971213
 31
0.0
  0
LINE
  5
523
330
210
100
AcDbEntity
  8
7_ALL_FEATURES
  6
Continuous
 62
     7
100
AcDbLine
 10
1087.895171
 20
616.971213
 30
0.0
 11
1087.895171
 21
614.971213
 31
0.0
  0
LINE
  5
524
330
210
100
AcDbEntity
  8
7_ALL_FEATURES
  6
Continuous
 62
     7
100
AcDbLine
 10
1087.895171
 20
614.971213
 30
0.0
 11
1087.895171
 21
569.971213
 31
0.0
  0
LINE
  5
525
330
210
100
AcDbEntity
  8
7_ALL_FEATURES
  6
Continuous
 62
     7
100
AcDbLine
 10
844.895171
 20
569.971213
 30
0.0
 11
844.895171
 21
614.971213
 31
0.0
  0
LINE
  5
526
330
210
100
AcDbEntity
  8
7_ALL_FEATURES
  6
Continuous
 62
     7
100
AcDbLine
 10
844.895171
 20
614.971213
 30
0.0
 11
844.895171
 21
616.971213
 31
0.0
  0
LINE
  5
527
330
210
100
AcDbEntity
  8
7_ALL_FEATURES
  6
Continuous
 62
     7
100
AcDbLine
 10
844.895171
 20
635.971213
 30
0.0
 11
844.895171
 21
616.971213
 31
0.0
  0
LINE
  5
528
330
210
100
AcDbEntity
  8
7_ALL_FEATURES
  6
Continuous
 62
     7
100
AcDbLine
 10
844.895171
 20
635.971213
 30
0.0
 11
844.895171
 21
637.971213
 31
0.0
  0
LINE
  5
529
330
210
100
AcDbEntity
  8
7_ALL_FEATURES
  6
Continuous
 62
     7
100
AcDbLine
 10
844.895171
 20
656.471213
 30
0.0
 11
844.895171
 21
684.971213
 31
0.0
  0
LINE
  5
52A
330
210
100
AcDbEntity
  8
7_ALL_FEATURES
  6
Continuous
 62
     7
100
AcDbLine
 10
844.895171
 20
684.971213
 30
0.0
 11
844.895171
 21
687.971213
 31
0.0
  0
LINE
  5
52B
330
210
100
AcDbEntity
  8
7_ALL_FEATURES
  6
Continuous
 62
     9
100
AcDbLine
 10
1075.895171
 20
567.971213
 30
0.0
 11
1075.895171
 21
568.971213
 31
0.0
  0
LINE
  5
52C
330
210
100
AcDbEntity
  8
7_ALL_FEATURES
  6
Continuous
 62
     9
100
AcDbLine
 10
844.895171
 20
569.971213
 30
0.0
 11
845.895171
 21
569.971213
 31
0.0
  0
LINE
  5
52D
330
210
100
AcDbEntity
  8
7_ALL_FEATURES
  6
Continuous
 62
     9
100
AcDbLine
 10
1036.895171
 20
567.971213
 30
0.0
 11
1036.895171
 21
568.971213
 31
0.0
  0
LINE
  5
52E
330
210
100
AcDbEntity
  8
7_ALL_FEATURES
  6
Continuous
 62
     9
100
AcDbLine
 10
1085.895171
 20
689.971213
 30
0.0
 11
1085.895171
 21
688.971213
 31
0.0
  0
LINE
  5
52F
330
210
100
AcDbEntity
  8
7_ALL_FEATURES
  6
Continuous
 62
     9
100
AcDbLine
 10
1062.895171
 20
688.971213
 30
0.0
 11
1062.895171
 21
689.971213
 31
0.0
  0
LINE
  5
530
330
210
100
AcDbEntity
  8
7_ALL_FEATURES
  6
Continuous
 62
     9
100
AcDbLine
 10
1086.895171
 20
684.971213
 30
0.0
 11
1087.895171
 21
684.971213
 31
0.0
  0
LINE
  5
531
330
210
100
AcDbEntity
  8
7_ALL_FEATURES
  6
Continuous
 62
     9
100
AcDbLine
 10
1087.895171
 20
569.971213
 30
0.0
 11
1086.895171
 21
569.971213
 31
0.0
  0
LINE
  5
532
330
210
100
AcDbEntity
  8
7_ALL_FEATURES
  6
Continuous
 62
     9
100
AcDbLine
 10
845.895171
 20
684.971213
 30
0.0
 11
844.895171
 21
684.971213
 31
0.0
  0
LINE
  5
533
330
210
100
AcDbEntity
  8
7_ALL_FEATURES
  6
Continuous
 62
     9
100
AcDbLine
 10
1082.895171
 20
568.971213
 30
0.0
 11
1082.895171
 21
567.971213
 31
0.0
  0
LINE
  5
534
330
210
100
AcDbEntity
  8
7_ALL_FEATURES
  6
Continuous
 62
     9
100
AcDbLine
 10
1087.895171
 20
616.971213
 30
0.0
 11
1086.895171
 21
616.971213
 31
0.0
  0
LINE
  5
535
330
210
100
AcDbEntity
  8
7_ALL_FEATURES
  6
Continuous
 62
     9
100
AcDbLine
 10
1087.895171
 20
635.971213
 30
0.0
 11
1086.895171
 21
635.971213
 31
0.0
  0
LINE
  5
536
330
210
100
AcDbEntity
  8
7_ALL_FEATURES
  6
Continuous
 62
     9
100
AcDbLine
 10
846.895171
 20
689.971213
 30
0.0
 11
846.895171
 21
688.971213
 31
0.0
  0
LINE
  5
537
330
210
100
AcDbEntity
  8
7_ALL_FEATURES
  6
Continuous
 62
     9
100
AcDbLine
 10
869.895171
 20
688.971213
 30
0.0
 11
869.895171
 21
689.971213
 31
0.0
  0
LINE
  5
538
330
210
100
AcDbEntity
  8
7_ALL_FEATURES
  6
Continuous
 62
     9
100
AcDbLine
 10
849.895171
 20
568.971213
 30
0.0
 11
849.895171
 21
567.971213
 31
0.0
  0
LINE
  5
539
330
210
100
AcDbEntity
  8
7_ALL_FEATURES
  6
Continuous
 62
     9
100
AcDbLine
 10
895.895171
 20
567.971213
 30
0.0
 11
895.895171
 21
568.971213
 31
0.0
  0
LINE
  5
53A
330
210
100
AcDbEntity
  8
7_ALL_FEATURES
  6
Continuous
 62
     9
100
AcDbLine
 10
856.895171
 20
567.971213
 30
0.0
 11
856.895171
 21
568.971213
 31
0.0
  0
LINE
  5
53B
330
210
100
AcDbEntity
  8
7_ALL_FEATURES
  6
Continuous
 62
     9
100
AcDbLine
 10
844.895171
 20
616.971213
 30
0.0
 11
845.895171
 21
616.971213
 31
0.0
  0
LINE
  5
53C
330
210
100
AcDbEntity
  8
7_ALL_FEATURES
  6
Continuous
 62
     9
100
AcDbLine
 10
844.895171
 20
635.971213
 30
0.0
 11
845.895171
 21
635.971213
 31
0.0
  0
LINE
  5
53D
330
210
100
AcDbEntity
  8
7_ALL_FEATURES
  6
Continuous
 62
     7
100
AcDbLine
 10
1086.395171
 20
687.971213
 30
0.0
 11
1086.895171
 21
687.971213
 31
0.0
  0
LINE
  5
53E
330
210
100
AcDbEntity
  8
7_ALL_FEATURES
  6
Continuous
 62
     7
100
AcDbLine
 10
1086.895171
 20
687.971213
 30
0.0
 11
1087.895171
 21
687.971213
 31
0.0
  0
LINE
  5
53F
330
210
100
AcDbEntity
  8
7_ALL_FEATURES
  6
Continuous
 62
     7
100
AcDbLine
 10
1087.895171
 20
687.971213
 30
0.0
 11
1088.395171
 21
687.971213
 31
0.0
  0
LINE
  5
540
330
210
100
AcDbEntity
  8
7_ALL_FEATURES
  6
Continuous
 62
     7
100
AcDbLine
 10
844.395171
 20
687.971213
 30
0.0
 11
844.895171
 21
687.971213
 31
0.0
  0
LINE
  5
541
330
210
100
AcDbEntity
  8
7_ALL_FEATURES
  6
Continuous
 62
     7
100
AcDbLine
 10
844.895171
 20
687.971213
 30
0.0
 11
845.895171
 21
687.971213
 31
0.0
  0
LINE
  5
542
330
210
100
AcDbEntity
  8
7_ALL_FEATURES
  6
Continuous
 62
     7
100
AcDbLine
 10
845.895171
 20
687.971213
 30
0.0
 11
846.395171
 21
687.971213
 31
0.0
  0
LINE
  5
543
330
210
100
AcDbEntity
  8
7_ALL_FEATURES
  6
Continuous
 62
     7
100
AcDbLine
 10
844.395171
 20
687.971213
 30
0.0
 11
841.395171
 21
687.971213
 31
0.0
  0
LINE
  5
544
330
210
100
AcDbEntity
  8
7_ALL_FEATURES
  6
Continuous
 62
     7
100
AcDbLine
 10
1091.395171
 20
687.971213
 30
0.0
 11
1088.395171
 21
687.971213
 31
0.0
  0
LINE
  5
545
330
210
100
AcDbEntity
  8
7_ALL_FEATURES
  6
Continuous
 62
     7
100
AcDbLine
 10
1091.395171
 20
687.971213
 30
0.0
 11
1091.395171
 21
688.971213
 31
0.0
  0
LINE
  5
546
330
210
100
AcDbEntity
  8
7_ALL_FEATURES
  6
Continuous
 62
     7
100
AcDbLine
 10
841.395171
 20
687.971213
 30
0.0
 11
841.395171
 21
688.971213
 31
0.0
  0
LINE
  5
547
330
210
100
AcDbEntity
  8
7_ALL_FEATURES
  6
Continuous
 62
     7
100
AcDbLine
 10
1041.395171
 20
568.471213
 30
0.0
 11
1041.395171
 21
567.471213
 31
0.0
  0
LINE
  5
548
330
210
100
AcDbEntity
  8
7_ALL_FEATURES
  6
Continuous
 62
     7
100
AcDbLine
 10
1071.395171
 20
568.471213
 30
0.0
 11
1071.395171
 21
567.471213
 31
0.0
  0
LINE
  5
549
330
210
100
AcDbEntity
  8
7_ALL_FEATURES
  6
Continuous
 62
     7
100
AcDbLine
 10
1071.395171
 20
567.471213
 30
0.0
 11
1061.395171
 21
567.471213
 31
0.0
  0
LINE
  5
54A
330
210
100
AcDbEntity
  8
7_ALL_FEATURES
  6
Continuous
 62
     7
100
AcDbLine
 10
1061.395171
 20
567.471213
 30
0.0
 11
1051.395171
 21
567.471213
 31
0.0
  0
LINE
  5
54B
330
210
100
AcDbEntity
  8
7_ALL_FEATURES
  6
Continuous
 62
     7
100
AcDbLine
 10
1051.395171
 20
567.471213
 30
0.0
 11
1041.395171
 21
567.471213
 31
0.0
  0
LINE
  5
54C
330
210
100
AcDbEntity
  8
7_ALL_FEATURES
  6
Continuous
 62
     7
100
AcDbLine
 10
891.395171
 20
568.471213
 30
0.0
 11
891.395171
 21
567.471213
 31
0.0
  0
LINE
  5
54D
330
210
100
AcDbEntity
  8
7_ALL_FEATURES
  6
Continuous
 62
     7
100
AcDbLine
 10
861.395171
 20
568.471213
 30
0.0
 11
861.395171
 21
567.471213
 31
0.0
  0
LINE
  5
54E
330
210
100
AcDbEntity
  8
7_ALL_FEATURES
  6
Continuous
 62
     7
100
AcDbLine
 10
891.395171
 20
567.471213
 30
0.0
 11
881.395171
 21
567.471213
 31
0.0
  0
LINE
  5
54F
330
210
100
AcDbEntity
  8
7_ALL_FEATURES
  6
Continuous
 62
     7
100
AcDbLine
 10
871.395171
 20
567.471213
 30
0.0
 11
881.395171
 21
567.471213
 31
0.0
  0
LINE
  5
550
330
210
100
AcDbEntity
  8
7_ALL_FEATURES
  6
Continuous
 62
     7
100
AcDbLine
 10
871.395171
 20
567.471213
 30
0.0
 11
861.395171
 21
567.471213
 31
0.0
  0
LINE
  5
551
330
210
100
AcDbEntity
  8
7_ALL_FEATURES
  6
Continuous
 62
     9
100
AcDbLine
 10
844.395171
 20
687.971213
 30
0.0
 11
844.395171
 21
688.971213
 31
0.0
  0
LINE
  5
552
330
210
100
AcDbEntity
  8
7_ALL_FEATURES
  6
Continuous
 62
     9
100
AcDbLine
 10
1088.395171
 20
687.971213
 30
0.0
 11
1088.395171
 21
688.971213
 31
0.0
  0
LINE
  5
553
330
210
100
AcDbEntity
  8
7_ALL_FEATURES
  6
Continuous
 62
     9
100
AcDbLine
 10
1061.395171
 20
568.471213
 30
0.0
 11
1061.395171
 21
567.471213
 31
0.0
  0
LINE
  5
554
330
210
100
AcDbEntity
  8
7_ALL_FEATURES
  6
Continuous
 62
     9
100
AcDbLine
 10
1051.395171
 20
568.471213
 30
0.0
 11
1051.395171
 21
567.471213
 31
0.0
  0
LINE
  5
555
330
210
100
AcDbEntity
  8
7_ALL_FEATURES
  6
Continuous
 62
     9
100
AcDbLine
 10
881.395171
 20
568.471213
 30
0.0
 11
881.395171
 21
567.471213
 31
0.0
  0
LINE
  5
556
330
210
100
AcDbEntity
  8
7_ALL_FEATURES
  6
Continuous
 62
     9
100
AcDbLine
 10
871.395171
 20
568.471213
 30
0.0
 11
871.395171
 21
567.471213
 31
0.0
  0
LINE
  5
557
330
210
100
AcDbEntity
  8
7_ALL_FEATURES
  6
Continuous
 62
     3
100
AcDbLine
 10
985.895171
 20
708.971213
 30
0.0
 11
946.895171
 21
708.971213
 31
0.0
  0
LINE
  5
558
330
210
100
AcDbEntity
  8
7_ALL_FEATURES
  6
Continuous
 62
     3
100
AcDbLine
 10
988.395171
 20
708.971213
 30
0.0
 11
988.395171
 21
688.971213
 31
0.0
  0
LINE
  5
559
330
210
100
AcDbEntity
  8
7_ALL_FEATURES
  6
Continuous
 62
     3
100
AcDbLine
 10
988.395171
 20
708.971213
 30
0.0
 11
987.284097
 21
708.971213
 31
0.0
  0
LINE
  5
55A
330
210
100
AcDbEntity
  8
7_ALL_FEATURES
  6
Continuous
 62
     3
100
AcDbLine
 10
987.284097
 20
708.971213
 30
0.0
 11
985.895171
 21
708.971213
 31
0.0
  0
LINE
  5
55B
330
210
100
AcDbEntity
  8
7_ALL_FEATURES
  6
Continuous
 62
     3
100
AcDbLine
 10
944.395171
 20
688.971213
 30
0.0
 11
944.395171
 21
708.971213
 31
0.0
  0
LINE
  5
55C
330
210
100
AcDbEntity
  8
7_ALL_FEATURES
  6
Continuous
 62
     3
100
AcDbLine
 10
944.395171
 20
708.971213
 30
0.0
 11
945.425708
 21
708.971213
 31
0.0
  0
LINE
  5
55D
330
210
100
AcDbEntity
  8
7_ALL_FEATURES
  6
Continuous
 62
     3
100
AcDbLine
 10
945.425708
 20
708.971213
 30
0.0
 11
946.895171
 21
708.971213
 31
0.0
  0
LINE
  5
55E
330
210
100
AcDbEntity
  8
7_ALL_FEATURES
  6
Continuous
 62
     9
100
AcDbLine
 10
985.895171
 20
708.971213
 30
0.0
 11
985.895171
 21
688.971213
 31
0.0
  0
LINE
  5
55F
330
210
100
AcDbEntity
  8
7_ALL_FEATURES
  6
Continuous
 62
     9
100
AcDbLine
 10
946.895171
 20
688.971213
 30
0.0
 11
946.895171
 21
708.971213
 31
0.0
  0
LINE
  5
560
330
210
100
AcDbEntity
  8
7_ALL_FEATURES
  6
Continuous
 62
     3
100
AcDbLine
 10
856.895171
 20
568.971213
 30
0.0
 11
858.895171
 21
568.971213
 31
0.0
  0
LINE
  5
561
330
210
100
AcDbEntity
  8
7_ALL_FEATURES
  6
Continuous
 62
     3
100
AcDbLine
 10
856.895171
 20
568.971213
 30
0.0
 11
849.895171
 21
568.971213
 31
0.0
  0
LINE
  5
562
330
210
100
AcDbEntity
  8
7_ALL_FEATURES
  6
Continuous
 62
     3
100
AcDbLine
 10
846.895171
 20
568.971213
 30
0.0
 11
848.131816
 21
568.971213
 31
0.0
  0
LINE
  5
563
330
210
100
AcDbEntity
  8
7_ALL_FEATURES
  6
Continuous
 62
     3
100
AcDbLine
 10
848.131816
 20
568.971213
 30
0.0
 11
849.395171
 21
568.971213
 31
0.0
  0
LINE
  5
564
330
210
100
AcDbEntity
  8
7_ALL_FEATURES
  6
Continuous
 62
     3
100
AcDbLine
 10
849.395171
 20
568.971213
 30
0.0
 11
849.895171
 21
568.971213
 31
0.0
  0
LINE
  5
565
330
210
100
AcDbEntity
  8
7_ALL_FEATURES
  6
Continuous
 62
     3
100
AcDbLine
 10
1082.895171
 20
568.971213
 30
0.0
 11
1083.822222
 21
568.971213
 31
0.0
  0
LINE
  5
566
330
210
100
AcDbEntity
  8
7_ALL_FEATURES
  6
Continuous
 62
     3
100
AcDbLine
 10
1083.822222
 20
568.971213
 30
0.0
 11
1084.658527
 21
568.971213
 31
0.0
  0
LINE
  5
567
330
210
100
AcDbEntity
  8
7_ALL_FEATURES
  6
Continuous
 62
     3
100
AcDbLine
 10
1084.658527
 20
568.971213
 30
0.0
 11
1085.895171
 21
568.971213
 31
0.0
  0
LINE
  5
568
330
210
100
AcDbEntity
  8
7_ALL_FEATURES
  6
Continuous
 62
     3
100
AcDbLine
 10
1082.895171
 20
568.971213
 30
0.0
 11
1075.895171
 21
568.971213
 31
0.0
  0
LINE
  5
569
330
210
100
AcDbEntity
  8
7_ALL_FEATURES
  6
Continuous
 62
     3
100
AcDbLine
 10
1073.895171
 20
568.971213
 30
0.0
 11
1075.895171
 21
568.971213
 31
0.0
  0
LINE
  5
56A
330
210
100
AcDbEntity
  8
7_ALL_FEATURES
  6
Continuous
 62
     3
100
AcDbLine
 10
1073.895171
 20
568.971213
 30
0.0
 11
1071.395171
 21
568.971213
 31
0.0
  0
LINE
  5
56B
330
210
100
AcDbEntity
  8
7_ALL_FEATURES
  6
Continuous
 62
     3
100
AcDbLine
 10
1041.395171
 20
568.971213
 30
0.0
 11
1038.895171
 21
568.971213
 31
0.0
  0
LINE
  5
56C
330
210
100
AcDbEntity
  8
7_ALL_FEATURES
  6
Continuous
 62
     3
100
AcDbLine
 10
1036.895171
 20
568.971213
 30
0.0
 11
1038.895171
 21
568.971213
 31
0.0
  0
LINE
  5
56D
330
210
100
AcDbEntity
  8
7_ALL_FEATURES
  6
Continuous
 62
     3
100
AcDbLine
 10
1036.895171
 20
568.971213
 30
0.0
 11
895.895171
 21
568.971213
 31
0.0
  0
LINE
  5
56E
330
210
100
AcDbEntity
  8
7_ALL_FEATURES
  6
Continuous
 62
     3
100
AcDbLine
 10
893.895171
 20
568.971213
 30
0.0
 11
895.895171
 21
568.971213
 31
0.0
  0
LINE
  5
56F
330
210
100
AcDbEntity
  8
7_ALL_FEATURES
  6
Continuous
 62
     3
100
AcDbLine
 10
893.895171
 20
568.971213
 30
0.0
 11
891.395171
 21
568.971213
 31
0.0
  0
LINE
  5
570
330
210
100
AcDbEntity
  8
7_ALL_FEATURES
  6
Continuous
 62
     3
100
AcDbLine
 10
861.395171
 20
568.971213
 30
0.0
 11
858.895171
 21
568.971213
 31
0.0
  0
LINE
  5
571
330
210
100
AcDbEntity
  8
7_ALL_FEATURES
  6
Continuous
 62
     3
100
AcDbLine
 10
845.895171
 20
569.971213
 30
0.0
 11
845.895171
 21
572.471213
 31
0.0
  0
LINE
  5
572
330
210
100
AcDbEntity
  8
7_ALL_FEATURES
  6
Continuous
 62
     3
100
AcDbLine
 10
845.895171
 20
572.471213
 30
0.0
 11
845.895171
 21
614.971213
 31
0.0
  0
LINE
  5
573
330
210
100
AcDbEntity
  8
7_ALL_FEATURES
  6
Continuous
 62
     3
100
AcDbLine
 10
845.895171
 20
616.971213
 30
0.0
 11
845.895171
 21
614.971213
 31
0.0
  0
LINE
  5
574
330
210
100
AcDbEntity
  8
7_ALL_FEATURES
  6
Continuous
 62
     3
100
AcDbLine
 10
845.895171
 20
635.971213
 30
0.0
 11
845.895171
 21
616.971213
 31
0.0
  0
LINE
  5
575
330
210
100
AcDbEntity
  8
7_ALL_FEATURES
  6
Continuous
 62
     3
100
AcDbLine
 10
845.895171
 20
637.971213
 30
0.0
 11
845.895171
 21
635.971213
 31
0.0
  0
LINE
  5
576
330
210
100
AcDbEntity
  8
7_ALL_FEATURES
  6
Continuous
 62
     3
100
AcDbLine
 10
845.895171
 20
656.471213
 30
0.0
 11
845.895171
 21
684.971213
 31
0.0
  0
LINE
  5
577
330
210
100
AcDbEntity
  8
7_ALL_FEATURES
  6
Continuous
 62
     3
100
AcDbLine
 10
845.895171
 20
687.971213
 30
0.0
 11
845.895171
 21
687.398264
 31
0.0
  0
LINE
  5
578
330
210
100
AcDbEntity
  8
7_ALL_FEATURES
  6
Continuous
 62
     3
100
AcDbLine
 10
845.895171
 20
687.398264
 30
0.0
 11
845.895171
 21
686.734569
 31
0.0
  0
LINE
  5
579
330
210
100
AcDbEntity
  8
7_ALL_FEATURES
  6
Continuous
 62
     3
100
AcDbLine
 10
845.895171
 20
686.734569
 30
0.0
 11
845.895171
 21
685.898264
 31
0.0
  0
LINE
  5
57A
330
210
100
AcDbEntity
  8
7_ALL_FEATURES
  6
Continuous
 62
     3
100
AcDbLine
 10
845.895171
 20
685.898264
 30
0.0
 11
845.895171
 21
684.971213
 31
0.0
  0
ARC
  5
57B
330
210
100
AcDbEntity
  8
7_ALL_FEATURES
  6
Continuous
 62
     3
100
AcDbCircle
 10
846.895171
 20
569.971213
 30
0.0
 40
1.0
100
AcDbArc
 50
180.0
 51
270.0
  0
LINE
  5
57C
330
210
100
AcDbEntity
  8
7_ALL_FEATURES
  6
Continuous
 62
     3
100
AcDbLine
 10
1086.895171
 20
684.971213
 30
0.0
 11
1086.895171
 21
685.898264
 31
0.0
  0
LINE
  5
57D
330
210
100
AcDbEntity
  8
7_ALL_FEATURES
  6
Continuous
 62
     3
100
AcDbLine
 10
1086.895171
 20
685.898264
 30
0.0
 11
1086.895171
 21
687.824383
 31
0.0
  0
LINE
  5
57E
330
210
100
AcDbEntity
  8
7_ALL_FEATURES
  6
Continuous
 62
     3
100
AcDbLine
 10
1086.895171
 20
684.971213
 30
0.0
 11
1086.895171
 21
656.471213
 31
0.0
  0
LINE
  5
57F
330
210
100
AcDbEntity
  8
7_ALL_FEATURES
  6
Continuous
 62
     3
100
AcDbLine
 10
1086.895171
 20
635.971213
 30
0.0
 11
1086.895171
 21
637.971213
 31
0.0
  0
LINE
  5
580
330
210
100
AcDbEntity
  8
7_ALL_FEATURES
  6
Continuous
 62
     3
100
AcDbLine
 10
1086.895171
 20
635.971213
 30
0.0
 11
1086.895171
 21
616.971213
 31
0.0
  0
LINE
  5
581
330
210
100
AcDbEntity
  8
7_ALL_FEATURES
  6
Continuous
 62
     3
100
AcDbLine
 10
1086.895171
 20
614.971213
 30
0.0
 11
1086.895171
 21
616.971213
 31
0.0
  0
LINE
  5
582
330
210
100
AcDbEntity
  8
7_ALL_FEATURES
  6
Continuous
 62
     3
100
AcDbLine
 10
1086.895171
 20
614.971213
 30
0.0
 11
1086.895171
 21
572.471213
 31
0.0
  0
LINE
  5
583
330
210
100
AcDbEntity
  8
7_ALL_FEATURES
  6
Continuous
 62
     3
100
AcDbLine
 10
1086.895171
 20
572.471213
 30
0.0
 11
1086.895171
 21
569.971213
 31
0.0
  0
ARC
  5
584
330
210
100
AcDbEntity
  8
7_ALL_FEATURES
  6
Continuous
 62
     3
100
AcDbCircle
 10
1085.895171
 20
569.971213
 30
0.0
 40
1.0
100
AcDbArc
 50
270.0
 51
360.0
  0
LINE
  5
585
330
210
100
AcDbEntity
  8
7_ALL_FEATURES
  6
Continuous
 62
     3
100
AcDbLine
 10
1088.395171
 20
688.971213
 30
0.0
 11
1091.395171
 21
688.971213
 31
0.0
  0
LINE
  5
586
330
210
100
AcDbEntity
  8
7_ALL_FEATURES
  6
Continuous
 62
     3
100
AcDbLine
 10
1086.395171
 20
688.971213
 30
0.0
 11
1088.395171
 21
688.971213
 31
0.0
  0
LINE
  5
587
330
210
100
AcDbEntity
  8
7_ALL_FEATURES
  6
Continuous
 62
     3
100
AcDbLine
 10
844.395171
 20
688.971213
 30
0.0
 11
846.395171
 21
688.971213
 31
0.0
  0
LINE
  5
588
330
210
100
AcDbEntity
  8
7_ALL_FEATURES
  6
Continuous
 62
     3
100
AcDbLine
 10
841.395171
 20
688.971213
 30
0.0
 11
844.395171
 21
688.971213
 31
0.0
  0
LINE
  5
589
330
210
100
AcDbEntity
  8
7_ALL_FEATURES
  6
Continuous
 62
     3
100
AcDbLine
 10
870.895171
 20
607.461594
 30
0.0
 11
870.895171
 21
606.460792
 31
0.0
  0
ARC
  5
58A
330
210
100
AcDbEntity
  8
7_ALL_FEATURES
  6
Continuous
 62
     3
100
AcDbCircle
 10
871.395171
 20
594.471213
 30
0.0
 40
13.0
100
AcDbArc
 50
92.204228
 51
177.795772
  0
LINE
  5
58B
330
210
100
AcDbEntity
  8
7_ALL_FEATURES
  6
Continuous
 62
     3
100
AcDbLine
 10
859.405592
 20
594.971213
 30
0.0
 11
858.40479
 21
594.971213
 31
0.0
  0
ARC
  5
58C
330
210
100
AcDbEntity
  8
7_ALL_FEATURES
  6
Continuous
 62
     3
100
AcDbCircle
 10
871.395171
 20
594.471213
 30
0.0
 40
12.0
100
AcDbArc
 50
92.388015
 51
177.611985
  0
ARC
  5
58D
330
210
100
AcDbEntity
  8
7_ALL_FEATURES
  6
Continuous
 62
     3
100
AcDbCircle
 10
871.395171
 20
594.471213
 30
0.0
 40
13.0
100
AcDbArc
 50
2.204228
 51
87.795772
  0
LINE
  5
58E
330
210
100
AcDbEntity
  8
7_ALL_FEATURES
  6
Continuous
 62
     3
100
AcDbLine
 10
871.895171
 20
606.460792
 30
0.0
 11
871.895171
 21
607.461594
 31
0.0
  0
ARC
  5
58F
330
210
100
AcDbEntity
  8
7_ALL_FEATURES
  6
Continuous
 62
     3
100
AcDbCircle
 10
871.395171
 20
594.471213
 30
0.0
 40
12.0
100
AcDbArc
 50
2.388015
 51
87.611985
  0
LINE
  5
590
330
210
100
AcDbEntity
  8
7_ALL_FEATURES
  6
Continuous
 62
     3
100
AcDbLine
 10
884.385552
 20
594.971213
 30
0.0
 11
883.38475
 21
594.971213
 31
0.0
  0
LINE
  5
591
330
210
100
AcDbEntity
  8
7_ALL_FEATURES
  6
Continuous
 62
     3
100
AcDbLine
 10
858.40479
 20
593.971213
 30
0.0
 11
859.405592
 21
593.971213
 31
0.0
  0
ARC
  5
592
330
210
100
AcDbEntity
  8
7_ALL_FEATURES
  6
Continuous
 62
     3
100
AcDbCircle
 10
871.395171
 20
594.471213
 30
0.0
 40
13.0
100
AcDbArc
 50
182.204228
 51
357.795772
  0
LINE
  5
593
330
210
100
AcDbEntity
  8
7_ALL_FEATURES
  6
Continuous
 62
     3
100
AcDbLine
 10
883.38475
 20
593.971213
 30
0.0
 11
884.385552
 21
593.971213
 31
0.0
  0
ARC
  5
594
330
210
100
AcDbEntity
  8
7_ALL_FEATURES
  6
Continuous
 62
     3
100
AcDbCircle
 10
871.395171
 20
594.471213
 30
0.0
 40
12.0
100
AcDbArc
 50
182.388015
 51
357.611985
  0
ARC
  5
595
330
210
100
AcDbEntity
  8
7_ALL_FEATURES
  6
Continuous
 62
     3
100
AcDbCircle
 10
1061.395171
 20
594.471213
 30
0.0
 40
13.0
100
AcDbArc
 50
2.204228
 51
87.795772
  0
LINE
  5
596
330
210
100
AcDbEntity
  8
7_ALL_FEATURES
  6
Continuous
 62
     3
100
AcDbLine
 10
1061.895171
 20
606.460792
 30
0.0
 11
1061.895171
 21
607.461594
 31
0.0
  0
ARC
  5
597
330
210
100
AcDbEntity
  8
7_ALL_FEATURES
  6
Continuous
 62
     3
100
AcDbCircle
 10
1061.395171
 20
594.471213
 30
0.0
 40
12.0
100
AcDbArc
 50
2.388015
 51
87.611985
  0
LINE
  5
598
330
210
100
AcDbEntity
  8
7_ALL_FEATURES
  6
Continuous
 62
     3
100
AcDbLine
 10
1074.385552
 20
594.971213
 30
0.0
 11
1073.38475
 21
594.971213
 31
0.0
  0
LINE
  5
599
330
210
100
AcDbEntity
  8
7_ALL_FEATURES
  6
Continuous
 62
     3
100
AcDbLine
 10
1060.895171
 20
607.461594
 30
0.0
 11
1060.895171
 21
606.460792
 31
0.0
  0
ARC
  5
59A
330
210
100
AcDbEntity
  8
7_ALL_FEATURES
  6
Continuous
 62
     3
100
AcDbCircle
 10
1061.395171
 20
594.471213
 30
0.0
 40
13.0
100
AcDbArc
 50
92.204228
 51
177.795772
  0
LINE
  5
59B
330
210
100
AcDbEntity
  8
7_ALL_FEATURES
  6
Continuous
 62
     3
100
AcDbLine
 10
1049.405592
 20
594.971213
 30
0.0
 11
1048.40479
 21
594.971213
 31
0.0
  0
ARC
  5
59C
330
210
100
AcDbEntity
  8
7_ALL_FEATURES
  6
Continuous
 62
     3
100
AcDbCircle
 10
1061.395171
 20
594.471213
 30
0.0
 40
12.0
100
AcDbArc
 50
92.388015
 51
177.611985
  0
ARC
  5
59D
330
210
100
AcDbEntity
  8
7_ALL_FEATURES
  6
Continuous
 62
     3
100
AcDbCircle
 10
1061.395171
 20
594.471213
 30
0.0
 40
13.0
100
AcDbArc
 50
182.204228
 51
357.795772
  0
LINE
  5
59E
330
210
100
AcDbEntity
  8
7_ALL_FEATURES
  6
Continuous
 62
     3
100
AcDbLine
 10
1073.38475
 20
593.971213
 30
0.0
 11
1074.385552
 21
593.971213
 31
0.0
  0
ARC
  5
59F
330
210
100
AcDbEntity
  8
7_ALL_FEATURES
  6
Continuous
 62
     3
100
AcDbCircle
 10
1061.395171
 20
594.471213
 30
0.0
 40
12.0
100
AcDbArc
 50
182.388015
 51
357.611985
  0
LINE
  5
5A0
330
210
100
AcDbEntity
  8
7_ALL_FEATURES
  6
Continuous
 62
     3
100
AcDbLine
 10
1048.40479
 20
593.971213
 30
0.0
 11
1049.405592
 21
593.971213
 31
0.0
  0
LINE
  5
5A1
330
210
100
AcDbEntity
  8
7_ALL_FEATURES
  6
Continuous
 62
     3
100
AcDbLine
 10
1026.395171
 20
569.471213
 30
0.0
 11
1036.895171
 21
569.471213
 31
0.0
  0
LINE
  5
5A2
330
210
100
AcDbEntity
  8
7_ALL_FEATURES
  6
Continuous
 62
     3
100
AcDbLine
 10
1036.895171
 20
569.471213
 30
0.0
 11
1038.895171
 21
569.471213
 31
0.0
  0
LINE
  5
5A3
330
210
100
AcDbEntity
  8
7_ALL_FEATURES
  6
Continuous
 62
     3
100
AcDbLine
 10
1038.895171
 20
569.471213
 30
0.0
 11
1041.395171
 21
569.471213
 31
0.0
  0
LINE
  5
5A4
330
210
100
AcDbEntity
  8
7_ALL_FEATURES
  6
Continuous
 62
     3
100
AcDbLine
 10
936.395171
 20
569.471213
 30
0.0
 11
996.395171
 21
569.471213
 31
0.0
  0
LINE
  5
5A5
330
210
100
AcDbEntity
  8
7_ALL_FEATURES
  6
Continuous
 62
     3
100
AcDbLine
 10
891.395171
 20
569.471213
 30
0.0
 11
893.895171
 21
569.471213
 31
0.0
  0
LINE
  5
5A6
330
210
100
AcDbEntity
  8
7_ALL_FEATURES
  6
Continuous
 62
     3
100
AcDbLine
 10
893.895171
 20
569.471213
 30
0.0
 11
895.895171
 21
569.471213
 31
0.0
  0
LINE
  5
5A7
330
210
100
AcDbEntity
  8
7_ALL_FEATURES
  6
Continuous
 62
     3
100
AcDbLine
 10
895.895171
 20
569.471213
 30
0.0
 11
906.395171
 21
569.471213
 31
0.0
  0
LINE
  5
5A8
330
210
100
AcDbEntity
  8
7_ALL_FEATURES
  6
Continuous
 62
     3
100
AcDbLine
 10
849.395171
 20
569.471213
 30
0.0
 11
849.895171
 21
569.471213
 31
0.0
  0
LINE
  5
5A9
330
210
100
AcDbEntity
  8
7_ALL_FEATURES
  6
Continuous
 62
     3
100
AcDbLine
 10
849.895171
 20
569.471213
 30
0.0
 11
856.895171
 21
569.471213
 31
0.0
  0
LINE
  5
5AA
330
210
100
AcDbEntity
  8
7_ALL_FEATURES
  6
Continuous
 62
     3
100
AcDbLine
 10
856.895171
 20
569.471213
 30
0.0
 11
858.895171
 21
569.471213
 31
0.0
  0
LINE
  5
5AB
330
210
100
AcDbEntity
  8
7_ALL_FEATURES
  6
Continuous
 62
     3
100
AcDbLine
 10
858.895171
 20
569.471213
 30
0.0
 11
861.395171
 21
569.471213
 31
0.0
  0
ARC
  5
5AC
330
210
100
AcDbEntity
  8
7_ALL_FEATURES
  6
Continuous
 62
     3
100
AcDbCircle
 10
849.395171
 20
572.471213
 30
0.0
 40
3.0
100
AcDbArc
 50
180.0
 51
247.5
  0
ARC
  5
5AD
330
210
100
AcDbEntity
  8
7_ALL_FEATURES
  6
Continuous
 62
     3
100
AcDbCircle
 10
849.395171
 20
572.471213
 30
0.0
 40
3.0
100
AcDbArc
 50
247.5
 51
270.0
  0
LINE
  5
5AE
330
210
100
AcDbEntity
  8
7_ALL_FEATURES
  6
Continuous
 62
     3
100
AcDbLine
 10
846.395171
 20
633.971213
 30
0.0
 11
846.395171
 21
616.971213
 31
0.0
  0
LINE
  5
5AF
330
210
100
AcDbEntity
  8
7_ALL_FEATURES
  6
Continuous
 62
     3
100
AcDbLine
 10
846.395171
 20
616.971213
 30
0.0
 11
846.395171
 21
614.971213
 31
0.0
  0
LINE
  5
5B0
330
210
100
AcDbEntity
  8
7_ALL_FEATURES
  6
Continuous
 62
     3
100
AcDbLine
 10
846.395171
 20
614.971213
 30
0.0
 11
846.395171
 21
572.471213
 31
0.0
  0
LINE
  5
5B1
330
210
100
AcDbEntity
  8
7_ALL_FEATURES
  6
Continuous
 62
     3
100
AcDbLine
 10
843.395171
 20
633.971213
 30
0.0
 11
844.895171
 21
633.971213
 31
0.0
  0
LINE
  5
5B2
330
210
100
AcDbEntity
  8
7_ALL_FEATURES
  6
Continuous
 62
     3
100
AcDbLine
 10
845.895171
 20
633.971213
 30
0.0
 11
846.395171
 21
633.971213
 31
0.0
  0
LINE
  5
5B3
330
210
100
AcDbEntity
  8
7_ALL_FEATURES
  6
Continuous
 62
     3
100
AcDbLine
 10
843.395171
 20
631.971213
 30
0.0
 11
843.395171
 21
633.971213
 31
0.0
  0
ARC
  5
5B4
330
210
100
AcDbEntity
  8
7_ALL_FEATURES
  6
Continuous
 62
     3
100
AcDbCircle
 10
842.395171
 20
631.971213
 30
0.0
 40
1.0
100
AcDbArc
 50
270.0
 51
360.0
  0
LINE
  5
5B5
330
210
100
AcDbEntity
  8
7_ALL_FEATURES
  6
Continuous
 62
     3
100
AcDbLine
 10
840.395171
 20
630.971213
 30
0.0
 11
842.395171
 21
630.971213
 31
0.0
  0
ARC
  5
5B6
330
210
100
AcDbEntity
  8
7_ALL_FEATURES
  6
Continuous
 62
     3
100
AcDbCircle
 10
840.395171
 20
632.971213
 30
0.0
 40
2.0
100
AcDbArc
 50
180.0
 51
270.0
  0
LINE
  5
5B7
330
210
100
AcDbEntity
  8
7_ALL_FEATURES
  6
Continuous
 62
     3
100
AcDbLine
 10
838.395171
 20
654.471213
 30
0.0
 11
838.395171
 21
632.971213
 31
0.0
  0
ARC
  5
5B8
330
210
100
AcDbEntity
  8
7_ALL_FEATURES
  6
Continuous
 62
     3
100
AcDbCircle
 10
840.395171
 20
654.471213
 30
0.0
 40
2.0
100
AcDbArc
 50
90.0
 51
180.0
  0
LINE
  5
5B9
330
210
100
AcDbEntity
  8
7_ALL_FEATURES
  6
Continuous
 62
     3
100
AcDbLine
 10
846.395171
 20
656.471213
 30
0.0
 11
840.395171
 21
656.471213
 31
0.0
  0
LINE
  5
5BA
330
210
100
AcDbEntity
  8
7_ALL_FEATURES
  6
Continuous
 62
     3
100
AcDbLine
 10
846.395171
 20
686.971213
 30
0.0
 11
846.395171
 21
656.471213
 31
0.0
  0
LINE
  5
5BB
330
210
100
AcDbEntity
  8
7_ALL_FEATURES
  6
Continuous
 62
     3
100
AcDbLine
 10
1086.395171
 20
656.471213
 30
0.0
 11
1086.395171
 21
686.971213
 31
0.0
  0
LINE
  5
5BC
330
210
100
AcDbEntity
  8
7_ALL_FEATURES
  6
Continuous
 62
     3
100
AcDbLine
 10
1086.395171
 20
656.471213
 30
0.0
 11
1092.395171
 21
656.471213
 31
0.0
  0
ARC
  5
5BD
330
210
100
AcDbEntity
  8
7_ALL_FEATURES
  6
Continuous
 62
     3
100
AcDbCircle
 10
1092.395171
 20
654.471213
 30
0.0
 40
2.0
100
AcDbArc
 50
0.0
 51
90.0
  0
LINE
  5
5BE
330
210
100
AcDbEntity
  8
7_ALL_FEATURES
  6
Continuous
 62
     3
100
AcDbLine
 10
1094.395171
 20
654.471213
 30
0.0
 11
1094.395171
 21
632.971213
 31
0.0
  0
ARC
  5
5BF
330
210
100
AcDbEntity
  8
7_ALL_FEATURES
  6
Continuous
 62
     3
100
AcDbCircle
 10
1092.395171
 20
632.971213
 30
0.0
 40
2.0
100
AcDbArc
 50
270.0
 51
360.0
  0
LINE
  5
5C0
330
210
100
AcDbEntity
  8
7_ALL_FEATURES
  6
Continuous
 62
     3
100
AcDbLine
 10
1092.395171
 20
630.971213
 30
0.0
 11
1090.395171
 21
630.971213
 31
0.0
  0
ARC
  5
5C1
330
210
100
AcDbEntity
  8
7_ALL_FEATURES
  6
Continuous
 62
     3
100
AcDbCircle
 10
1090.395171
 20
631.971213
 30
0.0
 40
1.0
100
AcDbArc
 50
180.0
 51
270.0
  0
LINE
  5
5C2
330
210
100
AcDbEntity
  8
7_ALL_FEATURES
  6
Continuous
 62
     3
100
AcDbLine
 10
1089.395171
 20
631.971213
 30
0.0
 11
1089.395171
 21
633.971213
 31
0.0
  0
LINE
  5
5C3
330
210
100
AcDbEntity
  8
7_ALL_FEATURES
  6
Continuous
 62
     3
100
AcDbLine
 10
1089.395171
 20
633.971213
 30
0.0
 11
1087.895171
 21
633.971213
 31
0.0
  0
LINE
  5
5C4
330
210
100
AcDbEntity
  8
7_ALL_FEATURES
  6
Continuous
 62
     3
100
AcDbLine
 10
1086.895171
 20
633.971213
 30
0.0
 11
1086.395171
 21
633.971213
 31
0.0
  0
LINE
  5
5C5
330
210
100
AcDbEntity
  8
7_ALL_FEATURES
  6
Continuous
 62
     3
100
AcDbLine
 10
1086.395171
 20
572.471213
 30
0.0
 11
1086.395171
 21
614.971213
 31
0.0
  0
LINE
  5
5C6
330
210
100
AcDbEntity
  8
7_ALL_FEATURES
  6
Continuous
 62
     3
100
AcDbLine
 10
1086.395171
 20
614.971213
 30
0.0
 11
1086.395171
 21
616.971213
 31
0.0
  0
LINE
  5
5C7
330
210
100
AcDbEntity
  8
7_ALL_FEATURES
  6
Continuous
 62
     3
100
AcDbLine
 10
1086.395171
 20
616.971213
 30
0.0
 11
1086.395171
 21
633.971213
 31
0.0
  0
ARC
  5
5C8
330
210
100
AcDbEntity
  8
7_ALL_FEATURES
  6
Continuous
 62
     3
100
AcDbCircle
 10
1083.395171
 20
572.471213
 30
0.0
 40
3.0
100
AcDbArc
 50
270.0
 51
292.5
  0
ARC
  5
5C9
330
210
100
AcDbEntity
  8
7_ALL_FEATURES
  6
Continuous
 62
     3
100
AcDbCircle
 10
1083.395171
 20
572.471213
 30
0.0
 40
3.0
100
AcDbArc
 50
292.5
 51
360.0
  0
LINE
  5
5CA
330
210
100
AcDbEntity
  8
7_ALL_FEATURES
  6
Continuous
 62
     3
100
AcDbLine
 10
1071.395171
 20
569.471213
 30
0.0
 11
1073.895171
 21
569.471213
 31
0.0
  0
LINE
  5
5CB
330
210
100
AcDbEntity
  8
7_ALL_FEATURES
  6
Continuous
 62
     3
100
AcDbLine
 10
1073.895171
 20
569.471213
 30
0.0
 11
1075.895171
 21
569.471213
 31
0.0
  0
LINE
  5
5CC
330
210
100
AcDbEntity
  8
7_ALL_FEATURES
  6
Continuous
 62
     3
100
AcDbLine
 10
1075.895171
 20
569.471213
 30
0.0
 11
1082.895171
 21
569.471213
 31
0.0
  0
LINE
  5
5CD
330
210
100
AcDbEntity
  8
7_ALL_FEATURES
  6
Continuous
 62
     3
100
AcDbLine
 10
1082.895171
 20
569.471213
 30
0.0
 11
1083.395171
 21
569.471213
 31
0.0
  0
LINE
  5
5CE
330
210
100
AcDbEntity
  8
7_ALL_FEATURES
  6
Continuous
 62
     3
100
AcDbLine
 10
846.395171
 20
686.971213
 30
0.0
 11
846.395171
 21
688.385427
 31
0.0
  0
LINE
  5
5CF
330
210
100
AcDbEntity
  8
7_ALL_FEATURES
  6
Continuous
 62
     3
100
AcDbLine
 10
846.395171
 20
688.385427
 30
0.0
 11
846.395171
 21
688.971213
 31
0.0
  0
LINE
  5
5D0
330
210
100
AcDbEntity
  8
7_ALL_FEATURES
  6
Continuous
 62
     3
100
AcDbLine
 10
1086.395171
 20
688.971213
 30
0.0
 11
846.395171
 21
688.971213
 31
0.0
  0
LINE
  5
5D1
330
210
100
AcDbEntity
  8
7_ALL_FEATURES
  6
Continuous
 62
     3
100
AcDbLine
 10
1086.395171
 20
686.971213
 30
0.0
 11
1086.395171
 21
687.971213
 31
0.0
  0
LINE
  5
5D2
330
210
100
AcDbEntity
  8
7_ALL_FEATURES
  6
Continuous
 62
     3
100
AcDbLine
 10
1086.395171
 20
687.971213
 30
0.0
 11
1086.395171
 21
688.385427
 31
0.0
  0
LINE
  5
5D3
330
210
100
AcDbEntity
  8
7_ALL_FEATURES
  6
Continuous
 62
     3
100
AcDbLine
 10
1086.395171
 20
688.385427
 30
0.0
 11
1086.395171
 21
688.971213
 31
0.0
  0
LINE
  5
5D4
330
210
100
AcDbEntity
  8
7_ALL_FEATURES
  6
Continuous
 62
     3
100
AcDbLine
 10
1071.395171
 20
568.471213
 30
0.0
 11
1071.395171
 21
569.471213
 31
0.0
  0
LINE
  5
5D5
330
210
100
AcDbEntity
  8
7_ALL_FEATURES
  6
Continuous
 62
     3
100
AcDbLine
 10
1041.395171
 20
568.471213
 30
0.0
 11
1041.395171
 21
569.471213
 31
0.0
  0
LINE
  5
5D6
330
210
100
AcDbEntity
  8
7_ALL_FEATURES
  6
Continuous
 62
     3
100
AcDbLine
 10
1061.395171
 20
568.471213
 30
0.0
 11
1051.395171
 21
568.471213
 31
0.0
  0
LINE
  5
5D7
330
210
100
AcDbEntity
  8
7_ALL_FEATURES
  6
Continuous
 62
     3
100
AcDbLine
 10
1061.395171
 20
568.471213
 30
0.0
 11
1071.395171
 21
568.471213
 31
0.0
  0
LINE
  5
5D8
330
210
100
AcDbEntity
  8
7_ALL_FEATURES
  6
Continuous
 62
     3
100
AcDbLine
 10
1041.395171
 20
568.471213
 30
0.0
 11
1051.395171
 21
568.471213
 31
0.0
  0
LINE
  5
5D9
330
210
100
AcDbEntity
  8
7_ALL_FEATURES
  6
Continuous
 62
     3
100
AcDbLine
 10
891.395171
 20
568.471213
 30
0.0
 11
891.395171
 21
569.471213
 31
0.0
  0
LINE
  5
5DA
330
210
100
AcDbEntity
  8
7_ALL_FEATURES
  6
Continuous
 62
     3
100
AcDbLine
 10
861.395171
 20
568.471213
 30
0.0
 11
861.395171
 21
569.471213
 31
0.0
  0
LINE
  5
5DB
330
210
100
AcDbEntity
  8
7_ALL_FEATURES
  6
Continuous
 62
     3
100
AcDbLine
 10
871.395171
 20
568.471213
 30
0.0
 11
881.395171
 21
568.471213
 31
0.0
  0
LINE
  5
5DC
330
210
100
AcDbEntity
  8
7_ALL_FEATURES
  6
Continuous
 62
     3
100
AcDbLine
 10
881.395171
 20
568.471213
 30
0.0
 11
891.395171
 21
568.471213
 31
0.0
  0
LINE
  5
5DD
330
210
100
AcDbEntity
  8
7_ALL_FEATURES
  6
Continuous
 62
     3
100
AcDbLine
 10
861.395171
 20
568.471213
 30
0.0
 11
871.395171
 21
568.471213
 31
0.0
  0
LINE
  5
5DE
330
210
100
AcDbEntity
  8
7_ALL_FEATURES
  6
Continuous
 62
     3
100
AcDbLine
 10
1026.395171
 20
567.471213
 30
0.0
 11
1026.395171
 21
567.971213
 31
0.0
  0
LINE
  5
5DF
330
210
100
AcDbEntity
  8
7_ALL_FEATURES
  6
Continuous
 62
     3
100
AcDbLine
 10
1026.395171
 20
568.971213
 30
0.0
 11
1026.395171
 21
569.471213
 31
0.0
  0
LINE
  5
5E0
330
210
100
AcDbEntity
  8
7_ALL_FEATURES
  6
Continuous
 62
     3
100
AcDbLine
 10
996.395171
 20
567.471213
 30
0.0
 11
996.395171
 21
567.971213
 31
0.0
  0
LINE
  5
5E1
330
210
100
AcDbEntity
  8
7_ALL_FEATURES
  6
Continuous
 62
     3
100
AcDbLine
 10
996.395171
 20
568.971213
 30
0.0
 11
996.395171
 21
569.471213
 31
0.0
  0
LINE
  5
5E2
330
210
100
AcDbEntity
  8
7_ALL_FEATURES
  6
Continuous
 62
     3
100
AcDbLine
 10
996.395171
 20
567.471213
 30
0.0
 11
1026.395171
 21
567.471213
 31
0.0
  0
LINE
  5
5E3
330
210
100
AcDbEntity
  8
7_ALL_FEATURES
  6
Continuous
 62
     3
100
AcDbLine
 10
936.395171
 20
567.471213
 30
0.0
 11
936.395171
 21
567.971213
 31
0.0
  0
LINE
  5
5E4
330
210
100
AcDbEntity
  8
7_ALL_FEATURES
  6
Continuous
 62
     3
100
AcDbLine
 10
936.395171
 20
568.971213
 30
0.0
 11
936.395171
 21
569.471213
 31
0.0
  0
LINE
  5
5E5
330
210
100
AcDbEntity
  8
7_ALL_FEATURES
  6
Continuous
 62
     3
100
AcDbLine
 10
906.395171
 20
567.471213
 30
0.0
 11
906.395171
 21
567.971213
 31
0.0
  0
LINE
  5
5E6
330
210
100
AcDbEntity
  8
7_ALL_FEATURES
  6
Continuous
 62
     3
100
AcDbLine
 10
906.395171
 20
568.971213
 30
0.0
 11
906.395171
 21
569.471213
 31
0.0
  0
LINE
  5
5E7
330
210
100
AcDbEntity
  8
7_ALL_FEATURES
  6
Continuous
 62
     3
100
AcDbLine
 10
936.395171
 20
567.471213
 30
0.0
 11
906.395171
 21
567.471213
 31
0.0
  0
LINE
  5
5E8
330
210
100
AcDbEntity
  8
7_ALL_FEATURES
  6
Continuous
 62
     9
100
AcDbLine
 10
891.395171
 20
569.471213
 30
0.0
 11
861.395171
 21
569.471213
 31
0.0
  0
LINE
  5
5E9
330
210
100
AcDbEntity
  8
7_ALL_FEATURES
  6
Continuous
 62
     9
100
AcDbLine
 10
996.395171
 20
569.471213
 30
0.0
 11
1026.395171
 21
569.471213
 31
0.0
  0
LINE
  5
5EA
330
210
100
AcDbEntity
  8
7_ALL_FEATURES
  6
Continuous
 62
     9
100
AcDbLine
 10
1041.395171
 20
569.471213
 30
0.0
 11
1071.395171
 21
569.471213
 31
0.0
  0
LINE
  5
5EB
330
210
100
AcDbEntity
  8
7_ALL_FEATURES
  6
Continuous
 62
     9
100
AcDbLine
 10
1086.395171
 20
686.971213
 30
0.0
 11
846.395171
 21
686.971213
 31
0.0
  0
LINE
  5
5EC
330
210
100
AcDbEntity
  8
7_ALL_FEATURES
  6
Continuous
 62
     9
100
AcDbLine
 10
936.395171
 20
569.471213
 30
0.0
 11
906.395171
 21
569.471213
 31
0.0
  0
DIMENSION
  5
5ED
330
210
100
AcDbEntity
  8
0
  6
Continuous
 62
     2
100
AcDbDimension
280
     0
  2
*D1
 10
673.569189
 20
688.971213
 30
0.0
 11
673.569189
 21
698.935282
 31
0.0
 70
   160
 71
     2
 42
20.0
 73
     0
 74
     0
 75
     0
  3
DIMSTYLE_1
100
AcDbAlignedDimension
 13
566.022831
 23
708.971213
 33
0.0
 14
625.29339
 24
688.971213
 34
0.0
 50
270.0
100
AcDbRotatedDimension
  0
DIMENSION
  5
5EE
330
210
100
AcDbEntity
  8
0
  6
Continuous
 62
     2
100
AcDbDimension
280
     0
  2
*D2
 10
673.569189
 20
567.471213
 30
0.0
 11
673.569189
 21
628.359813
 31
0.0
 70
   160
 71
     2
 42
121.5
 73
     0
 74
     0
 75
     0
  3
DIMSTYLE_2
100
AcDbAlignedDimension
 13
627.613018
 23
688.971213
 33
0.0
 14
663.973471
 24
567.471213
 34
0.0
 50
270.0
100
AcDbRotatedDimension
  0
DIMENSION
  5
5EF
330
210
100
AcDbEntity
  8
0
  6
Continuous
 62
     2
100
AcDbDimension
280
     0
  2
*D3
 10
697.096469
 20
567.471213
 30
0.0
 11
697.096469
 21
638.359842
 31
0.0
 70
   160
 71
     2
 42
141.5
 73
     0
 74
     0
 75
     0
  3
DIMSTYLE_2
100
AcDbAlignedDimension
 13
566.254794
 23
708.971213
 33
0.0
 14
662.939361
 24
567.471213
 34
0.0
 50
270.0
100
AcDbRotatedDimension
  0
DIMENSION
  5
5F0
330
210
100
AcDbEntity
  8
0
  6
Continuous
 62
     2
100
AcDbDimension
280
     0
  2
*D4
 10
558.084507
 20
336.740662
 30
0.0
 11
396.339296
 21
336.740662
 31
0.0
 70
   160
 71
     2
 42
323.5
 73
     0
 74
     0
 75
     0
  3
DIMSTYLE_2
100
AcDbAlignedDimension
 13
234.584507
 23
317.247756
 33
0.0
 14
558.084507
 24
318.59722
 34
0.0
100
AcDbRotatedDimension
  0
DIMENSION
  5
5F1
330
210
100
AcDbEntity
  8
0
  6
Continuous
 62
     2
100
AcDbDimension
280
     0
  2
*D5
 10
219.733828
 20
270.73736
 30
0.0
 11
219.733828
 21
292.662401
 31
0.0
 70
   160
 71
     2
 42
44.0
 73
     0
 74
     0
 75
     0
  3
DIMSTYLE_3
100
AcDbAlignedDimension
 13
232.185454
 23
314.73736
 33
0.0
 14
232.779279
 24
270.73736
 34
0.0
 50
270.0
100
AcDbRotatedDimension
  0
DIMENSION
  5
5F2
330
210
100
AcDbEntity
  8
0
  6
Continuous
 62
     2
100
AcDbDimension
280
     0
  2
*D6
 10
662.334507
 20
475.109664
 30
0.0
 11
396.307274
 21
475.109664
 31
0.0
 70
   160
 71
     2
 42
532.0
 73
     0
 74
     0
 75
     0
  3
DIMSTYLE_4
100
AcDbAlignedDimension
 13
130.334507
 23
387.73736
 33
0.0
 14
662.334507
 24
387.73736
 34
0.0
100
AcDbRotatedDimension
  0
DIMENSION
  5
5F3
330
210
100
AcDbEntity
  8
0
  6
Continuous
 62
     2
100
AcDbDimension
280
     0
  2
*D7
 10
1094.395171
 20
548.309538
 30
0.0
 11
966.356775
 21
548.309538
 31
0.0
 70
   160
 71
     2
 42
256.0
 73
     0
 74
     0
 75
     0
  3
DIMSTYLE_2
100
AcDbAlignedDimension
 13
838.395171
 23
632.971213
 33
0.0
 14
1094.395171
 24
632.971213
 34
0.0
100
AcDbRotatedDimension
  0
INSERT
  5
5F4
330
210
100
AcDbEntity
  8
0
  6
Continuous
 62
     2
100
AcDbBlockReference
  2
LOGO2_BL0
 10
1102.806666
 20
36.519554
 30
0.0
  0
ACAD_TABLE
  5
5F5
102
{ACAD_XDICTIONARY
360
64D
102
}
330
210
100
AcDbEntity
  8
0
  6
Continuous
 62
     2
160
              3640
310
380E00001D000000880000001D000000000000000000F03F00000000000000000000000000000000023C6227EC0391400000000000000000000000000000F03F0000000000000000C3158DC28002494000000000000000000000000000000000000000000000F03F0000000000000000000000000000000000000000000000
310
000000000000000000000000000000F03F54000000200000000200000000000000000000000000000000000000000000000000000000000000008056400000000000000000000000000000000000000000000000000000000000000000000000000000F03F5400000020000000020000000000000000000000000000000000
310
00000000000000000000000000000000000000000000000044C0000000000000000000000000000000000000000000000000000000000000F03F5400000020000000020000000000000000003E4000000000000018C00000000000000000000000000080564000000000000018C00000000000000000000000000000000000
310
00000000000000000000000000F03F5400000020000000020000000000000000003E4000000000000028C00000000000000000000000000080564000000000000028C0000000000000000000000000000000000000000000000000000000000000F03F5400000020000000020000000000000000003E4000000000000036C0
310
0000000000000000000000000080564000000000000036C0000000000000000000000000000000000000000000000000000000000000F03F54000000200000000200000000000000000000000000000000003BC0000000000000000000000000008056400000000000003BC000000000000000000000000000000000000000
310
0000000000000000000000F03F540000002000000002000000000000000000000000000000000044C00000000000000000000000000080564000000000000044C0000000000000000000000000000000000000000000000000000000000000F03F5400000020000000020000000000000000003E4000000000000000000000
310
0000000000000000000000003E400000000000003BC0000000000000000000000000000000000000000000000000000000000000F03F540000002000000002000000000000000080514000000000000000000000000000000000000000000080514000000000000028C0000000000000000000000000000000000000000000
310
000000000000000000F03F540000002000000002000000000000000080564000000000000000000000000000000000000000000080564000000000000044C0000000000000000000000000000000000000000000000000000000000000F03F0C0000001000000013000000C000000026000000CDCCCCCCCC7C3F4000000000
310
000012C0000000000000000000000000000000000000000000000000000000000000F03F000000000000F03F000000000000000000000000000000003600450033005F0043005F00300030003300000012000000010000000000000000000840333333333333EB3F0000000000000000000000000000F03F00000000000000
310
0000000000000000000000000000000000000000000000000000000000000000007400780074000000000000000C0000001000000000000000BC000000260000003333333333DF514000000000000015C0000000000000000000000000000000000000000000000000000000000000F03F000000000000F03F000000000000
310
000000000000000000005200650076003A0020003000300000000E000000010000000000000000000C40333333333333EB3F0000000000000000000000000000F03F000000000000000000000000000000000000000000000000000000000000000000000000000000007400780074000000000000000C0000001000000013
310
000000C000000026000000CDCCCCCCCC7C3F4000000000008026C0000000000000000000000000000000000000000000000000000000000000F03F000000000000F03F000000000000000000000000000000005300630061006C0065003A0031003A003100000012000000010000000000000000000C40333333333333EB3F
310
0000000000000000000000000000F03F00000000000000000000000000000000000000000000000000000000000000000000000000000000740078007400000000000000B4000000260000003333333333DF514000000000008025C0000000000000000000000000000000000000000000000000000000000000F03F000000
310
000000F03F00000000000000000000000000000000410030000000000004000000010000000000000000000C40333333333333EB3F0000000000000000000000000000F03F000000000000000000000000000000000000000000000000000000000000000000000000000000007400780074000000000000000C0000001000
310
000000000000EC00000026000000CDCCCCCCCC7C3F4066666666662632C0000000000000000000000000000000000000000000000000000000000000F03F000000000000F03F000000000000000000000000000000004300410053005300410046004F0052004D00410020004D005500520041005400550052004100200042
310
004900540050004F005000200038002E003100000000003C000000010000006666666666660240333333333333EB3F0000000000000000000000000000F03F00000000000000000000000000000000000000000000000000000000000000000000000000000000740078007400000000000000D000000026000000CDCCCCCC
310
CC7C3F400000000000C039C0000000000000000000000000000000000000000000000000000000000000F03F000000000000F03F0000000000000000000000000000000044004100540045003A002000300036002F00300037002F0032003000310038000000000020000000010000000000000000000440333333333333EB
310
3F0000000000000000000000000000F03F000000000000000000000000000000000000000000000000000000000000000000000000000000007400780074000000000000000C00000010000000130000001801000026000000CDCCCCCCCCCCF73F0000000000903DC000000000000000000000000000000000000000000000
310
0000000000000000F03F000000000000F03F0000000000000000000000000000000041006E007900200069006E00740065006700720061006C0020006F00720020007000610072007400690061006C00200072006500700072006F00640075006300740069006F006E00730020006100720065002000700072006F00680069
310
00620069007400650064000000000068000000010000000000000000000240333333333333EB3F0000000000000000000000000000F03F00000000000000000000000000000000000000000000000000000000000000000000000000000000740078007400000000000000F000000026000000CDCCCCCCCCCCF73F00000000
310
007840C0000000000000000000000000000000000000000000000000000000000000F03F000000000000F03F0000000000000000000000000000000077006900740068006F007500740020007000720069006F007200200061007500740068006F007200690073006100740069006F006E0020006F00660020004C00200000
310
0042000000010000000000000000000240333333333333EB3F0000000000000000000000000000F03F00000000000000000000000000000000000000000000000000000000000000000000000000000000740078007400000000000000B8000000260000000000000000C04D4000000000007840C000000000000000000000
310
0000000000000000000000000000000000000000F03F000000000000F03F0000000000000000000000000000000020000000020000000100000000000000000002407521567F8461C83F0000000000000000000000000000F03F00000000000000000000000000000000000000000000000000000000000000000000000000
310
0000007400780074002E00730068007800000000000000E000000026000000CB811E6ADBF64D4000000000007840C0000000000000000000000000000000000000000000000000000000000000F03F000000000000F03F00000000000000000000000000000000260020004C0020004C007500630065002000260020004C00
310
6900670068007400200073002E0072002E006C002E002C000000000030000000010000000000000000000240333333333333EB3F0000000000000000000000000000F03F00000000000000000000000000000000000000000000000000000000000000000000000000000000740078007400000000000000F8000000260000
310
00CDCCCCCCCCCCF73F00000000002842C0000000000000000000000000000000000000000000000000000000000000F03F000000000000F03F0000000000000000000000000000000069006E0020006100630063006F007200640061006E006300650020007700690074006800200074006800650020006C00610077002000
310
69006E00200066006F007200630065002E000000000048000000010000000000000000000240333333333333EB3F0000000000000000000000000000F03F00000000000000000000000000000000000000000000000000000000000000000000000000000000740078007400000000000000D800000026000000CDCCCCCCCC
310
CCF73F0000000000D843C0000000000000000000000000000000000000000000000000000000000000F03F000000000000F03F0000000000000000000000000000000041006C006C0020007200690067006800740073002000720065007300650072007600650064002E000000000028000000010000000000000000000240
310
333333333333EB3F0000000000000000000000000000F03F00000000000000000000000000000000000000000000000000000000000000000000000000000000740078007400000000000000080000001F000000
100
AcDbBlockReference
  2
*T9
 10
1088.980619
 20
50.019554
 30
0.0
100
AcDbTable
342
61F
343
21B
 11
1.0
 21
0.0
 31
0.0
 90
       22
 91
        5
 92
        5
 93
        0
 94
        0
 95
        0
 96
        0
141
6.0
141
6.0
141
10.0
141
5.0
141
13.0
142
10.0
142
10.0
142
10.0
142
40.0
142
20.0
171
     1
172
     0
173
     0
174
     0
175
     3
176
     4
 91
       32
178
     0
145
0.0
140
3.5
 92
        0
301
CELL_VALUE
 93
        2
 90
        4
  1
 
 94
        0
300

302
 
304
ACVALUE_END
171
     1
172
     0
173
     1
174
     0
175
     1
176
     1
 91
        0
178
     0
145
0.0
 92
        0
301
CELL_VALUE
 93
        3
 90
        0
 91
        0
 94
        0
300

302

304
ACVALUE_END
171
     1
172
     0
173
     1
174
     0
175
     1
176
     1
 91
        0
178
     0
145
0.0
 92
        0
301
CELL_VALUE
 93
        3
 90
        0
 91
        0
 94
        0
300

302

304
ACVALUE_END
171
     1
172
     0
173
     0
174
     0
175
     1
176
     1
 91
       49
178
     0
145
0.0
170
     4
  7
TEXTSTYLE_2
140
3.0
 92
        0
301
CELL_VALUE
 93
        2
 90
        4
  1
6E3_C_003
 94
        0
300

302
6E3_C_003
304
ACVALUE_END
171
     1
172
     0
173
     0
174
     0
175
     1
176
     1
 91
       49
178
     0
145
0.0
170
     1
  7
TEXTSTYLE_2
140
3.5
 92
        0
301
CELL_VALUE
 93
        2
 90
        4
  1
Rev: 00 
 94
        0
300

302
Rev: 00 
304
ACVALUE_END
171
     1
172
     0
173
     1
174
     0
175
     1
176
     1
 91
        0
178
     0
145
0.0
 92
        0
301
CELL_VALUE
 93
        3
 90
        0
 91
        0
 94
        0
300

302

304
ACVALUE_END
171
     1
172
     0
173
     1
174
     0
175
     1
176
     1
 91
        0
178
     0
145
0.0
 92
        0
301
CELL_VALUE
 93
        3
 90
        0
 91
        0
 94
        0
300

302

304
ACVALUE_END
171
     1
172
     0
173
     1
174
     0
175
     1
176
     1
 91
        0
178
     0
145
0.0
 92
        0
301
CELL_VALUE
 93
        3
 90
        0
 91
        0
 94
        0
300

302

304
ACVALUE_END
171
     1
172
     0
173
     0
174
     0
175
     1
176
     1
 91
       49
178
     0
145
0.0
170
     1
  7
TEXTSTYLE_2
140
3.5
 92
        0
301
CELL_VALUE
 93
        2
 90
        4
  1
Scale:1:1
 94
        0
300

302
Scale:1:1
304
ACVALUE_END
171
     1
172
     0
173
     0
174
     0
175
     1
176
     1
 91
       49
178
     0
145
0.0
170
     4
  7
TEXTSTYLE_2
140
3.5
 92
        0
301
CELL_VALUE
 93
        2
 90
        4
  1
A0
 94
        0
300

302
A0
304
ACVALUE_END
171
     1
172
     0
173
     1
174
     0
175
     1
176
     1
 91
        0
178
     0
145
0.0
 92
        0
301
CELL_VALUE
 93
        3
 90
        0
 91
        0
 94
        0
300

302

304
ACVALUE_END
171
     1
172
     0
173
     1
174
     0
175
     1
176
     1
 91
        0
178
     0
145
0.0
 92
        0
301
CELL_VALUE
 93
        3
 90
        0
 91
        0
 94
        0
300

302

304
ACVALUE_END
171
     1
172
     0
173
     1
174
     0
175
     1
176
     1
 91
        0
178
     0
145
0.0
 92
        0
301
CELL_VALUE
 93
        3
 90
        0
 91
        0
 94
        0
300

302

304
ACVALUE_END
171
     1
172
     0
173
     0
174
     0
175
     2
176
     1
 91
       49
178
     0
145
0.0
170
     4
  7
TEXTSTYLE_2
140
2.3
 92
        0
301
CELL_VALUE
 93
        2
 90
        4
  1
CASSAFORMA MURATURA BITPOP 8.1 
 94
        0
300

302
CASSAFORMA MURATURA BITPOP 8.1 
304
ACVALUE_END
171
     1
172
     0
173
     1
174
     0
175
     1
176
     1
 91
        0
178
     0
145
0.0
 92
        0
301
CELL_VALUE
 93
        3
 90
        0
 91
        0
 94
        0
300

302

304
ACVALUE_END
171
     1
172
     0
173
     1
174
     0
175
     1
176
     1
 91
        0
178
     0
145
0.0
 92
        0
301
CELL_VALUE
 93
        3
 90
        0
 91
        0
 94
        0
300

302

304
ACVALUE_END
171
     1
172
     0
173
     1
174
     0
175
     1
176
     1
 91
        0
178
     0
145
0.0
 92
        0
301
CELL_VALUE
 93
        3
 90
        0
 91
        0
 94
        0
300

302

304
ACVALUE_END
171
     1
172
     0
173
     1
174
     0
175
     1
176
     1
 91
        0
178
     0
145
0.0
 92
        0
301
CELL_VALUE
 93
        3
 90
        0
 91
        0
 94
        0
300

302

304
ACVALUE_END
171
     1
172
     0
173
     0
174
     0
175
     2
176
     1
 91
       49
178
     0
145
0.0
170
     4
  7
TEXTSTYLE_2
140
2.5
 92
        0
301
CELL_VALUE
 93
        2
 90
        4
  1
DATE: 06/07/2018
 94
        0
300

302
DATE: 06/07/2018
304
ACVALUE_END
171
     1
172
     0
173
     1
174
     0
175
     1
176
     1
 91
        0
178
     0
145
0.0
 92
        0
301
CELL_VALUE
 93
        3
 90
        0
 91
        0
 94
        0
300

302

304
ACVALUE_END
171
     1
172
     0
173
     0
174
     0
175
     5
176
     1
 91
       49
178
     0
145
0.0
170
     4
  7
TEXTSTYLE_2
140
2.25
 92
        0
301
CELL_VALUE
 93
        2
 90
        4
  1
Any integral or partial reproductions are prohibited \Pwithout prior authorisation of L {\Ftxt.shx;\W0.190476;\H2.250000; }& L Luce & Light s.r.l., \Pin accordance with the law in force. \PAll rights reserved.
 94
        0
300

302
Any integral or partial reproductions are prohibited \Pwithout prior authorisation of L {\Ftxt.shx;\W0.190476;\H2.250000; }& L Luce & Light s.r.l., \Pin accordance with the law in force. \PAll rights reserved.
304
ACVALUE_END
171
     1
172
     0
173
     1
174
     0
175
     1
176
     1
 91
        0
178
     0
145
0.0
 92
        0
301
CELL_VALUE
 93
        3
 90
        0
 91
        0
 94
        0
300

302

304
ACVALUE_END
171
     1
172
     0
173
     1
174
     0
175
     1
176
     1
 91
        0
178
     0
145
0.0
 92
        0
301
CELL_VALUE
 93
        3
 90
        0
 91
        0
 94
        0
300

302

304
ACVALUE_END
171
     1
172
     0
173
     1
174
     0
175
     1
176
     1
 91
        0
178
     0
145
0.0
 92
        0
301
CELL_VALUE
 93
        3
 90
        0
 91
        0
 94
        0
300

302

304
ACVALUE_END
171
     1
172
     0
173
     1
174
     0
175
     1
176
     1
 91
        0
178
     0
145
0.0
 92
        0
301
CELL_VALUE
 93
        3
 90
        0
 91
        0
 94
        0
300

302

304
ACVALUE_END
  0
MTEXT
  5
5F6
330
210
100
AcDbEntity
  8
9_SOLID
  6
Continuous
 62
     2
100
AcDbMText
 10
396.334507
 20
165.04336
 30
0.0
 40
3.0
 41
20.698885
 46
0.0
 71
     3
 72
     1
  1
SCALA 1:1
 73
     1
 44
0.9
  0
ENDSEC
  0
SECTION
  2
OBJECTS
  0
DICTIONARY
  5
C
330
0
100
AcDbDictionary
281
     1
  3
ACAD_DETAILVIEWSTYLE
350
656
  3
ACAD_GROUP
350
D
  3
ACAD_IMAGE_DICT
350
646
  3
ACAD_LAYOUT
350
1A
  3
ACAD_MATERIAL
350
63A
  3
ACAD_MLEADERSTYLE
350
655
  3
ACAD_MLINESTYLE
350
17
  3
ACAD_PLOTSETTINGS
350
19
  3
ACAD_PLOTSTYLENAME
350
E
  3
ACAD_SCALELIST
350
5FC
  3
ACAD_SECTIONVIEWSTYLE
350
657
  3
ACAD_TABLESTYLE
350
61E
  3
ACAD_VISUALSTYLE
350
621
  3
ACDB_RECOMPOSE_DATA
350
653
  3
AcDbVariableDictionary
350
64F
  3
HOST_DOC_SETTINGS
350
644
  3
MCS_STREAM_DICT
350
640
  0
SUN
  5
643
330
1F4
100
AcDbSun
 90
        1
290
     0
 63
     7
421
 16777215
 40
1.0
291
     1
 91
  2455826
 92
 54000000
292
     0
 70
     2
 71
   256
280
     1
  0
DICTIONARY
  5
64D
330
5F5
100
AcDbDictionary
280
     1
281
     1
  3
ACAD_XREC_ROUNDTRIP
360
64E
  0
DICTIONARY
  5
656
102
{ACAD_REACTORS
330
C
102
}
330
C
100
AcDbDictionary
281
     1
  0
DICTIONARY
  5
D
102
{ACAD_REACTORS
330
C
102
}
330
C
100
AcDbDictionary
281
     1
  0
DICTIONARY
  5
646
102
{ACAD_REACTORS
330
C
102
}
330
C
100
AcDbDictionary
281
     1
  0
DICTIONARY
  5
1A
102
{ACAD_REACTORS
330
C
102
}
330
C
100
AcDbDictionary
281
     1
  3
Layout1
350
5F9
  3
Model
350
5F8
  0
DICTIONARY
  5
63A
102
{ACAD_REACTORS
330
C
102
}
330
C
100
AcDbDictionary
281
     1
  3
ByBlock
350
63C
  3
ByLayer
350
63B
  3
Global
350
63D
  0
DICTIONARY
  5
655
102
{ACAD_REACTORS
330
C
102
}
330
C
100
AcDbDictionary
281
     1
  0
DICTIONARY
  5
17
102
{ACAD_REACTORS
330
C
102
}
330
C
100
AcDbDictionary
281
     1
  3
Standard
350
18
  0
DICTIONARY
  5
19
102
{ACAD_REACTORS
330
C
102
}
330
C
100
AcDbDictionary
281
     1
  0
ACDBDICTIONARYWDFLT
  5
E
102
{ACAD_REACTORS
330
C
102
}
330
C
100
AcDbDictionary
281
     1
  3
Normal
350
F
100
AcDbDictionaryWithDefault
340
F
  0
DICTIONARY
  5
5FC
102
{ACAD_REACTORS
330
C
102
}
330
C
100
AcDbDictionary
281
     1
  3
A0
350
5FD
  3
A1
350
5FE
  3
A2
350
5FF
  3
A3
350
600
  3
A4
350
601
  3
A5
350
602
  3
A6
350
603
  3
A7
350
604
  3
A8
350
605
  3
A9
350
606
  3
B0
350
607
  3
B1
350
608
  3
B2
350
609
  3
B3
350
60A
  3
B4
350
60B
  3
B5
350
60C
  3
B6
350
60D
  3
B7
350
60E
  3
B8
350
60F
  3
B9
350
610
  3
C0
350
611
  3
C1
350
612
  3
C2
350
613
  3
C3
350
614
  3
C4
350
615
  3
C5
350
616
  3
C6
350
617
  3
C7
350
618
  3
C8
350
619
  3
C9
350
61A
  3
D0
350
61B
  3
D1
350
61C
  3
D2
350
61D
  0
DICTIONARY
  5
657
102
{ACAD_REACTORS
330
C
102
}
330
C
100
AcDbDictionary
281
     1
  0
DICTIONARY
  5
61E
102
{ACAD_REACTORS
330
C
102
}
330
C
100
AcDbDictionary
281
     1
  3
Standard
350
61F
  0
DICTIONARY
  5
621
102
{ACAD_REACTORS
330
C
102
}
330
C
100
AcDbDictionary
281
     1
  3
2dWireframe
350
626
  3
Basic
350
629
  3
Brighten
350
62D
  3
ColorChange
350
631
  3
Conceptual
350
62B
  3
Dim
350
62C
  3
EdgeColorOff
350
634
  3
Facepattern
350
630
  3
Flat
350
622
  3
FlatWithEdges
350
623
  3
Gouraud
350
624
  3
GouraudWithEdges
350
625
  3
Hidden
350
628
  3
JitterOff
350
632
  3
Linepattern
350
62F
  3
OverhangOff
350
633
  3
Realistic
350
62A
  3
Shaded
350
639
  3
Shaded with edges
350
638
  3
Shades of Gray
350
635
  3
Sketchy
350
636
  3
Thicken
350
62E
  3
Wireframe
350
627
  3
X-Ray
350
637
  0
XRECORD
  5
653
102
{ACAD_REACTORS
330
C
102
}
330
C
100
AcDbXrecord
280
     1
 90
        1
330
5F5
330
61F
  0
DICTIONARY
  5
64F
102
{ACAD_REACTORS
330
C
102
}
330
C
100
AcDbDictionary
281
     1
  3
CANNOSCALE
350
650
  3
CTABLESTYLE
350
654
  0
DICTIONARY
  5
644
102
{ACAD_REACTORS
330
C
102
}
330
C
100
AcDbDictionary
281
     1
  3
NCDocParameters
350
645
  0
DICTIONARY
  5
640
102
{ACAD_REACTORS
330
C
102
}
330
C
100
AcDbDictionary
281
     1
  3
MC_VERSION_DATA
350
649
  3
MCS_DOCUMENT_ID
350
641
  3
MCS_PARAMS_DATA
350
647
  0
XRECORD
  5
64E
102
{ACAD_REACTORS
330
64D
102
}
330
64D
100
AcDbXrecord
280
     1
102
ACAD_ROUNDTRIP_2008_TABLE_ENTITY
360
64B
 70
     2
 90
        1
 10
0.0
 20
0.0
 30
0.0
 90
        0
 90
        4
361
64C
  0
LAYOUT
  5
5F9
102
{ACAD_REACTORS
330
1A
102
}
330
1A
100
AcDbPlotSettings
  1

  2
none_device
  4
ISO_A0_(1189.00_x_841.00_MM)
  6

 40
0.0
 41
0.0
 42
0.0
 43
0.0
 44
1189.0
 45
841.0
 46
0.0
 47
0.0
 48
0.0
 49
0.0
140
0.0
141
0.0
142
1.0
143
1.0
 70
     0
 72
     1
 73
     0
 74
     0
  7

 75
     0
 76
     0
 77
     2
 78
   300
147
1.0
148
0.0
149
0.0
100
AcDbLayout
  1
Layout1
 70
     0
 71
     1
 10
0.0
 20
0.0
 11
1189.0
 21
841.0
 12
0.0
 22
0.0
 32
0.0
 14
0.0
 24
0.0
 34
0.0
 15
0.0
 25
0.0
 35
0.0
146
0.0
 13
0.0
 23
0.0
 33
0.0
 16
1.0
 26
0.0
 36
0.0
 17
0.0
 27
1.0
 37
0.0
 76
     0
330
211
  0
LAYOUT
  5
5F8
102
{ACAD_REACTORS
330
1A
102
}
330
1A
100
AcDbPlotSettings
  1

  2
none_device
  4
ISO_A0_(1189.00_x_841.00_MM)
  6

 40
0.0
 41
0.0
 42
0.0
 43
0.0
 44
1189.0
 45
841.0
 46
0.0
 47
0.0
 48
0.0
 49
0.0
140
0.0
141
0.0
142
1.0
143
1.0
 70
  1024
 72
     1
 73
     0
 74
     0
  7

 75
     0
 76
     0
 77
     2
 78
   300
147
1.0
148
0.0
149
0.0
100
AcDbLayout
  1
Model
 70
     0
 71
     0
 10
0.0
 20
0.0
 11
1189.0
 21
841.0
 12
0.0
 22
0.0
 32
0.0
 14
0.0
 24
0.0
 34
0.0
 15
0.0
 25
0.0
 35
0.0
146
0.0
 13
0.0
 23
0.0
 33
0.0
 16
1.0
 26
0.0
 36
0.0
 17
0.0
 27
1.0
 37
0.0
 76
     0
330
210
331
1F4
  0
MATERIAL
  5
63C
102
{ACAD_REACTORS
330
63A
102
}
330
63A
100
AcDbMaterial
  1
ByBlock
 72
     1
 94
      127
  0
MATERIAL
  5
63B
102
{ACAD_REACTORS
330
63A
102
}
330
63A
100
AcDbMaterial
  1
ByLayer
 72
     1
 94
      127
  0
MATERIAL
  5
63D
102
{ACAD_REACTORS
330
63A
102
}
330
63A
100
AcDbMaterial
  1
Global
 72
     1
 94
      127
  0
MLINESTYLE
  5
18
102
{ACAD_REACTORS
330
17
102
}
330
17
100
AcDbMlineStyle
  2
STANDARD
 70
     0
  3

 62
   256
 51
90.0
 52
90.0
 71
     2
 49
0.5
 62
   256
  6
BYLAYER
 49
-0.5
 62
   256
  6
BYLAYER
  0
ACDBPLACEHOLDER
  5
F
102
{ACAD_REACTORS
330
E
102
}
330
E
  0
SCALE
  5
5FD
102
{ACAD_REACTORS
330
5FC
102
}
330
5FC
100
AcDbScale
 70
     0
300
1:1
140
1.0
141
1.0
290
     1
  0
SCALE
  5
5FE
102
{ACAD_REACTORS
330
5FC
102
}
330
5FC
100
AcDbScale
 70
     0
300
1:2
140
1.0
141
2.0
290
     0
  0
SCALE
  5
5FF
102
{ACAD_REACTORS
330
5FC
102
}
330
5FC
100
AcDbScale
 70
     0
300
1:4
140
1.0
141
4.0
290
     0
  0
SCALE
  5
600
102
{ACAD_REACTORS
330
5FC
102
}
330
5FC
100
AcDbScale
 70
     0
300
1:5
140
1.0
141
5.0
290
     0
  0
SCALE
  5
601
102
{ACAD_REACTORS
330
5FC
102
}
330
5FC
100
AcDbScale
 70
     0
300
1:8
140
1.0
141
8.0
290
     0
  0
SCALE
  5
602
102
{ACAD_REACTORS
330
5FC
102
}
330
5FC
100
AcDbScale
 70
     0
300
1:10
140
1.0
141
10.0
290
     0
  0
SCALE
  5
603
102
{ACAD_REACTORS
330
5FC
102
}
330
5FC
100
AcDbScale
 70
     0
300
1:16
140
1.0
141
16.0
290
     0
  0
SCALE
  5
604
102
{ACAD_REACTORS
330
5FC
102
}
330
5FC
100
AcDbScale
 70
     0
300
1:20
140
1.0
141
20.0
290
     0
  0
SCALE
  5
605
102
{ACAD_REACTORS
330
5FC
102
}
330
5FC
100
AcDbScale
 70
     0
300
1:30
140
1.0
141
30.0
290
     0
  0
SCALE
  5
606
102
{ACAD_REACTORS
330
5FC
102
}
330
5FC
100
AcDbScale
 70
     0
300
1:40
140
1.0
141
40.0
290
     0
  0
SCALE
  5
607
102
{ACAD_REACTORS
330
5FC
102
}
330
5FC
100
AcDbScale
 70
     0
300
1:50
140
1.0
141
50.0
290
     0
  0
SCALE
  5
608
102
{ACAD_REACTORS
330
5FC
102
}
330
5FC
100
AcDbScale
 70
     0
300
1:100
140
1.0
141
100.0
290
     0
  0
SCALE
  5
609
102
{ACAD_REACTORS
330
5FC
102
}
330
5FC
100
AcDbScale
 70
     0
300
2:1
140
2.0
141
1.0
290
     0
  0
SCALE
  5
60A
102
{ACAD_REACTORS
330
5FC
102
}
330
5FC
100
AcDbScale
 70
     0
300
4:1
140
4.0
141
1.0
290
     0
  0
SCALE
  5
60B
102
{ACAD_REACTORS
330
5FC
102
}
330
5FC
100
AcDbScale
 70
     0
300
8:1
140
8.0
141
1.0
290
     0
  0
SCALE
  5
60C
102
{ACAD_REACTORS
330
5FC
102
}
330
5FC
100
AcDbScale
 70
     0
300
10:1
140
10.0
141
1.0
290
     0
  0
SCALE
  5
60D
102
{ACAD_REACTORS
330
5FC
102
}
330
5FC
100
AcDbScale
 70
     0
300
100:1
140
100.0
141
1.0
290
     0
  0
SCALE
  5
60E
102
{ACAD_REACTORS
330
5FC
102
}
330
5FC
100
AcDbScale
 70
     0
300
1/128" = 1'-0"
140
0.007812
141
12.0
290
     0
  0
SCALE
  5
60F
102
{ACAD_REACTORS
330
5FC
102
}
330
5FC
100
AcDbScale
 70
     0
300
1/64" = 1'-0"
140
0.015625
141
12.0
290
     0
  0
SCALE
  5
610
102
{ACAD_REACTORS
330
5FC
102
}
330
5FC
100
AcDbScale
 70
     0
300
1/32" = 1'-0"
140
0.03125
141
12.0
290
     0
  0
SCALE
  5
611
102
{ACAD_REACTORS
330
5FC
102
}
330
5FC
100
AcDbScale
 70
     0
300
1/16" = 1'-0"
140
0.0625
141
12.0
290
     0
  0
SCALE
  5
612
102
{ACAD_REACTORS
330
5FC
102
}
330
5FC
100
AcDbScale
 70
     0
300
3/32" = 1'-0"
140
0.09375
141
12.0
290
     0
  0
SCALE
  5
613
102
{ACAD_REACTORS
330
5FC
102
}
330
5FC
100
AcDbScale
 70
     0
300
1/8" = 1'-0"
140
0.125
141
12.0
290
     0
  0
SCALE
  5
614
102
{ACAD_REACTORS
330
5FC
102
}
330
5FC
100
AcDbScale
 70
     0
300
3/16" = 1'-0"
140
0.1875
141
12.0
290
     0
  0
SCALE
  5
615
102
{ACAD_REACTORS
330
5FC
102
}
330
5FC
100
AcDbScale
 70
     0
300
1/4" = 1'-0"
140
0.25
141
12.0
290
     0
  0
SCALE
  5
616
102
{ACAD_REACTORS
330
5FC
102
}
330
5FC
100
AcDbScale
 70
     0
300
3/8" = 1'-0"
140
0.375
141
12.0
290
     0
  0
SCALE
  5
617
102
{ACAD_REACTORS
330
5FC
102
}
330
5FC
100
AcDbScale
 70
     0
300
1/2" = 1'-0"
140
0.5
141
12.0
290
     0
  0
SCALE
  5
618
102
{ACAD_REACTORS
330
5FC
102
}
330
5FC
100
AcDbScale
 70
     0
300
3/4" = 1'-0"
140
0.75
141
12.0
290
     0
  0
SCALE
  5
619
102
{ACAD_REACTORS
330
5FC
102
}
330
5FC
100
AcDbScale
 70
     0
300
1" = 1'-0"
140
1.0
141
12.0
290
     0
  0
SCALE
  5
61A
102
{ACAD_REACTORS
330
5FC
102
}
330
5FC
100
AcDbScale
 70
     0
300
1-1/2" = 1'-0"
140
1.5
141
12.0
290
     0
  0
SCALE
  5
61B
102
{ACAD_REACTORS
330
5FC
102
}
330
5FC
100
AcDbScale
 70
     0
300
3" = 1'-0"
140
3.0
141
12.0
290
     0
  0
SCALE
  5
61C
102
{ACAD_REACTORS
330
5FC
102
}
330
5FC
100
AcDbScale
 70
     0
300
6" = 1'-0"
140
6.0
141
12.0
290
     0
  0
SCALE
  5
61D
102
{ACAD_REACTORS
330
5FC
102
}
330
5FC
100
AcDbScale
 70
     0
300
1'-0" = 1'-0"
140
12.0
141
12.0
290
     0
  0
TABLESTYLE
  5
61F
102
{ACAD_REACTORS
330
61E
102
}
102
{ACAD_XDICTIONARY
360
651
102
}
330
61E
100
AcDbTableStyle
  3
Standard
 70
     0
 71
     0
 40
0.06
 41
0.06
280
     0
281
     0
  7
STANDARD
140
4.5
170
     2
 62
     0
 63
   257
283
     0
 90
        4
 91
        0
  1

274
    -2
284
     1
 64
     0
275
    -2
285
     1
 65
     0
276
    -2
286
     1
 66
     0
277
    -2
287
     1
 67
     0
278
    -2
288
     1
 68
     0
279
    -2
289
     1
 69
     0
  7
STANDARD
140
6.0
170
     5
 62
     0
 63
   257
283
     0
 90
        4
 91
        0
  1

274
    -2
284
     1
 64
     0
275
    -2
285
     1
 65
     0
276
    -2
286
     1
 66
     0
277
    -2
287
     1
 67
     0
278
    -2
288
     1
 68
     0
279
    -2
289
     1
 69
     0
  7
STANDARD
140
4.5
170
     5
 62
     0
 63
   257
283
     0
 90
        4
 91
        0
  1

274
    -2
284
     1
 64
     0
275
    -2
285
     1
 65
     0
276
    -2
286
     1
 66
     0
277
    -2
287
     1
 67
     0
278
    -2
288
     1
 68
     0
279
    -2
289
     1
 69
     0
  0
VISUALSTYLE
  5
626
102
{ACAD_REACTORS
330
621
102
}
330
621
100
AcDbVisualStyle
  2
2dWireframe
 70
     4
177
     3
291
     0
 70
    58
 90
        0
176
     1
 90
        2
176
     1
 90
        0
176
     1
 90
        0
176
     1
 40
0.6
176
     1
 40
30.0
176
     1
 62
     7
420
 16777215
176
     1
 90
        1
176
     1
 90
        4
176
     1
 62
     7
176
     1
 62
   257
176
     1
 90
        1
176
     1
 90
        1
176
     1
 40
1.0
176
     1
 90
        0
176
     1
 62
   257
176
     1
 40
1.0
176
     1
 90
        1
176
     1
 90
        6
176
     1
 90
        2
176
     1
 62
     7
176
     1
 90
        5
176
     1
 90
        0
176
     1
 90
        0
176
     1
290
     0
176
     1
 90
        1
176
     1
 40
0.0
176
     1
 90
        0
176
     1
290
     1
176
     1
290
     1
176
     1
290
     0
176
     1
290
     0
176
     1
290
     0
176
     1
290
     0
176
     1
290
     0
176
     1
290
     0
176
     1
290
     0
176
     1
 90
       50
176
     1
 40
0.0
176
     1
 40
1.0
176
     1
 90
        0
176
     1
 62
    18
420
        0
176
     1
 90
       50
176
     1
 90
        3
176
     1
 62
     5
420
      255
176
     1
290
     0
176
     1
 90
       50
176
     1
 90
       50
176
     1
 90
       50
176
     1
290
     0
176
     1
 90
       50
176
     1
 62
   256
176
     0
 40
1.0
176
     0
 90
        2
176
     1
  1
strokes_ogs.tif
176
     1
290
     0
176
     1
 40
1.0
176
     1
 40
1.0
176
     1
  0
VISUALSTYLE
  5
629
102
{ACAD_REACTORS
330
621
102
}
330
621
100
AcDbVisualStyle
  2
Basic
 70
     7
177
     3
291
     1
 70
    58
 90
        1
176
     1
 90
        0
176
     1
 90
        1
176
     1
 90
        0
176
     1
 40
0.6
176
     1
 40
30.0
176
     1
 62
     7
420
 16777215
176
     1
 90
        0
176
     1
 90
        4
176
     1
 62
     7
176
     1
 62
   257
176
     1
 90
        1
176
     1
 90
        1
176
     1
 40
1.0
176
     1
 90
        8
176
     1
 62
     7
176
     1
 40
1.0
176
     1
 90
        1
176
     1
 90
        6
176
     1
 90
        2
176
     1
 62
     7
176
     1
 90
        5
176
     1
 90
        0
176
     1
 90
        0
176
     1
290
     0
176
     1
 90
        1
176
     1
 40
0.0
176
     1
 90
        0
176
     1
290
     0
176
     1
290
     1
176
     1
290
     1
176
     1
290
     0
176
     1
290
     0
176
     1
290
     0
176
     1
290
     0
176
     1
290
     0
176
     1
290
     0
176
     1
 90
       50
176
     1
 40
0.0
176
     1
 40
1.0
176
     1
 90
        0
176
     1
 62
    18
420
        0
176
     1
 90
       50
176
     1
 90
        3
176
     1
 62
     5
420
      255
176
     1
290
     0
176
     1
 90
       50
176
     1
 90
       50
176
     1
 90
       50
176
     1
290
     0
176
     1
 90
       50
176
     1
 62
   256
176
     0
 40
1.0
176
     0
 90
        2
176
     1
  1
strokes_ogs.tif
176
     1
290
     0
176
     1
 40
1.0
176
     1
 40
1.0
176
     1
  0
VISUALSTYLE
  5
62D
102
{ACAD_REACTORS
330
621
102
}
330
621
100
AcDbVisualStyle
  2
Brighten
 70
    12
177
     3
291
     1
 70
    58
 90
        2
176
     1
 90
        2
176
     1
 90
        0
176
     1
 90
        0
176
     1
 40
0.6
176
     1
 40
30.0
176
     1
 62
     7
420
 16777215
176
     1
 90
        1
176
     1
 90
        4
176
     1
 62
     7
176
     1
 62
   257
176
     1
 90
        1
176
     1
 90
        1
176
     1
 40
1.0
176
     1
 90
        8
176
     1
 62
     7
176
     1
 40
1.0
176
     1
 90
        1
176
     1
 90
        6
176
     1
 90
        2
176
     1
 62
     7
176
     1
 90
        5
176
     1
 90
        0
176
     1
 90
        0
176
     1
290
     0
176
     1
 90
        1
176
     1
 40
50.0
176
     1
 90
        0
176
     1
290
     0
176
     1
290
     1
176
     1
290
     1
176
     1
290
     0
176
     1
290
     0
176
     1
290
     0
176
     1
290
     0
176
     1
290
     0
176
     1
290
     0
176
     1
 90
       50
176
     1
 40
0.0
176
     1
 40
1.0
176
     1
 90
        0
176
     1
 62
    18
420
        0
176
     1
 90
       50
176
     1
 90
        3
176
     1
 62
     5
420
      255
176
     1
290
     0
176
     1
 90
       50
176
     1
 90
       50
176
     1
 90
       50
176
     1
290
     0
176
     1
 90
       50
176
     1
 62
   256
176
     0
 40
1.0
176
     0
 90
        2
176
     1
  1
strokes_ogs.tif
176
     1
290
     0
176
     1
 40
1.0
176
     1
 40
1.0
176
     1
  0
VISUALSTYLE
  5
631
102
{ACAD_REACTORS
330
621
102
}
330
621
100
AcDbVisualStyle
  2
ColorChange
 70
    16
177
     3
291
     1
 70
    58
 90
        2
176
     1
 90
        2
176
     1
 90
        3
176
     1
 90
        0
176
     1
 40
0.6
176
     1
 40
30.0
176
     1
 62
     8
420
  8421504
176
     1
 90
        1
176
     1
 90
        4
176
     1
 62
     7
176
     1
 62
   257
176
     1
 90
        1
176
     1
 90
        1
176
     1
 40
1.0
176
     1
 90
        8
176
     1
 62
     8
420
  8421504
176
     1
 40
1.0
176
     1
 90
        1
176
     1
 90
        6
176
     1
 90
        2
176
     1
 62
     7
176
     1
 90
        5
176
     1
 90
        0
176
     1
 90
        0
176
     1
290
     0
176
     1
 90
        1
176
     1
 40
0.0
176
     1
 90
        0
176
     1
290
     0
176
     1
290
     1
176
     1
290
     1
176
     1
290
     0
176
     1
290
     0
176
     1
290
     0
176
     1
290
     0
176
     1
290
     0
176
     1
290
     0
176
     1
 90
       50
176
     1
 40
0.0
176
     1
 40
1.0
176
     1
 90
        0
176
     1
 62
    18
420
        0
176
     1
 90
       50
176
     1
 90
        3
176
     1
 62
     5
420
      255
176
     1
290
     0
176
     1
 90
       50
176
     1
 90
       50
176
     1
 90
       50
176
     1
290
     0
176
     1
 90
       50
176
     1
 62
   256
176
     0
 40
1.0
176
     0
 90
        2
176
     1
  1
strokes_ogs.tif
176
     1
290
     0
176
     1
 40
1.0
176
     1
 40
1.0
176
     1
  0
VISUALSTYLE
  5
62B
102
{ACAD_REACTORS
330
621
102
}
330
621
100
AcDbVisualStyle
  2
Conceptual
 70
     9
177
     3
291
     0
 70
    58
 90
        3
176
     1
 90
        2
176
     1
 90
        0
176
     1
 90
        0
176
     1
 40
0.6
176
     1
 40
30.0
176
     1
 62
     7
420
 16777215
176
     1
 90
        2
176
     1
 90
        2
176
     1
 62
     7
176
     1
 62
   257
176
     1
 90
        1
176
     1
 90
        1
176
     1
 40
179.0
176
     1
 90
        8
176
     1
 62
     7
176
     1
 40
1.0
176
     1
 90
        1
176
     1
 90
        6
176
     1
 90
        2
176
     1
 62
     7
176
     1
 90
        3
176
     1
 90
        0
176
     1
 90
        0
176
     1
290
     0
176
     1
 90
        1
176
     1
 40
0.0
176
     1
 90
        0
176
     1
290
     0
176
     1
290
     1
176
     1
290
     1
176
     1
290
     0
176
     1
290
     0
176
     1
290
     0
176
     1
290
     0
176
     1
290
     0
176
     1
290
     0
176
     1
 90
       50
176
     1
 40
0.0
176
     1
 40
1.0
176
     1
 90
        0
176
     1
 62
    18
420
        0
176
     1
 90
       50
176
     1
 90
        3
176
     1
 62
     5
420
      255
176
     1
290
     0
176
     1
 90
       50
176
     1
 90
       50
176
     1
 90
       50
176
     1
290
     0
176
     1
 90
       50
176
     1
 62
   256
176
     0
 40
1.0
176
     0
 90
        2
176
     1
  1
strokes_ogs.tif
176
     1
290
     0
176
     1
 40
1.0
176
     1
 40
1.0
176
     1
  0
VISUALSTYLE
  5
62C
102
{ACAD_REACTORS
330
621
102
}
330
621
100
AcDbVisualStyle
  2
Dim
 70
    11
177
     3
291
     1
 70
    58
 90
        2
176
     1
 90
        2
176
     1
 90
        0
176
     1
 90
        0
176
     1
 40
0.6
176
     1
 40
30.0
176
     1
 62
     7
420
 16777215
176
     1
 90
        1
176
     1
 90
        4
176
     1
 62
     7
176
     1
 62
   257
176
     1
 90
        1
176
     1
 90
        1
176
     1
 40
1.0
176
     1
 90
        8
176
     1
 62
     7
176
     1
 40
1.0
176
     1
 90
        1
176
     1
 90
        6
176
     1
 90
        2
176
     1
 62
     7
176
     1
 90
        5
176
     1
 90
        0
176
     1
 90
        0
176
     1
290
     0
176
     1
 90
        1
176
     1
 40
-50.0
176
     1
 90
        0
176
     1
290
     0
176
     1
290
     1
176
     1
290
     1
176
     1
290
     0
176
     1
290
     0
176
     1
290
     0
176
     1
290
     0
176
     1
290
     0
176
     1
290
     0
176
     1
 90
       50
176
     1
 40
0.0
176
     1
 40
1.0
176
     1
 90
        0
176
     1
 62
    18
420
        0
176
     1
 90
       50
176
     1
 90
        3
176
     1
 62
     5
420
      255
176
     1
290
     0
176
     1
 90
       50
176
     1
 90
       50
176
     1
 90
       50
176
     1
290
     0
176
     1
 90
       50
176
     1
 62
   256
176
     0
 40
1.0
176
     0
 90
        2
176
     1
  1
strokes_ogs.tif
176
     1
290
     0
176
     1
 40
1.0
176
     1
 40
1.0
176
     1
  0
VISUALSTYLE
  5
634
102
{ACAD_REACTORS
330
621
102
}
330
621
100
AcDbVisualStyle
  2
EdgeColorOff
 70
    22
177
     3
291
     1
 70
    58
 90
        2
176
     0
 90
        2
176
     0
 90
        0
176
     0
 90
        0
176
     0
 40
0.6
176
     0
 40
30.0
176
     0
 62
     7
420
 16777215
176
     0
 90
        1
176
     0
 90
        4
176
     0
 62
     7
176
     0
 62
   257
176
     0
 90
        1
176
     0
 90
        1
176
     0
 40
1.0
176
     0
 90
        8
176
     2
 62
     7
176
     0
 40
1.0
176
     0
 90
        1
176
     0
 90
        6
176
     0
 90
        2
176
     0
 62
     7
176
     0
 90
        5
176
     0
 90
        0
176
     0
 90
        0
176
     0
290
     0
176
     0
 90
        1
176
     0
 40
0.0
176
     0
 90
        0
176
     0
290
     0
176
     0
290
     1
176
     0
290
     1
176
     0
290
     0
176
     0
290
     0
176
     0
290
     0
176
     0
290
     0
176
     0
290
     0
176
     0
290
     0
176
     0
 90
       50
176
     0
 40
0.0
176
     0
 40
1.0
176
     0
 90
        0
176
     0
 62
    18
420
        0
176
     0
 90
       50
176
     0
 90
        3
176
     0
 62
     5
420
      255
176
     0
290
     0
176
     0
 90
       50
176
     0
 90
       50
176
     0
 90
       50
176
     0
290
     0
176
     0
 90
       50
176
     0
 62
   256
176
     0
 40
1.0
176
     0
 90
        2
176
     0
  1
strokes_ogs.tif
176
     0
290
     0
176
     0
 40
1.0
176
     0
 40
1.0
176
     0
  0
VISUALSTYLE
  5
630
102
{ACAD_REACTORS
330
621
102
}
330
621
100
AcDbVisualStyle
  2
Facepattern
 70
    15
177
     3
291
     1
 70
    58
 90
        2
176
     1
 90
        2
176
     1
 90
        0
176
     1
 90
        0
176
     1
 40
0.6
176
     1
 40
30.0
176
     1
 62
     7
420
 16777215
176
     1
 90
        1
176
     1
 90
        4
176
     1
 62
     7
176
     1
 62
   257
176
     1
 90
        1
176
     1
 90
        1
176
     1
 40
1.0
176
     1
 90
        8
176
     1
 62
     7
176
     1
 40
1.0
176
     1
 90
        1
176
     1
 90
        6
176
     1
 90
        2
176
     1
 62
     7
176
     1
 90
        5
176
     1
 90
        0
176
     1
 90
        0
176
     1
290
     0
176
     1
 90
        1
176
     1
 40
0.0
176
     1
 90
        0
176
     1
290
     0
176
     1
290
     1
176
     1
290
     1
176
     1
290
     0
176
     1
290
     0
176
     1
290
     0
176
     1
290
     0
176
     1
290
     0
176
     1
290
     0
176
     1
 90
       50
176
     1
 40
0.0
176
     1
 40
1.0
176
     1
 90
        0
176
     1
 62
    18
420
        0
176
     1
 90
       50
176
     1
 90
        3
176
     1
 62
     5
420
      255
176
     1
290
     0
176
     1
 90
       50
176
     1
 90
       50
176
     1
 90
       50
176
     1
290
     0
176
     1
 90
       50
176
     1
 62
   256
176
     0
 40
1.0
176
     0
 90
        2
176
     1
  1
strokes_ogs.tif
176
     1
290
     0
176
     1
 40
1.0
176
     1
 40
1.0
176
     1
  0
VISUALSTYLE
  5
622
102
{ACAD_REACTORS
330
621
102
}
330
621
100
AcDbVisualStyle
  2
Flat
 70
     0
177
     3
291
     1
 70
    58
 90
        2
176
     1
 90
        1
176
     1
 90
        1
176
     1
 90
        2
176
     1
 40
0.6
176
     1
 40
30.0
176
     1
 62
     7
420
 16777215
176
     1
 90
        0
176
     1
 90
        0
176
     1
 62
     7
176
     1
 62
   257
176
     1
 90
        1
176
     1
 90
        1
176
     1
 40
1.0
176
     1
 90
        8
176
     1
 62
     7
176
     1
 40
1.0
176
     1
 90
        1
176
     1
 90
        6
176
     1
 90
        2
176
     1
 62
     7
176
     1
 90
        5
176
     1
 90
        0
176
     1
 90
        0
176
     1
290
     0
176
     1
 90
       13
176
     1
 40
0.0
176
     1
 90
        0
176
     1
290
     0
176
     1
290
     1
176
     1
290
     1
176
     1
290
     0
176
     1
290
     0
176
     1
290
     0
176
     1
290
     0
176
     1
290
     0
176
     1
290
     0
176
     1
 90
       50
176
     1
 40
0.0
176
     1
 40
1.0
176
     1
 90
        0
176
     1
 62
    18
420
        0
176
     1
 90
       50
176
     1
 90
        3
176
     1
 62
     5
420
      255
176
     1
290
     0
176
     1
 90
       50
176
     1
 90
       50
176
     1
 90
       50
176
     1
290
     0
176
     1
 90
       50
176
     1
 62
   256
176
     0
 40
1.0
176
     0
 90
        2
176
     1
  1
strokes_ogs.tif
176
     1
290
     0
176
     1
 40
1.0
176
     1
 40
1.0
176
     1
  0
VISUALSTYLE
  5
623
102
{ACAD_REACTORS
330
621
102
}
330
621
100
AcDbVisualStyle
  2
FlatWithEdges
 70
     1
177
     3
291
     1
 70
    58
 90
        2
176
     1
 90
        1
176
     1
 90
        1
176
     1
 90
        2
176
     1
 40
0.6
176
     1
 40
30.0
176
     1
 62
     7
420
 16777215
176
     1
 90
        1
176
     1
 90
        0
176
     1
 62
     7
176
     1
 62
   257
176
     1
 90
        1
176
     1
 90
        1
176
     1
 40
1.0
176
     1
 90
        0
176
     1
 62
   257
176
     1
 40
1.0
176
     1
 90
        1
176
     1
 90
        6
176
     1
 90
        2
176
     1
 62
     7
176
     1
 90
        5
176
     1
 90
        0
176
     1
 90
        0
176
     1
290
     0
176
     1
 90
       13
176
     1
 40
0.0
176
     1
 90
        0
176
     1
290
     0
176
     1
290
     1
176
     1
290
     1
176
     1
290
     0
176
     1
290
     0
176
     1
290
     0
176
     1
290
     0
176
     1
290
     0
176
     1
290
     0
176
     1
 90
       50
176
     1
 40
0.0
176
     1
 40
1.0
176
     1
 90
        0
176
     1
 62
    18
420
        0
176
     1
 90
       50
176
     1
 90
        3
176
     1
 62
     5
420
      255
176
     1
290
     0
176
     1
 90
       50
176
     1
 90
       50
176
     1
 90
       50
176
     1
290
     0
176
     1
 90
       50
176
     1
 62
   256
176
     0
 40
1.0
176
     0
 90
        2
176
     1
  1
strokes_ogs.tif
176
     1
290
     0
176
     1
 40
1.0
176
     1
 40
1.0
176
     1
  0
VISUALSTYLE
  5
624
102
{ACAD_REACTORS
330
621
102
}
330
621
100
AcDbVisualStyle
  2
Gouraud
 70
     2
177
     3
291
     1
 70
    58
 90
        2
176
     1
 90
        2
176
     1
 90
        1
176
     1
 90
        2
176
     1
 40
0.6
176
     1
 40
30.0
176
     1
 62
     7
420
 16777215
176
     1
 90
        0
176
     1
 90
        0
176
     1
 62
     7
176
     1
 62
   257
176
     1
 90
        1
176
     1
 90
        1
176
     1
 40
1.0
176
     1
 90
        0
176
     1
 62
     7
176
     1
 40
1.0
176
     1
 90
        1
176
     1
 90
        6
176
     1
 90
        2
176
     1
 62
     7
176
     1
 90
        5
176
     1
 90
        0
176
     1
 90
        0
176
     1
290
     0
176
     1
 90
       13
176
     1
 40
0.0
176
     1
 90
        0
176
     1
290
     0
176
     1
290
     1
176
     1
290
     1
176
     1
290
     0
176
     1
290
     0
176
     1
290
     0
176
     1
290
     0
176
     1
290
     0
176
     1
290
     0
176
     1
 90
       50
176
     1
 40
0.0
176
     1
 40
1.0
176
     1
 90
        0
176
     1
 62
    18
420
        0
176
     1
 90
       50
176
     1
 90
        3
176
     1
 62
     5
420
      255
176
     1
290
     0
176
     1
 90
       50
176
     1
 90
       50
176
     1
 90
       50
176
     1
290
     0
176
     1
 90
       50
176
     1
 62
   256
176
     0
 40
1.0
176
     0
 90
        2
176
     1
  1
strokes_ogs.tif
176
     1
290
     0
176
     1
 40
1.0
176
     1
 40
1.0
176
     1
  0
VISUALSTYLE
  5
625
102
{ACAD_REACTORS
330
621
102
}
330
621
100
AcDbVisualStyle
  2
GouraudWithEdges
 70
     3
177
     3
291
     1
 70
    58
 90
        2
176
     1
 90
        2
176
     1
 90
        1
176
     1
 90
        2
176
     1
 40
0.6
176
     1
 40
30.0
176
     1
 62
     7
420
 16777215
176
     1
 90
        1
176
     1
 90
        0
176
     1
 62
     7
176
     1
 62
   257
176
     1
 90
        1
176
     1
 90
        1
176
     1
 40
1.0
176
     1
 90
        0
176
     1
 62
   257
176
     1
 40
1.0
176
     1
 90
        1
176
     1
 90
        6
176
     1
 90
        2
176
     1
 62
     7
176
     1
 90
        5
176
     1
 90
        0
176
     1
 90
        0
176
     1
290
     0
176
     1
 90
       13
176
     1
 40
0.0
176
     1
 90
        0
176
     1
290
     0
176
     1
290
     1
176
     1
290
     1
176
     1
290
     0
176
     1
290
     0
176
     1
290
     0
176
     1
290
     0
176
     1
290
     0
176
     1
290
     0
176
     1
 90
       50
176
     1
 40
0.0
176
     1
 40
1.0
176
     1
 90
        0
176
     1
 62
    18
420
        0
176
     1
 90
       50
176
     1
 90
        3
176
     1
 62
     5
420
      255
176
     1
290
     0
176
     1
 90
       50
176
     1
 90
       50
176
     1
 90
       50
176
     1
290
     0
176
     1
 90
       50
176
     1
 62
   256
176
     0
 40
1.0
176
     0
 90
        2
176
     1
  1
strokes_ogs.tif
176
     1
290
     0
176
     1
 40
1.0
176
     1
 40
1.0
176
     1
  0
VISUALSTYLE
  5
628
102
{ACAD_REACTORS
330
621
102
}
330
621
100
AcDbVisualStyle
  2
Hidden
 70
     6
177
     3
291
     0
 70
    58
 90
        1
176
     1
 90
        2
176
     1
 90
        2
176
     1
 90
        0
176
     1
 40
0.6
176
     1
 40
30.0
176
     1
 62
     7
420
 16777215
176
     1
 90
        2
176
     1
 90
        2
176
     1
 62
     7
176
     1
 62
   257
176
     1
 90
        2
176
     1
 90
        1
176
     1
 40
40.0
176
     1
 90
        0
176
     1
 62
   257
176
     1
 40
1.0
176
     1
 90
        1
176
     1
 90
        6
176
     1
 90
        2
176
     1
 62
     7
176
     1
 90
        3
176
     1
 90
        0
176
     1
 90
        0
176
     1
290
     0
176
     1
 90
        1
176
     1
 40
0.0
176
     1
 90
        0
176
     1
290
     0
176
     1
290
     1
176
     1
290
     1
176
     1
290
     0
176
     1
290
     0
176
     1
290
     0
176
     1
290
     0
176
     1
290
     0
176
     1
290
     0
176
     1
 90
       50
176
     1
 40
0.0
176
     1
 40
1.0
176
     1
 90
        0
176
     1
 62
    18
420
        0
176
     1
 90
       50
176
     1
 90
        3
176
     1
 62
     5
420
      255
176
     1
290
     0
176
     1
 90
       50
176
     1
 90
       50
176
     1
 90
       50
176
     1
290
     0
176
     1
 90
       50
176
     1
 62
   256
176
     0
 40
1.0
176
     0
 90
        2
176
     1
  1
strokes_ogs.tif
176
     1
290
     0
176
     1
 40
1.0
176
     1
 40
1.0
176
     1
  0
VISUALSTYLE
  5
632
102
{ACAD_REACTORS
330
621
102
}
330
621
100
AcDbVisualStyle
  2
JitterOff
 70
    20
177
     3
291
     1
 70
    58
 90
        2
176
     0
 90
        2
176
     0
 90
        0
176
     0
 90
        0
176
     0
 40
0.6
176
     0
 40
30.0
176
     0
 62
     7
420
 16777215
176
     0
 90
        1
176
     0
 90
        4
176
     0
 62
     7
176
     0
 62
   257
176
     0
 90
        1
176
     0
 90
        1
176
     0
 40
1.0
176
     0
 90
       10
176
     2
 62
     7
176
     0
 40
1.0
176
     0
 90
        1
176
     0
 90
        6
176
     0
 90
        2
176
     0
 62
     7
176
     0
 90
        5
176
     0
 90
        0
176
     0
 90
        0
176
     0
290
     0
176
     0
 90
        1
176
     0
 40
0.0
176
     0
 90
        0
176
     0
290
     0
176
     0
290
     1
176
     0
290
     1
176
     0
290
     0
176
     0
290
     0
176
     0
290
     0
176
     0
290
     0
176
     0
290
     0
176
     0
290
     0
176
     0
 90
       50
176
     0
 40
0.0
176
     0
 40
1.0
176
     0
 90
        0
176
     0
 62
    18
420
        0
176
     0
 90
       50
176
     0
 90
        3
176
     0
 62
     5
420
      255
176
     0
290
     0
176
     0
 90
       50
176
     0
 90
       50
176
     0
 90
       50
176
     0
290
     0
176
     0
 90
       50
176
     0
 62
   256
176
     0
 40
1.0
176
     0
 90
        2
176
     0
  1
strokes_ogs.tif
176
     0
290
     0
176
     0
 40
1.0
176
     0
 40
1.0
176
     0
  0
VISUALSTYLE
  5
62F
102
{ACAD_REACTORS
330
621
102
}
330
621
100
AcDbVisualStyle
  2
Linepattern
 70
    14
177
     3
291
     1
 70
    58
 90
        2
176
     1
 90
        2
176
     1
 90
        0
176
     1
 90
        0
176
     1
 40
0.6
176
     1
 40
30.0
176
     1
 62
     7
420
 16777215
176
     1
 90
        1
176
     1
 90
        4
176
     1
 62
     7
176
     1
 62
   257
176
     1
 90
        7
176
     1
 90
        7
176
     1
 40
1.0
176
     1
 90
        8
176
     1
 62
     7
176
     1
 40
1.0
176
     1
 90
        1
176
     1
 90
        6
176
     1
 90
        2
176
     1
 62
     7
176
     1
 90
        5
176
     1
 90
        0
176
     1
 90
        0
176
     1
290
     0
176
     1
 90
        1
176
     1
 40
0.0
176
     1
 90
        0
176
     1
290
     0
176
     1
290
     1
176
     1
290
     1
176
     1
290
     0
176
     1
290
     0
176
     1
290
     0
176
     1
290
     0
176
     1
290
     0
176
     1
290
     0
176
     1
 90
       50
176
     1
 40
0.0
176
     1
 40
1.0
176
     1
 90
        0
176
     1
 62
    18
420
        0
176
     1
 90
       50
176
     1
 90
        3
176
     1
 62
     5
420
      255
176
     1
290
     0
176
     1
 90
       50
176
     1
 90
       50
176
     1
 90
       50
176
     1
290
     0
176
     1
 90
       50
176
     1
 62
   256
176
     0
 40
1.0
176
     0
 90
        2
176
     1
  1
strokes_ogs.tif
176
     1
290
     0
176
     1
 40
1.0
176
     1
 40
1.0
176
     1
  0
VISUALSTYLE
  5
633
102
{ACAD_REACTORS
330
621
102
}
330
621
100
AcDbVisualStyle
  2
OverhangOff
 70
    21
177
     3
291
     1
 70
    58
 90
        2
176
     0
 90
        2
176
     0
 90
        0
176
     0
 90
        0
176
     0
 40
0.6
176
     0
 40
30.0
176
     0
 62
     7
420
 16777215
176
     0
 90
        1
176
     0
 90
        4
176
     0
 62
     7
176
     0
 62
   257
176
     0
 90
        1
176
     0
 90
        1
176
     0
 40
1.0
176
     0
 90
        9
176
     2
 62
     7
176
     0
 40
1.0
176
     0
 90
        1
176
     0
 90
        6
176
     0
 90
        2
176
     0
 62
     7
176
     0
 90
        5
176
     0
 90
        0
176
     0
 90
        0
176
     0
290
     0
176
     0
 90
        1
176
     0
 40
0.0
176
     0
 90
        0
176
     0
290
     0
176
     0
290
     1
176
     0
290
     1
176
     0
290
     0
176
     0
290
     0
176
     0
290
     0
176
     0
290
     0
176
     0
290
     0
176
     0
290
     0
176
     0
 90
       50
176
     0
 40
0.0
176
     0
 40
1.0
176
     0
 90
        0
176
     0
 62
    18
420
        0
176
     0
 90
       50
176
     0
 90
        3
176
     0
 62
     5
420
      255
176
     0
290
     0
176
     0
 90
       50
176
     0
 90
       50
176
     0
 90
       50
176
     0
290
     0
176
     0
 90
       50
176
     0
 62
   256
176
     0
 40
1.0
176
     0
 90
        2
176
     0
  1
strokes_ogs.tif
176
     0
290
     0
176
     0
 40
1.0
176
     0
 40
1.0
176
     0
  0
VISUALSTYLE
  5
62A
102
{ACAD_REACTORS
330
621
102
}
330
621
100
AcDbVisualStyle
  2
Realistic
 70
     8
177
     3
291
     0
 70
    58
 90
        2
176
     1
 90
        3
176
     1
 90
        0
176
     1
 90
        2
176
     1
 40
0.6
176
     1
 40
30.0
176
     1
 62
     7
420
 16777215
176
     1
 90
        0
176
     1
 90
        0
176
     1
 62
     7
176
     1
 62
   257
176
     1
 90
        1
176
     1
 90
        1
176
     1
 40
1.0
176
     1
 90
        8
176
     1
 62
   257
176
     1
 40
1.0
176
     1
 90
        1
176
     1
 90
        6
176
     1
 90
        2
176
     1
 62
     7
176
     1
 90
        3
176
     1
 90
        0
176
     1
 90
        0
176
     1
290
     0
176
     1
 90
       13
176
     1
 40
0.0
176
     1
 90
        0
176
     1
290
     0
176
     1
290
     1
176
     1
290
     1
176
     1
290
     0
176
     1
290
     0
176
     1
290
     0
176
     1
290
     0
176
     1
290
     0
176
     1
290
     0
176
     1
 90
       50
176
     1
 40
0.0
176
     1
 40
1.0
176
     1
 90
        0
176
     1
 62
    18
420
        0
176
     1
 90
       50
176
     1
 90
        3
176
     1
 62
     5
420
      255
176
     1
290
     0
176
     1
 90
       50
176
     1
 90
       50
176
     1
 90
       50
176
     1
290
     0
176
     1
 90
       50
176
     1
 62
   256
176
     0
 40
1.0
176
     0
 90
        2
176
     1
  1
strokes_ogs.tif
176
     1
290
     0
176
     1
 40
1.0
176
     1
 40
1.0
176
     1
  0
VISUALSTYLE
  5
639
102
{ACAD_REACTORS
330
621
102
}
330
621
100
AcDbVisualStyle
  2
Shaded
 70
    27
177
     3
291
     0
 70
    58
 90
        2
176
     1
 90
        2
176
     1
 90
        1
176
     1
 90
        2
176
     1
 40
0.6
176
     1
 40
30.0
176
     1
 62
     7
420
 16777215
176
     1
 90
        0
176
     1
 90
        4
176
     1
 62
     7
176
     1
 62
   257
176
     1
 90
        1
176
     1
 90
        1
176
     1
 40
1.0
176
     1
 90
        8
176
     1
 62
   257
176
     1
 40
1.0
176
     1
 90
        1
176
     1
 90
        6
176
     1
 90
        2
176
     1
 62
     8
420
  7895160
176
     1
 90
        3
176
     1
 90
        0
176
     1
 90
        0
176
     1
290
     0
176
     1
 90
        5
176
     1
 40
0.0
176
     1
 90
        0
176
     1
290
     0
176
     1
290
     1
176
     1
290
     1
176
     1
290
     0
176
     1
290
     0
176
     1
290
     0
176
     1
290
     0
176
     1
290
     0
176
     1
290
     0
176
     1
 90
       50
176
     1
 40
0.0
176
     1
 40
1.0
176
     1
 90
        0
176
     1
 62
    18
420
        0
176
     1
 90
       50
176
     1
 90
        3
176
     1
 62
     5
420
      255
176
     1
290
     0
176
     1
 90
       50
176
     1
 90
       50
176
     1
 90
       50
176
     1
290
     0
176
     1
 90
       50
176
     1
 62
   256
176
     0
 40
1.0
176
     0
 90
        2
176
     1
  1
strokes_ogs.tif
176
     1
290
     0
176
     1
 40
1.0
176
     1
 40
1.0
176
     1
  0
VISUALSTYLE
  5
638
102
{ACAD_REACTORS
330
621
102
}
330
621
100
AcDbVisualStyle
  2
Shaded with edges
 70
    26
177
     3
291
     0
 70
    58
 90
        2
176
     1
 90
        2
176
     1
 90
        1
176
     1
 90
        2
176
     1
 40
0.6
176
     1
 40
30.0
176
     1
 62
     7
420
 16777215
176
     1
 90
        1
176
     1
 90
       10
176
     1
 62
     7
176
     1
 62
   257
176
     1
 90
        2
176
     1
 90
        1
176
     1
 40
1.0
176
     1
 90
        8
176
     1
 62
   257
176
     1
 40
1.0
176
     1
 90
        1
176
     1
 90
        6
176
     1
 90
        2
176
     1
 62
     7
176
     1
 90
        3
176
     1
 90
        0
176
     1
 90
        0
176
     1
290
     0
176
     1
 90
        5
176
     1
 40
0.0
176
     1
 90
        0
176
     1
290
     0
176
     1
290
     1
176
     1
290
     1
176
     1
290
     0
176
     1
290
     0
176
     1
290
     0
176
     1
290
     0
176
     1
290
     0
176
     1
290
     0
176
     1
 90
       50
176
     1
 40
0.0
176
     1
 40
1.0
176
     1
 90
        0
176
     1
 62
    18
420
        0
176
     1
 90
       50
176
     1
 90
        3
176
     1
 62
     5
420
      255
176
     1
290
     0
176
     1
 90
       50
176
     1
 90
       50
176
     1
 90
       50
176
     1
290
     0
176
     1
 90
       50
176
     1
 62
   256
176
     0
 40
1.0
176
     0
 90
        2
176
     1
  1
strokes_ogs.tif
176
     1
290
     0
176
     1
 40
1.0
176
     1
 40
1.0
176
     1
  0
VISUALSTYLE
  5
635
102
{ACAD_REACTORS
330
621
102
}
330
621
100
AcDbVisualStyle
  2
Shades of Gray
 70
    23
177
     3
291
     0
 70
    58
 90
        2
176
     1
 90
        2
176
     1
 90
        3
176
     1
 90
        0
176
     1
 40
0.6
176
     1
 40
30.0
176
     1
 62
     7
420
 16777215
176
     1
 90
        2
176
     1
 90
        2
176
     1
 62
     7
176
     1
 62
     7
176
     1
 90
        1
176
     1
 90
        1
176
     1
 40
40.0
176
     1
 90
        8
176
     1
 62
     7
176
     1
 40
1.0
176
     1
 90
        1
176
     1
 90
        6
176
     1
 90
        2
176
     1
 62
     7
176
     1
 90
        3
176
     1
 90
        0
176
     1
 90
        0
176
     1
290
     0
176
     1
 90
        1
176
     1
 40
0.0
176
     1
 90
        0
176
     1
290
     0
176
     1
290
     1
176
     1
290
     1
176
     1
290
     0
176
     1
290
     0
176
     1
290
     0
176
     1
290
     0
176
     1
290
     0
176
     1
290
     0
176
     1
 90
       50
176
     1
 40
0.0
176
     1
 40
1.0
176
     1
 90
        0
176
     1
 62
    18
420
        0
176
     1
 90
       50
176
     1
 90
        3
176
     1
 62
     5
420
      255
176
     1
290
     0
176
     1
 90
       50
176
     1
 90
       50
176
     1
 90
       50
176
     1
290
     0
176
     1
 90
       50
176
     1
 62
   256
176
     0
 40
1.0
176
     0
 90
        2
176
     1
  1
strokes_ogs.tif
176
     1
290
     0
176
     1
 40
1.0
176
     1
 40
1.0
176
     1
  0
VISUALSTYLE
  5
636
102
{ACAD_REACTORS
330
621
102
}
330
621
100
AcDbVisualStyle
  2
Sketchy
 70
    24
177
     3
291
     0
 70
    58
 90
        1
176
     1
 90
        2
176
     1
 90
        2
176
     1
 90
        0
176
     1
 40
0.6
176
     1
 40
30.0
176
     1
 62
     7
420
 16777215
176
     1
 90
        2
176
     1
 90
        2
176
     1
 62
     7
176
     1
 62
     7
176
     1
 90
        1
176
     1
 90
        1
176
     1
 40
40.0
176
     1
 90
       11
176
     1
 62
     7
176
     1
 40
1.0
176
     1
 90
        1
176
     1
 90
        6
176
     1
 90
        2
176
     1
 62
     7
176
     1
 90
        6
176
     1
 90
        0
176
     1
 90
        0
176
     1
290
     0
176
     1
 90
        1
176
     1
 40
0.0
176
     1
 90
        0
176
     1
290
     0
176
     1
290
     1
176
     1
290
     1
176
     1
290
     0
176
     1
290
     0
176
     1
290
     0
176
     1
290
     0
176
     1
290
     0
176
     1
290
     0
176
     1
 90
       50
176
     1
 40
0.0
176
     1
 40
1.0
176
     1
 90
        0
176
     1
 62
    18
420
        0
176
     1
 90
       50
176
     1
 90
        3
176
     1
 62
     5
420
      255
176
     1
290
     0
176
     1
 90
       50
176
     1
 90
       50
176
     1
 90
       50
176
     1
290
     0
176
     1
 90
       50
176
     1
 62
   256
176
     0
 40
1.0
176
     0
 90
        2
176
     1
  1
strokes_ogs.tif
176
     1
290
     0
176
     1
 40
1.0
176
     1
 40
1.0
176
     1
  0
VISUALSTYLE
  5
62E
102
{ACAD_REACTORS
330
621
102
}
330
621
100
AcDbVisualStyle
  2
Thicken
 70
    13
177
     3
291
     1
 70
    58
 90
        2
176
     1
 90
        2
176
     1
 90
        0
176
     1
 90
        0
176
     1
 40
0.6
176
     1
 40
30.0
176
     1
 62
     7
420
 16777215
176
     1
 90
        1
176
     1
 90
        4
176
     1
 62
     7
176
     1
 62
   257
176
     1
 90
        1
176
     1
 90
        1
176
     1
 40
1.0
176
     1
 90
       12
176
     1
 62
     7
176
     1
 40
1.0
176
     1
 90
        1
176
     1
 90
        6
176
     1
 90
        2
176
     1
 62
     7
176
     1
 90
        5
176
     1
 90
        0
176
     1
 90
        0
176
     1
290
     0
176
     1
 90
        1
176
     1
 40
0.0
176
     1
 90
        0
176
     1
290
     0
176
     1
290
     1
176
     1
290
     1
176
     1
290
     0
176
     1
290
     0
176
     1
290
     0
176
     1
290
     0
176
     1
290
     0
176
     1
290
     0
176
     1
 90
       50
176
     1
 40
0.0
176
     1
 40
1.0
176
     1
 90
        0
176
     1
 62
    18
420
        0
176
     1
 90
       50
176
     1
 90
        3
176
     1
 62
     5
420
      255
176
     1
290
     0
176
     1
 90
       50
176
     1
 90
       50
176
     1
 90
       50
176
     1
290
     0
176
     1
 90
       50
176
     1
 62
   256
176
     0
 40
1.0
176
     0
 90
        2
176
     1
  1
strokes_ogs.tif
176
     1
290
     0
176
     1
 40
1.0
176
     1
 40
1.0
176
     1
  0
VISUALSTYLE
  5
627
102
{ACAD_REACTORS
330
621
102
}
330
621
100
AcDbVisualStyle
  2
Wireframe
 70
     5
177
     3
291
     0
 70
    58
 90
        0
176
     1
 90
        2
176
     1
 90
        0
176
     1
 90
        0
176
     1
 40
0.6
176
     1
 40
30.0
176
     1
 62
     7
420
 16777215
176
     1
 90
        1
176
     1
 90
        4
176
     1
 62
     7
176
     1
 62
   257
176
     1
 90
        1
176
     1
 90
        1
176
     1
 40
1.0
176
     1
 90
        0
176
     1
 62
   257
176
     1
 40
1.0
176
     1
 90
        1
176
     1
 90
        6
176
     1
 90
        2
176
     1
 62
     7
176
     1
 90
        3
176
     1
 90
        0
176
     1
 90
        0
176
     1
290
     0
176
     1
 90
        1
176
     1
 40
0.0
176
     1
 90
        0
176
     1
290
     0
176
     1
290
     1
176
     1
290
     1
176
     1
290
     0
176
     1
290
     0
176
     1
290
     0
176
     1
290
     0
176
     1
290
     0
176
     1
290
     0
176
     1
 90
       50
176
     1
 40
0.0
176
     1
 40
1.0
176
     1
 90
        0
176
     1
 62
    18
420
        0
176
     1
 90
       50
176
     1
 90
        3
176
     1
 62
     5
420
      255
176
     1
290
     0
176
     1
 90
       50
176
     1
 90
       50
176
     1
 90
       50
176
     1
290
     0
176
     1
 90
       50
176
     1
 62
   256
176
     0
 40
1.0
176
     0
 90
        2
176
     1
  1
strokes_ogs.tif
176
     1
290
     0
176
     1
 40
1.0
176
     1
 40
1.0
176
     1
  0
VISUALSTYLE
  5
637
102
{ACAD_REACTORS
330
621
102
}
330
621
100
AcDbVisualStyle
  2
X-Ray
 70
    25
177
     3
291
     0
 70
    58
 90
        2
176
     1
 90
        2
176
     1
 90
        1
176
     1
 90
        1
176
     1
 40
0.5
176
     1
 40
30.0
176
     1
 62
     7
420
 16777215
176
     1
 90
        1
176
     1
 90
        0
176
     1
 62
     7
176
     1
 62
   257
176
     1
 90
        1
176
     1
 90
        1
176
     1
 40
1.0
176
     1
 90
        8
176
     1
 62
     7
176
     1
 40
1.0
176
     1
 90
        1
176
     1
 90
        6
176
     1
 90
        2
176
     1
 62
     7
176
     1
 90
        3
176
     1
 90
        0
176
     1
 90
        0
176
     1
290
     0
176
     1
 90
       13
176
     1
 40
0.0
176
     1
 90
        0
176
     1
290
     0
176
     1
290
     1
176
     1
290
     1
176
     1
290
     0
176
     1
290
     0
176
     1
290
     0
176
     1
290
     0
176
     1
290
     0
176
     1
290
     0
176
     1
 90
       50
176
     1
 40
0.0
176
     1
 40
1.0
176
     1
 90
        0
176
     1
 62
    18
420
        0
176
     1
 90
       50
176
     1
 90
        3
176
     1
 62
     5
420
      255
176
     1
290
     0
176
     1
 90
       50
176
     1
 90
       50
176
     1
 90
       50
176
     1
290
     0
176
     1
 90
       50
176
     1
 62
   256
176
     0
 40
1.0
176
     0
 90
        2
176
     1
  1
strokes_ogs.tif
176
     1
290
     0
176
     1
 40
1.0
176
     1
 40
1.0
176
     1
  0
DICTIONARYVAR
  5
650
102
{ACAD_REACTORS
330
64F
102
}
330
64F
100
DictionaryVariables
280
     0
  1
1:1
  0
DICTIONARYVAR
  5
654
102
{ACAD_REACTORS
330
64F
102
}
330
64F
100
DictionaryVariables
280
     0
  1
Standard
  0
CSACDOCUMENTOPTIONS
  5
645
102
{ACAD_REACTORS
330
644
102
}
330
644
  0
XRECORD
  5
649
102
{ACAD_REACTORS
330
640
102
}
330
640
100
AcDbXrecord
280
     1
300
MC_VERSION_DATA
 90
       95
310
0600000002000000570000001C000000E404000000000000000000007801936764E5D8CF7A8393818115C460606066E0646662626666706006F214793899F8DE3171E725E6E53B3BBA2878E6951050AF75FEFFFFFF520032DE0F3057000000
  0
XRECORD
  5
641
102
{ACAD_REACTORS
330
640
102
}
330
640
100
AcDbXrecord
280
     1
300
MCS_DOCUMENT_ID
 90
       60
310
0600000002000000150000001C000000E404000000000000000000007801E3CD70E76EDC5AD9E9BC368BD37061BBE287FF4000005C100AC915000000
  0
XRECORD
  5
647
102
{ACAD_REACTORS
330
640
102
}
330
640
100
AcDbXrecord
280
     1
300
MCS_PARAMS_DATA
 90
     3313
310
0600000002000000F64B00001C000000E404000000000000000000007801C55C5B905C45199EE99EBDCCE67E5DA218172C303B91307B4B8C459531245054850D55591F78B236BB49B9BAC9E6B22A082A9655BE5865596569A965F9209288CF16503EC8834088C10B092404211702988430422E9084CDAEFFD7A7FBF4DFA7CF
310
D9D99D9D39930798FF3F7DCEF7DFFAFBBBFBCC6CDBFC46297252EECB48F9CDF5ED5234493921A5206D76815820B252E4F3225F128D7D5F59BF69E3162948D9A2D485B3131313747328BF06593E960915079422437734AA3BDAA5CCD053F5ED4FD2557D257BAB94DF007A03479F859BB2B22193C9108EC1CDCADC0464C27506
310
28605703E48886E0B986E10F03BF91E33707F8E3140E7A9091C8268236920C1C662240B94888A1C8E07600AE99C32D5131CA8B3925D172EFE62D7D6D9DABBA8ADDD6F17CE16D13F0457AE8AC9268DE32DABF73B07FCFA013F9BF8491D7C17E2550D8E8FFCA8DFE4E98B3929B331718B291824FFF72EB941D9E8E2211D5A93C
310
784A44C557923911258BD0C8640531AEEC61A924855B11378280384364A422680C0A928DB9C10CD89D581114199665B722B26E4590C82B0222AB08FAA8A60626C028E0044F81BA246F5360E167F2D27C56A10E05C058C13C59DEC6207679103AFC5DEADF992F2B284F67B31C8EE359B64A9665A62453228F64269D98455E3B
310
A4B35817F7EC92C86FB8EFFE8DBD5BEEDBDCAB0CD3B5FC8E99065A7E55D536E39DE7826237F1C8BBBCB3CFADFC93302087C80397EE69C2FF69CA32234F0763E41851010DA578E8294D435524988818E84710A7B2643B4F7C034F6CE5C9368F203BE8094C6268541D70D35EE4B585DAE170F4942EB8D2D422560A9917F34B62
310
CE86919D9F1F6DDBB36DD770FFC0B6BC682E898607BEB5737424F8D83B323AF07529CFC0B69BB96D9FD3CFF9B410ED79B1A42416161FEA29AEEDEEEC5ADF532C76DEF3C5AEEEB5CAECF97A60330D2C1C3579EAD0DA7621F20269BD6768746FDBF0D0DE51F3B0EE356B3ABBD6F474F7740D76770EACED08FCFC92BEAF13F701
310
B5AF7FEBF0B6B691ED6D7D23C3DBF6F4EF840FDA9AD583C58E81E240FFEAADDD5BD70EAC0E669D2A25F27FB610851F9335859F059541B9E5971EC7A5A7E83F2CE53DB9A4040555A2661A4DDBF2C560B2E54E7D5483931EF871F7C88E5DFDA3435B878687461F6EDB313248FE3596847C70DBDEBC682809D13B22E56A5856E4
310
E9998738519B6E2A89DCE6EDDBDB542AF4E4380F8F61A4965F57116093E5A052A06AF588670205D9A715FB49B140D81A90855F902680EBB8B3A3187EEA96F2B224E392BAF898328CB1AD47DA34C1601A1B421AD816D190715CC3F276A5DE067C546F03AED6DB808FEB6DC0B57A1BB00853B49EB3E0937A47E07ABD0D188301
310
71CB797197D3603B1D06BFCB6DB024827C0C834324E60945463B3712E196397079076E990B47228783C8E09631B8F129C211385B3E540C97413DC70673C524DEAD70BD23917B079179B782793791AE77D944EFDCDC5529988B13E1069D6092C472A7F777A6F648E4C184C88239C8822913E16AE29D48176E29E0727C316496
310
EF2A967C95165E504B0C2B218EEE82DD5C63513CD614C5091F6D6FA7551865CC5C5030A1E0A3E84BEC86CFD04EC5DD01AA74CBDB05AB8C403295A124BB2908C4B032B4682A032283FB103E391B4E03172C7199C4E0F88E871E8855ADA1482D3238FA1846E0B807A77785BFF935FE1D74369F5647D0D171CA5F4F09337C2559
310
105132935A503D6DBC7A94B54D2B6DF1E0339960F436A97441791E5EC104D40283580888C4FDED577B1FD8B4B9AF6FE30605D8AAD7F1F34A62F6DD5BBEC62E92057A31FEA25A9DB3F5FBD3C1729D9CD723B0BF0DE8402BB05A67160DDE4416E59079C0D9EAA575B7321F67115FC018C76AB5B3A33D06B68CBD9BFBDC93C073
310
800CC384FD360C544F539B6F02B1820953BE9D01DE01C0D85A6C50369A5AC4065C7760793B965800321749E4B50891C0C2AB0CAE9808178444974C70F875952A9381563C01BE9D08EAFA481283ABD8C7EF7870DAABE068E68833DFAC8EA0A3E3F87C0B07AA507B2311F0889285BDC333294C4E2DB27C67BA70ABD2857B688A
310
70552AA7873DB8489E55063D5D2DCBE9BB9E49F1E554A5083C922EDCA3E9C27D2F5DB8EF7B705EE9D87E1E920E88313AAE6AECF4FBD668D3D30DB4E51ADA9BEDB0D7AFCEB4DDED85F7C4ECF6551B3BCE2AFF6E835E49458EC94883D6E73C45753FAE614C3C0A0362777435D915EC025C33F7578776011DE6F3D066954C59D6
310
D76F86AC9CD58A53F4122CF0552BAE070AEA3B5AF15752304F1F47569D50AB71F41A31FA5A51C904CD43C6B0F51D2ACEFC112ACC4CC1B0FF086CE7AD5A4D096A005126387AAD451EE384D9C035A925859E39C1AA865EE9A9B8DA21CEE289167F7CF1D4C4BC7A125EC5AED5D8BB0B5A9D9144D134CFA71BF85A8D44BE568348
310
F6AA55A2F3CAEA4F6982FD21118CC249D3CBF852A586F244BA70FBD285DB9F085793EDE56E143F0AD06C6B4CB2242BDD3DD1419166C2865E81F9CE1648F3CBD84597B22E28992A3DDCE24C77F3F311A01C8A722828EC3CF15F7D987933F818F8E59BC138E5CD4CE8AC24C94E68BA32F5C3CBAB808B6B06B9936E642F9F804C
310
903AF2F3709D37832318A078E4B37AEBDCFAA66859945B9EBB25776BAE2DD3995995E9CA1433DDFA4DAC7ECE6FE93696E96BB06712968ED2661884A9EE40230F60D0D73DE8C858453B9E8E4212D5A9B0784A762662599FEDD18C9299F4094C728A91F536658E91CDA6DFC8E89F363B15B4CB31404FD2581CF722BBF229B517
310
430944E56AB2E2A8E3461950730F2B7ECA7BC570E389706E8BA9D241C744225C40C29385944F707279EA277D998065D9EAD604B1263E66D38513E9C2490F4EE7CC6E8AA89C3D9DA588701CA708AB6414C194931EE3FC0D4515D71A4FBFE712F8CB4A26532A6E8DCF01CA61A3745BE3F3C09F6E6B442F0CD7BAD36A8D2F002E
310
AE359E3BE646F6B8926D6BBC0CD9926FBEF08C5220B9BAE91D0E14769FF44B52301E3C00E8FA74C117BD24F396E22C7F1005F2DA2902EB76053DE720B0D3EE397F2F036AE8B24A3DE750225C4DF8F8A544B81AF69C7F2482D6C4C77F067093EF36FE359541FF8E0E8A50399BA22F63681CEF0EBDEBB2C3834A9E09EF1E0654
310
1D79F708F0A7CBBB956F495E015C1CEFEE3EEC46B65FC996771F856C09285F58A7148C77872F6104D6DC9A8897D30896D457015D1FDE3DEA25B91CEFF2EBD6EB0A68F718A0D3A6DDD7CA805699768F27C2D584925E4F84AB9476A39B03E744D09CD6610FF59F44E89A78FA46BA70DDDE0ADC144A4DBCEBF1E0221D416DC23D
310
1D715254A766A8A7AC60C1FF26021ED7783E889CD89C52F24C1ACF0940D5B1F19C047E7A8DE714E0E21ACFD5436EE339AB64DB78E44B91C6730003ECCB897CE1D28548E3798246B0C6731AD0536D3CB3E90740046E0B5FD5161351555C247A084506FA9607AAEBD39C44F1E2B63A5BDCA18E17B755B2E2664A322602C34C3A
310
0393625B51C09BC60D77315EF1E1C8DB80730A9C37D5B8CD0EBF3EA3A6FB4EA2A7C18B1B2746D53A5F7BB70C687C78291FE10E3A386EE3054657F9CB297E9CF703B0E71DFC4DA3397B4068C3CF33A1A81F02C2C920DB8E7ABF712005813923946BAE06DE453454B45CC32AF6311810C751E3F85A979E7874424F9299B34AB2
310
210DC430A45A3473162283FB2F3218C7FE178FBB1CF59692CDAD957C0DECAC3739580882F7E26636C4FC0874E66F42CE013F2EB274A4C323CBB88082C5B980AE4CFD4DC879C0C5B1FFF5E7DDC89E57324556799F2F34BC006EC70CD18A8318C0D9FF0AB6807CDBB19F46B0A4BE07E8B4D9FF8207EA504E3D7E65FA3E4C7226
310
B329B0E8D703AAFEBAA304E869379E693123CD68457958A4FF2F11AE86ECFF4119D078F6E7138AD87FF2370F86D6E1E38789702D76FED2134932CCA824CB8C811832A3160D33426421BD980847AF6F0C11D33DEECB1CFE9B7175D1F926045DE5BD8DBFBDBE94081764D0049324E6DDB40A8607F372225C4D16463974B5B836
310
F393232E193EA2E499B49986C93A780A6DA631A981D7A6CD34012EAECDFCFC5937B23F52B26D33BF83CCDBCC56A5C0ECD07DE7A7A7226D661D8D6033A419D0536D33E07F56B8C4CA7C0D48229F9610695A461A0883CE7B494E8DD95B004DF38E8247AB09FE45AC1A52EDAC32A0861DD8DA85D8A76276989D08579353913989
310
700119397510D9BB4CAB9DF096393711B4263ECE4B176E7EBA700B3C389DB3F0B5335AA6A7234288EA142D784A9083AFB414616018456CF24C3293C4CD2F49D3E5A5F0410CEE7E0F2E6A6FEA11580893E29AEE529C2FC11C4DF48D4AA628982DB44A422820F8563073C8F989CF2240392BED74F7768B819FDEDE6E09E0E29A
310
EE72FA030B3CB273954C91D5916E87CC9BEEFB4FAB1E6B73B10CFB6CBEB73B4423589D2D05F4CC9AAE2E4C768646F0614DBB4BD40606DDEA2539B5A67B13A0D36EBACBCA809A9055A7E9E24B8E0D79912B896C91FE0C1655C17843E129FA335B3277F4E8510807513CB9CC44868E210AF7FE19028691B0917E39482B125CF8
310
D4FF01F0B312DAF64B0000
  0
TABLECONTENT
  5
64B
330
64E
100
AcDbLinkedData
  1

300

100
AcDbLinkedTableData
 90
        5
300
COLUMN
  1
LINKEDTABLEDATACOLUMN_BEGIN
300

 91
        0
301
CUSTOMDATA
  1
DATAMAP_BEGIN
 90
        0
309
DATAMAP_END
309
LINKEDTABLEDATACOLUMN_END
  1
FORMATTEDTABLEDATACOLUMN_BEGIN
300
COLUMNTABLEFORMAT
  1
TABLEFORMAT_BEGIN
 90
        3
170
     0
309
TABLEFORMAT_END
309
FORMATTEDTABLEDATACOLUMN_END
  1
TABLECOLUMN_BEGIN
 90
        0
 40
10.0
309
TABLECOLUMN_END
300
COLUMN
  1
LINKEDTABLEDATACOLUMN_BEGIN
300

 91
        0
301
CUSTOMDATA
  1
DATAMAP_BEGIN
 90
        0
309
DATAMAP_END
309
LINKEDTABLEDATACOLUMN_END
  1
FORMATTEDTABLEDATACOLUMN_BEGIN
300
COLUMNTABLEFORMAT
  1
TABLEFORMAT_BEGIN
 90
        3
170
     0
309
TABLEFORMAT_END
309
FORMATTEDTABLEDATACOLUMN_END
  1
TABLECOLUMN_BEGIN
 90
        0
 40
10.0
309
TABLECOLUMN_END
300
COLUMN
  1
LINKEDTABLEDATACOLUMN_BEGIN
300

 91
        0
301
CUSTOMDATA
  1
DATAMAP_BEGIN
 90
        0
309
DATAMAP_END
309
LINKEDTABLEDATACOLUMN_END
  1
FORMATTEDTABLEDATACOLUMN_BEGIN
300
COLUMNTABLEFORMAT
  1
TABLEFORMAT_BEGIN
 90
        3
170
     0
309
TABLEFORMAT_END
309
FORMATTEDTABLEDATACOLUMN_END
  1
TABLECOLUMN_BEGIN
 90
        0
 40
10.0
309
TABLECOLUMN_END
300
COLUMN
  1
LINKEDTABLEDATACOLUMN_BEGIN
300

 91
        0
301
CUSTOMDATA
  1
DATAMAP_BEGIN
 90
        0
309
DATAMAP_END
309
LINKEDTABLEDATACOLUMN_END
  1
FORMATTEDTABLEDATACOLUMN_BEGIN
300
COLUMNTABLEFORMAT
  1
TABLEFORMAT_BEGIN
 90
        3
170
     0
309
TABLEFORMAT_END
309
FORMATTEDTABLEDATACOLUMN_END
  1
TABLECOLUMN_BEGIN
 90
        0
 40
40.0
309
TABLECOLUMN_END
300
COLUMN
  1
LINKEDTABLEDATACOLUMN_BEGIN
300

 91
        0
301
CUSTOMDATA
  1
DATAMAP_BEGIN
 90
        0
309
DATAMAP_END
309
LINKEDTABLEDATACOLUMN_END
  1
FORMATTEDTABLEDATACOLUMN_BEGIN
300
COLUMNTABLEFORMAT
  1
TABLEFORMAT_BEGIN
 90
        3
170
     0
309
TABLEFORMAT_END
309
FORMATTEDTABLEDATACOLUMN_END
  1
TABLECOLUMN_BEGIN
 90
        0
 40
20.0
309
TABLECOLUMN_END
 91
        5
301
ROW
  1
LINKEDTABLEDATAROW_BEGIN
 90
        5
300
CELL
  1
LINKEDTABLEDATACELL_BEGIN
 90
        0
300

 91
        0
301
CUSTOMDATA
  1
DATAMAP_BEGIN
 90
        1
300
ACAD_ROUNDTRIP_2008_CELL_CHECKSUM
301
DATAMAP_VALUE
 93
        2
 90
        2
140
32.0
 94
        0
300

302

304
ACVALUE_END
309
DATAMAP_END
 92
        0
 95
        1
302
CONTENT
  1
CELLCONTENT_BEGIN
 90
        1
300
VALUE
 93
        2
 90
        4
  1
 
 94
        0
300

302
 
304
ACVALUE_END
 91
        0
309
CELLCONTENT_END
  1
FORMATTEDCELLCONTENT_BEGIN
170
     1
300
CONTENTFORMAT
  1
CONTENTFORMAT_BEGIN
 90
      132
 91
        0
 92
      512
 93
        0
300

 40
0.0
140
1.0
 94
        1
 62
     0
340
0
144
3.5
309
CONTENTFORMAT_END
309
FORMATTEDCELLCONTENT_END
309
LINKEDTABLEDATACELL_END
  1
FORMATTEDTABLEDATACELL_BEGIN
300
CELLTABLEFORMAT
  1
TABLEFORMAT_BEGIN
 90
        1
170
     1
 91
        0
 92
        0
 62
   257
 93
        1
300
CONTENTFORMAT
  1
CONTENTFORMAT_BEGIN
 90
        0
 91
        0
 92
      512
 93
        0
300

 40
0.0
140
1.0
 94
        1
 62
     0
340
0
144
0.18
309
CONTENTFORMAT_END
171
     0
 94
        0
309
TABLEFORMAT_END
309
FORMATTEDTABLEDATACELL_END
  1
TABLECELL_BEGIN
 90
        0
 91
        0
309
TABLECELL_END
300
CELL
  1
LINKEDTABLEDATACELL_BEGIN
 90
        0
300

 91
        0
301
CUSTOMDATA
  1
DATAMAP_BEGIN
 90
        0
309
DATAMAP_END
 92
        0
 95
        0
309
LINKEDTABLEDATACELL_END
  1
FORMATTEDTABLEDATACELL_BEGIN
300
CELLTABLEFORMAT
  1
TABLEFORMAT_BEGIN
 90
        1
170
     1
 91
        0
 92
        0
 62
   257
 93
        1
300
CONTENTFORMAT
  1
CONTENTFORMAT_BEGIN
 90
        0
 91
        0
 92
      512
 93
        0
300

 40
0.0
140
1.0
 94
        1
 62
     0
340
0
144
0.18
309
CONTENTFORMAT_END
171
     0
 94
        0
309
TABLEFORMAT_END
309
FORMATTEDTABLEDATACELL_END
  1
TABLECELL_BEGIN
 90
        0
 91
        0
309
TABLECELL_END
300
CELL
  1
LINKEDTABLEDATACELL_BEGIN
 90
        0
300

 91
        0
301
CUSTOMDATA
  1
DATAMAP_BEGIN
 90
        0
309
DATAMAP_END
 92
        0
 95
        0
309
LINKEDTABLEDATACELL_END
  1
FORMATTEDTABLEDATACELL_BEGIN
300
CELLTABLEFORMAT
  1
TABLEFORMAT_BEGIN
 90
        1
170
     1
 91
        0
 92
        0
 62
   257
 93
        1
300
CONTENTFORMAT
  1
CONTENTFORMAT_BEGIN
 90
        0
 91
        0
 92
      512
 93
        0
300

 40
0.0
140
1.0
 94
        1
 62
     0
340
0
144
0.18
309
CONTENTFORMAT_END
171
     0
 94
        0
309
TABLEFORMAT_END
309
FORMATTEDTABLEDATACELL_END
  1
TABLECELL_BEGIN
 90
        0
 91
        0
309
TABLECELL_END
300
CELL
  1
LINKEDTABLEDATACELL_BEGIN
 90
        0
300

 91
        0
301
CUSTOMDATA
  1
DATAMAP_BEGIN
 90
        1
300
ACAD_ROUNDTRIP_2008_CELL_CHECKSUM
301
DATAMAP_VALUE
 93
        2
 90
        2
140
2809.0
 94
        0
300

302

304
ACVALUE_END
309
DATAMAP_END
 92
        0
 95
        1
302
CONTENT
  1
CELLCONTENT_BEGIN
 90
        1
300
VALUE
 93
        2
 90
        4
  1
6E3_C_003
 94
        0
300

302
6E3_C_003
304
ACVALUE_END
 91
        0
309
CELLCONTENT_END
  1
FORMATTEDCELLCONTENT_BEGIN
170
     1
300
CONTENTFORMAT
  1
CONTENTFORMAT_BEGIN
 90
      196
 91
        0
 92
      512
 93
        0
300

 40
0.0
140
1.0
 94
        1
 62
     0
340
20E
144
3.0
309
CONTENTFORMAT_END
309
FORMATTEDCELLCONTENT_END
309
LINKEDTABLEDATACELL_END
  1
FORMATTEDTABLEDATACELL_BEGIN
300
CELLTABLEFORMAT
  1
TABLEFORMAT_BEGIN
 90
        1
170
     1
 91
       16
 92
        0
 62
   257
 93
        1
300
CONTENTFORMAT
  1
CONTENTFORMAT_BEGIN
 90
       16
 91
        0
 92
      512
 93
        0
300

 40
0.0
140
1.0
 94
        4
 62
     0
340
0
144
0.18
309
CONTENTFORMAT_END
171
     0
 94
        4
 95
        1
302
GRIDFORMAT
  1
GRIDFORMAT_BEGIN
 90
       26
 91
        1
 62
     0
 92
       -2
340
0
 93
        0
 40
0.045
309
GRIDFORMAT_END
 95
        4
302
GRIDFORMAT
  1
GRIDFORMAT_BEGIN
 90
       26
 91
        1
 62
     0
 92
       -2
340
0
 93
        0
 40
0.045
309
GRIDFORMAT_END
 95
        8
302
GRIDFORMAT
  1
GRIDFORMAT_BEGIN
 90
       26
 91
        1
 62
     0
 92
       -2
340
0
 93
        0
 40
0.045
309
GRIDFORMAT_END
 95
       32
302
GRIDFORMAT
  1
GRIDFORMAT_BEGIN
 90
       26
 91
        1
 62
     0
 92
       -2
340
0
 93
        0
 40
0.045
309
GRIDFORMAT_END
309
TABLEFORMAT_END
309
FORMATTEDTABLEDATACELL_END
  1
TABLECELL_BEGIN
 90
        0
 91
        0
309
TABLECELL_END
300
CELL
  1
LINKEDTABLEDATACELL_BEGIN
 90
        0
300

 91
        0
301
CUSTOMDATA
  1
DATAMAP_BEGIN
 90
        1
300
ACAD_ROUNDTRIP_2008_CELL_CHECKSUM
301
DATAMAP_VALUE
 93
        2
 90
        2
140
1910.0
 94
        0
300

302

304
ACVALUE_END
309
DATAMAP_END
 92
        0
 95
        1
302
CONTENT
  1
CELLCONTENT_BEGIN
 90
        1
300
VALUE
 93
        2
 90
        4
  1
Rev: 00 
 94
        0
300

302
Rev: 00 
304
ACVALUE_END
 91
        0
309
CELLCONTENT_END
  1
FORMATTEDCELLCONTENT_BEGIN
170
     1
300
CONTENTFORMAT
  1
CONTENTFORMAT_BEGIN
 90
      196
 91
        0
 92
      512
 93
        0
300

 40
0.0
140
1.0
 94
        1
 62
     0
340
20E
144
3.5
309
CONTENTFORMAT_END
309
FORMATTEDCELLCONTENT_END
309
LINKEDTABLEDATACELL_END
  1
FORMATTEDTABLEDATACELL_BEGIN
300
CELLTABLEFORMAT
  1
TABLEFORMAT_BEGIN
 90
        1
170
     1
 91
       16
 92
        0
 62
   257
 93
        1
300
CONTENTFORMAT
  1
CONTENTFORMAT_BEGIN
 90
       16
 91
        0
 92
      512
 93
        0
300

 40
0.0
140
1.0
 94
        1
 62
     0
340
0
144
0.18
309
CONTENTFORMAT_END
171
     0
 94
        4
 95
        1
302
GRIDFORMAT
  1
GRIDFORMAT_BEGIN
 90
       26
 91
        1
 62
     0
 92
       -2
340
0
 93
        0
 40
0.045
309
GRIDFORMAT_END
 95
        4
302
GRIDFORMAT
  1
GRIDFORMAT_BEGIN
 90
       26
 91
        1
 62
     0
 92
       -2
340
0
 93
        0
 40
0.045
309
GRIDFORMAT_END
 95
        8
302
GRIDFORMAT
  1
GRIDFORMAT_BEGIN
 90
       26
 91
        1
 62
     0
 92
       -2
340
0
 93
        0
 40
0.045
309
GRIDFORMAT_END
 95
       32
302
GRIDFORMAT
  1
GRIDFORMAT_BEGIN
 90
       26
 91
        1
 62
     0
 92
       -2
340
0
 93
        0
 40
0.045
309
GRIDFORMAT_END
309
TABLEFORMAT_END
309
FORMATTEDTABLEDATACELL_END
  1
TABLECELL_BEGIN
 90
        0
 91
        0
309
TABLECELL_END
 91
        0
301
CUSTOMDATA
  1
DATAMAP_BEGIN
 90
        0
309
DATAMAP_END
309
LINKEDTABLEDATAROW_END
  1
FORMATTEDTABLEDATAROW_BEGIN
300
ROWTABLEFORMAT
  1
TABLEFORMAT_BEGIN
 90
        2
170
     0
309
TABLEFORMAT_END
309
FORMATTEDTABLEDATAROW_END
  1
TABLEROW_BEGIN
 90
        1
 40
6.0
309
TABLEROW_END
301
ROW
  1
LINKEDTABLEDATAROW_BEGIN
 90
        5
300
CELL
  1
LINKEDTABLEDATACELL_BEGIN
 90
        0
300

 91
        0
301
CUSTOMDATA
  1
DATAMAP_BEGIN
 90
        0
309
DATAMAP_END
 92
        0
 95
        0
309
LINKEDTABLEDATACELL_END
  1
FORMATTEDTABLEDATACELL_BEGIN
300
CELLTABLEFORMAT
  1
TABLEFORMAT_BEGIN
 90
        1
170
     1
 91
        0
 92
        0
 62
   257
 93
        1
300
CONTENTFORMAT
  1
CONTENTFORMAT_BEGIN
 90
        0
 91
        0
 92
      512
 93
        0
300

 40
0.0
140
1.0
 94
        1
 62
     0
340
0
144
0.18
309
CONTENTFORMAT_END
171
     0
 94
        0
309
TABLEFORMAT_END
309
FORMATTEDTABLEDATACELL_END
  1
TABLECELL_BEGIN
 90
        0
 91
        0
309
TABLECELL_END
300
CELL
  1
LINKEDTABLEDATACELL_BEGIN
 90
        0
300

 91
        0
301
CUSTOMDATA
  1
DATAMAP_BEGIN
 90
        0
309
DATAMAP_END
 92
        0
 95
        0
309
LINKEDTABLEDATACELL_END
  1
FORMATTEDTABLEDATACELL_BEGIN
300
CELLTABLEFORMAT
  1
TABLEFORMAT_BEGIN
 90
        1
170
     1
 91
        0
 92
        0
 62
   257
 93
        1
300
CONTENTFORMAT
  1
CONTENTFORMAT_BEGIN
 90
        0
 91
        0
 92
      512
 93
        0
300

 40
0.0
140
1.0
 94
        1
 62
     0
340
0
144
0.18
309
CONTENTFORMAT_END
171
     0
 94
        0
309
TABLEFORMAT_END
309
FORMATTEDTABLEDATACELL_END
  1
TABLECELL_BEGIN
 90
        0
 91
        0
309
TABLECELL_END
300
CELL
  1
LINKEDTABLEDATACELL_BEGIN
 90
        0
300

 91
        0
301
CUSTOMDATA
  1
DATAMAP_BEGIN
 90
        0
309
DATAMAP_END
 92
        0
 95
        0
309
LINKEDTABLEDATACELL_END
  1
FORMATTEDTABLEDATACELL_BEGIN
300
CELLTABLEFORMAT
  1
TABLEFORMAT_BEGIN
 90
        1
170
     1
 91
        0
 92
        0
 62
   257
 93
        1
300
CONTENTFORMAT
  1
CONTENTFORMAT_BEGIN
 90
        0
 91
        0
 92
      512
 93
        0
300

 40
0.0
140
1.0
 94
        1
 62
     0
340
0
144
0.18
309
CONTENTFORMAT_END
171
     0
 94
        0
309
TABLEFORMAT_END
309
FORMATTEDTABLEDATACELL_END
  1
TABLECELL_BEGIN
 90
        0
 91
        0
309
TABLECELL_END
300
CELL
  1
LINKEDTABLEDATACELL_BEGIN
 90
        0
300

 91
        0
301
CUSTOMDATA
  1
DATAMAP_BEGIN
 90
        1
300
ACAD_ROUNDTRIP_2008_CELL_CHECKSUM
301
DATAMAP_VALUE
 93
        2
 90
        2
140
3105.0
 94
        0
300

302

304
ACVALUE_END
309
DATAMAP_END
 92
        0
 95
        1
302
CONTENT
  1
CELLCONTENT_BEGIN
 90
        1
300
VALUE
 93
        2
 90
        4
  1
Scale:1:1
 94
        0
300

302
Scale:1:1
304
ACVALUE_END
 91
        0
309
CELLCONTENT_END
  1
FORMATTEDCELLCONTENT_BEGIN
170
     1
300
CONTENTFORMAT
  1
CONTENTFORMAT_BEGIN
 90
      196
 91
        0
 92
      512
 93
        0
300

 40
0.0
140
1.0
 94
        1
 62
     0
340
20E
144
3.5
309
CONTENTFORMAT_END
309
FORMATTEDCELLCONTENT_END
309
LINKEDTABLEDATACELL_END
  1
FORMATTEDTABLEDATACELL_BEGIN
300
CELLTABLEFORMAT
  1
TABLEFORMAT_BEGIN
 90
        1
170
     1
 91
       16
 92
        0
 62
   257
 93
        1
300
CONTENTFORMAT
  1
CONTENTFORMAT_BEGIN
 90
       16
 91
        0
 92
      512
 93
        0
300

 40
0.0
140
1.0
 94
        1
 62
     0
340
0
144
0.18
309
CONTENTFORMAT_END
171
     0
 94
        4
 95
        1
302
GRIDFORMAT
  1
GRIDFORMAT_BEGIN
 90
       26
 91
        1
 62
     0
 92
       -2
340
0
 93
        0
 40
0.045
309
GRIDFORMAT_END
 95
        4
302
GRIDFORMAT
  1
GRIDFORMAT_BEGIN
 90
       26
 91
        1
 62
     0
 92
       -2
340
0
 93
        0
 40
0.045
309
GRIDFORMAT_END
 95
        8
302
GRIDFORMAT
  1
GRIDFORMAT_BEGIN
 90
       26
 91
        1
 62
     0
 92
       -2
340
0
 93
        0
 40
0.045
309
GRIDFORMAT_END
 95
       32
302
GRIDFORMAT
  1
GRIDFORMAT_BEGIN
 90
       26
 91
        1
 62
     0
 92
       -2
340
0
 93
        0
 40
0.045
309
GRIDFORMAT_END
309
TABLEFORMAT_END
309
FORMATTEDTABLEDATACELL_END
  1
TABLECELL_BEGIN
 90
        0
 91
        0
309
TABLECELL_END
300
CELL
  1
LINKEDTABLEDATACELL_BEGIN
 90
        0
300

 91
        0
301
CUSTOMDATA
  1
DATAMAP_BEGIN
 90
        1
300
ACAD_ROUNDTRIP_2008_CELL_CHECKSUM
301
DATAMAP_VALUE
 93
        2
 90
        2
140
161.0
 94
        0
300

302

304
ACVALUE_END
309
DATAMAP_END
 92
        0
 95
        1
302
CONTENT
  1
CELLCONTENT_BEGIN
 90
        1
300
VALUE
 93
        2
 90
        4
  1
A0
 94
        0
300

302
A0
304
ACVALUE_END
 91
        0
309
CELLCONTENT_END
  1
FORMATTEDCELLCONTENT_BEGIN
170
     1
300
CONTENTFORMAT
  1
CONTENTFORMAT_BEGIN
 90
      196
 91
        0
 92
      512
 93
        0
300

 40
0.0
140
1.0
 94
        1
 62
     0
340
20E
144
3.5
309
CONTENTFORMAT_END
309
FORMATTEDCELLCONTENT_END
309
LINKEDTABLEDATACELL_END
  1
FORMATTEDTABLEDATACELL_BEGIN
300
CELLTABLEFORMAT
  1
TABLEFORMAT_BEGIN
 90
        1
170
     1
 91
       16
 92
        0
 62
   257
 93
        1
300
CONTENTFORMAT
  1
CONTENTFORMAT_BEGIN
 90
       16
 91
        0
 92
      512
 93
        0
300

 40
0.0
140
1.0
 94
        4
 62
     0
340
0
144
0.18
309
CONTENTFORMAT_END
171
     0
 94
        4
 95
        1
302
GRIDFORMAT
  1
GRIDFORMAT_BEGIN
 90
       26
 91
        1
 62
     0
 92
       -2
340
0
 93
        0
 40
0.045
309
GRIDFORMAT_END
 95
        4
302
GRIDFORMAT
  1
GRIDFORMAT_BEGIN
 90
       26
 91
        1
 62
     0
 92
       -2
340
0
 93
        0
 40
0.045
309
GRIDFORMAT_END
 95
        8
302
GRIDFORMAT
  1
GRIDFORMAT_BEGIN
 90
       26
 91
        1
 62
     0
 92
       -2
340
0
 93
        0
 40
0.045
309
GRIDFORMAT_END
 95
       32
302
GRIDFORMAT
  1
GRIDFORMAT_BEGIN
 90
       26
 91
        1
 62
     0
 92
       -2
340
0
 93
        0
 40
0.045
309
GRIDFORMAT_END
309
TABLEFORMAT_END
309
FORMATTEDTABLEDATACELL_END
  1
TABLECELL_BEGIN
 90
        0
 91
        0
309
TABLECELL_END
 91
        0
301
CUSTOMDATA
  1
DATAMAP_BEGIN
 90
        0
309
DATAMAP_END
309
LINKEDTABLEDATAROW_END
  1
FORMATTEDTABLEDATAROW_BEGIN
300
ROWTABLEFORMAT
  1
TABLEFORMAT_BEGIN
 90
        2
170
     0
309
TABLEFORMAT_END
309
FORMATTEDTABLEDATAROW_END
  1
TABLEROW_BEGIN
 90
        2
 40
6.0
309
TABLEROW_END
301
ROW
  1
LINKEDTABLEDATAROW_BEGIN
 90
        5
300
CELL
  1
LINKEDTABLEDATACELL_BEGIN
 90
        0
300

 91
        0
301
CUSTOMDATA
  1
DATAMAP_BEGIN
 90
        0
309
DATAMAP_END
 92
        0
 95
        0
309
LINKEDTABLEDATACELL_END
  1
FORMATTEDTABLEDATACELL_BEGIN
300
CELLTABLEFORMAT
  1
TABLEFORMAT_BEGIN
 90
        1
170
     1
 91
        0
 92
        0
 62
   257
 93
        1
300
CONTENTFORMAT
  1
CONTENTFORMAT_BEGIN
 90
        0
 91
        0
 92
      512
 93
        0
300

 40
0.0
140
1.0
 94
        1
 62
     0
340
0
144
0.18
309
CONTENTFORMAT_END
171
     0
 94
        0
309
TABLEFORMAT_END
309
FORMATTEDTABLEDATACELL_END
  1
TABLECELL_BEGIN
 90
        0
 91
        0
309
TABLECELL_END
300
CELL
  1
LINKEDTABLEDATACELL_BEGIN
 90
        0
300

 91
        0
301
CUSTOMDATA
  1
DATAMAP_BEGIN
 90
        0
309
DATAMAP_END
 92
        0
 95
        0
309
LINKEDTABLEDATACELL_END
  1
FORMATTEDTABLEDATACELL_BEGIN
300
CELLTABLEFORMAT
  1
TABLEFORMAT_BEGIN
 90
        1
170
     1
 91
        0
 92
        0
 62
   257
 93
        1
300
CONTENTFORMAT
  1
CONTENTFORMAT_BEGIN
 90
        0
 91
        0
 92
      512
 93
        0
300

 40
0.0
140
1.0
 94
        1
 62
     0
340
0
144
0.18
309
CONTENTFORMAT_END
171
     0
 94
        0
309
TABLEFORMAT_END
309
FORMATTEDTABLEDATACELL_END
  1
TABLECELL_BEGIN
 90
        0
 91
        0
309
TABLECELL_END
300
CELL
  1
LINKEDTABLEDATACELL_BEGIN
 90
        0
300

 91
        0
301
CUSTOMDATA
  1
DATAMAP_BEGIN
 90
        0
309
DATAMAP_END
 92
        0
 95
        0
309
LINKEDTABLEDATACELL_END
  1
FORMATTEDTABLEDATACELL_BEGIN
300
CELLTABLEFORMAT
  1
TABLEFORMAT_BEGIN
 90
        1
170
     1
 91
        0
 92
        0
 62
   257
 93
        1
300
CONTENTFORMAT
  1
CONTENTFORMAT_BEGIN
 90
        0
 91
        0
 92
      512
 93
        0
300

 40
0.0
140
1.0
 94
        1
 62
     0
340
0
144
0.18
309
CONTENTFORMAT_END
171
     0
 94
        0
309
TABLEFORMAT_END
309
FORMATTEDTABLEDATACELL_END
  1
TABLECELL_BEGIN
 90
        0
 91
        0
309
TABLECELL_END
300
CELL
  1
LINKEDTABLEDATACELL_BEGIN
 90
        0
300

 91
        0
301
CUSTOMDATA
  1
DATAMAP_BEGIN
 90
        1
300
ACAD_ROUNDTRIP_2008_CELL_CHECKSUM
301
DATAMAP_VALUE
 93
        2
 90
        2
140
31846.0
 94
        0
300

302

304
ACVALUE_END
309
DATAMAP_END
 92
        0
 95
        1
302
CONTENT
  1
CELLCONTENT_BEGIN
 90
        1
300
VALUE
 93
        2
 90
        4
  1
CASSAFORMA MURATURA BITPOP 8.1 
 94
        0
300

302
CASSAFORMA MURATURA BITPOP 8.1 
304
ACVALUE_END
 91
        0
309
CELLCONTENT_END
  1
FORMATTEDCELLCONTENT_BEGIN
170
     1
300
CONTENTFORMAT
  1
CONTENTFORMAT_BEGIN
 90
      196
 91
        0
 92
      512
 93
        0
300

 40
0.0
140
1.0
 94
        1
 62
     0
340
20E
144
2.3
309
CONTENTFORMAT_END
309
FORMATTEDCELLCONTENT_END
309
LINKEDTABLEDATACELL_END
  1
FORMATTEDTABLEDATACELL_BEGIN
300
CELLTABLEFORMAT
  1
TABLEFORMAT_BEGIN
 90
        1
170
     1
 91
       16
 92
        0
 62
   257
 93
        1
300
CONTENTFORMAT
  1
CONTENTFORMAT_BEGIN
 90
       16
 91
        0
 92
      512
 93
        0
300

 40
0.0
140
1.0
 94
        4
 62
     0
340
0
144
0.18
309
CONTENTFORMAT_END
171
     0
 94
        4
 95
        1
302
GRIDFORMAT
  1
GRIDFORMAT_BEGIN
 90
       26
 91
        1
 62
     0
 92
       -2
340
0
 93
        0
 40
0.045
309
GRIDFORMAT_END
 95
        4
302
GRIDFORMAT
  1
GRIDFORMAT_BEGIN
 90
       26
 91
        1
 62
     0
 92
       -2
340
0
 93
        0
 40
0.045
309
GRIDFORMAT_END
 95
        8
302
GRIDFORMAT
  1
GRIDFORMAT_BEGIN
 90
       26
 91
        1
 62
     0
 92
       -2
340
0
 93
        0
 40
0.045
309
GRIDFORMAT_END
 95
       32
302
GRIDFORMAT
  1
GRIDFORMAT_BEGIN
 90
       26
 91
        1
 62
     0
 92
       -2
340
0
 93
        0
 40
0.045
309
GRIDFORMAT_END
309
TABLEFORMAT_END
309
FORMATTEDTABLEDATACELL_END
  1
TABLECELL_BEGIN
 90
        0
 91
        0
309
TABLECELL_END
300
CELL
  1
LINKEDTABLEDATACELL_BEGIN
 90
        0
300

 91
        0
301
CUSTOMDATA
  1
DATAMAP_BEGIN
 90
        0
309
DATAMAP_END
 92
        0
 95
        0
309
LINKEDTABLEDATACELL_END
  1
FORMATTEDTABLEDATACELL_BEGIN
300
CELLTABLEFORMAT
  1
TABLEFORMAT_BEGIN
 90
        1
170
     1
 91
        0
 92
        0
 62
   257
 93
        1
300
CONTENTFORMAT
  1
CONTENTFORMAT_BEGIN
 90
        0
 91
        0
 92
      512
 93
        0
300

 40
0.0
140
1.0
 94
        1
 62
     0
340
0
144
0.18
309
CONTENTFORMAT_END
171
     0
 94
        0
309
TABLEFORMAT_END
309
FORMATTEDTABLEDATACELL_END
  1
TABLECELL_BEGIN
 90
        0
 91
        0
309
TABLECELL_END
 91
        0
301
CUSTOMDATA
  1
DATAMAP_BEGIN
 90
        0
309
DATAMAP_END
309
LINKEDTABLEDATAROW_END
  1
FORMATTEDTABLEDATAROW_BEGIN
300
ROWTABLEFORMAT
  1
TABLEFORMAT_BEGIN
 90
        2
170
     0
309
TABLEFORMAT_END
309
FORMATTEDTABLEDATAROW_END
  1
TABLEROW_BEGIN
 90
        3
 40
10.0
309
TABLEROW_END
301
ROW
  1
LINKEDTABLEDATAROW_BEGIN
 90
        5
300
CELL
  1
LINKEDTABLEDATACELL_BEGIN
 90
        0
300

 91
        0
301
CUSTOMDATA
  1
DATAMAP_BEGIN
 90
        0
309
DATAMAP_END
 92
        0
 95
        0
309
LINKEDTABLEDATACELL_END
  1
FORMATTEDTABLEDATACELL_BEGIN
300
CELLTABLEFORMAT
  1
TABLEFORMAT_BEGIN
 90
        1
170
     1
 91
        0
 92
        0
 62
   257
 93
        1
300
CONTENTFORMAT
  1
CONTENTFORMAT_BEGIN
 90
        0
 91
        0
 92
      512
 93
        0
300

 40
0.0
140
1.0
 94
        1
 62
     0
340
0
144
0.18
309
CONTENTFORMAT_END
171
     0
 94
        0
309
TABLEFORMAT_END
309
FORMATTEDTABLEDATACELL_END
  1
TABLECELL_BEGIN
 90
        0
 91
        0
309
TABLECELL_END
300
CELL
  1
LINKEDTABLEDATACELL_BEGIN
 90
        0
300

 91
        0
301
CUSTOMDATA
  1
DATAMAP_BEGIN
 90
        0
309
DATAMAP_END
 92
        0
 95
        0
309
LINKEDTABLEDATACELL_END
  1
FORMATTEDTABLEDATACELL_BEGIN
300
CELLTABLEFORMAT
  1
TABLEFORMAT_BEGIN
 90
        1
170
     1
 91
        0
 92
        0
 62
   257
 93
        1
300
CONTENTFORMAT
  1
CONTENTFORMAT_BEGIN
 90
        0
 91
        0
 92
      512
 93
        0
300

 40
0.0
140
1.0
 94
        1
 62
     0
340
0
144
0.18
309
CONTENTFORMAT_END
171
     0
 94
        0
309
TABLEFORMAT_END
309
FORMATTEDTABLEDATACELL_END
  1
TABLECELL_BEGIN
 90
        0
 91
        0
309
TABLECELL_END
300
CELL
  1
LINKEDTABLEDATACELL_BEGIN
 90
        0
300

 91
        0
301
CUSTOMDATA
  1
DATAMAP_BEGIN
 90
        0
309
DATAMAP_END
 92
        0
 95
        0
309
LINKEDTABLEDATACELL_END
  1
FORMATTEDTABLEDATACELL_BEGIN
300
CELLTABLEFORMAT
  1
TABLEFORMAT_BEGIN
 90
        1
170
     1
 91
        0
 92
        0
 62
   257
 93
        1
300
CONTENTFORMAT
  1
CONTENTFORMAT_BEGIN
 90
        0
 91
        0
 92
      512
 93
        0
300

 40
0.0
140
1.0
 94
        1
 62
     0
340
0
144
0.18
309
CONTENTFORMAT_END
171
     0
 94
        0
309
TABLEFORMAT_END
309
FORMATTEDTABLEDATACELL_END
  1
TABLECELL_BEGIN
 90
        0
 91
        0
309
TABLECELL_END
300
CELL
  1
LINKEDTABLEDATACELL_BEGIN
 90
        0
300

 91
        0
301
CUSTOMDATA
  1
DATAMAP_BEGIN
 90
        1
300
ACAD_ROUNDTRIP_2008_CELL_CHECKSUM
301
DATAMAP_VALUE
 93
        2
 90
        2
140
7001.0
 94
        0
300

302

304
ACVALUE_END
309
DATAMAP_END
 92
        0
 95
        1
302
CONTENT
  1
CELLCONTENT_BEGIN
 90
        1
300
VALUE
 93
        2
 90
        4
  1
DATE: 06/07/2018
 94
        0
300

302
DATE: 06/07/2018
304
ACVALUE_END
 91
        0
309
CELLCONTENT_END
  1
FORMATTEDCELLCONTENT_BEGIN
170
     1
300
CONTENTFORMAT
  1
CONTENTFORMAT_BEGIN
 90
      196
 91
        0
 92
      512
 93
        0
300

 40
0.0
140
1.0
 94
        1
 62
     0
340
20E
144
2.5
309
CONTENTFORMAT_END
309
FORMATTEDCELLCONTENT_END
309
LINKEDTABLEDATACELL_END
  1
FORMATTEDTABLEDATACELL_BEGIN
300
CELLTABLEFORMAT
  1
TABLEFORMAT_BEGIN
 90
        1
170
     1
 91
       16
 92
        0
 62
   257
 93
        1
300
CONTENTFORMAT
  1
CONTENTFORMAT_BEGIN
 90
       16
 91
        0
 92
      512
 93
        0
300

 40
0.0
140
1.0
 94
        4
 62
     0
340
0
144
0.18
309
CONTENTFORMAT_END
171
     0
 94
        4
 95
        1
302
GRIDFORMAT
  1
GRIDFORMAT_BEGIN
 90
       26
 91
        1
 62
     0
 92
       -2
340
0
 93
        0
 40
0.045
309
GRIDFORMAT_END
 95
        4
302
GRIDFORMAT
  1
GRIDFORMAT_BEGIN
 90
       26
 91
        1
 62
     0
 92
       -2
340
0
 93
        0
 40
0.045
309
GRIDFORMAT_END
 95
        8
302
GRIDFORMAT
  1
GRIDFORMAT_BEGIN
 90
       26
 91
        1
 62
     0
 92
       -2
340
0
 93
        0
 40
0.045
309
GRIDFORMAT_END
 95
       32
302
GRIDFORMAT
  1
GRIDFORMAT_BEGIN
 90
       26
 91
        1
 62
     0
 92
       -2
340
0
 93
        0
 40
0.045
309
GRIDFORMAT_END
309
TABLEFORMAT_END
309
FORMATTEDTABLEDATACELL_END
  1
TABLECELL_BEGIN
 90
        0
 91
        0
309
TABLECELL_END
300
CELL
  1
LINKEDTABLEDATACELL_BEGIN
 90
        0
300

 91
        0
301
CUSTOMDATA
  1
DATAMAP_BEGIN
 90
        0
309
DATAMAP_END
 92
        0
 95
        0
309
LINKEDTABLEDATACELL_END
  1
FORMATTEDTABLEDATACELL_BEGIN
300
CELLTABLEFORMAT
  1
TABLEFORMAT_BEGIN
 90
        1
170
     1
 91
        0
 92
        0
 62
   257
 93
        1
300
CONTENTFORMAT
  1
CONTENTFORMAT_BEGIN
 90
        0
 91
        0
 92
      512
 93
        0
300

 40
0.0
140
1.0
 94
        1
 62
     0
340
0
144
0.18
309
CONTENTFORMAT_END
171
     0
 94
        0
309
TABLEFORMAT_END
309
FORMATTEDTABLEDATACELL_END
  1
TABLECELL_BEGIN
 90
        0
 91
        0
309
TABLECELL_END
 91
        0
301
CUSTOMDATA
  1
DATAMAP_BEGIN
 90
        0
309
DATAMAP_END
309
LINKEDTABLEDATAROW_END
  1
FORMATTEDTABLEDATAROW_BEGIN
300
ROWTABLEFORMAT
  1
TABLEFORMAT_BEGIN
 90
        2
170
     0
309
TABLEFORMAT_END
309
FORMATTEDTABLEDATAROW_END
  1
TABLEROW_BEGIN
 90
        3
 40
5.0
309
TABLEROW_END
301
ROW
  1
LINKEDTABLEDATAROW_BEGIN
 90
        5
300
CELL
  1
LINKEDTABLEDATACELL_BEGIN
 90
        0
300

 91
        0
301
CUSTOMDATA
  1
DATAMAP_BEGIN
 90
        1
300
ACAD_ROUNDTRIP_2008_CELL_CHECKSUM
301
DATAMAP_VALUE
 93
        2
 90
        2
140
1878387.0
 94
        0
300

302

304
ACVALUE_END
309
DATAMAP_END
 92
        0
 95
        1
302
CONTENT
  1
CELLCONTENT_BEGIN
 90
        1
300
VALUE
 93
        2
 90
        4
  1
Any integral or partial reproductions are prohibited \Pwithout prior authorisation of L {\Ftxt.shx;\W0.190476;\H2.250000; }& L Luce & Light s.r.l., \Pin accordance with the law in force. \PAll rights reserved.
 94
        0
300

302
Any integral or partial reproductions are prohibited \Pwithout prior authorisation of L {\Ftxt.shx;\W0.190476;\H2.250000; }& L Luce & Light s.r.l., \Pin accordance with the law in force. \PAll rights reserved.
304
ACVALUE_END
 91
        0
309
CELLCONTENT_END
  1
FORMATTEDCELLCONTENT_BEGIN
170
     1
300
CONTENTFORMAT
  1
CONTENTFORMAT_BEGIN
 90
      196
 91
        0
 92
      512
 93
        0
300

 40
0.0
140
1.0
 94
        1
 62
     0
340
20E
144
2.25
309
CONTENTFORMAT_END
309
FORMATTEDCELLCONTENT_END
309
LINKEDTABLEDATACELL_END
  1
FORMATTEDTABLEDATACELL_BEGIN
300
CELLTABLEFORMAT
  1
TABLEFORMAT_BEGIN
 90
        1
170
     1
 91
       16
 92
        0
 62
   257
 93
        1
300
CONTENTFORMAT
  1
CONTENTFORMAT_BEGIN
 90
       16
 91
        0
 92
      512
 93
        0
300

 40
0.0
140
1.0
 94
        4
 62
     0
340
0
144
0.18
309
CONTENTFORMAT_END
171
     0
 94
        4
 95
        1
302
GRIDFORMAT
  1
GRIDFORMAT_BEGIN
 90
       26
 91
        1
 62
     0
 92
       -2
340
0
 93
        0
 40
0.045
309
GRIDFORMAT_END
 95
        4
302
GRIDFORMAT
  1
GRIDFORMAT_BEGIN
 90
       26
 91
        1
 62
     0
 92
       -2
340
0
 93
        0
 40
0.045
309
GRIDFORMAT_END
 95
        8
302
GRIDFORMAT
  1
GRIDFORMAT_BEGIN
 90
       26
 91
        1
 62
     0
 92
       -2
340
0
 93
        0
 40
0.045
309
GRIDFORMAT_END
 95
       32
302
GRIDFORMAT
  1
GRIDFORMAT_BEGIN
 90
       26
 91
        1
 62
     0
 92
       -2
340
0
 93
        0
 40
0.045
309
GRIDFORMAT_END
309
TABLEFORMAT_END
309
FORMATTEDTABLEDATACELL_END
  1
TABLECELL_BEGIN
 90
        0
 91
        0
309
TABLECELL_END
300
CELL
  1
LINKEDTABLEDATACELL_BEGIN
 90
        0
300

 91
        0
301
CUSTOMDATA
  1
DATAMAP_BEGIN
 90
        0
309
DATAMAP_END
 92
        0
 95
        0
309
LINKEDTABLEDATACELL_END
  1
FORMATTEDTABLEDATACELL_BEGIN
300
CELLTABLEFORMAT
  1
TABLEFORMAT_BEGIN
 90
        1
170
     1
 91
        0
 92
        0
 62
   257
 93
        1
300
CONTENTFORMAT
  1
CONTENTFORMAT_BEGIN
 90
        0
 91
        0
 92
      512
 93
        0
300

 40
0.0
140
1.0
 94
        1
 62
     0
340
0
144
0.18
309
CONTENTFORMAT_END
171
     0
 94
        0
309
TABLEFORMAT_END
309
FORMATTEDTABLEDATACELL_END
  1
TABLECELL_BEGIN
 90
        0
 91
        0
309
TABLECELL_END
300
CELL
  1
LINKEDTABLEDATACELL_BEGIN
 90
        0
300

 91
        0
301
CUSTOMDATA
  1
DATAMAP_BEGIN
 90
        0
309
DATAMAP_END
 92
        0
 95
        0
309
LINKEDTABLEDATACELL_END
  1
FORMATTEDTABLEDATACELL_BEGIN
300
CELLTABLEFORMAT
  1
TABLEFORMAT_BEGIN
 90
        1
170
     1
 91
        0
 92
        0
 62
   257
 93
        1
300
CONTENTFORMAT
  1
CONTENTFORMAT_BEGIN
 90
        0
 91
        0
 92
      512
 93
        0
300

 40
0.0
140
1.0
 94
        1
 62
     0
340
0
144
0.18
309
CONTENTFORMAT_END
171
     0
 94
        0
309
TABLEFORMAT_END
309
FORMATTEDTABLEDATACELL_END
  1
TABLECELL_BEGIN
 90
        0
 91
        0
309
TABLECELL_END
300
CELL
  1
LINKEDTABLEDATACELL_BEGIN
 90
        0
300

 91
        0
301
CUSTOMDATA
  1
DATAMAP_BEGIN
 90
        0
309
DATAMAP_END
 92
        0
 95
        0
309
LINKEDTABLEDATACELL_END
  1
FORMATTEDTABLEDATACELL_BEGIN
300
CELLTABLEFORMAT
  1
TABLEFORMAT_BEGIN
 90
        1
170
     1
 91
        0
 92
        0
 62
   257
 93
        1
300
CONTENTFORMAT
  1
CONTENTFORMAT_BEGIN
 90
        0
 91
        0
 92
      512
 93
        0
300

 40
0.0
140
1.0
 94
        1
 62
     0
340
0
144
0.18
309
CONTENTFORMAT_END
171
     0
 94
        0
309
TABLEFORMAT_END
309
FORMATTEDTABLEDATACELL_END
  1
TABLECELL_BEGIN
 90
        0
 91
        0
309
TABLECELL_END
300
CELL
  1
LINKEDTABLEDATACELL_BEGIN
 90
        0
300

 91
        0
301
CUSTOMDATA
  1
DATAMAP_BEGIN
 90
        0
309
DATAMAP_END
 92
        0
 95
        0
309
LINKEDTABLEDATACELL_END
  1
FORMATTEDTABLEDATACELL_BEGIN
300
CELLTABLEFORMAT
  1
TABLEFORMAT_BEGIN
 90
        1
170
     1
 91
        0
 92
        0
 62
   257
 93
        1
300
CONTENTFORMAT
  1
CONTENTFORMAT_BEGIN
 90
        0
 91
        0
 92
      512
 93
        0
300

 40
0.0
140
1.0
 94
        1
 62
     0
340
0
144
0.18
309
CONTENTFORMAT_END
171
     0
 94
        0
309
TABLEFORMAT_END
309
FORMATTEDTABLEDATACELL_END
  1
TABLECELL_BEGIN
 90
        0
 91
        0
309
TABLECELL_END
 91
        0
301
CUSTOMDATA
  1
DATAMAP_BEGIN
 90
        0
309
DATAMAP_END
309
LINKEDTABLEDATAROW_END
  1
FORMATTEDTABLEDATAROW_BEGIN
300
ROWTABLEFORMAT
  1
TABLEFORMAT_BEGIN
 90
        2
170
     0
309
TABLEFORMAT_END
309
FORMATTEDTABLEDATAROW_END
  1
TABLEROW_BEGIN
 90
        3
 40
13.0
309
TABLEROW_END
100
AcDbFormattedTableData
300
TABLEFORMAT
  1
TABLEFORMAT_BEGIN
 90
        4
170
     1
 91
    15360
 92
        0
 62
   257
 93
        1
300
CONTENTFORMAT
  1
CONTENTFORMAT_BEGIN
 90
        0
 91
        0
 92
      512
 93
        0
300

 40
0.0
140
1.0
 94
        1
 62
     0
340
0
144
0.18
309
CONTENTFORMAT_END
171
     1
301
MARGIN
  1
CELLMARGIN_BEGIN
 40
0.06
 40
0.06
 40
0.06
 40
0.06
 40
0.06
 40
0.06
309
CELLMARGIN_END
 94
        0
309
TABLEFORMAT_END
 90
        4
 91
        0
 92
        0
 93
        3
 94
        2
 91
        2
 92
        3
 93
        2
 94
        4
 91
        3
 92
        3
 93
        3
 94
        4
 91
        4
 92
        0
 93
        4
 94
        4
100
AcDbTableContent
340
61F
  0
TABLEGEOMETRY
  5
64C
330
64E
100
AcDbTableGeometry
 90
        5
 91
        5
 92
       25
 93
        0
 40
0.0
 41
0.0
330
0
 94
        0
 93
        0
 40
0.0
 41
0.0
330
0
 94
        0
 93
        0
 40
0.0
 41
0.0
330
0
 94
        0
 93
        0
 40
0.0
 41
0.0
330
0
 94
        0
 93
        0
 40
0.0
 41
0.0
330
0
 94
        0
 93
        0
 40
0.0
 41
0.0
330
0
 94
        0
 93
        0
 40
0.0
 41
0.0
330
0
 94
        0
 93
        0
 40
0.0
 41
0.0
330
0
 94
        0
 93
        0
 40
0.0
 41
0.0
330
0
 94
        0
 93
        0
 40
0.0
 41
0.0
330
0
 94
        0
 93
        0
 40
0.0
 41
0.0
330
0
 94
        0
 93
        0
 40
0.0
 41
0.0
330
0
 94
        0
 93
        0
 40
0.0
 41
0.0
330
0
 94
        0
 93
        0
 40
0.0
 41
0.0
330
0
 94
        0
 93
        0
 40
0.0
 41
0.0
330
0
 94
        0
 93
        0
 40
0.0
 41
0.0
330
0
 94
        0
 93
        0
 40
0.0
 41
0.0
330
0
 94
        0
 93
        0
 40
0.0
 41
0.0
330
0
 94
        0
 93
        0
 40
0.0
 41
0.0
330
0
 94
        0
 93
        0
 40
0.0
 41
0.0
330
0
 94
        0
 93
        0
 40
0.0
 41
0.0
330
0
 94
        0
 93
        0
 40
0.0
 41
0.0
330
0
 94
        0
 93
        0
 40
0.0
 41
0.0
330
0
 94
        0
 93
        0
 40
0.0
 41
0.0
330
0
 94
        0
 93
        0
 40
0.0
 41
0.0
330
0
 94
        0
  0
DICTIONARY
  5
651
330
61F
100
AcDbDictionary
280
     1
281
     1
  3
ACAD_ROUNDTRIP_2008_TABLESTYLE_CELLSTYLEMAP
360
652
  0
CELLSTYLEMAP
  5
652
102
{ACAD_REACTORS
330
651
102
}
330
651
100
AcDbCellStyleMap
 90
        3
300
CELLSTYLE
  1
TABLEFORMAT_BEGIN
 90
        5
170
     1
 91
        0
 92
        0
 62
   257
 93
        1
300
CONTENTFORMAT
  1
CONTENTFORMAT_BEGIN
 90
        0
 91
        0
 92
        4
 93
        0
300

 40
0.0
140
1.0
 94
        5
 62
     0
340
11
144
6.0
309
CONTENTFORMAT_END
171
     1
301
MARGIN
  1
CELLMARGIN_BEGIN
 40
1.5
 40
1.5
 40
1.5
 40
1.5
 40
1.5
 40
1.5
309
CELLMARGIN_END
 94
        6
 95
        1
302
GRIDFORMAT
  1
GRIDFORMAT_BEGIN
 90
        0
 91
        1
 62
     0
 92
       -2
340
14
 93
        0
 40
0.045
309
GRIDFORMAT_END
 95
        2
302
GRIDFORMAT
  1
GRIDFORMAT_BEGIN
 90
        0
 91
        1
 62
     0
 92
       -2
340
14
 93
        0
 40
0.045
309
GRIDFORMAT_END
 95
        4
302
GRIDFORMAT
  1
GRIDFORMAT_BEGIN
 90
        0
 91
        1
 62
     0
 92
       -2
340
14
 93
        0
 40
0.045
309
GRIDFORMAT_END
 95
        8
302
GRIDFORMAT
  1
GRIDFORMAT_BEGIN
 90
        0
 91
        1
 62
     0
 92
       -2
340
14
 93
        0
 40
0.045
309
GRIDFORMAT_END
 95
       16
302
GRIDFORMAT
  1
GRIDFORMAT_BEGIN
 90
        0
 91
        1
 62
     0
 92
       -2
340
14
 93
        0
 40
0.045
309
GRIDFORMAT_END
 95
       32
302
GRIDFORMAT
  1
GRIDFORMAT_BEGIN
 90
        0
 91
        1
 62
     0
 92
       -2
340
14
 93
        0
 40
0.045
309
GRIDFORMAT_END
309
TABLEFORMAT_END
  1
CELLSTYLE_BEGIN
 90
        1
 91
        1
300
_TITLE
309
CELLSTYLE_END
300
CELLSTYLE
  1
TABLEFORMAT_BEGIN
 90
        5
170
     1
 91
        0
 92
        0
 62
   257
 93
        1
300
CONTENTFORMAT
  1
CONTENTFORMAT_BEGIN
 90
        0
 91
        0
 92
        4
 93
        0
300

 40
0.0
140
1.0
 94
        5
 62
     0
340
11
144
4.5
309
CONTENTFORMAT_END
171
     1
301
MARGIN
  1
CELLMARGIN_BEGIN
 40
1.5
 40
1.5
 40
1.5
 40
1.5
 40
1.5
 40
1.5
309
CELLMARGIN_END
 94
        6
 95
        1
302
GRIDFORMAT
  1
GRIDFORMAT_BEGIN
 90
        0
 91
        1
 62
     0
 92
       -2
340
14
 93
        0
 40
0.045
309
GRIDFORMAT_END
 95
        2
302
GRIDFORMAT
  1
GRIDFORMAT_BEGIN
 90
        0
 91
        1
 62
     0
 92
       -2
340
14
 93
        0
 40
0.045
309
GRIDFORMAT_END
 95
        4
302
GRIDFORMAT
  1
GRIDFORMAT_BEGIN
 90
        0
 91
        1
 62
     0
 92
       -2
340
14
 93
        0
 40
0.045
309
GRIDFORMAT_END
 95
        8
302
GRIDFORMAT
  1
GRIDFORMAT_BEGIN
 90
        0
 91
        1
 62
     0
 92
       -2
340
14
 93
        0
 40
0.045
309
GRIDFORMAT_END
 95
       16
302
GRIDFORMAT
  1
GRIDFORMAT_BEGIN
 90
        0
 91
        1
 62
     0
 92
       -2
340
14
 93
        0
 40
0.045
309
GRIDFORMAT_END
 95
       32
302
GRIDFORMAT
  1
GRIDFORMAT_BEGIN
 90
        0
 91
        1
 62
     0
 92
       -2
340
14
 93
        0
 40
0.045
309
GRIDFORMAT_END
309
TABLEFORMAT_END
  1
CELLSTYLE_BEGIN
 90
        2
 91
        1
300
_HEADER
309
CELLSTYLE_END
300
CELLSTYLE
  1
TABLEFORMAT_BEGIN
 90
        5
170
     1
 91
        0
 92
        0
 62
   257
 93
        1
300
CONTENTFORMAT
  1
CONTENTFORMAT_BEGIN
 90
        0
 91
        0
 92
        4
 93
        0
300

 40
0.0
140
1.0
 94
        2
 62
     0
340
11
144
4.5
309
CONTENTFORMAT_END
171
     1
301
MARGIN
  1
CELLMARGIN_BEGIN
 40
1.5
 40
1.5
 40
1.5
 40
1.5
 40
1.5
 40
1.5
309
CELLMARGIN_END
 94
        6
 95
        1
302
GRIDFORMAT
  1
GRIDFORMAT_BEGIN
 90
        0
 91
        1
 62
     0
 92
       -2
340
14
 93
        0
 40
0.045
309
GRIDFORMAT_END
 95
        2
302
GRIDFORMAT
  1
GRIDFORMAT_BEGIN
 90
        0
 91
        1
 62
     0
 92
       -2
340
14
 93
        0
 40
0.045
309
GRIDFORMAT_END
 95
        4
302
GRIDFORMAT
  1
GRIDFORMAT_BEGIN
 90
        0
 91
        1
 62
     0
 92
       -2
340
14
 93
        0
 40
0.045
309
GRIDFORMAT_END
 95
        8
302
GRIDFORMAT
  1
GRIDFORMAT_BEGIN
 90
        0
 91
        1
 62
     0
 92
       -2
340
14
 93
        0
 40
0.045
309
GRIDFORMAT_END
 95
       16
302
GRIDFORMAT
  1
GRIDFORMAT_BEGIN
 90
        0
 91
        1
 62
     0
 92
       -2
340
14
 93
        0
 40
0.045
309
GRIDFORMAT_END
 95
       32
302
GRIDFORMAT
  1
GRIDFORMAT_BEGIN
 90
        0
 91
        1
 62
     0
 92
       -2
340
14
 93
        0
 40
0.045
309
GRIDFORMAT_END
309
TABLEFORMAT_END
  1
CELLSTYLE_BEGIN
 90
        3
 91
        2
300
_DATA
309
CELLSTYLE_END
  0
ENDSEC
  0
EOF
