  0
SECTION
  2
HEADER
  9
$ACADVER
  1
AC1027
  9
$ACADMAINTVER
 70
   105
  9
$DWGCODEPAGE
  3
ANSI_1252
  9
$REQUIREDVERSIONS
160
                 0
  9
$LASTSAVEDBY
  1
andrea.zolin
  9
$INSBASE
 10
0.0
 20
0.0
 30
0.0
  9
$EXTMIN
 10
0.0
 20
0.0
 30
0.0
  9
$EXTMAX
 10
2000.0
 20
841.0
 30
0.0
  9
$LIMMIN
 10
0.0
 20
0.0
  9
$LIMMAX
 10
2000.0
 20
841.0
  9
$ORTHOMODE
 70
     0
  9
$REGENMODE
 70
     1
  9
$FILLMODE
 70
     1
  9
$QTEXTMODE
 70
     0
  9
$MIRRTEXT
 70
     1
  9
$LTSCALE
 40
110.0
  9
$ATTMODE
 70
     1
  9
$TEXTSIZE
 40
0.2
  9
$TRACEWID
 40
0.05
  9
$TEXTSTYLE
  7
STANDARD
  9
$CLAYER
  8
0
  9
$CELTYPE
  6
BYLAYER
  9
$CECOLOR
 62
   256
  9
$CELTSCALE
 40
1.0
  9
$DISPSILH
 70
     0
  9
$DIMSCALE
 40
1.0
  9
$DIMASZ
 40
2.5
  9
$DIMEXO
 40
0.75
  9
$DIMDLI
 40
76.0
  9
$DIMRND
 40
0.0
  9
$DIMDLE
 40
0.0
  9
$DIMEXE
 40
0.75
  9
$DIMTP
 40
0.01
  9
$DIMTM
 40
0.01
  9
$DIMTXT
 40
3.0
  9
$DIMCEN
 40
18.0
  9
$DIMTSZ
 40
0.0
  9
$DIMTOL
 70
     1
  9
$DIMLIM
 70
     0
  9
$DIMTIH
 70
     1
  9
$DIMTOH
 70
     1
  9
$DIMSE1
 70
     0
  9
$DIMSE2
 70
     0
  9
$DIMTAD
 70
     0
  9
$DIMZIN
 70
     0
  9
$DIMBLK
  1
CLOSED
  9
$DIMASO
 70
     1
  9
$DIMSHO
 70
     1
  9
$DIMPOST
  1

  9
$DIMAPOST
  1

  9
$DIMALT
 70
     0
  9
$DIMALTD
 70
     2
  9
$DIMALTF
 40
25.4
  9
$DIMLFAC
 40
1.0
  9
$DIMTOFL
 70
     0
  9
$DIMTVP
 40
0.0
  9
$DIMTIX
 70
     0
  9
$DIMSOXD
 70
     0
  9
$DIMSAH
 70
     0
  9
$DIMBLK1
  1

  9
$DIMBLK2
  1

  9
$DIMSTYLE
  2
STANDARD
  9
$DIMCLRD
 70
     0
  9
$DIMCLRE
 70
     0
  9
$DIMCLRT
 70
     0
  9
$DIMTFAC
 40
1.0
  9
$DIMGAP
 40
0.625
  9
$DIMJUST
 70
     0
  9
$DIMSD1
 70
     0
  9
$DIMSD2
 70
     0
  9
$DIMTOLJ
 70
     1
  9
$DIMTZIN
 70
     0
  9
$DIMALTZ
 70
     0
  9
$DIMALTTZ
 70
     0
  9
$DIMUPT
 70
     0
  9
$DIMDEC
 70
     4
  9
$DIMTDEC
 70
     4
  9
$DIMALTU
 70
     2
  9
$DIMALTTD
 70
     2
  9
$DIMTXSTY
  7
STANDARD
  9
$DIMAUNIT
 70
     0
  9
$DIMADEC
 70
     0
  9
$DIMALTRND
 40
0.0
  9
$DIMAZIN
 70
     0
  9
$DIMDSEP
 70
    46
  9
$DIMATFIT
 70
     3
  9
$DIMFRAC
 70
     0
  9
$DIMLDRBLK
  1

  9
$DIMLUNIT
 70
     2
  9
$DIMLWD
 70
    -2
  9
$DIMLWE
 70
    -2
  9
$DIMTMOVE
 70
     2
  9
$DIMFXL
 40
1.0
  9
$DIMFXLON
 70
     0
  9
$DIMJOGANG
 40
0.7853981633974483
  9
$DIMTFILL
 70
     0
  9
$DIMTFILLCLR
 70
     0
  9
$DIMARCSYM
 70
     0
  9
$DIMLTYPE
  6

  9
$DIMLTEX1
  6

  9
$DIMLTEX2
  6

  9
$DIMTXTDIRECTION
 70
     0
  9
$LUNITS
 70
     2
  9
$LUPREC
 70
     4
  9
$SKETCHINC
 40
0.1
  9
$FILLETRAD
 40
0.5
  9
$AUNITS
 70
     0
  9
$AUPREC
 70
     0
  9
$MENU
  1
.
  9
$ELEVATION
 40
0.0
  9
$PELEVATION
 40
0.0
  9
$THICKNESS
 40
0.0
  9
$LIMCHECK
 70
     0
  9
$CHAMFERA
 40
0.0
  9
$CHAMFERB
 40
0.0
  9
$CHAMFERC
 40
0.0
  9
$CHAMFERD
 40
0.0
  9
$SKPOLY
 70
     0
  9
$TDCREATE
 40
2447893.041666667
  9
$TDUCREATE
 40
0.0
  9
$TDUPDATE
 40
2458466.636907894
  9
$TDUUPDATE
 40
2458466.595241227
  9
$TDINDWG
 40
0.0002672454
  9
$TDUSRTIMER
 40
0.0002672454
  9
$USRTIMER
 70
     1
  9
$ANGBASE
 50
0.0
  9
$ANGDIR
 70
     0
  9
$PDMODE
 70
     3
  9
$PDSIZE
 40
0.3125
  9
$PLINEWID
 40
0.0
  9
$SPLFRAME
 70
     0
  9
$SPLINETYPE
 70
     6
  9
$SPLINESEGS
 70
     8
  9
$HANDSEED
  5
5D7
  9
$SURFTAB1
 70
     6
  9
$SURFTAB2
 70
     6
  9
$SURFTYPE
 70
     6
  9
$SURFU
 70
     6
  9
$SURFV
 70
     6
  9
$UCSBASE
  2

  9
$UCSNAME
  2

  9
$UCSORG
 10
0.0
 20
0.0
 30
0.0
  9
$UCSXDIR
 10
1.0
 20
0.0
 30
0.0
  9
$UCSYDIR
 10
0.0
 20
1.0
 30
0.0
  9
$UCSORTHOREF
  2

  9
$UCSORTHOVIEW
 70
     0
  9
$UCSORGTOP
 10
0.0
 20
0.0
 30
0.0
  9
$UCSORGBOTTOM
 10
0.0
 20
0.0
 30
0.0
  9
$UCSORGLEFT
 10
0.0
 20
0.0
 30
0.0
  9
$UCSORGRIGHT
 10
0.0
 20
0.0
 30
0.0
  9
$UCSORGFRONT
 10
0.0
 20
0.0
 30
0.0
  9
$UCSORGBACK
 10
0.0
 20
0.0
 30
0.0
  9
$PUCSBASE
  2

  9
$PUCSNAME
  2

  9
$PUCSORG
 10
0.0
 20
0.0
 30
0.0
  9
$PUCSXDIR
 10
1.0
 20
0.0
 30
0.0
  9
$PUCSYDIR
 10
0.0
 20
1.0
 30
0.0
  9
$PUCSORTHOREF
  2

  9
$PUCSORTHOVIEW
 70
     0
  9
$PUCSORGTOP
 10
0.0
 20
0.0
 30
0.0
  9
$PUCSORGBOTTOM
 10
0.0
 20
0.0
 30
0.0
  9
$PUCSORGLEFT
 10
0.0
 20
0.0
 30
0.0
  9
$PUCSORGRIGHT
 10
0.0
 20
0.0
 30
0.0
  9
$PUCSORGFRONT
 10
0.0
 20
0.0
 30
0.0
  9
$PUCSORGBACK
 10
0.0
 20
0.0
 30
0.0
  9
$USERI1
 70
     0
  9
$USERI2
 70
     0
  9
$USERI3
 70
     0
  9
$USERI4
 70
     0
  9
$USERI5
 70
     0
  9
$USERR1
 40
0.0
  9
$USERR2
 40
0.0
  9
$USERR3
 40
0.0
  9
$USERR4
 40
0.0
  9
$USERR5
 40
0.0
  9
$WORLDVIEW
 70
     1
  9
$SHADEDGE
 70
     3
  9
$SHADEDIF
 70
    70
  9
$TILEMODE
 70
     0
  9
$MAXACTVP
 70
    64
  9
$PINSBASE
 10
0.0
 20
0.0
 30
0.0
  9
$PLIMCHECK
 70
     0
  9
$PEXTMIN
 10
0.0
 20
0.0
 30
0.0
  9
$PEXTMAX
 10
2003.0710959075
 20
841.0
 30
0.0
  9
$PLIMMIN
 10
-37.09390918347222
 20
-98.91709115592592
  9
$PLIMMAX
 10
2040.165005090972
 20
1370.001712509574
  9
$UNITMODE
 70
     0
  9
$VISRETAIN
 70
     1
  9
$PLINEGEN
 70
     0
  9
$PSLTSCALE
 70
     1
  9
$TREEDEPTH
 70
  3020
  9
$CMLSTYLE
  2
STANDARD
  9
$CMLJUST
 70
     0
  9
$CMLSCALE
 40
1.0
  9
$PROXYGRAPHICS
 70
     1
  9
$MEASUREMENT
 70
     1
  9
$CELWEIGHT
370
    -1
  9
$ENDCAPS
280
     0
  9
$JOINSTYLE
280
     0
  9
$LWDISPLAY
290
     0
  9
$INSUNITS
 70
     0
  9
$HYPERLINKBASE
  1

  9
$STYLESHEET
  1

  9
$XEDIT
290
     1
  9
$CEPSNTYPE
380
     0
  9
$PSTYLEMODE
290
     1
  9
$FINGERPRINTGUID
  2
{B310D025-EB75-4BFD-9B07-D96F20158C2A}
  9
$VERSIONGUID
  2
{FAEB1C32-E019-11D5-929B-00C0DF256EC4}
  9
$EXTNAMES
290
     1
  9
$PSVPSCALE
 40
0.0
  9
$OLESTARTUP
290
     0
  9
$SORTENTS
280
   127
  9
$INDEXCTL
280
     0
  9
$HIDETEXT
280
     1
  9
$XCLIPFRAME
280
     2
  9
$HALOGAP
280
     0
  9
$OBSCOLOR
 70
   257
  9
$OBSLTYPE
280
     0
  9
$INTERSECTIONDISPLAY
280
     0
  9
$INTERSECTIONCOLOR
 70
   257
  9
$DIMASSOC
280
     2
  9
$PROJECTNAME
  1

  9
$CAMERADISPLAY
290
     0
  9
$LENSLENGTH
 40
50.0
  9
$CAMERAHEIGHT
 40
0.0
  9
$STEPSPERSEC
 40
2.0
  9
$STEPSIZE
 40
6.0
  9
$3DDWFPREC
 40
2.0
  9
$PSOLWIDTH
 40
0.25
  9
$PSOLHEIGHT
 40
4.0
  9
$LOFTANG1
 40
1.570796326794897
  9
$LOFTANG2
 40
1.570796326794897
  9
$LOFTMAG1
 40
0.0
  9
$LOFTMAG2
 40
0.0
  9
$LOFTPARAM
 70
     7
  9
$LOFTNORMALS
280
     1
  9
$LATITUDE
 40
37.795
  9
$LONGITUDE
 40
-122.394
  9
$NORTHDIRECTION
 40
0.0
  9
$TIMEZONE
 70
 -8000
  9
$LIGHTGLYPHDISPLAY
280
     1
  9
$TILEMODELIGHTSYNCH
280
     1
  9
$SOLIDHIST
280
     0
  9
$SHOWHIST
280
     1
  9
$DWFFRAME
280
     2
  9
$DGNFRAME
280
     2
  9
$REALWORLDSCALE
290
     1
  9
$INTERFERECOLOR
 62
   256
  9
$CSHADOW
280
     0
  9
$SHADOWPLANELOCATION
 40
0.0
  0
ENDSEC
  0
SECTION
  2
CLASSES
  0
CLASS
  1
ACDBDICTIONARYWDFLT
  2
AcDbDictionaryWithDefault
  3
ObjectDBX Classes
 90
        0
 91
        4
280
     0
281
     0
  0
CLASS
  1
SCALE
  2
AcDbScale
  3
ObjectDBX Classes
 90
     1153
 91
        4
280
     0
281
     0
  0
CLASS
  1
VISUALSTYLE
  2
AcDbVisualStyle
  3
ObjectDBX Classes
 90
     4095
 91
        4
280
     0
281
     0
  0
CLASS
  1
MATERIAL
  2
AcDbMaterial
  3
ObjectDBX Classes
 90
     1153
 91
        4
280
     0
281
     0
  0
CLASS
  1
TABLESTYLE
  2
AcDbTableStyle
  3
ObjectDBX Classes
 90
     4095
 91
        4
280
     0
281
     0
  0
CLASS
  1
MLEADERSTYLE
  2
AcDbMLeaderStyle
  3
ACDB_MLEADERSTYLE_CLASS
 90
     4095
 91
        4
280
     0
281
     0
  0
CLASS
  1
DICTIONARYVAR
  2
AcDbDictionaryVar
  3
ObjectDBX Classes
 90
        0
 91
        4
280
     0
281
     0
  0
CLASS
  1
CELLSTYLEMAP
  2
AcDbCellStyleMap
  3
ObjectDBX Classes
 90
     1152
 91
        4
280
     0
281
     0
  0
ENDSEC
  0
SECTION
  2
TABLES
  0
TABLE
  2
VPORT
  5
8
330
0
100
AcDbSymbolTable
 70
     1
  0
VPORT
  5
1F4
330
8
100
AcDbSymbolTableRecord
100
AcDbViewportTableRecord
  2
*ACTIVE
 70
     0
 10
0.0
 20
0.0
 11
1.0
 21
1.0
 12
1000.0
 22
420.5
 13
0.0
 23
0.0
 14
1.0
 24
1.0
 15
0.0
 25
0.0
 16
0.0
 26
0.0
 36
1.0
 17
0.0
 27
0.0
 37
0.0
 40
841.0
 41
2.3781212842
 42
50.0
 43
0.0
 44
0.0
 50
0.0
 51
0.0
 71
     0
 72
   100
 73
     1
 74
     1
 75
     0
 76
     0
 77
     0
 78
     0
281
     0
 65
     1
110
0.0
120
0.0
130
0.0
111
1.0
121
0.0
131
0.0
112
0.0
122
1.0
132
0.0
 79
     0
146
0.0
348
5B0
 60
     3
 61
     5
292
     1
282
     1
141
0.0
142
0.0
 63
   256
  0
ENDTAB
  0
TABLE
  2
LTYPE
  5
5
330
0
100
AcDbSymbolTable
 70
     6
  0
LTYPE
  5
14
330
5
100
AcDbSymbolTableRecord
100
AcDbLinetypeTableRecord
  2
BYBLOCK
 70
     0
  3

 72
    65
 73
     0
 40
0.0
  0
LTYPE
  5
15
330
5
100
AcDbSymbolTableRecord
100
AcDbLinetypeTableRecord
  2
BYLAYER
 70
     0
  3

 72
    65
 73
     0
 40
0.0
  0
LTYPE
  5
16
330
5
100
AcDbSymbolTableRecord
100
AcDbLinetypeTableRecord
  2
CONTINUOUS
 70
     0
  3
Solid line
 72
    65
 73
     0
 40
0.0
  0
LTYPE
  5
1F5
330
5
100
AcDbSymbolTableRecord
100
AcDbLinetypeTableRecord
  2
CENTER
 70
     0
  3
____ _ ____ _ ____ _ ____ _ ____ _ ____ _ ____
 72
    65
 73
     4
 40
0.6
 49
0.375
 74
     0
 49
-0.075
 74
     0
 49
0.075
 74
     0
 49
-0.075
 74
     0
  0
LTYPE
  5
1F6
330
5
100
AcDbSymbolTableRecord
100
AcDbLinetypeTableRecord
  2
HIDDEN
 70
     0
  3
- - - - - - - - - - - - - - - - - - - -
 72
    65
 73
     2
 40
0.2
 49
0.1
 74
     0
 49
-0.1
 74
     0
  0
LTYPE
  5
1F7
330
5
100
AcDbSymbolTableRecord
100
AcDbLinetypeTableRecord
  2
PHANTOM
 70
     0
  3
_____ _ _ _____ _ _ _____ _ _ _____
 72
    65
 73
     6
 40
0.8
 49
0.45
 74
     0
 49
-0.05
 74
     0
 49
0.1
 74
     0
 49
-0.05
 74
     0
 49
0.1
 74
     0
 49
-0.05
 74
     0
  0
LTYPE
  5
1F8
330
5
100
AcDbSymbolTableRecord
100
AcDbLinetypeTableRecord
  2
DOT
 70
     0
  3
. . . . . . . . . . . . . . . . . . . .
 72
    65
 73
     2
 40
0.2
 49
0.1
 74
     0
 49
-0.1
 74
     0
  0
LTYPE
  5
1F9
330
5
100
AcDbSymbolTableRecord
100
AcDbLinetypeTableRecord
  2
DASHED
 70
     0
  3
- - - - - - - - - - - - - - - - - - - -
 72
    65
 73
     2
 40
0.2
 49
0.1
 74
     0
 49
-0.1
 74
     0
  0
ENDTAB
  0
TABLE
  2
LAYER
  5
2
330
0
100
AcDbSymbolTable
 70
    41
  0
LAYER
  5
10
330
2
100
AcDbSymbolTableRecord
100
AcDbLayerTableRecord
  2
0
 70
     0
 62
     7
  6
CONTINUOUS
370
    -3
390
585
347
5C7
348
0
  0
LAYER
  5
1FA
330
2
100
AcDbSymbolTableRecord
100
AcDbLayerTableRecord
  2
DEFAULT_1
 70
     0
 62
     7
  6
CENTER
370
    -3
390
585
347
5C7
348
0
  0
LAYER
  5
1FB
330
2
100
AcDbSymbolTableRecord
100
AcDbLayerTableRecord
  2
DEFAULT_2
 70
     0
 62
     8
  6
HIDDEN
370
    -3
390
585
347
5C7
348
0
  0
LAYER
  5
1FC
330
2
100
AcDbSymbolTableRecord
100
AcDbLayerTableRecord
  2
DEFAULT_3
 70
     0
 62
     7
  6
PHANTOM
370
    -3
390
585
347
5C7
348
0
  0
LAYER
  5
1FD
330
2
100
AcDbSymbolTableRecord
100
AcDbLayerTableRecord
  2
01_ALL_DTM_PLN
 70
     0
 62
     7
  6
CONTINUOUS
370
    -3
390
585
347
5C7
348
0
  0
LAYER
  5
1FE
330
2
100
AcDbSymbolTableRecord
100
AcDbLayerTableRecord
  2
01__ASM_ALL_DTM_PLN
 70
     0
 62
     7
  6
CONTINUOUS
370
    -3
390
585
347
5C7
348
0
  0
LAYER
  5
1FF
330
2
100
AcDbSymbolTableRecord
100
AcDbLayerTableRecord
  2
01__ASM_DEF_DTM_PLN
 70
     0
 62
     7
  6
CONTINUOUS
370
    -3
390
585
347
5C7
348
0
  0
LAYER
  5
200
330
2
100
AcDbSymbolTableRecord
100
AcDbLayerTableRecord
  2
01___PRT_ALL_DTM_PLN
 70
     0
 62
     7
  6
CONTINUOUS
370
    -3
390
585
347
5C7
348
0
  0
LAYER
  5
201
330
2
100
AcDbSymbolTableRecord
100
AcDbLayerTableRecord
  2
01___PRT_DEF_DTM_PLN
 70
     0
 62
     7
  6
CONTINUOUS
370
    -3
390
585
347
5C7
348
0
  0
LAYER
  5
202
330
2
100
AcDbSymbolTableRecord
100
AcDbLayerTableRecord
  2
02_ALL_AXES
 70
     0
 62
     7
  6
CONTINUOUS
370
    -3
390
585
347
5C7
348
0
  0
LAYER
  5
203
330
2
100
AcDbSymbolTableRecord
100
AcDbLayerTableRecord
  2
02__ASM_ALL_AXES
 70
     0
 62
     7
  6
CONTINUOUS
370
    -3
390
585
347
5C7
348
0
  0
LAYER
  5
204
330
2
100
AcDbSymbolTableRecord
100
AcDbLayerTableRecord
  2
02___PRT_ALL_AXES
 70
     0
 62
     7
  6
CONTINUOUS
370
    -3
390
585
347
5C7
348
0
  0
LAYER
  5
205
330
2
100
AcDbSymbolTableRecord
100
AcDbLayerTableRecord
  2
03_ALL_CURVES
 70
     0
 62
     7
  6
CONTINUOUS
370
    -3
390
585
347
5C7
348
0
  0
LAYER
  5
206
330
2
100
AcDbSymbolTableRecord
100
AcDbLayerTableRecord
  2
03__ASM_ALL_CURVES
 70
     0
 62
     7
  6
CONTINUOUS
370
    -3
390
585
347
5C7
348
0
  0
LAYER
  5
207
330
2
100
AcDbSymbolTableRecord
100
AcDbLayerTableRecord
  2
03___PRT_ALL_CURVES
 70
     0
 62
     7
  6
CONTINUOUS
370
    -3
390
585
347
5C7
348
0
  0
LAYER
  5
208
330
2
100
AcDbSymbolTableRecord
100
AcDbLayerTableRecord
  2
04_ALL_DTM_PNT
 70
     0
 62
     7
  6
CONTINUOUS
370
    -3
390
585
347
5C7
348
0
  0
LAYER
  5
209
330
2
100
AcDbSymbolTableRecord
100
AcDbLayerTableRecord
  2
04__ASM_ALL_DTM_PNT
 70
     0
 62
     7
  6
CONTINUOUS
370
    -3
390
585
347
5C7
348
0
  0
LAYER
  5
20A
330
2
100
AcDbSymbolTableRecord
100
AcDbLayerTableRecord
  2
04___PRT_ALL_DTM_PNT
 70
     0
 62
     7
  6
CONTINUOUS
370
    -3
390
585
347
5C7
348
0
  0
LAYER
  5
20B
330
2
100
AcDbSymbolTableRecord
100
AcDbLayerTableRecord
  2
05_ALL_DTM_CSYS
 70
     0
 62
     7
  6
CONTINUOUS
370
    -3
390
585
347
5C7
348
0
  0
LAYER
  5
20C
330
2
100
AcDbSymbolTableRecord
100
AcDbLayerTableRecord
  2
05__ASM_ALL_DTM_CSYS
 70
     0
 62
     7
  6
CONTINUOUS
370
    -3
390
585
347
5C7
348
0
  0
LAYER
  5
20D
330
2
100
AcDbSymbolTableRecord
100
AcDbLayerTableRecord
  2
05__ASM_DEF_DTM_CSYS
 70
     0
 62
     7
  6
CONTINUOUS
370
    -3
390
585
347
5C7
348
0
  0
LAYER
  5
20E
330
2
100
AcDbSymbolTableRecord
100
AcDbLayerTableRecord
  2
05___PRT_ALL_DTM_CSYS
 70
     0
 62
     7
  6
CONTINUOUS
370
    -3
390
585
347
5C7
348
0
  0
LAYER
  5
20F
330
2
100
AcDbSymbolTableRecord
100
AcDbLayerTableRecord
  2
05___PRT_DEF_DTM_CSYS
 70
     0
 62
     7
  6
CONTINUOUS
370
    -3
390
585
347
5C7
348
0
  0
LAYER
  5
210
330
2
100
AcDbSymbolTableRecord
100
AcDbLayerTableRecord
  2
06_ALL_SURFS
 70
     0
 62
     7
  6
CONTINUOUS
370
    -3
390
585
347
5C7
348
0
  0
LAYER
  5
211
330
2
100
AcDbSymbolTableRecord
100
AcDbLayerTableRecord
  2
06__ASM_ALL_SURFS
 70
     0
 62
     7
  6
CONTINUOUS
370
    -3
390
585
347
5C7
348
0
  0
LAYER
  5
212
330
2
100
AcDbSymbolTableRecord
100
AcDbLayerTableRecord
  2
06___PRT_ALL_SURFS
 70
     0
 62
     7
  6
CONTINUOUS
370
    -3
390
585
347
5C7
348
0
  0
LAYER
  5
213
330
2
100
AcDbSymbolTableRecord
100
AcDbLayerTableRecord
  2
07__ASM_ALL_SKELETONS
 70
     0
 62
     7
  6
CONTINUOUS
370
    -3
390
585
347
5C7
348
0
  0
LAYER
  5
214
330
2
100
AcDbSymbolTableRecord
100
AcDbLayerTableRecord
  2
1_ALL_PLANES
 70
     0
 62
     7
  6
CONTINUOUS
370
    -3
390
585
347
5C7
348
0
  0
LAYER
  5
215
330
2
100
AcDbSymbolTableRecord
100
AcDbLayerTableRecord
  2
2_ALL_CSYS
 70
     0
 62
     7
  6
CONTINUOUS
370
    -3
390
585
347
5C7
348
0
  0
LAYER
  5
216
330
2
100
AcDbSymbolTableRecord
100
AcDbLayerTableRecord
  2
3_ALL_AXES
 70
     0
 62
     7
  6
CONTINUOUS
370
    -3
390
585
347
5C7
348
0
  0
LAYER
  5
217
330
2
100
AcDbSymbolTableRecord
100
AcDbLayerTableRecord
  2
4_ALL_POINTS
 70
     0
 62
     7
  6
CONTINUOUS
370
    -3
390
585
347
5C7
348
0
  0
LAYER
  5
218
330
2
100
AcDbSymbolTableRecord
100
AcDbLayerTableRecord
  2
5_ALL_CURVES
 70
     0
 62
     7
  6
CONTINUOUS
370
    -3
390
585
347
5C7
348
0
  0
LAYER
  5
219
330
2
100
AcDbSymbolTableRecord
100
AcDbLayerTableRecord
  2
5__COSTRUZIONE
 70
     0
 62
     7
  6
CONTINUOUS
370
    -3
390
585
347
5C7
348
0
  0
LAYER
  5
21A
330
2
100
AcDbSymbolTableRecord
100
AcDbLayerTableRecord
  2
6_ALL_SURFS
 70
     0
 62
     7
  6
CONTINUOUS
370
    -3
390
585
347
5C7
348
0
  0
LAYER
  5
21B
330
2
100
AcDbSymbolTableRecord
100
AcDbLayerTableRecord
  2
7_ALL_FEATURES
 70
     0
 62
     7
  6
CONTINUOUS
370
    -3
390
585
347
5C7
348
0
  0
LAYER
  5
21C
330
2
100
AcDbSymbolTableRecord
100
AcDbLayerTableRecord
  2
8_ALL_NOTES_BALLOONS_SYMBOLS_GT
 70
     0
 62
     7
  6
CONTINUOUS
370
    -3
390
585
347
5C7
348
0
  0
LAYER
  5
21D
330
2
100
AcDbSymbolTableRecord
100
AcDbLayerTableRecord
  2
9_SOLID
 70
     0
 62
     7
  6
CONTINUOUS
370
    -3
390
585
347
5C7
348
0
  0
LAYER
  5
21E
330
2
100
AcDbSymbolTableRecord
100
AcDbLayerTableRecord
  2
INTFCLR_2
 70
     0
 62
     7
  6
CONTINUOUS
370
    -3
390
585
347
5C7
348
0
  0
LAYER
  5
21F
330
2
100
AcDbSymbolTableRecord
100
AcDbLayerTableRecord
  2
INTFCLR_4
 70
     0
 62
     7
  6
CONTINUOUS
370
    -3
390
585
347
5C7
348
0
  0
LAYER
  5
220
330
2
100
AcDbSymbolTableRecord
100
AcDbLayerTableRecord
  2
INTF_RED
 70
     0
 62
     7
  6
CONTINUOUS
370
    -3
390
585
347
5C7
348
0
  0
LAYER
  5
221
330
2
100
AcDbSymbolTableRecord
100
AcDbLayerTableRecord
  2
XXX_SOLIDO
 70
     0
 62
     7
  6
CONTINUOUS
370
    -3
390
585
347
5C7
348
0
  0
ENDTAB
  0
TABLE
  2
STYLE
  5
3
330
0
100
AcDbSymbolTable
 70
     3
  0
STYLE
  5
11
330
3
100
AcDbSymbolTableRecord
100
AcDbTextStyleTableRecord
  2
STANDARD
 70
     0
 40
0.0
 41
0.85
 50
0.0
 71
     0
 42
0.2
  3
txt
  4

  0
STYLE
  5
222
330
3
100
AcDbSymbolTableRecord
100
AcDbTextStyleTableRecord
  2
TEXTSTYLE_1
 70
     0
 40
0.0
 41
0.8
 50
0.0
 71
     0
 42
0.2
  3
gdt
  4

  0
STYLE
  5
223
330
3
100
AcDbSymbolTableRecord
100
AcDbTextStyleTableRecord
  2
TEXTSTYLE_2
 70
     0
 40
0.0
 41
2.0
 50
0.0
 71
     0
 42
0.2
  3
txt
  4

  0
ENDTAB
  0
TABLE
  2
VIEW
  5
6
330
0
100
AcDbSymbolTable
 70
     0
  0
ENDTAB
  0
TABLE
  2
UCS
  5
7
330
0
100
AcDbSymbolTable
 70
     0
  0
ENDTAB
  0
TABLE
  2
APPID
  5
9
330
0
100
AcDbSymbolTable
 70
     1
  0
APPID
  5
224
330
9
100
AcDbSymbolTableRecord
100
AcDbRegAppTableRecord
  2
ACAD
 70
     0
  0
ENDTAB
  0
TABLE
  2
DIMSTYLE
  5
A
330
0
100
AcDbSymbolTable
 70
     4
100
AcDbDimStyleTable
  0
DIMSTYLE
105
22C
330
A
100
AcDbSymbolTableRecord
100
AcDbDimStyleTableRecord
  2
STANDARD
 70
     0
 41
2.5
 42
0.75
 44
0.75
 47
0.01
 48
0.01
 71
     1
 73
     0
 74
     0
 77
     1
 78
     8
 79
     2
140
3.0
147
0.625
171
     1
178
     0
179
     2
271
     2
272
     2
284
     8
340
11
341
225
342
225
343
225
344
225
  0
DIMSTYLE
105
22D
330
A
100
AcDbSymbolTableRecord
100
AcDbDimStyleTableRecord
  2
DIMSTYLE_1
 70
     0
 41
2.5
 42
0.75
 44
0.75
 47
1.2
 48
1.2
 73
     0
 74
     0
 77
     1
 78
     8
 79
     2
140
3.0
147
0.75
171
     1
178
     0
271
     0
272
     0
284
     8
340
11
341
225
342
225
343
225
344
225
  0
DIMSTYLE
105
22E
330
A
100
AcDbSymbolTableRecord
100
AcDbDimStyleTableRecord
  2
DIMSTYLE_2
 70
     0
 41
2.5
 42
0.75
 44
0.75
 47
0.3
 48
0.3
 73
     0
 74
     0
 77
     1
 78
     8
 79
     2
140
3.0
147
0.75
171
     1
178
     0
271
     0
272
     0
284
     8
340
11
341
225
342
225
343
225
344
225
  0
DIMSTYLE
105
22F
330
A
100
AcDbSymbolTableRecord
100
AcDbDimStyleTableRecord
  2
DIMSTYLE_3
 70
     0
 41
2.5
 42
0.75
 44
0.75
 47
0.3
 48
0.3
 73
     0
 74
     0
 77
     1
 78
     8
 79
     2
140
3.0
147
0.75
171
     1
178
     0
179
     2
271
     2
272
     2
284
     8
340
11
341
225
342
225
343
225
344
225
  0
ENDTAB
  0
TABLE
  2
BLOCK_RECORD
  5
1
330
0
100
AcDbSymbolTable
 70
     7
  0
BLOCK_RECORD
  5
1F
330
1
100
AcDbSymbolTableRecord
100
AcDbBlockTableRecord
  2
*MODEL_SPACE
340
5A9
 70
     0
280
     1
281
     0
  0
BLOCK_RECORD
  5
1B
330
1
100
AcDbSymbolTableRecord
100
AcDbBlockTableRecord
  2
*PAPER_SPACE
340
5AA
 70
     0
280
     1
281
     0
  0
BLOCK_RECORD
  5
225
330
1
100
AcDbSymbolTableRecord
100
AcDbBlockTableRecord
  2
_CLOSED
340
0
102
{BLKREFS
331
282
331
283
331
28B
331
28C
331
294
331
295
331
29D
331
29E
102
}
 70
     0
280
     1
281
     0
  0
BLOCK_RECORD
  5
226
330
1
100
AcDbSymbolTableRecord
100
AcDbBlockTableRecord
  2
*D1
340
0
 70
     0
280
     1
281
     0
  0
BLOCK_RECORD
  5
227
330
1
100
AcDbSymbolTableRecord
100
AcDbBlockTableRecord
  2
*D2
340
0
 70
     0
280
     1
281
     0
  0
BLOCK_RECORD
  5
228
330
1
100
AcDbSymbolTableRecord
100
AcDbBlockTableRecord
  2
*D3
340
0
 70
     0
280
     1
281
     0
  0
BLOCK_RECORD
  5
229
330
1
100
AcDbSymbolTableRecord
100
AcDbBlockTableRecord
  2
*D4
340
0
 70
     0
280
     1
281
     0
  0
BLOCK_RECORD
  5
22A
330
1
100
AcDbSymbolTableRecord
100
AcDbBlockTableRecord
  2
LOGO2_BL1
340
0
102
{BLKREFS
331
56D
102
}
 70
     0
280
     1
281
     0
  0
BLOCK_RECORD
  5
22B
330
1
100
AcDbSymbolTableRecord
100
AcDbBlockTableRecord
  2
PROIEZIONE_EU_BL0
340
0
102
{BLKREFS
331
56A
102
}
 70
     0
280
     1
281
     0
  0
ENDTAB
  0
ENDSEC
  0
SECTION
  2
BLOCKS
  0
BLOCK
  5
20
330
1F
100
AcDbEntity
  8
0
100
AcDbBlockBegin
  2
*MODEL_SPACE
 70
     0
 10
0.0
 20
0.0
 30
0.0
  3
*MODEL_SPACE
  1

  0
ENDBLK
  5
21
330
1F
100
AcDbEntity
  8
0
100
AcDbBlockEnd
  0
BLOCK
  5
1C
330
1B
100
AcDbEntity
 67
     1
  8
0
100
AcDbBlockBegin
  2
*PAPER_SPACE
 70
     0
 10
0.0
 20
0.0
 30
0.0
  3
*PAPER_SPACE
  1

  0
ENDBLK
  5
1D
330
1B
100
AcDbEntity
 67
     1
  8
0
100
AcDbBlockEnd
  0
BLOCK
  5
276
330
225
100
AcDbEntity
  8
0
100
AcDbBlockBegin
  2
_CLOSED
 70
     0
 10
0.0
 20
0.0
 30
0.0
  3
_CLOSED
  1

  0
LINE
  5
277
330
225
100
AcDbEntity
  8
0
  6
ByBlock
 62
     0
100
AcDbLine
 10
0.0
 20
0.0
 30
0.0
 11
-1.0
 21
0.2
 31
0.0
  0
LINE
  5
278
330
225
100
AcDbEntity
  8
0
  6
ByBlock
 62
     0
100
AcDbLine
 10
-1.0
 20
0.2
 30
0.0
 11
-1.0
 21
-0.2
 31
0.0
  0
LINE
  5
279
330
225
100
AcDbEntity
  8
0
  6
ByBlock
 62
     0
100
AcDbLine
 10
-1.0
 20
-0.2
 30
0.0
 11
0.0
 21
0.0
 31
0.0
  0
LINE
  5
27A
330
225
100
AcDbEntity
  8
0
  6
ByBlock
 62
     0
100
AcDbLine
 10
-1.0
 20
0.0
 30
0.0
 11
0.0
 21
0.0
 31
0.0
  0
ENDBLK
  5
27B
330
225
100
AcDbEntity
  8
0
  6
ByBlock
 62
     0
100
AcDbBlockEnd
  0
BLOCK
  5
27C
330
226
100
AcDbEntity
  8
0
100
AcDbBlockBegin
  2
*D1
 70
     1
 10
0.0
 20
0.0
 30
0.0
  3
*D1
  1

  0
MTEXT
  5
27D
330
226
100
AcDbEntity
  8
0
  6
Continuous
 62
     2
100
AcDbMText
 10
915.7967782665
 20
395.8519411763
 30
0.0
 40
3.0
 41
11.5714285714
 46
0.0
 71
     2
 72
     1
  1
1515
 73
     1
 44
1.0
  0
LINE
  5
27E
330
226
100
AcDbEntity
  8
0
  6
Continuous
 62
     2
100
AcDbLine
 10
1673.0467782665
 20
391.3519411763
 30
0.0
 11
1673.0467782665
 21
393.9421469357
 31
0.0
  0
LINE
  5
27F
330
226
100
AcDbEntity
  8
0
  6
Continuous
 62
     2
100
AcDbLine
 10
158.5467782665
 20
391.3519411763
 30
0.0
 11
158.5467782665
 21
393.9421469357
 31
0.0
  0
LINE
  5
280
330
226
100
AcDbEntity
  8
0
  6
Continuous
 62
     2
100
AcDbLine
 10
1673.0467782665
 20
392.1019411763
 30
0.0
 11
915.7967782665
 21
392.1019411763
 31
0.0
  0
LINE
  5
281
330
226
100
AcDbEntity
  8
0
  6
Continuous
 62
     2
100
AcDbLine
 10
158.5467782665
 20
392.1019411763
 30
0.0
 11
915.7967782665
 21
392.1019411763
 31
0.0
  0
INSERT
  5
282
330
226
100
AcDbEntity
  8
0
  6
Continuous
 62
     2
100
AcDbBlockReference
  2
_CLOSED
 10
1673.0467782665
 20
392.1019411763
 30
0.0
 41
2.5
 42
2.5
 43
2.5
  0
INSERT
  5
283
330
226
100
AcDbEntity
  8
0
  6
Continuous
 62
     2
100
AcDbBlockReference
  2
_CLOSED
 10
158.5467782665
 20
392.1019411763
 30
0.0
 41
2.5
 42
2.5
 43
2.5
 50
180.0
  0
ENDBLK
  5
284
330
226
100
AcDbEntity
  8
0
  6
ByBlock
 62
     0
100
AcDbBlockEnd
  0
BLOCK
  5
285
330
227
100
AcDbEntity
  8
0
100
AcDbBlockBegin
  2
*D2
 70
     1
 10
0.0
 20
0.0
 30
0.0
  3
*D2
  1

  0
MTEXT
  5
286
330
227
100
AcDbEntity
  8
0
  6
Continuous
 62
     2
100
AcDbMText
 10
1690.7475858421
 20
123.008060623
 30
0.0
 40
3.0
 41
7.0714285714
 46
0.0
 71
     2
 72
     1
  1
42
 11
0.0
 21
1.0
 31
0.0
 73
     1
 44
1.0
  0
LINE
  5
287
330
227
100
AcDbEntity
  8
0
  6
Continuous
 62
     2
100
AcDbLine
 10
1681.4853423939
 20
101.808060623
 30
0.0
 11
1695.2475858421
 21
101.808060623
 31
0.0
  0
LINE
  5
288
330
227
100
AcDbEntity
  8
0
  6
Continuous
 62
     2
100
AcDbLine
 10
1681.4853423939
 20
144.208060623
 30
0.0
 11
1695.2475858421
 21
144.208060623
 31
0.0
  0
LINE
  5
289
330
227
100
AcDbEntity
  8
0
  6
Continuous
 62
     2
100
AcDbLine
 10
1694.4975858421
 20
101.808060623
 30
0.0
 11
1694.4975858421
 21
123.008060623
 31
0.0
  0
LINE
  5
28A
330
227
100
AcDbEntity
  8
0
  6
Continuous
 62
     2
100
AcDbLine
 10
1694.4975858421
 20
144.208060623
 30
0.0
 11
1694.4975858421
 21
123.008060623
 31
0.0
  0
INSERT
  5
28B
330
227
100
AcDbEntity
  8
0
  6
Continuous
 62
     2
100
AcDbBlockReference
  2
_CLOSED
 10
1694.4975858421
 20
101.808060623
 30
0.0
 41
2.5
 42
2.5
 43
2.5
 50
270.0
  0
INSERT
  5
28C
330
227
100
AcDbEntity
  8
0
  6
Continuous
 62
     2
100
AcDbBlockReference
  2
_CLOSED
 10
1694.4975858421
 20
144.208060623
 30
0.0
 41
2.5
 42
2.5
 43
2.5
 50
90.0
  0
ENDBLK
  5
28D
330
227
100
AcDbEntity
  8
0
  6
ByBlock
 62
     0
100
AcDbBlockEnd
  0
BLOCK
  5
28E
330
228
100
AcDbEntity
  8
0
100
AcDbBlockBegin
  2
*D3
 70
     1
 10
0.0
 20
0.0
 30
0.0
  3
*D3
  1

  0
MTEXT
  5
28F
330
228
100
AcDbEntity
  8
0
  6
Continuous
 62
     2
100
AcDbMText
 10
1894.504455367
 20
335.6620814865
 30
0.0
 40
3.0
 41
7.0714285714
 46
0.0
 71
     2
 72
     1
  1
84
 11
0.0
 21
1.0
 31
0.0
 73
     1
 44
1.0
  0
LINE
  5
290
330
228
100
AcDbEntity
  8
0
  6
Continuous
 62
     2
100
AcDbLine
 10
1897.504455367
 20
377.4120814865
 30
0.0
 11
1899.8285973953
 21
377.4120814865
 31
0.0
  0
LINE
  5
291
330
228
100
AcDbEntity
  8
0
  6
Continuous
 62
     2
100
AcDbLine
 10
1897.504455367
 20
293.9120814865
 30
0.0
 11
1899.8285973953
 21
293.9120814865
 31
0.0
  0
LINE
  5
292
330
228
100
AcDbEntity
  8
0
  6
Continuous
 62
     2
100
AcDbLine
 10
1898.254455367
 20
377.4120814865
 30
0.0
 11
1898.254455367
 21
335.6620814865
 31
0.0
  0
LINE
  5
293
330
228
100
AcDbEntity
  8
0
  6
Continuous
 62
     2
100
AcDbLine
 10
1898.254455367
 20
293.9120814865
 30
0.0
 11
1898.254455367
 21
335.6620814865
 31
0.0
  0
INSERT
  5
294
330
228
100
AcDbEntity
  8
0
  6
Continuous
 62
     2
100
AcDbBlockReference
  2
_CLOSED
 10
1898.254455367
 20
377.4120814865
 30
0.0
 41
2.5
 42
2.5
 43
2.5
 50
90.0
  0
INSERT
  5
295
330
228
100
AcDbEntity
  8
0
  6
Continuous
 62
     2
100
AcDbBlockReference
  2
_CLOSED
 10
1898.254455367
 20
293.9120814865
 30
0.0
 41
2.5
 42
2.5
 43
2.5
 50
270.0
  0
ENDBLK
  5
296
330
228
100
AcDbEntity
  8
0
  6
ByBlock
 62
     0
100
AcDbBlockEnd
  0
BLOCK
  5
297
330
229
100
AcDbEntity
  8
0
100
AcDbBlockBegin
  2
*D4
 70
     1
 10
0.0
 20
0.0
 30
0.0
  3
*D4
  1

  0
MTEXT
  5
298
330
229
100
AcDbEntity
  8
0
  6
Continuous
 62
     2
100
AcDbMText
 10
1699.9135218533
 20
123.008060623
 30
0.0
 40
3.0
 41
11.8928571429
 46
0.0
 71
     2
 72
     1
  1
93,1
 11
0.0
 21
1.0
 31
0.0
 73
     1
 44
1.0
  0
LINE
  5
299
330
229
100
AcDbEntity
  8
0
  6
Continuous
 62
     2
100
AcDbLine
 10
1681.4853423939
 20
76.458060623
 30
0.0
 11
1704.4135218533
 21
76.458060623
 31
0.0
  0
LINE
  5
29A
330
229
100
AcDbEntity
  8
0
  6
Continuous
 62
     2
100
AcDbLine
 10
1679.938010699
 20
169.558060623
 30
0.0
 11
1704.4135218533
 21
169.558060623
 31
0.0
  0
LINE
  5
29B
330
229
100
AcDbEntity
  8
0
  6
Continuous
 62
     2
100
AcDbLine
 10
1703.6635218533
 20
76.458060623
 30
0.0
 11
1703.6635218533
 21
123.008060623
 31
0.0
  0
LINE
  5
29C
330
229
100
AcDbEntity
  8
0
  6
Continuous
 62
     2
100
AcDbLine
 10
1703.6635218533
 20
169.558060623
 30
0.0
 11
1703.6635218533
 21
123.008060623
 31
0.0
  0
INSERT
  5
29D
330
229
100
AcDbEntity
  8
0
  6
Continuous
 62
     2
100
AcDbBlockReference
  2
_CLOSED
 10
1703.6635218533
 20
76.458060623
 30
0.0
 41
2.5
 42
2.5
 43
2.5
 50
270.0
  0
INSERT
  5
29E
330
229
100
AcDbEntity
  8
0
  6
Continuous
 62
     2
100
AcDbBlockReference
  2
_CLOSED
 10
1703.6635218533
 20
169.558060623
 30
0.0
 41
2.5
 42
2.5
 43
2.5
 50
90.0
  0
ENDBLK
  5
29F
330
229
100
AcDbEntity
  8
0
  6
ByBlock
 62
     0
100
AcDbBlockEnd
  0
BLOCK
  5
230
330
22A
100
AcDbEntity
  8
0
100
AcDbBlockBegin
  2
LOGO2_BL1
 70
     0
 10
1871.9346429522
 20
38.7135775138
 30
0.0
  3
LOGO2_BL1
  1

  0
LINE
  5
231
330
22A
100
AcDbEntity
  8
0
  6
Continuous
 62
     7
100
AcDbLine
 10
1863.6775681804
 20
41.9090688527
 30
0.0
 11
1862.3732272511
 21
41.9090688527
 31
0.0
  0
LINE
  5
232
330
22A
100
AcDbEntity
  8
0
  6
Continuous
 62
     7
100
AcDbLine
 10
1862.3732272511
 20
41.9090688527
 30
0.0
 11
1862.3732272511
 21
31.4500027928
 31
0.0
  0
LINE
  5
233
330
22A
100
AcDbEntity
  8
0
  6
Continuous
 62
     7
100
AcDbLine
 10
1862.3732272511
 20
31.4500027928
 30
0.0
 11
1866.8542821393
 21
31.4500027928
 31
0.0
  0
LINE
  5
234
330
22A
100
AcDbEntity
  8
0
  6
Continuous
 62
     7
100
AcDbLine
 10
1866.8542821393
 20
31.4500027928
 30
0.0
 11
1866.8542821393
 21
32.6428571179
 31
0.0
  0
LINE
  5
235
330
22A
100
AcDbEntity
  8
0
  6
Continuous
 62
     7
100
AcDbLine
 10
1866.8542821393
 20
32.6428571179
 30
0.0
 11
1863.6775681804
 21
32.6428571179
 31
0.0
  0
LINE
  5
236
330
22A
100
AcDbEntity
  8
0
  6
Continuous
 62
     7
100
AcDbLine
 10
1863.6775681804
 20
32.6428571179
 30
0.0
 11
1863.6775681804
 21
41.9090688527
 31
0.0
  0
LINE
  5
237
330
22A
100
AcDbEntity
  8
0
  6
Continuous
 62
     7
100
AcDbLine
 10
1878.6138943967
 20
41.9090688527
 30
0.0
 11
1877.3100768787
 21
41.9090688527
 31
0.0
  0
LINE
  5
238
330
22A
100
AcDbEntity
  8
0
  6
Continuous
 62
     7
100
AcDbLine
 10
1877.3100768787
 20
41.9090688527
 30
0.0
 11
1877.3100768787
 21
31.4500027928
 31
0.0
  0
LINE
  5
239
330
22A
100
AcDbEntity
  8
0
  6
Continuous
 62
     7
100
AcDbLine
 10
1877.3100768787
 20
31.4500027928
 30
0.0
 11
1881.7912626198
 21
31.4500027928
 31
0.0
  0
LINE
  5
23A
330
22A
100
AcDbEntity
  8
0
  6
Continuous
 62
     7
100
AcDbLine
 10
1881.7912626198
 20
31.4500027928
 30
0.0
 11
1881.7912626198
 21
32.6428571179
 31
0.0
  0
LINE
  5
23B
330
22A
100
AcDbEntity
  8
0
  6
Continuous
 62
     7
100
AcDbLine
 10
1881.7912626198
 20
32.6428571179
 30
0.0
 11
1878.6138943967
 21
32.6428571179
 31
0.0
  0
LINE
  5
23C
330
22A
100
AcDbEntity
  8
0
  6
Continuous
 62
     7
100
AcDbLine
 10
1878.6138943967
 20
32.6428571179
 30
0.0
 11
1878.6138943967
 21
41.9090688527
 31
0.0
  0
LWPOLYLINE
  5
23D
330
22A
100
AcDbEntity
  8
0
  6
Continuous
 62
     7
100
AcDbPolyline
 90
        2
 70
     0
 43
0.2
 10
1860.727622162
 20
28.1064514859
 10
1860.727622162
 20
26.2493882365
  0
LWPOLYLINE
  5
23E
330
22A
100
AcDbEntity
  8
0
  6
Continuous
 62
     7
100
AcDbPolyline
 90
        2
 70
     0
 43
0.2
 10
1860.727622162
 20
26.2493882365
 10
1861.5233381724
 20
26.2493882365
  0
LWPOLYLINE
  5
23F
330
22A
100
AcDbEntity
  8
0
  6
Continuous
 62
     7
100
AcDbPolyline
 90
        2
 70
     0
 43
0.2
 10
1861.5233381724
 20
26.2493882365
 10
1861.5233381724
 20
26.4613698081
  0
LWPOLYLINE
  5
240
330
22A
100
AcDbEntity
  8
0
  6
Continuous
 62
     7
100
AcDbPolyline
 90
        2
 70
     0
 43
0.2
 10
1861.5233381724
 20
26.4613698081
 10
1860.9592316569
 20
26.4613698081
  0
LWPOLYLINE
  5
241
330
22A
100
AcDbEntity
  8
0
  6
Continuous
 62
     7
100
AcDbPolyline
 90
        2
 70
     0
 43
0.2
 10
1860.9592316569
 20
26.4613698081
 10
1860.9592316569
 20
28.1064514859
  0
LWPOLYLINE
  5
242
330
22A
100
AcDbEntity
  8
0
  6
Continuous
 62
     7
100
AcDbPolyline
 90
        2
 70
     0
 43
0.2
 10
1860.9592316569
 20
28.1064514859
 10
1860.727622162
 20
28.1064514859
  0
SPLINE
  5
243
330
22A
100
AcDbEntity
  8
0
  6
Continuous
 62
     7
100
AcDbSpline
 70
     3
 71
     3
 72
    35
 73
    31
 74
     0
 42
0.000000001
 43
0.0000001
 40
0.0
 40
0.0
 40
0.0
 40
0.0
 40
1.0
 40
1.0
 40
1.0
 40
2.0
 40
2.0
 40
2.0
 40
3.0
 40
3.0
 40
3.0
 40
4.0
 40
4.0
 40
4.0
 40
5.0
 40
5.0
 40
5.0
 40
6.0
 40
6.0
 40
6.0
 40
7.0
 40
7.0
 40
7.0
 40
8.0
 40
8.0
 40
8.0
 40
9.0
 40
9.0
 40
9.0
 40
10.0
 40
10.0
 40
10.0
 40
10.0
 10
1862.9216314279
 20
27.4019398924
 30
0.0
 10
1862.9216314279
 20
27.4019398924
 30
0.0
 10
1862.9216314279
 20
26.7398246133
 30
0.0
 10
1862.9216314279
 20
26.7398246133
 30
0.0
 10
1862.9216314279
 20
26.424731018
 30
0.0
 10
1863.0694951168
 20
26.2101323899
 30
0.0
 10
1863.409581601
 20
26.2101323899
 30
0.0
 10
1863.7491446741
 20
26.2101323899
 30
0.0
 10
1863.8972700685
 20
26.424731018
 30
0.0
 10
1863.8972700685
 20
26.7398246133
 30
0.0
 10
1863.8972700685
 20
26.7398246133
 30
0.0
 10
1863.8972700685
 20
27.4019398924
 30
0.0
 10
1863.8972700685
 20
27.4019398924
 30
0.0
 10
1863.8972700685
 20
27.4019398924
 30
0.0
 10
1863.6752128296
 20
27.4019398924
 30
0.0
 10
1863.6752128296
 20
27.4019398924
 30
0.0
 10
1863.6752128296
 20
27.4019398924
 30
0.0
 10
1863.6752128296
 20
26.7649483551
 30
0.0
 10
1863.6752128296
 20
26.7649483551
 30
0.0
 10
1863.6752128296
 20
26.5791373479
 30
0.0
 10
1863.6284983722
 20
26.4163564374
 30
0.0
 10
1863.409581601
 20
26.4163564374
 30
0.0
 10
1863.1901414186
 20
26.4163564374
 30
0.0
 10
1863.1434269612
 20
26.5791373479
 30
0.0
 10
1863.1434269612
 20
26.7649483551
 30
0.0
 10
1863.1434269612
 20
26.7649483551
 30
0.0
 10
1863.1434269612
 20
27.4019398924
 30
0.0
 10
1863.1434269612
 20
27.4019398924
 30
0.0
 10
1863.1434269612
 20
27.4019398924
 30
0.0
 10
1862.9216314279
 20
27.4019398924
 30
0.0
 10
1862.9216314279
 20
27.4019398924
 30
0.0
  0
SPLINE
  5
244
330
22A
100
AcDbEntity
  8
0
  6
Continuous
 62
     7
100
AcDbSpline
 70
     3
 71
     3
 72
    35
 73
    31
 74
     0
 42
0.000000001
 43
0.0000001
 40
0.0
 40
0.0
 40
0.0
 40
0.0
 40
1.0
 40
1.0
 40
1.0
 40
2.0
 40
2.0
 40
2.0
 40
3.0
 40
3.0
 40
3.0
 40
4.0
 40
4.0
 40
4.0
 40
5.0
 40
5.0
 40
5.0
 40
6.0
 40
6.0
 40
6.0
 40
7.0
 40
7.0
 40
7.0
 40
8.0
 40
8.0
 40
8.0
 40
9.0
 40
9.0
 40
9.0
 40
10.0
 40
10.0
 40
10.0
 40
10.0
 10
1866.3204026257
 20
27.3605904007
 30
0.0
 10
1866.2319461181
 20
27.4118847069
 30
0.0
 10
1866.1184967214
 20
27.4370084487
 30
0.0
 10
1866.0148612864
 20
27.4370084487
 30
0.0
 10
1865.6599884332
 20
27.4370084487
 30
0.0
 10
1865.384543243
 20
27.1732091596
 30
0.0
 10
1865.384543243
 20
26.81571925
 30
0.0
 10
1865.384543243
 20
26.4707912113
 30
0.0
 10
1865.6629980482
 20
26.2106558012
 30
0.0
 10
1866.0025611212
 20
26.2106558012
 30
0.0
 10
1866.1184967214
 20
26.2106558012
 30
0.0
 10
1866.2192533943
 20
26.2326390753
 30
0.0
 10
1866.3204026257
 20
26.286550438
 30
0.0
 10
1866.3204026257
 20
26.286550438
 30
0.0
 10
1866.3204026257
 20
26.5691925334
 30
0.0
 10
1866.3204026257
 20
26.5691925334
 30
0.0
 10
1866.2365259668
 20
26.4760253242
 30
0.0
 10
1866.1330213847
 20
26.4168798487
 30
0.0
 10
1866.004916472
 20
26.4168798487
 30
0.0
 10
1865.7712133319
 20
26.4168798487
 30
0.0
 10
1865.6059462178
 20
26.5890821624
 30
0.0
 10
1865.6059462178
 20
26.8256640645
 30
0.0
 10
1865.6059462178
 20
27.0376456361
 30
0.0
 10
1865.7736995355
 20
27.2297375787
 30
0.0
 10
1865.9905226615
 20
27.2297375787
 30
0.0
 10
1866.1233382758
 20
27.2297375787
 30
0.0
 10
1866.2319461181
 20
27.1758262161
 30
0.0
 10
1866.3204026257
 20
27.0748078375
 30
0.0
 10
1866.3204026257
 20
27.0748078375
 30
0.0
 10
1866.3204026257
 20
27.3605904007
 30
0.0
 10
1866.3204026257
 20
27.3605904007
 30
0.0
  0
SPLINE
  5
245
330
22A
100
AcDbEntity
  8
0
  6
Continuous
 62
     7
100
AcDbSpline
 70
     3
 71
     3
 72
    32
 73
    28
 74
     0
 42
0.000000001
 43
0.0000001
 40
0.0
 40
0.0
 40
0.0
 40
0.0
 40
1.0
 40
1.0
 40
1.0
 40
2.0
 40
2.0
 40
2.0
 40
3.0
 40
3.0
 40
3.0
 40
4.0
 40
4.0
 40
4.0
 40
5.0
 40
5.0
 40
5.0
 40
6.0
 40
6.0
 40
6.0
 40
7.0
 40
7.0
 40
7.0
 40
8.0
 40
8.0
 40
8.0
 40
9.0
 40
9.0
 40
9.0
 40
9.0
 10
1868.852273878
 20
26.7890252743
 30
0.0
 10
1868.852273878
 20
26.7890252743
 30
0.0
 10
1868.852273878
 20
26.823047008
 30
0.0
 10
1868.852273878
 20
26.823047008
 30
0.0
 10
1868.852273878
 20
27.1653579903
 30
0.0
 10
1868.6794173001
 20
27.4370084487
 30
0.0
 10
1868.312767693
 20
27.4370084487
 30
0.0
 10
1867.9411456786
 20
27.4370084487
 30
0.0
 10
1867.7514090868
 20
27.1705921032
 30
0.0
 10
1867.7514090868
 20
26.81571925
 30
0.0
 10
1867.7514090868
 20
26.4760253242
 30
0.0
 10
1867.9654843035
 20
26.2101323899
 30
0.0
 10
1868.3176092474
 20
26.2101323899
 30
0.0
 10
1868.5416292786
 20
26.2101323899
 30
0.0
 10
1868.7437968886
 20
26.3258062846
 30
0.0
 10
1868.852273878
 20
26.5252259852
 30
0.0
 10
1868.852273878
 20
26.5252259852
 30
0.0
 10
1868.6646309313
 20
26.632001888
 30
0.0
 10
1868.6646309313
 20
26.632001888
 30
0.0
 10
1868.5811468308
 20
26.4932978967
 30
0.0
 10
1868.4899424139
 20
26.4074584455
 30
0.0
 10
1868.3203571567
 20
26.4074584455
 30
0.0
 10
1868.1083755851
 20
26.4074584455
 30
0.0
 10
1867.975429118
 20
26.5922226301
 30
0.0
 10
1867.9730737672
 20
26.7890252743
 30
0.0
 10
1867.9730737672
 20
26.7890252743
 30
0.0
 10
1868.852273878
 20
26.7890252743
 30
0.0
 10
1868.852273878
 20
26.7890252743
 30
0.0
  0
SPLINE
  5
246
330
22A
100
AcDbEntity
  8
0
  6
Continuous
 62
     7
100
AcDbSpline
 70
     3
 71
     3
 72
    14
 73
    10
 74
     0
 42
0.000000001
 43
0.0000001
 40
0.0
 40
0.0
 40
0.0
 40
0.0
 40
1.0
 40
1.0
 40
1.0
 40
2.0
 40
2.0
 40
2.0
 40
3.0
 40
3.0
 40
3.0
 40
3.0
 10
1867.9851122268
 20
26.9565168864
 30
0.0
 10
1868.0127221722
 20
27.1213914421
 30
0.0
 10
1868.1405653793
 20
27.2443930948
 30
0.0
 10
1868.312767693
 20
27.2443930948
 30
0.0
 10
1868.4899424139
 20
27.2443930948
 30
0.0
 10
1868.6033918106
 20
27.1287192002
 30
0.0
 10
1868.6306091976
 20
26.9565168864
 30
0.0
 10
1868.6306091976
 20
26.9565168864
 30
0.0
 10
1867.9851122268
 20
26.9565168864
 30
0.0
 10
1867.9851122268
 20
26.9565168864
 30
0.0
  0
SPLINE
  5
247
330
22A
100
AcDbEntity
  8
0
  6
Continuous
 62
     7
100
AcDbSpline
 70
     3
 71
     3
 72
    20
 73
    16
 74
     0
 42
0.000000001
 43
0.0000001
 40
0.0
 40
0.0
 40
0.0
 40
0.0
 40
1.0
 40
1.0
 40
1.0
 40
2.0
 40
2.0
 40
2.0
 40
3.0
 40
3.0
 40
3.0
 40
4.0
 40
4.0
 40
4.0
 40
5.0
 40
5.0
 40
5.0
 40
5.0
 10
1870.8763053282
 20
27.1658814016
 30
0.0
 10
1870.8763053282
 20
27.1658814016
 30
0.0
 10
1871.2874448948
 20
26.6634065652
 30
0.0
 10
1871.2874448948
 20
26.6634065652
 30
0.0
 10
1871.1713784417
 20
26.5477326706
 30
0.0
 10
1871.0335904202
 20
26.4174032599
 30
0.0
 10
1870.8616498121
 20
26.4174032599
 30
0.0
 10
1870.6842133855
 20
26.4174032599
 30
0.0
 10
1870.5167217734
 20
26.5817544043
 30
0.0
 10
1870.5167217734
 20
26.7586674196
 30
0.0
 10
1870.5167217734
 20
26.9366272575
 30
0.0
 10
1870.726478847
 20
27.0627693779
 30
0.0
 10
1870.8540603484
 20
27.1507024742
 30
0.0
 10
1870.8540603484
 20
27.1507024742
 30
0.0
 10
1870.8763053282
 20
27.1658814016
 30
0.0
 10
1870.8763053282
 20
27.1658814016
 30
0.0
  0
SPLINE
  5
248
330
22A
100
AcDbEntity
  8
0
  6
Continuous
 62
     7
100
AcDbSpline
 70
     3
 71
     3
 72
    23
 73
    19
 74
     0
 42
0.000000001
 43
0.0000001
 40
0.0
 40
0.0
 40
0.0
 40
0.0
 40
1.0
 40
1.0
 40
1.0
 40
2.0
 40
2.0
 40
2.0
 40
3.0
 40
3.0
 40
3.0
 40
4.0
 40
4.0
 40
4.0
 40
5.0
 40
5.0
 40
5.0
 40
6.0
 40
6.0
 40
6.0
 40
6.0
 10
1870.925636842
 20
27.4568980776
 30
0.0
 10
1870.925636842
 20
27.4568980776
 30
0.0
 10
1870.8640051629
 20
27.5354097708
 30
0.0
 10
1870.8640051629
 20
27.5354097708
 30
0.0
 10
1870.8100938002
 20
27.6039766495
 30
0.0
 10
1870.7533036755
 20
27.6730669395
 30
0.0
 10
1870.7533036755
 20
27.7667575601
 30
0.0
 10
1870.7533036755
 20
27.8855719224
 30
0.0
 10
1870.849218794
 20
27.963036793
 30
0.0
 10
1870.960181987
 20
27.963036793
 30
0.0
 10
1871.0834453453
 20
27.963036793
 30
0.0
 10
1871.1767434074
 20
27.8918528579
 30
0.0
 10
1871.1767434074
 20
27.7615234472
 30
0.0
 10
1871.1767434074
 20
27.6264833349
 30
0.0
 10
1871.0486384947
 20
27.5500652869
 30
0.0
 10
1870.955078727
 20
27.4762642953
 30
0.0
 10
1870.955078727
 20
27.4762642953
 30
0.0
 10
1870.925636842
 20
27.4568980776
 30
0.0
 10
1870.925636842
 20
27.4568980776
 30
0.0
  0
SPLINE
  5
249
330
22A
100
AcDbEntity
  8
0
  6
Continuous
 62
     7
100
AcDbSpline
 70
     3
 71
     3
 72
    50
 73
    46
 74
     0
 42
0.000000001
 43
0.0000001
 40
0.0
 40
0.0
 40
0.0
 40
0.0
 40
1.0
 40
1.0
 40
1.0
 40
2.0
 40
2.0
 40
2.0
 40
3.0
 40
3.0
 40
3.0
 40
4.0
 40
4.0
 40
4.0
 40
5.0
 40
5.0
 40
5.0
 40
6.0
 40
6.0
 40
6.0
 40
7.0
 40
7.0
 40
7.0
 40
8.0
 40
8.0
 40
8.0
 40
9.0
 40
9.0
 40
9.0
 40
10.0
 40
10.0
 40
10.0
 40
11.0
 40
11.0
 40
11.0
 40
12.0
 40
12.0
 40
12.0
 40
13.0
 40
13.0
 40
13.0
 40
14.0
 40
14.0
 40
14.0
 40
15.0
 40
15.0
 40
15.0
 40
15.0
 10
1871.6277930847
 20
26.2499116478
 30
0.0
 10
1871.6277930847
 20
26.2499116478
 30
0.0
 10
1871.9131830894
 20
26.2499116478
 30
0.0
 10
1871.9131830894
 20
26.2499116478
 30
0.0
 10
1871.9131830894
 20
26.2499116478
 30
0.0
 10
1871.5808169216
 20
26.6607895088
 30
0.0
 10
1871.5808169216
 20
26.6607895088
 30
0.0
 10
1871.5808169216
 20
26.6607895088
 30
0.0
 10
1871.8073231565
 20
26.926682443
 30
0.0
 10
1871.8073231565
 20
26.926682443
 30
0.0
 10
1871.8073231565
 20
26.926682443
 30
0.0
 10
1871.6590669092
 20
27.0795185391
 30
0.0
 10
1871.6590669092
 20
27.0795185391
 30
0.0
 10
1871.6590669092
 20
27.0795185391
 30
0.0
 10
1871.4431597529
 20
26.8282811209
 30
0.0
 10
1871.4431597529
 20
26.8282811209
 30
0.0
 10
1871.4431597529
 20
26.8282811209
 30
0.0
 10
1871.0560971055
 20
27.2962108123
 30
0.0
 10
1871.0560971055
 20
27.2962108123
 30
0.0
 10
1871.211550258
 20
27.410314473
 30
0.0
 10
1871.393828239
 20
27.5500652869
 30
0.0
 10
1871.393828239
 20
27.759429802
 30
0.0
 10
1871.393828239
 20
28.0033394622
 30
0.0
 10
1871.1917914819
 20
28.1467541551
 30
0.0
 10
1870.9652852471
 20
28.1467541551
 30
0.0
 10
1870.7211138813
 20
28.1467541551
 30
0.0
 10
1870.5367422552
 20
27.9960117042
 30
0.0
 10
1870.5367422552
 20
27.7395401731
 30
0.0
 10
1870.5367422552
 20
27.5819933754
 30
0.0
 10
1870.6354052829
 20
27.4443362067
 30
0.0
 10
1870.7407418046
 20
27.3333730137
 30
0.0
 10
1870.7407418046
 20
27.3333730137
 30
0.0
 10
1870.6251987628
 20
27.2496272077
 30
0.0
 10
1870.6251987628
 20
27.2496272077
 30
0.0
 10
1870.4475006306
 20
27.1213914421
 30
0.0
 10
1870.300160353
 20
26.9936790879
 30
0.0
 10
1870.300160353
 20
26.7565737745
 30
0.0
 10
1870.300160353
 20
26.4362460663
 30
0.0
 10
1870.5587255292
 20
26.2101323899
 30
0.0
 10
1870.869108423
 20
26.2101323899
 30
0.0
 10
1871.0880251941
 20
26.2101323899
 30
0.0
 10
1871.2852203968
 20
26.3352276877
 30
0.0
 10
1871.425494622
 20
26.501149066
 30
0.0
 10
1871.425494622
 20
26.501149066
 30
0.0
 10
1871.6277930847
 20
26.2499116478
 30
0.0
 10
1871.6277930847
 20
26.2499116478
 30
0.0
  0
LWPOLYLINE
  5
24A
330
22A
100
AcDbEntity
  8
0
  6
Continuous
 62
     7
100
AcDbPolyline
 90
        2
 70
     0
 43
0.2
 10
1873.5632371744
 20
28.1064514859
 10
1873.3318893852
 20
28.1064514859
  0
LWPOLYLINE
  5
24B
330
22A
100
AcDbEntity
  8
0
  6
Continuous
 62
     7
100
AcDbPolyline
 90
        2
 70
     0
 43
0.2
 10
1873.3318893852
 20
28.1064514859
 10
1873.3318893852
 20
26.2493882365
  0
LWPOLYLINE
  5
24C
330
22A
100
AcDbEntity
  8
0
  6
Continuous
 62
     7
100
AcDbPolyline
 90
        2
 70
     0
 43
0.2
 10
1873.3318893852
 20
26.2493882365
 10
1874.1272128371
 20
26.2493882365
  0
LWPOLYLINE
  5
24D
330
22A
100
AcDbEntity
  8
0
  6
Continuous
 62
     7
100
AcDbPolyline
 90
        2
 70
     0
 43
0.2
 10
1874.1272128371
 20
26.2493882365
 10
1874.1272128371
 20
26.4613698081
  0
LWPOLYLINE
  5
24E
330
22A
100
AcDbEntity
  8
0
  6
Continuous
 62
     7
100
AcDbPolyline
 90
        2
 70
     0
 43
0.2
 10
1874.1272128371
 20
26.4613698081
 10
1873.5632371744
 20
26.4613698081
  0
LWPOLYLINE
  5
24F
330
22A
100
AcDbEntity
  8
0
  6
Continuous
 62
     7
100
AcDbPolyline
 90
        2
 70
     0
 43
0.2
 10
1873.5632371744
 20
26.4613698081
 10
1873.5632371744
 20
28.1064514859
  0
LWPOLYLINE
  5
250
330
22A
100
AcDbEntity
  8
0
  6
Continuous
 62
     7
100
AcDbPolyline
 90
        2
 70
     0
 43
0.2
 10
1875.8063162486
 20
27.4019398924
 10
1875.5851749795
 20
27.4019398924
  0
LWPOLYLINE
  5
251
330
22A
100
AcDbEntity
  8
0
  6
Continuous
 62
     7
100
AcDbPolyline
 90
        2
 70
     0
 43
0.2
 10
1875.5851749795
 20
27.4019398924
 10
1875.5851749795
 20
26.2499116478
  0
LWPOLYLINE
  5
252
330
22A
100
AcDbEntity
  8
0
  6
Continuous
 62
     7
100
AcDbPolyline
 90
        2
 70
     0
 43
0.2
 10
1875.5851749795
 20
26.2499116478
 10
1875.8063162486
 20
26.2499116478
  0
LWPOLYLINE
  5
253
330
22A
100
AcDbEntity
  8
0
  6
Continuous
 62
     7
100
AcDbPolyline
 90
        2
 70
     0
 43
0.2
 10
1875.8063162486
 20
26.2499116478
 10
1875.8063162486
 20
27.4019398924
  0
LWPOLYLINE
  5
254
330
22A
100
AcDbEntity
  8
0
  6
Continuous
 62
     7
100
AcDbPolyline
 90
        2
 70
     1
 43
0.2
 10
1875.5432929714
 20
27.9318938214
 42
1.0
 10
1875.8484599623
 20
27.9318938214
 42
1.0
  0
SPLINE
  5
255
330
22A
100
AcDbEntity
  8
0
  6
Continuous
 62
     7
100
AcDbSpline
 70
     3
 71
     3
 72
    17
 73
    13
 74
     0
 42
0.000000001
 43
0.0000001
 40
0.0
 40
0.0
 40
0.0
 40
0.0
 40
1.0
 40
1.0
 40
1.0
 40
2.0
 40
2.0
 40
2.0
 40
3.0
 40
3.0
 40
3.0
 40
4.0
 40
4.0
 40
4.0
 40
4.0
 10
1877.9366001902
 20
26.4074584455
 30
0.0
 10
1877.7026353446
 20
26.4074584455
 30
0.0
 10
1877.5723059339
 20
26.6094952026
 30
0.0
 10
1877.5723059339
 20
26.8256640645
 30
0.0
 10
1877.5723059339
 20
27.0402626925
 30
0.0
 10
1877.7081311631
 20
27.2391589819
 30
0.0
 10
1877.9366001902
 20
27.2391589819
 30
0.0
 10
1878.1760608544
 20
27.2391589819
 30
0.0
 10
1878.311624378
 20
27.050207507
 30
0.0
 10
1878.311624378
 20
26.8256640645
 30
0.0
 10
1878.311624378
 20
26.5995503881
 30
0.0
 10
1878.1784162052
 20
26.4074584455
 30
0.0
 10
1877.9366001902
 20
26.4074584455
 30
0.0
  0
SPLINE
  5
256
330
22A
100
AcDbEntity
  8
0
  6
Continuous
 62
     7
100
AcDbSpline
 70
     3
 71
     3
 72
    50
 73
    46
 74
     0
 42
0.000000001
 43
0.0000001
 40
0.0
 40
0.0
 40
0.0
 40
0.0
 40
1.0
 40
1.0
 40
1.0
 40
2.0
 40
2.0
 40
2.0
 40
3.0
 40
3.0
 40
3.0
 40
4.0
 40
4.0
 40
4.0
 40
5.0
 40
5.0
 40
5.0
 40
6.0
 40
6.0
 40
6.0
 40
7.0
 40
7.0
 40
7.0
 40
8.0
 40
8.0
 40
8.0
 40
9.0
 40
9.0
 40
9.0
 40
10.0
 40
10.0
 40
10.0
 40
11.0
 40
11.0
 40
11.0
 40
12.0
 40
12.0
 40
12.0
 40
13.0
 40
13.0
 40
13.0
 40
14.0
 40
14.0
 40
14.0
 40
15.0
 40
15.0
 40
15.0
 40
15.0
 10
1878.5207271875
 20
27.4024633037
 30
0.0
 10
1878.5207271875
 20
27.4024633037
 30
0.0
 10
1878.2990625071
 20
27.4024633037
 30
0.0
 10
1878.2990625071
 20
27.4024633037
 30
0.0
 10
1878.2990625071
 20
27.4024633037
 30
0.0
 10
1878.2990625071
 20
27.2051372482
 30
0.0
 10
1878.2990625071
 20
27.2051372482
 30
0.0
 10
1878.2990625071
 20
27.2051372482
 30
0.0
 10
1878.2943518055
 20
27.2051372482
 30
0.0
 10
1878.2943518055
 20
27.2051372482
 30
0.0
 10
1878.2030165358
 20
27.3480285298
 30
0.0
 10
1878.0650976614
 20
27.4364850374
 30
0.0
 10
1877.8923719364
 20
27.4364850374
 30
0.0
 10
1877.5600057686
 20
27.4364850374
 30
0.0
 10
1877.3509029591
 20
27.1486088291
 30
0.0
 10
1877.3509029591
 20
26.8329918225
 30
0.0
 10
1877.3509029591
 20
26.5032427111
 30
0.0
 10
1877.547967309
 20
26.2101323899
 30
0.0
 10
1877.9028401622
 20
26.2101323899
 30
0.0
 10
1878.0650976614
 20
26.2101323899
 30
0.0
 10
1878.2051101809
 20
26.2985888976
 30
0.0
 10
1878.2943518055
 20
26.4294417196
 30
0.0
 10
1878.2943518055
 20
26.4294417196
 30
0.0
 10
1878.2990625071
 20
26.4294417196
 30
0.0
 10
1878.2990625071
 20
26.4294417196
 30
0.0
 10
1878.2990625071
 20
26.4294417196
 30
0.0
 10
1878.2990625071
 20
26.2101323899
 30
0.0
 10
1878.2990625071
 20
26.2101323899
 30
0.0
 10
1878.2990625071
 20
25.9735504878
 30
0.0
 10
1878.242534088
 20
25.7866926581
 30
0.0
 10
1877.9693133957
 20
25.7866926581
 30
0.0
 10
1877.767014933
 20
25.7866926581
 30
0.0
 10
1877.624385357
 20
25.9049836091
 30
0.0
 10
1877.624385357
 20
26.1112076565
 30
0.0
 10
1877.624385357
 20
26.1112076565
 30
0.0
 10
1877.4027206766
 20
26.1112076565
 30
0.0
 10
1877.4027206766
 20
26.1112076565
 30
0.0
 10
1877.4076930838
 20
25.7866926581
 30
0.0
 10
1877.6387791674
 20
25.5898900138
 30
0.0
 10
1877.9591068756
 20
25.5898900138
 30
0.0
 10
1878.407146938
 20
25.5898900138
 30
0.0
 10
1878.5207271875
 20
25.8751491657
 30
0.0
 10
1878.5207271875
 20
26.2718949219
 30
0.0
 10
1878.5207271875
 20
26.2718949219
 30
0.0
 10
1878.5207271875
 20
27.4024633037
 30
0.0
 10
1878.5207271875
 20
27.4024633037
 30
0.0
  0
SPLINE
  5
257
330
22A
100
AcDbEntity
  8
0
  6
Continuous
 62
     7
100
AcDbSpline
 70
     3
 71
     3
 72
    44
 73
    40
 74
     0
 42
0.000000001
 43
0.0000001
 40
0.0
 40
0.0
 40
0.0
 40
0.0
 40
1.0
 40
1.0
 40
1.0
 40
2.0
 40
2.0
 40
2.0
 40
3.0
 40
3.0
 40
3.0
 40
4.0
 40
4.0
 40
4.0
 40
5.0
 40
5.0
 40
5.0
 40
6.0
 40
6.0
 40
6.0
 40
7.0
 40
7.0
 40
7.0
 40
8.0
 40
8.0
 40
8.0
 40
9.0
 40
9.0
 40
9.0
 40
10.0
 40
10.0
 40
10.0
 40
11.0
 40
11.0
 40
11.0
 40
12.0
 40
12.0
 40
12.0
 40
13.0
 40
13.0
 40
13.0
 40
13.0
 10
1880.0896525229
 20
28.3875233475
 30
0.0
 10
1880.0896525229
 20
28.3875233475
 30
0.0
 10
1880.0896525229
 20
26.2493882365
 30
0.0
 10
1880.0896525229
 20
26.2493882365
 30
0.0
 10
1880.0896525229
 20
26.2493882365
 30
0.0
 10
1880.3110554977
 20
26.2493882365
 30
0.0
 10
1880.3110554977
 20
26.2493882365
 30
0.0
 10
1880.3110554977
 20
26.2493882365
 30
0.0
 10
1880.3110554977
 20
26.7790804599
 30
0.0
 10
1880.3110554977
 20
26.7790804599
 30
0.0
 10
1880.3110554977
 20
26.9889683863
 30
0.0
 10
1880.3110554977
 20
27.2396823932
 30
0.0
 10
1880.5963146496
 20
27.2396823932
 30
0.0
 10
1880.8232134428
 20
27.2396823932
 30
0.0
 10
1880.8501691242
 20
27.1067359261
 30
0.0
 10
1880.8501691242
 20
26.9104566931
 30
0.0
 10
1880.8501691242
 20
26.9104566931
 30
0.0
 10
1880.8501691242
 20
26.2493882365
 30
0.0
 10
1880.8501691242
 20
26.2493882365
 30
0.0
 10
1880.8501691242
 20
26.2493882365
 30
0.0
 10
1881.0720955102
 20
26.2493882365
 30
0.0
 10
1881.0720955102
 20
26.2493882365
 30
0.0
 10
1881.0720955102
 20
26.2493882365
 30
0.0
 10
1881.0720955102
 20
26.9366272575
 30
0.0
 10
1881.0720955102
 20
26.9366272575
 30
0.0
 10
1881.0720955102
 20
27.2171757078
 30
0.0
 10
1880.9880879985
 20
27.4370084487
 30
0.0
 10
1880.6630495888
 20
27.4370084487
 30
0.0
 10
1880.5232987749
 20
27.4370084487
 30
0.0
 10
1880.3851181949
 20
27.3705352151
 30
0.0
 10
1880.3157661993
 20
27.2475335625
 30
0.0
 10
1880.3157661993
 20
27.2475335625
 30
0.0
 10
1880.3110554977
 20
27.2475335625
 30
0.0
 10
1880.3110554977
 20
27.2475335625
 30
0.0
 10
1880.3110554977
 20
27.2475335625
 30
0.0
 10
1880.3110554977
 20
28.3875233475
 30
0.0
 10
1880.3110554977
 20
28.3875233475
 30
0.0
 10
1880.3110554977
 20
28.3875233475
 30
0.0
 10
1880.0896525229
 20
28.3875233475
 30
0.0
 10
1880.0896525229
 20
28.3875233475
 30
0.0
  0
LWPOLYLINE
  5
258
330
22A
100
AcDbEntity
  8
0
  6
Continuous
 62
     7
100
AcDbPolyline
 90
        2
 70
     0
 43
0.2
 10
1882.9118861871
 20
27.1951924337
 10
1883.1283167546
 20
27.1951924337
  0
LWPOLYLINE
  5
259
330
22A
100
AcDbEntity
  8
0
  6
Continuous
 62
     7
100
AcDbPolyline
 90
        2
 70
     0
 43
0.2
 10
1883.1283167546
 20
27.1951924337
 10
1883.1283167546
 20
27.4019398924
  0
LWPOLYLINE
  5
25A
330
22A
100
AcDbEntity
  8
0
  6
Continuous
 62
     7
100
AcDbPolyline
 90
        2
 70
     0
 43
0.2
 10
1883.1283167546
 20
27.4019398924
 10
1882.9118861871
 20
27.4019398924
  0
LWPOLYLINE
  5
25B
330
22A
100
AcDbEntity
  8
0
  6
Continuous
 62
     7
100
AcDbPolyline
 90
        2
 70
     0
 43
0.2
 10
1882.9118861871
 20
27.4019398924
 10
1882.9118861871
 20
27.8426521968
  0
LWPOLYLINE
  5
25C
330
22A
100
AcDbEntity
  8
0
  6
Continuous
 62
     7
100
AcDbPolyline
 90
        2
 70
     0
 43
0.2
 10
1882.9118861871
 20
27.8426521968
 10
1882.6902215067
 20
27.8426521968
  0
LWPOLYLINE
  5
25D
330
22A
100
AcDbEntity
  8
0
  6
Continuous
 62
     7
100
AcDbPolyline
 90
        2
 70
     0
 43
0.2
 10
1882.6902215067
 20
27.8426521968
 10
1882.6902215067
 20
27.4019398924
  0
LWPOLYLINE
  5
25E
330
22A
100
AcDbEntity
  8
0
  6
Continuous
 62
     7
100
AcDbPolyline
 90
        2
 70
     0
 43
0.2
 10
1882.6902215067
 20
27.4019398924
 10
1882.5695752048
 20
27.4019398924
  0
LWPOLYLINE
  5
25F
330
22A
100
AcDbEntity
  8
0
  6
Continuous
 62
     7
100
AcDbPolyline
 90
        2
 70
     0
 43
0.2
 10
1882.5695752048
 20
27.4019398924
 10
1882.5695752048
 20
27.1951924337
  0
LWPOLYLINE
  5
260
330
22A
100
AcDbEntity
  8
0
  6
Continuous
 62
     7
100
AcDbPolyline
 90
        2
 70
     0
 43
0.2
 10
1882.5695752048
 20
27.1951924337
 10
1882.6902215067
 20
27.1951924337
  0
LWPOLYLINE
  5
261
330
22A
100
AcDbEntity
  8
0
  6
Continuous
 62
     7
100
AcDbPolyline
 90
        2
 70
     0
 43
0.2
 10
1882.6902215067
 20
27.1951924337
 10
1882.6902215067
 20
26.2493882365
  0
LWPOLYLINE
  5
262
330
22A
100
AcDbEntity
  8
0
  6
Continuous
 62
     7
100
AcDbPolyline
 90
        2
 70
     0
 43
0.2
 10
1882.6902215067
 20
26.2493882365
 10
1882.9118861871
 20
26.2493882365
  0
LWPOLYLINE
  5
263
330
22A
100
AcDbEntity
  8
0
  6
Continuous
 62
     7
100
AcDbPolyline
 90
        2
 70
     0
 43
0.2
 10
1882.9118861871
 20
26.2493882365
 10
1882.9118861871
 20
27.1951924337
  0
SPLINE
  5
264
330
22A
100
AcDbEntity
  8
0
  6
Continuous
 62
     7
100
AcDbSpline
 70
     3
 71
     3
 72
    20
 73
    16
 74
     0
 42
0.000000001
 43
0.0000001
 40
0.0
 40
0.0
 40
0.0
 40
0.0
 40
1.0
 40
1.0
 40
1.0
 40
2.0
 40
2.0
 40
2.0
 40
3.0
 40
3.0
 40
3.0
 40
4.0
 40
4.0
 40
4.0
 40
5.0
 40
5.0
 40
5.0
 40
5.0
 10
1870.6938964943
 20
36.6103146799
 30
0.0
 10
1870.6938964943
 20
36.6103146799
 30
0.0
 10
1873.0102531488
 20
33.7807532577
 30
0.0
 10
1873.0102531488
 20
33.7807532577
 30
0.0
 10
1872.3586060954
 20
33.128582793
 30
0.0
 10
1871.5817328914
 20
32.3926665223
 30
0.0
 10
1870.6105432467
 20
32.3926665223
 30
0.0
 10
1869.6120053623
 20
32.3926665223
 30
0.0
 10
1868.6686873687
 20
33.3222449695
 30
0.0
 10
1868.6686873687
 20
34.3214371181
 30
0.0
 10
1868.6686873687
 20
35.3206292666
 30
0.0
 10
1869.8475404419
 20
36.0272345052
 30
0.0
 10
1870.5690629022
 20
36.5270922851
 30
0.0
 10
1870.5690629022
 20
36.5270922851
 30
0.0
 10
1870.6938964943
 20
36.6103146799
 30
0.0
 10
1870.6938964943
 20
36.6103146799
 30
0.0
  0
SPLINE
  5
265
330
22A
100
AcDbEntity
  8
0
  6
Continuous
 62
     7
100
AcDbSpline
 70
     3
 71
     3
 72
    23
 73
    19
 74
     0
 42
0.000000001
 43
0.0000001
 40
0.0
 40
0.0
 40
0.0
 40
0.0
 40
1.0
 40
1.0
 40
1.0
 40
2.0
 40
2.0
 40
2.0
 40
3.0
 40
3.0
 40
3.0
 40
4.0
 40
4.0
 40
4.0
 40
5.0
 40
5.0
 40
5.0
 40
6.0
 40
6.0
 40
6.0
 40
6.0
 10
1870.9713044769
 20
38.2480685997
 30
0.0
 10
1870.9713044769
 20
38.2480685997
 30
0.0
 10
1870.6248062043
 20
38.6913979605
 30
0.0
 10
1870.6248062043
 20
38.6913979605
 30
0.0
 10
1870.3190031594
 20
39.0795074304
 30
0.0
 10
1870.0001148323
 20
39.4680094589
 30
0.0
 10
1870.0001148323
 20
39.9949537729
 30
0.0
 10
1870.0001148323
 20
40.6611254896
 30
0.0
 10
1870.5414529567
 20
41.1048474089
 30
0.0
 10
1871.1653592119
 20
41.1048474089
 30
0.0
 10
1871.859140874
 20
41.1048474089
 30
0.0
 10
1872.3863468937
 20
40.7026058341
 30
0.0
 10
1872.3863468937
 20
39.9676055331
 30
0.0
 10
1872.3863468937
 20
39.2043410226
 30
0.0
 10
1871.665086139
 20
38.7742277968
 30
0.0
 10
1871.1380109721
 20
38.3585083814
 30
0.0
 10
1871.1380109721
 20
38.3585083814
 30
0.0
 10
1870.9713044769
 20
38.2480685997
 30
0.0
 10
1870.9713044769
 20
38.2480685997
 30
0.0
  0
SPLINE
  5
266
330
22A
100
AcDbEntity
  8
0
  6
Continuous
 62
     7
100
AcDbSpline
 70
     3
 71
     3
 72
    50
 73
    46
 74
     0
 42
0.000000001
 43
0.0000001
 40
0.0
 40
0.0
 40
0.0
 40
0.0
 40
1.0
 40
1.0
 40
1.0
 40
2.0
 40
2.0
 40
2.0
 40
3.0
 40
3.0
 40
3.0
 40
4.0
 40
4.0
 40
4.0
 40
5.0
 40
5.0
 40
5.0
 40
6.0
 40
6.0
 40
6.0
 40
7.0
 40
7.0
 40
7.0
 40
8.0
 40
8.0
 40
8.0
 40
9.0
 40
9.0
 40
9.0
 40
10.0
 40
10.0
 40
10.0
 40
11.0
 40
11.0
 40
11.0
 40
12.0
 40
12.0
 40
12.0
 40
13.0
 40
13.0
 40
13.0
 40
14.0
 40
14.0
 40
14.0
 40
15.0
 40
15.0
 40
15.0
 40
15.0
 10
1874.9248916398
 20
31.4494793815
 30
0.0
 10
1874.9248916398
 20
31.4494793815
 30
0.0
 10
1876.5341196444
 20
31.4494793815
 30
0.0
 10
1876.5341196444
 20
31.4494793815
 30
0.0
 10
1876.5341196444
 20
31.4494793815
 30
0.0
 10
1874.6610923507
 20
33.7666211529
 30
0.0
 10
1874.6610923507
 20
33.7666211529
 30
0.0
 10
1874.6610923507
 20
33.7666211529
 30
0.0
 10
1875.9374307762
 20
35.2641008475
 30
0.0
 10
1875.9374307762
 20
35.2641008475
 30
0.0
 10
1875.9374307762
 20
35.2641008475
 30
0.0
 10
1875.1052068285
 20
36.1251124161
 30
0.0
 10
1875.1052068285
 20
36.1251124161
 30
0.0
 10
1875.1052068285
 20
36.1251124161
 30
0.0
 10
1873.8846117052
 20
34.7098082937
 30
0.0
 10
1873.8846117052
 20
34.7098082937
 30
0.0
 10
1873.8846117052
 20
34.7098082937
 30
0.0
 10
1871.7066973364
 20
37.3451841281
 30
0.0
 10
1871.7066973364
 20
37.3451841281
 30
0.0
 10
1872.5802707758
 20
37.983222488
 30
0.0
 10
1873.606942017
 20
38.7742277968
 30
0.0
 10
1873.606942017
 20
39.9530808699
 30
0.0
 10
1873.606942017
 20
41.3267737949
 30
0.0
 10
1872.4690458771
 20
42.1312569444
 30
0.0
 10
1871.1937542743
 20
42.1312569444
 30
0.0
 10
1869.8203230549
 20
42.1312569444
 30
0.0
 10
1868.7793888561
 20
41.2850317447
 30
0.0
 10
1868.7793888561
 20
39.8423793825
 30
0.0
 10
1868.7793888561
 20
38.9548046911
 30
0.0
 10
1869.3347282326
 20
38.1779314871
 30
0.0
 10
1869.9308936894
 20
37.5535018207
 30
0.0
 10
1869.9308936894
 20
37.5535018207
 30
0.0
 10
1869.2789849304
 20
37.0819082503
 30
0.0
 10
1869.2789849304
 20
37.0819082503
 30
0.0
 10
1868.280447046
 20
36.3606474956
 30
0.0
 10
1867.4475688341
 20
35.6393867409
 30
0.0
 10
1867.4475688341
 20
34.3078284246
 30
0.0
 10
1867.4475688341
 20
32.5041531266
 30
0.0
 10
1868.9046150068
 20
31.2275529955
 30
0.0
 10
1870.6521544441
 20
31.2275529955
 30
0.0
 10
1871.887012525
 20
31.2275529955
 30
0.0
 10
1872.9963827497
 20
31.935728468
 30
0.0
 10
1873.7872572056
 20
32.8642600926
 30
0.0
 10
1873.7872572056
 20
32.8642600926
 30
0.0
 10
1874.9248916398
 20
31.4494793815
 30
0.0
 10
1874.9248916398
 20
31.4494793815
 30
0.0
  0
LINE
  5
267
330
22A
100
AcDbEntity
  8
0
  6
Continuous
 62
     7
100
AcDbLine
 10
1860.7277530148
 20
29.4233542862
 30
0.0
 11
1883.1416637425
 21
29.4233542862
 31
0.0
  0
LINE
  5
268
330
22A
100
AcDbEntity
  8
0
  6
Continuous
 62
     7
100
AcDbLine
 10
1883.1416637425
 20
29.4233542862
 30
0.0
 11
1883.1416637425
 21
51.8372650138
 31
0.0
  0
LINE
  5
269
330
22A
100
AcDbEntity
  8
0
  6
Continuous
 62
     7
100
AcDbLine
 10
1883.1416637425
 20
51.8372650138
 30
0.0
 11
1860.7277530148
 21
51.8372650138
 31
0.0
  0
LINE
  5
26A
330
22A
100
AcDbEntity
  8
0
  6
Continuous
 62
     7
100
AcDbLine
 10
1860.7277530148
 20
51.8372650138
 30
0.0
 11
1860.7277530148
 21
29.4233542862
 31
0.0
  0
ENDBLK
  5
26B
330
22A
100
AcDbEntity
  8
0
  6
ByBlock
 62
     0
100
AcDbBlockEnd
  0
BLOCK
  5
26C
330
22B
100
AcDbEntity
  8
0
100
AcDbBlockBegin
  2
PROIEZIONE_EU_BL0
 70
     0
 10
1873.1085959075
 20
64.3385775138
 30
0.0
  3
PROIEZIONE_EU_BL0
  1

  0
LWPOLYLINE
  5
26D
330
22B
100
AcDbEntity
  8
DEFAULT_1
  6
CENTER
 62
     7
100
AcDbPolyline
 90
        2
 70
     0
 43
0.25
 10
1879.2352165691
 20
69.3382716457
 10
1879.2352575515
 20
59.3388833819
  0
LWPOLYLINE
  5
26E
330
22B
100
AcDbEntity
  8
DEFAULT_1
  6
CENTER
 62
     7
100
AcDbPolyline
 90
        2
 70
     0
 43
0.25
 10
1885.2352463942
 20
64.3388486489
 10
1860.9819454207
 20
64.3385779885
  0
LWPOLYLINE
  5
26F
330
22B
100
AcDbEntity
  8
0
  6
Continuous
 62
     7
100
AcDbPolyline
 90
        2
 70
     1
 43
0.25
 10
1875.6881063933
 20
64.3200297596
 42
1.0
 10
1882.7944354919
 20
64.3200297596
 42
1.0
  0
LWPOLYLINE
  5
270
330
22B
100
AcDbEntity
  8
0
  6
Continuous
 62
     7
100
AcDbPolyline
 90
        2
 70
     1
 43
0.25
 10
1877.2378502217
 20
64.3379278042
 42
1.0
 10
1881.2496019718
 20
64.3379278042
 42
1.0
  0
LWPOLYLINE
  5
271
330
22B
100
AcDbEntity
  8
0
  6
Continuous
 62
     7
100
AcDbPolyline
 90
        2
 70
     0
 43
0.25
 10
1873.2352441882
 20
67.913781009
 10
1873.2352438336
 20
60.8135781007
  0
LWPOLYLINE
  5
272
330
22B
100
AcDbEntity
  8
0
  6
Continuous
 62
     7
100
AcDbPolyline
 90
        2
 70
     0
 43
0.25
 10
1873.23527227
 20
60.8135496643
 10
1863.2407149988
 20
62.3336430772
  0
LWPOLYLINE
  5
273
330
22B
100
AcDbEntity
  8
0
  6
Continuous
 62
     7
100
AcDbPolyline
 90
        2
 70
     0
 43
0.25
 10
1863.2384050132
 20
62.3329655356
 10
1863.2357381091
 20
66.3386041471
  0
LWPOLYLINE
  5
274
330
22B
100
AcDbEntity
  8
0
  6
Continuous
 62
     7
100
AcDbPolyline
 90
        2
 70
     0
 43
0.25
 10
1863.235729833
 20
66.338595871
 10
1873.2354730703
 20
67.9137530911
  0
ENDBLK
  5
275
330
22B
100
AcDbEntity
  8
0
  6
ByBlock
 62
     0
100
AcDbBlockEnd
  0
ENDSEC
  0
SECTION
  2
ENTITIES
  0
LINE
  5
2A0
330
1B
100
AcDbEntity
 67
     1
  8
0
  6
Continuous
 62
     7
100
AcDbLine
 10
0.0
 20
0.0
 30
0.0
 11
2000.0
 21
0.0
 31
0.0
  0
LINE
  5
2A1
330
1B
100
AcDbEntity
 67
     1
  8
0
  6
Continuous
 62
     7
100
AcDbLine
 10
2000.0
 20
0.0
 30
0.0
 11
2000.0
 21
841.0
 31
0.0
  0
LINE
  5
2A2
330
1B
100
AcDbEntity
 67
     1
  8
0
  6
Continuous
 62
     7
100
AcDbLine
 10
0.0
 20
841.0
 30
0.0
 11
2000.0
 21
841.0
 31
0.0
  0
LINE
  5
2A3
330
1B
100
AcDbEntity
 67
     1
  8
0
  6
Continuous
 62
     7
100
AcDbLine
 10
0.0
 20
0.0
 30
0.0
 11
0.0
 21
841.0
 31
0.0
  0
VIEWPORT
  5
2A4
330
1B
100
AcDbEntity
 67
     1
  8
0
100
AcDbViewport
 10
0.0
 20
0.0
 30
0.0
 40
2118.804092559933
 41
1498.29717973881
 68
     1
 69
     1
 12
1001.53554795375
 22
635.542310676824
 13
0.0
 23
0.0
 14
1.0
 24
1.0
 15
0.0
 25
0.0
 16
0.0
 26
0.0
 36
1.0
 17
0.0
 27
0.0
 37
0.0
 42
50.0
 43
0.0
 44
0.0
 45
1498.29717973881
 50
0.0
 51
0.0
 72
   100
 90
   557216
  1

281
     0
 71
     1
 74
     0
110
0.0
120
0.0
130
0.0
111
1.0
121
0.0
131
0.0
112
0.0
122
1.0
132
0.0
 79
     0
146
0.0
170
     0
 61
     5
348
5B0
292
     1
282
     1
141
0.0
142
0.0
 63
   256
  0
LINE
  5
2A5
330
1B
100
AcDbEntity
 67
     1
  8
3_ALL_AXES
  6
Continuous
 62
     7
100
AcDbLine
 10
158.1974985961
 20
342.9120814865
 30
0.0
 11
158.0467782665
 21
342.9120814865
 31
0.0
  0
LINE
  5
2A6
330
1B
100
AcDbEntity
 67
     1
  8
3_ALL_AXES
  6
Continuous
 62
     7
100
AcDbLine
 10
158.0467782665
 20
342.9121295526
 30
0.0
 11
158.0467782665
 21
345.6620814865
 31
0.0
  0
LINE
  5
2A7
330
1B
100
AcDbEntity
 67
     1
  8
3_ALL_AXES
  6
Continuous
 62
     7
100
AcDbLine
 10
158.5467782665
 20
343.2051619291
 30
0.0
 11
158.1974985961
 21
342.9120814865
 31
0.0
  0
LINE
  5
2A8
330
1B
100
AcDbEntity
 67
     1
  8
3_ALL_AXES
  6
Continuous
 62
     7
100
AcDbLine
 10
158.1974985961
 20
348.4120814865
 30
0.0
 11
158.0467782665
 21
348.4120814865
 31
0.0
  0
LINE
  5
2A9
330
1B
100
AcDbEntity
 67
     1
  8
3_ALL_AXES
  6
Continuous
 62
     7
100
AcDbLine
 10
158.0467782665
 20
348.4120334203
 30
0.0
 11
158.0467782665
 21
345.6620814865
 31
0.0
  0
LINE
  5
2AA
330
1B
100
AcDbEntity
 67
     1
  8
3_ALL_AXES
  6
Continuous
 62
     7
100
AcDbLine
 10
158.5467782665
 20
348.1190010439
 30
0.0
 11
158.1974985961
 21
348.4120814865
 31
0.0
  0
LINE
  5
2AB
330
1B
100
AcDbEntity
 67
     1
  8
3_ALL_AXES
  6
Continuous
 62
     7
100
AcDbLine
 10
158.1974985961
 20
348.4120814865
 30
0.0
 11
158.1974985961
 21
345.6620814865
 31
0.0
  0
LINE
  5
2AC
330
1B
100
AcDbEntity
 67
     1
  8
3_ALL_AXES
  6
Continuous
 62
     7
100
AcDbLine
 10
158.1974985961
 20
342.9120814865
 30
0.0
 11
158.1974985961
 21
345.6620814865
 31
0.0
  0
LINE
  5
2AD
330
1B
100
AcDbEntity
 67
     1
  8
3_ALL_AXES
  6
Continuous
 62
     7
100
AcDbLine
 10
158.1974985961
 20
294.1620814865
 30
0.0
 11
158.0467782665
 21
294.1620814865
 31
0.0
  0
LINE
  5
2AE
330
1B
100
AcDbEntity
 67
     1
  8
3_ALL_AXES
  6
Continuous
 62
     7
100
AcDbLine
 10
158.0467782665
 20
294.1621295526
 30
0.0
 11
158.0467782665
 21
296.9120814865
 31
0.0
  0
LINE
  5
2AF
330
1B
100
AcDbEntity
 67
     1
  8
3_ALL_AXES
  6
Continuous
 62
     7
100
AcDbLine
 10
158.5467782665
 20
294.4551619291
 30
0.0
 11
158.1974985961
 21
294.1620814865
 31
0.0
  0
LINE
  5
2B0
330
1B
100
AcDbEntity
 67
     1
  8
3_ALL_AXES
  6
Continuous
 62
     7
100
AcDbLine
 10
158.1974985961
 20
299.6620814865
 30
0.0
 11
158.0467782665
 21
299.6620814865
 31
0.0
  0
LINE
  5
2B1
330
1B
100
AcDbEntity
 67
     1
  8
3_ALL_AXES
  6
Continuous
 62
     7
100
AcDbLine
 10
158.0467782665
 20
299.6620334203
 30
0.0
 11
158.0467782665
 21
296.9120814865
 31
0.0
  0
LINE
  5
2B2
330
1B
100
AcDbEntity
 67
     1
  8
3_ALL_AXES
  6
Continuous
 62
     7
100
AcDbLine
 10
158.5467782665
 20
299.3690010439
 30
0.0
 11
158.1974985961
 21
299.6620814865
 31
0.0
  0
LINE
  5
2B3
330
1B
100
AcDbEntity
 67
     1
  8
3_ALL_AXES
  6
Continuous
 62
     7
100
AcDbLine
 10
158.1974985961
 20
299.6620814865
 30
0.0
 11
158.1974985961
 21
296.9120814865
 31
0.0
  0
LINE
  5
2B4
330
1B
100
AcDbEntity
 67
     1
  8
3_ALL_AXES
  6
Continuous
 62
     7
100
AcDbLine
 10
158.1974985961
 20
294.1620814865
 30
0.0
 11
158.1974985961
 21
296.9120814865
 31
0.0
  0
LINE
  5
2B5
330
1B
100
AcDbEntity
 67
     1
  8
3_ALL_AXES
  6
Continuous
 62
     7
100
AcDbLine
 10
1673.5467782665
 20
296.9120814865
 30
0.0
 11
1673.5467782665
 21
294.1621295526
 31
0.0
  0
LINE
  5
2B6
330
1B
100
AcDbEntity
 67
     1
  8
3_ALL_AXES
  6
Continuous
 62
     7
100
AcDbLine
 10
1673.5467782665
 20
296.9120814865
 30
0.0
 11
1673.5467782665
 21
299.6620334203
 31
0.0
  0
LINE
  5
2B7
330
1B
100
AcDbEntity
 67
     1
  8
3_ALL_AXES
  6
Continuous
 62
     7
100
AcDbLine
 10
1673.3960579369
 20
294.1620814865
 30
0.0
 11
1673.5467782665
 21
294.1620814865
 31
0.0
  0
LINE
  5
2B8
330
1B
100
AcDbEntity
 67
     1
  8
3_ALL_AXES
  6
Continuous
 62
     7
100
AcDbLine
 10
1673.0467782665
 20
294.4551619291
 30
0.0
 11
1673.3960579369
 21
294.1620814865
 31
0.0
  0
LINE
  5
2B9
330
1B
100
AcDbEntity
 67
     1
  8
3_ALL_AXES
  6
Continuous
 62
     7
100
AcDbLine
 10
1673.3960579369
 20
299.6620814865
 30
0.0
 11
1673.5467782665
 21
299.6620814865
 31
0.0
  0
LINE
  5
2BA
330
1B
100
AcDbEntity
 67
     1
  8
3_ALL_AXES
  6
Continuous
 62
     7
100
AcDbLine
 10
1673.0467782665
 20
299.3690010439
 30
0.0
 11
1673.3960579369
 21
299.6620814865
 31
0.0
  0
LINE
  5
2BB
330
1B
100
AcDbEntity
 67
     1
  8
3_ALL_AXES
  6
Continuous
 62
     7
100
AcDbLine
 10
1673.3960579369
 20
296.9120814865
 30
0.0
 11
1673.3960579369
 21
294.1620814865
 31
0.0
  0
LINE
  5
2BC
330
1B
100
AcDbEntity
 67
     1
  8
3_ALL_AXES
  6
Continuous
 62
     7
100
AcDbLine
 10
1673.3960579369
 20
296.9120814865
 30
0.0
 11
1673.3960579369
 21
299.6620814865
 31
0.0
  0
LINE
  5
2BD
330
1B
100
AcDbEntity
 67
     1
  8
3_ALL_AXES
  6
Continuous
 62
     7
100
AcDbLine
 10
1673.5467782665
 20
345.6620814865
 30
0.0
 11
1673.5467782665
 21
342.9121295526
 31
0.0
  0
LINE
  5
2BE
330
1B
100
AcDbEntity
 67
     1
  8
3_ALL_AXES
  6
Continuous
 62
     7
100
AcDbLine
 10
1673.5467782665
 20
345.6620814865
 30
0.0
 11
1673.5467782665
 21
348.4120334203
 31
0.0
  0
LINE
  5
2BF
330
1B
100
AcDbEntity
 67
     1
  8
3_ALL_AXES
  6
Continuous
 62
     7
100
AcDbLine
 10
1673.3960579369
 20
342.9120814865
 30
0.0
 11
1673.5467782665
 21
342.9120814865
 31
0.0
  0
LINE
  5
2C0
330
1B
100
AcDbEntity
 67
     1
  8
3_ALL_AXES
  6
Continuous
 62
     7
100
AcDbLine
 10
1673.0467782665
 20
343.2051619291
 30
0.0
 11
1673.3960579369
 21
342.9120814865
 31
0.0
  0
LINE
  5
2C1
330
1B
100
AcDbEntity
 67
     1
  8
3_ALL_AXES
  6
Continuous
 62
     7
100
AcDbLine
 10
1673.3960579369
 20
348.4120814865
 30
0.0
 11
1673.5467782665
 21
348.4120814865
 31
0.0
  0
LINE
  5
2C2
330
1B
100
AcDbEntity
 67
     1
  8
3_ALL_AXES
  6
Continuous
 62
     7
100
AcDbLine
 10
1673.0467782665
 20
348.1190010439
 30
0.0
 11
1673.3960579369
 21
348.4120814865
 31
0.0
  0
LINE
  5
2C3
330
1B
100
AcDbEntity
 67
     1
  8
3_ALL_AXES
  6
Continuous
 62
     7
100
AcDbLine
 10
1673.3960579369
 20
345.6620814865
 30
0.0
 11
1673.3960579369
 21
342.9120814865
 31
0.0
  0
LINE
  5
2C4
330
1B
100
AcDbEntity
 67
     1
  8
3_ALL_AXES
  6
Continuous
 62
     7
100
AcDbLine
 10
1673.3960579369
 20
345.6620814865
 30
0.0
 11
1673.3960579369
 21
348.4120814865
 31
0.0
  0
LINE
  5
2C5
330
1B
100
AcDbEntity
 67
     1
  8
7_ALL_FEATURES
  6
Continuous
 62
     7
100
AcDbLine
 10
1673.0467782665
 20
293.9120814865
 30
0.0
 11
1671.5467782665
 21
293.9120814865
 31
0.0
  0
LINE
  5
2C6
330
1B
100
AcDbEntity
 67
     1
  8
7_ALL_FEATURES
  6
Continuous
 62
     7
100
AcDbLine
 10
1673.0467782665
 20
368.6120814865
 30
0.0
 11
1673.0467782665
 21
366.2120814865
 31
0.0
  0
LINE
  5
2C7
330
1B
100
AcDbEntity
 67
     1
  8
7_ALL_FEATURES
  6
Continuous
 62
     7
100
AcDbLine
 10
1673.0467782665
 20
366.2120814865
 30
0.0
 11
1673.0467782665
 21
365.4120814865
 31
0.0
  0
LINE
  5
2C8
330
1B
100
AcDbEntity
 67
     1
  8
7_ALL_FEATURES
  6
Continuous
 62
     7
100
AcDbLine
 10
1673.0467782665
 20
294.9120814865
 30
0.0
 11
1673.0467782665
 21
365.4120814865
 31
0.0
  0
LINE
  5
2C9
330
1B
100
AcDbEntity
 67
     1
  8
7_ALL_FEATURES
  6
Continuous
 62
     7
100
AcDbLine
 10
1673.0467782665
 20
294.9120814865
 30
0.0
 11
1673.0467782665
 21
293.9120814865
 31
0.0
  0
LINE
  5
2CA
330
1B
100
AcDbEntity
 67
     1
  8
7_ALL_FEATURES
  6
Continuous
 62
     7
100
AcDbLine
 10
1673.0467782665
 20
377.4120814865
 30
0.0
 11
1673.0467782665
 21
376.4120814865
 31
0.0
  0
LINE
  5
2CB
330
1B
100
AcDbEntity
 67
     1
  8
7_ALL_FEATURES
  6
Continuous
 62
     7
100
AcDbLine
 10
1673.0467782665
 20
293.9120814865
 30
0.0
 11
1671.5467782665
 21
293.9120814865
 31
0.0
  0
LINE
  5
2CC
330
1B
100
AcDbEntity
 67
     1
  8
7_ALL_FEATURES
  6
Continuous
 62
     7
100
AcDbLine
 10
1673.0467782665
 20
377.4120814865
 30
0.0
 11
1671.5467782665
 21
377.4120814865
 31
0.0
  0
LINE
  5
2CD
330
1B
100
AcDbEntity
 67
     1
  8
7_ALL_FEATURES
  6
Continuous
 62
     7
100
AcDbLine
 10
1673.0467782665
 20
369.4120814865
 30
0.0
 11
1673.0467782665
 21
376.4120814865
 31
0.0
  0
LINE
  5
2CE
330
1B
100
AcDbEntity
 67
     1
  8
7_ALL_FEATURES
  6
Continuous
 62
     7
100
AcDbLine
 10
1673.0467782665
 20
369.4120814865
 30
0.0
 11
1673.0467782665
 21
368.6120814865
 31
0.0
  0
LINE
  5
2CF
330
1B
100
AcDbEntity
 67
     1
  8
7_ALL_FEATURES
  6
Continuous
 62
     9
100
AcDbLine
 10
1673.0467782665
 20
369.4120814865
 30
0.0
 11
1671.5467782665
 21
369.4120814865
 31
0.0
  0
LINE
  5
2D0
330
1B
100
AcDbEntity
 67
     1
  8
7_ALL_FEATURES
  6
Continuous
 62
     9
100
AcDbLine
 10
1673.0467782665
 20
366.2120814865
 30
0.0
 11
1671.5467782665
 21
366.2120814865
 31
0.0
  0
LINE
  5
2D1
330
1B
100
AcDbEntity
 67
     1
  8
7_ALL_FEATURES
  6
Continuous
 62
     9
100
AcDbLine
 10
1673.0467782665
 20
368.6120814865
 30
0.0
 11
1671.5467782665
 21
368.6120814865
 31
0.0
  0
LINE
  5
2D2
330
1B
100
AcDbEntity
 67
     1
  8
7_ALL_FEATURES
  6
Continuous
 62
     9
100
AcDbLine
 10
1673.0467782665
 20
294.9120814865
 30
0.0
 11
1671.5467782665
 21
294.9120814865
 31
0.0
  0
LINE
  5
2D3
330
1B
100
AcDbEntity
 67
     1
  8
7_ALL_FEATURES
  6
Continuous
 62
     9
100
AcDbLine
 10
1673.0467782665
 20
365.4120814865
 30
0.0
 11
1671.5467782665
 21
365.4120814865
 31
0.0
  0
LINE
  5
2D4
330
1B
100
AcDbEntity
 67
     1
  8
7_ALL_FEATURES
  6
Continuous
 62
     9
100
AcDbLine
 10
1673.0467782665
 20
376.4120814865
 30
0.0
 11
1671.5467782665
 21
376.4120814865
 31
0.0
  0
LINE
  5
2D5
330
1B
100
AcDbEntity
 67
     1
  8
7_ALL_FEATURES
  6
Continuous
 62
     7
100
AcDbLine
 10
158.5467782665
 20
377.4120814865
 30
0.0
 11
160.0467782665
 21
377.4120814865
 31
0.0
  0
LINE
  5
2D6
330
1B
100
AcDbEntity
 67
     1
  8
7_ALL_FEATURES
  6
Continuous
 62
     7
100
AcDbLine
 10
158.5467782665
 20
293.9120814865
 30
0.0
 11
158.5467782665
 21
294.9120814865
 31
0.0
  0
LINE
  5
2D7
330
1B
100
AcDbEntity
 67
     1
  8
7_ALL_FEATURES
  6
Continuous
 62
     7
100
AcDbLine
 10
158.5467782665
 20
305.4120814865
 30
0.0
 11
158.5467782665
 21
294.9120814865
 31
0.0
  0
LINE
  5
2D8
330
1B
100
AcDbEntity
 67
     1
  8
7_ALL_FEATURES
  6
Continuous
 62
     7
100
AcDbLine
 10
158.5467782665
 20
305.4120814865
 30
0.0
 11
158.5467782665
 21
306.2120814865
 31
0.0
  0
LINE
  5
2D9
330
1B
100
AcDbEntity
 67
     1
  8
7_ALL_FEATURES
  6
Continuous
 62
     7
100
AcDbLine
 10
158.5467782665
 20
306.2120814865
 30
0.0
 11
158.5467782665
 21
308.6120814865
 31
0.0
  0
LINE
  5
2DA
330
1B
100
AcDbEntity
 67
     1
  8
7_ALL_FEATURES
  6
Continuous
 62
     7
100
AcDbLine
 10
158.5467782665
 20
308.6120814865
 30
0.0
 11
158.5467782665
 21
309.4120814865
 31
0.0
  0
LINE
  5
2DB
330
1B
100
AcDbEntity
 67
     1
  8
7_ALL_FEATURES
  6
Continuous
 62
     7
100
AcDbLine
 10
158.5467782665
 20
293.9120814865
 30
0.0
 11
160.0467782665
 21
293.9120814865
 31
0.0
  0
LINE
  5
2DC
330
1B
100
AcDbEntity
 67
     1
  8
7_ALL_FEATURES
  6
Continuous
 62
     7
100
AcDbLine
 10
158.5467782665
 20
376.4120814865
 30
0.0
 11
158.5467782665
 21
309.4120814865
 31
0.0
  0
LINE
  5
2DD
330
1B
100
AcDbEntity
 67
     1
  8
7_ALL_FEATURES
  6
Continuous
 62
     7
100
AcDbLine
 10
158.5467782665
 20
377.4120814865
 30
0.0
 11
160.0467782665
 21
377.4120814865
 31
0.0
  0
LINE
  5
2DE
330
1B
100
AcDbEntity
 67
     1
  8
7_ALL_FEATURES
  6
Continuous
 62
     7
100
AcDbLine
 10
158.5467782665
 20
376.4120814865
 30
0.0
 11
158.5467782665
 21
377.4120814865
 31
0.0
  0
LINE
  5
2DF
330
1B
100
AcDbEntity
 67
     1
  8
7_ALL_FEATURES
  6
Continuous
 62
     9
100
AcDbLine
 10
158.5467782665
 20
309.4120814865
 30
0.0
 11
160.0467782665
 21
309.4120814865
 31
0.0
  0
LINE
  5
2E0
330
1B
100
AcDbEntity
 67
     1
  8
7_ALL_FEATURES
  6
Continuous
 62
     9
100
AcDbLine
 10
158.5467782665
 20
306.2120814865
 30
0.0
 11
160.0467782665
 21
306.2120814865
 31
0.0
  0
LINE
  5
2E1
330
1B
100
AcDbEntity
 67
     1
  8
7_ALL_FEATURES
  6
Continuous
 62
     9
100
AcDbLine
 10
158.5467782665
 20
308.6120814865
 30
0.0
 11
160.0467782665
 21
308.6120814865
 31
0.0
  0
LINE
  5
2E2
330
1B
100
AcDbEntity
 67
     1
  8
7_ALL_FEATURES
  6
Continuous
 62
     9
100
AcDbLine
 10
158.5467782665
 20
294.9120814865
 30
0.0
 11
160.0467782665
 21
294.9120814865
 31
0.0
  0
LINE
  5
2E3
330
1B
100
AcDbEntity
 67
     1
  8
7_ALL_FEATURES
  6
Continuous
 62
     9
100
AcDbLine
 10
158.5467782665
 20
305.4120814865
 30
0.0
 11
160.0467782665
 21
305.4120814865
 31
0.0
  0
LINE
  5
2E4
330
1B
100
AcDbEntity
 67
     1
  8
7_ALL_FEATURES
  6
Continuous
 62
     9
100
AcDbLine
 10
158.5467782665
 20
376.4120814865
 30
0.0
 11
160.0467782665
 21
376.4120814865
 31
0.0
  0
LINE
  5
2E5
330
1B
100
AcDbEntity
 67
     1
  8
7_ALL_FEATURES
  6
Continuous
 62
     7
100
AcDbLine
 10
959.0467782665
 20
363.9120814865
 30
0.0
 11
971.0467782665
 21
363.9120814865
 31
0.0
  0
LINE
  5
2E6
330
1B
100
AcDbEntity
 67
     1
  8
7_ALL_FEATURES
  6
Continuous
 62
     7
100
AcDbLine
 10
858.0467782665
 20
363.9120814865
 30
0.0
 11
959.0467782665
 21
363.9120814865
 31
0.0
  0
LINE
  5
2E7
330
1B
100
AcDbEntity
 67
     1
  8
7_ALL_FEATURES
  6
Continuous
 62
     7
100
AcDbLine
 10
846.0467782665
 20
363.9120814865
 30
0.0
 11
858.0467782665
 21
363.9120814865
 31
0.0
  0
LINE
  5
2E8
330
1B
100
AcDbEntity
 67
     1
  8
7_ALL_FEATURES
  6
Continuous
 62
     7
100
AcDbLine
 10
846.0467782665
 20
363.3120814865
 30
0.0
 11
846.0467782665
 21
363.9120814865
 31
0.0
  0
LINE
  5
2E9
330
1B
100
AcDbEntity
 67
     1
  8
7_ALL_FEATURES
  6
Continuous
 62
     7
100
AcDbLine
 10
971.0467782665
 20
363.3120814865
 30
0.0
 11
971.0467782665
 21
363.9120814865
 31
0.0
  0
LINE
  5
2EA
330
1B
100
AcDbEntity
 67
     1
  8
7_ALL_FEATURES
  6
Continuous
 62
     7
100
AcDbLine
 10
959.0467782665
 20
363.3120814865
 30
0.0
 11
959.0467782665
 21
363.9120814865
 31
0.0
  0
LINE
  5
2EB
330
1B
100
AcDbEntity
 67
     1
  8
7_ALL_FEATURES
  6
Continuous
 62
     7
100
AcDbLine
 10
858.0467782665
 20
363.3120814865
 30
0.0
 11
858.0467782665
 21
363.9120814865
 31
0.0
  0
LINE
  5
2EC
330
1B
100
AcDbEntity
 67
     1
  8
7_ALL_FEATURES
  6
Continuous
 62
     7
100
AcDbLine
 10
1609.0467782665
 20
363.9120814865
 30
0.0
 11
1621.0467782665
 21
363.9120814865
 31
0.0
  0
LINE
  5
2ED
330
1B
100
AcDbEntity
 67
     1
  8
7_ALL_FEATURES
  6
Continuous
 62
     7
100
AcDbLine
 10
1508.0467782665
 20
363.9120814865
 30
0.0
 11
1609.0467782665
 21
363.9120814865
 31
0.0
  0
LINE
  5
2EE
330
1B
100
AcDbEntity
 67
     1
  8
7_ALL_FEATURES
  6
Continuous
 62
     7
100
AcDbLine
 10
1496.0467782665
 20
363.9120814865
 30
0.0
 11
1508.0467782665
 21
363.9120814865
 31
0.0
  0
LINE
  5
2EF
330
1B
100
AcDbEntity
 67
     1
  8
7_ALL_FEATURES
  6
Continuous
 62
     7
100
AcDbLine
 10
1496.0467782665
 20
363.3120814865
 30
0.0
 11
1496.0467782665
 21
363.9120814865
 31
0.0
  0
LINE
  5
2F0
330
1B
100
AcDbEntity
 67
     1
  8
7_ALL_FEATURES
  6
Continuous
 62
     7
100
AcDbLine
 10
1621.0467782665
 20
363.3120814865
 30
0.0
 11
1621.0467782665
 21
363.9120814865
 31
0.0
  0
LINE
  5
2F1
330
1B
100
AcDbEntity
 67
     1
  8
7_ALL_FEATURES
  6
Continuous
 62
     7
100
AcDbLine
 10
1609.0467782665
 20
363.3120814865
 30
0.0
 11
1609.0467782665
 21
363.9120814865
 31
0.0
  0
LINE
  5
2F2
330
1B
100
AcDbEntity
 67
     1
  8
7_ALL_FEATURES
  6
Continuous
 62
     7
100
AcDbLine
 10
1508.0467782665
 20
363.3120814865
 30
0.0
 11
1508.0467782665
 21
363.9120814865
 31
0.0
  0
LINE
  5
2F3
330
1B
100
AcDbEntity
 67
     1
  8
7_ALL_FEATURES
  6
Continuous
 62
     7
100
AcDbLine
 10
309.0467782665
 20
363.9120814865
 30
0.0
 11
321.0467782665
 21
363.9120814865
 31
0.0
  0
LINE
  5
2F4
330
1B
100
AcDbEntity
 67
     1
  8
7_ALL_FEATURES
  6
Continuous
 62
     7
100
AcDbLine
 10
208.0467782665
 20
363.9120814865
 30
0.0
 11
309.0467782665
 21
363.9120814865
 31
0.0
  0
LINE
  5
2F5
330
1B
100
AcDbEntity
 67
     1
  8
7_ALL_FEATURES
  6
Continuous
 62
     7
100
AcDbLine
 10
196.0467782665
 20
363.9120814865
 30
0.0
 11
208.0467782665
 21
363.9120814865
 31
0.0
  0
LINE
  5
2F6
330
1B
100
AcDbEntity
 67
     1
  8
7_ALL_FEATURES
  6
Continuous
 62
     7
100
AcDbLine
 10
196.0467782665
 20
363.3120814865
 30
0.0
 11
196.0467782665
 21
363.9120814865
 31
0.0
  0
LINE
  5
2F7
330
1B
100
AcDbEntity
 67
     1
  8
7_ALL_FEATURES
  6
Continuous
 62
     7
100
AcDbLine
 10
321.0467782665
 20
363.3120814865
 30
0.0
 11
321.0467782665
 21
363.9120814865
 31
0.0
  0
LINE
  5
2F8
330
1B
100
AcDbEntity
 67
     1
  8
7_ALL_FEATURES
  6
Continuous
 62
     7
100
AcDbLine
 10
309.0467782665
 20
363.3120814865
 30
0.0
 11
309.0467782665
 21
363.9120814865
 31
0.0
  0
LINE
  5
2F9
330
1B
100
AcDbEntity
 67
     1
  8
7_ALL_FEATURES
  6
Continuous
 62
     7
100
AcDbLine
 10
208.0467782665
 20
363.3120814865
 30
0.0
 11
208.0467782665
 21
363.9120814865
 31
0.0
  0
LINE
  5
2FA
330
1B
100
AcDbEntity
 67
     1
  8
7_ALL_FEATURES
  6
Continuous
 62
     7
100
AcDbLine
 10
160.0467782665
 20
377.3331206517
 30
0.0
 11
160.0467782665
 21
377.4120814865
 31
0.0
  0
LINE
  5
2FB
330
1B
100
AcDbEntity
 67
     1
  8
7_ALL_FEATURES
  6
Continuous
 62
     7
100
AcDbLine
 10
160.0467782665
 20
373.2344167245
 30
0.0
 11
160.0467782665
 21
372.2026363725
 31
0.0
  0
LINE
  5
2FC
330
1B
100
AcDbEntity
 67
     1
  8
7_ALL_FEATURES
  6
Continuous
 62
     7
100
AcDbLine
 10
160.0467782665
 20
371.2236899308
 30
0.0
 11
160.0467782665
 21
372.2026363725
 31
0.0
  0
LINE
  5
2FD
330
1B
100
AcDbEntity
 67
     1
  8
7_ALL_FEATURES
  6
Continuous
 62
     7
100
AcDbLine
 10
160.0467782665
 20
371.2236899308
 30
0.0
 11
160.0467782665
 21
341.6120814865
 31
0.0
  0
LINE
  5
2FE
330
1B
100
AcDbEntity
 67
     1
  8
7_ALL_FEATURES
  6
Continuous
 62
     7
100
AcDbLine
 10
160.0467782665
 20
336.7120814865
 30
0.0
 11
160.0467782665
 21
336.9120814865
 31
0.0
  0
LINE
  5
2FF
330
1B
100
AcDbEntity
 67
     1
  8
7_ALL_FEATURES
  6
Continuous
 62
     7
100
AcDbLine
 10
160.0467782665
 20
336.7120814865
 30
0.0
 11
160.0467782665
 21
323.7120814865
 31
0.0
  0
LINE
  5
300
330
1B
100
AcDbEntity
 67
     1
  8
7_ALL_FEATURES
  6
Continuous
 62
     7
100
AcDbLine
 10
160.0467782665
 20
323.4294758817
 30
0.0
 11
160.0467782665
 21
323.7120814865
 31
0.0
  0
LINE
  5
301
330
1B
100
AcDbEntity
 67
     1
  8
7_ALL_FEATURES
  6
Continuous
 62
     7
100
AcDbLine
 10
160.0467782665
 20
318.6120814865
 30
0.0
 11
160.0467782665
 21
318.8946870913
 31
0.0
  0
LINE
  5
302
330
1B
100
AcDbEntity
 67
     1
  8
7_ALL_FEATURES
  6
Continuous
 62
     7
100
AcDbLine
 10
160.0467782665
 20
318.8946870913
 30
0.0
 11
160.0467782665
 21
318.9120814865
 31
0.0
  0
LINE
  5
303
330
1B
100
AcDbEntity
 67
     1
  8
7_ALL_FEATURES
  6
Continuous
 62
     7
100
AcDbLine
 10
160.0467782665
 20
318.6120814865
 30
0.0
 11
160.0467782665
 21
294.9120814865
 31
0.0
  0
LINE
  5
304
330
1B
100
AcDbEntity
 67
     1
  8
7_ALL_FEATURES
  6
Continuous
 62
     7
100
AcDbLine
 10
160.0467782665
 20
341.4120814865
 30
0.0
 11
160.0467782665
 21
341.6120814865
 31
0.0
  0
LINE
  5
305
330
1B
100
AcDbEntity
 67
     1
  8
7_ALL_FEATURES
  6
Continuous
 62
     7
100
AcDbLine
 10
1671.5467782665
 20
341.4120814865
 30
0.0
 11
1621.0467782665
 21
341.4120814865
 31
0.0
  0
LINE
  5
306
330
1B
100
AcDbEntity
 67
     1
  8
7_ALL_FEATURES
  6
Continuous
 62
     7
100
AcDbLine
 10
1598.5467782665
 20
341.4120814865
 30
0.0
 11
1598.3467782665
 21
341.4120814865
 31
0.0
  0
LINE
  5
307
330
1B
100
AcDbEntity
 67
     1
  8
7_ALL_FEATURES
  6
Continuous
 62
     7
100
AcDbLine
 10
1518.7467782665
 20
341.4120814865
 30
0.0
 11
1518.5467782665
 21
341.4120814865
 31
0.0
  0
LINE
  5
308
330
1B
100
AcDbEntity
 67
     1
  8
7_ALL_FEATURES
  6
Continuous
 62
     7
100
AcDbLine
 10
1496.0467782665
 20
341.4120814865
 30
0.0
 11
971.0467782665
 21
341.4120814865
 31
0.0
  0
LINE
  5
309
330
1B
100
AcDbEntity
 67
     1
  8
7_ALL_FEATURES
  6
Continuous
 62
     7
100
AcDbLine
 10
948.5467782665
 20
341.4120814865
 30
0.0
 11
948.3467782665
 21
341.4120814865
 31
0.0
  0
LINE
  5
30A
330
1B
100
AcDbEntity
 67
     1
  8
7_ALL_FEATURES
  6
Continuous
 62
     7
100
AcDbLine
 10
868.7467782665
 20
341.4120814865
 30
0.0
 11
868.5467782665
 21
341.4120814865
 31
0.0
  0
LINE
  5
30B
330
1B
100
AcDbEntity
 67
     1
  8
7_ALL_FEATURES
  6
Continuous
 62
     7
100
AcDbLine
 10
846.0467782665
 20
341.4120814865
 30
0.0
 11
321.0467782665
 21
341.4120814865
 31
0.0
  0
LINE
  5
30C
330
1B
100
AcDbEntity
 67
     1
  8
7_ALL_FEATURES
  6
Continuous
 62
     7
100
AcDbLine
 10
298.5467782665
 20
341.4120814865
 30
0.0
 11
298.3467782665
 21
341.4120814865
 31
0.0
  0
LINE
  5
30D
330
1B
100
AcDbEntity
 67
     1
  8
7_ALL_FEATURES
  6
Continuous
 62
     7
100
AcDbLine
 10
218.7467782665
 20
341.4120814865
 30
0.0
 11
218.5467782665
 21
341.4120814865
 31
0.0
  0
LINE
  5
30E
330
1B
100
AcDbEntity
 67
     1
  8
7_ALL_FEATURES
  6
Continuous
 62
     7
100
AcDbLine
 10
196.0467782665
 20
341.4120814865
 30
0.0
 11
160.0467782665
 21
341.4120814865
 31
0.0
  0
LINE
  5
30F
330
1B
100
AcDbEntity
 67
     1
  8
7_ALL_FEATURES
  6
Continuous
 62
     7
100
AcDbLine
 10
160.0467782665
 20
293.9120814865
 30
0.0
 11
160.0467782665
 21
294.9120814865
 31
0.0
  0
LINE
  5
310
330
1B
100
AcDbEntity
 67
     1
  8
7_ALL_FEATURES
  6
Continuous
 62
     7
100
AcDbLine
 10
1671.5467782665
 20
293.9120814865
 30
0.0
 11
1621.0467782665
 21
293.9120814865
 31
0.0
  0
LINE
  5
311
330
1B
100
AcDbEntity
 67
     1
  8
7_ALL_FEATURES
  6
Continuous
 62
     7
100
AcDbLine
 10
1496.0467782665
 20
293.9120814865
 30
0.0
 11
971.0467782665
 21
293.9120814865
 31
0.0
  0
LINE
  5
312
330
1B
100
AcDbEntity
 67
     1
  8
7_ALL_FEATURES
  6
Continuous
 62
     7
100
AcDbLine
 10
846.0467782665
 20
293.9120814865
 30
0.0
 11
321.0467782665
 21
293.9120814865
 31
0.0
  0
LINE
  5
313
330
1B
100
AcDbEntity
 67
     1
  8
7_ALL_FEATURES
  6
Continuous
 62
     7
100
AcDbLine
 10
196.0467782665
 20
293.9120814865
 30
0.0
 11
160.0467782665
 21
293.9120814865
 31
0.0
  0
LINE
  5
314
330
1B
100
AcDbEntity
 67
     1
  8
7_ALL_FEATURES
  6
Continuous
 62
     7
100
AcDbLine
 10
1671.5467782665
 20
294.9120814865
 30
0.0
 11
1671.5467782665
 21
293.9120814865
 31
0.0
  0
LINE
  5
315
330
1B
100
AcDbEntity
 67
     1
  8
7_ALL_FEATURES
  6
Continuous
 62
     7
100
AcDbLine
 10
1671.5467782665
 20
318.6120814865
 30
0.0
 11
1671.5467782665
 21
294.9120814865
 31
0.0
  0
LINE
  5
316
330
1B
100
AcDbEntity
 67
     1
  8
7_ALL_FEATURES
  6
Continuous
 62
     7
100
AcDbLine
 10
1671.5467782665
 20
318.8946870913
 30
0.0
 11
1671.5467782665
 21
318.6120814865
 31
0.0
  0
LINE
  5
317
330
1B
100
AcDbEntity
 67
     1
  8
7_ALL_FEATURES
  6
Continuous
 62
     7
100
AcDbLine
 10
1671.5467782665
 20
323.7120814865
 30
0.0
 11
1671.5467782665
 21
323.4294758817
 31
0.0
  0
LINE
  5
318
330
1B
100
AcDbEntity
 67
     1
  8
7_ALL_FEATURES
  6
Continuous
 62
     7
100
AcDbLine
 10
1671.5467782665
 20
323.4294758817
 30
0.0
 11
1671.5467782665
 21
323.4120814865
 31
0.0
  0
LINE
  5
319
330
1B
100
AcDbEntity
 67
     1
  8
7_ALL_FEATURES
  6
Continuous
 62
     7
100
AcDbLine
 10
1671.5467782665
 20
336.7120814865
 30
0.0
 11
1671.5467782665
 21
323.7120814865
 31
0.0
  0
LINE
  5
31A
330
1B
100
AcDbEntity
 67
     1
  8
7_ALL_FEATURES
  6
Continuous
 62
     7
100
AcDbLine
 10
1671.5467782665
 20
336.9120814865
 30
0.0
 11
1671.5467782665
 21
336.7120814865
 31
0.0
  0
LINE
  5
31B
330
1B
100
AcDbEntity
 67
     1
  8
7_ALL_FEATURES
  6
Continuous
 62
     7
100
AcDbLine
 10
1671.5467782665
 20
341.6120814865
 30
0.0
 11
1671.5467782665
 21
341.4120814865
 31
0.0
  0
LINE
  5
31C
330
1B
100
AcDbEntity
 67
     1
  8
7_ALL_FEATURES
  6
Continuous
 62
     7
100
AcDbLine
 10
1671.5467782665
 20
371.2236899308
 30
0.0
 11
1671.5467782665
 21
341.6120814865
 31
0.0
  0
LINE
  5
31D
330
1B
100
AcDbEntity
 67
     1
  8
7_ALL_FEATURES
  6
Continuous
 62
     7
100
AcDbLine
 10
1671.5467782665
 20
372.2026363725
 30
0.0
 11
1671.5467782665
 21
371.2236899308
 31
0.0
  0
LINE
  5
31E
330
1B
100
AcDbEntity
 67
     1
  8
7_ALL_FEATURES
  6
Continuous
 62
     7
100
AcDbLine
 10
1671.5467782665
 20
373.2344167245
 30
0.0
 11
1671.5467782665
 21
372.2026363725
 31
0.0
  0
LINE
  5
31F
330
1B
100
AcDbEntity
 67
     1
  8
7_ALL_FEATURES
  6
Continuous
 62
     7
100
AcDbLine
 10
1671.5467782665
 20
377.4120814865
 30
0.0
 11
1671.5467782665
 21
377.3331206517
 31
0.0
  0
LINE
  5
320
330
1B
100
AcDbEntity
 67
     1
  8
02___PRT_ALL_AXES
  6
Continuous
 62
     7
100
AcDbLine
 10
1526.1566620654
 20
318.9120814865
 30
0.0
 11
1525.4346338243
 21
318.9120814865
 31
0.0
  0
LINE
  5
321
330
1B
100
AcDbEntity
 67
     1
  8
02___PRT_ALL_AXES
  6
Continuous
 62
     7
100
AcDbLine
 10
1496.0467782665
 20
318.9120814865
 30
0.0
 11
971.0467782665
 21
318.9120814865
 31
0.0
  0
LINE
  5
322
330
1B
100
AcDbEntity
 67
     1
  8
02___PRT_ALL_AXES
  6
Continuous
 62
     7
100
AcDbLine
 10
941.6589227087
 20
318.9120814865
 30
0.0
 11
940.9368944676
 21
318.9120814865
 31
0.0
  0
LINE
  5
323
330
1B
100
AcDbEntity
 67
     1
  8
02___PRT_ALL_AXES
  6
Continuous
 62
     7
100
AcDbLine
 10
876.1566620654
 20
318.9120814865
 30
0.0
 11
875.4346338243
 21
318.9120814865
 31
0.0
  0
LINE
  5
324
330
1B
100
AcDbEntity
 67
     1
  8
02___PRT_ALL_AXES
  6
Continuous
 62
     7
100
AcDbLine
 10
846.0467782665
 20
318.9120814865
 30
0.0
 11
321.0467782665
 21
318.9120814865
 31
0.0
  0
LINE
  5
325
330
1B
100
AcDbEntity
 67
     1
  8
02___PRT_ALL_AXES
  6
Continuous
 62
     7
100
AcDbLine
 10
291.6589227087
 20
318.9120814865
 30
0.0
 11
290.9368944676
 21
318.9120814865
 31
0.0
  0
LINE
  5
326
330
1B
100
AcDbEntity
 67
     1
  8
02___PRT_ALL_AXES
  6
Continuous
 62
     7
100
AcDbLine
 10
226.1566620654
 20
318.9120814865
 30
0.0
 11
225.4346338243
 21
318.9120814865
 31
0.0
  0
LINE
  5
327
330
1B
100
AcDbEntity
 67
     1
  8
02___PRT_ALL_AXES
  6
Continuous
 62
     7
100
AcDbLine
 10
196.0467782665
 20
318.9120814865
 30
0.0
 11
160.0467782665
 21
318.9120814865
 31
0.0
  0
LINE
  5
328
330
1B
100
AcDbEntity
 67
     1
  8
02___PRT_ALL_AXES
  6
Continuous
 62
     7
100
AcDbLine
 10
1671.5467782665
 20
318.9120814865
 30
0.0
 11
1621.0467782665
 21
318.9120814865
 31
0.0
  0
LINE
  5
329
330
1B
100
AcDbEntity
 67
     1
  8
02___PRT_ALL_AXES
  6
Continuous
 62
     7
100
AcDbLine
 10
1591.6589227087
 20
318.9120814865
 30
0.0
 11
1590.9368944676
 21
318.9120814865
 31
0.0
  0
LINE
  5
32A
330
1B
100
AcDbEntity
 67
     1
  8
02___PRT_ALL_AXES
  6
Continuous
 62
     7
100
AcDbLine
 10
160.0467782665
 20
323.4120814865
 30
0.0
 11
196.0467782665
 21
323.4120814865
 31
0.0
  0
LINE
  5
32B
330
1B
100
AcDbEntity
 67
     1
  8
02___PRT_ALL_AXES
  6
Continuous
 62
     7
100
AcDbLine
 10
219.8868698835
 20
323.4120814865
 30
0.0
 11
220.1221429797
 21
323.4120814865
 31
0.0
  0
LINE
  5
32C
330
1B
100
AcDbEntity
 67
     1
  8
02___PRT_ALL_AXES
  6
Continuous
 62
     7
100
AcDbLine
 10
296.9714135532
 20
323.4120814865
 30
0.0
 11
297.2066866495
 21
323.4120814865
 31
0.0
  0
LINE
  5
32D
330
1B
100
AcDbEntity
 67
     1
  8
02___PRT_ALL_AXES
  6
Continuous
 62
     7
100
AcDbLine
 10
321.0467782665
 20
323.4120814865
 30
0.0
 11
846.0467782665
 21
323.4120814865
 31
0.0
  0
LINE
  5
32E
330
1B
100
AcDbEntity
 67
     1
  8
02___PRT_ALL_AXES
  6
Continuous
 62
     7
100
AcDbLine
 10
869.8868698835
 20
323.4120814865
 30
0.0
 11
870.1221429797
 21
323.4120814865
 31
0.0
  0
LINE
  5
32F
330
1B
100
AcDbEntity
 67
     1
  8
02___PRT_ALL_AXES
  6
Continuous
 62
     7
100
AcDbLine
 10
946.9714135532
 20
323.4120814865
 30
0.0
 11
947.2066866495
 21
323.4120814865
 31
0.0
  0
LINE
  5
330
330
1B
100
AcDbEntity
 67
     1
  8
02___PRT_ALL_AXES
  6
Continuous
 62
     7
100
AcDbLine
 10
971.0467782665
 20
323.4120814865
 30
0.0
 11
1496.0467782665
 21
323.4120814865
 31
0.0
  0
LINE
  5
331
330
1B
100
AcDbEntity
 67
     1
  8
02___PRT_ALL_AXES
  6
Continuous
 62
     7
100
AcDbLine
 10
1519.8868698835
 20
323.4120814865
 30
0.0
 11
1520.1221429797
 21
323.4120814865
 31
0.0
  0
LINE
  5
332
330
1B
100
AcDbEntity
 67
     1
  8
02___PRT_ALL_AXES
  6
Continuous
 62
     7
100
AcDbLine
 10
1596.9714135532
 20
323.4120814865
 30
0.0
 11
1597.2066866495
 21
323.4120814865
 31
0.0
  0
LINE
  5
333
330
1B
100
AcDbEntity
 67
     1
  8
02___PRT_ALL_AXES
  6
Continuous
 62
     7
100
AcDbLine
 10
1621.0467782665
 20
323.4120814865
 30
0.0
 11
1671.5467782665
 21
323.4120814865
 31
0.0
  0
LINE
  5
334
330
1B
100
AcDbEntity
 67
     1
  8
7_ALL_FEATURES
  6
Continuous
 62
     7
100
AcDbLine
 10
1671.5467782665
 20
293.9120814865
 30
0.0
 11
1621.0467782665
 21
293.9120814865
 31
0.0
  0
LINE
  5
335
330
1B
100
AcDbEntity
 67
     1
  8
7_ALL_FEATURES
  6
Continuous
 62
     7
100
AcDbLine
 10
1496.0467782665
 20
293.9120814865
 30
0.0
 11
971.0467782665
 21
293.9120814865
 31
0.0
  0
LINE
  5
336
330
1B
100
AcDbEntity
 67
     1
  8
7_ALL_FEATURES
  6
Continuous
 62
     7
100
AcDbLine
 10
846.0467782665
 20
293.9120814865
 30
0.0
 11
321.0467782665
 21
293.9120814865
 31
0.0
  0
LINE
  5
337
330
1B
100
AcDbEntity
 67
     1
  8
7_ALL_FEATURES
  6
Continuous
 62
     7
100
AcDbLine
 10
196.0467782665
 20
293.9120814865
 30
0.0
 11
160.0467782665
 21
293.9120814865
 31
0.0
  0
ARC
  5
338
330
1B
100
AcDbEntity
 67
     1
  8
02___PRT_ALL_AXES
  6
Continuous
 62
     7
100
AcDbCircle
 10
1571.5467782665
 20
311.4120814865
 30
0.0
 40
13.0
100
AcDbArc
 50
146.3687225521
 51
147.4167526974
  0
ARC
  5
339
330
1B
100
AcDbEntity
 67
     1
  8
02___PRT_ALL_AXES
  6
Continuous
 62
     7
100
AcDbCircle
 10
1571.5467782665
 20
311.4120814865
 30
0.0
 40
13.0
100
AcDbArc
 50
32.5832473026
 51
33.6312774479
  0
LINE
  5
33A
330
1B
100
AcDbEntity
 67
     1
  8
7_ALL_FEATURES
  6
Continuous
 62
     7
100
AcDbLine
 10
1671.5467782665
 20
336.9120814865
 30
0.0
 11
1621.0467782665
 21
336.9120814865
 31
0.0
  0
LINE
  5
33B
330
1B
100
AcDbEntity
 67
     1
  8
7_ALL_FEATURES
  6
Continuous
 62
     7
100
AcDbLine
 10
1598.5467782665
 20
336.9120814865
 30
0.0
 11
1598.3467782665
 21
336.9120814865
 31
0.0
  0
LINE
  5
33C
330
1B
100
AcDbEntity
 67
     1
  8
7_ALL_FEATURES
  6
Continuous
 62
     7
100
AcDbLine
 10
1518.7467782665
 20
336.9120814865
 30
0.0
 11
1518.5467782665
 21
336.9120814865
 31
0.0
  0
LINE
  5
33D
330
1B
100
AcDbEntity
 67
     1
  8
7_ALL_FEATURES
  6
Continuous
 62
     7
100
AcDbLine
 10
1496.0467782665
 20
336.9120814865
 30
0.0
 11
971.0467782665
 21
336.9120814865
 31
0.0
  0
LINE
  5
33E
330
1B
100
AcDbEntity
 67
     1
  8
7_ALL_FEATURES
  6
Continuous
 62
     7
100
AcDbLine
 10
948.5467782665
 20
336.9120814865
 30
0.0
 11
948.3467782665
 21
336.9120814865
 31
0.0
  0
LINE
  5
33F
330
1B
100
AcDbEntity
 67
     1
  8
7_ALL_FEATURES
  6
Continuous
 62
     7
100
AcDbLine
 10
868.7467782665
 20
336.9120814865
 30
0.0
 11
868.5467782665
 21
336.9120814865
 31
0.0
  0
LINE
  5
340
330
1B
100
AcDbEntity
 67
     1
  8
7_ALL_FEATURES
  6
Continuous
 62
     7
100
AcDbLine
 10
846.0467782665
 20
336.9120814865
 30
0.0
 11
321.0467782665
 21
336.9120814865
 31
0.0
  0
LINE
  5
341
330
1B
100
AcDbEntity
 67
     1
  8
7_ALL_FEATURES
  6
Continuous
 62
     7
100
AcDbLine
 10
298.5467782665
 20
336.9120814865
 30
0.0
 11
298.3467782665
 21
336.9120814865
 31
0.0
  0
LINE
  5
342
330
1B
100
AcDbEntity
 67
     1
  8
7_ALL_FEATURES
  6
Continuous
 62
     7
100
AcDbLine
 10
218.7467782665
 20
336.9120814865
 30
0.0
 11
218.5467782665
 21
336.9120814865
 31
0.0
  0
LINE
  5
343
330
1B
100
AcDbEntity
 67
     1
  8
7_ALL_FEATURES
  6
Continuous
 62
     7
100
AcDbLine
 10
196.0467782665
 20
336.9120814865
 30
0.0
 11
160.0467782665
 21
336.9120814865
 31
0.0
  0
LINE
  5
344
330
1B
100
AcDbEntity
 67
     1
  8
7_ALL_FEATURES
  6
Continuous
 62
     7
100
AcDbLine
 10
1671.5467782665
 20
341.4120814865
 30
0.0
 11
1621.0467782665
 21
341.4120814865
 31
0.0
  0
LINE
  5
345
330
1B
100
AcDbEntity
 67
     1
  8
7_ALL_FEATURES
  6
Continuous
 62
     7
100
AcDbLine
 10
1598.5467782665
 20
341.4120814865
 30
0.0
 11
1598.3467782665
 21
341.4120814865
 31
0.0
  0
LINE
  5
346
330
1B
100
AcDbEntity
 67
     1
  8
7_ALL_FEATURES
  6
Continuous
 62
     7
100
AcDbLine
 10
1518.7467782665
 20
341.4120814865
 30
0.0
 11
1518.5467782665
 21
341.4120814865
 31
0.0
  0
LINE
  5
347
330
1B
100
AcDbEntity
 67
     1
  8
7_ALL_FEATURES
  6
Continuous
 62
     7
100
AcDbLine
 10
1496.0467782665
 20
341.4120814865
 30
0.0
 11
971.0467782665
 21
341.4120814865
 31
0.0
  0
LINE
  5
348
330
1B
100
AcDbEntity
 67
     1
  8
7_ALL_FEATURES
  6
Continuous
 62
     7
100
AcDbLine
 10
948.5467782665
 20
341.4120814865
 30
0.0
 11
948.3467782665
 21
341.4120814865
 31
0.0
  0
LINE
  5
349
330
1B
100
AcDbEntity
 67
     1
  8
7_ALL_FEATURES
  6
Continuous
 62
     7
100
AcDbLine
 10
868.7467782665
 20
341.4120814865
 30
0.0
 11
868.5467782665
 21
341.4120814865
 31
0.0
  0
LINE
  5
34A
330
1B
100
AcDbEntity
 67
     1
  8
7_ALL_FEATURES
  6
Continuous
 62
     7
100
AcDbLine
 10
846.0467782665
 20
341.4120814865
 30
0.0
 11
321.0467782665
 21
341.4120814865
 31
0.0
  0
LINE
  5
34B
330
1B
100
AcDbEntity
 67
     1
  8
7_ALL_FEATURES
  6
Continuous
 62
     7
100
AcDbLine
 10
298.5467782665
 20
341.4120814865
 30
0.0
 11
298.3467782665
 21
341.4120814865
 31
0.0
  0
LINE
  5
34C
330
1B
100
AcDbEntity
 67
     1
  8
7_ALL_FEATURES
  6
Continuous
 62
     7
100
AcDbLine
 10
218.7467782665
 20
341.4120814865
 30
0.0
 11
218.5467782665
 21
341.4120814865
 31
0.0
  0
LINE
  5
34D
330
1B
100
AcDbEntity
 67
     1
  8
7_ALL_FEATURES
  6
Continuous
 62
     7
100
AcDbLine
 10
196.0467782665
 20
341.4120814865
 30
0.0
 11
160.0467782665
 21
341.4120814865
 31
0.0
  0
LINE
  5
34E
330
1B
100
AcDbEntity
 67
     1
  8
7_ALL_FEATURES
  6
Continuous
 62
     7
100
AcDbLine
 10
1671.5467782665
 20
377.4120814865
 30
0.0
 11
160.0467782665
 21
377.4120814865
 31
0.0
  0
LINE
  5
34F
330
1B
100
AcDbEntity
 67
     1
  8
02___PRT_ALL_AXES
  6
Continuous
 62
     9
100
AcDbLine
 10
1597.1403907091
 20
323.7120814865
 30
0.0
 11
1597.3670399903
 21
323.7120814865
 31
0.0
  0
LINE
  5
350
330
1B
100
AcDbEntity
 67
     1
  8
02___PRT_ALL_AXES
  6
Continuous
 62
     9
100
AcDbLine
 10
1621.0467782665
 20
323.7120814865
 30
0.0
 11
1671.5467782665
 21
323.7120814865
 31
0.0
  0
LINE
  5
351
330
1B
100
AcDbEntity
 67
     1
  8
7_ALL_FEATURES
  6
Continuous
 62
     9
100
AcDbLine
 10
1671.5467782665
 20
336.7120814865
 30
0.0
 11
1621.0467782665
 21
336.7120814865
 31
0.0
  0
LINE
  5
352
330
1B
100
AcDbEntity
 67
     1
  8
7_ALL_FEATURES
  6
Continuous
 62
     9
100
AcDbLine
 10
1598.5467782665
 20
336.7120814865
 30
0.0
 11
1598.3467782665
 21
336.7120814865
 31
0.0
  0
LINE
  5
353
330
1B
100
AcDbEntity
 67
     1
  8
7_ALL_FEATURES
  6
Continuous
 62
     9
100
AcDbLine
 10
1518.7467782665
 20
336.7120814865
 30
0.0
 11
1518.5467782665
 21
336.7120814865
 31
0.0
  0
LINE
  5
354
330
1B
100
AcDbEntity
 67
     1
  8
7_ALL_FEATURES
  6
Continuous
 62
     9
100
AcDbLine
 10
1496.0467782665
 20
336.7120814865
 30
0.0
 11
971.0467782665
 21
336.7120814865
 31
0.0
  0
LINE
  5
355
330
1B
100
AcDbEntity
 67
     1
  8
7_ALL_FEATURES
  6
Continuous
 62
     9
100
AcDbLine
 10
948.5467782665
 20
336.7120814865
 30
0.0
 11
948.3467782665
 21
336.7120814865
 31
0.0
  0
LINE
  5
356
330
1B
100
AcDbEntity
 67
     1
  8
7_ALL_FEATURES
  6
Continuous
 62
     9
100
AcDbLine
 10
868.7467782665
 20
336.7120814865
 30
0.0
 11
868.5467782665
 21
336.7120814865
 31
0.0
  0
LINE
  5
357
330
1B
100
AcDbEntity
 67
     1
  8
7_ALL_FEATURES
  6
Continuous
 62
     9
100
AcDbLine
 10
846.0467782665
 20
336.7120814865
 30
0.0
 11
321.0467782665
 21
336.7120814865
 31
0.0
  0
LINE
  5
358
330
1B
100
AcDbEntity
 67
     1
  8
7_ALL_FEATURES
  6
Continuous
 62
     9
100
AcDbLine
 10
298.5467782665
 20
336.7120814865
 30
0.0
 11
298.3467782665
 21
336.7120814865
 31
0.0
  0
LINE
  5
359
330
1B
100
AcDbEntity
 67
     1
  8
7_ALL_FEATURES
  6
Continuous
 62
     9
100
AcDbLine
 10
218.7467782665
 20
336.7120814865
 30
0.0
 11
218.5467782665
 21
336.7120814865
 31
0.0
  0
LINE
  5
35A
330
1B
100
AcDbEntity
 67
     1
  8
7_ALL_FEATURES
  6
Continuous
 62
     9
100
AcDbLine
 10
196.0467782665
 20
336.7120814865
 30
0.0
 11
160.0467782665
 21
336.7120814865
 31
0.0
  0
LINE
  5
35B
330
1B
100
AcDbEntity
 67
     1
  8
02___PRT_ALL_AXES
  6
Continuous
 62
     9
100
AcDbLine
 10
160.0467782665
 20
323.7120814865
 30
0.0
 11
196.0467782665
 21
323.7120814865
 31
0.0
  0
LINE
  5
35C
330
1B
100
AcDbEntity
 67
     1
  8
02___PRT_ALL_AXES
  6
Continuous
 62
     9
100
AcDbLine
 10
219.7265165427
 20
323.7120814865
 30
0.0
 11
219.9531658239
 21
323.7120814865
 31
0.0
  0
LINE
  5
35D
330
1B
100
AcDbEntity
 67
     1
  8
02___PRT_ALL_AXES
  6
Continuous
 62
     9
100
AcDbLine
 10
297.1403907091
 20
323.7120814865
 30
0.0
 11
297.3670399903
 21
323.7120814865
 31
0.0
  0
LINE
  5
35E
330
1B
100
AcDbEntity
 67
     1
  8
02___PRT_ALL_AXES
  6
Continuous
 62
     9
100
AcDbLine
 10
321.0467782665
 20
323.7120814865
 30
0.0
 11
846.0467782665
 21
323.7120814865
 31
0.0
  0
LINE
  5
35F
330
1B
100
AcDbEntity
 67
     1
  8
02___PRT_ALL_AXES
  6
Continuous
 62
     9
100
AcDbLine
 10
869.7265165427
 20
323.7120814865
 30
0.0
 11
869.9531658239
 21
323.7120814865
 31
0.0
  0
LINE
  5
360
330
1B
100
AcDbEntity
 67
     1
  8
02___PRT_ALL_AXES
  6
Continuous
 62
     9
100
AcDbLine
 10
947.1403907091
 20
323.7120814865
 30
0.0
 11
947.3670399903
 21
323.7120814865
 31
0.0
  0
LINE
  5
361
330
1B
100
AcDbEntity
 67
     1
  8
02___PRT_ALL_AXES
  6
Continuous
 62
     9
100
AcDbLine
 10
971.0467782665
 20
323.7120814865
 30
0.0
 11
1496.0467782665
 21
323.7120814865
 31
0.0
  0
LINE
  5
362
330
1B
100
AcDbEntity
 67
     1
  8
02___PRT_ALL_AXES
  6
Continuous
 62
     9
100
AcDbLine
 10
1519.7265165427
 20
323.7120814865
 30
0.0
 11
1519.9531658239
 21
323.7120814865
 31
0.0
  0
LINE
  5
363
330
1B
100
AcDbEntity
 67
     1
  8
02___PRT_ALL_AXES
  6
Continuous
 62
     9
100
AcDbLine
 10
1528.5467782665
 20
318.6120814865
 30
0.0
 11
1526.5622528651
 21
318.6120814865
 31
0.0
  0
LINE
  5
364
330
1B
100
AcDbEntity
 67
     1
  8
02___PRT_ALL_AXES
  6
Continuous
 62
     9
100
AcDbLine
 10
1496.0467782665
 20
318.6120814865
 30
0.0
 11
971.0467782665
 21
318.6120814865
 31
0.0
  0
LINE
  5
365
330
1B
100
AcDbEntity
 67
     1
  8
02___PRT_ALL_AXES
  6
Continuous
 62
     9
100
AcDbLine
 10
940.5313036679
 20
318.6120814865
 30
0.0
 11
938.5467782665
 21
318.6120814865
 31
0.0
  0
LINE
  5
366
330
1B
100
AcDbEntity
 67
     1
  8
02___PRT_ALL_AXES
  6
Continuous
 62
     9
100
AcDbLine
 10
878.5467782665
 20
318.6120814865
 30
0.0
 11
876.5622528651
 21
318.6120814865
 31
0.0
  0
LINE
  5
367
330
1B
100
AcDbEntity
 67
     1
  8
02___PRT_ALL_AXES
  6
Continuous
 62
     9
100
AcDbLine
 10
846.0467782665
 20
318.6120814865
 30
0.0
 11
321.0467782665
 21
318.6120814865
 31
0.0
  0
LINE
  5
368
330
1B
100
AcDbEntity
 67
     1
  8
02___PRT_ALL_AXES
  6
Continuous
 62
     9
100
AcDbLine
 10
290.5313036679
 20
318.6120814865
 30
0.0
 11
288.5467782665
 21
318.6120814865
 31
0.0
  0
LINE
  5
369
330
1B
100
AcDbEntity
 67
     1
  8
02___PRT_ALL_AXES
  6
Continuous
 62
     9
100
AcDbLine
 10
228.5467782665
 20
318.6120814865
 30
0.0
 11
226.5622528651
 21
318.6120814865
 31
0.0
  0
LINE
  5
36A
330
1B
100
AcDbEntity
 67
     1
  8
02___PRT_ALL_AXES
  6
Continuous
 62
     9
100
AcDbLine
 10
196.0467782665
 20
318.6120814865
 30
0.0
 11
160.0467782665
 21
318.6120814865
 31
0.0
  0
LINE
  5
36B
330
1B
100
AcDbEntity
 67
     1
  8
7_ALL_FEATURES
  6
Continuous
 62
     9
100
AcDbLine
 10
1671.5467782665
 20
294.9120814865
 30
0.0
 11
1621.0467782665
 21
294.9120814865
 31
0.0
  0
LINE
  5
36C
330
1B
100
AcDbEntity
 67
     1
  8
7_ALL_FEATURES
  6
Continuous
 62
     9
100
AcDbLine
 10
1496.0467782665
 20
294.9120814865
 30
0.0
 11
971.0467782665
 21
294.9120814865
 31
0.0
  0
LINE
  5
36D
330
1B
100
AcDbEntity
 67
     1
  8
7_ALL_FEATURES
  6
Continuous
 62
     9
100
AcDbLine
 10
846.0467782665
 20
294.9120814865
 30
0.0
 11
321.0467782665
 21
294.9120814865
 31
0.0
  0
LINE
  5
36E
330
1B
100
AcDbEntity
 67
     1
  8
7_ALL_FEATURES
  6
Continuous
 62
     9
100
AcDbLine
 10
196.0467782665
 20
294.9120814865
 30
0.0
 11
160.0467782665
 21
294.9120814865
 31
0.0
  0
LINE
  5
36F
330
1B
100
AcDbEntity
 67
     1
  8
02___PRT_ALL_AXES
  6
Continuous
 62
     9
100
AcDbLine
 10
1671.5467782665
 20
318.6120814865
 30
0.0
 11
1621.0467782665
 21
318.6120814865
 31
0.0
  0
LINE
  5
370
330
1B
100
AcDbEntity
 67
     1
  8
02___PRT_ALL_AXES
  6
Continuous
 62
     9
100
AcDbLine
 10
1590.5313036679
 20
318.6120814865
 30
0.0
 11
1588.5467782665
 21
318.6120814865
 31
0.0
  0
LINE
  5
371
330
1B
100
AcDbEntity
 67
     1
  8
7_ALL_FEATURES
  6
Continuous
 62
     9
100
AcDbLine
 10
1671.5467782665
 20
371.2236899308
 30
0.0
 11
160.0467782665
 21
371.2236899308
 31
0.0
  0
LINE
  5
372
330
1B
100
AcDbEntity
 67
     1
  8
7_ALL_FEATURES
  6
Continuous
 62
     9
100
AcDbLine
 10
1671.5467782665
 20
341.6120814865
 30
0.0
 11
1621.0467782665
 21
341.6120814865
 31
0.0
  0
LINE
  5
373
330
1B
100
AcDbEntity
 67
     1
  8
7_ALL_FEATURES
  6
Continuous
 62
     9
100
AcDbLine
 10
1598.5467782665
 20
341.6120814865
 30
0.0
 11
1598.3467782665
 21
341.6120814865
 31
0.0
  0
LINE
  5
374
330
1B
100
AcDbEntity
 67
     1
  8
7_ALL_FEATURES
  6
Continuous
 62
     9
100
AcDbLine
 10
1518.7467782665
 20
341.6120814865
 30
0.0
 11
1518.5467782665
 21
341.6120814865
 31
0.0
  0
LINE
  5
375
330
1B
100
AcDbEntity
 67
     1
  8
7_ALL_FEATURES
  6
Continuous
 62
     9
100
AcDbLine
 10
1496.0467782665
 20
341.6120814865
 30
0.0
 11
971.0467782665
 21
341.6120814865
 31
0.0
  0
LINE
  5
376
330
1B
100
AcDbEntity
 67
     1
  8
7_ALL_FEATURES
  6
Continuous
 62
     9
100
AcDbLine
 10
948.5467782665
 20
341.6120814865
 30
0.0
 11
948.3467782665
 21
341.6120814865
 31
0.0
  0
LINE
  5
377
330
1B
100
AcDbEntity
 67
     1
  8
7_ALL_FEATURES
  6
Continuous
 62
     9
100
AcDbLine
 10
868.7467782665
 20
341.6120814865
 30
0.0
 11
868.5467782665
 21
341.6120814865
 31
0.0
  0
LINE
  5
378
330
1B
100
AcDbEntity
 67
     1
  8
7_ALL_FEATURES
  6
Continuous
 62
     9
100
AcDbLine
 10
846.0467782665
 20
341.6120814865
 30
0.0
 11
321.0467782665
 21
341.6120814865
 31
0.0
  0
LINE
  5
379
330
1B
100
AcDbEntity
 67
     1
  8
7_ALL_FEATURES
  6
Continuous
 62
     9
100
AcDbLine
 10
298.5467782665
 20
341.6120814865
 30
0.0
 11
298.3467782665
 21
341.6120814865
 31
0.0
  0
LINE
  5
37A
330
1B
100
AcDbEntity
 67
     1
  8
7_ALL_FEATURES
  6
Continuous
 62
     9
100
AcDbLine
 10
218.7467782665
 20
341.6120814865
 30
0.0
 11
218.5467782665
 21
341.6120814865
 31
0.0
  0
LINE
  5
37B
330
1B
100
AcDbEntity
 67
     1
  8
7_ALL_FEATURES
  6
Continuous
 62
     9
100
AcDbLine
 10
196.0467782665
 20
341.6120814865
 30
0.0
 11
160.0467782665
 21
341.6120814865
 31
0.0
  0
LINE
  5
37C
330
1B
100
AcDbEntity
 67
     1
  8
7_ALL_FEATURES
  6
Continuous
 62
     9
100
AcDbLine
 10
1671.5467782665
 20
372.2026363725
 30
0.0
 11
160.0467782665
 21
372.2026363725
 31
0.0
  0
LINE
  5
37D
330
1B
100
AcDbEntity
 67
     1
  8
7_ALL_FEATURES
  6
Continuous
 62
     9
100
AcDbLine
 10
1671.5467782665
 20
377.1512393441
 30
0.0
 11
160.0467782665
 21
377.1512393441
 31
0.0
  0
LINE
  5
37E
330
1B
100
AcDbEntity
 67
     1
  8
7_ALL_FEATURES
  6
Continuous
 62
     3
100
AcDbLine
 10
1671.5467782665
 20
318.8946870913
 30
0.0
 11
1671.5467782665
 21
318.9120814865
 31
0.0
  0
LINE
  5
37F
330
1B
100
AcDbEntity
 67
     1
  8
7_ALL_FEATURES
  6
Continuous
 62
     3
100
AcDbLine
 10
1671.5467782665
 20
318.9120814865
 30
0.0
 11
1671.5467782665
 21
323.4120814865
 31
0.0
  0
LINE
  5
380
330
1B
100
AcDbEntity
 67
     1
  8
7_ALL_FEATURES
  6
Continuous
 62
     3
100
AcDbLine
 10
1671.5467782665
 20
323.4120814865
 30
0.0
 11
1671.5467782665
 21
323.4294758817
 31
0.0
  0
LINE
  5
381
330
1B
100
AcDbEntity
 67
     1
  8
7_ALL_FEATURES
  6
Continuous
 62
     3
100
AcDbLine
 10
1671.5467782665
 20
336.9120814865
 30
0.0
 11
1671.5467782665
 21
341.4120814865
 31
0.0
  0
LINE
  5
382
330
1B
100
AcDbEntity
 67
     1
  8
7_ALL_FEATURES
  6
Continuous
 62
     3
100
AcDbLine
 10
1671.5467782665
 20
376.4120814865
 30
0.0
 11
1671.5467782665
 21
377.0147161228
 31
0.0
  0
LINE
  5
383
330
1B
100
AcDbEntity
 67
     1
  8
7_ALL_FEATURES
  6
Continuous
 62
     3
100
AcDbLine
 10
1671.5467782665
 20
377.0147161228
 30
0.0
 11
1671.5467782665
 21
377.3072447778
 31
0.0
  0
LINE
  5
384
330
1B
100
AcDbEntity
 67
     1
  8
7_ALL_FEATURES
  6
Continuous
 62
     3
100
AcDbLine
 10
1671.5467782665
 20
377.3072447778
 30
0.0
 11
1671.5467782665
 21
377.3331206517
 31
0.0
  0
LINE
  5
385
330
1B
100
AcDbEntity
 67
     1
  8
7_ALL_FEATURES
  6
Continuous
 62
     3
100
AcDbLine
 10
1671.5467782665
 20
373.2344167245
 30
0.0
 11
1671.5467782665
 21
376.4120814865
 31
0.0
  0
LINE
  5
386
330
1B
100
AcDbEntity
 67
     1
  8
7_ALL_FEATURES
  6
Continuous
 62
     3
100
AcDbLine
 10
160.0467782665
 20
377.3331206517
 30
0.0
 11
160.0467782665
 21
377.3072447778
 31
0.0
  0
LINE
  5
387
330
1B
100
AcDbEntity
 67
     1
  8
7_ALL_FEATURES
  6
Continuous
 62
     3
100
AcDbLine
 10
160.0467782665
 20
377.3072447778
 30
0.0
 11
160.0467782665
 21
377.0147161228
 31
0.0
  0
LINE
  5
388
330
1B
100
AcDbEntity
 67
     1
  8
7_ALL_FEATURES
  6
Continuous
 62
     3
100
AcDbLine
 10
160.0467782665
 20
377.0147161228
 30
0.0
 11
160.0467782665
 21
376.4120814865
 31
0.0
  0
LINE
  5
389
330
1B
100
AcDbEntity
 67
     1
  8
7_ALL_FEATURES
  6
Continuous
 62
     3
100
AcDbLine
 10
160.0467782665
 20
376.4120814865
 30
0.0
 11
160.0467782665
 21
373.2344167245
 31
0.0
  0
LINE
  5
38A
330
1B
100
AcDbEntity
 67
     1
  8
7_ALL_FEATURES
  6
Continuous
 62
     3
100
AcDbLine
 10
160.0467782665
 20
341.4120814865
 30
0.0
 11
160.0467782665
 21
336.9120814865
 31
0.0
  0
LINE
  5
38B
330
1B
100
AcDbEntity
 67
     1
  8
7_ALL_FEATURES
  6
Continuous
 62
     3
100
AcDbLine
 10
160.0467782665
 20
323.4294758817
 30
0.0
 11
160.0467782665
 21
323.4120814865
 31
0.0
  0
LINE
  5
38C
330
1B
100
AcDbEntity
 67
     1
  8
7_ALL_FEATURES
  6
Continuous
 62
     3
100
AcDbLine
 10
160.0467782665
 20
323.4120814865
 30
0.0
 11
160.0467782665
 21
318.9120814865
 31
0.0
  0
LINE
  5
38D
330
1B
100
AcDbEntity
 67
     1
  8
7_ALL_FEATURES
  6
Continuous
 62
     3
100
AcDbLine
 10
160.0467782665
 20
318.9120814865
 30
0.0
 11
160.0467782665
 21
318.8946870913
 31
0.0
  0
LINE
  5
38E
330
1B
100
AcDbEntity
 67
     1
  8
7_ALL_FEATURES
  6
Continuous
 62
     3
100
AcDbLine
 10
971.0467782665
 20
294.5120814865
 30
0.0
 11
971.0467782665
 21
362.7120814865
 31
0.0
  0
LINE
  5
38F
330
1B
100
AcDbEntity
 67
     1
  8
7_ALL_FEATURES
  6
Continuous
 62
     3
100
AcDbLine
 10
846.0467782665
 20
362.7120814865
 30
0.0
 11
846.0467782665
 21
294.5120814865
 31
0.0
  0
LINE
  5
390
330
1B
100
AcDbEntity
 67
     1
  8
02___PRT_ALL_AXES
  6
Continuous
 62
     3
100
AcDbLine
 10
868.5467782665
 20
348.4120814865
 30
0.0
 11
868.5467782665
 21
328.4120814865
 31
0.0
  0
ARC
  5
391
330
1B
100
AcDbEntity
 67
     1
  8
02___PRT_ALL_AXES
  6
Continuous
 62
     3
100
AcDbCircle
 10
878.5467782665
 20
328.4120814865
 30
0.0
 40
10.0
100
AcDbArc
 50
180.0
 51
270.0
  0
LINE
  5
392
330
1B
100
AcDbEntity
 67
     1
  8
02___PRT_ALL_AXES
  6
Continuous
 62
     3
100
AcDbLine
 10
878.5467782665
 20
318.4120814865
 30
0.0
 11
938.5467782665
 21
318.4120814865
 31
0.0
  0
ARC
  5
393
330
1B
100
AcDbEntity
 67
     1
  8
02___PRT_ALL_AXES
  6
Continuous
 62
     3
100
AcDbCircle
 10
938.5467782665
 20
328.4120814865
 30
0.0
 40
10.0
100
AcDbArc
 50
270.0
 51
360.0
  0
LINE
  5
394
330
1B
100
AcDbEntity
 67
     1
  8
02___PRT_ALL_AXES
  6
Continuous
 62
     3
100
AcDbLine
 10
948.5467782665
 20
328.4120814865
 30
0.0
 11
948.5467782665
 21
348.4120814865
 31
0.0
  0
LINE
  5
395
330
1B
100
AcDbEntity
 67
     1
  8
02___PRT_ALL_AXES
  6
Continuous
 62
     3
100
AcDbLine
 10
948.5467782665
 20
348.4120814865
 30
0.0
 11
948.3467782665
 21
348.4120814865
 31
0.0
  0
LINE
  5
396
330
1B
100
AcDbEntity
 67
     1
  8
02___PRT_ALL_AXES
  6
Continuous
 62
     3
100
AcDbLine
 10
948.3467782665
 20
348.4120814865
 30
0.0
 11
948.3467782665
 21
328.4120814865
 31
0.0
  0
ARC
  5
397
330
1B
100
AcDbEntity
 67
     1
  8
02___PRT_ALL_AXES
  6
Continuous
 62
     3
100
AcDbCircle
 10
938.5467782665
 20
328.4120814865
 30
0.0
 40
9.8
100
AcDbArc
 50
270.0
 51
360.0
  0
LINE
  5
398
330
1B
100
AcDbEntity
 67
     1
  8
02___PRT_ALL_AXES
  6
Continuous
 62
     3
100
AcDbLine
 10
938.5467782665
 20
318.6120814865
 30
0.0
 11
878.5467782665
 21
318.6120814865
 31
0.0
  0
ARC
  5
399
330
1B
100
AcDbEntity
 67
     1
  8
02___PRT_ALL_AXES
  6
Continuous
 62
     3
100
AcDbCircle
 10
878.5467782665
 20
328.4120814865
 30
0.0
 40
9.8
100
AcDbArc
 50
180.0
 51
270.0
  0
LINE
  5
39A
330
1B
100
AcDbEntity
 67
     1
  8
02___PRT_ALL_AXES
  6
Continuous
 62
     3
100
AcDbLine
 10
868.7467782665
 20
328.4120814865
 30
0.0
 11
868.7467782665
 21
348.4120814865
 31
0.0
  0
LINE
  5
39B
330
1B
100
AcDbEntity
 67
     1
  8
02___PRT_ALL_AXES
  6
Continuous
 62
     3
100
AcDbLine
 10
868.7467782665
 20
348.4120814865
 30
0.0
 11
868.5467782665
 21
348.4120814865
 31
0.0
  0
LINE
  5
39C
330
1B
100
AcDbEntity
 67
     1
  8
02___PRT_ALL_AXES
  6
Continuous
 62
     3
100
AcDbLine
 10
870.3467782665
 20
348.5120814865
 30
0.0
 11
870.3467782665
 21
348.3120814865
 31
0.0
  0
LINE
  5
39D
330
1B
100
AcDbEntity
 67
     1
  8
02___PRT_ALL_AXES
  6
Continuous
 62
     3
100
AcDbLine
 10
870.3467782665
 20
348.3120814865
 30
0.0
 11
907.7467782665
 21
348.3120814865
 31
0.0
  0
LINE
  5
39E
330
1B
100
AcDbEntity
 67
     1
  8
02___PRT_ALL_AXES
  6
Continuous
 62
     3
100
AcDbLine
 10
907.7467782665
 20
348.3120814865
 30
0.0
 11
907.7467782665
 21
348.5120814865
 31
0.0
  0
LINE
  5
39F
330
1B
100
AcDbEntity
 67
     1
  8
02___PRT_ALL_AXES
  6
Continuous
 62
     3
100
AcDbLine
 10
907.7467782665
 20
348.5120814865
 30
0.0
 11
870.3467782665
 21
348.5120814865
 31
0.0
  0
LINE
  5
3A0
330
1B
100
AcDbEntity
 67
     1
  8
02___PRT_ALL_AXES
  6
Continuous
 62
     3
100
AcDbLine
 10
946.7467782665
 20
348.5120814865
 30
0.0
 11
909.3467782665
 21
348.5120814865
 31
0.0
  0
LINE
  5
3A1
330
1B
100
AcDbEntity
 67
     1
  8
02___PRT_ALL_AXES
  6
Continuous
 62
     3
100
AcDbLine
 10
909.3467782665
 20
348.5120814865
 30
0.0
 11
909.3467782665
 21
348.3120814865
 31
0.0
  0
LINE
  5
3A2
330
1B
100
AcDbEntity
 67
     1
  8
02___PRT_ALL_AXES
  6
Continuous
 62
     3
100
AcDbLine
 10
909.3467782665
 20
348.3120814865
 30
0.0
 11
946.7467782665
 21
348.3120814865
 31
0.0
  0
LINE
  5
3A3
330
1B
100
AcDbEntity
 67
     1
  8
02___PRT_ALL_AXES
  6
Continuous
 62
     3
100
AcDbLine
 10
946.7467782665
 20
348.3120814865
 30
0.0
 11
946.7467782665
 21
348.5120814865
 31
0.0
  0
LINE
  5
3A4
330
1B
100
AcDbEntity
 67
     1
  8
7_ALL_FEATURES
  6
Continuous
 62
     3
100
AcDbLine
 10
971.0467782665
 20
294.5120814865
 30
0.0
 11
971.0467782665
 21
293.8067391837
 31
0.0
  0
LINE
  5
3A5
330
1B
100
AcDbEntity
 67
     1
  8
7_ALL_FEATURES
  6
Continuous
 62
     3
100
AcDbLine
 10
971.0467782665
 20
293.8067391837
 30
0.0
 11
971.0467782665
 21
293.3120814865
 31
0.0
  0
LINE
  5
3A6
330
1B
100
AcDbEntity
 67
     1
  8
7_ALL_FEATURES
  6
Continuous
 62
     3
100
AcDbLine
 10
846.0467782665
 20
293.3120814865
 30
0.0
 11
971.0467782665
 21
293.3120814865
 31
0.0
  0
LINE
  5
3A7
330
1B
100
AcDbEntity
 67
     1
  8
7_ALL_FEATURES
  6
Continuous
 62
     3
100
AcDbLine
 10
846.0467782665
 20
294.5120814865
 30
0.0
 11
846.0467782665
 21
293.8067391837
 31
0.0
  0
LINE
  5
3A8
330
1B
100
AcDbEntity
 67
     1
  8
7_ALL_FEATURES
  6
Continuous
 62
     3
100
AcDbLine
 10
846.0467782665
 20
293.8067391837
 30
0.0
 11
846.0467782665
 21
293.3120814865
 31
0.0
  0
LINE
  5
3A9
330
1B
100
AcDbEntity
 67
     1
  8
7_ALL_FEATURES
  6
Continuous
 62
     3
100
AcDbLine
 10
971.0467782665
 20
363.3120814865
 30
0.0
 11
959.0467782665
 21
363.3120814865
 31
0.0
  0
LINE
  5
3AA
330
1B
100
AcDbEntity
 67
     1
  8
7_ALL_FEATURES
  6
Continuous
 62
     3
100
AcDbLine
 10
858.0467782665
 20
363.3120814865
 30
0.0
 11
846.0467782665
 21
363.3120814865
 31
0.0
  0
LINE
  5
3AB
330
1B
100
AcDbEntity
 67
     1
  8
7_ALL_FEATURES
  6
Continuous
 62
     3
100
AcDbLine
 10
858.0467782665
 20
363.3120814865
 30
0.0
 11
959.0467782665
 21
363.3120814865
 31
0.0
  0
LINE
  5
3AC
330
1B
100
AcDbEntity
 67
     1
  8
7_ALL_FEATURES
  6
Continuous
 62
     3
100
AcDbLine
 10
971.0467782665
 20
363.3120814865
 30
0.0
 11
971.0467782665
 21
362.7120814865
 31
0.0
  0
LINE
  5
3AD
330
1B
100
AcDbEntity
 67
     1
  8
7_ALL_FEATURES
  6
Continuous
 62
     3
100
AcDbLine
 10
846.0467782665
 20
363.3120814865
 30
0.0
 11
846.0467782665
 21
362.7120814865
 31
0.0
  0
LINE
  5
3AE
330
1B
100
AcDbEntity
 67
     1
  8
7_ALL_FEATURES
  6
Continuous
 62
     9
100
AcDbLine
 10
846.0467782665
 20
294.5120814865
 30
0.0
 11
971.0467782665
 21
294.5120814865
 31
0.0
  0
LINE
  5
3AF
330
1B
100
AcDbEntity
 67
     1
  8
7_ALL_FEATURES
  6
Continuous
 62
     9
100
AcDbLine
 10
971.0467782665
 20
362.7120814865
 30
0.0
 11
846.0467782665
 21
362.7120814865
 31
0.0
  0
LINE
  5
3B0
330
1B
100
AcDbEntity
 67
     1
  8
7_ALL_FEATURES
  6
Continuous
 62
     3
100
AcDbLine
 10
1621.0467782665
 20
294.5120814865
 30
0.0
 11
1621.0467782665
 21
362.7120814865
 31
0.0
  0
LINE
  5
3B1
330
1B
100
AcDbEntity
 67
     1
  8
7_ALL_FEATURES
  6
Continuous
 62
     3
100
AcDbLine
 10
1496.0467782665
 20
362.7120814865
 30
0.0
 11
1496.0467782665
 21
294.5120814865
 31
0.0
  0
LINE
  5
3B2
330
1B
100
AcDbEntity
 67
     1
  8
02___PRT_ALL_AXES
  6
Continuous
 62
     3
100
AcDbLine
 10
1518.5467782665
 20
348.4120814865
 30
0.0
 11
1518.5467782665
 21
328.4120814865
 31
0.0
  0
ARC
  5
3B3
330
1B
100
AcDbEntity
 67
     1
  8
02___PRT_ALL_AXES
  6
Continuous
 62
     3
100
AcDbCircle
 10
1528.5467782665
 20
328.4120814865
 30
0.0
 40
10.0
100
AcDbArc
 50
180.0
 51
270.0
  0
LINE
  5
3B4
330
1B
100
AcDbEntity
 67
     1
  8
02___PRT_ALL_AXES
  6
Continuous
 62
     3
100
AcDbLine
 10
1528.5467782665
 20
318.4120814865
 30
0.0
 11
1588.5467782665
 21
318.4120814865
 31
0.0
  0
ARC
  5
3B5
330
1B
100
AcDbEntity
 67
     1
  8
02___PRT_ALL_AXES
  6
Continuous
 62
     3
100
AcDbCircle
 10
1588.5467782665
 20
328.4120814865
 30
0.0
 40
10.0
100
AcDbArc
 50
270.0
 51
360.0
  0
LINE
  5
3B6
330
1B
100
AcDbEntity
 67
     1
  8
02___PRT_ALL_AXES
  6
Continuous
 62
     3
100
AcDbLine
 10
1598.5467782665
 20
328.4120814865
 30
0.0
 11
1598.5467782665
 21
348.4120814865
 31
0.0
  0
LINE
  5
3B7
330
1B
100
AcDbEntity
 67
     1
  8
02___PRT_ALL_AXES
  6
Continuous
 62
     3
100
AcDbLine
 10
1598.5467782665
 20
348.4120814865
 30
0.0
 11
1598.3467782665
 21
348.4120814865
 31
0.0
  0
LINE
  5
3B8
330
1B
100
AcDbEntity
 67
     1
  8
02___PRT_ALL_AXES
  6
Continuous
 62
     3
100
AcDbLine
 10
1598.3467782665
 20
348.4120814865
 30
0.0
 11
1598.3467782665
 21
328.4120814865
 31
0.0
  0
ARC
  5
3B9
330
1B
100
AcDbEntity
 67
     1
  8
02___PRT_ALL_AXES
  6
Continuous
 62
     3
100
AcDbCircle
 10
1588.5467782665
 20
328.4120814865
 30
0.0
 40
9.8
100
AcDbArc
 50
270.0
 51
360.0
  0
LINE
  5
3BA
330
1B
100
AcDbEntity
 67
     1
  8
02___PRT_ALL_AXES
  6
Continuous
 62
     3
100
AcDbLine
 10
1588.5467782665
 20
318.6120814865
 30
0.0
 11
1528.5467782665
 21
318.6120814865
 31
0.0
  0
ARC
  5
3BB
330
1B
100
AcDbEntity
 67
     1
  8
02___PRT_ALL_AXES
  6
Continuous
 62
     3
100
AcDbCircle
 10
1528.5467782665
 20
328.4120814865
 30
0.0
 40
9.8
100
AcDbArc
 50
180.0
 51
270.0
  0
LINE
  5
3BC
330
1B
100
AcDbEntity
 67
     1
  8
02___PRT_ALL_AXES
  6
Continuous
 62
     3
100
AcDbLine
 10
1518.7467782665
 20
328.4120814865
 30
0.0
 11
1518.7467782665
 21
348.4120814865
 31
0.0
  0
LINE
  5
3BD
330
1B
100
AcDbEntity
 67
     1
  8
02___PRT_ALL_AXES
  6
Continuous
 62
     3
100
AcDbLine
 10
1518.7467782665
 20
348.4120814865
 30
0.0
 11
1518.5467782665
 21
348.4120814865
 31
0.0
  0
LINE
  5
3BE
330
1B
100
AcDbEntity
 67
     1
  8
02___PRT_ALL_AXES
  6
Continuous
 62
     3
100
AcDbLine
 10
1520.3467782665
 20
348.5120814865
 30
0.0
 11
1520.3467782665
 21
348.3120814865
 31
0.0
  0
LINE
  5
3BF
330
1B
100
AcDbEntity
 67
     1
  8
02___PRT_ALL_AXES
  6
Continuous
 62
     3
100
AcDbLine
 10
1520.3467782665
 20
348.3120814865
 30
0.0
 11
1557.7467782665
 21
348.3120814865
 31
0.0
  0
LINE
  5
3C0
330
1B
100
AcDbEntity
 67
     1
  8
02___PRT_ALL_AXES
  6
Continuous
 62
     3
100
AcDbLine
 10
1557.7467782665
 20
348.3120814865
 30
0.0
 11
1557.7467782665
 21
348.5120814865
 31
0.0
  0
LINE
  5
3C1
330
1B
100
AcDbEntity
 67
     1
  8
02___PRT_ALL_AXES
  6
Continuous
 62
     3
100
AcDbLine
 10
1557.7467782665
 20
348.5120814865
 30
0.0
 11
1520.3467782665
 21
348.5120814865
 31
0.0
  0
LINE
  5
3C2
330
1B
100
AcDbEntity
 67
     1
  8
02___PRT_ALL_AXES
  6
Continuous
 62
     3
100
AcDbLine
 10
1596.7467782665
 20
348.5120814865
 30
0.0
 11
1559.3467782665
 21
348.5120814865
 31
0.0
  0
LINE
  5
3C3
330
1B
100
AcDbEntity
 67
     1
  8
02___PRT_ALL_AXES
  6
Continuous
 62
     3
100
AcDbLine
 10
1559.3467782665
 20
348.5120814865
 30
0.0
 11
1559.3467782665
 21
348.3120814865
 31
0.0
  0
LINE
  5
3C4
330
1B
100
AcDbEntity
 67
     1
  8
02___PRT_ALL_AXES
  6
Continuous
 62
     3
100
AcDbLine
 10
1559.3467782665
 20
348.3120814865
 30
0.0
 11
1596.7467782665
 21
348.3120814865
 31
0.0
  0
LINE
  5
3C5
330
1B
100
AcDbEntity
 67
     1
  8
02___PRT_ALL_AXES
  6
Continuous
 62
     3
100
AcDbLine
 10
1596.7467782665
 20
348.3120814865
 30
0.0
 11
1596.7467782665
 21
348.5120814865
 31
0.0
  0
LINE
  5
3C6
330
1B
100
AcDbEntity
 67
     1
  8
7_ALL_FEATURES
  6
Continuous
 62
     3
100
AcDbLine
 10
1621.0467782665
 20
294.5120814865
 30
0.0
 11
1621.0467782665
 21
293.8067391837
 31
0.0
  0
LINE
  5
3C7
330
1B
100
AcDbEntity
 67
     1
  8
7_ALL_FEATURES
  6
Continuous
 62
     3
100
AcDbLine
 10
1621.0467782665
 20
293.8067391837
 30
0.0
 11
1621.0467782665
 21
293.3120814865
 31
0.0
  0
LINE
  5
3C8
330
1B
100
AcDbEntity
 67
     1
  8
7_ALL_FEATURES
  6
Continuous
 62
     3
100
AcDbLine
 10
1496.0467782665
 20
293.3120814865
 30
0.0
 11
1621.0467782665
 21
293.3120814865
 31
0.0
  0
LINE
  5
3C9
330
1B
100
AcDbEntity
 67
     1
  8
7_ALL_FEATURES
  6
Continuous
 62
     3
100
AcDbLine
 10
1496.0467782665
 20
294.5120814865
 30
0.0
 11
1496.0467782665
 21
293.8067391837
 31
0.0
  0
LINE
  5
3CA
330
1B
100
AcDbEntity
 67
     1
  8
7_ALL_FEATURES
  6
Continuous
 62
     3
100
AcDbLine
 10
1496.0467782665
 20
293.8067391837
 30
0.0
 11
1496.0467782665
 21
293.3120814865
 31
0.0
  0
LINE
  5
3CB
330
1B
100
AcDbEntity
 67
     1
  8
7_ALL_FEATURES
  6
Continuous
 62
     3
100
AcDbLine
 10
1621.0467782665
 20
363.3120814865
 30
0.0
 11
1609.0467782665
 21
363.3120814865
 31
0.0
  0
LINE
  5
3CC
330
1B
100
AcDbEntity
 67
     1
  8
7_ALL_FEATURES
  6
Continuous
 62
     3
100
AcDbLine
 10
1508.0467782665
 20
363.3120814865
 30
0.0
 11
1496.0467782665
 21
363.3120814865
 31
0.0
  0
LINE
  5
3CD
330
1B
100
AcDbEntity
 67
     1
  8
7_ALL_FEATURES
  6
Continuous
 62
     3
100
AcDbLine
 10
1508.0467782665
 20
363.3120814865
 30
0.0
 11
1609.0467782665
 21
363.3120814865
 31
0.0
  0
LINE
  5
3CE
330
1B
100
AcDbEntity
 67
     1
  8
7_ALL_FEATURES
  6
Continuous
 62
     3
100
AcDbLine
 10
1621.0467782665
 20
363.3120814865
 30
0.0
 11
1621.0467782665
 21
362.7120814865
 31
0.0
  0
LINE
  5
3CF
330
1B
100
AcDbEntity
 67
     1
  8
7_ALL_FEATURES
  6
Continuous
 62
     3
100
AcDbLine
 10
1496.0467782665
 20
363.3120814865
 30
0.0
 11
1496.0467782665
 21
362.7120814865
 31
0.0
  0
LINE
  5
3D0
330
1B
100
AcDbEntity
 67
     1
  8
7_ALL_FEATURES
  6
Continuous
 62
     9
100
AcDbLine
 10
1496.0467782665
 20
294.5120814865
 30
0.0
 11
1621.0467782665
 21
294.5120814865
 31
0.0
  0
LINE
  5
3D1
330
1B
100
AcDbEntity
 67
     1
  8
7_ALL_FEATURES
  6
Continuous
 62
     9
100
AcDbLine
 10
1621.0467782665
 20
362.7120814865
 30
0.0
 11
1496.0467782665
 21
362.7120814865
 31
0.0
  0
LINE
  5
3D2
330
1B
100
AcDbEntity
 67
     1
  8
7_ALL_FEATURES
  6
Continuous
 62
     3
100
AcDbLine
 10
321.0467782665
 20
294.5120814865
 30
0.0
 11
321.0467782665
 21
362.7120814865
 31
0.0
  0
LINE
  5
3D3
330
1B
100
AcDbEntity
 67
     1
  8
7_ALL_FEATURES
  6
Continuous
 62
     3
100
AcDbLine
 10
196.0467782665
 20
362.7120814865
 30
0.0
 11
196.0467782665
 21
294.5120814865
 31
0.0
  0
LINE
  5
3D4
330
1B
100
AcDbEntity
 67
     1
  8
02___PRT_ALL_AXES
  6
Continuous
 62
     3
100
AcDbLine
 10
218.5467782665
 20
348.4120814865
 30
0.0
 11
218.5467782665
 21
328.4120814865
 31
0.0
  0
ARC
  5
3D5
330
1B
100
AcDbEntity
 67
     1
  8
02___PRT_ALL_AXES
  6
Continuous
 62
     3
100
AcDbCircle
 10
228.5467782665
 20
328.4120814865
 30
0.0
 40
10.0
100
AcDbArc
 50
180.0
 51
270.0
  0
LINE
  5
3D6
330
1B
100
AcDbEntity
 67
     1
  8
02___PRT_ALL_AXES
  6
Continuous
 62
     3
100
AcDbLine
 10
228.5467782665
 20
318.4120814865
 30
0.0
 11
288.5467782665
 21
318.4120814865
 31
0.0
  0
ARC
  5
3D7
330
1B
100
AcDbEntity
 67
     1
  8
02___PRT_ALL_AXES
  6
Continuous
 62
     3
100
AcDbCircle
 10
288.5467782665
 20
328.4120814865
 30
0.0
 40
10.0
100
AcDbArc
 50
270.0
 51
360.0
  0
LINE
  5
3D8
330
1B
100
AcDbEntity
 67
     1
  8
02___PRT_ALL_AXES
  6
Continuous
 62
     3
100
AcDbLine
 10
298.5467782665
 20
328.4120814865
 30
0.0
 11
298.5467782665
 21
348.4120814865
 31
0.0
  0
LINE
  5
3D9
330
1B
100
AcDbEntity
 67
     1
  8
02___PRT_ALL_AXES
  6
Continuous
 62
     3
100
AcDbLine
 10
298.5467782665
 20
348.4120814865
 30
0.0
 11
298.3467782665
 21
348.4120814865
 31
0.0
  0
LINE
  5
3DA
330
1B
100
AcDbEntity
 67
     1
  8
02___PRT_ALL_AXES
  6
Continuous
 62
     3
100
AcDbLine
 10
298.3467782665
 20
348.4120814865
 30
0.0
 11
298.3467782665
 21
328.4120814865
 31
0.0
  0
ARC
  5
3DB
330
1B
100
AcDbEntity
 67
     1
  8
02___PRT_ALL_AXES
  6
Continuous
 62
     3
100
AcDbCircle
 10
288.5467782665
 20
328.4120814865
 30
0.0
 40
9.8
100
AcDbArc
 50
270.0
 51
360.0
  0
LINE
  5
3DC
330
1B
100
AcDbEntity
 67
     1
  8
02___PRT_ALL_AXES
  6
Continuous
 62
     3
100
AcDbLine
 10
288.5467782665
 20
318.6120814865
 30
0.0
 11
228.5467782665
 21
318.6120814865
 31
0.0
  0
ARC
  5
3DD
330
1B
100
AcDbEntity
 67
     1
  8
02___PRT_ALL_AXES
  6
Continuous
 62
     3
100
AcDbCircle
 10
228.5467782665
 20
328.4120814865
 30
0.0
 40
9.8
100
AcDbArc
 50
180.0
 51
270.0
  0
LINE
  5
3DE
330
1B
100
AcDbEntity
 67
     1
  8
02___PRT_ALL_AXES
  6
Continuous
 62
     3
100
AcDbLine
 10
218.7467782665
 20
328.4120814865
 30
0.0
 11
218.7467782665
 21
348.4120814865
 31
0.0
  0
LINE
  5
3DF
330
1B
100
AcDbEntity
 67
     1
  8
02___PRT_ALL_AXES
  6
Continuous
 62
     3
100
AcDbLine
 10
218.7467782665
 20
348.4120814865
 30
0.0
 11
218.5467782665
 21
348.4120814865
 31
0.0
  0
LINE
  5
3E0
330
1B
100
AcDbEntity
 67
     1
  8
02___PRT_ALL_AXES
  6
Continuous
 62
     3
100
AcDbLine
 10
220.3467782665
 20
348.5120814865
 30
0.0
 11
220.3467782665
 21
348.3120814865
 31
0.0
  0
LINE
  5
3E1
330
1B
100
AcDbEntity
 67
     1
  8
02___PRT_ALL_AXES
  6
Continuous
 62
     3
100
AcDbLine
 10
220.3467782665
 20
348.3120814865
 30
0.0
 11
257.7467782665
 21
348.3120814865
 31
0.0
  0
LINE
  5
3E2
330
1B
100
AcDbEntity
 67
     1
  8
02___PRT_ALL_AXES
  6
Continuous
 62
     3
100
AcDbLine
 10
257.7467782665
 20
348.3120814865
 30
0.0
 11
257.7467782665
 21
348.5120814865
 31
0.0
  0
LINE
  5
3E3
330
1B
100
AcDbEntity
 67
     1
  8
02___PRT_ALL_AXES
  6
Continuous
 62
     3
100
AcDbLine
 10
257.7467782665
 20
348.5120814865
 30
0.0
 11
220.3467782665
 21
348.5120814865
 31
0.0
  0
LINE
  5
3E4
330
1B
100
AcDbEntity
 67
     1
  8
02___PRT_ALL_AXES
  6
Continuous
 62
     3
100
AcDbLine
 10
296.7467782665
 20
348.5120814865
 30
0.0
 11
259.3467782665
 21
348.5120814865
 31
0.0
  0
LINE
  5
3E5
330
1B
100
AcDbEntity
 67
     1
  8
02___PRT_ALL_AXES
  6
Continuous
 62
     3
100
AcDbLine
 10
259.3467782665
 20
348.5120814865
 30
0.0
 11
259.3467782665
 21
348.3120814865
 31
0.0
  0
LINE
  5
3E6
330
1B
100
AcDbEntity
 67
     1
  8
02___PRT_ALL_AXES
  6
Continuous
 62
     3
100
AcDbLine
 10
259.3467782665
 20
348.3120814865
 30
0.0
 11
296.7467782665
 21
348.3120814865
 31
0.0
  0
LINE
  5
3E7
330
1B
100
AcDbEntity
 67
     1
  8
02___PRT_ALL_AXES
  6
Continuous
 62
     3
100
AcDbLine
 10
296.7467782665
 20
348.3120814865
 30
0.0
 11
296.7467782665
 21
348.5120814865
 31
0.0
  0
LINE
  5
3E8
330
1B
100
AcDbEntity
 67
     1
  8
7_ALL_FEATURES
  6
Continuous
 62
     3
100
AcDbLine
 10
321.0467782665
 20
294.5120814865
 30
0.0
 11
321.0467782665
 21
293.8067391837
 31
0.0
  0
LINE
  5
3E9
330
1B
100
AcDbEntity
 67
     1
  8
7_ALL_FEATURES
  6
Continuous
 62
     3
100
AcDbLine
 10
321.0467782665
 20
293.8067391837
 30
0.0
 11
321.0467782665
 21
293.3120814865
 31
0.0
  0
LINE
  5
3EA
330
1B
100
AcDbEntity
 67
     1
  8
7_ALL_FEATURES
  6
Continuous
 62
     3
100
AcDbLine
 10
196.0467782665
 20
293.3120814865
 30
0.0
 11
321.0467782665
 21
293.3120814865
 31
0.0
  0
LINE
  5
3EB
330
1B
100
AcDbEntity
 67
     1
  8
7_ALL_FEATURES
  6
Continuous
 62
     3
100
AcDbLine
 10
196.0467782665
 20
294.5120814865
 30
0.0
 11
196.0467782665
 21
293.8067391837
 31
0.0
  0
LINE
  5
3EC
330
1B
100
AcDbEntity
 67
     1
  8
7_ALL_FEATURES
  6
Continuous
 62
     3
100
AcDbLine
 10
196.0467782665
 20
293.8067391837
 30
0.0
 11
196.0467782665
 21
293.3120814865
 31
0.0
  0
LINE
  5
3ED
330
1B
100
AcDbEntity
 67
     1
  8
7_ALL_FEATURES
  6
Continuous
 62
     3
100
AcDbLine
 10
321.0467782665
 20
363.3120814865
 30
0.0
 11
309.0467782665
 21
363.3120814865
 31
0.0
  0
LINE
  5
3EE
330
1B
100
AcDbEntity
 67
     1
  8
7_ALL_FEATURES
  6
Continuous
 62
     3
100
AcDbLine
 10
208.0467782665
 20
363.3120814865
 30
0.0
 11
196.0467782665
 21
363.3120814865
 31
0.0
  0
LINE
  5
3EF
330
1B
100
AcDbEntity
 67
     1
  8
7_ALL_FEATURES
  6
Continuous
 62
     3
100
AcDbLine
 10
208.0467782665
 20
363.3120814865
 30
0.0
 11
309.0467782665
 21
363.3120814865
 31
0.0
  0
LINE
  5
3F0
330
1B
100
AcDbEntity
 67
     1
  8
7_ALL_FEATURES
  6
Continuous
 62
     3
100
AcDbLine
 10
321.0467782665
 20
363.3120814865
 30
0.0
 11
321.0467782665
 21
362.7120814865
 31
0.0
  0
LINE
  5
3F1
330
1B
100
AcDbEntity
 67
     1
  8
7_ALL_FEATURES
  6
Continuous
 62
     3
100
AcDbLine
 10
196.0467782665
 20
363.3120814865
 30
0.0
 11
196.0467782665
 21
362.7120814865
 31
0.0
  0
LINE
  5
3F2
330
1B
100
AcDbEntity
 67
     1
  8
7_ALL_FEATURES
  6
Continuous
 62
     9
100
AcDbLine
 10
196.0467782665
 20
294.5120814865
 30
0.0
 11
321.0467782665
 21
294.5120814865
 31
0.0
  0
LINE
  5
3F3
330
1B
100
AcDbEntity
 67
     1
  8
7_ALL_FEATURES
  6
Continuous
 62
     9
100
AcDbLine
 10
321.0467782665
 20
362.7120814865
 30
0.0
 11
196.0467782665
 21
362.7120814865
 31
0.0
  0
LINE
  5
3F4
330
1B
100
AcDbEntity
 67
     1
  8
3_ALL_AXES
  6
Continuous
 62
     7
100
AcDbLine
 10
1673.5467782665
 20
102.058060623
 30
0.0
 11
1673.3960579369
 21
102.058060623
 31
0.0
  0
LINE
  5
3F5
330
1B
100
AcDbEntity
 67
     1
  8
3_ALL_AXES
  6
Continuous
 62
     7
100
AcDbLine
 10
1673.5467782665
 20
107.558060623
 30
0.0
 11
1673.3960579369
 21
107.558060623
 31
0.0
  0
LINE
  5
3F6
330
1B
100
AcDbEntity
 67
     1
  8
3_ALL_AXES
  6
Continuous
 62
     7
100
AcDbLine
 10
1673.5467782665
 20
102.058060623
 30
0.0
 11
1673.5467782665
 21
107.558060623
 31
0.0
  0
LINE
  5
3F7
330
1B
100
AcDbEntity
 67
     1
  8
3_ALL_AXES
  6
Continuous
 62
     7
100
AcDbLine
 10
1673.3960579369
 20
102.058060623
 30
0.0
 11
1673.0467782665
 21
102.3511410655
 31
0.0
  0
LINE
  5
3F8
330
1B
100
AcDbEntity
 67
     1
  8
3_ALL_AXES
  6
Continuous
 62
     7
100
AcDbLine
 10
1673.3960579369
 20
107.558060623
 30
0.0
 11
1673.0467782665
 21
107.2649801804
 31
0.0
  0
LINE
  5
3F9
330
1B
100
AcDbEntity
 67
     1
  8
3_ALL_AXES
  6
Continuous
 62
     7
100
AcDbLine
 10
1673.3960579369
 20
102.058060623
 30
0.0
 11
1673.5467782665
 21
102.058060623
 31
0.0
  0
LINE
  5
3FA
330
1B
100
AcDbEntity
 67
     1
  8
3_ALL_AXES
  6
Continuous
 62
     7
100
AcDbLine
 10
1673.0467782665
 20
102.3511410655
 30
0.0
 11
1673.3960579369
 21
102.058060623
 31
0.0
  0
LINE
  5
3FB
330
1B
100
AcDbEntity
 67
     1
  8
3_ALL_AXES
  6
Continuous
 62
     7
100
AcDbLine
 10
1673.3960579369
 20
107.558060623
 30
0.0
 11
1673.5467782665
 21
107.558060623
 31
0.0
  0
LINE
  5
3FC
330
1B
100
AcDbEntity
 67
     1
  8
3_ALL_AXES
  6
Continuous
 62
     7
100
AcDbLine
 10
1673.0467782665
 20
107.2649801804
 30
0.0
 11
1673.3960579369
 21
107.558060623
 31
0.0
  0
LINE
  5
3FD
330
1B
100
AcDbEntity
 67
     1
  8
3_ALL_AXES
  6
Continuous
 62
     7
100
AcDbLine
 10
1673.3960579369
 20
102.058060623
 30
0.0
 11
1673.3960579369
 21
107.558060623
 31
0.0
  0
LINE
  5
3FE
330
1B
100
AcDbEntity
 67
     1
  8
3_ALL_AXES
  6
Continuous
 62
     7
100
AcDbLine
 10
1673.5467782665
 20
138.458060623
 30
0.0
 11
1673.3960579369
 21
138.458060623
 31
0.0
  0
LINE
  5
3FF
330
1B
100
AcDbEntity
 67
     1
  8
3_ALL_AXES
  6
Continuous
 62
     7
100
AcDbLine
 10
1673.5467782665
 20
143.958060623
 30
0.0
 11
1673.3960579369
 21
143.958060623
 31
0.0
  0
LINE
  5
400
330
1B
100
AcDbEntity
 67
     1
  8
3_ALL_AXES
  6
Continuous
 62
     7
100
AcDbLine
 10
1673.5467782665
 20
138.458060623
 30
0.0
 11
1673.5467782665
 21
143.958060623
 31
0.0
  0
LINE
  5
401
330
1B
100
AcDbEntity
 67
     1
  8
3_ALL_AXES
  6
Continuous
 62
     7
100
AcDbLine
 10
1673.3960579369
 20
138.458060623
 30
0.0
 11
1673.0467782665
 21
138.7511410655
 31
0.0
  0
LINE
  5
402
330
1B
100
AcDbEntity
 67
     1
  8
3_ALL_AXES
  6
Continuous
 62
     7
100
AcDbLine
 10
1673.3960579369
 20
143.958060623
 30
0.0
 11
1673.0467782665
 21
143.6649801804
 31
0.0
  0
LINE
  5
403
330
1B
100
AcDbEntity
 67
     1
  8
3_ALL_AXES
  6
Continuous
 62
     7
100
AcDbLine
 10
1673.3960579369
 20
138.458060623
 30
0.0
 11
1673.5467782665
 21
138.458060623
 31
0.0
  0
LINE
  5
404
330
1B
100
AcDbEntity
 67
     1
  8
3_ALL_AXES
  6
Continuous
 62
     7
100
AcDbLine
 10
1673.0467782665
 20
138.7511410655
 30
0.0
 11
1673.3960579369
 21
138.458060623
 31
0.0
  0
LINE
  5
405
330
1B
100
AcDbEntity
 67
     1
  8
3_ALL_AXES
  6
Continuous
 62
     7
100
AcDbLine
 10
1673.3960579369
 20
143.958060623
 30
0.0
 11
1673.5467782665
 21
143.958060623
 31
0.0
  0
LINE
  5
406
330
1B
100
AcDbEntity
 67
     1
  8
3_ALL_AXES
  6
Continuous
 62
     7
100
AcDbLine
 10
1673.0467782665
 20
143.6649801804
 30
0.0
 11
1673.3960579369
 21
143.958060623
 31
0.0
  0
LINE
  5
407
330
1B
100
AcDbEntity
 67
     1
  8
3_ALL_AXES
  6
Continuous
 62
     7
100
AcDbLine
 10
1673.3960579369
 20
138.458060623
 30
0.0
 11
1673.3960579369
 21
143.958060623
 31
0.0
  0
LINE
  5
408
330
1B
100
AcDbEntity
 67
     1
  8
3_ALL_AXES
  6
Continuous
 62
     7
100
AcDbLine
 10
158.0467782665
 20
143.958060623
 30
0.0
 11
158.1974985961
 21
143.958060623
 31
0.0
  0
LINE
  5
409
330
1B
100
AcDbEntity
 67
     1
  8
3_ALL_AXES
  6
Continuous
 62
     7
100
AcDbLine
 10
158.0467782665
 20
138.458060623
 30
0.0
 11
158.1974985961
 21
138.458060623
 31
0.0
  0
LINE
  5
40A
330
1B
100
AcDbEntity
 67
     1
  8
3_ALL_AXES
  6
Continuous
 62
     7
100
AcDbLine
 10
158.0467782665
 20
143.958060623
 30
0.0
 11
158.0467782665
 21
138.458060623
 31
0.0
  0
LINE
  5
40B
330
1B
100
AcDbEntity
 67
     1
  8
3_ALL_AXES
  6
Continuous
 62
     7
100
AcDbLine
 10
158.1974985961
 20
143.958060623
 30
0.0
 11
158.5467782665
 21
143.6649801804
 31
0.0
  0
LINE
  5
40C
330
1B
100
AcDbEntity
 67
     1
  8
3_ALL_AXES
  6
Continuous
 62
     7
100
AcDbLine
 10
158.1974985961
 20
138.458060623
 30
0.0
 11
158.5467782665
 21
138.7511410655
 31
0.0
  0
LINE
  5
40D
330
1B
100
AcDbEntity
 67
     1
  8
3_ALL_AXES
  6
Continuous
 62
     7
100
AcDbLine
 10
158.1974985961
 20
143.958060623
 30
0.0
 11
158.0467782665
 21
143.958060623
 31
0.0
  0
LINE
  5
40E
330
1B
100
AcDbEntity
 67
     1
  8
3_ALL_AXES
  6
Continuous
 62
     7
100
AcDbLine
 10
158.5467782665
 20
143.6649801804
 30
0.0
 11
158.1974985961
 21
143.958060623
 31
0.0
  0
LINE
  5
40F
330
1B
100
AcDbEntity
 67
     1
  8
3_ALL_AXES
  6
Continuous
 62
     7
100
AcDbLine
 10
158.1974985961
 20
138.458060623
 30
0.0
 11
158.0467782665
 21
138.458060623
 31
0.0
  0
LINE
  5
410
330
1B
100
AcDbEntity
 67
     1
  8
3_ALL_AXES
  6
Continuous
 62
     7
100
AcDbLine
 10
158.5467782665
 20
138.7511410655
 30
0.0
 11
158.1974985961
 21
138.458060623
 31
0.0
  0
LINE
  5
411
330
1B
100
AcDbEntity
 67
     1
  8
3_ALL_AXES
  6
Continuous
 62
     7
100
AcDbLine
 10
158.1974985961
 20
143.958060623
 30
0.0
 11
158.1974985961
 21
138.458060623
 31
0.0
  0
LINE
  5
412
330
1B
100
AcDbEntity
 67
     1
  8
3_ALL_AXES
  6
Continuous
 62
     7
100
AcDbLine
 10
158.0467782665
 20
107.558060623
 30
0.0
 11
158.1974985961
 21
107.558060623
 31
0.0
  0
LINE
  5
413
330
1B
100
AcDbEntity
 67
     1
  8
3_ALL_AXES
  6
Continuous
 62
     7
100
AcDbLine
 10
158.0467782665
 20
102.058060623
 30
0.0
 11
158.1974985961
 21
102.058060623
 31
0.0
  0
LINE
  5
414
330
1B
100
AcDbEntity
 67
     1
  8
3_ALL_AXES
  6
Continuous
 62
     7
100
AcDbLine
 10
158.0467782665
 20
107.558060623
 30
0.0
 11
158.0467782665
 21
102.058060623
 31
0.0
  0
LINE
  5
415
330
1B
100
AcDbEntity
 67
     1
  8
3_ALL_AXES
  6
Continuous
 62
     7
100
AcDbLine
 10
158.1974985961
 20
107.558060623
 30
0.0
 11
158.5467782665
 21
107.2649801804
 31
0.0
  0
LINE
  5
416
330
1B
100
AcDbEntity
 67
     1
  8
3_ALL_AXES
  6
Continuous
 62
     7
100
AcDbLine
 10
158.1974985961
 20
102.058060623
 30
0.0
 11
158.5467782665
 21
102.3511410655
 31
0.0
  0
LINE
  5
417
330
1B
100
AcDbEntity
 67
     1
  8
3_ALL_AXES
  6
Continuous
 62
     7
100
AcDbLine
 10
158.1974985961
 20
107.558060623
 30
0.0
 11
158.0467782665
 21
107.558060623
 31
0.0
  0
LINE
  5
418
330
1B
100
AcDbEntity
 67
     1
  8
3_ALL_AXES
  6
Continuous
 62
     7
100
AcDbLine
 10
158.5467782665
 20
107.2649801804
 30
0.0
 11
158.1974985961
 21
107.558060623
 31
0.0
  0
LINE
  5
419
330
1B
100
AcDbEntity
 67
     1
  8
3_ALL_AXES
  6
Continuous
 62
     7
100
AcDbLine
 10
158.1974985961
 20
102.058060623
 30
0.0
 11
158.0467782665
 21
102.058060623
 31
0.0
  0
LINE
  5
41A
330
1B
100
AcDbEntity
 67
     1
  8
3_ALL_AXES
  6
Continuous
 62
     7
100
AcDbLine
 10
158.5467782665
 20
102.3511410655
 30
0.0
 11
158.1974985961
 21
102.058060623
 31
0.0
  0
LINE
  5
41B
330
1B
100
AcDbEntity
 67
     1
  8
3_ALL_AXES
  6
Continuous
 62
     7
100
AcDbLine
 10
158.1974985961
 20
107.558060623
 30
0.0
 11
158.1974985961
 21
102.058060623
 31
0.0
  0
LINE
  5
41C
330
1B
100
AcDbEntity
 67
     1
  8
7_ALL_FEATURES
  6
Continuous
 62
     7
100
AcDbLine
 10
1673.0467782665
 20
103.008060623
 30
0.0
 11
1673.0467782665
 21
102.008060623
 31
0.0
  0
LINE
  5
41D
330
1B
100
AcDbEntity
 67
     1
  8
7_ALL_FEATURES
  6
Continuous
 62
     7
100
AcDbLine
 10
1673.0467782665
 20
103.008060623
 30
0.0
 11
1673.0467782665
 21
143.008060623
 31
0.0
  0
LINE
  5
41E
330
1B
100
AcDbEntity
 67
     1
  8
7_ALL_FEATURES
  6
Continuous
 62
     7
100
AcDbLine
 10
1673.0467782665
 20
144.008060623
 30
0.0
 11
1673.0467782665
 21
143.008060623
 31
0.0
  0
LINE
  5
41F
330
1B
100
AcDbEntity
 67
     1
  8
7_ALL_FEATURES
  6
Continuous
 62
     7
100
AcDbLine
 10
1673.0467782665
 20
102.008060623
 30
0.0
 11
1671.5467782665
 21
102.008060623
 31
0.0
  0
LINE
  5
420
330
1B
100
AcDbEntity
 67
     1
  8
7_ALL_FEATURES
  6
Continuous
 62
     7
100
AcDbLine
 10
1673.0467782665
 20
144.008060623
 30
0.0
 11
1671.5467782665
 21
144.008060623
 31
0.0
  0
LINE
  5
421
330
1B
100
AcDbEntity
 67
     1
  8
7_ALL_FEATURES
  6
Continuous
 62
     7
100
AcDbLine
 10
1673.0467782665
 20
102.008060623
 30
0.0
 11
1671.5467782665
 21
102.008060623
 31
0.0
  0
LINE
  5
422
330
1B
100
AcDbEntity
 67
     1
  8
7_ALL_FEATURES
  6
Continuous
 62
     9
100
AcDbLine
 10
1673.0467782665
 20
143.008060623
 30
0.0
 11
1671.5467782665
 21
143.008060623
 31
0.0
  0
LINE
  5
423
330
1B
100
AcDbEntity
 67
     1
  8
7_ALL_FEATURES
  6
Continuous
 62
     9
100
AcDbLine
 10
1673.0467782665
 20
103.008060623
 30
0.0
 11
1671.5467782665
 21
103.008060623
 31
0.0
  0
LINE
  5
424
330
1B
100
AcDbEntity
 67
     1
  8
7_ALL_FEATURES
  6
Continuous
 62
     7
100
AcDbLine
 10
158.5467782665
 20
143.008060623
 30
0.0
 11
158.5467782665
 21
144.008060623
 31
0.0
  0
LINE
  5
425
330
1B
100
AcDbEntity
 67
     1
  8
7_ALL_FEATURES
  6
Continuous
 62
     7
100
AcDbLine
 10
158.5467782665
 20
143.008060623
 30
0.0
 11
158.5467782665
 21
103.008060623
 31
0.0
  0
LINE
  5
426
330
1B
100
AcDbEntity
 67
     1
  8
7_ALL_FEATURES
  6
Continuous
 62
     7
100
AcDbLine
 10
158.5467782665
 20
102.008060623
 30
0.0
 11
158.5467782665
 21
103.008060623
 31
0.0
  0
LINE
  5
427
330
1B
100
AcDbEntity
 67
     1
  8
7_ALL_FEATURES
  6
Continuous
 62
     7
100
AcDbLine
 10
158.5467782665
 20
144.008060623
 30
0.0
 11
160.0467782665
 21
144.008060623
 31
0.0
  0
LINE
  5
428
330
1B
100
AcDbEntity
 67
     1
  8
7_ALL_FEATURES
  6
Continuous
 62
     7
100
AcDbLine
 10
158.5467782665
 20
102.008060623
 30
0.0
 11
160.0467782665
 21
102.008060623
 31
0.0
  0
LINE
  5
429
330
1B
100
AcDbEntity
 67
     1
  8
7_ALL_FEATURES
  6
Continuous
 62
     7
100
AcDbLine
 10
158.5467782665
 20
144.008060623
 30
0.0
 11
160.0467782665
 21
144.008060623
 31
0.0
  0
LINE
  5
42A
330
1B
100
AcDbEntity
 67
     1
  8
7_ALL_FEATURES
  6
Continuous
 62
     9
100
AcDbLine
 10
158.5467782665
 20
103.008060623
 30
0.0
 11
160.0467782665
 21
103.008060623
 31
0.0
  0
LINE
  5
42B
330
1B
100
AcDbEntity
 67
     1
  8
7_ALL_FEATURES
  6
Continuous
 62
     9
100
AcDbLine
 10
158.5467782665
 20
143.008060623
 30
0.0
 11
160.0467782665
 21
143.008060623
 31
0.0
  0
LINE
  5
42C
330
1B
100
AcDbEntity
 67
     1
  8
7_ALL_FEATURES
  6
Continuous
 62
     7
100
AcDbLine
 10
846.0467782665
 20
101.458060623
 30
0.0
 11
846.0467782665
 21
101.808060623
 31
0.0
  0
LINE
  5
42D
330
1B
100
AcDbEntity
 67
     1
  8
7_ALL_FEATURES
  6
Continuous
 62
     7
100
AcDbLine
 10
971.0467782665
 20
101.458060623
 30
0.0
 11
971.0467782665
 21
101.808060623
 31
0.0
  0
LINE
  5
42E
330
1B
100
AcDbEntity
 67
     1
  8
7_ALL_FEATURES
  6
Continuous
 62
     7
100
AcDbLine
 10
959.0467782665
 20
76.458060623
 30
0.0
 11
971.0467782665
 21
99.458060623
 31
0.0
  0
LINE
  5
42F
330
1B
100
AcDbEntity
 67
     1
  8
7_ALL_FEATURES
  6
Continuous
 62
     7
100
AcDbLine
 10
858.0467782665
 20
76.458060623
 30
0.0
 11
959.0467782665
 21
76.458060623
 31
0.0
  0
LINE
  5
430
330
1B
100
AcDbEntity
 67
     1
  8
7_ALL_FEATURES
  6
Continuous
 62
     7
100
AcDbLine
 10
846.0467782665
 20
99.458060623
 30
0.0
 11
858.0467782665
 21
76.458060623
 31
0.0
  0
LINE
  5
431
330
1B
100
AcDbEntity
 67
     1
  8
7_ALL_FEATURES
  6
Continuous
 62
     7
100
AcDbLine
 10
846.0467782665
 20
100.258060623
 30
0.0
 11
846.0467782665
 21
99.458060623
 31
0.0
  0
LINE
  5
432
330
1B
100
AcDbEntity
 67
     1
  8
7_ALL_FEATURES
  6
Continuous
 62
     7
100
AcDbLine
 10
971.0467782665
 20
99.458060623
 30
0.0
 11
971.0467782665
 21
100.258060623
 31
0.0
  0
LINE
  5
433
330
1B
100
AcDbEntity
 67
     1
  8
7_ALL_FEATURES
  6
Continuous
 62
     7
100
AcDbLine
 10
846.0467782665
 20
100.258060623
 30
0.0
 11
846.0467782665
 21
100.9634029257
 31
0.0
  0
LINE
  5
434
330
1B
100
AcDbEntity
 67
     1
  8
7_ALL_FEATURES
  6
Continuous
 62
     7
100
AcDbLine
 10
846.0467782665
 20
100.9634029257
 30
0.0
 11
846.0467782665
 21
101.458060623
 31
0.0
  0
LINE
  5
435
330
1B
100
AcDbEntity
 67
     1
  8
7_ALL_FEATURES
  6
Continuous
 62
     7
100
AcDbLine
 10
971.0467782665
 20
101.458060623
 30
0.0
 11
846.0467782665
 21
101.458060623
 31
0.0
  0
LINE
  5
436
330
1B
100
AcDbEntity
 67
     1
  8
7_ALL_FEATURES
  6
Continuous
 62
     7
100
AcDbLine
 10
971.0467782665
 20
100.258060623
 30
0.0
 11
971.0467782665
 21
100.9634029257
 31
0.0
  0
LINE
  5
437
330
1B
100
AcDbEntity
 67
     1
  8
7_ALL_FEATURES
  6
Continuous
 62
     7
100
AcDbLine
 10
971.0467782665
 20
100.9634029257
 30
0.0
 11
971.0467782665
 21
101.458060623
 31
0.0
  0
LINE
  5
438
330
1B
100
AcDbEntity
 67
     1
  8
7_ALL_FEATURES
  6
Continuous
 62
     7
100
AcDbLine
 10
971.0467782665
 20
144.558060623
 30
0.0
 11
971.0467782665
 21
144.208060623
 31
0.0
  0
LINE
  5
439
330
1B
100
AcDbEntity
 67
     1
  8
7_ALL_FEATURES
  6
Continuous
 62
     7
100
AcDbLine
 10
846.0467782665
 20
144.558060623
 30
0.0
 11
846.0467782665
 21
144.208060623
 31
0.0
  0
LINE
  5
43A
330
1B
100
AcDbEntity
 67
     1
  8
7_ALL_FEATURES
  6
Continuous
 62
     7
100
AcDbLine
 10
971.0467782665
 20
146.558060623
 30
0.0
 11
959.0467782665
 21
169.558060623
 31
0.0
  0
LINE
  5
43B
330
1B
100
AcDbEntity
 67
     1
  8
7_ALL_FEATURES
  6
Continuous
 62
     7
100
AcDbLine
 10
971.0467782665
 20
145.758060623
 30
0.0
 11
971.0467782665
 21
146.558060623
 31
0.0
  0
LINE
  5
43C
330
1B
100
AcDbEntity
 67
     1
  8
7_ALL_FEATURES
  6
Continuous
 62
     7
100
AcDbLine
 10
846.0467782665
 20
146.558060623
 30
0.0
 11
846.0467782665
 21
145.758060623
 31
0.0
  0
LINE
  5
43D
330
1B
100
AcDbEntity
 67
     1
  8
7_ALL_FEATURES
  6
Continuous
 62
     7
100
AcDbLine
 10
858.0467782665
 20
169.558060623
 30
0.0
 11
846.0467782665
 21
146.558060623
 31
0.0
  0
LINE
  5
43E
330
1B
100
AcDbEntity
 67
     1
  8
7_ALL_FEATURES
  6
Continuous
 62
     7
100
AcDbLine
 10
959.0467782665
 20
169.558060623
 30
0.0
 11
858.0467782665
 21
169.558060623
 31
0.0
  0
LINE
  5
43F
330
1B
100
AcDbEntity
 67
     1
  8
7_ALL_FEATURES
  6
Continuous
 62
     7
100
AcDbLine
 10
971.0467782665
 20
145.758060623
 30
0.0
 11
971.0467782665
 21
145.0527183202
 31
0.0
  0
LINE
  5
440
330
1B
100
AcDbEntity
 67
     1
  8
7_ALL_FEATURES
  6
Continuous
 62
     7
100
AcDbLine
 10
971.0467782665
 20
145.0527183202
 30
0.0
 11
971.0467782665
 21
144.558060623
 31
0.0
  0
LINE
  5
441
330
1B
100
AcDbEntity
 67
     1
  8
7_ALL_FEATURES
  6
Continuous
 62
     7
100
AcDbLine
 10
846.0467782665
 20
144.558060623
 30
0.0
 11
971.0467782665
 21
144.558060623
 31
0.0
  0
LINE
  5
442
330
1B
100
AcDbEntity
 67
     1
  8
7_ALL_FEATURES
  6
Continuous
 62
     7
100
AcDbLine
 10
846.0467782665
 20
145.758060623
 30
0.0
 11
846.0467782665
 21
145.0527183202
 31
0.0
  0
LINE
  5
443
330
1B
100
AcDbEntity
 67
     1
  8
7_ALL_FEATURES
  6
Continuous
 62
     7
100
AcDbLine
 10
846.0467782665
 20
145.0527183202
 30
0.0
 11
846.0467782665
 21
144.558060623
 31
0.0
  0
LINE
  5
444
330
1B
100
AcDbEntity
 67
     1
  8
7_ALL_FEATURES
  6
Continuous
 62
     9
100
AcDbLine
 10
971.0467782665
 20
100.258060623
 30
0.0
 11
846.0467782665
 21
100.258060623
 31
0.0
  0
LINE
  5
445
330
1B
100
AcDbEntity
 67
     1
  8
7_ALL_FEATURES
  6
Continuous
 62
     9
100
AcDbLine
 10
846.0467782665
 20
145.758060623
 30
0.0
 11
971.0467782665
 21
145.758060623
 31
0.0
  0
LINE
  5
446
330
1B
100
AcDbEntity
 67
     1
  8
7_ALL_FEATURES
  6
Continuous
 62
     7
100
AcDbLine
 10
1496.0467782665
 20
101.458060623
 30
0.0
 11
1496.0467782665
 21
101.808060623
 31
0.0
  0
LINE
  5
447
330
1B
100
AcDbEntity
 67
     1
  8
7_ALL_FEATURES
  6
Continuous
 62
     7
100
AcDbLine
 10
1621.0467782665
 20
101.458060623
 30
0.0
 11
1621.0467782665
 21
101.808060623
 31
0.0
  0
LINE
  5
448
330
1B
100
AcDbEntity
 67
     1
  8
7_ALL_FEATURES
  6
Continuous
 62
     7
100
AcDbLine
 10
1609.0467782665
 20
76.458060623
 30
0.0
 11
1621.0467782665
 21
99.458060623
 31
0.0
  0
LINE
  5
449
330
1B
100
AcDbEntity
 67
     1
  8
7_ALL_FEATURES
  6
Continuous
 62
     7
100
AcDbLine
 10
1508.0467782665
 20
76.458060623
 30
0.0
 11
1609.0467782665
 21
76.458060623
 31
0.0
  0
LINE
  5
44A
330
1B
100
AcDbEntity
 67
     1
  8
7_ALL_FEATURES
  6
Continuous
 62
     7
100
AcDbLine
 10
1496.0467782665
 20
99.458060623
 30
0.0
 11
1508.0467782665
 21
76.458060623
 31
0.0
  0
LINE
  5
44B
330
1B
100
AcDbEntity
 67
     1
  8
7_ALL_FEATURES
  6
Continuous
 62
     7
100
AcDbLine
 10
1496.0467782665
 20
100.258060623
 30
0.0
 11
1496.0467782665
 21
99.458060623
 31
0.0
  0
LINE
  5
44C
330
1B
100
AcDbEntity
 67
     1
  8
7_ALL_FEATURES
  6
Continuous
 62
     7
100
AcDbLine
 10
1621.0467782665
 20
99.458060623
 30
0.0
 11
1621.0467782665
 21
100.258060623
 31
0.0
  0
LINE
  5
44D
330
1B
100
AcDbEntity
 67
     1
  8
7_ALL_FEATURES
  6
Continuous
 62
     7
100
AcDbLine
 10
1496.0467782665
 20
100.258060623
 30
0.0
 11
1496.0467782665
 21
100.9634029257
 31
0.0
  0
LINE
  5
44E
330
1B
100
AcDbEntity
 67
     1
  8
7_ALL_FEATURES
  6
Continuous
 62
     7
100
AcDbLine
 10
1496.0467782665
 20
100.9634029257
 30
0.0
 11
1496.0467782665
 21
101.458060623
 31
0.0
  0
LINE
  5
44F
330
1B
100
AcDbEntity
 67
     1
  8
7_ALL_FEATURES
  6
Continuous
 62
     7
100
AcDbLine
 10
1621.0467782665
 20
101.458060623
 30
0.0
 11
1496.0467782665
 21
101.458060623
 31
0.0
  0
LINE
  5
450
330
1B
100
AcDbEntity
 67
     1
  8
7_ALL_FEATURES
  6
Continuous
 62
     7
100
AcDbLine
 10
1621.0467782665
 20
100.258060623
 30
0.0
 11
1621.0467782665
 21
100.9634029257
 31
0.0
  0
LINE
  5
451
330
1B
100
AcDbEntity
 67
     1
  8
7_ALL_FEATURES
  6
Continuous
 62
     7
100
AcDbLine
 10
1621.0467782665
 20
100.9634029257
 30
0.0
 11
1621.0467782665
 21
101.458060623
 31
0.0
  0
LINE
  5
452
330
1B
100
AcDbEntity
 67
     1
  8
7_ALL_FEATURES
  6
Continuous
 62
     7
100
AcDbLine
 10
1621.0467782665
 20
144.558060623
 30
0.0
 11
1621.0467782665
 21
144.208060623
 31
0.0
  0
LINE
  5
453
330
1B
100
AcDbEntity
 67
     1
  8
7_ALL_FEATURES
  6
Continuous
 62
     7
100
AcDbLine
 10
1496.0467782665
 20
144.558060623
 30
0.0
 11
1496.0467782665
 21
144.208060623
 31
0.0
  0
LINE
  5
454
330
1B
100
AcDbEntity
 67
     1
  8
7_ALL_FEATURES
  6
Continuous
 62
     7
100
AcDbLine
 10
1621.0467782665
 20
146.558060623
 30
0.0
 11
1609.0467782665
 21
169.558060623
 31
0.0
  0
LINE
  5
455
330
1B
100
AcDbEntity
 67
     1
  8
7_ALL_FEATURES
  6
Continuous
 62
     7
100
AcDbLine
 10
1621.0467782665
 20
145.758060623
 30
0.0
 11
1621.0467782665
 21
146.558060623
 31
0.0
  0
LINE
  5
456
330
1B
100
AcDbEntity
 67
     1
  8
7_ALL_FEATURES
  6
Continuous
 62
     7
100
AcDbLine
 10
1496.0467782665
 20
146.558060623
 30
0.0
 11
1496.0467782665
 21
145.758060623
 31
0.0
  0
LINE
  5
457
330
1B
100
AcDbEntity
 67
     1
  8
7_ALL_FEATURES
  6
Continuous
 62
     7
100
AcDbLine
 10
1508.0467782665
 20
169.558060623
 30
0.0
 11
1496.0467782665
 21
146.558060623
 31
0.0
  0
LINE
  5
458
330
1B
100
AcDbEntity
 67
     1
  8
7_ALL_FEATURES
  6
Continuous
 62
     7
100
AcDbLine
 10
1609.0467782665
 20
169.558060623
 30
0.0
 11
1508.0467782665
 21
169.558060623
 31
0.0
  0
LINE
  5
459
330
1B
100
AcDbEntity
 67
     1
  8
7_ALL_FEATURES
  6
Continuous
 62
     7
100
AcDbLine
 10
1621.0467782665
 20
145.758060623
 30
0.0
 11
1621.0467782665
 21
145.0527183202
 31
0.0
  0
LINE
  5
45A
330
1B
100
AcDbEntity
 67
     1
  8
7_ALL_FEATURES
  6
Continuous
 62
     7
100
AcDbLine
 10
1621.0467782665
 20
145.0527183202
 30
0.0
 11
1621.0467782665
 21
144.558060623
 31
0.0
  0
LINE
  5
45B
330
1B
100
AcDbEntity
 67
     1
  8
7_ALL_FEATURES
  6
Continuous
 62
     7
100
AcDbLine
 10
1496.0467782665
 20
144.558060623
 30
0.0
 11
1621.0467782665
 21
144.558060623
 31
0.0
  0
LINE
  5
45C
330
1B
100
AcDbEntity
 67
     1
  8
7_ALL_FEATURES
  6
Continuous
 62
     7
100
AcDbLine
 10
1496.0467782665
 20
145.758060623
 30
0.0
 11
1496.0467782665
 21
145.0527183202
 31
0.0
  0
LINE
  5
45D
330
1B
100
AcDbEntity
 67
     1
  8
7_ALL_FEATURES
  6
Continuous
 62
     7
100
AcDbLine
 10
1496.0467782665
 20
145.0527183202
 30
0.0
 11
1496.0467782665
 21
144.558060623
 31
0.0
  0
LINE
  5
45E
330
1B
100
AcDbEntity
 67
     1
  8
7_ALL_FEATURES
  6
Continuous
 62
     9
100
AcDbLine
 10
1621.0467782665
 20
100.258060623
 30
0.0
 11
1496.0467782665
 21
100.258060623
 31
0.0
  0
LINE
  5
45F
330
1B
100
AcDbEntity
 67
     1
  8
7_ALL_FEATURES
  6
Continuous
 62
     9
100
AcDbLine
 10
1496.0467782665
 20
145.758060623
 30
0.0
 11
1621.0467782665
 21
145.758060623
 31
0.0
  0
LINE
  5
460
330
1B
100
AcDbEntity
 67
     1
  8
7_ALL_FEATURES
  6
Continuous
 62
     7
100
AcDbLine
 10
196.0467782665
 20
101.458060623
 30
0.0
 11
196.0467782665
 21
101.808060623
 31
0.0
  0
LINE
  5
461
330
1B
100
AcDbEntity
 67
     1
  8
7_ALL_FEATURES
  6
Continuous
 62
     7
100
AcDbLine
 10
321.0467782665
 20
101.458060623
 30
0.0
 11
321.0467782665
 21
101.808060623
 31
0.0
  0
LINE
  5
462
330
1B
100
AcDbEntity
 67
     1
  8
7_ALL_FEATURES
  6
Continuous
 62
     7
100
AcDbLine
 10
309.0467782665
 20
76.458060623
 30
0.0
 11
321.0467782665
 21
99.458060623
 31
0.0
  0
LINE
  5
463
330
1B
100
AcDbEntity
 67
     1
  8
7_ALL_FEATURES
  6
Continuous
 62
     7
100
AcDbLine
 10
208.0467782665
 20
76.458060623
 30
0.0
 11
309.0467782665
 21
76.458060623
 31
0.0
  0
LINE
  5
464
330
1B
100
AcDbEntity
 67
     1
  8
7_ALL_FEATURES
  6
Continuous
 62
     7
100
AcDbLine
 10
196.0467782665
 20
99.458060623
 30
0.0
 11
208.0467782665
 21
76.458060623
 31
0.0
  0
LINE
  5
465
330
1B
100
AcDbEntity
 67
     1
  8
7_ALL_FEATURES
  6
Continuous
 62
     7
100
AcDbLine
 10
196.0467782665
 20
100.258060623
 30
0.0
 11
196.0467782665
 21
99.458060623
 31
0.0
  0
LINE
  5
466
330
1B
100
AcDbEntity
 67
     1
  8
7_ALL_FEATURES
  6
Continuous
 62
     7
100
AcDbLine
 10
321.0467782665
 20
99.458060623
 30
0.0
 11
321.0467782665
 21
100.258060623
 31
0.0
  0
LINE
  5
467
330
1B
100
AcDbEntity
 67
     1
  8
7_ALL_FEATURES
  6
Continuous
 62
     7
100
AcDbLine
 10
196.0467782665
 20
100.258060623
 30
0.0
 11
196.0467782665
 21
100.9634029257
 31
0.0
  0
LINE
  5
468
330
1B
100
AcDbEntity
 67
     1
  8
7_ALL_FEATURES
  6
Continuous
 62
     7
100
AcDbLine
 10
196.0467782665
 20
100.9634029257
 30
0.0
 11
196.0467782665
 21
101.458060623
 31
0.0
  0
LINE
  5
469
330
1B
100
AcDbEntity
 67
     1
  8
7_ALL_FEATURES
  6
Continuous
 62
     7
100
AcDbLine
 10
321.0467782665
 20
101.458060623
 30
0.0
 11
196.0467782665
 21
101.458060623
 31
0.0
  0
LINE
  5
46A
330
1B
100
AcDbEntity
 67
     1
  8
7_ALL_FEATURES
  6
Continuous
 62
     7
100
AcDbLine
 10
321.0467782665
 20
100.258060623
 30
0.0
 11
321.0467782665
 21
100.9634029257
 31
0.0
  0
LINE
  5
46B
330
1B
100
AcDbEntity
 67
     1
  8
7_ALL_FEATURES
  6
Continuous
 62
     7
100
AcDbLine
 10
321.0467782665
 20
100.9634029257
 30
0.0
 11
321.0467782665
 21
101.458060623
 31
0.0
  0
LINE
  5
46C
330
1B
100
AcDbEntity
 67
     1
  8
7_ALL_FEATURES
  6
Continuous
 62
     7
100
AcDbLine
 10
321.0467782665
 20
144.558060623
 30
0.0
 11
321.0467782665
 21
144.208060623
 31
0.0
  0
LINE
  5
46D
330
1B
100
AcDbEntity
 67
     1
  8
7_ALL_FEATURES
  6
Continuous
 62
     7
100
AcDbLine
 10
196.0467782665
 20
144.558060623
 30
0.0
 11
196.0467782665
 21
144.208060623
 31
0.0
  0
LINE
  5
46E
330
1B
100
AcDbEntity
 67
     1
  8
7_ALL_FEATURES
  6
Continuous
 62
     7
100
AcDbLine
 10
321.0467782665
 20
146.558060623
 30
0.0
 11
309.0467782665
 21
169.558060623
 31
0.0
  0
LINE
  5
46F
330
1B
100
AcDbEntity
 67
     1
  8
7_ALL_FEATURES
  6
Continuous
 62
     7
100
AcDbLine
 10
321.0467782665
 20
145.758060623
 30
0.0
 11
321.0467782665
 21
146.558060623
 31
0.0
  0
LINE
  5
470
330
1B
100
AcDbEntity
 67
     1
  8
7_ALL_FEATURES
  6
Continuous
 62
     7
100
AcDbLine
 10
196.0467782665
 20
146.558060623
 30
0.0
 11
196.0467782665
 21
145.758060623
 31
0.0
  0
LINE
  5
471
330
1B
100
AcDbEntity
 67
     1
  8
7_ALL_FEATURES
  6
Continuous
 62
     7
100
AcDbLine
 10
208.0467782665
 20
169.558060623
 30
0.0
 11
196.0467782665
 21
146.558060623
 31
0.0
  0
LINE
  5
472
330
1B
100
AcDbEntity
 67
     1
  8
7_ALL_FEATURES
  6
Continuous
 62
     7
100
AcDbLine
 10
309.0467782665
 20
169.558060623
 30
0.0
 11
208.0467782665
 21
169.558060623
 31
0.0
  0
LINE
  5
473
330
1B
100
AcDbEntity
 67
     1
  8
7_ALL_FEATURES
  6
Continuous
 62
     7
100
AcDbLine
 10
321.0467782665
 20
145.758060623
 30
0.0
 11
321.0467782665
 21
145.0527183202
 31
0.0
  0
LINE
  5
474
330
1B
100
AcDbEntity
 67
     1
  8
7_ALL_FEATURES
  6
Continuous
 62
     7
100
AcDbLine
 10
321.0467782665
 20
145.0527183202
 30
0.0
 11
321.0467782665
 21
144.558060623
 31
0.0
  0
LINE
  5
475
330
1B
100
AcDbEntity
 67
     1
  8
7_ALL_FEATURES
  6
Continuous
 62
     7
100
AcDbLine
 10
196.0467782665
 20
144.558060623
 30
0.0
 11
321.0467782665
 21
144.558060623
 31
0.0
  0
LINE
  5
476
330
1B
100
AcDbEntity
 67
     1
  8
7_ALL_FEATURES
  6
Continuous
 62
     7
100
AcDbLine
 10
196.0467782665
 20
145.758060623
 30
0.0
 11
196.0467782665
 21
145.0527183202
 31
0.0
  0
LINE
  5
477
330
1B
100
AcDbEntity
 67
     1
  8
7_ALL_FEATURES
  6
Continuous
 62
     7
100
AcDbLine
 10
196.0467782665
 20
145.0527183202
 30
0.0
 11
196.0467782665
 21
144.558060623
 31
0.0
  0
LINE
  5
478
330
1B
100
AcDbEntity
 67
     1
  8
7_ALL_FEATURES
  6
Continuous
 62
     9
100
AcDbLine
 10
321.0467782665
 20
100.258060623
 30
0.0
 11
196.0467782665
 21
100.258060623
 31
0.0
  0
LINE
  5
479
330
1B
100
AcDbEntity
 67
     1
  8
7_ALL_FEATURES
  6
Continuous
 62
     9
100
AcDbLine
 10
196.0467782665
 20
145.758060623
 30
0.0
 11
321.0467782665
 21
145.758060623
 31
0.0
  0
LINE
  5
47A
330
1B
100
AcDbEntity
 67
     1
  8
7_ALL_FEATURES
  6
Continuous
 62
     7
100
AcDbLine
 10
160.0467782665
 20
103.708060623
 30
0.0
 11
160.0467782665
 21
103.008060623
 31
0.0
  0
LINE
  5
47B
330
1B
100
AcDbEntity
 67
     1
  8
7_ALL_FEATURES
  6
Continuous
 62
     7
100
AcDbLine
 10
160.0467782665
 20
103.008060623
 30
0.0
 11
160.0467782665
 21
102.8211535619
 31
0.0
  0
LINE
  5
47C
330
1B
100
AcDbEntity
 67
     1
  8
7_ALL_FEATURES
  6
Continuous
 62
     7
100
AcDbLine
 10
160.0467782665
 20
102.6186077183
 30
0.0
 11
160.0467782665
 21
102.8211535619
 31
0.0
  0
LINE
  5
47D
330
1B
100
AcDbEntity
 67
     1
  8
7_ALL_FEATURES
  6
Continuous
 62
     7
100
AcDbLine
 10
160.0467782665
 20
102.008060623
 30
0.0
 11
160.0467782665
 21
101.8722241627
 31
0.0
  0
LINE
  5
47E
330
1B
100
AcDbEntity
 67
     1
  8
7_ALL_FEATURES
  6
Continuous
 62
     7
100
AcDbLine
 10
160.0467782665
 20
101.808060623
 30
0.0
 11
160.0467782665
 21
101.8722241627
 31
0.0
  0
LINE
  5
47F
330
1B
100
AcDbEntity
 67
     1
  8
7_ALL_FEATURES
  6
Continuous
 62
     7
100
AcDbLine
 10
1671.5467782665
 20
101.808060623
 30
0.0
 11
160.0467782665
 21
101.808060623
 31
0.0
  0
LINE
  5
480
330
1B
100
AcDbEntity
 67
     1
  8
7_ALL_FEATURES
  6
Continuous
 62
     7
100
AcDbLine
 10
1671.5467782665
 20
144.208060623
 30
0.0
 11
1671.5467782665
 21
144.1438970833
 31
0.0
  0
LINE
  5
481
330
1B
100
AcDbEntity
 67
     1
  8
7_ALL_FEATURES
  6
Continuous
 62
     7
100
AcDbLine
 10
1671.5467782665
 20
144.208060623
 30
0.0
 11
160.0467782665
 21
144.208060623
 31
0.0
  0
LINE
  5
482
330
1B
100
AcDbEntity
 67
     1
  8
7_ALL_FEATURES
  6
Continuous
 62
     7
100
AcDbLine
 10
1671.5467782665
 20
142.008060623
 30
0.0
 11
160.0467782665
 21
142.008060623
 31
0.0
  0
LINE
  5
483
330
1B
100
AcDbEntity
 67
     1
  8
7_ALL_FEATURES
  6
Continuous
 62
     7
100
AcDbLine
 10
1671.5467782665
 20
104.008060623
 30
0.0
 11
160.0467782665
 21
104.008060623
 31
0.0
  0
LINE
  5
484
330
1B
100
AcDbEntity
 67
     1
  8
7_ALL_FEATURES
  6
Continuous
 62
     7
100
AcDbLine
 10
160.0467782665
 20
144.1438970833
 30
0.0
 11
160.0467782665
 21
144.208060623
 31
0.0
  0
LINE
  5
485
330
1B
100
AcDbEntity
 67
     1
  8
7_ALL_FEATURES
  6
Continuous
 62
     7
100
AcDbLine
 10
160.0467782665
 20
144.1438970833
 30
0.0
 11
160.0467782665
 21
144.008060623
 31
0.0
  0
LINE
  5
486
330
1B
100
AcDbEntity
 67
     1
  8
7_ALL_FEATURES
  6
Continuous
 62
     7
100
AcDbLine
 10
160.0467782665
 20
143.1949676841
 30
0.0
 11
160.0467782665
 21
143.3975135277
 31
0.0
  0
LINE
  5
487
330
1B
100
AcDbEntity
 67
     1
  8
7_ALL_FEATURES
  6
Continuous
 62
     7
100
AcDbLine
 10
160.0467782665
 20
143.3975135277
 30
0.0
 11
160.0467782665
 21
143.4924011425
 31
0.0
  0
LINE
  5
488
330
1B
100
AcDbEntity
 67
     1
  8
7_ALL_FEATURES
  6
Continuous
 62
     7
100
AcDbLine
 10
160.0467782665
 20
143.1949676841
 30
0.0
 11
160.0467782665
 21
143.008060623
 31
0.0
  0
LINE
  5
489
330
1B
100
AcDbEntity
 67
     1
  8
7_ALL_FEATURES
  6
Continuous
 62
     7
100
AcDbLine
 10
160.0467782665
 20
143.008060623
 30
0.0
 11
160.0467782665
 21
142.308060623
 31
0.0
  0
ARC
  5
48A
330
1B
100
AcDbEntity
 67
     1
  8
02___PRT_ALL_AXES
  6
Continuous
 62
     7
100
AcDbCircle
 10
1661.5467782665
 20
123.008060623
 30
0.0
 40
5.0
100
AcDbArc
 50
90.0
 51
270.0
  0
ARC
  5
48B
330
1B
100
AcDbEntity
 67
     1
  8
02___PRT_ALL_AXES
  6
Continuous
 62
     7
100
AcDbCircle
 10
1661.5467782665
 20
123.008060623
 30
0.0
 40
5.0
100
AcDbArc
 50
270.0
 51
90.0
  0
LINE
  5
48C
330
1B
100
AcDbEntity
 67
     1
  8
7_ALL_FEATURES
  6
Continuous
 62
     7
100
AcDbLine
 10
1671.5467782665
 20
143.1949676841
 30
0.0
 11
1671.5467782665
 21
143.008060623
 31
0.0
  0
LINE
  5
48D
330
1B
100
AcDbEntity
 67
     1
  8
7_ALL_FEATURES
  6
Continuous
 62
     7
100
AcDbLine
 10
1671.5467782665
 20
143.008060623
 30
0.0
 11
1671.5467782665
 21
142.308060623
 31
0.0
  0
LINE
  5
48E
330
1B
100
AcDbEntity
 67
     1
  8
7_ALL_FEATURES
  6
Continuous
 62
     7
100
AcDbLine
 10
1671.5467782665
 20
143.3975135277
 30
0.0
 11
1671.5467782665
 21
143.1949676841
 31
0.0
  0
LINE
  5
48F
330
1B
100
AcDbEntity
 67
     1
  8
7_ALL_FEATURES
  6
Continuous
 62
     7
100
AcDbLine
 10
1671.5467782665
 20
144.1438970833
 30
0.0
 11
1671.5467782665
 21
144.008060623
 31
0.0
  0
LINE
  5
490
330
1B
100
AcDbEntity
 67
     1
  8
7_ALL_FEATURES
  6
Continuous
 62
     7
100
AcDbLine
 10
1671.5467782665
 20
101.8722241627
 30
0.0
 11
1671.5467782665
 21
101.808060623
 31
0.0
  0
LINE
  5
491
330
1B
100
AcDbEntity
 67
     1
  8
7_ALL_FEATURES
  6
Continuous
 62
     7
100
AcDbLine
 10
1671.5467782665
 20
102.008060623
 30
0.0
 11
1671.5467782665
 21
101.8722241627
 31
0.0
  0
LINE
  5
492
330
1B
100
AcDbEntity
 67
     1
  8
7_ALL_FEATURES
  6
Continuous
 62
     7
100
AcDbLine
 10
1671.5467782665
 20
102.8211535619
 30
0.0
 11
1671.5467782665
 21
102.6186077183
 31
0.0
  0
LINE
  5
493
330
1B
100
AcDbEntity
 67
     1
  8
7_ALL_FEATURES
  6
Continuous
 62
     7
100
AcDbLine
 10
1671.5467782665
 20
102.6186077183
 30
0.0
 11
1671.5467782665
 21
102.5237201034
 31
0.0
  0
LINE
  5
494
330
1B
100
AcDbEntity
 67
     1
  8
7_ALL_FEATURES
  6
Continuous
 62
     7
100
AcDbLine
 10
1671.5467782665
 20
103.708060623
 30
0.0
 11
1671.5467782665
 21
103.008060623
 31
0.0
  0
LINE
  5
495
330
1B
100
AcDbEntity
 67
     1
  8
7_ALL_FEATURES
  6
Continuous
 62
     7
100
AcDbLine
 10
1671.5467782665
 20
103.008060623
 30
0.0
 11
1671.5467782665
 21
102.8211535619
 31
0.0
  0
LINE
  5
496
330
1B
100
AcDbEntity
 67
     1
  8
7_ALL_FEATURES
  6
Continuous
 62
     7
100
AcDbLine
 10
1671.5467782665
 20
142.008060623
 30
0.0
 11
160.0467782665
 21
142.008060623
 31
0.0
  0
LINE
  5
497
330
1B
100
AcDbEntity
 67
     1
  8
7_ALL_FEATURES
  6
Continuous
 62
     7
100
AcDbLine
 10
1671.5467782665
 20
144.208060623
 30
0.0
 11
160.0467782665
 21
144.208060623
 31
0.0
  0
LINE
  5
498
330
1B
100
AcDbEntity
 67
     1
  8
7_ALL_FEATURES
  6
Continuous
 62
     7
100
AcDbLine
 10
1671.5467782665
 20
104.008060623
 30
0.0
 11
160.0467782665
 21
104.008060623
 31
0.0
  0
LINE
  5
499
330
1B
100
AcDbEntity
 67
     1
  8
7_ALL_FEATURES
  6
Continuous
 62
     7
100
AcDbLine
 10
1671.5467782665
 20
101.808060623
 30
0.0
 11
160.0467782665
 21
101.808060623
 31
0.0
  0
LINE
  5
49A
330
1B
100
AcDbEntity
 67
     1
  8
7_ALL_FEATURES
  6
Continuous
 62
     9
100
AcDbLine
 10
1671.5467782665
 20
143.1949676841
 30
0.0
 11
160.0467782665
 21
143.1949676841
 31
0.0
  0
LINE
  5
49B
330
1B
100
AcDbEntity
 67
     1
  8
7_ALL_FEATURES
  6
Continuous
 62
     9
100
AcDbLine
 10
160.0467782665
 20
104.6240860267
 30
0.0
 11
1671.5467782665
 21
104.6240860267
 31
0.0
  0
LINE
  5
49C
330
1B
100
AcDbEntity
 67
     1
  8
7_ALL_FEATURES
  6
Continuous
 62
     9
100
AcDbLine
 10
1671.5467782665
 20
142.308060623
 30
0.0
 11
160.0467782665
 21
142.308060623
 31
0.0
  0
LINE
  5
49D
330
1B
100
AcDbEntity
 67
     1
  8
7_ALL_FEATURES
  6
Continuous
 62
     9
100
AcDbLine
 10
1671.5467782665
 20
144.1438970833
 30
0.0
 11
160.0467782665
 21
144.1438970833
 31
0.0
  0
LINE
  5
49E
330
1B
100
AcDbEntity
 67
     1
  8
7_ALL_FEATURES
  6
Continuous
 62
     9
100
AcDbLine
 10
1671.5467782665
 20
143.4924011425
 30
0.0
 11
160.0467782665
 21
143.4924011425
 31
0.0
  0
LINE
  5
49F
330
1B
100
AcDbEntity
 67
     1
  8
7_ALL_FEATURES
  6
Continuous
 62
     9
100
AcDbLine
 10
1671.5467782665
 20
105.7776758652
 30
0.0
 11
160.0467782665
 21
105.7776758652
 31
0.0
  0
LINE
  5
4A0
330
1B
100
AcDbEntity
 67
     1
  8
7_ALL_FEATURES
  6
Continuous
 62
     9
100
AcDbLine
 10
1656.9760539883
 20
125.032288871
 30
0.0
 11
1666.1175025447
 21
125.032288871
 31
0.0
  0
LINE
  5
4A1
330
1B
100
AcDbEntity
 67
     1
  8
7_ALL_FEATURES
  6
Continuous
 62
     9
100
AcDbLine
 10
1656.783372808
 20
124.526231809
 30
0.0
 11
1666.310183725
 21
124.526231809
 31
0.0
  0
LINE
  5
4A2
330
1B
100
AcDbEntity
 67
     1
  8
7_ALL_FEATURES
  6
Continuous
 62
     9
100
AcDbLine
 10
1656.783372808
 20
121.489889437
 30
0.0
 11
1666.310183725
 21
121.489889437
 31
0.0
  0
LINE
  5
4A3
330
1B
100
AcDbEntity
 67
     1
  8
7_ALL_FEATURES
  6
Continuous
 62
     9
100
AcDbLine
 10
1656.9760539883
 20
120.983832375
 30
0.0
 11
1666.1175025447
 21
120.983832375
 31
0.0
  0
LINE
  5
4A4
330
1B
100
AcDbEntity
 67
     1
  8
7_ALL_FEATURES
  6
Continuous
 62
     9
100
AcDbLine
 10
1671.5467782665
 20
139.9884453807
 30
0.0
 11
160.0467782665
 21
139.9884453807
 31
0.0
  0
LINE
  5
4A5
330
1B
100
AcDbEntity
 67
     1
  8
7_ALL_FEATURES
  6
Continuous
 62
     9
100
AcDbLine
 10
1671.5467782665
 20
106.0276758652
 30
0.0
 11
160.0467782665
 21
106.0276758652
 31
0.0
  0
LINE
  5
4A6
330
1B
100
AcDbEntity
 67
     1
  8
7_ALL_FEATURES
  6
Continuous
 62
     9
100
AcDbLine
 10
160.0467782665
 20
141.3920352192
 30
0.0
 11
1671.5467782665
 21
141.3920352192
 31
0.0
  0
LINE
  5
4A7
330
1B
100
AcDbEntity
 67
     1
  8
7_ALL_FEATURES
  6
Continuous
 62
     9
100
AcDbLine
 10
1671.5467782665
 20
140.2384453807
 30
0.0
 11
160.0467782665
 21
140.2384453807
 31
0.0
  0
LINE
  5
4A8
330
1B
100
AcDbEntity
 67
     1
  8
7_ALL_FEATURES
  6
Continuous
 62
     9
100
AcDbLine
 10
160.0467782665
 20
141.6420352192
 30
0.0
 11
1671.5467782665
 21
141.6420352192
 31
0.0
  0
LINE
  5
4A9
330
1B
100
AcDbEntity
 67
     1
  8
7_ALL_FEATURES
  6
Continuous
 62
     9
100
AcDbLine
 10
1671.5467782665
 20
103.708060623
 30
0.0
 11
160.0467782665
 21
103.708060623
 31
0.0
  0
LINE
  5
4AA
330
1B
100
AcDbEntity
 67
     1
  8
7_ALL_FEATURES
  6
Continuous
 62
     9
100
AcDbLine
 10
1671.5467782665
 20
102.8211535619
 30
0.0
 11
160.0467782665
 21
102.8211535619
 31
0.0
  0
LINE
  5
4AB
330
1B
100
AcDbEntity
 67
     1
  8
7_ALL_FEATURES
  6
Continuous
 62
     9
100
AcDbLine
 10
1671.5467782665
 20
102.5237201034
 30
0.0
 11
160.0467782665
 21
102.5237201034
 31
0.0
  0
LINE
  5
4AC
330
1B
100
AcDbEntity
 67
     1
  8
7_ALL_FEATURES
  6
Continuous
 62
     9
100
AcDbLine
 10
1671.5467782665
 20
101.8722241627
 30
0.0
 11
160.0467782665
 21
101.8722241627
 31
0.0
  0
LINE
  5
4AD
330
1B
100
AcDbEntity
 67
     1
  8
7_ALL_FEATURES
  6
Continuous
 62
     9
100
AcDbLine
 10
160.0467782665
 20
104.3740860267
 30
0.0
 11
1671.5467782665
 21
104.3740860267
 31
0.0
  0
LINE
  5
4AE
330
1B
100
AcDbEntity
 67
     1
  8
7_ALL_FEATURES
  6
Continuous
 62
     3
100
AcDbLine
 10
1671.5467782665
 20
143.008060623
 30
0.0
 11
1671.5467782665
 21
143.0389042096
 31
0.0
  0
LINE
  5
4AF
330
1B
100
AcDbEntity
 67
     1
  8
7_ALL_FEATURES
  6
Continuous
 62
     3
100
AcDbLine
 10
1671.5467782665
 20
143.3975135277
 30
0.0
 11
1671.5467782665
 21
143.6349759901
 31
0.0
  0
LINE
  5
4B0
330
1B
100
AcDbEntity
 67
     1
  8
7_ALL_FEATURES
  6
Continuous
 62
     3
100
AcDbLine
 10
1671.5467782665
 20
143.6349759901
 30
0.0
 11
1671.5467782665
 21
144.008060623
 31
0.0
  0
LINE
  5
4B1
330
1B
100
AcDbEntity
 67
     1
  8
7_ALL_FEATURES
  6
Continuous
 62
     3
100
AcDbLine
 10
1671.5467782665
 20
103.008060623
 30
0.0
 11
1671.5467782665
 21
103.708060623
 31
0.0
  0
LINE
  5
4B2
330
1B
100
AcDbEntity
 67
     1
  8
7_ALL_FEATURES
  6
Continuous
 62
     3
100
AcDbLine
 10
1671.5467782665
 20
103.708060623
 30
0.0
 11
1671.5467782665
 21
104.008060623
 31
0.0
  0
LINE
  5
4B3
330
1B
100
AcDbEntity
 67
     1
  8
7_ALL_FEATURES
  6
Continuous
 62
     3
100
AcDbLine
 10
1671.5467782665
 20
104.008060623
 30
0.0
 11
1671.5467782665
 21
142.008060623
 31
0.0
  0
LINE
  5
4B4
330
1B
100
AcDbEntity
 67
     1
  8
7_ALL_FEATURES
  6
Continuous
 62
     3
100
AcDbLine
 10
1671.5467782665
 20
142.008060623
 30
0.0
 11
1671.5467782665
 21
142.308060623
 31
0.0
  0
LINE
  5
4B5
330
1B
100
AcDbEntity
 67
     1
  8
7_ALL_FEATURES
  6
Continuous
 62
     3
100
AcDbLine
 10
1671.5467782665
 20
142.308060623
 30
0.0
 11
1671.5467782665
 21
143.008060623
 31
0.0
  0
LINE
  5
4B6
330
1B
100
AcDbEntity
 67
     1
  8
7_ALL_FEATURES
  6
Continuous
 62
     3
100
AcDbLine
 10
1671.5467782665
 20
102.008060623
 30
0.0
 11
1671.5467782665
 21
102.3811452558
 31
0.0
  0
LINE
  5
4B7
330
1B
100
AcDbEntity
 67
     1
  8
7_ALL_FEATURES
  6
Continuous
 62
     3
100
AcDbLine
 10
1671.5467782665
 20
102.3811452558
 30
0.0
 11
1671.5467782665
 21
102.6186077183
 31
0.0
  0
LINE
  5
4B8
330
1B
100
AcDbEntity
 67
     1
  8
7_ALL_FEATURES
  6
Continuous
 62
     3
100
AcDbLine
 10
1671.5467782665
 20
102.9772170363
 30
0.0
 11
1671.5467782665
 21
103.008060623
 31
0.0
  0
LINE
  5
4B9
330
1B
100
AcDbEntity
 67
     1
  8
7_ALL_FEATURES
  6
Continuous
 62
     3
100
AcDbLine
 10
160.0467782665
 20
103.008060623
 30
0.0
 11
160.0467782665
 21
102.9772170363
 31
0.0
  0
LINE
  5
4BA
330
1B
100
AcDbEntity
 67
     1
  8
7_ALL_FEATURES
  6
Continuous
 62
     3
100
AcDbLine
 10
160.0467782665
 20
102.6186077183
 30
0.0
 11
160.0467782665
 21
102.3811452558
 31
0.0
  0
LINE
  5
4BB
330
1B
100
AcDbEntity
 67
     1
  8
7_ALL_FEATURES
  6
Continuous
 62
     3
100
AcDbLine
 10
160.0467782665
 20
102.3811452558
 30
0.0
 11
160.0467782665
 21
102.008060623
 31
0.0
  0
LINE
  5
4BC
330
1B
100
AcDbEntity
 67
     1
  8
7_ALL_FEATURES
  6
Continuous
 62
     3
100
AcDbLine
 10
160.0467782665
 20
143.008060623
 30
0.0
 11
160.0467782665
 21
142.308060623
 31
0.0
  0
LINE
  5
4BD
330
1B
100
AcDbEntity
 67
     1
  8
7_ALL_FEATURES
  6
Continuous
 62
     3
100
AcDbLine
 10
160.0467782665
 20
142.308060623
 30
0.0
 11
160.0467782665
 21
142.008060623
 31
0.0
  0
LINE
  5
4BE
330
1B
100
AcDbEntity
 67
     1
  8
7_ALL_FEATURES
  6
Continuous
 62
     3
100
AcDbLine
 10
160.0467782665
 20
142.008060623
 30
0.0
 11
160.0467782665
 21
104.008060623
 31
0.0
  0
LINE
  5
4BF
330
1B
100
AcDbEntity
 67
     1
  8
7_ALL_FEATURES
  6
Continuous
 62
     3
100
AcDbLine
 10
160.0467782665
 20
104.008060623
 30
0.0
 11
160.0467782665
 21
103.708060623
 31
0.0
  0
LINE
  5
4C0
330
1B
100
AcDbEntity
 67
     1
  8
7_ALL_FEATURES
  6
Continuous
 62
     3
100
AcDbLine
 10
160.0467782665
 20
103.708060623
 30
0.0
 11
160.0467782665
 21
103.008060623
 31
0.0
  0
LINE
  5
4C1
330
1B
100
AcDbEntity
 67
     1
  8
7_ALL_FEATURES
  6
Continuous
 62
     3
100
AcDbLine
 10
160.0467782665
 20
144.008060623
 30
0.0
 11
160.0467782665
 21
143.6349759901
 31
0.0
  0
LINE
  5
4C2
330
1B
100
AcDbEntity
 67
     1
  8
7_ALL_FEATURES
  6
Continuous
 62
     3
100
AcDbLine
 10
160.0467782665
 20
143.6349759901
 30
0.0
 11
160.0467782665
 21
143.3975135277
 31
0.0
  0
LINE
  5
4C3
330
1B
100
AcDbEntity
 67
     1
  8
7_ALL_FEATURES
  6
Continuous
 62
     3
100
AcDbLine
 10
160.0467782665
 20
143.0389042096
 30
0.0
 11
160.0467782665
 21
143.008060623
 31
0.0
  0
LINE
  5
4C4
330
1B
100
AcDbEntity
 67
     1
  8
7_ALL_FEATURES
  6
Continuous
 62
     7
100
AcDbLine
 10
1815.0651742858
 20
346.9120814865
 30
0.0
 11
1815.0651742858
 21
346.0370814865
 31
0.0
  0
LINE
  5
4C5
330
1B
100
AcDbEntity
 67
     1
  8
7_ALL_FEATURES
  6
Continuous
 62
     7
100
AcDbLine
 10
1815.0651742858
 20
346.0370814865
 30
0.0
 11
1814.1901742858
 21
346.0370814865
 31
0.0
  0
LINE
  5
4C6
330
1B
100
AcDbEntity
 67
     1
  8
7_ALL_FEATURES
  6
Continuous
 62
     7
100
AcDbLine
 10
1814.1901742858
 20
345.2870814865
 30
0.0
 11
1815.0651742858
 21
345.2870814865
 31
0.0
  0
LINE
  5
4C7
330
1B
100
AcDbEntity
 67
     1
  8
7_ALL_FEATURES
  6
Continuous
 62
     7
100
AcDbLine
 10
1815.0651742858
 20
345.2870814865
 30
0.0
 11
1815.0651742858
 21
344.4120814865
 31
0.0
  0
LINE
  5
4C8
330
1B
100
AcDbEntity
 67
     1
  8
7_ALL_FEATURES
  6
Continuous
 62
     7
100
AcDbLine
 10
1815.8151742858
 20
344.4120814865
 30
0.0
 11
1815.8151742858
 21
345.2870814865
 31
0.0
  0
LINE
  5
4C9
330
1B
100
AcDbEntity
 67
     1
  8
7_ALL_FEATURES
  6
Continuous
 62
     7
100
AcDbLine
 10
1815.8151742858
 20
345.2870814865
 30
0.0
 11
1816.6901742858
 21
345.2870814865
 31
0.0
  0
LINE
  5
4CA
330
1B
100
AcDbEntity
 67
     1
  8
7_ALL_FEATURES
  6
Continuous
 62
     7
100
AcDbLine
 10
1816.6901742858
 20
346.0370814865
 30
0.0
 11
1815.8151742858
 21
346.0370814865
 31
0.0
  0
LINE
  5
4CB
330
1B
100
AcDbEntity
 67
     1
  8
7_ALL_FEATURES
  6
Continuous
 62
     7
100
AcDbLine
 10
1815.8151742858
 20
346.0370814865
 30
0.0
 11
1815.8151742858
 21
346.9120814865
 31
0.0
  0
ARC
  5
4CC
330
1B
100
AcDbEntity
 67
     1
  8
3_ALL_AXES
  6
Continuous
 62
     7
100
AcDbCircle
 10
1815.4401742858
 20
345.6620814865
 30
0.0
 40
2.75
100
AcDbArc
 50
180.0
 51
360.0
  0
ARC
  5
4CD
330
1B
100
AcDbEntity
 67
     1
  8
3_ALL_AXES
  6
Continuous
 62
     7
100
AcDbCircle
 10
1815.4401742858
 20
345.6620814865
 30
0.0
 40
2.75
100
AcDbArc
 50
0.0
 51
180.0
  0
LINE
  5
4CE
330
1B
100
AcDbEntity
 67
     1
  8
7_ALL_FEATURES
  6
Continuous
 62
     7
100
AcDbLine
 10
1816.6901742858
 20
346.0370814865
 30
0.0
 11
1816.6901742858
 21
345.2870814865
 31
0.0
  0
LINE
  5
4CF
330
1B
100
AcDbEntity
 67
     1
  8
7_ALL_FEATURES
  6
Continuous
 62
     7
100
AcDbLine
 10
1815.0651742858
 20
346.9120814865
 30
0.0
 11
1815.8151742858
 21
346.9120814865
 31
0.0
  0
LINE
  5
4D0
330
1B
100
AcDbEntity
 67
     1
  8
7_ALL_FEATURES
  6
Continuous
 62
     7
100
AcDbLine
 10
1814.1901742858
 20
345.2870814865
 30
0.0
 11
1814.1901742858
 21
346.0370814865
 31
0.0
  0
LINE
  5
4D1
330
1B
100
AcDbEntity
 67
     1
  8
7_ALL_FEATURES
  6
Continuous
 62
     7
100
AcDbLine
 10
1815.8151742858
 20
344.4120814865
 30
0.0
 11
1815.0651742858
 21
344.4120814865
 31
0.0
  0
LINE
  5
4D2
330
1B
100
AcDbEntity
 67
     1
  8
7_ALL_FEATURES
  6
Continuous
 62
     7
100
AcDbLine
 10
1851.4651742858
 20
346.9120814865
 30
0.0
 11
1851.4651742858
 21
346.0370814865
 31
0.0
  0
LINE
  5
4D3
330
1B
100
AcDbEntity
 67
     1
  8
7_ALL_FEATURES
  6
Continuous
 62
     7
100
AcDbLine
 10
1851.4651742858
 20
346.0370814865
 30
0.0
 11
1850.5901742858
 21
346.0370814865
 31
0.0
  0
LINE
  5
4D4
330
1B
100
AcDbEntity
 67
     1
  8
7_ALL_FEATURES
  6
Continuous
 62
     7
100
AcDbLine
 10
1850.5901742858
 20
345.2870814865
 30
0.0
 11
1851.4651742858
 21
345.2870814865
 31
0.0
  0
LINE
  5
4D5
330
1B
100
AcDbEntity
 67
     1
  8
7_ALL_FEATURES
  6
Continuous
 62
     7
100
AcDbLine
 10
1851.4651742858
 20
345.2870814865
 30
0.0
 11
1851.4651742858
 21
344.4120814865
 31
0.0
  0
LINE
  5
4D6
330
1B
100
AcDbEntity
 67
     1
  8
7_ALL_FEATURES
  6
Continuous
 62
     7
100
AcDbLine
 10
1852.2151742858
 20
344.4120814865
 30
0.0
 11
1852.2151742858
 21
345.2870814865
 31
0.0
  0
LINE
  5
4D7
330
1B
100
AcDbEntity
 67
     1
  8
7_ALL_FEATURES
  6
Continuous
 62
     7
100
AcDbLine
 10
1852.2151742858
 20
345.2870814865
 30
0.0
 11
1853.0901742858
 21
345.2870814865
 31
0.0
  0
LINE
  5
4D8
330
1B
100
AcDbEntity
 67
     1
  8
7_ALL_FEATURES
  6
Continuous
 62
     7
100
AcDbLine
 10
1853.0901742858
 20
346.0370814865
 30
0.0
 11
1852.2151742858
 21
346.0370814865
 31
0.0
  0
LINE
  5
4D9
330
1B
100
AcDbEntity
 67
     1
  8
7_ALL_FEATURES
  6
Continuous
 62
     7
100
AcDbLine
 10
1852.2151742858
 20
346.0370814865
 30
0.0
 11
1852.2151742858
 21
346.9120814865
 31
0.0
  0
ARC
  5
4DA
330
1B
100
AcDbEntity
 67
     1
  8
3_ALL_AXES
  6
Continuous
 62
     7
100
AcDbCircle
 10
1851.8401742858
 20
345.6620814865
 30
0.0
 40
2.75
100
AcDbArc
 50
180.0
 51
360.0
  0
ARC
  5
4DB
330
1B
100
AcDbEntity
 67
     1
  8
3_ALL_AXES
  6
Continuous
 62
     7
100
AcDbCircle
 10
1851.8401742858
 20
345.6620814865
 30
0.0
 40
2.75
100
AcDbArc
 50
0.0
 51
180.0
  0
LINE
  5
4DC
330
1B
100
AcDbEntity
 67
     1
  8
7_ALL_FEATURES
  6
Continuous
 62
     7
100
AcDbLine
 10
1853.0901742858
 20
346.0370814865
 30
0.0
 11
1853.0901742858
 21
345.2870814865
 31
0.0
  0
LINE
  5
4DD
330
1B
100
AcDbEntity
 67
     1
  8
7_ALL_FEATURES
  6
Continuous
 62
     7
100
AcDbLine
 10
1851.4651742858
 20
346.9120814865
 30
0.0
 11
1852.2151742858
 21
346.9120814865
 31
0.0
  0
LINE
  5
4DE
330
1B
100
AcDbEntity
 67
     1
  8
7_ALL_FEATURES
  6
Continuous
 62
     7
100
AcDbLine
 10
1850.5901742858
 20
345.2870814865
 30
0.0
 11
1850.5901742858
 21
346.0370814865
 31
0.0
  0
LINE
  5
4DF
330
1B
100
AcDbEntity
 67
     1
  8
7_ALL_FEATURES
  6
Continuous
 62
     7
100
AcDbLine
 10
1852.2151742858
 20
344.4120814865
 30
0.0
 11
1851.4651742858
 21
344.4120814865
 31
0.0
  0
LINE
  5
4E0
330
1B
100
AcDbEntity
 67
     1
  8
7_ALL_FEATURES
  6
Continuous
 62
     7
100
AcDbLine
 10
1851.4651742858
 20
298.1620814865
 30
0.0
 11
1851.4651742858
 21
297.2870814865
 31
0.0
  0
LINE
  5
4E1
330
1B
100
AcDbEntity
 67
     1
  8
7_ALL_FEATURES
  6
Continuous
 62
     7
100
AcDbLine
 10
1851.4651742858
 20
297.2870814865
 30
0.0
 11
1850.5901742858
 21
297.2870814865
 31
0.0
  0
LINE
  5
4E2
330
1B
100
AcDbEntity
 67
     1
  8
7_ALL_FEATURES
  6
Continuous
 62
     7
100
AcDbLine
 10
1850.5901742858
 20
296.5370814865
 30
0.0
 11
1851.4651742858
 21
296.5370814865
 31
0.0
  0
LINE
  5
4E3
330
1B
100
AcDbEntity
 67
     1
  8
7_ALL_FEATURES
  6
Continuous
 62
     7
100
AcDbLine
 10
1851.4651742858
 20
296.5370814865
 30
0.0
 11
1851.4651742858
 21
295.6620814865
 31
0.0
  0
LINE
  5
4E4
330
1B
100
AcDbEntity
 67
     1
  8
7_ALL_FEATURES
  6
Continuous
 62
     7
100
AcDbLine
 10
1852.2151742858
 20
295.6620814865
 30
0.0
 11
1852.2151742858
 21
296.5370814865
 31
0.0
  0
LINE
  5
4E5
330
1B
100
AcDbEntity
 67
     1
  8
7_ALL_FEATURES
  6
Continuous
 62
     7
100
AcDbLine
 10
1852.2151742858
 20
296.5370814865
 30
0.0
 11
1853.0901742858
 21
296.5370814865
 31
0.0
  0
LINE
  5
4E6
330
1B
100
AcDbEntity
 67
     1
  8
7_ALL_FEATURES
  6
Continuous
 62
     7
100
AcDbLine
 10
1853.0901742858
 20
297.2870814865
 30
0.0
 11
1852.2151742858
 21
297.2870814865
 31
0.0
  0
LINE
  5
4E7
330
1B
100
AcDbEntity
 67
     1
  8
7_ALL_FEATURES
  6
Continuous
 62
     7
100
AcDbLine
 10
1852.2151742858
 20
297.2870814865
 30
0.0
 11
1852.2151742858
 21
298.1620814865
 31
0.0
  0
ARC
  5
4E8
330
1B
100
AcDbEntity
 67
     1
  8
3_ALL_AXES
  6
Continuous
 62
     7
100
AcDbCircle
 10
1851.8401742858
 20
296.9120814865
 30
0.0
 40
2.75
100
AcDbArc
 50
180.0
 51
360.0
  0
ARC
  5
4E9
330
1B
100
AcDbEntity
 67
     1
  8
3_ALL_AXES
  6
Continuous
 62
     7
100
AcDbCircle
 10
1851.8401742858
 20
296.9120814865
 30
0.0
 40
2.75
100
AcDbArc
 50
0.0
 51
180.0
  0
LINE
  5
4EA
330
1B
100
AcDbEntity
 67
     1
  8
7_ALL_FEATURES
  6
Continuous
 62
     7
100
AcDbLine
 10
1853.0901742858
 20
297.2870814865
 30
0.0
 11
1853.0901742858
 21
296.5370814865
 31
0.0
  0
LINE
  5
4EB
330
1B
100
AcDbEntity
 67
     1
  8
7_ALL_FEATURES
  6
Continuous
 62
     7
100
AcDbLine
 10
1851.4651742858
 20
298.1620814865
 30
0.0
 11
1852.2151742858
 21
298.1620814865
 31
0.0
  0
LINE
  5
4EC
330
1B
100
AcDbEntity
 67
     1
  8
7_ALL_FEATURES
  6
Continuous
 62
     7
100
AcDbLine
 10
1850.5901742858
 20
296.5370814865
 30
0.0
 11
1850.5901742858
 21
297.2870814865
 31
0.0
  0
LINE
  5
4ED
330
1B
100
AcDbEntity
 67
     1
  8
7_ALL_FEATURES
  6
Continuous
 62
     7
100
AcDbLine
 10
1852.2151742858
 20
295.6620814865
 30
0.0
 11
1851.4651742858
 21
295.6620814865
 31
0.0
  0
LINE
  5
4EE
330
1B
100
AcDbEntity
 67
     1
  8
7_ALL_FEATURES
  6
Continuous
 62
     7
100
AcDbLine
 10
1815.0651742858
 20
298.1620814865
 30
0.0
 11
1815.0651742858
 21
297.2870814865
 31
0.0
  0
LINE
  5
4EF
330
1B
100
AcDbEntity
 67
     1
  8
7_ALL_FEATURES
  6
Continuous
 62
     7
100
AcDbLine
 10
1815.0651742858
 20
297.2870814865
 30
0.0
 11
1814.1901742858
 21
297.2870814865
 31
0.0
  0
LINE
  5
4F0
330
1B
100
AcDbEntity
 67
     1
  8
7_ALL_FEATURES
  6
Continuous
 62
     7
100
AcDbLine
 10
1814.1901742858
 20
296.5370814865
 30
0.0
 11
1815.0651742858
 21
296.5370814865
 31
0.0
  0
LINE
  5
4F1
330
1B
100
AcDbEntity
 67
     1
  8
7_ALL_FEATURES
  6
Continuous
 62
     7
100
AcDbLine
 10
1815.0651742858
 20
296.5370814865
 30
0.0
 11
1815.0651742858
 21
295.6620814865
 31
0.0
  0
LINE
  5
4F2
330
1B
100
AcDbEntity
 67
     1
  8
7_ALL_FEATURES
  6
Continuous
 62
     7
100
AcDbLine
 10
1815.8151742858
 20
295.6620814865
 30
0.0
 11
1815.8151742858
 21
296.5370814865
 31
0.0
  0
LINE
  5
4F3
330
1B
100
AcDbEntity
 67
     1
  8
7_ALL_FEATURES
  6
Continuous
 62
     7
100
AcDbLine
 10
1815.8151742858
 20
296.5370814865
 30
0.0
 11
1816.6901742858
 21
296.5370814865
 31
0.0
  0
LINE
  5
4F4
330
1B
100
AcDbEntity
 67
     1
  8
7_ALL_FEATURES
  6
Continuous
 62
     7
100
AcDbLine
 10
1816.6901742858
 20
297.2870814865
 30
0.0
 11
1815.8151742858
 21
297.2870814865
 31
0.0
  0
LINE
  5
4F5
330
1B
100
AcDbEntity
 67
     1
  8
7_ALL_FEATURES
  6
Continuous
 62
     7
100
AcDbLine
 10
1815.8151742858
 20
297.2870814865
 30
0.0
 11
1815.8151742858
 21
298.1620814865
 31
0.0
  0
ARC
  5
4F6
330
1B
100
AcDbEntity
 67
     1
  8
3_ALL_AXES
  6
Continuous
 62
     7
100
AcDbCircle
 10
1815.4401742858
 20
296.9120814865
 30
0.0
 40
2.75
100
AcDbArc
 50
180.0
 51
360.0
  0
ARC
  5
4F7
330
1B
100
AcDbEntity
 67
     1
  8
3_ALL_AXES
  6
Continuous
 62
     7
100
AcDbCircle
 10
1815.4401742858
 20
296.9120814865
 30
0.0
 40
2.75
100
AcDbArc
 50
0.0
 51
180.0
  0
LINE
  5
4F8
330
1B
100
AcDbEntity
 67
     1
  8
7_ALL_FEATURES
  6
Continuous
 62
     7
100
AcDbLine
 10
1816.6901742858
 20
297.2870814865
 30
0.0
 11
1816.6901742858
 21
296.5370814865
 31
0.0
  0
LINE
  5
4F9
330
1B
100
AcDbEntity
 67
     1
  8
7_ALL_FEATURES
  6
Continuous
 62
     7
100
AcDbLine
 10
1815.0651742858
 20
298.1620814865
 30
0.0
 11
1815.8151742858
 21
298.1620814865
 31
0.0
  0
LINE
  5
4FA
330
1B
100
AcDbEntity
 67
     1
  8
7_ALL_FEATURES
  6
Continuous
 62
     7
100
AcDbLine
 10
1814.1901742858
 20
296.5370814865
 30
0.0
 11
1814.1901742858
 21
297.2870814865
 31
0.0
  0
LINE
  5
4FB
330
1B
100
AcDbEntity
 67
     1
  8
7_ALL_FEATURES
  6
Continuous
 62
     7
100
AcDbLine
 10
1815.8151742858
 20
295.6620814865
 30
0.0
 11
1815.0651742858
 21
295.6620814865
 31
0.0
  0
ARC
  5
4FC
330
1B
100
AcDbEntity
 67
     1
  8
7_ALL_FEATURES
  6
Continuous
 62
     7
100
AcDbCircle
 10
1812.1401742858
 20
367.4120814865
 30
0.0
 40
1.5
100
AcDbArc
 50
306.8698976459
 51
53.1301023541
  0
ARC
  5
4FD
330
1B
100
AcDbEntity
 67
     1
  8
7_ALL_FEATURES
  6
Continuous
 62
     7
100
AcDbCircle
 10
1813.6401742858
 20
365.4120814865
 30
0.0
 40
1.0
100
AcDbArc
 50
126.8698976458
 51
180.0
  0
LINE
  5
4FE
330
1B
100
AcDbEntity
 67
     1
  8
7_ALL_FEATURES
  6
Continuous
 62
     7
100
AcDbLine
 10
1812.6401742858
 20
294.9120814865
 30
0.0
 11
1812.6401742858
 21
365.4120814865
 31
0.0
  0
ARC
  5
4FF
330
1B
100
AcDbEntity
 67
     1
  8
7_ALL_FEATURES
  6
Continuous
 62
     7
100
AcDbCircle
 10
1813.6401742858
 20
294.9120814865
 30
0.0
 40
1.0
100
AcDbArc
 50
180.0
 51
270.0
  0
LINE
  5
500
330
1B
100
AcDbEntity
 67
     1
  8
7_ALL_FEATURES
  6
Continuous
 62
     7
100
AcDbLine
 10
1853.6401742858
 20
293.9120814865
 30
0.0
 11
1813.6401742858
 21
293.9120814865
 31
0.0
  0
ARC
  5
501
330
1B
100
AcDbEntity
 67
     1
  8
7_ALL_FEATURES
  6
Continuous
 62
     7
100
AcDbCircle
 10
1853.6401742858
 20
294.9120814865
 30
0.0
 40
1.0
100
AcDbArc
 50
270.0
 51
360.0
  0
LINE
  5
502
330
1B
100
AcDbEntity
 67
     1
  8
7_ALL_FEATURES
  6
Continuous
 62
     7
100
AcDbLine
 10
1854.6401742858
 20
305.4120814865
 30
0.0
 11
1854.6401742858
 21
294.9120814865
 31
0.0
  0
ARC
  5
503
330
1B
100
AcDbEntity
 67
     1
  8
7_ALL_FEATURES
  6
Continuous
 62
     7
100
AcDbCircle
 10
1853.6401742858
 20
305.4120814865
 30
0.0
 40
1.0
100
AcDbArc
 50
0.0
 51
53.1301023542
  0
ARC
  5
504
330
1B
100
AcDbEntity
 67
     1
  8
7_ALL_FEATURES
  6
Continuous
 62
     7
100
AcDbCircle
 10
1855.1401742858
 20
307.4120814865
 30
0.0
 40
1.5
100
AcDbArc
 50
126.8698976458
 51
233.1301023542
  0
ARC
  5
505
330
1B
100
AcDbEntity
 67
     1
  8
7_ALL_FEATURES
  6
Continuous
 62
     7
100
AcDbCircle
 10
1853.6401742858
 20
309.4120814865
 30
0.0
 40
1.0
100
AcDbArc
 50
306.8698976458
 51
360.0
  0
LINE
  5
506
330
1B
100
AcDbEntity
 67
     1
  8
7_ALL_FEATURES
  6
Continuous
 62
     7
100
AcDbLine
 10
1854.6401742858
 20
376.4120814865
 30
0.0
 11
1854.6401742858
 21
309.4120814865
 31
0.0
  0
ARC
  5
507
330
1B
100
AcDbEntity
 67
     1
  8
7_ALL_FEATURES
  6
Continuous
 62
     7
100
AcDbCircle
 10
1853.6401742858
 20
376.4120814865
 30
0.0
 40
1.0
100
AcDbArc
 50
0.0
 51
90.0
  0
LINE
  5
508
330
1B
100
AcDbEntity
 67
     1
  8
7_ALL_FEATURES
  6
Continuous
 62
     7
100
AcDbLine
 10
1813.6401742858
 20
377.4120814865
 30
0.0
 11
1853.6401742858
 21
377.4120814865
 31
0.0
  0
ARC
  5
509
330
1B
100
AcDbEntity
 67
     1
  8
7_ALL_FEATURES
  6
Continuous
 62
     7
100
AcDbCircle
 10
1813.6401742858
 20
376.4120814865
 30
0.0
 40
1.0
100
AcDbArc
 50
90.0
 51
180.0
  0
LINE
  5
50A
330
1B
100
AcDbEntity
 67
     1
  8
7_ALL_FEATURES
  6
Continuous
 62
     7
100
AcDbLine
 10
1812.6401742858
 20
369.4120814865
 30
0.0
 11
1812.6401742858
 21
376.4120814865
 31
0.0
  0
ARC
  5
50B
330
1B
100
AcDbEntity
 67
     1
  8
7_ALL_FEATURES
  6
Continuous
 62
     7
100
AcDbCircle
 10
1813.6401742858
 20
369.4120814865
 30
0.0
 40
1.0
100
AcDbArc
 50
180.0
 51
233.1301023542
  0
ARC
  5
50C
330
1B
100
AcDbEntity
 67
     1
  8
02___PRT_ALL_AXES
  6
Continuous
 62
     7
100
AcDbCircle
 10
1833.6401742858
 20
317.0805362678
 30
0.0
 40
9.5
100
AcDbArc
 50
182.0
 51
358.0
  0
LINE
  5
50D
330
1B
100
AcDbEntity
 67
     1
  8
02___PRT_ALL_AXES
  6
Continuous
 62
     7
100
AcDbLine
 10
1843.634082556
 20
316.7315413008
 30
0.0
 11
1843.1343871425
 21
316.7489910491
 31
0.0
  0
ARC
  5
50E
330
1B
100
AcDbEntity
 67
     1
  8
02___PRT_ALL_AXES
  6
Continuous
 62
     7
100
AcDbCircle
 10
1833.6401742858
 20
317.0805362678
 30
0.0
 40
10.0
100
AcDbArc
 50
182.0
 51
358.0
  0
LINE
  5
50F
330
1B
100
AcDbEntity
 67
     1
  8
02___PRT_ALL_AXES
  6
Continuous
 62
     7
100
AcDbLine
 10
1824.1459614291
 20
316.7489910491
 30
0.0
 11
1823.6462660156
 21
316.7315413008
 31
0.0
  0
LINE
  5
510
330
1B
100
AcDbEntity
 67
     1
  8
02___PRT_ALL_AXES
  6
Continuous
 62
     7
100
AcDbLine
 10
1823.6462660156
 20
317.4295312348
 30
0.0
 11
1824.1459614291
 21
317.4120814865
 31
0.0
  0
ARC
  5
511
330
1B
100
AcDbEntity
 67
     1
  8
02___PRT_ALL_AXES
  6
Continuous
 62
     7
100
AcDbCircle
 10
1833.6401742858
 20
317.0805362678
 30
0.0
 40
10.0
100
AcDbArc
 50
2.0
 51
178.0
  0
LINE
  5
512
330
1B
100
AcDbEntity
 67
     1
  8
02___PRT_ALL_AXES
  6
Continuous
 62
     7
100
AcDbLine
 10
1843.1343871425
 20
317.4120814865
 30
0.0
 11
1843.634082556
 21
317.4295312348
 31
0.0
  0
ARC
  5
513
330
1B
100
AcDbEntity
 67
     1
  8
02___PRT_ALL_AXES
  6
Continuous
 62
     7
100
AcDbCircle
 10
1833.6401742858
 20
317.0805362678
 30
0.0
 40
9.5
100
AcDbArc
 50
2.0
 51
178.0
  0
LINE
  5
514
330
1B
100
AcDbEntity
 67
     1
  8
7_ALL_FEATURES
  6
Continuous
 62
     7
100
AcDbLine
 10
1853.6401742858
 20
377.4120814865
 30
0.0
 11
1853.8270813469
 21
377.4120814865
 31
0.0
  0
ARC
  5
515
330
1B
100
AcDbEntity
 67
     1
  8
7_ALL_FEATURES
  6
Continuous
 62
     7
100
AcDbCircle
 10
1853.8270813469
 20
377.1120814865
 30
0.0
 40
0.3
100
AcDbArc
 50
47.5056529937
 51
90.0
  0
LINE
  5
516
330
1B
100
AcDbEntity
 67
     1
  8
7_ALL_FEATURES
  6
Continuous
 62
     7
100
AcDbLine
 10
1854.6401742858
 20
373.2344167245
 30
0.0
 11
1854.7760107461
 21
372.2026363725
 31
0.0
  0
ARC
  5
517
330
1B
100
AcDbEntity
 67
     1
  8
7_ALL_FEATURES
  6
Continuous
 62
     7
100
AcDbCircle
 10
1847.3401742858
 20
371.2236899308
 30
0.0
 40
7.5
100
AcDbArc
 50
0.0
 51
7.5
  0
LINE
  5
518
330
1B
100
AcDbEntity
 67
     1
  8
7_ALL_FEATURES
  6
Continuous
 62
     7
100
AcDbLine
 10
1854.8401742858
 20
371.2236899308
 30
0.0
 11
1854.8401742858
 21
341.6120814865
 31
0.0
  0
ARC
  5
519
330
1B
100
AcDbEntity
 67
     1
  8
7_ALL_FEATURES
  6
Continuous
 62
     7
100
AcDbCircle
 10
1854.6401742858
 20
341.6120814865
 30
0.0
 40
0.2
100
AcDbArc
 50
270.0
 51
360.0
  0
ARC
  5
51A
330
1B
100
AcDbEntity
 67
     1
  8
7_ALL_FEATURES
  6
Continuous
 62
     7
100
AcDbCircle
 10
1854.6401742858
 20
336.7120814865
 30
0.0
 40
0.2
100
AcDbArc
 50
0.0
 51
90.0
  0
LINE
  5
51B
330
1B
100
AcDbEntity
 67
     1
  8
7_ALL_FEATURES
  6
Continuous
 62
     7
100
AcDbLine
 10
1854.8401742858
 20
336.7120814865
 30
0.0
 11
1854.8401742858
 21
323.7120814865
 31
0.0
  0
ARC
  5
51C
330
1B
100
AcDbEntity
 67
     1
  8
7_ALL_FEATURES
  6
Continuous
 62
     7
100
AcDbCircle
 10
1854.5401742858
 20
323.7120814865
 30
0.0
 40
0.3
100
AcDbArc
 50
289.4863266337
 51
360.0
  0
ARC
  5
51D
330
1B
100
AcDbEntity
 67
     1
  8
7_ALL_FEATURES
  6
Continuous
 62
     7
100
AcDbCircle
 10
1854.5401742858
 20
318.6120814865
 30
0.0
 40
0.3
100
AcDbArc
 50
0.0
 51
70.5136733663
  0
LINE
  5
51E
330
1B
100
AcDbEntity
 67
     1
  8
7_ALL_FEATURES
  6
Continuous
 62
     7
100
AcDbLine
 10
1854.8401742858
 20
318.6120814865
 30
0.0
 11
1854.8401742858
 21
294.9120814865
 31
0.0
  0
ARC
  5
51F
330
1B
100
AcDbEntity
 67
     1
  8
7_ALL_FEATURES
  6
Continuous
 62
     7
100
AcDbCircle
 10
1853.8401742858
 20
294.9120814865
 30
0.0
 40
1.0
100
AcDbArc
 50
270.0
 51
360.0
  0
LINE
  5
520
330
1B
100
AcDbEntity
 67
     1
  8
7_ALL_FEATURES
  6
Continuous
 62
     7
100
AcDbLine
 10
1853.8401742858
 20
293.9120814865
 30
0.0
 11
1853.6401742858
 21
293.9120814865
 31
0.0
  0
LINE
  5
521
330
1B
100
AcDbEntity
 67
     1
  8
7_ALL_FEATURES
  6
Continuous
 62
     7
100
AcDbLine
 10
1813.6401742858
 20
293.9120814865
 30
0.0
 11
1813.4401742858
 21
293.9120814865
 31
0.0
  0
ARC
  5
522
330
1B
100
AcDbEntity
 67
     1
  8
7_ALL_FEATURES
  6
Continuous
 62
     7
100
AcDbCircle
 10
1813.4401742858
 20
294.9120814865
 30
0.0
 40
1.0
100
AcDbArc
 50
180.0
 51
270.0
  0
LINE
  5
523
330
1B
100
AcDbEntity
 67
     1
  8
7_ALL_FEATURES
  6
Continuous
 62
     7
100
AcDbLine
 10
1812.4401742858
 20
294.9120814865
 30
0.0
 11
1812.4401742858
 21
318.6120814865
 31
0.0
  0
ARC
  5
524
330
1B
100
AcDbEntity
 67
     1
  8
7_ALL_FEATURES
  6
Continuous
 62
     7
100
AcDbCircle
 10
1812.7401742858
 20
318.6120814865
 30
0.0
 40
0.3
100
AcDbArc
 50
109.4863266336
 51
180.0
  0
ARC
  5
525
330
1B
100
AcDbEntity
 67
     1
  8
7_ALL_FEATURES
  6
Continuous
 62
     7
100
AcDbCircle
 10
1812.7401742858
 20
323.7120814865
 30
0.0
 40
0.3
100
AcDbArc
 50
180.0
 51
250.5136733664
  0
LINE
  5
526
330
1B
100
AcDbEntity
 67
     1
  8
7_ALL_FEATURES
  6
Continuous
 62
     7
100
AcDbLine
 10
1812.4401742858
 20
323.7120814865
 30
0.0
 11
1812.4401742858
 21
336.7120814865
 31
0.0
  0
ARC
  5
527
330
1B
100
AcDbEntity
 67
     1
  8
7_ALL_FEATURES
  6
Continuous
 62
     7
100
AcDbCircle
 10
1812.6401742858
 20
336.7120814865
 30
0.0
 40
0.2
100
AcDbArc
 50
90.0
 51
180.0
  0
ARC
  5
528
330
1B
100
AcDbEntity
 67
     1
  8
7_ALL_FEATURES
  6
Continuous
 62
     7
100
AcDbCircle
 10
1812.6401742858
 20
341.6120814865
 30
0.0
 40
0.2
100
AcDbArc
 50
180.0
 51
270.0
  0
LINE
  5
529
330
1B
100
AcDbEntity
 67
     1
  8
7_ALL_FEATURES
  6
Continuous
 62
     7
100
AcDbLine
 10
1812.4401742858
 20
341.6120814865
 30
0.0
 11
1812.4401742858
 21
371.2236899308
 31
0.0
  0
ARC
  5
52A
330
1B
100
AcDbEntity
 67
     1
  8
7_ALL_FEATURES
  6
Continuous
 62
     7
100
AcDbCircle
 10
1819.9401742858
 20
371.2236899308
 30
0.0
 40
7.5
100
AcDbArc
 50
172.5
 51
180.0
  0
LINE
  5
52B
330
1B
100
AcDbEntity
 67
     1
  8
7_ALL_FEATURES
  6
Continuous
 62
     7
100
AcDbLine
 10
1812.5043378255
 20
372.2026363725
 30
0.0
 11
1812.6401742858
 21
373.2344167245
 31
0.0
  0
ARC
  5
52C
330
1B
100
AcDbEntity
 67
     1
  8
7_ALL_FEATURES
  6
Continuous
 62
     7
100
AcDbCircle
 10
1813.4532672247
 20
377.1120814865
 30
0.0
 40
0.3
100
AcDbArc
 50
90.0
 51
132.4943470064
  0
LINE
  5
52D
330
1B
100
AcDbEntity
 67
     1
  8
7_ALL_FEATURES
  6
Continuous
 62
     7
100
AcDbLine
 10
1813.4532672247
 20
377.4120814865
 30
0.0
 11
1813.6401742858
 21
377.4120814865
 31
0.0
  0
ARC
  5
52E
330
1B
100
AcDbEntity
 67
     1
  8
7_ALL_FEATURES
  6
Continuous
 62
     7
100
AcDbCircle
 10
1854.5901742858
 20
294.5120814865
 30
0.0
 40
0.6
100
AcDbArc
 50
270.0
 51
360.0
  0
LINE
  5
52F
330
1B
100
AcDbEntity
 67
     1
  8
7_ALL_FEATURES
  6
Continuous
 62
     7
100
AcDbLine
 10
1812.0901742858
 20
294.5120814865
 30
0.0
 11
1812.0901742858
 21
362.7120814865
 31
0.0
  0
LINE
  5
530
330
1B
100
AcDbEntity
 67
     1
  8
7_ALL_FEATURES
  6
Continuous
 62
     7
100
AcDbLine
 10
1857.1901742858
 20
363.9120814865
 30
0.0
 11
1880.1901742858
 21
363.9120814865
 31
0.0
  0
LINE
  5
531
330
1B
100
AcDbEntity
 67
     1
  8
7_ALL_FEATURES
  6
Continuous
 62
     7
100
AcDbLine
 10
1856.3901742858
 20
363.9120814865
 30
0.0
 11
1857.1901742858
 21
363.9120814865
 31
0.0
  0
ARC
  5
532
330
1B
100
AcDbEntity
 67
     1
  8
7_ALL_FEATURES
  6
Continuous
 62
     7
100
AcDbCircle
 10
1856.3901742858
 20
362.7120814865
 30
0.0
 40
1.2
100
AcDbArc
 50
90.0
 51
180.0
  0
LINE
  5
533
330
1B
100
AcDbEntity
 67
     1
  8
7_ALL_FEATURES
  6
Continuous
 62
     7
100
AcDbLine
 10
1855.1901742858
 20
362.7120814865
 30
0.0
 11
1855.1901742858
 21
294.5120814865
 31
0.0
  0
LINE
  5
534
330
1B
100
AcDbEntity
 67
     1
  8
7_ALL_FEATURES
  6
Continuous
 62
     7
100
AcDbLine
 10
1880.1901742858
 20
363.3120814865
 30
0.0
 11
1880.1901742858
 21
363.9120814865
 31
0.0
  0
LINE
  5
535
330
1B
100
AcDbEntity
 67
     1
  8
7_ALL_FEATURES
  6
Continuous
 62
     7
100
AcDbLine
 10
1787.0901742858
 20
363.3120814865
 30
0.0
 11
1787.0901742858
 21
363.9120814865
 31
0.0
  0
ARC
  5
536
330
1B
100
AcDbEntity
 67
     1
  8
7_ALL_FEATURES
  6
Continuous
 62
     7
100
AcDbCircle
 10
1810.8901742858
 20
362.7120814865
 30
0.0
 40
1.2
100
AcDbArc
 50
0.0
 51
90.0
  0
LINE
  5
537
330
1B
100
AcDbEntity
 67
     1
  8
7_ALL_FEATURES
  6
Continuous
 62
     7
100
AcDbLine
 10
1787.0901742858
 20
363.9120814865
 30
0.0
 11
1810.0901742858
 21
363.9120814865
 31
0.0
  0
LINE
  5
538
330
1B
100
AcDbEntity
 67
     1
  8
7_ALL_FEATURES
  6
Continuous
 62
     7
100
AcDbLine
 10
1810.0901742858
 20
363.9120814865
 30
0.0
 11
1810.8901742858
 21
363.9120814865
 31
0.0
  0
LINE
  5
539
330
1B
100
AcDbEntity
 67
     1
  8
7_ALL_FEATURES
  6
Continuous
 62
     7
100
AcDbLine
 10
1812.6901742858
 20
293.9120814865
 30
0.0
 11
1813.4401742858
 21
293.9120814865
 31
0.0
  0
LINE
  5
53A
330
1B
100
AcDbEntity
 67
     1
  8
7_ALL_FEATURES
  6
Continuous
 62
     7
100
AcDbLine
 10
1853.8401742858
 20
293.9120814865
 30
0.0
 11
1854.5901742858
 21
293.9120814865
 31
0.0
  0
ARC
  5
53B
330
1B
100
AcDbEntity
 67
     1
  8
7_ALL_FEATURES
  6
Continuous
 62
     7
100
AcDbCircle
 10
1812.6901742858
 20
294.5120814865
 30
0.0
 40
0.6
100
AcDbArc
 50
180.0
 51
270.0
  0
LINE
  5
53C
330
1B
100
AcDbEntity
 67
     1
  8
7_ALL_FEATURES
  6
Continuous
 62
     9
100
AcDbLine
 10
1856.3901742858
 20
363.9120814865
 30
0.0
 11
1856.3901742858
 21
363.3120814865
 31
0.0
  0
LINE
  5
53D
330
1B
100
AcDbEntity
 67
     1
  8
7_ALL_FEATURES
  6
Continuous
 62
     9
100
AcDbLine
 10
1812.6901742858
 20
293.3120814865
 30
0.0
 11
1812.6901742858
 21
293.9120814865
 31
0.0
  0
LINE
  5
53E
330
1B
100
AcDbEntity
 67
     1
  8
7_ALL_FEATURES
  6
Continuous
 62
     7
100
AcDbLine
 10
1857.1901742858
 20
363.3120814865
 30
0.0
 11
1857.1901742858
 21
363.9120814865
 31
0.0
  0
LINE
  5
53F
330
1B
100
AcDbEntity
 67
     1
  8
7_ALL_FEATURES
  6
Continuous
 62
     9
100
AcDbLine
 10
1811.4901742858
 20
294.5120814865
 30
0.0
 11
1812.0901742858
 21
294.5120814865
 31
0.0
  0
LINE
  5
540
330
1B
100
AcDbEntity
 67
     1
  8
7_ALL_FEATURES
  6
Continuous
 62
     9
100
AcDbLine
 10
1812.0901742858
 20
362.7120814865
 30
0.0
 11
1811.4901742858
 21
362.7120814865
 31
0.0
  0
LINE
  5
541
330
1B
100
AcDbEntity
 67
     1
  8
7_ALL_FEATURES
  6
Continuous
 62
     9
100
AcDbLine
 10
1855.1901742858
 20
362.7120814865
 30
0.0
 11
1855.7901742858
 21
362.7120814865
 31
0.0
  0
LINE
  5
542
330
1B
100
AcDbEntity
 67
     1
  8
7_ALL_FEATURES
  6
Continuous
 62
     9
100
AcDbLine
 10
1810.8901742858
 20
363.9120814865
 30
0.0
 11
1810.8901742858
 21
363.3120814865
 31
0.0
  0
LINE
  5
543
330
1B
100
AcDbEntity
 67
     1
  8
7_ALL_FEATURES
  6
Continuous
 62
     7
100
AcDbLine
 10
1810.0901742858
 20
363.3120814865
 30
0.0
 11
1810.0901742858
 21
363.9120814865
 31
0.0
  0
LINE
  5
544
330
1B
100
AcDbEntity
 67
     1
  8
7_ALL_FEATURES
  6
Continuous
 62
     9
100
AcDbLine
 10
1855.7901742858
 20
294.5120814865
 30
0.0
 11
1855.1901742858
 21
294.5120814865
 31
0.0
  0
LINE
  5
545
330
1B
100
AcDbEntity
 67
     1
  8
7_ALL_FEATURES
  6
Continuous
 62
     9
100
AcDbLine
 10
1854.5901742858
 20
293.3120814865
 30
0.0
 11
1854.5901742858
 21
293.9120814865
 31
0.0
  0
LINE
  5
546
330
1B
100
AcDbEntity
 67
     1
  8
7_ALL_FEATURES
  6
Continuous
 62
     3
100
AcDbLine
 10
1855.7901742858
 20
362.7120814865
 30
0.0
 11
1855.7901742858
 21
294.5120814865
 31
0.0
  0
ARC
  5
547
330
1B
100
AcDbEntity
 67
     1
  8
7_ALL_FEATURES
  6
Continuous
 62
     3
100
AcDbCircle
 10
1854.5901742858
 20
294.5120814865
 30
0.0
 40
1.2
100
AcDbArc
 50
270.0
 51
360.0
  0
ARC
  5
548
330
1B
100
AcDbEntity
 67
     1
  8
7_ALL_FEATURES
  6
Continuous
 62
     3
100
AcDbCircle
 10
1810.8901742858
 20
362.7120814865
 30
0.0
 40
0.6
100
AcDbArc
 50
0.0
 51
90.0
  0
LINE
  5
549
330
1B
100
AcDbEntity
 67
     1
  8
7_ALL_FEATURES
  6
Continuous
 62
     3
100
AcDbLine
 10
1810.0901742858
 20
363.3120814865
 30
0.0
 11
1810.8901742858
 21
363.3120814865
 31
0.0
  0
LINE
  5
54A
330
1B
100
AcDbEntity
 67
     1
  8
7_ALL_FEATURES
  6
Continuous
 62
     3
100
AcDbLine
 10
1810.0901742858
 20
363.3120814865
 30
0.0
 11
1787.0901742858
 21
363.3120814865
 31
0.0
  0
LINE
  5
54B
330
1B
100
AcDbEntity
 67
     1
  8
7_ALL_FEATURES
  6
Continuous
 62
     3
100
AcDbLine
 10
1856.3901742858
 20
363.3120814865
 30
0.0
 11
1857.1901742858
 21
363.3120814865
 31
0.0
  0
LINE
  5
54C
330
1B
100
AcDbEntity
 67
     1
  8
7_ALL_FEATURES
  6
Continuous
 62
     3
100
AcDbLine
 10
1880.1901742858
 20
363.3120814865
 30
0.0
 11
1857.1901742858
 21
363.3120814865
 31
0.0
  0
ARC
  5
54D
330
1B
100
AcDbEntity
 67
     1
  8
7_ALL_FEATURES
  6
Continuous
 62
     3
100
AcDbCircle
 10
1856.3901742858
 20
362.7120814865
 30
0.0
 40
0.6
100
AcDbArc
 50
90.0
 51
180.0
  0
LINE
  5
54E
330
1B
100
AcDbEntity
 67
     1
  8
7_ALL_FEATURES
  6
Continuous
 62
     3
100
AcDbLine
 10
1812.6901742858
 20
293.3120814865
 30
0.0
 11
1854.5901742858
 21
293.3120814865
 31
0.0
  0
LINE
  5
54F
330
1B
100
AcDbEntity
 67
     1
  8
7_ALL_FEATURES
  6
Continuous
 62
     3
100
AcDbLine
 10
1811.4901742858
 20
294.5120814865
 30
0.0
 11
1811.4901742858
 21
362.7120814865
 31
0.0
  0
ARC
  5
550
330
1B
100
AcDbEntity
 67
     1
  8
7_ALL_FEATURES
  6
Continuous
 62
     3
100
AcDbCircle
 10
1812.6901742858
 20
294.5120814865
 30
0.0
 40
1.2
100
AcDbArc
 50
180.0
 51
270.0
  0
DIMENSION
  5
551
330
1B
100
AcDbEntity
 67
     1
  8
0
  6
Continuous
 62
     2
100
AcDbDimension
280
     0
  2
*D1
 10
158.5467782665
 20
392.1019411763
 30
0.0
 11
915.3681945801
 21
392.1019411763
 31
0.0
 70
   160
 71
     5
 42
-1.0
 73
     0
 74
     0
 75
     0
  3
DIMSTYLE_1
100
AcDbAlignedDimension
 13
1673.0467782665
 23
394.6921469357
 33
0.0
 14
158.5467782665
 24
394.6921469357
 34
0.0
 50
180.0
100
AcDbRotatedDimension
  0
DIMENSION
  5
552
330
1B
100
AcDbEntity
 67
     1
  8
0
  6
Continuous
 62
     2
100
AcDbDimension
280
     0
  2
*D2
 10
1694.4975858421
 20
144.208060623
 30
0.0
 11
1694.4975858421
 21
122.5794793847
 31
0.0
 70
   160
 71
     5
 42
-1.0
 73
     0
 74
     0
 75
     0
  3
DIMSTYLE_2
100
AcDbAlignedDimension
 13
1680.7353423939
 23
101.808060623
 33
0.0
 14
1680.7353423939
 24
144.208060623
 34
0.0
 50
90.0
100
AcDbRotatedDimension
  0
DIMENSION
  5
553
330
1B
100
AcDbEntity
 67
     1
  8
0
  6
Continuous
 62
     2
100
AcDbDimension
280
     0
  2
*D3
 10
1898.254455367
 20
293.9120814865
 30
0.0
 11
1898.254455367
 21
335.2334666607
 31
0.0
 70
   160
 71
     5
 42
-1.0
 73
     0
 74
     0
 75
     0
  3
DIMSTYLE_2
100
AcDbAlignedDimension
 13
1900.5785973953
 23
377.4120814865
 33
0.0
 14
1900.5785973953
 24
293.9120814865
 34
0.0
 50
270.0
100
AcDbRotatedDimension
  0
DIMENSION
  5
554
330
1B
100
AcDbEntity
 67
     1
  8
0
  6
Continuous
 62
     2
100
AcDbDimension
280
     0
  2
*D4
 10
1703.6635218533
 20
169.558060623
 30
0.0
 11
1703.6635218533
 21
122.5795328405
 31
0.0
 70
   160
 71
     5
 42
-1.0
 73
     0
 74
     0
 75
     0
  3
DIMSTYLE_3
100
AcDbAlignedDimension
 13
1680.7353423939
 23
76.458060623
 33
0.0
 14
1679.188010699
 24
169.558060623
 34
0.0
 50
90.0
100
AcDbRotatedDimension
  0
LINE
  5
555
330
1B
100
AcDbEntity
 67
     1
  8
0
  6
Continuous
 62
     2
100
AcDbLine
 10
1858.1085959075
 20
72.7135775138
 30
0.0
 11
1988.1085959075
 21
72.7135775138
 31
0.0
  0
LINE
  5
556
330
1B
100
AcDbEntity
 67
     1
  8
0
  6
Continuous
 62
     2
100
AcDbLine
 10
1858.1085959075
 20
72.7135775138
 30
0.0
 11
1858.1085959075
 21
6.7135775138
 31
0.0
  0
LINE
  5
557
330
1B
100
AcDbEntity
 67
     1
  8
0
  6
Continuous
 62
     2
100
AcDbLine
 10
1888.1085959075
 20
64.7135775138
 30
0.0
 11
1988.1085959075
 21
64.7135775138
 31
0.0
  0
LINE
  5
558
330
1B
100
AcDbEntity
 67
     1
  8
0
  6
Continuous
 62
     2
100
AcDbLine
 10
1858.1085959075
 20
56.7135775138
 30
0.0
 11
1988.1085959075
 21
56.7135775138
 31
0.0
  0
LINE
  5
559
330
1B
100
AcDbEntity
 67
     1
  8
0
  6
Continuous
 62
     2
100
AcDbLine
 10
1888.1085959075
 20
50.7135775138
 30
0.0
 11
1988.1085959075
 21
50.7135775138
 31
0.0
  0
LINE
  5
55A
330
1B
100
AcDbEntity
 67
     1
  8
0
  6
Continuous
 62
     2
100
AcDbLine
 10
1888.1085959075
 20
44.7135775138
 30
0.0
 11
1988.1085959075
 21
44.7135775138
 31
0.0
  0
LINE
  5
55B
330
1B
100
AcDbEntity
 67
     1
  8
0
  6
Continuous
 62
     2
100
AcDbLine
 10
1888.1085959075
 20
38.7135775138
 30
0.0
 11
1988.1085959075
 21
38.7135775138
 31
0.0
  0
LINE
  5
55C
330
1B
100
AcDbEntity
 67
     1
  8
0
  6
Continuous
 62
     2
100
AcDbLine
 10
1888.1085959075
 20
32.7135775138
 30
0.0
 11
1988.1085959075
 21
32.7135775138
 31
0.0
  0
LINE
  5
55D
330
1B
100
AcDbEntity
 67
     1
  8
0
  6
Continuous
 62
     2
100
AcDbLine
 10
1888.1085959075
 20
26.7135775138
 30
0.0
 11
1988.1085959075
 21
26.7135775138
 31
0.0
  0
LINE
  5
55E
330
1B
100
AcDbEntity
 67
     1
  8
0
  6
Continuous
 62
     2
100
AcDbLine
 10
1858.1085959075
 20
20.7135775138
 30
0.0
 11
1988.1085959075
 21
20.7135775138
 31
0.0
  0
LINE
  5
55F
330
1B
100
AcDbEntity
 67
     1
  8
0
  6
Continuous
 62
     2
100
AcDbLine
 10
1858.1085959075
 20
14.7135775138
 30
0.0
 11
1988.1085959075
 21
14.7135775138
 31
0.0
  0
LINE
  5
560
330
1B
100
AcDbEntity
 67
     1
  8
0
  6
Continuous
 62
     2
100
AcDbLine
 10
1858.1085959075
 20
10.7135775138
 30
0.0
 11
1988.1085959075
 21
10.7135775138
 31
0.0
  0
LINE
  5
561
330
1B
100
AcDbEntity
 67
     1
  8
0
  6
Continuous
 62
     2
100
AcDbLine
 10
1858.1085959075
 20
6.7135775138
 30
0.0
 11
1988.1085959075
 21
6.7135775138
 31
0.0
  0
LINE
  5
562
330
1B
100
AcDbEntity
 67
     1
  8
0
  6
Continuous
 62
     2
100
AcDbLine
 10
1888.1085959075
 20
72.7135775138
 30
0.0
 11
1888.1085959075
 21
14.7135775138
 31
0.0
  0
LINE
  5
563
330
1B
100
AcDbEntity
 67
     1
  8
0
  6
Continuous
 62
     2
100
AcDbLine
 10
1908.1085959075
 20
56.7135775138
 30
0.0
 11
1908.1085959075
 21
50.7135775138
 31
0.0
  0
LINE
  5
564
330
1B
100
AcDbEntity
 67
     1
  8
0
  6
Continuous
 62
     2
100
AcDbLine
 10
1938.1085959075
 20
26.7135775138
 30
0.0
 11
1938.1085959075
 21
14.7135775138
 31
0.0
  0
LINE
  5
565
330
1B
100
AcDbEntity
 67
     1
  8
0
  6
Continuous
 62
     2
100
AcDbLine
 10
1948.1085959075
 20
56.7135775138
 30
0.0
 11
1948.1085959075
 21
50.7135775138
 31
0.0
  0
LINE
  5
566
330
1B
100
AcDbEntity
 67
     1
  8
0
  6
Continuous
 62
     2
100
AcDbLine
 10
1948.1085959075
 20
44.7135775138
 30
0.0
 11
1948.1085959075
 21
38.7135775138
 31
0.0
  0
LINE
  5
567
330
1B
100
AcDbEntity
 67
     1
  8
0
  6
Continuous
 62
     2
100
AcDbLine
 10
1968.1085959075
 20
56.7135775138
 30
0.0
 11
1968.1085959075
 21
50.7135775138
 31
0.0
  0
LINE
  5
568
330
1B
100
AcDbEntity
 67
     1
  8
0
  6
Continuous
 62
     2
100
AcDbLine
 10
1978.1085959075
 20
44.7135775138
 30
0.0
 11
1978.1085959075
 21
38.7135775138
 31
0.0
  0
LINE
  5
569
330
1B
100
AcDbEntity
 67
     1
  8
0
  6
Continuous
 62
     2
100
AcDbLine
 10
1988.1085959075
 20
72.7135775138
 30
0.0
 11
1988.1085959075
 21
6.7135775138
 31
0.0
  0
INSERT
  5
56A
330
1B
100
AcDbEntity
 67
     1
  8
0
  6
Continuous
 62
     2
100
AcDbBlockReference
  2
PROIEZIONE_EU_BL0
 10
1873.1085959075
 20
64.3385775138
 30
0.0
  0
MTEXT
  5
56B
330
1B
100
AcDbEntity
 67
     1
  8
9_SOLID
  6
Continuous
 62
     2
100
AcDbMText
 10
1889.5960959075
 20
71.0885775138
 30
0.0
 40
1.9
 41
142.3642857143
 46
0.0
 71
     1
 72
     1
  1
EN: Chamfer/radii unlisted 0.3x45°. Remove sharp edges.\PGen. tol.: hole H11, shaft h11, lenght Js12. UNI EN 22768 Medium Grande.
 73
     1
 44
1.0
  0
MTEXT
  5
56C
330
1B
100
AcDbEntity
 67
     1
  8
9_SOLID
  6
Continuous
 62
     2
100
AcDbMText
 10
1889.5960959075
 20
63.0885775138
 30
0.0
 40
1.9
 41
148.2678571429
 46
0.0
 71
     1
 72
     1
  1
IT: Sm./rac. non quotati 0.3x45°. Eliminare spigoli taglienti.\PToll. gen.: foro H11, albero h11, lunghezza Js12. UNI EN 22768 Grado Medio.
 73
     1
 44
1.0
  0
INSERT
  5
56D
330
1B
100
AcDbEntity
 67
     1
  8
0
  6
Continuous
 62
     2
100
AcDbBlockReference
  2
LOGO2_BL1
 10
1871.9346429522
 20
38.7135775138
 30
0.0
  0
MTEXT
  5
56E
330
1B
100
AcDbEntity
 67
     1
  8
9_SOLID
  6
Continuous
 62
     2
100
AcDbMText
 10
1889.5960959075
 20
54.9635775138
 30
0.0
 40
3.0
 41
21.1071428571
 46
0.0
 71
     1
 72
     1
  1
Pj: 571
 73
     1
 44
1.0
  0
MTEXT
  5
56F
330
1B
100
AcDbEntity
 67
     1
  8
0
  6
Continuous
 62
     2
100
AcDbMText
 10
1909.5960959075
 20
54.9635775138
 30
0.0
 40
3.0
 41
41.5714285714
 46
0.0
 71
     1
 72
     1
  1
% Check:  %
 73
     1
 44
1.0
  0
MTEXT
  5
570
330
1B
100
AcDbEntity
 67
     1
  8
9_SOLID
  6
Continuous
 62
     2
100
AcDbMText
 10
1949.5960959075
 20
54.9635775138
 30
0.0
 40
3.0
 41
19.5
 46
0.0
 71
     1
 72
     1
  1
Rev:00
 73
     1
 44
1.0
  0
MTEXT
  5
571
330
1B
100
AcDbEntity
 67
     1
  8
9_SOLID
  6
Continuous
 62
     2
100
AcDbMText
 10
1969.5960959075
 20
55.2135775138
 30
0.0
 40
3.0
 41
19.7142857143
 46
0.0
 71
     1
 72
     1
  1
Ver: A
 73
     1
 44
1.0
  0
MTEXT
  5
572
330
1B
100
AcDbEntity
 67
     1
  8
9_SOLID
  6
Continuous
 62
     2
100
AcDbMText
 10
1889.5960959075
 20
48.9635775138
 30
0.0
 40
3.0
 41
73.3928571429
 46
0.0
 71
     1
 72
     1
  1
Neutral code: 571_C_362
 73
     1
 44
1.0
  0
MTEXT
  5
573
330
1B
100
AcDbEntity
 67
     1
  8
0
  6
Continuous
 62
     2
100
AcDbMText
 10
1889.5960959075
 20
42.9635775138
 30
0.0
 40
3.0
 41
22.9285714286
 46
0.0
 71
     1
 72
     1
  1
Code:  
 73
     1
 44
1.0
  0
MTEXT
  5
574
330
1B
100
AcDbEntity
 67
     1
  8
9_SOLID
  6
Continuous
 62
     2
100
AcDbMText
 10
1949.5960959075
 20
43.2135775138
 30
0.0
 40
3.0
 41
27.8571428571
 46
0.0
 71
     1
 72
     1
  1
Scale: 1:1
 73
     1
 44
1.0
  0
MTEXT
  5
575
330
1B
100
AcDbEntity
 67
     1
  8
9_SOLID
  6
Continuous
 62
     2
100
AcDbMText
 10
1983.1085959075
 20
43.2135775138
 30
0.0
 40
3.0
 41
37.7142857143
 46
0.0
 71
     2
 72
     1
  1
2000 by 841
 73
     1
 44
1.0
  0
MTEXT
  5
576
330
1B
100
AcDbEntity
 67
     1
  8
9_SOLID
  6
Continuous
 62
     2
100
AcDbMText
 10
1889.5960959075
 20
37.2135775138
 30
0.0
 40
3.0
 41
164.5714285714
 46
0.0
 71
     1
 72
     1
  1
It descr.: CASS. RIO2.3 mm.1514,5 ALL PER CARTONGE
 73
     1
 44
1.0
  0
MTEXT
  5
577
330
1B
100
AcDbEntity
 67
     1
  8
0
  6
Continuous
 62
     2
100
AcDbMText
 10
1889.5960959075
 20
31.2135775138
 30
0.0
 40
3.0
 41
37.5
 46
0.0
 71
     1
 72
     1
  1
En descr.:  
 73
     1
 44
1.0
  0
MTEXT
  5
578
330
1B
100
AcDbEntity
 67
     1
  8
9_SOLID
  6
Continuous
 62
     2
100
AcDbMText
 10
1889.5960959075
 20
25.2135775138
 30
0.0
 40
3.0
 41
31.2857142857
 46
0.0
 71
     1
 72
     1
  1
Des.: A.F.
 73
     1
 44
1.0
  0
MTEXT
  5
579
330
1B
100
AcDbEntity
 67
     1
  8
9_SOLID
  6
Continuous
 62
     2
100
AcDbMText
 10
1939.5960959075
 20
25.2135775138
 30
0.0
 40
3.0
 41
22.2857142857
 46
0.0
 71
     1
 72
     1
  1
Check: 
 73
     1
 44
1.0
  0
MTEXT
  5
57A
330
1B
100
AcDbEntity
 67
     1
  8
9_SOLID
  6
Continuous
 62
     2
100
AcDbMText
 10
1859.5960959075
 20
19.2135775138
 30
0.0
 40
3.0
 41
42.5357142857
 46
0.0
 71
     1
 72
     1
  1
Date: 12.12.18
 73
     1
 44
1.0
  0
MTEXT
  5
57B
330
1B
100
AcDbEntity
 67
     1
  8
0
  6
Continuous
 62
     2
100
AcDbMText
 10
1889.5960959075
 20
19.2135775138
 30
0.0
 40
3.0
 41
21.75
 46
0.0
 71
     1
 72
     1
  1
Mat.:  
 73
     1
 44
1.0
  0
MTEXT
  5
57C
330
1B
100
AcDbEntity
 67
     1
  8
9_SOLID
  6
Continuous
 62
     2
100
AcDbMText
 10
1939.5960959075
 20
18.7135775138
 30
0.0
 40
2.0
 41
42.3571428571
 46
0.0
 71
     1
 72
     1
  1
Disegno per catalogo
 73
     1
 44
1.0
  0
MTEXT
  5
57D
330
1B
100
AcDbEntity
 67
     1
  8
9_SOLID
  6
Continuous
 62
     2
100
AcDbMText
 10
1859.5960959075
 20
13.6135775138
 30
0.0
 40
1.8
 41
176.2071428571
 46
0.0
 71
     1
 72
     1
  1
It: A norma di legge si diffida da qualsiasi riproduzione senza nostra autorizzazione esplicita.
 73
     1
 44
1.0
  0
MTEXT
  5
57E
330
1B
100
AcDbEntity
 67
     1
  8
9_SOLID
  6
Continuous
 62
     2
100
AcDbMText
 10
1859.5960959075
 20
9.6135775138
 30
0.0
 40
1.8
 41
158.1428571429
 46
0.0
 71
     1
 72
     1
  1
En: According to the law, beware of any reproduction made without our authorization.
 73
     1
 44
1.0
  0
ENDSEC
  0
SECTION
  2
OBJECTS
  0
DICTIONARY
  5
57F
330
0
100
AcDbDictionary
281
     1
  3
ACAD_DETAILVIEWSTYLE
350
5D5
  3
ACAD_GROUP
350
580
  3
ACAD_LAYOUT
350
5A8
  3
ACAD_MATERIAL
350
5C4
  3
ACAD_MLEADERSTYLE
350
5CA
  3
ACAD_MLINESTYLE
350
581
  3
ACAD_PLOTSETTINGS
350
583
  3
ACAD_PLOTSTYLENAME
350
584
  3
ACAD_SCALELIST
350
586
  3
ACAD_SECTIONVIEWSTYLE
350
5D6
  3
ACAD_TABLESTYLE
350
5C8
  3
ACAD_VISUALSTYLE
350
5AB
  3
ACDB_RECOMPOSE_DATA
350
5D1
  3
AcDbVariableDictionary
350
5CD
  3
APPDATA
350
5CC
  0
DICTIONARY
  5
5D5
102
{ACAD_REACTORS
330
57F
102
}
330
57F
100
AcDbDictionary
281
     1
  0
DICTIONARY
  5
580
102
{ACAD_REACTORS
330
57F
102
}
330
57F
100
AcDbDictionary
281
     1
  0
DICTIONARY
  5
5A8
102
{ACAD_REACTORS
330
57F
102
}
330
57F
100
AcDbDictionary
281
     1
  3
Foglio 1
350
5AA
  3
Model
350
5A9
  0
DICTIONARY
  5
5C4
102
{ACAD_REACTORS
330
57F
102
}
330
57F
100
AcDbDictionary
281
     1
  3
ByBlock
350
5C6
  3
ByLayer
350
5C5
  3
Global
350
5C7
  0
DICTIONARY
  5
5CA
102
{ACAD_REACTORS
330
57F
102
}
330
57F
100
AcDbDictionary
281
     1
  3
Standard
350
5CB
  0
DICTIONARY
  5
581
102
{ACAD_REACTORS
330
57F
102
}
330
57F
100
AcDbDictionary
281
     1
  3
STANDARD
350
582
  0
DICTIONARY
  5
583
102
{ACAD_REACTORS
330
57F
102
}
330
57F
100
AcDbDictionary
281
     1
  0
ACDBDICTIONARYWDFLT
  5
584
102
{ACAD_REACTORS
330
57F
102
}
330
57F
100
AcDbDictionary
281
     1
  3
Normal
350
585
100
AcDbDictionaryWithDefault
340
585
  0
DICTIONARY
  5
586
102
{ACAD_REACTORS
330
57F
102
}
330
57F
100
AcDbDictionary
281
     1
  3
A0
350
587
  3
A1
350
588
  3
A2
350
589
  3
A3
350
58A
  3
A4
350
58B
  3
A5
350
58C
  3
A6
350
58D
  3
A7
350
58E
  3
A8
350
58F
  3
A9
350
590
  3
B0
350
591
  3
B1
350
592
  3
B2
350
593
  3
B3
350
594
  3
B4
350
595
  3
B5
350
596
  3
B6
350
597
  3
B7
350
598
  3
B8
350
599
  3
B9
350
59A
  3
C0
350
59B
  3
C1
350
59C
  3
C2
350
59D
  3
C3
350
59E
  3
C4
350
59F
  3
C5
350
5A0
  3
C6
350
5A1
  3
C7
350
5A2
  3
C8
350
5A3
  3
C9
350
5A4
  3
D0
350
5A5
  3
D1
350
5A6
  3
D2
350
5A7
  0
DICTIONARY
  5
5D6
102
{ACAD_REACTORS
330
57F
102
}
330
57F
100
AcDbDictionary
281
     1
  0
DICTIONARY
  5
5C8
102
{ACAD_REACTORS
330
57F
102
}
330
57F
100
AcDbDictionary
281
     1
  3
Standard
350
5C9
  0
DICTIONARY
  5
5AB
102
{ACAD_REACTORS
330
57F
102
}
330
57F
100
AcDbDictionary
281
     1
  3
2dWireframe
350
5B0
  3
Basic
350
5B3
  3
Brighten
350
5B7
  3
ColorChange
350
5BB
  3
Conceptual
350
5B5
  3
Dim
350
5B6
  3
EdgeColorOff
350
5BE
  3
Facepattern
350
5BA
  3
Flat
350
5AC
  3
FlatWithEdges
350
5AD
  3
Gouraud
350
5AE
  3
GouraudWithEdges
350
5AF
  3
Hidden
350
5B2
  3
JitterOff
350
5BC
  3
Linepattern
350
5B9
  3
OverhangOff
350
5BD
  3
Realistic
350
5B4
  3
Shaded
350
5C3
  3
Shaded with edges
350
5C2
  3
Shades of Gray
350
5BF
  3
Sketchy
350
5C0
  3
Thicken
350
5B8
  3
Wireframe
350
5B1
  3
X-Ray
350
5C1
  0
XRECORD
  5
5D1
102
{ACAD_REACTORS
330
57F
102
}
330
57F
100
AcDbXrecord
280
     1
 90
        1
330
5C9
  0
DICTIONARY
  5
5CD
102
{ACAD_REACTORS
330
57F
102
}
330
57F
100
AcDbDictionary
281
     1
  3
CANNOSCALE
350
5CE
  3
CMLEADERSTYLE
350
5D3
  3
CTABLESTYLE
350
5D2
  3
MSLTSCALE
350
5D4
  0
DICTIONARY
  5
5CC
102
{ACAD_REACTORS
330
57F
102
}
330
57F
100
AcDbDictionary
281
     1
  0
LAYOUT
  5
5AA
102
{ACAD_REACTORS
330
5A8
102
}
330
5A8
100
AcDbPlotSettings
  1

  2
none_device
  4
ISO_A3_(420.00_x_297.00_MM)
  6

 40
7.5
 41
20.0
 42
7.5
 43
20.0
 44
420.0
 45
297.0
 46
0.0
 47
0.0
 48
0.0
 49
0.0
140
0.0
141
0.0
142
1.0
143
4.945854557796296
 70
   688
 72
     1
 73
     0
 74
     1
  7

 75
     0
 76
     0
 77
     2
 78
   300
147
0.2021895282835745
148
0.0
149
0.0
100
AcDbLayout
  1
Foglio 1
 70
     1
 71
     1
 10
0.0
 20
0.0
 11
412.5
 21
277.0
 12
0.0
 22
0.0
 32
0.0
 14
0.0
 24
0.0
 34
0.0
 15
2003.0710959075
 25
841.0
 35
0.0
146
0.0
 13
0.0
 23
0.0
 33
0.0
 16
1.0
 26
0.0
 36
0.0
 17
0.0
 27
1.0
 37
0.0
 76
     0
330
1B
331
2A4
  0
LAYOUT
  5
5A9
102
{ACAD_REACTORS
330
5A8
102
}
330
5A8
100
AcDbPlotSettings
  1

  2
none_device
  4
Letter_(8.50_x_11.00_Inches)
  6

 40
6.35
 41
6.35
 42
6.35
 43
6.35
 44
215.9
 45
279.4
 46
0.0
 47
0.0
 48
0.0
 49
0.0
140
0.0
141
0.0
142
1.0
143
250.000000001525
 70
  1712
 72
     0
 73
     0
 74
     0
  7

 75
     0
 76
     0
 77
     2
 78
   300
147
0.0039999999999756
148
0.0000001549424042
149
0.0
100
AcDbLayout
  1
Model
 70
     1
 71
     0
 10
0.0
 20
0.0
 11
2000.0
 21
841.0
 12
0.0
 22
0.0
 32
0.0
 14
0.0
 24
0.0
 34
0.0
 15
2000.0
 25
841.0
 35
0.0
146
0.0
 13
0.0
 23
0.0
 33
0.0
 16
1.0
 26
0.0
 36
0.0
 17
0.0
 27
1.0
 37
0.0
 76
     0
330
1F
331
1F4
  0
MATERIAL
  5
5C6
102
{ACAD_REACTORS
330
5C4
102
}
330
5C4
100
AcDbMaterial
  1
ByBlock
 72
     1
 94
      127
  0
MATERIAL
  5
5C5
102
{ACAD_REACTORS
330
5C4
102
}
330
5C4
100
AcDbMaterial
  1
ByLayer
 72
     1
 94
      127
  0
MATERIAL
  5
5C7
102
{ACAD_REACTORS
330
5C4
102
}
330
5C4
100
AcDbMaterial
  1
Global
 72
     1
 94
      127
  0
MLEADERSTYLE
  5
5CB
102
{ACAD_REACTORS
330
5CA
102
}
330
5CA
100
AcDbMLeaderStyle
179
     2
170
     2
171
     1
172
     0
 90
        2
 40
0.0
 41
0.0
173
     1
 91
-1056964608
340
14
 92
       -2
290
     1
 42
2.0
291
     1
 43
8.0
  3
Standard
341
0
 44
4.0
300

342
11
174
     1
178
     1
175
     1
176
     0
 93
-1056964608
 45
4.0
292
     0
297
     0
 46
4.0
343
0
 94
-1056964608
 47
1.0
 49
1.0
140
1.0
293
     1
141
0.0
294
     1
177
     0
142
1.0
295
     0
296
     0
143
3.75
271
     0
272
     9
273
     9
298
     0
  0
MLINESTYLE
  5
582
102
{ACAD_REACTORS
330
581
102
}
330
581
100
AcDbMlineStyle
  2
STANDARD
 70
     0
  3

 62
   256
 51
90.0
 52
90.0
 71
     2
 49
0.5
 62
   256
  6
BYLAYER
 49
-0.5
 62
   256
  6
BYLAYER
  0
ACDBPLACEHOLDER
  5
585
102
{ACAD_REACTORS
330
584
102
}
330
584
  0
SCALE
  5
587
102
{ACAD_REACTORS
330
586
102
}
330
586
100
AcDbScale
 70
     0
300
1:1
140
1.0
141
1.0
290
     1
  0
SCALE
  5
588
102
{ACAD_REACTORS
330
586
102
}
330
586
100
AcDbScale
 70
     0
300
1:2
140
1.0
141
2.0
290
     0
  0
SCALE
  5
589
102
{ACAD_REACTORS
330
586
102
}
330
586
100
AcDbScale
 70
     0
300
1:4
140
1.0
141
4.0
290
     0
  0
SCALE
  5
58A
102
{ACAD_REACTORS
330
586
102
}
330
586
100
AcDbScale
 70
     0
300
1:5
140
1.0
141
5.0
290
     0
  0
SCALE
  5
58B
102
{ACAD_REACTORS
330
586
102
}
330
586
100
AcDbScale
 70
     0
300
1:8
140
1.0
141
8.0
290
     0
  0
SCALE
  5
58C
102
{ACAD_REACTORS
330
586
102
}
330
586
100
AcDbScale
 70
     0
300
1:10
140
1.0
141
10.0
290
     0
  0
SCALE
  5
58D
102
{ACAD_REACTORS
330
586
102
}
330
586
100
AcDbScale
 70
     0
300
1:16
140
1.0
141
16.0
290
     0
  0
SCALE
  5
58E
102
{ACAD_REACTORS
330
586
102
}
330
586
100
AcDbScale
 70
     0
300
1:20
140
1.0
141
20.0
290
     0
  0
SCALE
  5
58F
102
{ACAD_REACTORS
330
586
102
}
330
586
100
AcDbScale
 70
     0
300
1:30
140
1.0
141
30.0
290
     0
  0
SCALE
  5
590
102
{ACAD_REACTORS
330
586
102
}
330
586
100
AcDbScale
 70
     0
300
1:40
140
1.0
141
40.0
290
     0
  0
SCALE
  5
591
102
{ACAD_REACTORS
330
586
102
}
330
586
100
AcDbScale
 70
     0
300
1:50
140
1.0
141
50.0
290
     0
  0
SCALE
  5
592
102
{ACAD_REACTORS
330
586
102
}
330
586
100
AcDbScale
 70
     0
300
1:100
140
1.0
141
100.0
290
     0
  0
SCALE
  5
593
102
{ACAD_REACTORS
330
586
102
}
330
586
100
AcDbScale
 70
     0
300
2:1
140
2.0
141
1.0
290
     0
  0
SCALE
  5
594
102
{ACAD_REACTORS
330
586
102
}
330
586
100
AcDbScale
 70
     0
300
4:1
140
4.0
141
1.0
290
     0
  0
SCALE
  5
595
102
{ACAD_REACTORS
330
586
102
}
330
586
100
AcDbScale
 70
     0
300
8:1
140
8.0
141
1.0
290
     0
  0
SCALE
  5
596
102
{ACAD_REACTORS
330
586
102
}
330
586
100
AcDbScale
 70
     0
300
10:1
140
10.0
141
1.0
290
     0
  0
SCALE
  5
597
102
{ACAD_REACTORS
330
586
102
}
330
586
100
AcDbScale
 70
     0
300
100:1
140
100.0
141
1.0
290
     0
  0
SCALE
  5
598
102
{ACAD_REACTORS
330
586
102
}
330
586
100
AcDbScale
 70
     0
300
1/128" = 1'-0"
140
0.0078125
141
12.0
290
     0
  0
SCALE
  5
599
102
{ACAD_REACTORS
330
586
102
}
330
586
100
AcDbScale
 70
     0
300
1/64" = 1'-0"
140
0.015625
141
12.0
290
     0
  0
SCALE
  5
59A
102
{ACAD_REACTORS
330
586
102
}
330
586
100
AcDbScale
 70
     0
300
1/32" = 1'-0"
140
0.03125
141
12.0
290
     0
  0
SCALE
  5
59B
102
{ACAD_REACTORS
330
586
102
}
330
586
100
AcDbScale
 70
     0
300
1/16" = 1'-0"
140
0.0625
141
12.0
290
     0
  0
SCALE
  5
59C
102
{ACAD_REACTORS
330
586
102
}
330
586
100
AcDbScale
 70
     0
300
3/32" = 1'-0"
140
0.09375
141
12.0
290
     0
  0
SCALE
  5
59D
102
{ACAD_REACTORS
330
586
102
}
330
586
100
AcDbScale
 70
     0
300
1/8" = 1'-0"
140
0.125
141
12.0
290
     0
  0
SCALE
  5
59E
102
{ACAD_REACTORS
330
586
102
}
330
586
100
AcDbScale
 70
     0
300
3/16" = 1'-0"
140
0.1875
141
12.0
290
     0
  0
SCALE
  5
59F
102
{ACAD_REACTORS
330
586
102
}
330
586
100
AcDbScale
 70
     0
300
1/4" = 1'-0"
140
0.25
141
12.0
290
     0
  0
SCALE
  5
5A0
102
{ACAD_REACTORS
330
586
102
}
330
586
100
AcDbScale
 70
     0
300
3/8" = 1'-0"
140
0.375
141
12.0
290
     0
  0
SCALE
  5
5A1
102
{ACAD_REACTORS
330
586
102
}
330
586
100
AcDbScale
 70
     0
300
1/2" = 1'-0"
140
0.5
141
12.0
290
     0
  0
SCALE
  5
5A2
102
{ACAD_REACTORS
330
586
102
}
330
586
100
AcDbScale
 70
     0
300
3/4" = 1'-0"
140
0.75
141
12.0
290
     0
  0
SCALE
  5
5A3
102
{ACAD_REACTORS
330
586
102
}
330
586
100
AcDbScale
 70
     0
300
1" = 1'-0"
140
1.0
141
12.0
290
     0
  0
SCALE
  5
5A4
102
{ACAD_REACTORS
330
586
102
}
330
586
100
AcDbScale
 70
     0
300
1-1/2" = 1'-0"
140
1.5
141
12.0
290
     0
  0
SCALE
  5
5A5
102
{ACAD_REACTORS
330
586
102
}
330
586
100
AcDbScale
 70
     0
300
3" = 1'-0"
140
3.0
141
12.0
290
     0
  0
SCALE
  5
5A6
102
{ACAD_REACTORS
330
586
102
}
330
586
100
AcDbScale
 70
     0
300
6" = 1'-0"
140
6.0
141
12.0
290
     0
  0
SCALE
  5
5A7
102
{ACAD_REACTORS
330
586
102
}
330
586
100
AcDbScale
 70
     0
300
1'-0" = 1'-0"
140
12.0
141
12.0
290
     0
  0
TABLESTYLE
  5
5C9
102
{ACAD_REACTORS
330
5C8
102
}
102
{ACAD_XDICTIONARY
360
5CF
102
}
330
5C8
100
AcDbTableStyle
  3
Standard
 70
     0
 71
     0
 40
0.06
 41
0.06
280
     0
281
     0
  7
STANDARD
140
4.5
170
     2
 62
     0
 63
   257
283
     0
 90
        4
 91
        0
  1

274
    -2
284
     1
 64
     0
275
    -2
285
     1
 65
     0
276
    -2
286
     1
 66
     0
277
    -2
287
     1
 67
     0
278
    -2
288
     1
 68
     0
279
    -2
289
     1
 69
     0
  7
STANDARD
140
6.0
170
     5
 62
     0
 63
   257
283
     0
 90
        4
 91
        0
  1

274
    -2
284
     1
 64
     0
275
    -2
285
     1
 65
     0
276
    -2
286
     1
 66
     0
277
    -2
287
     1
 67
     0
278
    -2
288
     1
 68
     0
279
    -2
289
     1
 69
     0
  7
STANDARD
140
4.5
170
     5
 62
     0
 63
   257
283
     0
 90
        4
 91
        0
  1

274
    -2
284
     1
 64
     0
275
    -2
285
     1
 65
     0
276
    -2
286
     1
 66
     0
277
    -2
287
     1
 67
     0
278
    -2
288
     1
 68
     0
279
    -2
289
     1
 69
     0
  0
VISUALSTYLE
  5
5B0
102
{ACAD_REACTORS
330
5AB
102
}
330
5AB
100
AcDbVisualStyle
  2
2dWireframe
 70
     4
177
     3
291
     0
 70
    58
 90
        0
176
     1
 90
        2
176
     1
 90
        0
176
     1
 90
        0
176
     1
 40
0.6
176
     1
 40
30.0
176
     1
 62
     7
420
 16777215
176
     1
 90
        1
176
     1
 90
        4
176
     1
 62
     7
176
     1
 62
   257
176
     1
 90
        1
176
     1
 90
        1
176
     1
 40
1.0
176
     1
 90
        0
176
     1
 62
   257
176
     1
 40
1.0
176
     1
 90
        1
176
     1
 90
        6
176
     1
 90
        2
176
     1
 62
     7
176
     1
 90
        5
176
     1
 90
        0
176
     1
 90
        0
176
     1
290
     0
176
     1
 90
        1
176
     1
 40
0.0
176
     1
 90
        0
176
     1
290
     1
176
     1
290
     1
176
     1
290
     0
176
     1
290
     0
176
     1
290
     0
176
     1
290
     0
176
     1
290
     0
176
     1
290
     0
176
     1
290
     0
176
     1
 90
       50
176
     1
 40
0.0
176
     1
 40
1.0
176
     1
 90
        0
176
     1
 62
    18
420
        0
176
     1
 90
       50
176
     1
 90
        3
176
     1
 62
     5
420
      255
176
     1
290
     0
176
     1
 90
       50
176
     1
 90
       50
176
     1
 90
       50
176
     1
290
     0
176
     1
 90
       50
176
     1
 62
   256
176
     0
 40
1.0
176
     0
 90
        2
176
     1
  1
strokes_ogs.tif
176
     1
290
     0
176
     1
 40
1.0
176
     1
 40
1.0
176
     1
  0
VISUALSTYLE
  5
5B3
102
{ACAD_REACTORS
330
5AB
102
}
330
5AB
100
AcDbVisualStyle
  2
Basic
 70
     7
177
     3
291
     1
 70
    58
 90
        1
176
     1
 90
        0
176
     1
 90
        1
176
     1
 90
        0
176
     1
 40
0.6
176
     1
 40
30.0
176
     1
 62
     7
420
 16777215
176
     1
 90
        0
176
     1
 90
        4
176
     1
 62
     7
176
     1
 62
   257
176
     1
 90
        1
176
     1
 90
        1
176
     1
 40
1.0
176
     1
 90
        8
176
     1
 62
     7
176
     1
 40
1.0
176
     1
 90
        1
176
     1
 90
        6
176
     1
 90
        2
176
     1
 62
     7
176
     1
 90
        5
176
     1
 90
        0
176
     1
 90
        0
176
     1
290
     0
176
     1
 90
        1
176
     1
 40
0.0
176
     1
 90
        0
176
     1
290
     0
176
     1
290
     1
176
     1
290
     1
176
     1
290
     0
176
     1
290
     0
176
     1
290
     0
176
     1
290
     0
176
     1
290
     0
176
     1
290
     0
176
     1
 90
       50
176
     1
 40
0.0
176
     1
 40
1.0
176
     1
 90
        0
176
     1
 62
    18
420
        0
176
     1
 90
       50
176
     1
 90
        3
176
     1
 62
     5
420
      255
176
     1
290
     0
176
     1
 90
       50
176
     1
 90
       50
176
     1
 90
       50
176
     1
290
     0
176
     1
 90
       50
176
     1
 62
   256
176
     0
 40
1.0
176
     0
 90
        2
176
     1
  1
strokes_ogs.tif
176
     1
290
     0
176
     1
 40
1.0
176
     1
 40
1.0
176
     1
  0
VISUALSTYLE
  5
5B7
102
{ACAD_REACTORS
330
5AB
102
}
330
5AB
100
AcDbVisualStyle
  2
Brighten
 70
    12
177
     3
291
     1
 70
    58
 90
        2
176
     1
 90
        2
176
     1
 90
        0
176
     1
 90
        0
176
     1
 40
0.6
176
     1
 40
30.0
176
     1
 62
     7
420
 16777215
176
     1
 90
        1
176
     1
 90
        4
176
     1
 62
     7
176
     1
 62
   257
176
     1
 90
        1
176
     1
 90
        1
176
     1
 40
1.0
176
     1
 90
        8
176
     1
 62
     7
176
     1
 40
1.0
176
     1
 90
        1
176
     1
 90
        6
176
     1
 90
        2
176
     1
 62
     7
176
     1
 90
        5
176
     1
 90
        0
176
     1
 90
        0
176
     1
290
     0
176
     1
 90
        1
176
     1
 40
50.0
176
     1
 90
        0
176
     1
290
     0
176
     1
290
     1
176
     1
290
     1
176
     1
290
     0
176
     1
290
     0
176
     1
290
     0
176
     1
290
     0
176
     1
290
     0
176
     1
290
     0
176
     1
 90
       50
176
     1
 40
0.0
176
     1
 40
1.0
176
     1
 90
        0
176
     1
 62
    18
420
        0
176
     1
 90
       50
176
     1
 90
        3
176
     1
 62
     5
420
      255
176
     1
290
     0
176
     1
 90
       50
176
     1
 90
       50
176
     1
 90
       50
176
     1
290
     0
176
     1
 90
       50
176
     1
 62
   256
176
     0
 40
1.0
176
     0
 90
        2
176
     1
  1
strokes_ogs.tif
176
     1
290
     0
176
     1
 40
1.0
176
     1
 40
1.0
176
     1
  0
VISUALSTYLE
  5
5BB
102
{ACAD_REACTORS
330
5AB
102
}
330
5AB
100
AcDbVisualStyle
  2
ColorChange
 70
    16
177
     3
291
     1
 70
    58
 90
        2
176
     1
 90
        2
176
     1
 90
        3
176
     1
 90
        0
176
     1
 40
0.6
176
     1
 40
30.0
176
     1
 62
     8
420
  8421504
176
     1
 90
        1
176
     1
 90
        4
176
     1
 62
     7
176
     1
 62
   257
176
     1
 90
        1
176
     1
 90
        1
176
     1
 40
1.0
176
     1
 90
        8
176
     1
 62
     8
420
  8421504
176
     1
 40
1.0
176
     1
 90
        1
176
     1
 90
        6
176
     1
 90
        2
176
     1
 62
     7
176
     1
 90
        5
176
     1
 90
        0
176
     1
 90
        0
176
     1
290
     0
176
     1
 90
        1
176
     1
 40
0.0
176
     1
 90
        0
176
     1
290
     0
176
     1
290
     1
176
     1
290
     1
176
     1
290
     0
176
     1
290
     0
176
     1
290
     0
176
     1
290
     0
176
     1
290
     0
176
     1
290
     0
176
     1
 90
       50
176
     1
 40
0.0
176
     1
 40
1.0
176
     1
 90
        0
176
     1
 62
    18
420
        0
176
     1
 90
       50
176
     1
 90
        3
176
     1
 62
     5
420
      255
176
     1
290
     0
176
     1
 90
       50
176
     1
 90
       50
176
     1
 90
       50
176
     1
290
     0
176
     1
 90
       50
176
     1
 62
   256
176
     0
 40
1.0
176
     0
 90
        2
176
     1
  1
strokes_ogs.tif
176
     1
290
     0
176
     1
 40
1.0
176
     1
 40
1.0
176
     1
  0
VISUALSTYLE
  5
5B5
102
{ACAD_REACTORS
330
5AB
102
}
330
5AB
100
AcDbVisualStyle
  2
Conceptual
 70
     9
177
     3
291
     0
 70
    58
 90
        3
176
     1
 90
        2
176
     1
 90
        0
176
     1
 90
        0
176
     1
 40
0.6
176
     1
 40
30.0
176
     1
 62
     7
420
 16777215
176
     1
 90
        2
176
     1
 90
        2
176
     1
 62
     7
176
     1
 62
   257
176
     1
 90
        1
176
     1
 90
        1
176
     1
 40
179.0
176
     1
 90
        8
176
     1
 62
     7
176
     1
 40
1.0
176
     1
 90
        1
176
     1
 90
        6
176
     1
 90
        2
176
     1
 62
     7
176
     1
 90
        3
176
     1
 90
        0
176
     1
 90
        0
176
     1
290
     0
176
     1
 90
        1
176
     1
 40
0.0
176
     1
 90
        0
176
     1
290
     0
176
     1
290
     1
176
     1
290
     1
176
     1
290
     0
176
     1
290
     0
176
     1
290
     0
176
     1
290
     0
176
     1
290
     0
176
     1
290
     0
176
     1
 90
       50
176
     1
 40
0.0
176
     1
 40
1.0
176
     1
 90
        0
176
     1
 62
    18
420
        0
176
     1
 90
       50
176
     1
 90
        3
176
     1
 62
     5
420
      255
176
     1
290
     0
176
     1
 90
       50
176
     1
 90
       50
176
     1
 90
       50
176
     1
290
     0
176
     1
 90
       50
176
     1
 62
   256
176
     0
 40
1.0
176
     0
 90
        2
176
     1
  1
strokes_ogs.tif
176
     1
290
     0
176
     1
 40
1.0
176
     1
 40
1.0
176
     1
  0
VISUALSTYLE
  5
5B6
102
{ACAD_REACTORS
330
5AB
102
}
330
5AB
100
AcDbVisualStyle
  2
Dim
 70
    11
177
     3
291
     1
 70
    58
 90
        2
176
     1
 90
        2
176
     1
 90
        0
176
     1
 90
        0
176
     1
 40
0.6
176
     1
 40
30.0
176
     1
 62
     7
420
 16777215
176
     1
 90
        1
176
     1
 90
        4
176
     1
 62
     7
176
     1
 62
   257
176
     1
 90
        1
176
     1
 90
        1
176
     1
 40
1.0
176
     1
 90
        8
176
     1
 62
     7
176
     1
 40
1.0
176
     1
 90
        1
176
     1
 90
        6
176
     1
 90
        2
176
     1
 62
     7
176
     1
 90
        5
176
     1
 90
        0
176
     1
 90
        0
176
     1
290
     0
176
     1
 90
        1
176
     1
 40
-50.0
176
     1
 90
        0
176
     1
290
     0
176
     1
290
     1
176
     1
290
     1
176
     1
290
     0
176
     1
290
     0
176
     1
290
     0
176
     1
290
     0
176
     1
290
     0
176
     1
290
     0
176
     1
 90
       50
176
     1
 40
0.0
176
     1
 40
1.0
176
     1
 90
        0
176
     1
 62
    18
420
        0
176
     1
 90
       50
176
     1
 90
        3
176
     1
 62
     5
420
      255
176
     1
290
     0
176
     1
 90
       50
176
     1
 90
       50
176
     1
 90
       50
176
     1
290
     0
176
     1
 90
       50
176
     1
 62
   256
176
     0
 40
1.0
176
     0
 90
        2
176
     1
  1
strokes_ogs.tif
176
     1
290
     0
176
     1
 40
1.0
176
     1
 40
1.0
176
     1
  0
VISUALSTYLE
  5
5BE
102
{ACAD_REACTORS
330
5AB
102
}
330
5AB
100
AcDbVisualStyle
  2
EdgeColorOff
 70
    22
177
     3
291
     1
 70
    58
 90
        2
176
     0
 90
        2
176
     0
 90
        0
176
     0
 90
        0
176
     0
 40
0.6
176
     0
 40
30.0
176
     0
 62
     7
420
 16777215
176
     0
 90
        1
176
     0
 90
        4
176
     0
 62
     7
176
     0
 62
   257
176
     0
 90
        1
176
     0
 90
        1
176
     0
 40
1.0
176
     0
 90
        8
176
     2
 62
     7
176
     0
 40
1.0
176
     0
 90
        1
176
     0
 90
        6
176
     0
 90
        2
176
     0
 62
     7
176
     0
 90
        5
176
     0
 90
        0
176
     0
 90
        0
176
     0
290
     0
176
     0
 90
        1
176
     0
 40
0.0
176
     0
 90
        0
176
     0
290
     0
176
     0
290
     1
176
     0
290
     1
176
     0
290
     0
176
     0
290
     0
176
     0
290
     0
176
     0
290
     0
176
     0
290
     0
176
     0
290
     0
176
     0
 90
       50
176
     0
 40
0.0
176
     0
 40
1.0
176
     0
 90
        0
176
     0
 62
    18
420
        0
176
     0
 90
       50
176
     0
 90
        3
176
     0
 62
     5
420
      255
176
     0
290
     0
176
     0
 90
       50
176
     0
 90
       50
176
     0
 90
       50
176
     0
290
     0
176
     0
 90
       50
176
     0
 62
   256
176
     0
 40
1.0
176
     0
 90
        2
176
     0
  1
strokes_ogs.tif
176
     0
290
     0
176
     0
 40
1.0
176
     0
 40
1.0
176
     0
  0
VISUALSTYLE
  5
5BA
102
{ACAD_REACTORS
330
5AB
102
}
330
5AB
100
AcDbVisualStyle
  2
Facepattern
 70
    15
177
     3
291
     1
 70
    58
 90
        2
176
     1
 90
        2
176
     1
 90
        0
176
     1
 90
        0
176
     1
 40
0.6
176
     1
 40
30.0
176
     1
 62
     7
420
 16777215
176
     1
 90
        1
176
     1
 90
        4
176
     1
 62
     7
176
     1
 62
   257
176
     1
 90
        1
176
     1
 90
        1
176
     1
 40
1.0
176
     1
 90
        8
176
     1
 62
     7
176
     1
 40
1.0
176
     1
 90
        1
176
     1
 90
        6
176
     1
 90
        2
176
     1
 62
     7
176
     1
 90
        5
176
     1
 90
        0
176
     1
 90
        0
176
     1
290
     0
176
     1
 90
        1
176
     1
 40
0.0
176
     1
 90
        0
176
     1
290
     0
176
     1
290
     1
176
     1
290
     1
176
     1
290
     0
176
     1
290
     0
176
     1
290
     0
176
     1
290
     0
176
     1
290
     0
176
     1
290
     0
176
     1
 90
       50
176
     1
 40
0.0
176
     1
 40
1.0
176
     1
 90
        0
176
     1
 62
    18
420
        0
176
     1
 90
       50
176
     1
 90
        3
176
     1
 62
     5
420
      255
176
     1
290
     0
176
     1
 90
       50
176
     1
 90
       50
176
     1
 90
       50
176
     1
290
     0
176
     1
 90
       50
176
     1
 62
   256
176
     0
 40
1.0
176
     0
 90
        2
176
     1
  1
strokes_ogs.tif
176
     1
290
     0
176
     1
 40
1.0
176
     1
 40
1.0
176
     1
  0
VISUALSTYLE
  5
5AC
102
{ACAD_REACTORS
330
5AB
102
}
330
5AB
100
AcDbVisualStyle
  2
Flat
 70
     0
177
     3
291
     1
 70
    58
 90
        2
176
     1
 90
        1
176
     1
 90
        1
176
     1
 90
        2
176
     1
 40
0.6
176
     1
 40
30.0
176
     1
 62
     7
420
 16777215
176
     1
 90
        0
176
     1
 90
        0
176
     1
 62
     7
176
     1
 62
   257
176
     1
 90
        1
176
     1
 90
        1
176
     1
 40
1.0
176
     1
 90
        8
176
     1
 62
     7
176
     1
 40
1.0
176
     1
 90
        1
176
     1
 90
        6
176
     1
 90
        2
176
     1
 62
     7
176
     1
 90
        5
176
     1
 90
        0
176
     1
 90
        0
176
     1
290
     0
176
     1
 90
       13
176
     1
 40
0.0
176
     1
 90
        0
176
     1
290
     0
176
     1
290
     1
176
     1
290
     1
176
     1
290
     0
176
     1
290
     0
176
     1
290
     0
176
     1
290
     0
176
     1
290
     0
176
     1
290
     0
176
     1
 90
       50
176
     1
 40
0.0
176
     1
 40
1.0
176
     1
 90
        0
176
     1
 62
    18
420
        0
176
     1
 90
       50
176
     1
 90
        3
176
     1
 62
     5
420
      255
176
     1
290
     0
176
     1
 90
       50
176
     1
 90
       50
176
     1
 90
       50
176
     1
290
     0
176
     1
 90
       50
176
     1
 62
   256
176
     0
 40
1.0
176
     0
 90
        2
176
     1
  1
strokes_ogs.tif
176
     1
290
     0
176
     1
 40
1.0
176
     1
 40
1.0
176
     1
  0
VISUALSTYLE
  5
5AD
102
{ACAD_REACTORS
330
5AB
102
}
330
5AB
100
AcDbVisualStyle
  2
FlatWithEdges
 70
     1
177
     3
291
     1
 70
    58
 90
        2
176
     1
 90
        1
176
     1
 90
        1
176
     1
 90
        2
176
     1
 40
0.6
176
     1
 40
30.0
176
     1
 62
     7
420
 16777215
176
     1
 90
        1
176
     1
 90
        0
176
     1
 62
     7
176
     1
 62
   257
176
     1
 90
        1
176
     1
 90
        1
176
     1
 40
1.0
176
     1
 90
        0
176
     1
 62
   257
176
     1
 40
1.0
176
     1
 90
        1
176
     1
 90
        6
176
     1
 90
        2
176
     1
 62
     7
176
     1
 90
        5
176
     1
 90
        0
176
     1
 90
        0
176
     1
290
     0
176
     1
 90
       13
176
     1
 40
0.0
176
     1
 90
        0
176
     1
290
     0
176
     1
290
     1
176
     1
290
     1
176
     1
290
     0
176
     1
290
     0
176
     1
290
     0
176
     1
290
     0
176
     1
290
     0
176
     1
290
     0
176
     1
 90
       50
176
     1
 40
0.0
176
     1
 40
1.0
176
     1
 90
        0
176
     1
 62
    18
420
        0
176
     1
 90
       50
176
     1
 90
        3
176
     1
 62
     5
420
      255
176
     1
290
     0
176
     1
 90
       50
176
     1
 90
       50
176
     1
 90
       50
176
     1
290
     0
176
     1
 90
       50
176
     1
 62
   256
176
     0
 40
1.0
176
     0
 90
        2
176
     1
  1
strokes_ogs.tif
176
     1
290
     0
176
     1
 40
1.0
176
     1
 40
1.0
176
     1
  0
VISUALSTYLE
  5
5AE
102
{ACAD_REACTORS
330
5AB
102
}
330
5AB
100
AcDbVisualStyle
  2
Gouraud
 70
     2
177
     3
291
     1
 70
    58
 90
        2
176
     1
 90
        2
176
     1
 90
        1
176
     1
 90
        2
176
     1
 40
0.6
176
     1
 40
30.0
176
     1
 62
     7
420
 16777215
176
     1
 90
        0
176
     1
 90
        0
176
     1
 62
     7
176
     1
 62
   257
176
     1
 90
        1
176
     1
 90
        1
176
     1
 40
1.0
176
     1
 90
        0
176
     1
 62
     7
176
     1
 40
1.0
176
     1
 90
        1
176
     1
 90
        6
176
     1
 90
        2
176
     1
 62
     7
176
     1
 90
        5
176
     1
 90
        0
176
     1
 90
        0
176
     1
290
     0
176
     1
 90
       13
176
     1
 40
0.0
176
     1
 90
        0
176
     1
290
     0
176
     1
290
     1
176
     1
290
     1
176
     1
290
     0
176
     1
290
     0
176
     1
290
     0
176
     1
290
     0
176
     1
290
     0
176
     1
290
     0
176
     1
 90
       50
176
     1
 40
0.0
176
     1
 40
1.0
176
     1
 90
        0
176
     1
 62
    18
420
        0
176
     1
 90
       50
176
     1
 90
        3
176
     1
 62
     5
420
      255
176
     1
290
     0
176
     1
 90
       50
176
     1
 90
       50
176
     1
 90
       50
176
     1
290
     0
176
     1
 90
       50
176
     1
 62
   256
176
     0
 40
1.0
176
     0
 90
        2
176
     1
  1
strokes_ogs.tif
176
     1
290
     0
176
     1
 40
1.0
176
     1
 40
1.0
176
     1
  0
VISUALSTYLE
  5
5AF
102
{ACAD_REACTORS
330
5AB
102
}
330
5AB
100
AcDbVisualStyle
  2
GouraudWithEdges
 70
     3
177
     3
291
     1
 70
    58
 90
        2
176
     1
 90
        2
176
     1
 90
        1
176
     1
 90
        2
176
     1
 40
0.6
176
     1
 40
30.0
176
     1
 62
     7
420
 16777215
176
     1
 90
        1
176
     1
 90
        0
176
     1
 62
     7
176
     1
 62
   257
176
     1
 90
        1
176
     1
 90
        1
176
     1
 40
1.0
176
     1
 90
        0
176
     1
 62
   257
176
     1
 40
1.0
176
     1
 90
        1
176
     1
 90
        6
176
     1
 90
        2
176
     1
 62
     7
176
     1
 90
        5
176
     1
 90
        0
176
     1
 90
        0
176
     1
290
     0
176
     1
 90
       13
176
     1
 40
0.0
176
     1
 90
        0
176
     1
290
     0
176
     1
290
     1
176
     1
290
     1
176
     1
290
     0
176
     1
290
     0
176
     1
290
     0
176
     1
290
     0
176
     1
290
     0
176
     1
290
     0
176
     1
 90
       50
176
     1
 40
0.0
176
     1
 40
1.0
176
     1
 90
        0
176
     1
 62
    18
420
        0
176
     1
 90
       50
176
     1
 90
        3
176
     1
 62
     5
420
      255
176
     1
290
     0
176
     1
 90
       50
176
     1
 90
       50
176
     1
 90
       50
176
     1
290
     0
176
     1
 90
       50
176
     1
 62
   256
176
     0
 40
1.0
176
     0
 90
        2
176
     1
  1
strokes_ogs.tif
176
     1
290
     0
176
     1
 40
1.0
176
     1
 40
1.0
176
     1
  0
VISUALSTYLE
  5
5B2
102
{ACAD_REACTORS
330
5AB
102
}
330
5AB
100
AcDbVisualStyle
  2
Hidden
 70
     6
177
     3
291
     0
 70
    58
 90
        1
176
     1
 90
        2
176
     1
 90
        2
176
     1
 90
        0
176
     1
 40
0.6
176
     1
 40
30.0
176
     1
 62
     7
420
 16777215
176
     1
 90
        2
176
     1
 90
        2
176
     1
 62
     7
176
     1
 62
   257
176
     1
 90
        2
176
     1
 90
        1
176
     1
 40
40.0
176
     1
 90
        0
176
     1
 62
   257
176
     1
 40
1.0
176
     1
 90
        1
176
     1
 90
        6
176
     1
 90
        2
176
     1
 62
     7
176
     1
 90
        3
176
     1
 90
        0
176
     1
 90
        0
176
     1
290
     0
176
     1
 90
        1
176
     1
 40
0.0
176
     1
 90
        0
176
     1
290
     0
176
     1
290
     1
176
     1
290
     1
176
     1
290
     0
176
     1
290
     0
176
     1
290
     0
176
     1
290
     0
176
     1
290
     0
176
     1
290
     0
176
     1
 90
       50
176
     1
 40
0.0
176
     1
 40
1.0
176
     1
 90
        0
176
     1
 62
    18
420
        0
176
     1
 90
       50
176
     1
 90
        3
176
     1
 62
     5
420
      255
176
     1
290
     0
176
     1
 90
       50
176
     1
 90
       50
176
     1
 90
       50
176
     1
290
     0
176
     1
 90
       50
176
     1
 62
   256
176
     0
 40
1.0
176
     0
 90
        2
176
     1
  1
strokes_ogs.tif
176
     1
290
     0
176
     1
 40
1.0
176
     1
 40
1.0
176
     1
  0
VISUALSTYLE
  5
5BC
102
{ACAD_REACTORS
330
5AB
102
}
330
5AB
100
AcDbVisualStyle
  2
JitterOff
 70
    20
177
     3
291
     1
 70
    58
 90
        2
176
     0
 90
        2
176
     0
 90
        0
176
     0
 90
        0
176
     0
 40
0.6
176
     0
 40
30.0
176
     0
 62
     7
420
 16777215
176
     0
 90
        1
176
     0
 90
        4
176
     0
 62
     7
176
     0
 62
   257
176
     0
 90
        1
176
     0
 90
        1
176
     0
 40
1.0
176
     0
 90
       10
176
     2
 62
     7
176
     0
 40
1.0
176
     0
 90
        1
176
     0
 90
        6
176
     0
 90
        2
176
     0
 62
     7
176
     0
 90
        5
176
     0
 90
        0
176
     0
 90
        0
176
     0
290
     0
176
     0
 90
        1
176
     0
 40
0.0
176
     0
 90
        0
176
     0
290
     0
176
     0
290
     1
176
     0
290
     1
176
     0
290
     0
176
     0
290
     0
176
     0
290
     0
176
     0
290
     0
176
     0
290
     0
176
     0
290
     0
176
     0
 90
       50
176
     0
 40
0.0
176
     0
 40
1.0
176
     0
 90
        0
176
     0
 62
    18
420
        0
176
     0
 90
       50
176
     0
 90
        3
176
     0
 62
     5
420
      255
176
     0
290
     0
176
     0
 90
       50
176
     0
 90
       50
176
     0
 90
       50
176
     0
290
     0
176
     0
 90
       50
176
     0
 62
   256
176
     0
 40
1.0
176
     0
 90
        2
176
     0
  1
strokes_ogs.tif
176
     0
290
     0
176
     0
 40
1.0
176
     0
 40
1.0
176
     0
  0
VISUALSTYLE
  5
5B9
102
{ACAD_REACTORS
330
5AB
102
}
330
5AB
100
AcDbVisualStyle
  2
Linepattern
 70
    14
177
     3
291
     1
 70
    58
 90
        2
176
     1
 90
        2
176
     1
 90
        0
176
     1
 90
        0
176
     1
 40
0.6
176
     1
 40
30.0
176
     1
 62
     7
420
 16777215
176
     1
 90
        1
176
     1
 90
        4
176
     1
 62
     7
176
     1
 62
   257
176
     1
 90
        7
176
     1
 90
        7
176
     1
 40
1.0
176
     1
 90
        8
176
     1
 62
     7
176
     1
 40
1.0
176
     1
 90
        1
176
     1
 90
        6
176
     1
 90
        2
176
     1
 62
     7
176
     1
 90
        5
176
     1
 90
        0
176
     1
 90
        0
176
     1
290
     0
176
     1
 90
        1
176
     1
 40
0.0
176
     1
 90
        0
176
     1
290
     0
176
     1
290
     1
176
     1
290
     1
176
     1
290
     0
176
     1
290
     0
176
     1
290
     0
176
     1
290
     0
176
     1
290
     0
176
     1
290
     0
176
     1
 90
       50
176
     1
 40
0.0
176
     1
 40
1.0
176
     1
 90
        0
176
     1
 62
    18
420
        0
176
     1
 90
       50
176
     1
 90
        3
176
     1
 62
     5
420
      255
176
     1
290
     0
176
     1
 90
       50
176
     1
 90
       50
176
     1
 90
       50
176
     1
290
     0
176
     1
 90
       50
176
     1
 62
   256
176
     0
 40
1.0
176
     0
 90
        2
176
     1
  1
strokes_ogs.tif
176
     1
290
     0
176
     1
 40
1.0
176
     1
 40
1.0
176
     1
  0
VISUALSTYLE
  5
5BD
102
{ACAD_REACTORS
330
5AB
102
}
330
5AB
100
AcDbVisualStyle
  2
OverhangOff
 70
    21
177
     3
291
     1
 70
    58
 90
        2
176
     0
 90
        2
176
     0
 90
        0
176
     0
 90
        0
176
     0
 40
0.6
176
     0
 40
30.0
176
     0
 62
     7
420
 16777215
176
     0
 90
        1
176
     0
 90
        4
176
     0
 62
     7
176
     0
 62
   257
176
     0
 90
        1
176
     0
 90
        1
176
     0
 40
1.0
176
     0
 90
        9
176
     2
 62
     7
176
     0
 40
1.0
176
     0
 90
        1
176
     0
 90
        6
176
     0
 90
        2
176
     0
 62
     7
176
     0
 90
        5
176
     0
 90
        0
176
     0
 90
        0
176
     0
290
     0
176
     0
 90
        1
176
     0
 40
0.0
176
     0
 90
        0
176
     0
290
     0
176
     0
290
     1
176
     0
290
     1
176
     0
290
     0
176
     0
290
     0
176
     0
290
     0
176
     0
290
     0
176
     0
290
     0
176
     0
290
     0
176
     0
 90
       50
176
     0
 40
0.0
176
     0
 40
1.0
176
     0
 90
        0
176
     0
 62
    18
420
        0
176
     0
 90
       50
176
     0
 90
        3
176
     0
 62
     5
420
      255
176
     0
290
     0
176
     0
 90
       50
176
     0
 90
       50
176
     0
 90
       50
176
     0
290
     0
176
     0
 90
       50
176
     0
 62
   256
176
     0
 40
1.0
176
     0
 90
        2
176
     0
  1
strokes_ogs.tif
176
     0
290
     0
176
     0
 40
1.0
176
     0
 40
1.0
176
     0
  0
VISUALSTYLE
  5
5B4
102
{ACAD_REACTORS
330
5AB
102
}
330
5AB
100
AcDbVisualStyle
  2
Realistic
 70
     8
177
     3
291
     0
 70
    58
 90
        2
176
     1
 90
        3
176
     1
 90
        0
176
     1
 90
        2
176
     1
 40
0.6
176
     1
 40
30.0
176
     1
 62
     7
420
 16777215
176
     1
 90
        0
176
     1
 90
        0
176
     1
 62
     7
176
     1
 62
   257
176
     1
 90
        1
176
     1
 90
        1
176
     1
 40
1.0
176
     1
 90
        8
176
     1
 62
   257
176
     1
 40
1.0
176
     1
 90
        1
176
     1
 90
        6
176
     1
 90
        2
176
     1
 62
     7
176
     1
 90
        3
176
     1
 90
        0
176
     1
 90
        0
176
     1
290
     0
176
     1
 90
       13
176
     1
 40
0.0
176
     1
 90
        0
176
     1
290
     0
176
     1
290
     1
176
     1
290
     1
176
     1
290
     0
176
     1
290
     0
176
     1
290
     0
176
     1
290
     0
176
     1
290
     0
176
     1
290
     0
176
     1
 90
       50
176
     1
 40
0.0
176
     1
 40
1.0
176
     1
 90
        0
176
     1
 62
    18
420
        0
176
     1
 90
       50
176
     1
 90
        3
176
     1
 62
     5
420
      255
176
     1
290
     0
176
     1
 90
       50
176
     1
 90
       50
176
     1
 90
       50
176
     1
290
     0
176
     1
 90
       50
176
     1
 62
   256
176
     0
 40
1.0
176
     0
 90
        2
176
     1
  1
strokes_ogs.tif
176
     1
290
     0
176
     1
 40
1.0
176
     1
 40
1.0
176
     1
  0
VISUALSTYLE
  5
5C3
102
{ACAD_REACTORS
330
5AB
102
}
330
5AB
100
AcDbVisualStyle
  2
Shaded
 70
    27
177
     3
291
     0
 70
    58
 90
        2
176
     1
 90
        2
176
     1
 90
        1
176
     1
 90
        2
176
     1
 40
0.6
176
     1
 40
30.0
176
     1
 62
     7
420
 16777215
176
     1
 90
        0
176
     1
 90
        4
176
     1
 62
     7
176
     1
 62
   257
176
     1
 90
        1
176
     1
 90
        1
176
     1
 40
1.0
176
     1
 90
        8
176
     1
 62
   257
176
     1
 40
1.0
176
     1
 90
        1
176
     1
 90
        6
176
     1
 90
        2
176
     1
 62
     8
420
  7895160
176
     1
 90
        3
176
     1
 90
        0
176
     1
 90
        0
176
     1
290
     0
176
     1
 90
        5
176
     1
 40
0.0
176
     1
 90
        0
176
     1
290
     0
176
     1
290
     1
176
     1
290
     1
176
     1
290
     0
176
     1
290
     0
176
     1
290
     0
176
     1
290
     0
176
     1
290
     0
176
     1
290
     0
176
     1
 90
       50
176
     1
 40
0.0
176
     1
 40
1.0
176
     1
 90
        0
176
     1
 62
    18
420
        0
176
     1
 90
       50
176
     1
 90
        3
176
     1
 62
     5
420
      255
176
     1
290
     0
176
     1
 90
       50
176
     1
 90
       50
176
     1
 90
       50
176
     1
290
     0
176
     1
 90
       50
176
     1
 62
   256
176
     0
 40
1.0
176
     0
 90
        2
176
     1
  1
strokes_ogs.tif
176
     1
290
     0
176
     1
 40
1.0
176
     1
 40
1.0
176
     1
  0
VISUALSTYLE
  5
5C2
102
{ACAD_REACTORS
330
5AB
102
}
330
5AB
100
AcDbVisualStyle
  2
Shaded with edges
 70
    26
177
     3
291
     0
 70
    58
 90
        2
176
     1
 90
        2
176
     1
 90
        1
176
     1
 90
        2
176
     1
 40
0.6
176
     1
 40
30.0
176
     1
 62
     7
420
 16777215
176
     1
 90
        1
176
     1
 90
       10
176
     1
 62
     7
176
     1
 62
   257
176
     1
 90
        2
176
     1
 90
        1
176
     1
 40
1.0
176
     1
 90
        8
176
     1
 62
   257
176
     1
 40
1.0
176
     1
 90
        1
176
     1
 90
        6
176
     1
 90
        2
176
     1
 62
     7
176
     1
 90
        3
176
     1
 90
        0
176
     1
 90
        0
176
     1
290
     0
176
     1
 90
        5
176
     1
 40
0.0
176
     1
 90
        0
176
     1
290
     0
176
     1
290
     1
176
     1
290
     1
176
     1
290
     0
176
     1
290
     0
176
     1
290
     0
176
     1
290
     0
176
     1
290
     0
176
     1
290
     0
176
     1
 90
       50
176
     1
 40
0.0
176
     1
 40
1.0
176
     1
 90
        0
176
     1
 62
    18
420
        0
176
     1
 90
       50
176
     1
 90
        3
176
     1
 62
     5
420
      255
176
     1
290
     0
176
     1
 90
       50
176
     1
 90
       50
176
     1
 90
       50
176
     1
290
     0
176
     1
 90
       50
176
     1
 62
   256
176
     0
 40
1.0
176
     0
 90
        2
176
     1
  1
strokes_ogs.tif
176
     1
290
     0
176
     1
 40
1.0
176
     1
 40
1.0
176
     1
  0
VISUALSTYLE
  5
5BF
102
{ACAD_REACTORS
330
5AB
102
}
330
5AB
100
AcDbVisualStyle
  2
Shades of Gray
 70
    23
177
     3
291
     0
 70
    58
 90
        2
176
     1
 90
        2
176
     1
 90
        3
176
     1
 90
        0
176
     1
 40
0.6
176
     1
 40
30.0
176
     1
 62
     7
420
 16777215
176
     1
 90
        2
176
     1
 90
        2
176
     1
 62
     7
176
     1
 62
     7
176
     1
 90
        1
176
     1
 90
        1
176
     1
 40
40.0
176
     1
 90
        8
176
     1
 62
     7
176
     1
 40
1.0
176
     1
 90
        1
176
     1
 90
        6
176
     1
 90
        2
176
     1
 62
     7
176
     1
 90
        3
176
     1
 90
        0
176
     1
 90
        0
176
     1
290
     0
176
     1
 90
        1
176
     1
 40
0.0
176
     1
 90
        0
176
     1
290
     0
176
     1
290
     1
176
     1
290
     1
176
     1
290
     0
176
     1
290
     0
176
     1
290
     0
176
     1
290
     0
176
     1
290
     0
176
     1
290
     0
176
     1
 90
       50
176
     1
 40
0.0
176
     1
 40
1.0
176
     1
 90
        0
176
     1
 62
    18
420
        0
176
     1
 90
       50
176
     1
 90
        3
176
     1
 62
     5
420
      255
176
     1
290
     0
176
     1
 90
       50
176
     1
 90
       50
176
     1
 90
       50
176
     1
290
     0
176
     1
 90
       50
176
     1
 62
   256
176
     0
 40
1.0
176
     0
 90
        2
176
     1
  1
strokes_ogs.tif
176
     1
290
     0
176
     1
 40
1.0
176
     1
 40
1.0
176
     1
  0
VISUALSTYLE
  5
5C0
102
{ACAD_REACTORS
330
5AB
102
}
330
5AB
100
AcDbVisualStyle
  2
Sketchy
 70
    24
177
     3
291
     0
 70
    58
 90
        1
176
     1
 90
        2
176
     1
 90
        2
176
     1
 90
        0
176
     1
 40
0.6
176
     1
 40
30.0
176
     1
 62
     7
420
 16777215
176
     1
 90
        2
176
     1
 90
        2
176
     1
 62
     7
176
     1
 62
     7
176
     1
 90
        1
176
     1
 90
        1
176
     1
 40
40.0
176
     1
 90
       11
176
     1
 62
     7
176
     1
 40
1.0
176
     1
 90
        1
176
     1
 90
        6
176
     1
 90
        2
176
     1
 62
     7
176
     1
 90
        6
176
     1
 90
        0
176
     1
 90
        0
176
     1
290
     0
176
     1
 90
        1
176
     1
 40
0.0
176
     1
 90
        0
176
     1
290
     0
176
     1
290
     1
176
     1
290
     1
176
     1
290
     0
176
     1
290
     0
176
     1
290
     0
176
     1
290
     0
176
     1
290
     0
176
     1
290
     0
176
     1
 90
       50
176
     1
 40
0.0
176
     1
 40
1.0
176
     1
 90
        0
176
     1
 62
    18
420
        0
176
     1
 90
       50
176
     1
 90
        3
176
     1
 62
     5
420
      255
176
     1
290
     0
176
     1
 90
       50
176
     1
 90
       50
176
     1
 90
       50
176
     1
290
     0
176
     1
 90
       50
176
     1
 62
   256
176
     0
 40
1.0
176
     0
 90
        2
176
     1
  1
strokes_ogs.tif
176
     1
290
     0
176
     1
 40
1.0
176
     1
 40
1.0
176
     1
  0
VISUALSTYLE
  5
5B8
102
{ACAD_REACTORS
330
5AB
102
}
330
5AB
100
AcDbVisualStyle
  2
Thicken
 70
    13
177
     3
291
     1
 70
    58
 90
        2
176
     1
 90
        2
176
     1
 90
        0
176
     1
 90
        0
176
     1
 40
0.6
176
     1
 40
30.0
176
     1
 62
     7
420
 16777215
176
     1
 90
        1
176
     1
 90
        4
176
     1
 62
     7
176
     1
 62
   257
176
     1
 90
        1
176
     1
 90
        1
176
     1
 40
1.0
176
     1
 90
       12
176
     1
 62
     7
176
     1
 40
1.0
176
     1
 90
        1
176
     1
 90
        6
176
     1
 90
        2
176
     1
 62
     7
176
     1
 90
        5
176
     1
 90
        0
176
     1
 90
        0
176
     1
290
     0
176
     1
 90
        1
176
     1
 40
0.0
176
     1
 90
        0
176
     1
290
     0
176
     1
290
     1
176
     1
290
     1
176
     1
290
     0
176
     1
290
     0
176
     1
290
     0
176
     1
290
     0
176
     1
290
     0
176
     1
290
     0
176
     1
 90
       50
176
     1
 40
0.0
176
     1
 40
1.0
176
     1
 90
        0
176
     1
 62
    18
420
        0
176
     1
 90
       50
176
     1
 90
        3
176
     1
 62
     5
420
      255
176
     1
290
     0
176
     1
 90
       50
176
     1
 90
       50
176
     1
 90
       50
176
     1
290
     0
176
     1
 90
       50
176
     1
 62
   256
176
     0
 40
1.0
176
     0
 90
        2
176
     1
  1
strokes_ogs.tif
176
     1
290
     0
176
     1
 40
1.0
176
     1
 40
1.0
176
     1
  0
VISUALSTYLE
  5
5B1
102
{ACAD_REACTORS
330
5AB
102
}
330
5AB
100
AcDbVisualStyle
  2
Wireframe
 70
     5
177
     3
291
     0
 70
    58
 90
        0
176
     1
 90
        2
176
     1
 90
        0
176
     1
 90
        0
176
     1
 40
0.6
176
     1
 40
30.0
176
     1
 62
     7
420
 16777215
176
     1
 90
        1
176
     1
 90
        4
176
     1
 62
     7
176
     1
 62
   257
176
     1
 90
        1
176
     1
 90
        1
176
     1
 40
1.0
176
     1
 90
        0
176
     1
 62
   257
176
     1
 40
1.0
176
     1
 90
        1
176
     1
 90
        6
176
     1
 90
        2
176
     1
 62
     7
176
     1
 90
        3
176
     1
 90
        0
176
     1
 90
        0
176
     1
290
     0
176
     1
 90
        1
176
     1
 40
0.0
176
     1
 90
        0
176
     1
290
     0
176
     1
290
     1
176
     1
290
     1
176
     1
290
     0
176
     1
290
     0
176
     1
290
     0
176
     1
290
     0
176
     1
290
     0
176
     1
290
     0
176
     1
 90
       50
176
     1
 40
0.0
176
     1
 40
1.0
176
     1
 90
        0
176
     1
 62
    18
420
        0
176
     1
 90
       50
176
     1
 90
        3
176
     1
 62
     5
420
      255
176
     1
290
     0
176
     1
 90
       50
176
     1
 90
       50
176
     1
 90
       50
176
     1
290
     0
176
     1
 90
       50
176
     1
 62
   256
176
     0
 40
1.0
176
     0
 90
        2
176
     1
  1
strokes_ogs.tif
176
     1
290
     0
176
     1
 40
1.0
176
     1
 40
1.0
176
     1
  0
VISUALSTYLE
  5
5C1
102
{ACAD_REACTORS
330
5AB
102
}
330
5AB
100
AcDbVisualStyle
  2
X-Ray
 70
    25
177
     3
291
     0
 70
    58
 90
        2
176
     1
 90
        2
176
     1
 90
        1
176
     1
 90
        1
176
     1
 40
0.5
176
     1
 40
30.0
176
     1
 62
     7
420
 16777215
176
     1
 90
        1
176
     1
 90
        0
176
     1
 62
     7
176
     1
 62
   257
176
     1
 90
        1
176
     1
 90
        1
176
     1
 40
1.0
176
     1
 90
        8
176
     1
 62
     7
176
     1
 40
1.0
176
     1
 90
        1
176
     1
 90
        6
176
     1
 90
        2
176
     1
 62
     7
176
     1
 90
        3
176
     1
 90
        0
176
     1
 90
        0
176
     1
290
     0
176
     1
 90
       13
176
     1
 40
0.0
176
     1
 90
        0
176
     1
290
     0
176
     1
290
     1
176
     1
290
     1
176
     1
290
     0
176
     1
290
     0
176
     1
290
     0
176
     1
290
     0
176
     1
290
     0
176
     1
290
     0
176
     1
 90
       50
176
     1
 40
0.0
176
     1
 40
1.0
176
     1
 90
        0
176
     1
 62
    18
420
        0
176
     1
 90
       50
176
     1
 90
        3
176
     1
 62
     5
420
      255
176
     1
290
     0
176
     1
 90
       50
176
     1
 90
       50
176
     1
 90
       50
176
     1
290
     0
176
     1
 90
       50
176
     1
 62
   256
176
     0
 40
1.0
176
     0
 90
        2
176
     1
  1
strokes_ogs.tif
176
     1
290
     0
176
     1
 40
1.0
176
     1
 40
1.0
176
     1
  0
DICTIONARYVAR
  5
5CE
102
{ACAD_REACTORS
330
5CD
102
}
330
5CD
100
DictionaryVariables
280
     0
  1
1:1
  0
DICTIONARYVAR
  5
5D3
102
{ACAD_REACTORS
330
5CD
102
}
330
5CD
100
DictionaryVariables
280
     0
  1
Standard
  0
DICTIONARYVAR
  5
5D2
102
{ACAD_REACTORS
330
5CD
102
}
330
5CD
100
DictionaryVariables
280
     0
  1
Standard
  0
DICTIONARYVAR
  5
5D4
102
{ACAD_REACTORS
330
5CD
102
}
330
5CD
100
DictionaryVariables
280
     0
  1
0
  0
DICTIONARY
  5
5CF
330
5C9
100
AcDbDictionary
280
     1
281
     1
  3
ACAD_ROUNDTRIP_2008_TABLESTYLE_CELLSTYLEMAP
360
5D0
  0
CELLSTYLEMAP
  5
5D0
102
{ACAD_REACTORS
330
5CF
102
}
330
5CF
100
AcDbCellStyleMap
 90
        3
300
CELLSTYLE
  1
TABLEFORMAT_BEGIN
 90
        5
170
     1
 91
        0
 92
    32768
 62
   257
 93
        1
300
CONTENTFORMAT
  1
CONTENTFORMAT_BEGIN
 90
        0
 91
        0
 92
        4
 93
        0
300

 40
0.0
140
1.0
 94
        5
 62
     0
340
11
144
6.0
309
CONTENTFORMAT_END
171
     1
301
MARGIN
  1
CELLMARGIN_BEGIN
 40
1.5
 40
1.5
 40
1.5
 40
1.5
 40
1.5
 40
1.5
309
CELLMARGIN_END
 94
        6
 95
        1
302
GRIDFORMAT
  1
GRIDFORMAT_BEGIN
 90
        0
 91
        1
 62
     0
 92
       -2
340
14
 93
        0
 40
0.045
309
GRIDFORMAT_END
 95
        2
302
GRIDFORMAT
  1
GRIDFORMAT_BEGIN
 90
        0
 91
        1
 62
     0
 92
       -2
340
14
 93
        0
 40
0.045
309
GRIDFORMAT_END
 95
        4
302
GRIDFORMAT
  1
GRIDFORMAT_BEGIN
 90
        0
 91
        1
 62
     0
 92
       -2
340
14
 93
        0
 40
0.045
309
GRIDFORMAT_END
 95
        8
302
GRIDFORMAT
  1
GRIDFORMAT_BEGIN
 90
        0
 91
        1
 62
     0
 92
       -2
340
14
 93
        0
 40
0.045
309
GRIDFORMAT_END
 95
       16
302
GRIDFORMAT
  1
GRIDFORMAT_BEGIN
 90
        0
 91
        1
 62
     0
 92
       -2
340
14
 93
        0
 40
0.045
309
GRIDFORMAT_END
 95
       32
302
GRIDFORMAT
  1
GRIDFORMAT_BEGIN
 90
        0
 91
        1
 62
     0
 92
       -2
340
14
 93
        0
 40
0.045
309
GRIDFORMAT_END
309
TABLEFORMAT_END
  1
CELLSTYLE_BEGIN
 90
        1
 91
        1
300
_TITLE
309
CELLSTYLE_END
300
CELLSTYLE
  1
TABLEFORMAT_BEGIN
 90
        5
170
     1
 91
        0
 92
        0
 62
   257
 93
        1
300
CONTENTFORMAT
  1
CONTENTFORMAT_BEGIN
 90
        0
 91
        0
 92
        4
 93
        0
300

 40
0.0
140
1.0
 94
        5
 62
     0
340
11
144
4.5
309
CONTENTFORMAT_END
171
     1
301
MARGIN
  1
CELLMARGIN_BEGIN
 40
1.5
 40
1.5
 40
1.5
 40
1.5
 40
1.5
 40
1.5
309
CELLMARGIN_END
 94
        6
 95
        1
302
GRIDFORMAT
  1
GRIDFORMAT_BEGIN
 90
        0
 91
        1
 62
     0
 92
       -2
340
14
 93
        0
 40
0.045
309
GRIDFORMAT_END
 95
        2
302
GRIDFORMAT
  1
GRIDFORMAT_BEGIN
 90
        0
 91
        1
 62
     0
 92
       -2
340
14
 93
        0
 40
0.045
309
GRIDFORMAT_END
 95
        4
302
GRIDFORMAT
  1
GRIDFORMAT_BEGIN
 90
        0
 91
        1
 62
     0
 92
       -2
340
14
 93
        0
 40
0.045
309
GRIDFORMAT_END
 95
        8
302
GRIDFORMAT
  1
GRIDFORMAT_BEGIN
 90
        0
 91
        1
 62
     0
 92
       -2
340
14
 93
        0
 40
0.045
309
GRIDFORMAT_END
 95
       16
302
GRIDFORMAT
  1
GRIDFORMAT_BEGIN
 90
        0
 91
        1
 62
     0
 92
       -2
340
14
 93
        0
 40
0.045
309
GRIDFORMAT_END
 95
       32
302
GRIDFORMAT
  1
GRIDFORMAT_BEGIN
 90
        0
 91
        1
 62
     0
 92
       -2
340
14
 93
        0
 40
0.045
309
GRIDFORMAT_END
309
TABLEFORMAT_END
  1
CELLSTYLE_BEGIN
 90
        2
 91
        1
300
_HEADER
309
CELLSTYLE_END
300
CELLSTYLE
  1
TABLEFORMAT_BEGIN
 90
        5
170
     1
 91
        0
 92
        0
 62
   257
 93
        1
300
CONTENTFORMAT
  1
CONTENTFORMAT_BEGIN
 90
        0
 91
        0
 92
        4
 93
        0
300

 40
0.0
140
1.0
 94
        2
 62
     0
340
11
144
4.5
309
CONTENTFORMAT_END
171
     1
301
MARGIN
  1
CELLMARGIN_BEGIN
 40
1.5
 40
1.5
 40
1.5
 40
1.5
 40
1.5
 40
1.5
309
CELLMARGIN_END
 94
        6
 95
        1
302
GRIDFORMAT
  1
GRIDFORMAT_BEGIN
 90
        0
 91
        1
 62
     0
 92
       -2
340
14
 93
        0
 40
0.045
309
GRIDFORMAT_END
 95
        2
302
GRIDFORMAT
  1
GRIDFORMAT_BEGIN
 90
        0
 91
        1
 62
     0
 92
       -2
340
14
 93
        0
 40
0.045
309
GRIDFORMAT_END
 95
        4
302
GRIDFORMAT
  1
GRIDFORMAT_BEGIN
 90
        0
 91
        1
 62
     0
 92
       -2
340
14
 93
        0
 40
0.045
309
GRIDFORMAT_END
 95
        8
302
GRIDFORMAT
  1
GRIDFORMAT_BEGIN
 90
        0
 91
        1
 62
     0
 92
       -2
340
14
 93
        0
 40
0.045
309
GRIDFORMAT_END
 95
       16
302
GRIDFORMAT
  1
GRIDFORMAT_BEGIN
 90
        0
 91
        1
 62
     0
 92
       -2
340
14
 93
        0
 40
0.045
309
GRIDFORMAT_END
 95
       32
302
GRIDFORMAT
  1
GRIDFORMAT_BEGIN
 90
        0
 91
        1
 62
     0
 92
       -2
340
14
 93
        0
 40
0.045
309
GRIDFORMAT_END
309
TABLEFORMAT_END
  1
CELLSTYLE_BEGIN
 90
        3
 91
        2
300
_DATA
309
CELLSTYLE_END
  0
ENDSEC
  0
EOF
