  0
SECTION
  2
HEADER
  9
$ACADVER
  1
AC1027
  9
$ACADMAINTVER
 70
   105
  9
$DWGCODEPAGE
  3
ANSI_1252
  9
$REQUIREDVERSIONS
160
                 0
  9
$LASTSAVEDBY
  1
andrea.zolin
  9
$INSBASE
 10
0.0
 20
0.0
 30
0.0
  9
$EXTMIN
 10
0.0
 20
0.0
 30
0.0
  9
$EXTMAX
 10
1189.0
 20
841.0
 30
0.0
  9
$LIMMIN
 10
0.0
 20
0.0
  9
$LIMMAX
 10
1189.0
 20
841.0
  9
$ORTHOMODE
 70
     0
  9
$REGENMODE
 70
     1
  9
$FILLMODE
 70
     1
  9
$QTEXTMODE
 70
     0
  9
$MIRRTEXT
 70
     1
  9
$LTSCALE
 40
65.395
  9
$ATTMODE
 70
     1
  9
$TEXTSIZE
 40
0.2
  9
$TRACEWID
 40
0.05
  9
$TEXTSTYLE
  7
STANDARD
  9
$CLAYER
  8
0
  9
$CELTYPE
  6
BYLAYER
  9
$CECOLOR
 62
   256
  9
$CELTSCALE
 40
1.0
  9
$DISPSILH
 70
     0
  9
$DIMSCALE
 40
1.0
  9
$DIMASZ
 40
2.5
  9
$DIMEXO
 40
0.75
  9
$DIMDLI
 40
45.182
  9
$DIMRND
 40
0.0
  9
$DIMDLE
 40
0.0
  9
$DIMEXE
 40
0.75
  9
$DIMTP
 40
0.01
  9
$DIMTM
 40
0.01
  9
$DIMTXT
 40
3.0
  9
$DIMCEN
 40
10.701
  9
$DIMTSZ
 40
0.0
  9
$DIMTOL
 70
     1
  9
$DIMLIM
 70
     0
  9
$DIMTIH
 70
     1
  9
$DIMTOH
 70
     1
  9
$DIMSE1
 70
     0
  9
$DIMSE2
 70
     0
  9
$DIMTAD
 70
     0
  9
$DIMZIN
 70
     0
  9
$DIMBLK
  1
CLOSED
  9
$DIMASO
 70
     1
  9
$DIMSHO
 70
     1
  9
$DIMPOST
  1

  9
$DIMAPOST
  1

  9
$DIMALT
 70
     0
  9
$DIMALTD
 70
     2
  9
$DIMALTF
 40
25.4
  9
$DIMLFAC
 40
1.0
  9
$DIMTOFL
 70
     0
  9
$DIMTVP
 40
0.0
  9
$DIMTIX
 70
     0
  9
$DIMSOXD
 70
     0
  9
$DIMSAH
 70
     0
  9
$DIMBLK1
  1

  9
$DIMBLK2
  1

  9
$DIMSTYLE
  2
STANDARD
  9
$DIMCLRD
 70
     0
  9
$DIMCLRE
 70
     0
  9
$DIMCLRT
 70
     0
  9
$DIMTFAC
 40
1.0
  9
$DIMGAP
 40
0.625
  9
$DIMJUST
 70
     0
  9
$DIMSD1
 70
     0
  9
$DIMSD2
 70
     0
  9
$DIMTOLJ
 70
     1
  9
$DIMTZIN
 70
     0
  9
$DIMALTZ
 70
     0
  9
$DIMALTTZ
 70
     0
  9
$DIMUPT
 70
     0
  9
$DIMDEC
 70
     4
  9
$DIMTDEC
 70
     4
  9
$DIMALTU
 70
     2
  9
$DIMALTTD
 70
     2
  9
$DIMTXSTY
  7
STANDARD
  9
$DIMAUNIT
 70
     0
  9
$DIMADEC
 70
     0
  9
$DIMALTRND
 40
0.0
  9
$DIMAZIN
 70
     0
  9
$DIMDSEP
 70
    46
  9
$DIMATFIT
 70
     3
  9
$DIMFRAC
 70
     0
  9
$DIMLDRBLK
  1

  9
$DIMLUNIT
 70
     2
  9
$DIMLWD
 70
    -2
  9
$DIMLWE
 70
    -2
  9
$DIMTMOVE
 70
     2
  9
$DIMFXL
 40
1.0
  9
$DIMFXLON
 70
     0
  9
$DIMJOGANG
 40
0.7853981633974483
  9
$DIMTFILL
 70
     0
  9
$DIMTFILLCLR
 70
     0
  9
$DIMARCSYM
 70
     0
  9
$DIMLTYPE
  6

  9
$DIMLTEX1
  6

  9
$DIMLTEX2
  6

  9
$DIMTXTDIRECTION
 70
     0
  9
$LUNITS
 70
     2
  9
$LUPREC
 70
     4
  9
$SKETCHINC
 40
0.1
  9
$FILLETRAD
 40
0.5
  9
$AUNITS
 70
     0
  9
$AUPREC
 70
     0
  9
$MENU
  1
.
  9
$ELEVATION
 40
0.0
  9
$PELEVATION
 40
0.0
  9
$THICKNESS
 40
0.0
  9
$LIMCHECK
 70
     0
  9
$CHAMFERA
 40
0.0
  9
$CHAMFERB
 40
0.0
  9
$CHAMFERC
 40
0.0
  9
$CHAMFERD
 40
0.0
  9
$SKPOLY
 70
     0
  9
$TDCREATE
 40
2447893.041666667
  9
$TDUCREATE
 40
0.0
  9
$TDUPDATE
 40
2458466.63580353
  9
$TDUUPDATE
 40
2458466.594136863
  9
$TDINDWG
 40
0.0002867477
  9
$TDUSRTIMER
 40
0.0002867477
  9
$USRTIMER
 70
     1
  9
$ANGBASE
 50
0.0
  9
$ANGDIR
 70
     0
  9
$PDMODE
 70
     3
  9
$PDSIZE
 40
0.3125
  9
$PLINEWID
 40
0.0
  9
$SPLFRAME
 70
     0
  9
$SPLINETYPE
 70
     6
  9
$SPLINESEGS
 70
     8
  9
$HANDSEED
  5
571
  9
$SURFTAB1
 70
     6
  9
$SURFTAB2
 70
     6
  9
$SURFTYPE
 70
     6
  9
$SURFU
 70
     6
  9
$SURFV
 70
     6
  9
$UCSBASE
  2

  9
$UCSNAME
  2

  9
$UCSORG
 10
0.0
 20
0.0
 30
0.0
  9
$UCSXDIR
 10
1.0
 20
0.0
 30
0.0
  9
$UCSYDIR
 10
0.0
 20
1.0
 30
0.0
  9
$UCSORTHOREF
  2

  9
$UCSORTHOVIEW
 70
     0
  9
$UCSORGTOP
 10
0.0
 20
0.0
 30
0.0
  9
$UCSORGBOTTOM
 10
0.0
 20
0.0
 30
0.0
  9
$UCSORGLEFT
 10
0.0
 20
0.0
 30
0.0
  9
$UCSORGRIGHT
 10
0.0
 20
0.0
 30
0.0
  9
$UCSORGFRONT
 10
0.0
 20
0.0
 30
0.0
  9
$UCSORGBACK
 10
0.0
 20
0.0
 30
0.0
  9
$PUCSBASE
  2

  9
$PUCSNAME
  2

  9
$PUCSORG
 10
0.0
 20
0.0
 30
0.0
  9
$PUCSXDIR
 10
1.0
 20
0.0
 30
0.0
  9
$PUCSYDIR
 10
0.0
 20
1.0
 30
0.0
  9
$PUCSORTHOREF
  2

  9
$PUCSORTHOVIEW
 70
     0
  9
$PUCSORGTOP
 10
0.0
 20
0.0
 30
0.0
  9
$PUCSORGBOTTOM
 10
0.0
 20
0.0
 30
0.0
  9
$PUCSORGLEFT
 10
0.0
 20
0.0
 30
0.0
  9
$PUCSORGRIGHT
 10
0.0
 20
0.0
 30
0.0
  9
$PUCSORGFRONT
 10
0.0
 20
0.0
 30
0.0
  9
$PUCSORGBACK
 10
0.0
 20
0.0
 30
0.0
  9
$USERI1
 70
     0
  9
$USERI2
 70
     0
  9
$USERI3
 70
     0
  9
$USERI4
 70
     0
  9
$USERI5
 70
     0
  9
$USERR1
 40
0.0
  9
$USERR2
 40
0.0
  9
$USERR3
 40
0.0
  9
$USERR4
 40
0.0
  9
$USERR5
 40
0.0
  9
$WORLDVIEW
 70
     1
  9
$SHADEDGE
 70
     3
  9
$SHADEDIF
 70
    70
  9
$TILEMODE
 70
     0
  9
$MAXACTVP
 70
    64
  9
$PINSBASE
 10
0.0
 20
0.0
 30
0.0
  9
$PLIMCHECK
 70
     0
  9
$PEXTMIN
 10
0.0
 20
0.0
 30
0.0
  9
$PEXTMAX
 10
1189.0
 20
841.0
 30
0.0
  9
$PLIMMIN
 10
-24.54280155642023
 20
-65.44747081712062
  9
$PLIMMAX
 10
1349.854085603113
 20
906.4474708171206
  9
$UNITMODE
 70
     0
  9
$VISRETAIN
 70
     1
  9
$PLINEGEN
 70
     0
  9
$PSLTSCALE
 70
     1
  9
$TREEDEPTH
 70
  3020
  9
$CMLSTYLE
  2
STANDARD
  9
$CMLJUST
 70
     0
  9
$CMLSCALE
 40
1.0
  9
$PROXYGRAPHICS
 70
     1
  9
$MEASUREMENT
 70
     1
  9
$CELWEIGHT
370
    -1
  9
$ENDCAPS
280
     0
  9
$JOINSTYLE
280
     0
  9
$LWDISPLAY
290
     0
  9
$INSUNITS
 70
     0
  9
$HYPERLINKBASE
  1

  9
$STYLESHEET
  1

  9
$XEDIT
290
     1
  9
$CEPSNTYPE
380
     0
  9
$PSTYLEMODE
290
     1
  9
$FINGERPRINTGUID
  2
{C9C2A52A-7513-42A0-8673-B1C0F799F4E8}
  9
$VERSIONGUID
  2
{FAEB1C32-E019-11D5-929B-00C0DF256EC4}
  9
$EXTNAMES
290
     1
  9
$PSVPSCALE
 40
0.0
  9
$OLESTARTUP
290
     0
  9
$SORTENTS
280
   127
  9
$INDEXCTL
280
     0
  9
$HIDETEXT
280
     1
  9
$XCLIPFRAME
280
     2
  9
$HALOGAP
280
     0
  9
$OBSCOLOR
 70
   257
  9
$OBSLTYPE
280
     0
  9
$INTERSECTIONDISPLAY
280
     0
  9
$INTERSECTIONCOLOR
 70
   257
  9
$DIMASSOC
280
     2
  9
$PROJECTNAME
  1

  9
$CAMERADISPLAY
290
     0
  9
$LENSLENGTH
 40
50.0
  9
$CAMERAHEIGHT
 40
0.0
  9
$STEPSPERSEC
 40
2.0
  9
$STEPSIZE
 40
6.0
  9
$3DDWFPREC
 40
2.0
  9
$PSOLWIDTH
 40
0.25
  9
$PSOLHEIGHT
 40
4.0
  9
$LOFTANG1
 40
1.570796326794897
  9
$LOFTANG2
 40
1.570796326794897
  9
$LOFTMAG1
 40
0.0
  9
$LOFTMAG2
 40
0.0
  9
$LOFTPARAM
 70
     7
  9
$LOFTNORMALS
280
     1
  9
$LATITUDE
 40
37.795
  9
$LONGITUDE
 40
-122.394
  9
$NORTHDIRECTION
 40
0.0
  9
$TIMEZONE
 70
 -8000
  9
$LIGHTGLYPHDISPLAY
280
     1
  9
$TILEMODELIGHTSYNCH
280
     1
  9
$SOLIDHIST
280
     0
  9
$SHOWHIST
280
     1
  9
$DWFFRAME
280
     2
  9
$DGNFRAME
280
     2
  9
$REALWORLDSCALE
290
     1
  9
$INTERFERECOLOR
 62
   256
  9
$CSHADOW
280
     0
  9
$SHADOWPLANELOCATION
 40
0.0
  0
ENDSEC
  0
SECTION
  2
CLASSES
  0
CLASS
  1
ACDBDICTIONARYWDFLT
  2
AcDbDictionaryWithDefault
  3
ObjectDBX Classes
 90
        0
 91
        4
280
     0
281
     0
  0
CLASS
  1
SCALE
  2
AcDbScale
  3
ObjectDBX Classes
 90
     1153
 91
        4
280
     0
281
     0
  0
CLASS
  1
VISUALSTYLE
  2
AcDbVisualStyle
  3
ObjectDBX Classes
 90
     4095
 91
        4
280
     0
281
     0
  0
CLASS
  1
MATERIAL
  2
AcDbMaterial
  3
ObjectDBX Classes
 90
     1153
 91
        4
280
     0
281
     0
  0
CLASS
  1
TABLESTYLE
  2
AcDbTableStyle
  3
ObjectDBX Classes
 90
     4095
 91
        4
280
     0
281
     0
  0
CLASS
  1
MLEADERSTYLE
  2
AcDbMLeaderStyle
  3
ACDB_MLEADERSTYLE_CLASS
 90
     4095
 91
        4
280
     0
281
     0
  0
CLASS
  1
DICTIONARYVAR
  2
AcDbDictionaryVar
  3
ObjectDBX Classes
 90
        0
 91
        4
280
     0
281
     0
  0
CLASS
  1
CELLSTYLEMAP
  2
AcDbCellStyleMap
  3
ObjectDBX Classes
 90
     1152
 91
        4
280
     0
281
     0
  0
ENDSEC
  0
SECTION
  2
TABLES
  0
TABLE
  2
VPORT
  5
8
330
0
100
AcDbSymbolTable
 70
     1
  0
VPORT
  5
1F4
330
8
100
AcDbSymbolTableRecord
100
AcDbViewportTableRecord
  2
*ACTIVE
 70
     0
 10
0.0
 20
0.0
 11
1.0
 21
1.0
 12
594.5
 22
420.5
 13
0.0
 23
0.0
 14
1.0
 24
1.0
 15
0.0
 25
0.0
 16
0.0
 26
0.0
 36
1.0
 17
0.0
 27
0.0
 37
0.0
 40
841.0
 41
1.4137931034
 42
50.0
 43
0.0
 44
0.0
 50
0.0
 51
0.0
 71
     0
 72
   100
 73
     1
 74
     1
 75
     0
 76
     0
 77
     0
 78
     0
281
     0
 65
     1
110
0.0
120
0.0
130
0.0
111
1.0
121
0.0
131
0.0
112
0.0
122
1.0
132
0.0
 79
     0
146
0.0
348
54A
 60
     3
 61
     5
292
     1
282
     1
141
0.0
142
0.0
 63
   256
  0
ENDTAB
  0
TABLE
  2
LTYPE
  5
5
330
0
100
AcDbSymbolTable
 70
     6
  0
LTYPE
  5
14
330
5
100
AcDbSymbolTableRecord
100
AcDbLinetypeTableRecord
  2
BYBLOCK
 70
     0
  3

 72
    65
 73
     0
 40
0.0
  0
LTYPE
  5
15
330
5
100
AcDbSymbolTableRecord
100
AcDbLinetypeTableRecord
  2
BYLAYER
 70
     0
  3

 72
    65
 73
     0
 40
0.0
  0
LTYPE
  5
16
330
5
100
AcDbSymbolTableRecord
100
AcDbLinetypeTableRecord
  2
CONTINUOUS
 70
     0
  3
Solid line
 72
    65
 73
     0
 40
0.0
  0
LTYPE
  5
1F5
330
5
100
AcDbSymbolTableRecord
100
AcDbLinetypeTableRecord
  2
CENTER
 70
     0
  3
____ _ ____ _ ____ _ ____ _ ____ _ ____ _ ____
 72
    65
 73
     4
 40
0.6
 49
0.375
 74
     0
 49
-0.075
 74
     0
 49
0.075
 74
     0
 49
-0.075
 74
     0
  0
LTYPE
  5
1F6
330
5
100
AcDbSymbolTableRecord
100
AcDbLinetypeTableRecord
  2
HIDDEN
 70
     0
  3
- - - - - - - - - - - - - - - - - - - -
 72
    65
 73
     2
 40
0.2
 49
0.1
 74
     0
 49
-0.1
 74
     0
  0
LTYPE
  5
1F7
330
5
100
AcDbSymbolTableRecord
100
AcDbLinetypeTableRecord
  2
PHANTOM
 70
     0
  3
_____ _ _ _____ _ _ _____ _ _ _____
 72
    65
 73
     6
 40
0.8
 49
0.45
 74
     0
 49
-0.05
 74
     0
 49
0.1
 74
     0
 49
-0.05
 74
     0
 49
0.1
 74
     0
 49
-0.05
 74
     0
  0
LTYPE
  5
1F8
330
5
100
AcDbSymbolTableRecord
100
AcDbLinetypeTableRecord
  2
DOT
 70
     0
  3
. . . . . . . . . . . . . . . . . . . .
 72
    65
 73
     2
 40
0.2
 49
0.1
 74
     0
 49
-0.1
 74
     0
  0
LTYPE
  5
1F9
330
5
100
AcDbSymbolTableRecord
100
AcDbLinetypeTableRecord
  2
DASHED
 70
     0
  3
- - - - - - - - - - - - - - - - - - - -
 72
    65
 73
     2
 40
0.2
 49
0.1
 74
     0
 49
-0.1
 74
     0
  0
ENDTAB
  0
TABLE
  2
LAYER
  5
2
330
0
100
AcDbSymbolTable
 70
    41
  0
LAYER
  5
10
330
2
100
AcDbSymbolTableRecord
100
AcDbLayerTableRecord
  2
0
 70
     0
 62
     7
  6
CONTINUOUS
370
    -3
390
51F
347
561
348
0
  0
LAYER
  5
1FA
330
2
100
AcDbSymbolTableRecord
100
AcDbLayerTableRecord
  2
DEFAULT_1
 70
     0
 62
     7
  6
CENTER
370
    -3
390
51F
347
561
348
0
  0
LAYER
  5
1FB
330
2
100
AcDbSymbolTableRecord
100
AcDbLayerTableRecord
  2
DEFAULT_2
 70
     0
 62
     8
  6
HIDDEN
370
    -3
390
51F
347
561
348
0
  0
LAYER
  5
1FC
330
2
100
AcDbSymbolTableRecord
100
AcDbLayerTableRecord
  2
DEFAULT_3
 70
     0
 62
     7
  6
PHANTOM
370
    -3
390
51F
347
561
348
0
  0
LAYER
  5
1FD
330
2
100
AcDbSymbolTableRecord
100
AcDbLayerTableRecord
  2
01_ALL_DTM_PLN
 70
     0
 62
     7
  6
CONTINUOUS
370
    -3
390
51F
347
561
348
0
  0
LAYER
  5
1FE
330
2
100
AcDbSymbolTableRecord
100
AcDbLayerTableRecord
  2
01__ASM_ALL_DTM_PLN
 70
     0
 62
     7
  6
CONTINUOUS
370
    -3
390
51F
347
561
348
0
  0
LAYER
  5
1FF
330
2
100
AcDbSymbolTableRecord
100
AcDbLayerTableRecord
  2
01__ASM_DEF_DTM_PLN
 70
     0
 62
     7
  6
CONTINUOUS
370
    -3
390
51F
347
561
348
0
  0
LAYER
  5
200
330
2
100
AcDbSymbolTableRecord
100
AcDbLayerTableRecord
  2
01___PRT_ALL_DTM_PLN
 70
     0
 62
     7
  6
CONTINUOUS
370
    -3
390
51F
347
561
348
0
  0
LAYER
  5
201
330
2
100
AcDbSymbolTableRecord
100
AcDbLayerTableRecord
  2
01___PRT_DEF_DTM_PLN
 70
     0
 62
     7
  6
CONTINUOUS
370
    -3
390
51F
347
561
348
0
  0
LAYER
  5
202
330
2
100
AcDbSymbolTableRecord
100
AcDbLayerTableRecord
  2
02_ALL_AXES
 70
     0
 62
     7
  6
CONTINUOUS
370
    -3
390
51F
347
561
348
0
  0
LAYER
  5
203
330
2
100
AcDbSymbolTableRecord
100
AcDbLayerTableRecord
  2
02__ASM_ALL_AXES
 70
     0
 62
     7
  6
CONTINUOUS
370
    -3
390
51F
347
561
348
0
  0
LAYER
  5
204
330
2
100
AcDbSymbolTableRecord
100
AcDbLayerTableRecord
  2
02___PRT_ALL_AXES
 70
     0
 62
     7
  6
CONTINUOUS
370
    -3
390
51F
347
561
348
0
  0
LAYER
  5
205
330
2
100
AcDbSymbolTableRecord
100
AcDbLayerTableRecord
  2
03_ALL_CURVES
 70
     0
 62
     7
  6
CONTINUOUS
370
    -3
390
51F
347
561
348
0
  0
LAYER
  5
206
330
2
100
AcDbSymbolTableRecord
100
AcDbLayerTableRecord
  2
03__ASM_ALL_CURVES
 70
     0
 62
     7
  6
CONTINUOUS
370
    -3
390
51F
347
561
348
0
  0
LAYER
  5
207
330
2
100
AcDbSymbolTableRecord
100
AcDbLayerTableRecord
  2
03___PRT_ALL_CURVES
 70
     0
 62
     7
  6
CONTINUOUS
370
    -3
390
51F
347
561
348
0
  0
LAYER
  5
208
330
2
100
AcDbSymbolTableRecord
100
AcDbLayerTableRecord
  2
04_ALL_DTM_PNT
 70
     0
 62
     7
  6
CONTINUOUS
370
    -3
390
51F
347
561
348
0
  0
LAYER
  5
209
330
2
100
AcDbSymbolTableRecord
100
AcDbLayerTableRecord
  2
04__ASM_ALL_DTM_PNT
 70
     0
 62
     7
  6
CONTINUOUS
370
    -3
390
51F
347
561
348
0
  0
LAYER
  5
20A
330
2
100
AcDbSymbolTableRecord
100
AcDbLayerTableRecord
  2
04___PRT_ALL_DTM_PNT
 70
     0
 62
     7
  6
CONTINUOUS
370
    -3
390
51F
347
561
348
0
  0
LAYER
  5
20B
330
2
100
AcDbSymbolTableRecord
100
AcDbLayerTableRecord
  2
05_ALL_DTM_CSYS
 70
     0
 62
     7
  6
CONTINUOUS
370
    -3
390
51F
347
561
348
0
  0
LAYER
  5
20C
330
2
100
AcDbSymbolTableRecord
100
AcDbLayerTableRecord
  2
05__ASM_ALL_DTM_CSYS
 70
     0
 62
     7
  6
CONTINUOUS
370
    -3
390
51F
347
561
348
0
  0
LAYER
  5
20D
330
2
100
AcDbSymbolTableRecord
100
AcDbLayerTableRecord
  2
05__ASM_DEF_DTM_CSYS
 70
     0
 62
     7
  6
CONTINUOUS
370
    -3
390
51F
347
561
348
0
  0
LAYER
  5
20E
330
2
100
AcDbSymbolTableRecord
100
AcDbLayerTableRecord
  2
05___PRT_ALL_DTM_CSYS
 70
     0
 62
     7
  6
CONTINUOUS
370
    -3
390
51F
347
561
348
0
  0
LAYER
  5
20F
330
2
100
AcDbSymbolTableRecord
100
AcDbLayerTableRecord
  2
05___PRT_DEF_DTM_CSYS
 70
     0
 62
     7
  6
CONTINUOUS
370
    -3
390
51F
347
561
348
0
  0
LAYER
  5
210
330
2
100
AcDbSymbolTableRecord
100
AcDbLayerTableRecord
  2
06_ALL_SURFS
 70
     0
 62
     7
  6
CONTINUOUS
370
    -3
390
51F
347
561
348
0
  0
LAYER
  5
211
330
2
100
AcDbSymbolTableRecord
100
AcDbLayerTableRecord
  2
06__ASM_ALL_SURFS
 70
     0
 62
     7
  6
CONTINUOUS
370
    -3
390
51F
347
561
348
0
  0
LAYER
  5
212
330
2
100
AcDbSymbolTableRecord
100
AcDbLayerTableRecord
  2
06___PRT_ALL_SURFS
 70
     0
 62
     7
  6
CONTINUOUS
370
    -3
390
51F
347
561
348
0
  0
LAYER
  5
213
330
2
100
AcDbSymbolTableRecord
100
AcDbLayerTableRecord
  2
07__ASM_ALL_SKELETONS
 70
     0
 62
     7
  6
CONTINUOUS
370
    -3
390
51F
347
561
348
0
  0
LAYER
  5
214
330
2
100
AcDbSymbolTableRecord
100
AcDbLayerTableRecord
  2
1_ALL_PLANES
 70
     0
 62
     7
  6
CONTINUOUS
370
    -3
390
51F
347
561
348
0
  0
LAYER
  5
215
330
2
100
AcDbSymbolTableRecord
100
AcDbLayerTableRecord
  2
2_ALL_CSYS
 70
     0
 62
     7
  6
CONTINUOUS
370
    -3
390
51F
347
561
348
0
  0
LAYER
  5
216
330
2
100
AcDbSymbolTableRecord
100
AcDbLayerTableRecord
  2
3_ALL_AXES
 70
     0
 62
     7
  6
CONTINUOUS
370
    -3
390
51F
347
561
348
0
  0
LAYER
  5
217
330
2
100
AcDbSymbolTableRecord
100
AcDbLayerTableRecord
  2
4_ALL_POINTS
 70
     0
 62
     7
  6
CONTINUOUS
370
    -3
390
51F
347
561
348
0
  0
LAYER
  5
218
330
2
100
AcDbSymbolTableRecord
100
AcDbLayerTableRecord
  2
5_ALL_CURVES
 70
     0
 62
     7
  6
CONTINUOUS
370
    -3
390
51F
347
561
348
0
  0
LAYER
  5
219
330
2
100
AcDbSymbolTableRecord
100
AcDbLayerTableRecord
  2
5__COSTRUZIONE
 70
     0
 62
     7
  6
CONTINUOUS
370
    -3
390
51F
347
561
348
0
  0
LAYER
  5
21A
330
2
100
AcDbSymbolTableRecord
100
AcDbLayerTableRecord
  2
6_ALL_SURFS
 70
     0
 62
     7
  6
CONTINUOUS
370
    -3
390
51F
347
561
348
0
  0
LAYER
  5
21B
330
2
100
AcDbSymbolTableRecord
100
AcDbLayerTableRecord
  2
7_ALL_FEATURES
 70
     0
 62
     7
  6
CONTINUOUS
370
    -3
390
51F
347
561
348
0
  0
LAYER
  5
21C
330
2
100
AcDbSymbolTableRecord
100
AcDbLayerTableRecord
  2
8_ALL_NOTES_BALLOONS_SYMBOLS_GT
 70
     0
 62
     7
  6
CONTINUOUS
370
    -3
390
51F
347
561
348
0
  0
LAYER
  5
21D
330
2
100
AcDbSymbolTableRecord
100
AcDbLayerTableRecord
  2
9_SOLID
 70
     0
 62
     7
  6
CONTINUOUS
370
    -3
390
51F
347
561
348
0
  0
LAYER
  5
21E
330
2
100
AcDbSymbolTableRecord
100
AcDbLayerTableRecord
  2
INTFCLR_2
 70
     0
 62
     7
  6
CONTINUOUS
370
    -3
390
51F
347
561
348
0
  0
LAYER
  5
21F
330
2
100
AcDbSymbolTableRecord
100
AcDbLayerTableRecord
  2
INTFCLR_4
 70
     0
 62
     7
  6
CONTINUOUS
370
    -3
390
51F
347
561
348
0
  0
LAYER
  5
220
330
2
100
AcDbSymbolTableRecord
100
AcDbLayerTableRecord
  2
INTF_RED
 70
     0
 62
     7
  6
CONTINUOUS
370
    -3
390
51F
347
561
348
0
  0
LAYER
  5
221
330
2
100
AcDbSymbolTableRecord
100
AcDbLayerTableRecord
  2
XXX_SOLIDO
 70
     0
 62
     7
  6
CONTINUOUS
370
    -3
390
51F
347
561
348
0
  0
ENDTAB
  0
TABLE
  2
STYLE
  5
3
330
0
100
AcDbSymbolTable
 70
     3
  0
STYLE
  5
11
330
3
100
AcDbSymbolTableRecord
100
AcDbTextStyleTableRecord
  2
STANDARD
 70
     0
 40
0.0
 41
0.85
 50
0.0
 71
     0
 42
0.2
  3
txt
  4

  0
STYLE
  5
222
330
3
100
AcDbSymbolTableRecord
100
AcDbTextStyleTableRecord
  2
TEXTSTYLE_1
 70
     0
 40
0.0
 41
0.8
 50
0.0
 71
     0
 42
0.2
  3
gdt
  4

  0
STYLE
  5
223
330
3
100
AcDbSymbolTableRecord
100
AcDbTextStyleTableRecord
  2
TEXTSTYLE_2
 70
     0
 40
0.0
 41
2.0
 50
0.0
 71
     0
 42
0.2
  3
txt
  4

  0
ENDTAB
  0
TABLE
  2
VIEW
  5
6
330
0
100
AcDbSymbolTable
 70
     0
  0
ENDTAB
  0
TABLE
  2
UCS
  5
7
330
0
100
AcDbSymbolTable
 70
     0
  0
ENDTAB
  0
TABLE
  2
APPID
  5
9
330
0
100
AcDbSymbolTable
 70
     1
  0
APPID
  5
224
330
9
100
AcDbSymbolTableRecord
100
AcDbRegAppTableRecord
  2
ACAD
 70
     0
  0
ENDTAB
  0
TABLE
  2
DIMSTYLE
  5
A
330
0
100
AcDbSymbolTable
 70
     4
100
AcDbDimStyleTable
  0
DIMSTYLE
105
22C
330
A
100
AcDbSymbolTableRecord
100
AcDbDimStyleTableRecord
  2
STANDARD
 70
     0
 41
2.5
 42
0.75
 44
0.75
 47
0.01
 48
0.01
 71
     1
 73
     0
 74
     0
 77
     1
 78
     8
 79
     2
140
3.0
147
0.625
171
     1
178
     0
179
     2
271
     2
272
     2
284
     8
340
11
341
225
342
225
343
225
344
225
  0
DIMSTYLE
105
22D
330
A
100
AcDbSymbolTableRecord
100
AcDbDimStyleTableRecord
  2
DIMSTYLE_1
 70
     0
 41
2.5
 42
0.75
 44
0.75
 47
1.2
 48
1.2
 73
     0
 74
     0
 77
     1
 78
     8
 79
     2
140
3.0
147
0.75
171
     1
178
     0
271
     0
272
     0
284
     8
340
11
341
225
342
225
343
225
344
225
  0
DIMSTYLE
105
22E
330
A
100
AcDbSymbolTableRecord
100
AcDbDimStyleTableRecord
  2
DIMSTYLE_2
 70
     0
 41
2.5
 42
0.75
 44
0.75
 47
0.3
 48
0.3
 73
     0
 74
     0
 77
     1
 78
     8
 79
     2
140
3.0
147
0.75
171
     1
178
     0
271
     0
272
     0
284
     8
340
11
341
225
342
225
343
225
344
225
  0
DIMSTYLE
105
22F
330
A
100
AcDbSymbolTableRecord
100
AcDbDimStyleTableRecord
  2
DIMSTYLE_3
 70
     0
 41
2.5
 42
0.75
 44
0.75
 47
0.3
 48
0.3
 73
     0
 74
     0
 77
     1
 78
     8
 79
     2
140
3.0
147
0.75
171
     1
178
     0
179
     2
271
     2
272
     2
284
     8
340
11
341
225
342
225
343
225
344
225
  0
ENDTAB
  0
TABLE
  2
BLOCK_RECORD
  5
1
330
0
100
AcDbSymbolTable
 70
     7
  0
BLOCK_RECORD
  5
1F
330
1
100
AcDbSymbolTableRecord
100
AcDbBlockTableRecord
  2
*MODEL_SPACE
340
543
 70
     0
280
     1
281
     0
  0
BLOCK_RECORD
  5
1B
330
1
100
AcDbSymbolTableRecord
100
AcDbBlockTableRecord
  2
*PAPER_SPACE
340
544
 70
     0
280
     1
281
     0
  0
BLOCK_RECORD
  5
225
330
1
100
AcDbSymbolTableRecord
100
AcDbBlockTableRecord
  2
_CLOSED
340
0
102
{BLKREFS
331
282
331
283
331
28B
331
28C
331
294
331
295
331
29D
331
29E
102
}
 70
     0
280
     1
281
     0
  0
BLOCK_RECORD
  5
226
330
1
100
AcDbSymbolTableRecord
100
AcDbBlockTableRecord
  2
*D1
340
0
 70
     0
280
     1
281
     0
  0
BLOCK_RECORD
  5
227
330
1
100
AcDbSymbolTableRecord
100
AcDbBlockTableRecord
  2
*D2
340
0
 70
     0
280
     1
281
     0
  0
BLOCK_RECORD
  5
228
330
1
100
AcDbSymbolTableRecord
100
AcDbBlockTableRecord
  2
*D3
340
0
 70
     0
280
     1
281
     0
  0
BLOCK_RECORD
  5
229
330
1
100
AcDbSymbolTableRecord
100
AcDbBlockTableRecord
  2
*D4
340
0
 70
     0
280
     1
281
     0
  0
BLOCK_RECORD
  5
22A
330
1
100
AcDbSymbolTableRecord
100
AcDbBlockTableRecord
  2
LOGO2_BL1
340
0
102
{BLKREFS
331
507
102
}
 70
     0
280
     1
281
     0
  0
BLOCK_RECORD
  5
22B
330
1
100
AcDbSymbolTableRecord
100
AcDbBlockTableRecord
  2
PROIEZIONE_EU_BL0
340
0
102
{BLKREFS
331
504
102
}
 70
     0
280
     1
281
     0
  0
ENDTAB
  0
ENDSEC
  0
SECTION
  2
BLOCKS
  0
BLOCK
  5
20
330
1F
100
AcDbEntity
  8
0
100
AcDbBlockBegin
  2
*MODEL_SPACE
 70
     0
 10
0.0
 20
0.0
 30
0.0
  3
*MODEL_SPACE
  1

  0
ENDBLK
  5
21
330
1F
100
AcDbEntity
  8
0
100
AcDbBlockEnd
  0
BLOCK
  5
1C
330
1B
100
AcDbEntity
 67
     1
  8
0
100
AcDbBlockBegin
  2
*PAPER_SPACE
 70
     0
 10
0.0
 20
0.0
 30
0.0
  3
*PAPER_SPACE
  1

  0
ENDBLK
  5
1D
330
1B
100
AcDbEntity
 67
     1
  8
0
100
AcDbBlockEnd
  0
BLOCK
  5
276
330
225
100
AcDbEntity
  8
0
100
AcDbBlockBegin
  2
_CLOSED
 70
     0
 10
0.0
 20
0.0
 30
0.0
  3
_CLOSED
  1

  0
LINE
  5
277
330
225
100
AcDbEntity
  8
0
  6
ByBlock
 62
     0
100
AcDbLine
 10
0.0
 20
0.0
 30
0.0
 11
-1.0
 21
0.2
 31
0.0
  0
LINE
  5
278
330
225
100
AcDbEntity
  8
0
  6
ByBlock
 62
     0
100
AcDbLine
 10
-1.0
 20
0.2
 30
0.0
 11
-1.0
 21
-0.2
 31
0.0
  0
LINE
  5
279
330
225
100
AcDbEntity
  8
0
  6
ByBlock
 62
     0
100
AcDbLine
 10
-1.0
 20
-0.2
 30
0.0
 11
0.0
 21
0.0
 31
0.0
  0
LINE
  5
27A
330
225
100
AcDbEntity
  8
0
  6
ByBlock
 62
     0
100
AcDbLine
 10
-1.0
 20
0.0
 30
0.0
 11
0.0
 21
0.0
 31
0.0
  0
ENDBLK
  5
27B
330
225
100
AcDbEntity
  8
0
  6
ByBlock
 62
     0
100
AcDbBlockEnd
  0
BLOCK
  5
27C
330
226
100
AcDbEntity
  8
0
100
AcDbBlockBegin
  2
*D1
 70
     1
 10
0.0
 20
0.0
 30
0.0
  3
*D1
  1

  0
MTEXT
  5
27D
330
226
100
AcDbEntity
  8
0
  6
Continuous
 62
     2
100
AcDbMText
 10
530.9737103694
 20
410.334187984
 30
0.0
 40
3.0
 41
12.2142857143
 46
0.0
 71
     2
 72
     1
  1
1014
 73
     1
 44
1.0
  0
LINE
  5
27E
330
226
100
AcDbEntity
  8
0
  6
Continuous
 62
     2
100
AcDbLine
 10
1037.9737103694
 20
405.834187984
 30
0.0
 11
1037.9737103694
 21
407.4739321089
 31
0.0
  0
LINE
  5
27F
330
226
100
AcDbEntity
  8
0
  6
Continuous
 62
     2
100
AcDbLine
 10
23.9737103694
 20
405.834187984
 30
0.0
 11
23.9737103694
 21
408.091600194
 31
0.0
  0
LINE
  5
280
330
226
100
AcDbEntity
  8
0
  6
Continuous
 62
     2
100
AcDbLine
 10
1037.9737103694
 20
406.584187984
 30
0.0
 11
530.9737103694
 21
406.584187984
 31
0.0
  0
LINE
  5
281
330
226
100
AcDbEntity
  8
0
  6
Continuous
 62
     2
100
AcDbLine
 10
23.9737103694
 20
406.584187984
 30
0.0
 11
530.9737103694
 21
406.584187984
 31
0.0
  0
INSERT
  5
282
330
226
100
AcDbEntity
  8
0
  6
Continuous
 62
     2
100
AcDbBlockReference
  2
_CLOSED
 10
1037.9737103694
 20
406.584187984
 30
0.0
 41
2.5
 42
2.5
 43
2.5
  0
INSERT
  5
283
330
226
100
AcDbEntity
  8
0
  6
Continuous
 62
     2
100
AcDbBlockReference
  2
_CLOSED
 10
23.9737103694
 20
406.584187984
 30
0.0
 41
2.5
 42
2.5
 43
2.5
 50
180.0
  0
ENDBLK
  5
284
330
226
100
AcDbEntity
  8
0
  6
ByBlock
 62
     0
100
AcDbBlockEnd
  0
BLOCK
  5
285
330
227
100
AcDbEntity
  8
0
100
AcDbBlockBegin
  2
*D2
 70
     1
 10
0.0
 20
0.0
 30
0.0
  3
*D2
  1

  0
MTEXT
  5
286
330
227
100
AcDbEntity
  8
0
  6
Continuous
 62
     2
100
AcDbMText
 10
1052.6150905651
 20
199.5961153427
 30
0.0
 40
3.0
 41
7.0714285714
 46
0.0
 71
     2
 72
     1
  1
42
 11
0.0
 21
1.0
 31
0.0
 73
     1
 44
1.0
  0
LINE
  5
287
330
227
100
AcDbEntity
  8
0
  6
Continuous
 62
     2
100
AcDbLine
 10
1048.2639421522
 20
178.3961153427
 30
0.0
 11
1057.1150905651
 21
178.3961153427
 31
0.0
  0
LINE
  5
288
330
227
100
AcDbEntity
  8
0
  6
Continuous
 62
     2
100
AcDbLine
 10
1048.2639421522
 20
220.7961153427
 30
0.0
 11
1057.1150905651
 21
220.7961153427
 31
0.0
  0
LINE
  5
289
330
227
100
AcDbEntity
  8
0
  6
Continuous
 62
     2
100
AcDbLine
 10
1056.3650905651
 20
178.3961153427
 30
0.0
 11
1056.3650905651
 21
199.5961153427
 31
0.0
  0
LINE
  5
28A
330
227
100
AcDbEntity
  8
0
  6
Continuous
 62
     2
100
AcDbLine
 10
1056.3650905651
 20
220.7961153427
 30
0.0
 11
1056.3650905651
 21
199.5961153427
 31
0.0
  0
INSERT
  5
28B
330
227
100
AcDbEntity
  8
0
  6
Continuous
 62
     2
100
AcDbBlockReference
  2
_CLOSED
 10
1056.3650905651
 20
178.3961153427
 30
0.0
 41
2.5
 42
2.5
 43
2.5
 50
270.0
  0
INSERT
  5
28C
330
227
100
AcDbEntity
  8
0
  6
Continuous
 62
     2
100
AcDbBlockReference
  2
_CLOSED
 10
1056.3650905651
 20
220.7961153427
 30
0.0
 41
2.5
 42
2.5
 43
2.5
 50
90.0
  0
ENDBLK
  5
28D
330
227
100
AcDbEntity
  8
0
  6
ByBlock
 62
     0
100
AcDbBlockEnd
  0
BLOCK
  5
28E
330
228
100
AcDbEntity
  8
0
100
AcDbBlockBegin
  2
*D3
 70
     1
 10
0.0
 20
0.0
 30
0.0
  3
*D3
  1

  0
MTEXT
  5
28F
330
228
100
AcDbEntity
  8
0
  6
Continuous
 62
     2
100
AcDbMText
 10
1164.1767642051
 20
346.1696261805
 30
0.0
 40
3.0
 41
7.0714285714
 46
0.0
 71
     2
 72
     1
  1
84
 11
0.0
 21
1.0
 31
0.0
 73
     1
 44
1.0
  0
LINE
  5
290
330
228
100
AcDbEntity
  8
0
  6
Continuous
 62
     2
100
AcDbLine
 10
1165.610048698
 20
390.5760930809
 30
0.0
 11
1168.6767642051
 21
390.5760930809
 31
0.0
  0
LINE
  5
291
330
228
100
AcDbEntity
  8
0
  6
Continuous
 62
     2
100
AcDbLine
 10
1165.4835502741
 20
307.0760930809
 30
0.0
 11
1168.6767642051
 21
307.0760930809
 31
0.0
  0
LINE
  5
292
330
228
100
AcDbEntity
  8
0
  6
Continuous
 62
     2
100
AcDbLine
 10
1167.9267642051
 20
390.5760930809
 30
0.0
 11
1167.9267642051
 21
348.8260930809
 31
0.0
  0
LINE
  5
293
330
228
100
AcDbEntity
  8
0
  6
Continuous
 62
     2
100
AcDbLine
 10
1167.9267642051
 20
307.0760930809
 30
0.0
 11
1167.9267642051
 21
348.8260930809
 31
0.0
  0
INSERT
  5
294
330
228
100
AcDbEntity
  8
0
  6
Continuous
 62
     2
100
AcDbBlockReference
  2
_CLOSED
 10
1167.9267642051
 20
390.5760930809
 30
0.0
 41
2.5
 42
2.5
 43
2.5
 50
90.0
  0
INSERT
  5
295
330
228
100
AcDbEntity
  8
0
  6
Continuous
 62
     2
100
AcDbBlockReference
  2
_CLOSED
 10
1167.9267642051
 20
307.0760930809
 30
0.0
 41
2.5
 42
2.5
 43
2.5
 50
270.0
  0
ENDBLK
  5
296
330
228
100
AcDbEntity
  8
0
  6
ByBlock
 62
     0
100
AcDbBlockEnd
  0
BLOCK
  5
297
330
229
100
AcDbEntity
  8
0
100
AcDbBlockBegin
  2
*D4
 70
     1
 10
0.0
 20
0.0
 30
0.0
  3
*D4
  1

  0
MTEXT
  5
298
330
229
100
AcDbEntity
  8
0
  6
Continuous
 62
     2
100
AcDbMText
 10
1062.4034112062
 20
199.5961153427
 30
0.0
 40
3.0
 41
11.8928571429
 46
0.0
 71
     2
 72
     1
  1
93,1
 11
0.0
 21
1.0
 31
0.0
 73
     1
 44
1.0
  0
LINE
  5
299
330
229
100
AcDbEntity
  8
0
  6
Continuous
 62
     2
100
AcDbLine
 10
1048.2639421522
 20
153.0461153427
 30
0.0
 11
1066.9034112062
 21
153.0461153427
 31
0.0
  0
LINE
  5
29A
330
229
100
AcDbEntity
  8
0
  6
Continuous
 62
     2
100
AcDbLine
 10
1047.0512563154
 20
246.1461153427
 30
0.0
 11
1066.9034112062
 21
246.1461153427
 31
0.0
  0
LINE
  5
29B
330
229
100
AcDbEntity
  8
0
  6
Continuous
 62
     2
100
AcDbLine
 10
1066.1534112062
 20
153.0461153427
 30
0.0
 11
1066.1534112062
 21
199.5961153427
 31
0.0
  0
LINE
  5
29C
330
229
100
AcDbEntity
  8
0
  6
Continuous
 62
     2
100
AcDbLine
 10
1066.1534112062
 20
246.1461153427
 30
0.0
 11
1066.1534112062
 21
199.5961153427
 31
0.0
  0
INSERT
  5
29D
330
229
100
AcDbEntity
  8
0
  6
Continuous
 62
     2
100
AcDbBlockReference
  2
_CLOSED
 10
1066.1534112062
 20
153.0461153427
 30
0.0
 41
2.5
 42
2.5
 43
2.5
 50
270.0
  0
INSERT
  5
29E
330
229
100
AcDbEntity
  8
0
  6
Continuous
 62
     2
100
AcDbBlockReference
  2
_CLOSED
 10
1066.1534112062
 20
246.1461153427
 30
0.0
 41
2.5
 42
2.5
 43
2.5
 50
90.0
  0
ENDBLK
  5
29F
330
229
100
AcDbEntity
  8
0
  6
ByBlock
 62
     0
100
AcDbBlockEnd
  0
BLOCK
  5
230
330
22A
100
AcDbEntity
  8
0
100
AcDbBlockBegin
  2
LOGO2_BL1
 70
     0
 10
1064.0060466293
 20
38.3183341147
 30
0.0
  3
LOGO2_BL1
  1

  0
LINE
  5
231
330
22A
100
AcDbEntity
  8
0
  6
Continuous
 62
     7
100
AcDbLine
 10
1055.7489718575
 20
41.5138254536
 30
0.0
 11
1054.4446309282
 21
41.5138254536
 31
0.0
  0
LINE
  5
232
330
22A
100
AcDbEntity
  8
0
  6
Continuous
 62
     7
100
AcDbLine
 10
1054.4446309282
 20
41.5138254536
 30
0.0
 11
1054.4446309282
 21
31.0547593937
 31
0.0
  0
LINE
  5
233
330
22A
100
AcDbEntity
  8
0
  6
Continuous
 62
     7
100
AcDbLine
 10
1054.4446309282
 20
31.0547593937
 30
0.0
 11
1058.9256858164
 21
31.0547593937
 31
0.0
  0
LINE
  5
234
330
22A
100
AcDbEntity
  8
0
  6
Continuous
 62
     7
100
AcDbLine
 10
1058.9256858164
 20
31.0547593937
 30
0.0
 11
1058.9256858164
 21
32.2476137188
 31
0.0
  0
LINE
  5
235
330
22A
100
AcDbEntity
  8
0
  6
Continuous
 62
     7
100
AcDbLine
 10
1058.9256858164
 20
32.2476137188
 30
0.0
 11
1055.7489718575
 21
32.2476137188
 31
0.0
  0
LINE
  5
236
330
22A
100
AcDbEntity
  8
0
  6
Continuous
 62
     7
100
AcDbLine
 10
1055.7489718575
 20
32.2476137188
 30
0.0
 11
1055.7489718575
 21
41.5138254536
 31
0.0
  0
LINE
  5
237
330
22A
100
AcDbEntity
  8
0
  6
Continuous
 62
     7
100
AcDbLine
 10
1070.6852980738
 20
41.5138254536
 30
0.0
 11
1069.3814805558
 21
41.5138254536
 31
0.0
  0
LINE
  5
238
330
22A
100
AcDbEntity
  8
0
  6
Continuous
 62
     7
100
AcDbLine
 10
1069.3814805558
 20
41.5138254536
 30
0.0
 11
1069.3814805558
 21
31.0547593937
 31
0.0
  0
LINE
  5
239
330
22A
100
AcDbEntity
  8
0
  6
Continuous
 62
     7
100
AcDbLine
 10
1069.3814805558
 20
31.0547593937
 30
0.0
 11
1073.8626662969
 21
31.0547593937
 31
0.0
  0
LINE
  5
23A
330
22A
100
AcDbEntity
  8
0
  6
Continuous
 62
     7
100
AcDbLine
 10
1073.8626662969
 20
31.0547593937
 30
0.0
 11
1073.8626662969
 21
32.2476137188
 31
0.0
  0
LINE
  5
23B
330
22A
100
AcDbEntity
  8
0
  6
Continuous
 62
     7
100
AcDbLine
 10
1073.8626662969
 20
32.2476137188
 30
0.0
 11
1070.6852980738
 21
32.2476137188
 31
0.0
  0
LINE
  5
23C
330
22A
100
AcDbEntity
  8
0
  6
Continuous
 62
     7
100
AcDbLine
 10
1070.6852980738
 20
32.2476137188
 30
0.0
 11
1070.6852980738
 21
41.5138254536
 31
0.0
  0
LWPOLYLINE
  5
23D
330
22A
100
AcDbEntity
  8
0
  6
Continuous
 62
     7
100
AcDbPolyline
 90
        2
 70
     0
 43
0.2
 10
1052.7990258391
 20
27.7112080868
 10
1052.7990258391
 20
25.8541448374
  0
LWPOLYLINE
  5
23E
330
22A
100
AcDbEntity
  8
0
  6
Continuous
 62
     7
100
AcDbPolyline
 90
        2
 70
     0
 43
0.2
 10
1052.7990258391
 20
25.8541448374
 10
1053.5947418495
 20
25.8541448374
  0
LWPOLYLINE
  5
23F
330
22A
100
AcDbEntity
  8
0
  6
Continuous
 62
     7
100
AcDbPolyline
 90
        2
 70
     0
 43
0.2
 10
1053.5947418495
 20
25.8541448374
 10
1053.5947418495
 20
26.066126409
  0
LWPOLYLINE
  5
240
330
22A
100
AcDbEntity
  8
0
  6
Continuous
 62
     7
100
AcDbPolyline
 90
        2
 70
     0
 43
0.2
 10
1053.5947418495
 20
26.066126409
 10
1053.030635334
 20
26.066126409
  0
LWPOLYLINE
  5
241
330
22A
100
AcDbEntity
  8
0
  6
Continuous
 62
     7
100
AcDbPolyline
 90
        2
 70
     0
 43
0.2
 10
1053.030635334
 20
26.066126409
 10
1053.030635334
 20
27.7112080868
  0
LWPOLYLINE
  5
242
330
22A
100
AcDbEntity
  8
0
  6
Continuous
 62
     7
100
AcDbPolyline
 90
        2
 70
     0
 43
0.2
 10
1053.030635334
 20
27.7112080868
 10
1052.7990258391
 20
27.7112080868
  0
SPLINE
  5
243
330
22A
100
AcDbEntity
  8
0
  6
Continuous
 62
     7
100
AcDbSpline
 70
     3
 71
     3
 72
    35
 73
    31
 74
     0
 42
0.000000001
 43
0.0000001
 40
0.0
 40
0.0
 40
0.0
 40
0.0
 40
1.0
 40
1.0
 40
1.0
 40
2.0
 40
2.0
 40
2.0
 40
3.0
 40
3.0
 40
3.0
 40
4.0
 40
4.0
 40
4.0
 40
5.0
 40
5.0
 40
5.0
 40
6.0
 40
6.0
 40
6.0
 40
7.0
 40
7.0
 40
7.0
 40
8.0
 40
8.0
 40
8.0
 40
9.0
 40
9.0
 40
9.0
 40
10.0
 40
10.0
 40
10.0
 40
10.0
 10
1054.993035105
 20
27.0066964933
 30
0.0
 10
1054.993035105
 20
27.0066964933
 30
0.0
 10
1054.993035105
 20
26.3445812142
 30
0.0
 10
1054.993035105
 20
26.3445812142
 30
0.0
 10
1054.993035105
 20
26.0294876189
 30
0.0
 10
1055.1408987939
 20
25.8148889908
 30
0.0
 10
1055.4809852781
 20
25.8148889908
 30
0.0
 10
1055.8205483512
 20
25.8148889908
 30
0.0
 10
1055.9686737456
 20
26.0294876189
 30
0.0
 10
1055.9686737456
 20
26.3445812142
 30
0.0
 10
1055.9686737456
 20
26.3445812142
 30
0.0
 10
1055.9686737456
 20
27.0066964933
 30
0.0
 10
1055.9686737456
 20
27.0066964933
 30
0.0
 10
1055.9686737456
 20
27.0066964933
 30
0.0
 10
1055.7466165067
 20
27.0066964933
 30
0.0
 10
1055.7466165067
 20
27.0066964933
 30
0.0
 10
1055.7466165067
 20
27.0066964933
 30
0.0
 10
1055.7466165067
 20
26.369704956
 30
0.0
 10
1055.7466165067
 20
26.369704956
 30
0.0
 10
1055.7466165067
 20
26.1838939488
 30
0.0
 10
1055.6999020493
 20
26.0211130383
 30
0.0
 10
1055.4809852781
 20
26.0211130383
 30
0.0
 10
1055.2615450957
 20
26.0211130383
 30
0.0
 10
1055.2148306383
 20
26.1838939488
 30
0.0
 10
1055.2148306383
 20
26.369704956
 30
0.0
 10
1055.2148306383
 20
26.369704956
 30
0.0
 10
1055.2148306383
 20
27.0066964933
 30
0.0
 10
1055.2148306383
 20
27.0066964933
 30
0.0
 10
1055.2148306383
 20
27.0066964933
 30
0.0
 10
1054.993035105
 20
27.0066964933
 30
0.0
 10
1054.993035105
 20
27.0066964933
 30
0.0
  0
SPLINE
  5
244
330
22A
100
AcDbEntity
  8
0
  6
Continuous
 62
     7
100
AcDbSpline
 70
     3
 71
     3
 72
    35
 73
    31
 74
     0
 42
0.000000001
 43
0.0000001
 40
0.0
 40
0.0
 40
0.0
 40
0.0
 40
1.0
 40
1.0
 40
1.0
 40
2.0
 40
2.0
 40
2.0
 40
3.0
 40
3.0
 40
3.0
 40
4.0
 40
4.0
 40
4.0
 40
5.0
 40
5.0
 40
5.0
 40
6.0
 40
6.0
 40
6.0
 40
7.0
 40
7.0
 40
7.0
 40
8.0
 40
8.0
 40
8.0
 40
9.0
 40
9.0
 40
9.0
 40
10.0
 40
10.0
 40
10.0
 40
10.0
 10
1058.3918063028
 20
26.9653470016
 30
0.0
 10
1058.3033497952
 20
27.0166413078
 30
0.0
 10
1058.1899003985
 20
27.0417650496
 30
0.0
 10
1058.0862649635
 20
27.0417650496
 30
0.0
 10
1057.7313921103
 20
27.0417650496
 30
0.0
 10
1057.4559469201
 20
26.7779657605
 30
0.0
 10
1057.4559469201
 20
26.4204758509
 30
0.0
 10
1057.4559469201
 20
26.0755478122
 30
0.0
 10
1057.7344017253
 20
25.8154124021
 30
0.0
 10
1058.0739647983
 20
25.8154124021
 30
0.0
 10
1058.1899003985
 20
25.8154124021
 30
0.0
 10
1058.2906570714
 20
25.8373956762
 30
0.0
 10
1058.3918063028
 20
25.8913070389
 30
0.0
 10
1058.3918063028
 20
25.8913070389
 30
0.0
 10
1058.3918063028
 20
26.1739491343
 30
0.0
 10
1058.3918063028
 20
26.1739491343
 30
0.0
 10
1058.3079296439
 20
26.0807819251
 30
0.0
 10
1058.2044250618
 20
26.0216364495
 30
0.0
 10
1058.0763201491
 20
26.0216364495
 30
0.0
 10
1057.842617009
 20
26.0216364495
 30
0.0
 10
1057.6773498949
 20
26.1938387633
 30
0.0
 10
1057.6773498949
 20
26.4304206654
 30
0.0
 10
1057.6773498949
 20
26.642402237
 30
0.0
 10
1057.8451032126
 20
26.8344941796
 30
0.0
 10
1058.0619263386
 20
26.8344941796
 30
0.0
 10
1058.1947419529
 20
26.8344941796
 30
0.0
 10
1058.3033497952
 20
26.780582817
 30
0.0
 10
1058.3918063028
 20
26.6795644384
 30
0.0
 10
1058.3918063028
 20
26.6795644384
 30
0.0
 10
1058.3918063028
 20
26.9653470016
 30
0.0
 10
1058.3918063028
 20
26.9653470016
 30
0.0
  0
SPLINE
  5
245
330
22A
100
AcDbEntity
  8
0
  6
Continuous
 62
     7
100
AcDbSpline
 70
     3
 71
     3
 72
    32
 73
    28
 74
     0
 42
0.000000001
 43
0.0000001
 40
0.0
 40
0.0
 40
0.0
 40
0.0
 40
1.0
 40
1.0
 40
1.0
 40
2.0
 40
2.0
 40
2.0
 40
3.0
 40
3.0
 40
3.0
 40
4.0
 40
4.0
 40
4.0
 40
5.0
 40
5.0
 40
5.0
 40
6.0
 40
6.0
 40
6.0
 40
7.0
 40
7.0
 40
7.0
 40
8.0
 40
8.0
 40
8.0
 40
9.0
 40
9.0
 40
9.0
 40
9.0
 10
1060.9236775551
 20
26.3937818752
 30
0.0
 10
1060.9236775551
 20
26.3937818752
 30
0.0
 10
1060.9236775551
 20
26.4278036089
 30
0.0
 10
1060.9236775551
 20
26.4278036089
 30
0.0
 10
1060.9236775551
 20
26.7701145912
 30
0.0
 10
1060.7508209772
 20
27.0417650496
 30
0.0
 10
1060.3841713701
 20
27.0417650496
 30
0.0
 10
1060.0125493557
 20
27.0417650496
 30
0.0
 10
1059.8228127639
 20
26.7753487041
 30
0.0
 10
1059.8228127639
 20
26.4204758509
 30
0.0
 10
1059.8228127639
 20
26.0807819251
 30
0.0
 10
1060.0368879806
 20
25.8148889908
 30
0.0
 10
1060.3890129245
 20
25.8148889908
 30
0.0
 10
1060.6130329557
 20
25.8148889908
 30
0.0
 10
1060.8152005657
 20
25.9305628855
 30
0.0
 10
1060.9236775551
 20
26.1299825861
 30
0.0
 10
1060.9236775551
 20
26.1299825861
 30
0.0
 10
1060.7360346084
 20
26.2367584889
 30
0.0
 10
1060.7360346084
 20
26.2367584889
 30
0.0
 10
1060.652550508
 20
26.0980544976
 30
0.0
 10
1060.561346091
 20
26.0122150464
 30
0.0
 10
1060.3917608338
 20
26.0122150464
 30
0.0
 10
1060.1797792622
 20
26.0122150464
 30
0.0
 10
1060.0468327951
 20
26.196979231
 30
0.0
 10
1060.0444774443
 20
26.3937818752
 30
0.0
 10
1060.0444774443
 20
26.3937818752
 30
0.0
 10
1060.9236775551
 20
26.3937818752
 30
0.0
 10
1060.9236775551
 20
26.3937818752
 30
0.0
  0
SPLINE
  5
246
330
22A
100
AcDbEntity
  8
0
  6
Continuous
 62
     7
100
AcDbSpline
 70
     3
 71
     3
 72
    14
 73
    10
 74
     0
 42
0.000000001
 43
0.0000001
 40
0.0
 40
0.0
 40
0.0
 40
0.0
 40
1.0
 40
1.0
 40
1.0
 40
2.0
 40
2.0
 40
2.0
 40
3.0
 40
3.0
 40
3.0
 40
3.0
 10
1060.0565159039
 20
26.5612734873
 30
0.0
 10
1060.0841258493
 20
26.726148043
 30
0.0
 10
1060.2119690564
 20
26.8491496957
 30
0.0
 10
1060.3841713701
 20
26.8491496957
 30
0.0
 10
1060.561346091
 20
26.8491496957
 30
0.0
 10
1060.6747954877
 20
26.7334758011
 30
0.0
 10
1060.7020128747
 20
26.5612734873
 30
0.0
 10
1060.7020128747
 20
26.5612734873
 30
0.0
 10
1060.0565159039
 20
26.5612734873
 30
0.0
 10
1060.0565159039
 20
26.5612734873
 30
0.0
  0
SPLINE
  5
247
330
22A
100
AcDbEntity
  8
0
  6
Continuous
 62
     7
100
AcDbSpline
 70
     3
 71
     3
 72
    20
 73
    16
 74
     0
 42
0.000000001
 43
0.0000001
 40
0.0
 40
0.0
 40
0.0
 40
0.0
 40
1.0
 40
1.0
 40
1.0
 40
2.0
 40
2.0
 40
2.0
 40
3.0
 40
3.0
 40
3.0
 40
4.0
 40
4.0
 40
4.0
 40
5.0
 40
5.0
 40
5.0
 40
5.0
 10
1062.9477090053
 20
26.7706380025
 30
0.0
 10
1062.9477090053
 20
26.7706380025
 30
0.0
 10
1063.3588485719
 20
26.2681631661
 30
0.0
 10
1063.3588485719
 20
26.2681631661
 30
0.0
 10
1063.2427821188
 20
26.1524892715
 30
0.0
 10
1063.1049940973
 20
26.0221598608
 30
0.0
 10
1062.9330534892
 20
26.0221598608
 30
0.0
 10
1062.7556170626
 20
26.0221598608
 30
0.0
 10
1062.5881254505
 20
26.1865110052
 30
0.0
 10
1062.5881254505
 20
26.3634240205
 30
0.0
 10
1062.5881254505
 20
26.5413838584
 30
0.0
 10
1062.7978825241
 20
26.6675259788
 30
0.0
 10
1062.9254640255
 20
26.7554590751
 30
0.0
 10
1062.9254640255
 20
26.7554590751
 30
0.0
 10
1062.9477090053
 20
26.7706380025
 30
0.0
 10
1062.9477090053
 20
26.7706380025
 30
0.0
  0
SPLINE
  5
248
330
22A
100
AcDbEntity
  8
0
  6
Continuous
 62
     7
100
AcDbSpline
 70
     3
 71
     3
 72
    23
 73
    19
 74
     0
 42
0.000000001
 43
0.0000001
 40
0.0
 40
0.0
 40
0.0
 40
0.0
 40
1.0
 40
1.0
 40
1.0
 40
2.0
 40
2.0
 40
2.0
 40
3.0
 40
3.0
 40
3.0
 40
4.0
 40
4.0
 40
4.0
 40
5.0
 40
5.0
 40
5.0
 40
6.0
 40
6.0
 40
6.0
 40
6.0
 10
1062.9970405191
 20
27.0616546785
 30
0.0
 10
1062.9970405191
 20
27.0616546785
 30
0.0
 10
1062.93540884
 20
27.1401663717
 30
0.0
 10
1062.93540884
 20
27.1401663717
 30
0.0
 10
1062.8814974773
 20
27.2087332504
 30
0.0
 10
1062.8247073526
 20
27.2778235404
 30
0.0
 10
1062.8247073526
 20
27.371514161
 30
0.0
 10
1062.8247073526
 20
27.4903285233
 30
0.0
 10
1062.9206224711
 20
27.5677933939
 30
0.0
 10
1063.0315856641
 20
27.5677933939
 30
0.0
 10
1063.1548490224
 20
27.5677933939
 30
0.0
 10
1063.2481470845
 20
27.4966094588
 30
0.0
 10
1063.2481470845
 20
27.3662800481
 30
0.0
 10
1063.2481470845
 20
27.2312399358
 30
0.0
 10
1063.1200421718
 20
27.1548218878
 30
0.0
 10
1063.0264824041
 20
27.0810208962
 30
0.0
 10
1063.0264824041
 20
27.0810208962
 30
0.0
 10
1062.9970405191
 20
27.0616546785
 30
0.0
 10
1062.9970405191
 20
27.0616546785
 30
0.0
  0
SPLINE
  5
249
330
22A
100
AcDbEntity
  8
0
  6
Continuous
 62
     7
100
AcDbSpline
 70
     3
 71
     3
 72
    50
 73
    46
 74
     0
 42
0.000000001
 43
0.0000001
 40
0.0
 40
0.0
 40
0.0
 40
0.0
 40
1.0
 40
1.0
 40
1.0
 40
2.0
 40
2.0
 40
2.0
 40
3.0
 40
3.0
 40
3.0
 40
4.0
 40
4.0
 40
4.0
 40
5.0
 40
5.0
 40
5.0
 40
6.0
 40
6.0
 40
6.0
 40
7.0
 40
7.0
 40
7.0
 40
8.0
 40
8.0
 40
8.0
 40
9.0
 40
9.0
 40
9.0
 40
10.0
 40
10.0
 40
10.0
 40
11.0
 40
11.0
 40
11.0
 40
12.0
 40
12.0
 40
12.0
 40
13.0
 40
13.0
 40
13.0
 40
14.0
 40
14.0
 40
14.0
 40
15.0
 40
15.0
 40
15.0
 40
15.0
 10
1063.6991967618
 20
25.8546682487
 30
0.0
 10
1063.6991967618
 20
25.8546682487
 30
0.0
 10
1063.9845867665
 20
25.8546682487
 30
0.0
 10
1063.9845867665
 20
25.8546682487
 30
0.0
 10
1063.9845867665
 20
25.8546682487
 30
0.0
 10
1063.6522205987
 20
26.2655461097
 30
0.0
 10
1063.6522205987
 20
26.2655461097
 30
0.0
 10
1063.6522205987
 20
26.2655461097
 30
0.0
 10
1063.8787268336
 20
26.5314390439
 30
0.0
 10
1063.8787268336
 20
26.5314390439
 30
0.0
 10
1063.8787268336
 20
26.5314390439
 30
0.0
 10
1063.7304705863
 20
26.68427514
 30
0.0
 10
1063.7304705863
 20
26.68427514
 30
0.0
 10
1063.7304705863
 20
26.68427514
 30
0.0
 10
1063.51456343
 20
26.4330377218
 30
0.0
 10
1063.51456343
 20
26.4330377218
 30
0.0
 10
1063.51456343
 20
26.4330377218
 30
0.0
 10
1063.1275007826
 20
26.9009674132
 30
0.0
 10
1063.1275007826
 20
26.9009674132
 30
0.0
 10
1063.2829539351
 20
27.0150710739
 30
0.0
 10
1063.4652319161
 20
27.1548218878
 30
0.0
 10
1063.4652319161
 20
27.3641864029
 30
0.0
 10
1063.4652319161
 20
27.6080960631
 30
0.0
 10
1063.263195159
 20
27.751510756
 30
0.0
 10
1063.0366889242
 20
27.751510756
 30
0.0
 10
1062.7925175584
 20
27.751510756
 30
0.0
 10
1062.6081459323
 20
27.6007683051
 30
0.0
 10
1062.6081459323
 20
27.344296774
 30
0.0
 10
1062.6081459323
 20
27.1867499763
 30
0.0
 10
1062.70680896
 20
27.0490928076
 30
0.0
 10
1062.8121454817
 20
26.9381296146
 30
0.0
 10
1062.8121454817
 20
26.9381296146
 30
0.0
 10
1062.6966024399
 20
26.8543838085
 30
0.0
 10
1062.6966024399
 20
26.8543838085
 30
0.0
 10
1062.5189043077
 20
26.726148043
 30
0.0
 10
1062.3715640301
 20
26.5984356888
 30
0.0
 10
1062.3715640301
 20
26.3613303754
 30
0.0
 10
1062.3715640301
 20
26.0410026672
 30
0.0
 10
1062.6301292063
 20
25.8148889908
 30
0.0
 10
1062.9405121001
 20
25.8148889908
 30
0.0
 10
1063.1594288712
 20
25.8148889908
 30
0.0
 10
1063.3566240739
 20
25.9399842886
 30
0.0
 10
1063.4968982991
 20
26.1059056669
 30
0.0
 10
1063.4968982991
 20
26.1059056669
 30
0.0
 10
1063.6991967618
 20
25.8546682487
 30
0.0
 10
1063.6991967618
 20
25.8546682487
 30
0.0
  0
LWPOLYLINE
  5
24A
330
22A
100
AcDbEntity
  8
0
  6
Continuous
 62
     7
100
AcDbPolyline
 90
        2
 70
     0
 43
0.2
 10
1065.6346408515
 20
27.7112080868
 10
1065.4032930623
 20
27.7112080868
  0
LWPOLYLINE
  5
24B
330
22A
100
AcDbEntity
  8
0
  6
Continuous
 62
     7
100
AcDbPolyline
 90
        2
 70
     0
 43
0.2
 10
1065.4032930623
 20
27.7112080868
 10
1065.4032930623
 20
25.8541448374
  0
LWPOLYLINE
  5
24C
330
22A
100
AcDbEntity
  8
0
  6
Continuous
 62
     7
100
AcDbPolyline
 90
        2
 70
     0
 43
0.2
 10
1065.4032930623
 20
25.8541448374
 10
1066.1986165142
 20
25.8541448374
  0
LWPOLYLINE
  5
24D
330
22A
100
AcDbEntity
  8
0
  6
Continuous
 62
     7
100
AcDbPolyline
 90
        2
 70
     0
 43
0.2
 10
1066.1986165142
 20
25.8541448374
 10
1066.1986165142
 20
26.066126409
  0
LWPOLYLINE
  5
24E
330
22A
100
AcDbEntity
  8
0
  6
Continuous
 62
     7
100
AcDbPolyline
 90
        2
 70
     0
 43
0.2
 10
1066.1986165142
 20
26.066126409
 10
1065.6346408515
 20
26.066126409
  0
LWPOLYLINE
  5
24F
330
22A
100
AcDbEntity
  8
0
  6
Continuous
 62
     7
100
AcDbPolyline
 90
        2
 70
     0
 43
0.2
 10
1065.6346408515
 20
26.066126409
 10
1065.6346408515
 20
27.7112080868
  0
LWPOLYLINE
  5
250
330
22A
100
AcDbEntity
  8
0
  6
Continuous
 62
     7
100
AcDbPolyline
 90
        2
 70
     0
 43
0.2
 10
1067.8777199257
 20
27.0066964933
 10
1067.6565786566
 20
27.0066964933
  0
LWPOLYLINE
  5
251
330
22A
100
AcDbEntity
  8
0
  6
Continuous
 62
     7
100
AcDbPolyline
 90
        2
 70
     0
 43
0.2
 10
1067.6565786566
 20
27.0066964933
 10
1067.6565786566
 20
25.8546682487
  0
LWPOLYLINE
  5
252
330
22A
100
AcDbEntity
  8
0
  6
Continuous
 62
     7
100
AcDbPolyline
 90
        2
 70
     0
 43
0.2
 10
1067.6565786566
 20
25.8546682487
 10
1067.8777199257
 20
25.8546682487
  0
LWPOLYLINE
  5
253
330
22A
100
AcDbEntity
  8
0
  6
Continuous
 62
     7
100
AcDbPolyline
 90
        2
 70
     0
 43
0.2
 10
1067.8777199257
 20
25.8546682487
 10
1067.8777199257
 20
27.0066964933
  0
LWPOLYLINE
  5
254
330
22A
100
AcDbEntity
  8
0
  6
Continuous
 62
     7
100
AcDbPolyline
 90
        2
 70
     1
 43
0.2
 10
1067.6146966485
 20
27.5366504223
 42
1.0
 10
1067.9198636394
 20
27.5366504223
 42
1.0
  0
SPLINE
  5
255
330
22A
100
AcDbEntity
  8
0
  6
Continuous
 62
     7
100
AcDbSpline
 70
     3
 71
     3
 72
    17
 73
    13
 74
     0
 42
0.000000001
 43
0.0000001
 40
0.0
 40
0.0
 40
0.0
 40
0.0
 40
1.0
 40
1.0
 40
1.0
 40
2.0
 40
2.0
 40
2.0
 40
3.0
 40
3.0
 40
3.0
 40
4.0
 40
4.0
 40
4.0
 40
4.0
 10
1070.0080038673
 20
26.0122150464
 30
0.0
 10
1069.7740390217
 20
26.0122150464
 30
0.0
 10
1069.643709611
 20
26.2142518035
 30
0.0
 10
1069.643709611
 20
26.4304206654
 30
0.0
 10
1069.643709611
 20
26.6450192934
 30
0.0
 10
1069.7795348402
 20
26.8439155828
 30
0.0
 10
1070.0080038673
 20
26.8439155828
 30
0.0
 10
1070.2474645315
 20
26.8439155828
 30
0.0
 10
1070.3830280551
 20
26.6549641079
 30
0.0
 10
1070.3830280551
 20
26.4304206654
 30
0.0
 10
1070.3830280551
 20
26.204306989
 30
0.0
 10
1070.2498198823
 20
26.0122150464
 30
0.0
 10
1070.0080038673
 20
26.0122150464
 30
0.0
  0
SPLINE
  5
256
330
22A
100
AcDbEntity
  8
0
  6
Continuous
 62
     7
100
AcDbSpline
 70
     3
 71
     3
 72
    50
 73
    46
 74
     0
 42
0.000000001
 43
0.0000001
 40
0.0
 40
0.0
 40
0.0
 40
0.0
 40
1.0
 40
1.0
 40
1.0
 40
2.0
 40
2.0
 40
2.0
 40
3.0
 40
3.0
 40
3.0
 40
4.0
 40
4.0
 40
4.0
 40
5.0
 40
5.0
 40
5.0
 40
6.0
 40
6.0
 40
6.0
 40
7.0
 40
7.0
 40
7.0
 40
8.0
 40
8.0
 40
8.0
 40
9.0
 40
9.0
 40
9.0
 40
10.0
 40
10.0
 40
10.0
 40
11.0
 40
11.0
 40
11.0
 40
12.0
 40
12.0
 40
12.0
 40
13.0
 40
13.0
 40
13.0
 40
14.0
 40
14.0
 40
14.0
 40
15.0
 40
15.0
 40
15.0
 40
15.0
 10
1070.5921308646
 20
27.0072199046
 30
0.0
 10
1070.5921308646
 20
27.0072199046
 30
0.0
 10
1070.3704661842
 20
27.0072199046
 30
0.0
 10
1070.3704661842
 20
27.0072199046
 30
0.0
 10
1070.3704661842
 20
27.0072199046
 30
0.0
 10
1070.3704661842
 20
26.8098938491
 30
0.0
 10
1070.3704661842
 20
26.8098938491
 30
0.0
 10
1070.3704661842
 20
26.8098938491
 30
0.0
 10
1070.3657554826
 20
26.8098938491
 30
0.0
 10
1070.3657554826
 20
26.8098938491
 30
0.0
 10
1070.2744202129
 20
26.9527851307
 30
0.0
 10
1070.1365013385
 20
27.0412416383
 30
0.0
 10
1069.9637756135
 20
27.0412416383
 30
0.0
 10
1069.6314094457
 20
27.0412416383
 30
0.0
 10
1069.4223066362
 20
26.75336543
 30
0.0
 10
1069.4223066362
 20
26.4377484234
 30
0.0
 10
1069.4223066362
 20
26.107999312
 30
0.0
 10
1069.6193709861
 20
25.8148889908
 30
0.0
 10
1069.9742438393
 20
25.8148889908
 30
0.0
 10
1070.1365013385
 20
25.8148889908
 30
0.0
 10
1070.276513858
 20
25.9033454985
 30
0.0
 10
1070.3657554826
 20
26.0341983205
 30
0.0
 10
1070.3657554826
 20
26.0341983205
 30
0.0
 10
1070.3704661842
 20
26.0341983205
 30
0.0
 10
1070.3704661842
 20
26.0341983205
 30
0.0
 10
1070.3704661842
 20
26.0341983205
 30
0.0
 10
1070.3704661842
 20
25.8148889908
 30
0.0
 10
1070.3704661842
 20
25.8148889908
 30
0.0
 10
1070.3704661842
 20
25.5783070887
 30
0.0
 10
1070.3139377651
 20
25.391449259
 30
0.0
 10
1070.0407170728
 20
25.391449259
 30
0.0
 10
1069.8384186101
 20
25.391449259
 30
0.0
 10
1069.6957890341
 20
25.50974021
 30
0.0
 10
1069.6957890341
 20
25.7159642574
 30
0.0
 10
1069.6957890341
 20
25.7159642574
 30
0.0
 10
1069.4741243537
 20
25.7159642574
 30
0.0
 10
1069.4741243537
 20
25.7159642574
 30
0.0
 10
1069.4790967609
 20
25.391449259
 30
0.0
 10
1069.7101828445
 20
25.1946466147
 30
0.0
 10
1070.0305105527
 20
25.1946466147
 30
0.0
 10
1070.4785506151
 20
25.1946466147
 30
0.0
 10
1070.5921308646
 20
25.4799057666
 30
0.0
 10
1070.5921308646
 20
25.8766515228
 30
0.0
 10
1070.5921308646
 20
25.8766515228
 30
0.0
 10
1070.5921308646
 20
27.0072199046
 30
0.0
 10
1070.5921308646
 20
27.0072199046
 30
0.0
  0
SPLINE
  5
257
330
22A
100
AcDbEntity
  8
0
  6
Continuous
 62
     7
100
AcDbSpline
 70
     3
 71
     3
 72
    44
 73
    40
 74
     0
 42
0.000000001
 43
0.0000001
 40
0.0
 40
0.0
 40
0.0
 40
0.0
 40
1.0
 40
1.0
 40
1.0
 40
2.0
 40
2.0
 40
2.0
 40
3.0
 40
3.0
 40
3.0
 40
4.0
 40
4.0
 40
4.0
 40
5.0
 40
5.0
 40
5.0
 40
6.0
 40
6.0
 40
6.0
 40
7.0
 40
7.0
 40
7.0
 40
8.0
 40
8.0
 40
8.0
 40
9.0
 40
9.0
 40
9.0
 40
10.0
 40
10.0
 40
10.0
 40
11.0
 40
11.0
 40
11.0
 40
12.0
 40
12.0
 40
12.0
 40
13.0
 40
13.0
 40
13.0
 40
13.0
 10
1072.1610562
 20
27.9922799484
 30
0.0
 10
1072.1610562
 20
27.9922799484
 30
0.0
 10
1072.1610562
 20
25.8541448374
 30
0.0
 10
1072.1610562
 20
25.8541448374
 30
0.0
 10
1072.1610562
 20
25.8541448374
 30
0.0
 10
1072.3824591748
 20
25.8541448374
 30
0.0
 10
1072.3824591748
 20
25.8541448374
 30
0.0
 10
1072.3824591748
 20
25.8541448374
 30
0.0
 10
1072.3824591748
 20
26.3838370608
 30
0.0
 10
1072.3824591748
 20
26.3838370608
 30
0.0
 10
1072.3824591748
 20
26.5937249872
 30
0.0
 10
1072.3824591748
 20
26.8444389941
 30
0.0
 10
1072.6677183267
 20
26.8444389941
 30
0.0
 10
1072.8946171199
 20
26.8444389941
 30
0.0
 10
1072.9215728013
 20
26.711492527
 30
0.0
 10
1072.9215728013
 20
26.515213294
 30
0.0
 10
1072.9215728013
 20
26.515213294
 30
0.0
 10
1072.9215728013
 20
25.8541448374
 30
0.0
 10
1072.9215728013
 20
25.8541448374
 30
0.0
 10
1072.9215728013
 20
25.8541448374
 30
0.0
 10
1073.1434991873
 20
25.8541448374
 30
0.0
 10
1073.1434991873
 20
25.8541448374
 30
0.0
 10
1073.1434991873
 20
25.8541448374
 30
0.0
 10
1073.1434991873
 20
26.5413838584
 30
0.0
 10
1073.1434991873
 20
26.5413838584
 30
0.0
 10
1073.1434991873
 20
26.8219323087
 30
0.0
 10
1073.0594916756
 20
27.0417650496
 30
0.0
 10
1072.7344532659
 20
27.0417650496
 30
0.0
 10
1072.594702452
 20
27.0417650496
 30
0.0
 10
1072.456521872
 20
26.975291816
 30
0.0
 10
1072.3871698764
 20
26.8522901634
 30
0.0
 10
1072.3871698764
 20
26.8522901634
 30
0.0
 10
1072.3824591748
 20
26.8522901634
 30
0.0
 10
1072.3824591748
 20
26.8522901634
 30
0.0
 10
1072.3824591748
 20
26.8522901634
 30
0.0
 10
1072.3824591748
 20
27.9922799484
 30
0.0
 10
1072.3824591748
 20
27.9922799484
 30
0.0
 10
1072.3824591748
 20
27.9922799484
 30
0.0
 10
1072.1610562
 20
27.9922799484
 30
0.0
 10
1072.1610562
 20
27.9922799484
 30
0.0
  0
LWPOLYLINE
  5
258
330
22A
100
AcDbEntity
  8
0
  6
Continuous
 62
     7
100
AcDbPolyline
 90
        2
 70
     0
 43
0.2
 10
1074.9832898642
 20
26.7999490346
 10
1075.1997204317
 20
26.7999490346
  0
LWPOLYLINE
  5
259
330
22A
100
AcDbEntity
  8
0
  6
Continuous
 62
     7
100
AcDbPolyline
 90
        2
 70
     0
 43
0.2
 10
1075.1997204317
 20
26.7999490346
 10
1075.1997204317
 20
27.0066964933
  0
LWPOLYLINE
  5
25A
330
22A
100
AcDbEntity
  8
0
  6
Continuous
 62
     7
100
AcDbPolyline
 90
        2
 70
     0
 43
0.2
 10
1075.1997204317
 20
27.0066964933
 10
1074.9832898642
 20
27.0066964933
  0
LWPOLYLINE
  5
25B
330
22A
100
AcDbEntity
  8
0
  6
Continuous
 62
     7
100
AcDbPolyline
 90
        2
 70
     0
 43
0.2
 10
1074.9832898642
 20
27.0066964933
 10
1074.9832898642
 20
27.4474087977
  0
LWPOLYLINE
  5
25C
330
22A
100
AcDbEntity
  8
0
  6
Continuous
 62
     7
100
AcDbPolyline
 90
        2
 70
     0
 43
0.2
 10
1074.9832898642
 20
27.4474087977
 10
1074.7616251838
 20
27.4474087977
  0
LWPOLYLINE
  5
25D
330
22A
100
AcDbEntity
  8
0
  6
Continuous
 62
     7
100
AcDbPolyline
 90
        2
 70
     0
 43
0.2
 10
1074.7616251838
 20
27.4474087977
 10
1074.7616251838
 20
27.0066964933
  0
LWPOLYLINE
  5
25E
330
22A
100
AcDbEntity
  8
0
  6
Continuous
 62
     7
100
AcDbPolyline
 90
        2
 70
     0
 43
0.2
 10
1074.7616251838
 20
27.0066964933
 10
1074.6409788819
 20
27.0066964933
  0
LWPOLYLINE
  5
25F
330
22A
100
AcDbEntity
  8
0
  6
Continuous
 62
     7
100
AcDbPolyline
 90
        2
 70
     0
 43
0.2
 10
1074.6409788819
 20
27.0066964933
 10
1074.6409788819
 20
26.7999490346
  0
LWPOLYLINE
  5
260
330
22A
100
AcDbEntity
  8
0
  6
Continuous
 62
     7
100
AcDbPolyline
 90
        2
 70
     0
 43
0.2
 10
1074.6409788819
 20
26.7999490346
 10
1074.7616251838
 20
26.7999490346
  0
LWPOLYLINE
  5
261
330
22A
100
AcDbEntity
  8
0
  6
Continuous
 62
     7
100
AcDbPolyline
 90
        2
 70
     0
 43
0.2
 10
1074.7616251838
 20
26.7999490346
 10
1074.7616251838
 20
25.8541448374
  0
LWPOLYLINE
  5
262
330
22A
100
AcDbEntity
  8
0
  6
Continuous
 62
     7
100
AcDbPolyline
 90
        2
 70
     0
 43
0.2
 10
1074.7616251838
 20
25.8541448374
 10
1074.9832898642
 20
25.8541448374
  0
LWPOLYLINE
  5
263
330
22A
100
AcDbEntity
  8
0
  6
Continuous
 62
     7
100
AcDbPolyline
 90
        2
 70
     0
 43
0.2
 10
1074.9832898642
 20
25.8541448374
 10
1074.9832898642
 20
26.7999490346
  0
SPLINE
  5
264
330
22A
100
AcDbEntity
  8
0
  6
Continuous
 62
     7
100
AcDbSpline
 70
     3
 71
     3
 72
    20
 73
    16
 74
     0
 42
0.000000001
 43
0.0000001
 40
0.0
 40
0.0
 40
0.0
 40
0.0
 40
1.0
 40
1.0
 40
1.0
 40
2.0
 40
2.0
 40
2.0
 40
3.0
 40
3.0
 40
3.0
 40
4.0
 40
4.0
 40
4.0
 40
5.0
 40
5.0
 40
5.0
 40
5.0
 10
1062.7653001714
 20
36.2150712808
 30
0.0
 10
1062.7653001714
 20
36.2150712808
 30
0.0
 10
1065.0816568259
 20
33.3855098586
 30
0.0
 10
1065.0816568259
 20
33.3855098586
 30
0.0
 10
1064.4300097725
 20
32.7333393939
 30
0.0
 10
1063.6531365685
 20
31.9974231232
 30
0.0
 10
1062.6819469238
 20
31.9974231232
 30
0.0
 10
1061.6834090394
 20
31.9974231232
 30
0.0
 10
1060.7400910458
 20
32.9270015704
 30
0.0
 10
1060.7400910458
 20
33.926193719
 30
0.0
 10
1060.7400910458
 20
34.9253858675
 30
0.0
 10
1061.918944119
 20
35.6319911061
 30
0.0
 10
1062.6404665793
 20
36.131848886
 30
0.0
 10
1062.6404665793
 20
36.131848886
 30
0.0
 10
1062.7653001714
 20
36.2150712808
 30
0.0
 10
1062.7653001714
 20
36.2150712808
 30
0.0
  0
SPLINE
  5
265
330
22A
100
AcDbEntity
  8
0
  6
Continuous
 62
     7
100
AcDbSpline
 70
     3
 71
     3
 72
    23
 73
    19
 74
     0
 42
0.000000001
 43
0.0000001
 40
0.0
 40
0.0
 40
0.0
 40
0.0
 40
1.0
 40
1.0
 40
1.0
 40
2.0
 40
2.0
 40
2.0
 40
3.0
 40
3.0
 40
3.0
 40
4.0
 40
4.0
 40
4.0
 40
5.0
 40
5.0
 40
5.0
 40
6.0
 40
6.0
 40
6.0
 40
6.0
 10
1063.042708154
 20
37.8528252006
 30
0.0
 10
1063.042708154
 20
37.8528252006
 30
0.0
 10
1062.6962098814
 20
38.2961545614
 30
0.0
 10
1062.6962098814
 20
38.2961545614
 30
0.0
 10
1062.3904068365
 20
38.6842640313
 30
0.0
 10
1062.0715185094
 20
39.0727660598
 30
0.0
 10
1062.0715185094
 20
39.5997103738
 30
0.0
 10
1062.0715185094
 20
40.2658820905
 30
0.0
 10
1062.6128566338
 20
40.7096040098
 30
0.0
 10
1063.236762889
 20
40.7096040098
 30
0.0
 10
1063.9305445511
 20
40.7096040098
 30
0.0
 10
1064.4577505708
 20
40.307362435
 30
0.0
 10
1064.4577505708
 20
39.572362134
 30
0.0
 10
1064.4577505708
 20
38.8090976235
 30
0.0
 10
1063.7364898161
 20
38.3789843977
 30
0.0
 10
1063.2094146492
 20
37.9632649823
 30
0.0
 10
1063.2094146492
 20
37.9632649823
 30
0.0
 10
1063.042708154
 20
37.8528252006
 30
0.0
 10
1063.042708154
 20
37.8528252006
 30
0.0
  0
SPLINE
  5
266
330
22A
100
AcDbEntity
  8
0
  6
Continuous
 62
     7
100
AcDbSpline
 70
     3
 71
     3
 72
    50
 73
    46
 74
     0
 42
0.000000001
 43
0.0000001
 40
0.0
 40
0.0
 40
0.0
 40
0.0
 40
1.0
 40
1.0
 40
1.0
 40
2.0
 40
2.0
 40
2.0
 40
3.0
 40
3.0
 40
3.0
 40
4.0
 40
4.0
 40
4.0
 40
5.0
 40
5.0
 40
5.0
 40
6.0
 40
6.0
 40
6.0
 40
7.0
 40
7.0
 40
7.0
 40
8.0
 40
8.0
 40
8.0
 40
9.0
 40
9.0
 40
9.0
 40
10.0
 40
10.0
 40
10.0
 40
11.0
 40
11.0
 40
11.0
 40
12.0
 40
12.0
 40
12.0
 40
13.0
 40
13.0
 40
13.0
 40
14.0
 40
14.0
 40
14.0
 40
15.0
 40
15.0
 40
15.0
 40
15.0
 10
1066.9962953169
 20
31.0542359824
 30
0.0
 10
1066.9962953169
 20
31.0542359824
 30
0.0
 10
1068.6055233215
 20
31.0542359824
 30
0.0
 10
1068.6055233215
 20
31.0542359824
 30
0.0
 10
1068.6055233215
 20
31.0542359824
 30
0.0
 10
1066.7324960278
 20
33.3713777538
 30
0.0
 10
1066.7324960278
 20
33.3713777538
 30
0.0
 10
1066.7324960278
 20
33.3713777538
 30
0.0
 10
1068.0088344533
 20
34.8688574484
 30
0.0
 10
1068.0088344533
 20
34.8688574484
 30
0.0
 10
1068.0088344533
 20
34.8688574484
 30
0.0
 10
1067.1766105056
 20
35.729869017
 30
0.0
 10
1067.1766105056
 20
35.729869017
 30
0.0
 10
1067.1766105056
 20
35.729869017
 30
0.0
 10
1065.9560153823
 20
34.3145648946
 30
0.0
 10
1065.9560153823
 20
34.3145648946
 30
0.0
 10
1065.9560153823
 20
34.3145648946
 30
0.0
 10
1063.7781010135
 20
36.949940729
 30
0.0
 10
1063.7781010135
 20
36.949940729
 30
0.0
 10
1064.6516744529
 20
37.5879790889
 30
0.0
 10
1065.6783456941
 20
38.3789843977
 30
0.0
 10
1065.6783456941
 20
39.5578374708
 30
0.0
 10
1065.6783456941
 20
40.9315303958
 30
0.0
 10
1064.5404495542
 20
41.7360135453
 30
0.0
 10
1063.2651579514
 20
41.7360135453
 30
0.0
 10
1061.891726732
 20
41.7360135453
 30
0.0
 10
1060.8507925332
 20
40.8897883456
 30
0.0
 10
1060.8507925332
 20
39.4471359834
 30
0.0
 10
1060.8507925332
 20
38.559561292
 30
0.0
 10
1061.4061319097
 20
37.782688088
 30
0.0
 10
1062.0022973665
 20
37.1582584216
 30
0.0
 10
1062.0022973665
 20
37.1582584216
 30
0.0
 10
1061.3503886075
 20
36.6866648512
 30
0.0
 10
1061.3503886075
 20
36.6866648512
 30
0.0
 10
1060.3518507231
 20
35.9654040965
 30
0.0
 10
1059.5189725112
 20
35.2441433418
 30
0.0
 10
1059.5189725112
 20
33.9125850255
 30
0.0
 10
1059.5189725112
 20
32.1089097275
 30
0.0
 10
1060.9760186839
 20
30.8323095964
 30
0.0
 10
1062.7235581212
 20
30.8323095964
 30
0.0
 10
1063.9584162021
 20
30.8323095964
 30
0.0
 10
1065.0677864268
 20
31.5404850689
 30
0.0
 10
1065.8586608828
 20
32.4690166935
 30
0.0
 10
1065.8586608828
 20
32.4690166935
 30
0.0
 10
1066.9962953169
 20
31.0542359824
 30
0.0
 10
1066.9962953169
 20
31.0542359824
 30
0.0
  0
LINE
  5
267
330
22A
100
AcDbEntity
  8
0
  6
Continuous
 62
     7
100
AcDbLine
 10
1052.7991566919
 20
29.0281108871
 30
0.0
 11
1075.2130674196
 21
29.0281108871
 31
0.0
  0
LINE
  5
268
330
22A
100
AcDbEntity
  8
0
  6
Continuous
 62
     7
100
AcDbLine
 10
1075.2130674196
 20
29.0281108871
 30
0.0
 11
1075.2130674196
 21
51.4420216147
 31
0.0
  0
LINE
  5
269
330
22A
100
AcDbEntity
  8
0
  6
Continuous
 62
     7
100
AcDbLine
 10
1075.2130674196
 20
51.4420216147
 30
0.0
 11
1052.7991566919
 21
51.4420216147
 31
0.0
  0
LINE
  5
26A
330
22A
100
AcDbEntity
  8
0
  6
Continuous
 62
     7
100
AcDbLine
 10
1052.7991566919
 20
51.4420216147
 30
0.0
 11
1052.7991566919
 21
29.0281108871
 31
0.0
  0
ENDBLK
  5
26B
330
22A
100
AcDbEntity
  8
0
  6
ByBlock
 62
     0
100
AcDbBlockEnd
  0
BLOCK
  5
26C
330
22B
100
AcDbEntity
  8
0
100
AcDbBlockBegin
  2
PROIEZIONE_EU_BL0
 70
     0
 10
1065.1799995846
 20
63.9433341147
 30
0.0
  3
PROIEZIONE_EU_BL0
  1

  0
LWPOLYLINE
  5
26D
330
22B
100
AcDbEntity
  8
DEFAULT_1
  6
CENTER
 62
     7
100
AcDbPolyline
 90
        2
 70
     0
 43
0.25
 10
1071.3066202462
 20
68.9430282466
 10
1071.3066612286
 20
58.9436399828
  0
LWPOLYLINE
  5
26E
330
22B
100
AcDbEntity
  8
DEFAULT_1
  6
CENTER
 62
     7
100
AcDbPolyline
 90
        2
 70
     0
 43
0.25
 10
1077.3066500713
 20
63.9436052498
 10
1053.0533490978
 20
63.9433345894
  0
LWPOLYLINE
  5
26F
330
22B
100
AcDbEntity
  8
0
  6
Continuous
 62
     7
100
AcDbPolyline
 90
        2
 70
     1
 43
0.25
 10
1067.7595100704
 20
63.9247863605
 42
1.0
 10
1074.865839169
 20
63.9247863605
 42
1.0
  0
LWPOLYLINE
  5
270
330
22B
100
AcDbEntity
  8
0
  6
Continuous
 62
     7
100
AcDbPolyline
 90
        2
 70
     1
 43
0.25
 10
1069.3092538988
 20
63.9426844051
 42
1.0
 10
1073.3210056489
 20
63.9426844051
 42
1.0
  0
LWPOLYLINE
  5
271
330
22B
100
AcDbEntity
  8
0
  6
Continuous
 62
     7
100
AcDbPolyline
 90
        2
 70
     0
 43
0.25
 10
1065.3066478653
 20
67.5185376099
 10
1065.3066475107
 20
60.4183347016
  0
LWPOLYLINE
  5
272
330
22B
100
AcDbEntity
  8
0
  6
Continuous
 62
     7
100
AcDbPolyline
 90
        2
 70
     0
 43
0.25
 10
1065.3066759471
 20
60.4183062652
 10
1055.3121186759
 20
61.9383996781
  0
LWPOLYLINE
  5
273
330
22B
100
AcDbEntity
  8
0
  6
Continuous
 62
     7
100
AcDbPolyline
 90
        2
 70
     0
 43
0.25
 10
1055.3098086903
 20
61.9377221365
 10
1055.3071417862
 20
65.943360748
  0
LWPOLYLINE
  5
274
330
22B
100
AcDbEntity
  8
0
  6
Continuous
 62
     7
100
AcDbPolyline
 90
        2
 70
     0
 43
0.25
 10
1055.3071335101
 20
65.9433524719
 10
1065.3068767474
 20
67.518509692
  0
ENDBLK
  5
275
330
22B
100
AcDbEntity
  8
0
  6
ByBlock
 62
     0
100
AcDbBlockEnd
  0
ENDSEC
  0
SECTION
  2
ENTITIES
  0
LINE
  5
2A0
330
1B
100
AcDbEntity
 67
     1
  8
0
  6
Continuous
 62
     7
100
AcDbLine
 10
0.0
 20
0.0
 30
0.0
 11
1189.0
 21
0.0
 31
0.0
  0
LINE
  5
2A1
330
1B
100
AcDbEntity
 67
     1
  8
0
  6
Continuous
 62
     7
100
AcDbLine
 10
1189.0
 20
0.0
 30
0.0
 11
1189.0
 21
841.0
 31
0.0
  0
LINE
  5
2A2
330
1B
100
AcDbEntity
 67
     1
  8
0
  6
Continuous
 62
     7
100
AcDbLine
 10
0.0
 20
841.0
 30
0.0
 11
1189.0
 21
841.0
 31
0.0
  0
LINE
  5
2A3
330
1B
100
AcDbEntity
 67
     1
  8
0
  6
Continuous
 62
     7
100
AcDbLine
 10
0.0
 20
0.0
 30
0.0
 11
0.0
 21
841.0
 31
0.0
  0
VIEWPORT
  5
2A4
330
1B
100
AcDbEntity
 67
     1
  8
0
100
AcDbViewport
 10
0.0
 20
0.0
 30
0.0
 40
1401.884824902724
 41
991.332840466926
 68
     1
 69
     1
 12
662.6556420233462
 22
420.4999999999999
 13
0.0
 23
0.0
 14
1.0
 24
1.0
 15
0.0
 25
0.0
 16
0.0
 26
0.0
 36
1.0
 17
0.0
 27
0.0
 37
0.0
 42
50.0
 43
0.0
 44
0.0
 45
991.332840466926
 50
0.0
 51
0.0
 72
   100
 90
   557216
  1

281
     0
 71
     1
 74
     0
110
0.0
120
0.0
130
0.0
111
1.0
121
0.0
131
0.0
112
0.0
122
1.0
132
0.0
 79
     0
146
0.0
170
     0
 61
     5
348
54A
292
     1
282
     1
141
0.0
142
0.0
 63
   256
  0
LINE
  5
2A5
330
1B
100
AcDbEntity
 67
     1
  8
3_ALL_AXES
  6
Continuous
 62
     7
100
AcDbLine
 10
1038.4737103694
 20
358.8260930809
 30
0.0
 11
1038.4737103694
 21
356.0761411471
 31
0.0
  0
LINE
  5
2A6
330
1B
100
AcDbEntity
 67
     1
  8
3_ALL_AXES
  6
Continuous
 62
     7
100
AcDbLine
 10
1038.4737103694
 20
358.8260930809
 30
0.0
 11
1038.4737103694
 21
361.5760450147
 31
0.0
  0
LINE
  5
2A7
330
1B
100
AcDbEntity
 67
     1
  8
3_ALL_AXES
  6
Continuous
 62
     7
100
AcDbLine
 10
1038.3229900398
 20
356.0760930809
 30
0.0
 11
1038.4737103694
 21
356.0760930809
 31
0.0
  0
LINE
  5
2A8
330
1B
100
AcDbEntity
 67
     1
  8
3_ALL_AXES
  6
Continuous
 62
     7
100
AcDbLine
 10
1037.9737103694
 20
356.3691735235
 30
0.0
 11
1038.3229900398
 21
356.0760930809
 31
0.0
  0
LINE
  5
2A9
330
1B
100
AcDbEntity
 67
     1
  8
3_ALL_AXES
  6
Continuous
 62
     7
100
AcDbLine
 10
1038.3229900398
 20
361.5760930809
 30
0.0
 11
1038.4737103694
 21
361.5760930809
 31
0.0
  0
LINE
  5
2AA
330
1B
100
AcDbEntity
 67
     1
  8
3_ALL_AXES
  6
Continuous
 62
     7
100
AcDbLine
 10
1037.9737103694
 20
361.2830126383
 30
0.0
 11
1038.3229900398
 21
361.5760930809
 31
0.0
  0
LINE
  5
2AB
330
1B
100
AcDbEntity
 67
     1
  8
3_ALL_AXES
  6
Continuous
 62
     7
100
AcDbLine
 10
1038.3229900398
 20
358.8260930809
 30
0.0
 11
1038.3229900398
 21
356.0760930809
 31
0.0
  0
LINE
  5
2AC
330
1B
100
AcDbEntity
 67
     1
  8
3_ALL_AXES
  6
Continuous
 62
     7
100
AcDbLine
 10
1038.3229900398
 20
358.8260930809
 30
0.0
 11
1038.3229900398
 21
361.5760930809
 31
0.0
  0
LINE
  5
2AD
330
1B
100
AcDbEntity
 67
     1
  8
3_ALL_AXES
  6
Continuous
 62
     7
100
AcDbLine
 10
1038.4737103694
 20
310.0760930809
 30
0.0
 11
1038.4737103694
 21
307.3261411471
 31
0.0
  0
LINE
  5
2AE
330
1B
100
AcDbEntity
 67
     1
  8
3_ALL_AXES
  6
Continuous
 62
     7
100
AcDbLine
 10
1038.4737103694
 20
310.0760930809
 30
0.0
 11
1038.4737103694
 21
312.8260450147
 31
0.0
  0
LINE
  5
2AF
330
1B
100
AcDbEntity
 67
     1
  8
3_ALL_AXES
  6
Continuous
 62
     7
100
AcDbLine
 10
1038.3229900398
 20
307.3260930809
 30
0.0
 11
1038.4737103694
 21
307.3260930809
 31
0.0
  0
LINE
  5
2B0
330
1B
100
AcDbEntity
 67
     1
  8
3_ALL_AXES
  6
Continuous
 62
     7
100
AcDbLine
 10
1037.9737103694
 20
307.6191735235
 30
0.0
 11
1038.3229900398
 21
307.3260930809
 31
0.0
  0
LINE
  5
2B1
330
1B
100
AcDbEntity
 67
     1
  8
3_ALL_AXES
  6
Continuous
 62
     7
100
AcDbLine
 10
1038.3229900398
 20
312.8260930809
 30
0.0
 11
1038.4737103694
 21
312.8260930809
 31
0.0
  0
LINE
  5
2B2
330
1B
100
AcDbEntity
 67
     1
  8
3_ALL_AXES
  6
Continuous
 62
     7
100
AcDbLine
 10
1037.9737103694
 20
312.5330126383
 30
0.0
 11
1038.3229900398
 21
312.8260930809
 31
0.0
  0
LINE
  5
2B3
330
1B
100
AcDbEntity
 67
     1
  8
3_ALL_AXES
  6
Continuous
 62
     7
100
AcDbLine
 10
1038.3229900398
 20
310.0760930809
 30
0.0
 11
1038.3229900398
 21
307.3260930809
 31
0.0
  0
LINE
  5
2B4
330
1B
100
AcDbEntity
 67
     1
  8
3_ALL_AXES
  6
Continuous
 62
     7
100
AcDbLine
 10
1038.3229900398
 20
310.0760930809
 30
0.0
 11
1038.3229900398
 21
312.8260930809
 31
0.0
  0
LINE
  5
2B5
330
1B
100
AcDbEntity
 67
     1
  8
3_ALL_AXES
  6
Continuous
 62
     7
100
AcDbLine
 10
23.624430699
 20
307.3260930809
 30
0.0
 11
23.4737103694
 21
307.3260930809
 31
0.0
  0
LINE
  5
2B6
330
1B
100
AcDbEntity
 67
     1
  8
3_ALL_AXES
  6
Continuous
 62
     7
100
AcDbLine
 10
23.4737103694
 20
307.3261411471
 30
0.0
 11
23.4737103694
 21
310.0760930809
 31
0.0
  0
LINE
  5
2B7
330
1B
100
AcDbEntity
 67
     1
  8
3_ALL_AXES
  6
Continuous
 62
     7
100
AcDbLine
 10
23.9737103694
 20
307.6191735235
 30
0.0
 11
23.624430699
 21
307.3260930809
 31
0.0
  0
LINE
  5
2B8
330
1B
100
AcDbEntity
 67
     1
  8
3_ALL_AXES
  6
Continuous
 62
     7
100
AcDbLine
 10
23.624430699
 20
312.8260930809
 30
0.0
 11
23.4737103694
 21
312.8260930809
 31
0.0
  0
LINE
  5
2B9
330
1B
100
AcDbEntity
 67
     1
  8
3_ALL_AXES
  6
Continuous
 62
     7
100
AcDbLine
 10
23.4737103694
 20
312.8260450147
 30
0.0
 11
23.4737103694
 21
310.0760930809
 31
0.0
  0
LINE
  5
2BA
330
1B
100
AcDbEntity
 67
     1
  8
3_ALL_AXES
  6
Continuous
 62
     7
100
AcDbLine
 10
23.9737103694
 20
312.5330126383
 30
0.0
 11
23.624430699
 21
312.8260930809
 31
0.0
  0
LINE
  5
2BB
330
1B
100
AcDbEntity
 67
     1
  8
3_ALL_AXES
  6
Continuous
 62
     7
100
AcDbLine
 10
23.624430699
 20
312.8260930809
 30
0.0
 11
23.624430699
 21
310.0760930809
 31
0.0
  0
LINE
  5
2BC
330
1B
100
AcDbEntity
 67
     1
  8
3_ALL_AXES
  6
Continuous
 62
     7
100
AcDbLine
 10
23.624430699
 20
307.3260930809
 30
0.0
 11
23.624430699
 21
310.0760930809
 31
0.0
  0
LINE
  5
2BD
330
1B
100
AcDbEntity
 67
     1
  8
3_ALL_AXES
  6
Continuous
 62
     7
100
AcDbLine
 10
23.624430699
 20
356.0760930809
 30
0.0
 11
23.4737103694
 21
356.0760930809
 31
0.0
  0
LINE
  5
2BE
330
1B
100
AcDbEntity
 67
     1
  8
3_ALL_AXES
  6
Continuous
 62
     7
100
AcDbLine
 10
23.4737103694
 20
356.0761411471
 30
0.0
 11
23.4737103694
 21
358.8260930809
 31
0.0
  0
LINE
  5
2BF
330
1B
100
AcDbEntity
 67
     1
  8
3_ALL_AXES
  6
Continuous
 62
     7
100
AcDbLine
 10
23.9737103694
 20
356.3691735235
 30
0.0
 11
23.624430699
 21
356.0760930809
 31
0.0
  0
LINE
  5
2C0
330
1B
100
AcDbEntity
 67
     1
  8
3_ALL_AXES
  6
Continuous
 62
     7
100
AcDbLine
 10
23.624430699
 20
361.5760930809
 30
0.0
 11
23.4737103694
 21
361.5760930809
 31
0.0
  0
LINE
  5
2C1
330
1B
100
AcDbEntity
 67
     1
  8
3_ALL_AXES
  6
Continuous
 62
     7
100
AcDbLine
 10
23.4737103694
 20
361.5760450147
 30
0.0
 11
23.4737103694
 21
358.8260930809
 31
0.0
  0
LINE
  5
2C2
330
1B
100
AcDbEntity
 67
     1
  8
3_ALL_AXES
  6
Continuous
 62
     7
100
AcDbLine
 10
23.9737103694
 20
361.2830126383
 30
0.0
 11
23.624430699
 21
361.5760930809
 31
0.0
  0
LINE
  5
2C3
330
1B
100
AcDbEntity
 67
     1
  8
3_ALL_AXES
  6
Continuous
 62
     7
100
AcDbLine
 10
23.624430699
 20
361.5760930809
 30
0.0
 11
23.624430699
 21
358.8260930809
 31
0.0
  0
LINE
  5
2C4
330
1B
100
AcDbEntity
 67
     1
  8
3_ALL_AXES
  6
Continuous
 62
     7
100
AcDbLine
 10
23.624430699
 20
356.0760930809
 30
0.0
 11
23.624430699
 21
358.8260930809
 31
0.0
  0
LINE
  5
2C5
330
1B
100
AcDbEntity
 67
     1
  8
7_ALL_FEATURES
  6
Continuous
 62
     7
100
AcDbLine
 10
1037.9737103694
 20
307.0760930809
 30
0.0
 11
1036.4737103694
 21
307.0760930809
 31
0.0
  0
LINE
  5
2C6
330
1B
100
AcDbEntity
 67
     1
  8
7_ALL_FEATURES
  6
Continuous
 62
     7
100
AcDbLine
 10
1037.9737103694
 20
381.7760930809
 30
0.0
 11
1037.9737103694
 21
379.3760930809
 31
0.0
  0
LINE
  5
2C7
330
1B
100
AcDbEntity
 67
     1
  8
7_ALL_FEATURES
  6
Continuous
 62
     7
100
AcDbLine
 10
1037.9737103694
 20
379.3760930809
 30
0.0
 11
1037.9737103694
 21
378.5760930809
 31
0.0
  0
LINE
  5
2C8
330
1B
100
AcDbEntity
 67
     1
  8
7_ALL_FEATURES
  6
Continuous
 62
     7
100
AcDbLine
 10
1037.9737103694
 20
308.0760930809
 30
0.0
 11
1037.9737103694
 21
378.5760930809
 31
0.0
  0
LINE
  5
2C9
330
1B
100
AcDbEntity
 67
     1
  8
7_ALL_FEATURES
  6
Continuous
 62
     7
100
AcDbLine
 10
1037.9737103694
 20
308.0760930809
 30
0.0
 11
1037.9737103694
 21
307.0760930809
 31
0.0
  0
LINE
  5
2CA
330
1B
100
AcDbEntity
 67
     1
  8
7_ALL_FEATURES
  6
Continuous
 62
     7
100
AcDbLine
 10
1037.9737103694
 20
390.5760930809
 30
0.0
 11
1037.9737103694
 21
389.5760930809
 31
0.0
  0
LINE
  5
2CB
330
1B
100
AcDbEntity
 67
     1
  8
7_ALL_FEATURES
  6
Continuous
 62
     7
100
AcDbLine
 10
1037.9737103694
 20
307.0760930809
 30
0.0
 11
1036.4737103694
 21
307.0760930809
 31
0.0
  0
LINE
  5
2CC
330
1B
100
AcDbEntity
 67
     1
  8
7_ALL_FEATURES
  6
Continuous
 62
     7
100
AcDbLine
 10
1037.9737103694
 20
390.5760930809
 30
0.0
 11
1036.4737103694
 21
390.5760930809
 31
0.0
  0
LINE
  5
2CD
330
1B
100
AcDbEntity
 67
     1
  8
7_ALL_FEATURES
  6
Continuous
 62
     7
100
AcDbLine
 10
1037.9737103694
 20
382.5760930809
 30
0.0
 11
1037.9737103694
 21
389.5760930809
 31
0.0
  0
LINE
  5
2CE
330
1B
100
AcDbEntity
 67
     1
  8
7_ALL_FEATURES
  6
Continuous
 62
     7
100
AcDbLine
 10
1037.9737103694
 20
382.5760930809
 30
0.0
 11
1037.9737103694
 21
381.7760930809
 31
0.0
  0
LINE
  5
2CF
330
1B
100
AcDbEntity
 67
     1
  8
7_ALL_FEATURES
  6
Continuous
 62
     9
100
AcDbLine
 10
1037.9737103694
 20
382.5760930809
 30
0.0
 11
1036.4737103694
 21
382.5760930809
 31
0.0
  0
LINE
  5
2D0
330
1B
100
AcDbEntity
 67
     1
  8
7_ALL_FEATURES
  6
Continuous
 62
     9
100
AcDbLine
 10
1037.9737103694
 20
379.3760930809
 30
0.0
 11
1036.4737103694
 21
379.3760930809
 31
0.0
  0
LINE
  5
2D1
330
1B
100
AcDbEntity
 67
     1
  8
7_ALL_FEATURES
  6
Continuous
 62
     9
100
AcDbLine
 10
1037.9737103694
 20
381.7760930809
 30
0.0
 11
1036.4737103694
 21
381.7760930809
 31
0.0
  0
LINE
  5
2D2
330
1B
100
AcDbEntity
 67
     1
  8
7_ALL_FEATURES
  6
Continuous
 62
     9
100
AcDbLine
 10
1037.9737103694
 20
308.0760930809
 30
0.0
 11
1036.4737103694
 21
308.0760930809
 31
0.0
  0
LINE
  5
2D3
330
1B
100
AcDbEntity
 67
     1
  8
7_ALL_FEATURES
  6
Continuous
 62
     9
100
AcDbLine
 10
1037.9737103694
 20
378.5760930809
 30
0.0
 11
1036.4737103694
 21
378.5760930809
 31
0.0
  0
LINE
  5
2D4
330
1B
100
AcDbEntity
 67
     1
  8
7_ALL_FEATURES
  6
Continuous
 62
     9
100
AcDbLine
 10
1037.9737103694
 20
389.5760930809
 30
0.0
 11
1036.4737103694
 21
389.5760930809
 31
0.0
  0
LINE
  5
2D5
330
1B
100
AcDbEntity
 67
     1
  8
7_ALL_FEATURES
  6
Continuous
 62
     7
100
AcDbLine
 10
23.9737103694
 20
390.5760930809
 30
0.0
 11
25.4737103694
 21
390.5760930809
 31
0.0
  0
LINE
  5
2D6
330
1B
100
AcDbEntity
 67
     1
  8
7_ALL_FEATURES
  6
Continuous
 62
     7
100
AcDbLine
 10
23.9737103694
 20
307.0760930809
 30
0.0
 11
23.9737103694
 21
308.0760930809
 31
0.0
  0
LINE
  5
2D7
330
1B
100
AcDbEntity
 67
     1
  8
7_ALL_FEATURES
  6
Continuous
 62
     7
100
AcDbLine
 10
23.9737103694
 20
318.5760930809
 30
0.0
 11
23.9737103694
 21
308.0760930809
 31
0.0
  0
LINE
  5
2D8
330
1B
100
AcDbEntity
 67
     1
  8
7_ALL_FEATURES
  6
Continuous
 62
     7
100
AcDbLine
 10
23.9737103694
 20
318.5760930809
 30
0.0
 11
23.9737103694
 21
319.3760930809
 31
0.0
  0
LINE
  5
2D9
330
1B
100
AcDbEntity
 67
     1
  8
7_ALL_FEATURES
  6
Continuous
 62
     7
100
AcDbLine
 10
23.9737103694
 20
319.3760930809
 30
0.0
 11
23.9737103694
 21
321.7760930809
 31
0.0
  0
LINE
  5
2DA
330
1B
100
AcDbEntity
 67
     1
  8
7_ALL_FEATURES
  6
Continuous
 62
     7
100
AcDbLine
 10
23.9737103694
 20
321.7760930809
 30
0.0
 11
23.9737103694
 21
322.5760930809
 31
0.0
  0
LINE
  5
2DB
330
1B
100
AcDbEntity
 67
     1
  8
7_ALL_FEATURES
  6
Continuous
 62
     7
100
AcDbLine
 10
23.9737103694
 20
307.0760930809
 30
0.0
 11
25.4737103694
 21
307.0760930809
 31
0.0
  0
LINE
  5
2DC
330
1B
100
AcDbEntity
 67
     1
  8
7_ALL_FEATURES
  6
Continuous
 62
     7
100
AcDbLine
 10
23.9737103694
 20
389.5760930809
 30
0.0
 11
23.9737103694
 21
322.5760930809
 31
0.0
  0
LINE
  5
2DD
330
1B
100
AcDbEntity
 67
     1
  8
7_ALL_FEATURES
  6
Continuous
 62
     7
100
AcDbLine
 10
23.9737103694
 20
390.5760930809
 30
0.0
 11
25.4737103694
 21
390.5760930809
 31
0.0
  0
LINE
  5
2DE
330
1B
100
AcDbEntity
 67
     1
  8
7_ALL_FEATURES
  6
Continuous
 62
     7
100
AcDbLine
 10
23.9737103694
 20
389.5760930809
 30
0.0
 11
23.9737103694
 21
390.5760930809
 31
0.0
  0
LINE
  5
2DF
330
1B
100
AcDbEntity
 67
     1
  8
7_ALL_FEATURES
  6
Continuous
 62
     9
100
AcDbLine
 10
23.9737103694
 20
322.5760930809
 30
0.0
 11
25.4737103694
 21
322.5760930809
 31
0.0
  0
LINE
  5
2E0
330
1B
100
AcDbEntity
 67
     1
  8
7_ALL_FEATURES
  6
Continuous
 62
     9
100
AcDbLine
 10
23.9737103694
 20
319.3760930809
 30
0.0
 11
25.4737103694
 21
319.3760930809
 31
0.0
  0
LINE
  5
2E1
330
1B
100
AcDbEntity
 67
     1
  8
7_ALL_FEATURES
  6
Continuous
 62
     9
100
AcDbLine
 10
23.9737103694
 20
321.7760930809
 30
0.0
 11
25.4737103694
 21
321.7760930809
 31
0.0
  0
LINE
  5
2E2
330
1B
100
AcDbEntity
 67
     1
  8
7_ALL_FEATURES
  6
Continuous
 62
     9
100
AcDbLine
 10
23.9737103694
 20
308.0760930809
 30
0.0
 11
25.4737103694
 21
308.0760930809
 31
0.0
  0
LINE
  5
2E3
330
1B
100
AcDbEntity
 67
     1
  8
7_ALL_FEATURES
  6
Continuous
 62
     9
100
AcDbLine
 10
23.9737103694
 20
318.5760930809
 30
0.0
 11
25.4737103694
 21
318.5760930809
 31
0.0
  0
LINE
  5
2E4
330
1B
100
AcDbEntity
 67
     1
  8
7_ALL_FEATURES
  6
Continuous
 62
     9
100
AcDbLine
 10
23.9737103694
 20
389.5760930809
 30
0.0
 11
25.4737103694
 21
389.5760930809
 31
0.0
  0
LINE
  5
2E5
330
1B
100
AcDbEntity
 67
     1
  8
7_ALL_FEATURES
  6
Continuous
 62
     7
100
AcDbLine
 10
174.4737103694
 20
377.0760930809
 30
0.0
 11
186.4737103694
 21
377.0760930809
 31
0.0
  0
LINE
  5
2E6
330
1B
100
AcDbEntity
 67
     1
  8
7_ALL_FEATURES
  6
Continuous
 62
     7
100
AcDbLine
 10
73.4737103694
 20
377.0760930809
 30
0.0
 11
174.4737103694
 21
377.0760930809
 31
0.0
  0
LINE
  5
2E7
330
1B
100
AcDbEntity
 67
     1
  8
7_ALL_FEATURES
  6
Continuous
 62
     7
100
AcDbLine
 10
61.4737103694
 20
377.0760930809
 30
0.0
 11
73.4737103694
 21
377.0760930809
 31
0.0
  0
LINE
  5
2E8
330
1B
100
AcDbEntity
 67
     1
  8
7_ALL_FEATURES
  6
Continuous
 62
     7
100
AcDbLine
 10
61.4737103694
 20
376.4760930809
 30
0.0
 11
61.4737103694
 21
377.0760930809
 31
0.0
  0
LINE
  5
2E9
330
1B
100
AcDbEntity
 67
     1
  8
7_ALL_FEATURES
  6
Continuous
 62
     7
100
AcDbLine
 10
186.4737103694
 20
376.4760930809
 30
0.0
 11
186.4737103694
 21
377.0760930809
 31
0.0
  0
LINE
  5
2EA
330
1B
100
AcDbEntity
 67
     1
  8
7_ALL_FEATURES
  6
Continuous
 62
     7
100
AcDbLine
 10
174.4737103694
 20
376.4760930809
 30
0.0
 11
174.4737103694
 21
377.0760930809
 31
0.0
  0
LINE
  5
2EB
330
1B
100
AcDbEntity
 67
     1
  8
7_ALL_FEATURES
  6
Continuous
 62
     7
100
AcDbLine
 10
73.4737103694
 20
376.4760930809
 30
0.0
 11
73.4737103694
 21
377.0760930809
 31
0.0
  0
LINE
  5
2EC
330
1B
100
AcDbEntity
 67
     1
  8
7_ALL_FEATURES
  6
Continuous
 62
     7
100
AcDbLine
 10
994.4737103694
 20
377.0760930809
 30
0.0
 11
1006.4737103694
 21
377.0760930809
 31
0.0
  0
LINE
  5
2ED
330
1B
100
AcDbEntity
 67
     1
  8
7_ALL_FEATURES
  6
Continuous
 62
     7
100
AcDbLine
 10
893.4737103694
 20
377.0760930809
 30
0.0
 11
994.4737103694
 21
377.0760930809
 31
0.0
  0
LINE
  5
2EE
330
1B
100
AcDbEntity
 67
     1
  8
7_ALL_FEATURES
  6
Continuous
 62
     7
100
AcDbLine
 10
881.4737103694
 20
377.0760930809
 30
0.0
 11
893.4737103694
 21
377.0760930809
 31
0.0
  0
LINE
  5
2EF
330
1B
100
AcDbEntity
 67
     1
  8
7_ALL_FEATURES
  6
Continuous
 62
     7
100
AcDbLine
 10
881.4737103694
 20
376.4760930809
 30
0.0
 11
881.4737103694
 21
377.0760930809
 31
0.0
  0
LINE
  5
2F0
330
1B
100
AcDbEntity
 67
     1
  8
7_ALL_FEATURES
  6
Continuous
 62
     7
100
AcDbLine
 10
1006.4737103694
 20
376.4760930809
 30
0.0
 11
1006.4737103694
 21
377.0760930809
 31
0.0
  0
LINE
  5
2F1
330
1B
100
AcDbEntity
 67
     1
  8
7_ALL_FEATURES
  6
Continuous
 62
     7
100
AcDbLine
 10
994.4737103694
 20
376.4760930809
 30
0.0
 11
994.4737103694
 21
377.0760930809
 31
0.0
  0
LINE
  5
2F2
330
1B
100
AcDbEntity
 67
     1
  8
7_ALL_FEATURES
  6
Continuous
 62
     7
100
AcDbLine
 10
893.4737103694
 20
376.4760930809
 30
0.0
 11
893.4737103694
 21
377.0760930809
 31
0.0
  0
LINE
  5
2F3
330
1B
100
AcDbEntity
 67
     1
  8
7_ALL_FEATURES
  6
Continuous
 62
     7
100
AcDbLine
 10
25.4737103694
 20
390.4970420783
 30
0.0
 11
25.4737103694
 21
390.5760930809
 31
0.0
  0
LINE
  5
2F4
330
1B
100
AcDbEntity
 67
     1
  8
7_ALL_FEATURES
  6
Continuous
 62
     7
100
AcDbLine
 10
25.4737103694
 20
386.3984283189
 30
0.0
 11
25.4737103694
 21
385.3666479669
 31
0.0
  0
LINE
  5
2F5
330
1B
100
AcDbEntity
 67
     1
  8
7_ALL_FEATURES
  6
Continuous
 62
     7
100
AcDbLine
 10
25.4737103694
 20
384.3877015252
 30
0.0
 11
25.4737103694
 21
385.3666479669
 31
0.0
  0
LINE
  5
2F6
330
1B
100
AcDbEntity
 67
     1
  8
7_ALL_FEATURES
  6
Continuous
 62
     7
100
AcDbLine
 10
25.4737103694
 20
384.3877015252
 30
0.0
 11
25.4737103694
 21
354.7760930809
 31
0.0
  0
LINE
  5
2F7
330
1B
100
AcDbEntity
 67
     1
  8
7_ALL_FEATURES
  6
Continuous
 62
     7
100
AcDbLine
 10
25.4737103694
 20
349.8760930809
 30
0.0
 11
25.4737103694
 21
350.0760930809
 31
0.0
  0
LINE
  5
2F8
330
1B
100
AcDbEntity
 67
     1
  8
7_ALL_FEATURES
  6
Continuous
 62
     7
100
AcDbLine
 10
25.4737103694
 20
349.8760930809
 30
0.0
 11
25.4737103694
 21
336.8760930809
 31
0.0
  0
LINE
  5
2F9
330
1B
100
AcDbEntity
 67
     1
  8
7_ALL_FEATURES
  6
Continuous
 62
     7
100
AcDbLine
 10
25.4737103694
 20
336.5934874761
 30
0.0
 11
25.4737103694
 21
336.8760930809
 31
0.0
  0
LINE
  5
2FA
330
1B
100
AcDbEntity
 67
     1
  8
7_ALL_FEATURES
  6
Continuous
 62
     7
100
AcDbLine
 10
25.4737103694
 20
331.7760930809
 30
0.0
 11
25.4737103694
 21
332.0586986857
 31
0.0
  0
LINE
  5
2FB
330
1B
100
AcDbEntity
 67
     1
  8
7_ALL_FEATURES
  6
Continuous
 62
     7
100
AcDbLine
 10
25.4737103694
 20
331.7760930809
 30
0.0
 11
25.4737103694
 21
308.0760930809
 31
0.0
  0
LINE
  5
2FC
330
1B
100
AcDbEntity
 67
     1
  8
7_ALL_FEATURES
  6
Continuous
 62
     7
100
AcDbLine
 10
25.4737103694
 20
354.5760930809
 30
0.0
 11
25.4737103694
 21
354.7760930809
 31
0.0
  0
LINE
  5
2FD
330
1B
100
AcDbEntity
 67
     1
  8
7_ALL_FEATURES
  6
Continuous
 62
     7
100
AcDbLine
 10
1036.4737103694
 20
354.5760930809
 30
0.0
 11
1006.4737103694
 21
354.5760930809
 31
0.0
  0
LINE
  5
2FE
330
1B
100
AcDbEntity
 67
     1
  8
7_ALL_FEATURES
  6
Continuous
 62
     7
100
AcDbLine
 10
983.9737103694
 20
354.5760930809
 30
0.0
 11
983.7737103694
 21
354.5760930809
 31
0.0
  0
LINE
  5
2FF
330
1B
100
AcDbEntity
 67
     1
  8
7_ALL_FEATURES
  6
Continuous
 62
     7
100
AcDbLine
 10
904.1737103694
 20
354.5760930809
 30
0.0
 11
903.9737103694
 21
354.5760930809
 31
0.0
  0
LINE
  5
300
330
1B
100
AcDbEntity
 67
     1
  8
7_ALL_FEATURES
  6
Continuous
 62
     7
100
AcDbLine
 10
881.4737103694
 20
354.5760930809
 30
0.0
 11
186.4737103694
 21
354.5760930809
 31
0.0
  0
LINE
  5
301
330
1B
100
AcDbEntity
 67
     1
  8
7_ALL_FEATURES
  6
Continuous
 62
     7
100
AcDbLine
 10
163.9737103694
 20
354.5760930809
 30
0.0
 11
163.7737103694
 21
354.5760930809
 31
0.0
  0
LINE
  5
302
330
1B
100
AcDbEntity
 67
     1
  8
7_ALL_FEATURES
  6
Continuous
 62
     7
100
AcDbLine
 10
84.1737103694
 20
354.5760930809
 30
0.0
 11
83.9737103694
 21
354.5760930809
 31
0.0
  0
LINE
  5
303
330
1B
100
AcDbEntity
 67
     1
  8
7_ALL_FEATURES
  6
Continuous
 62
     7
100
AcDbLine
 10
61.4737103694
 20
354.5760930809
 30
0.0
 11
25.4737103694
 21
354.5760930809
 31
0.0
  0
LINE
  5
304
330
1B
100
AcDbEntity
 67
     1
  8
7_ALL_FEATURES
  6
Continuous
 62
     7
100
AcDbLine
 10
25.4737103694
 20
307.0760930809
 30
0.0
 11
25.4737103694
 21
308.0760930809
 31
0.0
  0
LINE
  5
305
330
1B
100
AcDbEntity
 67
     1
  8
7_ALL_FEATURES
  6
Continuous
 62
     7
100
AcDbLine
 10
1036.4737103694
 20
307.0760930809
 30
0.0
 11
1006.4737103694
 21
307.0760930809
 31
0.0
  0
LINE
  5
306
330
1B
100
AcDbEntity
 67
     1
  8
7_ALL_FEATURES
  6
Continuous
 62
     7
100
AcDbLine
 10
881.4737103694
 20
307.0760930809
 30
0.0
 11
186.4737103694
 21
307.0760930809
 31
0.0
  0
LINE
  5
307
330
1B
100
AcDbEntity
 67
     1
  8
7_ALL_FEATURES
  6
Continuous
 62
     7
100
AcDbLine
 10
61.4737103694
 20
307.0760930809
 30
0.0
 11
25.4737103694
 21
307.0760930809
 31
0.0
  0
LINE
  5
308
330
1B
100
AcDbEntity
 67
     1
  8
7_ALL_FEATURES
  6
Continuous
 62
     7
100
AcDbLine
 10
1036.4737103694
 20
308.0760930809
 30
0.0
 11
1036.4737103694
 21
307.0760930809
 31
0.0
  0
LINE
  5
309
330
1B
100
AcDbEntity
 67
     1
  8
7_ALL_FEATURES
  6
Continuous
 62
     7
100
AcDbLine
 10
1036.4737103694
 20
331.7760930809
 30
0.0
 11
1036.4737103694
 21
308.0760930809
 31
0.0
  0
LINE
  5
30A
330
1B
100
AcDbEntity
 67
     1
  8
7_ALL_FEATURES
  6
Continuous
 62
     7
100
AcDbLine
 10
1036.4737103694
 20
332.0586986857
 30
0.0
 11
1036.4737103694
 21
331.7760930809
 31
0.0
  0
LINE
  5
30B
330
1B
100
AcDbEntity
 67
     1
  8
7_ALL_FEATURES
  6
Continuous
 62
     7
100
AcDbLine
 10
1036.4737103694
 20
336.8760930809
 30
0.0
 11
1036.4737103694
 21
336.5934874761
 31
0.0
  0
LINE
  5
30C
330
1B
100
AcDbEntity
 67
     1
  8
7_ALL_FEATURES
  6
Continuous
 62
     7
100
AcDbLine
 10
1036.4737103694
 20
349.8760930809
 30
0.0
 11
1036.4737103694
 21
336.8760930809
 31
0.0
  0
LINE
  5
30D
330
1B
100
AcDbEntity
 67
     1
  8
7_ALL_FEATURES
  6
Continuous
 62
     7
100
AcDbLine
 10
1036.4737103694
 20
350.0760930809
 30
0.0
 11
1036.4737103694
 21
349.8760930809
 31
0.0
  0
LINE
  5
30E
330
1B
100
AcDbEntity
 67
     1
  8
7_ALL_FEATURES
  6
Continuous
 62
     7
100
AcDbLine
 10
1036.4737103694
 20
354.7760930809
 30
0.0
 11
1036.4737103694
 21
354.5760930809
 31
0.0
  0
LINE
  5
30F
330
1B
100
AcDbEntity
 67
     1
  8
7_ALL_FEATURES
  6
Continuous
 62
     7
100
AcDbLine
 10
1036.4737103694
 20
384.3877015252
 30
0.0
 11
1036.4737103694
 21
354.7760930809
 31
0.0
  0
LINE
  5
310
330
1B
100
AcDbEntity
 67
     1
  8
7_ALL_FEATURES
  6
Continuous
 62
     7
100
AcDbLine
 10
1036.4737103694
 20
385.3666479669
 30
0.0
 11
1036.4737103694
 21
384.3877015252
 31
0.0
  0
LINE
  5
311
330
1B
100
AcDbEntity
 67
     1
  8
7_ALL_FEATURES
  6
Continuous
 62
     7
100
AcDbLine
 10
1036.4737103694
 20
386.3984283189
 30
0.0
 11
1036.4737103694
 21
385.3666479669
 31
0.0
  0
LINE
  5
312
330
1B
100
AcDbEntity
 67
     1
  8
7_ALL_FEATURES
  6
Continuous
 62
     7
100
AcDbLine
 10
1036.4737103694
 20
390.5760930809
 30
0.0
 11
1036.4737103694
 21
390.4970420783
 31
0.0
  0
LINE
  5
313
330
1B
100
AcDbEntity
 67
     1
  8
02___PRT_ALL_AXES
  6
Continuous
 62
     7
100
AcDbLine
 10
911.5835941683
 20
332.0760930809
 30
0.0
 11
910.8615659272
 21
332.0760930809
 31
0.0
  0
LINE
  5
314
330
1B
100
AcDbEntity
 67
     1
  8
02___PRT_ALL_AXES
  6
Continuous
 62
     7
100
AcDbLine
 10
881.4737103694
 20
332.0760930809
 30
0.0
 11
186.4737103694
 21
332.0760930809
 31
0.0
  0
LINE
  5
315
330
1B
100
AcDbEntity
 67
     1
  8
02___PRT_ALL_AXES
  6
Continuous
 62
     7
100
AcDbLine
 10
157.0858548116
 20
332.0760930809
 30
0.0
 11
156.3638265705
 21
332.0760930809
 31
0.0
  0
LINE
  5
316
330
1B
100
AcDbEntity
 67
     1
  8
02___PRT_ALL_AXES
  6
Continuous
 62
     7
100
AcDbLine
 10
91.5835941683
 20
332.0760930809
 30
0.0
 11
90.8615659272
 21
332.0760930809
 31
0.0
  0
LINE
  5
317
330
1B
100
AcDbEntity
 67
     1
  8
02___PRT_ALL_AXES
  6
Continuous
 62
     7
100
AcDbLine
 10
61.4737103694
 20
332.0760930809
 30
0.0
 11
25.4737103694
 21
332.0760930809
 31
0.0
  0
LINE
  5
318
330
1B
100
AcDbEntity
 67
     1
  8
02___PRT_ALL_AXES
  6
Continuous
 62
     7
100
AcDbLine
 10
1036.4737103694
 20
332.0760930809
 30
0.0
 11
1006.4737103694
 21
332.0760930809
 31
0.0
  0
LINE
  5
319
330
1B
100
AcDbEntity
 67
     1
  8
02___PRT_ALL_AXES
  6
Continuous
 62
     7
100
AcDbLine
 10
977.0858548116
 20
332.0760930809
 30
0.0
 11
976.3638265705
 21
332.0760930809
 31
0.0
  0
LINE
  5
31A
330
1B
100
AcDbEntity
 67
     1
  8
02___PRT_ALL_AXES
  6
Continuous
 62
     7
100
AcDbLine
 10
25.4737103694
 20
336.5760930809
 30
0.0
 11
61.4737103694
 21
336.5760930809
 31
0.0
  0
LINE
  5
31B
330
1B
100
AcDbEntity
 67
     1
  8
02___PRT_ALL_AXES
  6
Continuous
 62
     7
100
AcDbLine
 10
85.3138019864
 20
336.5760930809
 30
0.0
 11
85.5490750827
 21
336.5760930809
 31
0.0
  0
LINE
  5
31C
330
1B
100
AcDbEntity
 67
     1
  8
02___PRT_ALL_AXES
  6
Continuous
 62
     7
100
AcDbLine
 10
162.3983456562
 20
336.5760930809
 30
0.0
 11
162.6336187524
 21
336.5760930809
 31
0.0
  0
LINE
  5
31D
330
1B
100
AcDbEntity
 67
     1
  8
02___PRT_ALL_AXES
  6
Continuous
 62
     7
100
AcDbLine
 10
186.4737103694
 20
336.5760930809
 30
0.0
 11
881.4737103694
 21
336.5760930809
 31
0.0
  0
LINE
  5
31E
330
1B
100
AcDbEntity
 67
     1
  8
02___PRT_ALL_AXES
  6
Continuous
 62
     7
100
AcDbLine
 10
905.3138019864
 20
336.5760930809
 30
0.0
 11
905.5490750827
 21
336.5760930809
 31
0.0
  0
LINE
  5
31F
330
1B
100
AcDbEntity
 67
     1
  8
02___PRT_ALL_AXES
  6
Continuous
 62
     7
100
AcDbLine
 10
982.3983456562
 20
336.5760930809
 30
0.0
 11
982.6336187524
 21
336.5760930809
 31
0.0
  0
LINE
  5
320
330
1B
100
AcDbEntity
 67
     1
  8
02___PRT_ALL_AXES
  6
Continuous
 62
     7
100
AcDbLine
 10
1006.4737103694
 20
336.5760930809
 30
0.0
 11
1036.4737103694
 21
336.5760930809
 31
0.0
  0
LINE
  5
321
330
1B
100
AcDbEntity
 67
     1
  8
7_ALL_FEATURES
  6
Continuous
 62
     7
100
AcDbLine
 10
1036.4737103694
 20
307.0760930809
 30
0.0
 11
1006.4737103694
 21
307.0760930809
 31
0.0
  0
LINE
  5
322
330
1B
100
AcDbEntity
 67
     1
  8
7_ALL_FEATURES
  6
Continuous
 62
     7
100
AcDbLine
 10
881.4737103694
 20
307.0760930809
 30
0.0
 11
186.4737103694
 21
307.0760930809
 31
0.0
  0
LINE
  5
323
330
1B
100
AcDbEntity
 67
     1
  8
7_ALL_FEATURES
  6
Continuous
 62
     7
100
AcDbLine
 10
61.4737103694
 20
307.0760930809
 30
0.0
 11
25.4737103694
 21
307.0760930809
 31
0.0
  0
ARC
  5
324
330
1B
100
AcDbEntity
 67
     1
  8
02___PRT_ALL_AXES
  6
Continuous
 62
     7
100
AcDbCircle
 10
936.4737103694
 20
324.5760930809
 30
0.0
 40
13.0
100
AcDbArc
 50
146.3687225521
 51
147.4180804397
  0
ARC
  5
325
330
1B
100
AcDbEntity
 67
     1
  8
02___PRT_ALL_AXES
  6
Continuous
 62
     7
100
AcDbCircle
 10
936.4737103694
 20
324.5760930809
 30
0.0
 40
13.0
100
AcDbArc
 50
32.5819195603
 51
33.6312774479
  0
LINE
  5
326
330
1B
100
AcDbEntity
 67
     1
  8
7_ALL_FEATURES
  6
Continuous
 62
     7
100
AcDbLine
 10
1036.4737103694
 20
350.0760930809
 30
0.0
 11
1006.4737103694
 21
350.0760930809
 31
0.0
  0
LINE
  5
327
330
1B
100
AcDbEntity
 67
     1
  8
7_ALL_FEATURES
  6
Continuous
 62
     7
100
AcDbLine
 10
983.9737103694
 20
350.0760930809
 30
0.0
 11
983.7737103694
 21
350.0760930809
 31
0.0
  0
LINE
  5
328
330
1B
100
AcDbEntity
 67
     1
  8
7_ALL_FEATURES
  6
Continuous
 62
     7
100
AcDbLine
 10
904.1737103694
 20
350.0760930809
 30
0.0
 11
903.9737103694
 21
350.0760930809
 31
0.0
  0
LINE
  5
329
330
1B
100
AcDbEntity
 67
     1
  8
7_ALL_FEATURES
  6
Continuous
 62
     7
100
AcDbLine
 10
881.4737103694
 20
350.0760930809
 30
0.0
 11
186.4737103694
 21
350.0760930809
 31
0.0
  0
LINE
  5
32A
330
1B
100
AcDbEntity
 67
     1
  8
7_ALL_FEATURES
  6
Continuous
 62
     7
100
AcDbLine
 10
163.9737103694
 20
350.0760930809
 30
0.0
 11
163.7737103694
 21
350.0760930809
 31
0.0
  0
LINE
  5
32B
330
1B
100
AcDbEntity
 67
     1
  8
7_ALL_FEATURES
  6
Continuous
 62
     7
100
AcDbLine
 10
84.1737103694
 20
350.0760930809
 30
0.0
 11
83.9737103694
 21
350.0760930809
 31
0.0
  0
LINE
  5
32C
330
1B
100
AcDbEntity
 67
     1
  8
7_ALL_FEATURES
  6
Continuous
 62
     7
100
AcDbLine
 10
61.4737103694
 20
350.0760930809
 30
0.0
 11
25.4737103694
 21
350.0760930809
 31
0.0
  0
LINE
  5
32D
330
1B
100
AcDbEntity
 67
     1
  8
7_ALL_FEATURES
  6
Continuous
 62
     7
100
AcDbLine
 10
1036.4737103694
 20
354.5760930809
 30
0.0
 11
1006.4737103694
 21
354.5760930809
 31
0.0
  0
LINE
  5
32E
330
1B
100
AcDbEntity
 67
     1
  8
7_ALL_FEATURES
  6
Continuous
 62
     7
100
AcDbLine
 10
983.9737103694
 20
354.5760930809
 30
0.0
 11
983.7737103694
 21
354.5760930809
 31
0.0
  0
LINE
  5
32F
330
1B
100
AcDbEntity
 67
     1
  8
7_ALL_FEATURES
  6
Continuous
 62
     7
100
AcDbLine
 10
904.1737103694
 20
354.5760930809
 30
0.0
 11
903.9737103694
 21
354.5760930809
 31
0.0
  0
LINE
  5
330
330
1B
100
AcDbEntity
 67
     1
  8
7_ALL_FEATURES
  6
Continuous
 62
     7
100
AcDbLine
 10
881.4737103694
 20
354.5760930809
 30
0.0
 11
186.4737103694
 21
354.5760930809
 31
0.0
  0
LINE
  5
331
330
1B
100
AcDbEntity
 67
     1
  8
7_ALL_FEATURES
  6
Continuous
 62
     7
100
AcDbLine
 10
163.9737103694
 20
354.5760930809
 30
0.0
 11
163.7737103694
 21
354.5760930809
 31
0.0
  0
LINE
  5
332
330
1B
100
AcDbEntity
 67
     1
  8
7_ALL_FEATURES
  6
Continuous
 62
     7
100
AcDbLine
 10
84.1737103694
 20
354.5760930809
 30
0.0
 11
83.9737103694
 21
354.5760930809
 31
0.0
  0
LINE
  5
333
330
1B
100
AcDbEntity
 67
     1
  8
7_ALL_FEATURES
  6
Continuous
 62
     7
100
AcDbLine
 10
61.4737103694
 20
354.5760930809
 30
0.0
 11
25.4737103694
 21
354.5760930809
 31
0.0
  0
LINE
  5
334
330
1B
100
AcDbEntity
 67
     1
  8
7_ALL_FEATURES
  6
Continuous
 62
     7
100
AcDbLine
 10
1036.4737103694
 20
390.5760930809
 30
0.0
 11
25.4737103694
 21
390.5760930809
 31
0.0
  0
LINE
  5
335
330
1B
100
AcDbEntity
 67
     1
  8
02___PRT_ALL_AXES
  6
Continuous
 62
     9
100
AcDbLine
 10
982.567322812
 20
336.8760930809
 30
0.0
 11
982.7939720932
 21
336.8760930809
 31
0.0
  0
LINE
  5
336
330
1B
100
AcDbEntity
 67
     1
  8
02___PRT_ALL_AXES
  6
Continuous
 62
     9
100
AcDbLine
 10
1006.4737103694
 20
336.8760930809
 30
0.0
 11
1036.4737103694
 21
336.8760930809
 31
0.0
  0
LINE
  5
337
330
1B
100
AcDbEntity
 67
     1
  8
7_ALL_FEATURES
  6
Continuous
 62
     9
100
AcDbLine
 10
1036.4737103694
 20
349.8760930809
 30
0.0
 11
1006.4737103694
 21
349.8760930809
 31
0.0
  0
LINE
  5
338
330
1B
100
AcDbEntity
 67
     1
  8
7_ALL_FEATURES
  6
Continuous
 62
     9
100
AcDbLine
 10
983.9737103694
 20
349.8760930809
 30
0.0
 11
983.7737103694
 21
349.8760930809
 31
0.0
  0
LINE
  5
339
330
1B
100
AcDbEntity
 67
     1
  8
7_ALL_FEATURES
  6
Continuous
 62
     9
100
AcDbLine
 10
904.1737103694
 20
349.8760930809
 30
0.0
 11
903.9737103694
 21
349.8760930809
 31
0.0
  0
LINE
  5
33A
330
1B
100
AcDbEntity
 67
     1
  8
7_ALL_FEATURES
  6
Continuous
 62
     9
100
AcDbLine
 10
881.4737103694
 20
349.8760930809
 30
0.0
 11
186.4737103694
 21
349.8760930809
 31
0.0
  0
LINE
  5
33B
330
1B
100
AcDbEntity
 67
     1
  8
7_ALL_FEATURES
  6
Continuous
 62
     9
100
AcDbLine
 10
163.9737103694
 20
349.8760930809
 30
0.0
 11
163.7737103694
 21
349.8760930809
 31
0.0
  0
LINE
  5
33C
330
1B
100
AcDbEntity
 67
     1
  8
7_ALL_FEATURES
  6
Continuous
 62
     9
100
AcDbLine
 10
84.1737103694
 20
349.8760930809
 30
0.0
 11
83.9737103694
 21
349.8760930809
 31
0.0
  0
LINE
  5
33D
330
1B
100
AcDbEntity
 67
     1
  8
7_ALL_FEATURES
  6
Continuous
 62
     9
100
AcDbLine
 10
61.4737103694
 20
349.8760930809
 30
0.0
 11
25.4737103694
 21
349.8760930809
 31
0.0
  0
LINE
  5
33E
330
1B
100
AcDbEntity
 67
     1
  8
02___PRT_ALL_AXES
  6
Continuous
 62
     9
100
AcDbLine
 10
25.4737103694
 20
336.8760930809
 30
0.0
 11
61.4737103694
 21
336.8760930809
 31
0.0
  0
LINE
  5
33F
330
1B
100
AcDbEntity
 67
     1
  8
02___PRT_ALL_AXES
  6
Continuous
 62
     9
100
AcDbLine
 10
85.1534486456
 20
336.8760930809
 30
0.0
 11
85.3800979269
 21
336.8760930809
 31
0.0
  0
LINE
  5
340
330
1B
100
AcDbEntity
 67
     1
  8
02___PRT_ALL_AXES
  6
Continuous
 62
     9
100
AcDbLine
 10
162.567322812
 20
336.8760930809
 30
0.0
 11
162.7939720932
 21
336.8760930809
 31
0.0
  0
LINE
  5
341
330
1B
100
AcDbEntity
 67
     1
  8
02___PRT_ALL_AXES
  6
Continuous
 62
     9
100
AcDbLine
 10
186.4737103694
 20
336.8760930809
 30
0.0
 11
881.4737103694
 21
336.8760930809
 31
0.0
  0
LINE
  5
342
330
1B
100
AcDbEntity
 67
     1
  8
02___PRT_ALL_AXES
  6
Continuous
 62
     9
100
AcDbLine
 10
905.1534486456
 20
336.8760930809
 30
0.0
 11
905.3800979269
 21
336.8760930809
 31
0.0
  0
LINE
  5
343
330
1B
100
AcDbEntity
 67
     1
  8
02___PRT_ALL_AXES
  6
Continuous
 62
     9
100
AcDbLine
 10
913.9737103694
 20
331.7760930809
 30
0.0
 11
911.989184968
 21
331.7760930809
 31
0.0
  0
LINE
  5
344
330
1B
100
AcDbEntity
 67
     1
  8
02___PRT_ALL_AXES
  6
Continuous
 62
     9
100
AcDbLine
 10
881.4737103694
 20
331.7760930809
 30
0.0
 11
186.4737103694
 21
331.7760930809
 31
0.0
  0
LINE
  5
345
330
1B
100
AcDbEntity
 67
     1
  8
02___PRT_ALL_AXES
  6
Continuous
 62
     9
100
AcDbLine
 10
155.9582357708
 20
331.7760930809
 30
0.0
 11
153.9737103694
 21
331.7760930809
 31
0.0
  0
LINE
  5
346
330
1B
100
AcDbEntity
 67
     1
  8
02___PRT_ALL_AXES
  6
Continuous
 62
     9
100
AcDbLine
 10
93.9737103694
 20
331.7760930809
 30
0.0
 11
91.989184968
 21
331.7760930809
 31
0.0
  0
LINE
  5
347
330
1B
100
AcDbEntity
 67
     1
  8
02___PRT_ALL_AXES
  6
Continuous
 62
     9
100
AcDbLine
 10
61.4737103694
 20
331.7760930809
 30
0.0
 11
25.4737103694
 21
331.7760930809
 31
0.0
  0
LINE
  5
348
330
1B
100
AcDbEntity
 67
     1
  8
7_ALL_FEATURES
  6
Continuous
 62
     9
100
AcDbLine
 10
1036.4737103694
 20
308.0760930809
 30
0.0
 11
1006.4737103694
 21
308.0760930809
 31
0.0
  0
LINE
  5
349
330
1B
100
AcDbEntity
 67
     1
  8
7_ALL_FEATURES
  6
Continuous
 62
     9
100
AcDbLine
 10
881.4737103694
 20
308.0760930809
 30
0.0
 11
186.4737103694
 21
308.0760930809
 31
0.0
  0
LINE
  5
34A
330
1B
100
AcDbEntity
 67
     1
  8
7_ALL_FEATURES
  6
Continuous
 62
     9
100
AcDbLine
 10
61.4737103694
 20
308.0760930809
 30
0.0
 11
25.4737103694
 21
308.0760930809
 31
0.0
  0
LINE
  5
34B
330
1B
100
AcDbEntity
 67
     1
  8
02___PRT_ALL_AXES
  6
Continuous
 62
     9
100
AcDbLine
 10
1036.4737103694
 20
331.7760930809
 30
0.0
 11
1006.4737103694
 21
331.7760930809
 31
0.0
  0
LINE
  5
34C
330
1B
100
AcDbEntity
 67
     1
  8
02___PRT_ALL_AXES
  6
Continuous
 62
     9
100
AcDbLine
 10
975.9582357708
 20
331.7760930809
 30
0.0
 11
973.9737103694
 21
331.7760930809
 31
0.0
  0
LINE
  5
34D
330
1B
100
AcDbEntity
 67
     1
  8
7_ALL_FEATURES
  6
Continuous
 62
     9
100
AcDbLine
 10
1036.4737103694
 20
384.3877015252
 30
0.0
 11
25.4737103694
 21
384.3877015252
 31
0.0
  0
LINE
  5
34E
330
1B
100
AcDbEntity
 67
     1
  8
7_ALL_FEATURES
  6
Continuous
 62
     9
100
AcDbLine
 10
1036.4737103694
 20
354.7760930809
 30
0.0
 11
1006.4737103694
 21
354.7760930809
 31
0.0
  0
LINE
  5
34F
330
1B
100
AcDbEntity
 67
     1
  8
7_ALL_FEATURES
  6
Continuous
 62
     9
100
AcDbLine
 10
983.9737103694
 20
354.7760930809
 30
0.0
 11
983.7737103694
 21
354.7760930809
 31
0.0
  0
LINE
  5
350
330
1B
100
AcDbEntity
 67
     1
  8
7_ALL_FEATURES
  6
Continuous
 62
     9
100
AcDbLine
 10
904.1737103694
 20
354.7760930809
 30
0.0
 11
903.9737103694
 21
354.7760930809
 31
0.0
  0
LINE
  5
351
330
1B
100
AcDbEntity
 67
     1
  8
7_ALL_FEATURES
  6
Continuous
 62
     9
100
AcDbLine
 10
881.4737103694
 20
354.7760930809
 30
0.0
 11
186.4737103694
 21
354.7760930809
 31
0.0
  0
LINE
  5
352
330
1B
100
AcDbEntity
 67
     1
  8
7_ALL_FEATURES
  6
Continuous
 62
     9
100
AcDbLine
 10
163.9737103694
 20
354.7760930809
 30
0.0
 11
163.7737103694
 21
354.7760930809
 31
0.0
  0
LINE
  5
353
330
1B
100
AcDbEntity
 67
     1
  8
7_ALL_FEATURES
  6
Continuous
 62
     9
100
AcDbLine
 10
84.1737103694
 20
354.7760930809
 30
0.0
 11
83.9737103694
 21
354.7760930809
 31
0.0
  0
LINE
  5
354
330
1B
100
AcDbEntity
 67
     1
  8
7_ALL_FEATURES
  6
Continuous
 62
     9
100
AcDbLine
 10
61.4737103694
 20
354.7760930809
 30
0.0
 11
25.4737103694
 21
354.7760930809
 31
0.0
  0
LINE
  5
355
330
1B
100
AcDbEntity
 67
     1
  8
7_ALL_FEATURES
  6
Continuous
 62
     9
100
AcDbLine
 10
1036.4737103694
 20
385.3666479669
 30
0.0
 11
25.4737103694
 21
385.3666479669
 31
0.0
  0
LINE
  5
356
330
1B
100
AcDbEntity
 67
     1
  8
7_ALL_FEATURES
  6
Continuous
 62
     9
100
AcDbLine
 10
1036.4737103694
 20
390.3152509385
 30
0.0
 11
25.4737103694
 21
390.3152509385
 31
0.0
  0
LINE
  5
357
330
1B
100
AcDbEntity
 67
     1
  8
7_ALL_FEATURES
  6
Continuous
 62
     3
100
AcDbLine
 10
1036.4737103694
 20
332.0586986857
 30
0.0
 11
1036.4737103694
 21
332.0760930809
 31
0.0
  0
LINE
  5
358
330
1B
100
AcDbEntity
 67
     1
  8
7_ALL_FEATURES
  6
Continuous
 62
     3
100
AcDbLine
 10
1036.4737103694
 20
332.0760930809
 30
0.0
 11
1036.4737103694
 21
336.5760930809
 31
0.0
  0
LINE
  5
359
330
1B
100
AcDbEntity
 67
     1
  8
7_ALL_FEATURES
  6
Continuous
 62
     3
100
AcDbLine
 10
1036.4737103694
 20
336.5760930809
 30
0.0
 11
1036.4737103694
 21
336.5934874761
 31
0.0
  0
LINE
  5
35A
330
1B
100
AcDbEntity
 67
     1
  8
7_ALL_FEATURES
  6
Continuous
 62
     3
100
AcDbLine
 10
1036.4737103694
 20
350.0760930809
 30
0.0
 11
1036.4737103694
 21
354.5760930809
 31
0.0
  0
LINE
  5
35B
330
1B
100
AcDbEntity
 67
     1
  8
7_ALL_FEATURES
  6
Continuous
 62
     3
100
AcDbLine
 10
1036.4737103694
 20
389.5760930809
 30
0.0
 11
1036.4737103694
 21
390.2267179048
 31
0.0
  0
LINE
  5
35C
330
1B
100
AcDbEntity
 67
     1
  8
7_ALL_FEATURES
  6
Continuous
 62
     3
100
AcDbLine
 10
1036.4737103694
 20
390.2267179048
 30
0.0
 11
1036.4737103694
 21
390.4096997252
 31
0.0
  0
LINE
  5
35D
330
1B
100
AcDbEntity
 67
     1
  8
7_ALL_FEATURES
  6
Continuous
 62
     3
100
AcDbLine
 10
1036.4737103694
 20
390.4096997252
 30
0.0
 11
1036.4737103694
 21
390.4970420783
 31
0.0
  0
LINE
  5
35E
330
1B
100
AcDbEntity
 67
     1
  8
7_ALL_FEATURES
  6
Continuous
 62
     3
100
AcDbLine
 10
1036.4737103694
 20
386.3984283189
 30
0.0
 11
1036.4737103694
 21
389.5760930809
 31
0.0
  0
LINE
  5
35F
330
1B
100
AcDbEntity
 67
     1
  8
7_ALL_FEATURES
  6
Continuous
 62
     3
100
AcDbLine
 10
25.4737103694
 20
390.4970420783
 30
0.0
 11
25.4737103694
 21
390.4096997252
 31
0.0
  0
LINE
  5
360
330
1B
100
AcDbEntity
 67
     1
  8
7_ALL_FEATURES
  6
Continuous
 62
     3
100
AcDbLine
 10
25.4737103694
 20
390.4096997252
 30
0.0
 11
25.4737103694
 21
390.2267179048
 31
0.0
  0
LINE
  5
361
330
1B
100
AcDbEntity
 67
     1
  8
7_ALL_FEATURES
  6
Continuous
 62
     3
100
AcDbLine
 10
25.4737103694
 20
390.2267179048
 30
0.0
 11
25.4737103694
 21
389.5760930809
 31
0.0
  0
LINE
  5
362
330
1B
100
AcDbEntity
 67
     1
  8
7_ALL_FEATURES
  6
Continuous
 62
     3
100
AcDbLine
 10
25.4737103694
 20
389.5760930809
 30
0.0
 11
25.4737103694
 21
386.3984283189
 31
0.0
  0
LINE
  5
363
330
1B
100
AcDbEntity
 67
     1
  8
7_ALL_FEATURES
  6
Continuous
 62
     3
100
AcDbLine
 10
25.4737103694
 20
354.5760930809
 30
0.0
 11
25.4737103694
 21
350.0760930809
 31
0.0
  0
LINE
  5
364
330
1B
100
AcDbEntity
 67
     1
  8
7_ALL_FEATURES
  6
Continuous
 62
     3
100
AcDbLine
 10
25.4737103694
 20
336.5934874761
 30
0.0
 11
25.4737103694
 21
336.5760930809
 31
0.0
  0
LINE
  5
365
330
1B
100
AcDbEntity
 67
     1
  8
7_ALL_FEATURES
  6
Continuous
 62
     3
100
AcDbLine
 10
25.4737103694
 20
336.5760930809
 30
0.0
 11
25.4737103694
 21
332.0760930809
 31
0.0
  0
LINE
  5
366
330
1B
100
AcDbEntity
 67
     1
  8
7_ALL_FEATURES
  6
Continuous
 62
     3
100
AcDbLine
 10
25.4737103694
 20
332.0760930809
 30
0.0
 11
25.4737103694
 21
332.0586986857
 31
0.0
  0
LINE
  5
367
330
1B
100
AcDbEntity
 67
     1
  8
7_ALL_FEATURES
  6
Continuous
 62
     3
100
AcDbLine
 10
186.4737103694
 20
307.6760930809
 30
0.0
 11
186.4737103694
 21
375.8760930809
 31
0.0
  0
LINE
  5
368
330
1B
100
AcDbEntity
 67
     1
  8
7_ALL_FEATURES
  6
Continuous
 62
     3
100
AcDbLine
 10
61.4737103694
 20
375.8760930809
 30
0.0
 11
61.4737103694
 21
307.6760930809
 31
0.0
  0
LINE
  5
369
330
1B
100
AcDbEntity
 67
     1
  8
02___PRT_ALL_AXES
  6
Continuous
 62
     3
100
AcDbLine
 10
83.9737103694
 20
361.5760930809
 30
0.0
 11
83.9737103694
 21
341.5760930809
 31
0.0
  0
ARC
  5
36A
330
1B
100
AcDbEntity
 67
     1
  8
02___PRT_ALL_AXES
  6
Continuous
 62
     3
100
AcDbCircle
 10
93.9737103694
 20
341.5760930809
 30
0.0
 40
10.0
100
AcDbArc
 50
180.0
 51
270.0
  0
LINE
  5
36B
330
1B
100
AcDbEntity
 67
     1
  8
02___PRT_ALL_AXES
  6
Continuous
 62
     3
100
AcDbLine
 10
93.9737103694
 20
331.5760930809
 30
0.0
 11
153.9737103694
 21
331.5760930809
 31
0.0
  0
ARC
  5
36C
330
1B
100
AcDbEntity
 67
     1
  8
02___PRT_ALL_AXES
  6
Continuous
 62
     3
100
AcDbCircle
 10
153.9737103694
 20
341.5760930809
 30
0.0
 40
10.0
100
AcDbArc
 50
270.0
 51
360.0
  0
LINE
  5
36D
330
1B
100
AcDbEntity
 67
     1
  8
02___PRT_ALL_AXES
  6
Continuous
 62
     3
100
AcDbLine
 10
163.9737103694
 20
341.5760930809
 30
0.0
 11
163.9737103694
 21
361.5760930809
 31
0.0
  0
LINE
  5
36E
330
1B
100
AcDbEntity
 67
     1
  8
02___PRT_ALL_AXES
  6
Continuous
 62
     3
100
AcDbLine
 10
163.9737103694
 20
361.5760930809
 30
0.0
 11
163.7737103694
 21
361.5760930809
 31
0.0
  0
LINE
  5
36F
330
1B
100
AcDbEntity
 67
     1
  8
02___PRT_ALL_AXES
  6
Continuous
 62
     3
100
AcDbLine
 10
163.7737103694
 20
361.5760930809
 30
0.0
 11
163.7737103694
 21
341.5760930809
 31
0.0
  0
ARC
  5
370
330
1B
100
AcDbEntity
 67
     1
  8
02___PRT_ALL_AXES
  6
Continuous
 62
     3
100
AcDbCircle
 10
153.9737103694
 20
341.5760930809
 30
0.0
 40
9.8
100
AcDbArc
 50
270.0
 51
360.0
  0
LINE
  5
371
330
1B
100
AcDbEntity
 67
     1
  8
02___PRT_ALL_AXES
  6
Continuous
 62
     3
100
AcDbLine
 10
153.9737103694
 20
331.7760930809
 30
0.0
 11
93.9737103694
 21
331.7760930809
 31
0.0
  0
ARC
  5
372
330
1B
100
AcDbEntity
 67
     1
  8
02___PRT_ALL_AXES
  6
Continuous
 62
     3
100
AcDbCircle
 10
93.9737103694
 20
341.5760930809
 30
0.0
 40
9.8
100
AcDbArc
 50
180.0
 51
270.0
  0
LINE
  5
373
330
1B
100
AcDbEntity
 67
     1
  8
02___PRT_ALL_AXES
  6
Continuous
 62
     3
100
AcDbLine
 10
84.1737103694
 20
341.5760930809
 30
0.0
 11
84.1737103694
 21
361.5760930809
 31
0.0
  0
LINE
  5
374
330
1B
100
AcDbEntity
 67
     1
  8
02___PRT_ALL_AXES
  6
Continuous
 62
     3
100
AcDbLine
 10
84.1737103694
 20
361.5760930809
 30
0.0
 11
83.9737103694
 21
361.5760930809
 31
0.0
  0
LINE
  5
375
330
1B
100
AcDbEntity
 67
     1
  8
02___PRT_ALL_AXES
  6
Continuous
 62
     3
100
AcDbLine
 10
85.7737103694
 20
361.6760930809
 30
0.0
 11
85.7737103694
 21
361.4760930809
 31
0.0
  0
LINE
  5
376
330
1B
100
AcDbEntity
 67
     1
  8
02___PRT_ALL_AXES
  6
Continuous
 62
     3
100
AcDbLine
 10
85.7737103694
 20
361.4760930809
 30
0.0
 11
123.1737103694
 21
361.4760930809
 31
0.0
  0
LINE
  5
377
330
1B
100
AcDbEntity
 67
     1
  8
02___PRT_ALL_AXES
  6
Continuous
 62
     3
100
AcDbLine
 10
123.1737103694
 20
361.4760930809
 30
0.0
 11
123.1737103694
 21
361.6760930809
 31
0.0
  0
LINE
  5
378
330
1B
100
AcDbEntity
 67
     1
  8
02___PRT_ALL_AXES
  6
Continuous
 62
     3
100
AcDbLine
 10
123.1737103694
 20
361.6760930809
 30
0.0
 11
85.7737103694
 21
361.6760930809
 31
0.0
  0
LINE
  5
379
330
1B
100
AcDbEntity
 67
     1
  8
02___PRT_ALL_AXES
  6
Continuous
 62
     3
100
AcDbLine
 10
162.1737103694
 20
361.6760930809
 30
0.0
 11
124.7737103694
 21
361.6760930809
 31
0.0
  0
LINE
  5
37A
330
1B
100
AcDbEntity
 67
     1
  8
02___PRT_ALL_AXES
  6
Continuous
 62
     3
100
AcDbLine
 10
124.7737103694
 20
361.6760930809
 30
0.0
 11
124.7737103694
 21
361.4760930809
 31
0.0
  0
LINE
  5
37B
330
1B
100
AcDbEntity
 67
     1
  8
02___PRT_ALL_AXES
  6
Continuous
 62
     3
100
AcDbLine
 10
124.7737103694
 20
361.4760930809
 30
0.0
 11
162.1737103694
 21
361.4760930809
 31
0.0
  0
LINE
  5
37C
330
1B
100
AcDbEntity
 67
     1
  8
02___PRT_ALL_AXES
  6
Continuous
 62
     3
100
AcDbLine
 10
162.1737103694
 20
361.4760930809
 30
0.0
 11
162.1737103694
 21
361.6760930809
 31
0.0
  0
LINE
  5
37D
330
1B
100
AcDbEntity
 67
     1
  8
7_ALL_FEATURES
  6
Continuous
 62
     3
100
AcDbLine
 10
186.4737103694
 20
307.6760930809
 30
0.0
 11
186.4737103694
 21
306.9707507781
 31
0.0
  0
LINE
  5
37E
330
1B
100
AcDbEntity
 67
     1
  8
7_ALL_FEATURES
  6
Continuous
 62
     3
100
AcDbLine
 10
186.4737103694
 20
306.9707507781
 30
0.0
 11
186.4737103694
 21
306.4760930809
 31
0.0
  0
LINE
  5
37F
330
1B
100
AcDbEntity
 67
     1
  8
7_ALL_FEATURES
  6
Continuous
 62
     3
100
AcDbLine
 10
61.4737103694
 20
306.4760930809
 30
0.0
 11
186.4737103694
 21
306.4760930809
 31
0.0
  0
LINE
  5
380
330
1B
100
AcDbEntity
 67
     1
  8
7_ALL_FEATURES
  6
Continuous
 62
     3
100
AcDbLine
 10
61.4737103694
 20
307.6760930809
 30
0.0
 11
61.4737103694
 21
306.9707507781
 31
0.0
  0
LINE
  5
381
330
1B
100
AcDbEntity
 67
     1
  8
7_ALL_FEATURES
  6
Continuous
 62
     3
100
AcDbLine
 10
61.4737103694
 20
306.9707507781
 30
0.0
 11
61.4737103694
 21
306.4760930809
 31
0.0
  0
LINE
  5
382
330
1B
100
AcDbEntity
 67
     1
  8
7_ALL_FEATURES
  6
Continuous
 62
     3
100
AcDbLine
 10
186.4737103694
 20
376.4760930809
 30
0.0
 11
174.4737103694
 21
376.4760930809
 31
0.0
  0
LINE
  5
383
330
1B
100
AcDbEntity
 67
     1
  8
7_ALL_FEATURES
  6
Continuous
 62
     3
100
AcDbLine
 10
73.4737103694
 20
376.4760930809
 30
0.0
 11
61.4737103694
 21
376.4760930809
 31
0.0
  0
LINE
  5
384
330
1B
100
AcDbEntity
 67
     1
  8
7_ALL_FEATURES
  6
Continuous
 62
     3
100
AcDbLine
 10
73.4737103694
 20
376.4760930809
 30
0.0
 11
174.4737103694
 21
376.4760930809
 31
0.0
  0
LINE
  5
385
330
1B
100
AcDbEntity
 67
     1
  8
7_ALL_FEATURES
  6
Continuous
 62
     3
100
AcDbLine
 10
186.4737103694
 20
376.4760930809
 30
0.0
 11
186.4737103694
 21
375.8760930809
 31
0.0
  0
LINE
  5
386
330
1B
100
AcDbEntity
 67
     1
  8
7_ALL_FEATURES
  6
Continuous
 62
     3
100
AcDbLine
 10
61.4737103694
 20
376.4760930809
 30
0.0
 11
61.4737103694
 21
375.8760930809
 31
0.0
  0
LINE
  5
387
330
1B
100
AcDbEntity
 67
     1
  8
7_ALL_FEATURES
  6
Continuous
 62
     9
100
AcDbLine
 10
61.4737103694
 20
307.6760930809
 30
0.0
 11
186.4737103694
 21
307.6760930809
 31
0.0
  0
LINE
  5
388
330
1B
100
AcDbEntity
 67
     1
  8
7_ALL_FEATURES
  6
Continuous
 62
     9
100
AcDbLine
 10
186.4737103694
 20
375.8760930809
 30
0.0
 11
61.4737103694
 21
375.8760930809
 31
0.0
  0
LINE
  5
389
330
1B
100
AcDbEntity
 67
     1
  8
7_ALL_FEATURES
  6
Continuous
 62
     3
100
AcDbLine
 10
1006.4737103694
 20
307.6760930809
 30
0.0
 11
1006.4737103694
 21
375.8760930809
 31
0.0
  0
LINE
  5
38A
330
1B
100
AcDbEntity
 67
     1
  8
7_ALL_FEATURES
  6
Continuous
 62
     3
100
AcDbLine
 10
881.4737103694
 20
375.8760930809
 30
0.0
 11
881.4737103694
 21
307.6760930809
 31
0.0
  0
LINE
  5
38B
330
1B
100
AcDbEntity
 67
     1
  8
02___PRT_ALL_AXES
  6
Continuous
 62
     3
100
AcDbLine
 10
903.9737103694
 20
361.5760930809
 30
0.0
 11
903.9737103694
 21
341.5760930809
 31
0.0
  0
ARC
  5
38C
330
1B
100
AcDbEntity
 67
     1
  8
02___PRT_ALL_AXES
  6
Continuous
 62
     3
100
AcDbCircle
 10
913.9737103694
 20
341.5760930809
 30
0.0
 40
10.0
100
AcDbArc
 50
180.0
 51
270.0
  0
LINE
  5
38D
330
1B
100
AcDbEntity
 67
     1
  8
02___PRT_ALL_AXES
  6
Continuous
 62
     3
100
AcDbLine
 10
913.9737103694
 20
331.5760930809
 30
0.0
 11
973.9737103694
 21
331.5760930809
 31
0.0
  0
ARC
  5
38E
330
1B
100
AcDbEntity
 67
     1
  8
02___PRT_ALL_AXES
  6
Continuous
 62
     3
100
AcDbCircle
 10
973.9737103694
 20
341.5760930809
 30
0.0
 40
10.0
100
AcDbArc
 50
270.0
 51
360.0
  0
LINE
  5
38F
330
1B
100
AcDbEntity
 67
     1
  8
02___PRT_ALL_AXES
  6
Continuous
 62
     3
100
AcDbLine
 10
983.9737103694
 20
341.5760930809
 30
0.0
 11
983.9737103694
 21
361.5760930809
 31
0.0
  0
LINE
  5
390
330
1B
100
AcDbEntity
 67
     1
  8
02___PRT_ALL_AXES
  6
Continuous
 62
     3
100
AcDbLine
 10
983.9737103694
 20
361.5760930809
 30
0.0
 11
983.7737103694
 21
361.5760930809
 31
0.0
  0
LINE
  5
391
330
1B
100
AcDbEntity
 67
     1
  8
02___PRT_ALL_AXES
  6
Continuous
 62
     3
100
AcDbLine
 10
983.7737103694
 20
361.5760930809
 30
0.0
 11
983.7737103694
 21
341.5760930809
 31
0.0
  0
ARC
  5
392
330
1B
100
AcDbEntity
 67
     1
  8
02___PRT_ALL_AXES
  6
Continuous
 62
     3
100
AcDbCircle
 10
973.9737103694
 20
341.5760930809
 30
0.0
 40
9.8
100
AcDbArc
 50
270.0
 51
360.0
  0
LINE
  5
393
330
1B
100
AcDbEntity
 67
     1
  8
02___PRT_ALL_AXES
  6
Continuous
 62
     3
100
AcDbLine
 10
973.9737103694
 20
331.7760930809
 30
0.0
 11
913.9737103694
 21
331.7760930809
 31
0.0
  0
ARC
  5
394
330
1B
100
AcDbEntity
 67
     1
  8
02___PRT_ALL_AXES
  6
Continuous
 62
     3
100
AcDbCircle
 10
913.9737103694
 20
341.5760930809
 30
0.0
 40
9.8
100
AcDbArc
 50
180.0
 51
270.0
  0
LINE
  5
395
330
1B
100
AcDbEntity
 67
     1
  8
02___PRT_ALL_AXES
  6
Continuous
 62
     3
100
AcDbLine
 10
904.1737103694
 20
341.5760930809
 30
0.0
 11
904.1737103694
 21
361.5760930809
 31
0.0
  0
LINE
  5
396
330
1B
100
AcDbEntity
 67
     1
  8
02___PRT_ALL_AXES
  6
Continuous
 62
     3
100
AcDbLine
 10
904.1737103694
 20
361.5760930809
 30
0.0
 11
903.9737103694
 21
361.5760930809
 31
0.0
  0
LINE
  5
397
330
1B
100
AcDbEntity
 67
     1
  8
02___PRT_ALL_AXES
  6
Continuous
 62
     3
100
AcDbLine
 10
905.7737103694
 20
361.6760930809
 30
0.0
 11
905.7737103694
 21
361.4760930809
 31
0.0
  0
LINE
  5
398
330
1B
100
AcDbEntity
 67
     1
  8
02___PRT_ALL_AXES
  6
Continuous
 62
     3
100
AcDbLine
 10
905.7737103694
 20
361.4760930809
 30
0.0
 11
943.1737103694
 21
361.4760930809
 31
0.0
  0
LINE
  5
399
330
1B
100
AcDbEntity
 67
     1
  8
02___PRT_ALL_AXES
  6
Continuous
 62
     3
100
AcDbLine
 10
943.1737103694
 20
361.4760930809
 30
0.0
 11
943.1737103694
 21
361.6760930809
 31
0.0
  0
LINE
  5
39A
330
1B
100
AcDbEntity
 67
     1
  8
02___PRT_ALL_AXES
  6
Continuous
 62
     3
100
AcDbLine
 10
943.1737103694
 20
361.6760930809
 30
0.0
 11
905.7737103694
 21
361.6760930809
 31
0.0
  0
LINE
  5
39B
330
1B
100
AcDbEntity
 67
     1
  8
02___PRT_ALL_AXES
  6
Continuous
 62
     3
100
AcDbLine
 10
982.1737103694
 20
361.6760930809
 30
0.0
 11
944.7737103694
 21
361.6760930809
 31
0.0
  0
LINE
  5
39C
330
1B
100
AcDbEntity
 67
     1
  8
02___PRT_ALL_AXES
  6
Continuous
 62
     3
100
AcDbLine
 10
944.7737103694
 20
361.6760930809
 30
0.0
 11
944.7737103694
 21
361.4760930809
 31
0.0
  0
LINE
  5
39D
330
1B
100
AcDbEntity
 67
     1
  8
02___PRT_ALL_AXES
  6
Continuous
 62
     3
100
AcDbLine
 10
944.7737103694
 20
361.4760930809
 30
0.0
 11
982.1737103694
 21
361.4760930809
 31
0.0
  0
LINE
  5
39E
330
1B
100
AcDbEntity
 67
     1
  8
02___PRT_ALL_AXES
  6
Continuous
 62
     3
100
AcDbLine
 10
982.1737103694
 20
361.4760930809
 30
0.0
 11
982.1737103694
 21
361.6760930809
 31
0.0
  0
LINE
  5
39F
330
1B
100
AcDbEntity
 67
     1
  8
7_ALL_FEATURES
  6
Continuous
 62
     3
100
AcDbLine
 10
1006.4737103694
 20
307.6760930809
 30
0.0
 11
1006.4737103694
 21
306.9707507781
 31
0.0
  0
LINE
  5
3A0
330
1B
100
AcDbEntity
 67
     1
  8
7_ALL_FEATURES
  6
Continuous
 62
     3
100
AcDbLine
 10
1006.4737103694
 20
306.9707507781
 30
0.0
 11
1006.4737103694
 21
306.4760930809
 31
0.0
  0
LINE
  5
3A1
330
1B
100
AcDbEntity
 67
     1
  8
7_ALL_FEATURES
  6
Continuous
 62
     3
100
AcDbLine
 10
881.4737103694
 20
306.4760930809
 30
0.0
 11
1006.4737103694
 21
306.4760930809
 31
0.0
  0
LINE
  5
3A2
330
1B
100
AcDbEntity
 67
     1
  8
7_ALL_FEATURES
  6
Continuous
 62
     3
100
AcDbLine
 10
881.4737103694
 20
307.6760930809
 30
0.0
 11
881.4737103694
 21
306.9707507781
 31
0.0
  0
LINE
  5
3A3
330
1B
100
AcDbEntity
 67
     1
  8
7_ALL_FEATURES
  6
Continuous
 62
     3
100
AcDbLine
 10
881.4737103694
 20
306.9707507781
 30
0.0
 11
881.4737103694
 21
306.4760930809
 31
0.0
  0
LINE
  5
3A4
330
1B
100
AcDbEntity
 67
     1
  8
7_ALL_FEATURES
  6
Continuous
 62
     3
100
AcDbLine
 10
1006.4737103694
 20
376.4760930809
 30
0.0
 11
994.4737103694
 21
376.4760930809
 31
0.0
  0
LINE
  5
3A5
330
1B
100
AcDbEntity
 67
     1
  8
7_ALL_FEATURES
  6
Continuous
 62
     3
100
AcDbLine
 10
893.4737103694
 20
376.4760930809
 30
0.0
 11
881.4737103694
 21
376.4760930809
 31
0.0
  0
LINE
  5
3A6
330
1B
100
AcDbEntity
 67
     1
  8
7_ALL_FEATURES
  6
Continuous
 62
     3
100
AcDbLine
 10
893.4737103694
 20
376.4760930809
 30
0.0
 11
994.4737103694
 21
376.4760930809
 31
0.0
  0
LINE
  5
3A7
330
1B
100
AcDbEntity
 67
     1
  8
7_ALL_FEATURES
  6
Continuous
 62
     3
100
AcDbLine
 10
1006.4737103694
 20
376.4760930809
 30
0.0
 11
1006.4737103694
 21
375.8760930809
 31
0.0
  0
LINE
  5
3A8
330
1B
100
AcDbEntity
 67
     1
  8
7_ALL_FEATURES
  6
Continuous
 62
     3
100
AcDbLine
 10
881.4737103694
 20
376.4760930809
 30
0.0
 11
881.4737103694
 21
375.8760930809
 31
0.0
  0
LINE
  5
3A9
330
1B
100
AcDbEntity
 67
     1
  8
7_ALL_FEATURES
  6
Continuous
 62
     9
100
AcDbLine
 10
881.4737103694
 20
307.6760930809
 30
0.0
 11
1006.4737103694
 21
307.6760930809
 31
0.0
  0
LINE
  5
3AA
330
1B
100
AcDbEntity
 67
     1
  8
7_ALL_FEATURES
  6
Continuous
 62
     9
100
AcDbLine
 10
1006.4737103694
 20
375.8760930809
 30
0.0
 11
881.4737103694
 21
375.8760930809
 31
0.0
  0
LINE
  5
3AB
330
1B
100
AcDbEntity
 67
     1
  8
3_ALL_AXES
  6
Continuous
 62
     7
100
AcDbLine
 10
1038.4737103694
 20
178.6461153427
 30
0.0
 11
1038.3229900398
 21
178.6461153427
 31
0.0
  0
LINE
  5
3AC
330
1B
100
AcDbEntity
 67
     1
  8
3_ALL_AXES
  6
Continuous
 62
     7
100
AcDbLine
 10
1038.4737103694
 20
184.1461153427
 30
0.0
 11
1038.3229900398
 21
184.1461153427
 31
0.0
  0
LINE
  5
3AD
330
1B
100
AcDbEntity
 67
     1
  8
3_ALL_AXES
  6
Continuous
 62
     7
100
AcDbLine
 10
1038.4737103694
 20
178.6461153427
 30
0.0
 11
1038.4737103694
 21
184.1461153427
 31
0.0
  0
LINE
  5
3AE
330
1B
100
AcDbEntity
 67
     1
  8
3_ALL_AXES
  6
Continuous
 62
     7
100
AcDbLine
 10
1038.3229900398
 20
178.6461153427
 30
0.0
 11
1037.9737103694
 21
178.9391957853
 31
0.0
  0
LINE
  5
3AF
330
1B
100
AcDbEntity
 67
     1
  8
3_ALL_AXES
  6
Continuous
 62
     7
100
AcDbLine
 10
1038.3229900398
 20
184.1461153427
 30
0.0
 11
1037.9737103694
 21
183.8530349001
 31
0.0
  0
LINE
  5
3B0
330
1B
100
AcDbEntity
 67
     1
  8
3_ALL_AXES
  6
Continuous
 62
     7
100
AcDbLine
 10
1038.3229900398
 20
178.6461153427
 30
0.0
 11
1038.4737103694
 21
178.6461153427
 31
0.0
  0
LINE
  5
3B1
330
1B
100
AcDbEntity
 67
     1
  8
3_ALL_AXES
  6
Continuous
 62
     7
100
AcDbLine
 10
1037.9737103694
 20
178.9391957853
 30
0.0
 11
1038.3229900398
 21
178.6461153427
 31
0.0
  0
LINE
  5
3B2
330
1B
100
AcDbEntity
 67
     1
  8
3_ALL_AXES
  6
Continuous
 62
     7
100
AcDbLine
 10
1038.3229900398
 20
184.1461153427
 30
0.0
 11
1038.4737103694
 21
184.1461153427
 31
0.0
  0
LINE
  5
3B3
330
1B
100
AcDbEntity
 67
     1
  8
3_ALL_AXES
  6
Continuous
 62
     7
100
AcDbLine
 10
1037.9737103694
 20
183.8530349001
 30
0.0
 11
1038.3229900398
 21
184.1461153427
 31
0.0
  0
LINE
  5
3B4
330
1B
100
AcDbEntity
 67
     1
  8
3_ALL_AXES
  6
Continuous
 62
     7
100
AcDbLine
 10
1038.3229900398
 20
178.6461153427
 30
0.0
 11
1038.3229900398
 21
184.1461153427
 31
0.0
  0
LINE
  5
3B5
330
1B
100
AcDbEntity
 67
     1
  8
3_ALL_AXES
  6
Continuous
 62
     7
100
AcDbLine
 10
1038.4737103694
 20
215.0461153427
 30
0.0
 11
1038.3229900398
 21
215.0461153427
 31
0.0
  0
LINE
  5
3B6
330
1B
100
AcDbEntity
 67
     1
  8
3_ALL_AXES
  6
Continuous
 62
     7
100
AcDbLine
 10
1038.4737103694
 20
220.5461153427
 30
0.0
 11
1038.3229900398
 21
220.5461153427
 31
0.0
  0
LINE
  5
3B7
330
1B
100
AcDbEntity
 67
     1
  8
3_ALL_AXES
  6
Continuous
 62
     7
100
AcDbLine
 10
1038.4737103694
 20
215.0461153427
 30
0.0
 11
1038.4737103694
 21
220.5461153427
 31
0.0
  0
LINE
  5
3B8
330
1B
100
AcDbEntity
 67
     1
  8
3_ALL_AXES
  6
Continuous
 62
     7
100
AcDbLine
 10
1038.3229900398
 20
215.0461153427
 30
0.0
 11
1037.9737103694
 21
215.3391957853
 31
0.0
  0
LINE
  5
3B9
330
1B
100
AcDbEntity
 67
     1
  8
3_ALL_AXES
  6
Continuous
 62
     7
100
AcDbLine
 10
1038.3229900398
 20
220.5461153427
 30
0.0
 11
1037.9737103694
 21
220.2530349001
 31
0.0
  0
LINE
  5
3BA
330
1B
100
AcDbEntity
 67
     1
  8
3_ALL_AXES
  6
Continuous
 62
     7
100
AcDbLine
 10
1038.3229900398
 20
215.0461153427
 30
0.0
 11
1038.4737103694
 21
215.0461153427
 31
0.0
  0
LINE
  5
3BB
330
1B
100
AcDbEntity
 67
     1
  8
3_ALL_AXES
  6
Continuous
 62
     7
100
AcDbLine
 10
1037.9737103694
 20
215.3391957853
 30
0.0
 11
1038.3229900398
 21
215.0461153427
 31
0.0
  0
LINE
  5
3BC
330
1B
100
AcDbEntity
 67
     1
  8
3_ALL_AXES
  6
Continuous
 62
     7
100
AcDbLine
 10
1038.3229900398
 20
220.5461153427
 30
0.0
 11
1038.4737103694
 21
220.5461153427
 31
0.0
  0
LINE
  5
3BD
330
1B
100
AcDbEntity
 67
     1
  8
3_ALL_AXES
  6
Continuous
 62
     7
100
AcDbLine
 10
1037.9737103694
 20
220.2530349001
 30
0.0
 11
1038.3229900398
 21
220.5461153427
 31
0.0
  0
LINE
  5
3BE
330
1B
100
AcDbEntity
 67
     1
  8
3_ALL_AXES
  6
Continuous
 62
     7
100
AcDbLine
 10
1038.3229900398
 20
215.0461153427
 30
0.0
 11
1038.3229900398
 21
220.5461153427
 31
0.0
  0
LINE
  5
3BF
330
1B
100
AcDbEntity
 67
     1
  8
3_ALL_AXES
  6
Continuous
 62
     7
100
AcDbLine
 10
23.4737103694
 20
184.1461153427
 30
0.0
 11
23.624430699
 21
184.1461153427
 31
0.0
  0
LINE
  5
3C0
330
1B
100
AcDbEntity
 67
     1
  8
3_ALL_AXES
  6
Continuous
 62
     7
100
AcDbLine
 10
23.4737103694
 20
178.6461153427
 30
0.0
 11
23.624430699
 21
178.6461153427
 31
0.0
  0
LINE
  5
3C1
330
1B
100
AcDbEntity
 67
     1
  8
3_ALL_AXES
  6
Continuous
 62
     7
100
AcDbLine
 10
23.4737103694
 20
184.1461153427
 30
0.0
 11
23.4737103694
 21
178.6461153427
 31
0.0
  0
LINE
  5
3C2
330
1B
100
AcDbEntity
 67
     1
  8
3_ALL_AXES
  6
Continuous
 62
     7
100
AcDbLine
 10
23.624430699
 20
184.1461153427
 30
0.0
 11
23.9737103694
 21
183.8530349001
 31
0.0
  0
LINE
  5
3C3
330
1B
100
AcDbEntity
 67
     1
  8
3_ALL_AXES
  6
Continuous
 62
     7
100
AcDbLine
 10
23.624430699
 20
178.6461153427
 30
0.0
 11
23.9737103694
 21
178.9391957853
 31
0.0
  0
LINE
  5
3C4
330
1B
100
AcDbEntity
 67
     1
  8
3_ALL_AXES
  6
Continuous
 62
     7
100
AcDbLine
 10
23.624430699
 20
184.1461153427
 30
0.0
 11
23.4737103694
 21
184.1461153427
 31
0.0
  0
LINE
  5
3C5
330
1B
100
AcDbEntity
 67
     1
  8
3_ALL_AXES
  6
Continuous
 62
     7
100
AcDbLine
 10
23.9737103694
 20
183.8530349001
 30
0.0
 11
23.624430699
 21
184.1461153427
 31
0.0
  0
LINE
  5
3C6
330
1B
100
AcDbEntity
 67
     1
  8
3_ALL_AXES
  6
Continuous
 62
     7
100
AcDbLine
 10
23.624430699
 20
178.6461153427
 30
0.0
 11
23.4737103694
 21
178.6461153427
 31
0.0
  0
LINE
  5
3C7
330
1B
100
AcDbEntity
 67
     1
  8
3_ALL_AXES
  6
Continuous
 62
     7
100
AcDbLine
 10
23.9737103694
 20
178.9391957853
 30
0.0
 11
23.624430699
 21
178.6461153427
 31
0.0
  0
LINE
  5
3C8
330
1B
100
AcDbEntity
 67
     1
  8
3_ALL_AXES
  6
Continuous
 62
     7
100
AcDbLine
 10
23.624430699
 20
184.1461153427
 30
0.0
 11
23.624430699
 21
178.6461153427
 31
0.0
  0
LINE
  5
3C9
330
1B
100
AcDbEntity
 67
     1
  8
3_ALL_AXES
  6
Continuous
 62
     7
100
AcDbLine
 10
23.4737103694
 20
220.5461153427
 30
0.0
 11
23.624430699
 21
220.5461153427
 31
0.0
  0
LINE
  5
3CA
330
1B
100
AcDbEntity
 67
     1
  8
3_ALL_AXES
  6
Continuous
 62
     7
100
AcDbLine
 10
23.4737103694
 20
215.0461153427
 30
0.0
 11
23.624430699
 21
215.0461153427
 31
0.0
  0
LINE
  5
3CB
330
1B
100
AcDbEntity
 67
     1
  8
3_ALL_AXES
  6
Continuous
 62
     7
100
AcDbLine
 10
23.4737103694
 20
220.5461153427
 30
0.0
 11
23.4737103694
 21
215.0461153427
 31
0.0
  0
LINE
  5
3CC
330
1B
100
AcDbEntity
 67
     1
  8
3_ALL_AXES
  6
Continuous
 62
     7
100
AcDbLine
 10
23.624430699
 20
220.5461153427
 30
0.0
 11
23.9737103694
 21
220.2530349001
 31
0.0
  0
LINE
  5
3CD
330
1B
100
AcDbEntity
 67
     1
  8
3_ALL_AXES
  6
Continuous
 62
     7
100
AcDbLine
 10
23.624430699
 20
215.0461153427
 30
0.0
 11
23.9737103694
 21
215.3391957853
 31
0.0
  0
LINE
  5
3CE
330
1B
100
AcDbEntity
 67
     1
  8
3_ALL_AXES
  6
Continuous
 62
     7
100
AcDbLine
 10
23.624430699
 20
220.5461153427
 30
0.0
 11
23.4737103694
 21
220.5461153427
 31
0.0
  0
LINE
  5
3CF
330
1B
100
AcDbEntity
 67
     1
  8
3_ALL_AXES
  6
Continuous
 62
     7
100
AcDbLine
 10
23.9737103694
 20
220.2530349001
 30
0.0
 11
23.624430699
 21
220.5461153427
 31
0.0
  0
LINE
  5
3D0
330
1B
100
AcDbEntity
 67
     1
  8
3_ALL_AXES
  6
Continuous
 62
     7
100
AcDbLine
 10
23.624430699
 20
215.0461153427
 30
0.0
 11
23.4737103694
 21
215.0461153427
 31
0.0
  0
LINE
  5
3D1
330
1B
100
AcDbEntity
 67
     1
  8
3_ALL_AXES
  6
Continuous
 62
     7
100
AcDbLine
 10
23.9737103694
 20
215.3391957853
 30
0.0
 11
23.624430699
 21
215.0461153427
 31
0.0
  0
LINE
  5
3D2
330
1B
100
AcDbEntity
 67
     1
  8
3_ALL_AXES
  6
Continuous
 62
     7
100
AcDbLine
 10
23.624430699
 20
220.5461153427
 30
0.0
 11
23.624430699
 21
215.0461153427
 31
0.0
  0
LINE
  5
3D3
330
1B
100
AcDbEntity
 67
     1
  8
7_ALL_FEATURES
  6
Continuous
 62
     7
100
AcDbLine
 10
1037.9737103694
 20
179.5961153427
 30
0.0
 11
1037.9737103694
 21
178.5961153427
 31
0.0
  0
LINE
  5
3D4
330
1B
100
AcDbEntity
 67
     1
  8
7_ALL_FEATURES
  6
Continuous
 62
     7
100
AcDbLine
 10
1037.9737103694
 20
179.5961153427
 30
0.0
 11
1037.9737103694
 21
219.5961153427
 31
0.0
  0
LINE
  5
3D5
330
1B
100
AcDbEntity
 67
     1
  8
7_ALL_FEATURES
  6
Continuous
 62
     7
100
AcDbLine
 10
1037.9737103694
 20
220.5961153427
 30
0.0
 11
1037.9737103694
 21
219.5961153427
 31
0.0
  0
LINE
  5
3D6
330
1B
100
AcDbEntity
 67
     1
  8
7_ALL_FEATURES
  6
Continuous
 62
     7
100
AcDbLine
 10
1037.9737103694
 20
178.5961153427
 30
0.0
 11
1036.4737103694
 21
178.5961153427
 31
0.0
  0
LINE
  5
3D7
330
1B
100
AcDbEntity
 67
     1
  8
7_ALL_FEATURES
  6
Continuous
 62
     7
100
AcDbLine
 10
1037.9737103694
 20
220.5961153427
 30
0.0
 11
1036.4737103694
 21
220.5961153427
 31
0.0
  0
LINE
  5
3D8
330
1B
100
AcDbEntity
 67
     1
  8
7_ALL_FEATURES
  6
Continuous
 62
     7
100
AcDbLine
 10
1037.9737103694
 20
178.5961153427
 30
0.0
 11
1036.4737103694
 21
178.5961153427
 31
0.0
  0
LINE
  5
3D9
330
1B
100
AcDbEntity
 67
     1
  8
7_ALL_FEATURES
  6
Continuous
 62
     9
100
AcDbLine
 10
1037.9737103694
 20
219.5961153427
 30
0.0
 11
1036.4737103694
 21
219.5961153427
 31
0.0
  0
LINE
  5
3DA
330
1B
100
AcDbEntity
 67
     1
  8
7_ALL_FEATURES
  6
Continuous
 62
     9
100
AcDbLine
 10
1037.9737103694
 20
179.5961153427
 30
0.0
 11
1036.4737103694
 21
179.5961153427
 31
0.0
  0
LINE
  5
3DB
330
1B
100
AcDbEntity
 67
     1
  8
7_ALL_FEATURES
  6
Continuous
 62
     7
100
AcDbLine
 10
23.9737103694
 20
219.5961153427
 30
0.0
 11
23.9737103694
 21
220.5961153427
 31
0.0
  0
LINE
  5
3DC
330
1B
100
AcDbEntity
 67
     1
  8
7_ALL_FEATURES
  6
Continuous
 62
     7
100
AcDbLine
 10
23.9737103694
 20
219.5961153427
 30
0.0
 11
23.9737103694
 21
179.5961153427
 31
0.0
  0
LINE
  5
3DD
330
1B
100
AcDbEntity
 67
     1
  8
7_ALL_FEATURES
  6
Continuous
 62
     7
100
AcDbLine
 10
23.9737103694
 20
178.5961153427
 30
0.0
 11
23.9737103694
 21
179.5961153427
 31
0.0
  0
LINE
  5
3DE
330
1B
100
AcDbEntity
 67
     1
  8
7_ALL_FEATURES
  6
Continuous
 62
     7
100
AcDbLine
 10
23.9737103694
 20
220.5961153427
 30
0.0
 11
25.4737103694
 21
220.5961153427
 31
0.0
  0
LINE
  5
3DF
330
1B
100
AcDbEntity
 67
     1
  8
7_ALL_FEATURES
  6
Continuous
 62
     7
100
AcDbLine
 10
23.9737103694
 20
178.5961153427
 30
0.0
 11
25.4737103694
 21
178.5961153427
 31
0.0
  0
LINE
  5
3E0
330
1B
100
AcDbEntity
 67
     1
  8
7_ALL_FEATURES
  6
Continuous
 62
     7
100
AcDbLine
 10
23.9737103694
 20
220.5961153427
 30
0.0
 11
25.4737103694
 21
220.5961153427
 31
0.0
  0
LINE
  5
3E1
330
1B
100
AcDbEntity
 67
     1
  8
7_ALL_FEATURES
  6
Continuous
 62
     9
100
AcDbLine
 10
23.9737103694
 20
179.5961153427
 30
0.0
 11
25.4737103694
 21
179.5961153427
 31
0.0
  0
LINE
  5
3E2
330
1B
100
AcDbEntity
 67
     1
  8
7_ALL_FEATURES
  6
Continuous
 62
     9
100
AcDbLine
 10
23.9737103694
 20
219.5961153427
 30
0.0
 11
25.4737103694
 21
219.5961153427
 31
0.0
  0
LINE
  5
3E3
330
1B
100
AcDbEntity
 67
     1
  8
7_ALL_FEATURES
  6
Continuous
 62
     7
100
AcDbLine
 10
881.4737103694
 20
178.0461153427
 30
0.0
 11
881.4737103694
 21
178.3961153427
 31
0.0
  0
LINE
  5
3E4
330
1B
100
AcDbEntity
 67
     1
  8
7_ALL_FEATURES
  6
Continuous
 62
     7
100
AcDbLine
 10
1006.4737103694
 20
178.0461153427
 30
0.0
 11
1006.4737103694
 21
178.3961153427
 31
0.0
  0
LINE
  5
3E5
330
1B
100
AcDbEntity
 67
     1
  8
7_ALL_FEATURES
  6
Continuous
 62
     7
100
AcDbLine
 10
994.4737103694
 20
153.0461153427
 30
0.0
 11
1006.4737103694
 21
176.0461153427
 31
0.0
  0
LINE
  5
3E6
330
1B
100
AcDbEntity
 67
     1
  8
7_ALL_FEATURES
  6
Continuous
 62
     7
100
AcDbLine
 10
893.4737103694
 20
153.0461153427
 30
0.0
 11
994.4737103694
 21
153.0461153427
 31
0.0
  0
LINE
  5
3E7
330
1B
100
AcDbEntity
 67
     1
  8
7_ALL_FEATURES
  6
Continuous
 62
     7
100
AcDbLine
 10
881.4737103694
 20
176.0461153427
 30
0.0
 11
893.4737103694
 21
153.0461153427
 31
0.0
  0
LINE
  5
3E8
330
1B
100
AcDbEntity
 67
     1
  8
7_ALL_FEATURES
  6
Continuous
 62
     7
100
AcDbLine
 10
881.4737103694
 20
176.8461153427
 30
0.0
 11
881.4737103694
 21
176.0461153427
 31
0.0
  0
LINE
  5
3E9
330
1B
100
AcDbEntity
 67
     1
  8
7_ALL_FEATURES
  6
Continuous
 62
     7
100
AcDbLine
 10
1006.4737103694
 20
176.0461153427
 30
0.0
 11
1006.4737103694
 21
176.8461153427
 31
0.0
  0
LINE
  5
3EA
330
1B
100
AcDbEntity
 67
     1
  8
7_ALL_FEATURES
  6
Continuous
 62
     7
100
AcDbLine
 10
881.4737103694
 20
176.8461153427
 30
0.0
 11
881.4737103694
 21
177.5514576455
 31
0.0
  0
LINE
  5
3EB
330
1B
100
AcDbEntity
 67
     1
  8
7_ALL_FEATURES
  6
Continuous
 62
     7
100
AcDbLine
 10
881.4737103694
 20
177.5514576455
 30
0.0
 11
881.4737103694
 21
178.0461153427
 31
0.0
  0
LINE
  5
3EC
330
1B
100
AcDbEntity
 67
     1
  8
7_ALL_FEATURES
  6
Continuous
 62
     7
100
AcDbLine
 10
1006.4737103694
 20
178.0461153427
 30
0.0
 11
881.4737103694
 21
178.0461153427
 31
0.0
  0
LINE
  5
3ED
330
1B
100
AcDbEntity
 67
     1
  8
7_ALL_FEATURES
  6
Continuous
 62
     7
100
AcDbLine
 10
1006.4737103694
 20
176.8461153427
 30
0.0
 11
1006.4737103694
 21
177.5514576455
 31
0.0
  0
LINE
  5
3EE
330
1B
100
AcDbEntity
 67
     1
  8
7_ALL_FEATURES
  6
Continuous
 62
     7
100
AcDbLine
 10
1006.4737103694
 20
177.5514576455
 30
0.0
 11
1006.4737103694
 21
178.0461153427
 31
0.0
  0
LINE
  5
3EF
330
1B
100
AcDbEntity
 67
     1
  8
7_ALL_FEATURES
  6
Continuous
 62
     7
100
AcDbLine
 10
1006.4737103694
 20
221.1461153427
 30
0.0
 11
1006.4737103694
 21
220.7961153427
 31
0.0
  0
LINE
  5
3F0
330
1B
100
AcDbEntity
 67
     1
  8
7_ALL_FEATURES
  6
Continuous
 62
     7
100
AcDbLine
 10
881.4737103694
 20
221.1461153427
 30
0.0
 11
881.4737103694
 21
220.7961153427
 31
0.0
  0
LINE
  5
3F1
330
1B
100
AcDbEntity
 67
     1
  8
7_ALL_FEATURES
  6
Continuous
 62
     7
100
AcDbLine
 10
1006.4737103694
 20
223.1461153427
 30
0.0
 11
994.4737103694
 21
246.1461153427
 31
0.0
  0
LINE
  5
3F2
330
1B
100
AcDbEntity
 67
     1
  8
7_ALL_FEATURES
  6
Continuous
 62
     7
100
AcDbLine
 10
1006.4737103694
 20
222.3461153427
 30
0.0
 11
1006.4737103694
 21
223.1461153427
 31
0.0
  0
LINE
  5
3F3
330
1B
100
AcDbEntity
 67
     1
  8
7_ALL_FEATURES
  6
Continuous
 62
     7
100
AcDbLine
 10
881.4737103694
 20
223.1461153427
 30
0.0
 11
881.4737103694
 21
222.3461153427
 31
0.0
  0
LINE
  5
3F4
330
1B
100
AcDbEntity
 67
     1
  8
7_ALL_FEATURES
  6
Continuous
 62
     7
100
AcDbLine
 10
893.4737103694
 20
246.1461153427
 30
0.0
 11
881.4737103694
 21
223.1461153427
 31
0.0
  0
LINE
  5
3F5
330
1B
100
AcDbEntity
 67
     1
  8
7_ALL_FEATURES
  6
Continuous
 62
     7
100
AcDbLine
 10
994.4737103694
 20
246.1461153427
 30
0.0
 11
893.4737103694
 21
246.1461153427
 31
0.0
  0
LINE
  5
3F6
330
1B
100
AcDbEntity
 67
     1
  8
7_ALL_FEATURES
  6
Continuous
 62
     7
100
AcDbLine
 10
1006.4737103694
 20
222.3461153427
 30
0.0
 11
1006.4737103694
 21
221.64077304
 31
0.0
  0
LINE
  5
3F7
330
1B
100
AcDbEntity
 67
     1
  8
7_ALL_FEATURES
  6
Continuous
 62
     7
100
AcDbLine
 10
1006.4737103694
 20
221.64077304
 30
0.0
 11
1006.4737103694
 21
221.1461153427
 31
0.0
  0
LINE
  5
3F8
330
1B
100
AcDbEntity
 67
     1
  8
7_ALL_FEATURES
  6
Continuous
 62
     7
100
AcDbLine
 10
881.4737103694
 20
221.1461153427
 30
0.0
 11
1006.4737103694
 21
221.1461153427
 31
0.0
  0
LINE
  5
3F9
330
1B
100
AcDbEntity
 67
     1
  8
7_ALL_FEATURES
  6
Continuous
 62
     7
100
AcDbLine
 10
881.4737103694
 20
222.3461153427
 30
0.0
 11
881.4737103694
 21
221.64077304
 31
0.0
  0
LINE
  5
3FA
330
1B
100
AcDbEntity
 67
     1
  8
7_ALL_FEATURES
  6
Continuous
 62
     7
100
AcDbLine
 10
881.4737103694
 20
221.64077304
 30
0.0
 11
881.4737103694
 21
221.1461153427
 31
0.0
  0
LINE
  5
3FB
330
1B
100
AcDbEntity
 67
     1
  8
7_ALL_FEATURES
  6
Continuous
 62
     9
100
AcDbLine
 10
1006.4737103694
 20
176.8461153427
 30
0.0
 11
881.4737103694
 21
176.8461153427
 31
0.0
  0
LINE
  5
3FC
330
1B
100
AcDbEntity
 67
     1
  8
7_ALL_FEATURES
  6
Continuous
 62
     9
100
AcDbLine
 10
881.4737103694
 20
222.3461153427
 30
0.0
 11
1006.4737103694
 21
222.3461153427
 31
0.0
  0
LINE
  5
3FD
330
1B
100
AcDbEntity
 67
     1
  8
7_ALL_FEATURES
  6
Continuous
 62
     7
100
AcDbLine
 10
61.4737103694
 20
178.0461153427
 30
0.0
 11
61.4737103694
 21
178.3961153427
 31
0.0
  0
LINE
  5
3FE
330
1B
100
AcDbEntity
 67
     1
  8
7_ALL_FEATURES
  6
Continuous
 62
     7
100
AcDbLine
 10
186.4737103694
 20
178.0461153427
 30
0.0
 11
186.4737103694
 21
178.3961153427
 31
0.0
  0
LINE
  5
3FF
330
1B
100
AcDbEntity
 67
     1
  8
7_ALL_FEATURES
  6
Continuous
 62
     7
100
AcDbLine
 10
174.4737103694
 20
153.0461153427
 30
0.0
 11
186.4737103694
 21
176.0461153427
 31
0.0
  0
LINE
  5
400
330
1B
100
AcDbEntity
 67
     1
  8
7_ALL_FEATURES
  6
Continuous
 62
     7
100
AcDbLine
 10
73.4737103694
 20
153.0461153427
 30
0.0
 11
174.4737103694
 21
153.0461153427
 31
0.0
  0
LINE
  5
401
330
1B
100
AcDbEntity
 67
     1
  8
7_ALL_FEATURES
  6
Continuous
 62
     7
100
AcDbLine
 10
61.4737103694
 20
176.0461153427
 30
0.0
 11
73.4737103694
 21
153.0461153427
 31
0.0
  0
LINE
  5
402
330
1B
100
AcDbEntity
 67
     1
  8
7_ALL_FEATURES
  6
Continuous
 62
     7
100
AcDbLine
 10
61.4737103694
 20
176.8461153427
 30
0.0
 11
61.4737103694
 21
176.0461153427
 31
0.0
  0
LINE
  5
403
330
1B
100
AcDbEntity
 67
     1
  8
7_ALL_FEATURES
  6
Continuous
 62
     7
100
AcDbLine
 10
186.4737103694
 20
176.0461153427
 30
0.0
 11
186.4737103694
 21
176.8461153427
 31
0.0
  0
LINE
  5
404
330
1B
100
AcDbEntity
 67
     1
  8
7_ALL_FEATURES
  6
Continuous
 62
     7
100
AcDbLine
 10
61.4737103694
 20
176.8461153427
 30
0.0
 11
61.4737103694
 21
177.5514576455
 31
0.0
  0
LINE
  5
405
330
1B
100
AcDbEntity
 67
     1
  8
7_ALL_FEATURES
  6
Continuous
 62
     7
100
AcDbLine
 10
61.4737103694
 20
177.5514576455
 30
0.0
 11
61.4737103694
 21
178.0461153427
 31
0.0
  0
LINE
  5
406
330
1B
100
AcDbEntity
 67
     1
  8
7_ALL_FEATURES
  6
Continuous
 62
     7
100
AcDbLine
 10
186.4737103694
 20
178.0461153427
 30
0.0
 11
61.4737103694
 21
178.0461153427
 31
0.0
  0
LINE
  5
407
330
1B
100
AcDbEntity
 67
     1
  8
7_ALL_FEATURES
  6
Continuous
 62
     7
100
AcDbLine
 10
186.4737103694
 20
176.8461153427
 30
0.0
 11
186.4737103694
 21
177.5514576455
 31
0.0
  0
LINE
  5
408
330
1B
100
AcDbEntity
 67
     1
  8
7_ALL_FEATURES
  6
Continuous
 62
     7
100
AcDbLine
 10
186.4737103694
 20
177.5514576455
 30
0.0
 11
186.4737103694
 21
178.0461153427
 31
0.0
  0
LINE
  5
409
330
1B
100
AcDbEntity
 67
     1
  8
7_ALL_FEATURES
  6
Continuous
 62
     7
100
AcDbLine
 10
186.4737103694
 20
221.1461153427
 30
0.0
 11
186.4737103694
 21
220.7961153427
 31
0.0
  0
LINE
  5
40A
330
1B
100
AcDbEntity
 67
     1
  8
7_ALL_FEATURES
  6
Continuous
 62
     7
100
AcDbLine
 10
61.4737103694
 20
221.1461153427
 30
0.0
 11
61.4737103694
 21
220.7961153427
 31
0.0
  0
LINE
  5
40B
330
1B
100
AcDbEntity
 67
     1
  8
7_ALL_FEATURES
  6
Continuous
 62
     7
100
AcDbLine
 10
186.4737103694
 20
223.1461153427
 30
0.0
 11
174.4737103694
 21
246.1461153427
 31
0.0
  0
LINE
  5
40C
330
1B
100
AcDbEntity
 67
     1
  8
7_ALL_FEATURES
  6
Continuous
 62
     7
100
AcDbLine
 10
186.4737103694
 20
222.3461153427
 30
0.0
 11
186.4737103694
 21
223.1461153427
 31
0.0
  0
LINE
  5
40D
330
1B
100
AcDbEntity
 67
     1
  8
7_ALL_FEATURES
  6
Continuous
 62
     7
100
AcDbLine
 10
61.4737103694
 20
223.1461153427
 30
0.0
 11
61.4737103694
 21
222.3461153427
 31
0.0
  0
LINE
  5
40E
330
1B
100
AcDbEntity
 67
     1
  8
7_ALL_FEATURES
  6
Continuous
 62
     7
100
AcDbLine
 10
73.4737103694
 20
246.1461153427
 30
0.0
 11
61.4737103694
 21
223.1461153427
 31
0.0
  0
LINE
  5
40F
330
1B
100
AcDbEntity
 67
     1
  8
7_ALL_FEATURES
  6
Continuous
 62
     7
100
AcDbLine
 10
174.4737103694
 20
246.1461153427
 30
0.0
 11
73.4737103694
 21
246.1461153427
 31
0.0
  0
LINE
  5
410
330
1B
100
AcDbEntity
 67
     1
  8
7_ALL_FEATURES
  6
Continuous
 62
     7
100
AcDbLine
 10
186.4737103694
 20
222.3461153427
 30
0.0
 11
186.4737103694
 21
221.64077304
 31
0.0
  0
LINE
  5
411
330
1B
100
AcDbEntity
 67
     1
  8
7_ALL_FEATURES
  6
Continuous
 62
     7
100
AcDbLine
 10
186.4737103694
 20
221.64077304
 30
0.0
 11
186.4737103694
 21
221.1461153427
 31
0.0
  0
LINE
  5
412
330
1B
100
AcDbEntity
 67
     1
  8
7_ALL_FEATURES
  6
Continuous
 62
     7
100
AcDbLine
 10
61.4737103694
 20
221.1461153427
 30
0.0
 11
186.4737103694
 21
221.1461153427
 31
0.0
  0
LINE
  5
413
330
1B
100
AcDbEntity
 67
     1
  8
7_ALL_FEATURES
  6
Continuous
 62
     7
100
AcDbLine
 10
61.4737103694
 20
222.3461153427
 30
0.0
 11
61.4737103694
 21
221.64077304
 31
0.0
  0
LINE
  5
414
330
1B
100
AcDbEntity
 67
     1
  8
7_ALL_FEATURES
  6
Continuous
 62
     7
100
AcDbLine
 10
61.4737103694
 20
221.64077304
 30
0.0
 11
61.4737103694
 21
221.1461153427
 31
0.0
  0
LINE
  5
415
330
1B
100
AcDbEntity
 67
     1
  8
7_ALL_FEATURES
  6
Continuous
 62
     9
100
AcDbLine
 10
186.4737103694
 20
176.8461153427
 30
0.0
 11
61.4737103694
 21
176.8461153427
 31
0.0
  0
LINE
  5
416
330
1B
100
AcDbEntity
 67
     1
  8
7_ALL_FEATURES
  6
Continuous
 62
     9
100
AcDbLine
 10
61.4737103694
 20
222.3461153427
 30
0.0
 11
186.4737103694
 21
222.3461153427
 31
0.0
  0
LINE
  5
417
330
1B
100
AcDbEntity
 67
     1
  8
7_ALL_FEATURES
  6
Continuous
 62
     7
100
AcDbLine
 10
25.4737103694
 20
180.2961153427
 30
0.0
 11
25.4737103694
 21
179.5961153427
 31
0.0
  0
LINE
  5
418
330
1B
100
AcDbEntity
 67
     1
  8
7_ALL_FEATURES
  6
Continuous
 62
     7
100
AcDbLine
 10
25.4737103694
 20
179.5961153427
 30
0.0
 11
25.4737103694
 21
179.4092082816
 31
0.0
  0
LINE
  5
419
330
1B
100
AcDbEntity
 67
     1
  8
7_ALL_FEATURES
  6
Continuous
 62
     7
100
AcDbLine
 10
25.4737103694
 20
179.2064399479
 30
0.0
 11
25.4737103694
 21
179.4092082816
 31
0.0
  0
LINE
  5
41A
330
1B
100
AcDbEntity
 67
     1
  8
7_ALL_FEATURES
  6
Continuous
 62
     7
100
AcDbLine
 10
25.4737103694
 20
178.5961153427
 30
0.0
 11
25.4737103694
 21
178.4602788824
 31
0.0
  0
LINE
  5
41B
330
1B
100
AcDbEntity
 67
     1
  8
7_ALL_FEATURES
  6
Continuous
 62
     7
100
AcDbLine
 10
25.4737103694
 20
220.731951803
 30
0.0
 11
25.4737103694
 21
220.7961153427
 31
0.0
  0
LINE
  5
41C
330
1B
100
AcDbEntity
 67
     1
  8
7_ALL_FEATURES
  6
Continuous
 62
     7
100
AcDbLine
 10
25.4737103694
 20
220.731951803
 30
0.0
 11
25.4737103694
 21
220.5961153427
 31
0.0
  0
LINE
  5
41D
330
1B
100
AcDbEntity
 67
     1
  8
7_ALL_FEATURES
  6
Continuous
 62
     7
100
AcDbLine
 10
25.4737103694
 20
219.7830224038
 30
0.0
 11
25.4737103694
 21
219.9857907375
 31
0.0
  0
LINE
  5
41E
330
1B
100
AcDbEntity
 67
     1
  8
7_ALL_FEATURES
  6
Continuous
 62
     7
100
AcDbLine
 10
25.4737103694
 20
219.7830224038
 30
0.0
 11
25.4737103694
 21
219.5961153427
 31
0.0
  0
LINE
  5
41F
330
1B
100
AcDbEntity
 67
     1
  8
7_ALL_FEATURES
  6
Continuous
 62
     7
100
AcDbLine
 10
25.4737103694
 20
219.5961153427
 30
0.0
 11
25.4737103694
 21
218.8961153427
 31
0.0
  0
LINE
  5
420
330
1B
100
AcDbEntity
 67
     1
  8
7_ALL_FEATURES
  6
Continuous
 62
     7
100
AcDbLine
 10
25.4737103694
 20
178.3961153427
 30
0.0
 11
25.4737103694
 21
178.4602788824
 31
0.0
  0
LINE
  5
421
330
1B
100
AcDbEntity
 67
     1
  8
7_ALL_FEATURES
  6
Continuous
 62
     7
100
AcDbLine
 10
1036.4737103694
 20
178.3961153427
 30
0.0
 11
25.4737103694
 21
178.3961153427
 31
0.0
  0
LINE
  5
422
330
1B
100
AcDbEntity
 67
     1
  8
7_ALL_FEATURES
  6
Continuous
 62
     7
100
AcDbLine
 10
1036.4737103694
 20
218.5961153427
 30
0.0
 11
25.4737103694
 21
218.5961153427
 31
0.0
  0
LINE
  5
423
330
1B
100
AcDbEntity
 67
     1
  8
7_ALL_FEATURES
  6
Continuous
 62
     7
100
AcDbLine
 10
1036.4737103694
 20
180.5961153427
 30
0.0
 11
25.4737103694
 21
180.5961153427
 31
0.0
  0
ARC
  5
424
330
1B
100
AcDbEntity
 67
     1
  8
02___PRT_ALL_AXES
  6
Continuous
 62
     7
100
AcDbCircle
 10
1026.4737103694
 20
199.5961153427
 30
0.0
 40
5.0
100
AcDbArc
 50
90.0
 51
270.0
  0
ARC
  5
425
330
1B
100
AcDbEntity
 67
     1
  8
02___PRT_ALL_AXES
  6
Continuous
 62
     7
100
AcDbCircle
 10
1026.4737103694
 20
199.5961153427
 30
0.0
 40
5.0
100
AcDbArc
 50
270.0
 51
90.0
  0
LINE
  5
426
330
1B
100
AcDbEntity
 67
     1
  8
7_ALL_FEATURES
  6
Continuous
 62
     7
100
AcDbLine
 10
1036.4737103694
 20
219.7830224038
 30
0.0
 11
1036.4737103694
 21
219.5961153427
 31
0.0
  0
LINE
  5
427
330
1B
100
AcDbEntity
 67
     1
  8
7_ALL_FEATURES
  6
Continuous
 62
     7
100
AcDbLine
 10
1036.4737103694
 20
219.5961153427
 30
0.0
 11
1036.4737103694
 21
218.8961153427
 31
0.0
  0
LINE
  5
428
330
1B
100
AcDbEntity
 67
     1
  8
7_ALL_FEATURES
  6
Continuous
 62
     7
100
AcDbLine
 10
1036.4737103694
 20
219.9857907375
 30
0.0
 11
1036.4737103694
 21
219.7830224038
 31
0.0
  0
LINE
  5
429
330
1B
100
AcDbEntity
 67
     1
  8
7_ALL_FEATURES
  6
Continuous
 62
     7
100
AcDbLine
 10
1036.4737103694
 20
220.731951803
 30
0.0
 11
1036.4737103694
 21
220.5961153427
 31
0.0
  0
LINE
  5
42A
330
1B
100
AcDbEntity
 67
     1
  8
7_ALL_FEATURES
  6
Continuous
 62
     7
100
AcDbLine
 10
1036.4737103694
 20
220.7961153427
 30
0.0
 11
1036.4737103694
 21
220.731951803
 31
0.0
  0
LINE
  5
42B
330
1B
100
AcDbEntity
 67
     1
  8
7_ALL_FEATURES
  6
Continuous
 62
     7
100
AcDbLine
 10
1036.4737103694
 20
178.4602788824
 30
0.0
 11
1036.4737103694
 21
178.3961153427
 31
0.0
  0
LINE
  5
42C
330
1B
100
AcDbEntity
 67
     1
  8
7_ALL_FEATURES
  6
Continuous
 62
     7
100
AcDbLine
 10
1036.4737103694
 20
178.5961153427
 30
0.0
 11
1036.4737103694
 21
178.4602788824
 31
0.0
  0
LINE
  5
42D
330
1B
100
AcDbEntity
 67
     1
  8
7_ALL_FEATURES
  6
Continuous
 62
     7
100
AcDbLine
 10
1036.4737103694
 20
179.4092082816
 30
0.0
 11
1036.4737103694
 21
179.2064399479
 31
0.0
  0
LINE
  5
42E
330
1B
100
AcDbEntity
 67
     1
  8
7_ALL_FEATURES
  6
Continuous
 62
     7
100
AcDbLine
 10
1036.4737103694
 20
180.2961153427
 30
0.0
 11
1036.4737103694
 21
179.5961153427
 31
0.0
  0
LINE
  5
42F
330
1B
100
AcDbEntity
 67
     1
  8
7_ALL_FEATURES
  6
Continuous
 62
     7
100
AcDbLine
 10
1036.4737103694
 20
179.5961153427
 30
0.0
 11
1036.4737103694
 21
179.4092082816
 31
0.0
  0
LINE
  5
430
330
1B
100
AcDbEntity
 67
     1
  8
7_ALL_FEATURES
  6
Continuous
 62
     7
100
AcDbLine
 10
1036.4737103694
 20
218.5961153427
 30
0.0
 11
25.4737103694
 21
218.5961153427
 31
0.0
  0
LINE
  5
431
330
1B
100
AcDbEntity
 67
     1
  8
7_ALL_FEATURES
  6
Continuous
 62
     7
100
AcDbLine
 10
1036.4737103694
 20
220.7961153427
 30
0.0
 11
25.4737103694
 21
220.7961153427
 31
0.0
  0
LINE
  5
432
330
1B
100
AcDbEntity
 67
     1
  8
7_ALL_FEATURES
  6
Continuous
 62
     7
100
AcDbLine
 10
1036.4737103694
 20
180.5961153427
 30
0.0
 11
25.4737103694
 21
180.5961153427
 31
0.0
  0
LINE
  5
433
330
1B
100
AcDbEntity
 67
     1
  8
7_ALL_FEATURES
  6
Continuous
 62
     7
100
AcDbLine
 10
1036.4737103694
 20
178.3961153427
 30
0.0
 11
25.4737103694
 21
178.3961153427
 31
0.0
  0
LINE
  5
434
330
1B
100
AcDbEntity
 67
     1
  8
7_ALL_FEATURES
  6
Continuous
 62
     9
100
AcDbLine
 10
25.4737103694
 20
218.2300899389
 30
0.0
 11
1036.4737103694
 21
218.2300899389
 31
0.0
  0
LINE
  5
435
330
1B
100
AcDbEntity
 67
     1
  8
7_ALL_FEATURES
  6
Continuous
 62
     9
100
AcDbLine
 10
1036.4737103694
 20
219.7830224038
 30
0.0
 11
25.4737103694
 21
219.7830224038
 31
0.0
  0
LINE
  5
436
330
1B
100
AcDbEntity
 67
     1
  8
7_ALL_FEATURES
  6
Continuous
 62
     9
100
AcDbLine
 10
1036.4737103694
 20
218.8961153427
 30
0.0
 11
25.4737103694
 21
218.8961153427
 31
0.0
  0
LINE
  5
437
330
1B
100
AcDbEntity
 67
     1
  8
7_ALL_FEATURES
  6
Continuous
 62
     9
100
AcDbLine
 10
1036.4737103694
 20
220.731951803
 30
0.0
 11
25.4737103694
 21
220.731951803
 31
0.0
  0
LINE
  5
438
330
1B
100
AcDbEntity
 67
     1
  8
7_ALL_FEATURES
  6
Continuous
 62
     9
100
AcDbLine
 10
1036.4737103694
 20
220.0804558622
 30
0.0
 11
25.4737103694
 21
220.0804558622
 31
0.0
  0
LINE
  5
439
330
1B
100
AcDbEntity
 67
     1
  8
7_ALL_FEATURES
  6
Continuous
 62
     9
100
AcDbLine
 10
1021.9022734865
 20
201.6203435907
 30
0.0
 11
1031.0451472524
 21
201.6203435907
 31
0.0
  0
LINE
  5
43A
330
1B
100
AcDbEntity
 67
     1
  8
7_ALL_FEATURES
  6
Continuous
 62
     9
100
AcDbLine
 10
1021.7104653315
 20
201.1142865287
 30
0.0
 11
1031.2369554073
 21
201.1142865287
 31
0.0
  0
LINE
  5
43B
330
1B
100
AcDbEntity
 67
     1
  8
7_ALL_FEATURES
  6
Continuous
 62
     9
100
AcDbLine
 10
1021.7104653315
 20
198.0779441567
 30
0.0
 11
1031.2369554073
 21
198.0779441567
 31
0.0
  0
LINE
  5
43C
330
1B
100
AcDbEntity
 67
     1
  8
7_ALL_FEATURES
  6
Continuous
 62
     9
100
AcDbLine
 10
1021.9022734865
 20
197.5718870947
 30
0.0
 11
1031.0451472524
 21
197.5718870947
 31
0.0
  0
LINE
  5
43D
330
1B
100
AcDbEntity
 67
     1
  8
7_ALL_FEATURES
  6
Continuous
 62
     9
100
AcDbLine
 10
1036.4737103694
 20
182.365730585
 30
0.0
 11
25.4737103694
 21
182.365730585
 31
0.0
  0
LINE
  5
43E
330
1B
100
AcDbEntity
 67
     1
  8
7_ALL_FEATURES
  6
Continuous
 62
     9
100
AcDbLine
 10
25.4737103694
 20
180.9621407465
 30
0.0
 11
1036.4737103694
 21
180.9621407465
 31
0.0
  0
LINE
  5
43F
330
1B
100
AcDbEntity
 67
     1
  8
7_ALL_FEATURES
  6
Continuous
 62
     9
100
AcDbLine
 10
25.4737103694
 20
181.2121407465
 30
0.0
 11
1036.4737103694
 21
181.2121407465
 31
0.0
  0
LINE
  5
440
330
1B
100
AcDbEntity
 67
     1
  8
7_ALL_FEATURES
  6
Continuous
 62
     9
100
AcDbLine
 10
1036.4737103694
 20
216.5765001004
 30
0.0
 11
25.4737103694
 21
216.5765001004
 31
0.0
  0
LINE
  5
441
330
1B
100
AcDbEntity
 67
     1
  8
7_ALL_FEATURES
  6
Continuous
 62
     9
100
AcDbLine
 10
1036.4737103694
 20
182.615730585
 30
0.0
 11
25.4737103694
 21
182.615730585
 31
0.0
  0
LINE
  5
442
330
1B
100
AcDbEntity
 67
     1
  8
7_ALL_FEATURES
  6
Continuous
 62
     9
100
AcDbLine
 10
25.4737103694
 20
217.9800899389
 30
0.0
 11
1036.4737103694
 21
217.9800899389
 31
0.0
  0
LINE
  5
443
330
1B
100
AcDbEntity
 67
     1
  8
7_ALL_FEATURES
  6
Continuous
 62
     9
100
AcDbLine
 10
1036.4737103694
 20
180.2961153427
 30
0.0
 11
25.4737103694
 21
180.2961153427
 31
0.0
  0
LINE
  5
444
330
1B
100
AcDbEntity
 67
     1
  8
7_ALL_FEATURES
  6
Continuous
 62
     9
100
AcDbLine
 10
1036.4737103694
 20
179.4092082816
 30
0.0
 11
25.4737103694
 21
179.4092082816
 31
0.0
  0
LINE
  5
445
330
1B
100
AcDbEntity
 67
     1
  8
7_ALL_FEATURES
  6
Continuous
 62
     9
100
AcDbLine
 10
1036.4737103694
 20
179.1117748232
 30
0.0
 11
25.4737103694
 21
179.1117748232
 31
0.0
  0
LINE
  5
446
330
1B
100
AcDbEntity
 67
     1
  8
7_ALL_FEATURES
  6
Continuous
 62
     9
100
AcDbLine
 10
1036.4737103694
 20
178.4602788824
 30
0.0
 11
25.4737103694
 21
178.4602788824
 31
0.0
  0
LINE
  5
447
330
1B
100
AcDbEntity
 67
     1
  8
7_ALL_FEATURES
  6
Continuous
 62
     9
100
AcDbLine
 10
1036.4737103694
 20
216.8265001004
 30
0.0
 11
25.4737103694
 21
216.8265001004
 31
0.0
  0
LINE
  5
448
330
1B
100
AcDbEntity
 67
     1
  8
7_ALL_FEATURES
  6
Continuous
 62
     3
100
AcDbLine
 10
1036.4737103694
 20
219.5961153427
 30
0.0
 11
1036.4737103694
 21
219.6883837022
 31
0.0
  0
LINE
  5
449
330
1B
100
AcDbEntity
 67
     1
  8
7_ALL_FEATURES
  6
Continuous
 62
     3
100
AcDbLine
 10
1036.4737103694
 20
219.9858917149
 30
0.0
 11
1036.4737103694
 21
220.1738963496
 31
0.0
  0
LINE
  5
44A
330
1B
100
AcDbEntity
 67
     1
  8
7_ALL_FEATURES
  6
Continuous
 62
     3
100
AcDbLine
 10
1036.4737103694
 20
220.1738963496
 30
0.0
 11
1036.4737103694
 21
220.5961153427
 31
0.0
  0
LINE
  5
44B
330
1B
100
AcDbEntity
 67
     1
  8
7_ALL_FEATURES
  6
Continuous
 62
     3
100
AcDbLine
 10
1036.4737103694
 20
179.5961153427
 30
0.0
 11
1036.4737103694
 21
180.2961153427
 31
0.0
  0
LINE
  5
44C
330
1B
100
AcDbEntity
 67
     1
  8
7_ALL_FEATURES
  6
Continuous
 62
     3
100
AcDbLine
 10
1036.4737103694
 20
180.2961153427
 30
0.0
 11
1036.4737103694
 21
180.5961153427
 31
0.0
  0
LINE
  5
44D
330
1B
100
AcDbEntity
 67
     1
  8
7_ALL_FEATURES
  6
Continuous
 62
     3
100
AcDbLine
 10
1036.4737103694
 20
180.5961153427
 30
0.0
 11
1036.4737103694
 21
218.5961153427
 31
0.0
  0
LINE
  5
44E
330
1B
100
AcDbEntity
 67
     1
  8
7_ALL_FEATURES
  6
Continuous
 62
     3
100
AcDbLine
 10
1036.4737103694
 20
218.5961153427
 30
0.0
 11
1036.4737103694
 21
218.8961153427
 31
0.0
  0
LINE
  5
44F
330
1B
100
AcDbEntity
 67
     1
  8
7_ALL_FEATURES
  6
Continuous
 62
     3
100
AcDbLine
 10
1036.4737103694
 20
218.8961153427
 30
0.0
 11
1036.4737103694
 21
219.5961153427
 31
0.0
  0
LINE
  5
450
330
1B
100
AcDbEntity
 67
     1
  8
7_ALL_FEATURES
  6
Continuous
 62
     3
100
AcDbLine
 10
1036.4737103694
 20
178.5961153427
 30
0.0
 11
1036.4737103694
 21
179.0183343358
 31
0.0
  0
LINE
  5
451
330
1B
100
AcDbEntity
 67
     1
  8
7_ALL_FEATURES
  6
Continuous
 62
     3
100
AcDbLine
 10
1036.4737103694
 20
179.0183343358
 30
0.0
 11
1036.4737103694
 21
179.2063389705
 31
0.0
  0
LINE
  5
452
330
1B
100
AcDbEntity
 67
     1
  8
7_ALL_FEATURES
  6
Continuous
 62
     3
100
AcDbLine
 10
1036.4737103694
 20
179.5038469833
 30
0.0
 11
1036.4737103694
 21
179.5961153427
 31
0.0
  0
LINE
  5
453
330
1B
100
AcDbEntity
 67
     1
  8
7_ALL_FEATURES
  6
Continuous
 62
     3
100
AcDbLine
 10
25.4737103694
 20
179.5961153427
 30
0.0
 11
25.4737103694
 21
179.5038469833
 31
0.0
  0
LINE
  5
454
330
1B
100
AcDbEntity
 67
     1
  8
7_ALL_FEATURES
  6
Continuous
 62
     3
100
AcDbLine
 10
25.4737103694
 20
179.2063389705
 30
0.0
 11
25.4737103694
 21
179.0183343358
 31
0.0
  0
LINE
  5
455
330
1B
100
AcDbEntity
 67
     1
  8
7_ALL_FEATURES
  6
Continuous
 62
     3
100
AcDbLine
 10
25.4737103694
 20
179.0183343358
 30
0.0
 11
25.4737103694
 21
178.5961153427
 31
0.0
  0
LINE
  5
456
330
1B
100
AcDbEntity
 67
     1
  8
7_ALL_FEATURES
  6
Continuous
 62
     3
100
AcDbLine
 10
25.4737103694
 20
219.5961153427
 30
0.0
 11
25.4737103694
 21
218.8961153427
 31
0.0
  0
LINE
  5
457
330
1B
100
AcDbEntity
 67
     1
  8
7_ALL_FEATURES
  6
Continuous
 62
     3
100
AcDbLine
 10
25.4737103694
 20
218.8961153427
 30
0.0
 11
25.4737103694
 21
218.5961153427
 31
0.0
  0
LINE
  5
458
330
1B
100
AcDbEntity
 67
     1
  8
7_ALL_FEATURES
  6
Continuous
 62
     3
100
AcDbLine
 10
25.4737103694
 20
218.5961153427
 30
0.0
 11
25.4737103694
 21
180.5961153427
 31
0.0
  0
LINE
  5
459
330
1B
100
AcDbEntity
 67
     1
  8
7_ALL_FEATURES
  6
Continuous
 62
     3
100
AcDbLine
 10
25.4737103694
 20
180.5961153427
 30
0.0
 11
25.4737103694
 21
180.2961153427
 31
0.0
  0
LINE
  5
45A
330
1B
100
AcDbEntity
 67
     1
  8
7_ALL_FEATURES
  6
Continuous
 62
     3
100
AcDbLine
 10
25.4737103694
 20
180.2961153427
 30
0.0
 11
25.4737103694
 21
179.5961153427
 31
0.0
  0
LINE
  5
45B
330
1B
100
AcDbEntity
 67
     1
  8
7_ALL_FEATURES
  6
Continuous
 62
     3
100
AcDbLine
 10
25.4737103694
 20
220.5961153427
 30
0.0
 11
25.4737103694
 21
220.1738963496
 31
0.0
  0
LINE
  5
45C
330
1B
100
AcDbEntity
 67
     1
  8
7_ALL_FEATURES
  6
Continuous
 62
     3
100
AcDbLine
 10
25.4737103694
 20
220.1738963496
 30
0.0
 11
25.4737103694
 21
219.9858917149
 31
0.0
  0
LINE
  5
45D
330
1B
100
AcDbEntity
 67
     1
  8
7_ALL_FEATURES
  6
Continuous
 62
     3
100
AcDbLine
 10
25.4737103694
 20
219.6883837022
 30
0.0
 11
25.4737103694
 21
219.5961153427
 31
0.0
  0
LINE
  5
45E
330
1B
100
AcDbEntity
 67
     1
  8
7_ALL_FEATURES
  6
Continuous
 62
     7
100
AcDbLine
 10
1093.2532775649
 20
360.0760930809
 30
0.0
 11
1093.2532775649
 21
359.2010930809
 31
0.0
  0
LINE
  5
45F
330
1B
100
AcDbEntity
 67
     1
  8
7_ALL_FEATURES
  6
Continuous
 62
     7
100
AcDbLine
 10
1093.2532775649
 20
359.2010930809
 30
0.0
 11
1092.3782775649
 21
359.2010930809
 31
0.0
  0
LINE
  5
460
330
1B
100
AcDbEntity
 67
     1
  8
7_ALL_FEATURES
  6
Continuous
 62
     7
100
AcDbLine
 10
1092.3782775649
 20
358.4510930809
 30
0.0
 11
1093.2532775649
 21
358.4510930809
 31
0.0
  0
LINE
  5
461
330
1B
100
AcDbEntity
 67
     1
  8
7_ALL_FEATURES
  6
Continuous
 62
     7
100
AcDbLine
 10
1093.2532775649
 20
358.4510930809
 30
0.0
 11
1093.2532775649
 21
357.5760930809
 31
0.0
  0
LINE
  5
462
330
1B
100
AcDbEntity
 67
     1
  8
7_ALL_FEATURES
  6
Continuous
 62
     7
100
AcDbLine
 10
1094.0032775649
 20
357.5760930809
 30
0.0
 11
1094.0032775649
 21
358.4510930809
 31
0.0
  0
LINE
  5
463
330
1B
100
AcDbEntity
 67
     1
  8
7_ALL_FEATURES
  6
Continuous
 62
     7
100
AcDbLine
 10
1094.0032775649
 20
358.4510930809
 30
0.0
 11
1094.8782775649
 21
358.4510930809
 31
0.0
  0
LINE
  5
464
330
1B
100
AcDbEntity
 67
     1
  8
7_ALL_FEATURES
  6
Continuous
 62
     7
100
AcDbLine
 10
1094.8782775649
 20
359.2010930809
 30
0.0
 11
1094.0032775649
 21
359.2010930809
 31
0.0
  0
LINE
  5
465
330
1B
100
AcDbEntity
 67
     1
  8
7_ALL_FEATURES
  6
Continuous
 62
     7
100
AcDbLine
 10
1094.0032775649
 20
359.2010930809
 30
0.0
 11
1094.0032775649
 21
360.0760930809
 31
0.0
  0
ARC
  5
466
330
1B
100
AcDbEntity
 67
     1
  8
3_ALL_AXES
  6
Continuous
 62
     7
100
AcDbCircle
 10
1093.6282775649
 20
358.8260930809
 30
0.0
 40
2.75
100
AcDbArc
 50
180.0
 51
360.0
  0
ARC
  5
467
330
1B
100
AcDbEntity
 67
     1
  8
3_ALL_AXES
  6
Continuous
 62
     7
100
AcDbCircle
 10
1093.6282775649
 20
358.8260930809
 30
0.0
 40
2.75
100
AcDbArc
 50
0.0
 51
180.0
  0
LINE
  5
468
330
1B
100
AcDbEntity
 67
     1
  8
7_ALL_FEATURES
  6
Continuous
 62
     7
100
AcDbLine
 10
1094.8782775649
 20
359.2010930809
 30
0.0
 11
1094.8782775649
 21
358.4510930809
 31
0.0
  0
LINE
  5
469
330
1B
100
AcDbEntity
 67
     1
  8
7_ALL_FEATURES
  6
Continuous
 62
     7
100
AcDbLine
 10
1093.2532775649
 20
360.0760930809
 30
0.0
 11
1094.0032775649
 21
360.0760930809
 31
0.0
  0
LINE
  5
46A
330
1B
100
AcDbEntity
 67
     1
  8
7_ALL_FEATURES
  6
Continuous
 62
     7
100
AcDbLine
 10
1092.3782775649
 20
358.4510930809
 30
0.0
 11
1092.3782775649
 21
359.2010930809
 31
0.0
  0
LINE
  5
46B
330
1B
100
AcDbEntity
 67
     1
  8
7_ALL_FEATURES
  6
Continuous
 62
     7
100
AcDbLine
 10
1094.0032775649
 20
357.5760930809
 30
0.0
 11
1093.2532775649
 21
357.5760930809
 31
0.0
  0
LINE
  5
46C
330
1B
100
AcDbEntity
 67
     1
  8
7_ALL_FEATURES
  6
Continuous
 62
     7
100
AcDbLine
 10
1129.6532775649
 20
360.0760930809
 30
0.0
 11
1129.6532775649
 21
359.2010930809
 31
0.0
  0
LINE
  5
46D
330
1B
100
AcDbEntity
 67
     1
  8
7_ALL_FEATURES
  6
Continuous
 62
     7
100
AcDbLine
 10
1129.6532775649
 20
359.2010930809
 30
0.0
 11
1128.7782775649
 21
359.2010930809
 31
0.0
  0
LINE
  5
46E
330
1B
100
AcDbEntity
 67
     1
  8
7_ALL_FEATURES
  6
Continuous
 62
     7
100
AcDbLine
 10
1128.7782775649
 20
358.4510930809
 30
0.0
 11
1129.6532775649
 21
358.4510930809
 31
0.0
  0
LINE
  5
46F
330
1B
100
AcDbEntity
 67
     1
  8
7_ALL_FEATURES
  6
Continuous
 62
     7
100
AcDbLine
 10
1129.6532775649
 20
358.4510930809
 30
0.0
 11
1129.6532775649
 21
357.5760930809
 31
0.0
  0
LINE
  5
470
330
1B
100
AcDbEntity
 67
     1
  8
7_ALL_FEATURES
  6
Continuous
 62
     7
100
AcDbLine
 10
1130.4032775649
 20
357.5760930809
 30
0.0
 11
1130.4032775649
 21
358.4510930809
 31
0.0
  0
LINE
  5
471
330
1B
100
AcDbEntity
 67
     1
  8
7_ALL_FEATURES
  6
Continuous
 62
     7
100
AcDbLine
 10
1130.4032775649
 20
358.4510930809
 30
0.0
 11
1131.2782775649
 21
358.4510930809
 31
0.0
  0
LINE
  5
472
330
1B
100
AcDbEntity
 67
     1
  8
7_ALL_FEATURES
  6
Continuous
 62
     7
100
AcDbLine
 10
1131.2782775649
 20
359.2010930809
 30
0.0
 11
1130.4032775649
 21
359.2010930809
 31
0.0
  0
LINE
  5
473
330
1B
100
AcDbEntity
 67
     1
  8
7_ALL_FEATURES
  6
Continuous
 62
     7
100
AcDbLine
 10
1130.4032775649
 20
359.2010930809
 30
0.0
 11
1130.4032775649
 21
360.0760930809
 31
0.0
  0
ARC
  5
474
330
1B
100
AcDbEntity
 67
     1
  8
3_ALL_AXES
  6
Continuous
 62
     7
100
AcDbCircle
 10
1130.0282775649
 20
358.8260930809
 30
0.0
 40
2.75
100
AcDbArc
 50
180.0
 51
360.0
  0
ARC
  5
475
330
1B
100
AcDbEntity
 67
     1
  8
3_ALL_AXES
  6
Continuous
 62
     7
100
AcDbCircle
 10
1130.0282775649
 20
358.8260930809
 30
0.0
 40
2.75
100
AcDbArc
 50
0.0
 51
180.0
  0
LINE
  5
476
330
1B
100
AcDbEntity
 67
     1
  8
7_ALL_FEATURES
  6
Continuous
 62
     7
100
AcDbLine
 10
1131.2782775649
 20
359.2010930809
 30
0.0
 11
1131.2782775649
 21
358.4510930809
 31
0.0
  0
LINE
  5
477
330
1B
100
AcDbEntity
 67
     1
  8
7_ALL_FEATURES
  6
Continuous
 62
     7
100
AcDbLine
 10
1129.6532775649
 20
360.0760930809
 30
0.0
 11
1130.4032775649
 21
360.0760930809
 31
0.0
  0
LINE
  5
478
330
1B
100
AcDbEntity
 67
     1
  8
7_ALL_FEATURES
  6
Continuous
 62
     7
100
AcDbLine
 10
1128.7782775649
 20
358.4510930809
 30
0.0
 11
1128.7782775649
 21
359.2010930809
 31
0.0
  0
LINE
  5
479
330
1B
100
AcDbEntity
 67
     1
  8
7_ALL_FEATURES
  6
Continuous
 62
     7
100
AcDbLine
 10
1130.4032775649
 20
357.5760930809
 30
0.0
 11
1129.6532775649
 21
357.5760930809
 31
0.0
  0
LINE
  5
47A
330
1B
100
AcDbEntity
 67
     1
  8
7_ALL_FEATURES
  6
Continuous
 62
     7
100
AcDbLine
 10
1129.6532775649
 20
311.3260930809
 30
0.0
 11
1129.6532775649
 21
310.4510930809
 31
0.0
  0
LINE
  5
47B
330
1B
100
AcDbEntity
 67
     1
  8
7_ALL_FEATURES
  6
Continuous
 62
     7
100
AcDbLine
 10
1129.6532775649
 20
310.4510930809
 30
0.0
 11
1128.7782775649
 21
310.4510930809
 31
0.0
  0
LINE
  5
47C
330
1B
100
AcDbEntity
 67
     1
  8
7_ALL_FEATURES
  6
Continuous
 62
     7
100
AcDbLine
 10
1128.7782775649
 20
309.7010930809
 30
0.0
 11
1129.6532775649
 21
309.7010930809
 31
0.0
  0
LINE
  5
47D
330
1B
100
AcDbEntity
 67
     1
  8
7_ALL_FEATURES
  6
Continuous
 62
     7
100
AcDbLine
 10
1129.6532775649
 20
309.7010930809
 30
0.0
 11
1129.6532775649
 21
308.8260930809
 31
0.0
  0
LINE
  5
47E
330
1B
100
AcDbEntity
 67
     1
  8
7_ALL_FEATURES
  6
Continuous
 62
     7
100
AcDbLine
 10
1130.4032775649
 20
308.8260930809
 30
0.0
 11
1130.4032775649
 21
309.7010930809
 31
0.0
  0
LINE
  5
47F
330
1B
100
AcDbEntity
 67
     1
  8
7_ALL_FEATURES
  6
Continuous
 62
     7
100
AcDbLine
 10
1130.4032775649
 20
309.7010930809
 30
0.0
 11
1131.2782775649
 21
309.7010930809
 31
0.0
  0
LINE
  5
480
330
1B
100
AcDbEntity
 67
     1
  8
7_ALL_FEATURES
  6
Continuous
 62
     7
100
AcDbLine
 10
1131.2782775649
 20
310.4510930809
 30
0.0
 11
1130.4032775649
 21
310.4510930809
 31
0.0
  0
LINE
  5
481
330
1B
100
AcDbEntity
 67
     1
  8
7_ALL_FEATURES
  6
Continuous
 62
     7
100
AcDbLine
 10
1130.4032775649
 20
310.4510930809
 30
0.0
 11
1130.4032775649
 21
311.3260930809
 31
0.0
  0
ARC
  5
482
330
1B
100
AcDbEntity
 67
     1
  8
3_ALL_AXES
  6
Continuous
 62
     7
100
AcDbCircle
 10
1130.0282775649
 20
310.0760930809
 30
0.0
 40
2.75
100
AcDbArc
 50
180.0
 51
360.0
  0
ARC
  5
483
330
1B
100
AcDbEntity
 67
     1
  8
3_ALL_AXES
  6
Continuous
 62
     7
100
AcDbCircle
 10
1130.0282775649
 20
310.0760930809
 30
0.0
 40
2.75
100
AcDbArc
 50
0.0
 51
180.0
  0
LINE
  5
484
330
1B
100
AcDbEntity
 67
     1
  8
7_ALL_FEATURES
  6
Continuous
 62
     7
100
AcDbLine
 10
1131.2782775649
 20
310.4510930809
 30
0.0
 11
1131.2782775649
 21
309.7010930809
 31
0.0
  0
LINE
  5
485
330
1B
100
AcDbEntity
 67
     1
  8
7_ALL_FEATURES
  6
Continuous
 62
     7
100
AcDbLine
 10
1129.6532775649
 20
311.3260930809
 30
0.0
 11
1130.4032775649
 21
311.3260930809
 31
0.0
  0
LINE
  5
486
330
1B
100
AcDbEntity
 67
     1
  8
7_ALL_FEATURES
  6
Continuous
 62
     7
100
AcDbLine
 10
1128.7782775649
 20
309.7010930809
 30
0.0
 11
1128.7782775649
 21
310.4510930809
 31
0.0
  0
LINE
  5
487
330
1B
100
AcDbEntity
 67
     1
  8
7_ALL_FEATURES
  6
Continuous
 62
     7
100
AcDbLine
 10
1130.4032775649
 20
308.8260930809
 30
0.0
 11
1129.6532775649
 21
308.8260930809
 31
0.0
  0
LINE
  5
488
330
1B
100
AcDbEntity
 67
     1
  8
7_ALL_FEATURES
  6
Continuous
 62
     7
100
AcDbLine
 10
1093.2532775649
 20
311.3260930809
 30
0.0
 11
1093.2532775649
 21
310.4510930809
 31
0.0
  0
LINE
  5
489
330
1B
100
AcDbEntity
 67
     1
  8
7_ALL_FEATURES
  6
Continuous
 62
     7
100
AcDbLine
 10
1093.2532775649
 20
310.4510930809
 30
0.0
 11
1092.3782775649
 21
310.4510930809
 31
0.0
  0
LINE
  5
48A
330
1B
100
AcDbEntity
 67
     1
  8
7_ALL_FEATURES
  6
Continuous
 62
     7
100
AcDbLine
 10
1092.3782775649
 20
309.7010930809
 30
0.0
 11
1093.2532775649
 21
309.7010930809
 31
0.0
  0
LINE
  5
48B
330
1B
100
AcDbEntity
 67
     1
  8
7_ALL_FEATURES
  6
Continuous
 62
     7
100
AcDbLine
 10
1093.2532775649
 20
309.7010930809
 30
0.0
 11
1093.2532775649
 21
308.8260930809
 31
0.0
  0
LINE
  5
48C
330
1B
100
AcDbEntity
 67
     1
  8
7_ALL_FEATURES
  6
Continuous
 62
     7
100
AcDbLine
 10
1094.0032775649
 20
308.8260930809
 30
0.0
 11
1094.0032775649
 21
309.7010930809
 31
0.0
  0
LINE
  5
48D
330
1B
100
AcDbEntity
 67
     1
  8
7_ALL_FEATURES
  6
Continuous
 62
     7
100
AcDbLine
 10
1094.0032775649
 20
309.7010930809
 30
0.0
 11
1094.8782775649
 21
309.7010930809
 31
0.0
  0
LINE
  5
48E
330
1B
100
AcDbEntity
 67
     1
  8
7_ALL_FEATURES
  6
Continuous
 62
     7
100
AcDbLine
 10
1094.8782775649
 20
310.4510930809
 30
0.0
 11
1094.0032775649
 21
310.4510930809
 31
0.0
  0
LINE
  5
48F
330
1B
100
AcDbEntity
 67
     1
  8
7_ALL_FEATURES
  6
Continuous
 62
     7
100
AcDbLine
 10
1094.0032775649
 20
310.4510930809
 30
0.0
 11
1094.0032775649
 21
311.3260930809
 31
0.0
  0
ARC
  5
490
330
1B
100
AcDbEntity
 67
     1
  8
3_ALL_AXES
  6
Continuous
 62
     7
100
AcDbCircle
 10
1093.6282775649
 20
310.0760930809
 30
0.0
 40
2.75
100
AcDbArc
 50
180.0
 51
360.0
  0
ARC
  5
491
330
1B
100
AcDbEntity
 67
     1
  8
3_ALL_AXES
  6
Continuous
 62
     7
100
AcDbCircle
 10
1093.6282775649
 20
310.0760930809
 30
0.0
 40
2.75
100
AcDbArc
 50
0.0
 51
180.0
  0
LINE
  5
492
330
1B
100
AcDbEntity
 67
     1
  8
7_ALL_FEATURES
  6
Continuous
 62
     7
100
AcDbLine
 10
1094.8782775649
 20
310.4510930809
 30
0.0
 11
1094.8782775649
 21
309.7010930809
 31
0.0
  0
LINE
  5
493
330
1B
100
AcDbEntity
 67
     1
  8
7_ALL_FEATURES
  6
Continuous
 62
     7
100
AcDbLine
 10
1093.2532775649
 20
311.3260930809
 30
0.0
 11
1094.0032775649
 21
311.3260930809
 31
0.0
  0
LINE
  5
494
330
1B
100
AcDbEntity
 67
     1
  8
7_ALL_FEATURES
  6
Continuous
 62
     7
100
AcDbLine
 10
1092.3782775649
 20
309.7010930809
 30
0.0
 11
1092.3782775649
 21
310.4510930809
 31
0.0
  0
LINE
  5
495
330
1B
100
AcDbEntity
 67
     1
  8
7_ALL_FEATURES
  6
Continuous
 62
     7
100
AcDbLine
 10
1094.0032775649
 20
308.8260930809
 30
0.0
 11
1093.2532775649
 21
308.8260930809
 31
0.0
  0
ARC
  5
496
330
1B
100
AcDbEntity
 67
     1
  8
7_ALL_FEATURES
  6
Continuous
 62
     7
100
AcDbCircle
 10
1090.3282775649
 20
380.5760930809
 30
0.0
 40
1.5
100
AcDbArc
 50
306.8698976459
 51
53.1301023541
  0
ARC
  5
497
330
1B
100
AcDbEntity
 67
     1
  8
7_ALL_FEATURES
  6
Continuous
 62
     7
100
AcDbCircle
 10
1091.8282775649
 20
378.5760930809
 30
0.0
 40
1.0
100
AcDbArc
 50
126.8698976458
 51
180.0
  0
LINE
  5
498
330
1B
100
AcDbEntity
 67
     1
  8
7_ALL_FEATURES
  6
Continuous
 62
     7
100
AcDbLine
 10
1090.8282775649
 20
308.0760930809
 30
0.0
 11
1090.8282775649
 21
378.5760930809
 31
0.0
  0
ARC
  5
499
330
1B
100
AcDbEntity
 67
     1
  8
7_ALL_FEATURES
  6
Continuous
 62
     7
100
AcDbCircle
 10
1091.8282775649
 20
308.0760930809
 30
0.0
 40
1.0
100
AcDbArc
 50
180.0
 51
270.0
  0
LINE
  5
49A
330
1B
100
AcDbEntity
 67
     1
  8
7_ALL_FEATURES
  6
Continuous
 62
     7
100
AcDbLine
 10
1131.8282775649
 20
307.0760930809
 30
0.0
 11
1091.8282775649
 21
307.0760930809
 31
0.0
  0
ARC
  5
49B
330
1B
100
AcDbEntity
 67
     1
  8
7_ALL_FEATURES
  6
Continuous
 62
     7
100
AcDbCircle
 10
1131.8282775649
 20
308.0760930809
 30
0.0
 40
1.0
100
AcDbArc
 50
270.0
 51
360.0
  0
LINE
  5
49C
330
1B
100
AcDbEntity
 67
     1
  8
7_ALL_FEATURES
  6
Continuous
 62
     7
100
AcDbLine
 10
1132.8282775649
 20
318.5760930809
 30
0.0
 11
1132.8282775649
 21
308.0760930809
 31
0.0
  0
ARC
  5
49D
330
1B
100
AcDbEntity
 67
     1
  8
7_ALL_FEATURES
  6
Continuous
 62
     7
100
AcDbCircle
 10
1131.8282775649
 20
318.5760930809
 30
0.0
 40
1.0
100
AcDbArc
 50
0.0
 51
53.1301023542
  0
ARC
  5
49E
330
1B
100
AcDbEntity
 67
     1
  8
7_ALL_FEATURES
  6
Continuous
 62
     7
100
AcDbCircle
 10
1133.3282775649
 20
320.5760930809
 30
0.0
 40
1.5
100
AcDbArc
 50
126.8698976458
 51
233.1301023542
  0
ARC
  5
49F
330
1B
100
AcDbEntity
 67
     1
  8
7_ALL_FEATURES
  6
Continuous
 62
     7
100
AcDbCircle
 10
1131.8282775649
 20
322.5760930809
 30
0.0
 40
1.0
100
AcDbArc
 50
306.8698976458
 51
360.0
  0
LINE
  5
4A0
330
1B
100
AcDbEntity
 67
     1
  8
7_ALL_FEATURES
  6
Continuous
 62
     7
100
AcDbLine
 10
1132.8282775649
 20
389.5760930809
 30
0.0
 11
1132.8282775649
 21
322.5760930809
 31
0.0
  0
ARC
  5
4A1
330
1B
100
AcDbEntity
 67
     1
  8
7_ALL_FEATURES
  6
Continuous
 62
     7
100
AcDbCircle
 10
1131.8282775649
 20
389.5760930809
 30
0.0
 40
1.0
100
AcDbArc
 50
0.0
 51
90.0
  0
LINE
  5
4A2
330
1B
100
AcDbEntity
 67
     1
  8
7_ALL_FEATURES
  6
Continuous
 62
     7
100
AcDbLine
 10
1091.8282775649
 20
390.5760930809
 30
0.0
 11
1131.8282775649
 21
390.5760930809
 31
0.0
  0
ARC
  5
4A3
330
1B
100
AcDbEntity
 67
     1
  8
7_ALL_FEATURES
  6
Continuous
 62
     7
100
AcDbCircle
 10
1091.8282775649
 20
389.5760930809
 30
0.0
 40
1.0
100
AcDbArc
 50
90.0
 51
180.0
  0
LINE
  5
4A4
330
1B
100
AcDbEntity
 67
     1
  8
7_ALL_FEATURES
  6
Continuous
 62
     7
100
AcDbLine
 10
1090.8282775649
 20
382.5760930809
 30
0.0
 11
1090.8282775649
 21
389.5760930809
 31
0.0
  0
ARC
  5
4A5
330
1B
100
AcDbEntity
 67
     1
  8
7_ALL_FEATURES
  6
Continuous
 62
     7
100
AcDbCircle
 10
1091.8282775649
 20
382.5760930809
 30
0.0
 40
1.0
100
AcDbArc
 50
180.0
 51
233.1301023542
  0
ARC
  5
4A6
330
1B
100
AcDbEntity
 67
     1
  8
02___PRT_ALL_AXES
  6
Continuous
 62
     7
100
AcDbCircle
 10
1111.8282775649
 20
330.2445478622
 30
0.0
 40
9.5
100
AcDbArc
 50
182.0
 51
358.0
  0
LINE
  5
4A7
330
1B
100
AcDbEntity
 67
     1
  8
02___PRT_ALL_AXES
  6
Continuous
 62
     7
100
AcDbLine
 10
1121.8221858351
 20
329.8955528952
 30
0.0
 11
1121.3224904216
 21
329.9130026435
 31
0.0
  0
ARC
  5
4A8
330
1B
100
AcDbEntity
 67
     1
  8
02___PRT_ALL_AXES
  6
Continuous
 62
     7
100
AcDbCircle
 10
1111.8282775649
 20
330.2445478622
 30
0.0
 40
10.0
100
AcDbArc
 50
182.0
 51
358.0
  0
LINE
  5
4A9
330
1B
100
AcDbEntity
 67
     1
  8
02___PRT_ALL_AXES
  6
Continuous
 62
     7
100
AcDbLine
 10
1102.3340647083
 20
329.9130026435
 30
0.0
 11
1101.8343692948
 21
329.8955528952
 31
0.0
  0
LINE
  5
4AA
330
1B
100
AcDbEntity
 67
     1
  8
02___PRT_ALL_AXES
  6
Continuous
 62
     7
100
AcDbLine
 10
1101.8343692948
 20
330.5935428292
 30
0.0
 11
1102.3340647083
 21
330.5760930809
 31
0.0
  0
ARC
  5
4AB
330
1B
100
AcDbEntity
 67
     1
  8
02___PRT_ALL_AXES
  6
Continuous
 62
     7
100
AcDbCircle
 10
1111.8282775649
 20
330.2445478622
 30
0.0
 40
10.0
100
AcDbArc
 50
2.0
 51
178.0
  0
LINE
  5
4AC
330
1B
100
AcDbEntity
 67
     1
  8
02___PRT_ALL_AXES
  6
Continuous
 62
     7
100
AcDbLine
 10
1121.3224904216
 20
330.5760930809
 30
0.0
 11
1121.8221858351
 21
330.5935428292
 31
0.0
  0
ARC
  5
4AD
330
1B
100
AcDbEntity
 67
     1
  8
02___PRT_ALL_AXES
  6
Continuous
 62
     7
100
AcDbCircle
 10
1111.8282775649
 20
330.2445478622
 30
0.0
 40
9.5
100
AcDbArc
 50
2.0
 51
178.0
  0
LINE
  5
4AE
330
1B
100
AcDbEntity
 67
     1
  8
7_ALL_FEATURES
  6
Continuous
 62
     7
100
AcDbLine
 10
1131.8282775649
 20
390.5760930809
 30
0.0
 11
1132.0151846261
 21
390.5760930809
 31
0.0
  0
ARC
  5
4AF
330
1B
100
AcDbEntity
 67
     1
  8
7_ALL_FEATURES
  6
Continuous
 62
     7
100
AcDbCircle
 10
1132.0151846261
 20
390.2760930809
 30
0.0
 40
0.3
100
AcDbArc
 50
47.4569133033
 51
90.0
  0
LINE
  5
4B0
330
1B
100
AcDbEntity
 67
     1
  8
7_ALL_FEATURES
  6
Continuous
 62
     7
100
AcDbLine
 10
1132.8282775649
 20
386.3984283189
 30
0.0
 11
1132.9641140253
 21
385.3666479669
 31
0.0
  0
ARC
  5
4B1
330
1B
100
AcDbEntity
 67
     1
  8
7_ALL_FEATURES
  6
Continuous
 62
     7
100
AcDbCircle
 10
1125.5282775649
 20
384.3877015252
 30
0.0
 40
7.5
100
AcDbArc
 50
0.0
 51
7.5
  0
LINE
  5
4B2
330
1B
100
AcDbEntity
 67
     1
  8
7_ALL_FEATURES
  6
Continuous
 62
     7
100
AcDbLine
 10
1133.0282775649
 20
384.3877015252
 30
0.0
 11
1133.0282775649
 21
354.7760930809
 31
0.0
  0
ARC
  5
4B3
330
1B
100
AcDbEntity
 67
     1
  8
7_ALL_FEATURES
  6
Continuous
 62
     7
100
AcDbCircle
 10
1132.8282775649
 20
354.7760930809
 30
0.0
 40
0.2
100
AcDbArc
 50
270.0
 51
360.0
  0
ARC
  5
4B4
330
1B
100
AcDbEntity
 67
     1
  8
7_ALL_FEATURES
  6
Continuous
 62
     7
100
AcDbCircle
 10
1132.8282775649
 20
349.8760930809
 30
0.0
 40
0.2
100
AcDbArc
 50
0.0
 51
90.0
  0
LINE
  5
4B5
330
1B
100
AcDbEntity
 67
     1
  8
7_ALL_FEATURES
  6
Continuous
 62
     7
100
AcDbLine
 10
1133.0282775649
 20
349.8760930809
 30
0.0
 11
1133.0282775649
 21
336.8760930809
 31
0.0
  0
ARC
  5
4B6
330
1B
100
AcDbEntity
 67
     1
  8
7_ALL_FEATURES
  6
Continuous
 62
     7
100
AcDbCircle
 10
1132.7282775649
 20
336.8760930809
 30
0.0
 40
0.3
100
AcDbArc
 50
289.4863266337
 51
360.0
  0
ARC
  5
4B7
330
1B
100
AcDbEntity
 67
     1
  8
7_ALL_FEATURES
  6
Continuous
 62
     7
100
AcDbCircle
 10
1132.7282775649
 20
331.7760930809
 30
0.0
 40
0.3
100
AcDbArc
 50
0.0
 51
70.5136733663
  0
LINE
  5
4B8
330
1B
100
AcDbEntity
 67
     1
  8
7_ALL_FEATURES
  6
Continuous
 62
     7
100
AcDbLine
 10
1133.0282775649
 20
331.7760930809
 30
0.0
 11
1133.0282775649
 21
308.0760930809
 31
0.0
  0
ARC
  5
4B9
330
1B
100
AcDbEntity
 67
     1
  8
7_ALL_FEATURES
  6
Continuous
 62
     7
100
AcDbCircle
 10
1132.0282775649
 20
308.0760930809
 30
0.0
 40
1.0
100
AcDbArc
 50
270.0
 51
360.0
  0
LINE
  5
4BA
330
1B
100
AcDbEntity
 67
     1
  8
7_ALL_FEATURES
  6
Continuous
 62
     7
100
AcDbLine
 10
1132.0282775649
 20
307.0760930809
 30
0.0
 11
1131.8282775649
 21
307.0760930809
 31
0.0
  0
LINE
  5
4BB
330
1B
100
AcDbEntity
 67
     1
  8
7_ALL_FEATURES
  6
Continuous
 62
     7
100
AcDbLine
 10
1091.8282775649
 20
307.0760930809
 30
0.0
 11
1091.6282775649
 21
307.0760930809
 31
0.0
  0
ARC
  5
4BC
330
1B
100
AcDbEntity
 67
     1
  8
7_ALL_FEATURES
  6
Continuous
 62
     7
100
AcDbCircle
 10
1091.6282775649
 20
308.0760930809
 30
0.0
 40
1.0
100
AcDbArc
 50
180.0
 51
270.0
  0
LINE
  5
4BD
330
1B
100
AcDbEntity
 67
     1
  8
7_ALL_FEATURES
  6
Continuous
 62
     7
100
AcDbLine
 10
1090.6282775649
 20
308.0760930809
 30
0.0
 11
1090.6282775649
 21
331.7760930809
 31
0.0
  0
ARC
  5
4BE
330
1B
100
AcDbEntity
 67
     1
  8
7_ALL_FEATURES
  6
Continuous
 62
     7
100
AcDbCircle
 10
1090.9282775649
 20
331.7760930809
 30
0.0
 40
0.3
100
AcDbArc
 50
109.4863266336
 51
180.0
  0
ARC
  5
4BF
330
1B
100
AcDbEntity
 67
     1
  8
7_ALL_FEATURES
  6
Continuous
 62
     7
100
AcDbCircle
 10
1090.9282775649
 20
336.8760930809
 30
0.0
 40
0.3
100
AcDbArc
 50
180.0
 51
250.5136733664
  0
LINE
  5
4C0
330
1B
100
AcDbEntity
 67
     1
  8
7_ALL_FEATURES
  6
Continuous
 62
     7
100
AcDbLine
 10
1090.6282775649
 20
336.8760930809
 30
0.0
 11
1090.6282775649
 21
349.8760930809
 31
0.0
  0
ARC
  5
4C1
330
1B
100
AcDbEntity
 67
     1
  8
7_ALL_FEATURES
  6
Continuous
 62
     7
100
AcDbCircle
 10
1090.8282775649
 20
349.8760930809
 30
0.0
 40
0.2
100
AcDbArc
 50
90.0
 51
180.0
  0
ARC
  5
4C2
330
1B
100
AcDbEntity
 67
     1
  8
7_ALL_FEATURES
  6
Continuous
 62
     7
100
AcDbCircle
 10
1090.8282775649
 20
354.7760930809
 30
0.0
 40
0.2
100
AcDbArc
 50
180.0
 51
270.0
  0
LINE
  5
4C3
330
1B
100
AcDbEntity
 67
     1
  8
7_ALL_FEATURES
  6
Continuous
 62
     7
100
AcDbLine
 10
1090.6282775649
 20
354.7760930809
 30
0.0
 11
1090.6282775649
 21
384.3877015252
 31
0.0
  0
ARC
  5
4C4
330
1B
100
AcDbEntity
 67
     1
  8
7_ALL_FEATURES
  6
Continuous
 62
     7
100
AcDbCircle
 10
1098.1282775649
 20
384.3877015252
 30
0.0
 40
7.5
100
AcDbArc
 50
172.5
 51
180.0
  0
LINE
  5
4C5
330
1B
100
AcDbEntity
 67
     1
  8
7_ALL_FEATURES
  6
Continuous
 62
     7
100
AcDbLine
 10
1090.6924411046
 20
385.3666479669
 30
0.0
 11
1090.8282775649
 21
386.3984283189
 31
0.0
  0
ARC
  5
4C6
330
1B
100
AcDbEntity
 67
     1
  8
7_ALL_FEATURES
  6
Continuous
 62
     7
100
AcDbCircle
 10
1091.6413705038
 20
390.2760930809
 30
0.0
 40
0.3
100
AcDbArc
 50
90.0
 51
132.5430866967
  0
LINE
  5
4C7
330
1B
100
AcDbEntity
 67
     1
  8
7_ALL_FEATURES
  6
Continuous
 62
     7
100
AcDbLine
 10
1091.6413705038
 20
390.5760930809
 30
0.0
 11
1091.8282775649
 21
390.5760930809
 31
0.0
  0
ARC
  5
4C8
330
1B
100
AcDbEntity
 67
     1
  8
7_ALL_FEATURES
  6
Continuous
 62
     7
100
AcDbCircle
 10
1132.7782775649
 20
307.6760930809
 30
0.0
 40
0.6
100
AcDbArc
 50
270.0
 51
360.0
  0
LINE
  5
4C9
330
1B
100
AcDbEntity
 67
     1
  8
7_ALL_FEATURES
  6
Continuous
 62
     7
100
AcDbLine
 10
1090.2782775649
 20
307.6760930809
 30
0.0
 11
1090.2782775649
 21
375.8760930809
 31
0.0
  0
LINE
  5
4CA
330
1B
100
AcDbEntity
 67
     1
  8
7_ALL_FEATURES
  6
Continuous
 62
     7
100
AcDbLine
 10
1135.3782775649
 20
377.0760930809
 30
0.0
 11
1158.3782775649
 21
377.0760930809
 31
0.0
  0
LINE
  5
4CB
330
1B
100
AcDbEntity
 67
     1
  8
7_ALL_FEATURES
  6
Continuous
 62
     7
100
AcDbLine
 10
1134.5782775649
 20
377.0760930809
 30
0.0
 11
1135.3782775649
 21
377.0760930809
 31
0.0
  0
ARC
  5
4CC
330
1B
100
AcDbEntity
 67
     1
  8
7_ALL_FEATURES
  6
Continuous
 62
     7
100
AcDbCircle
 10
1134.5782775649
 20
375.8760930809
 30
0.0
 40
1.2
100
AcDbArc
 50
90.0
 51
180.0
  0
LINE
  5
4CD
330
1B
100
AcDbEntity
 67
     1
  8
7_ALL_FEATURES
  6
Continuous
 62
     7
100
AcDbLine
 10
1133.3782775649
 20
375.8760930809
 30
0.0
 11
1133.3782775649
 21
307.6760930809
 31
0.0
  0
LINE
  5
4CE
330
1B
100
AcDbEntity
 67
     1
  8
7_ALL_FEATURES
  6
Continuous
 62
     7
100
AcDbLine
 10
1158.3782775649
 20
376.4760930809
 30
0.0
 11
1158.3782775649
 21
377.0760930809
 31
0.0
  0
LINE
  5
4CF
330
1B
100
AcDbEntity
 67
     1
  8
7_ALL_FEATURES
  6
Continuous
 62
     7
100
AcDbLine
 10
1065.2782775649
 20
376.4760930809
 30
0.0
 11
1065.2782775649
 21
377.0760930809
 31
0.0
  0
ARC
  5
4D0
330
1B
100
AcDbEntity
 67
     1
  8
7_ALL_FEATURES
  6
Continuous
 62
     7
100
AcDbCircle
 10
1089.0782775649
 20
375.8760930809
 30
0.0
 40
1.2
100
AcDbArc
 50
0.0
 51
90.0
  0
LINE
  5
4D1
330
1B
100
AcDbEntity
 67
     1
  8
7_ALL_FEATURES
  6
Continuous
 62
     7
100
AcDbLine
 10
1065.2782775649
 20
377.0760930809
 30
0.0
 11
1088.2782775649
 21
377.0760930809
 31
0.0
  0
LINE
  5
4D2
330
1B
100
AcDbEntity
 67
     1
  8
7_ALL_FEATURES
  6
Continuous
 62
     7
100
AcDbLine
 10
1088.2782775649
 20
377.0760930809
 30
0.0
 11
1089.0782775649
 21
377.0760930809
 31
0.0
  0
LINE
  5
4D3
330
1B
100
AcDbEntity
 67
     1
  8
7_ALL_FEATURES
  6
Continuous
 62
     7
100
AcDbLine
 10
1090.8782775649
 20
307.0760930809
 30
0.0
 11
1091.6282775649
 21
307.0760930809
 31
0.0
  0
LINE
  5
4D4
330
1B
100
AcDbEntity
 67
     1
  8
7_ALL_FEATURES
  6
Continuous
 62
     7
100
AcDbLine
 10
1132.0282775649
 20
307.0760930809
 30
0.0
 11
1132.7782775649
 21
307.0760930809
 31
0.0
  0
ARC
  5
4D5
330
1B
100
AcDbEntity
 67
     1
  8
7_ALL_FEATURES
  6
Continuous
 62
     7
100
AcDbCircle
 10
1090.8782775649
 20
307.6760930809
 30
0.0
 40
0.6
100
AcDbArc
 50
180.0
 51
270.0
  0
LINE
  5
4D6
330
1B
100
AcDbEntity
 67
     1
  8
7_ALL_FEATURES
  6
Continuous
 62
     9
100
AcDbLine
 10
1134.5782775649
 20
377.0760930809
 30
0.0
 11
1134.5782775649
 21
376.4760930809
 31
0.0
  0
LINE
  5
4D7
330
1B
100
AcDbEntity
 67
     1
  8
7_ALL_FEATURES
  6
Continuous
 62
     9
100
AcDbLine
 10
1090.8782775649
 20
306.4760930809
 30
0.0
 11
1090.8782775649
 21
307.0760930809
 31
0.0
  0
LINE
  5
4D8
330
1B
100
AcDbEntity
 67
     1
  8
7_ALL_FEATURES
  6
Continuous
 62
     7
100
AcDbLine
 10
1135.3782775649
 20
376.4760930809
 30
0.0
 11
1135.3782775649
 21
377.0760930809
 31
0.0
  0
LINE
  5
4D9
330
1B
100
AcDbEntity
 67
     1
  8
7_ALL_FEATURES
  6
Continuous
 62
     9
100
AcDbLine
 10
1089.6782775649
 20
307.6760930809
 30
0.0
 11
1090.2782775649
 21
307.6760930809
 31
0.0
  0
LINE
  5
4DA
330
1B
100
AcDbEntity
 67
     1
  8
7_ALL_FEATURES
  6
Continuous
 62
     9
100
AcDbLine
 10
1090.2782775649
 20
375.8760930809
 30
0.0
 11
1089.6782775649
 21
375.8760930809
 31
0.0
  0
LINE
  5
4DB
330
1B
100
AcDbEntity
 67
     1
  8
7_ALL_FEATURES
  6
Continuous
 62
     9
100
AcDbLine
 10
1133.3782775649
 20
375.8760930809
 30
0.0
 11
1133.9782775649
 21
375.8760930809
 31
0.0
  0
LINE
  5
4DC
330
1B
100
AcDbEntity
 67
     1
  8
7_ALL_FEATURES
  6
Continuous
 62
     9
100
AcDbLine
 10
1089.0782775649
 20
377.0760930809
 30
0.0
 11
1089.0782775649
 21
376.4760930809
 31
0.0
  0
LINE
  5
4DD
330
1B
100
AcDbEntity
 67
     1
  8
7_ALL_FEATURES
  6
Continuous
 62
     7
100
AcDbLine
 10
1088.2782775649
 20
376.4760930809
 30
0.0
 11
1088.2782775649
 21
377.0760930809
 31
0.0
  0
LINE
  5
4DE
330
1B
100
AcDbEntity
 67
     1
  8
7_ALL_FEATURES
  6
Continuous
 62
     9
100
AcDbLine
 10
1133.9782775649
 20
307.6760930809
 30
0.0
 11
1133.3782775649
 21
307.6760930809
 31
0.0
  0
LINE
  5
4DF
330
1B
100
AcDbEntity
 67
     1
  8
7_ALL_FEATURES
  6
Continuous
 62
     9
100
AcDbLine
 10
1132.7782775649
 20
306.4760930809
 30
0.0
 11
1132.7782775649
 21
307.0760930809
 31
0.0
  0
LINE
  5
4E0
330
1B
100
AcDbEntity
 67
     1
  8
7_ALL_FEATURES
  6
Continuous
 62
     3
100
AcDbLine
 10
1133.9782775649
 20
375.8760930809
 30
0.0
 11
1133.9782775649
 21
307.6760930809
 31
0.0
  0
ARC
  5
4E1
330
1B
100
AcDbEntity
 67
     1
  8
7_ALL_FEATURES
  6
Continuous
 62
     3
100
AcDbCircle
 10
1132.7782775649
 20
307.6760930809
 30
0.0
 40
1.2
100
AcDbArc
 50
270.0
 51
360.0
  0
ARC
  5
4E2
330
1B
100
AcDbEntity
 67
     1
  8
7_ALL_FEATURES
  6
Continuous
 62
     3
100
AcDbCircle
 10
1089.0782775649
 20
375.8760930809
 30
0.0
 40
0.6
100
AcDbArc
 50
0.0
 51
90.0
  0
LINE
  5
4E3
330
1B
100
AcDbEntity
 67
     1
  8
7_ALL_FEATURES
  6
Continuous
 62
     3
100
AcDbLine
 10
1088.2782775649
 20
376.4760930809
 30
0.0
 11
1089.0782775649
 21
376.4760930809
 31
0.0
  0
LINE
  5
4E4
330
1B
100
AcDbEntity
 67
     1
  8
7_ALL_FEATURES
  6
Continuous
 62
     3
100
AcDbLine
 10
1088.2782775649
 20
376.4760930809
 30
0.0
 11
1065.2782775649
 21
376.4760930809
 31
0.0
  0
LINE
  5
4E5
330
1B
100
AcDbEntity
 67
     1
  8
7_ALL_FEATURES
  6
Continuous
 62
     3
100
AcDbLine
 10
1134.5782775649
 20
376.4760930809
 30
0.0
 11
1135.3782775649
 21
376.4760930809
 31
0.0
  0
LINE
  5
4E6
330
1B
100
AcDbEntity
 67
     1
  8
7_ALL_FEATURES
  6
Continuous
 62
     3
100
AcDbLine
 10
1158.3782775649
 20
376.4760930809
 30
0.0
 11
1135.3782775649
 21
376.4760930809
 31
0.0
  0
ARC
  5
4E7
330
1B
100
AcDbEntity
 67
     1
  8
7_ALL_FEATURES
  6
Continuous
 62
     3
100
AcDbCircle
 10
1134.5782775649
 20
375.8760930809
 30
0.0
 40
0.6
100
AcDbArc
 50
90.0
 51
180.0
  0
LINE
  5
4E8
330
1B
100
AcDbEntity
 67
     1
  8
7_ALL_FEATURES
  6
Continuous
 62
     3
100
AcDbLine
 10
1090.8782775649
 20
306.4760930809
 30
0.0
 11
1132.7782775649
 21
306.4760930809
 31
0.0
  0
LINE
  5
4E9
330
1B
100
AcDbEntity
 67
     1
  8
7_ALL_FEATURES
  6
Continuous
 62
     3
100
AcDbLine
 10
1089.6782775649
 20
307.6760930809
 30
0.0
 11
1089.6782775649
 21
375.8760930809
 31
0.0
  0
ARC
  5
4EA
330
1B
100
AcDbEntity
 67
     1
  8
7_ALL_FEATURES
  6
Continuous
 62
     3
100
AcDbCircle
 10
1090.8782775649
 20
307.6760930809
 30
0.0
 40
1.2
100
AcDbArc
 50
180.0
 51
270.0
  0
DIMENSION
  5
4EB
330
1B
100
AcDbEntity
 67
     1
  8
0
  6
Continuous
 62
     2
100
AcDbDimension
280
     0
  2
*D1
 10
23.9737103694
 20
406.584187984
 30
0.0
 11
530.5451493988
 21
406.584187984
 31
0.0
 70
   160
 71
     5
 42
-1.0
 73
     0
 74
     0
 75
     0
  3
DIMSTYLE_1
100
AcDbAlignedDimension
 13
1037.9737103694
 23
408.2239321089
 33
0.0
 14
23.9737103694
 24
408.841600194
 34
0.0
 50
180.0
100
AcDbRotatedDimension
  0
DIMENSION
  5
4EC
330
1B
100
AcDbEntity
 67
     1
  8
0
  6
Continuous
 62
     2
100
AcDbDimension
280
     0
  2
*D2
 10
1056.3650905651
 20
220.7961153427
 30
0.0
 11
1056.3650905651
 21
199.1675368277
 31
0.0
 70
   160
 71
     5
 42
-1.0
 73
     0
 74
     0
 75
     0
  3
DIMSTYLE_2
100
AcDbAlignedDimension
 13
1047.5139421522
 23
178.3961153427
 33
0.0
 14
1047.5139421522
 24
220.7961153427
 34
0.0
 50
90.0
100
AcDbRotatedDimension
  0
DIMENSION
  5
4ED
330
1B
100
AcDbEntity
 67
     1
  8
0
  6
Continuous
 62
     2
100
AcDbDimension
280
     0
  2
*D3
 10
1167.9267642051
 20
307.0760930809
 30
0.0
 11
1167.9267642051
 21
345.7410872212
 31
0.0
 70
   160
 71
     5
 42
-1.0
 73
     0
 74
     0
 75
     0
  3
DIMSTYLE_2
100
AcDbAlignedDimension
 13
1164.860048698
 23
390.5760930809
 33
0.0
 14
1164.7335502741
 24
307.0760930809
 34
0.0
 50
270.0
100
AcDbRotatedDimension
  0
DIMENSION
  5
4EE
330
1B
100
AcDbEntity
 67
     1
  8
0
  6
Continuous
 62
     2
100
AcDbDimension
280
     0
  2
*D4
 10
1066.1534112062
 20
246.1461153427
 30
0.0
 11
1066.1534112062
 21
199.1675396075
 31
0.0
 70
   160
 71
     5
 42
-1.0
 73
     0
 74
     0
 75
     0
  3
DIMSTYLE_3
100
AcDbAlignedDimension
 13
1047.5139421522
 23
153.0461153427
 33
0.0
 14
1046.3012563154
 24
246.1461153427
 34
0.0
 50
90.0
100
AcDbRotatedDimension
  0
LINE
  5
4EF
330
1B
100
AcDbEntity
 67
     1
  8
0
  6
Continuous
 62
     2
100
AcDbLine
 10
1050.1799995846
 20
72.3183341147
 30
0.0
 11
1180.1799995846
 21
72.3183341147
 31
0.0
  0
LINE
  5
4F0
330
1B
100
AcDbEntity
 67
     1
  8
0
  6
Continuous
 62
     2
100
AcDbLine
 10
1050.1799995846
 20
72.3183341147
 30
0.0
 11
1050.1799995846
 21
6.3183341147
 31
0.0
  0
LINE
  5
4F1
330
1B
100
AcDbEntity
 67
     1
  8
0
  6
Continuous
 62
     2
100
AcDbLine
 10
1080.1799995846
 20
64.3183341147
 30
0.0
 11
1180.1799995846
 21
64.3183341147
 31
0.0
  0
LINE
  5
4F2
330
1B
100
AcDbEntity
 67
     1
  8
0
  6
Continuous
 62
     2
100
AcDbLine
 10
1050.1799995846
 20
56.3183341147
 30
0.0
 11
1180.1799995846
 21
56.3183341147
 31
0.0
  0
LINE
  5
4F3
330
1B
100
AcDbEntity
 67
     1
  8
0
  6
Continuous
 62
     2
100
AcDbLine
 10
1080.1799995846
 20
50.3183341147
 30
0.0
 11
1180.1799995846
 21
50.3183341147
 31
0.0
  0
LINE
  5
4F4
330
1B
100
AcDbEntity
 67
     1
  8
0
  6
Continuous
 62
     2
100
AcDbLine
 10
1080.1799995846
 20
44.3183341147
 30
0.0
 11
1180.1799995846
 21
44.3183341147
 31
0.0
  0
LINE
  5
4F5
330
1B
100
AcDbEntity
 67
     1
  8
0
  6
Continuous
 62
     2
100
AcDbLine
 10
1080.1799995846
 20
38.3183341147
 30
0.0
 11
1180.1799995846
 21
38.3183341147
 31
0.0
  0
LINE
  5
4F6
330
1B
100
AcDbEntity
 67
     1
  8
0
  6
Continuous
 62
     2
100
AcDbLine
 10
1080.1799995846
 20
32.3183341147
 30
0.0
 11
1180.1799995846
 21
32.3183341147
 31
0.0
  0
LINE
  5
4F7
330
1B
100
AcDbEntity
 67
     1
  8
0
  6
Continuous
 62
     2
100
AcDbLine
 10
1080.1799995846
 20
26.3183341147
 30
0.0
 11
1180.1799995846
 21
26.3183341147
 31
0.0
  0
LINE
  5
4F8
330
1B
100
AcDbEntity
 67
     1
  8
0
  6
Continuous
 62
     2
100
AcDbLine
 10
1050.1799995846
 20
20.3183341147
 30
0.0
 11
1180.1799995846
 21
20.3183341147
 31
0.0
  0
LINE
  5
4F9
330
1B
100
AcDbEntity
 67
     1
  8
0
  6
Continuous
 62
     2
100
AcDbLine
 10
1050.1799995846
 20
14.3183341147
 30
0.0
 11
1180.1799995846
 21
14.3183341147
 31
0.0
  0
LINE
  5
4FA
330
1B
100
AcDbEntity
 67
     1
  8
0
  6
Continuous
 62
     2
100
AcDbLine
 10
1050.1799995846
 20
10.3183341147
 30
0.0
 11
1180.1799995846
 21
10.3183341147
 31
0.0
  0
LINE
  5
4FB
330
1B
100
AcDbEntity
 67
     1
  8
0
  6
Continuous
 62
     2
100
AcDbLine
 10
1050.1799995846
 20
6.3183341147
 30
0.0
 11
1180.1799995846
 21
6.3183341147
 31
0.0
  0
LINE
  5
4FC
330
1B
100
AcDbEntity
 67
     1
  8
0
  6
Continuous
 62
     2
100
AcDbLine
 10
1080.1799995846
 20
72.3183341147
 30
0.0
 11
1080.1799995846
 21
14.3183341147
 31
0.0
  0
LINE
  5
4FD
330
1B
100
AcDbEntity
 67
     1
  8
0
  6
Continuous
 62
     2
100
AcDbLine
 10
1100.1799995846
 20
56.3183341147
 30
0.0
 11
1100.1799995846
 21
50.3183341147
 31
0.0
  0
LINE
  5
4FE
330
1B
100
AcDbEntity
 67
     1
  8
0
  6
Continuous
 62
     2
100
AcDbLine
 10
1130.1799995846
 20
26.3183341147
 30
0.0
 11
1130.1799995846
 21
14.3183341147
 31
0.0
  0
LINE
  5
4FF
330
1B
100
AcDbEntity
 67
     1
  8
0
  6
Continuous
 62
     2
100
AcDbLine
 10
1140.1799995846
 20
56.3183341147
 30
0.0
 11
1140.1799995846
 21
50.3183341147
 31
0.0
  0
LINE
  5
500
330
1B
100
AcDbEntity
 67
     1
  8
0
  6
Continuous
 62
     2
100
AcDbLine
 10
1140.1799995846
 20
44.3183341147
 30
0.0
 11
1140.1799995846
 21
38.3183341147
 31
0.0
  0
LINE
  5
501
330
1B
100
AcDbEntity
 67
     1
  8
0
  6
Continuous
 62
     2
100
AcDbLine
 10
1160.1799995846
 20
56.3183341147
 30
0.0
 11
1160.1799995846
 21
50.3183341147
 31
0.0
  0
LINE
  5
502
330
1B
100
AcDbEntity
 67
     1
  8
0
  6
Continuous
 62
     2
100
AcDbLine
 10
1170.1799995846
 20
44.3183341147
 30
0.0
 11
1170.1799995846
 21
38.3183341147
 31
0.0
  0
LINE
  5
503
330
1B
100
AcDbEntity
 67
     1
  8
0
  6
Continuous
 62
     2
100
AcDbLine
 10
1180.1799995846
 20
72.3183341147
 30
0.0
 11
1180.1799995846
 21
6.3183341147
 31
0.0
  0
INSERT
  5
504
330
1B
100
AcDbEntity
 67
     1
  8
0
  6
Continuous
 62
     2
100
AcDbBlockReference
  2
PROIEZIONE_EU_BL0
 10
1065.1799995846
 20
63.9433341147
 30
0.0
  0
MTEXT
  5
505
330
1B
100
AcDbEntity
 67
     1
  8
9_SOLID
  6
Continuous
 62
     2
100
AcDbMText
 10
1081.6674995846
 20
70.6933341147
 30
0.0
 40
1.9
 41
142.3642857143
 46
0.0
 71
     1
 72
     1
  1
EN: Chamfer/radii unlisted 0.3x45°. Remove sharp edges.\PGen. tol.: hole H11, shaft h11, lenght Js12. UNI EN 22768 Medium Grande.
 73
     1
 44
1.0
  0
MTEXT
  5
506
330
1B
100
AcDbEntity
 67
     1
  8
9_SOLID
  6
Continuous
 62
     2
100
AcDbMText
 10
1081.6674995846
 20
62.6933341147
 30
0.0
 40
1.9
 41
148.2678571429
 46
0.0
 71
     1
 72
     1
  1
IT: Sm./rac. non quotati 0.3x45°. Eliminare spigoli taglienti.\PToll. gen.: foro H11, albero h11, lunghezza Js12. UNI EN 22768 Grado Medio.
 73
     1
 44
1.0
  0
INSERT
  5
507
330
1B
100
AcDbEntity
 67
     1
  8
0
  6
Continuous
 62
     2
100
AcDbBlockReference
  2
LOGO2_BL1
 10
1064.0060466293
 20
38.3183341147
 30
0.0
  0
MTEXT
  5
508
330
1B
100
AcDbEntity
 67
     1
  8
9_SOLID
  6
Continuous
 62
     2
100
AcDbMText
 10
1081.6674995846
 20
54.5683341147
 30
0.0
 40
3.0
 41
21.1071428571
 46
0.0
 71
     1
 72
     1
  1
Pj: 571
 73
     1
 44
1.0
  0
MTEXT
  5
509
330
1B
100
AcDbEntity
 67
     1
  8
0
  6
Continuous
 62
     2
100
AcDbMText
 10
1101.6674995846
 20
54.5683341147
 30
0.0
 40
3.0
 41
41.5714285714
 46
0.0
 71
     1
 72
     1
  1
% Check:  %
 73
     1
 44
1.0
  0
MTEXT
  5
50A
330
1B
100
AcDbEntity
 67
     1
  8
9_SOLID
  6
Continuous
 62
     2
100
AcDbMText
 10
1141.6674995846
 20
54.5683341147
 30
0.0
 40
3.0
 41
19.5
 46
0.0
 71
     1
 72
     1
  1
Rev:00
 73
     1
 44
1.0
  0
MTEXT
  5
50B
330
1B
100
AcDbEntity
 67
     1
  8
9_SOLID
  6
Continuous
 62
     2
100
AcDbMText
 10
1161.6674995846
 20
54.8183341147
 30
0.0
 40
3.0
 41
19.7142857143
 46
0.0
 71
     1
 72
     1
  1
Ver: A
 73
     1
 44
1.0
  0
MTEXT
  5
50C
330
1B
100
AcDbEntity
 67
     1
  8
9_SOLID
  6
Continuous
 62
     2
100
AcDbMText
 10
1081.6674995846
 20
48.5683341147
 30
0.0
 40
3.0
 41
72.4285714286
 46
0.0
 71
     1
 72
     1
  1
Neutral code: 571_C_361
 73
     1
 44
1.0
  0
MTEXT
  5
50D
330
1B
100
AcDbEntity
 67
     1
  8
0
  6
Continuous
 62
     2
100
AcDbMText
 10
1081.6674995846
 20
42.5683341147
 30
0.0
 40
3.0
 41
22.9285714286
 46
0.0
 71
     1
 72
     1
  1
Code:  
 73
     1
 44
1.0
  0
MTEXT
  5
50E
330
1B
100
AcDbEntity
 67
     1
  8
9_SOLID
  6
Continuous
 62
     2
100
AcDbMText
 10
1141.6674995846
 20
42.8183341147
 30
0.0
 40
3.0
 41
27.8571428571
 46
0.0
 71
     1
 72
     1
  1
Scale: 1:1
 73
     1
 44
1.0
  0
MTEXT
  5
50F
330
1B
100
AcDbEntity
 67
     1
  8
9_SOLID
  6
Continuous
 62
     2
100
AcDbMText
 10
1175.1799995846
 20
42.8183341147
 30
0.0
 40
3.0
 41
8.25
 46
0.0
 71
     2
 72
     1
  1
A0
 73
     1
 44
1.0
  0
MTEXT
  5
510
330
1B
100
AcDbEntity
 67
     1
  8
9_SOLID
  6
Continuous
 62
     2
100
AcDbMText
 10
1081.6674995846
 20
36.4183341147
 30
0.0
 40
2.2
 41
123.5142857143
 46
0.0
 71
     1
 72
     1
  1
It descr.: CASSAFORMA RIO2.2 mm.1014 ALL PER CARTO
 73
     1
 44
1.0
  0
MTEXT
  5
511
330
1B
100
AcDbEntity
 67
     1
  8
0
  6
Continuous
 62
     2
100
AcDbMText
 10
1081.6674995846
 20
30.8183341147
 30
0.0
 40
3.0
 41
37.5
 46
0.0
 71
     1
 72
     1
  1
En descr.:  
 73
     1
 44
1.0
  0
MTEXT
  5
512
330
1B
100
AcDbEntity
 67
     1
  8
9_SOLID
  6
Continuous
 62
     2
100
AcDbMText
 10
1081.6674995846
 20
24.8183341147
 30
0.0
 40
3.0
 41
31.2857142857
 46
0.0
 71
     1
 72
     1
  1
Des.: A.F.
 73
     1
 44
1.0
  0
MTEXT
  5
513
330
1B
100
AcDbEntity
 67
     1
  8
9_SOLID
  6
Continuous
 62
     2
100
AcDbMText
 10
1131.6674995846
 20
24.8183341147
 30
0.0
 40
3.0
 41
22.2857142857
 46
0.0
 71
     1
 72
     1
  1
Check: 
 73
     1
 44
1.0
  0
MTEXT
  5
514
330
1B
100
AcDbEntity
 67
     1
  8
9_SOLID
  6
Continuous
 62
     2
100
AcDbMText
 10
1051.6674995846
 20
18.8183341147
 30
0.0
 40
3.0
 41
42.5357142857
 46
0.0
 71
     1
 72
     1
  1
Date: 12.12.18
 73
     1
 44
1.0
  0
MTEXT
  5
515
330
1B
100
AcDbEntity
 67
     1
  8
0
  6
Continuous
 62
     2
100
AcDbMText
 10
1081.6674995846
 20
18.8183341147
 30
0.0
 40
3.0
 41
21.75
 46
0.0
 71
     1
 72
     1
  1
Mat.:  
 73
     1
 44
1.0
  0
MTEXT
  5
516
330
1B
100
AcDbEntity
 67
     1
  8
9_SOLID
  6
Continuous
 62
     2
100
AcDbMText
 10
1131.6674995846
 20
18.3183341147
 30
0.0
 40
2.0
 41
42.3571428571
 46
0.0
 71
     1
 72
     1
  1
Disegno per catalogo
 73
     1
 44
1.0
  0
MTEXT
  5
517
330
1B
100
AcDbEntity
 67
     1
  8
9_SOLID
  6
Continuous
 62
     2
100
AcDbMText
 10
1051.6674995846
 20
13.2183341147
 30
0.0
 40
1.8
 41
176.2071428571
 46
0.0
 71
     1
 72
     1
  1
It: A norma di legge si diffida da qualsiasi riproduzione senza nostra autorizzazione esplicita.
 73
     1
 44
1.0
  0
MTEXT
  5
518
330
1B
100
AcDbEntity
 67
     1
  8
9_SOLID
  6
Continuous
 62
     2
100
AcDbMText
 10
1051.6674995846
 20
9.2183341147
 30
0.0
 40
1.8
 41
158.1428571429
 46
0.0
 71
     1
 72
     1
  1
En: According to the law, beware of any reproduction made without our authorization.
 73
     1
 44
1.0
  0
ENDSEC
  0
SECTION
  2
OBJECTS
  0
DICTIONARY
  5
519
330
0
100
AcDbDictionary
281
     1
  3
ACAD_DETAILVIEWSTYLE
350
56F
  3
ACAD_GROUP
350
51A
  3
ACAD_LAYOUT
350
542
  3
ACAD_MATERIAL
350
55E
  3
ACAD_MLEADERSTYLE
350
564
  3
ACAD_MLINESTYLE
350
51B
  3
ACAD_PLOTSETTINGS
350
51D
  3
ACAD_PLOTSTYLENAME
350
51E
  3
ACAD_SCALELIST
350
520
  3
ACAD_SECTIONVIEWSTYLE
350
570
  3
ACAD_TABLESTYLE
350
562
  3
ACAD_VISUALSTYLE
350
545
  3
ACDB_RECOMPOSE_DATA
350
56B
  3
AcDbVariableDictionary
350
567
  3
APPDATA
350
566
  0
DICTIONARY
  5
56F
102
{ACAD_REACTORS
330
519
102
}
330
519
100
AcDbDictionary
281
     1
  0
DICTIONARY
  5
51A
102
{ACAD_REACTORS
330
519
102
}
330
519
100
AcDbDictionary
281
     1
  0
DICTIONARY
  5
542
102
{ACAD_REACTORS
330
519
102
}
330
519
100
AcDbDictionary
281
     1
  3
Foglio 1
350
544
  3
Model
350
543
  0
DICTIONARY
  5
55E
102
{ACAD_REACTORS
330
519
102
}
330
519
100
AcDbDictionary
281
     1
  3
ByBlock
350
560
  3
ByLayer
350
55F
  3
Global
350
561
  0
DICTIONARY
  5
564
102
{ACAD_REACTORS
330
519
102
}
330
519
100
AcDbDictionary
281
     1
  3
Standard
350
565
  0
DICTIONARY
  5
51B
102
{ACAD_REACTORS
330
519
102
}
330
519
100
AcDbDictionary
281
     1
  3
STANDARD
350
51C
  0
DICTIONARY
  5
51D
102
{ACAD_REACTORS
330
519
102
}
330
519
100
AcDbDictionary
281
     1
  0
ACDBDICTIONARYWDFLT
  5
51E
102
{ACAD_REACTORS
330
519
102
}
330
519
100
AcDbDictionary
281
     1
  3
Normal
350
51F
100
AcDbDictionaryWithDefault
340
51F
  0
DICTIONARY
  5
520
102
{ACAD_REACTORS
330
519
102
}
330
519
100
AcDbDictionary
281
     1
  3
A0
350
521
  3
A1
350
522
  3
A2
350
523
  3
A3
350
524
  3
A4
350
525
  3
A5
350
526
  3
A6
350
527
  3
A7
350
528
  3
A8
350
529
  3
A9
350
52A
  3
B0
350
52B
  3
B1
350
52C
  3
B2
350
52D
  3
B3
350
52E
  3
B4
350
52F
  3
B5
350
530
  3
B6
350
531
  3
B7
350
532
  3
B8
350
533
  3
B9
350
534
  3
C0
350
535
  3
C1
350
536
  3
C2
350
537
  3
C3
350
538
  3
C4
350
539
  3
C5
350
53A
  3
C6
350
53B
  3
C7
350
53C
  3
C8
350
53D
  3
C9
350
53E
  3
D0
350
53F
  3
D1
350
540
  3
D2
350
541
  0
DICTIONARY
  5
570
102
{ACAD_REACTORS
330
519
102
}
330
519
100
AcDbDictionary
281
     1
  0
DICTIONARY
  5
562
102
{ACAD_REACTORS
330
519
102
}
330
519
100
AcDbDictionary
281
     1
  3
Standard
350
563
  0
DICTIONARY
  5
545
102
{ACAD_REACTORS
330
519
102
}
330
519
100
AcDbDictionary
281
     1
  3
2dWireframe
350
54A
  3
Basic
350
54D
  3
Brighten
350
551
  3
ColorChange
350
555
  3
Conceptual
350
54F
  3
Dim
350
550
  3
EdgeColorOff
350
558
  3
Facepattern
350
554
  3
Flat
350
546
  3
FlatWithEdges
350
547
  3
Gouraud
350
548
  3
GouraudWithEdges
350
549
  3
Hidden
350
54C
  3
JitterOff
350
556
  3
Linepattern
350
553
  3
OverhangOff
350
557
  3
Realistic
350
54E
  3
Shaded
350
55D
  3
Shaded with edges
350
55C
  3
Shades of Gray
350
559
  3
Sketchy
350
55A
  3
Thicken
350
552
  3
Wireframe
350
54B
  3
X-Ray
350
55B
  0
XRECORD
  5
56B
102
{ACAD_REACTORS
330
519
102
}
330
519
100
AcDbXrecord
280
     1
 90
        1
330
563
  0
DICTIONARY
  5
567
102
{ACAD_REACTORS
330
519
102
}
330
519
100
AcDbDictionary
281
     1
  3
CANNOSCALE
350
568
  3
CMLEADERSTYLE
350
56D
  3
CTABLESTYLE
350
56C
  3
MSLTSCALE
350
56E
  0
DICTIONARY
  5
566
102
{ACAD_REACTORS
330
519
102
}
330
519
100
AcDbDictionary
281
     1
  0
LAYOUT
  5
544
102
{ACAD_REACTORS
330
542
102
}
330
542
100
AcDbPlotSettings
  1

  2
none_device
  4
ISO_A3_(420.00_x_297.00_MM)
  6

 40
7.5
 41
20.0
 42
7.5
 43
20.0
 44
420.0
 45
297.0
 46
0.0
 47
0.0
 48
0.0
 49
0.0
140
0.0
141
0.0
142
1.0
143
3.272373540856031
 70
   688
 72
     1
 73
     0
 74
     1
  7

 75
     0
 76
     0
 77
     2
 78
   300
147
0.3055885850178359
148
0.0
149
0.0
100
AcDbLayout
  1
Foglio 1
 70
     1
 71
     1
 10
0.0
 20
0.0
 11
412.5
 21
277.0
 12
0.0
 22
0.0
 32
0.0
 14
0.0
 24
0.0
 34
0.0
 15
1189.0
 25
841.0
 35
0.0
146
0.0
 13
0.0
 23
0.0
 33
0.0
 16
1.0
 26
0.0
 36
0.0
 17
0.0
 27
1.0
 37
0.0
 76
     0
330
1B
331
2A4
  0
LAYOUT
  5
543
102
{ACAD_REACTORS
330
542
102
}
330
542
100
AcDbPlotSettings
  1

  2
none_device
  4
Letter_(8.50_x_11.00_Inches)
  6

 40
6.35
 41
6.35
 42
6.35
 43
6.35
 44
215.9
 45
279.4
 46
0.0
 47
0.0
 48
0.0
 49
0.0
140
0.0
141
0.0
142
1.0
143
148.624999994925
 70
  1712
 72
     0
 73
     0
 74
     0
  7

 75
     0
 76
     0
 77
     2
 78
   300
147
0.0067283431457302
148
-0.0000005156208999
149
0.0
100
AcDbLayout
  1
Model
 70
     1
 71
     0
 10
0.0
 20
0.0
 11
1189.0
 21
841.0
 12
0.0
 22
0.0
 32
0.0
 14
0.0
 24
0.0
 34
0.0
 15
1189.0
 25
841.0
 35
0.0
146
0.0
 13
0.0
 23
0.0
 33
0.0
 16
1.0
 26
0.0
 36
0.0
 17
0.0
 27
1.0
 37
0.0
 76
     0
330
1F
331
1F4
  0
MATERIAL
  5
560
102
{ACAD_REACTORS
330
55E
102
}
330
55E
100
AcDbMaterial
  1
ByBlock
 72
     1
 94
      127
  0
MATERIAL
  5
55F
102
{ACAD_REACTORS
330
55E
102
}
330
55E
100
AcDbMaterial
  1
ByLayer
 72
     1
 94
      127
  0
MATERIAL
  5
561
102
{ACAD_REACTORS
330
55E
102
}
330
55E
100
AcDbMaterial
  1
Global
 72
     1
 94
      127
  0
MLEADERSTYLE
  5
565
102
{ACAD_REACTORS
330
564
102
}
330
564
100
AcDbMLeaderStyle
179
     2
170
     2
171
     1
172
     0
 90
        2
 40
0.0
 41
0.0
173
     1
 91
-1056964608
340
14
 92
       -2
290
     1
 42
2.0
291
     1
 43
8.0
  3
Standard
341
0
 44
4.0
300

342
11
174
     1
178
     1
175
     1
176
     0
 93
-1056964608
 45
4.0
292
     0
297
     0
 46
4.0
343
0
 94
-1056964608
 47
1.0
 49
1.0
140
1.0
293
     1
141
0.0
294
     1
177
     0
142
1.0
295
     0
296
     0
143
3.75
271
     0
272
     9
273
     9
298
     0
  0
MLINESTYLE
  5
51C
102
{ACAD_REACTORS
330
51B
102
}
330
51B
100
AcDbMlineStyle
  2
STANDARD
 70
     0
  3

 62
   256
 51
90.0
 52
90.0
 71
     2
 49
0.5
 62
   256
  6
BYLAYER
 49
-0.5
 62
   256
  6
BYLAYER
  0
ACDBPLACEHOLDER
  5
51F
102
{ACAD_REACTORS
330
51E
102
}
330
51E
  0
SCALE
  5
521
102
{ACAD_REACTORS
330
520
102
}
330
520
100
AcDbScale
 70
     0
300
1:1
140
1.0
141
1.0
290
     1
  0
SCALE
  5
522
102
{ACAD_REACTORS
330
520
102
}
330
520
100
AcDbScale
 70
     0
300
1:2
140
1.0
141
2.0
290
     0
  0
SCALE
  5
523
102
{ACAD_REACTORS
330
520
102
}
330
520
100
AcDbScale
 70
     0
300
1:4
140
1.0
141
4.0
290
     0
  0
SCALE
  5
524
102
{ACAD_REACTORS
330
520
102
}
330
520
100
AcDbScale
 70
     0
300
1:5
140
1.0
141
5.0
290
     0
  0
SCALE
  5
525
102
{ACAD_REACTORS
330
520
102
}
330
520
100
AcDbScale
 70
     0
300
1:8
140
1.0
141
8.0
290
     0
  0
SCALE
  5
526
102
{ACAD_REACTORS
330
520
102
}
330
520
100
AcDbScale
 70
     0
300
1:10
140
1.0
141
10.0
290
     0
  0
SCALE
  5
527
102
{ACAD_REACTORS
330
520
102
}
330
520
100
AcDbScale
 70
     0
300
1:16
140
1.0
141
16.0
290
     0
  0
SCALE
  5
528
102
{ACAD_REACTORS
330
520
102
}
330
520
100
AcDbScale
 70
     0
300
1:20
140
1.0
141
20.0
290
     0
  0
SCALE
  5
529
102
{ACAD_REACTORS
330
520
102
}
330
520
100
AcDbScale
 70
     0
300
1:30
140
1.0
141
30.0
290
     0
  0
SCALE
  5
52A
102
{ACAD_REACTORS
330
520
102
}
330
520
100
AcDbScale
 70
     0
300
1:40
140
1.0
141
40.0
290
     0
  0
SCALE
  5
52B
102
{ACAD_REACTORS
330
520
102
}
330
520
100
AcDbScale
 70
     0
300
1:50
140
1.0
141
50.0
290
     0
  0
SCALE
  5
52C
102
{ACAD_REACTORS
330
520
102
}
330
520
100
AcDbScale
 70
     0
300
1:100
140
1.0
141
100.0
290
     0
  0
SCALE
  5
52D
102
{ACAD_REACTORS
330
520
102
}
330
520
100
AcDbScale
 70
     0
300
2:1
140
2.0
141
1.0
290
     0
  0
SCALE
  5
52E
102
{ACAD_REACTORS
330
520
102
}
330
520
100
AcDbScale
 70
     0
300
4:1
140
4.0
141
1.0
290
     0
  0
SCALE
  5
52F
102
{ACAD_REACTORS
330
520
102
}
330
520
100
AcDbScale
 70
     0
300
8:1
140
8.0
141
1.0
290
     0
  0
SCALE
  5
530
102
{ACAD_REACTORS
330
520
102
}
330
520
100
AcDbScale
 70
     0
300
10:1
140
10.0
141
1.0
290
     0
  0
SCALE
  5
531
102
{ACAD_REACTORS
330
520
102
}
330
520
100
AcDbScale
 70
     0
300
100:1
140
100.0
141
1.0
290
     0
  0
SCALE
  5
532
102
{ACAD_REACTORS
330
520
102
}
330
520
100
AcDbScale
 70
     0
300
1/128" = 1'-0"
140
0.0078125
141
12.0
290
     0
  0
SCALE
  5
533
102
{ACAD_REACTORS
330
520
102
}
330
520
100
AcDbScale
 70
     0
300
1/64" = 1'-0"
140
0.015625
141
12.0
290
     0
  0
SCALE
  5
534
102
{ACAD_REACTORS
330
520
102
}
330
520
100
AcDbScale
 70
     0
300
1/32" = 1'-0"
140
0.03125
141
12.0
290
     0
  0
SCALE
  5
535
102
{ACAD_REACTORS
330
520
102
}
330
520
100
AcDbScale
 70
     0
300
1/16" = 1'-0"
140
0.0625
141
12.0
290
     0
  0
SCALE
  5
536
102
{ACAD_REACTORS
330
520
102
}
330
520
100
AcDbScale
 70
     0
300
3/32" = 1'-0"
140
0.09375
141
12.0
290
     0
  0
SCALE
  5
537
102
{ACAD_REACTORS
330
520
102
}
330
520
100
AcDbScale
 70
     0
300
1/8" = 1'-0"
140
0.125
141
12.0
290
     0
  0
SCALE
  5
538
102
{ACAD_REACTORS
330
520
102
}
330
520
100
AcDbScale
 70
     0
300
3/16" = 1'-0"
140
0.1875
141
12.0
290
     0
  0
SCALE
  5
539
102
{ACAD_REACTORS
330
520
102
}
330
520
100
AcDbScale
 70
     0
300
1/4" = 1'-0"
140
0.25
141
12.0
290
     0
  0
SCALE
  5
53A
102
{ACAD_REACTORS
330
520
102
}
330
520
100
AcDbScale
 70
     0
300
3/8" = 1'-0"
140
0.375
141
12.0
290
     0
  0
SCALE
  5
53B
102
{ACAD_REACTORS
330
520
102
}
330
520
100
AcDbScale
 70
     0
300
1/2" = 1'-0"
140
0.5
141
12.0
290
     0
  0
SCALE
  5
53C
102
{ACAD_REACTORS
330
520
102
}
330
520
100
AcDbScale
 70
     0
300
3/4" = 1'-0"
140
0.75
141
12.0
290
     0
  0
SCALE
  5
53D
102
{ACAD_REACTORS
330
520
102
}
330
520
100
AcDbScale
 70
     0
300
1" = 1'-0"
140
1.0
141
12.0
290
     0
  0
SCALE
  5
53E
102
{ACAD_REACTORS
330
520
102
}
330
520
100
AcDbScale
 70
     0
300
1-1/2" = 1'-0"
140
1.5
141
12.0
290
     0
  0
SCALE
  5
53F
102
{ACAD_REACTORS
330
520
102
}
330
520
100
AcDbScale
 70
     0
300
3" = 1'-0"
140
3.0
141
12.0
290
     0
  0
SCALE
  5
540
102
{ACAD_REACTORS
330
520
102
}
330
520
100
AcDbScale
 70
     0
300
6" = 1'-0"
140
6.0
141
12.0
290
     0
  0
SCALE
  5
541
102
{ACAD_REACTORS
330
520
102
}
330
520
100
AcDbScale
 70
     0
300
1'-0" = 1'-0"
140
12.0
141
12.0
290
     0
  0
TABLESTYLE
  5
563
102
{ACAD_REACTORS
330
562
102
}
102
{ACAD_XDICTIONARY
360
569
102
}
330
562
100
AcDbTableStyle
  3
Standard
 70
     0
 71
     0
 40
0.06
 41
0.06
280
     0
281
     0
  7
STANDARD
140
4.5
170
     2
 62
     0
 63
   257
283
     0
 90
        4
 91
        0
  1

274
    -2
284
     1
 64
     0
275
    -2
285
     1
 65
     0
276
    -2
286
     1
 66
     0
277
    -2
287
     1
 67
     0
278
    -2
288
     1
 68
     0
279
    -2
289
     1
 69
     0
  7
STANDARD
140
6.0
170
     5
 62
     0
 63
   257
283
     0
 90
        4
 91
        0
  1

274
    -2
284
     1
 64
     0
275
    -2
285
     1
 65
     0
276
    -2
286
     1
 66
     0
277
    -2
287
     1
 67
     0
278
    -2
288
     1
 68
     0
279
    -2
289
     1
 69
     0
  7
STANDARD
140
4.5
170
     5
 62
     0
 63
   257
283
     0
 90
        4
 91
        0
  1

274
    -2
284
     1
 64
     0
275
    -2
285
     1
 65
     0
276
    -2
286
     1
 66
     0
277
    -2
287
     1
 67
     0
278
    -2
288
     1
 68
     0
279
    -2
289
     1
 69
     0
  0
VISUALSTYLE
  5
54A
102
{ACAD_REACTORS
330
545
102
}
330
545
100
AcDbVisualStyle
  2
2dWireframe
 70
     4
177
     3
291
     0
 70
    58
 90
        0
176
     1
 90
        2
176
     1
 90
        0
176
     1
 90
        0
176
     1
 40
0.6
176
     1
 40
30.0
176
     1
 62
     7
420
 16777215
176
     1
 90
        1
176
     1
 90
        4
176
     1
 62
     7
176
     1
 62
   257
176
     1
 90
        1
176
     1
 90
        1
176
     1
 40
1.0
176
     1
 90
        0
176
     1
 62
   257
176
     1
 40
1.0
176
     1
 90
        1
176
     1
 90
        6
176
     1
 90
        2
176
     1
 62
     7
176
     1
 90
        5
176
     1
 90
        0
176
     1
 90
        0
176
     1
290
     0
176
     1
 90
        1
176
     1
 40
0.0
176
     1
 90
        0
176
     1
290
     1
176
     1
290
     1
176
     1
290
     0
176
     1
290
     0
176
     1
290
     0
176
     1
290
     0
176
     1
290
     0
176
     1
290
     0
176
     1
290
     0
176
     1
 90
       50
176
     1
 40
0.0
176
     1
 40
1.0
176
     1
 90
        0
176
     1
 62
    18
420
        0
176
     1
 90
       50
176
     1
 90
        3
176
     1
 62
     5
420
      255
176
     1
290
     0
176
     1
 90
       50
176
     1
 90
       50
176
     1
 90
       50
176
     1
290
     0
176
     1
 90
       50
176
     1
 62
   256
176
     0
 40
1.0
176
     0
 90
        2
176
     1
  1
strokes_ogs.tif
176
     1
290
     0
176
     1
 40
1.0
176
     1
 40
1.0
176
     1
  0
VISUALSTYLE
  5
54D
102
{ACAD_REACTORS
330
545
102
}
330
545
100
AcDbVisualStyle
  2
Basic
 70
     7
177
     3
291
     1
 70
    58
 90
        1
176
     1
 90
        0
176
     1
 90
        1
176
     1
 90
        0
176
     1
 40
0.6
176
     1
 40
30.0
176
     1
 62
     7
420
 16777215
176
     1
 90
        0
176
     1
 90
        4
176
     1
 62
     7
176
     1
 62
   257
176
     1
 90
        1
176
     1
 90
        1
176
     1
 40
1.0
176
     1
 90
        8
176
     1
 62
     7
176
     1
 40
1.0
176
     1
 90
        1
176
     1
 90
        6
176
     1
 90
        2
176
     1
 62
     7
176
     1
 90
        5
176
     1
 90
        0
176
     1
 90
        0
176
     1
290
     0
176
     1
 90
        1
176
     1
 40
0.0
176
     1
 90
        0
176
     1
290
     0
176
     1
290
     1
176
     1
290
     1
176
     1
290
     0
176
     1
290
     0
176
     1
290
     0
176
     1
290
     0
176
     1
290
     0
176
     1
290
     0
176
     1
 90
       50
176
     1
 40
0.0
176
     1
 40
1.0
176
     1
 90
        0
176
     1
 62
    18
420
        0
176
     1
 90
       50
176
     1
 90
        3
176
     1
 62
     5
420
      255
176
     1
290
     0
176
     1
 90
       50
176
     1
 90
       50
176
     1
 90
       50
176
     1
290
     0
176
     1
 90
       50
176
     1
 62
   256
176
     0
 40
1.0
176
     0
 90
        2
176
     1
  1
strokes_ogs.tif
176
     1
290
     0
176
     1
 40
1.0
176
     1
 40
1.0
176
     1
  0
VISUALSTYLE
  5
551
102
{ACAD_REACTORS
330
545
102
}
330
545
100
AcDbVisualStyle
  2
Brighten
 70
    12
177
     3
291
     1
 70
    58
 90
        2
176
     1
 90
        2
176
     1
 90
        0
176
     1
 90
        0
176
     1
 40
0.6
176
     1
 40
30.0
176
     1
 62
     7
420
 16777215
176
     1
 90
        1
176
     1
 90
        4
176
     1
 62
     7
176
     1
 62
   257
176
     1
 90
        1
176
     1
 90
        1
176
     1
 40
1.0
176
     1
 90
        8
176
     1
 62
     7
176
     1
 40
1.0
176
     1
 90
        1
176
     1
 90
        6
176
     1
 90
        2
176
     1
 62
     7
176
     1
 90
        5
176
     1
 90
        0
176
     1
 90
        0
176
     1
290
     0
176
     1
 90
        1
176
     1
 40
50.0
176
     1
 90
        0
176
     1
290
     0
176
     1
290
     1
176
     1
290
     1
176
     1
290
     0
176
     1
290
     0
176
     1
290
     0
176
     1
290
     0
176
     1
290
     0
176
     1
290
     0
176
     1
 90
       50
176
     1
 40
0.0
176
     1
 40
1.0
176
     1
 90
        0
176
     1
 62
    18
420
        0
176
     1
 90
       50
176
     1
 90
        3
176
     1
 62
     5
420
      255
176
     1
290
     0
176
     1
 90
       50
176
     1
 90
       50
176
     1
 90
       50
176
     1
290
     0
176
     1
 90
       50
176
     1
 62
   256
176
     0
 40
1.0
176
     0
 90
        2
176
     1
  1
strokes_ogs.tif
176
     1
290
     0
176
     1
 40
1.0
176
     1
 40
1.0
176
     1
  0
VISUALSTYLE
  5
555
102
{ACAD_REACTORS
330
545
102
}
330
545
100
AcDbVisualStyle
  2
ColorChange
 70
    16
177
     3
291
     1
 70
    58
 90
        2
176
     1
 90
        2
176
     1
 90
        3
176
     1
 90
        0
176
     1
 40
0.6
176
     1
 40
30.0
176
     1
 62
     8
420
  8421504
176
     1
 90
        1
176
     1
 90
        4
176
     1
 62
     7
176
     1
 62
   257
176
     1
 90
        1
176
     1
 90
        1
176
     1
 40
1.0
176
     1
 90
        8
176
     1
 62
     8
420
  8421504
176
     1
 40
1.0
176
     1
 90
        1
176
     1
 90
        6
176
     1
 90
        2
176
     1
 62
     7
176
     1
 90
        5
176
     1
 90
        0
176
     1
 90
        0
176
     1
290
     0
176
     1
 90
        1
176
     1
 40
0.0
176
     1
 90
        0
176
     1
290
     0
176
     1
290
     1
176
     1
290
     1
176
     1
290
     0
176
     1
290
     0
176
     1
290
     0
176
     1
290
     0
176
     1
290
     0
176
     1
290
     0
176
     1
 90
       50
176
     1
 40
0.0
176
     1
 40
1.0
176
     1
 90
        0
176
     1
 62
    18
420
        0
176
     1
 90
       50
176
     1
 90
        3
176
     1
 62
     5
420
      255
176
     1
290
     0
176
     1
 90
       50
176
     1
 90
       50
176
     1
 90
       50
176
     1
290
     0
176
     1
 90
       50
176
     1
 62
   256
176
     0
 40
1.0
176
     0
 90
        2
176
     1
  1
strokes_ogs.tif
176
     1
290
     0
176
     1
 40
1.0
176
     1
 40
1.0
176
     1
  0
VISUALSTYLE
  5
54F
102
{ACAD_REACTORS
330
545
102
}
330
545
100
AcDbVisualStyle
  2
Conceptual
 70
     9
177
     3
291
     0
 70
    58
 90
        3
176
     1
 90
        2
176
     1
 90
        0
176
     1
 90
        0
176
     1
 40
0.6
176
     1
 40
30.0
176
     1
 62
     7
420
 16777215
176
     1
 90
        2
176
     1
 90
        2
176
     1
 62
     7
176
     1
 62
   257
176
     1
 90
        1
176
     1
 90
        1
176
     1
 40
179.0
176
     1
 90
        8
176
     1
 62
     7
176
     1
 40
1.0
176
     1
 90
        1
176
     1
 90
        6
176
     1
 90
        2
176
     1
 62
     7
176
     1
 90
        3
176
     1
 90
        0
176
     1
 90
        0
176
     1
290
     0
176
     1
 90
        1
176
     1
 40
0.0
176
     1
 90
        0
176
     1
290
     0
176
     1
290
     1
176
     1
290
     1
176
     1
290
     0
176
     1
290
     0
176
     1
290
     0
176
     1
290
     0
176
     1
290
     0
176
     1
290
     0
176
     1
 90
       50
176
     1
 40
0.0
176
     1
 40
1.0
176
     1
 90
        0
176
     1
 62
    18
420
        0
176
     1
 90
       50
176
     1
 90
        3
176
     1
 62
     5
420
      255
176
     1
290
     0
176
     1
 90
       50
176
     1
 90
       50
176
     1
 90
       50
176
     1
290
     0
176
     1
 90
       50
176
     1
 62
   256
176
     0
 40
1.0
176
     0
 90
        2
176
     1
  1
strokes_ogs.tif
176
     1
290
     0
176
     1
 40
1.0
176
     1
 40
1.0
176
     1
  0
VISUALSTYLE
  5
550
102
{ACAD_REACTORS
330
545
102
}
330
545
100
AcDbVisualStyle
  2
Dim
 70
    11
177
     3
291
     1
 70
    58
 90
        2
176
     1
 90
        2
176
     1
 90
        0
176
     1
 90
        0
176
     1
 40
0.6
176
     1
 40
30.0
176
     1
 62
     7
420
 16777215
176
     1
 90
        1
176
     1
 90
        4
176
     1
 62
     7
176
     1
 62
   257
176
     1
 90
        1
176
     1
 90
        1
176
     1
 40
1.0
176
     1
 90
        8
176
     1
 62
     7
176
     1
 40
1.0
176
     1
 90
        1
176
     1
 90
        6
176
     1
 90
        2
176
     1
 62
     7
176
     1
 90
        5
176
     1
 90
        0
176
     1
 90
        0
176
     1
290
     0
176
     1
 90
        1
176
     1
 40
-50.0
176
     1
 90
        0
176
     1
290
     0
176
     1
290
     1
176
     1
290
     1
176
     1
290
     0
176
     1
290
     0
176
     1
290
     0
176
     1
290
     0
176
     1
290
     0
176
     1
290
     0
176
     1
 90
       50
176
     1
 40
0.0
176
     1
 40
1.0
176
     1
 90
        0
176
     1
 62
    18
420
        0
176
     1
 90
       50
176
     1
 90
        3
176
     1
 62
     5
420
      255
176
     1
290
     0
176
     1
 90
       50
176
     1
 90
       50
176
     1
 90
       50
176
     1
290
     0
176
     1
 90
       50
176
     1
 62
   256
176
     0
 40
1.0
176
     0
 90
        2
176
     1
  1
strokes_ogs.tif
176
     1
290
     0
176
     1
 40
1.0
176
     1
 40
1.0
176
     1
  0
VISUALSTYLE
  5
558
102
{ACAD_REACTORS
330
545
102
}
330
545
100
AcDbVisualStyle
  2
EdgeColorOff
 70
    22
177
     3
291
     1
 70
    58
 90
        2
176
     0
 90
        2
176
     0
 90
        0
176
     0
 90
        0
176
     0
 40
0.6
176
     0
 40
30.0
176
     0
 62
     7
420
 16777215
176
     0
 90
        1
176
     0
 90
        4
176
     0
 62
     7
176
     0
 62
   257
176
     0
 90
        1
176
     0
 90
        1
176
     0
 40
1.0
176
     0
 90
        8
176
     2
 62
     7
176
     0
 40
1.0
176
     0
 90
        1
176
     0
 90
        6
176
     0
 90
        2
176
     0
 62
     7
176
     0
 90
        5
176
     0
 90
        0
176
     0
 90
        0
176
     0
290
     0
176
     0
 90
        1
176
     0
 40
0.0
176
     0
 90
        0
176
     0
290
     0
176
     0
290
     1
176
     0
290
     1
176
     0
290
     0
176
     0
290
     0
176
     0
290
     0
176
     0
290
     0
176
     0
290
     0
176
     0
290
     0
176
     0
 90
       50
176
     0
 40
0.0
176
     0
 40
1.0
176
     0
 90
        0
176
     0
 62
    18
420
        0
176
     0
 90
       50
176
     0
 90
        3
176
     0
 62
     5
420
      255
176
     0
290
     0
176
     0
 90
       50
176
     0
 90
       50
176
     0
 90
       50
176
     0
290
     0
176
     0
 90
       50
176
     0
 62
   256
176
     0
 40
1.0
176
     0
 90
        2
176
     0
  1
strokes_ogs.tif
176
     0
290
     0
176
     0
 40
1.0
176
     0
 40
1.0
176
     0
  0
VISUALSTYLE
  5
554
102
{ACAD_REACTORS
330
545
102
}
330
545
100
AcDbVisualStyle
  2
Facepattern
 70
    15
177
     3
291
     1
 70
    58
 90
        2
176
     1
 90
        2
176
     1
 90
        0
176
     1
 90
        0
176
     1
 40
0.6
176
     1
 40
30.0
176
     1
 62
     7
420
 16777215
176
     1
 90
        1
176
     1
 90
        4
176
     1
 62
     7
176
     1
 62
   257
176
     1
 90
        1
176
     1
 90
        1
176
     1
 40
1.0
176
     1
 90
        8
176
     1
 62
     7
176
     1
 40
1.0
176
     1
 90
        1
176
     1
 90
        6
176
     1
 90
        2
176
     1
 62
     7
176
     1
 90
        5
176
     1
 90
        0
176
     1
 90
        0
176
     1
290
     0
176
     1
 90
        1
176
     1
 40
0.0
176
     1
 90
        0
176
     1
290
     0
176
     1
290
     1
176
     1
290
     1
176
     1
290
     0
176
     1
290
     0
176
     1
290
     0
176
     1
290
     0
176
     1
290
     0
176
     1
290
     0
176
     1
 90
       50
176
     1
 40
0.0
176
     1
 40
1.0
176
     1
 90
        0
176
     1
 62
    18
420
        0
176
     1
 90
       50
176
     1
 90
        3
176
     1
 62
     5
420
      255
176
     1
290
     0
176
     1
 90
       50
176
     1
 90
       50
176
     1
 90
       50
176
     1
290
     0
176
     1
 90
       50
176
     1
 62
   256
176
     0
 40
1.0
176
     0
 90
        2
176
     1
  1
strokes_ogs.tif
176
     1
290
     0
176
     1
 40
1.0
176
     1
 40
1.0
176
     1
  0
VISUALSTYLE
  5
546
102
{ACAD_REACTORS
330
545
102
}
330
545
100
AcDbVisualStyle
  2
Flat
 70
     0
177
     3
291
     1
 70
    58
 90
        2
176
     1
 90
        1
176
     1
 90
        1
176
     1
 90
        2
176
     1
 40
0.6
176
     1
 40
30.0
176
     1
 62
     7
420
 16777215
176
     1
 90
        0
176
     1
 90
        0
176
     1
 62
     7
176
     1
 62
   257
176
     1
 90
        1
176
     1
 90
        1
176
     1
 40
1.0
176
     1
 90
        8
176
     1
 62
     7
176
     1
 40
1.0
176
     1
 90
        1
176
     1
 90
        6
176
     1
 90
        2
176
     1
 62
     7
176
     1
 90
        5
176
     1
 90
        0
176
     1
 90
        0
176
     1
290
     0
176
     1
 90
       13
176
     1
 40
0.0
176
     1
 90
        0
176
     1
290
     0
176
     1
290
     1
176
     1
290
     1
176
     1
290
     0
176
     1
290
     0
176
     1
290
     0
176
     1
290
     0
176
     1
290
     0
176
     1
290
     0
176
     1
 90
       50
176
     1
 40
0.0
176
     1
 40
1.0
176
     1
 90
        0
176
     1
 62
    18
420
        0
176
     1
 90
       50
176
     1
 90
        3
176
     1
 62
     5
420
      255
176
     1
290
     0
176
     1
 90
       50
176
     1
 90
       50
176
     1
 90
       50
176
     1
290
     0
176
     1
 90
       50
176
     1
 62
   256
176
     0
 40
1.0
176
     0
 90
        2
176
     1
  1
strokes_ogs.tif
176
     1
290
     0
176
     1
 40
1.0
176
     1
 40
1.0
176
     1
  0
VISUALSTYLE
  5
547
102
{ACAD_REACTORS
330
545
102
}
330
545
100
AcDbVisualStyle
  2
FlatWithEdges
 70
     1
177
     3
291
     1
 70
    58
 90
        2
176
     1
 90
        1
176
     1
 90
        1
176
     1
 90
        2
176
     1
 40
0.6
176
     1
 40
30.0
176
     1
 62
     7
420
 16777215
176
     1
 90
        1
176
     1
 90
        0
176
     1
 62
     7
176
     1
 62
   257
176
     1
 90
        1
176
     1
 90
        1
176
     1
 40
1.0
176
     1
 90
        0
176
     1
 62
   257
176
     1
 40
1.0
176
     1
 90
        1
176
     1
 90
        6
176
     1
 90
        2
176
     1
 62
     7
176
     1
 90
        5
176
     1
 90
        0
176
     1
 90
        0
176
     1
290
     0
176
     1
 90
       13
176
     1
 40
0.0
176
     1
 90
        0
176
     1
290
     0
176
     1
290
     1
176
     1
290
     1
176
     1
290
     0
176
     1
290
     0
176
     1
290
     0
176
     1
290
     0
176
     1
290
     0
176
     1
290
     0
176
     1
 90
       50
176
     1
 40
0.0
176
     1
 40
1.0
176
     1
 90
        0
176
     1
 62
    18
420
        0
176
     1
 90
       50
176
     1
 90
        3
176
     1
 62
     5
420
      255
176
     1
290
     0
176
     1
 90
       50
176
     1
 90
       50
176
     1
 90
       50
176
     1
290
     0
176
     1
 90
       50
176
     1
 62
   256
176
     0
 40
1.0
176
     0
 90
        2
176
     1
  1
strokes_ogs.tif
176
     1
290
     0
176
     1
 40
1.0
176
     1
 40
1.0
176
     1
  0
VISUALSTYLE
  5
548
102
{ACAD_REACTORS
330
545
102
}
330
545
100
AcDbVisualStyle
  2
Gouraud
 70
     2
177
     3
291
     1
 70
    58
 90
        2
176
     1
 90
        2
176
     1
 90
        1
176
     1
 90
        2
176
     1
 40
0.6
176
     1
 40
30.0
176
     1
 62
     7
420
 16777215
176
     1
 90
        0
176
     1
 90
        0
176
     1
 62
     7
176
     1
 62
   257
176
     1
 90
        1
176
     1
 90
        1
176
     1
 40
1.0
176
     1
 90
        0
176
     1
 62
     7
176
     1
 40
1.0
176
     1
 90
        1
176
     1
 90
        6
176
     1
 90
        2
176
     1
 62
     7
176
     1
 90
        5
176
     1
 90
        0
176
     1
 90
        0
176
     1
290
     0
176
     1
 90
       13
176
     1
 40
0.0
176
     1
 90
        0
176
     1
290
     0
176
     1
290
     1
176
     1
290
     1
176
     1
290
     0
176
     1
290
     0
176
     1
290
     0
176
     1
290
     0
176
     1
290
     0
176
     1
290
     0
176
     1
 90
       50
176
     1
 40
0.0
176
     1
 40
1.0
176
     1
 90
        0
176
     1
 62
    18
420
        0
176
     1
 90
       50
176
     1
 90
        3
176
     1
 62
     5
420
      255
176
     1
290
     0
176
     1
 90
       50
176
     1
 90
       50
176
     1
 90
       50
176
     1
290
     0
176
     1
 90
       50
176
     1
 62
   256
176
     0
 40
1.0
176
     0
 90
        2
176
     1
  1
strokes_ogs.tif
176
     1
290
     0
176
     1
 40
1.0
176
     1
 40
1.0
176
     1
  0
VISUALSTYLE
  5
549
102
{ACAD_REACTORS
330
545
102
}
330
545
100
AcDbVisualStyle
  2
GouraudWithEdges
 70
     3
177
     3
291
     1
 70
    58
 90
        2
176
     1
 90
        2
176
     1
 90
        1
176
     1
 90
        2
176
     1
 40
0.6
176
     1
 40
30.0
176
     1
 62
     7
420
 16777215
176
     1
 90
        1
176
     1
 90
        0
176
     1
 62
     7
176
     1
 62
   257
176
     1
 90
        1
176
     1
 90
        1
176
     1
 40
1.0
176
     1
 90
        0
176
     1
 62
   257
176
     1
 40
1.0
176
     1
 90
        1
176
     1
 90
        6
176
     1
 90
        2
176
     1
 62
     7
176
     1
 90
        5
176
     1
 90
        0
176
     1
 90
        0
176
     1
290
     0
176
     1
 90
       13
176
     1
 40
0.0
176
     1
 90
        0
176
     1
290
     0
176
     1
290
     1
176
     1
290
     1
176
     1
290
     0
176
     1
290
     0
176
     1
290
     0
176
     1
290
     0
176
     1
290
     0
176
     1
290
     0
176
     1
 90
       50
176
     1
 40
0.0
176
     1
 40
1.0
176
     1
 90
        0
176
     1
 62
    18
420
        0
176
     1
 90
       50
176
     1
 90
        3
176
     1
 62
     5
420
      255
176
     1
290
     0
176
     1
 90
       50
176
     1
 90
       50
176
     1
 90
       50
176
     1
290
     0
176
     1
 90
       50
176
     1
 62
   256
176
     0
 40
1.0
176
     0
 90
        2
176
     1
  1
strokes_ogs.tif
176
     1
290
     0
176
     1
 40
1.0
176
     1
 40
1.0
176
     1
  0
VISUALSTYLE
  5
54C
102
{ACAD_REACTORS
330
545
102
}
330
545
100
AcDbVisualStyle
  2
Hidden
 70
     6
177
     3
291
     0
 70
    58
 90
        1
176
     1
 90
        2
176
     1
 90
        2
176
     1
 90
        0
176
     1
 40
0.6
176
     1
 40
30.0
176
     1
 62
     7
420
 16777215
176
     1
 90
        2
176
     1
 90
        2
176
     1
 62
     7
176
     1
 62
   257
176
     1
 90
        2
176
     1
 90
        1
176
     1
 40
40.0
176
     1
 90
        0
176
     1
 62
   257
176
     1
 40
1.0
176
     1
 90
        1
176
     1
 90
        6
176
     1
 90
        2
176
     1
 62
     7
176
     1
 90
        3
176
     1
 90
        0
176
     1
 90
        0
176
     1
290
     0
176
     1
 90
        1
176
     1
 40
0.0
176
     1
 90
        0
176
     1
290
     0
176
     1
290
     1
176
     1
290
     1
176
     1
290
     0
176
     1
290
     0
176
     1
290
     0
176
     1
290
     0
176
     1
290
     0
176
     1
290
     0
176
     1
 90
       50
176
     1
 40
0.0
176
     1
 40
1.0
176
     1
 90
        0
176
     1
 62
    18
420
        0
176
     1
 90
       50
176
     1
 90
        3
176
     1
 62
     5
420
      255
176
     1
290
     0
176
     1
 90
       50
176
     1
 90
       50
176
     1
 90
       50
176
     1
290
     0
176
     1
 90
       50
176
     1
 62
   256
176
     0
 40
1.0
176
     0
 90
        2
176
     1
  1
strokes_ogs.tif
176
     1
290
     0
176
     1
 40
1.0
176
     1
 40
1.0
176
     1
  0
VISUALSTYLE
  5
556
102
{ACAD_REACTORS
330
545
102
}
330
545
100
AcDbVisualStyle
  2
JitterOff
 70
    20
177
     3
291
     1
 70
    58
 90
        2
176
     0
 90
        2
176
     0
 90
        0
176
     0
 90
        0
176
     0
 40
0.6
176
     0
 40
30.0
176
     0
 62
     7
420
 16777215
176
     0
 90
        1
176
     0
 90
        4
176
     0
 62
     7
176
     0
 62
   257
176
     0
 90
        1
176
     0
 90
        1
176
     0
 40
1.0
176
     0
 90
       10
176
     2
 62
     7
176
     0
 40
1.0
176
     0
 90
        1
176
     0
 90
        6
176
     0
 90
        2
176
     0
 62
     7
176
     0
 90
        5
176
     0
 90
        0
176
     0
 90
        0
176
     0
290
     0
176
     0
 90
        1
176
     0
 40
0.0
176
     0
 90
        0
176
     0
290
     0
176
     0
290
     1
176
     0
290
     1
176
     0
290
     0
176
     0
290
     0
176
     0
290
     0
176
     0
290
     0
176
     0
290
     0
176
     0
290
     0
176
     0
 90
       50
176
     0
 40
0.0
176
     0
 40
1.0
176
     0
 90
        0
176
     0
 62
    18
420
        0
176
     0
 90
       50
176
     0
 90
        3
176
     0
 62
     5
420
      255
176
     0
290
     0
176
     0
 90
       50
176
     0
 90
       50
176
     0
 90
       50
176
     0
290
     0
176
     0
 90
       50
176
     0
 62
   256
176
     0
 40
1.0
176
     0
 90
        2
176
     0
  1
strokes_ogs.tif
176
     0
290
     0
176
     0
 40
1.0
176
     0
 40
1.0
176
     0
  0
VISUALSTYLE
  5
553
102
{ACAD_REACTORS
330
545
102
}
330
545
100
AcDbVisualStyle
  2
Linepattern
 70
    14
177
     3
291
     1
 70
    58
 90
        2
176
     1
 90
        2
176
     1
 90
        0
176
     1
 90
        0
176
     1
 40
0.6
176
     1
 40
30.0
176
     1
 62
     7
420
 16777215
176
     1
 90
        1
176
     1
 90
        4
176
     1
 62
     7
176
     1
 62
   257
176
     1
 90
        7
176
     1
 90
        7
176
     1
 40
1.0
176
     1
 90
        8
176
     1
 62
     7
176
     1
 40
1.0
176
     1
 90
        1
176
     1
 90
        6
176
     1
 90
        2
176
     1
 62
     7
176
     1
 90
        5
176
     1
 90
        0
176
     1
 90
        0
176
     1
290
     0
176
     1
 90
        1
176
     1
 40
0.0
176
     1
 90
        0
176
     1
290
     0
176
     1
290
     1
176
     1
290
     1
176
     1
290
     0
176
     1
290
     0
176
     1
290
     0
176
     1
290
     0
176
     1
290
     0
176
     1
290
     0
176
     1
 90
       50
176
     1
 40
0.0
176
     1
 40
1.0
176
     1
 90
        0
176
     1
 62
    18
420
        0
176
     1
 90
       50
176
     1
 90
        3
176
     1
 62
     5
420
      255
176
     1
290
     0
176
     1
 90
       50
176
     1
 90
       50
176
     1
 90
       50
176
     1
290
     0
176
     1
 90
       50
176
     1
 62
   256
176
     0
 40
1.0
176
     0
 90
        2
176
     1
  1
strokes_ogs.tif
176
     1
290
     0
176
     1
 40
1.0
176
     1
 40
1.0
176
     1
  0
VISUALSTYLE
  5
557
102
{ACAD_REACTORS
330
545
102
}
330
545
100
AcDbVisualStyle
  2
OverhangOff
 70
    21
177
     3
291
     1
 70
    58
 90
        2
176
     0
 90
        2
176
     0
 90
        0
176
     0
 90
        0
176
     0
 40
0.6
176
     0
 40
30.0
176
     0
 62
     7
420
 16777215
176
     0
 90
        1
176
     0
 90
        4
176
     0
 62
     7
176
     0
 62
   257
176
     0
 90
        1
176
     0
 90
        1
176
     0
 40
1.0
176
     0
 90
        9
176
     2
 62
     7
176
     0
 40
1.0
176
     0
 90
        1
176
     0
 90
        6
176
     0
 90
        2
176
     0
 62
     7
176
     0
 90
        5
176
     0
 90
        0
176
     0
 90
        0
176
     0
290
     0
176
     0
 90
        1
176
     0
 40
0.0
176
     0
 90
        0
176
     0
290
     0
176
     0
290
     1
176
     0
290
     1
176
     0
290
     0
176
     0
290
     0
176
     0
290
     0
176
     0
290
     0
176
     0
290
     0
176
     0
290
     0
176
     0
 90
       50
176
     0
 40
0.0
176
     0
 40
1.0
176
     0
 90
        0
176
     0
 62
    18
420
        0
176
     0
 90
       50
176
     0
 90
        3
176
     0
 62
     5
420
      255
176
     0
290
     0
176
     0
 90
       50
176
     0
 90
       50
176
     0
 90
       50
176
     0
290
     0
176
     0
 90
       50
176
     0
 62
   256
176
     0
 40
1.0
176
     0
 90
        2
176
     0
  1
strokes_ogs.tif
176
     0
290
     0
176
     0
 40
1.0
176
     0
 40
1.0
176
     0
  0
VISUALSTYLE
  5
54E
102
{ACAD_REACTORS
330
545
102
}
330
545
100
AcDbVisualStyle
  2
Realistic
 70
     8
177
     3
291
     0
 70
    58
 90
        2
176
     1
 90
        3
176
     1
 90
        0
176
     1
 90
        2
176
     1
 40
0.6
176
     1
 40
30.0
176
     1
 62
     7
420
 16777215
176
     1
 90
        0
176
     1
 90
        0
176
     1
 62
     7
176
     1
 62
   257
176
     1
 90
        1
176
     1
 90
        1
176
     1
 40
1.0
176
     1
 90
        8
176
     1
 62
   257
176
     1
 40
1.0
176
     1
 90
        1
176
     1
 90
        6
176
     1
 90
        2
176
     1
 62
     7
176
     1
 90
        3
176
     1
 90
        0
176
     1
 90
        0
176
     1
290
     0
176
     1
 90
       13
176
     1
 40
0.0
176
     1
 90
        0
176
     1
290
     0
176
     1
290
     1
176
     1
290
     1
176
     1
290
     0
176
     1
290
     0
176
     1
290
     0
176
     1
290
     0
176
     1
290
     0
176
     1
290
     0
176
     1
 90
       50
176
     1
 40
0.0
176
     1
 40
1.0
176
     1
 90
        0
176
     1
 62
    18
420
        0
176
     1
 90
       50
176
     1
 90
        3
176
     1
 62
     5
420
      255
176
     1
290
     0
176
     1
 90
       50
176
     1
 90
       50
176
     1
 90
       50
176
     1
290
     0
176
     1
 90
       50
176
     1
 62
   256
176
     0
 40
1.0
176
     0
 90
        2
176
     1
  1
strokes_ogs.tif
176
     1
290
     0
176
     1
 40
1.0
176
     1
 40
1.0
176
     1
  0
VISUALSTYLE
  5
55D
102
{ACAD_REACTORS
330
545
102
}
330
545
100
AcDbVisualStyle
  2
Shaded
 70
    27
177
     3
291
     0
 70
    58
 90
        2
176
     1
 90
        2
176
     1
 90
        1
176
     1
 90
        2
176
     1
 40
0.6
176
     1
 40
30.0
176
     1
 62
     7
420
 16777215
176
     1
 90
        0
176
     1
 90
        4
176
     1
 62
     7
176
     1
 62
   257
176
     1
 90
        1
176
     1
 90
        1
176
     1
 40
1.0
176
     1
 90
        8
176
     1
 62
   257
176
     1
 40
1.0
176
     1
 90
        1
176
     1
 90
        6
176
     1
 90
        2
176
     1
 62
     8
420
  7895160
176
     1
 90
        3
176
     1
 90
        0
176
     1
 90
        0
176
     1
290
     0
176
     1
 90
        5
176
     1
 40
0.0
176
     1
 90
        0
176
     1
290
     0
176
     1
290
     1
176
     1
290
     1
176
     1
290
     0
176
     1
290
     0
176
     1
290
     0
176
     1
290
     0
176
     1
290
     0
176
     1
290
     0
176
     1
 90
       50
176
     1
 40
0.0
176
     1
 40
1.0
176
     1
 90
        0
176
     1
 62
    18
420
        0
176
     1
 90
       50
176
     1
 90
        3
176
     1
 62
     5
420
      255
176
     1
290
     0
176
     1
 90
       50
176
     1
 90
       50
176
     1
 90
       50
176
     1
290
     0
176
     1
 90
       50
176
     1
 62
   256
176
     0
 40
1.0
176
     0
 90
        2
176
     1
  1
strokes_ogs.tif
176
     1
290
     0
176
     1
 40
1.0
176
     1
 40
1.0
176
     1
  0
VISUALSTYLE
  5
55C
102
{ACAD_REACTORS
330
545
102
}
330
545
100
AcDbVisualStyle
  2
Shaded with edges
 70
    26
177
     3
291
     0
 70
    58
 90
        2
176
     1
 90
        2
176
     1
 90
        1
176
     1
 90
        2
176
     1
 40
0.6
176
     1
 40
30.0
176
     1
 62
     7
420
 16777215
176
     1
 90
        1
176
     1
 90
       10
176
     1
 62
     7
176
     1
 62
   257
176
     1
 90
        2
176
     1
 90
        1
176
     1
 40
1.0
176
     1
 90
        8
176
     1
 62
   257
176
     1
 40
1.0
176
     1
 90
        1
176
     1
 90
        6
176
     1
 90
        2
176
     1
 62
     7
176
     1
 90
        3
176
     1
 90
        0
176
     1
 90
        0
176
     1
290
     0
176
     1
 90
        5
176
     1
 40
0.0
176
     1
 90
        0
176
     1
290
     0
176
     1
290
     1
176
     1
290
     1
176
     1
290
     0
176
     1
290
     0
176
     1
290
     0
176
     1
290
     0
176
     1
290
     0
176
     1
290
     0
176
     1
 90
       50
176
     1
 40
0.0
176
     1
 40
1.0
176
     1
 90
        0
176
     1
 62
    18
420
        0
176
     1
 90
       50
176
     1
 90
        3
176
     1
 62
     5
420
      255
176
     1
290
     0
176
     1
 90
       50
176
     1
 90
       50
176
     1
 90
       50
176
     1
290
     0
176
     1
 90
       50
176
     1
 62
   256
176
     0
 40
1.0
176
     0
 90
        2
176
     1
  1
strokes_ogs.tif
176
     1
290
     0
176
     1
 40
1.0
176
     1
 40
1.0
176
     1
  0
VISUALSTYLE
  5
559
102
{ACAD_REACTORS
330
545
102
}
330
545
100
AcDbVisualStyle
  2
Shades of Gray
 70
    23
177
     3
291
     0
 70
    58
 90
        2
176
     1
 90
        2
176
     1
 90
        3
176
     1
 90
        0
176
     1
 40
0.6
176
     1
 40
30.0
176
     1
 62
     7
420
 16777215
176
     1
 90
        2
176
     1
 90
        2
176
     1
 62
     7
176
     1
 62
     7
176
     1
 90
        1
176
     1
 90
        1
176
     1
 40
40.0
176
     1
 90
        8
176
     1
 62
     7
176
     1
 40
1.0
176
     1
 90
        1
176
     1
 90
        6
176
     1
 90
        2
176
     1
 62
     7
176
     1
 90
        3
176
     1
 90
        0
176
     1
 90
        0
176
     1
290
     0
176
     1
 90
        1
176
     1
 40
0.0
176
     1
 90
        0
176
     1
290
     0
176
     1
290
     1
176
     1
290
     1
176
     1
290
     0
176
     1
290
     0
176
     1
290
     0
176
     1
290
     0
176
     1
290
     0
176
     1
290
     0
176
     1
 90
       50
176
     1
 40
0.0
176
     1
 40
1.0
176
     1
 90
        0
176
     1
 62
    18
420
        0
176
     1
 90
       50
176
     1
 90
        3
176
     1
 62
     5
420
      255
176
     1
290
     0
176
     1
 90
       50
176
     1
 90
       50
176
     1
 90
       50
176
     1
290
     0
176
     1
 90
       50
176
     1
 62
   256
176
     0
 40
1.0
176
     0
 90
        2
176
     1
  1
strokes_ogs.tif
176
     1
290
     0
176
     1
 40
1.0
176
     1
 40
1.0
176
     1
  0
VISUALSTYLE
  5
55A
102
{ACAD_REACTORS
330
545
102
}
330
545
100
AcDbVisualStyle
  2
Sketchy
 70
    24
177
     3
291
     0
 70
    58
 90
        1
176
     1
 90
        2
176
     1
 90
        2
176
     1
 90
        0
176
     1
 40
0.6
176
     1
 40
30.0
176
     1
 62
     7
420
 16777215
176
     1
 90
        2
176
     1
 90
        2
176
     1
 62
     7
176
     1
 62
     7
176
     1
 90
        1
176
     1
 90
        1
176
     1
 40
40.0
176
     1
 90
       11
176
     1
 62
     7
176
     1
 40
1.0
176
     1
 90
        1
176
     1
 90
        6
176
     1
 90
        2
176
     1
 62
     7
176
     1
 90
        6
176
     1
 90
        0
176
     1
 90
        0
176
     1
290
     0
176
     1
 90
        1
176
     1
 40
0.0
176
     1
 90
        0
176
     1
290
     0
176
     1
290
     1
176
     1
290
     1
176
     1
290
     0
176
     1
290
     0
176
     1
290
     0
176
     1
290
     0
176
     1
290
     0
176
     1
290
     0
176
     1
 90
       50
176
     1
 40
0.0
176
     1
 40
1.0
176
     1
 90
        0
176
     1
 62
    18
420
        0
176
     1
 90
       50
176
     1
 90
        3
176
     1
 62
     5
420
      255
176
     1
290
     0
176
     1
 90
       50
176
     1
 90
       50
176
     1
 90
       50
176
     1
290
     0
176
     1
 90
       50
176
     1
 62
   256
176
     0
 40
1.0
176
     0
 90
        2
176
     1
  1
strokes_ogs.tif
176
     1
290
     0
176
     1
 40
1.0
176
     1
 40
1.0
176
     1
  0
VISUALSTYLE
  5
552
102
{ACAD_REACTORS
330
545
102
}
330
545
100
AcDbVisualStyle
  2
Thicken
 70
    13
177
     3
291
     1
 70
    58
 90
        2
176
     1
 90
        2
176
     1
 90
        0
176
     1
 90
        0
176
     1
 40
0.6
176
     1
 40
30.0
176
     1
 62
     7
420
 16777215
176
     1
 90
        1
176
     1
 90
        4
176
     1
 62
     7
176
     1
 62
   257
176
     1
 90
        1
176
     1
 90
        1
176
     1
 40
1.0
176
     1
 90
       12
176
     1
 62
     7
176
     1
 40
1.0
176
     1
 90
        1
176
     1
 90
        6
176
     1
 90
        2
176
     1
 62
     7
176
     1
 90
        5
176
     1
 90
        0
176
     1
 90
        0
176
     1
290
     0
176
     1
 90
        1
176
     1
 40
0.0
176
     1
 90
        0
176
     1
290
     0
176
     1
290
     1
176
     1
290
     1
176
     1
290
     0
176
     1
290
     0
176
     1
290
     0
176
     1
290
     0
176
     1
290
     0
176
     1
290
     0
176
     1
 90
       50
176
     1
 40
0.0
176
     1
 40
1.0
176
     1
 90
        0
176
     1
 62
    18
420
        0
176
     1
 90
       50
176
     1
 90
        3
176
     1
 62
     5
420
      255
176
     1
290
     0
176
     1
 90
       50
176
     1
 90
       50
176
     1
 90
       50
176
     1
290
     0
176
     1
 90
       50
176
     1
 62
   256
176
     0
 40
1.0
176
     0
 90
        2
176
     1
  1
strokes_ogs.tif
176
     1
290
     0
176
     1
 40
1.0
176
     1
 40
1.0
176
     1
  0
VISUALSTYLE
  5
54B
102
{ACAD_REACTORS
330
545
102
}
330
545
100
AcDbVisualStyle
  2
Wireframe
 70
     5
177
     3
291
     0
 70
    58
 90
        0
176
     1
 90
        2
176
     1
 90
        0
176
     1
 90
        0
176
     1
 40
0.6
176
     1
 40
30.0
176
     1
 62
     7
420
 16777215
176
     1
 90
        1
176
     1
 90
        4
176
     1
 62
     7
176
     1
 62
   257
176
     1
 90
        1
176
     1
 90
        1
176
     1
 40
1.0
176
     1
 90
        0
176
     1
 62
   257
176
     1
 40
1.0
176
     1
 90
        1
176
     1
 90
        6
176
     1
 90
        2
176
     1
 62
     7
176
     1
 90
        3
176
     1
 90
        0
176
     1
 90
        0
176
     1
290
     0
176
     1
 90
        1
176
     1
 40
0.0
176
     1
 90
        0
176
     1
290
     0
176
     1
290
     1
176
     1
290
     1
176
     1
290
     0
176
     1
290
     0
176
     1
290
     0
176
     1
290
     0
176
     1
290
     0
176
     1
290
     0
176
     1
 90
       50
176
     1
 40
0.0
176
     1
 40
1.0
176
     1
 90
        0
176
     1
 62
    18
420
        0
176
     1
 90
       50
176
     1
 90
        3
176
     1
 62
     5
420
      255
176
     1
290
     0
176
     1
 90
       50
176
     1
 90
       50
176
     1
 90
       50
176
     1
290
     0
176
     1
 90
       50
176
     1
 62
   256
176
     0
 40
1.0
176
     0
 90
        2
176
     1
  1
strokes_ogs.tif
176
     1
290
     0
176
     1
 40
1.0
176
     1
 40
1.0
176
     1
  0
VISUALSTYLE
  5
55B
102
{ACAD_REACTORS
330
545
102
}
330
545
100
AcDbVisualStyle
  2
X-Ray
 70
    25
177
     3
291
     0
 70
    58
 90
        2
176
     1
 90
        2
176
     1
 90
        1
176
     1
 90
        1
176
     1
 40
0.5
176
     1
 40
30.0
176
     1
 62
     7
420
 16777215
176
     1
 90
        1
176
     1
 90
        0
176
     1
 62
     7
176
     1
 62
   257
176
     1
 90
        1
176
     1
 90
        1
176
     1
 40
1.0
176
     1
 90
        8
176
     1
 62
     7
176
     1
 40
1.0
176
     1
 90
        1
176
     1
 90
        6
176
     1
 90
        2
176
     1
 62
     7
176
     1
 90
        3
176
     1
 90
        0
176
     1
 90
        0
176
     1
290
     0
176
     1
 90
       13
176
     1
 40
0.0
176
     1
 90
        0
176
     1
290
     0
176
     1
290
     1
176
     1
290
     1
176
     1
290
     0
176
     1
290
     0
176
     1
290
     0
176
     1
290
     0
176
     1
290
     0
176
     1
290
     0
176
     1
 90
       50
176
     1
 40
0.0
176
     1
 40
1.0
176
     1
 90
        0
176
     1
 62
    18
420
        0
176
     1
 90
       50
176
     1
 90
        3
176
     1
 62
     5
420
      255
176
     1
290
     0
176
     1
 90
       50
176
     1
 90
       50
176
     1
 90
       50
176
     1
290
     0
176
     1
 90
       50
176
     1
 62
   256
176
     0
 40
1.0
176
     0
 90
        2
176
     1
  1
strokes_ogs.tif
176
     1
290
     0
176
     1
 40
1.0
176
     1
 40
1.0
176
     1
  0
DICTIONARYVAR
  5
568
102
{ACAD_REACTORS
330
567
102
}
330
567
100
DictionaryVariables
280
     0
  1
1:1
  0
DICTIONARYVAR
  5
56D
102
{ACAD_REACTORS
330
567
102
}
330
567
100
DictionaryVariables
280
     0
  1
Standard
  0
DICTIONARYVAR
  5
56C
102
{ACAD_REACTORS
330
567
102
}
330
567
100
DictionaryVariables
280
     0
  1
Standard
  0
DICTIONARYVAR
  5
56E
102
{ACAD_REACTORS
330
567
102
}
330
567
100
DictionaryVariables
280
     0
  1
0
  0
DICTIONARY
  5
569
330
563
100
AcDbDictionary
280
     1
281
     1
  3
ACAD_ROUNDTRIP_2008_TABLESTYLE_CELLSTYLEMAP
360
56A
  0
CELLSTYLEMAP
  5
56A
102
{ACAD_REACTORS
330
569
102
}
330
569
100
AcDbCellStyleMap
 90
        3
300
CELLSTYLE
  1
TABLEFORMAT_BEGIN
 90
        5
170
     1
 91
        0
 92
    32768
 62
   257
 93
        1
300
CONTENTFORMAT
  1
CONTENTFORMAT_BEGIN
 90
        0
 91
        0
 92
        4
 93
        0
300

 40
0.0
140
1.0
 94
        5
 62
     0
340
11
144
6.0
309
CONTENTFORMAT_END
171
     1
301
MARGIN
  1
CELLMARGIN_BEGIN
 40
1.5
 40
1.5
 40
1.5
 40
1.5
 40
1.5
 40
1.5
309
CELLMARGIN_END
 94
        6
 95
        1
302
GRIDFORMAT
  1
GRIDFORMAT_BEGIN
 90
        0
 91
        1
 62
     0
 92
       -2
340
14
 93
        0
 40
0.045
309
GRIDFORMAT_END
 95
        2
302
GRIDFORMAT
  1
GRIDFORMAT_BEGIN
 90
        0
 91
        1
 62
     0
 92
       -2
340
14
 93
        0
 40
0.045
309
GRIDFORMAT_END
 95
        4
302
GRIDFORMAT
  1
GRIDFORMAT_BEGIN
 90
        0
 91
        1
 62
     0
 92
       -2
340
14
 93
        0
 40
0.045
309
GRIDFORMAT_END
 95
        8
302
GRIDFORMAT
  1
GRIDFORMAT_BEGIN
 90
        0
 91
        1
 62
     0
 92
       -2
340
14
 93
        0
 40
0.045
309
GRIDFORMAT_END
 95
       16
302
GRIDFORMAT
  1
GRIDFORMAT_BEGIN
 90
        0
 91
        1
 62
     0
 92
       -2
340
14
 93
        0
 40
0.045
309
GRIDFORMAT_END
 95
       32
302
GRIDFORMAT
  1
GRIDFORMAT_BEGIN
 90
        0
 91
        1
 62
     0
 92
       -2
340
14
 93
        0
 40
0.045
309
GRIDFORMAT_END
309
TABLEFORMAT_END
  1
CELLSTYLE_BEGIN
 90
        1
 91
        1
300
_TITLE
309
CELLSTYLE_END
300
CELLSTYLE
  1
TABLEFORMAT_BEGIN
 90
        5
170
     1
 91
        0
 92
        0
 62
   257
 93
        1
300
CONTENTFORMAT
  1
CONTENTFORMAT_BEGIN
 90
        0
 91
        0
 92
        4
 93
        0
300

 40
0.0
140
1.0
 94
        5
 62
     0
340
11
144
4.5
309
CONTENTFORMAT_END
171
     1
301
MARGIN
  1
CELLMARGIN_BEGIN
 40
1.5
 40
1.5
 40
1.5
 40
1.5
 40
1.5
 40
1.5
309
CELLMARGIN_END
 94
        6
 95
        1
302
GRIDFORMAT
  1
GRIDFORMAT_BEGIN
 90
        0
 91
        1
 62
     0
 92
       -2
340
14
 93
        0
 40
0.045
309
GRIDFORMAT_END
 95
        2
302
GRIDFORMAT
  1
GRIDFORMAT_BEGIN
 90
        0
 91
        1
 62
     0
 92
       -2
340
14
 93
        0
 40
0.045
309
GRIDFORMAT_END
 95
        4
302
GRIDFORMAT
  1
GRIDFORMAT_BEGIN
 90
        0
 91
        1
 62
     0
 92
       -2
340
14
 93
        0
 40
0.045
309
GRIDFORMAT_END
 95
        8
302
GRIDFORMAT
  1
GRIDFORMAT_BEGIN
 90
        0
 91
        1
 62
     0
 92
       -2
340
14
 93
        0
 40
0.045
309
GRIDFORMAT_END
 95
       16
302
GRIDFORMAT
  1
GRIDFORMAT_BEGIN
 90
        0
 91
        1
 62
     0
 92
       -2
340
14
 93
        0
 40
0.045
309
GRIDFORMAT_END
 95
       32
302
GRIDFORMAT
  1
GRIDFORMAT_BEGIN
 90
        0
 91
        1
 62
     0
 92
       -2
340
14
 93
        0
 40
0.045
309
GRIDFORMAT_END
309
TABLEFORMAT_END
  1
CELLSTYLE_BEGIN
 90
        2
 91
        1
300
_HEADER
309
CELLSTYLE_END
300
CELLSTYLE
  1
TABLEFORMAT_BEGIN
 90
        5
170
     1
 91
        0
 92
        0
 62
   257
 93
        1
300
CONTENTFORMAT
  1
CONTENTFORMAT_BEGIN
 90
        0
 91
        0
 92
        4
 93
        0
300

 40
0.0
140
1.0
 94
        2
 62
     0
340
11
144
4.5
309
CONTENTFORMAT_END
171
     1
301
MARGIN
  1
CELLMARGIN_BEGIN
 40
1.5
 40
1.5
 40
1.5
 40
1.5
 40
1.5
 40
1.5
309
CELLMARGIN_END
 94
        6
 95
        1
302
GRIDFORMAT
  1
GRIDFORMAT_BEGIN
 90
        0
 91
        1
 62
     0
 92
       -2
340
14
 93
        0
 40
0.045
309
GRIDFORMAT_END
 95
        2
302
GRIDFORMAT
  1
GRIDFORMAT_BEGIN
 90
        0
 91
        1
 62
     0
 92
       -2
340
14
 93
        0
 40
0.045
309
GRIDFORMAT_END
 95
        4
302
GRIDFORMAT
  1
GRIDFORMAT_BEGIN
 90
        0
 91
        1
 62
     0
 92
       -2
340
14
 93
        0
 40
0.045
309
GRIDFORMAT_END
 95
        8
302
GRIDFORMAT
  1
GRIDFORMAT_BEGIN
 90
        0
 91
        1
 62
     0
 92
       -2
340
14
 93
        0
 40
0.045
309
GRIDFORMAT_END
 95
       16
302
GRIDFORMAT
  1
GRIDFORMAT_BEGIN
 90
        0
 91
        1
 62
     0
 92
       -2
340
14
 93
        0
 40
0.045
309
GRIDFORMAT_END
 95
       32
302
GRIDFORMAT
  1
GRIDFORMAT_BEGIN
 90
        0
 91
        1
 62
     0
 92
       -2
340
14
 93
        0
 40
0.045
309
GRIDFORMAT_END
309
TABLEFORMAT_END
  1
CELLSTYLE_BEGIN
 90
        3
 91
        2
300
_DATA
309
CELLSTYLE_END
  0
ENDSEC
  0
EOF
