  0
SECTION
  2
HEADER
  9
$ACADVER
  1
AC1027
  9
$ACADMAINTVER
 70
   105
  9
$DWGCODEPAGE
  3
ANSI_1252
  9
$REQUIREDVERSIONS
160
                 0
  9
$LASTSAVEDBY
  1
andrea.zolin
  9
$INSBASE
 10
0.0
 20
0.0
 30
0.0
  9
$EXTMIN
 10
0.0
 20
0.0
 30
0.0
  9
$EXTMAX
 10
840.0
 20
594.0
 30
0.0
  9
$LIMMIN
 10
0.0
 20
0.0
  9
$LIMMAX
 10
840.0
 20
594.0
  9
$ORTHOMODE
 70
     0
  9
$REGENMODE
 70
     1
  9
$FILLMODE
 70
     1
  9
$QTEXTMODE
 70
     0
  9
$MIRRTEXT
 70
     1
  9
$LTSCALE
 40
46.2
  9
$ATTMODE
 70
     1
  9
$TEXTSIZE
 40
0.2
  9
$TRACEWID
 40
0.05
  9
$TEXTSTYLE
  7
STANDARD
  9
$CLAYER
  8
0
  9
$CELTYPE
  6
BYLAYER
  9
$CECOLOR
 62
   256
  9
$CELTSCALE
 40
1.0
  9
$DISPSILH
 70
     0
  9
$DIMSCALE
 40
1.0
  9
$DIMASZ
 40
5.0
  9
$DIMEXO
 40
0.75
  9
$DIMDLI
 40
31.92
  9
$DIMRND
 40
0.0
  9
$DIMDLE
 40
0.0
  9
$DIMEXE
 40
0.75
  9
$DIMTP
 40
0.01
  9
$DIMTM
 40
0.01
  9
$DIMTXT
 40
6.0
  9
$DIMCEN
 40
7.56
  9
$DIMTSZ
 40
0.0
  9
$DIMTOL
 70
     1
  9
$DIMLIM
 70
     0
  9
$DIMTIH
 70
     1
  9
$DIMTOH
 70
     1
  9
$DIMSE1
 70
     0
  9
$DIMSE2
 70
     0
  9
$DIMTAD
 70
     0
  9
$DIMZIN
 70
     0
  9
$DIMBLK
  1
CLOSED
  9
$DIMASO
 70
     1
  9
$DIMSHO
 70
     1
  9
$DIMPOST
  1

  9
$DIMAPOST
  1

  9
$DIMALT
 70
     0
  9
$DIMALTD
 70
     2
  9
$DIMALTF
 40
25.4
  9
$DIMLFAC
 40
1.0
  9
$DIMTOFL
 70
     0
  9
$DIMTVP
 40
0.0
  9
$DIMTIX
 70
     0
  9
$DIMSOXD
 70
     0
  9
$DIMSAH
 70
     0
  9
$DIMBLK1
  1

  9
$DIMBLK2
  1

  9
$DIMSTYLE
  2
STANDARD
  9
$DIMCLRD
 70
     0
  9
$DIMCLRE
 70
     0
  9
$DIMCLRT
 70
     0
  9
$DIMTFAC
 40
1.0
  9
$DIMGAP
 40
0.625
  9
$DIMJUST
 70
     0
  9
$DIMSD1
 70
     0
  9
$DIMSD2
 70
     0
  9
$DIMTOLJ
 70
     1
  9
$DIMTZIN
 70
     0
  9
$DIMALTZ
 70
     0
  9
$DIMALTTZ
 70
     0
  9
$DIMUPT
 70
     0
  9
$DIMDEC
 70
     4
  9
$DIMTDEC
 70
     4
  9
$DIMALTU
 70
     2
  9
$DIMALTTD
 70
     2
  9
$DIMTXSTY
  7
STANDARD
  9
$DIMAUNIT
 70
     0
  9
$DIMADEC
 70
     0
  9
$DIMALTRND
 40
0.0
  9
$DIMAZIN
 70
     0
  9
$DIMDSEP
 70
    46
  9
$DIMATFIT
 70
     3
  9
$DIMFRAC
 70
     0
  9
$DIMLDRBLK
  1

  9
$DIMLUNIT
 70
     2
  9
$DIMLWD
 70
    -2
  9
$DIMLWE
 70
    -2
  9
$DIMTMOVE
 70
     2
  9
$DIMFXL
 40
1.0
  9
$DIMFXLON
 70
     0
  9
$DIMJOGANG
 40
0.7853981633974483
  9
$DIMTFILL
 70
     0
  9
$DIMTFILLCLR
 70
     0
  9
$DIMARCSYM
 70
     0
  9
$DIMLTYPE
  6

  9
$DIMLTEX1
  6

  9
$DIMLTEX2
  6

  9
$DIMTXTDIRECTION
 70
     0
  9
$LUNITS
 70
     2
  9
$LUPREC
 70
     4
  9
$SKETCHINC
 40
0.1
  9
$FILLETRAD
 40
0.5
  9
$AUNITS
 70
     0
  9
$AUPREC
 70
     0
  9
$MENU
  1
.
  9
$ELEVATION
 40
0.0
  9
$PELEVATION
 40
0.0
  9
$THICKNESS
 40
0.0
  9
$LIMCHECK
 70
     0
  9
$CHAMFERA
 40
0.0
  9
$CHAMFERB
 40
0.0
  9
$CHAMFERC
 40
0.0
  9
$CHAMFERD
 40
0.0
  9
$SKPOLY
 70
     0
  9
$TDCREATE
 40
2447893.041666667
  9
$TDUCREATE
 40
0.0
  9
$TDUPDATE
 40
2458466.621725255
  9
$TDUUPDATE
 40
2458466.580058588
  9
$TDINDWG
 40
0.000207419
  9
$TDUSRTIMER
 40
0.000207419
  9
$USRTIMER
 70
     1
  9
$ANGBASE
 50
0.0
  9
$ANGDIR
 70
     0
  9
$PDMODE
 70
     3
  9
$PDSIZE
 40
0.3125
  9
$PLINEWID
 40
0.0
  9
$SPLFRAME
 70
     0
  9
$SPLINETYPE
 70
     6
  9
$SPLINESEGS
 70
     8
  9
$HANDSEED
  5
665
  9
$SURFTAB1
 70
     6
  9
$SURFTAB2
 70
     6
  9
$SURFTYPE
 70
     6
  9
$SURFU
 70
     6
  9
$SURFV
 70
     6
  9
$UCSBASE
  2

  9
$UCSNAME
  2

  9
$UCSORG
 10
0.0
 20
0.0
 30
0.0
  9
$UCSXDIR
 10
1.0
 20
0.0
 30
0.0
  9
$UCSYDIR
 10
0.0
 20
1.0
 30
0.0
  9
$UCSORTHOREF
  2

  9
$UCSORTHOVIEW
 70
     0
  9
$UCSORGTOP
 10
0.0
 20
0.0
 30
0.0
  9
$UCSORGBOTTOM
 10
0.0
 20
0.0
 30
0.0
  9
$UCSORGLEFT
 10
0.0
 20
0.0
 30
0.0
  9
$UCSORGRIGHT
 10
0.0
 20
0.0
 30
0.0
  9
$UCSORGFRONT
 10
0.0
 20
0.0
 30
0.0
  9
$UCSORGBACK
 10
0.0
 20
0.0
 30
0.0
  9
$PUCSBASE
  2

  9
$PUCSNAME
  2

  9
$PUCSORG
 10
0.0
 20
0.0
 30
0.0
  9
$PUCSXDIR
 10
1.0
 20
0.0
 30
0.0
  9
$PUCSYDIR
 10
0.0
 20
1.0
 30
0.0
  9
$PUCSORTHOREF
  2

  9
$PUCSORTHOVIEW
 70
     0
  9
$PUCSORGTOP
 10
0.0
 20
0.0
 30
0.0
  9
$PUCSORGBOTTOM
 10
0.0
 20
0.0
 30
0.0
  9
$PUCSORGLEFT
 10
0.0
 20
0.0
 30
0.0
  9
$PUCSORGRIGHT
 10
0.0
 20
0.0
 30
0.0
  9
$PUCSORGFRONT
 10
0.0
 20
0.0
 30
0.0
  9
$PUCSORGBACK
 10
0.0
 20
0.0
 30
0.0
  9
$USERI1
 70
     0
  9
$USERI2
 70
     0
  9
$USERI3
 70
     0
  9
$USERI4
 70
     0
  9
$USERI5
 70
     0
  9
$USERR1
 40
0.0
  9
$USERR2
 40
0.0
  9
$USERR3
 40
0.0
  9
$USERR4
 40
0.0
  9
$USERR5
 40
0.0
  9
$WORLDVIEW
 70
     1
  9
$SHADEDGE
 70
     3
  9
$SHADEDIF
 70
    70
  9
$TILEMODE
 70
     0
  9
$MAXACTVP
 70
    64
  9
$PINSBASE
 10
0.0
 20
0.0
 30
0.0
  9
$PLIMCHECK
 70
     0
  9
$PEXTMIN
 10
0.0
 20
0.0
 30
0.0
  9
$PEXTMAX
 10
840.0
 20
594.0
 30
0.0
  9
$PLIMMIN
 10
-17.33463035019455
 20
-46.22568093385214
  9
$PLIMMAX
 10
953.4046692607004
 20
640.2256809338521
  9
$UNITMODE
 70
     0
  9
$VISRETAIN
 70
     1
  9
$PLINEGEN
 70
     0
  9
$PSLTSCALE
 70
     1
  9
$TREEDEPTH
 70
  3020
  9
$CMLSTYLE
  2
STANDARD
  9
$CMLJUST
 70
     0
  9
$CMLSCALE
 40
1.0
  9
$PROXYGRAPHICS
 70
     1
  9
$MEASUREMENT
 70
     1
  9
$CELWEIGHT
370
    -1
  9
$ENDCAPS
280
     0
  9
$JOINSTYLE
280
     0
  9
$LWDISPLAY
290
     0
  9
$INSUNITS
 70
     0
  9
$HYPERLINKBASE
  1

  9
$STYLESHEET
  1

  9
$XEDIT
290
     1
  9
$CEPSNTYPE
380
     0
  9
$PSTYLEMODE
290
     1
  9
$FINGERPRINTGUID
  2
{FC4D83C9-E112-4AF3-B2F9-EA72BECDC5CF}
  9
$VERSIONGUID
  2
{FAEB1C32-E019-11D5-929B-00C0DF256EC4}
  9
$EXTNAMES
290
     1
  9
$PSVPSCALE
 40
0.0
  9
$OLESTARTUP
290
     0
  9
$SORTENTS
280
   127
  9
$INDEXCTL
280
     0
  9
$HIDETEXT
280
     1
  9
$XCLIPFRAME
280
     2
  9
$HALOGAP
280
     0
  9
$OBSCOLOR
 70
   257
  9
$OBSLTYPE
280
     0
  9
$INTERSECTIONDISPLAY
280
     0
  9
$INTERSECTIONCOLOR
 70
   257
  9
$DIMASSOC
280
     2
  9
$PROJECTNAME
  1

  9
$CAMERADISPLAY
290
     0
  9
$LENSLENGTH
 40
50.0
  9
$CAMERAHEIGHT
 40
0.0
  9
$STEPSPERSEC
 40
2.0
  9
$STEPSIZE
 40
6.0
  9
$3DDWFPREC
 40
2.0
  9
$PSOLWIDTH
 40
0.25
  9
$PSOLHEIGHT
 40
4.0
  9
$LOFTANG1
 40
1.570796326794897
  9
$LOFTANG2
 40
1.570796326794897
  9
$LOFTMAG1
 40
0.0
  9
$LOFTMAG2
 40
0.0
  9
$LOFTPARAM
 70
     7
  9
$LOFTNORMALS
280
     1
  9
$LATITUDE
 40
37.795
  9
$LONGITUDE
 40
-122.394
  9
$NORTHDIRECTION
 40
0.0
  9
$TIMEZONE
 70
 -8000
  9
$LIGHTGLYPHDISPLAY
280
     1
  9
$TILEMODELIGHTSYNCH
280
     1
  9
$SOLIDHIST
280
     0
  9
$SHOWHIST
280
     1
  9
$DWFFRAME
280
     2
  9
$DGNFRAME
280
     2
  9
$REALWORLDSCALE
290
     1
  9
$INTERFERECOLOR
 62
   256
  9
$CSHADOW
280
     0
  9
$SHADOWPLANELOCATION
 40
0.0
  0
ENDSEC
  0
SECTION
  2
CLASSES
  0
CLASS
  1
ACDBDICTIONARYWDFLT
  2
AcDbDictionaryWithDefault
  3
ObjectDBX Classes
 90
        0
 91
        4
280
     0
281
     0
  0
CLASS
  1
SCALE
  2
AcDbScale
  3
ObjectDBX Classes
 90
     1153
 91
        4
280
     0
281
     0
  0
CLASS
  1
VISUALSTYLE
  2
AcDbVisualStyle
  3
ObjectDBX Classes
 90
     4095
 91
        4
280
     0
281
     0
  0
CLASS
  1
MATERIAL
  2
AcDbMaterial
  3
ObjectDBX Classes
 90
     1153
 91
        4
280
     0
281
     0
  0
CLASS
  1
TABLESTYLE
  2
AcDbTableStyle
  3
ObjectDBX Classes
 90
     4095
 91
        4
280
     0
281
     0
  0
CLASS
  1
MLEADERSTYLE
  2
AcDbMLeaderStyle
  3
ACDB_MLEADERSTYLE_CLASS
 90
     4095
 91
        4
280
     0
281
     0
  0
CLASS
  1
DICTIONARYVAR
  2
AcDbDictionaryVar
  3
ObjectDBX Classes
 90
        0
 91
        4
280
     0
281
     0
  0
CLASS
  1
CELLSTYLEMAP
  2
AcDbCellStyleMap
  3
ObjectDBX Classes
 90
     1152
 91
        4
280
     0
281
     0
  0
ENDSEC
  0
SECTION
  2
TABLES
  0
TABLE
  2
VPORT
  5
8
330
0
100
AcDbSymbolTable
 70
     1
  0
VPORT
  5
1F4
330
8
100
AcDbSymbolTableRecord
100
AcDbViewportTableRecord
  2
*ACTIVE
 70
     0
 10
0.0
 20
0.0
 11
1.0
 21
1.0
 12
420.0
 22
297.0
 13
0.0
 23
0.0
 14
1.0
 24
1.0
 15
0.0
 25
0.0
 16
0.0
 26
0.0
 36
1.0
 17
0.0
 27
0.0
 37
0.0
 40
594.0
 41
1.4141414141
 42
50.0
 43
0.0
 44
0.0
 50
0.0
 51
0.0
 71
     0
 72
   100
 73
     1
 74
     1
 75
     0
 76
     0
 77
     0
 78
     0
281
     0
 65
     1
110
0.0
120
0.0
130
0.0
111
1.0
121
0.0
131
0.0
112
0.0
122
1.0
132
0.0
 79
     0
146
0.0
348
63E
 60
     3
 61
     5
292
     1
282
     1
141
0.0
142
0.0
 63
   256
  0
ENDTAB
  0
TABLE
  2
LTYPE
  5
5
330
0
100
AcDbSymbolTable
 70
     6
  0
LTYPE
  5
14
330
5
100
AcDbSymbolTableRecord
100
AcDbLinetypeTableRecord
  2
BYBLOCK
 70
     0
  3

 72
    65
 73
     0
 40
0.0
  0
LTYPE
  5
15
330
5
100
AcDbSymbolTableRecord
100
AcDbLinetypeTableRecord
  2
BYLAYER
 70
     0
  3

 72
    65
 73
     0
 40
0.0
  0
LTYPE
  5
16
330
5
100
AcDbSymbolTableRecord
100
AcDbLinetypeTableRecord
  2
CONTINUOUS
 70
     0
  3
Solid line
 72
    65
 73
     0
 40
0.0
  0
LTYPE
  5
1F5
330
5
100
AcDbSymbolTableRecord
100
AcDbLinetypeTableRecord
  2
CENTER
 70
     0
  3
____ _ ____ _ ____ _ ____ _ ____ _ ____ _ ____
 72
    65
 73
     4
 40
0.6
 49
0.375
 74
     0
 49
-0.075
 74
     0
 49
0.075
 74
     0
 49
-0.075
 74
     0
  0
LTYPE
  5
1F6
330
5
100
AcDbSymbolTableRecord
100
AcDbLinetypeTableRecord
  2
HIDDEN
 70
     0
  3
- - - - - - - - - - - - - - - - - - - -
 72
    65
 73
     2
 40
0.2
 49
0.1
 74
     0
 49
-0.1
 74
     0
  0
LTYPE
  5
1F7
330
5
100
AcDbSymbolTableRecord
100
AcDbLinetypeTableRecord
  2
PHANTOM
 70
     0
  3
_____ _ _ _____ _ _ _____ _ _ _____
 72
    65
 73
     6
 40
0.8
 49
0.45
 74
     0
 49
-0.05
 74
     0
 49
0.1
 74
     0
 49
-0.05
 74
     0
 49
0.1
 74
     0
 49
-0.05
 74
     0
  0
LTYPE
  5
1F8
330
5
100
AcDbSymbolTableRecord
100
AcDbLinetypeTableRecord
  2
DOT
 70
     0
  3
. . . . . . . . . . . . . . . . . . . .
 72
    65
 73
     2
 40
0.2
 49
0.1
 74
     0
 49
-0.1
 74
     0
  0
LTYPE
  5
1F9
330
5
100
AcDbSymbolTableRecord
100
AcDbLinetypeTableRecord
  2
DASHED
 70
     0
  3
- - - - - - - - - - - - - - - - - - - -
 72
    65
 73
     2
 40
0.2
 49
0.1
 74
     0
 49
-0.1
 74
     0
  0
ENDTAB
  0
TABLE
  2
LAYER
  5
2
330
0
100
AcDbSymbolTable
 70
    36
  0
LAYER
  5
10
330
2
100
AcDbSymbolTableRecord
100
AcDbLayerTableRecord
  2
0
 70
     0
 62
     7
  6
CONTINUOUS
370
    -3
390
613
347
655
348
0
  0
LAYER
  5
1FA
330
2
100
AcDbSymbolTableRecord
100
AcDbLayerTableRecord
  2
DEFAULT_1
 70
     0
 62
     7
  6
CENTER
370
    -3
390
613
347
655
348
0
  0
LAYER
  5
1FB
330
2
100
AcDbSymbolTableRecord
100
AcDbLayerTableRecord
  2
DEFAULT_2
 70
     0
 62
     8
  6
HIDDEN
370
    -3
390
613
347
655
348
0
  0
LAYER
  5
1FC
330
2
100
AcDbSymbolTableRecord
100
AcDbLayerTableRecord
  2
DEFAULT_3
 70
     0
 62
     7
  6
PHANTOM
370
    -3
390
613
347
655
348
0
  0
LAYER
  5
1FD
330
2
100
AcDbSymbolTableRecord
100
AcDbLayerTableRecord
  2
01_ALL_DTM_PLN
 70
     0
 62
     7
  6
CONTINUOUS
370
    -3
390
613
347
655
348
0
  0
LAYER
  5
1FE
330
2
100
AcDbSymbolTableRecord
100
AcDbLayerTableRecord
  2
01__ASM_ALL_DTM_PLN
 70
     0
 62
     7
  6
CONTINUOUS
370
    -3
390
613
347
655
348
0
  0
LAYER
  5
1FF
330
2
100
AcDbSymbolTableRecord
100
AcDbLayerTableRecord
  2
01__ASM_DEF_DTM_PLN
 70
     0
 62
     7
  6
CONTINUOUS
370
    -3
390
613
347
655
348
0
  0
LAYER
  5
200
330
2
100
AcDbSymbolTableRecord
100
AcDbLayerTableRecord
  2
01___PRT_ALL_DTM_PLN
 70
     0
 62
     7
  6
CONTINUOUS
370
    -3
390
613
347
655
348
0
  0
LAYER
  5
201
330
2
100
AcDbSymbolTableRecord
100
AcDbLayerTableRecord
  2
01___PRT_DEF_DTM_PLN
 70
     0
 62
     7
  6
CONTINUOUS
370
    -3
390
613
347
655
348
0
  0
LAYER
  5
202
330
2
100
AcDbSymbolTableRecord
100
AcDbLayerTableRecord
  2
02_ALL_AXES
 70
     0
 62
     7
  6
CONTINUOUS
370
    -3
390
613
347
655
348
0
  0
LAYER
  5
203
330
2
100
AcDbSymbolTableRecord
100
AcDbLayerTableRecord
  2
02__ASM_ALL_AXES
 70
     0
 62
     7
  6
CONTINUOUS
370
    -3
390
613
347
655
348
0
  0
LAYER
  5
204
330
2
100
AcDbSymbolTableRecord
100
AcDbLayerTableRecord
  2
02___PRT_ALL_AXES
 70
     0
 62
     7
  6
CONTINUOUS
370
    -3
390
613
347
655
348
0
  0
LAYER
  5
205
330
2
100
AcDbSymbolTableRecord
100
AcDbLayerTableRecord
  2
03_ALL_CURVES
 70
     0
 62
     7
  6
CONTINUOUS
370
    -3
390
613
347
655
348
0
  0
LAYER
  5
206
330
2
100
AcDbSymbolTableRecord
100
AcDbLayerTableRecord
  2
03__ASM_ALL_CURVES
 70
     0
 62
     7
  6
CONTINUOUS
370
    -3
390
613
347
655
348
0
  0
LAYER
  5
207
330
2
100
AcDbSymbolTableRecord
100
AcDbLayerTableRecord
  2
03___PRT_ALL_CURVES
 70
     0
 62
     7
  6
CONTINUOUS
370
    -3
390
613
347
655
348
0
  0
LAYER
  5
208
330
2
100
AcDbSymbolTableRecord
100
AcDbLayerTableRecord
  2
04_ALL_DTM_PNT
 70
     0
 62
     7
  6
CONTINUOUS
370
    -3
390
613
347
655
348
0
  0
LAYER
  5
209
330
2
100
AcDbSymbolTableRecord
100
AcDbLayerTableRecord
  2
04__ASM_ALL_DTM_PNT
 70
     0
 62
     7
  6
CONTINUOUS
370
    -3
390
613
347
655
348
0
  0
LAYER
  5
20A
330
2
100
AcDbSymbolTableRecord
100
AcDbLayerTableRecord
  2
04___PRT_ALL_DTM_PNT
 70
     0
 62
     7
  6
CONTINUOUS
370
    -3
390
613
347
655
348
0
  0
LAYER
  5
20B
330
2
100
AcDbSymbolTableRecord
100
AcDbLayerTableRecord
  2
05_ALL_DTM_CSYS
 70
     0
 62
     7
  6
CONTINUOUS
370
    -3
390
613
347
655
348
0
  0
LAYER
  5
20C
330
2
100
AcDbSymbolTableRecord
100
AcDbLayerTableRecord
  2
05__ASM_ALL_DTM_CSYS
 70
     0
 62
     7
  6
CONTINUOUS
370
    -3
390
613
347
655
348
0
  0
LAYER
  5
20D
330
2
100
AcDbSymbolTableRecord
100
AcDbLayerTableRecord
  2
05__ASM_DEF_DTM_CSYS
 70
     0
 62
     7
  6
CONTINUOUS
370
    -3
390
613
347
655
348
0
  0
LAYER
  5
20E
330
2
100
AcDbSymbolTableRecord
100
AcDbLayerTableRecord
  2
05___PRT_ALL_DTM_CSYS
 70
     0
 62
     7
  6
CONTINUOUS
370
    -3
390
613
347
655
348
0
  0
LAYER
  5
20F
330
2
100
AcDbSymbolTableRecord
100
AcDbLayerTableRecord
  2
05___PRT_DEF_DTM_CSYS
 70
     0
 62
     7
  6
CONTINUOUS
370
    -3
390
613
347
655
348
0
  0
LAYER
  5
210
330
2
100
AcDbSymbolTableRecord
100
AcDbLayerTableRecord
  2
06_ALL_SURFS
 70
     0
 62
     7
  6
CONTINUOUS
370
    -3
390
613
347
655
348
0
  0
LAYER
  5
211
330
2
100
AcDbSymbolTableRecord
100
AcDbLayerTableRecord
  2
06__ASM_ALL_SURFS
 70
     0
 62
     7
  6
CONTINUOUS
370
    -3
390
613
347
655
348
0
  0
LAYER
  5
212
330
2
100
AcDbSymbolTableRecord
100
AcDbLayerTableRecord
  2
06___PRT_ALL_SURFS
 70
     0
 62
     7
  6
CONTINUOUS
370
    -3
390
613
347
655
348
0
  0
LAYER
  5
213
330
2
100
AcDbSymbolTableRecord
100
AcDbLayerTableRecord
  2
07__ASM_ALL_SKELETONS
 70
     0
 62
     7
  6
CONTINUOUS
370
    -3
390
613
347
655
348
0
  0
LAYER
  5
214
330
2
100
AcDbSymbolTableRecord
100
AcDbLayerTableRecord
  2
1_ALL_PLANES
 70
     0
 62
     7
  6
CONTINUOUS
370
    -3
390
613
347
655
348
0
  0
LAYER
  5
215
330
2
100
AcDbSymbolTableRecord
100
AcDbLayerTableRecord
  2
2_ALL_CSYS
 70
     0
 62
     7
  6
CONTINUOUS
370
    -3
390
613
347
655
348
0
  0
LAYER
  5
216
330
2
100
AcDbSymbolTableRecord
100
AcDbLayerTableRecord
  2
3_ALL_AXES
 70
     0
 62
     7
  6
CONTINUOUS
370
    -3
390
613
347
655
348
0
  0
LAYER
  5
217
330
2
100
AcDbSymbolTableRecord
100
AcDbLayerTableRecord
  2
4_ALL_POINTS
 70
     0
 62
     7
  6
CONTINUOUS
370
    -3
390
613
347
655
348
0
  0
LAYER
  5
218
330
2
100
AcDbSymbolTableRecord
100
AcDbLayerTableRecord
  2
5_ALL_CURVES
 70
     0
 62
     7
  6
CONTINUOUS
370
    -3
390
613
347
655
348
0
  0
LAYER
  5
219
330
2
100
AcDbSymbolTableRecord
100
AcDbLayerTableRecord
  2
6_ALL_SURFS
 70
     0
 62
     7
  6
CONTINUOUS
370
    -3
390
613
347
655
348
0
  0
LAYER
  5
21A
330
2
100
AcDbSymbolTableRecord
100
AcDbLayerTableRecord
  2
7_ALL_FEATURES
 70
     0
 62
     7
  6
CONTINUOUS
370
    -3
390
613
347
655
348
0
  0
LAYER
  5
21B
330
2
100
AcDbSymbolTableRecord
100
AcDbLayerTableRecord
  2
8_ALL_NOTES_BALLOONS_SYMBOLS_GT
 70
     0
 62
     7
  6
CONTINUOUS
370
    -3
390
613
347
655
348
0
  0
LAYER
  5
21C
330
2
100
AcDbSymbolTableRecord
100
AcDbLayerTableRecord
  2
9_SOLID
 70
     0
 62
     7
  6
CONTINUOUS
370
    -3
390
613
347
655
348
0
  0
ENDTAB
  0
TABLE
  2
STYLE
  5
3
330
0
100
AcDbSymbolTable
 70
     5
  0
STYLE
  5
11
330
3
100
AcDbSymbolTableRecord
100
AcDbTextStyleTableRecord
  2
STANDARD
 70
     0
 40
0.0
 41
0.85
 50
0.0
 71
     0
 42
0.2
  3
txt
  4

  0
STYLE
  5
21D
330
3
100
AcDbSymbolTableRecord
100
AcDbTextStyleTableRecord
  2
TEXTSTYLE_1
 70
     0
 40
0.0
 41
0.8
 50
0.0
 71
     0
 42
0.2
  3
gdt
  4

  0
STYLE
  5
21E
330
3
100
AcDbSymbolTableRecord
100
AcDbTextStyleTableRecord
  2
TEXTSTYLE_2
 70
     0
 40
0.0
 41
0.9
 50
0.0
 71
     0
 42
0.2
  3
txt
  4

  0
STYLE
  5
21F
330
3
100
AcDbSymbolTableRecord
100
AcDbTextStyleTableRecord
  2
TEXTSTYLE_3
 70
     0
 40
0.0
 41
0.9
 50
0.0
 71
     0
 42
0.2
  3
txt
  4

  0
STYLE
  5
220
330
3
100
AcDbSymbolTableRecord
100
AcDbTextStyleTableRecord
  2
TEXTSTYLE_4
 70
     0
 40
0.0
 41
2.0
 50
0.0
 71
     0
 42
0.2
  3
txt
  4

  0
ENDTAB
  0
TABLE
  2
VIEW
  5
6
330
0
100
AcDbSymbolTable
 70
     0
  0
ENDTAB
  0
TABLE
  2
UCS
  5
7
330
0
100
AcDbSymbolTable
 70
     0
  0
ENDTAB
  0
TABLE
  2
APPID
  5
9
330
0
100
AcDbSymbolTable
 70
     1
  0
APPID
  5
221
330
9
100
AcDbSymbolTableRecord
100
AcDbRegAppTableRecord
  2
ACAD
 70
     0
  0
ENDTAB
  0
TABLE
  2
DIMSTYLE
  5
A
330
0
100
AcDbSymbolTable
 70
     4
100
AcDbDimStyleTable
  0
DIMSTYLE
105
22A
330
A
100
AcDbSymbolTableRecord
100
AcDbDimStyleTableRecord
  2
STANDARD
 70
     0
 41
5.0
 42
0.75
 44
0.75
 47
0.01
 48
0.01
 71
     1
 73
     0
 74
     0
 77
     1
 78
     8
 79
     2
140
6.0
147
0.625
171
     1
178
     0
179
     2
271
     2
272
     2
284
     8
340
11
341
222
342
222
343
222
344
222
  0
DIMSTYLE
105
22B
330
A
100
AcDbSymbolTableRecord
100
AcDbDimStyleTableRecord
  2
DIMSTYLE_1
 70
     0
 41
5.0
 42
0.75
 44
0.75
 47
0.3
 48
0.3
 73
     0
 74
     0
 77
     1
 78
     8
 79
     2
140
6.0
147
0.75
171
     1
178
     0
271
     0
272
     0
284
     8
340
11
341
222
342
222
343
222
344
222
  0
DIMSTYLE
105
22C
330
A
100
AcDbSymbolTableRecord
100
AcDbDimStyleTableRecord
  2
DIMSTYLE_2
 70
     0
 41
5.0
 42
0.75
 44
0.75
 47
0.3
 48
0.3
 73
     0
 74
     0
 77
     1
 78
     8
 79
     2
140
6.0
147
0.75
171
     1
178
     0
179
     2
271
     2
272
     2
284
     8
340
11
341
222
342
222
343
222
344
222
  0
DIMSTYLE
105
22D
330
A
100
AcDbSymbolTableRecord
100
AcDbDimStyleTableRecord
  2
DIMSTYLE_3
 70
     0
 41
5.0
 42
0.75
 44
0.75
 47
0.8
 48
0.8
 73
     0
 74
     0
 77
     1
 78
     8
 79
     2
140
6.0
147
0.75
171
     1
178
     0
179
     2
271
     2
272
     2
284
     8
340
11
341
222
342
222
343
222
344
222
  0
ENDTAB
  0
TABLE
  2
BLOCK_RECORD
  5
1
330
0
100
AcDbSymbolTable
 70
     8
  0
BLOCK_RECORD
  5
1F
330
1
100
AcDbSymbolTableRecord
100
AcDbBlockTableRecord
  2
*MODEL_SPACE
340
637
 70
     0
280
     1
281
     0
  0
BLOCK_RECORD
  5
1B
330
1
100
AcDbSymbolTableRecord
100
AcDbBlockTableRecord
  2
*PAPER_SPACE
340
638
 70
     0
280
     1
281
     0
  0
BLOCK_RECORD
  5
222
330
1
100
AcDbSymbolTableRecord
100
AcDbBlockTableRecord
  2
_CLOSED
340
0
102
{BLKREFS
331
280
331
281
331
289
331
28A
331
292
331
293
331
29B
331
29C
331
2A4
331
2A5
102
}
 70
     0
280
     1
281
     0
  0
BLOCK_RECORD
  5
223
330
1
100
AcDbSymbolTableRecord
100
AcDbBlockTableRecord
  2
*D1
340
0
 70
     0
280
     1
281
     0
  0
BLOCK_RECORD
  5
224
330
1
100
AcDbSymbolTableRecord
100
AcDbBlockTableRecord
  2
*D2
340
0
 70
     0
280
     1
281
     0
  0
BLOCK_RECORD
  5
225
330
1
100
AcDbSymbolTableRecord
100
AcDbBlockTableRecord
  2
*D3
340
0
 70
     0
280
     1
281
     0
  0
BLOCK_RECORD
  5
226
330
1
100
AcDbSymbolTableRecord
100
AcDbBlockTableRecord
  2
*D4
340
0
 70
     0
280
     1
281
     0
  0
BLOCK_RECORD
  5
227
330
1
100
AcDbSymbolTableRecord
100
AcDbBlockTableRecord
  2
*D5
340
0
 70
     0
280
     1
281
     0
  0
BLOCK_RECORD
  5
228
330
1
100
AcDbSymbolTableRecord
100
AcDbBlockTableRecord
  2
LOGO2_BL1
340
0
102
{BLKREFS
331
5FB
102
}
 70
     0
280
     1
281
     0
  0
BLOCK_RECORD
  5
229
330
1
100
AcDbSymbolTableRecord
100
AcDbBlockTableRecord
  2
PROIEZIONE_EU_BL0
340
0
102
{BLKREFS
331
5F8
102
}
 70
     0
280
     1
281
     0
  0
ENDTAB
  0
ENDSEC
  0
SECTION
  2
BLOCKS
  0
BLOCK
  5
20
330
1F
100
AcDbEntity
  8
0
100
AcDbBlockBegin
  2
*MODEL_SPACE
 70
     0
 10
0.0
 20
0.0
 30
0.0
  3
*MODEL_SPACE
  1

  0
ENDBLK
  5
21
330
1F
100
AcDbEntity
  8
0
100
AcDbBlockEnd
  0
BLOCK
  5
1C
330
1B
100
AcDbEntity
 67
     1
  8
0
100
AcDbBlockBegin
  2
*PAPER_SPACE
 70
     0
 10
0.0
 20
0.0
 30
0.0
  3
*PAPER_SPACE
  1

  0
ENDBLK
  5
1D
330
1B
100
AcDbEntity
 67
     1
  8
0
100
AcDbBlockEnd
  0
BLOCK
  5
274
330
222
100
AcDbEntity
  8
0
100
AcDbBlockBegin
  2
_CLOSED
 70
     0
 10
0.0
 20
0.0
 30
0.0
  3
_CLOSED
  1

  0
LINE
  5
275
330
222
100
AcDbEntity
  8
0
  6
ByBlock
 62
     0
100
AcDbLine
 10
0.0
 20
0.0
 30
0.0
 11
-1.0
 21
0.2
 31
0.0
  0
LINE
  5
276
330
222
100
AcDbEntity
  8
0
  6
ByBlock
 62
     0
100
AcDbLine
 10
-1.0
 20
0.2
 30
0.0
 11
-1.0
 21
-0.2
 31
0.0
  0
LINE
  5
277
330
222
100
AcDbEntity
  8
0
  6
ByBlock
 62
     0
100
AcDbLine
 10
-1.0
 20
-0.2
 30
0.0
 11
0.0
 21
0.0
 31
0.0
  0
LINE
  5
278
330
222
100
AcDbEntity
  8
0
  6
ByBlock
 62
     0
100
AcDbLine
 10
-1.0
 20
0.0
 30
0.0
 11
0.0
 21
0.0
 31
0.0
  0
ENDBLK
  5
279
330
222
100
AcDbEntity
  8
0
  6
ByBlock
 62
     0
100
AcDbBlockEnd
  0
BLOCK
  5
27A
330
223
100
AcDbEntity
  8
0
100
AcDbBlockBegin
  2
*D1
 70
     1
 10
0.0
 20
0.0
 30
0.0
  3
*D1
  1

  0
MTEXT
  5
27B
330
223
100
AcDbEntity
  8
0
  6
Continuous
 62
     2
100
AcDbMText
 10
593.1004840704
 20
468.9021431605
 30
0.0
 40
6.0
 41
14.1428571429
 46
0.0
 71
     2
 72
     1
  1
90
 11
0.0
 21
1.0
 31
0.0
 73
     1
 44
1.0
  0
LINE
  5
27C
330
223
100
AcDbEntity
  8
0
  6
Continuous
 62
     2
100
AcDbLine
 10
564.0781906031
 20
514.0271431605
 30
0.0
 11
602.1004840704
 21
514.0271431605
 31
0.0
  0
LINE
  5
27D
330
223
100
AcDbEntity
  8
0
  6
Continuous
 62
     2
100
AcDbLine
 10
512.8281906031
 20
423.7771431605
 30
0.0
 11
602.1004840704
 21
423.7771431605
 31
0.0
  0
LINE
  5
27E
330
223
100
AcDbEntity
  8
0
  6
Continuous
 62
     2
100
AcDbLine
 10
600.6004840704
 20
514.0271431605
 30
0.0
 11
600.6004840704
 21
468.9021431605
 31
0.0
  0
LINE
  5
27F
330
223
100
AcDbEntity
  8
0
  6
Continuous
 62
     2
100
AcDbLine
 10
600.6004840704
 20
423.7771431605
 30
0.0
 11
600.6004840704
 21
468.9021431605
 31
0.0
  0
INSERT
  5
280
330
223
100
AcDbEntity
  8
0
  6
Continuous
 62
     2
100
AcDbBlockReference
  2
_CLOSED
 10
600.6004840704
 20
514.0271431605
 30
0.0
 41
5.0
 42
5.0
 43
5.0
 50
90.0
  0
INSERT
  5
281
330
223
100
AcDbEntity
  8
0
  6
Continuous
 62
     2
100
AcDbBlockReference
  2
_CLOSED
 10
600.6004840704
 20
423.7771431605
 30
0.0
 41
5.0
 42
5.0
 43
5.0
 50
270.0
  0
ENDBLK
  5
282
330
223
100
AcDbEntity
  8
0
  6
ByBlock
 62
     0
100
AcDbBlockEnd
  0
BLOCK
  5
283
330
224
100
AcDbEntity
  8
0
100
AcDbBlockBegin
  2
*D2
 70
     1
 10
0.0
 20
0.0
 30
0.0
  3
*D2
  1

  0
MTEXT
  5
284
330
224
100
AcDbEntity
  8
0
  6
Continuous
 62
     2
100
AcDbMText
 10
711.4963840794
 20
412.0798865229
 30
0.0
 40
6.0
 41
14.1428571429
 46
0.0
 71
     2
 72
     1
  1
89
 73
     1
 44
1.0
  0
LINE
  5
285
330
224
100
AcDbEntity
  8
0
  6
Continuous
 62
     2
100
AcDbLine
 10
666.9963840794
 20
414.5651027724
 30
0.0
 11
666.9963840794
 21
403.0798865229
 31
0.0
  0
LINE
  5
286
330
224
100
AcDbEntity
  8
0
  6
Continuous
 62
     2
100
AcDbLine
 10
755.9963840794
 20
414.5651027724
 30
0.0
 11
755.9963840794
 21
403.0798865229
 31
0.0
  0
LINE
  5
287
330
224
100
AcDbEntity
  8
0
  6
Continuous
 62
     2
100
AcDbLine
 10
666.9963840794
 20
404.5798865229
 30
0.0
 11
711.4963840794
 21
404.5798865229
 31
0.0
  0
LINE
  5
288
330
224
100
AcDbEntity
  8
0
  6
Continuous
 62
     2
100
AcDbLine
 10
755.9963840794
 20
404.5798865229
 30
0.0
 11
711.4963840794
 21
404.5798865229
 31
0.0
  0
INSERT
  5
289
330
224
100
AcDbEntity
  8
0
  6
Continuous
 62
     2
100
AcDbBlockReference
  2
_CLOSED
 10
666.9963840794
 20
404.5798865229
 30
0.0
 41
5.0
 42
5.0
 43
5.0
 50
180.0
  0
INSERT
  5
28A
330
224
100
AcDbEntity
  8
0
  6
Continuous
 62
     2
100
AcDbBlockReference
  2
_CLOSED
 10
755.9963840794
 20
404.5798865229
 30
0.0
 41
5.0
 42
5.0
 43
5.0
  0
ENDBLK
  5
28B
330
224
100
AcDbEntity
  8
0
  6
ByBlock
 62
     0
100
AcDbBlockEnd
  0
BLOCK
  5
28C
330
225
100
AcDbEntity
  8
0
100
AcDbBlockBegin
  2
*D3
 70
     1
 10
0.0
 20
0.0
 30
0.0
  3
*D3
  1

  0
MTEXT
  5
28D
330
225
100
AcDbEntity
  8
0
  6
Continuous
 62
     2
100
AcDbMText
 10
579.7315772095
 20
251.394998362
 30
0.0
 40
6.0
 41
14.1428571429
 46
0.0
 71
     2
 72
     1
  1
44
 11
0.0
 21
1.0
 31
0.0
 73
     1
 44
1.0
  0
LINE
  5
28E
330
225
100
AcDbEntity
  8
0
  6
Continuous
 62
     2
100
AcDbLine
 10
562.0781906031
 20
273.244998362
 30
0.0
 11
588.7315772095
 21
273.244998362
 31
0.0
  0
LINE
  5
28F
330
225
100
AcDbEntity
  8
0
  6
Continuous
 62
     2
100
AcDbLine
 10
562.0781906031
 20
229.544998362
 30
0.0
 11
588.7315772095
 21
229.544998362
 31
0.0
  0
LINE
  5
290
330
225
100
AcDbEntity
  8
0
  6
Continuous
 62
     2
100
AcDbLine
 10
587.2315772095
 20
273.244998362
 30
0.0
 11
587.2315772095
 21
251.394998362
 31
0.0
  0
LINE
  5
291
330
225
100
AcDbEntity
  8
0
  6
Continuous
 62
     2
100
AcDbLine
 10
587.2315772095
 20
229.544998362
 30
0.0
 11
587.2315772095
 21
251.394998362
 31
0.0
  0
INSERT
  5
292
330
225
100
AcDbEntity
  8
0
  6
Continuous
 62
     2
100
AcDbBlockReference
  2
_CLOSED
 10
587.2315772095
 20
273.244998362
 30
0.0
 41
5.0
 42
5.0
 43
5.0
 50
90.0
  0
INSERT
  5
293
330
225
100
AcDbEntity
  8
0
  6
Continuous
 62
     2
100
AcDbBlockReference
  2
_CLOSED
 10
587.2315772095
 20
229.544998362
 30
0.0
 41
5.0
 42
5.0
 43
5.0
 50
270.0
  0
ENDBLK
  5
294
330
225
100
AcDbEntity
  8
0
  6
ByBlock
 62
     0
100
AcDbBlockEnd
  0
BLOCK
  5
295
330
226
100
AcDbEntity
  8
0
100
AcDbBlockBegin
  2
*D4
 70
     1
 10
0.0
 20
0.0
 30
0.0
  3
*D4
  1

  0
MTEXT
  5
296
330
226
100
AcDbEntity
  8
0
  6
Continuous
 62
     2
100
AcDbMText
 10
593.1004840704
 20
251.394998362
 30
0.0
 40
6.0
 41
14.1428571429
 46
0.0
 71
     2
 72
     1
  1
89
 11
0.0
 21
1.0
 31
0.0
 73
     1
 44
1.0
  0
LINE
  5
297
330
226
100
AcDbEntity
  8
0
  6
Continuous
 62
     2
100
AcDbLine
 10
510.3281906031
 20
206.894998362
 30
0.0
 11
602.1004840704
 21
206.894998362
 31
0.0
  0
LINE
  5
298
330
226
100
AcDbEntity
  8
0
  6
Continuous
 62
     2
100
AcDbLine
 10
510.3281906031
 20
295.894998362
 30
0.0
 11
602.1004840704
 21
295.894998362
 31
0.0
  0
LINE
  5
299
330
226
100
AcDbEntity
  8
0
  6
Continuous
 62
     2
100
AcDbLine
 10
600.6004840704
 20
206.894998362
 30
0.0
 11
600.6004840704
 21
251.394998362
 31
0.0
  0
LINE
  5
29A
330
226
100
AcDbEntity
  8
0
  6
Continuous
 62
     2
100
AcDbLine
 10
600.6004840704
 20
295.894998362
 30
0.0
 11
600.6004840704
 21
251.394998362
 31
0.0
  0
INSERT
  5
29B
330
226
100
AcDbEntity
  8
0
  6
Continuous
 62
     2
100
AcDbBlockReference
  2
_CLOSED
 10
600.6004840704
 20
206.894998362
 30
0.0
 41
5.0
 42
5.0
 43
5.0
 50
270.0
  0
INSERT
  5
29C
330
226
100
AcDbEntity
  8
0
  6
Continuous
 62
     2
100
AcDbBlockReference
  2
_CLOSED
 10
600.6004840704
 20
295.894998362
 30
0.0
 41
5.0
 42
5.0
 43
5.0
 50
90.0
  0
ENDBLK
  5
29D
330
226
100
AcDbEntity
  8
0
  6
ByBlock
 62
     0
100
AcDbBlockEnd
  0
BLOCK
  5
29E
330
227
100
AcDbEntity
  8
0
100
AcDbBlockBegin
  2
*D5
 70
     1
 10
0.0
 20
0.0
 30
0.0
  3
*D5
  1

  0
MTEXT
  5
29F
330
227
100
AcDbEntity
  8
0
  6
Continuous
 62
     2
100
AcDbMText
 10
321.9587052991
 20
187.3577446067
 30
0.0
 40
6.0
 41
30.2142857143
 46
0.0
 71
     2
 72
     1
  1
512,5
 73
     1
 44
1.0
  0
LINE
  5
2A0
330
227
100
AcDbEntity
  8
0
  6
Continuous
 62
     2
100
AcDbLine
 10
562.5781906031
 20
229.694998362
 30
0.0
 11
562.5781906031
 21
178.3577446067
 31
0.0
  0
LINE
  5
2A1
330
227
100
AcDbEntity
  8
0
  6
Continuous
 62
     2
100
AcDbLine
 10
50.0781906031
 20
229.694998362
 30
0.0
 11
50.0781906031
 21
178.3577446067
 31
0.0
  0
LINE
  5
2A2
330
227
100
AcDbEntity
  8
0
  6
Continuous
 62
     2
100
AcDbLine
 10
562.5781906031
 20
179.8577446067
 30
0.0
 11
306.3281906031
 21
179.8577446067
 31
0.0
  0
LINE
  5
2A3
330
227
100
AcDbEntity
  8
0
  6
Continuous
 62
     2
100
AcDbLine
 10
50.0781906031
 20
179.8577446067
 30
0.0
 11
306.3281906031
 21
179.8577446067
 31
0.0
  0
INSERT
  5
2A4
330
227
100
AcDbEntity
  8
0
  6
Continuous
 62
     2
100
AcDbBlockReference
  2
_CLOSED
 10
562.5781906031
 20
179.8577446067
 30
0.0
 41
5.0
 42
5.0
 43
5.0
  0
INSERT
  5
2A5
330
227
100
AcDbEntity
  8
0
  6
Continuous
 62
     2
100
AcDbBlockReference
  2
_CLOSED
 10
50.0781906031
 20
179.8577446067
 30
0.0
 41
5.0
 42
5.0
 43
5.0
 50
180.0
  0
ENDBLK
  5
2A6
330
227
100
AcDbEntity
  8
0
  6
ByBlock
 62
     0
100
AcDbBlockEnd
  0
BLOCK
  5
22E
330
228
100
AcDbEntity
  8
0
100
AcDbBlockBegin
  2
LOGO2_BL1
 70
     0
 10
586.9765488808
 20
84.6089392083
 30
0.0
  3
LOGO2_BL1
  1

  0
LINE
  5
22F
330
228
100
AcDbEntity
  8
0
  6
Continuous
 62
     7
100
AcDbLine
 10
570.4623993372
 20
90.999921886
 30
0.0
 11
567.8537174785
 21
90.999921886
 31
0.0
  0
LINE
  5
230
330
228
100
AcDbEntity
  8
0
  6
Continuous
 62
     7
100
AcDbLine
 10
567.8537174785
 20
90.999921886
 30
0.0
 11
567.8537174785
 21
70.0817897663
 31
0.0
  0
LINE
  5
231
330
228
100
AcDbEntity
  8
0
  6
Continuous
 62
     7
100
AcDbLine
 10
567.8537174785
 20
70.0817897663
 30
0.0
 11
576.815827255
 21
70.0817897663
 31
0.0
  0
LINE
  5
232
330
228
100
AcDbEntity
  8
0
  6
Continuous
 62
     7
100
AcDbLine
 10
576.815827255
 20
70.0817897663
 30
0.0
 11
576.815827255
 21
72.4674984164
 31
0.0
  0
LINE
  5
233
330
228
100
AcDbEntity
  8
0
  6
Continuous
 62
     7
100
AcDbLine
 10
576.815827255
 20
72.4674984164
 30
0.0
 11
570.4623993372
 21
72.4674984164
 31
0.0
  0
LINE
  5
234
330
228
100
AcDbEntity
  8
0
  6
Continuous
 62
     7
100
AcDbLine
 10
570.4623993372
 20
72.4674984164
 30
0.0
 11
570.4623993372
 21
90.999921886
 31
0.0
  0
LINE
  5
235
330
228
100
AcDbEntity
  8
0
  6
Continuous
 62
     7
100
AcDbLine
 10
600.3350517698
 20
90.999921886
 30
0.0
 11
597.7274167336
 21
90.999921886
 31
0.0
  0
LINE
  5
236
330
228
100
AcDbEntity
  8
0
  6
Continuous
 62
     7
100
AcDbLine
 10
597.7274167336
 20
90.999921886
 30
0.0
 11
597.7274167336
 21
70.0817897663
 31
0.0
  0
LINE
  5
237
330
228
100
AcDbEntity
  8
0
  6
Continuous
 62
     7
100
AcDbLine
 10
597.7274167336
 20
70.0817897663
 30
0.0
 11
606.6897882158
 21
70.0817897663
 31
0.0
  0
LINE
  5
238
330
228
100
AcDbEntity
  8
0
  6
Continuous
 62
     7
100
AcDbLine
 10
606.6897882158
 20
70.0817897663
 30
0.0
 11
606.6897882158
 21
72.4674984164
 31
0.0
  0
LINE
  5
239
330
228
100
AcDbEntity
  8
0
  6
Continuous
 62
     7
100
AcDbLine
 10
606.6897882158
 20
72.4674984164
 30
0.0
 11
600.3350517698
 21
72.4674984164
 31
0.0
  0
LINE
  5
23A
330
228
100
AcDbEntity
  8
0
  6
Continuous
 62
     7
100
AcDbLine
 10
600.3350517698
 20
72.4674984164
 30
0.0
 11
600.3350517698
 21
90.999921886
 31
0.0
  0
LWPOLYLINE
  5
23B
330
228
100
AcDbEntity
  8
0
  6
Continuous
 62
     7
100
AcDbPolyline
 90
        2
 70
     0
 43
0.4
 10
564.5625073003
 20
63.3946871525
 10
564.5625073003
 20
59.6805606537
  0
LWPOLYLINE
  5
23C
330
228
100
AcDbEntity
  8
0
  6
Continuous
 62
     7
100
AcDbPolyline
 90
        2
 70
     0
 43
0.4
 10
564.5625073003
 20
59.6805606537
 10
566.1539393211
 20
59.6805606537
  0
LWPOLYLINE
  5
23D
330
228
100
AcDbEntity
  8
0
  6
Continuous
 62
     7
100
AcDbPolyline
 90
        2
 70
     0
 43
0.4
 10
566.1539393211
 20
59.6805606537
 10
566.1539393211
 20
60.1045237969
  0
LWPOLYLINE
  5
23E
330
228
100
AcDbEntity
  8
0
  6
Continuous
 62
     7
100
AcDbPolyline
 90
        2
 70
     0
 43
0.4
 10
566.1539393211
 20
60.1045237969
 10
565.0257262901
 20
60.1045237969
  0
LWPOLYLINE
  5
23F
330
228
100
AcDbEntity
  8
0
  6
Continuous
 62
     7
100
AcDbPolyline
 90
        2
 70
     0
 43
0.4
 10
565.0257262901
 20
60.1045237969
 10
565.0257262901
 20
63.3946871525
  0
LWPOLYLINE
  5
240
330
228
100
AcDbEntity
  8
0
  6
Continuous
 62
     7
100
AcDbPolyline
 90
        2
 70
     0
 43
0.4
 10
565.0257262901
 20
63.3946871525
 10
564.5625073003
 20
63.3946871525
  0
SPLINE
  5
241
330
228
100
AcDbEntity
  8
0
  6
Continuous
 62
     7
100
AcDbSpline
 70
     3
 71
     3
 72
    35
 73
    31
 74
     0
 42
0.000000001
 43
0.0000001
 40
0.0
 40
0.0
 40
0.0
 40
0.0
 40
1.0
 40
1.0
 40
1.0
 40
2.0
 40
2.0
 40
2.0
 40
3.0
 40
3.0
 40
3.0
 40
4.0
 40
4.0
 40
4.0
 40
5.0
 40
5.0
 40
5.0
 40
6.0
 40
6.0
 40
6.0
 40
7.0
 40
7.0
 40
7.0
 40
8.0
 40
8.0
 40
8.0
 40
9.0
 40
9.0
 40
9.0
 40
10.0
 40
10.0
 40
10.0
 40
10.0
 10
568.9505258322
 20
61.9856639655
 30
0.0
 10
568.9505258322
 20
61.9856639655
 30
0.0
 10
568.9505258322
 20
60.6614334072
 30
0.0
 10
568.9505258322
 20
60.6614334072
 30
0.0
 10
568.9505258322
 20
60.0312462166
 30
0.0
 10
569.2462532098
 20
59.6020489606
 30
0.0
 10
569.9264261784
 20
59.6020489606
 30
0.0
 10
570.6055523244
 20
59.6020489606
 30
0.0
 10
570.9018031134
 20
60.0312462166
 30
0.0
 10
570.9018031134
 20
60.6614334072
 30
0.0
 10
570.9018031134
 20
60.6614334072
 30
0.0
 10
570.9018031134
 20
61.9856639655
 30
0.0
 10
570.9018031134
 20
61.9856639655
 30
0.0
 10
570.9018031134
 20
61.9856639655
 30
0.0
 10
570.4576886356
 20
61.9856639655
 30
0.0
 10
570.4576886356
 20
61.9856639655
 30
0.0
 10
570.4576886356
 20
61.9856639655
 30
0.0
 10
570.4576886356
 20
60.7116808908
 30
0.0
 10
570.4576886356
 20
60.7116808908
 30
0.0
 10
570.4576886356
 20
60.3400588765
 30
0.0
 10
570.3642597207
 20
60.0144970554
 30
0.0
 10
569.9264261784
 20
60.0144970554
 30
0.0
 10
569.4875458135
 20
60.0144970554
 30
0.0
 10
569.3941168987
 20
60.3400588765
 30
0.0
 10
569.3941168987
 20
60.7116808908
 30
0.0
 10
569.3941168987
 20
60.7116808908
 30
0.0
 10
569.3941168987
 20
61.9856639655
 30
0.0
 10
569.3941168987
 20
61.9856639655
 30
0.0
 10
569.3941168987
 20
61.9856639655
 30
0.0
 10
568.9505258322
 20
61.9856639655
 30
0.0
 10
568.9505258322
 20
61.9856639655
 30
0.0
  0
SPLINE
  5
242
330
228
100
AcDbEntity
  8
0
  6
Continuous
 62
     7
100
AcDbSpline
 70
     3
 71
     3
 72
    35
 73
    31
 74
     0
 42
0.000000001
 43
0.0000001
 40
0.0
 40
0.0
 40
0.0
 40
0.0
 40
1.0
 40
1.0
 40
1.0
 40
2.0
 40
2.0
 40
2.0
 40
3.0
 40
3.0
 40
3.0
 40
4.0
 40
4.0
 40
4.0
 40
5.0
 40
5.0
 40
5.0
 40
6.0
 40
6.0
 40
6.0
 40
7.0
 40
7.0
 40
7.0
 40
8.0
 40
8.0
 40
8.0
 40
9.0
 40
9.0
 40
9.0
 40
10.0
 40
10.0
 40
10.0
 40
10.0
 10
575.7480682278
 20
61.902964982
 30
0.0
 10
575.5711552125
 20
62.0055535945
 30
0.0
 10
575.3442564192
 20
62.0558010781
 30
0.0
 10
575.1369855492
 20
62.0558010781
 30
0.0
 10
574.4272398428
 20
62.0558010781
 30
0.0
 10
573.8763494623
 20
61.5282024999
 30
0.0
 10
573.8763494623
 20
60.8132226807
 30
0.0
 10
573.8763494623
 20
60.1233666033
 30
0.0
 10
574.4332590726
 20
59.6030957831
 30
0.0
 10
575.1123852186
 20
59.6030957831
 30
0.0
 10
575.3442564192
 20
59.6030957831
 30
0.0
 10
575.545769765
 20
59.6470623313
 30
0.0
 10
575.7480682278
 20
59.7548850566
 30
0.0
 10
575.7480682278
 20
59.7548850566
 30
0.0
 10
575.7480682278
 20
60.3201692475
 30
0.0
 10
575.7480682278
 20
60.3201692475
 30
0.0
 10
575.58031491
 20
60.133834829
 30
0.0
 10
575.3733057456
 20
60.015543878
 30
0.0
 10
575.1170959202
 20
60.015543878
 30
0.0
 10
574.6496896402
 20
60.015543878
 30
0.0
 10
574.3191554119
 20
60.3599485054
 30
0.0
 10
574.3191554119
 20
60.8331123096
 30
0.0
 10
574.3191554119
 20
61.2570754528
 30
0.0
 10
574.6546620474
 20
61.6412593381
 30
0.0
 10
575.0883082994
 20
61.6412593381
 30
0.0
 10
575.353939528
 20
61.6412593381
 30
0.0
 10
575.5711552125
 20
61.5334366128
 30
0.0
 10
575.7480682278
 20
61.3313998557
 30
0.0
 10
575.7480682278
 20
61.3313998557
 30
0.0
 10
575.7480682278
 20
61.902964982
 30
0.0
 10
575.7480682278
 20
61.902964982
 30
0.0
  0
SPLINE
  5
243
330
228
100
AcDbEntity
  8
0
  6
Continuous
 62
     7
100
AcDbSpline
 70
     3
 71
     3
 72
    32
 73
    28
 74
     0
 42
0.000000001
 43
0.0000001
 40
0.0
 40
0.0
 40
0.0
 40
0.0
 40
1.0
 40
1.0
 40
1.0
 40
2.0
 40
2.0
 40
2.0
 40
3.0
 40
3.0
 40
3.0
 40
4.0
 40
4.0
 40
4.0
 40
5.0
 40
5.0
 40
5.0
 40
6.0
 40
6.0
 40
6.0
 40
7.0
 40
7.0
 40
7.0
 40
8.0
 40
8.0
 40
8.0
 40
9.0
 40
9.0
 40
9.0
 40
9.0
 10
580.8118107323
 20
60.7598347293
 30
0.0
 10
580.8118107323
 20
60.7598347293
 30
0.0
 10
580.8118107323
 20
60.8278781968
 30
0.0
 10
580.8118107323
 20
60.8278781968
 30
0.0
 10
580.8118107323
 20
61.5125001613
 30
0.0
 10
580.4660975766
 20
62.0558010781
 30
0.0
 10
579.7327983623
 20
62.0558010781
 30
0.0
 10
578.9895543335
 20
62.0558010781
 30
0.0
 10
578.6100811498
 20
61.522968387
 30
0.0
 10
578.6100811498
 20
60.8132226807
 30
0.0
 10
578.6100811498
 20
60.133834829
 30
0.0
 10
579.0382315833
 20
59.6020489606
 30
0.0
 10
579.7424814711
 20
59.6020489606
 30
0.0
 10
580.1905215335
 20
59.6020489606
 30
0.0
 10
580.5948567534
 20
59.8333967498
 30
0.0
 10
580.8118107323
 20
60.2322361512
 30
0.0
 10
580.8118107323
 20
60.2322361512
 30
0.0
 10
580.4365248388
 20
60.4457879566
 30
0.0
 10
580.4365248388
 20
60.4457879566
 30
0.0
 10
580.269556638
 20
60.168379974
 30
0.0
 10
580.0871478042
 20
59.9967010716
 30
0.0
 10
579.7479772897
 20
59.9967010716
 30
0.0
 10
579.3240141465
 20
59.9967010716
 30
0.0
 10
579.0581212122
 20
60.3662294409
 30
0.0
 10
579.0534105107
 20
60.7598347293
 30
0.0
 10
579.0534105107
 20
60.7598347293
 30
0.0
 10
580.8118107323
 20
60.7598347293
 30
0.0
 10
580.8118107323
 20
60.7598347293
 30
0.0
  0
SPLINE
  5
244
330
228
100
AcDbEntity
  8
0
  6
Continuous
 62
     7
100
AcDbSpline
 70
     3
 71
     3
 72
    14
 73
    10
 74
     0
 42
0.000000001
 43
0.0000001
 40
0.0
 40
0.0
 40
0.0
 40
0.0
 40
1.0
 40
1.0
 40
1.0
 40
2.0
 40
2.0
 40
2.0
 40
3.0
 40
3.0
 40
3.0
 40
3.0
 10
579.0774874299
 20
61.0948179536
 30
0.0
 10
579.1327073208
 20
61.4245670649
 30
0.0
 10
579.3883937349
 20
61.6705703702
 30
0.0
 10
579.7327983623
 20
61.6705703702
 30
0.0
 10
580.0871478042
 20
61.6705703702
 30
0.0
 10
580.3140465975
 20
61.439222581
 30
0.0
 10
580.3684813714
 20
61.0948179536
 30
0.0
 10
580.3684813714
 20
61.0948179536
 30
0.0
 10
579.0774874299
 20
61.0948179536
 30
0.0
 10
579.0774874299
 20
61.0948179536
 30
0.0
  0
SPLINE
  5
245
330
228
100
AcDbEntity
  8
0
  6
Continuous
 62
     7
100
AcDbSpline
 70
     3
 71
     3
 72
    20
 73
    16
 74
     0
 42
0.000000001
 43
0.0000001
 40
0.0
 40
0.0
 40
0.0
 40
0.0
 40
1.0
 40
1.0
 40
1.0
 40
2.0
 40
2.0
 40
2.0
 40
3.0
 40
3.0
 40
3.0
 40
4.0
 40
4.0
 40
4.0
 40
5.0
 40
5.0
 40
5.0
 40
5.0
 10
584.8598736326
 20
61.5135469839
 30
0.0
 10
584.8598736326
 20
61.5135469839
 30
0.0
 10
585.6821527659
 20
60.5085973112
 30
0.0
 10
585.6821527659
 20
60.5085973112
 30
0.0
 10
585.4500198597
 20
60.2772495219
 30
0.0
 10
585.1744438166
 20
60.0165907006
 30
0.0
 10
584.8305626005
 20
60.0165907006
 30
0.0
 10
584.4756897473
 20
60.0165907006
 30
0.0
 10
584.1407065231
 20
60.3452929893
 30
0.0
 10
584.1407065231
 20
60.6991190199
 30
0.0
 10
584.1407065231
 20
61.0550386957
 30
0.0
 10
584.5602206703
 20
61.3073229364
 30
0.0
 10
584.8153836732
 20
61.4831891292
 30
0.0
 10
584.8153836732
 20
61.4831891292
 30
0.0
 10
584.8598736326
 20
61.5135469839
 30
0.0
 10
584.8598736326
 20
61.5135469839
 30
0.0
  0
SPLINE
  5
246
330
228
100
AcDbEntity
  8
0
  6
Continuous
 62
     7
100
AcDbSpline
 70
     3
 71
     3
 72
    23
 73
    19
 74
     0
 42
0.000000001
 43
0.0000001
 40
0.0
 40
0.0
 40
0.0
 40
0.0
 40
1.0
 40
1.0
 40
1.0
 40
2.0
 40
2.0
 40
2.0
 40
3.0
 40
3.0
 40
3.0
 40
4.0
 40
4.0
 40
4.0
 40
5.0
 40
5.0
 40
5.0
 40
6.0
 40
6.0
 40
6.0
 40
6.0
 10
584.9585366604
 20
62.095580336
 30
0.0
 10
584.9585366604
 20
62.095580336
 30
0.0
 10
584.8352733021
 20
62.2526037223
 30
0.0
 10
584.8352733021
 20
62.2526037223
 30
0.0
 10
584.7274505768
 20
62.3897374798
 30
0.0
 10
584.6138703273
 20
62.5279180598
 30
0.0
 10
584.6138703273
 20
62.7152993008
 30
0.0
 10
584.6138703273
 20
62.9529280255
 30
0.0
 10
584.8057005643
 20
63.1078577667
 30
0.0
 10
585.0276269504
 20
63.1078577667
 30
0.0
 10
585.274153667
 20
63.1078577667
 30
0.0
 10
585.4607497911
 20
62.9654898964
 30
0.0
 10
585.4607497911
 20
62.7048310751
 30
0.0
 10
585.4607497911
 20
62.4347508505
 30
0.0
 10
585.2045399657
 20
62.2819147545
 30
0.0
 10
585.0174204303
 20
62.1343127713
 30
0.0
 10
585.0174204303
 20
62.1343127713
 30
0.0
 10
584.9585366604
 20
62.095580336
 30
0.0
 10
584.9585366604
 20
62.095580336
 30
0.0
  0
SPLINE
  5
247
330
228
100
AcDbEntity
  8
0
  6
Continuous
 62
     7
100
AcDbSpline
 70
     3
 71
     3
 72
    50
 73
    46
 74
     0
 42
0.000000001
 43
0.0000001
 40
0.0
 40
0.0
 40
0.0
 40
0.0
 40
1.0
 40
1.0
 40
1.0
 40
2.0
 40
2.0
 40
2.0
 40
3.0
 40
3.0
 40
3.0
 40
4.0
 40
4.0
 40
4.0
 40
5.0
 40
5.0
 40
5.0
 40
6.0
 40
6.0
 40
6.0
 40
7.0
 40
7.0
 40
7.0
 40
8.0
 40
8.0
 40
8.0
 40
9.0
 40
9.0
 40
9.0
 40
10.0
 40
10.0
 40
10.0
 40
11.0
 40
11.0
 40
11.0
 40
12.0
 40
12.0
 40
12.0
 40
13.0
 40
13.0
 40
13.0
 40
14.0
 40
14.0
 40
14.0
 40
15.0
 40
15.0
 40
15.0
 40
15.0
 10
586.3628491458
 20
59.6816074763
 30
0.0
 10
586.3628491458
 20
59.6816074763
 30
0.0
 10
586.9336291552
 20
59.6816074763
 30
0.0
 10
586.9336291552
 20
59.6816074763
 30
0.0
 10
586.9336291552
 20
59.6816074763
 30
0.0
 10
586.2688968196
 20
60.5033631983
 30
0.0
 10
586.2688968196
 20
60.5033631983
 30
0.0
 10
586.2688968196
 20
60.5033631983
 30
0.0
 10
586.7219092892
 20
61.0351490667
 30
0.0
 10
586.7219092892
 20
61.0351490667
 30
0.0
 10
586.7219092892
 20
61.0351490667
 30
0.0
 10
586.4253967947
 20
61.3408212589
 30
0.0
 10
586.4253967947
 20
61.3408212589
 30
0.0
 10
586.4253967947
 20
61.3408212589
 30
0.0
 10
585.9935824822
 20
60.8383464225
 30
0.0
 10
585.9935824822
 20
60.8383464225
 30
0.0
 10
585.9935824822
 20
60.8383464225
 30
0.0
 10
585.2194571874
 20
61.7742058052
 30
0.0
 10
585.2194571874
 20
61.7742058052
 30
0.0
 10
585.5303634924
 20
62.0024131267
 30
0.0
 10
585.8949194544
 20
62.2819147545
 30
0.0
 10
585.8949194544
 20
62.7006437848
 30
0.0
 10
585.8949194544
 20
63.188463105
 30
0.0
 10
585.4908459402
 20
63.4752924908
 30
0.0
 10
585.0378334705
 20
63.4752924908
 30
0.0
 10
584.5494907389
 20
63.4752924908
 30
0.0
 10
584.1807474866
 20
63.173807589
 30
0.0
 10
584.1807474866
 20
62.6608645269
 30
0.0
 10
584.1807474866
 20
62.3457709316
 30
0.0
 10
584.3780735422
 20
62.0704565942
 30
0.0
 10
584.5887465855
 20
61.8485302081
 30
0.0
 10
584.5887465855
 20
61.8485302081
 30
0.0
 10
584.3576605019
 20
61.681038596
 30
0.0
 10
584.3576605019
 20
61.681038596
 30
0.0
 10
584.0022642375
 20
61.4245670649
 30
0.0
 10
583.7075836824
 20
61.1691423564
 30
0.0
 10
583.7075836824
 20
60.6949317296
 30
0.0
 10
583.7075836824
 20
60.0542763133
 30
0.0
 10
584.2247140348
 20
59.6020489606
 30
0.0
 10
584.8454798222
 20
59.6020489606
 30
0.0
 10
585.2833133645
 20
59.6020489606
 30
0.0
 10
585.6777037699
 20
59.8522395562
 30
0.0
 10
585.9582522202
 20
60.1840823127
 30
0.0
 10
585.9582522202
 20
60.1840823127
 30
0.0
 10
586.3628491458
 20
59.6816074763
 30
0.0
 10
586.3628491458
 20
59.6816074763
 30
0.0
  0
LWPOLYLINE
  5
248
330
228
100
AcDbEntity
  8
0
  6
Continuous
 62
     7
100
AcDbPolyline
 90
        2
 70
     0
 43
0.4
 10
590.2337373252
 20
63.3946871525
 10
589.7710417467
 20
63.3946871525
  0
LWPOLYLINE
  5
249
330
228
100
AcDbEntity
  8
0
  6
Continuous
 62
     7
100
AcDbPolyline
 90
        2
 70
     0
 43
0.4
 10
589.7710417467
 20
63.3946871525
 10
589.7710417467
 20
59.6805606537
  0
LWPOLYLINE
  5
24A
330
228
100
AcDbEntity
  8
0
  6
Continuous
 62
     7
100
AcDbPolyline
 90
        2
 70
     0
 43
0.4
 10
589.7710417467
 20
59.6805606537
 10
591.3616886506
 20
59.6805606537
  0
LWPOLYLINE
  5
24B
330
228
100
AcDbEntity
  8
0
  6
Continuous
 62
     7
100
AcDbPolyline
 90
        2
 70
     0
 43
0.4
 10
591.3616886506
 20
59.6805606537
 10
591.3616886506
 20
60.1045237969
  0
LWPOLYLINE
  5
24C
330
228
100
AcDbEntity
  8
0
  6
Continuous
 62
     7
100
AcDbPolyline
 90
        2
 70
     0
 43
0.4
 10
591.3616886506
 20
60.1045237969
 10
590.2337373252
 20
60.1045237969
  0
LWPOLYLINE
  5
24D
330
228
100
AcDbEntity
  8
0
  6
Continuous
 62
     7
100
AcDbPolyline
 90
        2
 70
     0
 43
0.4
 10
590.2337373252
 20
60.1045237969
 10
590.2337373252
 20
63.3946871525
  0
LWPOLYLINE
  5
24E
330
228
100
AcDbEntity
  8
0
  6
Continuous
 62
     7
100
AcDbPolyline
 90
        2
 70
     0
 43
0.4
 10
594.7198954735
 20
61.9856639655
 10
594.2776129353
 20
61.9856639655
  0
LWPOLYLINE
  5
24F
330
228
100
AcDbEntity
  8
0
  6
Continuous
 62
     7
100
AcDbPolyline
 90
        2
 70
     0
 43
0.4
 10
594.2776129353
 20
61.9856639655
 10
594.2776129353
 20
59.6816074763
  0
LWPOLYLINE
  5
250
330
228
100
AcDbEntity
  8
0
  6
Continuous
 62
     7
100
AcDbPolyline
 90
        2
 70
     0
 43
0.4
 10
594.2776129353
 20
59.6816074763
 10
594.7198954735
 20
59.6816074763
  0
LWPOLYLINE
  5
251
330
228
100
AcDbEntity
  8
0
  6
Continuous
 62
     7
100
AcDbPolyline
 90
        2
 70
     0
 43
0.4
 10
594.7198954735
 20
59.6816074763
 10
594.7198954735
 20
61.9856639655
  0
LWPOLYLINE
  5
252
330
228
100
AcDbEntity
  8
0
  6
Continuous
 62
     7
100
AcDbPolyline
 90
        2
 70
     1
 43
0.4
 10
594.1938489191
 20
63.0455718235
 42
1.0
 10
594.804182901
 20
63.0455718235
 42
1.0
  0
SPLINE
  5
253
330
228
100
AcDbEntity
  8
0
  6
Continuous
 62
     7
100
AcDbSpline
 70
     3
 71
     3
 72
    17
 73
    13
 74
     0
 42
0.000000001
 43
0.0000001
 40
0.0
 40
0.0
 40
0.0
 40
0.0
 40
1.0
 40
1.0
 40
1.0
 40
2.0
 40
2.0
 40
2.0
 40
3.0
 40
3.0
 40
3.0
 40
4.0
 40
4.0
 40
4.0
 40
4.0
 10
598.9804633568
 20
59.9967010716
 30
0.0
 10
598.5125336654
 20
59.9967010716
 30
0.0
 10
598.2518748441
 20
60.4007745858
 30
0.0
 10
598.2518748441
 20
60.8331123096
 30
0.0
 10
598.2518748441
 20
61.2623095657
 30
0.0
 10
598.5235253025
 20
61.6601021445
 30
0.0
 10
598.9804633568
 20
61.6601021445
 30
0.0
 10
599.4593846852
 20
61.6601021445
 30
0.0
 10
599.7305117323
 20
61.2821991946
 30
0.0
 10
599.7305117323
 20
60.8331123096
 30
0.0
 10
599.7305117323
 20
60.3808849569
 30
0.0
 10
599.4640953868
 20
59.9967010716
 30
0.0
 10
598.9804633568
 20
59.9967010716
 30
0.0
  0
SPLINE
  5
254
330
228
100
AcDbEntity
  8
0
  6
Continuous
 62
     7
100
AcDbSpline
 70
     3
 71
     3
 72
    50
 73
    46
 74
     0
 42
0.000000001
 43
0.0000001
 40
0.0
 40
0.0
 40
0.0
 40
0.0
 40
1.0
 40
1.0
 40
1.0
 40
2.0
 40
2.0
 40
2.0
 40
3.0
 40
3.0
 40
3.0
 40
4.0
 40
4.0
 40
4.0
 40
5.0
 40
5.0
 40
5.0
 40
6.0
 40
6.0
 40
6.0
 40
7.0
 40
7.0
 40
7.0
 40
8.0
 40
8.0
 40
8.0
 40
9.0
 40
9.0
 40
9.0
 40
10.0
 40
10.0
 40
10.0
 40
11.0
 40
11.0
 40
11.0
 40
12.0
 40
12.0
 40
12.0
 40
13.0
 40
13.0
 40
13.0
 40
14.0
 40
14.0
 40
14.0
 40
15.0
 40
15.0
 40
15.0
 40
15.0
 10
600.1487173513
 20
61.9867107881
 30
0.0
 10
600.1487173513
 20
61.9867107881
 30
0.0
 10
599.7053879905
 20
61.9867107881
 30
0.0
 10
599.7053879905
 20
61.9867107881
 30
0.0
 10
599.7053879905
 20
61.9867107881
 30
0.0
 10
599.7053879905
 20
61.592058677
 30
0.0
 10
599.7053879905
 20
61.592058677
 30
0.0
 10
599.7053879905
 20
61.592058677
 30
0.0
 10
599.6959665873
 20
61.592058677
 30
0.0
 10
599.6959665873
 20
61.592058677
 30
0.0
 10
599.5132960478
 20
61.8778412402
 30
0.0
 10
599.2374582991
 20
62.0547542555
 30
0.0
 10
598.8920068491
 20
62.0547542555
 30
0.0
 10
598.2272745136
 20
62.0547542555
 30
0.0
 10
597.8090688945
 20
61.4790018389
 30
0.0
 10
597.8090688945
 20
60.8477678257
 30
0.0
 10
597.8090688945
 20
60.188269603
 30
0.0
 10
598.2031975943
 20
59.6020489606
 30
0.0
 10
598.9129433007
 20
59.6020489606
 30
0.0
 10
599.2374582991
 20
59.6020489606
 30
0.0
 10
599.5174833382
 20
59.7789619759
 30
0.0
 10
599.6959665873
 20
60.0406676198
 30
0.0
 10
599.6959665873
 20
60.0406676198
 30
0.0
 10
599.7053879905
 20
60.0406676198
 30
0.0
 10
599.7053879905
 20
60.0406676198
 30
0.0
 10
599.7053879905
 20
60.0406676198
 30
0.0
 10
599.7053879905
 20
59.6020489606
 30
0.0
 10
599.7053879905
 20
59.6020489606
 30
0.0
 10
599.7053879905
 20
59.1288851563
 30
0.0
 10
599.5923311523
 20
58.7551694968
 30
0.0
 10
599.0458897678
 20
58.7551694968
 30
0.0
 10
598.6412928423
 20
58.7551694968
 30
0.0
 10
598.3560336904
 20
58.9917513989
 30
0.0
 10
598.3560336904
 20
59.4041994937
 30
0.0
 10
598.3560336904
 20
59.4041994937
 30
0.0
 10
597.9127043295
 20
59.4041994937
 30
0.0
 10
597.9127043295
 20
59.4041994937
 30
0.0
 10
597.922649144
 20
58.7551694968
 30
0.0
 10
598.3848213112
 20
58.3615642083
 30
0.0
 10
599.0254767276
 20
58.3615642083
 30
0.0
 10
599.9215568524
 20
58.3615642083
 30
0.0
 10
600.1487173513
 20
58.9320825121
 30
0.0
 10
600.1487173513
 20
59.7255740245
 30
0.0
 10
600.1487173513
 20
59.7255740245
 30
0.0
 10
600.1487173513
 20
61.9867107881
 30
0.0
 10
600.1487173513
 20
61.9867107881
 30
0.0
  0
SPLINE
  5
255
330
228
100
AcDbEntity
  8
0
  6
Continuous
 62
     7
100
AcDbSpline
 70
     3
 71
     3
 72
    44
 73
    40
 74
     0
 42
0.000000001
 43
0.0000001
 40
0.0
 40
0.0
 40
0.0
 40
0.0
 40
1.0
 40
1.0
 40
1.0
 40
2.0
 40
2.0
 40
2.0
 40
3.0
 40
3.0
 40
3.0
 40
4.0
 40
4.0
 40
4.0
 40
5.0
 40
5.0
 40
5.0
 40
6.0
 40
6.0
 40
6.0
 40
7.0
 40
7.0
 40
7.0
 40
8.0
 40
8.0
 40
8.0
 40
9.0
 40
9.0
 40
9.0
 40
10.0
 40
10.0
 40
10.0
 40
11.0
 40
11.0
 40
11.0
 40
12.0
 40
12.0
 40
12.0
 40
13.0
 40
13.0
 40
13.0
 40
13.0
 10
603.2865680221
 20
63.9568308756
 30
0.0
 10
603.2865680221
 20
63.9568308756
 30
0.0
 10
603.2865680221
 20
59.6805606537
 30
0.0
 10
603.2865680221
 20
59.6805606537
 30
0.0
 10
603.2865680221
 20
59.6805606537
 30
0.0
 10
603.7293739716
 20
59.6805606537
 30
0.0
 10
603.7293739716
 20
59.6805606537
 30
0.0
 10
603.7293739716
 20
59.6805606537
 30
0.0
 10
603.7293739716
 20
60.7399451004
 30
0.0
 10
603.7293739716
 20
60.7399451004
 30
0.0
 10
603.7293739716
 20
61.1597209533
 30
0.0
 10
603.7293739716
 20
61.661148967
 30
0.0
 10
604.2998922754
 20
61.661148967
 30
0.0
 10
604.753689862
 20
61.661148967
 30
0.0
 10
604.8076012247
 20
61.3952560328
 30
0.0
 10
604.8076012247
 20
61.0026975669
 30
0.0
 10
604.8076012247
 20
61.0026975669
 30
0.0
 10
604.8076012247
 20
59.6805606537
 30
0.0
 10
604.8076012247
 20
59.6805606537
 30
0.0
 10
604.8076012247
 20
59.6805606537
 30
0.0
 10
605.2514539968
 20
59.6805606537
 30
0.0
 10
605.2514539968
 20
59.6805606537
 30
0.0
 10
605.2514539968
 20
59.6805606537
 30
0.0
 10
605.2514539968
 20
61.0550386957
 30
0.0
 10
605.2514539968
 20
61.0550386957
 30
0.0
 10
605.2514539968
 20
61.6161355963
 30
0.0
 10
605.0834389734
 20
62.0558010781
 30
0.0
 10
604.4333621538
 20
62.0558010781
 30
0.0
 10
604.1538605261
 20
62.0558010781
 30
0.0
 10
603.8774993661
 20
61.922854611
 30
0.0
 10
603.7387953748
 20
61.6768513057
 30
0.0
 10
603.7387953748
 20
61.6768513057
 30
0.0
 10
603.7293739716
 20
61.6768513057
 30
0.0
 10
603.7293739716
 20
61.6768513057
 30
0.0
 10
603.7293739716
 20
61.6768513057
 30
0.0
 10
603.7293739716
 20
63.9568308756
 30
0.0
 10
603.7293739716
 20
63.9568308756
 30
0.0
 10
603.7293739716
 20
63.9568308756
 30
0.0
 10
603.2865680221
 20
63.9568308756
 30
0.0
 10
603.2865680221
 20
63.9568308756
 30
0.0
  0
LWPOLYLINE
  5
256
330
228
100
AcDbEntity
  8
0
  6
Continuous
 62
     7
100
AcDbPolyline
 90
        2
 70
     0
 43
0.4
 10
608.9310353505
 20
61.5721690481
 10
609.3638964856
 20
61.5721690481
  0
LWPOLYLINE
  5
257
330
228
100
AcDbEntity
  8
0
  6
Continuous
 62
     7
100
AcDbPolyline
 90
        2
 70
     0
 43
0.4
 10
609.3638964856
 20
61.5721690481
 10
609.3638964856
 20
61.9856639655
  0
LWPOLYLINE
  5
258
330
228
100
AcDbEntity
  8
0
  6
Continuous
 62
     7
100
AcDbPolyline
 90
        2
 70
     0
 43
0.4
 10
609.3638964856
 20
61.9856639655
 10
608.9310353505
 20
61.9856639655
  0
LWPOLYLINE
  5
259
330
228
100
AcDbEntity
  8
0
  6
Continuous
 62
     7
100
AcDbPolyline
 90
        2
 70
     0
 43
0.4
 10
608.9310353505
 20
61.9856639655
 10
608.9310353505
 20
62.8670885743
  0
LWPOLYLINE
  5
25A
330
228
100
AcDbEntity
  8
0
  6
Continuous
 62
     7
100
AcDbPolyline
 90
        2
 70
     0
 43
0.4
 10
608.9310353505
 20
62.8670885743
 10
608.4877059897
 20
62.8670885743
  0
LWPOLYLINE
  5
25B
330
228
100
AcDbEntity
  8
0
  6
Continuous
 62
     7
100
AcDbPolyline
 90
        2
 70
     0
 43
0.4
 10
608.4877059897
 20
62.8670885743
 10
608.4877059897
 20
61.9856639655
  0
LWPOLYLINE
  5
25C
330
228
100
AcDbEntity
  8
0
  6
Continuous
 62
     7
100
AcDbPolyline
 90
        2
 70
     0
 43
0.4
 10
608.4877059897
 20
61.9856639655
 10
608.246413386
 20
61.9856639655
  0
LWPOLYLINE
  5
25D
330
228
100
AcDbEntity
  8
0
  6
Continuous
 62
     7
100
AcDbPolyline
 90
        2
 70
     0
 43
0.4
 10
608.246413386
 20
61.9856639655
 10
608.246413386
 20
61.5721690481
  0
LWPOLYLINE
  5
25E
330
228
100
AcDbEntity
  8
0
  6
Continuous
 62
     7
100
AcDbPolyline
 90
        2
 70
     0
 43
0.4
 10
608.246413386
 20
61.5721690481
 10
608.4877059897
 20
61.5721690481
  0
LWPOLYLINE
  5
25F
330
228
100
AcDbEntity
  8
0
  6
Continuous
 62
     7
100
AcDbPolyline
 90
        2
 70
     0
 43
0.4
 10
608.4877059897
 20
61.5721690481
 10
608.4877059897
 20
59.6805606537
  0
LWPOLYLINE
  5
260
330
228
100
AcDbEntity
  8
0
  6
Continuous
 62
     7
100
AcDbPolyline
 90
        2
 70
     0
 43
0.4
 10
608.4877059897
 20
59.6805606537
 10
608.9310353505
 20
59.6805606537
  0
LWPOLYLINE
  5
261
330
228
100
AcDbEntity
  8
0
  6
Continuous
 62
     7
100
AcDbPolyline
 90
        2
 70
     0
 43
0.4
 10
608.9310353505
 20
59.6805606537
 10
608.9310353505
 20
61.5721690481
  0
SPLINE
  5
262
330
228
100
AcDbEntity
  8
0
  6
Continuous
 62
     7
100
AcDbSpline
 70
     3
 71
     3
 72
    20
 73
    16
 74
     0
 42
0.000000001
 43
0.0000001
 40
0.0
 40
0.0
 40
0.0
 40
0.0
 40
1.0
 40
1.0
 40
1.0
 40
2.0
 40
2.0
 40
2.0
 40
3.0
 40
3.0
 40
3.0
 40
4.0
 40
4.0
 40
4.0
 40
5.0
 40
5.0
 40
5.0
 40
5.0
 10
584.495055965
 20
80.4024135405
 30
0.0
 10
584.495055965
 20
80.4024135405
 30
0.0
 10
589.1277692739
 20
74.7432906961
 30
0.0
 10
589.1277692739
 20
74.7432906961
 30
0.0
 10
587.8244751671
 20
73.4389497667
 30
0.0
 10
586.2707287591
 20
71.9671172252
 30
0.0
 10
584.3283494698
 20
71.9671172252
 30
0.0
 10
582.3312737009
 20
71.9671172252
 30
0.0
 10
580.4446377138
 20
73.8262741197
 30
0.0
 10
580.4446377138
 20
75.8246584168
 30
0.0
 10
580.4446377138
 20
77.8230427139
 30
0.0
 10
582.80234386
 20
79.2362531911
 30
0.0
 10
584.2453887807
 20
80.235968751
 30
0.0
 10
584.2453887807
 20
80.235968751
 30
0.0
 10
584.495055965
 20
80.4024135405
 30
0.0
 10
584.495055965
 20
80.4024135405
 30
0.0
  0
SPLINE
  5
263
330
228
100
AcDbEntity
  8
0
  6
Continuous
 62
     7
100
AcDbSpline
 70
     3
 71
     3
 72
    23
 73
    19
 74
     0
 42
0.000000001
 43
0.0000001
 40
0.0
 40
0.0
 40
0.0
 40
0.0
 40
1.0
 40
1.0
 40
1.0
 40
2.0
 40
2.0
 40
2.0
 40
3.0
 40
3.0
 40
3.0
 40
4.0
 40
4.0
 40
4.0
 40
5.0
 40
5.0
 40
5.0
 40
6.0
 40
6.0
 40
6.0
 40
6.0
 10
585.0498719301
 20
83.67792138
 30
0.0
 10
585.0498719301
 20
83.67792138
 30
0.0
 10
584.356875385
 20
84.5645801017
 30
0.0
 10
584.356875385
 20
84.5645801017
 30
0.0
 10
583.7452692951
 20
85.3407990416
 30
0.0
 10
583.1074926408
 20
86.1178030984
 30
0.0
 10
583.1074926408
 20
87.1716917265
 30
0.0
 10
583.1074926408
 20
88.5040351598
 30
0.0
 10
584.1901688898
 20
89.3914789984
 30
0.0
 10
585.4379814001
 20
89.3914789984
 30
0.0
 10
586.8255447242
 20
89.3914789984
 30
0.0
 10
587.8799567636
 20
88.5869958489
 30
0.0
 10
587.8799567636
 20
87.116995247
 30
0.0
 10
587.8799567636
 20
85.5904662259
 30
0.0
 10
586.4374352543
 20
84.7302397743
 30
0.0
 10
585.3832849205
 20
83.8988009435
 30
0.0
 10
585.3832849205
 20
83.8988009435
 30
0.0
 10
585.0498719301
 20
83.67792138
 30
0.0
 10
585.0498719301
 20
83.67792138
 30
0.0
  0
SPLINE
  5
264
330
228
100
AcDbEntity
  8
0
  6
Continuous
 62
     7
100
AcDbSpline
 70
     3
 71
     3
 72
    50
 73
    46
 74
     0
 42
0.000000001
 43
0.0000001
 40
0.0
 40
0.0
 40
0.0
 40
0.0
 40
1.0
 40
1.0
 40
1.0
 40
2.0
 40
2.0
 40
2.0
 40
3.0
 40
3.0
 40
3.0
 40
4.0
 40
4.0
 40
4.0
 40
5.0
 40
5.0
 40
5.0
 40
6.0
 40
6.0
 40
6.0
 40
7.0
 40
7.0
 40
7.0
 40
8.0
 40
8.0
 40
8.0
 40
9.0
 40
9.0
 40
9.0
 40
10.0
 40
10.0
 40
10.0
 40
11.0
 40
11.0
 40
11.0
 40
12.0
 40
12.0
 40
12.0
 40
13.0
 40
13.0
 40
13.0
 40
14.0
 40
14.0
 40
14.0
 40
15.0
 40
15.0
 40
15.0
 40
15.0
 10
592.957046256
 20
70.0807429437
 30
0.0
 10
592.957046256
 20
70.0807429437
 30
0.0
 10
596.1755022651
 20
70.0807429437
 30
0.0
 10
596.1755022651
 20
70.0807429437
 30
0.0
 10
596.1755022651
 20
70.0807429437
 30
0.0
 10
592.4294476778
 20
74.7150264865
 30
0.0
 10
592.4294476778
 20
74.7150264865
 30
0.0
 10
592.4294476778
 20
74.7150264865
 30
0.0
 10
594.9821245288
 20
77.7099858757
 30
0.0
 10
594.9821245288
 20
77.7099858757
 30
0.0
 10
594.9821245288
 20
77.7099858757
 30
0.0
 10
593.3176766333
 20
79.4320090128
 30
0.0
 10
593.3176766333
 20
79.4320090128
 30
0.0
 10
593.3176766333
 20
79.4320090128
 30
0.0
 10
590.8764863867
 20
76.601400768
 30
0.0
 10
590.8764863867
 20
76.601400768
 30
0.0
 10
590.8764863867
 20
76.601400768
 30
0.0
 10
586.520657649
 20
81.8721524369
 30
0.0
 10
586.520657649
 20
81.8721524369
 30
0.0
 10
588.267804528
 20
83.1482291567
 30
0.0
 10
590.3211470103
 20
84.7302397743
 30
0.0
 10
590.3211470103
 20
87.0879459205
 30
0.0
 10
590.3211470103
 20
89.8353317705
 30
0.0
 10
588.0453547306
 20
91.4442980694
 30
0.0
 10
585.4947715248
 20
91.4442980694
 30
0.0
 10
582.7479090861
 20
91.4442980694
 30
0.0
 10
580.6660406886
 20
89.7518476701
 30
0.0
 10
580.6660406886
 20
86.8665429457
 30
0.0
 10
580.6660406886
 20
85.0913935629
 30
0.0
 10
581.7767194414
 20
83.5376471549
 30
0.0
 10
582.9690503552
 20
82.288787822
 30
0.0
 10
582.9690503552
 20
82.288787822
 30
0.0
 10
581.6652328371
 20
81.3456006813
 30
0.0
 10
581.6652328371
 20
81.3456006813
 30
0.0
 10
579.6681570683
 20
79.9030791719
 30
0.0
 10
578.0024006446
 20
78.4605576625
 30
0.0
 10
578.0024006446
 20
75.7974410298
 30
0.0
 10
578.0024006446
 20
72.1900904338
 30
0.0
 10
580.9164929898
 20
69.6368901716
 30
0.0
 10
584.4115718646
 20
69.6368901716
 30
0.0
 10
586.8812880264
 20
69.6368901716
 30
0.0
 10
589.1000284757
 20
71.0532411166
 30
0.0
 10
590.6817773876
 20
72.9103043659
 30
0.0
 10
590.6817773876
 20
72.9103043659
 30
0.0
 10
592.957046256
 20
70.0807429437
 30
0.0
 10
592.957046256
 20
70.0807429437
 30
0.0
  0
LINE
  5
265
330
228
100
AcDbEntity
  8
0
  6
Continuous
 62
     7
100
AcDbLine
 10
564.562769006
 20
66.028492753
 30
0.0
 11
609.3905904612
 21
66.028492753
 31
0.0
  0
LINE
  5
266
330
228
100
AcDbEntity
  8
0
  6
Continuous
 62
     7
100
AcDbLine
 10
609.3905904612
 20
66.028492753
 30
0.0
 11
609.3905904612
 21
110.8563142083
 31
0.0
  0
LINE
  5
267
330
228
100
AcDbEntity
  8
0
  6
Continuous
 62
     7
100
AcDbLine
 10
609.3905904612
 20
110.8563142083
 30
0.0
 11
564.562769006
 21
110.8563142083
 31
0.0
  0
LINE
  5
268
330
228
100
AcDbEntity
  8
0
  6
Continuous
 62
     7
100
AcDbLine
 10
564.562769006
 20
110.8563142083
 30
0.0
 11
564.562769006
 21
66.028492753
 31
0.0
  0
ENDBLK
  5
269
330
228
100
AcDbEntity
  8
0
  6
ByBlock
 62
     0
100
AcDbBlockEnd
  0
BLOCK
  5
26A
330
229
100
AcDbEntity
  8
0
100
AcDbBlockBegin
  2
PROIEZIONE_EU_BL0
 70
     0
 10
589.3244547912
 20
135.8589392083
 30
0.0
  3
PROIEZIONE_EU_BL0
  1

  0
LWPOLYLINE
  5
26B
330
229
100
AcDbEntity
  8
DEFAULT_1
  6
CENTER
 62
     7
100
AcDbPolyline
 90
        2
 70
     0
 43
0.5
 10
601.5776961146
 20
145.8583274721
 10
601.5777780793
 20
125.8595509445
  0
LWPOLYLINE
  5
26C
330
229
100
AcDbEntity
  8
DEFAULT_1
  6
CENTER
 62
     7
100
AcDbPolyline
 90
        2
 70
     0
 43
0.5
 10
613.5777557647
 20
135.8594814785
 10
565.0711538178
 20
135.8589401577
  0
LWPOLYLINE
  5
26D
330
229
100
AcDbEntity
  8
0
  6
Continuous
 62
     7
100
AcDbPolyline
 90
        2
 70
     1
 43
0.5
 10
594.483475763
 20
135.8218436999
 42
1.0
 10
608.6961339602
 20
135.8218436999
 42
1.0
  0
LWPOLYLINE
  5
26E
330
229
100
AcDbEntity
  8
0
  6
Continuous
 62
     7
100
AcDbPolyline
 90
        2
 70
     1
 43
0.5
 10
597.5829634197
 20
135.8576397891
 42
1.0
 10
605.6064669198
 20
135.8576397891
 42
1.0
  0
LWPOLYLINE
  5
26F
330
229
100
AcDbEntity
  8
0
  6
Continuous
 62
     7
100
AcDbPolyline
 90
        2
 70
     0
 43
0.5
 10
589.5777513527
 20
143.0093461987
 10
589.5777506435
 20
128.8089403821
  0
LWPOLYLINE
  5
270
330
229
100
AcDbEntity
  8
0
  6
Continuous
 62
     7
100
AcDbPolyline
 90
        2
 70
     0
 43
0.5
 10
589.5778075163
 20
128.8088835094
 10
569.588692974
 20
131.8490703351
  0
LWPOLYLINE
  5
271
330
229
100
AcDbEntity
  8
0
  6
Continuous
 62
     7
100
AcDbPolyline
 90
        2
 70
     0
 43
0.5
 10
569.5840730027
 20
131.8477152519
 10
569.5787391945
 20
139.8589924749
  0
LWPOLYLINE
  5
272
330
229
100
AcDbEntity
  8
0
  6
Continuous
 62
     7
100
AcDbPolyline
 90
        2
 70
     0
 43
0.5
 10
569.5787226424
 20
139.8589759227
 10
589.578209117
 20
143.0092903629
  0
ENDBLK
  5
273
330
229
100
AcDbEntity
  8
0
  6
ByBlock
 62
     0
100
AcDbBlockEnd
  0
ENDSEC
  0
SECTION
  2
ENTITIES
  0
LINE
  5
2A7
330
1B
100
AcDbEntity
 67
     1
  8
0
  6
Continuous
 62
     7
100
AcDbLine
 10
0.0
 20
0.0
 30
0.0
 11
840.0
 21
0.0
 31
0.0
  0
LINE
  5
2A8
330
1B
100
AcDbEntity
 67
     1
  8
0
  6
Continuous
 62
     7
100
AcDbLine
 10
840.0
 20
0.0
 30
0.0
 11
840.0
 21
594.0
 31
0.0
  0
LINE
  5
2A9
330
1B
100
AcDbEntity
 67
     1
  8
0
  6
Continuous
 62
     7
100
AcDbLine
 10
0.0
 20
594.0
 30
0.0
 11
840.0
 21
594.0
 31
0.0
  0
LINE
  5
2AA
330
1B
100
AcDbEntity
 67
     1
  8
0
  6
Continuous
 62
     7
100
AcDbLine
 10
0.0
 20
0.0
 30
0.0
 11
0.0
 21
594.0
 31
0.0
  0
LWPOLYLINE
  5
2AB
330
1B
100
AcDbEntity
 67
     1
  8
0
  6
Continuous
 62
     7
100
AcDbPolyline
 90
        2
 70
     0
 43
1.0
 10
820.0
 20
20.0636871508
 10
820.0
 20
574.0
  0
LWPOLYLINE
  5
2AC
330
1B
100
AcDbEntity
 67
     1
  8
0
  6
Continuous
 62
     7
100
AcDbPolyline
 90
        2
 70
     0
 43
1.0
 10
20.1072625698
 20
20.0636871508
 10
20.1072625698
 20
574.0
  0
LWPOLYLINE
  5
2AD
330
1B
100
AcDbEntity
 67
     1
  8
0
  6
Continuous
 62
     7
100
AcDbPolyline
 90
        2
 70
     0
 43
1.0
 10
20.1072625698
 20
20.0636871508
 10
820.0
 20
20.0636871508
  0
LWPOLYLINE
  5
2AE
330
1B
100
AcDbEntity
 67
     1
  8
0
  6
Continuous
 62
     7
100
AcDbPolyline
 90
        2
 70
     0
 43
0.2
 10
420.0
 20
20.0
 10
420.0
 20
0.0
  0
LWPOLYLINE
  5
2AF
330
1B
100
AcDbEntity
 67
     1
  8
0
  6
Continuous
 62
     7
100
AcDbPolyline
 90
        2
 70
     0
 43
0.2
 10
420.0
 20
574.0
 10
420.0
 20
594.0
  0
LWPOLYLINE
  5
2B0
330
1B
100
AcDbEntity
 67
     1
  8
0
  6
Continuous
 62
     7
100
AcDbPolyline
 90
        2
 70
     0
 43
0.2
 10
820.0
 20
297.0
 10
840.0
 20
297.0
  0
LWPOLYLINE
  5
2B1
330
1B
100
AcDbEntity
 67
     1
  8
0
  6
Continuous
 62
     7
100
AcDbPolyline
 90
        2
 70
     0
 43
0.2
 10
20.0
 20
297.0
 10
0.0
 20
297.0
  0
LWPOLYLINE
  5
2B2
330
1B
100
AcDbEntity
 67
     1
  8
0
  6
Continuous
 62
     7
100
AcDbPolyline
 90
        2
 70
     0
 43
1.0
 10
20.1072625698
 20
574.0
 10
820.0
 20
574.0
  0
LWPOLYLINE
  5
2B3
330
1B
100
AcDbEntity
 67
     1
  8
0
  6
Continuous
 62
     7
100
AcDbPolyline
 90
        2
 70
     0
 43
0.2
 10
0.0
 20
580.0
 10
840.0
 20
580.0
  0
LWPOLYLINE
  5
2B4
330
1B
100
AcDbEntity
 67
     1
  8
0
  6
Continuous
 62
     7
100
AcDbPolyline
 90
        2
 70
     0
 43
0.2
 10
14.1072625698
 20
0.0
 10
14.1072625698
 20
594.0
  0
LWPOLYLINE
  5
2B5
330
1B
100
AcDbEntity
 67
     1
  8
0
  6
Continuous
 62
     7
100
AcDbPolyline
 90
        2
 70
     0
 43
0.2
 10
826.0
 20
0.0
 10
826.0
 20
594.0
  0
LWPOLYLINE
  5
2B6
330
1B
100
AcDbEntity
 67
     1
  8
0
  6
Continuous
 62
     7
100
AcDbPolyline
 90
        2
 70
     0
 43
0.2
 10
0.0
 20
14.0636871508
 10
840.0
 20
14.0636871508
  0
LWPOLYLINE
  5
2B7
330
1B
100
AcDbEntity
 67
     1
  8
0
  6
Continuous
 62
     7
100
AcDbPolyline
 90
        2
 70
     0
 43
0.2
 10
20.0
 20
405.9363128492
 10
0.0
 20
405.9363128492
  0
LINE
  5
2B8
330
1B
100
AcDbEntity
 67
     1
  8
0
  6
Continuous
 62
     7
100
AcDbLine
 10
0.0
 20
199.9363128492
 30
0.0
 11
14.0
 21
199.9363128492
 31
0.0
  0
LINE
  5
2B9
330
1B
100
AcDbEntity
 67
     1
  8
0
  6
Continuous
 62
     7
100
AcDbLine
 10
0.0
 20
399.9363128492
 30
0.0
 11
14.0
 21
399.9363128492
 31
0.0
  0
LWPOLYLINE
  5
2BA
330
1B
100
AcDbEntity
 67
     1
  8
0
  6
Continuous
 62
     7
100
AcDbPolyline
 90
        2
 70
     0
 43
0.2
 10
820.0
 20
420.0
 10
840.0
 20
420.0
  0
LINE
  5
2BB
330
1B
100
AcDbEntity
 67
     1
  8
0
  6
Continuous
 62
     7
100
AcDbLine
 10
826.0
 20
214.0
 30
0.0
 11
840.0
 21
214.0
 31
0.0
  0
LWPOLYLINE
  5
2BC
330
1B
100
AcDbEntity
 67
     1
  8
0
  6
Continuous
 62
     7
100
AcDbPolyline
 90
        2
 70
     0
 43
0.2
 10
246.0
 20
20.0
 10
246.0
 20
0.0
  0
LINE
  5
2BD
330
1B
100
AcDbEntity
 67
     1
  8
0
  6
Continuous
 62
     7
100
AcDbLine
 10
420.0
 20
0.0
 30
0.0
 11
420.0
 21
20.0
 31
0.0
  0
LINE
  5
2BE
330
1B
100
AcDbEntity
 67
     1
  8
0
  6
Continuous
 62
     7
100
AcDbLine
 10
626.0
 20
14.0
 30
0.0
 11
626.0
 21
0.0
 31
0.0
  0
LINE
  5
2BF
330
1B
100
AcDbEntity
 67
     1
  8
0
  6
Continuous
 62
     7
100
AcDbLine
 10
226.0
 20
14.0
 30
0.0
 11
226.0
 21
0.0
 31
0.0
  0
LWPOLYLINE
  5
2C0
330
1B
100
AcDbEntity
 67
     1
  8
0
  6
Continuous
 62
     7
100
AcDbPolyline
 90
        2
 70
     0
 43
0.2
 10
246.0
 20
574.0
 10
246.0
 20
594.0
  0
LINE
  5
2C1
330
1B
100
AcDbEntity
 67
     1
  8
0
  6
Continuous
 62
     7
100
AcDbLine
 10
420.0
 20
574.0
 30
0.0
 11
420.0
 21
594.0
 31
0.0
  0
LINE
  5
2C2
330
1B
100
AcDbEntity
 67
     1
  8
0
  6
Continuous
 62
     7
100
AcDbLine
 10
626.0
 20
594.0
 30
0.0
 11
626.0
 21
580.0
 31
0.0
  0
LINE
  5
2C3
330
1B
100
AcDbEntity
 67
     1
  8
0
  6
Continuous
 62
     7
100
AcDbLine
 10
226.0
 20
594.0
 30
0.0
 11
226.0
 21
580.0
 31
0.0
  0
MTEXT
  5
2C4
330
1B
100
AcDbEntity
 67
     1
  8
0
  6
Continuous
 62
     2
100
AcDbMText
 10
3.2934441985
 20
107.190054772
 30
0.0
 40
8.0
 41
6.8571428571
 46
0.0
 71
     1
 72
     1
  1
1
  7
TEXTSTYLE_2
 73
     1
 44
1.0
  0
MTEXT
  5
2C5
330
1B
100
AcDbEntity
 67
     1
  8
0
  6
Continuous
 62
     2
100
AcDbMText
 10
3.2934441985
 20
307.190054772
 30
0.0
 40
8.0
 41
9.4285714286
 46
0.0
 71
     1
 72
     1
  1
2
  7
TEXTSTYLE_2
 73
     1
 44
1.0
  0
MTEXT
  5
2C6
330
1B
100
AcDbEntity
 67
     1
  8
0
  6
Continuous
 62
     2
100
AcDbMText
 10
3.2934441985
 20
507.190054772
 30
0.0
 40
8.0
 41
8.5714285714
 46
0.0
 71
     1
 72
     1
  1
3
  7
TEXTSTYLE_2
 73
     1
 44
1.0
  0
MTEXT
  5
2C7
330
1B
100
AcDbEntity
 67
     1
  8
0
  6
Continuous
 62
     2
100
AcDbMText
 10
829.2934441985
 20
121.2537419229
 30
0.0
 40
8.0
 41
6.8571428571
 46
0.0
 71
     1
 72
     1
  1
1
  7
TEXTSTYLE_2
 73
     1
 44
1.0
  0
MTEXT
  5
2C8
330
1B
100
AcDbEntity
 67
     1
  8
0
  6
Continuous
 62
     2
100
AcDbMText
 10
829.2934441985
 20
321.2537419229
 30
0.0
 40
8.0
 41
9.4285714286
 46
0.0
 71
     1
 72
     1
  1
2
  7
TEXTSTYLE_2
 73
     1
 44
1.0
  0
MTEXT
  5
2C9
330
1B
100
AcDbEntity
 67
     1
  8
0
  6
Continuous
 62
     2
100
AcDbMText
 10
829.2934441985
 20
521.2537419229
 30
0.0
 40
8.0
 41
8.5714285714
 46
0.0
 71
     1
 72
     1
  1
3
  7
TEXTSTYLE_2
 73
     1
 44
1.0
  0
MTEXT
  5
2CA
330
1B
100
AcDbEntity
 67
     1
  8
0
  6
Continuous
 62
     2
100
AcDbMText
 10
724.309781438
 20
10.7175204999
 30
0.0
 40
8.0
 41
7.2
 46
0.0
 71
     1
 72
     1
  1
A
  7
TEXTSTYLE_3
 73
     1
 44
1.0
  0
MTEXT
  5
2CB
330
1B
100
AcDbEntity
 67
     1
  8
0
  6
Continuous
 62
     2
100
AcDbMText
 10
524.309781438
 20
10.7175204999
 30
0.0
 40
8.0
 41
7.2
 46
0.0
 71
     1
 72
     1
  1
B
  7
TEXTSTYLE_3
 73
     1
 44
1.0
  0
MTEXT
  5
2CC
330
1B
100
AcDbEntity
 67
     1
  8
0
  6
Continuous
 62
     2
100
AcDbMText
 10
324.309781438
 20
10.7175204999
 30
0.0
 40
8.0
 41
7.2
 46
0.0
 71
     1
 72
     1
  1
C
  7
TEXTSTYLE_3
 73
     1
 44
1.0
  0
MTEXT
  5
2CD
330
1B
100
AcDbEntity
 67
     1
  8
0
  6
Continuous
 62
     2
100
AcDbMText
 10
111.5957376424
 20
11.0706883831
 30
0.0
 40
8.0
 41
7.2
 46
0.0
 71
     1
 72
     1
  1
D
  7
TEXTSTYLE_3
 73
     1
 44
1.0
  0
MTEXT
  5
2CE
330
1B
100
AcDbEntity
 67
     1
  8
0
  6
Continuous
 62
     2
100
AcDbMText
 10
724.309781438
 20
590.7175204999
 30
0.0
 40
8.0
 41
7.2
 46
0.0
 71
     1
 72
     1
  1
A
  7
TEXTSTYLE_3
 73
     1
 44
1.0
  0
MTEXT
  5
2CF
330
1B
100
AcDbEntity
 67
     1
  8
0
  6
Continuous
 62
     2
100
AcDbMText
 10
524.309781438
 20
590.7175204999
 30
0.0
 40
8.0
 41
7.2
 46
0.0
 71
     1
 72
     1
  1
B
  7
TEXTSTYLE_3
 73
     1
 44
1.0
  0
MTEXT
  5
2D0
330
1B
100
AcDbEntity
 67
     1
  8
0
  6
Continuous
 62
     2
100
AcDbMText
 10
324.309781438
 20
590.7175204999
 30
0.0
 40
8.0
 41
7.2
 46
0.0
 71
     1
 72
     1
  1
C
  7
TEXTSTYLE_3
 73
     1
 44
1.0
  0
MTEXT
  5
2D1
330
1B
100
AcDbEntity
 67
     1
  8
0
  6
Continuous
 62
     2
100
AcDbMText
 10
107.9757668395
 20
591.1589803539
 30
0.0
 40
8.0
 41
7.2
 46
0.0
 71
     1
 72
     1
  1
D
  7
TEXTSTYLE_3
 73
     1
 44
1.0
  0
VIEWPORT
  5
2D2
330
1B
100
AcDbEntity
 67
     1
  8
0
100
AcDbViewport
 10
0.0
 20
0.0
 30
0.0
 40
990.1540856031129
 41
700.1803891050583
 68
     1
 69
     1
 12
468.0350194552529
 22
297.0
 13
0.0
 23
0.0
 14
1.0
 24
1.0
 15
0.0
 25
0.0
 16
0.0
 26
0.0
 36
1.0
 17
0.0
 27
0.0
 37
0.0
 42
50.0
 43
0.0
 44
0.0
 45
700.1803891050583
 50
0.0
 51
0.0
 72
   100
 90
   557216
  1

281
     0
 71
     1
 74
     0
110
0.0
120
0.0
130
0.0
111
1.0
121
0.0
131
0.0
112
0.0
122
1.0
132
0.0
 79
     0
146
0.0
170
     0
 61
     5
348
63E
292
     1
282
     1
141
0.0
142
0.0
 63
   256
  0
LINE
  5
2D3
330
1B
100
AcDbEntity
 67
     1
  8
3_ALL_AXES
  6
Continuous
 62
     7
100
AcDbLine
 10
508.4281906031
 20
425.0271431605
 30
0.0
 11
508.4281906031
 21
424.32127299
 31
0.0
  0
LINE
  5
2D4
330
1B
100
AcDbEntity
 67
     1
  8
3_ALL_AXES
  6
Continuous
 62
     7
100
AcDbLine
 10
514.2281906031
 20
425.0271431605
 30
0.0
 11
514.2281906031
 21
424.32127299
 31
0.0
  0
ARC
  5
2D5
330
1B
100
AcDbEntity
 67
     1
  8
3_ALL_AXES
  6
Continuous
 62
     7
100
AcDbCircle
 10
511.3281906031
 20
431.7771431605
 30
0.0
 40
8.0
100
AcDbArc
 50
248.7461908146
 51
270.0
  0
ARC
  5
2D6
330
1B
100
AcDbEntity
 67
     1
  8
3_ALL_AXES
  6
Continuous
 62
     7
100
AcDbCircle
 10
511.3281906031
 20
431.7771431605
 30
0.0
 40
8.0
100
AcDbArc
 50
270.0
 51
291.2538091854
  0
LINE
  5
2D7
330
1B
100
AcDbEntity
 67
     1
  8
3_ALL_AXES
  6
Continuous
 62
     7
100
AcDbLine
 10
508.4281906031
 20
424.32127299
 30
0.0
 11
508.4281906031
 21
425.0271431605
 31
0.0
  0
LINE
  5
2D8
330
1B
100
AcDbEntity
 67
     1
  8
3_ALL_AXES
  6
Continuous
 62
     7
100
AcDbLine
 10
514.2281906031
 20
424.32127299
 30
0.0
 11
514.2281906031
 21
425.0271431605
 31
0.0
  0
LINE
  5
2D9
330
1B
100
AcDbEntity
 67
     1
  8
3_ALL_AXES
  6
Continuous
 62
     7
100
AcDbLine
 10
508.4281906031
 20
424.32127299
 30
0.0
 11
514.2281906031
 21
424.32127299
 31
0.0
  0
LINE
  5
2DA
330
1B
100
AcDbEntity
 67
     1
  8
3_ALL_AXES
  6
Continuous
 62
     7
100
AcDbLine
 10
98.4281906031
 20
425.0271431605
 30
0.0
 11
98.4281906031
 21
424.32127299
 31
0.0
  0
LINE
  5
2DB
330
1B
100
AcDbEntity
 67
     1
  8
3_ALL_AXES
  6
Continuous
 62
     7
100
AcDbLine
 10
104.2281906031
 20
425.0271431605
 30
0.0
 11
104.2281906031
 21
424.32127299
 31
0.0
  0
ARC
  5
2DC
330
1B
100
AcDbEntity
 67
     1
  8
3_ALL_AXES
  6
Continuous
 62
     7
100
AcDbCircle
 10
101.3281906031
 20
431.7771431605
 30
0.0
 40
8.0
100
AcDbArc
 50
248.7461908146
 51
270.0
  0
ARC
  5
2DD
330
1B
100
AcDbEntity
 67
     1
  8
3_ALL_AXES
  6
Continuous
 62
     7
100
AcDbCircle
 10
101.3281906031
 20
431.7771431605
 30
0.0
 40
8.0
100
AcDbArc
 50
270.0
 51
291.2538091854
  0
LINE
  5
2DE
330
1B
100
AcDbEntity
 67
     1
  8
3_ALL_AXES
  6
Continuous
 62
     7
100
AcDbLine
 10
98.4281906031
 20
424.32127299
 30
0.0
 11
98.4281906031
 21
425.0271431605
 31
0.0
  0
LINE
  5
2DF
330
1B
100
AcDbEntity
 67
     1
  8
3_ALL_AXES
  6
Continuous
 62
     7
100
AcDbLine
 10
104.2281906031
 20
424.32127299
 30
0.0
 11
104.2281906031
 21
425.0271431605
 31
0.0
  0
LINE
  5
2E0
330
1B
100
AcDbEntity
 67
     1
  8
3_ALL_AXES
  6
Continuous
 62
     7
100
AcDbLine
 10
98.4281906031
 20
424.32127299
 30
0.0
 11
104.2281906031
 21
424.32127299
 31
0.0
  0
ARC
  5
2E1
330
1B
100
AcDbEntity
 67
     1
  8
3_ALL_AXES
  6
Continuous
 62
     7
100
AcDbCircle
 10
151.3281906031
 20
469.0271431605
 30
0.0
 40
2.9
100
AcDbArc
 50
0.0
 51
180.0
  0
ARC
  5
2E2
330
1B
100
AcDbEntity
 67
     1
  8
3_ALL_AXES
  6
Continuous
 62
     7
100
AcDbCircle
 10
151.3281906031
 20
469.0271431605
 30
0.0
 40
2.9
100
AcDbArc
 50
180.0
 51
360.0
  0
ARC
  5
2E3
330
1B
100
AcDbEntity
 67
     1
  8
3_ALL_AXES
  6
Continuous
 62
     7
100
AcDbCircle
 10
306.3281906031
 20
469.0271431605
 30
0.0
 40
2.9
100
AcDbArc
 50
0.0
 51
180.0
  0
ARC
  5
2E4
330
1B
100
AcDbEntity
 67
     1
  8
3_ALL_AXES
  6
Continuous
 62
     7
100
AcDbCircle
 10
306.3281906031
 20
469.0271431605
 30
0.0
 40
2.9
100
AcDbArc
 50
180.0
 51
360.0
  0
ARC
  5
2E5
330
1B
100
AcDbEntity
 67
     1
  8
3_ALL_AXES
  6
Continuous
 62
     7
100
AcDbCircle
 10
536.3281906031
 20
469.0271431605
 30
0.0
 40
2.9
100
AcDbArc
 50
0.0
 51
180.0
  0
ARC
  5
2E6
330
1B
100
AcDbEntity
 67
     1
  8
3_ALL_AXES
  6
Continuous
 62
     7
100
AcDbCircle
 10
536.3281906031
 20
469.0271431605
 30
0.0
 40
2.9
100
AcDbArc
 50
180.0
 51
360.0
  0
ARC
  5
2E7
330
1B
100
AcDbEntity
 67
     1
  8
3_ALL_AXES
  6
Continuous
 62
     7
100
AcDbCircle
 10
76.3281906031
 20
469.0271431605
 30
0.0
 40
2.9
100
AcDbArc
 50
0.0
 51
180.0
  0
ARC
  5
2E8
330
1B
100
AcDbEntity
 67
     1
  8
3_ALL_AXES
  6
Continuous
 62
     7
100
AcDbCircle
 10
76.3281906031
 20
469.0271431605
 30
0.0
 40
2.9
100
AcDbArc
 50
180.0
 51
360.0
  0
ARC
  5
2E9
330
1B
100
AcDbEntity
 67
     1
  8
3_ALL_AXES
  6
Continuous
 62
     7
100
AcDbCircle
 10
461.3281906031
 20
469.0271431605
 30
0.0
 40
2.9
100
AcDbArc
 50
0.0
 51
180.0
  0
ARC
  5
2EA
330
1B
100
AcDbEntity
 67
     1
  8
3_ALL_AXES
  6
Continuous
 62
     7
100
AcDbCircle
 10
461.3281906031
 20
469.0271431605
 30
0.0
 40
2.9
100
AcDbArc
 50
180.0
 51
360.0
  0
LINE
  5
2EB
330
1B
100
AcDbEntity
 67
     1
  8
3_ALL_AXES
  6
Continuous
 62
     7
100
AcDbLine
 10
473.4281906031
 20
425.0271431605
 30
0.0
 11
473.4281906031
 21
424.32127299
 31
0.0
  0
LINE
  5
2EC
330
1B
100
AcDbEntity
 67
     1
  8
3_ALL_AXES
  6
Continuous
 62
     7
100
AcDbLine
 10
479.2281906031
 20
425.0271431605
 30
0.0
 11
479.2281906031
 21
424.32127299
 31
0.0
  0
ARC
  5
2ED
330
1B
100
AcDbEntity
 67
     1
  8
3_ALL_AXES
  6
Continuous
 62
     7
100
AcDbCircle
 10
476.3281906031
 20
431.7771431605
 30
0.0
 40
8.0
100
AcDbArc
 50
248.7461908146
 51
270.0
  0
ARC
  5
2EE
330
1B
100
AcDbEntity
 67
     1
  8
3_ALL_AXES
  6
Continuous
 62
     7
100
AcDbCircle
 10
476.3281906031
 20
431.7771431605
 30
0.0
 40
8.0
100
AcDbArc
 50
270.0
 51
291.2538091854
  0
LINE
  5
2EF
330
1B
100
AcDbEntity
 67
     1
  8
3_ALL_AXES
  6
Continuous
 62
     7
100
AcDbLine
 10
473.4281906031
 20
424.32127299
 30
0.0
 11
473.4281906031
 21
425.0271431605
 31
0.0
  0
LINE
  5
2F0
330
1B
100
AcDbEntity
 67
     1
  8
3_ALL_AXES
  6
Continuous
 62
     7
100
AcDbLine
 10
479.2281906031
 20
424.32127299
 30
0.0
 11
479.2281906031
 21
425.0271431605
 31
0.0
  0
LINE
  5
2F1
330
1B
100
AcDbEntity
 67
     1
  8
3_ALL_AXES
  6
Continuous
 62
     7
100
AcDbLine
 10
473.4281906031
 20
424.32127299
 30
0.0
 11
479.2281906031
 21
424.32127299
 31
0.0
  0
LINE
  5
2F2
330
1B
100
AcDbEntity
 67
     1
  8
3_ALL_AXES
  6
Continuous
 62
     7
100
AcDbLine
 10
133.4281906031
 20
425.0271431605
 30
0.0
 11
133.4281906031
 21
424.32127299
 31
0.0
  0
LINE
  5
2F3
330
1B
100
AcDbEntity
 67
     1
  8
3_ALL_AXES
  6
Continuous
 62
     7
100
AcDbLine
 10
139.2281906031
 20
425.0271431605
 30
0.0
 11
139.2281906031
 21
424.32127299
 31
0.0
  0
ARC
  5
2F4
330
1B
100
AcDbEntity
 67
     1
  8
3_ALL_AXES
  6
Continuous
 62
     7
100
AcDbCircle
 10
136.3281906031
 20
431.7771431605
 30
0.0
 40
8.0
100
AcDbArc
 50
248.7461908146
 51
270.0
  0
ARC
  5
2F5
330
1B
100
AcDbEntity
 67
     1
  8
3_ALL_AXES
  6
Continuous
 62
     7
100
AcDbCircle
 10
136.3281906031
 20
431.7771431605
 30
0.0
 40
8.0
100
AcDbArc
 50
270.0
 51
291.2538091854
  0
LINE
  5
2F6
330
1B
100
AcDbEntity
 67
     1
  8
3_ALL_AXES
  6
Continuous
 62
     7
100
AcDbLine
 10
133.4281906031
 20
424.32127299
 30
0.0
 11
133.4281906031
 21
425.0271431605
 31
0.0
  0
LINE
  5
2F7
330
1B
100
AcDbEntity
 67
     1
  8
3_ALL_AXES
  6
Continuous
 62
     7
100
AcDbLine
 10
139.2281906031
 20
424.32127299
 30
0.0
 11
139.2281906031
 21
425.0271431605
 31
0.0
  0
LINE
  5
2F8
330
1B
100
AcDbEntity
 67
     1
  8
3_ALL_AXES
  6
Continuous
 62
     7
100
AcDbLine
 10
133.4281906031
 20
424.32127299
 30
0.0
 11
139.2281906031
 21
424.32127299
 31
0.0
  0
LINE
  5
2F9
330
1B
100
AcDbEntity
 67
     1
  8
7_ALL_FEATURES
  6
Continuous
 62
     7
100
AcDbLine
 10
553.1065027666
 20
438.7771431605
 30
0.0
 11
552.3848149301
 21
437.5271431605
 31
0.0
  0
LINE
  5
2FA
330
1B
100
AcDbEntity
 67
     1
  8
7_ALL_FEATURES
  6
Continuous
 62
     7
100
AcDbLine
 10
552.3848149301
 20
437.5271431605
 30
0.0
 11
553.1065027666
 21
436.2771431605
 31
0.0
  0
LINE
  5
2FB
330
1B
100
AcDbEntity
 67
     1
  8
7_ALL_FEATURES
  6
Continuous
 62
     7
100
AcDbLine
 10
553.1065027666
 20
436.2771431605
 30
0.0
 11
554.5498784396
 21
436.2771431605
 31
0.0
  0
LINE
  5
2FC
330
1B
100
AcDbEntity
 67
     1
  8
7_ALL_FEATURES
  6
Continuous
 62
     7
100
AcDbLine
 10
554.5498784396
 20
436.2771431605
 30
0.0
 11
555.2715662761
 21
437.5271431605
 31
0.0
  0
LINE
  5
2FD
330
1B
100
AcDbEntity
 67
     1
  8
7_ALL_FEATURES
  6
Continuous
 62
     7
100
AcDbLine
 10
555.2715662761
 20
437.5271431605
 30
0.0
 11
554.5498784396
 21
438.7771431605
 31
0.0
  0
LINE
  5
2FE
330
1B
100
AcDbEntity
 67
     1
  8
7_ALL_FEATURES
  6
Continuous
 62
     7
100
AcDbLine
 10
554.5498784396
 20
438.7771431605
 30
0.0
 11
553.1065027666
 21
438.7771431605
 31
0.0
  0
ARC
  5
2FF
330
1B
100
AcDbEntity
 67
     1
  8
3_ALL_AXES
  6
Continuous
 62
     7
100
AcDbCircle
 10
553.8281906031
 20
437.5271431605
 30
0.0
 40
3.8
100
AcDbArc
 50
0.0
 51
180.0
  0
ARC
  5
300
330
1B
100
AcDbEntity
 67
     1
  8
3_ALL_AXES
  6
Continuous
 62
     7
100
AcDbCircle
 10
553.8281906031
 20
437.5271431605
 30
0.0
 40
3.8
100
AcDbArc
 50
180.0
 51
360.0
  0
ARC
  5
301
330
1B
100
AcDbEntity
 67
     1
  8
3_ALL_AXES
  6
Continuous
 62
     7
100
AcDbCircle
 10
553.8281906031
 20
437.5271431605
 30
0.0
 40
1.965
100
AcDbArc
 50
180.0
 51
360.0
  0
ARC
  5
302
330
1B
100
AcDbEntity
 67
     1
  8
3_ALL_AXES
  6
Continuous
 62
     7
100
AcDbCircle
 10
553.8281906031
 20
437.5271431605
 30
0.0
 40
1.965
100
AcDbArc
 50
0.0
 51
180.0
  0
LINE
  5
303
330
1B
100
AcDbEntity
 67
     1
  8
7_ALL_FEATURES
  6
Continuous
 62
     7
100
AcDbLine
 10
553.1065027666
 20
473.7771431605
 30
0.0
 11
552.3848149301
 21
472.5271431605
 31
0.0
  0
LINE
  5
304
330
1B
100
AcDbEntity
 67
     1
  8
7_ALL_FEATURES
  6
Continuous
 62
     7
100
AcDbLine
 10
552.3848149301
 20
472.5271431605
 30
0.0
 11
553.1065027666
 21
471.2771431605
 31
0.0
  0
LINE
  5
305
330
1B
100
AcDbEntity
 67
     1
  8
7_ALL_FEATURES
  6
Continuous
 62
     7
100
AcDbLine
 10
553.1065027666
 20
471.2771431605
 30
0.0
 11
554.5498784396
 21
471.2771431605
 31
0.0
  0
LINE
  5
306
330
1B
100
AcDbEntity
 67
     1
  8
7_ALL_FEATURES
  6
Continuous
 62
     7
100
AcDbLine
 10
554.5498784396
 20
471.2771431605
 30
0.0
 11
555.2715662761
 21
472.5271431605
 31
0.0
  0
LINE
  5
307
330
1B
100
AcDbEntity
 67
     1
  8
7_ALL_FEATURES
  6
Continuous
 62
     7
100
AcDbLine
 10
555.2715662761
 20
472.5271431605
 30
0.0
 11
554.5498784396
 21
473.7771431605
 31
0.0
  0
LINE
  5
308
330
1B
100
AcDbEntity
 67
     1
  8
7_ALL_FEATURES
  6
Continuous
 62
     7
100
AcDbLine
 10
554.5498784396
 20
473.7771431605
 30
0.0
 11
553.1065027666
 21
473.7771431605
 31
0.0
  0
ARC
  5
309
330
1B
100
AcDbEntity
 67
     1
  8
3_ALL_AXES
  6
Continuous
 62
     7
100
AcDbCircle
 10
553.8281906031
 20
472.5271431605
 30
0.0
 40
3.8
100
AcDbArc
 50
0.0
 51
180.0
  0
ARC
  5
30A
330
1B
100
AcDbEntity
 67
     1
  8
3_ALL_AXES
  6
Continuous
 62
     7
100
AcDbCircle
 10
553.8281906031
 20
472.5271431605
 30
0.0
 40
3.8
100
AcDbArc
 50
180.0
 51
360.0
  0
ARC
  5
30B
330
1B
100
AcDbEntity
 67
     1
  8
3_ALL_AXES
  6
Continuous
 62
     7
100
AcDbCircle
 10
553.8281906031
 20
472.5271431605
 30
0.0
 40
1.965
100
AcDbArc
 50
180.0
 51
360.0
  0
ARC
  5
30C
330
1B
100
AcDbEntity
 67
     1
  8
3_ALL_AXES
  6
Continuous
 62
     7
100
AcDbCircle
 10
553.8281906031
 20
472.5271431605
 30
0.0
 40
1.965
100
AcDbArc
 50
0.0
 51
180.0
  0
LINE
  5
30D
330
1B
100
AcDbEntity
 67
     1
  8
7_ALL_FEATURES
  6
Continuous
 62
     7
100
AcDbLine
 10
58.1065027666
 20
473.7771431605
 30
0.0
 11
57.3848149301
 21
472.5271431605
 31
0.0
  0
LINE
  5
30E
330
1B
100
AcDbEntity
 67
     1
  8
7_ALL_FEATURES
  6
Continuous
 62
     7
100
AcDbLine
 10
57.3848149301
 20
472.5271431605
 30
0.0
 11
58.1065027666
 21
471.2771431605
 31
0.0
  0
LINE
  5
30F
330
1B
100
AcDbEntity
 67
     1
  8
7_ALL_FEATURES
  6
Continuous
 62
     7
100
AcDbLine
 10
58.1065027666
 20
471.2771431605
 30
0.0
 11
59.5498784396
 21
471.2771431605
 31
0.0
  0
LINE
  5
310
330
1B
100
AcDbEntity
 67
     1
  8
7_ALL_FEATURES
  6
Continuous
 62
     7
100
AcDbLine
 10
59.5498784396
 20
471.2771431605
 30
0.0
 11
60.2715662761
 21
472.5271431605
 31
0.0
  0
LINE
  5
311
330
1B
100
AcDbEntity
 67
     1
  8
7_ALL_FEATURES
  6
Continuous
 62
     7
100
AcDbLine
 10
60.2715662761
 20
472.5271431605
 30
0.0
 11
59.5498784396
 21
473.7771431605
 31
0.0
  0
LINE
  5
312
330
1B
100
AcDbEntity
 67
     1
  8
7_ALL_FEATURES
  6
Continuous
 62
     7
100
AcDbLine
 10
59.5498784396
 20
473.7771431605
 30
0.0
 11
58.1065027666
 21
473.7771431605
 31
0.0
  0
ARC
  5
313
330
1B
100
AcDbEntity
 67
     1
  8
3_ALL_AXES
  6
Continuous
 62
     7
100
AcDbCircle
 10
58.8281906031
 20
472.5271431605
 30
0.0
 40
3.8
100
AcDbArc
 50
0.0
 51
180.0
  0
ARC
  5
314
330
1B
100
AcDbEntity
 67
     1
  8
3_ALL_AXES
  6
Continuous
 62
     7
100
AcDbCircle
 10
58.8281906031
 20
472.5271431605
 30
0.0
 40
3.8
100
AcDbArc
 50
180.0
 51
360.0
  0
ARC
  5
315
330
1B
100
AcDbEntity
 67
     1
  8
3_ALL_AXES
  6
Continuous
 62
     7
100
AcDbCircle
 10
58.8281906031
 20
472.5271431605
 30
0.0
 40
1.965
100
AcDbArc
 50
180.0
 51
360.0
  0
ARC
  5
316
330
1B
100
AcDbEntity
 67
     1
  8
3_ALL_AXES
  6
Continuous
 62
     7
100
AcDbCircle
 10
58.8281906031
 20
472.5271431605
 30
0.0
 40
1.965
100
AcDbArc
 50
0.0
 51
180.0
  0
LINE
  5
317
330
1B
100
AcDbEntity
 67
     1
  8
7_ALL_FEATURES
  6
Continuous
 62
     7
100
AcDbLine
 10
58.1065027666
 20
438.7771431605
 30
0.0
 11
57.3848149301
 21
437.5271431605
 31
0.0
  0
LINE
  5
318
330
1B
100
AcDbEntity
 67
     1
  8
7_ALL_FEATURES
  6
Continuous
 62
     7
100
AcDbLine
 10
57.3848149301
 20
437.5271431605
 30
0.0
 11
58.1065027666
 21
436.2771431605
 31
0.0
  0
LINE
  5
319
330
1B
100
AcDbEntity
 67
     1
  8
7_ALL_FEATURES
  6
Continuous
 62
     7
100
AcDbLine
 10
58.1065027666
 20
436.2771431605
 30
0.0
 11
59.5498784396
 21
436.2771431605
 31
0.0
  0
LINE
  5
31A
330
1B
100
AcDbEntity
 67
     1
  8
7_ALL_FEATURES
  6
Continuous
 62
     7
100
AcDbLine
 10
59.5498784396
 20
436.2771431605
 30
0.0
 11
60.2715662761
 21
437.5271431605
 31
0.0
  0
LINE
  5
31B
330
1B
100
AcDbEntity
 67
     1
  8
7_ALL_FEATURES
  6
Continuous
 62
     7
100
AcDbLine
 10
60.2715662761
 20
437.5271431605
 30
0.0
 11
59.5498784396
 21
438.7771431605
 31
0.0
  0
LINE
  5
31C
330
1B
100
AcDbEntity
 67
     1
  8
7_ALL_FEATURES
  6
Continuous
 62
     7
100
AcDbLine
 10
59.5498784396
 20
438.7771431605
 30
0.0
 11
58.1065027666
 21
438.7771431605
 31
0.0
  0
ARC
  5
31D
330
1B
100
AcDbEntity
 67
     1
  8
3_ALL_AXES
  6
Continuous
 62
     7
100
AcDbCircle
 10
58.8281906031
 20
437.5271431605
 30
0.0
 40
3.8
100
AcDbArc
 50
0.0
 51
180.0
  0
ARC
  5
31E
330
1B
100
AcDbEntity
 67
     1
  8
3_ALL_AXES
  6
Continuous
 62
     7
100
AcDbCircle
 10
58.8281906031
 20
437.5271431605
 30
0.0
 40
3.8
100
AcDbArc
 50
180.0
 51
360.0
  0
ARC
  5
31F
330
1B
100
AcDbEntity
 67
     1
  8
3_ALL_AXES
  6
Continuous
 62
     7
100
AcDbCircle
 10
58.8281906031
 20
437.5271431605
 30
0.0
 40
1.965
100
AcDbArc
 50
180.0
 51
360.0
  0
ARC
  5
320
330
1B
100
AcDbEntity
 67
     1
  8
3_ALL_AXES
  6
Continuous
 62
     7
100
AcDbCircle
 10
58.8281906031
 20
437.5271431605
 30
0.0
 40
1.965
100
AcDbArc
 50
0.0
 51
180.0
  0
LINE
  5
321
330
1B
100
AcDbEntity
 67
     1
  8
7_ALL_FEATURES
  6
Continuous
 62
     7
100
AcDbLine
 10
468.8281906031
 20
425.0271431605
 30
0.0
 11
468.8281906031
 21
426.2271431605
 31
0.0
  0
LINE
  5
322
330
1B
100
AcDbEntity
 67
     1
  8
7_ALL_FEATURES
  6
Continuous
 62
     7
100
AcDbLine
 10
518.8281906031
 20
425.0271431605
 30
0.0
 11
518.8281906031
 21
426.2271431605
 31
0.0
  0
LINE
  5
323
330
1B
100
AcDbEntity
 67
     1
  8
7_ALL_FEATURES
  6
Continuous
 62
     7
100
AcDbLine
 10
518.8281906031
 20
425.0271431605
 30
0.0
 11
513.5781906031
 21
425.0271431605
 31
0.0
  0
LINE
  5
324
330
1B
100
AcDbEntity
 67
     1
  8
7_ALL_FEATURES
  6
Continuous
 62
     7
100
AcDbLine
 10
513.5781906031
 20
425.0271431605
 30
0.0
 11
508.8281906031
 21
425.0271431605
 31
0.0
  0
LINE
  5
325
330
1B
100
AcDbEntity
 67
     1
  8
7_ALL_FEATURES
  6
Continuous
 62
     7
100
AcDbLine
 10
478.8281906031
 20
425.0271431605
 30
0.0
 11
474.0781906031
 21
425.0271431605
 31
0.0
  0
LINE
  5
326
330
1B
100
AcDbEntity
 67
     1
  8
7_ALL_FEATURES
  6
Continuous
 62
     7
100
AcDbLine
 10
474.0781906031
 20
425.0271431605
 30
0.0
 11
468.8281906031
 21
425.0271431605
 31
0.0
  0
LINE
  5
327
330
1B
100
AcDbEntity
 67
     1
  8
7_ALL_FEATURES
  6
Continuous
 62
     7
100
AcDbLine
 10
478.8281906031
 20
425.0271431605
 30
0.0
 11
508.8281906031
 21
425.0271431605
 31
0.0
  0
LINE
  5
328
330
1B
100
AcDbEntity
 67
     1
  8
7_ALL_FEATURES
  6
Continuous
 62
     7
100
AcDbLine
 10
468.8281906031
 20
425.0271431605
 30
0.0
 11
468.8281906031
 21
426.2271431605
 31
0.0
  0
LINE
  5
329
330
1B
100
AcDbEntity
 67
     1
  8
7_ALL_FEATURES
  6
Continuous
 62
     9
100
AcDbLine
 10
478.8281906031
 20
425.0271431605
 30
0.0
 11
478.8281906031
 21
426.2271431605
 31
0.0
  0
LINE
  5
32A
330
1B
100
AcDbEntity
 67
     1
  8
7_ALL_FEATURES
  6
Continuous
 62
     9
100
AcDbLine
 10
508.8281906031
 20
425.0271431605
 30
0.0
 11
508.8281906031
 21
426.2271431605
 31
0.0
  0
LINE
  5
32B
330
1B
100
AcDbEntity
 67
     1
  8
7_ALL_FEATURES
  6
Continuous
 62
     7
100
AcDbLine
 10
93.8281906031
 20
425.0271431605
 30
0.0
 11
93.8281906031
 21
426.2271431605
 31
0.0
  0
LINE
  5
32C
330
1B
100
AcDbEntity
 67
     1
  8
7_ALL_FEATURES
  6
Continuous
 62
     7
100
AcDbLine
 10
143.8281906031
 20
425.0271431605
 30
0.0
 11
143.8281906031
 21
426.2271431605
 31
0.0
  0
LINE
  5
32D
330
1B
100
AcDbEntity
 67
     1
  8
7_ALL_FEATURES
  6
Continuous
 62
     7
100
AcDbLine
 10
143.8281906031
 20
425.0271431605
 30
0.0
 11
138.5781906031
 21
425.0271431605
 31
0.0
  0
LINE
  5
32E
330
1B
100
AcDbEntity
 67
     1
  8
7_ALL_FEATURES
  6
Continuous
 62
     7
100
AcDbLine
 10
138.5781906031
 20
425.0271431605
 30
0.0
 11
133.8281906031
 21
425.0271431605
 31
0.0
  0
LINE
  5
32F
330
1B
100
AcDbEntity
 67
     1
  8
7_ALL_FEATURES
  6
Continuous
 62
     7
100
AcDbLine
 10
103.8281906031
 20
425.0271431605
 30
0.0
 11
99.0781906031
 21
425.0271431605
 31
0.0
  0
LINE
  5
330
330
1B
100
AcDbEntity
 67
     1
  8
7_ALL_FEATURES
  6
Continuous
 62
     7
100
AcDbLine
 10
99.0781906031
 20
425.0271431605
 30
0.0
 11
93.8281906031
 21
425.0271431605
 31
0.0
  0
LINE
  5
331
330
1B
100
AcDbEntity
 67
     1
  8
7_ALL_FEATURES
  6
Continuous
 62
     7
100
AcDbLine
 10
103.8281906031
 20
425.0271431605
 30
0.0
 11
133.8281906031
 21
425.0271431605
 31
0.0
  0
LINE
  5
332
330
1B
100
AcDbEntity
 67
     1
  8
7_ALL_FEATURES
  6
Continuous
 62
     7
100
AcDbLine
 10
93.8281906031
 20
425.0271431605
 30
0.0
 11
93.8281906031
 21
426.2271431605
 31
0.0
  0
LINE
  5
333
330
1B
100
AcDbEntity
 67
     1
  8
7_ALL_FEATURES
  6
Continuous
 62
     9
100
AcDbLine
 10
103.8281906031
 20
425.0271431605
 30
0.0
 11
103.8281906031
 21
426.2271431605
 31
0.0
  0
LINE
  5
334
330
1B
100
AcDbEntity
 67
     1
  8
7_ALL_FEATURES
  6
Continuous
 62
     9
100
AcDbLine
 10
133.8281906031
 20
425.0271431605
 30
0.0
 11
133.8281906031
 21
426.2271431605
 31
0.0
  0
LINE
  5
335
330
1B
100
AcDbEntity
 67
     1
  8
7_ALL_FEATURES
  6
Continuous
 62
     7
100
AcDbLine
 10
50.0781906031
 20
514.0271431605
 30
0.0
 11
51.0781906031
 21
514.0271431605
 31
0.0
  0
LINE
  5
336
330
1B
100
AcDbEntity
 67
     1
  8
7_ALL_FEATURES
  6
Continuous
 62
     7
100
AcDbLine
 10
50.0781906031
 20
425.0271431605
 30
0.0
 11
51.0781906031
 21
425.0271431605
 31
0.0
  0
LINE
  5
337
330
1B
100
AcDbEntity
 67
     1
  8
7_ALL_FEATURES
  6
Continuous
 62
     7
100
AcDbLine
 10
50.0781906031
 20
425.0271431605
 30
0.0
 11
50.0781906031
 21
425.5271431605
 31
0.0
  0
LINE
  5
338
330
1B
100
AcDbEntity
 67
     1
  8
7_ALL_FEATURES
  6
Continuous
 62
     7
100
AcDbLine
 10
50.0781906031
 20
432.3271431605
 30
0.0
 11
50.0781906031
 21
425.5271431605
 31
0.0
  0
LINE
  5
339
330
1B
100
AcDbEntity
 67
     1
  8
7_ALL_FEATURES
  6
Continuous
 62
     7
100
AcDbLine
 10
50.0781906031
 20
433.5271431605
 30
0.0
 11
50.0781906031
 21
432.3271431605
 31
0.0
  0
LINE
  5
33A
330
1B
100
AcDbEntity
 67
     1
  8
7_ALL_FEATURES
  6
Continuous
 62
     7
100
AcDbLine
 10
50.0781906031
 20
441.5271431605
 30
0.0
 11
50.0781906031
 21
442.7271431605
 31
0.0
  0
LINE
  5
33B
330
1B
100
AcDbEntity
 67
     1
  8
7_ALL_FEATURES
  6
Continuous
 62
     7
100
AcDbLine
 10
50.0781906031
 20
467.3271431605
 30
0.0
 11
50.0781906031
 21
442.7271431605
 31
0.0
  0
LINE
  5
33C
330
1B
100
AcDbEntity
 67
     1
  8
7_ALL_FEATURES
  6
Continuous
 62
     7
100
AcDbLine
 10
50.0781906031
 20
468.5271431605
 30
0.0
 11
50.0781906031
 21
467.3271431605
 31
0.0
  0
LINE
  5
33D
330
1B
100
AcDbEntity
 67
     1
  8
7_ALL_FEATURES
  6
Continuous
 62
     7
100
AcDbLine
 10
50.0781906031
 20
476.5271431605
 30
0.0
 11
50.0781906031
 21
477.7271431605
 31
0.0
  0
LINE
  5
33E
330
1B
100
AcDbEntity
 67
     1
  8
7_ALL_FEATURES
  6
Continuous
 62
     7
100
AcDbLine
 10
50.0781906031
 20
513.5271431605
 30
0.0
 11
50.0781906031
 21
477.7271431605
 31
0.0
  0
LINE
  5
33F
330
1B
100
AcDbEntity
 67
     1
  8
7_ALL_FEATURES
  6
Continuous
 62
     7
100
AcDbLine
 10
50.0781906031
 20
513.5271431605
 30
0.0
 11
50.0781906031
 21
514.0271431605
 31
0.0
  0
LINE
  5
340
330
1B
100
AcDbEntity
 67
     1
  8
7_ALL_FEATURES
  6
Continuous
 62
     7
100
AcDbLine
 10
50.0781906031
 20
514.0271431605
 30
0.0
 11
51.0781906031
 21
514.0271431605
 31
0.0
  0
LINE
  5
341
330
1B
100
AcDbEntity
 67
     1
  8
7_ALL_FEATURES
  6
Continuous
 62
     7
100
AcDbLine
 10
50.0781906031
 20
477.7271431605
 30
0.0
 11
51.0781906031
 21
477.7271431605
 31
0.0
  0
LINE
  5
342
330
1B
100
AcDbEntity
 67
     1
  8
7_ALL_FEATURES
  6
Continuous
 62
     7
100
AcDbLine
 10
50.0781906031
 20
432.3271431605
 30
0.0
 11
51.0781906031
 21
432.3271431605
 31
0.0
  0
LINE
  5
343
330
1B
100
AcDbEntity
 67
     1
  8
7_ALL_FEATURES
  6
Continuous
 62
     7
100
AcDbLine
 10
50.0781906031
 20
442.7271431605
 30
0.0
 11
51.0781906031
 21
442.7271431605
 31
0.0
  0
LINE
  5
344
330
1B
100
AcDbEntity
 67
     1
  8
7_ALL_FEATURES
  6
Continuous
 62
     7
100
AcDbLine
 10
50.0781906031
 20
467.3271431605
 30
0.0
 11
51.0781906031
 21
467.3271431605
 31
0.0
  0
LINE
  5
345
330
1B
100
AcDbEntity
 67
     1
  8
7_ALL_FEATURES
  6
Continuous
 62
     7
100
AcDbLine
 10
50.0781906031
 20
476.5271431605
 30
0.0
 11
50.0781906031
 21
468.5271431605
 31
0.0
  0
LINE
  5
346
330
1B
100
AcDbEntity
 67
     1
  8
7_ALL_FEATURES
  6
Continuous
 62
     7
100
AcDbLine
 10
50.1370358923
 20
468.5271431605
 30
0.0
 11
50.0781906031
 21
468.5271431605
 31
0.0
  0
LINE
  5
347
330
1B
100
AcDbEntity
 67
     1
  8
7_ALL_FEATURES
  6
Continuous
 62
     7
100
AcDbLine
 10
52.0781906031
 20
468.5271431605
 30
0.0
 11
50.1370358923
 21
468.5271431605
 31
0.0
  0
LINE
  5
348
330
1B
100
AcDbEntity
 67
     1
  8
7_ALL_FEATURES
  6
Continuous
 62
     7
100
AcDbLine
 10
52.0781906031
 20
476.5271431605
 30
0.0
 11
50.1370358923
 21
476.5271431605
 31
0.0
  0
LINE
  5
349
330
1B
100
AcDbEntity
 67
     1
  8
7_ALL_FEATURES
  6
Continuous
 62
     7
100
AcDbLine
 10
50.1370358923
 20
476.5271431605
 30
0.0
 11
50.0781906031
 21
476.5271431605
 31
0.0
  0
LINE
  5
34A
330
1B
100
AcDbEntity
 67
     1
  8
7_ALL_FEATURES
  6
Continuous
 62
     7
100
AcDbLine
 10
61.5781906031
 20
476.5271431605
 30
0.0
 11
52.0781906031
 21
476.5271431605
 31
0.0
  0
LINE
  5
34B
330
1B
100
AcDbEntity
 67
     1
  8
7_ALL_FEATURES
  6
Continuous
 62
     7
100
AcDbLine
 10
52.0781906031
 20
468.5271431605
 30
0.0
 11
61.5781906031
 21
468.5271431605
 31
0.0
  0
ARC
  5
34C
330
1B
100
AcDbEntity
 67
     1
  8
7_ALL_FEATURES
  6
Continuous
 62
     7
100
AcDbCircle
 10
61.5781906031
 20
469.5271431605
 30
0.0
 40
1.0
100
AcDbArc
 50
270.0
 51
360.0
  0
LINE
  5
34D
330
1B
100
AcDbEntity
 67
     1
  8
7_ALL_FEATURES
  6
Continuous
 62
     7
100
AcDbLine
 10
62.5781906031
 20
469.5271431605
 30
0.0
 11
62.5781906031
 21
471.9188270295
 31
0.0
  0
LINE
  5
34E
330
1B
100
AcDbEntity
 67
     1
  8
7_ALL_FEATURES
  6
Continuous
 62
     7
100
AcDbLine
 10
62.5781906031
 20
473.1354592915
 30
0.0
 11
62.5781906031
 21
475.5271431605
 31
0.0
  0
ARC
  5
34F
330
1B
100
AcDbEntity
 67
     1
  8
7_ALL_FEATURES
  6
Continuous
 62
     7
100
AcDbCircle
 10
61.5781906031
 20
475.5271431605
 30
0.0
 40
1.0
100
AcDbArc
 50
0.0
 51
90.0
  0
LINE
  5
350
330
1B
100
AcDbEntity
 67
     1
  8
02___PRT_ALL_AXES
  6
Continuous
 62
     7
100
AcDbLine
 10
55.7662850678
 20
470.2771431605
 30
0.0
 11
55.3281906031
 21
470.2771431605
 31
0.0
  0
ARC
  5
351
330
1B
100
AcDbEntity
 67
     1
  8
02___PRT_ALL_AXES
  6
Continuous
 62
     7
100
AcDbCircle
 10
55.3281906031
 20
472.5271431605
 30
0.0
 40
2.25
100
AcDbArc
 50
90.0
 51
270.0
  0
LINE
  5
352
330
1B
100
AcDbEntity
 67
     1
  8
02___PRT_ALL_AXES
  6
Continuous
 62
     7
100
AcDbLine
 10
55.3281906031
 20
474.7771431605
 30
0.0
 11
55.7662850678
 21
474.7771431605
 31
0.0
  0
LINE
  5
353
330
1B
100
AcDbEntity
 67
     1
  8
7_ALL_FEATURES
  6
Continuous
 62
     7
100
AcDbLine
 10
50.0781906031
 20
441.5271431605
 30
0.0
 11
50.0781906031
 21
433.5271431605
 31
0.0
  0
LINE
  5
354
330
1B
100
AcDbEntity
 67
     1
  8
7_ALL_FEATURES
  6
Continuous
 62
     7
100
AcDbLine
 10
50.1370358923
 20
433.5271431605
 30
0.0
 11
50.0781906031
 21
433.5271431605
 31
0.0
  0
LINE
  5
355
330
1B
100
AcDbEntity
 67
     1
  8
7_ALL_FEATURES
  6
Continuous
 62
     7
100
AcDbLine
 10
52.0781906031
 20
433.5271431605
 30
0.0
 11
50.1370358923
 21
433.5271431605
 31
0.0
  0
LINE
  5
356
330
1B
100
AcDbEntity
 67
     1
  8
7_ALL_FEATURES
  6
Continuous
 62
     7
100
AcDbLine
 10
52.0781906031
 20
441.5271431605
 30
0.0
 11
50.1370358923
 21
441.5271431605
 31
0.0
  0
LINE
  5
357
330
1B
100
AcDbEntity
 67
     1
  8
7_ALL_FEATURES
  6
Continuous
 62
     7
100
AcDbLine
 10
50.1370358923
 20
441.5271431605
 30
0.0
 11
50.0781906031
 21
441.5271431605
 31
0.0
  0
LINE
  5
358
330
1B
100
AcDbEntity
 67
     1
  8
7_ALL_FEATURES
  6
Continuous
 62
     7
100
AcDbLine
 10
61.5781906031
 20
441.5271431605
 30
0.0
 11
52.0781906031
 21
441.5271431605
 31
0.0
  0
LINE
  5
359
330
1B
100
AcDbEntity
 67
     1
  8
7_ALL_FEATURES
  6
Continuous
 62
     7
100
AcDbLine
 10
52.0781906031
 20
433.5271431605
 30
0.0
 11
61.5781906031
 21
433.5271431605
 31
0.0
  0
ARC
  5
35A
330
1B
100
AcDbEntity
 67
     1
  8
7_ALL_FEATURES
  6
Continuous
 62
     7
100
AcDbCircle
 10
61.5781906031
 20
434.5271431605
 30
0.0
 40
1.0
100
AcDbArc
 50
270.0
 51
360.0
  0
LINE
  5
35B
330
1B
100
AcDbEntity
 67
     1
  8
7_ALL_FEATURES
  6
Continuous
 62
     7
100
AcDbLine
 10
62.5781906031
 20
434.5271431605
 30
0.0
 11
62.5781906031
 21
436.9188270295
 31
0.0
  0
LINE
  5
35C
330
1B
100
AcDbEntity
 67
     1
  8
7_ALL_FEATURES
  6
Continuous
 62
     7
100
AcDbLine
 10
62.5781906031
 20
438.1354592915
 30
0.0
 11
62.5781906031
 21
440.5271431605
 31
0.0
  0
ARC
  5
35D
330
1B
100
AcDbEntity
 67
     1
  8
7_ALL_FEATURES
  6
Continuous
 62
     7
100
AcDbCircle
 10
61.5781906031
 20
440.5271431605
 30
0.0
 40
1.0
100
AcDbArc
 50
0.0
 51
90.0
  0
LINE
  5
35E
330
1B
100
AcDbEntity
 67
     1
  8
02___PRT_ALL_AXES
  6
Continuous
 62
     7
100
AcDbLine
 10
55.3281906031
 20
439.7771431605
 30
0.0
 11
55.7662850678
 21
439.7771431605
 31
0.0
  0
LINE
  5
35F
330
1B
100
AcDbEntity
 67
     1
  8
02___PRT_ALL_AXES
  6
Continuous
 62
     7
100
AcDbLine
 10
55.7662850678
 20
435.2771431605
 30
0.0
 11
55.3281906031
 21
435.2771431605
 31
0.0
  0
ARC
  5
360
330
1B
100
AcDbEntity
 67
     1
  8
02___PRT_ALL_AXES
  6
Continuous
 62
     7
100
AcDbCircle
 10
55.3281906031
 20
437.5271431605
 30
0.0
 40
2.25
100
AcDbArc
 50
90.0
 51
270.0
  0
LINE
  5
361
330
1B
100
AcDbEntity
 67
     1
  8
7_ALL_FEATURES
  6
Continuous
 62
     9
100
AcDbLine
 10
50.0781906031
 20
513.5271431605
 30
0.0
 11
51.0781906031
 21
513.5271431605
 31
0.0
  0
LINE
  5
362
330
1B
100
AcDbEntity
 67
     1
  8
7_ALL_FEATURES
  6
Continuous
 62
     9
100
AcDbLine
 10
52.0781906031
 20
476.5271431605
 30
0.0
 11
52.0781906031
 21
468.5271431605
 31
0.0
  0
LINE
  5
363
330
1B
100
AcDbEntity
 67
     1
  8
7_ALL_FEATURES
  6
Continuous
 62
     9
100
AcDbLine
 10
52.0781906031
 20
441.5271431605
 30
0.0
 11
52.0781906031
 21
433.5271431605
 31
0.0
  0
LINE
  5
364
330
1B
100
AcDbEntity
 67
     1
  8
7_ALL_FEATURES
  6
Continuous
 62
     9
100
AcDbLine
 10
50.0781906031
 20
425.5271431605
 30
0.0
 11
51.0781906031
 21
425.5271431605
 31
0.0
  0
LINE
  5
365
330
1B
100
AcDbEntity
 67
     1
  8
7_ALL_FEATURES
  6
Continuous
 62
     7
100
AcDbLine
 10
562.5781906031
 20
425.0271431605
 30
0.0
 11
561.5781906031
 21
425.0271431605
 31
0.0
  0
LINE
  5
366
330
1B
100
AcDbEntity
 67
     1
  8
7_ALL_FEATURES
  6
Continuous
 62
     7
100
AcDbLine
 10
562.5781906031
 20
468.5271431605
 30
0.0
 11
562.5781906031
 21
476.5271431605
 31
0.0
  0
LINE
  5
367
330
1B
100
AcDbEntity
 67
     1
  8
7_ALL_FEATURES
  6
Continuous
 62
     7
100
AcDbLine
 10
562.5781906031
 20
433.5271431605
 30
0.0
 11
562.5781906031
 21
441.5271431605
 31
0.0
  0
LINE
  5
368
330
1B
100
AcDbEntity
 67
     1
  8
7_ALL_FEATURES
  6
Continuous
 62
     7
100
AcDbLine
 10
562.5781906031
 20
425.0271431605
 30
0.0
 11
561.5781906031
 21
425.0271431605
 31
0.0
  0
LINE
  5
369
330
1B
100
AcDbEntity
 67
     1
  8
7_ALL_FEATURES
  6
Continuous
 62
     7
100
AcDbLine
 10
562.5781906031
 20
514.0271431605
 30
0.0
 11
562.5781906031
 21
513.5271431605
 31
0.0
  0
LINE
  5
36A
330
1B
100
AcDbEntity
 67
     1
  8
7_ALL_FEATURES
  6
Continuous
 62
     7
100
AcDbLine
 10
562.5781906031
 20
477.5271431605
 30
0.0
 11
562.5781906031
 21
513.5271431605
 31
0.0
  0
LINE
  5
36B
330
1B
100
AcDbEntity
 67
     1
  8
7_ALL_FEATURES
  6
Continuous
 62
     7
100
AcDbLine
 10
562.5781906031
 20
476.5271431605
 30
0.0
 11
562.5781906031
 21
477.5271431605
 31
0.0
  0
LINE
  5
36C
330
1B
100
AcDbEntity
 67
     1
  8
7_ALL_FEATURES
  6
Continuous
 62
     7
100
AcDbLine
 10
562.5781906031
 20
468.5271431605
 30
0.0
 11
562.5781906031
 21
467.5271431605
 31
0.0
  0
LINE
  5
36D
330
1B
100
AcDbEntity
 67
     1
  8
7_ALL_FEATURES
  6
Continuous
 62
     7
100
AcDbLine
 10
562.5781906031
 20
442.7271431605
 30
0.0
 11
562.5781906031
 21
467.5271431605
 31
0.0
  0
LINE
  5
36E
330
1B
100
AcDbEntity
 67
     1
  8
7_ALL_FEATURES
  6
Continuous
 62
     7
100
AcDbLine
 10
562.5781906031
 20
441.5271431605
 30
0.0
 11
562.5781906031
 21
442.7271431605
 31
0.0
  0
LINE
  5
36F
330
1B
100
AcDbEntity
 67
     1
  8
7_ALL_FEATURES
  6
Continuous
 62
     7
100
AcDbLine
 10
562.5781906031
 20
433.5271431605
 30
0.0
 11
562.5781906031
 21
432.3271431605
 31
0.0
  0
LINE
  5
370
330
1B
100
AcDbEntity
 67
     1
  8
7_ALL_FEATURES
  6
Continuous
 62
     7
100
AcDbLine
 10
562.5781906031
 20
425.5271431605
 30
0.0
 11
562.5781906031
 21
432.3271431605
 31
0.0
  0
LINE
  5
371
330
1B
100
AcDbEntity
 67
     1
  8
7_ALL_FEATURES
  6
Continuous
 62
     7
100
AcDbLine
 10
562.5781906031
 20
425.5271431605
 30
0.0
 11
562.5781906031
 21
425.0271431605
 31
0.0
  0
LINE
  5
372
330
1B
100
AcDbEntity
 67
     1
  8
7_ALL_FEATURES
  6
Continuous
 62
     7
100
AcDbLine
 10
562.5781906031
 20
477.5271431605
 30
0.0
 11
561.5781906031
 21
477.5271431605
 31
0.0
  0
LINE
  5
373
330
1B
100
AcDbEntity
 67
     1
  8
7_ALL_FEATURES
  6
Continuous
 62
     7
100
AcDbLine
 10
562.5781906031
 20
432.3271431605
 30
0.0
 11
561.5781906031
 21
432.3271431605
 31
0.0
  0
LINE
  5
374
330
1B
100
AcDbEntity
 67
     1
  8
7_ALL_FEATURES
  6
Continuous
 62
     7
100
AcDbLine
 10
562.5781906031
 20
442.7271431605
 30
0.0
 11
561.5781906031
 21
442.7271431605
 31
0.0
  0
LINE
  5
375
330
1B
100
AcDbEntity
 67
     1
  8
7_ALL_FEATURES
  6
Continuous
 62
     7
100
AcDbLine
 10
562.5781906031
 20
467.5271431605
 30
0.0
 11
561.5781906031
 21
467.5271431605
 31
0.0
  0
LINE
  5
376
330
1B
100
AcDbEntity
 67
     1
  8
7_ALL_FEATURES
  6
Continuous
 62
     7
100
AcDbLine
 10
562.5781906031
 20
514.0271431605
 30
0.0
 11
561.5781906031
 21
514.0271431605
 31
0.0
  0
LINE
  5
377
330
1B
100
AcDbEntity
 67
     1
  8
7_ALL_FEATURES
  6
Continuous
 62
     7
100
AcDbLine
 10
562.5781906031
 20
468.5271431605
 30
0.0
 11
562.5781906031
 21
476.5271431605
 31
0.0
  0
LINE
  5
378
330
1B
100
AcDbEntity
 67
     1
  8
7_ALL_FEATURES
  6
Continuous
 62
     7
100
AcDbLine
 10
562.519345314
 20
476.5271431605
 30
0.0
 11
562.5781906031
 21
476.5271431605
 31
0.0
  0
LINE
  5
379
330
1B
100
AcDbEntity
 67
     1
  8
7_ALL_FEATURES
  6
Continuous
 62
     7
100
AcDbLine
 10
560.5781906031
 20
476.5271431605
 30
0.0
 11
562.519345314
 21
476.5271431605
 31
0.0
  0
LINE
  5
37A
330
1B
100
AcDbEntity
 67
     1
  8
7_ALL_FEATURES
  6
Continuous
 62
     7
100
AcDbLine
 10
560.5781906031
 20
468.5271431605
 30
0.0
 11
562.519345314
 21
468.5271431605
 31
0.0
  0
LINE
  5
37B
330
1B
100
AcDbEntity
 67
     1
  8
7_ALL_FEATURES
  6
Continuous
 62
     7
100
AcDbLine
 10
562.519345314
 20
468.5271431605
 30
0.0
 11
562.5781906031
 21
468.5271431605
 31
0.0
  0
LINE
  5
37C
330
1B
100
AcDbEntity
 67
     1
  8
7_ALL_FEATURES
  6
Continuous
 62
     7
100
AcDbLine
 10
550.0781906031
 20
475.5271431605
 30
0.0
 11
550.0781906031
 21
473.1354592915
 31
0.0
  0
LINE
  5
37D
330
1B
100
AcDbEntity
 67
     1
  8
7_ALL_FEATURES
  6
Continuous
 62
     7
100
AcDbLine
 10
550.0781906031
 20
471.9188270295
 30
0.0
 11
550.0781906031
 21
469.5271431605
 31
0.0
  0
ARC
  5
37E
330
1B
100
AcDbEntity
 67
     1
  8
7_ALL_FEATURES
  6
Continuous
 62
     7
100
AcDbCircle
 10
551.0781906031
 20
469.5271431605
 30
0.0
 40
1.0
100
AcDbArc
 50
180.0
 51
270.0
  0
LINE
  5
37F
330
1B
100
AcDbEntity
 67
     1
  8
7_ALL_FEATURES
  6
Continuous
 62
     7
100
AcDbLine
 10
551.0781906031
 20
468.5271431605
 30
0.0
 11
560.5781906031
 21
468.5271431605
 31
0.0
  0
LINE
  5
380
330
1B
100
AcDbEntity
 67
     1
  8
7_ALL_FEATURES
  6
Continuous
 62
     7
100
AcDbLine
 10
560.5781906031
 20
476.5271431605
 30
0.0
 11
551.0781906031
 21
476.5271431605
 31
0.0
  0
ARC
  5
381
330
1B
100
AcDbEntity
 67
     1
  8
7_ALL_FEATURES
  6
Continuous
 62
     7
100
AcDbCircle
 10
551.0781906031
 20
475.5271431605
 30
0.0
 40
1.0
100
AcDbArc
 50
90.0
 51
180.0
  0
ARC
  5
382
330
1B
100
AcDbEntity
 67
     1
  8
02___PRT_ALL_AXES
  6
Continuous
 62
     7
100
AcDbCircle
 10
557.3281906031
 20
472.5271431605
 30
0.0
 40
2.25
100
AcDbArc
 50
270.0
 51
90.0
  0
LINE
  5
383
330
1B
100
AcDbEntity
 67
     1
  8
02___PRT_ALL_AXES
  6
Continuous
 62
     7
100
AcDbLine
 10
556.8900961385
 20
470.2771431605
 30
0.0
 11
557.3281906031
 21
470.2771431605
 31
0.0
  0
LINE
  5
384
330
1B
100
AcDbEntity
 67
     1
  8
02___PRT_ALL_AXES
  6
Continuous
 62
     7
100
AcDbLine
 10
557.3281906031
 20
474.7771431605
 30
0.0
 11
556.8900961385
 21
474.7771431605
 31
0.0
  0
LINE
  5
385
330
1B
100
AcDbEntity
 67
     1
  8
7_ALL_FEATURES
  6
Continuous
 62
     7
100
AcDbLine
 10
562.5781906031
 20
433.5271431605
 30
0.0
 11
562.5781906031
 21
441.5271431605
 31
0.0
  0
LINE
  5
386
330
1B
100
AcDbEntity
 67
     1
  8
7_ALL_FEATURES
  6
Continuous
 62
     7
100
AcDbLine
 10
562.519345314
 20
441.5271431605
 30
0.0
 11
562.5781906031
 21
441.5271431605
 31
0.0
  0
LINE
  5
387
330
1B
100
AcDbEntity
 67
     1
  8
7_ALL_FEATURES
  6
Continuous
 62
     7
100
AcDbLine
 10
560.5781906031
 20
441.5271431605
 30
0.0
 11
562.519345314
 21
441.5271431605
 31
0.0
  0
LINE
  5
388
330
1B
100
AcDbEntity
 67
     1
  8
7_ALL_FEATURES
  6
Continuous
 62
     7
100
AcDbLine
 10
560.5781906031
 20
433.5271431605
 30
0.0
 11
562.519345314
 21
433.5271431605
 31
0.0
  0
LINE
  5
389
330
1B
100
AcDbEntity
 67
     1
  8
7_ALL_FEATURES
  6
Continuous
 62
     7
100
AcDbLine
 10
562.519345314
 20
433.5271431605
 30
0.0
 11
562.5781906031
 21
433.5271431605
 31
0.0
  0
LINE
  5
38A
330
1B
100
AcDbEntity
 67
     1
  8
7_ALL_FEATURES
  6
Continuous
 62
     7
100
AcDbLine
 10
550.0781906031
 20
440.5271431605
 30
0.0
 11
550.0781906031
 21
438.1354592915
 31
0.0
  0
LINE
  5
38B
330
1B
100
AcDbEntity
 67
     1
  8
7_ALL_FEATURES
  6
Continuous
 62
     7
100
AcDbLine
 10
550.0781906031
 20
436.9188270295
 30
0.0
 11
550.0781906031
 21
434.5271431605
 31
0.0
  0
ARC
  5
38C
330
1B
100
AcDbEntity
 67
     1
  8
7_ALL_FEATURES
  6
Continuous
 62
     7
100
AcDbCircle
 10
551.0781906031
 20
434.5271431605
 30
0.0
 40
1.0
100
AcDbArc
 50
180.0
 51
270.0
  0
LINE
  5
38D
330
1B
100
AcDbEntity
 67
     1
  8
7_ALL_FEATURES
  6
Continuous
 62
     7
100
AcDbLine
 10
551.0781906031
 20
433.5271431605
 30
0.0
 11
560.5781906031
 21
433.5271431605
 31
0.0
  0
LINE
  5
38E
330
1B
100
AcDbEntity
 67
     1
  8
7_ALL_FEATURES
  6
Continuous
 62
     7
100
AcDbLine
 10
560.5781906031
 20
441.5271431605
 30
0.0
 11
551.0781906031
 21
441.5271431605
 31
0.0
  0
ARC
  5
38F
330
1B
100
AcDbEntity
 67
     1
  8
7_ALL_FEATURES
  6
Continuous
 62
     7
100
AcDbCircle
 10
551.0781906031
 20
440.5271431605
 30
0.0
 40
1.0
100
AcDbArc
 50
90.0
 51
180.0
  0
LINE
  5
390
330
1B
100
AcDbEntity
 67
     1
  8
02___PRT_ALL_AXES
  6
Continuous
 62
     7
100
AcDbLine
 10
556.8900961385
 20
435.2771431605
 30
0.0
 11
557.3281906031
 21
435.2771431605
 31
0.0
  0
LINE
  5
391
330
1B
100
AcDbEntity
 67
     1
  8
02___PRT_ALL_AXES
  6
Continuous
 62
     7
100
AcDbLine
 10
557.3281906031
 20
439.7771431605
 30
0.0
 11
556.8900961385
 21
439.7771431605
 31
0.0
  0
ARC
  5
392
330
1B
100
AcDbEntity
 67
     1
  8
02___PRT_ALL_AXES
  6
Continuous
 62
     7
100
AcDbCircle
 10
557.3281906031
 20
437.5271431605
 30
0.0
 40
2.25
100
AcDbArc
 50
270.0
 51
90.0
  0
LINE
  5
393
330
1B
100
AcDbEntity
 67
     1
  8
7_ALL_FEATURES
  6
Continuous
 62
     9
100
AcDbLine
 10
560.5781906031
 20
468.5271431605
 30
0.0
 11
560.5781906031
 21
476.5271431605
 31
0.0
  0
LINE
  5
394
330
1B
100
AcDbEntity
 67
     1
  8
7_ALL_FEATURES
  6
Continuous
 62
     9
100
AcDbLine
 10
560.5781906031
 20
433.5271431605
 30
0.0
 11
560.5781906031
 21
441.5271431605
 31
0.0
  0
LINE
  5
395
330
1B
100
AcDbEntity
 67
     1
  8
7_ALL_FEATURES
  6
Continuous
 62
     9
100
AcDbLine
 10
562.5781906031
 20
513.5271431605
 30
0.0
 11
561.5781906031
 21
513.5271431605
 31
0.0
  0
LINE
  5
396
330
1B
100
AcDbEntity
 67
     1
  8
7_ALL_FEATURES
  6
Continuous
 62
     9
100
AcDbLine
 10
562.5781906031
 20
425.5271431605
 30
0.0
 11
561.5781906031
 21
425.5271431605
 31
0.0
  0
LINE
  5
397
330
1B
100
AcDbEntity
 67
     1
  8
7_ALL_FEATURES
  6
Continuous
 62
     7
100
AcDbLine
 10
51.0781906031
 20
426.2271431605
 30
0.0
 11
93.8281906031
 21
426.2271431605
 31
0.0
  0
LINE
  5
398
330
1B
100
AcDbEntity
 67
     1
  8
7_ALL_FEATURES
  6
Continuous
 62
     7
100
AcDbLine
 10
143.8281906031
 20
426.2271431605
 30
0.0
 11
468.8281906031
 21
426.2271431605
 31
0.0
  0
LINE
  5
399
330
1B
100
AcDbEntity
 67
     1
  8
7_ALL_FEATURES
  6
Continuous
 62
     7
100
AcDbLine
 10
518.8281906031
 20
426.2271431605
 30
0.0
 11
561.5781906031
 21
426.2271431605
 31
0.0
  0
LINE
  5
39A
330
1B
100
AcDbEntity
 67
     1
  8
7_ALL_FEATURES
  6
Continuous
 62
     7
100
AcDbLine
 10
559.0781906031
 20
467.5271431605
 30
0.0
 11
559.0781906031
 21
468.5271431605
 31
0.0
  0
LINE
  5
39B
330
1B
100
AcDbEntity
 67
     1
  8
7_ALL_FEATURES
  6
Continuous
 62
     7
100
AcDbLine
 10
559.0781906031
 20
471.1129783988
 30
0.0
 11
559.0781906031
 21
473.9413079223
 31
0.0
  0
LINE
  5
39C
330
1B
100
AcDbEntity
 67
     1
  8
7_ALL_FEATURES
  6
Continuous
 62
     7
100
AcDbLine
 10
559.0781906031
 20
476.5271431605
 30
0.0
 11
559.0781906031
 21
477.5271431605
 31
0.0
  0
LINE
  5
39D
330
1B
100
AcDbEntity
 67
     1
  8
7_ALL_FEATURES
  6
Continuous
 62
     7
100
AcDbLine
 10
561.5781906031
 20
477.5271431605
 30
0.0
 11
559.0781906031
 21
477.5271431605
 31
0.0
  0
LINE
  5
39E
330
1B
100
AcDbEntity
 67
     1
  8
7_ALL_FEATURES
  6
Continuous
 62
     7
100
AcDbLine
 10
561.5781906031
 20
477.5271431605
 30
0.0
 11
561.5781906031
 21
513.5271431605
 31
0.0
  0
LINE
  5
39F
330
1B
100
AcDbEntity
 67
     1
  8
7_ALL_FEATURES
  6
Continuous
 62
     7
100
AcDbLine
 10
561.5781906031
 20
513.5271431605
 30
0.0
 11
561.5781906031
 21
514.0271431605
 31
0.0
  0
LINE
  5
3A0
330
1B
100
AcDbEntity
 67
     1
  8
7_ALL_FEATURES
  6
Continuous
 62
     7
100
AcDbLine
 10
561.5781906031
 20
514.0271431605
 30
0.0
 11
51.0781906031
 21
514.0271431605
 31
0.0
  0
LINE
  5
3A1
330
1B
100
AcDbEntity
 67
     1
  8
7_ALL_FEATURES
  6
Continuous
 62
     7
100
AcDbLine
 10
51.0781906031
 20
514.0271431605
 30
0.0
 11
51.0781906031
 21
513.5271431605
 31
0.0
  0
LINE
  5
3A2
330
1B
100
AcDbEntity
 67
     1
  8
7_ALL_FEATURES
  6
Continuous
 62
     7
100
AcDbLine
 10
51.0781906031
 20
513.5271431605
 30
0.0
 11
51.0781906031
 21
477.7271431605
 31
0.0
  0
LINE
  5
3A3
330
1B
100
AcDbEntity
 67
     1
  8
7_ALL_FEATURES
  6
Continuous
 62
     7
100
AcDbLine
 10
51.0781906031
 20
477.7271431605
 30
0.0
 11
51.0781906031
 21
477.5271431605
 31
0.0
  0
LINE
  5
3A4
330
1B
100
AcDbEntity
 67
     1
  8
7_ALL_FEATURES
  6
Continuous
 62
     7
100
AcDbLine
 10
51.0781906031
 20
477.5271431605
 30
0.0
 11
53.5781906031
 21
477.5271431605
 31
0.0
  0
LINE
  5
3A5
330
1B
100
AcDbEntity
 67
     1
  8
7_ALL_FEATURES
  6
Continuous
 62
     7
100
AcDbLine
 10
53.5781906031
 20
477.5271431605
 30
0.0
 11
53.5781906031
 21
476.5271431605
 31
0.0
  0
LINE
  5
3A6
330
1B
100
AcDbEntity
 67
     1
  8
7_ALL_FEATURES
  6
Continuous
 62
     7
100
AcDbLine
 10
53.5781906031
 20
473.9413079223
 30
0.0
 11
53.5781906031
 21
471.1129783988
 31
0.0
  0
LINE
  5
3A7
330
1B
100
AcDbEntity
 67
     1
  8
7_ALL_FEATURES
  6
Continuous
 62
     7
100
AcDbLine
 10
53.5781906031
 20
468.5271431605
 30
0.0
 11
53.5781906031
 21
467.5271431605
 31
0.0
  0
LINE
  5
3A8
330
1B
100
AcDbEntity
 67
     1
  8
7_ALL_FEATURES
  6
Continuous
 62
     7
100
AcDbLine
 10
51.0781906031
 20
467.5271431605
 30
0.0
 11
53.5781906031
 21
467.5271431605
 31
0.0
  0
LINE
  5
3A9
330
1B
100
AcDbEntity
 67
     1
  8
7_ALL_FEATURES
  6
Continuous
 62
     7
100
AcDbLine
 10
51.0781906031
 20
467.5271431605
 30
0.0
 11
51.0781906031
 21
467.3271431605
 31
0.0
  0
LINE
  5
3AA
330
1B
100
AcDbEntity
 67
     1
  8
7_ALL_FEATURES
  6
Continuous
 62
     7
100
AcDbLine
 10
51.0781906031
 20
467.3271431605
 30
0.0
 11
51.0781906031
 21
442.7271431605
 31
0.0
  0
LINE
  5
3AB
330
1B
100
AcDbEntity
 67
     1
  8
7_ALL_FEATURES
  6
Continuous
 62
     7
100
AcDbLine
 10
51.0781906031
 20
442.7271431605
 30
0.0
 11
51.0781906031
 21
442.5271431605
 31
0.0
  0
LINE
  5
3AC
330
1B
100
AcDbEntity
 67
     1
  8
7_ALL_FEATURES
  6
Continuous
 62
     7
100
AcDbLine
 10
51.0781906031
 20
442.5271431605
 30
0.0
 11
53.5781906031
 21
442.5271431605
 31
0.0
  0
LINE
  5
3AD
330
1B
100
AcDbEntity
 67
     1
  8
7_ALL_FEATURES
  6
Continuous
 62
     7
100
AcDbLine
 10
53.5781906031
 20
432.5271431605
 30
0.0
 11
53.5781906031
 21
433.5271431605
 31
0.0
  0
LINE
  5
3AE
330
1B
100
AcDbEntity
 67
     1
  8
7_ALL_FEATURES
  6
Continuous
 62
     7
100
AcDbLine
 10
53.5781906031
 20
436.1129783988
 30
0.0
 11
53.5781906031
 21
438.9413079223
 31
0.0
  0
LINE
  5
3AF
330
1B
100
AcDbEntity
 67
     1
  8
7_ALL_FEATURES
  6
Continuous
 62
     7
100
AcDbLine
 10
53.5781906031
 20
441.5271431605
 30
0.0
 11
53.5781906031
 21
442.5271431605
 31
0.0
  0
LINE
  5
3B0
330
1B
100
AcDbEntity
 67
     1
  8
7_ALL_FEATURES
  6
Continuous
 62
     7
100
AcDbLine
 10
51.0781906031
 20
432.5271431605
 30
0.0
 11
53.5781906031
 21
432.5271431605
 31
0.0
  0
LINE
  5
3B1
330
1B
100
AcDbEntity
 67
     1
  8
7_ALL_FEATURES
  6
Continuous
 62
     7
100
AcDbLine
 10
51.0781906031
 20
432.5271431605
 30
0.0
 11
51.0781906031
 21
432.3271431605
 31
0.0
  0
LINE
  5
3B2
330
1B
100
AcDbEntity
 67
     1
  8
7_ALL_FEATURES
  6
Continuous
 62
     7
100
AcDbLine
 10
51.0781906031
 20
432.3271431605
 30
0.0
 11
51.0781906031
 21
428.6271431605
 31
0.0
  0
LINE
  5
3B3
330
1B
100
AcDbEntity
 67
     1
  8
7_ALL_FEATURES
  6
Continuous
 62
     7
100
AcDbLine
 10
561.5781906031
 20
428.6271431605
 30
0.0
 11
561.5781906031
 21
432.3271431605
 31
0.0
  0
LINE
  5
3B4
330
1B
100
AcDbEntity
 67
     1
  8
7_ALL_FEATURES
  6
Continuous
 62
     7
100
AcDbLine
 10
561.5781906031
 20
432.3271431605
 30
0.0
 11
561.5781906031
 21
432.5271431605
 31
0.0
  0
LINE
  5
3B5
330
1B
100
AcDbEntity
 67
     1
  8
7_ALL_FEATURES
  6
Continuous
 62
     7
100
AcDbLine
 10
561.5781906031
 20
432.5271431605
 30
0.0
 11
559.0781906031
 21
432.5271431605
 31
0.0
  0
LINE
  5
3B6
330
1B
100
AcDbEntity
 67
     1
  8
7_ALL_FEATURES
  6
Continuous
 62
     7
100
AcDbLine
 10
559.0781906031
 20
432.5271431605
 30
0.0
 11
559.0781906031
 21
433.5271431605
 31
0.0
  0
LINE
  5
3B7
330
1B
100
AcDbEntity
 67
     1
  8
7_ALL_FEATURES
  6
Continuous
 62
     7
100
AcDbLine
 10
559.0781906031
 20
436.1129783988
 30
0.0
 11
559.0781906031
 21
438.9413079223
 31
0.0
  0
LINE
  5
3B8
330
1B
100
AcDbEntity
 67
     1
  8
7_ALL_FEATURES
  6
Continuous
 62
     7
100
AcDbLine
 10
559.0781906031
 20
441.5271431605
 30
0.0
 11
559.0781906031
 21
442.5271431605
 31
0.0
  0
LINE
  5
3B9
330
1B
100
AcDbEntity
 67
     1
  8
7_ALL_FEATURES
  6
Continuous
 62
     7
100
AcDbLine
 10
561.5781906031
 20
442.5271431605
 30
0.0
 11
559.0781906031
 21
442.5271431605
 31
0.0
  0
LINE
  5
3BA
330
1B
100
AcDbEntity
 67
     1
  8
7_ALL_FEATURES
  6
Continuous
 62
     7
100
AcDbLine
 10
561.5781906031
 20
442.5271431605
 30
0.0
 11
561.5781906031
 21
442.7271431605
 31
0.0
  0
LINE
  5
3BB
330
1B
100
AcDbEntity
 67
     1
  8
7_ALL_FEATURES
  6
Continuous
 62
     7
100
AcDbLine
 10
561.5781906031
 20
442.7271431605
 30
0.0
 11
561.5781906031
 21
467.5271431605
 31
0.0
  0
LINE
  5
3BC
330
1B
100
AcDbEntity
 67
     1
  8
7_ALL_FEATURES
  6
Continuous
 62
     7
100
AcDbLine
 10
561.5781906031
 20
467.5271431605
 30
0.0
 11
559.0781906031
 21
467.5271431605
 31
0.0
  0
LINE
  5
3BD
330
1B
100
AcDbEntity
 67
     1
  8
02___PRT_ALL_AXES
  6
Continuous
 62
     7
100
AcDbLine
 10
203.3224034598
 20
453.3640527232
 30
0.0
 11
203.8220988733
 21
453.3466029748
 31
0.0
  0
ARC
  5
3BE
330
1B
100
AcDbEntity
 67
     1
  8
02___PRT_ALL_AXES
  6
Continuous
 62
     7
100
AcDbCircle
 10
193.8281906031
 20
453.6955979418
 30
0.0
 40
10.0
100
AcDbArc
 50
182.0
 51
358.0
  0
LINE
  5
3BF
330
1B
100
AcDbEntity
 67
     1
  8
02___PRT_ALL_AXES
  6
Continuous
 62
     7
100
AcDbLine
 10
183.8342823329
 20
453.3466029748
 30
0.0
 11
184.3339777464
 21
453.3640527232
 31
0.0
  0
ARC
  5
3C0
330
1B
100
AcDbEntity
 67
     1
  8
02___PRT_ALL_AXES
  6
Continuous
 62
     7
100
AcDbCircle
 10
193.8281906031
 20
453.6955979418
 30
0.0
 40
9.5
100
AcDbArc
 50
182.0
 51
358.0
  0
ARC
  5
3C1
330
1B
100
AcDbEntity
 67
     1
  8
02___PRT_ALL_AXES
  6
Continuous
 62
     7
100
AcDbCircle
 10
193.8281906031
 20
453.6955979418
 30
0.0
 40
10.0
100
AcDbArc
 50
2.0
 51
178.0
  0
LINE
  5
3C2
330
1B
100
AcDbEntity
 67
     1
  8
02___PRT_ALL_AXES
  6
Continuous
 62
     7
100
AcDbLine
 10
203.8220988733
 20
454.0445929089
 30
0.0
 11
203.3224034598
 21
454.0271431605
 31
0.0
  0
ARC
  5
3C3
330
1B
100
AcDbEntity
 67
     1
  8
02___PRT_ALL_AXES
  6
Continuous
 62
     7
100
AcDbCircle
 10
193.8281906031
 20
453.6955979418
 30
0.0
 40
9.5
100
AcDbArc
 50
2.0
 51
178.0
  0
LINE
  5
3C4
330
1B
100
AcDbEntity
 67
     1
  8
02___PRT_ALL_AXES
  6
Continuous
 62
     7
100
AcDbLine
 10
184.3339777464
 20
454.0271431605
 30
0.0
 11
183.8342823329
 21
454.0445929089
 31
0.0
  0
ARC
  5
3C5
330
1B
100
AcDbEntity
 67
     1
  8
02___PRT_ALL_AXES
  6
Continuous
 62
     7
100
AcDbCircle
 10
418.8281906031
 20
453.6955979418
 30
0.0
 40
10.0
100
AcDbArc
 50
182.0
 51
358.0
  0
LINE
  5
3C6
330
1B
100
AcDbEntity
 67
     1
  8
02___PRT_ALL_AXES
  6
Continuous
 62
     7
100
AcDbLine
 10
408.8342823329
 20
453.3466029748
 30
0.0
 11
409.3339777464
 21
453.3640527232
 31
0.0
  0
ARC
  5
3C7
330
1B
100
AcDbEntity
 67
     1
  8
02___PRT_ALL_AXES
  6
Continuous
 62
     7
100
AcDbCircle
 10
418.8281906031
 20
453.6955979418
 30
0.0
 40
9.5
100
AcDbArc
 50
182.0
 51
358.0
  0
LINE
  5
3C8
330
1B
100
AcDbEntity
 67
     1
  8
02___PRT_ALL_AXES
  6
Continuous
 62
     7
100
AcDbLine
 10
428.3224034598
 20
453.3640527232
 30
0.0
 11
428.8220988733
 21
453.3466029748
 31
0.0
  0
LINE
  5
3C9
330
1B
100
AcDbEntity
 67
     1
  8
02___PRT_ALL_AXES
  6
Continuous
 62
     7
100
AcDbLine
 10
409.3339777464
 20
454.0271431605
 30
0.0
 11
408.8342823329
 21
454.0445929089
 31
0.0
  0
ARC
  5
3CA
330
1B
100
AcDbEntity
 67
     1
  8
02___PRT_ALL_AXES
  6
Continuous
 62
     7
100
AcDbCircle
 10
418.8281906031
 20
453.6955979418
 30
0.0
 40
10.0
100
AcDbArc
 50
2.0
 51
178.0
  0
LINE
  5
3CB
330
1B
100
AcDbEntity
 67
     1
  8
02___PRT_ALL_AXES
  6
Continuous
 62
     7
100
AcDbLine
 10
428.8220988733
 20
454.0445929089
 30
0.0
 11
428.3224034598
 21
454.0271431605
 31
0.0
  0
ARC
  5
3CC
330
1B
100
AcDbEntity
 67
     1
  8
02___PRT_ALL_AXES
  6
Continuous
 62
     7
100
AcDbCircle
 10
418.8281906031
 20
453.6955979418
 30
0.0
 40
9.5
100
AcDbArc
 50
2.0
 51
178.0
  0
LINE
  5
3CD
330
1B
100
AcDbEntity
 67
     1
  8
7_ALL_FEATURES
  6
Continuous
 62
     9
100
AcDbLine
 10
51.0781906031
 20
428.6271431605
 30
0.0
 11
561.5781906031
 21
428.6271431605
 31
0.0
  0
LINE
  5
3CE
330
1B
100
AcDbEntity
 67
     1
  8
7_ALL_FEATURES
  6
Continuous
 62
     3
100
AcDbLine
 10
508.8281906031
 20
426.2271431605
 30
0.0
 11
513.5781906031
 21
426.2271431605
 31
0.0
  0
LINE
  5
3CF
330
1B
100
AcDbEntity
 67
     1
  8
7_ALL_FEATURES
  6
Continuous
 62
     3
100
AcDbLine
 10
513.5781906031
 20
426.2271431605
 30
0.0
 11
518.8281906031
 21
426.2271431605
 31
0.0
  0
LINE
  5
3D0
330
1B
100
AcDbEntity
 67
     1
  8
7_ALL_FEATURES
  6
Continuous
 62
     3
100
AcDbLine
 10
478.8281906031
 20
426.2271431605
 30
0.0
 11
508.8281906031
 21
426.2271431605
 31
0.0
  0
LINE
  5
3D1
330
1B
100
AcDbEntity
 67
     1
  8
7_ALL_FEATURES
  6
Continuous
 62
     3
100
AcDbLine
 10
468.8281906031
 20
426.2271431605
 30
0.0
 11
474.0781906031
 21
426.2271431605
 31
0.0
  0
LINE
  5
3D2
330
1B
100
AcDbEntity
 67
     1
  8
7_ALL_FEATURES
  6
Continuous
 62
     3
100
AcDbLine
 10
474.0781906031
 20
426.2271431605
 30
0.0
 11
478.8281906031
 21
426.2271431605
 31
0.0
  0
LINE
  5
3D3
330
1B
100
AcDbEntity
 67
     1
  8
7_ALL_FEATURES
  6
Continuous
 62
     3
100
AcDbLine
 10
133.8281906031
 20
426.2271431605
 30
0.0
 11
138.5781906031
 21
426.2271431605
 31
0.0
  0
LINE
  5
3D4
330
1B
100
AcDbEntity
 67
     1
  8
7_ALL_FEATURES
  6
Continuous
 62
     3
100
AcDbLine
 10
138.5781906031
 20
426.2271431605
 30
0.0
 11
143.8281906031
 21
426.2271431605
 31
0.0
  0
LINE
  5
3D5
330
1B
100
AcDbEntity
 67
     1
  8
7_ALL_FEATURES
  6
Continuous
 62
     3
100
AcDbLine
 10
103.8281906031
 20
426.2271431605
 30
0.0
 11
133.8281906031
 21
426.2271431605
 31
0.0
  0
LINE
  5
3D6
330
1B
100
AcDbEntity
 67
     1
  8
7_ALL_FEATURES
  6
Continuous
 62
     3
100
AcDbLine
 10
93.8281906031
 20
426.2271431605
 30
0.0
 11
99.0781906031
 21
426.2271431605
 31
0.0
  0
LINE
  5
3D7
330
1B
100
AcDbEntity
 67
     1
  8
7_ALL_FEATURES
  6
Continuous
 62
     3
100
AcDbLine
 10
99.0781906031
 20
426.2271431605
 30
0.0
 11
103.8281906031
 21
426.2271431605
 31
0.0
  0
LINE
  5
3D8
330
1B
100
AcDbEntity
 67
     1
  8
7_ALL_FEATURES
  6
Continuous
 62
     3
100
AcDbLine
 10
51.0781906031
 20
425.5271431605
 30
0.0
 11
51.0781906031
 21
425.0271431605
 31
0.0
  0
LINE
  5
3D9
330
1B
100
AcDbEntity
 67
     1
  8
7_ALL_FEATURES
  6
Continuous
 62
     3
100
AcDbLine
 10
51.0781906031
 20
432.3271431605
 30
0.0
 11
51.0781906031
 21
428.6271431605
 31
0.0
  0
LINE
  5
3DA
330
1B
100
AcDbEntity
 67
     1
  8
7_ALL_FEATURES
  6
Continuous
 62
     3
100
AcDbLine
 10
51.0781906031
 20
428.6271431605
 30
0.0
 11
51.0781906031
 21
426.2271431605
 31
0.0
  0
LINE
  5
3DB
330
1B
100
AcDbEntity
 67
     1
  8
7_ALL_FEATURES
  6
Continuous
 62
     3
100
AcDbLine
 10
51.0781906031
 20
426.2271431605
 30
0.0
 11
51.0781906031
 21
425.5271431605
 31
0.0
  0
LINE
  5
3DC
330
1B
100
AcDbEntity
 67
     1
  8
7_ALL_FEATURES
  6
Continuous
 62
     3
100
AcDbLine
 10
51.0781906031
 20
433.5271431605
 30
0.0
 11
51.0781906031
 21
432.5271431605
 31
0.0
  0
LINE
  5
3DD
330
1B
100
AcDbEntity
 67
     1
  8
7_ALL_FEATURES
  6
Continuous
 62
     3
100
AcDbLine
 10
51.0781906031
 20
441.5271431605
 30
0.0
 11
51.0781906031
 21
442.5271431605
 31
0.0
  0
LINE
  5
3DE
330
1B
100
AcDbEntity
 67
     1
  8
7_ALL_FEATURES
  6
Continuous
 62
     3
100
AcDbLine
 10
51.0781906031
 20
467.3271431605
 30
0.0
 11
51.0781906031
 21
442.7271431605
 31
0.0
  0
LINE
  5
3DF
330
1B
100
AcDbEntity
 67
     1
  8
7_ALL_FEATURES
  6
Continuous
 62
     3
100
AcDbLine
 10
51.0781906031
 20
468.5271431605
 30
0.0
 11
51.0781906031
 21
467.5271431605
 31
0.0
  0
LINE
  5
3E0
330
1B
100
AcDbEntity
 67
     1
  8
7_ALL_FEATURES
  6
Continuous
 62
     3
100
AcDbLine
 10
51.0781906031
 20
476.5271431605
 30
0.0
 11
51.0781906031
 21
477.5271431605
 31
0.0
  0
LINE
  5
3E1
330
1B
100
AcDbEntity
 67
     1
  8
7_ALL_FEATURES
  6
Continuous
 62
     3
100
AcDbLine
 10
51.0781906031
 20
513.5271431605
 30
0.0
 11
51.0781906031
 21
477.7271431605
 31
0.0
  0
LINE
  5
3E2
330
1B
100
AcDbEntity
 67
     1
  8
7_ALL_FEATURES
  6
Continuous
 62
     3
100
AcDbLine
 10
561.5781906031
 20
425.0271431605
 30
0.0
 11
561.5781906031
 21
425.5271431605
 31
0.0
  0
LINE
  5
3E3
330
1B
100
AcDbEntity
 67
     1
  8
7_ALL_FEATURES
  6
Continuous
 62
     3
100
AcDbLine
 10
561.5781906031
 20
477.5271431605
 30
0.0
 11
561.5781906031
 21
513.5271431605
 31
0.0
  0
LINE
  5
3E4
330
1B
100
AcDbEntity
 67
     1
  8
7_ALL_FEATURES
  6
Continuous
 62
     3
100
AcDbLine
 10
561.5781906031
 20
476.5271431605
 30
0.0
 11
561.5781906031
 21
477.5271431605
 31
0.0
  0
LINE
  5
3E5
330
1B
100
AcDbEntity
 67
     1
  8
7_ALL_FEATURES
  6
Continuous
 62
     3
100
AcDbLine
 10
561.5781906031
 20
468.5271431605
 30
0.0
 11
561.5781906031
 21
467.5271431605
 31
0.0
  0
LINE
  5
3E6
330
1B
100
AcDbEntity
 67
     1
  8
7_ALL_FEATURES
  6
Continuous
 62
     3
100
AcDbLine
 10
561.5781906031
 20
442.7271431605
 30
0.0
 11
561.5781906031
 21
467.5271431605
 31
0.0
  0
LINE
  5
3E7
330
1B
100
AcDbEntity
 67
     1
  8
7_ALL_FEATURES
  6
Continuous
 62
     3
100
AcDbLine
 10
561.5781906031
 20
441.5271431605
 30
0.0
 11
561.5781906031
 21
442.5271431605
 31
0.0
  0
LINE
  5
3E8
330
1B
100
AcDbEntity
 67
     1
  8
7_ALL_FEATURES
  6
Continuous
 62
     3
100
AcDbLine
 10
561.5781906031
 20
433.5271431605
 30
0.0
 11
561.5781906031
 21
432.5271431605
 31
0.0
  0
LINE
  5
3E9
330
1B
100
AcDbEntity
 67
     1
  8
7_ALL_FEATURES
  6
Continuous
 62
     3
100
AcDbLine
 10
561.5781906031
 20
425.5271431605
 30
0.0
 11
561.5781906031
 21
426.2271431605
 31
0.0
  0
LINE
  5
3EA
330
1B
100
AcDbEntity
 67
     1
  8
7_ALL_FEATURES
  6
Continuous
 62
     3
100
AcDbLine
 10
561.5781906031
 20
426.2271431605
 30
0.0
 11
561.5781906031
 21
428.6271431605
 31
0.0
  0
LINE
  5
3EB
330
1B
100
AcDbEntity
 67
     1
  8
7_ALL_FEATURES
  6
Continuous
 62
     3
100
AcDbLine
 10
561.5781906031
 20
428.6271431605
 30
0.0
 11
561.5781906031
 21
432.3271431605
 31
0.0
  0
LINE
  5
3EC
330
1B
100
AcDbEntity
 67
     1
  8
3_ALL_AXES
  6
Continuous
 62
     7
100
AcDbLine
 10
154.2281906031
 20
271.594998362
 30
0.0
 11
154.2281906031
 21
272.3008685325
 31
0.0
  0
LINE
  5
3ED
330
1B
100
AcDbEntity
 67
     1
  8
3_ALL_AXES
  6
Continuous
 62
     7
100
AcDbLine
 10
148.4281906031
 20
271.594998362
 30
0.0
 11
148.4281906031
 21
272.3008685325
 31
0.0
  0
ARC
  5
3EE
330
1B
100
AcDbEntity
 67
     1
  8
3_ALL_AXES
  6
Continuous
 62
     7
100
AcDbCircle
 10
151.3281906031
 20
264.844998362
 30
0.0
 40
8.0
100
AcDbArc
 50
68.7461908146
 51
90.0
  0
ARC
  5
3EF
330
1B
100
AcDbEntity
 67
     1
  8
3_ALL_AXES
  6
Continuous
 62
     7
100
AcDbCircle
 10
151.3281906031
 20
264.844998362
 30
0.0
 40
8.0
100
AcDbArc
 50
90.0
 51
111.2538091854
  0
LINE
  5
3F0
330
1B
100
AcDbEntity
 67
     1
  8
3_ALL_AXES
  6
Continuous
 62
     7
100
AcDbLine
 10
154.2281906031
 20
272.3008685325
 30
0.0
 11
154.2281906031
 21
271.594998362
 31
0.0
  0
LINE
  5
3F1
330
1B
100
AcDbEntity
 67
     1
  8
3_ALL_AXES
  6
Continuous
 62
     7
100
AcDbLine
 10
148.4281906031
 20
272.3008685325
 30
0.0
 11
148.4281906031
 21
271.594998362
 31
0.0
  0
LINE
  5
3F2
330
1B
100
AcDbEntity
 67
     1
  8
3_ALL_AXES
  6
Continuous
 62
     7
100
AcDbLine
 10
154.2281906031
 20
272.3008685325
 30
0.0
 11
148.4281906031
 21
272.3008685325
 31
0.0
  0
LINE
  5
3F3
330
1B
100
AcDbEntity
 67
     1
  8
3_ALL_AXES
  6
Continuous
 62
     7
100
AcDbLine
 10
309.2281906031
 20
271.594998362
 30
0.0
 11
309.2281906031
 21
272.3008685325
 31
0.0
  0
LINE
  5
3F4
330
1B
100
AcDbEntity
 67
     1
  8
3_ALL_AXES
  6
Continuous
 62
     7
100
AcDbLine
 10
303.4281906031
 20
271.594998362
 30
0.0
 11
303.4281906031
 21
272.3008685325
 31
0.0
  0
ARC
  5
3F5
330
1B
100
AcDbEntity
 67
     1
  8
3_ALL_AXES
  6
Continuous
 62
     7
100
AcDbCircle
 10
306.3281906031
 20
264.844998362
 30
0.0
 40
8.0
100
AcDbArc
 50
68.7461908146
 51
90.0
  0
ARC
  5
3F6
330
1B
100
AcDbEntity
 67
     1
  8
3_ALL_AXES
  6
Continuous
 62
     7
100
AcDbCircle
 10
306.3281906031
 20
264.844998362
 30
0.0
 40
8.0
100
AcDbArc
 50
90.0
 51
111.2538091854
  0
LINE
  5
3F7
330
1B
100
AcDbEntity
 67
     1
  8
3_ALL_AXES
  6
Continuous
 62
     7
100
AcDbLine
 10
309.2281906031
 20
272.3008685325
 30
0.0
 11
309.2281906031
 21
271.594998362
 31
0.0
  0
LINE
  5
3F8
330
1B
100
AcDbEntity
 67
     1
  8
3_ALL_AXES
  6
Continuous
 62
     7
100
AcDbLine
 10
303.4281906031
 20
272.3008685325
 30
0.0
 11
303.4281906031
 21
271.594998362
 31
0.0
  0
LINE
  5
3F9
330
1B
100
AcDbEntity
 67
     1
  8
3_ALL_AXES
  6
Continuous
 62
     7
100
AcDbLine
 10
309.2281906031
 20
272.3008685325
 30
0.0
 11
303.4281906031
 21
272.3008685325
 31
0.0
  0
LINE
  5
3FA
330
1B
100
AcDbEntity
 67
     1
  8
3_ALL_AXES
  6
Continuous
 62
     7
100
AcDbLine
 10
464.2281906031
 20
271.594998362
 30
0.0
 11
464.2281906031
 21
272.3008685325
 31
0.0
  0
LINE
  5
3FB
330
1B
100
AcDbEntity
 67
     1
  8
3_ALL_AXES
  6
Continuous
 62
     7
100
AcDbLine
 10
458.4281906031
 20
271.594998362
 30
0.0
 11
458.4281906031
 21
272.3008685325
 31
0.0
  0
ARC
  5
3FC
330
1B
100
AcDbEntity
 67
     1
  8
3_ALL_AXES
  6
Continuous
 62
     7
100
AcDbCircle
 10
461.3281906031
 20
264.844998362
 30
0.0
 40
8.0
100
AcDbArc
 50
68.7461908146
 51
90.0
  0
ARC
  5
3FD
330
1B
100
AcDbEntity
 67
     1
  8
3_ALL_AXES
  6
Continuous
 62
     7
100
AcDbCircle
 10
461.3281906031
 20
264.844998362
 30
0.0
 40
8.0
100
AcDbArc
 50
90.0
 51
111.2538091854
  0
LINE
  5
3FE
330
1B
100
AcDbEntity
 67
     1
  8
3_ALL_AXES
  6
Continuous
 62
     7
100
AcDbLine
 10
464.2281906031
 20
272.3008685325
 30
0.0
 11
464.2281906031
 21
271.594998362
 31
0.0
  0
LINE
  5
3FF
330
1B
100
AcDbEntity
 67
     1
  8
3_ALL_AXES
  6
Continuous
 62
     7
100
AcDbLine
 10
458.4281906031
 20
272.3008685325
 30
0.0
 11
458.4281906031
 21
271.594998362
 31
0.0
  0
LINE
  5
400
330
1B
100
AcDbEntity
 67
     1
  8
3_ALL_AXES
  6
Continuous
 62
     7
100
AcDbLine
 10
464.2281906031
 20
272.3008685325
 30
0.0
 11
458.4281906031
 21
272.3008685325
 31
0.0
  0
LINE
  5
401
330
1B
100
AcDbEntity
 67
     1
  8
3_ALL_AXES
  6
Continuous
 62
     7
100
AcDbLine
 10
303.4281906031
 20
231.194998362
 30
0.0
 11
303.4281906031
 21
230.4891281914
 31
0.0
  0
LINE
  5
402
330
1B
100
AcDbEntity
 67
     1
  8
3_ALL_AXES
  6
Continuous
 62
     7
100
AcDbLine
 10
309.2281906031
 20
231.194998362
 30
0.0
 11
309.2281906031
 21
230.4891281914
 31
0.0
  0
ARC
  5
403
330
1B
100
AcDbEntity
 67
     1
  8
3_ALL_AXES
  6
Continuous
 62
     7
100
AcDbCircle
 10
306.3281906031
 20
237.944998362
 30
0.0
 40
8.0
100
AcDbArc
 50
248.7461908146
 51
270.0
  0
ARC
  5
404
330
1B
100
AcDbEntity
 67
     1
  8
3_ALL_AXES
  6
Continuous
 62
     7
100
AcDbCircle
 10
306.3281906031
 20
237.944998362
 30
0.0
 40
8.0
100
AcDbArc
 50
270.0
 51
291.2538091854
  0
LINE
  5
405
330
1B
100
AcDbEntity
 67
     1
  8
3_ALL_AXES
  6
Continuous
 62
     7
100
AcDbLine
 10
303.4281906031
 20
230.4891281914
 30
0.0
 11
303.4281906031
 21
231.194998362
 31
0.0
  0
LINE
  5
406
330
1B
100
AcDbEntity
 67
     1
  8
3_ALL_AXES
  6
Continuous
 62
     7
100
AcDbLine
 10
309.2281906031
 20
230.4891281914
 30
0.0
 11
309.2281906031
 21
231.194998362
 31
0.0
  0
LINE
  5
407
330
1B
100
AcDbEntity
 67
     1
  8
3_ALL_AXES
  6
Continuous
 62
     7
100
AcDbLine
 10
303.4281906031
 20
230.4891281914
 30
0.0
 11
309.2281906031
 21
230.4891281914
 31
0.0
  0
LINE
  5
408
330
1B
100
AcDbEntity
 67
     1
  8
3_ALL_AXES
  6
Continuous
 62
     7
100
AcDbLine
 10
533.4281906031
 20
231.194998362
 30
0.0
 11
533.4281906031
 21
230.4891281914
 31
0.0
  0
LINE
  5
409
330
1B
100
AcDbEntity
 67
     1
  8
3_ALL_AXES
  6
Continuous
 62
     7
100
AcDbLine
 10
539.2281906031
 20
231.194998362
 30
0.0
 11
539.2281906031
 21
230.4891281914
 31
0.0
  0
ARC
  5
40A
330
1B
100
AcDbEntity
 67
     1
  8
3_ALL_AXES
  6
Continuous
 62
     7
100
AcDbCircle
 10
536.3281906031
 20
237.944998362
 30
0.0
 40
8.0
100
AcDbArc
 50
248.7461908146
 51
270.0
  0
ARC
  5
40B
330
1B
100
AcDbEntity
 67
     1
  8
3_ALL_AXES
  6
Continuous
 62
     7
100
AcDbCircle
 10
536.3281906031
 20
237.944998362
 30
0.0
 40
8.0
100
AcDbArc
 50
270.0
 51
291.2538091854
  0
LINE
  5
40C
330
1B
100
AcDbEntity
 67
     1
  8
3_ALL_AXES
  6
Continuous
 62
     7
100
AcDbLine
 10
533.4281906031
 20
230.4891281914
 30
0.0
 11
533.4281906031
 21
231.194998362
 31
0.0
  0
LINE
  5
40D
330
1B
100
AcDbEntity
 67
     1
  8
3_ALL_AXES
  6
Continuous
 62
     7
100
AcDbLine
 10
539.2281906031
 20
230.4891281914
 30
0.0
 11
539.2281906031
 21
231.194998362
 31
0.0
  0
LINE
  5
40E
330
1B
100
AcDbEntity
 67
     1
  8
3_ALL_AXES
  6
Continuous
 62
     7
100
AcDbLine
 10
533.4281906031
 20
230.4891281914
 30
0.0
 11
539.2281906031
 21
230.4891281914
 31
0.0
  0
LINE
  5
40F
330
1B
100
AcDbEntity
 67
     1
  8
3_ALL_AXES
  6
Continuous
 62
     7
100
AcDbLine
 10
539.2281906031
 20
271.594998362
 30
0.0
 11
539.2281906031
 21
272.3008685325
 31
0.0
  0
LINE
  5
410
330
1B
100
AcDbEntity
 67
     1
  8
3_ALL_AXES
  6
Continuous
 62
     7
100
AcDbLine
 10
533.4281906031
 20
271.594998362
 30
0.0
 11
533.4281906031
 21
272.3008685325
 31
0.0
  0
ARC
  5
411
330
1B
100
AcDbEntity
 67
     1
  8
3_ALL_AXES
  6
Continuous
 62
     7
100
AcDbCircle
 10
536.3281906031
 20
264.844998362
 30
0.0
 40
8.0
100
AcDbArc
 50
68.7461908146
 51
90.0
  0
ARC
  5
412
330
1B
100
AcDbEntity
 67
     1
  8
3_ALL_AXES
  6
Continuous
 62
     7
100
AcDbCircle
 10
536.3281906031
 20
264.844998362
 30
0.0
 40
8.0
100
AcDbArc
 50
90.0
 51
111.2538091854
  0
LINE
  5
413
330
1B
100
AcDbEntity
 67
     1
  8
3_ALL_AXES
  6
Continuous
 62
     7
100
AcDbLine
 10
539.2281906031
 20
272.3008685325
 30
0.0
 11
539.2281906031
 21
271.594998362
 31
0.0
  0
LINE
  5
414
330
1B
100
AcDbEntity
 67
     1
  8
3_ALL_AXES
  6
Continuous
 62
     7
100
AcDbLine
 10
533.4281906031
 20
272.3008685325
 30
0.0
 11
533.4281906031
 21
271.594998362
 31
0.0
  0
LINE
  5
415
330
1B
100
AcDbEntity
 67
     1
  8
3_ALL_AXES
  6
Continuous
 62
     7
100
AcDbLine
 10
539.2281906031
 20
272.3008685325
 30
0.0
 11
533.4281906031
 21
272.3008685325
 31
0.0
  0
LINE
  5
416
330
1B
100
AcDbEntity
 67
     1
  8
3_ALL_AXES
  6
Continuous
 62
     7
100
AcDbLine
 10
148.4281906031
 20
231.194998362
 30
0.0
 11
148.4281906031
 21
230.4891281914
 31
0.0
  0
LINE
  5
417
330
1B
100
AcDbEntity
 67
     1
  8
3_ALL_AXES
  6
Continuous
 62
     7
100
AcDbLine
 10
154.2281906031
 20
231.194998362
 30
0.0
 11
154.2281906031
 21
230.4891281914
 31
0.0
  0
ARC
  5
418
330
1B
100
AcDbEntity
 67
     1
  8
3_ALL_AXES
  6
Continuous
 62
     7
100
AcDbCircle
 10
151.3281906031
 20
237.944998362
 30
0.0
 40
8.0
100
AcDbArc
 50
248.7461908146
 51
270.0
  0
ARC
  5
419
330
1B
100
AcDbEntity
 67
     1
  8
3_ALL_AXES
  6
Continuous
 62
     7
100
AcDbCircle
 10
151.3281906031
 20
237.944998362
 30
0.0
 40
8.0
100
AcDbArc
 50
270.0
 51
291.2538091854
  0
LINE
  5
41A
330
1B
100
AcDbEntity
 67
     1
  8
3_ALL_AXES
  6
Continuous
 62
     7
100
AcDbLine
 10
148.4281906031
 20
230.4891281914
 30
0.0
 11
148.4281906031
 21
231.194998362
 31
0.0
  0
LINE
  5
41B
330
1B
100
AcDbEntity
 67
     1
  8
3_ALL_AXES
  6
Continuous
 62
     7
100
AcDbLine
 10
154.2281906031
 20
230.4891281914
 30
0.0
 11
154.2281906031
 21
231.194998362
 31
0.0
  0
LINE
  5
41C
330
1B
100
AcDbEntity
 67
     1
  8
3_ALL_AXES
  6
Continuous
 62
     7
100
AcDbLine
 10
148.4281906031
 20
230.4891281914
 30
0.0
 11
154.2281906031
 21
230.4891281914
 31
0.0
  0
LINE
  5
41D
330
1B
100
AcDbEntity
 67
     1
  8
3_ALL_AXES
  6
Continuous
 62
     7
100
AcDbLine
 10
79.2281906031
 20
271.594998362
 30
0.0
 11
79.2281906031
 21
272.3008685325
 31
0.0
  0
LINE
  5
41E
330
1B
100
AcDbEntity
 67
     1
  8
3_ALL_AXES
  6
Continuous
 62
     7
100
AcDbLine
 10
73.4281906031
 20
271.594998362
 30
0.0
 11
73.4281906031
 21
272.3008685325
 31
0.0
  0
ARC
  5
41F
330
1B
100
AcDbEntity
 67
     1
  8
3_ALL_AXES
  6
Continuous
 62
     7
100
AcDbCircle
 10
76.3281906031
 20
264.844998362
 30
0.0
 40
8.0
100
AcDbArc
 50
68.7461908146
 51
90.0
  0
ARC
  5
420
330
1B
100
AcDbEntity
 67
     1
  8
3_ALL_AXES
  6
Continuous
 62
     7
100
AcDbCircle
 10
76.3281906031
 20
264.844998362
 30
0.0
 40
8.0
100
AcDbArc
 50
90.0
 51
111.2538091854
  0
LINE
  5
421
330
1B
100
AcDbEntity
 67
     1
  8
3_ALL_AXES
  6
Continuous
 62
     7
100
AcDbLine
 10
79.2281906031
 20
272.3008685325
 30
0.0
 11
79.2281906031
 21
271.594998362
 31
0.0
  0
LINE
  5
422
330
1B
100
AcDbEntity
 67
     1
  8
3_ALL_AXES
  6
Continuous
 62
     7
100
AcDbLine
 10
73.4281906031
 20
272.3008685325
 30
0.0
 11
73.4281906031
 21
271.594998362
 31
0.0
  0
LINE
  5
423
330
1B
100
AcDbEntity
 67
     1
  8
3_ALL_AXES
  6
Continuous
 62
     7
100
AcDbLine
 10
79.2281906031
 20
272.3008685325
 30
0.0
 11
73.4281906031
 21
272.3008685325
 31
0.0
  0
LINE
  5
424
330
1B
100
AcDbEntity
 67
     1
  8
3_ALL_AXES
  6
Continuous
 62
     7
100
AcDbLine
 10
73.4281906031
 20
231.194998362
 30
0.0
 11
73.4281906031
 21
230.4891281914
 31
0.0
  0
LINE
  5
425
330
1B
100
AcDbEntity
 67
     1
  8
3_ALL_AXES
  6
Continuous
 62
     7
100
AcDbLine
 10
79.2281906031
 20
231.194998362
 30
0.0
 11
79.2281906031
 21
230.4891281914
 31
0.0
  0
ARC
  5
426
330
1B
100
AcDbEntity
 67
     1
  8
3_ALL_AXES
  6
Continuous
 62
     7
100
AcDbCircle
 10
76.3281906031
 20
237.944998362
 30
0.0
 40
8.0
100
AcDbArc
 50
248.7461908146
 51
270.0
  0
ARC
  5
427
330
1B
100
AcDbEntity
 67
     1
  8
3_ALL_AXES
  6
Continuous
 62
     7
100
AcDbCircle
 10
76.3281906031
 20
237.944998362
 30
0.0
 40
8.0
100
AcDbArc
 50
270.0
 51
291.2538091854
  0
LINE
  5
428
330
1B
100
AcDbEntity
 67
     1
  8
3_ALL_AXES
  6
Continuous
 62
     7
100
AcDbLine
 10
73.4281906031
 20
230.4891281914
 30
0.0
 11
73.4281906031
 21
231.194998362
 31
0.0
  0
LINE
  5
429
330
1B
100
AcDbEntity
 67
     1
  8
3_ALL_AXES
  6
Continuous
 62
     7
100
AcDbLine
 10
79.2281906031
 20
230.4891281914
 30
0.0
 11
79.2281906031
 21
231.194998362
 31
0.0
  0
LINE
  5
42A
330
1B
100
AcDbEntity
 67
     1
  8
3_ALL_AXES
  6
Continuous
 62
     7
100
AcDbLine
 10
73.4281906031
 20
230.4891281914
 30
0.0
 11
79.2281906031
 21
230.4891281914
 31
0.0
  0
LINE
  5
42B
330
1B
100
AcDbEntity
 67
     1
  8
3_ALL_AXES
  6
Continuous
 62
     7
100
AcDbLine
 10
458.4281906031
 20
231.194998362
 30
0.0
 11
458.4281906031
 21
230.4891281914
 31
0.0
  0
LINE
  5
42C
330
1B
100
AcDbEntity
 67
     1
  8
3_ALL_AXES
  6
Continuous
 62
     7
100
AcDbLine
 10
464.2281906031
 20
231.194998362
 30
0.0
 11
464.2281906031
 21
230.4891281914
 31
0.0
  0
ARC
  5
42D
330
1B
100
AcDbEntity
 67
     1
  8
3_ALL_AXES
  6
Continuous
 62
     7
100
AcDbCircle
 10
461.3281906031
 20
237.944998362
 30
0.0
 40
8.0
100
AcDbArc
 50
248.7461908146
 51
270.0
  0
ARC
  5
42E
330
1B
100
AcDbEntity
 67
     1
  8
3_ALL_AXES
  6
Continuous
 62
     7
100
AcDbCircle
 10
461.3281906031
 20
237.944998362
 30
0.0
 40
8.0
100
AcDbArc
 50
270.0
 51
291.2538091854
  0
LINE
  5
42F
330
1B
100
AcDbEntity
 67
     1
  8
3_ALL_AXES
  6
Continuous
 62
     7
100
AcDbLine
 10
458.4281906031
 20
230.4891281914
 30
0.0
 11
458.4281906031
 21
231.194998362
 31
0.0
  0
LINE
  5
430
330
1B
100
AcDbEntity
 67
     1
  8
3_ALL_AXES
  6
Continuous
 62
     7
100
AcDbLine
 10
464.2281906031
 20
230.4891281914
 30
0.0
 11
464.2281906031
 21
231.194998362
 31
0.0
  0
LINE
  5
431
330
1B
100
AcDbEntity
 67
     1
  8
3_ALL_AXES
  6
Continuous
 62
     7
100
AcDbLine
 10
458.4281906031
 20
230.4891281914
 30
0.0
 11
464.2281906031
 21
230.4891281914
 31
0.0
  0
ARC
  5
432
330
1B
100
AcDbEntity
 67
     1
  8
3_ALL_AXES
  6
Continuous
 62
     7
100
AcDbCircle
 10
58.6857478058
 20
271.7723582703
 30
0.0
 40
4.1
100
AcDbArc
 50
116.3930257743
 51
118.8426038473
  0
ARC
  5
433
330
1B
100
AcDbEntity
 67
     1
  8
3_ALL_AXES
  6
Continuous
 62
     7
100
AcDbCircle
 10
58.6857478058
 20
271.7723582703
 30
0.0
 40
4.1
100
AcDbArc
 50
118.8426038473
 51
150.6871187969
  0
ARC
  5
434
330
1B
100
AcDbEntity
 67
     1
  8
3_ALL_AXES
  6
Continuous
 62
     7
100
AcDbCircle
 10
58.6857478058
 20
271.7723582703
 30
0.0
 40
4.1
100
AcDbArc
 50
150.6871187969
 51
153.1366968699
  0
ARC
  5
435
330
1B
100
AcDbEntity
 67
     1
  8
3_ALL_AXES
  6
Continuous
 62
     7
100
AcDbCircle
 10
58.9706334005
 20
271.7723582703
 30
0.0
 40
4.1
100
AcDbArc
 50
26.8633031301
 51
63.6069742257
  0
LINE
  5
436
330
1B
100
AcDbEntity
 67
     1
  8
3_ALL_AXES
  6
Continuous
 62
     7
100
AcDbLine
 10
55.0281906031
 20
273.624998362
 30
0.0
 11
55.0281906031
 21
273.244998362
 31
0.0
  0
LINE
  5
437
330
1B
100
AcDbEntity
 67
     1
  8
3_ALL_AXES
  6
Continuous
 62
     7
100
AcDbLine
 10
62.6281906031
 20
273.624998362
 30
0.0
 11
62.6281906031
 21
273.244998362
 31
0.0
  0
LINE
  5
438
330
1B
100
AcDbEntity
 67
     1
  8
7_ALL_FEATURES
  6
Continuous
 62
     7
100
AcDbLine
 10
56.8281906031
 20
272.244998362
 30
0.0
 11
56.8281906031
 21
271.594998362
 31
0.0
  0
LINE
  5
439
330
1B
100
AcDbEntity
 67
     1
  8
7_ALL_FEATURES
  6
Continuous
 62
     7
100
AcDbLine
 10
60.8281906031
 20
272.244998362
 30
0.0
 11
60.8281906031
 21
271.594998362
 31
0.0
  0
ARC
  5
43A
330
1B
100
AcDbEntity
 67
     1
  8
3_ALL_AXES
  6
Continuous
 62
     7
100
AcDbCircle
 10
58.6857478058
 20
271.7723582703
 30
0.0
 40
4.1
100
AcDbArc
 50
150.6871187969
 51
153.1366968699
  0
ARC
  5
43B
330
1B
100
AcDbEntity
 67
     1
  8
3_ALL_AXES
  6
Continuous
 62
     7
100
AcDbCircle
 10
58.6857478058
 20
271.7723582703
 30
0.0
 40
4.1
100
AcDbArc
 50
118.8426038473
 51
150.6871187969
  0
ARC
  5
43C
330
1B
100
AcDbEntity
 67
     1
  8
3_ALL_AXES
  6
Continuous
 62
     7
100
AcDbCircle
 10
58.6857478058
 20
271.7723582703
 30
0.0
 40
4.1
100
AcDbArc
 50
116.3930257743
 51
118.8426038473
  0
LINE
  5
43D
330
1B
100
AcDbEntity
 67
     1
  8
3_ALL_AXES
  6
Continuous
 62
     7
100
AcDbLine
 10
56.8631906031
 20
275.444998362
 30
0.0
 11
57.3848149301
 21
275.444998362
 31
0.0
  0
LINE
  5
43E
330
1B
100
AcDbEntity
 67
     1
  8
3_ALL_AXES
  6
Continuous
 62
     7
100
AcDbLine
 10
57.3848149301
 20
275.444998362
 30
0.0
 11
58.1065027666
 21
275.444998362
 31
0.0
  0
LINE
  5
43F
330
1B
100
AcDbEntity
 67
     1
  8
3_ALL_AXES
  6
Continuous
 62
     7
100
AcDbLine
 10
58.1065027666
 20
275.444998362
 30
0.0
 11
59.5498784396
 21
275.444998362
 31
0.0
  0
LINE
  5
440
330
1B
100
AcDbEntity
 67
     1
  8
3_ALL_AXES
  6
Continuous
 62
     7
100
AcDbLine
 10
59.5498784396
 20
275.444998362
 30
0.0
 11
60.2715662761
 21
275.444998362
 31
0.0
  0
LINE
  5
441
330
1B
100
AcDbEntity
 67
     1
  8
3_ALL_AXES
  6
Continuous
 62
     7
100
AcDbLine
 10
60.2715662761
 20
275.444998362
 30
0.0
 11
60.7931906031
 21
275.444998362
 31
0.0
  0
LINE
  5
442
330
1B
100
AcDbEntity
 67
     1
  8
3_ALL_AXES
  6
Continuous
 62
     7
100
AcDbLine
 10
55.0281906031
 20
273.244998362
 30
0.0
 11
55.0281906031
 21
273.624998362
 31
0.0
  0
LINE
  5
443
330
1B
100
AcDbEntity
 67
     1
  8
3_ALL_AXES
  6
Continuous
 62
     7
100
AcDbLine
 10
62.5781906031
 20
273.244998362
 30
0.0
 11
62.6281906031
 21
273.244998362
 31
0.0
  0
LINE
  5
444
330
1B
100
AcDbEntity
 67
     1
  8
3_ALL_AXES
  6
Continuous
 62
     7
100
AcDbLine
 10
56.8281906031
 20
271.594998362
 30
0.0
 11
56.8281906031
 21
272.244998362
 31
0.0
  0
ARC
  5
445
330
1B
100
AcDbEntity
 67
     1
  8
3_ALL_AXES
  6
Continuous
 62
     7
100
AcDbCircle
 10
58.9706334005
 20
271.7723582703
 30
0.0
 40
4.1
100
AcDbArc
 50
26.8633031301
 51
63.6069742257
  0
LINE
  5
446
330
1B
100
AcDbEntity
 67
     1
  8
3_ALL_AXES
  6
Continuous
 62
     7
100
AcDbLine
 10
62.6281906031
 20
273.244998362
 30
0.0
 11
62.6281906031
 21
273.624998362
 31
0.0
  0
LINE
  5
447
330
1B
100
AcDbEntity
 67
     1
  8
3_ALL_AXES
  6
Continuous
 62
     7
100
AcDbLine
 10
60.8281906031
 20
271.594998362
 30
0.0
 11
60.8281906031
 21
272.244998362
 31
0.0
  0
LINE
  5
448
330
1B
100
AcDbEntity
 67
     1
  8
3_ALL_AXES
  6
Continuous
 62
     7
100
AcDbLine
 10
55.0281906031
 20
273.624998362
 30
0.0
 11
62.6281906031
 21
273.624998362
 31
0.0
  0
ARC
  5
449
330
1B
100
AcDbEntity
 67
     1
  8
3_ALL_AXES
  6
Continuous
 62
     7
100
AcDbCircle
 10
553.6857478058
 20
271.7723582703
 30
0.0
 40
4.1
100
AcDbArc
 50
116.3930257743
 51
118.8426038473
  0
ARC
  5
44A
330
1B
100
AcDbEntity
 67
     1
  8
3_ALL_AXES
  6
Continuous
 62
     7
100
AcDbCircle
 10
553.6857478058
 20
271.7723582703
 30
0.0
 40
4.1
100
AcDbArc
 50
118.8426038473
 51
150.6871187969
  0
ARC
  5
44B
330
1B
100
AcDbEntity
 67
     1
  8
3_ALL_AXES
  6
Continuous
 62
     7
100
AcDbCircle
 10
553.6857478058
 20
271.7723582703
 30
0.0
 40
4.1
100
AcDbArc
 50
150.6871187969
 51
153.1366968699
  0
ARC
  5
44C
330
1B
100
AcDbEntity
 67
     1
  8
3_ALL_AXES
  6
Continuous
 62
     7
100
AcDbCircle
 10
553.9706334005
 20
271.7723582703
 30
0.0
 40
4.1
100
AcDbArc
 50
26.8633031301
 51
63.6069742257
  0
LINE
  5
44D
330
1B
100
AcDbEntity
 67
     1
  8
3_ALL_AXES
  6
Continuous
 62
     7
100
AcDbLine
 10
550.0281906031
 20
273.624998362
 30
0.0
 11
550.0281906031
 21
273.244998362
 31
0.0
  0
LINE
  5
44E
330
1B
100
AcDbEntity
 67
     1
  8
3_ALL_AXES
  6
Continuous
 62
     7
100
AcDbLine
 10
557.6281906031
 20
273.624998362
 30
0.0
 11
557.6281906031
 21
273.244998362
 31
0.0
  0
LINE
  5
44F
330
1B
100
AcDbEntity
 67
     1
  8
7_ALL_FEATURES
  6
Continuous
 62
     7
100
AcDbLine
 10
551.8281906031
 20
272.244998362
 30
0.0
 11
551.8281906031
 21
271.594998362
 31
0.0
  0
LINE
  5
450
330
1B
100
AcDbEntity
 67
     1
  8
7_ALL_FEATURES
  6
Continuous
 62
     7
100
AcDbLine
 10
555.8281906031
 20
272.244998362
 30
0.0
 11
555.8281906031
 21
271.594998362
 31
0.0
  0
ARC
  5
451
330
1B
100
AcDbEntity
 67
     1
  8
3_ALL_AXES
  6
Continuous
 62
     7
100
AcDbCircle
 10
553.6857478058
 20
271.7723582703
 30
0.0
 40
4.1
100
AcDbArc
 50
150.6871187969
 51
153.1366968699
  0
ARC
  5
452
330
1B
100
AcDbEntity
 67
     1
  8
3_ALL_AXES
  6
Continuous
 62
     7
100
AcDbCircle
 10
553.6857478058
 20
271.7723582703
 30
0.0
 40
4.1
100
AcDbArc
 50
118.8426038473
 51
150.6871187969
  0
ARC
  5
453
330
1B
100
AcDbEntity
 67
     1
  8
3_ALL_AXES
  6
Continuous
 62
     7
100
AcDbCircle
 10
553.6857478058
 20
271.7723582703
 30
0.0
 40
4.1
100
AcDbArc
 50
116.3930257743
 51
118.8426038473
  0
LINE
  5
454
330
1B
100
AcDbEntity
 67
     1
  8
3_ALL_AXES
  6
Continuous
 62
     7
100
AcDbLine
 10
551.8631906031
 20
275.444998362
 30
0.0
 11
552.3848149301
 21
275.444998362
 31
0.0
  0
LINE
  5
455
330
1B
100
AcDbEntity
 67
     1
  8
3_ALL_AXES
  6
Continuous
 62
     7
100
AcDbLine
 10
552.3848149301
 20
275.444998362
 30
0.0
 11
553.1065027666
 21
275.444998362
 31
0.0
  0
LINE
  5
456
330
1B
100
AcDbEntity
 67
     1
  8
3_ALL_AXES
  6
Continuous
 62
     7
100
AcDbLine
 10
553.1065027666
 20
275.444998362
 30
0.0
 11
554.5498784396
 21
275.444998362
 31
0.0
  0
LINE
  5
457
330
1B
100
AcDbEntity
 67
     1
  8
3_ALL_AXES
  6
Continuous
 62
     7
100
AcDbLine
 10
554.5498784396
 20
275.444998362
 30
0.0
 11
555.2715662761
 21
275.444998362
 31
0.0
  0
LINE
  5
458
330
1B
100
AcDbEntity
 67
     1
  8
3_ALL_AXES
  6
Continuous
 62
     7
100
AcDbLine
 10
555.2715662761
 20
275.444998362
 30
0.0
 11
555.7931906031
 21
275.444998362
 31
0.0
  0
LINE
  5
459
330
1B
100
AcDbEntity
 67
     1
  8
3_ALL_AXES
  6
Continuous
 62
     7
100
AcDbLine
 10
550.0281906031
 20
273.244998362
 30
0.0
 11
550.0281906031
 21
273.624998362
 31
0.0
  0
LINE
  5
45A
330
1B
100
AcDbEntity
 67
     1
  8
3_ALL_AXES
  6
Continuous
 62
     7
100
AcDbLine
 10
550.0281906031
 20
273.244998362
 30
0.0
 11
550.0781906031
 21
273.244998362
 31
0.0
  0
LINE
  5
45B
330
1B
100
AcDbEntity
 67
     1
  8
3_ALL_AXES
  6
Continuous
 62
     7
100
AcDbLine
 10
551.8281906031
 20
271.594998362
 30
0.0
 11
551.8281906031
 21
272.244998362
 31
0.0
  0
ARC
  5
45C
330
1B
100
AcDbEntity
 67
     1
  8
3_ALL_AXES
  6
Continuous
 62
     7
100
AcDbCircle
 10
553.9706334005
 20
271.7723582703
 30
0.0
 40
4.1
100
AcDbArc
 50
26.8633031301
 51
63.6069742257
  0
LINE
  5
45D
330
1B
100
AcDbEntity
 67
     1
  8
3_ALL_AXES
  6
Continuous
 62
     7
100
AcDbLine
 10
557.6281906031
 20
273.244998362
 30
0.0
 11
557.6281906031
 21
273.624998362
 31
0.0
  0
LINE
  5
45E
330
1B
100
AcDbEntity
 67
     1
  8
3_ALL_AXES
  6
Continuous
 62
     7
100
AcDbLine
 10
555.8281906031
 20
271.594998362
 30
0.0
 11
555.8281906031
 21
272.244998362
 31
0.0
  0
LINE
  5
45F
330
1B
100
AcDbEntity
 67
     1
  8
3_ALL_AXES
  6
Continuous
 62
     7
100
AcDbLine
 10
550.0281906031
 20
273.624998362
 30
0.0
 11
557.6281906031
 21
273.624998362
 31
0.0
  0
ARC
  5
460
330
1B
100
AcDbEntity
 67
     1
  8
3_ALL_AXES
  6
Continuous
 62
     7
100
AcDbCircle
 10
553.9706334005
 20
231.0176384537
 30
0.0
 40
4.1
100
AcDbArc
 50
296.3930257743
 51
298.8426038472999
  0
ARC
  5
461
330
1B
100
AcDbEntity
 67
     1
  8
3_ALL_AXES
  6
Continuous
 62
     7
100
AcDbCircle
 10
553.9706334005
 20
231.0176384537
 30
0.0
 40
4.1
100
AcDbArc
 50
298.8426038472999
 51
330.6871187969
  0
ARC
  5
462
330
1B
100
AcDbEntity
 67
     1
  8
3_ALL_AXES
  6
Continuous
 62
     7
100
AcDbCircle
 10
553.9706334005
 20
231.0176384537
 30
0.0
 40
4.1
100
AcDbArc
 50
330.6871187969
 51
333.1366968699
  0
ARC
  5
463
330
1B
100
AcDbEntity
 67
     1
  8
3_ALL_AXES
  6
Continuous
 62
     7
100
AcDbCircle
 10
553.6857478058
 20
231.0176384537
 30
0.0
 40
4.1
100
AcDbArc
 50
206.8633031301
 51
243.6069742257
  0
LINE
  5
464
330
1B
100
AcDbEntity
 67
     1
  8
3_ALL_AXES
  6
Continuous
 62
     7
100
AcDbLine
 10
557.6281906031
 20
229.164998362
 30
0.0
 11
557.6281906031
 21
229.544998362
 31
0.0
  0
LINE
  5
465
330
1B
100
AcDbEntity
 67
     1
  8
3_ALL_AXES
  6
Continuous
 62
     7
100
AcDbLine
 10
550.0281906031
 20
229.164998362
 30
0.0
 11
550.0281906031
 21
229.544998362
 31
0.0
  0
LINE
  5
466
330
1B
100
AcDbEntity
 67
     1
  8
7_ALL_FEATURES
  6
Continuous
 62
     7
100
AcDbLine
 10
555.8281906031
 20
230.544998362
 30
0.0
 11
555.8281906031
 21
231.194998362
 31
0.0
  0
LINE
  5
467
330
1B
100
AcDbEntity
 67
     1
  8
7_ALL_FEATURES
  6
Continuous
 62
     7
100
AcDbLine
 10
551.8281906031
 20
230.544998362
 30
0.0
 11
551.8281906031
 21
231.194998362
 31
0.0
  0
ARC
  5
468
330
1B
100
AcDbEntity
 67
     1
  8
3_ALL_AXES
  6
Continuous
 62
     7
100
AcDbCircle
 10
553.9706334005
 20
231.0176384537
 30
0.0
 40
4.1
100
AcDbArc
 50
330.6871187969
 51
333.1366968699
  0
ARC
  5
469
330
1B
100
AcDbEntity
 67
     1
  8
3_ALL_AXES
  6
Continuous
 62
     7
100
AcDbCircle
 10
553.9706334005
 20
231.0176384537
 30
0.0
 40
4.1
100
AcDbArc
 50
298.8426038472999
 51
330.6871187969
  0
ARC
  5
46A
330
1B
100
AcDbEntity
 67
     1
  8
3_ALL_AXES
  6
Continuous
 62
     7
100
AcDbCircle
 10
553.9706334005
 20
231.0176384537
 30
0.0
 40
4.1
100
AcDbArc
 50
296.3930257743
 51
298.8426038472999
  0
LINE
  5
46B
330
1B
100
AcDbEntity
 67
     1
  8
3_ALL_AXES
  6
Continuous
 62
     7
100
AcDbLine
 10
555.7931906031
 20
227.344998362
 30
0.0
 11
555.2715662761
 21
227.344998362
 31
0.0
  0
LINE
  5
46C
330
1B
100
AcDbEntity
 67
     1
  8
3_ALL_AXES
  6
Continuous
 62
     7
100
AcDbLine
 10
555.2715662761
 20
227.344998362
 30
0.0
 11
554.5498784396
 21
227.344998362
 31
0.0
  0
LINE
  5
46D
330
1B
100
AcDbEntity
 67
     1
  8
3_ALL_AXES
  6
Continuous
 62
     7
100
AcDbLine
 10
554.5498784396
 20
227.344998362
 30
0.0
 11
553.1065027666
 21
227.344998362
 31
0.0
  0
LINE
  5
46E
330
1B
100
AcDbEntity
 67
     1
  8
3_ALL_AXES
  6
Continuous
 62
     7
100
AcDbLine
 10
553.1065027666
 20
227.344998362
 30
0.0
 11
552.3848149301
 21
227.344998362
 31
0.0
  0
LINE
  5
46F
330
1B
100
AcDbEntity
 67
     1
  8
3_ALL_AXES
  6
Continuous
 62
     7
100
AcDbLine
 10
552.3848149301
 20
227.344998362
 30
0.0
 11
551.8631906031
 21
227.344998362
 31
0.0
  0
LINE
  5
470
330
1B
100
AcDbEntity
 67
     1
  8
3_ALL_AXES
  6
Continuous
 62
     7
100
AcDbLine
 10
557.6281906031
 20
229.544998362
 30
0.0
 11
557.6281906031
 21
229.164998362
 31
0.0
  0
LINE
  5
471
330
1B
100
AcDbEntity
 67
     1
  8
3_ALL_AXES
  6
Continuous
 62
     7
100
AcDbLine
 10
550.0781906031
 20
229.544998362
 30
0.0
 11
550.0281906031
 21
229.544998362
 31
0.0
  0
LINE
  5
472
330
1B
100
AcDbEntity
 67
     1
  8
3_ALL_AXES
  6
Continuous
 62
     7
100
AcDbLine
 10
555.8281906031
 20
231.194998362
 30
0.0
 11
555.8281906031
 21
230.544998362
 31
0.0
  0
ARC
  5
473
330
1B
100
AcDbEntity
 67
     1
  8
3_ALL_AXES
  6
Continuous
 62
     7
100
AcDbCircle
 10
553.6857478058
 20
231.0176384537
 30
0.0
 40
4.1
100
AcDbArc
 50
206.8633031301
 51
243.6069742257
  0
LINE
  5
474
330
1B
100
AcDbEntity
 67
     1
  8
3_ALL_AXES
  6
Continuous
 62
     7
100
AcDbLine
 10
550.0281906031
 20
229.544998362
 30
0.0
 11
550.0281906031
 21
229.164998362
 31
0.0
  0
LINE
  5
475
330
1B
100
AcDbEntity
 67
     1
  8
3_ALL_AXES
  6
Continuous
 62
     7
100
AcDbLine
 10
551.8281906031
 20
231.194998362
 30
0.0
 11
551.8281906031
 21
230.544998362
 31
0.0
  0
LINE
  5
476
330
1B
100
AcDbEntity
 67
     1
  8
3_ALL_AXES
  6
Continuous
 62
     7
100
AcDbLine
 10
557.6281906031
 20
229.164998362
 30
0.0
 11
550.0281906031
 21
229.164998362
 31
0.0
  0
ARC
  5
477
330
1B
100
AcDbEntity
 67
     1
  8
3_ALL_AXES
  6
Continuous
 62
     7
100
AcDbCircle
 10
58.9706334005
 20
231.0176384537
 30
0.0
 40
4.1
100
AcDbArc
 50
296.3930257743
 51
298.8426038472999
  0
ARC
  5
478
330
1B
100
AcDbEntity
 67
     1
  8
3_ALL_AXES
  6
Continuous
 62
     7
100
AcDbCircle
 10
58.9706334005
 20
231.0176384537
 30
0.0
 40
4.1
100
AcDbArc
 50
298.8426038472999
 51
330.6871187969
  0
ARC
  5
479
330
1B
100
AcDbEntity
 67
     1
  8
3_ALL_AXES
  6
Continuous
 62
     7
100
AcDbCircle
 10
58.9706334005
 20
231.0176384537
 30
0.0
 40
4.1
100
AcDbArc
 50
330.6871187969
 51
333.1366968699
  0
ARC
  5
47A
330
1B
100
AcDbEntity
 67
     1
  8
3_ALL_AXES
  6
Continuous
 62
     7
100
AcDbCircle
 10
58.6857478058
 20
231.0176384537
 30
0.0
 40
4.1
100
AcDbArc
 50
206.8633031301
 51
243.6069742257
  0
LINE
  5
47B
330
1B
100
AcDbEntity
 67
     1
  8
3_ALL_AXES
  6
Continuous
 62
     7
100
AcDbLine
 10
62.6281906031
 20
229.164998362
 30
0.0
 11
62.6281906031
 21
229.544998362
 31
0.0
  0
LINE
  5
47C
330
1B
100
AcDbEntity
 67
     1
  8
3_ALL_AXES
  6
Continuous
 62
     7
100
AcDbLine
 10
55.0281906031
 20
229.164998362
 30
0.0
 11
55.0281906031
 21
229.544998362
 31
0.0
  0
LINE
  5
47D
330
1B
100
AcDbEntity
 67
     1
  8
7_ALL_FEATURES
  6
Continuous
 62
     7
100
AcDbLine
 10
60.8281906031
 20
230.544998362
 30
0.0
 11
60.8281906031
 21
231.194998362
 31
0.0
  0
LINE
  5
47E
330
1B
100
AcDbEntity
 67
     1
  8
7_ALL_FEATURES
  6
Continuous
 62
     7
100
AcDbLine
 10
56.8281906031
 20
230.544998362
 30
0.0
 11
56.8281906031
 21
231.194998362
 31
0.0
  0
ARC
  5
47F
330
1B
100
AcDbEntity
 67
     1
  8
3_ALL_AXES
  6
Continuous
 62
     7
100
AcDbCircle
 10
58.9706334005
 20
231.0176384537
 30
0.0
 40
4.1
100
AcDbArc
 50
330.6871187969
 51
333.1366968699
  0
ARC
  5
480
330
1B
100
AcDbEntity
 67
     1
  8
3_ALL_AXES
  6
Continuous
 62
     7
100
AcDbCircle
 10
58.9706334005
 20
231.0176384537
 30
0.0
 40
4.1
100
AcDbArc
 50
298.8426038472999
 51
330.6871187969
  0
ARC
  5
481
330
1B
100
AcDbEntity
 67
     1
  8
3_ALL_AXES
  6
Continuous
 62
     7
100
AcDbCircle
 10
58.9706334005
 20
231.0176384537
 30
0.0
 40
4.1
100
AcDbArc
 50
296.3930257743
 51
298.8426038472999
  0
LINE
  5
482
330
1B
100
AcDbEntity
 67
     1
  8
3_ALL_AXES
  6
Continuous
 62
     7
100
AcDbLine
 10
60.7931906031
 20
227.344998362
 30
0.0
 11
60.2715662761
 21
227.344998362
 31
0.0
  0
LINE
  5
483
330
1B
100
AcDbEntity
 67
     1
  8
3_ALL_AXES
  6
Continuous
 62
     7
100
AcDbLine
 10
60.2715662761
 20
227.344998362
 30
0.0
 11
59.5498784396
 21
227.344998362
 31
0.0
  0
LINE
  5
484
330
1B
100
AcDbEntity
 67
     1
  8
3_ALL_AXES
  6
Continuous
 62
     7
100
AcDbLine
 10
59.5498784396
 20
227.344998362
 30
0.0
 11
58.1065027666
 21
227.344998362
 31
0.0
  0
LINE
  5
485
330
1B
100
AcDbEntity
 67
     1
  8
3_ALL_AXES
  6
Continuous
 62
     7
100
AcDbLine
 10
58.1065027666
 20
227.344998362
 30
0.0
 11
57.3848149301
 21
227.344998362
 31
0.0
  0
LINE
  5
486
330
1B
100
AcDbEntity
 67
     1
  8
3_ALL_AXES
  6
Continuous
 62
     7
100
AcDbLine
 10
57.3848149301
 20
227.344998362
 30
0.0
 11
56.8631906031
 21
227.344998362
 31
0.0
  0
LINE
  5
487
330
1B
100
AcDbEntity
 67
     1
  8
3_ALL_AXES
  6
Continuous
 62
     7
100
AcDbLine
 10
62.6281906031
 20
229.544998362
 30
0.0
 11
62.6281906031
 21
229.164998362
 31
0.0
  0
LINE
  5
488
330
1B
100
AcDbEntity
 67
     1
  8
3_ALL_AXES
  6
Continuous
 62
     7
100
AcDbLine
 10
62.6281906031
 20
229.544998362
 30
0.0
 11
62.5781906031
 21
229.544998362
 31
0.0
  0
LINE
  5
489
330
1B
100
AcDbEntity
 67
     1
  8
3_ALL_AXES
  6
Continuous
 62
     7
100
AcDbLine
 10
60.8281906031
 20
231.194998362
 30
0.0
 11
60.8281906031
 21
230.544998362
 31
0.0
  0
ARC
  5
48A
330
1B
100
AcDbEntity
 67
     1
  8
3_ALL_AXES
  6
Continuous
 62
     7
100
AcDbCircle
 10
58.6857478058
 20
231.0176384537
 30
0.0
 40
4.1
100
AcDbArc
 50
206.8633031301
 51
243.6069742257
  0
LINE
  5
48B
330
1B
100
AcDbEntity
 67
     1
  8
3_ALL_AXES
  6
Continuous
 62
     7
100
AcDbLine
 10
55.0281906031
 20
229.544998362
 30
0.0
 11
55.0281906031
 21
229.164998362
 31
0.0
  0
LINE
  5
48C
330
1B
100
AcDbEntity
 67
     1
  8
3_ALL_AXES
  6
Continuous
 62
     7
100
AcDbLine
 10
56.8281906031
 20
231.194998362
 30
0.0
 11
56.8281906031
 21
230.544998362
 31
0.0
  0
LINE
  5
48D
330
1B
100
AcDbEntity
 67
     1
  8
3_ALL_AXES
  6
Continuous
 62
     7
100
AcDbLine
 10
62.6281906031
 20
229.164998362
 30
0.0
 11
55.0281906031
 21
229.164998362
 31
0.0
  0
LINE
  5
48E
330
1B
100
AcDbEntity
 67
     1
  8
7_ALL_FEATURES
  6
Continuous
 62
     7
100
AcDbLine
 10
550.0781906031
 20
272.244998362
 30
0.0
 11
550.0781906031
 21
273.244998362
 31
0.0
  0
LINE
  5
48F
330
1B
100
AcDbEntity
 67
     1
  8
7_ALL_FEATURES
  6
Continuous
 62
     7
100
AcDbLine
 10
550.0781906031
 20
230.544998362
 30
0.0
 11
550.0781906031
 21
229.544998362
 31
0.0
  0
LINE
  5
490
330
1B
100
AcDbEntity
 67
     1
  8
7_ALL_FEATURES
  6
Continuous
 62
     7
100
AcDbLine
 10
551.0781906031
 20
273.244998362
 30
0.0
 11
560.5781906031
 21
273.244998362
 31
0.0
  0
ARC
  5
491
330
1B
100
AcDbEntity
 67
     1
  8
7_ALL_FEATURES
  6
Continuous
 62
     7
100
AcDbCircle
 10
560.5781906031
 20
271.244998362
 30
0.0
 40
2.0
100
AcDbArc
 50
10.0792345963
 51
13.9331436567
  0
ARC
  5
492
330
1B
100
AcDbEntity
 67
     1
  8
7_ALL_FEATURES
  6
Continuous
 62
     7
100
AcDbCircle
 10
560.5781906031
 20
271.244998362
 30
0.0
 40
2.0
100
AcDbArc
 50
13.9331436567
 51
90.0
  0
LINE
  5
493
330
1B
100
AcDbEntity
 67
     1
  8
7_ALL_FEATURES
  6
Continuous
 62
     7
100
AcDbLine
 10
551.0781906031
 20
229.544998362
 30
0.0
 11
550.0781906031
 21
229.544998362
 31
0.0
  0
LINE
  5
494
330
1B
100
AcDbEntity
 67
     1
  8
7_ALL_FEATURES
  6
Continuous
 62
     7
100
AcDbLine
 10
560.5781906031
 20
229.544998362
 30
0.0
 11
551.0781906031
 21
229.544998362
 31
0.0
  0
ARC
  5
495
330
1B
100
AcDbEntity
 67
     1
  8
7_ALL_FEATURES
  6
Continuous
 62
     7
100
AcDbCircle
 10
560.5781906031
 20
231.544998362
 30
0.0
 40
2.0
100
AcDbArc
 50
270.0
 51
346.0668563433
  0
ARC
  5
496
330
1B
100
AcDbEntity
 67
     1
  8
7_ALL_FEATURES
  6
Continuous
 62
     7
100
AcDbCircle
 10
560.5781906031
 20
231.544998362
 30
0.0
 40
2.0
100
AcDbArc
 50
346.0668563433
 51
349.9207654037
  0
LINE
  5
497
330
1B
100
AcDbEntity
 67
     1
  8
7_ALL_FEATURES
  6
Continuous
 62
     7
100
AcDbLine
 10
562.5781906031
 20
271.594998362
 30
0.0
 11
561.5781906031
 21
271.594998362
 31
0.0
  0
LINE
  5
498
330
1B
100
AcDbEntity
 67
     1
  8
7_ALL_FEATURES
  6
Continuous
 62
     7
100
AcDbLine
 10
562.5781906031
 20
231.194998362
 30
0.0
 11
561.5781906031
 21
231.194998362
 31
0.0
  0
LINE
  5
499
330
1B
100
AcDbEntity
 67
     1
  8
7_ALL_FEATURES
  6
Continuous
 62
     7
100
AcDbLine
 10
562.5781906031
 20
231.694998362
 30
0.0
 11
562.5781906031
 21
231.194998362
 31
0.0
  0
LINE
  5
49A
330
1B
100
AcDbEntity
 67
     1
  8
7_ALL_FEATURES
  6
Continuous
 62
     7
100
AcDbLine
 10
562.5781906031
 20
231.694998362
 30
0.0
 11
562.5781906031
 21
271.094998362
 31
0.0
  0
LINE
  5
49B
330
1B
100
AcDbEntity
 67
     1
  8
7_ALL_FEATURES
  6
Continuous
 62
     7
100
AcDbLine
 10
562.5781906031
 20
271.594998362
 30
0.0
 11
562.5781906031
 21
271.094998362
 31
0.0
  0
LINE
  5
49C
330
1B
100
AcDbEntity
 67
     1
  8
7_ALL_FEATURES
  6
Continuous
 62
     7
100
AcDbLine
 10
550.0781906031
 20
272.244998362
 30
0.0
 11
550.0781906031
 21
273.244998362
 31
0.0
  0
LINE
  5
49D
330
1B
100
AcDbEntity
 67
     1
  8
7_ALL_FEATURES
  6
Continuous
 62
     7
100
AcDbLine
 10
550.0781906031
 20
273.244998362
 30
0.0
 11
551.0781906031
 21
273.244998362
 31
0.0
  0
LINE
  5
49E
330
1B
100
AcDbEntity
 67
     1
  8
7_ALL_FEATURES
  6
Continuous
 62
     7
100
AcDbLine
 10
562.5781906031
 20
231.194998362
 30
0.0
 11
561.5781906031
 21
231.194998362
 31
0.0
  0
LINE
  5
49F
330
1B
100
AcDbEntity
 67
     1
  8
7_ALL_FEATURES
  6
Continuous
 62
     9
100
AcDbLine
 10
562.519345314
 20
231.0634193046
 30
0.0
 11
561.9889748522
 21
231.194998362
 31
0.0
  0
LINE
  5
4A0
330
1B
100
AcDbEntity
 67
     1
  8
7_ALL_FEATURES
  6
Continuous
 62
     9
100
AcDbLine
 10
560.5781906031
 20
229.544998362
 30
0.0
 11
560.5781906031
 21
230.544998362
 31
0.0
  0
LINE
  5
4A1
330
1B
100
AcDbEntity
 67
     1
  8
7_ALL_FEATURES
  6
Continuous
 62
     9
100
AcDbLine
 10
562.5781906031
 20
271.094998362
 30
0.0
 11
561.5781906031
 21
271.094998362
 31
0.0
  0
LINE
  5
4A2
330
1B
100
AcDbEntity
 67
     1
  8
7_ALL_FEATURES
  6
Continuous
 62
     9
100
AcDbLine
 10
562.5781906031
 20
231.694998362
 30
0.0
 11
561.5781906031
 21
231.694998362
 31
0.0
  0
LINE
  5
4A3
330
1B
100
AcDbEntity
 67
     1
  8
7_ALL_FEATURES
  6
Continuous
 62
     9
100
AcDbLine
 10
551.0781906031
 20
272.244998362
 30
0.0
 11
551.0781906031
 21
273.244998362
 31
0.0
  0
LINE
  5
4A4
330
1B
100
AcDbEntity
 67
     1
  8
7_ALL_FEATURES
  6
Continuous
 62
     9
100
AcDbLine
 10
560.5781906031
 20
273.244998362
 30
0.0
 11
560.5781906031
 21
272.244998362
 31
0.0
  0
LINE
  5
4A5
330
1B
100
AcDbEntity
 67
     1
  8
7_ALL_FEATURES
  6
Continuous
 62
     9
100
AcDbLine
 10
562.519345314
 20
271.7265774193
 30
0.0
 11
561.9889748522
 21
271.594998362
 31
0.0
  0
LINE
  5
4A6
330
1B
100
AcDbEntity
 67
     1
  8
7_ALL_FEATURES
  6
Continuous
 62
     9
100
AcDbLine
 10
551.0781906031
 20
230.544998362
 30
0.0
 11
551.0781906031
 21
229.544998362
 31
0.0
  0
LINE
  5
4A7
330
1B
100
AcDbEntity
 67
     1
  8
7_ALL_FEATURES
  6
Continuous
 62
     7
100
AcDbLine
 10
62.5781906031
 20
230.544998362
 30
0.0
 11
62.5781906031
 21
229.544998362
 31
0.0
  0
LINE
  5
4A8
330
1B
100
AcDbEntity
 67
     1
  8
7_ALL_FEATURES
  6
Continuous
 62
     7
100
AcDbLine
 10
62.5781906031
 20
272.244998362
 30
0.0
 11
62.5781906031
 21
273.244998362
 31
0.0
  0
LINE
  5
4A9
330
1B
100
AcDbEntity
 67
     1
  8
7_ALL_FEATURES
  6
Continuous
 62
     7
100
AcDbLine
 10
61.5781906031
 20
229.544998362
 30
0.0
 11
52.0781906031
 21
229.544998362
 31
0.0
  0
ARC
  5
4AA
330
1B
100
AcDbEntity
 67
     1
  8
7_ALL_FEATURES
  6
Continuous
 62
     7
100
AcDbCircle
 10
52.0781906031
 20
231.544998362
 30
0.0
 40
2.0
100
AcDbArc
 50
190.0792345963
 51
193.9331436567
  0
ARC
  5
4AB
330
1B
100
AcDbEntity
 67
     1
  8
7_ALL_FEATURES
  6
Continuous
 62
     7
100
AcDbCircle
 10
52.0781906031
 20
231.544998362
 30
0.0
 40
2.0
100
AcDbArc
 50
193.9331436567
 51
270.0
  0
LINE
  5
4AC
330
1B
100
AcDbEntity
 67
     1
  8
7_ALL_FEATURES
  6
Continuous
 62
     7
100
AcDbLine
 10
61.5781906031
 20
273.244998362
 30
0.0
 11
62.5781906031
 21
273.244998362
 31
0.0
  0
LINE
  5
4AD
330
1B
100
AcDbEntity
 67
     1
  8
7_ALL_FEATURES
  6
Continuous
 62
     7
100
AcDbLine
 10
52.0781906031
 20
273.244998362
 30
0.0
 11
61.5781906031
 21
273.244998362
 31
0.0
  0
ARC
  5
4AE
330
1B
100
AcDbEntity
 67
     1
  8
7_ALL_FEATURES
  6
Continuous
 62
     7
100
AcDbCircle
 10
52.0781906031
 20
271.244998362
 30
0.0
 40
2.0
100
AcDbArc
 50
90.0
 51
166.0668563433
  0
ARC
  5
4AF
330
1B
100
AcDbEntity
 67
     1
  8
7_ALL_FEATURES
  6
Continuous
 62
     7
100
AcDbCircle
 10
52.0781906031
 20
271.244998362
 30
0.0
 40
2.0
100
AcDbArc
 50
166.0668563433
 51
169.9207654037
  0
LINE
  5
4B0
330
1B
100
AcDbEntity
 67
     1
  8
7_ALL_FEATURES
  6
Continuous
 62
     7
100
AcDbLine
 10
50.0781906031
 20
231.194998362
 30
0.0
 11
51.0781906031
 21
231.194998362
 31
0.0
  0
LINE
  5
4B1
330
1B
100
AcDbEntity
 67
     1
  8
7_ALL_FEATURES
  6
Continuous
 62
     7
100
AcDbLine
 10
50.0781906031
 20
271.594998362
 30
0.0
 11
51.0781906031
 21
271.594998362
 31
0.0
  0
LINE
  5
4B2
330
1B
100
AcDbEntity
 67
     1
  8
7_ALL_FEATURES
  6
Continuous
 62
     7
100
AcDbLine
 10
50.0781906031
 20
271.094998362
 30
0.0
 11
50.0781906031
 21
271.594998362
 31
0.0
  0
LINE
  5
4B3
330
1B
100
AcDbEntity
 67
     1
  8
7_ALL_FEATURES
  6
Continuous
 62
     7
100
AcDbLine
 10
50.0781906031
 20
271.094998362
 30
0.0
 11
50.0781906031
 21
231.694998362
 31
0.0
  0
LINE
  5
4B4
330
1B
100
AcDbEntity
 67
     1
  8
7_ALL_FEATURES
  6
Continuous
 62
     7
100
AcDbLine
 10
50.0781906031
 20
231.194998362
 30
0.0
 11
50.0781906031
 21
231.694998362
 31
0.0
  0
LINE
  5
4B5
330
1B
100
AcDbEntity
 67
     1
  8
7_ALL_FEATURES
  6
Continuous
 62
     7
100
AcDbLine
 10
62.5781906031
 20
230.544998362
 30
0.0
 11
62.5781906031
 21
229.544998362
 31
0.0
  0
LINE
  5
4B6
330
1B
100
AcDbEntity
 67
     1
  8
7_ALL_FEATURES
  6
Continuous
 62
     7
100
AcDbLine
 10
62.5781906031
 20
229.544998362
 30
0.0
 11
61.5781906031
 21
229.544998362
 31
0.0
  0
LINE
  5
4B7
330
1B
100
AcDbEntity
 67
     1
  8
7_ALL_FEATURES
  6
Continuous
 62
     7
100
AcDbLine
 10
50.0781906031
 20
271.594998362
 30
0.0
 11
51.0781906031
 21
271.594998362
 31
0.0
  0
LINE
  5
4B8
330
1B
100
AcDbEntity
 67
     1
  8
7_ALL_FEATURES
  6
Continuous
 62
     9
100
AcDbLine
 10
50.1370358923
 20
271.7265774193
 30
0.0
 11
50.667406354
 21
271.594998362
 31
0.0
  0
LINE
  5
4B9
330
1B
100
AcDbEntity
 67
     1
  8
7_ALL_FEATURES
  6
Continuous
 62
     9
100
AcDbLine
 10
52.0781906031
 20
273.244998362
 30
0.0
 11
52.0781906031
 21
272.244998362
 31
0.0
  0
LINE
  5
4BA
330
1B
100
AcDbEntity
 67
     1
  8
7_ALL_FEATURES
  6
Continuous
 62
     9
100
AcDbLine
 10
50.0781906031
 20
231.694998362
 30
0.0
 11
51.0781906031
 21
231.694998362
 31
0.0
  0
LINE
  5
4BB
330
1B
100
AcDbEntity
 67
     1
  8
7_ALL_FEATURES
  6
Continuous
 62
     9
100
AcDbLine
 10
50.0781906031
 20
271.094998362
 30
0.0
 11
51.0781906031
 21
271.094998362
 31
0.0
  0
LINE
  5
4BC
330
1B
100
AcDbEntity
 67
     1
  8
7_ALL_FEATURES
  6
Continuous
 62
     9
100
AcDbLine
 10
61.5781906031
 20
230.544998362
 30
0.0
 11
61.5781906031
 21
229.544998362
 31
0.0
  0
LINE
  5
4BD
330
1B
100
AcDbEntity
 67
     1
  8
7_ALL_FEATURES
  6
Continuous
 62
     9
100
AcDbLine
 10
52.0781906031
 20
229.544998362
 30
0.0
 11
52.0781906031
 21
230.544998362
 31
0.0
  0
LINE
  5
4BE
330
1B
100
AcDbEntity
 67
     1
  8
7_ALL_FEATURES
  6
Continuous
 62
     9
100
AcDbLine
 10
50.1370358923
 20
231.0634193046
 30
0.0
 11
50.667406354
 21
231.194998362
 31
0.0
  0
LINE
  5
4BF
330
1B
100
AcDbEntity
 67
     1
  8
7_ALL_FEATURES
  6
Continuous
 62
     9
100
AcDbLine
 10
61.5781906031
 20
272.244998362
 30
0.0
 11
61.5781906031
 21
273.244998362
 31
0.0
  0
LINE
  5
4C0
330
1B
100
AcDbEntity
 67
     1
  8
7_ALL_FEATURES
  6
Continuous
 62
     7
100
AcDbLine
 10
561.5781906031
 20
231.194998362
 30
0.0
 11
51.0781906031
 21
231.194998362
 31
0.0
  0
LINE
  5
4C1
330
1B
100
AcDbEntity
 67
     1
  8
7_ALL_FEATURES
  6
Continuous
 62
     7
100
AcDbLine
 10
561.5781906031
 20
271.594998362
 30
0.0
 11
51.0781906031
 21
271.594998362
 31
0.0
  0
LINE
  5
4C2
330
1B
100
AcDbEntity
 67
     1
  8
7_ALL_FEATURES
  6
Continuous
 62
     7
100
AcDbLine
 10
51.0781906031
 20
231.194998362
 30
0.0
 11
51.0781906031
 21
231.694998362
 31
0.0
  0
LINE
  5
4C3
330
1B
100
AcDbEntity
 67
     1
  8
7_ALL_FEATURES
  6
Continuous
 62
     7
100
AcDbLine
 10
51.0781906031
 20
231.694998362
 30
0.0
 11
51.0781906031
 21
232.394998362
 31
0.0
  0
LINE
  5
4C4
330
1B
100
AcDbEntity
 67
     1
  8
7_ALL_FEATURES
  6
Continuous
 62
     7
100
AcDbLine
 10
561.5781906031
 20
231.194998362
 30
0.0
 11
561.5781906031
 21
231.694998362
 31
0.0
  0
LINE
  5
4C5
330
1B
100
AcDbEntity
 67
     1
  8
7_ALL_FEATURES
  6
Continuous
 62
     7
100
AcDbLine
 10
561.5781906031
 20
231.694998362
 30
0.0
 11
561.5781906031
 21
232.394998362
 31
0.0
  0
LINE
  5
4C6
330
1B
100
AcDbEntity
 67
     1
  8
7_ALL_FEATURES
  6
Continuous
 62
     7
100
AcDbLine
 10
561.5781906031
 20
270.394998362
 30
0.0
 11
561.5781906031
 21
271.094998362
 31
0.0
  0
LINE
  5
4C7
330
1B
100
AcDbEntity
 67
     1
  8
7_ALL_FEATURES
  6
Continuous
 62
     7
100
AcDbLine
 10
561.5781906031
 20
271.094998362
 30
0.0
 11
561.5781906031
 21
271.594998362
 31
0.0
  0
LINE
  5
4C8
330
1B
100
AcDbEntity
 67
     1
  8
7_ALL_FEATURES
  6
Continuous
 62
     7
100
AcDbLine
 10
51.0781906031
 20
270.394998362
 30
0.0
 11
51.0781906031
 21
271.094998362
 31
0.0
  0
LINE
  5
4C9
330
1B
100
AcDbEntity
 67
     1
  8
7_ALL_FEATURES
  6
Continuous
 62
     7
100
AcDbLine
 10
51.0781906031
 20
271.094998362
 30
0.0
 11
51.0781906031
 21
271.594998362
 31
0.0
  0
LINE
  5
4CA
330
1B
100
AcDbEntity
 67
     1
  8
7_ALL_FEATURES
  6
Continuous
 62
     3
100
AcDbLine
 10
561.5781906031
 20
231.694998362
 30
0.0
 11
561.5781906031
 21
232.394998362
 31
0.0
  0
LINE
  5
4CB
330
1B
100
AcDbEntity
 67
     1
  8
7_ALL_FEATURES
  6
Continuous
 62
     3
100
AcDbLine
 10
561.5781906031
 20
232.394998362
 30
0.0
 11
561.5781906031
 21
270.394998362
 31
0.0
  0
LINE
  5
4CC
330
1B
100
AcDbEntity
 67
     1
  8
7_ALL_FEATURES
  6
Continuous
 62
     3
100
AcDbLine
 10
561.5781906031
 20
270.394998362
 30
0.0
 11
561.5781906031
 21
271.094998362
 31
0.0
  0
LINE
  5
4CD
330
1B
100
AcDbEntity
 67
     1
  8
7_ALL_FEATURES
  6
Continuous
 62
     3
100
AcDbLine
 10
551.0781906031
 20
272.244998362
 30
0.0
 11
550.0781906031
 21
272.244998362
 31
0.0
  0
LINE
  5
4CE
330
1B
100
AcDbEntity
 67
     1
  8
7_ALL_FEATURES
  6
Continuous
 62
     3
100
AcDbLine
 10
551.0781906031
 20
272.244998362
 30
0.0
 11
560.5781906031
 21
272.244998362
 31
0.0
  0
ARC
  5
4CF
330
1B
100
AcDbEntity
 67
     1
  8
7_ALL_FEATURES
  6
Continuous
 62
     3
100
AcDbCircle
 10
560.5781906031
 20
271.244998362
 30
0.0
 40
1.0
100
AcDbArc
 50
20.489042011
 51
90.0
  0
LINE
  5
4D0
330
1B
100
AcDbEntity
 67
     1
  8
7_ALL_FEATURES
  6
Continuous
 62
     3
100
AcDbLine
 10
550.0781906031
 20
230.544998362
 30
0.0
 11
551.0781906031
 21
230.544998362
 31
0.0
  0
LINE
  5
4D1
330
1B
100
AcDbEntity
 67
     1
  8
7_ALL_FEATURES
  6
Continuous
 62
     3
100
AcDbLine
 10
560.5781906031
 20
230.544998362
 30
0.0
 11
551.0781906031
 21
230.544998362
 31
0.0
  0
ARC
  5
4D2
330
1B
100
AcDbEntity
 67
     1
  8
7_ALL_FEATURES
  6
Continuous
 62
     3
100
AcDbCircle
 10
560.5781906031
 20
231.544998362
 30
0.0
 40
1.0
100
AcDbArc
 50
270.0
 51
339.510957989
  0
LINE
  5
4D3
330
1B
100
AcDbEntity
 67
     1
  8
7_ALL_FEATURES
  6
Continuous
 62
     3
100
AcDbLine
 10
51.0781906031
 20
271.094998362
 30
0.0
 11
51.0781906031
 21
270.394998362
 31
0.0
  0
LINE
  5
4D4
330
1B
100
AcDbEntity
 67
     1
  8
7_ALL_FEATURES
  6
Continuous
 62
     3
100
AcDbLine
 10
51.0781906031
 20
270.394998362
 30
0.0
 11
51.0781906031
 21
232.394998362
 31
0.0
  0
LINE
  5
4D5
330
1B
100
AcDbEntity
 67
     1
  8
7_ALL_FEATURES
  6
Continuous
 62
     3
100
AcDbLine
 10
51.0781906031
 20
232.394998362
 30
0.0
 11
51.0781906031
 21
231.694998362
 31
0.0
  0
LINE
  5
4D6
330
1B
100
AcDbEntity
 67
     1
  8
7_ALL_FEATURES
  6
Continuous
 62
     3
100
AcDbLine
 10
61.5781906031
 20
230.544998362
 30
0.0
 11
62.5781906031
 21
230.544998362
 31
0.0
  0
LINE
  5
4D7
330
1B
100
AcDbEntity
 67
     1
  8
7_ALL_FEATURES
  6
Continuous
 62
     3
100
AcDbLine
 10
61.5781906031
 20
230.544998362
 30
0.0
 11
52.0781906031
 21
230.544998362
 31
0.0
  0
ARC
  5
4D8
330
1B
100
AcDbEntity
 67
     1
  8
7_ALL_FEATURES
  6
Continuous
 62
     3
100
AcDbCircle
 10
52.0781906031
 20
231.544998362
 30
0.0
 40
1.0
100
AcDbArc
 50
200.489042011
 51
270.0
  0
LINE
  5
4D9
330
1B
100
AcDbEntity
 67
     1
  8
7_ALL_FEATURES
  6
Continuous
 62
     3
100
AcDbLine
 10
62.5781906031
 20
272.244998362
 30
0.0
 11
61.5781906031
 21
272.244998362
 31
0.0
  0
LINE
  5
4DA
330
1B
100
AcDbEntity
 67
     1
  8
7_ALL_FEATURES
  6
Continuous
 62
     3
100
AcDbLine
 10
52.0781906031
 20
272.244998362
 30
0.0
 11
61.5781906031
 21
272.244998362
 31
0.0
  0
ARC
  5
4DB
330
1B
100
AcDbEntity
 67
     1
  8
7_ALL_FEATURES
  6
Continuous
 62
     3
100
AcDbCircle
 10
52.0781906031
 20
271.244998362
 30
0.0
 40
1.0
100
AcDbArc
 50
90.0
 51
159.510957989
  0
ARC
  5
4DC
330
1B
100
AcDbEntity
 67
     1
  8
02___PRT_ALL_AXES
  6
Continuous
 62
     3
100
AcDbCircle
 10
477.3281906031
 20
216.394998362
 30
0.0
 40
3.25
100
AcDbArc
 50
180.0
 51
360.0
  0
ARC
  5
4DD
330
1B
100
AcDbEntity
 67
     1
  8
02___PRT_ALL_AXES
  6
Continuous
 62
     3
100
AcDbCircle
 10
477.3281906031
 20
216.394998362
 30
0.0
 40
3.25
100
AcDbArc
 50
0.0
 51
180.0
  0
ARC
  5
4DE
330
1B
100
AcDbEntity
 67
     1
  8
02___PRT_ALL_AXES
  6
Continuous
 62
     3
100
AcDbCircle
 10
477.3281906031
 20
286.394998362
 30
0.0
 40
3.25
100
AcDbArc
 50
180.0
 51
360.0
  0
ARC
  5
4DF
330
1B
100
AcDbEntity
 67
     1
  8
02___PRT_ALL_AXES
  6
Continuous
 62
     3
100
AcDbCircle
 10
477.3281906031
 20
286.394998362
 30
0.0
 40
3.25
100
AcDbArc
 50
0.0
 51
180.0
  0
LINE
  5
4E0
330
1B
100
AcDbEntity
 67
     1
  8
02___PRT_ALL_AXES
  6
Continuous
 62
     3
100
AcDbLine
 10
490.5781906031
 20
213.394998362
 30
0.0
 11
490.5781906031
 21
219.394998362
 31
0.0
  0
ARC
  5
4E1
330
1B
100
AcDbEntity
 67
     1
  8
02___PRT_ALL_AXES
  6
Continuous
 62
     3
100
AcDbCircle
 10
493.8281906031
 20
213.394998362
 30
0.0
 40
3.25
100
AcDbArc
 50
180.0
 51
360.0
  0
LINE
  5
4E2
330
1B
100
AcDbEntity
 67
     1
  8
02___PRT_ALL_AXES
  6
Continuous
 62
     3
100
AcDbLine
 10
497.0781906031
 20
219.394998362
 30
0.0
 11
497.0781906031
 21
213.394998362
 31
0.0
  0
ARC
  5
4E3
330
1B
100
AcDbEntity
 67
     1
  8
02___PRT_ALL_AXES
  6
Continuous
 62
     3
100
AcDbCircle
 10
493.8281906031
 20
219.394998362
 30
0.0
 40
3.25
100
AcDbArc
 50
0.0
 51
180.0
  0
ARC
  5
4E4
330
1B
100
AcDbEntity
 67
     1
  8
02___PRT_ALL_AXES
  6
Continuous
 62
     3
100
AcDbCircle
 10
493.8281906031
 20
289.394998362
 30
0.0
 40
3.25
100
AcDbArc
 50
0.0
 51
180.0
  0
LINE
  5
4E5
330
1B
100
AcDbEntity
 67
     1
  8
02___PRT_ALL_AXES
  6
Continuous
 62
     3
100
AcDbLine
 10
490.5781906031
 20
283.394998362
 30
0.0
 11
490.5781906031
 21
289.394998362
 31
0.0
  0
ARC
  5
4E6
330
1B
100
AcDbEntity
 67
     1
  8
02___PRT_ALL_AXES
  6
Continuous
 62
     3
100
AcDbCircle
 10
493.8281906031
 20
283.394998362
 30
0.0
 40
3.25
100
AcDbArc
 50
180.0
 51
360.0
  0
LINE
  5
4E7
330
1B
100
AcDbEntity
 67
     1
  8
02___PRT_ALL_AXES
  6
Continuous
 62
     3
100
AcDbLine
 10
497.0781906031
 20
289.394998362
 30
0.0
 11
497.0781906031
 21
283.394998362
 31
0.0
  0
ARC
  5
4E8
330
1B
100
AcDbEntity
 67
     1
  8
02___PRT_ALL_AXES
  6
Continuous
 62
     3
100
AcDbCircle
 10
510.3281906031
 20
216.394998362
 30
0.0
 40
3.25
100
AcDbArc
 50
180.0
 51
360.0
  0
ARC
  5
4E9
330
1B
100
AcDbEntity
 67
     1
  8
02___PRT_ALL_AXES
  6
Continuous
 62
     3
100
AcDbCircle
 10
510.3281906031
 20
216.394998362
 30
0.0
 40
3.25
100
AcDbArc
 50
0.0
 51
180.0
  0
ARC
  5
4EA
330
1B
100
AcDbEntity
 67
     1
  8
02___PRT_ALL_AXES
  6
Continuous
 62
     3
100
AcDbCircle
 10
510.3281906031
 20
286.394998362
 30
0.0
 40
3.25
100
AcDbArc
 50
180.0
 51
360.0
  0
ARC
  5
4EB
330
1B
100
AcDbEntity
 67
     1
  8
02___PRT_ALL_AXES
  6
Continuous
 62
     3
100
AcDbCircle
 10
510.3281906031
 20
286.394998362
 30
0.0
 40
3.25
100
AcDbArc
 50
0.0
 51
180.0
  0
ARC
  5
4EC
330
1B
100
AcDbEntity
 67
     1
  8
7_ALL_FEATURES
  6
Continuous
 62
     3
100
AcDbCircle
 10
508.8281906031
 20
216.894998362
 30
0.0
 40
10.0
100
AcDbArc
 50
270.0
 51
360.0
  0
LINE
  5
4ED
330
1B
100
AcDbEntity
 67
     1
  8
7_ALL_FEATURES
  6
Continuous
 62
     3
100
AcDbLine
 10
478.8281906031
 20
206.894998362
 30
0.0
 11
508.8281906031
 21
206.894998362
 31
0.0
  0
ARC
  5
4EE
330
1B
100
AcDbEntity
 67
     1
  8
7_ALL_FEATURES
  6
Continuous
 62
     3
100
AcDbCircle
 10
478.8281906031
 20
216.894998362
 30
0.0
 40
10.0
100
AcDbArc
 50
180.0
 51
270.0
  0
LINE
  5
4EF
330
1B
100
AcDbEntity
 67
     1
  8
7_ALL_FEATURES
  6
Continuous
 62
     3
100
AcDbLine
 10
468.8281906031
 20
285.894998362
 30
0.0
 11
468.8281906031
 21
271.594998362
 31
0.0
  0
LINE
  5
4F0
330
1B
100
AcDbEntity
 67
     1
  8
7_ALL_FEATURES
  6
Continuous
 62
     3
100
AcDbLine
 10
468.8281906031
 20
231.194998362
 30
0.0
 11
468.8281906031
 21
216.894998362
 31
0.0
  0
ARC
  5
4F1
330
1B
100
AcDbEntity
 67
     1
  8
7_ALL_FEATURES
  6
Continuous
 62
     3
100
AcDbCircle
 10
478.8281906031
 20
285.894998362
 30
0.0
 40
10.0
100
AcDbArc
 50
90.0
 51
180.0
  0
LINE
  5
4F2
330
1B
100
AcDbEntity
 67
     1
  8
7_ALL_FEATURES
  6
Continuous
 62
     3
100
AcDbLine
 10
508.8281906031
 20
295.894998362
 30
0.0
 11
478.8281906031
 21
295.894998362
 31
0.0
  0
ARC
  5
4F3
330
1B
100
AcDbEntity
 67
     1
  8
7_ALL_FEATURES
  6
Continuous
 62
     3
100
AcDbCircle
 10
508.8281906031
 20
285.894998362
 30
0.0
 40
10.0
100
AcDbArc
 50
0.0
 51
90.0
  0
LINE
  5
4F4
330
1B
100
AcDbEntity
 67
     1
  8
7_ALL_FEATURES
  6
Continuous
 62
     3
100
AcDbLine
 10
518.8281906031
 20
216.894998362
 30
0.0
 11
518.8281906031
 21
231.194998362
 31
0.0
  0
LINE
  5
4F5
330
1B
100
AcDbEntity
 67
     1
  8
7_ALL_FEATURES
  6
Continuous
 62
     3
100
AcDbLine
 10
518.8281906031
 20
271.594998362
 30
0.0
 11
518.8281906031
 21
285.894998362
 31
0.0
  0
ARC
  5
4F6
330
1B
100
AcDbEntity
 67
     1
  8
02___PRT_ALL_AXES
  6
Continuous
 62
     3
100
AcDbCircle
 10
102.3281906031
 20
216.394998362
 30
0.0
 40
3.25
100
AcDbArc
 50
180.0
 51
360.0
  0
ARC
  5
4F7
330
1B
100
AcDbEntity
 67
     1
  8
02___PRT_ALL_AXES
  6
Continuous
 62
     3
100
AcDbCircle
 10
102.3281906031
 20
216.394998362
 30
0.0
 40
3.25
100
AcDbArc
 50
0.0
 51
180.0
  0
ARC
  5
4F8
330
1B
100
AcDbEntity
 67
     1
  8
02___PRT_ALL_AXES
  6
Continuous
 62
     3
100
AcDbCircle
 10
102.3281906031
 20
286.394998362
 30
0.0
 40
3.25
100
AcDbArc
 50
180.0
 51
360.0
  0
ARC
  5
4F9
330
1B
100
AcDbEntity
 67
     1
  8
02___PRT_ALL_AXES
  6
Continuous
 62
     3
100
AcDbCircle
 10
102.3281906031
 20
286.394998362
 30
0.0
 40
3.25
100
AcDbArc
 50
0.0
 51
180.0
  0
LINE
  5
4FA
330
1B
100
AcDbEntity
 67
     1
  8
02___PRT_ALL_AXES
  6
Continuous
 62
     3
100
AcDbLine
 10
115.5781906031
 20
213.394998362
 30
0.0
 11
115.5781906031
 21
219.394998362
 31
0.0
  0
ARC
  5
4FB
330
1B
100
AcDbEntity
 67
     1
  8
02___PRT_ALL_AXES
  6
Continuous
 62
     3
100
AcDbCircle
 10
118.8281906031
 20
213.394998362
 30
0.0
 40
3.25
100
AcDbArc
 50
180.0
 51
360.0
  0
LINE
  5
4FC
330
1B
100
AcDbEntity
 67
     1
  8
02___PRT_ALL_AXES
  6
Continuous
 62
     3
100
AcDbLine
 10
122.0781906031
 20
219.394998362
 30
0.0
 11
122.0781906031
 21
213.394998362
 31
0.0
  0
ARC
  5
4FD
330
1B
100
AcDbEntity
 67
     1
  8
02___PRT_ALL_AXES
  6
Continuous
 62
     3
100
AcDbCircle
 10
118.8281906031
 20
219.394998362
 30
0.0
 40
3.25
100
AcDbArc
 50
0.0
 51
180.0
  0
ARC
  5
4FE
330
1B
100
AcDbEntity
 67
     1
  8
02___PRT_ALL_AXES
  6
Continuous
 62
     3
100
AcDbCircle
 10
118.8281906031
 20
289.394998362
 30
0.0
 40
3.25
100
AcDbArc
 50
0.0
 51
180.0
  0
LINE
  5
4FF
330
1B
100
AcDbEntity
 67
     1
  8
02___PRT_ALL_AXES
  6
Continuous
 62
     3
100
AcDbLine
 10
115.5781906031
 20
283.394998362
 30
0.0
 11
115.5781906031
 21
289.394998362
 31
0.0
  0
ARC
  5
500
330
1B
100
AcDbEntity
 67
     1
  8
02___PRT_ALL_AXES
  6
Continuous
 62
     3
100
AcDbCircle
 10
118.8281906031
 20
283.394998362
 30
0.0
 40
3.25
100
AcDbArc
 50
180.0
 51
360.0
  0
LINE
  5
501
330
1B
100
AcDbEntity
 67
     1
  8
02___PRT_ALL_AXES
  6
Continuous
 62
     3
100
AcDbLine
 10
122.0781906031
 20
289.394998362
 30
0.0
 11
122.0781906031
 21
283.394998362
 31
0.0
  0
ARC
  5
502
330
1B
100
AcDbEntity
 67
     1
  8
02___PRT_ALL_AXES
  6
Continuous
 62
     3
100
AcDbCircle
 10
135.3281906031
 20
216.394998362
 30
0.0
 40
3.25
100
AcDbArc
 50
180.0
 51
360.0
  0
ARC
  5
503
330
1B
100
AcDbEntity
 67
     1
  8
02___PRT_ALL_AXES
  6
Continuous
 62
     3
100
AcDbCircle
 10
135.3281906031
 20
216.394998362
 30
0.0
 40
3.25
100
AcDbArc
 50
0.0
 51
180.0
  0
ARC
  5
504
330
1B
100
AcDbEntity
 67
     1
  8
02___PRT_ALL_AXES
  6
Continuous
 62
     3
100
AcDbCircle
 10
135.3281906031
 20
286.394998362
 30
0.0
 40
3.25
100
AcDbArc
 50
180.0
 51
360.0
  0
ARC
  5
505
330
1B
100
AcDbEntity
 67
     1
  8
02___PRT_ALL_AXES
  6
Continuous
 62
     3
100
AcDbCircle
 10
135.3281906031
 20
286.394998362
 30
0.0
 40
3.25
100
AcDbArc
 50
0.0
 51
180.0
  0
ARC
  5
506
330
1B
100
AcDbEntity
 67
     1
  8
7_ALL_FEATURES
  6
Continuous
 62
     3
100
AcDbCircle
 10
133.8281906031
 20
216.894998362
 30
0.0
 40
10.0
100
AcDbArc
 50
270.0
 51
360.0
  0
LINE
  5
507
330
1B
100
AcDbEntity
 67
     1
  8
7_ALL_FEATURES
  6
Continuous
 62
     3
100
AcDbLine
 10
103.8281906031
 20
206.894998362
 30
0.0
 11
133.8281906031
 21
206.894998362
 31
0.0
  0
ARC
  5
508
330
1B
100
AcDbEntity
 67
     1
  8
7_ALL_FEATURES
  6
Continuous
 62
     3
100
AcDbCircle
 10
103.8281906031
 20
216.894998362
 30
0.0
 40
10.0
100
AcDbArc
 50
180.0
 51
270.0
  0
LINE
  5
509
330
1B
100
AcDbEntity
 67
     1
  8
7_ALL_FEATURES
  6
Continuous
 62
     3
100
AcDbLine
 10
93.8281906031
 20
285.894998362
 30
0.0
 11
93.8281906031
 21
271.594998362
 31
0.0
  0
LINE
  5
50A
330
1B
100
AcDbEntity
 67
     1
  8
7_ALL_FEATURES
  6
Continuous
 62
     3
100
AcDbLine
 10
93.8281906031
 20
231.194998362
 30
0.0
 11
93.8281906031
 21
216.894998362
 31
0.0
  0
ARC
  5
50B
330
1B
100
AcDbEntity
 67
     1
  8
7_ALL_FEATURES
  6
Continuous
 62
     3
100
AcDbCircle
 10
103.8281906031
 20
285.894998362
 30
0.0
 40
10.0
100
AcDbArc
 50
90.0
 51
180.0
  0
LINE
  5
50C
330
1B
100
AcDbEntity
 67
     1
  8
7_ALL_FEATURES
  6
Continuous
 62
     3
100
AcDbLine
 10
133.8281906031
 20
295.894998362
 30
0.0
 11
103.8281906031
 21
295.894998362
 31
0.0
  0
ARC
  5
50D
330
1B
100
AcDbEntity
 67
     1
  8
7_ALL_FEATURES
  6
Continuous
 62
     3
100
AcDbCircle
 10
133.8281906031
 20
285.894998362
 30
0.0
 40
10.0
100
AcDbArc
 50
0.0
 51
90.0
  0
LINE
  5
50E
330
1B
100
AcDbEntity
 67
     1
  8
7_ALL_FEATURES
  6
Continuous
 62
     3
100
AcDbLine
 10
143.8281906031
 20
216.894998362
 30
0.0
 11
143.8281906031
 21
231.194998362
 31
0.0
  0
LINE
  5
50F
330
1B
100
AcDbEntity
 67
     1
  8
7_ALL_FEATURES
  6
Continuous
 62
     3
100
AcDbLine
 10
143.8281906031
 20
271.594998362
 30
0.0
 11
143.8281906031
 21
285.894998362
 31
0.0
  0
LINE
  5
510
330
1B
100
AcDbEntity
 67
     1
  8
7_ALL_FEATURES
  6
Continuous
 62
     3
100
AcDbLine
 10
51.8281906031
 20
269.2738694904
 30
0.0
 11
51.8281906031
 21
233.5161272335
 31
0.0
  0
LINE
  5
511
330
1B
100
AcDbEntity
 67
     1
  8
7_ALL_FEATURES
  6
Continuous
 62
     3
100
AcDbLine
 10
560.8281906031
 20
233.5161272335
 30
0.0
 11
560.8281906031
 21
269.2738694904
 31
0.0
  0
ARC
  5
512
330
1B
100
AcDbEntity
 67
     1
  8
02___PRT_ALL_AXES
  6
Continuous
 62
     3
100
AcDbCircle
 10
550.8281906031
 20
251.394998362
 30
0.0
 40
2.8
100
AcDbArc
 50
90.0
 51
270.0
  0
ARC
  5
513
330
1B
100
AcDbEntity
 67
     1
  8
02___PRT_ALL_AXES
  6
Continuous
 62
     3
100
AcDbCircle
 10
550.8281906031
 20
251.394998362
 30
0.0
 40
2.8
100
AcDbArc
 50
270.0
 51
90.0
  0
ARC
  5
514
330
1B
100
AcDbEntity
 67
     1
  8
02___PRT_ALL_AXES
  6
Continuous
 62
     3
100
AcDbCircle
 10
61.8281906031
 20
251.394998362
 30
0.0
 40
2.8
100
AcDbArc
 50
270.0
 51
90.0
  0
ARC
  5
515
330
1B
100
AcDbEntity
 67
     1
  8
02___PRT_ALL_AXES
  6
Continuous
 62
     3
100
AcDbCircle
 10
61.8281906031
 20
251.394998362
 30
0.0
 40
2.8
100
AcDbArc
 50
90.0
 51
270.0
  0
LINE
  5
516
330
1B
100
AcDbEntity
 67
     1
  8
7_ALL_FEATURES
  6
Continuous
 62
     3
100
AcDbLine
 10
51.8281906031
 20
232.394998362
 30
0.0
 11
51.8281906031
 21
232.9563330914
 31
0.0
  0
LINE
  5
517
330
1B
100
AcDbEntity
 67
     1
  8
7_ALL_FEATURES
  6
Continuous
 62
     3
100
AcDbLine
 10
51.8281906031
 20
232.9563330914
 30
0.0
 11
51.8281906031
 21
233.0037526274
 31
0.0
  0
LINE
  5
518
330
1B
100
AcDbEntity
 67
     1
  8
7_ALL_FEATURES
  6
Continuous
 62
     3
100
AcDbLine
 10
51.8281906031
 20
233.0037526274
 30
0.0
 11
51.8281906031
 21
233.4102450064
 31
0.0
  0
LINE
  5
519
330
1B
100
AcDbEntity
 67
     1
  8
7_ALL_FEATURES
  6
Continuous
 62
     3
100
AcDbLine
 10
51.8281906031
 20
233.4102450064
 30
0.0
 11
51.8281906031
 21
233.5161272335
 31
0.0
  0
LINE
  5
51A
330
1B
100
AcDbEntity
 67
     1
  8
7_ALL_FEATURES
  6
Continuous
 62
     3
100
AcDbLine
 10
560.8281906031
 20
232.394998362
 30
0.0
 11
560.8281906031
 21
232.8211554286
 31
0.0
  0
LINE
  5
51B
330
1B
100
AcDbEntity
 67
     1
  8
7_ALL_FEATURES
  6
Continuous
 62
     3
100
AcDbLine
 10
560.8281906031
 20
232.8211554286
 30
0.0
 11
560.8281906031
 21
232.9563330914
 31
0.0
  0
LINE
  5
51C
330
1B
100
AcDbEntity
 67
     1
  8
7_ALL_FEATURES
  6
Continuous
 62
     3
100
AcDbLine
 10
560.8281906031
 20
232.9563330914
 30
0.0
 11
560.8281906031
 21
233.0037526274
 31
0.0
  0
LINE
  5
51D
330
1B
100
AcDbEntity
 67
     1
  8
7_ALL_FEATURES
  6
Continuous
 62
     3
100
AcDbLine
 10
560.8281906031
 20
233.0037526274
 30
0.0
 11
560.8281906031
 21
233.4102450064
 31
0.0
  0
LINE
  5
51E
330
1B
100
AcDbEntity
 67
     1
  8
7_ALL_FEATURES
  6
Continuous
 62
     3
100
AcDbLine
 10
560.8281906031
 20
233.4102450064
 30
0.0
 11
560.8281906031
 21
233.5161272335
 31
0.0
  0
LINE
  5
51F
330
1B
100
AcDbEntity
 67
     1
  8
7_ALL_FEATURES
  6
Continuous
 62
     3
100
AcDbLine
 10
560.8281906031
 20
270.394998362
 30
0.0
 11
560.8281906031
 21
269.8336636326
 31
0.0
  0
LINE
  5
520
330
1B
100
AcDbEntity
 67
     1
  8
7_ALL_FEATURES
  6
Continuous
 62
     3
100
AcDbLine
 10
560.8281906031
 20
269.8336636326
 30
0.0
 11
560.8281906031
 21
269.7862440965
 31
0.0
  0
LINE
  5
521
330
1B
100
AcDbEntity
 67
     1
  8
7_ALL_FEATURES
  6
Continuous
 62
     3
100
AcDbLine
 10
560.8281906031
 20
269.7862440965
 30
0.0
 11
560.8281906031
 21
269.3797517175
 31
0.0
  0
LINE
  5
522
330
1B
100
AcDbEntity
 67
     1
  8
7_ALL_FEATURES
  6
Continuous
 62
     3
100
AcDbLine
 10
560.8281906031
 20
269.3797517175
 30
0.0
 11
560.8281906031
 21
269.2738694904
 31
0.0
  0
LINE
  5
523
330
1B
100
AcDbEntity
 67
     1
  8
7_ALL_FEATURES
  6
Continuous
 62
     3
100
AcDbLine
 10
51.8281906031
 20
270.394998362
 30
0.0
 11
51.8281906031
 21
269.9688412953
 31
0.0
  0
LINE
  5
524
330
1B
100
AcDbEntity
 67
     1
  8
7_ALL_FEATURES
  6
Continuous
 62
     3
100
AcDbLine
 10
51.8281906031
 20
269.9688412953
 30
0.0
 11
51.8281906031
 21
269.8336636326
 31
0.0
  0
LINE
  5
525
330
1B
100
AcDbEntity
 67
     1
  8
7_ALL_FEATURES
  6
Continuous
 62
     3
100
AcDbLine
 10
51.8281906031
 20
269.8336636326
 30
0.0
 11
51.8281906031
 21
269.7862440965
 31
0.0
  0
LINE
  5
526
330
1B
100
AcDbEntity
 67
     1
  8
7_ALL_FEATURES
  6
Continuous
 62
     3
100
AcDbLine
 10
51.8281906031
 20
269.7862440965
 30
0.0
 11
51.8281906031
 21
269.3797517175
 31
0.0
  0
LINE
  5
527
330
1B
100
AcDbEntity
 67
     1
  8
7_ALL_FEATURES
  6
Continuous
 62
     3
100
AcDbLine
 10
51.8281906031
 20
269.3797517175
 30
0.0
 11
51.8281906031
 21
269.2738694904
 31
0.0
  0
LINE
  5
528
330
1B
100
AcDbEntity
 67
     1
  8
7_ALL_FEATURES
  6
Continuous
 62
     9
100
AcDbLine
 10
560.8281906031
 20
233.5161272335
 30
0.0
 11
51.8281906031
 21
233.5161272335
 31
0.0
  0
LINE
  5
529
330
1B
100
AcDbEntity
 67
     1
  8
7_ALL_FEATURES
  6
Continuous
 62
     9
100
AcDbLine
 10
51.8281906031
 20
269.2738694904
 30
0.0
 11
560.8281906031
 21
269.2738694904
 31
0.0
  0
LINE
  5
52A
330
1B
100
AcDbEntity
 67
     1
  8
7_ALL_FEATURES
  6
Continuous
 62
     3
100
AcDbLine
 10
561.5781906031
 20
270.394998362
 30
0.0
 11
51.0781906031
 21
270.394998362
 31
0.0
  0
LINE
  5
52B
330
1B
100
AcDbEntity
 67
     1
  8
7_ALL_FEATURES
  6
Continuous
 62
     3
100
AcDbLine
 10
561.5781906031
 20
232.394998362
 30
0.0
 11
51.0781906031
 21
232.394998362
 31
0.0
  0
LINE
  5
52C
330
1B
100
AcDbEntity
 67
     1
  8
7_ALL_FEATURES
  6
Continuous
 62
     9
100
AcDbLine
 10
51.0781906031
 20
269.194998362
 30
0.0
 11
51.8281906031
 21
269.194998362
 31
0.0
  0
LINE
  5
52D
330
1B
100
AcDbEntity
 67
     1
  8
7_ALL_FEATURES
  6
Continuous
 62
     9
100
AcDbLine
 10
560.8281906031
 20
269.194998362
 30
0.0
 11
561.5781906031
 21
269.194998362
 31
0.0
  0
LINE
  5
52E
330
1B
100
AcDbEntity
 67
     1
  8
7_ALL_FEATURES
  6
Continuous
 62
     9
100
AcDbLine
 10
51.0781906031
 20
233.594998362
 30
0.0
 11
51.8281906031
 21
233.594998362
 31
0.0
  0
LINE
  5
52F
330
1B
100
AcDbEntity
 67
     1
  8
7_ALL_FEATURES
  6
Continuous
 62
     9
100
AcDbLine
 10
560.8281906031
 20
233.594998362
 30
0.0
 11
561.5781906031
 21
233.594998362
 31
0.0
  0
LINE
  5
530
330
1B
100
AcDbEntity
 67
     1
  8
3_ALL_AXES
  6
Continuous
 62
     7
100
AcDbLine
 10
724.3963840794
 20
424.32127299
 30
0.0
 11
724.3963840794
 21
425.0271431605
 31
0.0
  0
ARC
  5
531
330
1B
100
AcDbEntity
 67
     1
  8
3_ALL_AXES
  6
Continuous
 62
     7
100
AcDbCircle
 10
721.4963840794
 20
431.7771431605
 30
0.0
 40
8.0
100
AcDbArc
 50
270.0
 51
291.2538091854
  0
LINE
  5
532
330
1B
100
AcDbEntity
 67
     1
  8
3_ALL_AXES
  6
Continuous
 62
     7
100
AcDbLine
 10
718.5963840794
 20
424.32127299
 30
0.0
 11
718.5963840794
 21
425.0271431605
 31
0.0
  0
ARC
  5
533
330
1B
100
AcDbEntity
 67
     1
  8
3_ALL_AXES
  6
Continuous
 62
     7
100
AcDbCircle
 10
721.4963840794
 20
431.7771431605
 30
0.0
 40
8.0
100
AcDbArc
 50
248.7461908146
 51
270.0
  0
LINE
  5
534
330
1B
100
AcDbEntity
 67
     1
  8
3_ALL_AXES
  6
Continuous
 62
     7
100
AcDbLine
 10
721.4963840794
 20
424.32127299
 30
0.0
 11
724.3963840794
 21
424.32127299
 31
0.0
  0
LINE
  5
535
330
1B
100
AcDbEntity
 67
     1
  8
3_ALL_AXES
  6
Continuous
 62
     7
100
AcDbLine
 10
721.4963840794
 20
424.32127299
 30
0.0
 11
718.5963840794
 21
424.32127299
 31
0.0
  0
LINE
  5
536
330
1B
100
AcDbEntity
 67
     1
  8
3_ALL_AXES
  6
Continuous
 62
     7
100
AcDbLine
 10
704.3963840794
 20
424.32127299
 30
0.0
 11
704.3963840794
 21
425.0271431605
 31
0.0
  0
ARC
  5
537
330
1B
100
AcDbEntity
 67
     1
  8
3_ALL_AXES
  6
Continuous
 62
     7
100
AcDbCircle
 10
701.4963840794
 20
431.7771431605
 30
0.0
 40
8.0
100
AcDbArc
 50
270.0
 51
291.2538091854
  0
LINE
  5
538
330
1B
100
AcDbEntity
 67
     1
  8
3_ALL_AXES
  6
Continuous
 62
     7
100
AcDbLine
 10
698.5963840794
 20
424.32127299
 30
0.0
 11
698.5963840794
 21
425.0271431605
 31
0.0
  0
ARC
  5
539
330
1B
100
AcDbEntity
 67
     1
  8
3_ALL_AXES
  6
Continuous
 62
     7
100
AcDbCircle
 10
701.4963840794
 20
431.7771431605
 30
0.0
 40
8.0
100
AcDbArc
 50
248.7461908146
 51
270.0
  0
LINE
  5
53A
330
1B
100
AcDbEntity
 67
     1
  8
3_ALL_AXES
  6
Continuous
 62
     7
100
AcDbLine
 10
701.4963840794
 20
424.32127299
 30
0.0
 11
704.3963840794
 21
424.32127299
 31
0.0
  0
LINE
  5
53B
330
1B
100
AcDbEntity
 67
     1
  8
3_ALL_AXES
  6
Continuous
 62
     7
100
AcDbLine
 10
701.4963840794
 20
424.32127299
 30
0.0
 11
698.5963840794
 21
424.32127299
 31
0.0
  0
ARC
  5
53C
330
1B
100
AcDbEntity
 67
     1
  8
3_ALL_AXES
  6
Continuous
 62
     7
100
AcDbCircle
 10
698.0463840794
 20
469.0271431605
 30
0.0
 40
8.0
100
AcDbArc
 50
183.5833666136
 51
201.2538091854
  0
LINE
  5
53D
330
1B
100
AcDbEntity
 67
     1
  8
3_ALL_AXES
  6
Continuous
 62
     7
100
AcDbLine
 10
690.5905139088
 20
466.1271431605
 30
0.0
 11
691.2963840794
 21
466.1271431605
 31
0.0
  0
LINE
  5
53E
330
1B
100
AcDbEntity
 67
     1
  8
3_ALL_AXES
  6
Continuous
 62
     7
100
AcDbLine
 10
690.5905139088
 20
466.1271431605
 30
0.0
 11
690.5905139088
 21
468.5271431605
 31
0.0
  0
LINE
  5
53F
330
1B
100
AcDbEntity
 67
     1
  8
3_ALL_AXES
  6
Continuous
 62
     7
100
AcDbLine
 10
732.4022542499
 20
466.1271431605
 30
0.0
 11
731.6963840794
 21
466.1271431605
 31
0.0
  0
ARC
  5
540
330
1B
100
AcDbEntity
 67
     1
  8
3_ALL_AXES
  6
Continuous
 62
     7
100
AcDbCircle
 10
724.9463840794
 20
469.0271431605
 30
0.0
 40
8.0
100
AcDbArc
 50
338.7461908146
 51
356.4166333864
  0
LINE
  5
541
330
1B
100
AcDbEntity
 67
     1
  8
3_ALL_AXES
  6
Continuous
 62
     7
100
AcDbLine
 10
732.4022542499
 20
468.5271431605
 30
0.0
 11
732.4022542499
 21
466.1271431605
 31
0.0
  0
ARC
  5
542
330
1B
100
AcDbEntity
 67
     1
  8
3_ALL_AXES
  6
Continuous
 62
     7
100
AcDbCircle
 10
731.8737439877
 20
437.6695859579
 30
0.0
 40
4.1
100
AcDbArc
 50
26.3930257743
 51
63.13669686989999
  0
LINE
  5
543
330
1B
100
AcDbEntity
 67
     1
  8
3_ALL_AXES
  6
Continuous
 62
     7
100
AcDbLine
 10
735.5463840794
 20
439.4921088151
 30
0.0
 11
735.5463840794
 21
437.5271431605
 31
0.0
  0
LINE
  5
544
330
1B
100
AcDbEntity
 67
     1
  8
3_ALL_AXES
  6
Continuous
 62
     7
100
AcDbLine
 10
733.3463840794
 20
441.3271431605
 30
0.0
 11
733.7263840794
 21
441.3271431605
 31
0.0
  0
ARC
  5
545
330
1B
100
AcDbEntity
 67
     1
  8
3_ALL_AXES
  6
Continuous
 62
     7
100
AcDbCircle
 10
731.8737439877
 20
437.3847003632
 30
0.0
 40
4.1
100
AcDbArc
 50
296.8633031301
 51
333.6069742257001
  0
LINE
  5
546
330
1B
100
AcDbEntity
 67
     1
  8
3_ALL_AXES
  6
Continuous
 62
     7
100
AcDbLine
 10
735.5463840794
 20
435.562177506
 30
0.0
 11
735.5463840794
 21
437.5271431605
 31
0.0
  0
LINE
  5
547
330
1B
100
AcDbEntity
 67
     1
  8
3_ALL_AXES
  6
Continuous
 62
     7
100
AcDbLine
 10
733.3463840794
 20
433.7271431605
 30
0.0
 11
733.7263840794
 21
433.7271431605
 31
0.0
  0
LINE
  5
548
330
1B
100
AcDbEntity
 67
     1
  8
3_ALL_AXES
  6
Continuous
 62
     7
100
AcDbLine
 10
733.7263840794
 20
433.7271431605
 30
0.0
 11
733.7263840794
 21
437.5271431605
 31
0.0
  0
LINE
  5
549
330
1B
100
AcDbEntity
 67
     1
  8
3_ALL_AXES
  6
Continuous
 62
     7
100
AcDbLine
 10
733.7263840794
 20
441.3271431605
 30
0.0
 11
733.7263840794
 21
437.5271431605
 31
0.0
  0
ARC
  5
54A
330
1B
100
AcDbEntity
 67
     1
  8
3_ALL_AXES
  6
Continuous
 62
     7
100
AcDbCircle
 10
731.8737439877
 20
472.6695859579
 30
0.0
 40
4.1
100
AcDbArc
 50
26.3930257743
 51
63.13669686989999
  0
LINE
  5
54B
330
1B
100
AcDbEntity
 67
     1
  8
3_ALL_AXES
  6
Continuous
 62
     7
100
AcDbLine
 10
735.5463840794
 20
474.4921088151
 30
0.0
 11
735.5463840794
 21
472.5271431605
 31
0.0
  0
LINE
  5
54C
330
1B
100
AcDbEntity
 67
     1
  8
3_ALL_AXES
  6
Continuous
 62
     7
100
AcDbLine
 10
733.3463840794
 20
476.3271431605
 30
0.0
 11
733.7263840794
 21
476.3271431605
 31
0.0
  0
ARC
  5
54D
330
1B
100
AcDbEntity
 67
     1
  8
3_ALL_AXES
  6
Continuous
 62
     7
100
AcDbCircle
 10
731.8737439877
 20
472.3847003632
 30
0.0
 40
4.1
100
AcDbArc
 50
296.8633031301
 51
333.6069742257001
  0
LINE
  5
54E
330
1B
100
AcDbEntity
 67
     1
  8
3_ALL_AXES
  6
Continuous
 62
     7
100
AcDbLine
 10
735.5463840794
 20
470.562177506
 30
0.0
 11
735.5463840794
 21
472.5271431605
 31
0.0
  0
LINE
  5
54F
330
1B
100
AcDbEntity
 67
     1
  8
3_ALL_AXES
  6
Continuous
 62
     7
100
AcDbLine
 10
733.3463840794
 20
468.7271431605
 30
0.0
 11
733.7263840794
 21
468.7271431605
 31
0.0
  0
LINE
  5
550
330
1B
100
AcDbEntity
 67
     1
  8
3_ALL_AXES
  6
Continuous
 62
     7
100
AcDbLine
 10
733.7263840794
 20
468.7271431605
 30
0.0
 11
733.7263840794
 21
472.5271431605
 31
0.0
  0
LINE
  5
551
330
1B
100
AcDbEntity
 67
     1
  8
3_ALL_AXES
  6
Continuous
 62
     7
100
AcDbLine
 10
733.7263840794
 20
476.3271431605
 30
0.0
 11
733.7263840794
 21
472.5271431605
 31
0.0
  0
LINE
  5
552
330
1B
100
AcDbEntity
 67
     1
  8
3_ALL_AXES
  6
Continuous
 62
     7
100
AcDbLine
 10
687.4463840794
 20
472.5271431605
 30
0.0
 11
687.4463840794
 21
474.4921088151
 31
0.0
  0
LINE
  5
553
330
1B
100
AcDbEntity
 67
     1
  8
3_ALL_AXES
  6
Continuous
 62
     7
100
AcDbLine
 10
687.4463840794
 20
472.5271431605
 30
0.0
 11
687.4463840794
 21
470.562177506
 31
0.0
  0
ARC
  5
554
330
1B
100
AcDbEntity
 67
     1
  8
3_ALL_AXES
  6
Continuous
 62
     7
100
AcDbCircle
 10
691.1190241711
 20
472.6695859579
 30
0.0
 40
4.1
100
AcDbArc
 50
116.8633031301
 51
153.6069742257
  0
LINE
  5
555
330
1B
100
AcDbEntity
 67
     1
  8
3_ALL_AXES
  6
Continuous
 62
     7
100
AcDbLine
 10
689.6463840794
 20
476.3271431605
 30
0.0
 11
689.2663840794
 21
476.3271431605
 31
0.0
  0
ARC
  5
556
330
1B
100
AcDbEntity
 67
     1
  8
3_ALL_AXES
  6
Continuous
 62
     7
100
AcDbCircle
 10
691.1190241711
 20
472.3847003632
 30
0.0
 40
4.1
100
AcDbArc
 50
206.3930257743
 51
243.1366968699
  0
LINE
  5
557
330
1B
100
AcDbEntity
 67
     1
  8
3_ALL_AXES
  6
Continuous
 62
     7
100
AcDbLine
 10
689.6463840794
 20
468.7271431605
 30
0.0
 11
689.2663840794
 21
468.7271431605
 31
0.0
  0
LINE
  5
558
330
1B
100
AcDbEntity
 67
     1
  8
3_ALL_AXES
  6
Continuous
 62
     7
100
AcDbLine
 10
689.2663840794
 20
472.5271431605
 30
0.0
 11
689.2663840794
 21
476.3271431605
 31
0.0
  0
LINE
  5
559
330
1B
100
AcDbEntity
 67
     1
  8
3_ALL_AXES
  6
Continuous
 62
     7
100
AcDbLine
 10
689.2663840794
 20
472.5271431605
 30
0.0
 11
689.2663840794
 21
468.7271431605
 31
0.0
  0
LINE
  5
55A
330
1B
100
AcDbEntity
 67
     1
  8
3_ALL_AXES
  6
Continuous
 62
     7
100
AcDbLine
 10
687.4463840794
 20
437.5271431605
 30
0.0
 11
687.4463840794
 21
439.4921088151
 31
0.0
  0
LINE
  5
55B
330
1B
100
AcDbEntity
 67
     1
  8
3_ALL_AXES
  6
Continuous
 62
     7
100
AcDbLine
 10
687.4463840794
 20
437.5271431605
 30
0.0
 11
687.4463840794
 21
435.562177506
 31
0.0
  0
ARC
  5
55C
330
1B
100
AcDbEntity
 67
     1
  8
3_ALL_AXES
  6
Continuous
 62
     7
100
AcDbCircle
 10
691.1190241711
 20
437.6695859579
 30
0.0
 40
4.1
100
AcDbArc
 50
116.8633031301
 51
153.6069742257
  0
LINE
  5
55D
330
1B
100
AcDbEntity
 67
     1
  8
3_ALL_AXES
  6
Continuous
 62
     7
100
AcDbLine
 10
689.6463840794
 20
441.3271431605
 30
0.0
 11
689.2663840794
 21
441.3271431605
 31
0.0
  0
ARC
  5
55E
330
1B
100
AcDbEntity
 67
     1
  8
3_ALL_AXES
  6
Continuous
 62
     7
100
AcDbCircle
 10
691.1190241711
 20
437.3847003632
 30
0.0
 40
4.1
100
AcDbArc
 50
206.3930257743
 51
243.1366968699
  0
LINE
  5
55F
330
1B
100
AcDbEntity
 67
     1
  8
3_ALL_AXES
  6
Continuous
 62
     7
100
AcDbLine
 10
689.6463840794
 20
433.7271431605
 30
0.0
 11
689.2663840794
 21
433.7271431605
 31
0.0
  0
LINE
  5
560
330
1B
100
AcDbEntity
 67
     1
  8
3_ALL_AXES
  6
Continuous
 62
     7
100
AcDbLine
 10
689.2663840794
 20
437.5271431605
 30
0.0
 11
689.2663840794
 21
441.3271431605
 31
0.0
  0
LINE
  5
561
330
1B
100
AcDbEntity
 67
     1
  8
3_ALL_AXES
  6
Continuous
 62
     7
100
AcDbLine
 10
689.2663840794
 20
437.5271431605
 30
0.0
 11
689.2663840794
 21
433.7271431605
 31
0.0
  0
LINE
  5
562
330
1B
100
AcDbEntity
 67
     1
  8
7_ALL_FEATURES
  6
Continuous
 62
     7
100
AcDbLine
 10
666.9963840794
 20
425.0271431605
 30
0.0
 11
666.9963840794
 21
426.2271431605
 31
0.0
  0
LINE
  5
563
330
1B
100
AcDbEntity
 67
     1
  8
7_ALL_FEATURES
  6
Continuous
 62
     7
100
AcDbLine
 10
755.9963840794
 20
425.0271431605
 30
0.0
 11
755.9963840794
 21
426.2271431605
 31
0.0
  0
LINE
  5
564
330
1B
100
AcDbEntity
 67
     1
  8
7_ALL_FEATURES
  6
Continuous
 62
     7
100
AcDbLine
 10
666.9963840794
 20
425.0271431605
 30
0.0
 11
666.9963840794
 21
426.2271431605
 31
0.0
  0
LINE
  5
565
330
1B
100
AcDbEntity
 67
     1
  8
7_ALL_FEATURES
  6
Continuous
 62
     7
100
AcDbLine
 10
755.9963840794
 20
425.0271431605
 30
0.0
 11
749.7463840794
 21
425.0271431605
 31
0.0
  0
LINE
  5
566
330
1B
100
AcDbEntity
 67
     1
  8
7_ALL_FEATURES
  6
Continuous
 62
     7
100
AcDbLine
 10
749.7463840794
 20
425.0271431605
 30
0.0
 11
746.4963840794
 21
425.0271431605
 31
0.0
  0
LINE
  5
567
330
1B
100
AcDbEntity
 67
     1
  8
7_ALL_FEATURES
  6
Continuous
 62
     7
100
AcDbLine
 10
746.4963840794
 20
425.0271431605
 30
0.0
 11
745.9963840794
 21
425.0271431605
 31
0.0
  0
LINE
  5
568
330
1B
100
AcDbEntity
 67
     1
  8
7_ALL_FEATURES
  6
Continuous
 62
     7
100
AcDbLine
 10
676.9963840794
 20
425.0271431605
 30
0.0
 11
691.7963840794
 21
425.0271431605
 31
0.0
  0
LINE
  5
569
330
1B
100
AcDbEntity
 67
     1
  8
7_ALL_FEATURES
  6
Continuous
 62
     7
100
AcDbLine
 10
709.1511761995
 20
425.0271431605
 30
0.0
 11
713.8415919593
 21
425.0271431605
 31
0.0
  0
LINE
  5
56A
330
1B
100
AcDbEntity
 67
     1
  8
7_ALL_FEATURES
  6
Continuous
 62
     7
100
AcDbLine
 10
731.1963840794
 20
425.0271431605
 30
0.0
 11
745.9963840794
 21
425.0271431605
 31
0.0
  0
LINE
  5
56B
330
1B
100
AcDbEntity
 67
     1
  8
7_ALL_FEATURES
  6
Continuous
 62
     7
100
AcDbLine
 10
676.9963840794
 20
425.0271431605
 30
0.0
 11
676.4963840794
 21
425.0271431605
 31
0.0
  0
LINE
  5
56C
330
1B
100
AcDbEntity
 67
     1
  8
7_ALL_FEATURES
  6
Continuous
 62
     7
100
AcDbLine
 10
676.4963840794
 20
425.0271431605
 30
0.0
 11
673.2463840794
 21
425.0271431605
 31
0.0
  0
LINE
  5
56D
330
1B
100
AcDbEntity
 67
     1
  8
7_ALL_FEATURES
  6
Continuous
 62
     7
100
AcDbLine
 10
673.2463840794
 20
425.0271431605
 30
0.0
 11
666.9963840794
 21
425.0271431605
 31
0.0
  0
LINE
  5
56E
330
1B
100
AcDbEntity
 67
     1
  8
7_ALL_FEATURES
  6
Continuous
 62
     9
100
AcDbLine
 10
745.9963840794
 20
425.0271431605
 30
0.0
 11
745.9963840794
 21
426.2271431605
 31
0.0
  0
LINE
  5
56F
330
1B
100
AcDbEntity
 67
     1
  8
7_ALL_FEATURES
  6
Continuous
 62
     9
100
AcDbLine
 10
676.9963840794
 20
425.0271431605
 30
0.0
 11
676.9963840794
 21
426.2271431605
 31
0.0
  0
LINE
  5
570
330
1B
100
AcDbEntity
 67
     1
  8
7_ALL_FEATURES
  6
Continuous
 62
     7
100
AcDbLine
 10
691.6463840794
 20
432.5271431605
 30
0.0
 11
691.2963840794
 21
432.5271431605
 31
0.0
  0
LINE
  5
571
330
1B
100
AcDbEntity
 67
     1
  8
7_ALL_FEATURES
  6
Continuous
 62
     7
100
AcDbLine
 10
731.6963840794
 20
514.0271431605
 30
0.0
 11
731.6963840794
 21
513.5271431605
 31
0.0
  0
LINE
  5
572
330
1B
100
AcDbEntity
 67
     1
  8
7_ALL_FEATURES
  6
Continuous
 62
     7
100
AcDbLine
 10
731.6963840794
 20
477.7271431605
 30
0.0
 11
731.6963840794
 21
477.5271431605
 31
0.0
  0
LINE
  5
573
330
1B
100
AcDbEntity
 67
     1
  8
7_ALL_FEATURES
  6
Continuous
 62
     7
100
AcDbLine
 10
731.6963840794
 20
477.5271431605
 30
0.0
 11
731.6963840794
 21
476.5271431605
 31
0.0
  0
LINE
  5
574
330
1B
100
AcDbEntity
 67
     1
  8
7_ALL_FEATURES
  6
Continuous
 62
     7
100
AcDbLine
 10
731.6963840794
 20
468.5271431605
 30
0.0
 11
731.6963840794
 21
467.5271431605
 31
0.0
  0
LINE
  5
575
330
1B
100
AcDbEntity
 67
     1
  8
7_ALL_FEATURES
  6
Continuous
 62
     7
100
AcDbLine
 10
691.6463840794
 20
442.5271431605
 30
0.0
 11
691.2963840794
 21
442.5271431605
 31
0.0
  0
LINE
  5
576
330
1B
100
AcDbEntity
 67
     1
  8
7_ALL_FEATURES
  6
Continuous
 62
     7
100
AcDbLine
 10
731.6963840794
 20
467.5271431605
 30
0.0
 11
731.6963840794
 21
467.3271431605
 31
0.0
  0
LINE
  5
577
330
1B
100
AcDbEntity
 67
     1
  8
7_ALL_FEATURES
  6
Continuous
 62
     7
100
AcDbLine
 10
731.6963840794
 20
442.7271431605
 30
0.0
 11
731.6963840794
 21
442.5271431605
 31
0.0
  0
LINE
  5
578
330
1B
100
AcDbEntity
 67
     1
  8
7_ALL_FEATURES
  6
Continuous
 62
     7
100
AcDbLine
 10
731.6963840794
 20
432.5271431605
 30
0.0
 11
731.6963840794
 21
433.5271431605
 31
0.0
  0
LINE
  5
579
330
1B
100
AcDbEntity
 67
     1
  8
7_ALL_FEATURES
  6
Continuous
 62
     7
100
AcDbLine
 10
731.6963840794
 20
441.5271431605
 30
0.0
 11
731.6963840794
 21
442.5271431605
 31
0.0
  0
LINE
  5
57A
330
1B
100
AcDbEntity
 67
     1
  8
7_ALL_FEATURES
  6
Continuous
 62
     7
100
AcDbLine
 10
691.7963840794
 20
514.0271431605
 30
0.0
 11
691.2963840794
 21
514.0271431605
 31
0.0
  0
LINE
  5
57B
330
1B
100
AcDbEntity
 67
     1
  8
7_ALL_FEATURES
  6
Continuous
 62
     7
100
AcDbLine
 10
731.6963840794
 20
432.5271431605
 30
0.0
 11
731.6963840794
 21
432.3271431605
 31
0.0
  0
LINE
  5
57C
330
1B
100
AcDbEntity
 67
     1
  8
7_ALL_FEATURES
  6
Continuous
 62
     7
100
AcDbLine
 10
691.2963840794
 20
432.5271431605
 30
0.0
 11
691.2963840794
 21
432.3271431605
 31
0.0
  0
LINE
  5
57D
330
1B
100
AcDbEntity
 67
     1
  8
7_ALL_FEATURES
  6
Continuous
 62
     7
100
AcDbLine
 10
731.6963840794
 20
514.0271431605
 30
0.0
 11
731.1963840794
 21
514.0271431605
 31
0.0
  0
LINE
  5
57E
330
1B
100
AcDbEntity
 67
     1
  8
7_ALL_FEATURES
  6
Continuous
 62
     7
100
AcDbLine
 10
731.3463840794
 20
477.5271431605
 30
0.0
 11
731.6963840794
 21
477.5271431605
 31
0.0
  0
LINE
  5
57F
330
1B
100
AcDbEntity
 67
     1
  8
7_ALL_FEATURES
  6
Continuous
 62
     7
100
AcDbLine
 10
691.2963840794
 20
442.5271431605
 30
0.0
 11
691.2963840794
 21
441.5271431605
 31
0.0
  0
LINE
  5
580
330
1B
100
AcDbEntity
 67
     1
  8
7_ALL_FEATURES
  6
Continuous
 62
     7
100
AcDbLine
 10
691.2963840794
 20
433.5271431605
 30
0.0
 11
691.2963840794
 21
432.5271431605
 31
0.0
  0
LINE
  5
581
330
1B
100
AcDbEntity
 67
     1
  8
7_ALL_FEATURES
  6
Continuous
 62
     7
100
AcDbLine
 10
691.2963840794
 20
442.7271431605
 30
0.0
 11
691.2963840794
 21
442.5271431605
 31
0.0
  0
LINE
  5
582
330
1B
100
AcDbEntity
 67
     1
  8
7_ALL_FEATURES
  6
Continuous
 62
     7
100
AcDbLine
 10
731.3463840794
 20
467.5271431605
 30
0.0
 11
731.6963840794
 21
467.5271431605
 31
0.0
  0
LINE
  5
583
330
1B
100
AcDbEntity
 67
     1
  8
7_ALL_FEATURES
  6
Continuous
 62
     7
100
AcDbLine
 10
731.3463840794
 20
442.5271431605
 30
0.0
 11
731.6963840794
 21
442.5271431605
 31
0.0
  0
LINE
  5
584
330
1B
100
AcDbEntity
 67
     1
  8
7_ALL_FEATURES
  6
Continuous
 62
     7
100
AcDbLine
 10
691.2963840794
 20
477.5271431605
 30
0.0
 11
691.2963840794
 21
476.5271431605
 31
0.0
  0
LINE
  5
585
330
1B
100
AcDbEntity
 67
     1
  8
7_ALL_FEATURES
  6
Continuous
 62
     7
100
AcDbLine
 10
691.2963840794
 20
468.5271431605
 30
0.0
 11
691.2963840794
 21
467.5271431605
 31
0.0
  0
LINE
  5
586
330
1B
100
AcDbEntity
 67
     1
  8
7_ALL_FEATURES
  6
Continuous
 62
     7
100
AcDbLine
 10
691.2963840794
 20
514.0271431605
 30
0.0
 11
691.2963840794
 21
513.5271431605
 31
0.0
  0
LINE
  5
587
330
1B
100
AcDbEntity
 67
     1
  8
7_ALL_FEATURES
  6
Continuous
 62
     7
100
AcDbLine
 10
731.3463840794
 20
432.5271431605
 30
0.0
 11
731.6963840794
 21
432.5271431605
 31
0.0
  0
LINE
  5
588
330
1B
100
AcDbEntity
 67
     1
  8
7_ALL_FEATURES
  6
Continuous
 62
     7
100
AcDbLine
 10
689.6463840794
 20
476.5271431605
 30
0.0
 11
690.6463840794
 21
476.5271431605
 31
0.0
  0
LINE
  5
589
330
1B
100
AcDbEntity
 67
     1
  8
7_ALL_FEATURES
  6
Continuous
 62
     7
100
AcDbLine
 10
690.6463840794
 20
476.5271431605
 30
0.0
 11
691.1648050221
 21
476.5271431605
 31
0.0
  0
LINE
  5
58A
330
1B
100
AcDbEntity
 67
     1
  8
7_ALL_FEATURES
  6
Continuous
 62
     7
100
AcDbLine
 10
689.6463840794
 20
468.5271431605
 30
0.0
 11
690.636245317
 21
468.5271431605
 31
0.0
  0
LINE
  5
58B
330
1B
100
AcDbEntity
 67
     1
  8
7_ALL_FEATURES
  6
Continuous
 62
     7
100
AcDbLine
 10
690.636245317
 20
468.5271431605
 30
0.0
 11
690.6463840794
 21
468.5271431605
 31
0.0
  0
LINE
  5
58C
330
1B
100
AcDbEntity
 67
     1
  8
7_ALL_FEATURES
  6
Continuous
 62
     7
100
AcDbLine
 10
690.6463840794
 20
468.5271431605
 30
0.0
 11
691.1648050221
 21
468.5271431605
 31
0.0
  0
LINE
  5
58D
330
1B
100
AcDbEntity
 67
     1
  8
7_ALL_FEATURES
  6
Continuous
 62
     7
100
AcDbLine
 10
689.6463840794
 20
468.5271431605
 30
0.0
 11
689.6463840794
 21
476.5271431605
 31
0.0
  0
LINE
  5
58E
330
1B
100
AcDbEntity
 67
     1
  8
7_ALL_FEATURES
  6
Continuous
 62
     7
100
AcDbLine
 10
733.3463840794
 20
468.5271431605
 30
0.0
 11
732.3463840794
 21
468.5271431605
 31
0.0
  0
LINE
  5
58F
330
1B
100
AcDbEntity
 67
     1
  8
7_ALL_FEATURES
  6
Continuous
 62
     7
100
AcDbLine
 10
732.3463840794
 20
468.5271431605
 30
0.0
 11
731.8279631367
 21
468.5271431605
 31
0.0
  0
LINE
  5
590
330
1B
100
AcDbEntity
 67
     1
  8
7_ALL_FEATURES
  6
Continuous
 62
     7
100
AcDbLine
 10
733.3463840794
 20
476.5271431605
 30
0.0
 11
732.3565228417
 21
476.5271431605
 31
0.0
  0
LINE
  5
591
330
1B
100
AcDbEntity
 67
     1
  8
7_ALL_FEATURES
  6
Continuous
 62
     7
100
AcDbLine
 10
732.3565228417
 20
476.5271431605
 30
0.0
 11
732.3463840794
 21
476.5271431605
 31
0.0
  0
LINE
  5
592
330
1B
100
AcDbEntity
 67
     1
  8
7_ALL_FEATURES
  6
Continuous
 62
     7
100
AcDbLine
 10
732.3463840794
 20
476.5271431605
 30
0.0
 11
731.8279631367
 21
476.5271431605
 31
0.0
  0
LINE
  5
593
330
1B
100
AcDbEntity
 67
     1
  8
7_ALL_FEATURES
  6
Continuous
 62
     7
100
AcDbLine
 10
733.3463840794
 20
476.5271431605
 30
0.0
 11
733.3463840794
 21
468.5271431605
 31
0.0
  0
LINE
  5
594
330
1B
100
AcDbEntity
 67
     1
  8
7_ALL_FEATURES
  6
Continuous
 62
     7
100
AcDbLine
 10
733.3463840794
 20
433.5271431605
 30
0.0
 11
732.3463840794
 21
433.5271431605
 31
0.0
  0
LINE
  5
595
330
1B
100
AcDbEntity
 67
     1
  8
7_ALL_FEATURES
  6
Continuous
 62
     7
100
AcDbLine
 10
732.3463840794
 20
433.5271431605
 30
0.0
 11
731.8279631367
 21
433.5271431605
 31
0.0
  0
LINE
  5
596
330
1B
100
AcDbEntity
 67
     1
  8
7_ALL_FEATURES
  6
Continuous
 62
     7
100
AcDbLine
 10
733.3463840794
 20
441.5271431605
 30
0.0
 11
732.3565201522
 21
441.5271431605
 31
0.0
  0
LINE
  5
597
330
1B
100
AcDbEntity
 67
     1
  8
7_ALL_FEATURES
  6
Continuous
 62
     7
100
AcDbLine
 10
732.3565201522
 20
441.5271431605
 30
0.0
 11
732.3463840794
 21
441.5271431605
 31
0.0
  0
LINE
  5
598
330
1B
100
AcDbEntity
 67
     1
  8
7_ALL_FEATURES
  6
Continuous
 62
     7
100
AcDbLine
 10
732.3463840794
 20
441.5271431605
 30
0.0
 11
731.8279631367
 21
441.5271431605
 31
0.0
  0
LINE
  5
599
330
1B
100
AcDbEntity
 67
     1
  8
7_ALL_FEATURES
  6
Continuous
 62
     7
100
AcDbLine
 10
733.3463840794
 20
441.5271431605
 30
0.0
 11
733.3463840794
 21
433.5271431605
 31
0.0
  0
ARC
  5
59A
330
1B
100
AcDbEntity
 67
     1
  8
7_ALL_FEATURES
  6
Continuous
 62
     7
100
AcDbCircle
 10
711.4963840794
 20
424.0271431605
 30
0.0
 40
2.0
100
AcDbArc
 50
43.81306146040001
 51
136.1869385396
  0
ARC
  5
59B
330
1B
100
AcDbEntity
 67
     1
  8
7_ALL_FEATURES
  6
Continuous
 62
     7
100
AcDbCircle
 10
713.8415919593
 20
426.2771431605
 30
0.0
 40
1.25
100
AcDbArc
 50
223.8130614604
 51
270.0
  0
LINE
  5
59C
330
1B
100
AcDbEntity
 67
     1
  8
7_ALL_FEATURES
  6
Continuous
 62
     7
100
AcDbLine
 10
731.1963840794
 20
425.0271431605
 30
0.0
 11
713.8415919593
 21
425.0271431605
 31
0.0
  0
ARC
  5
59D
330
1B
100
AcDbEntity
 67
     1
  8
7_ALL_FEATURES
  6
Continuous
 62
     7
100
AcDbCircle
 10
731.1963840794
 20
425.5271431605
 30
0.0
 40
0.5
100
AcDbArc
 50
270.0
 51
360.0
  0
LINE
  5
59E
330
1B
100
AcDbEntity
 67
     1
  8
7_ALL_FEATURES
  6
Continuous
 62
     7
100
AcDbLine
 10
731.6963840794
 20
432.3271431605
 30
0.0
 11
731.6963840794
 21
425.5271431605
 31
0.0
  0
LINE
  5
59F
330
1B
100
AcDbEntity
 67
     1
  8
7_ALL_FEATURES
  6
Continuous
 62
     7
100
AcDbLine
 10
731.6963840794
 20
432.3271431605
 30
0.0
 11
731.3463840794
 21
432.3271431605
 31
0.0
  0
LINE
  5
5A0
330
1B
100
AcDbEntity
 67
     1
  8
7_ALL_FEATURES
  6
Continuous
 62
     7
100
AcDbLine
 10
731.3463840794
 20
433.5271431605
 30
0.0
 11
731.3463840794
 21
432.3271431605
 31
0.0
  0
LINE
  5
5A1
330
1B
100
AcDbEntity
 67
     1
  8
7_ALL_FEATURES
  6
Continuous
 62
     7
100
AcDbLine
 10
731.3463840794
 20
441.5271431605
 30
0.0
 11
731.3463840794
 21
442.7271431605
 31
0.0
  0
LINE
  5
5A2
330
1B
100
AcDbEntity
 67
     1
  8
7_ALL_FEATURES
  6
Continuous
 62
     7
100
AcDbLine
 10
731.6963840794
 20
442.7271431605
 30
0.0
 11
731.3463840794
 21
442.7271431605
 31
0.0
  0
LINE
  5
5A3
330
1B
100
AcDbEntity
 67
     1
  8
7_ALL_FEATURES
  6
Continuous
 62
     7
100
AcDbLine
 10
731.6963840794
 20
467.3271431605
 30
0.0
 11
731.6963840794
 21
442.7271431605
 31
0.0
  0
LINE
  5
5A4
330
1B
100
AcDbEntity
 67
     1
  8
7_ALL_FEATURES
  6
Continuous
 62
     7
100
AcDbLine
 10
731.6963840794
 20
467.3271431605
 30
0.0
 11
731.3463840794
 21
467.3271431605
 31
0.0
  0
LINE
  5
5A5
330
1B
100
AcDbEntity
 67
     1
  8
7_ALL_FEATURES
  6
Continuous
 62
     7
100
AcDbLine
 10
731.3463840794
 20
468.5271431605
 30
0.0
 11
731.3463840794
 21
467.3271431605
 31
0.0
  0
LINE
  5
5A6
330
1B
100
AcDbEntity
 67
     1
  8
7_ALL_FEATURES
  6
Continuous
 62
     7
100
AcDbLine
 10
731.3463840794
 20
476.5271431605
 30
0.0
 11
731.3463840794
 21
477.7271431605
 31
0.0
  0
LINE
  5
5A7
330
1B
100
AcDbEntity
 67
     1
  8
7_ALL_FEATURES
  6
Continuous
 62
     7
100
AcDbLine
 10
731.6963840794
 20
477.7271431605
 30
0.0
 11
731.3463840794
 21
477.7271431605
 31
0.0
  0
LINE
  5
5A8
330
1B
100
AcDbEntity
 67
     1
  8
7_ALL_FEATURES
  6
Continuous
 62
     7
100
AcDbLine
 10
731.6963840794
 20
513.5271431605
 30
0.0
 11
731.6963840794
 21
477.7271431605
 31
0.0
  0
ARC
  5
5A9
330
1B
100
AcDbEntity
 67
     1
  8
7_ALL_FEATURES
  6
Continuous
 62
     7
100
AcDbCircle
 10
731.1963840794
 20
513.5271431605
 30
0.0
 40
0.5
100
AcDbArc
 50
0.0
 51
90.0
  0
LINE
  5
5AA
330
1B
100
AcDbEntity
 67
     1
  8
7_ALL_FEATURES
  6
Continuous
 62
     7
100
AcDbLine
 10
691.7963840794
 20
514.0271431605
 30
0.0
 11
731.1963840794
 21
514.0271431605
 31
0.0
  0
ARC
  5
5AB
330
1B
100
AcDbEntity
 67
     1
  8
7_ALL_FEATURES
  6
Continuous
 62
     7
100
AcDbCircle
 10
691.7963840794
 20
513.5271431605
 30
0.0
 40
0.5
100
AcDbArc
 50
90.0
 51
180.0
  0
LINE
  5
5AC
330
1B
100
AcDbEntity
 67
     1
  8
7_ALL_FEATURES
  6
Continuous
 62
     7
100
AcDbLine
 10
691.2963840794
 20
477.5271431605
 30
0.0
 11
691.2963840794
 21
513.5271431605
 31
0.0
  0
LINE
  5
5AD
330
1B
100
AcDbEntity
 67
     1
  8
7_ALL_FEATURES
  6
Continuous
 62
     7
100
AcDbLine
 10
691.2963840794
 20
477.5271431605
 30
0.0
 11
691.6463840794
 21
477.5271431605
 31
0.0
  0
LINE
  5
5AE
330
1B
100
AcDbEntity
 67
     1
  8
7_ALL_FEATURES
  6
Continuous
 62
     7
100
AcDbLine
 10
691.6463840794
 20
476.5271431605
 30
0.0
 11
691.6463840794
 21
477.5271431605
 31
0.0
  0
LINE
  5
5AF
330
1B
100
AcDbEntity
 67
     1
  8
7_ALL_FEATURES
  6
Continuous
 62
     7
100
AcDbLine
 10
691.6463840794
 20
468.5271431605
 30
0.0
 11
691.6463840794
 21
467.5271431605
 31
0.0
  0
LINE
  5
5B0
330
1B
100
AcDbEntity
 67
     1
  8
7_ALL_FEATURES
  6
Continuous
 62
     7
100
AcDbLine
 10
691.2963840794
 20
467.5271431605
 30
0.0
 11
691.6463840794
 21
467.5271431605
 31
0.0
  0
LINE
  5
5B1
330
1B
100
AcDbEntity
 67
     1
  8
7_ALL_FEATURES
  6
Continuous
 62
     7
100
AcDbLine
 10
691.2963840794
 20
442.7271431605
 30
0.0
 11
691.2963840794
 21
467.5271431605
 31
0.0
  0
LINE
  5
5B2
330
1B
100
AcDbEntity
 67
     1
  8
7_ALL_FEATURES
  6
Continuous
 62
     7
100
AcDbLine
 10
691.2963840794
 20
442.7271431605
 30
0.0
 11
691.6463840794
 21
442.7271431605
 31
0.0
  0
LINE
  5
5B3
330
1B
100
AcDbEntity
 67
     1
  8
7_ALL_FEATURES
  6
Continuous
 62
     7
100
AcDbLine
 10
691.6463840794
 20
441.5271431605
 30
0.0
 11
691.6463840794
 21
442.7271431605
 31
0.0
  0
LINE
  5
5B4
330
1B
100
AcDbEntity
 67
     1
  8
7_ALL_FEATURES
  6
Continuous
 62
     7
100
AcDbLine
 10
691.6463840794
 20
433.5271431605
 30
0.0
 11
691.6463840794
 21
432.3271431605
 31
0.0
  0
LINE
  5
5B5
330
1B
100
AcDbEntity
 67
     1
  8
7_ALL_FEATURES
  6
Continuous
 62
     7
100
AcDbLine
 10
691.2963840794
 20
432.3271431605
 30
0.0
 11
691.6463840794
 21
432.3271431605
 31
0.0
  0
LINE
  5
5B6
330
1B
100
AcDbEntity
 67
     1
  8
7_ALL_FEATURES
  6
Continuous
 62
     7
100
AcDbLine
 10
691.2963840794
 20
425.5271431605
 30
0.0
 11
691.2963840794
 21
432.3271431605
 31
0.0
  0
ARC
  5
5B7
330
1B
100
AcDbEntity
 67
     1
  8
7_ALL_FEATURES
  6
Continuous
 62
     7
100
AcDbCircle
 10
691.7963840794
 20
425.5271431605
 30
0.0
 40
0.5
100
AcDbArc
 50
180.0
 51
270.0
  0
LINE
  5
5B8
330
1B
100
AcDbEntity
 67
     1
  8
7_ALL_FEATURES
  6
Continuous
 62
     7
100
AcDbLine
 10
709.1511761995
 20
425.0271431605
 30
0.0
 11
691.7963840794
 21
425.0271431605
 31
0.0
  0
ARC
  5
5B9
330
1B
100
AcDbEntity
 67
     1
  8
7_ALL_FEATURES
  6
Continuous
 62
     7
100
AcDbCircle
 10
709.1511761995
 20
426.2771431605
 30
0.0
 40
1.25
100
AcDbArc
 50
270.0
 51
316.1869385396
  0
ARC
  5
5BA
330
1B
100
AcDbEntity
 67
     1
  8
02___PRT_ALL_AXES
  6
Continuous
 62
     7
100
AcDbCircle
 10
711.4963840794
 20
451.5271431605
 30
0.0
 40
9.5
100
AcDbArc
 50
182.0
 51
358.0
  0
LINE
  5
5BB
330
1B
100
AcDbEntity
 67
     1
  8
02___PRT_ALL_AXES
  6
Continuous
 62
     7
100
AcDbLine
 10
721.4902923496
 20
451.1781481935
 30
0.0
 11
720.9905969361
 21
451.1955979418
 31
0.0
  0
ARC
  5
5BC
330
1B
100
AcDbEntity
 67
     1
  8
02___PRT_ALL_AXES
  6
Continuous
 62
     7
100
AcDbCircle
 10
711.4963840794
 20
451.5271431605
 30
0.0
 40
10.0
100
AcDbArc
 50
182.0
 51
358.0
  0
LINE
  5
5BD
330
1B
100
AcDbEntity
 67
     1
  8
02___PRT_ALL_AXES
  6
Continuous
 62
     7
100
AcDbLine
 10
702.0021712227
 20
451.1955979418
 30
0.0
 11
701.5024758092
 21
451.1781481935
 31
0.0
  0
LINE
  5
5BE
330
1B
100
AcDbEntity
 67
     1
  8
02___PRT_ALL_AXES
  6
Continuous
 62
     7
100
AcDbLine
 10
701.5024758092
 20
451.8761381275
 30
0.0
 11
702.0021712227
 21
451.8586883792
 31
0.0
  0
ARC
  5
5BF
330
1B
100
AcDbEntity
 67
     1
  8
02___PRT_ALL_AXES
  6
Continuous
 62
     7
100
AcDbCircle
 10
711.4963840794
 20
451.5271431605
 30
0.0
 40
10.0
100
AcDbArc
 50
2.0
 51
178.0
  0
LINE
  5
5C0
330
1B
100
AcDbEntity
 67
     1
  8
02___PRT_ALL_AXES
  6
Continuous
 62
     7
100
AcDbLine
 10
720.9905969361
 20
451.8586883792
 30
0.0
 11
721.4902923496
 21
451.8761381275
 31
0.0
  0
ARC
  5
5C1
330
1B
100
AcDbEntity
 67
     1
  8
02___PRT_ALL_AXES
  6
Continuous
 62
     7
100
AcDbCircle
 10
711.4963840794
 20
451.5271431605
 30
0.0
 40
9.5
100
AcDbArc
 50
2.0
 51
178.0
  0
LINE
  5
5C2
330
1B
100
AcDbEntity
 67
     1
  8
7_ALL_FEATURES
  6
Continuous
 62
     7
100
AcDbLine
 10
691.1648050221
 20
476.5271431605
 30
0.0
 11
691.6463840794
 21
476.5271431605
 31
0.0
  0
LINE
  5
5C3
330
1B
100
AcDbEntity
 67
     1
  8
7_ALL_FEATURES
  6
Continuous
 62
     7
100
AcDbLine
 10
689.6463840794
 20
468.5271431605
 30
0.0
 11
689.6463840794
 21
476.5271431605
 31
0.0
  0
LINE
  5
5C4
330
1B
100
AcDbEntity
 67
     1
  8
7_ALL_FEATURES
  6
Continuous
 62
     7
100
AcDbLine
 10
691.1648050221
 20
468.5271431605
 30
0.0
 11
691.6463840794
 21
468.5271431605
 31
0.0
  0
LINE
  5
5C5
330
1B
100
AcDbEntity
 67
     1
  8
7_ALL_FEATURES
  6
Continuous
 62
     7
100
AcDbLine
 10
731.8279631367
 20
468.5271431605
 30
0.0
 11
731.3463840794
 21
468.5271431605
 31
0.0
  0
LINE
  5
5C6
330
1B
100
AcDbEntity
 67
     1
  8
7_ALL_FEATURES
  6
Continuous
 62
     7
100
AcDbLine
 10
733.3463840794
 20
476.5271431605
 30
0.0
 11
733.3463840794
 21
468.5271431605
 31
0.0
  0
LINE
  5
5C7
330
1B
100
AcDbEntity
 67
     1
  8
7_ALL_FEATURES
  6
Continuous
 62
     7
100
AcDbLine
 10
731.8279631367
 20
476.5271431605
 30
0.0
 11
731.3463840794
 21
476.5271431605
 31
0.0
  0
LINE
  5
5C8
330
1B
100
AcDbEntity
 67
     1
  8
7_ALL_FEATURES
  6
Continuous
 62
     7
100
AcDbLine
 10
691.1648050221
 20
441.5271431605
 30
0.0
 11
691.6463840794
 21
441.5271431605
 31
0.0
  0
LINE
  5
5C9
330
1B
100
AcDbEntity
 67
     1
  8
7_ALL_FEATURES
  6
Continuous
 62
     7
100
AcDbLine
 10
689.6463840794
 20
441.5271431605
 30
0.0
 11
690.6463840794
 21
441.5271431605
 31
0.0
  0
LINE
  5
5CA
330
1B
100
AcDbEntity
 67
     1
  8
7_ALL_FEATURES
  6
Continuous
 62
     7
100
AcDbLine
 10
690.6463840794
 20
441.5271431605
 30
0.0
 11
691.1648050221
 21
441.5271431605
 31
0.0
  0
LINE
  5
5CB
330
1B
100
AcDbEntity
 67
     1
  8
7_ALL_FEATURES
  6
Continuous
 62
     7
100
AcDbLine
 10
689.6463840794
 20
433.5271431605
 30
0.0
 11
689.6463840794
 21
441.5271431605
 31
0.0
  0
LINE
  5
5CC
330
1B
100
AcDbEntity
 67
     1
  8
7_ALL_FEATURES
  6
Continuous
 62
     7
100
AcDbLine
 10
689.6463840794
 20
433.5271431605
 30
0.0
 11
690.6463840794
 21
433.5271431605
 31
0.0
  0
LINE
  5
5CD
330
1B
100
AcDbEntity
 67
     1
  8
7_ALL_FEATURES
  6
Continuous
 62
     7
100
AcDbLine
 10
690.6463840794
 20
433.5271431605
 30
0.0
 11
691.1648050221
 21
433.5271431605
 31
0.0
  0
LINE
  5
5CE
330
1B
100
AcDbEntity
 67
     1
  8
7_ALL_FEATURES
  6
Continuous
 62
     7
100
AcDbLine
 10
691.1648050221
 20
433.5271431605
 30
0.0
 11
691.6463840794
 21
433.5271431605
 31
0.0
  0
LINE
  5
5CF
330
1B
100
AcDbEntity
 67
     1
  8
7_ALL_FEATURES
  6
Continuous
 62
     7
100
AcDbLine
 10
731.8279631367
 20
433.5271431605
 30
0.0
 11
731.3463840794
 21
433.5271431605
 31
0.0
  0
LINE
  5
5D0
330
1B
100
AcDbEntity
 67
     1
  8
7_ALL_FEATURES
  6
Continuous
 62
     7
100
AcDbLine
 10
733.3463840794
 20
441.5271431605
 30
0.0
 11
733.3463840794
 21
433.5271431605
 31
0.0
  0
LINE
  5
5D1
330
1B
100
AcDbEntity
 67
     1
  8
7_ALL_FEATURES
  6
Continuous
 62
     7
100
AcDbLine
 10
731.8279631367
 20
441.5271431605
 30
0.0
 11
731.3463840794
 21
441.5271431605
 31
0.0
  0
LINE
  5
5D2
330
1B
100
AcDbEntity
 67
     1
  8
7_ALL_FEATURES
  6
Continuous
 62
     9
100
AcDbLine
 10
691.6463840794
 20
433.5271431605
 30
0.0
 11
691.6463840794
 21
441.5271431605
 31
0.0
  0
LINE
  5
5D3
330
1B
100
AcDbEntity
 67
     1
  8
7_ALL_FEATURES
  6
Continuous
 62
     9
100
AcDbLine
 10
691.6463840794
 20
468.5271431605
 30
0.0
 11
691.6463840794
 21
476.5271431605
 31
0.0
  0
LINE
  5
5D4
330
1B
100
AcDbEntity
 67
     1
  8
7_ALL_FEATURES
  6
Continuous
 62
     9
100
AcDbLine
 10
731.3463840794
 20
441.5271431605
 30
0.0
 11
731.3463840794
 21
433.5271431605
 31
0.0
  0
LINE
  5
5D5
330
1B
100
AcDbEntity
 67
     1
  8
7_ALL_FEATURES
  6
Continuous
 62
     9
100
AcDbLine
 10
731.3463840794
 20
476.5271431605
 30
0.0
 11
731.3463840794
 21
468.5271431605
 31
0.0
  0
LINE
  5
5D6
330
1B
100
AcDbEntity
 67
     1
  8
7_ALL_FEATURES
  6
Continuous
 62
     3
100
AcDbLine
 10
666.9963840794
 20
426.2271431605
 30
0.0
 11
673.2463840794
 21
426.2271431605
 31
0.0
  0
LINE
  5
5D7
330
1B
100
AcDbEntity
 67
     1
  8
7_ALL_FEATURES
  6
Continuous
 62
     3
100
AcDbLine
 10
673.2463840794
 20
426.2271431605
 30
0.0
 11
676.4963840794
 21
426.2271431605
 31
0.0
  0
LINE
  5
5D8
330
1B
100
AcDbEntity
 67
     1
  8
7_ALL_FEATURES
  6
Continuous
 62
     3
100
AcDbLine
 10
676.4963840794
 20
426.2271431605
 30
0.0
 11
676.9963840794
 21
426.2271431605
 31
0.0
  0
LINE
  5
5D9
330
1B
100
AcDbEntity
 67
     1
  8
7_ALL_FEATURES
  6
Continuous
 62
     3
100
AcDbLine
 10
745.9963840794
 20
426.2271431605
 30
0.0
 11
746.4963840794
 21
426.2271431605
 31
0.0
  0
LINE
  5
5DA
330
1B
100
AcDbEntity
 67
     1
  8
7_ALL_FEATURES
  6
Continuous
 62
     3
100
AcDbLine
 10
746.4963840794
 20
426.2271431605
 30
0.0
 11
749.7463840794
 21
426.2271431605
 31
0.0
  0
LINE
  5
5DB
330
1B
100
AcDbEntity
 67
     1
  8
7_ALL_FEATURES
  6
Continuous
 62
     3
100
AcDbLine
 10
749.7463840794
 20
426.2271431605
 30
0.0
 11
755.9963840794
 21
426.2271431605
 31
0.0
  0
LINE
  5
5DC
330
1B
100
AcDbEntity
 67
     1
  8
7_ALL_FEATURES
  6
Continuous
 62
     3
100
AcDbLine
 10
676.9963840794
 20
426.2271431605
 30
0.0
 11
691.2963840794
 21
426.2271431605
 31
0.0
  0
LINE
  5
5DD
330
1B
100
AcDbEntity
 67
     1
  8
7_ALL_FEATURES
  6
Continuous
 62
     3
100
AcDbLine
 10
731.6963840794
 20
426.2271431605
 30
0.0
 11
745.9963840794
 21
426.2271431605
 31
0.0
  0
DIMENSION
  5
5DE
330
1B
100
AcDbEntity
 67
     1
  8
0
  6
Continuous
 62
     2
100
AcDbDimension
280
     0
  2
*D1
 10
600.6004840704
 20
423.7771431605
 30
0.0
 11
600.6004840704
 21
468.0450027704
 31
0.0
 70
   160
 71
     5
 42
-1.0
 73
     0
 74
     0
 75
     0
  3
DIMSTYLE_1
100
AcDbAlignedDimension
 13
563.3281906031
 23
514.0271431605
 33
0.0
 14
512.0781906031
 24
423.7771431605
 34
0.0
 50
270.0
100
AcDbRotatedDimension
  0
DIMENSION
  5
5DF
330
1B
100
AcDbEntity
 67
     1
  8
0
  6
Continuous
 62
     2
100
AcDbDimension
280
     0
  2
*D2
 10
755.9963840794
 20
404.5798865229
 30
0.0
 11
710.6392565918
 21
404.5798865229
 31
0.0
 70
   160
 71
     5
 42
-1.0
 73
     0
 74
     0
 75
     0
  3
DIMSTYLE_2
100
AcDbAlignedDimension
 13
666.9963840794
 23
415.3151027724
 33
0.0
 14
755.9963840794
 24
415.3151027724
 34
0.0
100
AcDbRotatedDimension
  0
DIMENSION
  5
5E0
330
1B
100
AcDbEntity
 67
     1
  8
0
  6
Continuous
 62
     2
100
AcDbDimension
280
     0
  2
*D3
 10
587.2315772095
 20
229.544998362
 30
0.0
 11
587.2315772095
 21
250.5378500378
 31
0.0
 70
   160
 71
     5
 42
-1.0
 73
     0
 74
     0
 75
     0
  3
DIMSTYLE_1
100
AcDbAlignedDimension
 13
561.3281906031
 23
273.244998362
 33
0.0
 14
561.3281906031
 24
229.544998362
 34
0.0
 50
270.0
100
AcDbRotatedDimension
  0
DIMENSION
  5
5E1
330
1B
100
AcDbEntity
 67
     1
  8
0
  6
Continuous
 62
     2
100
AcDbDimension
280
     0
  2
*D4
 10
600.6004840704
 20
295.894998362
 30
0.0
 11
600.6004840704
 21
250.5378579718
 31
0.0
 70
   160
 71
     5
 42
-1.0
 73
     0
 74
     0
 75
     0
  3
DIMSTYLE_2
100
AcDbAlignedDimension
 13
509.5781906031
 23
206.894998362
 33
0.0
 14
509.5781906031
 24
295.894998362
 34
0.0
 50
90.0
100
AcDbRotatedDimension
  0
DIMENSION
  5
5E2
330
1B
100
AcDbEntity
 67
     1
  8
0
  6
Continuous
 62
     2
100
AcDbDimension
280
     0
  2
*D5
 10
50.0781906031
 20
179.8577446067
 30
0.0
 11
321.1015612793
 21
179.8577446067
 31
0.0
 70
   160
 71
     5
 42
-1.0
 73
     0
 74
     0
 75
     0
  3
DIMSTYLE_3
100
AcDbAlignedDimension
 13
562.5781906031
 23
230.444998362
 33
0.0
 14
50.0781906031
 24
230.444998362
 34
0.0
 50
180.0
100
AcDbRotatedDimension
  0
LINE
  5
5E3
330
1B
100
AcDbEntity
 67
     1
  8
0
  6
Continuous
 62
     2
100
AcDbLine
 10
559.3244547912
 20
152.6089392083
 30
0.0
 11
819.3244547912
 21
152.6089392083
 31
0.0
  0
LINE
  5
5E4
330
1B
100
AcDbEntity
 67
     1
  8
0
  6
Continuous
 62
     2
100
AcDbLine
 10
559.3244547912
 20
152.6089392083
 30
0.0
 11
559.3244547912
 21
20.6089392083
 31
0.0
  0
LINE
  5
5E5
330
1B
100
AcDbEntity
 67
     1
  8
0
  6
Continuous
 62
     2
100
AcDbLine
 10
619.3244547912
 20
136.6089392083
 30
0.0
 11
819.3244547912
 21
136.6089392083
 31
0.0
  0
LINE
  5
5E6
330
1B
100
AcDbEntity
 67
     1
  8
0
  6
Continuous
 62
     2
100
AcDbLine
 10
559.3244547912
 20
120.6089392083
 30
0.0
 11
819.3244547912
 21
120.6089392083
 31
0.0
  0
LINE
  5
5E7
330
1B
100
AcDbEntity
 67
     1
  8
0
  6
Continuous
 62
     2
100
AcDbLine
 10
619.3244547912
 20
108.6089392083
 30
0.0
 11
819.3244547912
 21
108.6089392083
 31
0.0
  0
LINE
  5
5E8
330
1B
100
AcDbEntity
 67
     1
  8
0
  6
Continuous
 62
     2
100
AcDbLine
 10
619.3244547912
 20
96.6089392083
 30
0.0
 11
819.3244547912
 21
96.6089392083
 31
0.0
  0
LINE
  5
5E9
330
1B
100
AcDbEntity
 67
     1
  8
0
  6
Continuous
 62
     2
100
AcDbLine
 10
619.3244547912
 20
84.6089392083
 30
0.0
 11
819.3244547912
 21
84.6089392083
 31
0.0
  0
LINE
  5
5EA
330
1B
100
AcDbEntity
 67
     1
  8
0
  6
Continuous
 62
     2
100
AcDbLine
 10
619.3244547912
 20
72.6089392083
 30
0.0
 11
819.3244547912
 21
72.6089392083
 31
0.0
  0
LINE
  5
5EB
330
1B
100
AcDbEntity
 67
     1
  8
0
  6
Continuous
 62
     2
100
AcDbLine
 10
619.3244547912
 20
60.6089392083
 30
0.0
 11
819.3244547912
 21
60.6089392083
 31
0.0
  0
LINE
  5
5EC
330
1B
100
AcDbEntity
 67
     1
  8
0
  6
Continuous
 62
     2
100
AcDbLine
 10
559.3244547912
 20
48.6089392083
 30
0.0
 11
819.3244547912
 21
48.6089392083
 31
0.0
  0
LINE
  5
5ED
330
1B
100
AcDbEntity
 67
     1
  8
0
  6
Continuous
 62
     2
100
AcDbLine
 10
559.3244547912
 20
36.6089392083
 30
0.0
 11
819.3244547912
 21
36.6089392083
 31
0.0
  0
LINE
  5
5EE
330
1B
100
AcDbEntity
 67
     1
  8
0
  6
Continuous
 62
     2
100
AcDbLine
 10
559.3244547912
 20
28.6089392083
 30
0.0
 11
819.3244547912
 21
28.6089392083
 31
0.0
  0
LINE
  5
5EF
330
1B
100
AcDbEntity
 67
     1
  8
0
  6
Continuous
 62
     2
100
AcDbLine
 10
559.3244547912
 20
20.6089392083
 30
0.0
 11
819.3244547912
 21
20.6089392083
 31
0.0
  0
LINE
  5
5F0
330
1B
100
AcDbEntity
 67
     1
  8
0
  6
Continuous
 62
     2
100
AcDbLine
 10
619.3244547912
 20
152.6089392083
 30
0.0
 11
619.3244547912
 21
36.6089392083
 31
0.0
  0
LINE
  5
5F1
330
1B
100
AcDbEntity
 67
     1
  8
0
  6
Continuous
 62
     2
100
AcDbLine
 10
659.3244547912
 20
120.6089392083
 30
0.0
 11
659.3244547912
 21
108.6089392083
 31
0.0
  0
LINE
  5
5F2
330
1B
100
AcDbEntity
 67
     1
  8
0
  6
Continuous
 62
     2
100
AcDbLine
 10
719.3244547912
 20
60.6089392083
 30
0.0
 11
719.3244547912
 21
36.6089392083
 31
0.0
  0
LINE
  5
5F3
330
1B
100
AcDbEntity
 67
     1
  8
0
  6
Continuous
 62
     2
100
AcDbLine
 10
739.3244547912
 20
120.6089392083
 30
0.0
 11
739.3244547912
 21
108.6089392083
 31
0.0
  0
LINE
  5
5F4
330
1B
100
AcDbEntity
 67
     1
  8
0
  6
Continuous
 62
     2
100
AcDbLine
 10
739.3244547912
 20
96.6089392083
 30
0.0
 11
739.3244547912
 21
84.6089392083
 31
0.0
  0
LINE
  5
5F5
330
1B
100
AcDbEntity
 67
     1
  8
0
  6
Continuous
 62
     2
100
AcDbLine
 10
779.3244547912
 20
120.6089392083
 30
0.0
 11
779.3244547912
 21
108.6089392083
 31
0.0
  0
LINE
  5
5F6
330
1B
100
AcDbEntity
 67
     1
  8
0
  6
Continuous
 62
     2
100
AcDbLine
 10
799.3244547912
 20
96.6089392083
 30
0.0
 11
799.3244547912
 21
84.6089392083
 31
0.0
  0
LINE
  5
5F7
330
1B
100
AcDbEntity
 67
     1
  8
0
  6
Continuous
 62
     2
100
AcDbLine
 10
819.3244547912
 20
152.6089392083
 30
0.0
 11
819.3244547912
 21
20.6089392083
 31
0.0
  0
INSERT
  5
5F8
330
1B
100
AcDbEntity
 67
     1
  8
0
  6
Continuous
 62
     2
100
AcDbBlockReference
  2
PROIEZIONE_EU_BL0
 10
589.3244547912
 20
135.8589392083
 30
0.0
  0
MTEXT
  5
5F9
330
1B
100
AcDbEntity
 67
     1
  8
9_SOLID
  6
Continuous
 62
     2
100
AcDbMText
 10
622.2994547912
 20
149.3589392083
 30
0.0
 40
3.8
 41
284.7285714286
 46
0.0
 71
     1
 72
     1
  1
EN: Chamfer/radii unlisted 0.3x45°. Remove sharp edges.\PGen. tol.: hole H11, shaft h11, lenght Js12. UNI EN 22768 Medium Grande.
 73
     1
 44
1.0
  0
MTEXT
  5
5FA
330
1B
100
AcDbEntity
 67
     1
  8
9_SOLID
  6
Continuous
 62
     2
100
AcDbMText
 10
622.2994547912
 20
133.3589392083
 30
0.0
 40
3.8
 41
296.5357142857
 46
0.0
 71
     1
 72
     1
  1
IT: Sm./rac. non quotati 0.3x45°. Eliminare spigoli taglienti.\PToll. gen.: foro H11, albero h11, lunghezza Js12. UNI EN 22768 Grado Medio.
 73
     1
 44
1.0
  0
INSERT
  5
5FB
330
1B
100
AcDbEntity
 67
     1
  8
0
  6
Continuous
 62
     2
100
AcDbBlockReference
  2
LOGO2_BL1
 10
586.9765488808
 20
84.6089392083
 30
0.0
  0
MTEXT
  5
5FC
330
1B
100
AcDbEntity
 67
     1
  8
9_SOLID
  6
Continuous
 62
     2
100
AcDbMText
 10
622.2994547912
 20
117.1089392083
 30
0.0
 40
6.0
 41
42.2142857143
 46
0.0
 71
     1
 72
     1
  1
Pj: 571
 73
     1
 44
1.0
  0
MTEXT
  5
5FD
330
1B
100
AcDbEntity
 67
     1
  8
0
  6
Continuous
 62
     2
100
AcDbMText
 10
662.2994547912
 20
117.1089392083
 30
0.0
 40
6.0
 41
83.1428571429
 46
0.0
 71
     1
 72
     1
  1
% Check:  %
 73
     1
 44
1.0
  0
MTEXT
  5
5FE
330
1B
100
AcDbEntity
 67
     1
  8
9_SOLID
  6
Continuous
 62
     2
100
AcDbMText
 10
742.2994547912
 20
117.1089392083
 30
0.0
 40
6.0
 41
39.0
 46
0.0
 71
     1
 72
     1
  1
Rev:00
 73
     1
 44
1.0
  0
MTEXT
  5
5FF
330
1B
100
AcDbEntity
 67
     1
  8
9_SOLID
  6
Continuous
 62
     2
100
AcDbMText
 10
782.2994547912
 20
117.6089392083
 30
0.0
 40
6.0
 41
39.4285714286
 46
0.0
 71
     1
 72
     1
  1
Ver: A
 73
     1
 44
1.0
  0
MTEXT
  5
600
330
1B
100
AcDbEntity
 67
     1
  8
9_SOLID
  6
Continuous
 62
     2
100
AcDbMText
 10
622.2994547912
 20
105.1089392083
 30
0.0
 40
6.0
 41
147.4285714286
 46
0.0
 71
     1
 72
     1
  1
Neutral code: 571_C_462
 73
     1
 44
1.0
  0
MTEXT
  5
601
330
1B
100
AcDbEntity
 67
     1
  8
0
  6
Continuous
 62
     2
100
AcDbMText
 10
622.2994547912
 20
93.1089392083
 30
0.0
 40
6.0
 41
45.8571428571
 46
0.0
 71
     1
 72
     1
  1
Code:  
 73
     1
 44
1.0
  0
MTEXT
  5
602
330
1B
100
AcDbEntity
 67
     1
  8
9_SOLID
  6
Continuous
 62
     2
100
AcDbMText
 10
742.2994547912
 20
93.6089392083
 30
0.0
 40
6.0
 41
57.6428571429
 46
0.0
 71
     1
 72
     1
  1
Scale: 1:2
 73
     1
 44
1.0
  0
MTEXT
  5
603
330
1B
100
AcDbEntity
 67
     1
  8
9_SOLID
  6
Continuous
 62
     2
100
AcDbMText
 10
809.3244547912
 20
93.6089392083
 30
0.0
 40
6.0
 41
15.8571428571
 46
0.0
 71
     2
 72
     1
  1
A3
 73
     1
 44
1.0
  0
MTEXT
  5
604
330
1B
100
AcDbEntity
 67
     1
  8
9_SOLID
  6
Continuous
 62
     2
100
AcDbMText
 10
622.2994547912
 20
81.6089392083
 30
0.0
 40
6.0
 41
249.6428571429
 46
0.0
 71
     1
 72
     1
  1
It descr.: CASSAFORMA RIO 2.1 AISI 316
 73
     1
 44
1.0
  0
MTEXT
  5
605
330
1B
100
AcDbEntity
 67
     1
  8
0
  6
Continuous
 62
     2
100
AcDbMText
 10
622.2994547912
 20
69.6089392083
 30
0.0
 40
6.0
 41
75.0
 46
0.0
 71
     1
 72
     1
  1
En descr.:  
 73
     1
 44
1.0
  0
MTEXT
  5
606
330
1B
100
AcDbEntity
 67
     1
  8
9_SOLID
  6
Continuous
 62
     2
100
AcDbMText
 10
622.2994547912
 20
57.6089392083
 30
0.0
 40
6.0
 41
62.5714285714
 46
0.0
 71
     1
 72
     1
  1
Des.: S.Z.
 73
     1
 44
1.0
  0
MTEXT
  5
607
330
1B
100
AcDbEntity
 67
     1
  8
9_SOLID
  6
Continuous
 62
     2
100
AcDbMText
 10
722.2994547912
 20
57.6089392083
 30
0.0
 40
6.0
 41
44.5714285714
 46
0.0
 71
     1
 72
     1
  1
Check: 
 73
     1
 44
1.0
  0
MTEXT
  5
608
330
1B
100
AcDbEntity
 67
     1
  8
9_SOLID
  6
Continuous
 62
     2
100
AcDbMText
 10
562.2994547912
 20
45.6089392083
 30
0.0
 40
6.0
 41
87.0
 46
0.0
 71
     1
 72
     1
  1
Date: 06.12.18
 73
     1
 44
1.0
  0
MTEXT
  5
609
330
1B
100
AcDbEntity
 67
     1
  8
0
  6
Continuous
 62
     2
100
AcDbMText
 10
622.2994547912
 20
45.6089392083
 30
0.0
 40
6.0
 41
43.5
 46
0.0
 71
     1
 72
     1
  1
Mat.:  
 73
     1
 44
1.0
  0
MTEXT
  5
60A
330
1B
100
AcDbEntity
 67
     1
  8
9_SOLID
  6
Continuous
 62
     2
100
AcDbMText
 10
722.2994547912
 20
44.6089392083
 30
0.0
 40
4.0
 41
84.7142857143
 46
0.0
 71
     1
 72
     1
  1
Disegno per catalogo
 73
     1
 44
1.0
  0
MTEXT
  5
60B
330
1B
100
AcDbEntity
 67
     1
  8
9_SOLID
  6
Continuous
 62
     2
100
AcDbMText
 10
562.2994547912
 20
34.4089392083
 30
0.0
 40
3.6
 41
352.4142857143
 46
0.0
 71
     1
 72
     1
  1
It: A norma di legge si diffida da qualsiasi riproduzione senza nostra autorizzazione esplicita.
 73
     1
 44
1.0
  0
MTEXT
  5
60C
330
1B
100
AcDbEntity
 67
     1
  8
9_SOLID
  6
Continuous
 62
     2
100
AcDbMText
 10
562.2994547912
 20
26.4089392083
 30
0.0
 40
3.6
 41
316.2857142857
 46
0.0
 71
     1
 72
     1
  1
En: According to the law, beware of any reproduction made without our authorization.
 73
     1
 44
1.0
  0
ENDSEC
  0
SECTION
  2
OBJECTS
  0
DICTIONARY
  5
60D
330
0
100
AcDbDictionary
281
     1
  3
ACAD_DETAILVIEWSTYLE
350
663
  3
ACAD_GROUP
350
60E
  3
ACAD_LAYOUT
350
636
  3
ACAD_MATERIAL
350
652
  3
ACAD_MLEADERSTYLE
350
658
  3
ACAD_MLINESTYLE
350
60F
  3
ACAD_PLOTSETTINGS
350
611
  3
ACAD_PLOTSTYLENAME
350
612
  3
ACAD_SCALELIST
350
614
  3
ACAD_SECTIONVIEWSTYLE
350
664
  3
ACAD_TABLESTYLE
350
656
  3
ACAD_VISUALSTYLE
350
639
  3
ACDB_RECOMPOSE_DATA
350
65F
  3
AcDbVariableDictionary
350
65B
  3
APPDATA
350
65A
  0
DICTIONARY
  5
663
102
{ACAD_REACTORS
330
60D
102
}
330
60D
100
AcDbDictionary
281
     1
  0
DICTIONARY
  5
60E
102
{ACAD_REACTORS
330
60D
102
}
330
60D
100
AcDbDictionary
281
     1
  0
DICTIONARY
  5
636
102
{ACAD_REACTORS
330
60D
102
}
330
60D
100
AcDbDictionary
281
     1
  3
Foglio 1
350
638
  3
Model
350
637
  0
DICTIONARY
  5
652
102
{ACAD_REACTORS
330
60D
102
}
330
60D
100
AcDbDictionary
281
     1
  3
ByBlock
350
654
  3
ByLayer
350
653
  3
Global
350
655
  0
DICTIONARY
  5
658
102
{ACAD_REACTORS
330
60D
102
}
330
60D
100
AcDbDictionary
281
     1
  3
Standard
350
659
  0
DICTIONARY
  5
60F
102
{ACAD_REACTORS
330
60D
102
}
330
60D
100
AcDbDictionary
281
     1
  3
STANDARD
350
610
  0
DICTIONARY
  5
611
102
{ACAD_REACTORS
330
60D
102
}
330
60D
100
AcDbDictionary
281
     1
  0
ACDBDICTIONARYWDFLT
  5
612
102
{ACAD_REACTORS
330
60D
102
}
330
60D
100
AcDbDictionary
281
     1
  3
Normal
350
613
100
AcDbDictionaryWithDefault
340
613
  0
DICTIONARY
  5
614
102
{ACAD_REACTORS
330
60D
102
}
330
60D
100
AcDbDictionary
281
     1
  3
A0
350
615
  3
A1
350
616
  3
A2
350
617
  3
A3
350
618
  3
A4
350
619
  3
A5
350
61A
  3
A6
350
61B
  3
A7
350
61C
  3
A8
350
61D
  3
A9
350
61E
  3
B0
350
61F
  3
B1
350
620
  3
B2
350
621
  3
B3
350
622
  3
B4
350
623
  3
B5
350
624
  3
B6
350
625
  3
B7
350
626
  3
B8
350
627
  3
B9
350
628
  3
C0
350
629
  3
C1
350
62A
  3
C2
350
62B
  3
C3
350
62C
  3
C4
350
62D
  3
C5
350
62E
  3
C6
350
62F
  3
C7
350
630
  3
C8
350
631
  3
C9
350
632
  3
D0
350
633
  3
D1
350
634
  3
D2
350
635
  0
DICTIONARY
  5
664
102
{ACAD_REACTORS
330
60D
102
}
330
60D
100
AcDbDictionary
281
     1
  0
DICTIONARY
  5
656
102
{ACAD_REACTORS
330
60D
102
}
330
60D
100
AcDbDictionary
281
     1
  3
Standard
350
657
  0
DICTIONARY
  5
639
102
{ACAD_REACTORS
330
60D
102
}
330
60D
100
AcDbDictionary
281
     1
  3
2dWireframe
350
63E
  3
Basic
350
641
  3
Brighten
350
645
  3
ColorChange
350
649
  3
Conceptual
350
643
  3
Dim
350
644
  3
EdgeColorOff
350
64C
  3
Facepattern
350
648
  3
Flat
350
63A
  3
FlatWithEdges
350
63B
  3
Gouraud
350
63C
  3
GouraudWithEdges
350
63D
  3
Hidden
350
640
  3
JitterOff
350
64A
  3
Linepattern
350
647
  3
OverhangOff
350
64B
  3
Realistic
350
642
  3
Shaded
350
651
  3
Shaded with edges
350
650
  3
Shades of Gray
350
64D
  3
Sketchy
350
64E
  3
Thicken
350
646
  3
Wireframe
350
63F
  3
X-Ray
350
64F
  0
XRECORD
  5
65F
102
{ACAD_REACTORS
330
60D
102
}
330
60D
100
AcDbXrecord
280
     1
 90
        1
330
657
  0
DICTIONARY
  5
65B
102
{ACAD_REACTORS
330
60D
102
}
330
60D
100
AcDbDictionary
281
     1
  3
CANNOSCALE
350
65C
  3
CMLEADERSTYLE
350
661
  3
CTABLESTYLE
350
660
  3
MSLTSCALE
350
662
  0
DICTIONARY
  5
65A
102
{ACAD_REACTORS
330
60D
102
}
330
60D
100
AcDbDictionary
281
     1
  0
LAYOUT
  5
638
102
{ACAD_REACTORS
330
636
102
}
330
636
100
AcDbPlotSettings
  1

  2
none_device
  4
ISO_A3_(420.00_x_297.00_MM)
  6

 40
7.5
 41
20.0
 42
7.5
 43
20.0
 44
420.0
 45
297.0
 46
0.0
 47
0.0
 48
0.0
 49
0.0
140
0.0
141
0.0
142
1.0
143
2.311284046692607
 70
   688
 72
     1
 73
     0
 74
     1
  7

 75
     0
 76
     0
 77
     2
 78
   300
147
0.4326599326599327
148
0.0
149
0.0
100
AcDbLayout
  1
Foglio 1
 70
     1
 71
     1
 10
0.0
 20
0.0
 11
412.5
 21
277.0
 12
0.0
 22
0.0
 32
0.0
 14
0.0
 24
0.0
 34
0.0
 15
840.0
 25
594.0
 35
0.0
146
0.0
 13
0.0
 23
0.0
 33
0.0
 16
1.0
 26
0.0
 36
0.0
 17
0.0
 27
1.0
 37
0.0
 76
     0
330
1B
331
2D2
  0
LAYOUT
  5
637
102
{ACAD_REACTORS
330
636
102
}
330
636
100
AcDbPlotSettings
  1

  2
none_device
  4
Letter_(8.50_x_11.00_Inches)
  6

 40
6.35
 41
6.35
 42
6.35
 43
6.35
 44
215.9
 45
279.4
 46
0.0
 47
0.0
 48
0.0
 49
0.0
140
0.0
141
0.0
142
1.0
143
104.999999996925
 70
  1712
 72
     0
 73
     0
 74
     0
  7

 75
     0
 76
     0
 77
     2
 78
   300
147
0.0095238095240884
148
-0.0000003124201612
149
0.0
100
AcDbLayout
  1
Model
 70
     1
 71
     0
 10
0.0
 20
0.0
 11
840.0
 21
594.0
 12
0.0
 22
0.0
 32
0.0
 14
0.0
 24
0.0
 34
0.0
 15
840.0
 25
594.0
 35
0.0
146
0.0
 13
0.0
 23
0.0
 33
0.0
 16
1.0
 26
0.0
 36
0.0
 17
0.0
 27
1.0
 37
0.0
 76
     0
330
1F
331
1F4
  0
MATERIAL
  5
654
102
{ACAD_REACTORS
330
652
102
}
330
652
100
AcDbMaterial
  1
ByBlock
 72
     1
 94
      127
  0
MATERIAL
  5
653
102
{ACAD_REACTORS
330
652
102
}
330
652
100
AcDbMaterial
  1
ByLayer
 72
     1
 94
      127
  0
MATERIAL
  5
655
102
{ACAD_REACTORS
330
652
102
}
330
652
100
AcDbMaterial
  1
Global
 72
     1
 94
      127
  0
MLEADERSTYLE
  5
659
102
{ACAD_REACTORS
330
658
102
}
330
658
100
AcDbMLeaderStyle
179
     2
170
     2
171
     1
172
     0
 90
        2
 40
0.0
 41
0.0
173
     1
 91
-1056964608
340
14
 92
       -2
290
     1
 42
2.0
291
     1
 43
8.0
  3
Standard
341
0
 44
4.0
300

342
11
174
     1
178
     1
175
     1
176
     0
 93
-1056964608
 45
4.0
292
     0
297
     0
 46
4.0
343
0
 94
-1056964608
 47
1.0
 49
1.0
140
1.0
293
     1
141
0.0
294
     1
177
     0
142
1.0
295
     0
296
     0
143
3.75
271
     0
272
     9
273
     9
298
     0
  0
MLINESTYLE
  5
610
102
{ACAD_REACTORS
330
60F
102
}
330
60F
100
AcDbMlineStyle
  2
STANDARD
 70
     0
  3

 62
   256
 51
90.0
 52
90.0
 71
     2
 49
0.5
 62
   256
  6
BYLAYER
 49
-0.5
 62
   256
  6
BYLAYER
  0
ACDBPLACEHOLDER
  5
613
102
{ACAD_REACTORS
330
612
102
}
330
612
  0
SCALE
  5
615
102
{ACAD_REACTORS
330
614
102
}
330
614
100
AcDbScale
 70
     0
300
1:1
140
1.0
141
1.0
290
     1
  0
SCALE
  5
616
102
{ACAD_REACTORS
330
614
102
}
330
614
100
AcDbScale
 70
     0
300
1:2
140
1.0
141
2.0
290
     0
  0
SCALE
  5
617
102
{ACAD_REACTORS
330
614
102
}
330
614
100
AcDbScale
 70
     0
300
1:4
140
1.0
141
4.0
290
     0
  0
SCALE
  5
618
102
{ACAD_REACTORS
330
614
102
}
330
614
100
AcDbScale
 70
     0
300
1:5
140
1.0
141
5.0
290
     0
  0
SCALE
  5
619
102
{ACAD_REACTORS
330
614
102
}
330
614
100
AcDbScale
 70
     0
300
1:8
140
1.0
141
8.0
290
     0
  0
SCALE
  5
61A
102
{ACAD_REACTORS
330
614
102
}
330
614
100
AcDbScale
 70
     0
300
1:10
140
1.0
141
10.0
290
     0
  0
SCALE
  5
61B
102
{ACAD_REACTORS
330
614
102
}
330
614
100
AcDbScale
 70
     0
300
1:16
140
1.0
141
16.0
290
     0
  0
SCALE
  5
61C
102
{ACAD_REACTORS
330
614
102
}
330
614
100
AcDbScale
 70
     0
300
1:20
140
1.0
141
20.0
290
     0
  0
SCALE
  5
61D
102
{ACAD_REACTORS
330
614
102
}
330
614
100
AcDbScale
 70
     0
300
1:30
140
1.0
141
30.0
290
     0
  0
SCALE
  5
61E
102
{ACAD_REACTORS
330
614
102
}
330
614
100
AcDbScale
 70
     0
300
1:40
140
1.0
141
40.0
290
     0
  0
SCALE
  5
61F
102
{ACAD_REACTORS
330
614
102
}
330
614
100
AcDbScale
 70
     0
300
1:50
140
1.0
141
50.0
290
     0
  0
SCALE
  5
620
102
{ACAD_REACTORS
330
614
102
}
330
614
100
AcDbScale
 70
     0
300
1:100
140
1.0
141
100.0
290
     0
  0
SCALE
  5
621
102
{ACAD_REACTORS
330
614
102
}
330
614
100
AcDbScale
 70
     0
300
2:1
140
2.0
141
1.0
290
     0
  0
SCALE
  5
622
102
{ACAD_REACTORS
330
614
102
}
330
614
100
AcDbScale
 70
     0
300
4:1
140
4.0
141
1.0
290
     0
  0
SCALE
  5
623
102
{ACAD_REACTORS
330
614
102
}
330
614
100
AcDbScale
 70
     0
300
8:1
140
8.0
141
1.0
290
     0
  0
SCALE
  5
624
102
{ACAD_REACTORS
330
614
102
}
330
614
100
AcDbScale
 70
     0
300
10:1
140
10.0
141
1.0
290
     0
  0
SCALE
  5
625
102
{ACAD_REACTORS
330
614
102
}
330
614
100
AcDbScale
 70
     0
300
100:1
140
100.0
141
1.0
290
     0
  0
SCALE
  5
626
102
{ACAD_REACTORS
330
614
102
}
330
614
100
AcDbScale
 70
     0
300
1/128" = 1'-0"
140
0.0078125
141
12.0
290
     0
  0
SCALE
  5
627
102
{ACAD_REACTORS
330
614
102
}
330
614
100
AcDbScale
 70
     0
300
1/64" = 1'-0"
140
0.015625
141
12.0
290
     0
  0
SCALE
  5
628
102
{ACAD_REACTORS
330
614
102
}
330
614
100
AcDbScale
 70
     0
300
1/32" = 1'-0"
140
0.03125
141
12.0
290
     0
  0
SCALE
  5
629
102
{ACAD_REACTORS
330
614
102
}
330
614
100
AcDbScale
 70
     0
300
1/16" = 1'-0"
140
0.0625
141
12.0
290
     0
  0
SCALE
  5
62A
102
{ACAD_REACTORS
330
614
102
}
330
614
100
AcDbScale
 70
     0
300
3/32" = 1'-0"
140
0.09375
141
12.0
290
     0
  0
SCALE
  5
62B
102
{ACAD_REACTORS
330
614
102
}
330
614
100
AcDbScale
 70
     0
300
1/8" = 1'-0"
140
0.125
141
12.0
290
     0
  0
SCALE
  5
62C
102
{ACAD_REACTORS
330
614
102
}
330
614
100
AcDbScale
 70
     0
300
3/16" = 1'-0"
140
0.1875
141
12.0
290
     0
  0
SCALE
  5
62D
102
{ACAD_REACTORS
330
614
102
}
330
614
100
AcDbScale
 70
     0
300
1/4" = 1'-0"
140
0.25
141
12.0
290
     0
  0
SCALE
  5
62E
102
{ACAD_REACTORS
330
614
102
}
330
614
100
AcDbScale
 70
     0
300
3/8" = 1'-0"
140
0.375
141
12.0
290
     0
  0
SCALE
  5
62F
102
{ACAD_REACTORS
330
614
102
}
330
614
100
AcDbScale
 70
     0
300
1/2" = 1'-0"
140
0.5
141
12.0
290
     0
  0
SCALE
  5
630
102
{ACAD_REACTORS
330
614
102
}
330
614
100
AcDbScale
 70
     0
300
3/4" = 1'-0"
140
0.75
141
12.0
290
     0
  0
SCALE
  5
631
102
{ACAD_REACTORS
330
614
102
}
330
614
100
AcDbScale
 70
     0
300
1" = 1'-0"
140
1.0
141
12.0
290
     0
  0
SCALE
  5
632
102
{ACAD_REACTORS
330
614
102
}
330
614
100
AcDbScale
 70
     0
300
1-1/2" = 1'-0"
140
1.5
141
12.0
290
     0
  0
SCALE
  5
633
102
{ACAD_REACTORS
330
614
102
}
330
614
100
AcDbScale
 70
     0
300
3" = 1'-0"
140
3.0
141
12.0
290
     0
  0
SCALE
  5
634
102
{ACAD_REACTORS
330
614
102
}
330
614
100
AcDbScale
 70
     0
300
6" = 1'-0"
140
6.0
141
12.0
290
     0
  0
SCALE
  5
635
102
{ACAD_REACTORS
330
614
102
}
330
614
100
AcDbScale
 70
     0
300
1'-0" = 1'-0"
140
12.0
141
12.0
290
     0
  0
TABLESTYLE
  5
657
102
{ACAD_REACTORS
330
656
102
}
102
{ACAD_XDICTIONARY
360
65D
102
}
330
656
100
AcDbTableStyle
  3
Standard
 70
     0
 71
     0
 40
0.06
 41
0.06
280
     0
281
     0
  7
STANDARD
140
4.5
170
     2
 62
     0
 63
   257
283
     0
 90
        4
 91
        0
  1

274
    -2
284
     1
 64
     0
275
    -2
285
     1
 65
     0
276
    -2
286
     1
 66
     0
277
    -2
287
     1
 67
     0
278
    -2
288
     1
 68
     0
279
    -2
289
     1
 69
     0
  7
STANDARD
140
6.0
170
     5
 62
     0
 63
   257
283
     0
 90
        4
 91
        0
  1

274
    -2
284
     1
 64
     0
275
    -2
285
     1
 65
     0
276
    -2
286
     1
 66
     0
277
    -2
287
     1
 67
     0
278
    -2
288
     1
 68
     0
279
    -2
289
     1
 69
     0
  7
STANDARD
140
4.5
170
     5
 62
     0
 63
   257
283
     0
 90
        4
 91
        0
  1

274
    -2
284
     1
 64
     0
275
    -2
285
     1
 65
     0
276
    -2
286
     1
 66
     0
277
    -2
287
     1
 67
     0
278
    -2
288
     1
 68
     0
279
    -2
289
     1
 69
     0
  0
VISUALSTYLE
  5
63E
102
{ACAD_REACTORS
330
639
102
}
330
639
100
AcDbVisualStyle
  2
2dWireframe
 70
     4
177
     3
291
     0
 70
    58
 90
        0
176
     1
 90
        2
176
     1
 90
        0
176
     1
 90
        0
176
     1
 40
0.6
176
     1
 40
30.0
176
     1
 62
     7
420
 16777215
176
     1
 90
        1
176
     1
 90
        4
176
     1
 62
     7
176
     1
 62
   257
176
     1
 90
        1
176
     1
 90
        1
176
     1
 40
1.0
176
     1
 90
        0
176
     1
 62
   257
176
     1
 40
1.0
176
     1
 90
        1
176
     1
 90
        6
176
     1
 90
        2
176
     1
 62
     7
176
     1
 90
        5
176
     1
 90
        0
176
     1
 90
        0
176
     1
290
     0
176
     1
 90
        1
176
     1
 40
0.0
176
     1
 90
        0
176
     1
290
     1
176
     1
290
     1
176
     1
290
     0
176
     1
290
     0
176
     1
290
     0
176
     1
290
     0
176
     1
290
     0
176
     1
290
     0
176
     1
290
     0
176
     1
 90
       50
176
     1
 40
0.0
176
     1
 40
1.0
176
     1
 90
        0
176
     1
 62
    18
420
        0
176
     1
 90
       50
176
     1
 90
        3
176
     1
 62
     5
420
      255
176
     1
290
     0
176
     1
 90
       50
176
     1
 90
       50
176
     1
 90
       50
176
     1
290
     0
176
     1
 90
       50
176
     1
 62
   256
176
     0
 40
1.0
176
     0
 90
        2
176
     1
  1
strokes_ogs.tif
176
     1
290
     0
176
     1
 40
1.0
176
     1
 40
1.0
176
     1
  0
VISUALSTYLE
  5
641
102
{ACAD_REACTORS
330
639
102
}
330
639
100
AcDbVisualStyle
  2
Basic
 70
     7
177
     3
291
     1
 70
    58
 90
        1
176
     1
 90
        0
176
     1
 90
        1
176
     1
 90
        0
176
     1
 40
0.6
176
     1
 40
30.0
176
     1
 62
     7
420
 16777215
176
     1
 90
        0
176
     1
 90
        4
176
     1
 62
     7
176
     1
 62
   257
176
     1
 90
        1
176
     1
 90
        1
176
     1
 40
1.0
176
     1
 90
        8
176
     1
 62
     7
176
     1
 40
1.0
176
     1
 90
        1
176
     1
 90
        6
176
     1
 90
        2
176
     1
 62
     7
176
     1
 90
        5
176
     1
 90
        0
176
     1
 90
        0
176
     1
290
     0
176
     1
 90
        1
176
     1
 40
0.0
176
     1
 90
        0
176
     1
290
     0
176
     1
290
     1
176
     1
290
     1
176
     1
290
     0
176
     1
290
     0
176
     1
290
     0
176
     1
290
     0
176
     1
290
     0
176
     1
290
     0
176
     1
 90
       50
176
     1
 40
0.0
176
     1
 40
1.0
176
     1
 90
        0
176
     1
 62
    18
420
        0
176
     1
 90
       50
176
     1
 90
        3
176
     1
 62
     5
420
      255
176
     1
290
     0
176
     1
 90
       50
176
     1
 90
       50
176
     1
 90
       50
176
     1
290
     0
176
     1
 90
       50
176
     1
 62
   256
176
     0
 40
1.0
176
     0
 90
        2
176
     1
  1
strokes_ogs.tif
176
     1
290
     0
176
     1
 40
1.0
176
     1
 40
1.0
176
     1
  0
VISUALSTYLE
  5
645
102
{ACAD_REACTORS
330
639
102
}
330
639
100
AcDbVisualStyle
  2
Brighten
 70
    12
177
     3
291
     1
 70
    58
 90
        2
176
     1
 90
        2
176
     1
 90
        0
176
     1
 90
        0
176
     1
 40
0.6
176
     1
 40
30.0
176
     1
 62
     7
420
 16777215
176
     1
 90
        1
176
     1
 90
        4
176
     1
 62
     7
176
     1
 62
   257
176
     1
 90
        1
176
     1
 90
        1
176
     1
 40
1.0
176
     1
 90
        8
176
     1
 62
     7
176
     1
 40
1.0
176
     1
 90
        1
176
     1
 90
        6
176
     1
 90
        2
176
     1
 62
     7
176
     1
 90
        5
176
     1
 90
        0
176
     1
 90
        0
176
     1
290
     0
176
     1
 90
        1
176
     1
 40
50.0
176
     1
 90
        0
176
     1
290
     0
176
     1
290
     1
176
     1
290
     1
176
     1
290
     0
176
     1
290
     0
176
     1
290
     0
176
     1
290
     0
176
     1
290
     0
176
     1
290
     0
176
     1
 90
       50
176
     1
 40
0.0
176
     1
 40
1.0
176
     1
 90
        0
176
     1
 62
    18
420
        0
176
     1
 90
       50
176
     1
 90
        3
176
     1
 62
     5
420
      255
176
     1
290
     0
176
     1
 90
       50
176
     1
 90
       50
176
     1
 90
       50
176
     1
290
     0
176
     1
 90
       50
176
     1
 62
   256
176
     0
 40
1.0
176
     0
 90
        2
176
     1
  1
strokes_ogs.tif
176
     1
290
     0
176
     1
 40
1.0
176
     1
 40
1.0
176
     1
  0
VISUALSTYLE
  5
649
102
{ACAD_REACTORS
330
639
102
}
330
639
100
AcDbVisualStyle
  2
ColorChange
 70
    16
177
     3
291
     1
 70
    58
 90
        2
176
     1
 90
        2
176
     1
 90
        3
176
     1
 90
        0
176
     1
 40
0.6
176
     1
 40
30.0
176
     1
 62
     8
420
  8421504
176
     1
 90
        1
176
     1
 90
        4
176
     1
 62
     7
176
     1
 62
   257
176
     1
 90
        1
176
     1
 90
        1
176
     1
 40
1.0
176
     1
 90
        8
176
     1
 62
     8
420
  8421504
176
     1
 40
1.0
176
     1
 90
        1
176
     1
 90
        6
176
     1
 90
        2
176
     1
 62
     7
176
     1
 90
        5
176
     1
 90
        0
176
     1
 90
        0
176
     1
290
     0
176
     1
 90
        1
176
     1
 40
0.0
176
     1
 90
        0
176
     1
290
     0
176
     1
290
     1
176
     1
290
     1
176
     1
290
     0
176
     1
290
     0
176
     1
290
     0
176
     1
290
     0
176
     1
290
     0
176
     1
290
     0
176
     1
 90
       50
176
     1
 40
0.0
176
     1
 40
1.0
176
     1
 90
        0
176
     1
 62
    18
420
        0
176
     1
 90
       50
176
     1
 90
        3
176
     1
 62
     5
420
      255
176
     1
290
     0
176
     1
 90
       50
176
     1
 90
       50
176
     1
 90
       50
176
     1
290
     0
176
     1
 90
       50
176
     1
 62
   256
176
     0
 40
1.0
176
     0
 90
        2
176
     1
  1
strokes_ogs.tif
176
     1
290
     0
176
     1
 40
1.0
176
     1
 40
1.0
176
     1
  0
VISUALSTYLE
  5
643
102
{ACAD_REACTORS
330
639
102
}
330
639
100
AcDbVisualStyle
  2
Conceptual
 70
     9
177
     3
291
     0
 70
    58
 90
        3
176
     1
 90
        2
176
     1
 90
        0
176
     1
 90
        0
176
     1
 40
0.6
176
     1
 40
30.0
176
     1
 62
     7
420
 16777215
176
     1
 90
        2
176
     1
 90
        2
176
     1
 62
     7
176
     1
 62
   257
176
     1
 90
        1
176
     1
 90
        1
176
     1
 40
179.0
176
     1
 90
        8
176
     1
 62
     7
176
     1
 40
1.0
176
     1
 90
        1
176
     1
 90
        6
176
     1
 90
        2
176
     1
 62
     7
176
     1
 90
        3
176
     1
 90
        0
176
     1
 90
        0
176
     1
290
     0
176
     1
 90
        1
176
     1
 40
0.0
176
     1
 90
        0
176
     1
290
     0
176
     1
290
     1
176
     1
290
     1
176
     1
290
     0
176
     1
290
     0
176
     1
290
     0
176
     1
290
     0
176
     1
290
     0
176
     1
290
     0
176
     1
 90
       50
176
     1
 40
0.0
176
     1
 40
1.0
176
     1
 90
        0
176
     1
 62
    18
420
        0
176
     1
 90
       50
176
     1
 90
        3
176
     1
 62
     5
420
      255
176
     1
290
     0
176
     1
 90
       50
176
     1
 90
       50
176
     1
 90
       50
176
     1
290
     0
176
     1
 90
       50
176
     1
 62
   256
176
     0
 40
1.0
176
     0
 90
        2
176
     1
  1
strokes_ogs.tif
176
     1
290
     0
176
     1
 40
1.0
176
     1
 40
1.0
176
     1
  0
VISUALSTYLE
  5
644
102
{ACAD_REACTORS
330
639
102
}
330
639
100
AcDbVisualStyle
  2
Dim
 70
    11
177
     3
291
     1
 70
    58
 90
        2
176
     1
 90
        2
176
     1
 90
        0
176
     1
 90
        0
176
     1
 40
0.6
176
     1
 40
30.0
176
     1
 62
     7
420
 16777215
176
     1
 90
        1
176
     1
 90
        4
176
     1
 62
     7
176
     1
 62
   257
176
     1
 90
        1
176
     1
 90
        1
176
     1
 40
1.0
176
     1
 90
        8
176
     1
 62
     7
176
     1
 40
1.0
176
     1
 90
        1
176
     1
 90
        6
176
     1
 90
        2
176
     1
 62
     7
176
     1
 90
        5
176
     1
 90
        0
176
     1
 90
        0
176
     1
290
     0
176
     1
 90
        1
176
     1
 40
-50.0
176
     1
 90
        0
176
     1
290
     0
176
     1
290
     1
176
     1
290
     1
176
     1
290
     0
176
     1
290
     0
176
     1
290
     0
176
     1
290
     0
176
     1
290
     0
176
     1
290
     0
176
     1
 90
       50
176
     1
 40
0.0
176
     1
 40
1.0
176
     1
 90
        0
176
     1
 62
    18
420
        0
176
     1
 90
       50
176
     1
 90
        3
176
     1
 62
     5
420
      255
176
     1
290
     0
176
     1
 90
       50
176
     1
 90
       50
176
     1
 90
       50
176
     1
290
     0
176
     1
 90
       50
176
     1
 62
   256
176
     0
 40
1.0
176
     0
 90
        2
176
     1
  1
strokes_ogs.tif
176
     1
290
     0
176
     1
 40
1.0
176
     1
 40
1.0
176
     1
  0
VISUALSTYLE
  5
64C
102
{ACAD_REACTORS
330
639
102
}
330
639
100
AcDbVisualStyle
  2
EdgeColorOff
 70
    22
177
     3
291
     1
 70
    58
 90
        2
176
     0
 90
        2
176
     0
 90
        0
176
     0
 90
        0
176
     0
 40
0.6
176
     0
 40
30.0
176
     0
 62
     7
420
 16777215
176
     0
 90
        1
176
     0
 90
        4
176
     0
 62
     7
176
     0
 62
   257
176
     0
 90
        1
176
     0
 90
        1
176
     0
 40
1.0
176
     0
 90
        8
176
     2
 62
     7
176
     0
 40
1.0
176
     0
 90
        1
176
     0
 90
        6
176
     0
 90
        2
176
     0
 62
     7
176
     0
 90
        5
176
     0
 90
        0
176
     0
 90
        0
176
     0
290
     0
176
     0
 90
        1
176
     0
 40
0.0
176
     0
 90
        0
176
     0
290
     0
176
     0
290
     1
176
     0
290
     1
176
     0
290
     0
176
     0
290
     0
176
     0
290
     0
176
     0
290
     0
176
     0
290
     0
176
     0
290
     0
176
     0
 90
       50
176
     0
 40
0.0
176
     0
 40
1.0
176
     0
 90
        0
176
     0
 62
    18
420
        0
176
     0
 90
       50
176
     0
 90
        3
176
     0
 62
     5
420
      255
176
     0
290
     0
176
     0
 90
       50
176
     0
 90
       50
176
     0
 90
       50
176
     0
290
     0
176
     0
 90
       50
176
     0
 62
   256
176
     0
 40
1.0
176
     0
 90
        2
176
     0
  1
strokes_ogs.tif
176
     0
290
     0
176
     0
 40
1.0
176
     0
 40
1.0
176
     0
  0
VISUALSTYLE
  5
648
102
{ACAD_REACTORS
330
639
102
}
330
639
100
AcDbVisualStyle
  2
Facepattern
 70
    15
177
     3
291
     1
 70
    58
 90
        2
176
     1
 90
        2
176
     1
 90
        0
176
     1
 90
        0
176
     1
 40
0.6
176
     1
 40
30.0
176
     1
 62
     7
420
 16777215
176
     1
 90
        1
176
     1
 90
        4
176
     1
 62
     7
176
     1
 62
   257
176
     1
 90
        1
176
     1
 90
        1
176
     1
 40
1.0
176
     1
 90
        8
176
     1
 62
     7
176
     1
 40
1.0
176
     1
 90
        1
176
     1
 90
        6
176
     1
 90
        2
176
     1
 62
     7
176
     1
 90
        5
176
     1
 90
        0
176
     1
 90
        0
176
     1
290
     0
176
     1
 90
        1
176
     1
 40
0.0
176
     1
 90
        0
176
     1
290
     0
176
     1
290
     1
176
     1
290
     1
176
     1
290
     0
176
     1
290
     0
176
     1
290
     0
176
     1
290
     0
176
     1
290
     0
176
     1
290
     0
176
     1
 90
       50
176
     1
 40
0.0
176
     1
 40
1.0
176
     1
 90
        0
176
     1
 62
    18
420
        0
176
     1
 90
       50
176
     1
 90
        3
176
     1
 62
     5
420
      255
176
     1
290
     0
176
     1
 90
       50
176
     1
 90
       50
176
     1
 90
       50
176
     1
290
     0
176
     1
 90
       50
176
     1
 62
   256
176
     0
 40
1.0
176
     0
 90
        2
176
     1
  1
strokes_ogs.tif
176
     1
290
     0
176
     1
 40
1.0
176
     1
 40
1.0
176
     1
  0
VISUALSTYLE
  5
63A
102
{ACAD_REACTORS
330
639
102
}
330
639
100
AcDbVisualStyle
  2
Flat
 70
     0
177
     3
291
     1
 70
    58
 90
        2
176
     1
 90
        1
176
     1
 90
        1
176
     1
 90
        2
176
     1
 40
0.6
176
     1
 40
30.0
176
     1
 62
     7
420
 16777215
176
     1
 90
        0
176
     1
 90
        0
176
     1
 62
     7
176
     1
 62
   257
176
     1
 90
        1
176
     1
 90
        1
176
     1
 40
1.0
176
     1
 90
        8
176
     1
 62
     7
176
     1
 40
1.0
176
     1
 90
        1
176
     1
 90
        6
176
     1
 90
        2
176
     1
 62
     7
176
     1
 90
        5
176
     1
 90
        0
176
     1
 90
        0
176
     1
290
     0
176
     1
 90
       13
176
     1
 40
0.0
176
     1
 90
        0
176
     1
290
     0
176
     1
290
     1
176
     1
290
     1
176
     1
290
     0
176
     1
290
     0
176
     1
290
     0
176
     1
290
     0
176
     1
290
     0
176
     1
290
     0
176
     1
 90
       50
176
     1
 40
0.0
176
     1
 40
1.0
176
     1
 90
        0
176
     1
 62
    18
420
        0
176
     1
 90
       50
176
     1
 90
        3
176
     1
 62
     5
420
      255
176
     1
290
     0
176
     1
 90
       50
176
     1
 90
       50
176
     1
 90
       50
176
     1
290
     0
176
     1
 90
       50
176
     1
 62
   256
176
     0
 40
1.0
176
     0
 90
        2
176
     1
  1
strokes_ogs.tif
176
     1
290
     0
176
     1
 40
1.0
176
     1
 40
1.0
176
     1
  0
VISUALSTYLE
  5
63B
102
{ACAD_REACTORS
330
639
102
}
330
639
100
AcDbVisualStyle
  2
FlatWithEdges
 70
     1
177
     3
291
     1
 70
    58
 90
        2
176
     1
 90
        1
176
     1
 90
        1
176
     1
 90
        2
176
     1
 40
0.6
176
     1
 40
30.0
176
     1
 62
     7
420
 16777215
176
     1
 90
        1
176
     1
 90
        0
176
     1
 62
     7
176
     1
 62
   257
176
     1
 90
        1
176
     1
 90
        1
176
     1
 40
1.0
176
     1
 90
        0
176
     1
 62
   257
176
     1
 40
1.0
176
     1
 90
        1
176
     1
 90
        6
176
     1
 90
        2
176
     1
 62
     7
176
     1
 90
        5
176
     1
 90
        0
176
     1
 90
        0
176
     1
290
     0
176
     1
 90
       13
176
     1
 40
0.0
176
     1
 90
        0
176
     1
290
     0
176
     1
290
     1
176
     1
290
     1
176
     1
290
     0
176
     1
290
     0
176
     1
290
     0
176
     1
290
     0
176
     1
290
     0
176
     1
290
     0
176
     1
 90
       50
176
     1
 40
0.0
176
     1
 40
1.0
176
     1
 90
        0
176
     1
 62
    18
420
        0
176
     1
 90
       50
176
     1
 90
        3
176
     1
 62
     5
420
      255
176
     1
290
     0
176
     1
 90
       50
176
     1
 90
       50
176
     1
 90
       50
176
     1
290
     0
176
     1
 90
       50
176
     1
 62
   256
176
     0
 40
1.0
176
     0
 90
        2
176
     1
  1
strokes_ogs.tif
176
     1
290
     0
176
     1
 40
1.0
176
     1
 40
1.0
176
     1
  0
VISUALSTYLE
  5
63C
102
{ACAD_REACTORS
330
639
102
}
330
639
100
AcDbVisualStyle
  2
Gouraud
 70
     2
177
     3
291
     1
 70
    58
 90
        2
176
     1
 90
        2
176
     1
 90
        1
176
     1
 90
        2
176
     1
 40
0.6
176
     1
 40
30.0
176
     1
 62
     7
420
 16777215
176
     1
 90
        0
176
     1
 90
        0
176
     1
 62
     7
176
     1
 62
   257
176
     1
 90
        1
176
     1
 90
        1
176
     1
 40
1.0
176
     1
 90
        0
176
     1
 62
     7
176
     1
 40
1.0
176
     1
 90
        1
176
     1
 90
        6
176
     1
 90
        2
176
     1
 62
     7
176
     1
 90
        5
176
     1
 90
        0
176
     1
 90
        0
176
     1
290
     0
176
     1
 90
       13
176
     1
 40
0.0
176
     1
 90
        0
176
     1
290
     0
176
     1
290
     1
176
     1
290
     1
176
     1
290
     0
176
     1
290
     0
176
     1
290
     0
176
     1
290
     0
176
     1
290
     0
176
     1
290
     0
176
     1
 90
       50
176
     1
 40
0.0
176
     1
 40
1.0
176
     1
 90
        0
176
     1
 62
    18
420
        0
176
     1
 90
       50
176
     1
 90
        3
176
     1
 62
     5
420
      255
176
     1
290
     0
176
     1
 90
       50
176
     1
 90
       50
176
     1
 90
       50
176
     1
290
     0
176
     1
 90
       50
176
     1
 62
   256
176
     0
 40
1.0
176
     0
 90
        2
176
     1
  1
strokes_ogs.tif
176
     1
290
     0
176
     1
 40
1.0
176
     1
 40
1.0
176
     1
  0
VISUALSTYLE
  5
63D
102
{ACAD_REACTORS
330
639
102
}
330
639
100
AcDbVisualStyle
  2
GouraudWithEdges
 70
     3
177
     3
291
     1
 70
    58
 90
        2
176
     1
 90
        2
176
     1
 90
        1
176
     1
 90
        2
176
     1
 40
0.6
176
     1
 40
30.0
176
     1
 62
     7
420
 16777215
176
     1
 90
        1
176
     1
 90
        0
176
     1
 62
     7
176
     1
 62
   257
176
     1
 90
        1
176
     1
 90
        1
176
     1
 40
1.0
176
     1
 90
        0
176
     1
 62
   257
176
     1
 40
1.0
176
     1
 90
        1
176
     1
 90
        6
176
     1
 90
        2
176
     1
 62
     7
176
     1
 90
        5
176
     1
 90
        0
176
     1
 90
        0
176
     1
290
     0
176
     1
 90
       13
176
     1
 40
0.0
176
     1
 90
        0
176
     1
290
     0
176
     1
290
     1
176
     1
290
     1
176
     1
290
     0
176
     1
290
     0
176
     1
290
     0
176
     1
290
     0
176
     1
290
     0
176
     1
290
     0
176
     1
 90
       50
176
     1
 40
0.0
176
     1
 40
1.0
176
     1
 90
        0
176
     1
 62
    18
420
        0
176
     1
 90
       50
176
     1
 90
        3
176
     1
 62
     5
420
      255
176
     1
290
     0
176
     1
 90
       50
176
     1
 90
       50
176
     1
 90
       50
176
     1
290
     0
176
     1
 90
       50
176
     1
 62
   256
176
     0
 40
1.0
176
     0
 90
        2
176
     1
  1
strokes_ogs.tif
176
     1
290
     0
176
     1
 40
1.0
176
     1
 40
1.0
176
     1
  0
VISUALSTYLE
  5
640
102
{ACAD_REACTORS
330
639
102
}
330
639
100
AcDbVisualStyle
  2
Hidden
 70
     6
177
     3
291
     0
 70
    58
 90
        1
176
     1
 90
        2
176
     1
 90
        2
176
     1
 90
        0
176
     1
 40
0.6
176
     1
 40
30.0
176
     1
 62
     7
420
 16777215
176
     1
 90
        2
176
     1
 90
        2
176
     1
 62
     7
176
     1
 62
   257
176
     1
 90
        2
176
     1
 90
        1
176
     1
 40
40.0
176
     1
 90
        0
176
     1
 62
   257
176
     1
 40
1.0
176
     1
 90
        1
176
     1
 90
        6
176
     1
 90
        2
176
     1
 62
     7
176
     1
 90
        3
176
     1
 90
        0
176
     1
 90
        0
176
     1
290
     0
176
     1
 90
        1
176
     1
 40
0.0
176
     1
 90
        0
176
     1
290
     0
176
     1
290
     1
176
     1
290
     1
176
     1
290
     0
176
     1
290
     0
176
     1
290
     0
176
     1
290
     0
176
     1
290
     0
176
     1
290
     0
176
     1
 90
       50
176
     1
 40
0.0
176
     1
 40
1.0
176
     1
 90
        0
176
     1
 62
    18
420
        0
176
     1
 90
       50
176
     1
 90
        3
176
     1
 62
     5
420
      255
176
     1
290
     0
176
     1
 90
       50
176
     1
 90
       50
176
     1
 90
       50
176
     1
290
     0
176
     1
 90
       50
176
     1
 62
   256
176
     0
 40
1.0
176
     0
 90
        2
176
     1
  1
strokes_ogs.tif
176
     1
290
     0
176
     1
 40
1.0
176
     1
 40
1.0
176
     1
  0
VISUALSTYLE
  5
64A
102
{ACAD_REACTORS
330
639
102
}
330
639
100
AcDbVisualStyle
  2
JitterOff
 70
    20
177
     3
291
     1
 70
    58
 90
        2
176
     0
 90
        2
176
     0
 90
        0
176
     0
 90
        0
176
     0
 40
0.6
176
     0
 40
30.0
176
     0
 62
     7
420
 16777215
176
     0
 90
        1
176
     0
 90
        4
176
     0
 62
     7
176
     0
 62
   257
176
     0
 90
        1
176
     0
 90
        1
176
     0
 40
1.0
176
     0
 90
       10
176
     2
 62
     7
176
     0
 40
1.0
176
     0
 90
        1
176
     0
 90
        6
176
     0
 90
        2
176
     0
 62
     7
176
     0
 90
        5
176
     0
 90
        0
176
     0
 90
        0
176
     0
290
     0
176
     0
 90
        1
176
     0
 40
0.0
176
     0
 90
        0
176
     0
290
     0
176
     0
290
     1
176
     0
290
     1
176
     0
290
     0
176
     0
290
     0
176
     0
290
     0
176
     0
290
     0
176
     0
290
     0
176
     0
290
     0
176
     0
 90
       50
176
     0
 40
0.0
176
     0
 40
1.0
176
     0
 90
        0
176
     0
 62
    18
420
        0
176
     0
 90
       50
176
     0
 90
        3
176
     0
 62
     5
420
      255
176
     0
290
     0
176
     0
 90
       50
176
     0
 90
       50
176
     0
 90
       50
176
     0
290
     0
176
     0
 90
       50
176
     0
 62
   256
176
     0
 40
1.0
176
     0
 90
        2
176
     0
  1
strokes_ogs.tif
176
     0
290
     0
176
     0
 40
1.0
176
     0
 40
1.0
176
     0
  0
VISUALSTYLE
  5
647
102
{ACAD_REACTORS
330
639
102
}
330
639
100
AcDbVisualStyle
  2
Linepattern
 70
    14
177
     3
291
     1
 70
    58
 90
        2
176
     1
 90
        2
176
     1
 90
        0
176
     1
 90
        0
176
     1
 40
0.6
176
     1
 40
30.0
176
     1
 62
     7
420
 16777215
176
     1
 90
        1
176
     1
 90
        4
176
     1
 62
     7
176
     1
 62
   257
176
     1
 90
        7
176
     1
 90
        7
176
     1
 40
1.0
176
     1
 90
        8
176
     1
 62
     7
176
     1
 40
1.0
176
     1
 90
        1
176
     1
 90
        6
176
     1
 90
        2
176
     1
 62
     7
176
     1
 90
        5
176
     1
 90
        0
176
     1
 90
        0
176
     1
290
     0
176
     1
 90
        1
176
     1
 40
0.0
176
     1
 90
        0
176
     1
290
     0
176
     1
290
     1
176
     1
290
     1
176
     1
290
     0
176
     1
290
     0
176
     1
290
     0
176
     1
290
     0
176
     1
290
     0
176
     1
290
     0
176
     1
 90
       50
176
     1
 40
0.0
176
     1
 40
1.0
176
     1
 90
        0
176
     1
 62
    18
420
        0
176
     1
 90
       50
176
     1
 90
        3
176
     1
 62
     5
420
      255
176
     1
290
     0
176
     1
 90
       50
176
     1
 90
       50
176
     1
 90
       50
176
     1
290
     0
176
     1
 90
       50
176
     1
 62
   256
176
     0
 40
1.0
176
     0
 90
        2
176
     1
  1
strokes_ogs.tif
176
     1
290
     0
176
     1
 40
1.0
176
     1
 40
1.0
176
     1
  0
VISUALSTYLE
  5
64B
102
{ACAD_REACTORS
330
639
102
}
330
639
100
AcDbVisualStyle
  2
OverhangOff
 70
    21
177
     3
291
     1
 70
    58
 90
        2
176
     0
 90
        2
176
     0
 90
        0
176
     0
 90
        0
176
     0
 40
0.6
176
     0
 40
30.0
176
     0
 62
     7
420
 16777215
176
     0
 90
        1
176
     0
 90
        4
176
     0
 62
     7
176
     0
 62
   257
176
     0
 90
        1
176
     0
 90
        1
176
     0
 40
1.0
176
     0
 90
        9
176
     2
 62
     7
176
     0
 40
1.0
176
     0
 90
        1
176
     0
 90
        6
176
     0
 90
        2
176
     0
 62
     7
176
     0
 90
        5
176
     0
 90
        0
176
     0
 90
        0
176
     0
290
     0
176
     0
 90
        1
176
     0
 40
0.0
176
     0
 90
        0
176
     0
290
     0
176
     0
290
     1
176
     0
290
     1
176
     0
290
     0
176
     0
290
     0
176
     0
290
     0
176
     0
290
     0
176
     0
290
     0
176
     0
290
     0
176
     0
 90
       50
176
     0
 40
0.0
176
     0
 40
1.0
176
     0
 90
        0
176
     0
 62
    18
420
        0
176
     0
 90
       50
176
     0
 90
        3
176
     0
 62
     5
420
      255
176
     0
290
     0
176
     0
 90
       50
176
     0
 90
       50
176
     0
 90
       50
176
     0
290
     0
176
     0
 90
       50
176
     0
 62
   256
176
     0
 40
1.0
176
     0
 90
        2
176
     0
  1
strokes_ogs.tif
176
     0
290
     0
176
     0
 40
1.0
176
     0
 40
1.0
176
     0
  0
VISUALSTYLE
  5
642
102
{ACAD_REACTORS
330
639
102
}
330
639
100
AcDbVisualStyle
  2
Realistic
 70
     8
177
     3
291
     0
 70
    58
 90
        2
176
     1
 90
        3
176
     1
 90
        0
176
     1
 90
        2
176
     1
 40
0.6
176
     1
 40
30.0
176
     1
 62
     7
420
 16777215
176
     1
 90
        0
176
     1
 90
        0
176
     1
 62
     7
176
     1
 62
   257
176
     1
 90
        1
176
     1
 90
        1
176
     1
 40
1.0
176
     1
 90
        8
176
     1
 62
   257
176
     1
 40
1.0
176
     1
 90
        1
176
     1
 90
        6
176
     1
 90
        2
176
     1
 62
     7
176
     1
 90
        3
176
     1
 90
        0
176
     1
 90
        0
176
     1
290
     0
176
     1
 90
       13
176
     1
 40
0.0
176
     1
 90
        0
176
     1
290
     0
176
     1
290
     1
176
     1
290
     1
176
     1
290
     0
176
     1
290
     0
176
     1
290
     0
176
     1
290
     0
176
     1
290
     0
176
     1
290
     0
176
     1
 90
       50
176
     1
 40
0.0
176
     1
 40
1.0
176
     1
 90
        0
176
     1
 62
    18
420
        0
176
     1
 90
       50
176
     1
 90
        3
176
     1
 62
     5
420
      255
176
     1
290
     0
176
     1
 90
       50
176
     1
 90
       50
176
     1
 90
       50
176
     1
290
     0
176
     1
 90
       50
176
     1
 62
   256
176
     0
 40
1.0
176
     0
 90
        2
176
     1
  1
strokes_ogs.tif
176
     1
290
     0
176
     1
 40
1.0
176
     1
 40
1.0
176
     1
  0
VISUALSTYLE
  5
651
102
{ACAD_REACTORS
330
639
102
}
330
639
100
AcDbVisualStyle
  2
Shaded
 70
    27
177
     3
291
     0
 70
    58
 90
        2
176
     1
 90
        2
176
     1
 90
        1
176
     1
 90
        2
176
     1
 40
0.6
176
     1
 40
30.0
176
     1
 62
     7
420
 16777215
176
     1
 90
        0
176
     1
 90
        4
176
     1
 62
     7
176
     1
 62
   257
176
     1
 90
        1
176
     1
 90
        1
176
     1
 40
1.0
176
     1
 90
        8
176
     1
 62
   257
176
     1
 40
1.0
176
     1
 90
        1
176
     1
 90
        6
176
     1
 90
        2
176
     1
 62
     8
420
  7895160
176
     1
 90
        3
176
     1
 90
        0
176
     1
 90
        0
176
     1
290
     0
176
     1
 90
        5
176
     1
 40
0.0
176
     1
 90
        0
176
     1
290
     0
176
     1
290
     1
176
     1
290
     1
176
     1
290
     0
176
     1
290
     0
176
     1
290
     0
176
     1
290
     0
176
     1
290
     0
176
     1
290
     0
176
     1
 90
       50
176
     1
 40
0.0
176
     1
 40
1.0
176
     1
 90
        0
176
     1
 62
    18
420
        0
176
     1
 90
       50
176
     1
 90
        3
176
     1
 62
     5
420
      255
176
     1
290
     0
176
     1
 90
       50
176
     1
 90
       50
176
     1
 90
       50
176
     1
290
     0
176
     1
 90
       50
176
     1
 62
   256
176
     0
 40
1.0
176
     0
 90
        2
176
     1
  1
strokes_ogs.tif
176
     1
290
     0
176
     1
 40
1.0
176
     1
 40
1.0
176
     1
  0
VISUALSTYLE
  5
650
102
{ACAD_REACTORS
330
639
102
}
330
639
100
AcDbVisualStyle
  2
Shaded with edges
 70
    26
177
     3
291
     0
 70
    58
 90
        2
176
     1
 90
        2
176
     1
 90
        1
176
     1
 90
        2
176
     1
 40
0.6
176
     1
 40
30.0
176
     1
 62
     7
420
 16777215
176
     1
 90
        1
176
     1
 90
       10
176
     1
 62
     7
176
     1
 62
   257
176
     1
 90
        2
176
     1
 90
        1
176
     1
 40
1.0
176
     1
 90
        8
176
     1
 62
   257
176
     1
 40
1.0
176
     1
 90
        1
176
     1
 90
        6
176
     1
 90
        2
176
     1
 62
     7
176
     1
 90
        3
176
     1
 90
        0
176
     1
 90
        0
176
     1
290
     0
176
     1
 90
        5
176
     1
 40
0.0
176
     1
 90
        0
176
     1
290
     0
176
     1
290
     1
176
     1
290
     1
176
     1
290
     0
176
     1
290
     0
176
     1
290
     0
176
     1
290
     0
176
     1
290
     0
176
     1
290
     0
176
     1
 90
       50
176
     1
 40
0.0
176
     1
 40
1.0
176
     1
 90
        0
176
     1
 62
    18
420
        0
176
     1
 90
       50
176
     1
 90
        3
176
     1
 62
     5
420
      255
176
     1
290
     0
176
     1
 90
       50
176
     1
 90
       50
176
     1
 90
       50
176
     1
290
     0
176
     1
 90
       50
176
     1
 62
   256
176
     0
 40
1.0
176
     0
 90
        2
176
     1
  1
strokes_ogs.tif
176
     1
290
     0
176
     1
 40
1.0
176
     1
 40
1.0
176
     1
  0
VISUALSTYLE
  5
64D
102
{ACAD_REACTORS
330
639
102
}
330
639
100
AcDbVisualStyle
  2
Shades of Gray
 70
    23
177
     3
291
     0
 70
    58
 90
        2
176
     1
 90
        2
176
     1
 90
        3
176
     1
 90
        0
176
     1
 40
0.6
176
     1
 40
30.0
176
     1
 62
     7
420
 16777215
176
     1
 90
        2
176
     1
 90
        2
176
     1
 62
     7
176
     1
 62
     7
176
     1
 90
        1
176
     1
 90
        1
176
     1
 40
40.0
176
     1
 90
        8
176
     1
 62
     7
176
     1
 40
1.0
176
     1
 90
        1
176
     1
 90
        6
176
     1
 90
        2
176
     1
 62
     7
176
     1
 90
        3
176
     1
 90
        0
176
     1
 90
        0
176
     1
290
     0
176
     1
 90
        1
176
     1
 40
0.0
176
     1
 90
        0
176
     1
290
     0
176
     1
290
     1
176
     1
290
     1
176
     1
290
     0
176
     1
290
     0
176
     1
290
     0
176
     1
290
     0
176
     1
290
     0
176
     1
290
     0
176
     1
 90
       50
176
     1
 40
0.0
176
     1
 40
1.0
176
     1
 90
        0
176
     1
 62
    18
420
        0
176
     1
 90
       50
176
     1
 90
        3
176
     1
 62
     5
420
      255
176
     1
290
     0
176
     1
 90
       50
176
     1
 90
       50
176
     1
 90
       50
176
     1
290
     0
176
     1
 90
       50
176
     1
 62
   256
176
     0
 40
1.0
176
     0
 90
        2
176
     1
  1
strokes_ogs.tif
176
     1
290
     0
176
     1
 40
1.0
176
     1
 40
1.0
176
     1
  0
VISUALSTYLE
  5
64E
102
{ACAD_REACTORS
330
639
102
}
330
639
100
AcDbVisualStyle
  2
Sketchy
 70
    24
177
     3
291
     0
 70
    58
 90
        1
176
     1
 90
        2
176
     1
 90
        2
176
     1
 90
        0
176
     1
 40
0.6
176
     1
 40
30.0
176
     1
 62
     7
420
 16777215
176
     1
 90
        2
176
     1
 90
        2
176
     1
 62
     7
176
     1
 62
     7
176
     1
 90
        1
176
     1
 90
        1
176
     1
 40
40.0
176
     1
 90
       11
176
     1
 62
     7
176
     1
 40
1.0
176
     1
 90
        1
176
     1
 90
        6
176
     1
 90
        2
176
     1
 62
     7
176
     1
 90
        6
176
     1
 90
        0
176
     1
 90
        0
176
     1
290
     0
176
     1
 90
        1
176
     1
 40
0.0
176
     1
 90
        0
176
     1
290
     0
176
     1
290
     1
176
     1
290
     1
176
     1
290
     0
176
     1
290
     0
176
     1
290
     0
176
     1
290
     0
176
     1
290
     0
176
     1
290
     0
176
     1
 90
       50
176
     1
 40
0.0
176
     1
 40
1.0
176
     1
 90
        0
176
     1
 62
    18
420
        0
176
     1
 90
       50
176
     1
 90
        3
176
     1
 62
     5
420
      255
176
     1
290
     0
176
     1
 90
       50
176
     1
 90
       50
176
     1
 90
       50
176
     1
290
     0
176
     1
 90
       50
176
     1
 62
   256
176
     0
 40
1.0
176
     0
 90
        2
176
     1
  1
strokes_ogs.tif
176
     1
290
     0
176
     1
 40
1.0
176
     1
 40
1.0
176
     1
  0
VISUALSTYLE
  5
646
102
{ACAD_REACTORS
330
639
102
}
330
639
100
AcDbVisualStyle
  2
Thicken
 70
    13
177
     3
291
     1
 70
    58
 90
        2
176
     1
 90
        2
176
     1
 90
        0
176
     1
 90
        0
176
     1
 40
0.6
176
     1
 40
30.0
176
     1
 62
     7
420
 16777215
176
     1
 90
        1
176
     1
 90
        4
176
     1
 62
     7
176
     1
 62
   257
176
     1
 90
        1
176
     1
 90
        1
176
     1
 40
1.0
176
     1
 90
       12
176
     1
 62
     7
176
     1
 40
1.0
176
     1
 90
        1
176
     1
 90
        6
176
     1
 90
        2
176
     1
 62
     7
176
     1
 90
        5
176
     1
 90
        0
176
     1
 90
        0
176
     1
290
     0
176
     1
 90
        1
176
     1
 40
0.0
176
     1
 90
        0
176
     1
290
     0
176
     1
290
     1
176
     1
290
     1
176
     1
290
     0
176
     1
290
     0
176
     1
290
     0
176
     1
290
     0
176
     1
290
     0
176
     1
290
     0
176
     1
 90
       50
176
     1
 40
0.0
176
     1
 40
1.0
176
     1
 90
        0
176
     1
 62
    18
420
        0
176
     1
 90
       50
176
     1
 90
        3
176
     1
 62
     5
420
      255
176
     1
290
     0
176
     1
 90
       50
176
     1
 90
       50
176
     1
 90
       50
176
     1
290
     0
176
     1
 90
       50
176
     1
 62
   256
176
     0
 40
1.0
176
     0
 90
        2
176
     1
  1
strokes_ogs.tif
176
     1
290
     0
176
     1
 40
1.0
176
     1
 40
1.0
176
     1
  0
VISUALSTYLE
  5
63F
102
{ACAD_REACTORS
330
639
102
}
330
639
100
AcDbVisualStyle
  2
Wireframe
 70
     5
177
     3
291
     0
 70
    58
 90
        0
176
     1
 90
        2
176
     1
 90
        0
176
     1
 90
        0
176
     1
 40
0.6
176
     1
 40
30.0
176
     1
 62
     7
420
 16777215
176
     1
 90
        1
176
     1
 90
        4
176
     1
 62
     7
176
     1
 62
   257
176
     1
 90
        1
176
     1
 90
        1
176
     1
 40
1.0
176
     1
 90
        0
176
     1
 62
   257
176
     1
 40
1.0
176
     1
 90
        1
176
     1
 90
        6
176
     1
 90
        2
176
     1
 62
     7
176
     1
 90
        3
176
     1
 90
        0
176
     1
 90
        0
176
     1
290
     0
176
     1
 90
        1
176
     1
 40
0.0
176
     1
 90
        0
176
     1
290
     0
176
     1
290
     1
176
     1
290
     1
176
     1
290
     0
176
     1
290
     0
176
     1
290
     0
176
     1
290
     0
176
     1
290
     0
176
     1
290
     0
176
     1
 90
       50
176
     1
 40
0.0
176
     1
 40
1.0
176
     1
 90
        0
176
     1
 62
    18
420
        0
176
     1
 90
       50
176
     1
 90
        3
176
     1
 62
     5
420
      255
176
     1
290
     0
176
     1
 90
       50
176
     1
 90
       50
176
     1
 90
       50
176
     1
290
     0
176
     1
 90
       50
176
     1
 62
   256
176
     0
 40
1.0
176
     0
 90
        2
176
     1
  1
strokes_ogs.tif
176
     1
290
     0
176
     1
 40
1.0
176
     1
 40
1.0
176
     1
  0
VISUALSTYLE
  5
64F
102
{ACAD_REACTORS
330
639
102
}
330
639
100
AcDbVisualStyle
  2
X-Ray
 70
    25
177
     3
291
     0
 70
    58
 90
        2
176
     1
 90
        2
176
     1
 90
        1
176
     1
 90
        1
176
     1
 40
0.5
176
     1
 40
30.0
176
     1
 62
     7
420
 16777215
176
     1
 90
        1
176
     1
 90
        0
176
     1
 62
     7
176
     1
 62
   257
176
     1
 90
        1
176
     1
 90
        1
176
     1
 40
1.0
176
     1
 90
        8
176
     1
 62
     7
176
     1
 40
1.0
176
     1
 90
        1
176
     1
 90
        6
176
     1
 90
        2
176
     1
 62
     7
176
     1
 90
        3
176
     1
 90
        0
176
     1
 90
        0
176
     1
290
     0
176
     1
 90
       13
176
     1
 40
0.0
176
     1
 90
        0
176
     1
290
     0
176
     1
290
     1
176
     1
290
     1
176
     1
290
     0
176
     1
290
     0
176
     1
290
     0
176
     1
290
     0
176
     1
290
     0
176
     1
290
     0
176
     1
 90
       50
176
     1
 40
0.0
176
     1
 40
1.0
176
     1
 90
        0
176
     1
 62
    18
420
        0
176
     1
 90
       50
176
     1
 90
        3
176
     1
 62
     5
420
      255
176
     1
290
     0
176
     1
 90
       50
176
     1
 90
       50
176
     1
 90
       50
176
     1
290
     0
176
     1
 90
       50
176
     1
 62
   256
176
     0
 40
1.0
176
     0
 90
        2
176
     1
  1
strokes_ogs.tif
176
     1
290
     0
176
     1
 40
1.0
176
     1
 40
1.0
176
     1
  0
DICTIONARYVAR
  5
65C
102
{ACAD_REACTORS
330
65B
102
}
330
65B
100
DictionaryVariables
280
     0
  1
1:1
  0
DICTIONARYVAR
  5
661
102
{ACAD_REACTORS
330
65B
102
}
330
65B
100
DictionaryVariables
280
     0
  1
Standard
  0
DICTIONARYVAR
  5
660
102
{ACAD_REACTORS
330
65B
102
}
330
65B
100
DictionaryVariables
280
     0
  1
Standard
  0
DICTIONARYVAR
  5
662
102
{ACAD_REACTORS
330
65B
102
}
330
65B
100
DictionaryVariables
280
     0
  1
0
  0
DICTIONARY
  5
65D
330
657
100
AcDbDictionary
280
     1
281
     1
  3
ACAD_ROUNDTRIP_2008_TABLESTYLE_CELLSTYLEMAP
360
65E
  0
CELLSTYLEMAP
  5
65E
102
{ACAD_REACTORS
330
65D
102
}
330
65D
100
AcDbCellStyleMap
 90
        3
300
CELLSTYLE
  1
TABLEFORMAT_BEGIN
 90
        5
170
     1
 91
        0
 92
    32768
 62
   257
 93
        1
300
CONTENTFORMAT
  1
CONTENTFORMAT_BEGIN
 90
        0
 91
        0
 92
        4
 93
        0
300

 40
0.0
140
1.0
 94
        5
 62
     0
340
11
144
6.0
309
CONTENTFORMAT_END
171
     1
301
MARGIN
  1
CELLMARGIN_BEGIN
 40
1.5
 40
1.5
 40
1.5
 40
1.5
 40
1.5
 40
1.5
309
CELLMARGIN_END
 94
        6
 95
        1
302
GRIDFORMAT
  1
GRIDFORMAT_BEGIN
 90
        0
 91
        1
 62
     0
 92
       -2
340
14
 93
        0
 40
0.045
309
GRIDFORMAT_END
 95
        2
302
GRIDFORMAT
  1
GRIDFORMAT_BEGIN
 90
        0
 91
        1
 62
     0
 92
       -2
340
14
 93
        0
 40
0.045
309
GRIDFORMAT_END
 95
        4
302
GRIDFORMAT
  1
GRIDFORMAT_BEGIN
 90
        0
 91
        1
 62
     0
 92
       -2
340
14
 93
        0
 40
0.045
309
GRIDFORMAT_END
 95
        8
302
GRIDFORMAT
  1
GRIDFORMAT_BEGIN
 90
        0
 91
        1
 62
     0
 92
       -2
340
14
 93
        0
 40
0.045
309
GRIDFORMAT_END
 95
       16
302
GRIDFORMAT
  1
GRIDFORMAT_BEGIN
 90
        0
 91
        1
 62
     0
 92
       -2
340
14
 93
        0
 40
0.045
309
GRIDFORMAT_END
 95
       32
302
GRIDFORMAT
  1
GRIDFORMAT_BEGIN
 90
        0
 91
        1
 62
     0
 92
       -2
340
14
 93
        0
 40
0.045
309
GRIDFORMAT_END
309
TABLEFORMAT_END
  1
CELLSTYLE_BEGIN
 90
        1
 91
        1
300
_TITLE
309
CELLSTYLE_END
300
CELLSTYLE
  1
TABLEFORMAT_BEGIN
 90
        5
170
     1
 91
        0
 92
        0
 62
   257
 93
        1
300
CONTENTFORMAT
  1
CONTENTFORMAT_BEGIN
 90
        0
 91
        0
 92
        4
 93
        0
300

 40
0.0
140
1.0
 94
        5
 62
     0
340
11
144
4.5
309
CONTENTFORMAT_END
171
     1
301
MARGIN
  1
CELLMARGIN_BEGIN
 40
1.5
 40
1.5
 40
1.5
 40
1.5
 40
1.5
 40
1.5
309
CELLMARGIN_END
 94
        6
 95
        1
302
GRIDFORMAT
  1
GRIDFORMAT_BEGIN
 90
        0
 91
        1
 62
     0
 92
       -2
340
14
 93
        0
 40
0.045
309
GRIDFORMAT_END
 95
        2
302
GRIDFORMAT
  1
GRIDFORMAT_BEGIN
 90
        0
 91
        1
 62
     0
 92
       -2
340
14
 93
        0
 40
0.045
309
GRIDFORMAT_END
 95
        4
302
GRIDFORMAT
  1
GRIDFORMAT_BEGIN
 90
        0
 91
        1
 62
     0
 92
       -2
340
14
 93
        0
 40
0.045
309
GRIDFORMAT_END
 95
        8
302
GRIDFORMAT
  1
GRIDFORMAT_BEGIN
 90
        0
 91
        1
 62
     0
 92
       -2
340
14
 93
        0
 40
0.045
309
GRIDFORMAT_END
 95
       16
302
GRIDFORMAT
  1
GRIDFORMAT_BEGIN
 90
        0
 91
        1
 62
     0
 92
       -2
340
14
 93
        0
 40
0.045
309
GRIDFORMAT_END
 95
       32
302
GRIDFORMAT
  1
GRIDFORMAT_BEGIN
 90
        0
 91
        1
 62
     0
 92
       -2
340
14
 93
        0
 40
0.045
309
GRIDFORMAT_END
309
TABLEFORMAT_END
  1
CELLSTYLE_BEGIN
 90
        2
 91
        1
300
_HEADER
309
CELLSTYLE_END
300
CELLSTYLE
  1
TABLEFORMAT_BEGIN
 90
        5
170
     1
 91
        0
 92
        0
 62
   257
 93
        1
300
CONTENTFORMAT
  1
CONTENTFORMAT_BEGIN
 90
        0
 91
        0
 92
        4
 93
        0
300

 40
0.0
140
1.0
 94
        2
 62
     0
340
11
144
4.5
309
CONTENTFORMAT_END
171
     1
301
MARGIN
  1
CELLMARGIN_BEGIN
 40
1.5
 40
1.5
 40
1.5
 40
1.5
 40
1.5
 40
1.5
309
CELLMARGIN_END
 94
        6
 95
        1
302
GRIDFORMAT
  1
GRIDFORMAT_BEGIN
 90
        0
 91
        1
 62
     0
 92
       -2
340
14
 93
        0
 40
0.045
309
GRIDFORMAT_END
 95
        2
302
GRIDFORMAT
  1
GRIDFORMAT_BEGIN
 90
        0
 91
        1
 62
     0
 92
       -2
340
14
 93
        0
 40
0.045
309
GRIDFORMAT_END
 95
        4
302
GRIDFORMAT
  1
GRIDFORMAT_BEGIN
 90
        0
 91
        1
 62
     0
 92
       -2
340
14
 93
        0
 40
0.045
309
GRIDFORMAT_END
 95
        8
302
GRIDFORMAT
  1
GRIDFORMAT_BEGIN
 90
        0
 91
        1
 62
     0
 92
       -2
340
14
 93
        0
 40
0.045
309
GRIDFORMAT_END
 95
       16
302
GRIDFORMAT
  1
GRIDFORMAT_BEGIN
 90
        0
 91
        1
 62
     0
 92
       -2
340
14
 93
        0
 40
0.045
309
GRIDFORMAT_END
 95
       32
302
GRIDFORMAT
  1
GRIDFORMAT_BEGIN
 90
        0
 91
        1
 62
     0
 92
       -2
340
14
 93
        0
 40
0.045
309
GRIDFORMAT_END
309
TABLEFORMAT_END
  1
CELLSTYLE_BEGIN
 90
        3
 91
        2
300
_DATA
309
CELLSTYLE_END
  0
ENDSEC
  0
EOF
