  0
SECTION
  2
HEADER
  9
$ACADVER
  1
AC1027
  9
$ACADMAINTVER
 70
   105
  9
$DWGCODEPAGE
  3
ANSI_1252
  9
$REQUIREDVERSIONS
160
                 0
  9
$LASTSAVEDBY
  1
andrea.zolin
  9
$INSBASE
 10
0.0
 20
0.0
 30
0.0
  9
$EXTMIN
 10
0.0
 20
0.0
 30
0.0
  9
$EXTMAX
 10
2500.0
 20
3200.0
 30
0.0
  9
$LIMMIN
 10
0.0
 20
0.0
  9
$LIMMAX
 10
2500.0
 20
3200.0
  9
$ORTHOMODE
 70
     0
  9
$REGENMODE
 70
     1
  9
$FILLMODE
 70
     1
  9
$QTEXTMODE
 70
     0
  9
$MIRRTEXT
 70
     1
  9
$LTSCALE
 40
208.5925925926
  9
$ATTMODE
 70
     1
  9
$TEXTSIZE
 40
0.2
  9
$TRACEWID
 40
0.05
  9
$TEXTSTYLE
  7
STANDARD
  9
$CLAYER
  8
0
  9
$CELTYPE
  6
BYLAYER
  9
$CECOLOR
 62
   256
  9
$CELTSCALE
 40
1.0
  9
$DISPSILH
 70
     0
  9
$DIMSCALE
 40
1.0
  9
$DIMASZ
 40
2.5
  9
$DIMEXO
 40
0.75
  9
$DIMDLI
 40
144.1185185185
  9
$DIMRND
 40
0.0
  9
$DIMDLE
 40
0.0
  9
$DIMEXE
 40
0.75
  9
$DIMTP
 40
0.01
  9
$DIMTM
 40
0.01
  9
$DIMTXT
 40
3.0
  9
$DIMCEN
 40
34.1333333333
  9
$DIMTSZ
 40
0.0
  9
$DIMTOL
 70
     1
  9
$DIMLIM
 70
     0
  9
$DIMTIH
 70
     1
  9
$DIMTOH
 70
     1
  9
$DIMSE1
 70
     0
  9
$DIMSE2
 70
     0
  9
$DIMTAD
 70
     0
  9
$DIMZIN
 70
     0
  9
$DIMBLK
  1
CLOSED
  9
$DIMASO
 70
     1
  9
$DIMSHO
 70
     1
  9
$DIMPOST
  1

  9
$DIMAPOST
  1

  9
$DIMALT
 70
     0
  9
$DIMALTD
 70
     2
  9
$DIMALTF
 40
25.4
  9
$DIMLFAC
 40
1.0
  9
$DIMTOFL
 70
     0
  9
$DIMTVP
 40
0.0
  9
$DIMTIX
 70
     0
  9
$DIMSOXD
 70
     0
  9
$DIMSAH
 70
     0
  9
$DIMBLK1
  1

  9
$DIMBLK2
  1

  9
$DIMSTYLE
  2
STANDARD
  9
$DIMCLRD
 70
     0
  9
$DIMCLRE
 70
     0
  9
$DIMCLRT
 70
     0
  9
$DIMTFAC
 40
1.0
  9
$DIMGAP
 40
0.625
  9
$DIMJUST
 70
     0
  9
$DIMSD1
 70
     0
  9
$DIMSD2
 70
     0
  9
$DIMTOLJ
 70
     1
  9
$DIMTZIN
 70
     0
  9
$DIMALTZ
 70
     0
  9
$DIMALTTZ
 70
     0
  9
$DIMUPT
 70
     0
  9
$DIMDEC
 70
     4
  9
$DIMTDEC
 70
     4
  9
$DIMALTU
 70
     2
  9
$DIMALTTD
 70
     2
  9
$DIMTXSTY
  7
STANDARD
  9
$DIMAUNIT
 70
     0
  9
$DIMADEC
 70
     0
  9
$DIMALTRND
 40
0.0
  9
$DIMAZIN
 70
     0
  9
$DIMDSEP
 70
    46
  9
$DIMATFIT
 70
     3
  9
$DIMFRAC
 70
     0
  9
$DIMLDRBLK
  1

  9
$DIMLUNIT
 70
     2
  9
$DIMLWD
 70
    -2
  9
$DIMLWE
 70
    -2
  9
$DIMTMOVE
 70
     2
  9
$DIMFXL
 40
1.0
  9
$DIMFXLON
 70
     0
  9
$DIMJOGANG
 40
0.7853981633974483
  9
$DIMTFILL
 70
     0
  9
$DIMTFILLCLR
 70
     0
  9
$DIMARCSYM
 70
     0
  9
$DIMLTYPE
  6

  9
$DIMLTEX1
  6

  9
$DIMLTEX2
  6

  9
$DIMTXTDIRECTION
 70
     0
  9
$LUNITS
 70
     2
  9
$LUPREC
 70
     4
  9
$SKETCHINC
 40
0.1
  9
$FILLETRAD
 40
0.5
  9
$AUNITS
 70
     0
  9
$AUPREC
 70
     0
  9
$MENU
  1
.
  9
$ELEVATION
 40
0.0
  9
$PELEVATION
 40
0.0
  9
$THICKNESS
 40
0.0
  9
$LIMCHECK
 70
     0
  9
$CHAMFERA
 40
0.0
  9
$CHAMFERB
 40
0.0
  9
$CHAMFERC
 40
0.0
  9
$CHAMFERD
 40
0.0
  9
$SKPOLY
 70
     0
  9
$TDCREATE
 40
2447893.041666667
  9
$TDUCREATE
 40
0.0
  9
$TDUPDATE
 40
2458466.607098993
  9
$TDUUPDATE
 40
2458466.565432326
  9
$TDINDWG
 40
0.0002565625
  9
$TDUSRTIMER
 40
0.0002565625
  9
$USRTIMER
 70
     1
  9
$ANGBASE
 50
0.0
  9
$ANGDIR
 70
     0
  9
$PDMODE
 70
     3
  9
$PDSIZE
 40
0.3125
  9
$PLINEWID
 40
0.0
  9
$SPLFRAME
 70
     0
  9
$SPLINETYPE
 70
     6
  9
$SPLINESEGS
 70
     8
  9
$HANDSEED
  5
672
  9
$SURFTAB1
 70
     6
  9
$SURFTAB2
 70
     6
  9
$SURFTYPE
 70
     6
  9
$SURFU
 70
     6
  9
$SURFV
 70
     6
  9
$UCSBASE
  2

  9
$UCSNAME
  2

  9
$UCSORG
 10
0.0
 20
0.0
 30
0.0
  9
$UCSXDIR
 10
1.0
 20
0.0
 30
0.0
  9
$UCSYDIR
 10
0.0
 20
1.0
 30
0.0
  9
$UCSORTHOREF
  2

  9
$UCSORTHOVIEW
 70
     0
  9
$UCSORGTOP
 10
0.0
 20
0.0
 30
0.0
  9
$UCSORGBOTTOM
 10
0.0
 20
0.0
 30
0.0
  9
$UCSORGLEFT
 10
0.0
 20
0.0
 30
0.0
  9
$UCSORGRIGHT
 10
0.0
 20
0.0
 30
0.0
  9
$UCSORGFRONT
 10
0.0
 20
0.0
 30
0.0
  9
$UCSORGBACK
 10
0.0
 20
0.0
 30
0.0
  9
$PUCSBASE
  2

  9
$PUCSNAME
  2

  9
$PUCSORG
 10
0.0
 20
0.0
 30
0.0
  9
$PUCSXDIR
 10
1.0
 20
0.0
 30
0.0
  9
$PUCSYDIR
 10
0.0
 20
1.0
 30
0.0
  9
$PUCSORTHOREF
  2

  9
$PUCSORTHOVIEW
 70
     0
  9
$PUCSORGTOP
 10
0.0
 20
0.0
 30
0.0
  9
$PUCSORGBOTTOM
 10
0.0
 20
0.0
 30
0.0
  9
$PUCSORGLEFT
 10
0.0
 20
0.0
 30
0.0
  9
$PUCSORGRIGHT
 10
0.0
 20
0.0
 30
0.0
  9
$PUCSORGFRONT
 10
0.0
 20
0.0
 30
0.0
  9
$PUCSORGBACK
 10
0.0
 20
0.0
 30
0.0
  9
$USERI1
 70
     0
  9
$USERI2
 70
     0
  9
$USERI3
 70
     0
  9
$USERI4
 70
     0
  9
$USERI5
 70
     0
  9
$USERR1
 40
0.0
  9
$USERR2
 40
0.0
  9
$USERR3
 40
0.0
  9
$USERR4
 40
0.0
  9
$USERR5
 40
0.0
  9
$WORLDVIEW
 70
     1
  9
$SHADEDGE
 70
     3
  9
$SHADEDIF
 70
    70
  9
$TILEMODE
 70
     0
  9
$MAXACTVP
 70
    64
  9
$PINSBASE
 10
0.0
 20
0.0
 30
0.0
  9
$PLIMCHECK
 70
     0
  9
$PEXTMIN
 10
0.0
 20
0.0
 30
0.0
  9
$PEXTMAX
 10
2500.0
 20
3200.0
 30
0.0
  9
$PLIMMIN
 10
-93.38521400778211
 20
-249.0272373540856
  9
$PLIMMAX
 10
5136.186770428016
 20
3449.027237354086
  9
$UNITMODE
 70
     0
  9
$VISRETAIN
 70
     1
  9
$PLINEGEN
 70
     0
  9
$PSLTSCALE
 70
     1
  9
$TREEDEPTH
 70
  3020
  9
$CMLSTYLE
  2
STANDARD
  9
$CMLJUST
 70
     0
  9
$CMLSCALE
 40
1.0
  9
$PROXYGRAPHICS
 70
     1
  9
$MEASUREMENT
 70
     1
  9
$CELWEIGHT
370
    -1
  9
$ENDCAPS
280
     0
  9
$JOINSTYLE
280
     0
  9
$LWDISPLAY
290
     0
  9
$INSUNITS
 70
     0
  9
$HYPERLINKBASE
  1

  9
$STYLESHEET
  1

  9
$XEDIT
290
     1
  9
$CEPSNTYPE
380
     0
  9
$PSTYLEMODE
290
     1
  9
$FINGERPRINTGUID
  2
{029BCE0E-313F-412E-A41A-6C32F8185DB1}
  9
$VERSIONGUID
  2
{FAEB1C32-E019-11D5-929B-00C0DF256EC4}
  9
$EXTNAMES
290
     1
  9
$PSVPSCALE
 40
0.0
  9
$OLESTARTUP
290
     0
  9
$SORTENTS
280
   127
  9
$INDEXCTL
280
     0
  9
$HIDETEXT
280
     1
  9
$XCLIPFRAME
280
     2
  9
$HALOGAP
280
     0
  9
$OBSCOLOR
 70
   257
  9
$OBSLTYPE
280
     0
  9
$INTERSECTIONDISPLAY
280
     0
  9
$INTERSECTIONCOLOR
 70
   257
  9
$DIMASSOC
280
     2
  9
$PROJECTNAME
  1

  9
$CAMERADISPLAY
290
     0
  9
$LENSLENGTH
 40
50.0
  9
$CAMERAHEIGHT
 40
0.0
  9
$STEPSPERSEC
 40
2.0
  9
$STEPSIZE
 40
6.0
  9
$3DDWFPREC
 40
2.0
  9
$PSOLWIDTH
 40
0.25
  9
$PSOLHEIGHT
 40
4.0
  9
$LOFTANG1
 40
1.570796326794897
  9
$LOFTANG2
 40
1.570796326794897
  9
$LOFTMAG1
 40
0.0
  9
$LOFTMAG2
 40
0.0
  9
$LOFTPARAM
 70
     7
  9
$LOFTNORMALS
280
     1
  9
$LATITUDE
 40
37.795
  9
$LONGITUDE
 40
-122.394
  9
$NORTHDIRECTION
 40
0.0
  9
$TIMEZONE
 70
 -8000
  9
$LIGHTGLYPHDISPLAY
280
     1
  9
$TILEMODELIGHTSYNCH
280
     1
  9
$SOLIDHIST
280
     0
  9
$SHOWHIST
280
     1
  9
$DWFFRAME
280
     2
  9
$DGNFRAME
280
     2
  9
$REALWORLDSCALE
290
     1
  9
$INTERFERECOLOR
 62
   256
  9
$CSHADOW
280
     0
  9
$SHADOWPLANELOCATION
 40
0.0
  0
ENDSEC
  0
SECTION
  2
CLASSES
  0
CLASS
  1
ACDBDICTIONARYWDFLT
  2
AcDbDictionaryWithDefault
  3
ObjectDBX Classes
 90
        0
 91
        4
280
     0
281
     0
  0
CLASS
  1
SCALE
  2
AcDbScale
  3
ObjectDBX Classes
 90
     1153
 91
        4
280
     0
281
     0
  0
CLASS
  1
VISUALSTYLE
  2
AcDbVisualStyle
  3
ObjectDBX Classes
 90
     4095
 91
        4
280
     0
281
     0
  0
CLASS
  1
MATERIAL
  2
AcDbMaterial
  3
ObjectDBX Classes
 90
     1153
 91
        4
280
     0
281
     0
  0
CLASS
  1
TABLESTYLE
  2
AcDbTableStyle
  3
ObjectDBX Classes
 90
     4095
 91
        4
280
     0
281
     0
  0
CLASS
  1
MLEADERSTYLE
  2
AcDbMLeaderStyle
  3
ACDB_MLEADERSTYLE_CLASS
 90
     4095
 91
        4
280
     0
281
     0
  0
CLASS
  1
DICTIONARYVAR
  2
AcDbDictionaryVar
  3
ObjectDBX Classes
 90
        0
 91
        4
280
     0
281
     0
  0
CLASS
  1
CELLSTYLEMAP
  2
AcDbCellStyleMap
  3
ObjectDBX Classes
 90
     1152
 91
        4
280
     0
281
     0
  0
ENDSEC
  0
SECTION
  2
TABLES
  0
TABLE
  2
VPORT
  5
8
330
0
100
AcDbSymbolTable
 70
     1
  0
VPORT
  5
1F4
330
8
100
AcDbSymbolTableRecord
100
AcDbViewportTableRecord
  2
*ACTIVE
 70
     0
 10
0.0
 20
0.0
 11
1.0
 21
1.0
 12
1250.0
 22
1600.0
 13
0.0
 23
0.0
 14
1.0
 24
1.0
 15
0.0
 25
0.0
 16
0.0
 26
0.0
 36
1.0
 17
0.0
 27
0.0
 37
0.0
 40
3200.0
 41
0.78125
 42
50.0
 43
0.0
 44
0.0
 50
0.0
 51
0.0
 71
     0
 72
   100
 73
     1
 74
     1
 75
     0
 76
     0
 77
     0
 78
     0
281
     0
 65
     1
110
0.0
120
0.0
130
0.0
111
1.0
121
0.0
131
0.0
112
0.0
122
1.0
132
0.0
 79
     0
146
0.0
348
64B
 60
     3
 61
     5
292
     1
282
     1
141
0.0
142
0.0
 63
   256
  0
ENDTAB
  0
TABLE
  2
LTYPE
  5
5
330
0
100
AcDbSymbolTable
 70
     6
  0
LTYPE
  5
14
330
5
100
AcDbSymbolTableRecord
100
AcDbLinetypeTableRecord
  2
BYBLOCK
 70
     0
  3

 72
    65
 73
     0
 40
0.0
  0
LTYPE
  5
15
330
5
100
AcDbSymbolTableRecord
100
AcDbLinetypeTableRecord
  2
BYLAYER
 70
     0
  3

 72
    65
 73
     0
 40
0.0
  0
LTYPE
  5
16
330
5
100
AcDbSymbolTableRecord
100
AcDbLinetypeTableRecord
  2
CONTINUOUS
 70
     0
  3
Solid line
 72
    65
 73
     0
 40
0.0
  0
LTYPE
  5
1F5
330
5
100
AcDbSymbolTableRecord
100
AcDbLinetypeTableRecord
  2
CENTER
 70
     0
  3
____ _ ____ _ ____ _ ____ _ ____ _ ____ _ ____
 72
    65
 73
     4
 40
0.6
 49
0.375
 74
     0
 49
-0.075
 74
     0
 49
0.075
 74
     0
 49
-0.075
 74
     0
  0
LTYPE
  5
1F6
330
5
100
AcDbSymbolTableRecord
100
AcDbLinetypeTableRecord
  2
HIDDEN
 70
     0
  3
- - - - - - - - - - - - - - - - - - - -
 72
    65
 73
     2
 40
0.2
 49
0.1
 74
     0
 49
-0.1
 74
     0
  0
LTYPE
  5
1F7
330
5
100
AcDbSymbolTableRecord
100
AcDbLinetypeTableRecord
  2
PHANTOM
 70
     0
  3
_____ _ _ _____ _ _ _____ _ _ _____
 72
    65
 73
     6
 40
0.8
 49
0.45
 74
     0
 49
-0.05
 74
     0
 49
0.1
 74
     0
 49
-0.05
 74
     0
 49
0.1
 74
     0
 49
-0.05
 74
     0
  0
LTYPE
  5
1F8
330
5
100
AcDbSymbolTableRecord
100
AcDbLinetypeTableRecord
  2
DOT
 70
     0
  3
. . . . . . . . . . . . . . . . . . . .
 72
    65
 73
     2
 40
0.2
 49
0.1
 74
     0
 49
-0.1
 74
     0
  0
LTYPE
  5
1F9
330
5
100
AcDbSymbolTableRecord
100
AcDbLinetypeTableRecord
  2
DASHED
 70
     0
  3
- - - - - - - - - - - - - - - - - - - -
 72
    65
 73
     2
 40
0.2
 49
0.1
 74
     0
 49
-0.1
 74
     0
  0
ENDTAB
  0
TABLE
  2
LAYER
  5
2
330
0
100
AcDbSymbolTable
 70
    35
  0
LAYER
  5
10
330
2
100
AcDbSymbolTableRecord
100
AcDbLayerTableRecord
  2
0
 70
     0
 62
     7
  6
CONTINUOUS
370
    -3
390
620
347
662
348
0
  0
LAYER
  5
1FA
330
2
100
AcDbSymbolTableRecord
100
AcDbLayerTableRecord
  2
DEFAULT_1
 70
     0
 62
     7
  6
CENTER
370
    -3
390
620
347
662
348
0
  0
LAYER
  5
1FB
330
2
100
AcDbSymbolTableRecord
100
AcDbLayerTableRecord
  2
DEFAULT_2
 70
     0
 62
     8
  6
HIDDEN
370
    -3
390
620
347
662
348
0
  0
LAYER
  5
1FC
330
2
100
AcDbSymbolTableRecord
100
AcDbLayerTableRecord
  2
DEFAULT_3
 70
     0
 62
     7
  6
PHANTOM
370
    -3
390
620
347
662
348
0
  0
LAYER
  5
1FD
330
2
100
AcDbSymbolTableRecord
100
AcDbLayerTableRecord
  2
01_ALL_DTM_PLN
 70
     0
 62
     7
  6
CONTINUOUS
370
    -3
390
620
347
662
348
0
  0
LAYER
  5
1FE
330
2
100
AcDbSymbolTableRecord
100
AcDbLayerTableRecord
  2
01__ASM_ALL_DTM_PLN
 70
     0
 62
     7
  6
CONTINUOUS
370
    -3
390
620
347
662
348
0
  0
LAYER
  5
1FF
330
2
100
AcDbSymbolTableRecord
100
AcDbLayerTableRecord
  2
01__ASM_DEF_DTM_PLN
 70
     0
 62
     7
  6
CONTINUOUS
370
    -3
390
620
347
662
348
0
  0
LAYER
  5
200
330
2
100
AcDbSymbolTableRecord
100
AcDbLayerTableRecord
  2
01___PRT_ALL_DTM_PLN
 70
     0
 62
     7
  6
CONTINUOUS
370
    -3
390
620
347
662
348
0
  0
LAYER
  5
201
330
2
100
AcDbSymbolTableRecord
100
AcDbLayerTableRecord
  2
01___PRT_DEF_DTM_PLN
 70
     0
 62
     7
  6
CONTINUOUS
370
    -3
390
620
347
662
348
0
  0
LAYER
  5
202
330
2
100
AcDbSymbolTableRecord
100
AcDbLayerTableRecord
  2
02_ALL_AXES
 70
     0
 62
     7
  6
CONTINUOUS
370
    -3
390
620
347
662
348
0
  0
LAYER
  5
203
330
2
100
AcDbSymbolTableRecord
100
AcDbLayerTableRecord
  2
02__ASM_ALL_AXES
 70
     0
 62
     7
  6
CONTINUOUS
370
    -3
390
620
347
662
348
0
  0
LAYER
  5
204
330
2
100
AcDbSymbolTableRecord
100
AcDbLayerTableRecord
  2
02___PRT_ALL_AXES
 70
     0
 62
     7
  6
CONTINUOUS
370
    -3
390
620
347
662
348
0
  0
LAYER
  5
205
330
2
100
AcDbSymbolTableRecord
100
AcDbLayerTableRecord
  2
03_ALL_CURVES
 70
     0
 62
     7
  6
CONTINUOUS
370
    -3
390
620
347
662
348
0
  0
LAYER
  5
206
330
2
100
AcDbSymbolTableRecord
100
AcDbLayerTableRecord
  2
03__ASM_ALL_CURVES
 70
     0
 62
     7
  6
CONTINUOUS
370
    -3
390
620
347
662
348
0
  0
LAYER
  5
207
330
2
100
AcDbSymbolTableRecord
100
AcDbLayerTableRecord
  2
03___PRT_ALL_CURVES
 70
     0
 62
     7
  6
CONTINUOUS
370
    -3
390
620
347
662
348
0
  0
LAYER
  5
208
330
2
100
AcDbSymbolTableRecord
100
AcDbLayerTableRecord
  2
04_ALL_DTM_PNT
 70
     0
 62
     7
  6
CONTINUOUS
370
    -3
390
620
347
662
348
0
  0
LAYER
  5
209
330
2
100
AcDbSymbolTableRecord
100
AcDbLayerTableRecord
  2
04__ASM_ALL_DTM_PNT
 70
     0
 62
     7
  6
CONTINUOUS
370
    -3
390
620
347
662
348
0
  0
LAYER
  5
20A
330
2
100
AcDbSymbolTableRecord
100
AcDbLayerTableRecord
  2
04___PRT_ALL_DTM_PNT
 70
     0
 62
     7
  6
CONTINUOUS
370
    -3
390
620
347
662
348
0
  0
LAYER
  5
20B
330
2
100
AcDbSymbolTableRecord
100
AcDbLayerTableRecord
  2
05_ALL_DTM_CSYS
 70
     0
 62
     7
  6
CONTINUOUS
370
    -3
390
620
347
662
348
0
  0
LAYER
  5
20C
330
2
100
AcDbSymbolTableRecord
100
AcDbLayerTableRecord
  2
05__ASM_ALL_DTM_CSYS
 70
     0
 62
     7
  6
CONTINUOUS
370
    -3
390
620
347
662
348
0
  0
LAYER
  5
20D
330
2
100
AcDbSymbolTableRecord
100
AcDbLayerTableRecord
  2
05__ASM_DEF_DTM_CSYS
 70
     0
 62
     7
  6
CONTINUOUS
370
    -3
390
620
347
662
348
0
  0
LAYER
  5
20E
330
2
100
AcDbSymbolTableRecord
100
AcDbLayerTableRecord
  2
05___PRT_ALL_DTM_CSYS
 70
     0
 62
     7
  6
CONTINUOUS
370
    -3
390
620
347
662
348
0
  0
LAYER
  5
20F
330
2
100
AcDbSymbolTableRecord
100
AcDbLayerTableRecord
  2
05___PRT_DEF_DTM_CSYS
 70
     0
 62
     7
  6
CONTINUOUS
370
    -3
390
620
347
662
348
0
  0
LAYER
  5
210
330
2
100
AcDbSymbolTableRecord
100
AcDbLayerTableRecord
  2
06_ALL_SURFS
 70
     0
 62
     7
  6
CONTINUOUS
370
    -3
390
620
347
662
348
0
  0
LAYER
  5
211
330
2
100
AcDbSymbolTableRecord
100
AcDbLayerTableRecord
  2
06__ASM_ALL_SURFS
 70
     0
 62
     7
  6
CONTINUOUS
370
    -3
390
620
347
662
348
0
  0
LAYER
  5
212
330
2
100
AcDbSymbolTableRecord
100
AcDbLayerTableRecord
  2
06___PRT_ALL_SURFS
 70
     0
 62
     7
  6
CONTINUOUS
370
    -3
390
620
347
662
348
0
  0
LAYER
  5
213
330
2
100
AcDbSymbolTableRecord
100
AcDbLayerTableRecord
  2
07__ASM_ALL_SKELETONS
 70
     0
 62
     7
  6
CONTINUOUS
370
    -3
390
620
347
662
348
0
  0
LAYER
  5
214
330
2
100
AcDbSymbolTableRecord
100
AcDbLayerTableRecord
  2
1_ALL_PLANES
 70
     0
 62
     7
  6
CONTINUOUS
370
    -3
390
620
347
662
348
0
  0
LAYER
  5
215
330
2
100
AcDbSymbolTableRecord
100
AcDbLayerTableRecord
  2
2_ALL_CSYS
 70
     0
 62
     7
  6
CONTINUOUS
370
    -3
390
620
347
662
348
0
  0
LAYER
  5
216
330
2
100
AcDbSymbolTableRecord
100
AcDbLayerTableRecord
  2
3_ALL_AXES
 70
     0
 62
     7
  6
CONTINUOUS
370
    -3
390
620
347
662
348
0
  0
LAYER
  5
217
330
2
100
AcDbSymbolTableRecord
100
AcDbLayerTableRecord
  2
4_ALL_POINTS
 70
     0
 62
     7
  6
CONTINUOUS
370
    -3
390
620
347
662
348
0
  0
LAYER
  5
218
330
2
100
AcDbSymbolTableRecord
100
AcDbLayerTableRecord
  2
5_ALL_CURVES
 70
     0
 62
     7
  6
CONTINUOUS
370
    -3
390
620
347
662
348
0
  0
LAYER
  5
219
330
2
100
AcDbSymbolTableRecord
100
AcDbLayerTableRecord
  2
6_ALL_SURFS
 70
     0
 62
     7
  6
CONTINUOUS
370
    -3
390
620
347
662
348
0
  0
LAYER
  5
21A
330
2
100
AcDbSymbolTableRecord
100
AcDbLayerTableRecord
  2
7_ALL_FEATURES
 70
     0
 62
     7
  6
CONTINUOUS
370
    -3
390
620
347
662
348
0
  0
LAYER
  5
21B
330
2
100
AcDbSymbolTableRecord
100
AcDbLayerTableRecord
  2
9_SOLID
 70
     0
 62
     7
  6
CONTINUOUS
370
    -3
390
620
347
662
348
0
  0
ENDTAB
  0
TABLE
  2
STYLE
  5
3
330
0
100
AcDbSymbolTable
 70
     4
  0
STYLE
  5
11
330
3
100
AcDbSymbolTableRecord
100
AcDbTextStyleTableRecord
  2
STANDARD
 70
     0
 40
0.0
 41
1.0
 50
0.0
 71
     0
 42
0.2
  3
arial.ttf
  4

  0
STYLE
  5
21C
330
3
100
AcDbSymbolTableRecord
100
AcDbTextStyleTableRecord
  2
TEXTSTYLE_1
 70
     0
 40
0.0
 41
0.8
 50
0.0
 71
     0
 42
0.2
  3
gdt
  4

  0
STYLE
  5
21D
330
3
100
AcDbSymbolTableRecord
100
AcDbTextStyleTableRecord
  2
TEXTSTYLE_2
 70
     0
 40
0.0
 41
2.0
 50
0.0
 71
     0
 42
0.2
  3
txt
  4

  0
STYLE
  5
21E
330
3
100
AcDbSymbolTableRecord
100
AcDbTextStyleTableRecord
  2
TEXTSTYLE_3
 70
     0
 40
0.0
 41
0.85
 50
0.0
 71
     0
 42
0.2
  3
txt
  4

  0
ENDTAB
  0
TABLE
  2
VIEW
  5
6
330
0
100
AcDbSymbolTable
 70
     0
  0
ENDTAB
  0
TABLE
  2
UCS
  5
7
330
0
100
AcDbSymbolTable
 70
     0
  0
ENDTAB
  0
TABLE
  2
APPID
  5
9
330
0
100
AcDbSymbolTable
 70
     1
  0
APPID
  5
21F
330
9
100
AcDbSymbolTableRecord
100
AcDbRegAppTableRecord
  2
ACAD
 70
     0
  0
ENDTAB
  0
TABLE
  2
DIMSTYLE
  5
A
330
0
100
AcDbSymbolTable
 70
     4
100
AcDbDimStyleTable
  0
DIMSTYLE
105
227
330
A
100
AcDbSymbolTableRecord
100
AcDbDimStyleTableRecord
  2
STANDARD
 70
     0
 41
2.5
 42
0.75
 44
0.75
 47
0.01
 48
0.01
 71
     1
 73
     0
 74
     0
 77
     1
 78
     8
 79
     2
140
3.0
147
0.625
171
     1
178
     0
179
     2
271
     2
272
     2
284
     8
340
11
341
220
342
220
343
220
344
220
  0
DIMSTYLE
105
228
330
A
100
AcDbSymbolTableRecord
100
AcDbDimStyleTableRecord
  2
DIMSTYLE_1
 70
     0
 41
2.5
 42
0.75
 44
0.75
 47
1.2
 48
1.2
 73
     0
 74
     0
 77
     1
 78
     8
 79
     2
140
3.0
147
0.75
171
     1
178
     0
179
     2
271
     2
272
     2
284
     8
340
11
341
220
342
220
343
220
344
220
  0
DIMSTYLE
105
229
330
A
100
AcDbSymbolTableRecord
100
AcDbDimStyleTableRecord
  2
DIMSTYLE_2
 70
     0
 41
2.5
 42
0.75
 44
0.75
 47
0.2
 48
0.2
 73
     0
 74
     0
 77
     1
 78
     8
 79
     2
140
3.0
147
0.75
171
     1
178
     0
179
     2
271
     2
272
     2
284
     8
340
11
341
220
342
220
343
220
344
220
  0
DIMSTYLE
105
22A
330
A
100
AcDbSymbolTableRecord
100
AcDbDimStyleTableRecord
  2
DIMSTYLE_3
 70
     0
 41
2.5
 42
0.75
 44
0.75
 47
0.3
 48
0.3
 73
     0
 74
     0
 77
     1
 78
     8
 79
     2
140
3.0
147
0.75
171
     1
178
     0
179
     2
271
     2
272
     2
284
     8
340
11
341
220
342
220
343
220
344
220
  0
ENDTAB
  0
TABLE
  2
BLOCK_RECORD
  5
1
330
0
100
AcDbSymbolTable
 70
     7
  0
BLOCK_RECORD
  5
1F
330
1
100
AcDbSymbolTableRecord
100
AcDbBlockTableRecord
  2
*MODEL_SPACE
340
644
 70
     0
280
     1
281
     0
  0
BLOCK_RECORD
  5
1B
330
1
100
AcDbSymbolTableRecord
100
AcDbBlockTableRecord
  2
*PAPER_SPACE
340
645
 70
     0
280
     1
281
     0
  0
BLOCK_RECORD
  5
220
330
1
100
AcDbSymbolTableRecord
100
AcDbBlockTableRecord
  2
_CLOSED
340
0
102
{BLKREFS
331
27D
331
27E
331
286
331
287
331
28F
331
290
331
298
331
299
102
}
 70
     0
280
     1
281
     0
  0
BLOCK_RECORD
  5
221
330
1
100
AcDbSymbolTableRecord
100
AcDbBlockTableRecord
  2
*D1
340
0
 70
     0
280
     1
281
     0
  0
BLOCK_RECORD
  5
222
330
1
100
AcDbSymbolTableRecord
100
AcDbBlockTableRecord
  2
*D2
340
0
 70
     0
280
     1
281
     0
  0
BLOCK_RECORD
  5
223
330
1
100
AcDbSymbolTableRecord
100
AcDbBlockTableRecord
  2
*D3
340
0
 70
     0
280
     1
281
     0
  0
BLOCK_RECORD
  5
224
330
1
100
AcDbSymbolTableRecord
100
AcDbBlockTableRecord
  2
*D4
340
0
 70
     0
280
     1
281
     0
  0
BLOCK_RECORD
  5
225
330
1
100
AcDbSymbolTableRecord
100
AcDbBlockTableRecord
  2
LOGO2_BL1
340
0
102
{BLKREFS
331
608
102
}
 70
     0
280
     1
281
     0
  0
BLOCK_RECORD
  5
226
330
1
100
AcDbSymbolTableRecord
100
AcDbBlockTableRecord
  2
PROIEZIONE_EU_BL0
340
0
102
{BLKREFS
331
605
102
}
 70
     0
280
     1
281
     0
  0
ENDTAB
  0
ENDSEC
  0
SECTION
  2
BLOCKS
  0
BLOCK
  5
20
330
1F
100
AcDbEntity
  8
0
100
AcDbBlockBegin
  2
*MODEL_SPACE
 70
     0
 10
0.0
 20
0.0
 30
0.0
  3
*MODEL_SPACE
  1

  0
ENDBLK
  5
21
330
1F
100
AcDbEntity
  8
0
100
AcDbBlockEnd
  0
BLOCK
  5
1C
330
1B
100
AcDbEntity
 67
     1
  8
0
100
AcDbBlockBegin
  2
*PAPER_SPACE
 70
     0
 10
0.0
 20
0.0
 30
0.0
  3
*PAPER_SPACE
  1

  0
ENDBLK
  5
1D
330
1B
100
AcDbEntity
 67
     1
  8
0
100
AcDbBlockEnd
  0
BLOCK
  5
271
330
220
100
AcDbEntity
  8
0
100
AcDbBlockBegin
  2
_CLOSED
 70
     0
 10
0.0
 20
0.0
 30
0.0
  3
_CLOSED
  1

  0
LINE
  5
272
330
220
100
AcDbEntity
  8
0
  6
ByBlock
 62
     0
100
AcDbLine
 10
0.0
 20
0.0
 30
0.0
 11
-1.0
 21
0.2
 31
0.0
  0
LINE
  5
273
330
220
100
AcDbEntity
  8
0
  6
ByBlock
 62
     0
100
AcDbLine
 10
-1.0
 20
0.2
 30
0.0
 11
-1.0
 21
-0.2
 31
0.0
  0
LINE
  5
274
330
220
100
AcDbEntity
  8
0
  6
ByBlock
 62
     0
100
AcDbLine
 10
-1.0
 20
-0.2
 30
0.0
 11
0.0
 21
0.0
 31
0.0
  0
LINE
  5
275
330
220
100
AcDbEntity
  8
0
  6
ByBlock
 62
     0
100
AcDbLine
 10
-1.0
 20
0.0
 30
0.0
 11
0.0
 21
0.0
 31
0.0
  0
ENDBLK
  5
276
330
220
100
AcDbEntity
  8
0
  6
ByBlock
 62
     0
100
AcDbBlockEnd
  0
BLOCK
  5
277
330
221
100
AcDbEntity
  8
0
100
AcDbBlockBegin
  2
*D1
 70
     1
 10
0.0
 20
0.0
 30
0.0
  3
*D1
  1

  0
MTEXT
  5
278
330
221
100
AcDbEntity
  8
0
  6
Continuous
 62
     2
100
AcDbMText
 10
1225.753626643
 20
640.4551948699
 30
0.0
 40
3.0
 41
12.8141263941
 46
0.0
 71
     2
 72
     1
  1
1513,5
 73
     1
 44
1.0
  0
LINE
  5
279
330
221
100
AcDbEntity
  8
0
  6
Continuous
 62
     2
100
AcDbLine
 10
469.003626643
 20
612.6034663572
 30
0.0
 11
469.003626643
 21
637.4551948699
 31
0.0
  0
LINE
  5
27A
330
221
100
AcDbEntity
  8
0
  6
Continuous
 62
     2
100
AcDbLine
 10
1982.503626643
 20
609.6513942851
 30
0.0
 11
1982.503626643
 21
637.4551948699
 31
0.0
  0
LINE
  5
27B
330
221
100
AcDbEntity
  8
0
  6
Continuous
 62
     2
100
AcDbLine
 10
469.003626643
 20
636.7051948699
 30
0.0
 11
1225.753626643
 21
636.7051948699
 31
0.0
  0
LINE
  5
27C
330
221
100
AcDbEntity
  8
0
  6
Continuous
 62
     2
100
AcDbLine
 10
1982.503626643
 20
636.7051948699
 30
0.0
 11
1225.753626643
 21
636.7051948699
 31
0.0
  0
INSERT
  5
27D
330
221
100
AcDbEntity
  8
0
  6
Continuous
 62
     2
100
AcDbBlockReference
  2
_CLOSED
 10
469.003626643
 20
636.7051948699
 30
0.0
 41
2.5
 42
2.5
 43
2.5
 50
180.0
  0
INSERT
  5
27E
330
221
100
AcDbEntity
  8
0
  6
Continuous
 62
     2
100
AcDbBlockReference
  2
_CLOSED
 10
1982.503626643
 20
636.7051948699
 30
0.0
 41
2.5
 42
2.5
 43
2.5
  0
ENDBLK
  5
27F
330
221
100
AcDbEntity
  8
0
  6
ByBlock
 62
     0
100
AcDbBlockEnd
  0
BLOCK
  5
280
330
222
100
AcDbEntity
  8
0
100
AcDbBlockBegin
  2
*D2
 70
     1
 10
0.0
 20
0.0
 30
0.0
  3
*D2
  1

  0
MTEXT
  5
281
330
222
100
AcDbEntity
  8
0
  6
Continuous
 62
     2
100
AcDbMText
 10
2205.6366991992
 20
633.3405511637
 30
0.0
 40
3.0
 41
8.1524163569
 46
0.0
 71
     2
 72
     1
  1
23,1
 73
     1
 44
1.0
  0
LINE
  5
282
330
222
100
AcDbEntity
  8
0
  6
Continuous
 62
     2
100
AcDbLine
 10
2194.0866991992
 20
601.2035030097
 30
0.0
 11
2194.0866991992
 21
630.3405511637
 31
0.0
  0
LINE
  5
283
330
222
100
AcDbEntity
  8
0
  6
Continuous
 62
     2
100
AcDbLine
 10
2217.1866991992
 20
607.6420846139
 30
0.0
 11
2217.1866991992
 21
630.3405511637
 31
0.0
  0
LINE
  5
284
330
222
100
AcDbEntity
  8
0
  6
Continuous
 62
     2
100
AcDbLine
 10
2194.0866991992
 20
629.5905511637
 30
0.0
 11
2205.6366991992
 21
629.5905511637
 31
0.0
  0
LINE
  5
285
330
222
100
AcDbEntity
  8
0
  6
Continuous
 62
     2
100
AcDbLine
 10
2217.1866991992
 20
629.5905511637
 30
0.0
 11
2205.6366991992
 21
629.5905511637
 31
0.0
  0
INSERT
  5
286
330
222
100
AcDbEntity
  8
0
  6
Continuous
 62
     2
100
AcDbBlockReference
  2
_CLOSED
 10
2194.0866991992
 20
629.5905511637
 30
0.0
 41
2.5
 42
2.5
 43
2.5
 50
180.0
  0
INSERT
  5
287
330
222
100
AcDbEntity
  8
0
  6
Continuous
 62
     2
100
AcDbBlockReference
  2
_CLOSED
 10
2217.1866991992
 20
629.5905511637
 30
0.0
 41
2.5
 42
2.5
 43
2.5
  0
ENDBLK
  5
288
330
222
100
AcDbEntity
  8
0
  6
ByBlock
 62
     0
100
AcDbBlockEnd
  0
BLOCK
  5
289
330
223
100
AcDbEntity
  8
0
100
AcDbBlockBegin
  2
*D3
 70
     1
 10
0.0
 20
0.0
 30
0.0
  3
*D3
  1

  0
MTEXT
  5
28A
330
223
100
AcDbEntity
  8
0
  6
Continuous
 62
     2
100
AcDbMText
 10
2131.7765169711
 20
547.6631842261
 30
0.0
 40
3.0
 41
10.4832713755
 46
0.0
 71
     2
 72
     1
  1
91,45
 11
0.0
 21
1.0
 31
0.0
 73
     1
 44
1.0
  0
LINE
  5
28B
330
223
100
AcDbEntity
  8
0
  6
Continuous
 62
     2
100
AcDbLine
 10
2153.9702639431
 20
593.3881842261
 30
0.0
 11
2134.7765169711
 21
593.3881842261
 31
0.0
  0
LINE
  5
28C
330
223
100
AcDbEntity
  8
0
  6
Continuous
 62
     2
100
AcDbLine
 10
2156.4378095038
 20
501.9381842261
 30
0.0
 11
2134.7765169711
 21
501.9381842261
 31
0.0
  0
LINE
  5
28D
330
223
100
AcDbEntity
  8
0
  6
Continuous
 62
     2
100
AcDbLine
 10
2135.5265169711
 20
593.3881842261
 30
0.0
 11
2135.5265169711
 21
547.6631842261
 31
0.0
  0
LINE
  5
28E
330
223
100
AcDbEntity
  8
0
  6
Continuous
 62
     2
100
AcDbLine
 10
2135.5265169711
 20
501.9381842261
 30
0.0
 11
2135.5265169711
 21
547.6631842261
 31
0.0
  0
INSERT
  5
28F
330
223
100
AcDbEntity
  8
0
  6
Continuous
 62
     2
100
AcDbBlockReference
  2
_CLOSED
 10
2135.5265169711
 20
593.3881842261
 30
0.0
 41
2.5
 42
2.5
 43
2.5
 50
90.0
  0
INSERT
  5
290
330
223
100
AcDbEntity
  8
0
  6
Continuous
 62
     2
100
AcDbBlockReference
  2
_CLOSED
 10
2135.5265169711
 20
501.9381842261
 30
0.0
 41
2.5
 42
2.5
 43
2.5
 50
270.0
  0
ENDBLK
  5
291
330
223
100
AcDbEntity
  8
0
  6
ByBlock
 62
     0
100
AcDbBlockEnd
  0
BLOCK
  5
292
330
224
100
AcDbEntity
  8
0
100
AcDbBlockBegin
  2
*D4
 70
     1
 10
0.0
 20
0.0
 30
0.0
  3
*D4
  1

  0
MTEXT
  5
293
330
224
100
AcDbEntity
  8
0
  6
Continuous
 62
     2
100
AcDbMText
 10
2000.0809593124
 20
299.3302477478
 30
0.0
 40
3.0
 41
4.6617100372
 46
0.0
 71
     2
 72
     1
  1
72
 11
0.0
 21
1.0
 31
0.0
 73
     1
 44
1.0
  0
LINE
  5
294
330
224
100
AcDbEntity
  8
0
  6
Continuous
 62
     2
100
AcDbLine
 10
1962.753626643
 20
263.3302477478
 30
0.0
 11
2004.5809593124
 21
263.3302477478
 31
0.0
  0
LINE
  5
295
330
224
100
AcDbEntity
  8
0
  6
Continuous
 62
     2
100
AcDbLine
 10
1962.753626643
 20
335.3302477478
 30
0.0
 11
2004.5809593124
 21
335.3302477478
 31
0.0
  0
LINE
  5
296
330
224
100
AcDbEntity
  8
0
  6
Continuous
 62
     2
100
AcDbLine
 10
2003.8309593124
 20
263.3302477478
 30
0.0
 11
2003.8309593124
 21
299.3302477478
 31
0.0
  0
LINE
  5
297
330
224
100
AcDbEntity
  8
0
  6
Continuous
 62
     2
100
AcDbLine
 10
2003.8309593124
 20
335.3302477478
 30
0.0
 11
2003.8309593124
 21
299.3302477478
 31
0.0
  0
INSERT
  5
298
330
224
100
AcDbEntity
  8
0
  6
Continuous
 62
     2
100
AcDbBlockReference
  2
_CLOSED
 10
2003.8309593124
 20
263.3302477478
 30
0.0
 41
2.5
 42
2.5
 43
2.5
 50
270.0
  0
INSERT
  5
299
330
224
100
AcDbEntity
  8
0
  6
Continuous
 62
     2
100
AcDbBlockReference
  2
_CLOSED
 10
2003.8309593124
 20
335.3302477478
 30
0.0
 41
2.5
 42
2.5
 43
2.5
 50
90.0
  0
ENDBLK
  5
29A
330
224
100
AcDbEntity
  8
0
  6
ByBlock
 62
     0
100
AcDbBlockEnd
  0
BLOCK
  5
22B
330
225
100
AcDbEntity
  8
0
100
AcDbBlockBegin
  2
LOGO2_BL1
 70
     0
 10
2368.9032107073
 20
44.8268006746
 30
0.0
  3
LOGO2_BL1
  1

  0
LINE
  5
22C
330
225
100
AcDbEntity
  8
0
  6
Continuous
 62
     7
100
AcDbLine
 10
2360.6461359355
 20
48.0222920135
 30
0.0
 11
2359.3417950061
 21
48.0222920135
 31
0.0
  0
LINE
  5
22D
330
225
100
AcDbEntity
  8
0
  6
Continuous
 62
     7
100
AcDbLine
 10
2359.3417950061
 20
48.0222920135
 30
0.0
 11
2359.3417950061
 21
37.5632259536
 31
0.0
  0
LINE
  5
22E
330
225
100
AcDbEntity
  8
0
  6
Continuous
 62
     7
100
AcDbLine
 10
2359.3417950061
 20
37.5632259536
 30
0.0
 11
2363.8228498944
 21
37.5632259536
 31
0.0
  0
LINE
  5
22F
330
225
100
AcDbEntity
  8
0
  6
Continuous
 62
     7
100
AcDbLine
 10
2363.8228498944
 20
37.5632259536
 30
0.0
 11
2363.8228498944
 21
38.7560802787
 31
0.0
  0
LINE
  5
230
330
225
100
AcDbEntity
  8
0
  6
Continuous
 62
     7
100
AcDbLine
 10
2363.8228498944
 20
38.7560802787
 30
0.0
 11
2360.6461359355
 21
38.7560802787
 31
0.0
  0
LINE
  5
231
330
225
100
AcDbEntity
  8
0
  6
Continuous
 62
     7
100
AcDbLine
 10
2360.6461359355
 20
38.7560802787
 30
0.0
 11
2360.6461359355
 21
48.0222920135
 31
0.0
  0
LINE
  5
232
330
225
100
AcDbEntity
  8
0
  6
Continuous
 62
     7
100
AcDbLine
 10
2375.5824621518
 20
48.0222920135
 30
0.0
 11
2374.2786446337
 21
48.0222920135
 31
0.0
  0
LINE
  5
233
330
225
100
AcDbEntity
  8
0
  6
Continuous
 62
     7
100
AcDbLine
 10
2374.2786446337
 20
48.0222920135
 30
0.0
 11
2374.2786446337
 21
37.5632259536
 31
0.0
  0
LINE
  5
234
330
225
100
AcDbEntity
  8
0
  6
Continuous
 62
     7
100
AcDbLine
 10
2374.2786446337
 20
37.5632259536
 30
0.0
 11
2378.7598303748
 21
37.5632259536
 31
0.0
  0
LINE
  5
235
330
225
100
AcDbEntity
  8
0
  6
Continuous
 62
     7
100
AcDbLine
 10
2378.7598303748
 20
37.5632259536
 30
0.0
 11
2378.7598303748
 21
38.7560802787
 31
0.0
  0
LINE
  5
236
330
225
100
AcDbEntity
  8
0
  6
Continuous
 62
     7
100
AcDbLine
 10
2378.7598303748
 20
38.7560802787
 30
0.0
 11
2375.5824621518
 21
38.7560802787
 31
0.0
  0
LINE
  5
237
330
225
100
AcDbEntity
  8
0
  6
Continuous
 62
     7
100
AcDbLine
 10
2375.5824621518
 20
38.7560802787
 30
0.0
 11
2375.5824621518
 21
48.0222920135
 31
0.0
  0
LWPOLYLINE
  5
238
330
225
100
AcDbEntity
  8
0
  6
Continuous
 62
     7
100
AcDbPolyline
 90
        2
 70
     0
 43
0.2
 10
2357.696189917
 20
34.2196746467
 10
2357.696189917
 20
32.3626113974
  0
LWPOLYLINE
  5
239
330
225
100
AcDbEntity
  8
0
  6
Continuous
 62
     7
100
AcDbPolyline
 90
        2
 70
     0
 43
0.2
 10
2357.696189917
 20
32.3626113974
 10
2358.4919059274
 20
32.3626113974
  0
LWPOLYLINE
  5
23A
330
225
100
AcDbEntity
  8
0
  6
Continuous
 62
     7
100
AcDbPolyline
 90
        2
 70
     0
 43
0.2
 10
2358.4919059274
 20
32.3626113974
 10
2358.4919059274
 20
32.574592969
  0
LWPOLYLINE
  5
23B
330
225
100
AcDbEntity
  8
0
  6
Continuous
 62
     7
100
AcDbPolyline
 90
        2
 70
     0
 43
0.2
 10
2358.4919059274
 20
32.574592969
 10
2357.9277994119
 20
32.574592969
  0
LWPOLYLINE
  5
23C
330
225
100
AcDbEntity
  8
0
  6
Continuous
 62
     7
100
AcDbPolyline
 90
        2
 70
     0
 43
0.2
 10
2357.9277994119
 20
32.574592969
 10
2357.9277994119
 20
34.2196746467
  0
LWPOLYLINE
  5
23D
330
225
100
AcDbEntity
  8
0
  6
Continuous
 62
     7
100
AcDbPolyline
 90
        2
 70
     0
 43
0.2
 10
2357.9277994119
 20
34.2196746467
 10
2357.696189917
 20
34.2196746467
  0
SPLINE
  5
23E
330
225
100
AcDbEntity
  8
0
  6
Continuous
 62
     7
100
AcDbSpline
 70
     3
 71
     3
 72
    35
 73
    31
 74
     0
 42
0.000000001
 43
0.0000001
 40
0.0
 40
0.0
 40
0.0
 40
0.0
 40
1.0
 40
1.0
 40
1.0
 40
2.0
 40
2.0
 40
2.0
 40
3.0
 40
3.0
 40
3.0
 40
4.0
 40
4.0
 40
4.0
 40
5.0
 40
5.0
 40
5.0
 40
6.0
 40
6.0
 40
6.0
 40
7.0
 40
7.0
 40
7.0
 40
8.0
 40
8.0
 40
8.0
 40
9.0
 40
9.0
 40
9.0
 40
10.0
 40
10.0
 40
10.0
 40
10.0
 10
2359.890199183
 20
33.5151630533
 30
0.0
 10
2359.890199183
 20
33.5151630533
 30
0.0
 10
2359.890199183
 20
32.8530477741
 30
0.0
 10
2359.890199183
 20
32.8530477741
 30
0.0
 10
2359.890199183
 20
32.5379541788
 30
0.0
 10
2360.0380628718
 20
32.3233555508
 30
0.0
 10
2360.3781493561
 20
32.3233555508
 30
0.0
 10
2360.7177124291
 20
32.3233555508
 30
0.0
 10
2360.8658378236
 20
32.5379541788
 30
0.0
 10
2360.8658378236
 20
32.8530477741
 30
0.0
 10
2360.8658378236
 20
32.8530477741
 30
0.0
 10
2360.8658378236
 20
33.5151630533
 30
0.0
 10
2360.8658378236
 20
33.5151630533
 30
0.0
 10
2360.8658378236
 20
33.5151630533
 30
0.0
 10
2360.6437805847
 20
33.5151630533
 30
0.0
 10
2360.6437805847
 20
33.5151630533
 30
0.0
 10
2360.6437805847
 20
33.5151630533
 30
0.0
 10
2360.6437805847
 20
32.8781715159
 30
0.0
 10
2360.6437805847
 20
32.8781715159
 30
0.0
 10
2360.6437805847
 20
32.6923605087
 30
0.0
 10
2360.5970661272
 20
32.5295795982
 30
0.0
 10
2360.3781493561
 20
32.5295795982
 30
0.0
 10
2360.1587091737
 20
32.5295795982
 30
0.0
 10
2360.1119947162
 20
32.6923605087
 30
0.0
 10
2360.1119947162
 20
32.8781715159
 30
0.0
 10
2360.1119947162
 20
32.8781715159
 30
0.0
 10
2360.1119947162
 20
33.5151630533
 30
0.0
 10
2360.1119947162
 20
33.5151630533
 30
0.0
 10
2360.1119947162
 20
33.5151630533
 30
0.0
 10
2359.890199183
 20
33.5151630533
 30
0.0
 10
2359.890199183
 20
33.5151630533
 30
0.0
  0
SPLINE
  5
23F
330
225
100
AcDbEntity
  8
0
  6
Continuous
 62
     7
100
AcDbSpline
 70
     3
 71
     3
 72
    35
 73
    31
 74
     0
 42
0.000000001
 43
0.0000001
 40
0.0
 40
0.0
 40
0.0
 40
0.0
 40
1.0
 40
1.0
 40
1.0
 40
2.0
 40
2.0
 40
2.0
 40
3.0
 40
3.0
 40
3.0
 40
4.0
 40
4.0
 40
4.0
 40
5.0
 40
5.0
 40
5.0
 40
6.0
 40
6.0
 40
6.0
 40
7.0
 40
7.0
 40
7.0
 40
8.0
 40
8.0
 40
8.0
 40
9.0
 40
9.0
 40
9.0
 40
10.0
 40
10.0
 40
10.0
 40
10.0
 10
2363.2889703808
 20
33.4738135615
 30
0.0
 10
2363.2005138731
 20
33.5251078677
 30
0.0
 10
2363.0870644765
 20
33.5502316095
 30
0.0
 10
2362.9834290415
 20
33.5502316095
 30
0.0
 10
2362.6285561883
 20
33.5502316095
 30
0.0
 10
2362.353110998
 20
33.2864323205
 30
0.0
 10
2362.353110998
 20
32.9289424108
 30
0.0
 10
2362.353110998
 20
32.5840143721
 30
0.0
 10
2362.6315658032
 20
32.3238789621
 30
0.0
 10
2362.9711288762
 20
32.3238789621
 30
0.0
 10
2363.0870644765
 20
32.3238789621
 30
0.0
 10
2363.1878211494
 20
32.3458622362
 30
0.0
 10
2363.2889703808
 20
32.3997735988
 30
0.0
 10
2363.2889703808
 20
32.3997735988
 30
0.0
 10
2363.2889703808
 20
32.6824156943
 30
0.0
 10
2363.2889703808
 20
32.6824156943
 30
0.0
 10
2363.2050937219
 20
32.589248485
 30
0.0
 10
2363.1015891397
 20
32.5301030095
 30
0.0
 10
2362.973484227
 20
32.5301030095
 30
0.0
 10
2362.739781087
 20
32.5301030095
 30
0.0
 10
2362.5745139728
 20
32.7023053232
 30
0.0
 10
2362.5745139728
 20
32.9388872253
 30
0.0
 10
2362.5745139728
 20
33.1508687969
 30
0.0
 10
2362.7422672906
 20
33.3429607395
 30
0.0
 10
2362.9590904166
 20
33.3429607395
 30
0.0
 10
2363.0919060309
 20
33.3429607395
 30
0.0
 10
2363.2005138731
 20
33.2890493769
 30
0.0
 10
2363.2889703808
 20
33.1880309983
 30
0.0
 10
2363.2889703808
 20
33.1880309983
 30
0.0
 10
2363.2889703808
 20
33.4738135615
 30
0.0
 10
2363.2889703808
 20
33.4738135615
 30
0.0
  0
SPLINE
  5
240
330
225
100
AcDbEntity
  8
0
  6
Continuous
 62
     7
100
AcDbSpline
 70
     3
 71
     3
 72
    32
 73
    28
 74
     0
 42
0.000000001
 43
0.0000001
 40
0.0
 40
0.0
 40
0.0
 40
0.0
 40
1.0
 40
1.0
 40
1.0
 40
2.0
 40
2.0
 40
2.0
 40
3.0
 40
3.0
 40
3.0
 40
4.0
 40
4.0
 40
4.0
 40
5.0
 40
5.0
 40
5.0
 40
6.0
 40
6.0
 40
6.0
 40
7.0
 40
7.0
 40
7.0
 40
8.0
 40
8.0
 40
8.0
 40
9.0
 40
9.0
 40
9.0
 40
9.0
 10
2365.820841633
 20
32.9022484352
 30
0.0
 10
2365.820841633
 20
32.9022484352
 30
0.0
 10
2365.820841633
 20
32.9362701689
 30
0.0
 10
2365.820841633
 20
32.9362701689
 30
0.0
 10
2365.820841633
 20
33.2785811511
 30
0.0
 10
2365.6479850552
 20
33.5502316095
 30
0.0
 10
2365.281335448
 20
33.5502316095
 30
0.0
 10
2364.9097134337
 20
33.5502316095
 30
0.0
 10
2364.7199768418
 20
33.283815264
 30
0.0
 10
2364.7199768418
 20
32.9289424108
 30
0.0
 10
2364.7199768418
 20
32.589248485
 30
0.0
 10
2364.9340520585
 20
32.3233555508
 30
0.0
 10
2365.2861770025
 20
32.3233555508
 30
0.0
 10
2365.5101970337
 20
32.3233555508
 30
0.0
 10
2365.7123646436
 20
32.4390294454
 30
0.0
 10
2365.820841633
 20
32.6384491461
 30
0.0
 10
2365.820841633
 20
32.6384491461
 30
0.0
 10
2365.6331986863
 20
32.7452250488
 30
0.0
 10
2365.6331986863
 20
32.7452250488
 30
0.0
 10
2365.5497145859
 20
32.6065210575
 30
0.0
 10
2365.458510169
 20
32.5206816063
 30
0.0
 10
2365.2889249117
 20
32.5206816063
 30
0.0
 10
2365.0769433401
 20
32.5206816063
 30
0.0
 10
2364.943996873
 20
32.7054457909
 30
0.0
 10
2364.9416415222
 20
32.9022484352
 30
0.0
 10
2364.9416415222
 20
32.9022484352
 30
0.0
 10
2365.820841633
 20
32.9022484352
 30
0.0
 10
2365.820841633
 20
32.9022484352
 30
0.0
  0
SPLINE
  5
241
330
225
100
AcDbEntity
  8
0
  6
Continuous
 62
     7
100
AcDbSpline
 70
     3
 71
     3
 72
    14
 73
    10
 74
     0
 42
0.000000001
 43
0.0000001
 40
0.0
 40
0.0
 40
0.0
 40
0.0
 40
1.0
 40
1.0
 40
1.0
 40
2.0
 40
2.0
 40
2.0
 40
3.0
 40
3.0
 40
3.0
 40
3.0
 10
2364.9536799818
 20
33.0697400473
 30
0.0
 10
2364.9812899273
 20
33.234614603
 30
0.0
 10
2365.1091331343
 20
33.3576162556
 30
0.0
 10
2365.281335448
 20
33.3576162556
 30
0.0
 10
2365.458510169
 20
33.3576162556
 30
0.0
 10
2365.5719595656
 20
33.241942361
 30
0.0
 10
2365.5991769526
 20
33.0697400473
 30
0.0
 10
2365.5991769526
 20
33.0697400473
 30
0.0
 10
2364.9536799818
 20
33.0697400473
 30
0.0
 10
2364.9536799818
 20
33.0697400473
 30
0.0
  0
SPLINE
  5
242
330
225
100
AcDbEntity
  8
0
  6
Continuous
 62
     7
100
AcDbSpline
 70
     3
 71
     3
 72
    20
 73
    16
 74
     0
 42
0.000000001
 43
0.0000001
 40
0.0
 40
0.0
 40
0.0
 40
0.0
 40
1.0
 40
1.0
 40
1.0
 40
2.0
 40
2.0
 40
2.0
 40
3.0
 40
3.0
 40
3.0
 40
4.0
 40
4.0
 40
4.0
 40
5.0
 40
5.0
 40
5.0
 40
5.0
 10
2367.8448730832
 20
33.2791045624
 30
0.0
 10
2367.8448730832
 20
33.2791045624
 30
0.0
 10
2368.2560126498
 20
32.7766297261
 30
0.0
 10
2368.2560126498
 20
32.7766297261
 30
0.0
 10
2368.1399461967
 20
32.6609558315
 30
0.0
 10
2368.0021581752
 20
32.5306264208
 30
0.0
 10
2367.8302175671
 20
32.5306264208
 30
0.0
 10
2367.6527811406
 20
32.5306264208
 30
0.0
 10
2367.4852895284
 20
32.6949775652
 30
0.0
 10
2367.4852895284
 20
32.8718905805
 30
0.0
 10
2367.4852895284
 20
33.0498504183
 30
0.0
 10
2367.6950466021
 20
33.1759925387
 30
0.0
 10
2367.8226281035
 20
33.2639256351
 30
0.0
 10
2367.8226281035
 20
33.2639256351
 30
0.0
 10
2367.8448730832
 20
33.2791045624
 30
0.0
 10
2367.8448730832
 20
33.2791045624
 30
0.0
  0
SPLINE
  5
243
330
225
100
AcDbEntity
  8
0
  6
Continuous
 62
     7
100
AcDbSpline
 70
     3
 71
     3
 72
    23
 73
    19
 74
     0
 42
0.000000001
 43
0.0000001
 40
0.0
 40
0.0
 40
0.0
 40
0.0
 40
1.0
 40
1.0
 40
1.0
 40
2.0
 40
2.0
 40
2.0
 40
3.0
 40
3.0
 40
3.0
 40
4.0
 40
4.0
 40
4.0
 40
5.0
 40
5.0
 40
5.0
 40
6.0
 40
6.0
 40
6.0
 40
6.0
 10
2367.8942045971
 20
33.5701212385
 30
0.0
 10
2367.8942045971
 20
33.5701212385
 30
0.0
 10
2367.8325729179
 20
33.6486329317
 30
0.0
 10
2367.8325729179
 20
33.6486329317
 30
0.0
 10
2367.7786615553
 20
33.7171998104
 30
0.0
 10
2367.7218714306
 20
33.7862901004
 30
0.0
 10
2367.7218714306
 20
33.8799807209
 30
0.0
 10
2367.7218714306
 20
33.9987950832
 30
0.0
 10
2367.8177865491
 20
34.0762599539
 30
0.0
 10
2367.9287497421
 20
34.0762599539
 30
0.0
 10
2368.0520131004
 20
34.0762599539
 30
0.0
 10
2368.1453111624
 20
34.0050760187
 30
0.0
 10
2368.1453111624
 20
33.874746608
 30
0.0
 10
2368.1453111624
 20
33.7397064958
 30
0.0
 10
2368.0172062497
 20
33.6632884477
 30
0.0
 10
2367.923646482
 20
33.5894874561
 30
0.0
 10
2367.923646482
 20
33.5894874561
 30
0.0
 10
2367.8942045971
 20
33.5701212385
 30
0.0
 10
2367.8942045971
 20
33.5701212385
 30
0.0
  0
SPLINE
  5
244
330
225
100
AcDbEntity
  8
0
  6
Continuous
 62
     7
100
AcDbSpline
 70
     3
 71
     3
 72
    50
 73
    46
 74
     0
 42
0.000000001
 43
0.0000001
 40
0.0
 40
0.0
 40
0.0
 40
0.0
 40
1.0
 40
1.0
 40
1.0
 40
2.0
 40
2.0
 40
2.0
 40
3.0
 40
3.0
 40
3.0
 40
4.0
 40
4.0
 40
4.0
 40
5.0
 40
5.0
 40
5.0
 40
6.0
 40
6.0
 40
6.0
 40
7.0
 40
7.0
 40
7.0
 40
8.0
 40
8.0
 40
8.0
 40
9.0
 40
9.0
 40
9.0
 40
10.0
 40
10.0
 40
10.0
 40
11.0
 40
11.0
 40
11.0
 40
12.0
 40
12.0
 40
12.0
 40
13.0
 40
13.0
 40
13.0
 40
14.0
 40
14.0
 40
14.0
 40
15.0
 40
15.0
 40
15.0
 40
15.0
 10
2368.5963608398
 20
32.3631348087
 30
0.0
 10
2368.5963608398
 20
32.3631348087
 30
0.0
 10
2368.8817508445
 20
32.3631348087
 30
0.0
 10
2368.8817508445
 20
32.3631348087
 30
0.0
 10
2368.8817508445
 20
32.3631348087
 30
0.0
 10
2368.5493846767
 20
32.7740126696
 30
0.0
 10
2368.5493846767
 20
32.7740126696
 30
0.0
 10
2368.5493846767
 20
32.7740126696
 30
0.0
 10
2368.7758909115
 20
33.0399056039
 30
0.0
 10
2368.7758909115
 20
33.0399056039
 30
0.0
 10
2368.7758909115
 20
33.0399056039
 30
0.0
 10
2368.6276346642
 20
33.1927416999
 30
0.0
 10
2368.6276346642
 20
33.1927416999
 30
0.0
 10
2368.6276346642
 20
33.1927416999
 30
0.0
 10
2368.411727508
 20
32.9415042818
 30
0.0
 10
2368.411727508
 20
32.9415042818
 30
0.0
 10
2368.411727508
 20
32.9415042818
 30
0.0
 10
2368.0246648606
 20
33.4094339731
 30
0.0
 10
2368.0246648606
 20
33.4094339731
 30
0.0
 10
2368.1801180131
 20
33.5235376339
 30
0.0
 10
2368.3623959941
 20
33.6632884477
 30
0.0
 10
2368.3623959941
 20
33.8726529629
 30
0.0
 10
2368.3623959941
 20
34.116562623
 30
0.0
 10
2368.160359237
 20
34.2599773159
 30
0.0
 10
2367.9338530021
 20
34.2599773159
 30
0.0
 10
2367.6896816364
 20
34.2599773159
 30
0.0
 10
2367.5053100102
 20
34.109234865
 30
0.0
 10
2367.5053100102
 20
33.8527633339
 30
0.0
 10
2367.5053100102
 20
33.6952165363
 30
0.0
 10
2367.603973038
 20
33.5575593676
 30
0.0
 10
2367.7093095596
 20
33.4465961745
 30
0.0
 10
2367.7093095596
 20
33.4465961745
 30
0.0
 10
2367.5937665178
 20
33.3628503685
 30
0.0
 10
2367.5937665178
 20
33.3628503685
 30
0.0
 10
2367.4160683856
 20
33.234614603
 30
0.0
 10
2367.2687281081
 20
33.1069022487
 30
0.0
 10
2367.2687281081
 20
32.8697969353
 30
0.0
 10
2367.2687281081
 20
32.5494692271
 30
0.0
 10
2367.5272932843
 20
32.3233555508
 30
0.0
 10
2367.837676178
 20
32.3233555508
 30
0.0
 10
2368.0565929491
 20
32.3233555508
 30
0.0
 10
2368.2537881519
 20
32.4484508486
 30
0.0
 10
2368.394062377
 20
32.6143722268
 30
0.0
 10
2368.394062377
 20
32.6143722268
 30
0.0
 10
2368.5963608398
 20
32.3631348087
 30
0.0
 10
2368.5963608398
 20
32.3631348087
 30
0.0
  0
LWPOLYLINE
  5
245
330
225
100
AcDbEntity
  8
0
  6
Continuous
 62
     7
100
AcDbPolyline
 90
        2
 70
     0
 43
0.2
 10
2370.5318049295
 20
34.2196746467
 10
2370.3004571402
 20
34.2196746467
  0
LWPOLYLINE
  5
246
330
225
100
AcDbEntity
  8
0
  6
Continuous
 62
     7
100
AcDbPolyline
 90
        2
 70
     0
 43
0.2
 10
2370.3004571402
 20
34.2196746467
 10
2370.3004571402
 20
32.3626113974
  0
LWPOLYLINE
  5
247
330
225
100
AcDbEntity
  8
0
  6
Continuous
 62
     7
100
AcDbPolyline
 90
        2
 70
     0
 43
0.2
 10
2370.3004571402
 20
32.3626113974
 10
2371.0957805922
 20
32.3626113974
  0
LWPOLYLINE
  5
248
330
225
100
AcDbEntity
  8
0
  6
Continuous
 62
     7
100
AcDbPolyline
 90
        2
 70
     0
 43
0.2
 10
2371.0957805922
 20
32.3626113974
 10
2371.0957805922
 20
32.574592969
  0
LWPOLYLINE
  5
249
330
225
100
AcDbEntity
  8
0
  6
Continuous
 62
     7
100
AcDbPolyline
 90
        2
 70
     0
 43
0.2
 10
2371.0957805922
 20
32.574592969
 10
2370.5318049295
 20
32.574592969
  0
LWPOLYLINE
  5
24A
330
225
100
AcDbEntity
  8
0
  6
Continuous
 62
     7
100
AcDbPolyline
 90
        2
 70
     0
 43
0.2
 10
2370.5318049295
 20
32.574592969
 10
2370.5318049295
 20
34.2196746467
  0
LWPOLYLINE
  5
24B
330
225
100
AcDbEntity
  8
0
  6
Continuous
 62
     7
100
AcDbPolyline
 90
        2
 70
     0
 43
0.2
 10
2372.7748840037
 20
33.5151630533
 10
2372.5537427345
 20
33.5151630533
  0
LWPOLYLINE
  5
24C
330
225
100
AcDbEntity
  8
0
  6
Continuous
 62
     7
100
AcDbPolyline
 90
        2
 70
     0
 43
0.2
 10
2372.5537427345
 20
33.5151630533
 10
2372.5537427345
 20
32.3631348087
  0
LWPOLYLINE
  5
24D
330
225
100
AcDbEntity
  8
0
  6
Continuous
 62
     7
100
AcDbPolyline
 90
        2
 70
     0
 43
0.2
 10
2372.5537427345
 20
32.3631348087
 10
2372.7748840037
 20
32.3631348087
  0
LWPOLYLINE
  5
24E
330
225
100
AcDbEntity
  8
0
  6
Continuous
 62
     7
100
AcDbPolyline
 90
        2
 70
     0
 43
0.2
 10
2372.7748840037
 20
32.3631348087
 10
2372.7748840037
 20
33.5151630533
  0
LWPOLYLINE
  5
24F
330
225
100
AcDbEntity
  8
0
  6
Continuous
 62
     7
100
AcDbPolyline
 90
        2
 70
     1
 43
0.2
 10
2372.5118607265
 20
34.0451169822
 42
1.0
 10
2372.8170277174
 20
34.0451169822
 42
1.0
  0
SPLINE
  5
250
330
225
100
AcDbEntity
  8
0
  6
Continuous
 62
     7
100
AcDbSpline
 70
     3
 71
     3
 72
    17
 73
    13
 74
     0
 42
0.000000001
 43
0.0000001
 40
0.0
 40
0.0
 40
0.0
 40
0.0
 40
1.0
 40
1.0
 40
1.0
 40
2.0
 40
2.0
 40
2.0
 40
3.0
 40
3.0
 40
3.0
 40
4.0
 40
4.0
 40
4.0
 40
4.0
 10
2374.9051679453
 20
32.5206816063
 30
0.0
 10
2374.6712030996
 20
32.5206816063
 30
0.0
 10
2374.5408736889
 20
32.7227183634
 30
0.0
 10
2374.5408736889
 20
32.9388872253
 30
0.0
 10
2374.5408736889
 20
33.1534858533
 30
0.0
 10
2374.6766989181
 20
33.3523821427
 30
0.0
 10
2374.9051679453
 20
33.3523821427
 30
0.0
 10
2375.1446286095
 20
33.3523821427
 30
0.0
 10
2375.280192133
 20
33.1634306678
 30
0.0
 10
2375.280192133
 20
32.9388872253
 30
0.0
 10
2375.280192133
 20
32.712773549
 30
0.0
 10
2375.1469839603
 20
32.5206816063
 30
0.0
 10
2374.9051679453
 20
32.5206816063
 30
0.0
  0
SPLINE
  5
251
330
225
100
AcDbEntity
  8
0
  6
Continuous
 62
     7
100
AcDbSpline
 70
     3
 71
     3
 72
    50
 73
    46
 74
     0
 42
0.000000001
 43
0.0000001
 40
0.0
 40
0.0
 40
0.0
 40
0.0
 40
1.0
 40
1.0
 40
1.0
 40
2.0
 40
2.0
 40
2.0
 40
3.0
 40
3.0
 40
3.0
 40
4.0
 40
4.0
 40
4.0
 40
5.0
 40
5.0
 40
5.0
 40
6.0
 40
6.0
 40
6.0
 40
7.0
 40
7.0
 40
7.0
 40
8.0
 40
8.0
 40
8.0
 40
9.0
 40
9.0
 40
9.0
 40
10.0
 40
10.0
 40
10.0
 40
11.0
 40
11.0
 40
11.0
 40
12.0
 40
12.0
 40
12.0
 40
13.0
 40
13.0
 40
13.0
 40
14.0
 40
14.0
 40
14.0
 40
15.0
 40
15.0
 40
15.0
 40
15.0
 10
2375.4892949425
 20
33.5156864645
 30
0.0
 10
2375.4892949425
 20
33.5156864645
 30
0.0
 10
2375.2676302621
 20
33.5156864645
 30
0.0
 10
2375.2676302621
 20
33.5156864645
 30
0.0
 10
2375.2676302621
 20
33.5156864645
 30
0.0
 10
2375.2676302621
 20
33.318360409
 30
0.0
 10
2375.2676302621
 20
33.318360409
 30
0.0
 10
2375.2676302621
 20
33.318360409
 30
0.0
 10
2375.2629195605
 20
33.318360409
 30
0.0
 10
2375.2629195605
 20
33.318360409
 30
0.0
 10
2375.1715842908
 20
33.4612516906
 30
0.0
 10
2375.0336654165
 20
33.5497081983
 30
0.0
 10
2374.8609396915
 20
33.5497081983
 30
0.0
 10
2374.5285735237
 20
33.5497081983
 30
0.0
 10
2374.3194707142
 20
33.2618319899
 30
0.0
 10
2374.3194707142
 20
32.9462149833
 30
0.0
 10
2374.3194707142
 20
32.616465872
 30
0.0
 10
2374.516535064
 20
32.3233555508
 30
0.0
 10
2374.8714079172
 20
32.3233555508
 30
0.0
 10
2375.0336654165
 20
32.3233555508
 30
0.0
 10
2375.173677936
 20
32.4118120584
 30
0.0
 10
2375.2629195605
 20
32.5426648804
 30
0.0
 10
2375.2629195605
 20
32.5426648804
 30
0.0
 10
2375.2676302621
 20
32.5426648804
 30
0.0
 10
2375.2676302621
 20
32.5426648804
 30
0.0
 10
2375.2676302621
 20
32.5426648804
 30
0.0
 10
2375.2676302621
 20
32.3233555508
 30
0.0
 10
2375.2676302621
 20
32.3233555508
 30
0.0
 10
2375.2676302621
 20
32.0867736487
 30
0.0
 10
2375.211101843
 20
31.8999158189
 30
0.0
 10
2374.9378811508
 20
31.8999158189
 30
0.0
 10
2374.735582688
 20
31.8999158189
 30
0.0
 10
2374.5929531121
 20
32.0182067699
 30
0.0
 10
2374.5929531121
 20
32.2244308174
 30
0.0
 10
2374.5929531121
 20
32.2244308174
 30
0.0
 10
2374.3712884317
 20
32.2244308174
 30
0.0
 10
2374.3712884317
 20
32.2244308174
 30
0.0
 10
2374.3762608389
 20
31.8999158189
 30
0.0
 10
2374.6073469225
 20
31.7031131746
 30
0.0
 10
2374.9276746307
 20
31.7031131746
 30
0.0
 10
2375.3757146931
 20
31.7031131746
 30
0.0
 10
2375.4892949425
 20
31.9883723265
 30
0.0
 10
2375.4892949425
 20
32.3851180827
 30
0.0
 10
2375.4892949425
 20
32.3851180827
 30
0.0
 10
2375.4892949425
 20
33.5156864645
 30
0.0
 10
2375.4892949425
 20
33.5156864645
 30
0.0
  0
SPLINE
  5
252
330
225
100
AcDbEntity
  8
0
  6
Continuous
 62
     7
100
AcDbSpline
 70
     3
 71
     3
 72
    44
 73
    40
 74
     0
 42
0.000000001
 43
0.0000001
 40
0.0
 40
0.0
 40
0.0
 40
0.0
 40
1.0
 40
1.0
 40
1.0
 40
2.0
 40
2.0
 40
2.0
 40
3.0
 40
3.0
 40
3.0
 40
4.0
 40
4.0
 40
4.0
 40
5.0
 40
5.0
 40
5.0
 40
6.0
 40
6.0
 40
6.0
 40
7.0
 40
7.0
 40
7.0
 40
8.0
 40
8.0
 40
8.0
 40
9.0
 40
9.0
 40
9.0
 40
10.0
 40
10.0
 40
10.0
 40
11.0
 40
11.0
 40
11.0
 40
12.0
 40
12.0
 40
12.0
 40
13.0
 40
13.0
 40
13.0
 40
13.0
 10
2377.0582202779
 20
34.5007465083
 30
0.0
 10
2377.0582202779
 20
34.5007465083
 30
0.0
 10
2377.0582202779
 20
32.3626113974
 30
0.0
 10
2377.0582202779
 20
32.3626113974
 30
0.0
 10
2377.0582202779
 20
32.3626113974
 30
0.0
 10
2377.2796232527
 20
32.3626113974
 30
0.0
 10
2377.2796232527
 20
32.3626113974
 30
0.0
 10
2377.2796232527
 20
32.3626113974
 30
0.0
 10
2377.2796232527
 20
32.8923036207
 30
0.0
 10
2377.2796232527
 20
32.8923036207
 30
0.0
 10
2377.2796232527
 20
33.1021915471
 30
0.0
 10
2377.2796232527
 20
33.352905554
 30
0.0
 10
2377.5648824046
 20
33.352905554
 30
0.0
 10
2377.7917811979
 20
33.352905554
 30
0.0
 10
2377.8187368792
 20
33.2199590869
 30
0.0
 10
2377.8187368792
 20
33.0236798539
 30
0.0
 10
2377.8187368792
 20
33.0236798539
 30
0.0
 10
2377.8187368792
 20
32.3626113974
 30
0.0
 10
2377.8187368792
 20
32.3626113974
 30
0.0
 10
2377.8187368792
 20
32.3626113974
 30
0.0
 10
2378.0406632653
 20
32.3626113974
 30
0.0
 10
2378.0406632653
 20
32.3626113974
 30
0.0
 10
2378.0406632653
 20
32.3626113974
 30
0.0
 10
2378.0406632653
 20
33.0498504183
 30
0.0
 10
2378.0406632653
 20
33.0498504183
 30
0.0
 10
2378.0406632653
 20
33.3303988686
 30
0.0
 10
2377.9566557536
 20
33.5502316095
 30
0.0
 10
2377.6316173438
 20
33.5502316095
 30
0.0
 10
2377.4918665299
 20
33.5502316095
 30
0.0
 10
2377.3536859499
 20
33.483758376
 30
0.0
 10
2377.2843339543
 20
33.3607567233
 30
0.0
 10
2377.2843339543
 20
33.3607567233
 30
0.0
 10
2377.2796232527
 20
33.3607567233
 30
0.0
 10
2377.2796232527
 20
33.3607567233
 30
0.0
 10
2377.2796232527
 20
33.3607567233
 30
0.0
 10
2377.2796232527
 20
34.5007465083
 30
0.0
 10
2377.2796232527
 20
34.5007465083
 30
0.0
 10
2377.2796232527
 20
34.5007465083
 30
0.0
 10
2377.0582202779
 20
34.5007465083
 30
0.0
 10
2377.0582202779
 20
34.5007465083
 30
0.0
  0
LWPOLYLINE
  5
253
330
225
100
AcDbEntity
  8
0
  6
Continuous
 62
     7
100
AcDbPolyline
 90
        2
 70
     0
 43
0.2
 10
2379.8804539421
 20
33.3084155945
 10
2380.0968845097
 20
33.3084155945
  0
LWPOLYLINE
  5
254
330
225
100
AcDbEntity
  8
0
  6
Continuous
 62
     7
100
AcDbPolyline
 90
        2
 70
     0
 43
0.2
 10
2380.0968845097
 20
33.3084155945
 10
2380.0968845097
 20
33.5151630533
  0
LWPOLYLINE
  5
255
330
225
100
AcDbEntity
  8
0
  6
Continuous
 62
     7
100
AcDbPolyline
 90
        2
 70
     0
 43
0.2
 10
2380.0968845097
 20
33.5151630533
 10
2379.8804539421
 20
33.5151630533
  0
LWPOLYLINE
  5
256
330
225
100
AcDbEntity
  8
0
  6
Continuous
 62
     7
100
AcDbPolyline
 90
        2
 70
     0
 43
0.2
 10
2379.8804539421
 20
33.5151630533
 10
2379.8804539421
 20
33.9558753576
  0
LWPOLYLINE
  5
257
330
225
100
AcDbEntity
  8
0
  6
Continuous
 62
     7
100
AcDbPolyline
 90
        2
 70
     0
 43
0.2
 10
2379.8804539421
 20
33.9558753576
 10
2379.6587892617
 20
33.9558753576
  0
LWPOLYLINE
  5
258
330
225
100
AcDbEntity
  8
0
  6
Continuous
 62
     7
100
AcDbPolyline
 90
        2
 70
     0
 43
0.2
 10
2379.6587892617
 20
33.9558753576
 10
2379.6587892617
 20
33.5151630533
  0
LWPOLYLINE
  5
259
330
225
100
AcDbEntity
  8
0
  6
Continuous
 62
     7
100
AcDbPolyline
 90
        2
 70
     0
 43
0.2
 10
2379.6587892617
 20
33.5151630533
 10
2379.5381429599
 20
33.5151630533
  0
LWPOLYLINE
  5
25A
330
225
100
AcDbEntity
  8
0
  6
Continuous
 62
     7
100
AcDbPolyline
 90
        2
 70
     0
 43
0.2
 10
2379.5381429599
 20
33.5151630533
 10
2379.5381429599
 20
33.3084155945
  0
LWPOLYLINE
  5
25B
330
225
100
AcDbEntity
  8
0
  6
Continuous
 62
     7
100
AcDbPolyline
 90
        2
 70
     0
 43
0.2
 10
2379.5381429599
 20
33.3084155945
 10
2379.6587892617
 20
33.3084155945
  0
LWPOLYLINE
  5
25C
330
225
100
AcDbEntity
  8
0
  6
Continuous
 62
     7
100
AcDbPolyline
 90
        2
 70
     0
 43
0.2
 10
2379.6587892617
 20
33.3084155945
 10
2379.6587892617
 20
32.3626113974
  0
LWPOLYLINE
  5
25D
330
225
100
AcDbEntity
  8
0
  6
Continuous
 62
     7
100
AcDbPolyline
 90
        2
 70
     0
 43
0.2
 10
2379.6587892617
 20
32.3626113974
 10
2379.8804539421
 20
32.3626113974
  0
LWPOLYLINE
  5
25E
330
225
100
AcDbEntity
  8
0
  6
Continuous
 62
     7
100
AcDbPolyline
 90
        2
 70
     0
 43
0.2
 10
2379.8804539421
 20
32.3626113974
 10
2379.8804539421
 20
33.3084155945
  0
SPLINE
  5
25F
330
225
100
AcDbEntity
  8
0
  6
Continuous
 62
     7
100
AcDbSpline
 70
     3
 71
     3
 72
    20
 73
    16
 74
     0
 42
0.000000001
 43
0.0000001
 40
0.0
 40
0.0
 40
0.0
 40
0.0
 40
1.0
 40
1.0
 40
1.0
 40
2.0
 40
2.0
 40
2.0
 40
3.0
 40
3.0
 40
3.0
 40
4.0
 40
4.0
 40
4.0
 40
5.0
 40
5.0
 40
5.0
 40
5.0
 10
2367.6624642494
 20
42.7235378408
 30
0.0
 10
2367.6624642494
 20
42.7235378408
 30
0.0
 10
2369.9788209039
 20
39.8939764185
 30
0.0
 10
2369.9788209039
 20
39.8939764185
 30
0.0
 10
2369.3271738505
 20
39.2418059538
 30
0.0
 10
2368.5503006464
 20
38.5058896831
 30
0.0
 10
2367.5791110018
 20
38.5058896831
 30
0.0
 10
2366.5805731174
 20
38.5058896831
 30
0.0
 10
2365.6372551238
 20
39.4354681304
 30
0.0
 10
2365.6372551238
 20
40.4346602789
 30
0.0
 10
2365.6372551238
 20
41.4338524274
 30
0.0
 10
2366.8161081969
 20
42.1404576661
 30
0.0
 10
2367.5376306572
 20
42.640315446
 30
0.0
 10
2367.5376306572
 20
42.640315446
 30
0.0
 10
2367.6624642494
 20
42.7235378408
 30
0.0
 10
2367.6624642494
 20
42.7235378408
 30
0.0
  0
SPLINE
  5
260
330
225
100
AcDbEntity
  8
0
  6
Continuous
 62
     7
100
AcDbSpline
 70
     3
 71
     3
 72
    23
 73
    19
 74
     0
 42
0.000000001
 43
0.0000001
 40
0.0
 40
0.0
 40
0.0
 40
0.0
 40
1.0
 40
1.0
 40
1.0
 40
2.0
 40
2.0
 40
2.0
 40
3.0
 40
3.0
 40
3.0
 40
4.0
 40
4.0
 40
4.0
 40
5.0
 40
5.0
 40
5.0
 40
6.0
 40
6.0
 40
6.0
 40
6.0
 10
2367.939872232
 20
44.3612917605
 30
0.0
 10
2367.939872232
 20
44.3612917605
 30
0.0
 10
2367.5933739594
 20
44.8046211213
 30
0.0
 10
2367.5933739594
 20
44.8046211213
 30
0.0
 10
2367.2875709144
 20
45.1927305913
 30
0.0
 10
2366.9686825873
 20
45.5812326197
 30
0.0
 10
2366.9686825873
 20
46.1081769338
 30
0.0
 10
2366.9686825873
 20
46.7743486504
 30
0.0
 10
2367.5100207118
 20
47.2180705697
 30
0.0
 10
2368.1339269669
 20
47.2180705697
 30
0.0
 10
2368.827708629
 20
47.2180705697
 30
0.0
 10
2369.3549146487
 20
46.815828995
 30
0.0
 10
2369.3549146487
 20
46.080828694
 30
0.0
 10
2369.3549146487
 20
45.3175641834
 30
0.0
 10
2368.633653894
 20
44.8874509576
 30
0.0
 10
2368.1065787271
 20
44.4717315422
 30
0.0
 10
2368.1065787271
 20
44.4717315422
 30
0.0
 10
2367.939872232
 20
44.3612917605
 30
0.0
 10
2367.939872232
 20
44.3612917605
 30
0.0
  0
SPLINE
  5
261
330
225
100
AcDbEntity
  8
0
  6
Continuous
 62
     7
100
AcDbSpline
 70
     3
 71
     3
 72
    50
 73
    46
 74
     0
 42
0.000000001
 43
0.0000001
 40
0.0
 40
0.0
 40
0.0
 40
0.0
 40
1.0
 40
1.0
 40
1.0
 40
2.0
 40
2.0
 40
2.0
 40
3.0
 40
3.0
 40
3.0
 40
4.0
 40
4.0
 40
4.0
 40
5.0
 40
5.0
 40
5.0
 40
6.0
 40
6.0
 40
6.0
 40
7.0
 40
7.0
 40
7.0
 40
8.0
 40
8.0
 40
8.0
 40
9.0
 40
9.0
 40
9.0
 40
10.0
 40
10.0
 40
10.0
 40
11.0
 40
11.0
 40
11.0
 40
12.0
 40
12.0
 40
12.0
 40
13.0
 40
13.0
 40
13.0
 40
14.0
 40
14.0
 40
14.0
 40
15.0
 40
15.0
 40
15.0
 40
15.0
 10
2371.8934593949
 20
37.5627025424
 30
0.0
 10
2371.8934593949
 20
37.5627025424
 30
0.0
 10
2373.5026873994
 20
37.5627025424
 30
0.0
 10
2373.5026873994
 20
37.5627025424
 30
0.0
 10
2373.5026873994
 20
37.5627025424
 30
0.0
 10
2371.6296601058
 20
39.8798443138
 30
0.0
 10
2371.6296601058
 20
39.8798443138
 30
0.0
 10
2371.6296601058
 20
39.8798443138
 30
0.0
 10
2372.9059985313
 20
41.3773240084
 30
0.0
 10
2372.9059985313
 20
41.3773240084
 30
0.0
 10
2372.9059985313
 20
41.3773240084
 30
0.0
 10
2372.0737745836
 20
42.2383355769
 30
0.0
 10
2372.0737745836
 20
42.2383355769
 30
0.0
 10
2372.0737745836
 20
42.2383355769
 30
0.0
 10
2370.8531794602
 20
40.8230314545
 30
0.0
 10
2370.8531794602
 20
40.8230314545
 30
0.0
 10
2370.8531794602
 20
40.8230314545
 30
0.0
 10
2368.6752650914
 20
43.4584072889
 30
0.0
 10
2368.6752650914
 20
43.4584072889
 30
0.0
 10
2369.5488385309
 20
44.0964456488
 30
0.0
 10
2370.575509772
 20
44.8874509576
 30
0.0
 10
2370.575509772
 20
46.0663040307
 30
0.0
 10
2370.575509772
 20
47.4399969558
 30
0.0
 10
2369.4376136322
 20
48.2444801052
 30
0.0
 10
2368.1623220293
 20
48.2444801052
 30
0.0
 10
2366.7888908099
 20
48.2444801052
 30
0.0
 10
2365.7479566112
 20
47.3982549055
 30
0.0
 10
2365.7479566112
 20
45.9556025434
 30
0.0
 10
2365.7479566112
 20
45.0680278519
 30
0.0
 10
2366.3032959876
 20
44.2911546479
 30
0.0
 10
2366.8994614445
 20
43.6667249815
 30
0.0
 10
2366.8994614445
 20
43.6667249815
 30
0.0
 10
2366.2475526854
 20
43.1951314111
 30
0.0
 10
2366.2475526854
 20
43.1951314111
 30
0.0
 10
2365.249014801
 20
42.4738706564
 30
0.0
 10
2364.4161365892
 20
41.7526099018
 30
0.0
 10
2364.4161365892
 20
40.4210515854
 30
0.0
 10
2364.4161365892
 20
38.6173762874
 30
0.0
 10
2365.8731827618
 20
37.3407761563
 30
0.0
 10
2367.6207221992
 20
37.3407761563
 30
0.0
 10
2368.8555802801
 20
37.3407761563
 30
0.0
 10
2369.9649505047
 20
38.0489516288
 30
0.0
 10
2370.7558249607
 20
38.9774832535
 30
0.0
 10
2370.7558249607
 20
38.9774832535
 30
0.0
 10
2371.8934593949
 20
37.5627025424
 30
0.0
 10
2371.8934593949
 20
37.5627025424
 30
0.0
  0
LINE
  5
262
330
225
100
AcDbEntity
  8
0
  6
Continuous
 62
     7
100
AcDbLine
 10
2357.6963207699
 20
35.536577447
 30
0.0
 11
2380.1102314975
 21
35.536577447
 31
0.0
  0
LINE
  5
263
330
225
100
AcDbEntity
  8
0
  6
Continuous
 62
     7
100
AcDbLine
 10
2380.1102314975
 20
35.536577447
 30
0.0
 11
2380.1102314975
 21
57.9504881746
 31
0.0
  0
LINE
  5
264
330
225
100
AcDbEntity
  8
0
  6
Continuous
 62
     7
100
AcDbLine
 10
2380.1102314975
 20
57.9504881746
 30
0.0
 11
2357.6963207699
 21
57.9504881746
 31
0.0
  0
LINE
  5
265
330
225
100
AcDbEntity
  8
0
  6
Continuous
 62
     7
100
AcDbLine
 10
2357.6963207699
 20
57.9504881746
 30
0.0
 11
2357.6963207699
 21
35.536577447
 31
0.0
  0
ENDBLK
  5
266
330
225
100
AcDbEntity
  8
0
  6
ByBlock
 62
     0
100
AcDbBlockEnd
  0
BLOCK
  5
267
330
226
100
AcDbEntity
  8
0
100
AcDbBlockBegin
  2
PROIEZIONE_EU_BL0
 70
     0
 10
2370.0771636625
 20
70.4518006746
 30
0.0
  3
PROIEZIONE_EU_BL0
  1

  0
LWPOLYLINE
  5
268
330
226
100
AcDbEntity
  8
DEFAULT_1
  6
CENTER
 62
     7
100
AcDbPolyline
 90
        2
 70
     0
 43
0.25
 10
2376.2037843242
 20
75.4514948065
 10
2376.2038253065
 20
65.4521065428
  0
LWPOLYLINE
  5
269
330
226
100
AcDbEntity
  8
DEFAULT_1
  6
CENTER
 62
     7
100
AcDbPolyline
 90
        2
 70
     0
 43
0.25
 10
2382.2038141492
 20
70.4520718098
 10
2357.9505131758
 20
70.4518011494
  0
LWPOLYLINE
  5
26A
330
226
100
AcDbEntity
  8
0
  6
Continuous
 62
     7
100
AcDbPolyline
 90
        2
 70
     1
 43
0.25
 10
2372.6566741484
 20
70.4332529204
 42
1.0
 10
2379.763003247
 20
70.4332529204
 42
1.0
  0
LWPOLYLINE
  5
26B
330
226
100
AcDbEntity
  8
0
  6
Continuous
 62
     7
100
AcDbPolyline
 90
        2
 70
     1
 43
0.25
 10
2374.2064179767
 20
70.4511509651
 42
1.0
 10
2378.2181697268
 20
70.4511509651
 42
1.0
  0
LWPOLYLINE
  5
26C
330
226
100
AcDbEntity
  8
0
  6
Continuous
 62
     7
100
AcDbPolyline
 90
        2
 70
     0
 43
0.25
 10
2370.2038119432
 20
74.0270041699
 10
2370.2038115886
 20
66.9268012616
  0
LWPOLYLINE
  5
26D
330
226
100
AcDbEntity
  8
0
  6
Continuous
 62
     7
100
AcDbPolyline
 90
        2
 70
     0
 43
0.25
 10
2370.203840025
 20
66.9267728252
 10
2360.2092827539
 20
68.446866238
  0
LWPOLYLINE
  5
26E
330
226
100
AcDbEntity
  8
0
  6
Continuous
 62
     7
100
AcDbPolyline
 90
        2
 70
     0
 43
0.25
 10
2360.2069727683
 20
68.4461886965
 10
2360.2043058642
 20
72.4518273079
  0
LWPOLYLINE
  5
26F
330
226
100
AcDbEntity
  8
0
  6
Continuous
 62
     7
100
AcDbPolyline
 90
        2
 70
     0
 43
0.25
 10
2360.2042975881
 20
72.4518190319
 10
2370.2040408254
 20
74.0269762519
  0
ENDBLK
  5
270
330
226
100
AcDbEntity
  8
0
  6
ByBlock
 62
     0
100
AcDbBlockEnd
  0
ENDSEC
  0
SECTION
  2
ENTITIES
  0
LINE
  5
29B
330
1B
100
AcDbEntity
 67
     1
  8
0
  6
Continuous
 62
     7
100
AcDbLine
 10
0.0
 20
0.0
 30
0.0
 11
2500.0
 21
0.0
 31
0.0
  0
LINE
  5
29C
330
1B
100
AcDbEntity
 67
     1
  8
0
  6
Continuous
 62
     7
100
AcDbLine
 10
2500.0
 20
0.0
 30
0.0
 11
2500.0
 21
3200.0
 31
0.0
  0
LINE
  5
29D
330
1B
100
AcDbEntity
 67
     1
  8
0
  6
Continuous
 62
     7
100
AcDbLine
 10
0.0
 20
3200.0
 30
0.0
 11
2500.0
 21
3200.0
 31
0.0
  0
LINE
  5
29E
330
1B
100
AcDbEntity
 67
     1
  8
0
  6
Continuous
 62
     7
100
AcDbLine
 10
0.0
 20
0.0
 30
0.0
 11
0.0
 21
3200.0
 31
0.0
  0
VIEWPORT
  5
29F
330
1B
100
AcDbEntity
 67
     1
  8
0
100
AcDbViewport
 10
0.0
 20
0.0
 30
0.0
 40
5334.163424124515
 41
3772.015564202335
 68
     1
 69
     1
 12
2521.400778210117
 22
1600.0
 13
0.0
 23
0.0
 14
1.0
 24
1.0
 15
0.0
 25
0.0
 16
0.0
 26
0.0
 36
1.0
 17
0.0
 27
0.0
 37
0.0
 42
50.0
 43
0.0
 44
0.0
 45
3772.015564202335
 50
0.0
 51
0.0
 72
   100
 90
   557216
  1

281
     0
 71
     1
 74
     0
110
0.0
120
0.0
130
0.0
111
1.0
121
0.0
131
0.0
112
0.0
122
1.0
132
0.0
 79
     0
146
0.0
170
     0
 61
     5
348
64B
292
     1
282
     1
141
0.0
142
0.0
 63
   256
  0
ARC
  5
2A0
330
1B
100
AcDbEntity
 67
     1
  8
3_ALL_AXES
  6
Continuous
 62
     7
100
AcDbCircle
 10
1631.753626643
 20
551.9881842261
 30
0.0
 40
2.9
100
AcDbArc
 50
180.0
 51
360.0
  0
ARC
  5
2A1
330
1B
100
AcDbEntity
 67
     1
  8
3_ALL_AXES
  6
Continuous
 62
     7
100
AcDbCircle
 10
1631.753626643
 20
551.9881842261
 30
0.0
 40
2.9
100
AcDbArc
 50
0.0
 51
180.0
  0
ARC
  5
2A2
330
1B
100
AcDbEntity
 67
     1
  8
3_ALL_AXES
  6
Continuous
 62
     7
100
AcDbCircle
 10
1549.753626643
 20
551.9881842261
 30
0.0
 40
2.9
100
AcDbArc
 50
180.0
 51
360.0
  0
ARC
  5
2A3
330
1B
100
AcDbEntity
 67
     1
  8
3_ALL_AXES
  6
Continuous
 62
     7
100
AcDbCircle
 10
1549.753626643
 20
551.9881842261
 30
0.0
 40
2.9
100
AcDbArc
 50
0.0
 51
180.0
  0
ARC
  5
2A4
330
1B
100
AcDbEntity
 67
     1
  8
3_ALL_AXES
  6
Continuous
 62
     7
100
AcDbCircle
 10
1268.253626643
 20
551.9881842261
 30
0.0
 40
2.9
100
AcDbArc
 50
180.0
 51
360.0
  0
ARC
  5
2A5
330
1B
100
AcDbEntity
 67
     1
  8
3_ALL_AXES
  6
Continuous
 62
     7
100
AcDbCircle
 10
1268.253626643
 20
551.9881842261
 30
0.0
 40
2.9
100
AcDbArc
 50
0.0
 51
180.0
  0
ARC
  5
2A6
330
1B
100
AcDbEntity
 67
     1
  8
3_ALL_AXES
  6
Continuous
 62
     7
100
AcDbCircle
 10
1183.253626643
 20
551.9881842261
 30
0.0
 40
2.9
100
AcDbArc
 50
180.0
 51
360.0
  0
ARC
  5
2A7
330
1B
100
AcDbEntity
 67
     1
  8
3_ALL_AXES
  6
Continuous
 62
     7
100
AcDbCircle
 10
1183.253626643
 20
551.9881842261
 30
0.0
 40
2.9
100
AcDbArc
 50
0.0
 51
180.0
  0
ARC
  5
2A8
330
1B
100
AcDbEntity
 67
     1
  8
3_ALL_AXES
  6
Continuous
 62
     7
100
AcDbCircle
 10
901.753626643
 20
551.9881842261
 30
0.0
 40
2.9
100
AcDbArc
 50
180.0
 51
360.0
  0
ARC
  5
2A9
330
1B
100
AcDbEntity
 67
     1
  8
3_ALL_AXES
  6
Continuous
 62
     7
100
AcDbCircle
 10
901.753626643
 20
551.9881842261
 30
0.0
 40
2.9
100
AcDbArc
 50
0.0
 51
180.0
  0
ARC
  5
2AA
330
1B
100
AcDbEntity
 67
     1
  8
3_ALL_AXES
  6
Continuous
 62
     7
100
AcDbCircle
 10
819.753626643
 20
551.9881842261
 30
0.0
 40
2.9
100
AcDbArc
 50
180.0
 51
360.0
  0
ARC
  5
2AB
330
1B
100
AcDbEntity
 67
     1
  8
3_ALL_AXES
  6
Continuous
 62
     7
100
AcDbCircle
 10
819.753626643
 20
551.9881842261
 30
0.0
 40
2.9
100
AcDbArc
 50
0.0
 51
180.0
  0
ARC
  5
2AC
330
1B
100
AcDbEntity
 67
     1
  8
3_ALL_AXES
  6
Continuous
 62
     7
100
AcDbCircle
 10
577.753626643
 20
551.9881842261
 30
0.0
 40
2.9
100
AcDbArc
 50
180.0
 51
360.0
  0
ARC
  5
2AD
330
1B
100
AcDbEntity
 67
     1
  8
3_ALL_AXES
  6
Continuous
 62
     7
100
AcDbCircle
 10
577.753626643
 20
551.9881842261
 30
0.0
 40
2.9
100
AcDbArc
 50
0.0
 51
180.0
  0
ARC
  5
2AE
330
1B
100
AcDbEntity
 67
     1
  8
3_ALL_AXES
  6
Continuous
 62
     7
100
AcDbCircle
 10
1873.753626643
 20
551.9881842261
 30
0.0
 40
2.9
100
AcDbArc
 50
180.0
 51
360.0
  0
ARC
  5
2AF
330
1B
100
AcDbEntity
 67
     1
  8
3_ALL_AXES
  6
Continuous
 62
     7
100
AcDbCircle
 10
1873.753626643
 20
551.9881842261
 30
0.0
 40
2.9
100
AcDbArc
 50
0.0
 51
180.0
  0
ARC
  5
2B0
330
1B
100
AcDbEntity
 67
     1
  8
3_ALL_AXES
  6
Continuous
 62
     7
100
AcDbCircle
 10
1955.753626643
 20
551.9881842261
 30
0.0
 40
2.9
100
AcDbArc
 50
180.0
 51
360.0
  0
ARC
  5
2B1
330
1B
100
AcDbEntity
 67
     1
  8
3_ALL_AXES
  6
Continuous
 62
     7
100
AcDbCircle
 10
1955.753626643
 20
551.9881842261
 30
0.0
 40
2.9
100
AcDbArc
 50
0.0
 51
180.0
  0
ARC
  5
2B2
330
1B
100
AcDbEntity
 67
     1
  8
3_ALL_AXES
  6
Continuous
 62
     7
100
AcDbCircle
 10
495.753626643
 20
551.9881842261
 30
0.0
 40
2.9
100
AcDbArc
 50
180.0
 51
360.0
  0
ARC
  5
2B3
330
1B
100
AcDbEntity
 67
     1
  8
3_ALL_AXES
  6
Continuous
 62
     7
100
AcDbCircle
 10
495.753626643
 20
551.9881842261
 30
0.0
 40
2.9
100
AcDbArc
 50
0.0
 51
180.0
  0
LINE
  5
2B4
330
1B
100
AcDbEntity
 67
     1
  8
3_ALL_AXES
  6
Continuous
 62
     7
100
AcDbLine
 10
1239.353626643
 20
503.1881842261
 30
0.0
 11
1239.353626643
 21
502.4823140556
 31
0.0
  0
LINE
  5
2B5
330
1B
100
AcDbEntity
 67
     1
  8
3_ALL_AXES
  6
Continuous
 62
     7
100
AcDbLine
 10
1245.153626643
 20
503.1881842261
 30
0.0
 11
1245.153626643
 21
502.4823140556
 31
0.0
  0
ARC
  5
2B6
330
1B
100
AcDbEntity
 67
     1
  8
3_ALL_AXES
  6
Continuous
 62
     7
100
AcDbCircle
 10
1242.253626643
 20
509.9381842261
 30
0.0
 40
8.0
100
AcDbArc
 50
270.0
 51
291.2538091854
  0
ARC
  5
2B7
330
1B
100
AcDbEntity
 67
     1
  8
3_ALL_AXES
  6
Continuous
 62
     7
100
AcDbCircle
 10
1242.253626643
 20
509.9381842261
 30
0.0
 40
8.0
100
AcDbArc
 50
248.7461908146
 51
270.0
  0
LINE
  5
2B8
330
1B
100
AcDbEntity
 67
     1
  8
3_ALL_AXES
  6
Continuous
 62
     7
100
AcDbLine
 10
1239.353626643
 20
502.4823140556
 30
0.0
 11
1245.153626643
 21
502.4823140556
 31
0.0
  0
LINE
  5
2B9
330
1B
100
AcDbEntity
 67
     1
  8
3_ALL_AXES
  6
Continuous
 62
     7
100
AcDbLine
 10
1964.353626643
 20
503.1881842261
 30
0.0
 11
1964.353626643
 21
502.4823140556
 31
0.0
  0
LINE
  5
2BA
330
1B
100
AcDbEntity
 67
     1
  8
3_ALL_AXES
  6
Continuous
 62
     7
100
AcDbLine
 10
1970.153626643
 20
503.1881842261
 30
0.0
 11
1970.153626643
 21
502.4823140556
 31
0.0
  0
ARC
  5
2BB
330
1B
100
AcDbEntity
 67
     1
  8
3_ALL_AXES
  6
Continuous
 62
     7
100
AcDbCircle
 10
1967.253626643
 20
509.9381842261
 30
0.0
 40
8.0
100
AcDbArc
 50
270.0
 51
291.2538091854
  0
ARC
  5
2BC
330
1B
100
AcDbEntity
 67
     1
  8
3_ALL_AXES
  6
Continuous
 62
     7
100
AcDbCircle
 10
1967.253626643
 20
509.9381842261
 30
0.0
 40
8.0
100
AcDbArc
 50
248.7461908146
 51
270.0
  0
LINE
  5
2BD
330
1B
100
AcDbEntity
 67
     1
  8
3_ALL_AXES
  6
Continuous
 62
     7
100
AcDbLine
 10
1964.353626643
 20
502.4823140556
 30
0.0
 11
1970.153626643
 21
502.4823140556
 31
0.0
  0
LINE
  5
2BE
330
1B
100
AcDbEntity
 67
     1
  8
3_ALL_AXES
  6
Continuous
 62
     7
100
AcDbLine
 10
514.353626643
 20
503.1881842261
 30
0.0
 11
514.353626643
 21
502.4823140556
 31
0.0
  0
LINE
  5
2BF
330
1B
100
AcDbEntity
 67
     1
  8
3_ALL_AXES
  6
Continuous
 62
     7
100
AcDbLine
 10
520.153626643
 20
503.1881842261
 30
0.0
 11
520.153626643
 21
502.4823140556
 31
0.0
  0
ARC
  5
2C0
330
1B
100
AcDbEntity
 67
     1
  8
3_ALL_AXES
  6
Continuous
 62
     7
100
AcDbCircle
 10
517.253626643
 20
509.9381842261
 30
0.0
 40
8.0
100
AcDbArc
 50
270.0
 51
291.2538091854
  0
ARC
  5
2C1
330
1B
100
AcDbEntity
 67
     1
  8
3_ALL_AXES
  6
Continuous
 62
     7
100
AcDbCircle
 10
517.253626643
 20
509.9381842261
 30
0.0
 40
8.0
100
AcDbArc
 50
248.7461908146
 51
270.0
  0
LINE
  5
2C2
330
1B
100
AcDbEntity
 67
     1
  8
3_ALL_AXES
  6
Continuous
 62
     7
100
AcDbLine
 10
514.353626643
 20
502.4823140556
 30
0.0
 11
520.153626643
 21
502.4823140556
 31
0.0
  0
LINE
  5
2C3
330
1B
100
AcDbEntity
 67
     1
  8
3_ALL_AXES
  6
Continuous
 62
     7
100
AcDbLine
 10
1206.353626643
 20
503.1881842261
 30
0.0
 11
1206.353626643
 21
502.4823140556
 31
0.0
  0
LINE
  5
2C4
330
1B
100
AcDbEntity
 67
     1
  8
3_ALL_AXES
  6
Continuous
 62
     7
100
AcDbLine
 10
1212.153626643
 20
503.1881842261
 30
0.0
 11
1212.153626643
 21
502.4823140556
 31
0.0
  0
ARC
  5
2C5
330
1B
100
AcDbEntity
 67
     1
  8
3_ALL_AXES
  6
Continuous
 62
     7
100
AcDbCircle
 10
1209.253626643
 20
509.9381842261
 30
0.0
 40
8.0
100
AcDbArc
 50
270.0
 51
291.2538091854
  0
ARC
  5
2C6
330
1B
100
AcDbEntity
 67
     1
  8
3_ALL_AXES
  6
Continuous
 62
     7
100
AcDbCircle
 10
1209.253626643
 20
509.9381842261
 30
0.0
 40
8.0
100
AcDbArc
 50
248.7461908146
 51
270.0
  0
LINE
  5
2C7
330
1B
100
AcDbEntity
 67
     1
  8
3_ALL_AXES
  6
Continuous
 62
     7
100
AcDbLine
 10
1206.353626643
 20
502.4823140556
 30
0.0
 11
1212.153626643
 21
502.4823140556
 31
0.0
  0
LINE
  5
2C8
330
1B
100
AcDbEntity
 67
     1
  8
3_ALL_AXES
  6
Continuous
 62
     7
100
AcDbLine
 10
1931.353626643
 20
503.1881842261
 30
0.0
 11
1931.353626643
 21
502.4823140556
 31
0.0
  0
LINE
  5
2C9
330
1B
100
AcDbEntity
 67
     1
  8
3_ALL_AXES
  6
Continuous
 62
     7
100
AcDbLine
 10
1937.153626643
 20
503.1881842261
 30
0.0
 11
1937.153626643
 21
502.4823140556
 31
0.0
  0
ARC
  5
2CA
330
1B
100
AcDbEntity
 67
     1
  8
3_ALL_AXES
  6
Continuous
 62
     7
100
AcDbCircle
 10
1934.253626643
 20
509.9381842261
 30
0.0
 40
8.0
100
AcDbArc
 50
270.0
 51
291.2538091854
  0
ARC
  5
2CB
330
1B
100
AcDbEntity
 67
     1
  8
3_ALL_AXES
  6
Continuous
 62
     7
100
AcDbCircle
 10
1934.253626643
 20
509.9381842261
 30
0.0
 40
8.0
100
AcDbArc
 50
248.7461908146
 51
270.0
  0
LINE
  5
2CC
330
1B
100
AcDbEntity
 67
     1
  8
3_ALL_AXES
  6
Continuous
 62
     7
100
AcDbLine
 10
1931.353626643
 20
502.4823140556
 30
0.0
 11
1937.153626643
 21
502.4823140556
 31
0.0
  0
LINE
  5
2CD
330
1B
100
AcDbEntity
 67
     1
  8
3_ALL_AXES
  6
Continuous
 62
     7
100
AcDbLine
 10
481.353626643
 20
503.1881842261
 30
0.0
 11
481.353626643
 21
502.4823140556
 31
0.0
  0
LINE
  5
2CE
330
1B
100
AcDbEntity
 67
     1
  8
3_ALL_AXES
  6
Continuous
 62
     7
100
AcDbLine
 10
487.153626643
 20
503.1881842261
 30
0.0
 11
487.153626643
 21
502.4823140556
 31
0.0
  0
ARC
  5
2CF
330
1B
100
AcDbEntity
 67
     1
  8
3_ALL_AXES
  6
Continuous
 62
     7
100
AcDbCircle
 10
484.253626643
 20
509.9381842261
 30
0.0
 40
8.0
100
AcDbArc
 50
270.0
 51
291.2538091854
  0
ARC
  5
2D0
330
1B
100
AcDbEntity
 67
     1
  8
3_ALL_AXES
  6
Continuous
 62
     7
100
AcDbCircle
 10
484.253626643
 20
509.9381842261
 30
0.0
 40
8.0
100
AcDbArc
 50
248.7461908146
 51
270.0
  0
LINE
  5
2D1
330
1B
100
AcDbEntity
 67
     1
  8
3_ALL_AXES
  6
Continuous
 62
     7
100
AcDbLine
 10
481.353626643
 20
502.4823140556
 30
0.0
 11
487.153626643
 21
502.4823140556
 31
0.0
  0
LINE
  5
2D2
330
1B
100
AcDbEntity
 67
     1
  8
7_ALL_FEATURES
  6
Continuous
 62
     7
100
AcDbLine
 10
1974.7819388065
 20
549.6381842261
 30
0.0
 11
1974.06025097
 21
548.3881842261
 31
0.0
  0
LINE
  5
2D3
330
1B
100
AcDbEntity
 67
     1
  8
7_ALL_FEATURES
  6
Continuous
 62
     7
100
AcDbLine
 10
1974.06025097
 20
548.3881842261
 30
0.0
 11
1974.7819388065
 21
547.1381842261
 31
0.0
  0
LINE
  5
2D4
330
1B
100
AcDbEntity
 67
     1
  8
7_ALL_FEATURES
  6
Continuous
 62
     7
100
AcDbLine
 10
1974.7819388065
 20
547.1381842261
 30
0.0
 11
1976.2253144795
 21
547.1381842261
 31
0.0
  0
LINE
  5
2D5
330
1B
100
AcDbEntity
 67
     1
  8
7_ALL_FEATURES
  6
Continuous
 62
     7
100
AcDbLine
 10
1976.2253144795
 20
547.1381842261
 30
0.0
 11
1976.947002316
 21
548.3881842261
 31
0.0
  0
LINE
  5
2D6
330
1B
100
AcDbEntity
 67
     1
  8
7_ALL_FEATURES
  6
Continuous
 62
     7
100
AcDbLine
 10
1976.947002316
 20
548.3881842261
 30
0.0
 11
1976.2253144795
 21
549.6381842261
 31
0.0
  0
LINE
  5
2D7
330
1B
100
AcDbEntity
 67
     1
  8
7_ALL_FEATURES
  6
Continuous
 62
     7
100
AcDbLine
 10
1976.2253144795
 20
549.6381842261
 30
0.0
 11
1974.7819388065
 21
549.6381842261
 31
0.0
  0
ARC
  5
2D8
330
1B
100
AcDbEntity
 67
     1
  8
3_ALL_AXES
  6
Continuous
 62
     7
100
AcDbCircle
 10
1975.503626643
 20
548.3881842261
 30
0.0
 40
3.8
100
AcDbArc
 50
0.0
 51
180.0
  0
ARC
  5
2D9
330
1B
100
AcDbEntity
 67
     1
  8
3_ALL_AXES
  6
Continuous
 62
     7
100
AcDbCircle
 10
1975.503626643
 20
548.3881842261
 30
0.0
 40
3.8
100
AcDbArc
 50
180.0
 51
360.0
  0
ARC
  5
2DA
330
1B
100
AcDbEntity
 67
     1
  8
3_ALL_AXES
  6
Continuous
 62
     7
100
AcDbCircle
 10
1975.503626643
 20
548.3881842261
 30
0.0
 40
1.965
100
AcDbArc
 50
0.0
 51
180.0
  0
ARC
  5
2DB
330
1B
100
AcDbEntity
 67
     1
  8
3_ALL_AXES
  6
Continuous
 62
     7
100
AcDbCircle
 10
1975.503626643
 20
548.3881842261
 30
0.0
 40
1.965
100
AcDbArc
 50
180.0
 51
360.0
  0
LINE
  5
2DC
330
1B
100
AcDbEntity
 67
     1
  8
7_ALL_FEATURES
  6
Continuous
 62
     7
100
AcDbLine
 10
1974.7819388065
 20
514.6381842261
 30
0.0
 11
1974.06025097
 21
513.3881842261
 31
0.0
  0
LINE
  5
2DD
330
1B
100
AcDbEntity
 67
     1
  8
7_ALL_FEATURES
  6
Continuous
 62
     7
100
AcDbLine
 10
1974.06025097
 20
513.3881842261
 30
0.0
 11
1974.7819388065
 21
512.1381842261
 31
0.0
  0
LINE
  5
2DE
330
1B
100
AcDbEntity
 67
     1
  8
7_ALL_FEATURES
  6
Continuous
 62
     7
100
AcDbLine
 10
1974.7819388065
 20
512.1381842261
 30
0.0
 11
1976.2253144795
 21
512.1381842261
 31
0.0
  0
LINE
  5
2DF
330
1B
100
AcDbEntity
 67
     1
  8
7_ALL_FEATURES
  6
Continuous
 62
     7
100
AcDbLine
 10
1976.2253144795
 20
512.1381842261
 30
0.0
 11
1976.947002316
 21
513.3881842261
 31
0.0
  0
LINE
  5
2E0
330
1B
100
AcDbEntity
 67
     1
  8
7_ALL_FEATURES
  6
Continuous
 62
     7
100
AcDbLine
 10
1976.947002316
 20
513.3881842261
 30
0.0
 11
1976.2253144795
 21
514.6381842261
 31
0.0
  0
LINE
  5
2E1
330
1B
100
AcDbEntity
 67
     1
  8
7_ALL_FEATURES
  6
Continuous
 62
     7
100
AcDbLine
 10
1976.2253144795
 20
514.6381842261
 30
0.0
 11
1974.7819388065
 21
514.6381842261
 31
0.0
  0
ARC
  5
2E2
330
1B
100
AcDbEntity
 67
     1
  8
3_ALL_AXES
  6
Continuous
 62
     7
100
AcDbCircle
 10
1975.503626643
 20
513.3881842261
 30
0.0
 40
3.8
100
AcDbArc
 50
0.0
 51
180.0
  0
ARC
  5
2E3
330
1B
100
AcDbEntity
 67
     1
  8
3_ALL_AXES
  6
Continuous
 62
     7
100
AcDbCircle
 10
1975.503626643
 20
513.3881842261
 30
0.0
 40
3.8
100
AcDbArc
 50
180.0
 51
360.0
  0
ARC
  5
2E4
330
1B
100
AcDbEntity
 67
     1
  8
3_ALL_AXES
  6
Continuous
 62
     7
100
AcDbCircle
 10
1975.503626643
 20
513.3881842261
 30
0.0
 40
1.965
100
AcDbArc
 50
0.0
 51
180.0
  0
ARC
  5
2E5
330
1B
100
AcDbEntity
 67
     1
  8
3_ALL_AXES
  6
Continuous
 62
     7
100
AcDbCircle
 10
1975.503626643
 20
513.3881842261
 30
0.0
 40
1.965
100
AcDbArc
 50
180.0
 51
360.0
  0
LINE
  5
2E6
330
1B
100
AcDbEntity
 67
     1
  8
7_ALL_FEATURES
  6
Continuous
 62
     7
100
AcDbLine
 10
475.2819388065
 20
514.6381842261
 30
0.0
 11
474.56025097
 21
513.3881842261
 31
0.0
  0
LINE
  5
2E7
330
1B
100
AcDbEntity
 67
     1
  8
7_ALL_FEATURES
  6
Continuous
 62
     7
100
AcDbLine
 10
474.56025097
 20
513.3881842261
 30
0.0
 11
475.2819388065
 21
512.1381842261
 31
0.0
  0
LINE
  5
2E8
330
1B
100
AcDbEntity
 67
     1
  8
7_ALL_FEATURES
  6
Continuous
 62
     7
100
AcDbLine
 10
475.2819388065
 20
512.1381842261
 30
0.0
 11
476.7253144795
 21
512.1381842261
 31
0.0
  0
LINE
  5
2E9
330
1B
100
AcDbEntity
 67
     1
  8
7_ALL_FEATURES
  6
Continuous
 62
     7
100
AcDbLine
 10
476.7253144795
 20
512.1381842261
 30
0.0
 11
477.447002316
 21
513.3881842261
 31
0.0
  0
LINE
  5
2EA
330
1B
100
AcDbEntity
 67
     1
  8
7_ALL_FEATURES
  6
Continuous
 62
     7
100
AcDbLine
 10
477.447002316
 20
513.3881842261
 30
0.0
 11
476.7253144795
 21
514.6381842261
 31
0.0
  0
LINE
  5
2EB
330
1B
100
AcDbEntity
 67
     1
  8
7_ALL_FEATURES
  6
Continuous
 62
     7
100
AcDbLine
 10
476.7253144795
 20
514.6381842261
 30
0.0
 11
475.2819388065
 21
514.6381842261
 31
0.0
  0
ARC
  5
2EC
330
1B
100
AcDbEntity
 67
     1
  8
3_ALL_AXES
  6
Continuous
 62
     7
100
AcDbCircle
 10
476.003626643
 20
513.3881842261
 30
0.0
 40
3.8
100
AcDbArc
 50
0.0
 51
180.0
  0
ARC
  5
2ED
330
1B
100
AcDbEntity
 67
     1
  8
3_ALL_AXES
  6
Continuous
 62
     7
100
AcDbCircle
 10
476.003626643
 20
513.3881842261
 30
0.0
 40
3.8
100
AcDbArc
 50
180.0
 51
360.0
  0
ARC
  5
2EE
330
1B
100
AcDbEntity
 67
     1
  8
3_ALL_AXES
  6
Continuous
 62
     7
100
AcDbCircle
 10
476.003626643
 20
513.3881842261
 30
0.0
 40
1.965
100
AcDbArc
 50
0.0
 51
180.0
  0
ARC
  5
2EF
330
1B
100
AcDbEntity
 67
     1
  8
3_ALL_AXES
  6
Continuous
 62
     7
100
AcDbCircle
 10
476.003626643
 20
513.3881842261
 30
0.0
 40
1.965
100
AcDbArc
 50
180.0
 51
360.0
  0
LINE
  5
2F0
330
1B
100
AcDbEntity
 67
     1
  8
7_ALL_FEATURES
  6
Continuous
 62
     7
100
AcDbLine
 10
475.2819388065
 20
549.6381842261
 30
0.0
 11
474.56025097
 21
548.3881842261
 31
0.0
  0
LINE
  5
2F1
330
1B
100
AcDbEntity
 67
     1
  8
7_ALL_FEATURES
  6
Continuous
 62
     7
100
AcDbLine
 10
474.56025097
 20
548.3881842261
 30
0.0
 11
475.2819388065
 21
547.1381842261
 31
0.0
  0
LINE
  5
2F2
330
1B
100
AcDbEntity
 67
     1
  8
7_ALL_FEATURES
  6
Continuous
 62
     7
100
AcDbLine
 10
475.2819388065
 20
547.1381842261
 30
0.0
 11
476.7253144795
 21
547.1381842261
 31
0.0
  0
LINE
  5
2F3
330
1B
100
AcDbEntity
 67
     1
  8
7_ALL_FEATURES
  6
Continuous
 62
     7
100
AcDbLine
 10
476.7253144795
 20
547.1381842261
 30
0.0
 11
477.447002316
 21
548.3881842261
 31
0.0
  0
LINE
  5
2F4
330
1B
100
AcDbEntity
 67
     1
  8
7_ALL_FEATURES
  6
Continuous
 62
     7
100
AcDbLine
 10
477.447002316
 20
548.3881842261
 30
0.0
 11
476.7253144795
 21
549.6381842261
 31
0.0
  0
LINE
  5
2F5
330
1B
100
AcDbEntity
 67
     1
  8
7_ALL_FEATURES
  6
Continuous
 62
     7
100
AcDbLine
 10
476.7253144795
 20
549.6381842261
 30
0.0
 11
475.2819388065
 21
549.6381842261
 31
0.0
  0
ARC
  5
2F6
330
1B
100
AcDbEntity
 67
     1
  8
3_ALL_AXES
  6
Continuous
 62
     7
100
AcDbCircle
 10
476.003626643
 20
548.3881842261
 30
0.0
 40
3.8
100
AcDbArc
 50
0.0
 51
180.0
  0
ARC
  5
2F7
330
1B
100
AcDbEntity
 67
     1
  8
3_ALL_AXES
  6
Continuous
 62
     7
100
AcDbCircle
 10
476.003626643
 20
548.3881842261
 30
0.0
 40
3.8
100
AcDbArc
 50
180.0
 51
360.0
  0
ARC
  5
2F8
330
1B
100
AcDbEntity
 67
     1
  8
3_ALL_AXES
  6
Continuous
 62
     7
100
AcDbCircle
 10
476.003626643
 20
548.3881842261
 30
0.0
 40
1.965
100
AcDbArc
 50
0.0
 51
180.0
  0
ARC
  5
2F9
330
1B
100
AcDbEntity
 67
     1
  8
3_ALL_AXES
  6
Continuous
 62
     7
100
AcDbCircle
 10
476.003626643
 20
548.3881842261
 30
0.0
 40
1.965
100
AcDbArc
 50
180.0
 51
360.0
  0
LINE
  5
2FA
330
1B
100
AcDbEntity
 67
     1
  8
7_ALL_FEATURES
  6
Continuous
 62
     7
100
AcDbLine
 10
1204.503626643
 20
504.3881842261
 30
0.0
 11
1207.503626643
 21
504.3881842261
 31
0.0
  0
LINE
  5
2FB
330
1B
100
AcDbEntity
 67
     1
  8
7_ALL_FEATURES
  6
Continuous
 62
     7
100
AcDbLine
 10
1207.503626643
 20
504.3881842261
 30
0.0
 11
1213.9971349546
 21
504.3881842261
 31
0.0
  0
LINE
  5
2FC
330
1B
100
AcDbEntity
 67
     1
  8
7_ALL_FEATURES
  6
Continuous
 62
     7
100
AcDbLine
 10
1213.9971349546
 20
504.3881842261
 30
0.0
 11
1214.003626643
 21
504.3881842261
 31
0.0
  0
LINE
  5
2FD
330
1B
100
AcDbEntity
 67
     1
  8
7_ALL_FEATURES
  6
Continuous
 62
     7
100
AcDbLine
 10
1214.003626643
 20
504.3881842261
 30
0.0
 11
1214.503626643
 21
504.3881842261
 31
0.0
  0
LINE
  5
2FE
330
1B
100
AcDbEntity
 67
     1
  8
7_ALL_FEATURES
  6
Continuous
 62
     7
100
AcDbLine
 10
1237.003626643
 20
504.3881842261
 30
0.0
 11
1214.503626643
 21
504.3881842261
 31
0.0
  0
LINE
  5
2FF
330
1B
100
AcDbEntity
 67
     1
  8
7_ALL_FEATURES
  6
Continuous
 62
     7
100
AcDbLine
 10
1237.003626643
 20
504.3881842261
 30
0.0
 11
1237.503626643
 21
504.3881842261
 31
0.0
  0
LINE
  5
300
330
1B
100
AcDbEntity
 67
     1
  8
7_ALL_FEATURES
  6
Continuous
 62
     7
100
AcDbLine
 10
1237.503626643
 20
504.3881842261
 30
0.0
 11
1237.5101183314
 21
504.3881842261
 31
0.0
  0
LINE
  5
301
330
1B
100
AcDbEntity
 67
     1
  8
7_ALL_FEATURES
  6
Continuous
 62
     7
100
AcDbLine
 10
1237.5101183314
 20
504.3881842261
 30
0.0
 11
1244.003626643
 21
504.3881842261
 31
0.0
  0
LINE
  5
302
330
1B
100
AcDbEntity
 67
     1
  8
7_ALL_FEATURES
  6
Continuous
 62
     7
100
AcDbLine
 10
1244.003626643
 20
504.3881842261
 30
0.0
 11
1247.003626643
 21
504.3881842261
 31
0.0
  0
LINE
  5
303
330
1B
100
AcDbEntity
 67
     1
  8
7_ALL_FEATURES
  6
Continuous
 62
     7
100
AcDbLine
 10
1204.503626643
 20
504.3881842261
 30
0.0
 11
1204.503626643
 21
503.1881842261
 31
0.0
  0
LINE
  5
304
330
1B
100
AcDbEntity
 67
     1
  8
7_ALL_FEATURES
  6
Continuous
 62
     7
100
AcDbLine
 10
1247.003626643
 20
504.3881842261
 30
0.0
 11
1247.003626643
 21
503.1881842261
 31
0.0
  0
LINE
  5
305
330
1B
100
AcDbEntity
 67
     1
  8
7_ALL_FEATURES
  6
Continuous
 62
     9
100
AcDbLine
 10
1214.503626643
 20
504.3881842261
 30
0.0
 11
1214.503626643
 21
503.1881842261
 31
0.0
  0
LINE
  5
306
330
1B
100
AcDbEntity
 67
     1
  8
7_ALL_FEATURES
  6
Continuous
 62
     9
100
AcDbLine
 10
1237.003626643
 20
504.3881842261
 30
0.0
 11
1237.003626643
 21
503.1881842261
 31
0.0
  0
LINE
  5
307
330
1B
100
AcDbEntity
 67
     1
  8
7_ALL_FEATURES
  6
Continuous
 62
     7
100
AcDbLine
 10
1929.503626643
 20
504.3881842261
 30
0.0
 11
1932.503626643
 21
504.3881842261
 31
0.0
  0
LINE
  5
308
330
1B
100
AcDbEntity
 67
     1
  8
7_ALL_FEATURES
  6
Continuous
 62
     7
100
AcDbLine
 10
1932.503626643
 20
504.3881842261
 30
0.0
 11
1938.9971349546
 21
504.3881842261
 31
0.0
  0
LINE
  5
309
330
1B
100
AcDbEntity
 67
     1
  8
7_ALL_FEATURES
  6
Continuous
 62
     7
100
AcDbLine
 10
1938.9971349546
 20
504.3881842261
 30
0.0
 11
1939.003626643
 21
504.3881842261
 31
0.0
  0
LINE
  5
30A
330
1B
100
AcDbEntity
 67
     1
  8
7_ALL_FEATURES
  6
Continuous
 62
     7
100
AcDbLine
 10
1939.003626643
 20
504.3881842261
 30
0.0
 11
1939.503626643
 21
504.3881842261
 31
0.0
  0
LINE
  5
30B
330
1B
100
AcDbEntity
 67
     1
  8
7_ALL_FEATURES
  6
Continuous
 62
     7
100
AcDbLine
 10
1962.003626643
 20
504.3881842261
 30
0.0
 11
1939.503626643
 21
504.3881842261
 31
0.0
  0
LINE
  5
30C
330
1B
100
AcDbEntity
 67
     1
  8
7_ALL_FEATURES
  6
Continuous
 62
     7
100
AcDbLine
 10
1962.003626643
 20
504.3881842261
 30
0.0
 11
1962.503626643
 21
504.3881842261
 31
0.0
  0
LINE
  5
30D
330
1B
100
AcDbEntity
 67
     1
  8
7_ALL_FEATURES
  6
Continuous
 62
     7
100
AcDbLine
 10
1962.503626643
 20
504.3881842261
 30
0.0
 11
1962.5101183314
 21
504.3881842261
 31
0.0
  0
LINE
  5
30E
330
1B
100
AcDbEntity
 67
     1
  8
7_ALL_FEATURES
  6
Continuous
 62
     7
100
AcDbLine
 10
1962.5101183314
 20
504.3881842261
 30
0.0
 11
1969.003626643
 21
504.3881842261
 31
0.0
  0
LINE
  5
30F
330
1B
100
AcDbEntity
 67
     1
  8
7_ALL_FEATURES
  6
Continuous
 62
     7
100
AcDbLine
 10
1969.003626643
 20
504.3881842261
 30
0.0
 11
1972.003626643
 21
504.3881842261
 31
0.0
  0
LINE
  5
310
330
1B
100
AcDbEntity
 67
     1
  8
7_ALL_FEATURES
  6
Continuous
 62
     7
100
AcDbLine
 10
1929.503626643
 20
504.3881842261
 30
0.0
 11
1929.503626643
 21
503.1881842261
 31
0.0
  0
LINE
  5
311
330
1B
100
AcDbEntity
 67
     1
  8
7_ALL_FEATURES
  6
Continuous
 62
     7
100
AcDbLine
 10
1972.003626643
 20
504.3881842261
 30
0.0
 11
1972.003626643
 21
503.1881842261
 31
0.0
  0
LINE
  5
312
330
1B
100
AcDbEntity
 67
     1
  8
7_ALL_FEATURES
  6
Continuous
 62
     9
100
AcDbLine
 10
1939.503626643
 20
504.3881842261
 30
0.0
 11
1939.503626643
 21
503.1881842261
 31
0.0
  0
LINE
  5
313
330
1B
100
AcDbEntity
 67
     1
  8
7_ALL_FEATURES
  6
Continuous
 62
     9
100
AcDbLine
 10
1962.003626643
 20
504.3881842261
 30
0.0
 11
1962.003626643
 21
503.1881842261
 31
0.0
  0
LINE
  5
314
330
1B
100
AcDbEntity
 67
     1
  8
7_ALL_FEATURES
  6
Continuous
 62
     7
100
AcDbLine
 10
479.503626643
 20
504.3881842261
 30
0.0
 11
482.503626643
 21
504.3881842261
 31
0.0
  0
LINE
  5
315
330
1B
100
AcDbEntity
 67
     1
  8
7_ALL_FEATURES
  6
Continuous
 62
     7
100
AcDbLine
 10
482.503626643
 20
504.3881842261
 30
0.0
 11
488.9971349546
 21
504.3881842261
 31
0.0
  0
LINE
  5
316
330
1B
100
AcDbEntity
 67
     1
  8
7_ALL_FEATURES
  6
Continuous
 62
     7
100
AcDbLine
 10
488.9971349546
 20
504.3881842261
 30
0.0
 11
489.003626643
 21
504.3881842261
 31
0.0
  0
LINE
  5
317
330
1B
100
AcDbEntity
 67
     1
  8
7_ALL_FEATURES
  6
Continuous
 62
     7
100
AcDbLine
 10
489.003626643
 20
504.3881842261
 30
0.0
 11
489.503626643
 21
504.3881842261
 31
0.0
  0
LINE
  5
318
330
1B
100
AcDbEntity
 67
     1
  8
7_ALL_FEATURES
  6
Continuous
 62
     7
100
AcDbLine
 10
512.003626643
 20
504.3881842261
 30
0.0
 11
489.503626643
 21
504.3881842261
 31
0.0
  0
LINE
  5
319
330
1B
100
AcDbEntity
 67
     1
  8
7_ALL_FEATURES
  6
Continuous
 62
     7
100
AcDbLine
 10
512.003626643
 20
504.3881842261
 30
0.0
 11
512.503626643
 21
504.3881842261
 31
0.0
  0
LINE
  5
31A
330
1B
100
AcDbEntity
 67
     1
  8
7_ALL_FEATURES
  6
Continuous
 62
     7
100
AcDbLine
 10
512.503626643
 20
504.3881842261
 30
0.0
 11
512.5101183314
 21
504.3881842261
 31
0.0
  0
LINE
  5
31B
330
1B
100
AcDbEntity
 67
     1
  8
7_ALL_FEATURES
  6
Continuous
 62
     7
100
AcDbLine
 10
512.5101183314
 20
504.3881842261
 30
0.0
 11
519.003626643
 21
504.3881842261
 31
0.0
  0
LINE
  5
31C
330
1B
100
AcDbEntity
 67
     1
  8
7_ALL_FEATURES
  6
Continuous
 62
     7
100
AcDbLine
 10
519.003626643
 20
504.3881842261
 30
0.0
 11
522.003626643
 21
504.3881842261
 31
0.0
  0
LINE
  5
31D
330
1B
100
AcDbEntity
 67
     1
  8
7_ALL_FEATURES
  6
Continuous
 62
     7
100
AcDbLine
 10
479.503626643
 20
504.3881842261
 30
0.0
 11
479.503626643
 21
503.1881842261
 31
0.0
  0
LINE
  5
31E
330
1B
100
AcDbEntity
 67
     1
  8
7_ALL_FEATURES
  6
Continuous
 62
     7
100
AcDbLine
 10
522.003626643
 20
504.3881842261
 30
0.0
 11
522.003626643
 21
503.1881842261
 31
0.0
  0
LINE
  5
31F
330
1B
100
AcDbEntity
 67
     1
  8
7_ALL_FEATURES
  6
Continuous
 62
     9
100
AcDbLine
 10
489.503626643
 20
504.3881842261
 30
0.0
 11
489.503626643
 21
503.1881842261
 31
0.0
  0
LINE
  5
320
330
1B
100
AcDbEntity
 67
     1
  8
7_ALL_FEATURES
  6
Continuous
 62
     9
100
AcDbLine
 10
512.003626643
 20
504.3881842261
 30
0.0
 11
512.003626643
 21
503.1881842261
 31
0.0
  0
LINE
  5
321
330
1B
100
AcDbEntity
 67
     1
  8
7_ALL_FEATURES
  6
Continuous
 62
     7
100
AcDbLine
 10
1982.503626643
 20
504.3881842261
 30
0.0
 11
1981.503626643
 21
504.3881842261
 31
0.0
  0
LINE
  5
322
330
1B
100
AcDbEntity
 67
     1
  8
7_ALL_FEATURES
  6
Continuous
 62
     7
100
AcDbLine
 10
1982.503626643
 20
593.3881842261
 30
0.0
 11
1982.503626643
 21
592.8881842261
 31
0.0
  0
LINE
  5
323
330
1B
100
AcDbEntity
 67
     1
  8
7_ALL_FEATURES
  6
Continuous
 62
     7
100
AcDbLine
 10
1982.503626643
 20
553.8881842261
 30
0.0
 11
1982.503626643
 21
592.8881842261
 31
0.0
  0
LINE
  5
324
330
1B
100
AcDbEntity
 67
     1
  8
7_ALL_FEATURES
  6
Continuous
 62
     7
100
AcDbLine
 10
1982.503626643
 20
552.8881842261
 30
0.0
 11
1982.503626643
 21
553.8881842261
 31
0.0
  0
LINE
  5
325
330
1B
100
AcDbEntity
 67
     1
  8
7_ALL_FEATURES
  6
Continuous
 62
     7
100
AcDbLine
 10
1982.503626643
 20
543.8881842261
 30
0.0
 11
1982.503626643
 21
542.8881842261
 31
0.0
  0
LINE
  5
326
330
1B
100
AcDbEntity
 67
     1
  8
7_ALL_FEATURES
  6
Continuous
 62
     7
100
AcDbLine
 10
1982.503626643
 20
519.0881842261
 30
0.0
 11
1982.503626643
 21
542.8881842261
 31
0.0
  0
LINE
  5
327
330
1B
100
AcDbEntity
 67
     1
  8
7_ALL_FEATURES
  6
Continuous
 62
     7
100
AcDbLine
 10
1982.503626643
 20
517.8881842261
 30
0.0
 11
1982.503626643
 21
519.0881842261
 31
0.0
  0
LINE
  5
328
330
1B
100
AcDbEntity
 67
     1
  8
7_ALL_FEATURES
  6
Continuous
 62
     7
100
AcDbLine
 10
1982.503626643
 20
508.8881842261
 30
0.0
 11
1982.503626643
 21
507.6881842261
 31
0.0
  0
LINE
  5
329
330
1B
100
AcDbEntity
 67
     1
  8
7_ALL_FEATURES
  6
Continuous
 62
     7
100
AcDbLine
 10
1982.503626643
 20
504.8881842261
 30
0.0
 11
1982.503626643
 21
507.6881842261
 31
0.0
  0
LINE
  5
32A
330
1B
100
AcDbEntity
 67
     1
  8
7_ALL_FEATURES
  6
Continuous
 62
     7
100
AcDbLine
 10
1982.503626643
 20
504.8881842261
 30
0.0
 11
1982.503626643
 21
504.3881842261
 31
0.0
  0
LINE
  5
32B
330
1B
100
AcDbEntity
 67
     1
  8
7_ALL_FEATURES
  6
Continuous
 62
     7
100
AcDbLine
 10
1982.503626643
 20
553.8881842261
 30
0.0
 11
1981.503626643
 21
553.8881842261
 31
0.0
  0
LINE
  5
32C
330
1B
100
AcDbEntity
 67
     1
  8
7_ALL_FEATURES
  6
Continuous
 62
     7
100
AcDbLine
 10
1982.503626643
 20
507.6881842261
 30
0.0
 11
1981.503626643
 21
507.6881842261
 31
0.0
  0
LINE
  5
32D
330
1B
100
AcDbEntity
 67
     1
  8
7_ALL_FEATURES
  6
Continuous
 62
     7
100
AcDbLine
 10
1982.503626643
 20
519.0881842261
 30
0.0
 11
1981.503626643
 21
519.0881842261
 31
0.0
  0
LINE
  5
32E
330
1B
100
AcDbEntity
 67
     1
  8
7_ALL_FEATURES
  6
Continuous
 62
     7
100
AcDbLine
 10
1982.503626643
 20
542.8881842261
 30
0.0
 11
1981.503626643
 21
542.8881842261
 31
0.0
  0
LINE
  5
32F
330
1B
100
AcDbEntity
 67
     1
  8
7_ALL_FEATURES
  6
Continuous
 62
     7
100
AcDbLine
 10
1982.503626643
 20
593.3881842261
 30
0.0
 11
1981.503626643
 21
593.3881842261
 31
0.0
  0
LINE
  5
330
330
1B
100
AcDbEntity
 67
     1
  8
7_ALL_FEATURES
  6
Continuous
 62
     7
100
AcDbLine
 10
1982.503626643
 20
543.8881842261
 30
0.0
 11
1982.503626643
 21
552.8881842261
 31
0.0
  0
LINE
  5
331
330
1B
100
AcDbEntity
 67
     1
  8
7_ALL_FEATURES
  6
Continuous
 62
     7
100
AcDbLine
 10
1982.2717082545
 20
552.8881842261
 30
0.0
 11
1982.503626643
 21
552.8881842261
 31
0.0
  0
LINE
  5
332
330
1B
100
AcDbEntity
 67
     1
  8
7_ALL_FEATURES
  6
Continuous
 62
     7
100
AcDbLine
 10
1980.503626643
 20
552.8881842261
 30
0.0
 11
1982.2717082545
 21
552.8881842261
 31
0.0
  0
LINE
  5
333
330
1B
100
AcDbEntity
 67
     1
  8
7_ALL_FEATURES
  6
Continuous
 62
     7
100
AcDbLine
 10
1980.503626643
 20
543.8881842261
 30
0.0
 11
1982.2717082545
 21
543.8881842261
 31
0.0
  0
LINE
  5
334
330
1B
100
AcDbEntity
 67
     1
  8
7_ALL_FEATURES
  6
Continuous
 62
     7
100
AcDbLine
 10
1982.2717082545
 20
543.8881842261
 30
0.0
 11
1982.503626643
 21
543.8881842261
 31
0.0
  0
LINE
  5
335
330
1B
100
AcDbEntity
 67
     1
  8
7_ALL_FEATURES
  6
Continuous
 62
     7
100
AcDbLine
 10
1970.003626643
 20
548.8881842261
 30
0.0
 11
1970.003626643
 21
547.8881842261
 31
0.0
  0
ARC
  5
336
330
1B
100
AcDbEntity
 67
     1
  8
7_ALL_FEATURES
  6
Continuous
 62
     7
100
AcDbCircle
 10
1974.003626643
 20
547.8881842261
 30
0.0
 40
4.0
100
AcDbArc
 50
180.0
 51
270.0
  0
LINE
  5
337
330
1B
100
AcDbEntity
 67
     1
  8
7_ALL_FEATURES
  6
Continuous
 62
     7
100
AcDbLine
 10
1974.003626643
 20
543.8881842261
 30
0.0
 11
1980.503626643
 21
543.8881842261
 31
0.0
  0
LINE
  5
338
330
1B
100
AcDbEntity
 67
     1
  8
7_ALL_FEATURES
  6
Continuous
 62
     7
100
AcDbLine
 10
1980.503626643
 20
552.8881842261
 30
0.0
 11
1974.003626643
 21
552.8881842261
 31
0.0
  0
ARC
  5
339
330
1B
100
AcDbEntity
 67
     1
  8
7_ALL_FEATURES
  6
Continuous
 62
     7
100
AcDbCircle
 10
1974.003626643
 20
548.8881842261
 30
0.0
 40
4.0
100
AcDbArc
 50
90.0
 51
180.0
  0
ARC
  5
33A
330
1B
100
AcDbEntity
 67
     1
  8
02___PRT_ALL_AXES
  6
Continuous
 62
     7
100
AcDbCircle
 10
1977.253626643
 20
548.3881842261
 30
0.0
 40
2.25
100
AcDbArc
 50
322.6319343853
 51
37.3680656148
  0
ARC
  5
33B
330
1B
100
AcDbEntity
 67
     1
  8
02___PRT_ALL_AXES
  6
Continuous
 62
     7
100
AcDbCircle
 10
1973.753626643
 20
548.3881842261
 30
0.0
 40
2.25
100
AcDbArc
 50
142.6319343853
 51
217.3680656148
  0
LINE
  5
33C
330
1B
100
AcDbEntity
 67
     1
  8
7_ALL_FEATURES
  6
Continuous
 62
     7
100
AcDbLine
 10
1982.503626643
 20
508.8881842261
 30
0.0
 11
1982.503626643
 21
517.8881842261
 31
0.0
  0
LINE
  5
33D
330
1B
100
AcDbEntity
 67
     1
  8
7_ALL_FEATURES
  6
Continuous
 62
     7
100
AcDbLine
 10
1982.2717082545
 20
517.8881842261
 30
0.0
 11
1982.503626643
 21
517.8881842261
 31
0.0
  0
LINE
  5
33E
330
1B
100
AcDbEntity
 67
     1
  8
7_ALL_FEATURES
  6
Continuous
 62
     7
100
AcDbLine
 10
1980.503626643
 20
517.8881842261
 30
0.0
 11
1982.2717082545
 21
517.8881842261
 31
0.0
  0
LINE
  5
33F
330
1B
100
AcDbEntity
 67
     1
  8
7_ALL_FEATURES
  6
Continuous
 62
     7
100
AcDbLine
 10
1980.503626643
 20
508.8881842261
 30
0.0
 11
1982.2717082545
 21
508.8881842261
 31
0.0
  0
LINE
  5
340
330
1B
100
AcDbEntity
 67
     1
  8
7_ALL_FEATURES
  6
Continuous
 62
     7
100
AcDbLine
 10
1982.2717082545
 20
508.8881842261
 30
0.0
 11
1982.503626643
 21
508.8881842261
 31
0.0
  0
LINE
  5
341
330
1B
100
AcDbEntity
 67
     1
  8
7_ALL_FEATURES
  6
Continuous
 62
     7
100
AcDbLine
 10
1970.003626643
 20
513.8881842261
 30
0.0
 11
1970.003626643
 21
512.8881842261
 31
0.0
  0
ARC
  5
342
330
1B
100
AcDbEntity
 67
     1
  8
7_ALL_FEATURES
  6
Continuous
 62
     7
100
AcDbCircle
 10
1974.003626643
 20
512.8881842261
 30
0.0
 40
4.0
100
AcDbArc
 50
180.0
 51
270.0
  0
LINE
  5
343
330
1B
100
AcDbEntity
 67
     1
  8
7_ALL_FEATURES
  6
Continuous
 62
     7
100
AcDbLine
 10
1974.003626643
 20
508.8881842261
 30
0.0
 11
1980.503626643
 21
508.8881842261
 31
0.0
  0
LINE
  5
344
330
1B
100
AcDbEntity
 67
     1
  8
7_ALL_FEATURES
  6
Continuous
 62
     7
100
AcDbLine
 10
1980.503626643
 20
517.8881842261
 30
0.0
 11
1974.003626643
 21
517.8881842261
 31
0.0
  0
ARC
  5
345
330
1B
100
AcDbEntity
 67
     1
  8
7_ALL_FEATURES
  6
Continuous
 62
     7
100
AcDbCircle
 10
1974.003626643
 20
513.8881842261
 30
0.0
 40
4.0
100
AcDbArc
 50
90.0
 51
180.0
  0
ARC
  5
346
330
1B
100
AcDbEntity
 67
     1
  8
02___PRT_ALL_AXES
  6
Continuous
 62
     7
100
AcDbCircle
 10
1973.753626643
 20
513.3881842261
 30
0.0
 40
2.25
100
AcDbArc
 50
142.6319343853
 51
217.3680656147
  0
ARC
  5
347
330
1B
100
AcDbEntity
 67
     1
  8
02___PRT_ALL_AXES
  6
Continuous
 62
     7
100
AcDbCircle
 10
1977.253626643
 20
513.3881842261
 30
0.0
 40
2.25
100
AcDbArc
 50
322.6319343851999
 51
37.3680656148
  0
LINE
  5
348
330
1B
100
AcDbEntity
 67
     1
  8
7_ALL_FEATURES
  6
Continuous
 62
     9
100
AcDbLine
 10
1980.503626643
 20
543.8881842261
 30
0.0
 11
1980.503626643
 21
552.8881842261
 31
0.0
  0
LINE
  5
349
330
1B
100
AcDbEntity
 67
     1
  8
7_ALL_FEATURES
  6
Continuous
 62
     9
100
AcDbLine
 10
1980.503626643
 20
508.8881842261
 30
0.0
 11
1980.503626643
 21
517.8881842261
 31
0.0
  0
LINE
  5
34A
330
1B
100
AcDbEntity
 67
     1
  8
7_ALL_FEATURES
  6
Continuous
 62
     9
100
AcDbLine
 10
1982.503626643
 20
592.8881842261
 30
0.0
 11
1981.503626643
 21
592.8881842261
 31
0.0
  0
LINE
  5
34B
330
1B
100
AcDbEntity
 67
     1
  8
7_ALL_FEATURES
  6
Continuous
 62
     9
100
AcDbLine
 10
1982.503626643
 20
504.8881842261
 30
0.0
 11
1981.503626643
 21
504.8881842261
 31
0.0
  0
LINE
  5
34C
330
1B
100
AcDbEntity
 67
     1
  8
7_ALL_FEATURES
  6
Continuous
 62
     7
100
AcDbLine
 10
469.003626643
 20
504.3881842261
 30
0.0
 11
470.003626643
 21
504.3881842261
 31
0.0
  0
LINE
  5
34D
330
1B
100
AcDbEntity
 67
     1
  8
7_ALL_FEATURES
  6
Continuous
 62
     7
100
AcDbLine
 10
469.003626643
 20
504.3881842261
 30
0.0
 11
469.003626643
 21
504.8881842261
 31
0.0
  0
LINE
  5
34E
330
1B
100
AcDbEntity
 67
     1
  8
7_ALL_FEATURES
  6
Continuous
 62
     7
100
AcDbLine
 10
469.003626643
 20
507.6881842261
 30
0.0
 11
469.003626643
 21
504.8881842261
 31
0.0
  0
LINE
  5
34F
330
1B
100
AcDbEntity
 67
     1
  8
7_ALL_FEATURES
  6
Continuous
 62
     7
100
AcDbLine
 10
469.003626643
 20
508.8881842261
 30
0.0
 11
469.003626643
 21
507.6881842261
 31
0.0
  0
LINE
  5
350
330
1B
100
AcDbEntity
 67
     1
  8
7_ALL_FEATURES
  6
Continuous
 62
     7
100
AcDbLine
 10
469.003626643
 20
517.8881842261
 30
0.0
 11
469.003626643
 21
519.0881842261
 31
0.0
  0
LINE
  5
351
330
1B
100
AcDbEntity
 67
     1
  8
7_ALL_FEATURES
  6
Continuous
 62
     7
100
AcDbLine
 10
469.003626643
 20
542.6881842261
 30
0.0
 11
469.003626643
 21
519.0881842261
 31
0.0
  0
LINE
  5
352
330
1B
100
AcDbEntity
 67
     1
  8
7_ALL_FEATURES
  6
Continuous
 62
     7
100
AcDbLine
 10
469.003626643
 20
543.8881842261
 30
0.0
 11
469.003626643
 21
542.6881842261
 31
0.0
  0
LINE
  5
353
330
1B
100
AcDbEntity
 67
     1
  8
7_ALL_FEATURES
  6
Continuous
 62
     7
100
AcDbLine
 10
469.003626643
 20
552.8881842261
 30
0.0
 11
469.003626643
 21
554.0881842261
 31
0.0
  0
LINE
  5
354
330
1B
100
AcDbEntity
 67
     1
  8
7_ALL_FEATURES
  6
Continuous
 62
     7
100
AcDbLine
 10
469.003626643
 20
592.8881842261
 30
0.0
 11
469.003626643
 21
554.0881842261
 31
0.0
  0
LINE
  5
355
330
1B
100
AcDbEntity
 67
     1
  8
7_ALL_FEATURES
  6
Continuous
 62
     7
100
AcDbLine
 10
469.003626643
 20
592.8881842261
 30
0.0
 11
469.003626643
 21
593.3881842261
 31
0.0
  0
LINE
  5
356
330
1B
100
AcDbEntity
 67
     1
  8
7_ALL_FEATURES
  6
Continuous
 62
     7
100
AcDbLine
 10
469.003626643
 20
593.3881842261
 30
0.0
 11
470.003626643
 21
593.3881842261
 31
0.0
  0
LINE
  5
357
330
1B
100
AcDbEntity
 67
     1
  8
7_ALL_FEATURES
  6
Continuous
 62
     7
100
AcDbLine
 10
469.003626643
 20
554.0881842261
 30
0.0
 11
470.003626643
 21
554.0881842261
 31
0.0
  0
LINE
  5
358
330
1B
100
AcDbEntity
 67
     1
  8
7_ALL_FEATURES
  6
Continuous
 62
     7
100
AcDbLine
 10
469.003626643
 20
507.6881842261
 30
0.0
 11
470.003626643
 21
507.6881842261
 31
0.0
  0
LINE
  5
359
330
1B
100
AcDbEntity
 67
     1
  8
7_ALL_FEATURES
  6
Continuous
 62
     7
100
AcDbLine
 10
469.003626643
 20
519.0881842261
 30
0.0
 11
470.003626643
 21
519.0881842261
 31
0.0
  0
LINE
  5
35A
330
1B
100
AcDbEntity
 67
     1
  8
7_ALL_FEATURES
  6
Continuous
 62
     7
100
AcDbLine
 10
469.003626643
 20
542.6881842261
 30
0.0
 11
470.003626643
 21
542.6881842261
 31
0.0
  0
LINE
  5
35B
330
1B
100
AcDbEntity
 67
     1
  8
7_ALL_FEATURES
  6
Continuous
 62
     7
100
AcDbLine
 10
469.003626643
 20
552.8881842261
 30
0.0
 11
469.003626643
 21
543.8881842261
 31
0.0
  0
LINE
  5
35C
330
1B
100
AcDbEntity
 67
     1
  8
7_ALL_FEATURES
  6
Continuous
 62
     7
100
AcDbLine
 10
469.2355450315
 20
543.8881842261
 30
0.0
 11
469.003626643
 21
543.8881842261
 31
0.0
  0
LINE
  5
35D
330
1B
100
AcDbEntity
 67
     1
  8
7_ALL_FEATURES
  6
Continuous
 62
     7
100
AcDbLine
 10
471.003626643
 20
543.8881842261
 30
0.0
 11
469.2355450315
 21
543.8881842261
 31
0.0
  0
LINE
  5
35E
330
1B
100
AcDbEntity
 67
     1
  8
7_ALL_FEATURES
  6
Continuous
 62
     7
100
AcDbLine
 10
471.003626643
 20
552.8881842261
 30
0.0
 11
469.2355450315
 21
552.8881842261
 31
0.0
  0
LINE
  5
35F
330
1B
100
AcDbEntity
 67
     1
  8
7_ALL_FEATURES
  6
Continuous
 62
     7
100
AcDbLine
 10
469.2355450315
 20
552.8881842261
 30
0.0
 11
469.003626643
 21
552.8881842261
 31
0.0
  0
LINE
  5
360
330
1B
100
AcDbEntity
 67
     1
  8
7_ALL_FEATURES
  6
Continuous
 62
     7
100
AcDbLine
 10
477.503626643
 20
552.8881842261
 30
0.0
 11
471.003626643
 21
552.8881842261
 31
0.0
  0
LINE
  5
361
330
1B
100
AcDbEntity
 67
     1
  8
7_ALL_FEATURES
  6
Continuous
 62
     7
100
AcDbLine
 10
471.003626643
 20
543.8881842261
 30
0.0
 11
477.503626643
 21
543.8881842261
 31
0.0
  0
ARC
  5
362
330
1B
100
AcDbEntity
 67
     1
  8
7_ALL_FEATURES
  6
Continuous
 62
     7
100
AcDbCircle
 10
477.503626643
 20
547.8881842261
 30
0.0
 40
4.0
100
AcDbArc
 50
270.0
 51
360.0
  0
LINE
  5
363
330
1B
100
AcDbEntity
 67
     1
  8
7_ALL_FEATURES
  6
Continuous
 62
     7
100
AcDbLine
 10
481.503626643
 20
547.8881842261
 30
0.0
 11
481.503626643
 21
548.8881842261
 31
0.0
  0
ARC
  5
364
330
1B
100
AcDbEntity
 67
     1
  8
7_ALL_FEATURES
  6
Continuous
 62
     7
100
AcDbCircle
 10
477.503626643
 20
548.8881842261
 30
0.0
 40
4.0
100
AcDbArc
 50
0.0
 51
90.0
  0
ARC
  5
365
330
1B
100
AcDbEntity
 67
     1
  8
02___PRT_ALL_AXES
  6
Continuous
 62
     7
100
AcDbCircle
 10
477.753626643
 20
548.3881842261
 30
0.0
 40
2.25
100
AcDbArc
 50
322.6319343851999
 51
37.3680656148
  0
ARC
  5
366
330
1B
100
AcDbEntity
 67
     1
  8
02___PRT_ALL_AXES
  6
Continuous
 62
     7
100
AcDbCircle
 10
474.253626643
 20
548.3881842261
 30
0.0
 40
2.25
100
AcDbArc
 50
142.6319343853
 51
217.3680656147
  0
LINE
  5
367
330
1B
100
AcDbEntity
 67
     1
  8
7_ALL_FEATURES
  6
Continuous
 62
     7
100
AcDbLine
 10
469.003626643
 20
517.8881842261
 30
0.0
 11
469.003626643
 21
508.8881842261
 31
0.0
  0
LINE
  5
368
330
1B
100
AcDbEntity
 67
     1
  8
7_ALL_FEATURES
  6
Continuous
 62
     7
100
AcDbLine
 10
469.2355450315
 20
508.8881842261
 30
0.0
 11
469.003626643
 21
508.8881842261
 31
0.0
  0
LINE
  5
369
330
1B
100
AcDbEntity
 67
     1
  8
7_ALL_FEATURES
  6
Continuous
 62
     7
100
AcDbLine
 10
471.003626643
 20
508.8881842261
 30
0.0
 11
469.2355450315
 21
508.8881842261
 31
0.0
  0
LINE
  5
36A
330
1B
100
AcDbEntity
 67
     1
  8
7_ALL_FEATURES
  6
Continuous
 62
     7
100
AcDbLine
 10
471.003626643
 20
517.8881842261
 30
0.0
 11
469.2355450315
 21
517.8881842261
 31
0.0
  0
LINE
  5
36B
330
1B
100
AcDbEntity
 67
     1
  8
7_ALL_FEATURES
  6
Continuous
 62
     7
100
AcDbLine
 10
469.2355450315
 20
517.8881842261
 30
0.0
 11
469.003626643
 21
517.8881842261
 31
0.0
  0
LINE
  5
36C
330
1B
100
AcDbEntity
 67
     1
  8
7_ALL_FEATURES
  6
Continuous
 62
     7
100
AcDbLine
 10
477.503626643
 20
517.8881842261
 30
0.0
 11
471.003626643
 21
517.8881842261
 31
0.0
  0
LINE
  5
36D
330
1B
100
AcDbEntity
 67
     1
  8
7_ALL_FEATURES
  6
Continuous
 62
     7
100
AcDbLine
 10
471.003626643
 20
508.8881842261
 30
0.0
 11
477.503626643
 21
508.8881842261
 31
0.0
  0
ARC
  5
36E
330
1B
100
AcDbEntity
 67
     1
  8
7_ALL_FEATURES
  6
Continuous
 62
     7
100
AcDbCircle
 10
477.503626643
 20
512.8881842261
 30
0.0
 40
4.0
100
AcDbArc
 50
270.0
 51
360.0
  0
LINE
  5
36F
330
1B
100
AcDbEntity
 67
     1
  8
7_ALL_FEATURES
  6
Continuous
 62
     7
100
AcDbLine
 10
481.503626643
 20
512.8881842261
 30
0.0
 11
481.503626643
 21
513.8881842261
 31
0.0
  0
ARC
  5
370
330
1B
100
AcDbEntity
 67
     1
  8
7_ALL_FEATURES
  6
Continuous
 62
     7
100
AcDbCircle
 10
477.503626643
 20
513.8881842261
 30
0.0
 40
4.0
100
AcDbArc
 50
0.0
 51
90.0
  0
ARC
  5
371
330
1B
100
AcDbEntity
 67
     1
  8
02___PRT_ALL_AXES
  6
Continuous
 62
     7
100
AcDbCircle
 10
477.753626643
 20
513.3881842261
 30
0.0
 40
2.25
100
AcDbArc
 50
322.6319343851999
 51
37.3680656148
  0
ARC
  5
372
330
1B
100
AcDbEntity
 67
     1
  8
02___PRT_ALL_AXES
  6
Continuous
 62
     7
100
AcDbCircle
 10
474.253626643
 20
513.3881842261
 30
0.0
 40
2.25
100
AcDbArc
 50
142.6319343853
 51
217.3680656147
  0
LINE
  5
373
330
1B
100
AcDbEntity
 67
     1
  8
7_ALL_FEATURES
  6
Continuous
 62
     9
100
AcDbLine
 10
471.003626643
 20
517.8881842261
 30
0.0
 11
471.003626643
 21
508.8881842261
 31
0.0
  0
LINE
  5
374
330
1B
100
AcDbEntity
 67
     1
  8
7_ALL_FEATURES
  6
Continuous
 62
     9
100
AcDbLine
 10
471.003626643
 20
552.8881842261
 30
0.0
 11
471.003626643
 21
543.8881842261
 31
0.0
  0
LINE
  5
375
330
1B
100
AcDbEntity
 67
     1
  8
7_ALL_FEATURES
  6
Continuous
 62
     9
100
AcDbLine
 10
469.003626643
 20
504.8881842261
 30
0.0
 11
470.003626643
 21
504.8881842261
 31
0.0
  0
LINE
  5
376
330
1B
100
AcDbEntity
 67
     1
  8
7_ALL_FEATURES
  6
Continuous
 62
     9
100
AcDbLine
 10
469.003626643
 20
592.8881842261
 30
0.0
 11
470.003626643
 21
592.8881842261
 31
0.0
  0
LINE
  5
377
330
1B
100
AcDbEntity
 67
     1
  8
7_ALL_FEATURES
  6
Continuous
 62
     3
100
AcDbLine
 10
1214.503626643
 20
503.1881842261
 30
0.0
 11
1214.003626643
 21
503.1881842261
 31
0.0
  0
LINE
  5
378
330
1B
100
AcDbEntity
 67
     1
  8
7_ALL_FEATURES
  6
Continuous
 62
     3
100
AcDbLine
 10
1214.003626643
 20
503.1881842261
 30
0.0
 11
1213.9971349546
 21
503.1881842261
 31
0.0
  0
LINE
  5
379
330
1B
100
AcDbEntity
 67
     1
  8
7_ALL_FEATURES
  6
Continuous
 62
     3
100
AcDbLine
 10
1213.9971349546
 20
503.1881842261
 30
0.0
 11
1207.503626643
 21
503.1881842261
 31
0.0
  0
LINE
  5
37A
330
1B
100
AcDbEntity
 67
     1
  8
7_ALL_FEATURES
  6
Continuous
 62
     3
100
AcDbLine
 10
1207.503626643
 20
503.1881842261
 30
0.0
 11
1204.503626643
 21
503.1881842261
 31
0.0
  0
LINE
  5
37B
330
1B
100
AcDbEntity
 67
     1
  8
7_ALL_FEATURES
  6
Continuous
 62
     3
100
AcDbLine
 10
1237.003626643
 20
503.1881842261
 30
0.0
 11
1214.503626643
 21
503.1881842261
 31
0.0
  0
LINE
  5
37C
330
1B
100
AcDbEntity
 67
     1
  8
7_ALL_FEATURES
  6
Continuous
 62
     3
100
AcDbLine
 10
1247.003626643
 20
503.1881842261
 30
0.0
 11
1244.003626643
 21
503.1881842261
 31
0.0
  0
LINE
  5
37D
330
1B
100
AcDbEntity
 67
     1
  8
7_ALL_FEATURES
  6
Continuous
 62
     3
100
AcDbLine
 10
1244.003626643
 20
503.1881842261
 30
0.0
 11
1237.5101183314
 21
503.1881842261
 31
0.0
  0
LINE
  5
37E
330
1B
100
AcDbEntity
 67
     1
  8
7_ALL_FEATURES
  6
Continuous
 62
     3
100
AcDbLine
 10
1237.5101183314
 20
503.1881842261
 30
0.0
 11
1237.503626643
 21
503.1881842261
 31
0.0
  0
LINE
  5
37F
330
1B
100
AcDbEntity
 67
     1
  8
7_ALL_FEATURES
  6
Continuous
 62
     3
100
AcDbLine
 10
1237.503626643
 20
503.1881842261
 30
0.0
 11
1237.003626643
 21
503.1881842261
 31
0.0
  0
LINE
  5
380
330
1B
100
AcDbEntity
 67
     1
  8
7_ALL_FEATURES
  6
Continuous
 62
     3
100
AcDbLine
 10
1939.503626643
 20
503.1881842261
 30
0.0
 11
1939.003626643
 21
503.1881842261
 31
0.0
  0
LINE
  5
381
330
1B
100
AcDbEntity
 67
     1
  8
7_ALL_FEATURES
  6
Continuous
 62
     3
100
AcDbLine
 10
1939.003626643
 20
503.1881842261
 30
0.0
 11
1938.9971349546
 21
503.1881842261
 31
0.0
  0
LINE
  5
382
330
1B
100
AcDbEntity
 67
     1
  8
7_ALL_FEATURES
  6
Continuous
 62
     3
100
AcDbLine
 10
1938.9971349546
 20
503.1881842261
 30
0.0
 11
1932.503626643
 21
503.1881842261
 31
0.0
  0
LINE
  5
383
330
1B
100
AcDbEntity
 67
     1
  8
7_ALL_FEATURES
  6
Continuous
 62
     3
100
AcDbLine
 10
1932.503626643
 20
503.1881842261
 30
0.0
 11
1929.503626643
 21
503.1881842261
 31
0.0
  0
LINE
  5
384
330
1B
100
AcDbEntity
 67
     1
  8
7_ALL_FEATURES
  6
Continuous
 62
     3
100
AcDbLine
 10
1962.003626643
 20
503.1881842261
 30
0.0
 11
1939.503626643
 21
503.1881842261
 31
0.0
  0
LINE
  5
385
330
1B
100
AcDbEntity
 67
     1
  8
7_ALL_FEATURES
  6
Continuous
 62
     3
100
AcDbLine
 10
1972.003626643
 20
503.1881842261
 30
0.0
 11
1969.003626643
 21
503.1881842261
 31
0.0
  0
LINE
  5
386
330
1B
100
AcDbEntity
 67
     1
  8
7_ALL_FEATURES
  6
Continuous
 62
     3
100
AcDbLine
 10
1969.003626643
 20
503.1881842261
 30
0.0
 11
1962.5101183314
 21
503.1881842261
 31
0.0
  0
LINE
  5
387
330
1B
100
AcDbEntity
 67
     1
  8
7_ALL_FEATURES
  6
Continuous
 62
     3
100
AcDbLine
 10
1962.5101183314
 20
503.1881842261
 30
0.0
 11
1962.503626643
 21
503.1881842261
 31
0.0
  0
LINE
  5
388
330
1B
100
AcDbEntity
 67
     1
  8
7_ALL_FEATURES
  6
Continuous
 62
     3
100
AcDbLine
 10
1962.503626643
 20
503.1881842261
 30
0.0
 11
1962.003626643
 21
503.1881842261
 31
0.0
  0
LINE
  5
389
330
1B
100
AcDbEntity
 67
     1
  8
7_ALL_FEATURES
  6
Continuous
 62
     3
100
AcDbLine
 10
489.503626643
 20
503.1881842261
 30
0.0
 11
489.003626643
 21
503.1881842261
 31
0.0
  0
LINE
  5
38A
330
1B
100
AcDbEntity
 67
     1
  8
7_ALL_FEATURES
  6
Continuous
 62
     3
100
AcDbLine
 10
489.003626643
 20
503.1881842261
 30
0.0
 11
488.9971349546
 21
503.1881842261
 31
0.0
  0
LINE
  5
38B
330
1B
100
AcDbEntity
 67
     1
  8
7_ALL_FEATURES
  6
Continuous
 62
     3
100
AcDbLine
 10
488.9971349546
 20
503.1881842261
 30
0.0
 11
482.503626643
 21
503.1881842261
 31
0.0
  0
LINE
  5
38C
330
1B
100
AcDbEntity
 67
     1
  8
7_ALL_FEATURES
  6
Continuous
 62
     3
100
AcDbLine
 10
482.503626643
 20
503.1881842261
 30
0.0
 11
479.503626643
 21
503.1881842261
 31
0.0
  0
LINE
  5
38D
330
1B
100
AcDbEntity
 67
     1
  8
7_ALL_FEATURES
  6
Continuous
 62
     3
100
AcDbLine
 10
512.003626643
 20
503.1881842261
 30
0.0
 11
489.503626643
 21
503.1881842261
 31
0.0
  0
LINE
  5
38E
330
1B
100
AcDbEntity
 67
     1
  8
7_ALL_FEATURES
  6
Continuous
 62
     3
100
AcDbLine
 10
522.003626643
 20
503.1881842261
 30
0.0
 11
519.003626643
 21
503.1881842261
 31
0.0
  0
LINE
  5
38F
330
1B
100
AcDbEntity
 67
     1
  8
7_ALL_FEATURES
  6
Continuous
 62
     3
100
AcDbLine
 10
519.003626643
 20
503.1881842261
 30
0.0
 11
512.5101183314
 21
503.1881842261
 31
0.0
  0
LINE
  5
390
330
1B
100
AcDbEntity
 67
     1
  8
7_ALL_FEATURES
  6
Continuous
 62
     3
100
AcDbLine
 10
512.5101183314
 20
503.1881842261
 30
0.0
 11
512.503626643
 21
503.1881842261
 31
0.0
  0
LINE
  5
391
330
1B
100
AcDbEntity
 67
     1
  8
7_ALL_FEATURES
  6
Continuous
 62
     3
100
AcDbLine
 10
512.503626643
 20
503.1881842261
 30
0.0
 11
512.003626643
 21
503.1881842261
 31
0.0
  0
LINE
  5
392
330
1B
100
AcDbEntity
 67
     1
  8
7_ALL_FEATURES
  6
Continuous
 62
     3
100
AcDbLine
 10
1981.503626643
 20
553.8881842261
 30
0.0
 11
1981.503626643
 21
592.8881842261
 31
0.0
  0
LINE
  5
393
330
1B
100
AcDbEntity
 67
     1
  8
7_ALL_FEATURES
  6
Continuous
 62
     3
100
AcDbLine
 10
1981.503626643
 20
552.8881842261
 30
0.0
 11
1981.503626643
 21
553.3881842261
 31
0.0
  0
LINE
  5
394
330
1B
100
AcDbEntity
 67
     1
  8
7_ALL_FEATURES
  6
Continuous
 62
     3
100
AcDbLine
 10
1981.503626643
 20
543.8881842261
 30
0.0
 11
1981.503626643
 21
543.3881842261
 31
0.0
  0
LINE
  5
395
330
1B
100
AcDbEntity
 67
     1
  8
7_ALL_FEATURES
  6
Continuous
 62
     3
100
AcDbLine
 10
1981.503626643
 20
519.0881842261
 30
0.0
 11
1981.503626643
 21
542.8881842261
 31
0.0
  0
LINE
  5
396
330
1B
100
AcDbEntity
 67
     1
  8
7_ALL_FEATURES
  6
Continuous
 62
     3
100
AcDbLine
 10
1981.503626643
 20
517.8881842261
 30
0.0
 11
1981.503626643
 21
518.8881842261
 31
0.0
  0
LINE
  5
397
330
1B
100
AcDbEntity
 67
     1
  8
7_ALL_FEATURES
  6
Continuous
 62
     3
100
AcDbLine
 10
1981.503626643
 20
508.8881842261
 30
0.0
 11
1981.503626643
 21
507.8881842261
 31
0.0
  0
LINE
  5
398
330
1B
100
AcDbEntity
 67
     1
  8
7_ALL_FEATURES
  6
Continuous
 62
     3
100
AcDbLine
 10
1981.503626643
 20
504.8881842261
 30
0.0
 11
1981.503626643
 21
506.7881842261
 31
0.0
  0
LINE
  5
399
330
1B
100
AcDbEntity
 67
     1
  8
7_ALL_FEATURES
  6
Continuous
 62
     3
100
AcDbLine
 10
1981.503626643
 20
506.7881842261
 30
0.0
 11
1981.503626643
 21
507.6881842261
 31
0.0
  0
LINE
  5
39A
330
1B
100
AcDbEntity
 67
     1
  8
7_ALL_FEATURES
  6
Continuous
 62
     3
100
AcDbLine
 10
1981.503626643
 20
504.3881842261
 30
0.0
 11
1981.503626643
 21
504.8881842261
 31
0.0
  0
LINE
  5
39B
330
1B
100
AcDbEntity
 67
     1
  8
7_ALL_FEATURES
  6
Continuous
 62
     3
100
AcDbLine
 10
470.003626643
 20
504.8881842261
 30
0.0
 11
470.003626643
 21
504.3881842261
 31
0.0
  0
LINE
  5
39C
330
1B
100
AcDbEntity
 67
     1
  8
7_ALL_FEATURES
  6
Continuous
 62
     3
100
AcDbLine
 10
470.003626643
 20
507.6881842261
 30
0.0
 11
470.003626643
 21
506.7881842261
 31
0.0
  0
LINE
  5
39D
330
1B
100
AcDbEntity
 67
     1
  8
7_ALL_FEATURES
  6
Continuous
 62
     3
100
AcDbLine
 10
470.003626643
 20
506.7881842261
 30
0.0
 11
470.003626643
 21
504.8881842261
 31
0.0
  0
LINE
  5
39E
330
1B
100
AcDbEntity
 67
     1
  8
7_ALL_FEATURES
  6
Continuous
 62
     3
100
AcDbLine
 10
470.003626643
 20
508.8881842261
 30
0.0
 11
470.003626643
 21
507.8881842261
 31
0.0
  0
LINE
  5
39F
330
1B
100
AcDbEntity
 67
     1
  8
7_ALL_FEATURES
  6
Continuous
 62
     3
100
AcDbLine
 10
470.003626643
 20
517.8881842261
 30
0.0
 11
470.003626643
 21
518.8881842261
 31
0.0
  0
LINE
  5
3A0
330
1B
100
AcDbEntity
 67
     1
  8
7_ALL_FEATURES
  6
Continuous
 62
     3
100
AcDbLine
 10
470.003626643
 20
542.6881842261
 30
0.0
 11
470.003626643
 21
519.0881842261
 31
0.0
  0
LINE
  5
3A1
330
1B
100
AcDbEntity
 67
     1
  8
7_ALL_FEATURES
  6
Continuous
 62
     3
100
AcDbLine
 10
470.003626643
 20
543.8881842261
 30
0.0
 11
470.003626643
 21
543.3881842261
 31
0.0
  0
LINE
  5
3A2
330
1B
100
AcDbEntity
 67
     1
  8
7_ALL_FEATURES
  6
Continuous
 62
     3
100
AcDbLine
 10
470.003626643
 20
552.8881842261
 30
0.0
 11
470.003626643
 21
553.3881842261
 31
0.0
  0
LINE
  5
3A3
330
1B
100
AcDbEntity
 67
     1
  8
7_ALL_FEATURES
  6
Continuous
 62
     3
100
AcDbLine
 10
470.003626643
 20
592.8881842261
 30
0.0
 11
470.003626643
 21
554.0881842261
 31
0.0
  0
ARC
  5
3A4
330
1B
100
AcDbEntity
 67
     1
  8
02___PRT_ALL_AXES
  6
Continuous
 62
     3
100
AcDbCircle
 10
1425.753626643
 20
533.0566390074
 30
0.0
 40
9.5
100
AcDbArc
 50
2.0
 51
178.0
  0
LINE
  5
3A5
330
1B
100
AcDbEntity
 67
     1
  8
02___PRT_ALL_AXES
  6
Continuous
 62
     3
100
AcDbLine
 10
1435.7475349132
 20
533.4056339744
 30
0.0
 11
1435.2478394997
 21
533.3881842261
 31
0.0
  0
ARC
  5
3A6
330
1B
100
AcDbEntity
 67
     1
  8
02___PRT_ALL_AXES
  6
Continuous
 62
     3
100
AcDbCircle
 10
1425.753626643
 20
533.0566390074
 30
0.0
 40
10.0
100
AcDbArc
 50
2.0
 51
178.0
  0
LINE
  5
3A7
330
1B
100
AcDbEntity
 67
     1
  8
02___PRT_ALL_AXES
  6
Continuous
 62
     3
100
AcDbLine
 10
1416.2594137863
 20
533.3881842261
 30
0.0
 11
1415.7597183728
 21
533.4056339744
 31
0.0
  0
LINE
  5
3A8
330
1B
100
AcDbEntity
 67
     1
  8
02___PRT_ALL_AXES
  6
Continuous
 62
     3
100
AcDbLine
 10
1435.2478394997
 20
532.7250937887
 30
0.0
 11
1435.7475349132
 21
532.7076440404
 31
0.0
  0
ARC
  5
3A9
330
1B
100
AcDbEntity
 67
     1
  8
02___PRT_ALL_AXES
  6
Continuous
 62
     3
100
AcDbCircle
 10
1425.753626643
 20
533.0566390074
 30
0.0
 40
9.5
100
AcDbArc
 50
182.0
 51
358.0
  0
LINE
  5
3AA
330
1B
100
AcDbEntity
 67
     1
  8
02___PRT_ALL_AXES
  6
Continuous
 62
     3
100
AcDbLine
 10
1415.7597183728
 20
532.7076440404
 30
0.0
 11
1416.2594137863
 21
532.7250937887
 31
0.0
  0
ARC
  5
3AB
330
1B
100
AcDbEntity
 67
     1
  8
02___PRT_ALL_AXES
  6
Continuous
 62
     3
100
AcDbCircle
 10
1425.753626643
 20
533.0566390074
 30
0.0
 40
10.0
100
AcDbArc
 50
182.0
 51
358.0
  0
LINE
  5
3AC
330
1B
100
AcDbEntity
 67
     1
  8
02___PRT_ALL_AXES
  6
Continuous
 62
     3
100
AcDbLine
 10
1016.2594137863
 20
533.3881842261
 30
0.0
 11
1015.7597183728
 21
533.4056339744
 31
0.0
  0
ARC
  5
3AD
330
1B
100
AcDbEntity
 67
     1
  8
02___PRT_ALL_AXES
  6
Continuous
 62
     3
100
AcDbCircle
 10
1025.753626643
 20
533.0566390074
 30
0.0
 40
9.5
100
AcDbArc
 50
2.0
 51
178.0
  0
LINE
  5
3AE
330
1B
100
AcDbEntity
 67
     1
  8
02___PRT_ALL_AXES
  6
Continuous
 62
     3
100
AcDbLine
 10
1035.7475349132
 20
533.4056339744
 30
0.0
 11
1035.2478394997
 21
533.3881842261
 31
0.0
  0
ARC
  5
3AF
330
1B
100
AcDbEntity
 67
     1
  8
02___PRT_ALL_AXES
  6
Continuous
 62
     3
100
AcDbCircle
 10
1025.753626643
 20
533.0566390074
 30
0.0
 40
10.0
100
AcDbArc
 50
2.0
 51
178.0
  0
ARC
  5
3B0
330
1B
100
AcDbEntity
 67
     1
  8
02___PRT_ALL_AXES
  6
Continuous
 62
     3
100
AcDbCircle
 10
1025.753626643
 20
533.0566390074
 30
0.0
 40
9.5
100
AcDbArc
 50
182.0
 51
358.0
  0
LINE
  5
3B1
330
1B
100
AcDbEntity
 67
     1
  8
02___PRT_ALL_AXES
  6
Continuous
 62
     3
100
AcDbLine
 10
1015.7597183728
 20
532.7076440404
 30
0.0
 11
1016.2594137863
 21
532.7250937887
 31
0.0
  0
ARC
  5
3B2
330
1B
100
AcDbEntity
 67
     1
  8
02___PRT_ALL_AXES
  6
Continuous
 62
     3
100
AcDbCircle
 10
1025.753626643
 20
533.0566390074
 30
0.0
 40
10.0
100
AcDbArc
 50
182.0
 51
358.0
  0
LINE
  5
3B3
330
1B
100
AcDbEntity
 67
     1
  8
02___PRT_ALL_AXES
  6
Continuous
 62
     3
100
AcDbLine
 10
1035.2478394997
 20
532.7250937887
 30
0.0
 11
1035.7475349132
 21
532.7076440404
 31
0.0
  0
LINE
  5
3B4
330
1B
100
AcDbEntity
 67
     1
  8
02___PRT_ALL_AXES
  6
Continuous
 62
     3
100
AcDbLine
 10
1816.2594137863
 20
533.3881842261
 30
0.0
 11
1815.7597183728
 21
533.4056339744
 31
0.0
  0
ARC
  5
3B5
330
1B
100
AcDbEntity
 67
     1
  8
02___PRT_ALL_AXES
  6
Continuous
 62
     3
100
AcDbCircle
 10
1825.753626643
 20
533.0566390074
 30
0.0
 40
9.5
100
AcDbArc
 50
2.0
 51
178.0
  0
LINE
  5
3B6
330
1B
100
AcDbEntity
 67
     1
  8
02___PRT_ALL_AXES
  6
Continuous
 62
     3
100
AcDbLine
 10
1835.7475349132
 20
533.4056339744
 30
0.0
 11
1835.2478394997
 21
533.3881842261
 31
0.0
  0
ARC
  5
3B7
330
1B
100
AcDbEntity
 67
     1
  8
02___PRT_ALL_AXES
  6
Continuous
 62
     3
100
AcDbCircle
 10
1825.753626643
 20
533.0566390074
 30
0.0
 40
10.0
100
AcDbArc
 50
2.0
 51
178.0
  0
ARC
  5
3B8
330
1B
100
AcDbEntity
 67
     1
  8
02___PRT_ALL_AXES
  6
Continuous
 62
     3
100
AcDbCircle
 10
1825.753626643
 20
533.0566390074
 30
0.0
 40
9.5
100
AcDbArc
 50
182.0
 51
358.0
  0
LINE
  5
3B9
330
1B
100
AcDbEntity
 67
     1
  8
02___PRT_ALL_AXES
  6
Continuous
 62
     3
100
AcDbLine
 10
1815.7597183728
 20
532.7076440404
 30
0.0
 11
1816.2594137863
 21
532.7250937887
 31
0.0
  0
ARC
  5
3BA
330
1B
100
AcDbEntity
 67
     1
  8
02___PRT_ALL_AXES
  6
Continuous
 62
     3
100
AcDbCircle
 10
1825.753626643
 20
533.0566390074
 30
0.0
 40
10.0
100
AcDbArc
 50
182.0
 51
358.0
  0
LINE
  5
3BB
330
1B
100
AcDbEntity
 67
     1
  8
02___PRT_ALL_AXES
  6
Continuous
 62
     3
100
AcDbLine
 10
1835.2478394997
 20
532.7250937887
 30
0.0
 11
1835.7475349132
 21
532.7076440404
 31
0.0
  0
ARC
  5
3BC
330
1B
100
AcDbEntity
 67
     1
  8
02___PRT_ALL_AXES
  6
Continuous
 62
     3
100
AcDbCircle
 10
625.753626643
 20
533.0566390074
 30
0.0
 40
9.5
100
AcDbArc
 50
2.0
 51
178.0
  0
LINE
  5
3BD
330
1B
100
AcDbEntity
 67
     1
  8
02___PRT_ALL_AXES
  6
Continuous
 62
     3
100
AcDbLine
 10
635.7475349132
 20
533.4056339744
 30
0.0
 11
635.2478394997
 21
533.3881842261
 31
0.0
  0
ARC
  5
3BE
330
1B
100
AcDbEntity
 67
     1
  8
02___PRT_ALL_AXES
  6
Continuous
 62
     3
100
AcDbCircle
 10
625.753626643
 20
533.0566390074
 30
0.0
 40
10.0
100
AcDbArc
 50
2.0
 51
178.0
  0
LINE
  5
3BF
330
1B
100
AcDbEntity
 67
     1
  8
02___PRT_ALL_AXES
  6
Continuous
 62
     3
100
AcDbLine
 10
616.2594137863
 20
533.3881842261
 30
0.0
 11
615.7597183728
 21
533.4056339744
 31
0.0
  0
LINE
  5
3C0
330
1B
100
AcDbEntity
 67
     1
  8
02___PRT_ALL_AXES
  6
Continuous
 62
     3
100
AcDbLine
 10
635.2478394997
 20
532.7250937887
 30
0.0
 11
635.7475349132
 21
532.7076440404
 31
0.0
  0
ARC
  5
3C1
330
1B
100
AcDbEntity
 67
     1
  8
02___PRT_ALL_AXES
  6
Continuous
 62
     3
100
AcDbCircle
 10
625.753626643
 20
533.0566390074
 30
0.0
 40
9.5
100
AcDbArc
 50
182.0
 51
358.0
  0
LINE
  5
3C2
330
1B
100
AcDbEntity
 67
     1
  8
02___PRT_ALL_AXES
  6
Continuous
 62
     3
100
AcDbLine
 10
615.7597183728
 20
532.7076440404
 30
0.0
 11
616.2594137863
 21
532.7250937887
 31
0.0
  0
ARC
  5
3C3
330
1B
100
AcDbEntity
 67
     1
  8
02___PRT_ALL_AXES
  6
Continuous
 62
     3
100
AcDbCircle
 10
625.753626643
 20
533.0566390074
 30
0.0
 40
10.0
100
AcDbArc
 50
182.0
 51
358.0
  0
LINE
  5
3C4
330
1B
100
AcDbEntity
 67
     1
  8
7_ALL_FEATURES
  6
Continuous
 62
     3
100
AcDbLine
 10
470.003626643
 20
593.3881842261
 30
0.0
 11
470.003626643
 21
592.8881842261
 31
0.0
  0
LINE
  5
3C5
330
1B
100
AcDbEntity
 67
     1
  8
7_ALL_FEATURES
  6
Continuous
 62
     3
100
AcDbLine
 10
470.003626643
 20
592.8881842261
 30
0.0
 11
470.003626643
 21
554.0881842261
 31
0.0
  0
LINE
  5
3C6
330
1B
100
AcDbEntity
 67
     1
  8
7_ALL_FEATURES
  6
Continuous
 62
     3
100
AcDbLine
 10
470.003626643
 20
554.0881842261
 30
0.0
 11
470.003626643
 21
553.3881842261
 31
0.0
  0
LINE
  5
3C7
330
1B
100
AcDbEntity
 67
     1
  8
7_ALL_FEATURES
  6
Continuous
 62
     3
100
AcDbLine
 10
1981.503626643
 20
593.3881842261
 30
0.0
 11
470.003626643
 21
593.3881842261
 31
0.0
  0
LINE
  5
3C8
330
1B
100
AcDbEntity
 67
     1
  8
7_ALL_FEATURES
  6
Continuous
 62
     3
100
AcDbLine
 10
1981.503626643
 20
553.3881842261
 30
0.0
 11
1981.503626643
 21
553.8881842261
 31
0.0
  0
LINE
  5
3C9
330
1B
100
AcDbEntity
 67
     1
  8
7_ALL_FEATURES
  6
Continuous
 62
     3
100
AcDbLine
 10
1981.503626643
 20
553.8881842261
 30
0.0
 11
1981.503626643
 21
592.8881842261
 31
0.0
  0
LINE
  5
3CA
330
1B
100
AcDbEntity
 67
     1
  8
7_ALL_FEATURES
  6
Continuous
 62
     3
100
AcDbLine
 10
1981.503626643
 20
592.8881842261
 30
0.0
 11
1981.503626643
 21
593.3881842261
 31
0.0
  0
LINE
  5
3CB
330
1B
100
AcDbEntity
 67
     1
  8
7_ALL_FEATURES
  6
Continuous
 62
     3
100
AcDbLine
 10
1981.503626643
 20
553.3881842261
 30
0.0
 11
1979.003626643
 21
553.3881842261
 31
0.0
  0
LINE
  5
3CC
330
1B
100
AcDbEntity
 67
     1
  8
7_ALL_FEATURES
  6
Continuous
 62
     3
100
AcDbLine
 10
1979.003626643
 20
543.3881842261
 30
0.0
 11
1979.003626643
 21
543.8881842261
 31
0.0
  0
LINE
  5
3CD
330
1B
100
AcDbEntity
 67
     1
  8
7_ALL_FEATURES
  6
Continuous
 62
     3
100
AcDbLine
 10
1979.003626643
 20
552.8881842261
 30
0.0
 11
1979.003626643
 21
553.3881842261
 31
0.0
  0
LINE
  5
3CE
330
1B
100
AcDbEntity
 67
     1
  8
7_ALL_FEATURES
  6
Continuous
 62
     3
100
AcDbLine
 10
1981.503626643
 20
543.3881842261
 30
0.0
 11
1979.003626643
 21
543.3881842261
 31
0.0
  0
LINE
  5
3CF
330
1B
100
AcDbEntity
 67
     1
  8
7_ALL_FEATURES
  6
Continuous
 62
     3
100
AcDbLine
 10
1981.503626643
 20
518.8881842261
 30
0.0
 11
1981.503626643
 21
519.0881842261
 31
0.0
  0
LINE
  5
3D0
330
1B
100
AcDbEntity
 67
     1
  8
7_ALL_FEATURES
  6
Continuous
 62
     3
100
AcDbLine
 10
1981.503626643
 20
519.0881842261
 30
0.0
 11
1981.503626643
 21
542.8881842261
 31
0.0
  0
LINE
  5
3D1
330
1B
100
AcDbEntity
 67
     1
  8
7_ALL_FEATURES
  6
Continuous
 62
     3
100
AcDbLine
 10
1981.503626643
 20
542.8881842261
 30
0.0
 11
1981.503626643
 21
543.3881842261
 31
0.0
  0
LINE
  5
3D2
330
1B
100
AcDbEntity
 67
     1
  8
7_ALL_FEATURES
  6
Continuous
 62
     3
100
AcDbLine
 10
1981.503626643
 20
518.8881842261
 30
0.0
 11
1979.003626643
 21
518.8881842261
 31
0.0
  0
LINE
  5
3D3
330
1B
100
AcDbEntity
 67
     1
  8
7_ALL_FEATURES
  6
Continuous
 62
     3
100
AcDbLine
 10
1979.003626643
 20
507.8881842261
 30
0.0
 11
1979.003626643
 21
508.8881842261
 31
0.0
  0
LINE
  5
3D4
330
1B
100
AcDbEntity
 67
     1
  8
7_ALL_FEATURES
  6
Continuous
 62
     3
100
AcDbLine
 10
1979.003626643
 20
517.8881842261
 30
0.0
 11
1979.003626643
 21
518.8881842261
 31
0.0
  0
LINE
  5
3D5
330
1B
100
AcDbEntity
 67
     1
  8
7_ALL_FEATURES
  6
Continuous
 62
     3
100
AcDbLine
 10
1981.503626643
 20
507.8881842261
 30
0.0
 11
1979.003626643
 21
507.8881842261
 31
0.0
  0
LINE
  5
3D6
330
1B
100
AcDbEntity
 67
     1
  8
7_ALL_FEATURES
  6
Continuous
 62
     3
100
AcDbLine
 10
1981.503626643
 20
506.7881842261
 30
0.0
 11
1981.503626643
 21
507.6881842261
 31
0.0
  0
LINE
  5
3D7
330
1B
100
AcDbEntity
 67
     1
  8
7_ALL_FEATURES
  6
Continuous
 62
     3
100
AcDbLine
 10
1981.503626643
 20
507.6881842261
 30
0.0
 11
1981.503626643
 21
507.8881842261
 31
0.0
  0
LINE
  5
3D8
330
1B
100
AcDbEntity
 67
     1
  8
7_ALL_FEATURES
  6
Continuous
 62
     3
100
AcDbLine
 10
470.003626643
 20
507.8881842261
 30
0.0
 11
470.003626643
 21
507.6881842261
 31
0.0
  0
LINE
  5
3D9
330
1B
100
AcDbEntity
 67
     1
  8
7_ALL_FEATURES
  6
Continuous
 62
     3
100
AcDbLine
 10
470.003626643
 20
507.6881842261
 30
0.0
 11
470.003626643
 21
506.7881842261
 31
0.0
  0
LINE
  5
3DA
330
1B
100
AcDbEntity
 67
     1
  8
7_ALL_FEATURES
  6
Continuous
 62
     3
100
AcDbLine
 10
470.003626643
 20
507.8881842261
 30
0.0
 11
472.503626643
 21
507.8881842261
 31
0.0
  0
LINE
  5
3DB
330
1B
100
AcDbEntity
 67
     1
  8
7_ALL_FEATURES
  6
Continuous
 62
     3
100
AcDbLine
 10
472.503626643
 20
507.8881842261
 30
0.0
 11
472.503626643
 21
508.8881842261
 31
0.0
  0
LINE
  5
3DC
330
1B
100
AcDbEntity
 67
     1
  8
7_ALL_FEATURES
  6
Continuous
 62
     3
100
AcDbLine
 10
472.503626643
 20
517.8881842261
 30
0.0
 11
472.503626643
 21
518.8881842261
 31
0.0
  0
LINE
  5
3DD
330
1B
100
AcDbEntity
 67
     1
  8
7_ALL_FEATURES
  6
Continuous
 62
     3
100
AcDbLine
 10
470.003626643
 20
518.8881842261
 30
0.0
 11
472.503626643
 21
518.8881842261
 31
0.0
  0
LINE
  5
3DE
330
1B
100
AcDbEntity
 67
     1
  8
7_ALL_FEATURES
  6
Continuous
 62
     3
100
AcDbLine
 10
470.003626643
 20
543.3881842261
 30
0.0
 11
470.003626643
 21
542.6881842261
 31
0.0
  0
LINE
  5
3DF
330
1B
100
AcDbEntity
 67
     1
  8
7_ALL_FEATURES
  6
Continuous
 62
     3
100
AcDbLine
 10
470.003626643
 20
542.6881842261
 30
0.0
 11
470.003626643
 21
519.0881842261
 31
0.0
  0
LINE
  5
3E0
330
1B
100
AcDbEntity
 67
     1
  8
7_ALL_FEATURES
  6
Continuous
 62
     3
100
AcDbLine
 10
470.003626643
 20
519.0881842261
 30
0.0
 11
470.003626643
 21
518.8881842261
 31
0.0
  0
LINE
  5
3E1
330
1B
100
AcDbEntity
 67
     1
  8
7_ALL_FEATURES
  6
Continuous
 62
     3
100
AcDbLine
 10
470.003626643
 20
543.3881842261
 30
0.0
 11
472.503626643
 21
543.3881842261
 31
0.0
  0
LINE
  5
3E2
330
1B
100
AcDbEntity
 67
     1
  8
7_ALL_FEATURES
  6
Continuous
 62
     3
100
AcDbLine
 10
472.503626643
 20
543.3881842261
 30
0.0
 11
472.503626643
 21
543.8881842261
 31
0.0
  0
LINE
  5
3E3
330
1B
100
AcDbEntity
 67
     1
  8
7_ALL_FEATURES
  6
Continuous
 62
     3
100
AcDbLine
 10
472.503626643
 20
552.8881842261
 30
0.0
 11
472.503626643
 21
553.3881842261
 31
0.0
  0
LINE
  5
3E4
330
1B
100
AcDbEntity
 67
     1
  8
7_ALL_FEATURES
  6
Continuous
 62
     3
100
AcDbLine
 10
470.003626643
 20
553.3881842261
 30
0.0
 11
472.503626643
 21
553.3881842261
 31
0.0
  0
LINE
  5
3E5
330
1B
100
AcDbEntity
 67
     1
  8
7_ALL_FEATURES
  6
Continuous
 62
     3
100
AcDbLine
 10
1981.503626643
 20
504.3881842261
 30
0.0
 11
1972.003626643
 21
504.3881842261
 31
0.0
  0
LINE
  5
3E6
330
1B
100
AcDbEntity
 67
     1
  8
7_ALL_FEATURES
  6
Continuous
 62
     3
100
AcDbLine
 10
1929.503626643
 20
504.3881842261
 30
0.0
 11
1247.003626643
 21
504.3881842261
 31
0.0
  0
LINE
  5
3E7
330
1B
100
AcDbEntity
 67
     1
  8
7_ALL_FEATURES
  6
Continuous
 62
     3
100
AcDbLine
 10
1204.503626643
 20
504.3881842261
 30
0.0
 11
522.003626643
 21
504.3881842261
 31
0.0
  0
LINE
  5
3E8
330
1B
100
AcDbEntity
 67
     1
  8
7_ALL_FEATURES
  6
Continuous
 62
     3
100
AcDbLine
 10
479.503626643
 20
504.3881842261
 30
0.0
 11
470.003626643
 21
504.3881842261
 31
0.0
  0
LINE
  5
3E9
330
1B
100
AcDbEntity
 67
     1
  8
7_ALL_FEATURES
  6
Continuous
 62
     9
100
AcDbLine
 10
1981.503626643
 20
506.7881842261
 30
0.0
 11
470.003626643
 21
506.7881842261
 31
0.0
  0
ARC
  5
3EA
330
1B
100
AcDbEntity
 67
     1
  8
3_ALL_AXES
  6
Continuous
 62
     7
100
AcDbCircle
 10
2200.6366991992
 20
509.9381842261
 30
0.0
 40
8.0
100
AcDbArc
 50
248.7461908146
 51
270.0
  0
LINE
  5
3EB
330
1B
100
AcDbEntity
 67
     1
  8
3_ALL_AXES
  6
Continuous
 62
     7
100
AcDbLine
 10
2203.5366991992
 20
502.4823140556
 30
0.0
 11
2203.5366991992
 21
503.1881842261
 31
0.0
  0
LINE
  5
3EC
330
1B
100
AcDbEntity
 67
     1
  8
3_ALL_AXES
  6
Continuous
 62
     7
100
AcDbLine
 10
2197.7366991992
 20
502.4823140556
 30
0.0
 11
2197.7366991992
 21
503.1881842261
 31
0.0
  0
ARC
  5
3ED
330
1B
100
AcDbEntity
 67
     1
  8
3_ALL_AXES
  6
Continuous
 62
     7
100
AcDbCircle
 10
2200.6366991992
 20
509.9381842261
 30
0.0
 40
8.0
100
AcDbArc
 50
270.0
 51
291.2538091854
  0
LINE
  5
3EE
330
1B
100
AcDbEntity
 67
     1
  8
3_ALL_AXES
  6
Continuous
 62
     7
100
AcDbLine
 10
2200.6366991992
 20
502.4823140556
 30
0.0
 11
2197.7366991992
 21
502.4823140556
 31
0.0
  0
LINE
  5
3EF
330
1B
100
AcDbEntity
 67
     1
  8
3_ALL_AXES
  6
Continuous
 62
     7
100
AcDbLine
 10
2200.6366991992
 20
502.4823140556
 30
0.0
 11
2203.5366991992
 21
502.4823140556
 31
0.0
  0
LINE
  5
3F0
330
1B
100
AcDbEntity
 67
     1
  8
3_ALL_AXES
  6
Continuous
 62
     7
100
AcDbLine
 10
2217.8925693697
 20
554.8881842261
 30
0.0
 11
2217.1866991992
 21
554.8881842261
 31
0.0
  0
ARC
  5
3F1
330
1B
100
AcDbEntity
 67
     1
  8
3_ALL_AXES
  6
Continuous
 62
     7
100
AcDbCircle
 10
2210.4366991992
 20
551.9881842261
 30
0.0
 40
8.0
100
AcDbArc
 50
6.464919374300001
 51
21.2538091854
  0
LINE
  5
3F2
330
1B
100
AcDbEntity
 67
     1
  8
3_ALL_AXES
  6
Continuous
 62
     7
100
AcDbLine
 10
2217.8925693697
 20
552.8881842261
 30
0.0
 11
2217.8925693697
 21
554.8881842261
 31
0.0
  0
LINE
  5
3F3
330
1B
100
AcDbEntity
 67
     1
  8
3_ALL_AXES
  6
Continuous
 62
     7
100
AcDbLine
 10
2193.3808290287
 20
554.8881842261
 30
0.0
 11
2194.0866991992
 21
554.8881842261
 31
0.0
  0
ARC
  5
3F4
330
1B
100
AcDbEntity
 67
     1
  8
3_ALL_AXES
  6
Continuous
 62
     7
100
AcDbCircle
 10
2200.8366991992
 20
551.9881842261
 30
0.0
 40
8.0
100
AcDbArc
 50
158.7461908146
 51
173.5350806257
  0
LINE
  5
3F5
330
1B
100
AcDbEntity
 67
     1
  8
3_ALL_AXES
  6
Continuous
 62
     7
100
AcDbLine
 10
2193.3808290287
 20
554.8881842261
 30
0.0
 11
2193.3808290287
 21
552.8881842261
 31
0.0
  0
ARC
  5
3F6
330
1B
100
AcDbEntity
 67
     1
  8
3_ALL_AXES
  6
Continuous
 62
     7
100
AcDbCircle
 10
2210.6366991992
 20
509.9381842261
 30
0.0
 40
8.0
100
AcDbArc
 50
248.7461908146
 51
270.0
  0
LINE
  5
3F7
330
1B
100
AcDbEntity
 67
     1
  8
3_ALL_AXES
  6
Continuous
 62
     7
100
AcDbLine
 10
2213.5366991992
 20
502.4823140556
 30
0.0
 11
2213.5366991992
 21
503.1881842261
 31
0.0
  0
LINE
  5
3F8
330
1B
100
AcDbEntity
 67
     1
  8
3_ALL_AXES
  6
Continuous
 62
     7
100
AcDbLine
 10
2207.7366991992
 20
502.4823140556
 30
0.0
 11
2207.7366991992
 21
503.1881842261
 31
0.0
  0
ARC
  5
3F9
330
1B
100
AcDbEntity
 67
     1
  8
3_ALL_AXES
  6
Continuous
 62
     7
100
AcDbCircle
 10
2210.6366991992
 20
509.9381842261
 30
0.0
 40
8.0
100
AcDbArc
 50
270.0
 51
291.2538091854
  0
LINE
  5
3FA
330
1B
100
AcDbEntity
 67
     1
  8
3_ALL_AXES
  6
Continuous
 62
     7
100
AcDbLine
 10
2210.6366991992
 20
502.4823140556
 30
0.0
 11
2207.7366991992
 21
502.4823140556
 31
0.0
  0
LINE
  5
3FB
330
1B
100
AcDbEntity
 67
     1
  8
3_ALL_AXES
  6
Continuous
 62
     7
100
AcDbLine
 10
2210.6366991992
 20
502.4823140556
 30
0.0
 11
2213.5366991992
 21
502.4823140556
 31
0.0
  0
LINE
  5
3FC
330
1B
100
AcDbEntity
 67
     1
  8
3_ALL_AXES
  6
Continuous
 62
     7
100
AcDbLine
 10
2192.7866991992
 20
509.5881842261
 30
0.0
 11
2192.4066991992
 21
509.5881842261
 31
0.0
  0
LINE
  5
3FD
330
1B
100
AcDbEntity
 67
     1
  8
3_ALL_AXES
  6
Continuous
 62
     7
100
AcDbLine
 10
2190.5866991992
 20
513.3881842261
 30
0.0
 11
2190.5866991992
 21
515.3531498806
 31
0.0
  0
ARC
  5
3FE
330
1B
100
AcDbEntity
 67
     1
  8
3_ALL_AXES
  6
Continuous
 62
     7
100
AcDbCircle
 10
2194.2593392909
 20
513.2457414287
 30
0.0
 40
4.1
100
AcDbArc
 50
206.3930257743
 51
243.1366968699
  0
LINE
  5
3FF
330
1B
100
AcDbEntity
 67
     1
  8
3_ALL_AXES
  6
Continuous
 62
     7
100
AcDbLine
 10
2190.5866991992
 20
513.3881842261
 30
0.0
 11
2190.5866991992
 21
511.4232185716
 31
0.0
  0
LINE
  5
400
330
1B
100
AcDbEntity
 67
     1
  8
3_ALL_AXES
  6
Continuous
 62
     7
100
AcDbLine
 10
2192.7866991992
 20
517.1881842261
 30
0.0
 11
2192.4066991992
 21
517.1881842261
 31
0.0
  0
ARC
  5
401
330
1B
100
AcDbEntity
 67
     1
  8
3_ALL_AXES
  6
Continuous
 62
     7
100
AcDbCircle
 10
2194.2593392909
 20
513.5306270234
 30
0.0
 40
4.1
100
AcDbArc
 50
116.8633031301
 51
153.6069742257
  0
LINE
  5
402
330
1B
100
AcDbEntity
 67
     1
  8
3_ALL_AXES
  6
Continuous
 62
     7
100
AcDbLine
 10
2192.4066991992
 20
513.3881842261
 30
0.0
 11
2192.4066991992
 21
509.5881842261
 31
0.0
  0
LINE
  5
403
330
1B
100
AcDbEntity
 67
     1
  8
3_ALL_AXES
  6
Continuous
 62
     7
100
AcDbLine
 10
2192.4066991992
 20
513.3881842261
 30
0.0
 11
2192.4066991992
 21
517.1881842261
 31
0.0
  0
LINE
  5
404
330
1B
100
AcDbEntity
 67
     1
  8
3_ALL_AXES
  6
Continuous
 62
     7
100
AcDbLine
 10
2192.7866991992
 20
544.5881842261
 30
0.0
 11
2192.4066991992
 21
544.5881842261
 31
0.0
  0
LINE
  5
405
330
1B
100
AcDbEntity
 67
     1
  8
3_ALL_AXES
  6
Continuous
 62
     7
100
AcDbLine
 10
2190.5866991992
 20
548.3881842261
 30
0.0
 11
2190.5866991992
 21
550.3531498806
 31
0.0
  0
ARC
  5
406
330
1B
100
AcDbEntity
 67
     1
  8
3_ALL_AXES
  6
Continuous
 62
     7
100
AcDbCircle
 10
2194.2593392909
 20
548.2457414287
 30
0.0
 40
4.1
100
AcDbArc
 50
206.3930257743
 51
243.1366968699
  0
LINE
  5
407
330
1B
100
AcDbEntity
 67
     1
  8
3_ALL_AXES
  6
Continuous
 62
     7
100
AcDbLine
 10
2190.5866991992
 20
548.3881842261
 30
0.0
 11
2190.5866991992
 21
546.4232185716
 31
0.0
  0
LINE
  5
408
330
1B
100
AcDbEntity
 67
     1
  8
3_ALL_AXES
  6
Continuous
 62
     7
100
AcDbLine
 10
2192.7866991992
 20
552.1881842261
 30
0.0
 11
2192.4066991992
 21
552.1881842261
 31
0.0
  0
ARC
  5
409
330
1B
100
AcDbEntity
 67
     1
  8
3_ALL_AXES
  6
Continuous
 62
     7
100
AcDbCircle
 10
2194.2593392909
 20
548.5306270234
 30
0.0
 40
4.1
100
AcDbArc
 50
116.8633031301
 51
153.6069742257
  0
LINE
  5
40A
330
1B
100
AcDbEntity
 67
     1
  8
3_ALL_AXES
  6
Continuous
 62
     7
100
AcDbLine
 10
2192.4066991992
 20
548.3881842261
 30
0.0
 11
2192.4066991992
 21
544.5881842261
 31
0.0
  0
LINE
  5
40B
330
1B
100
AcDbEntity
 67
     1
  8
3_ALL_AXES
  6
Continuous
 62
     7
100
AcDbLine
 10
2192.4066991992
 20
548.3881842261
 30
0.0
 11
2192.4066991992
 21
552.1881842261
 31
0.0
  0
LINE
  5
40C
330
1B
100
AcDbEntity
 67
     1
  8
3_ALL_AXES
  6
Continuous
 62
     7
100
AcDbLine
 10
2218.4866991992
 20
544.5881842261
 30
0.0
 11
2218.8666991992
 21
544.5881842261
 31
0.0
  0
LINE
  5
40D
330
1B
100
AcDbEntity
 67
     1
  8
3_ALL_AXES
  6
Continuous
 62
     7
100
AcDbLine
 10
2220.6866991992
 20
546.4232185716
 30
0.0
 11
2220.6866991992
 21
548.3881842261
 31
0.0
  0
ARC
  5
40E
330
1B
100
AcDbEntity
 67
     1
  8
3_ALL_AXES
  6
Continuous
 62
     7
100
AcDbCircle
 10
2217.0140591075
 20
548.2457414287
 30
0.0
 40
4.1
100
AcDbArc
 50
296.8633031301
 51
333.6069742257001
  0
LINE
  5
40F
330
1B
100
AcDbEntity
 67
     1
  8
3_ALL_AXES
  6
Continuous
 62
     7
100
AcDbLine
 10
2218.4866991992
 20
552.1881842261
 30
0.0
 11
2218.8666991992
 21
552.1881842261
 31
0.0
  0
LINE
  5
410
330
1B
100
AcDbEntity
 67
     1
  8
3_ALL_AXES
  6
Continuous
 62
     7
100
AcDbLine
 10
2220.6866991992
 20
550.3531498806
 30
0.0
 11
2220.6866991992
 21
548.3881842261
 31
0.0
  0
ARC
  5
411
330
1B
100
AcDbEntity
 67
     1
  8
3_ALL_AXES
  6
Continuous
 62
     7
100
AcDbCircle
 10
2217.0140591075
 20
548.5306270234
 30
0.0
 40
4.1
100
AcDbArc
 50
26.3930257743
 51
63.13669686989999
  0
LINE
  5
412
330
1B
100
AcDbEntity
 67
     1
  8
3_ALL_AXES
  6
Continuous
 62
     7
100
AcDbLine
 10
2218.8666991992
 20
544.5881842261
 30
0.0
 11
2218.8666991992
 21
548.3881842261
 31
0.0
  0
LINE
  5
413
330
1B
100
AcDbEntity
 67
     1
  8
3_ALL_AXES
  6
Continuous
 62
     7
100
AcDbLine
 10
2218.8666991992
 20
552.1881842261
 30
0.0
 11
2218.8666991992
 21
548.3881842261
 31
0.0
  0
LINE
  5
414
330
1B
100
AcDbEntity
 67
     1
  8
3_ALL_AXES
  6
Continuous
 62
     7
100
AcDbLine
 10
2218.4866991992
 20
509.5881842261
 30
0.0
 11
2218.8666991992
 21
509.5881842261
 31
0.0
  0
LINE
  5
415
330
1B
100
AcDbEntity
 67
     1
  8
3_ALL_AXES
  6
Continuous
 62
     7
100
AcDbLine
 10
2220.6866991992
 20
511.4232185716
 30
0.0
 11
2220.6866991992
 21
513.3881842261
 31
0.0
  0
ARC
  5
416
330
1B
100
AcDbEntity
 67
     1
  8
3_ALL_AXES
  6
Continuous
 62
     7
100
AcDbCircle
 10
2217.0140591075
 20
513.2457414287
 30
0.0
 40
4.1
100
AcDbArc
 50
296.8633031301
 51
333.6069742257001
  0
LINE
  5
417
330
1B
100
AcDbEntity
 67
     1
  8
3_ALL_AXES
  6
Continuous
 62
     7
100
AcDbLine
 10
2218.4866991992
 20
517.1881842261
 30
0.0
 11
2218.8666991992
 21
517.1881842261
 31
0.0
  0
LINE
  5
418
330
1B
100
AcDbEntity
 67
     1
  8
3_ALL_AXES
  6
Continuous
 62
     7
100
AcDbLine
 10
2220.6866991992
 20
515.3531498806
 30
0.0
 11
2220.6866991992
 21
513.3881842261
 31
0.0
  0
ARC
  5
419
330
1B
100
AcDbEntity
 67
     1
  8
3_ALL_AXES
  6
Continuous
 62
     7
100
AcDbCircle
 10
2217.0140591075
 20
513.5306270234
 30
0.0
 40
4.1
100
AcDbArc
 50
26.3930257743
 51
63.13669686989999
  0
LINE
  5
41A
330
1B
100
AcDbEntity
 67
     1
  8
3_ALL_AXES
  6
Continuous
 62
     7
100
AcDbLine
 10
2218.8666991992
 20
509.5881842261
 30
0.0
 11
2218.8666991992
 21
513.3881842261
 31
0.0
  0
LINE
  5
41B
330
1B
100
AcDbEntity
 67
     1
  8
3_ALL_AXES
  6
Continuous
 62
     7
100
AcDbLine
 10
2218.8666991992
 20
517.1881842261
 30
0.0
 11
2218.8666991992
 21
513.3881842261
 31
0.0
  0
LINE
  5
41C
330
1B
100
AcDbEntity
 67
     1
  8
7_ALL_FEATURES
  6
Continuous
 62
     7
100
AcDbLine
 10
2169.6366991992
 20
504.3881842261
 30
0.0
 11
2169.6366991992
 21
503.1881842261
 31
0.0
  0
LINE
  5
41D
330
1B
100
AcDbEntity
 67
     1
  8
7_ALL_FEATURES
  6
Continuous
 62
     7
100
AcDbLine
 10
2241.6366991992
 20
504.3881842261
 30
0.0
 11
2241.6366991992
 21
503.1881842261
 31
0.0
  0
LINE
  5
41E
330
1B
100
AcDbEntity
 67
     1
  8
7_ALL_FEATURES
  6
Continuous
 62
     7
100
AcDbLine
 10
2231.6366991992
 20
504.3881842261
 30
0.0
 11
2216.6866991992
 21
504.3881842261
 31
0.0
  0
LINE
  5
41F
330
1B
100
AcDbEntity
 67
     1
  8
7_ALL_FEATURES
  6
Continuous
 62
     7
100
AcDbLine
 10
2194.5866991992
 20
504.3881842261
 30
0.0
 11
2179.6366991992
 21
504.3881842261
 31
0.0
  0
LINE
  5
420
330
1B
100
AcDbEntity
 67
     1
  8
7_ALL_FEATURES
  6
Continuous
 62
     7
100
AcDbLine
 10
2231.6366991992
 20
504.3881842261
 30
0.0
 11
2234.8866991992
 21
504.3881842261
 31
0.0
  0
LINE
  5
421
330
1B
100
AcDbEntity
 67
     1
  8
7_ALL_FEATURES
  6
Continuous
 62
     7
100
AcDbLine
 10
2234.8866991992
 20
504.3881842261
 30
0.0
 11
2241.6366991992
 21
504.3881842261
 31
0.0
  0
LINE
  5
422
330
1B
100
AcDbEntity
 67
     1
  8
7_ALL_FEATURES
  6
Continuous
 62
     7
100
AcDbLine
 10
2169.6366991992
 20
504.3881842261
 30
0.0
 11
2176.3866991992
 21
504.3881842261
 31
0.0
  0
LINE
  5
423
330
1B
100
AcDbEntity
 67
     1
  8
7_ALL_FEATURES
  6
Continuous
 62
     7
100
AcDbLine
 10
2176.3866991992
 20
504.3881842261
 30
0.0
 11
2179.6366991992
 21
504.3881842261
 31
0.0
  0
LINE
  5
424
330
1B
100
AcDbEntity
 67
     1
  8
7_ALL_FEATURES
  6
Continuous
 62
     9
100
AcDbLine
 10
2231.6366991992
 20
504.3881842261
 30
0.0
 11
2231.6366991992
 21
503.1881842261
 31
0.0
  0
LINE
  5
425
330
1B
100
AcDbEntity
 67
     1
  8
7_ALL_FEATURES
  6
Continuous
 62
     9
100
AcDbLine
 10
2179.6366991992
 20
504.3881842261
 30
0.0
 11
2179.6366991992
 21
503.1881842261
 31
0.0
  0
LINE
  5
426
330
1B
100
AcDbEntity
 67
     1
  8
7_ALL_FEATURES
  6
Continuous
 62
     7
100
AcDbLine
 10
2214.7866991992
 20
535.1605312771
 30
0.0
 11
2214.7866991992
 21
533.912488742
 31
0.0
  0
LINE
  5
427
330
1B
100
AcDbEntity
 67
     1
  8
7_ALL_FEATURES
  6
Continuous
 62
     7
100
AcDbLine
 10
2215.784351815
 20
531.9881842261
 30
0.0
 11
2215.2782923307
 21
531.9881842261
 31
0.0
  0
LINE
  5
428
330
1B
100
AcDbEntity
 67
     1
  8
7_ALL_FEATURES
  6
Continuous
 62
     7
100
AcDbLine
 10
2195.4890465834
 20
531.9881842261
 30
0.0
 11
2195.9951060677
 21
531.9881842261
 31
0.0
  0
LINE
  5
429
330
1B
100
AcDbEntity
 67
     1
  8
7_ALL_FEATURES
  6
Continuous
 62
     7
100
AcDbLine
 10
2196.4866991992
 20
535.1605312771
 30
0.0
 11
2196.4866991992
 21
533.912488742
 31
0.0
  0
LINE
  5
42A
330
1B
100
AcDbEntity
 67
     1
  8
7_ALL_FEATURES
  6
Continuous
 62
     7
100
AcDbLine
 10
2217.1866991992
 20
553.3881842261
 30
0.0
 11
2216.4866991992
 21
553.3881842261
 31
0.0
  0
LINE
  5
42B
330
1B
100
AcDbEntity
 67
     1
  8
7_ALL_FEATURES
  6
Continuous
 62
     7
100
AcDbLine
 10
2217.1866991992
 20
593.3881842261
 30
0.0
 11
2216.6866991992
 21
593.3881842261
 31
0.0
  0
LINE
  5
42C
330
1B
100
AcDbEntity
 67
     1
  8
7_ALL_FEATURES
  6
Continuous
 62
     7
100
AcDbLine
 10
2217.1866991992
 20
507.8881842261
 30
0.0
 11
2216.4866991992
 21
507.8881842261
 31
0.0
  0
LINE
  5
42D
330
1B
100
AcDbEntity
 67
     1
  8
7_ALL_FEATURES
  6
Continuous
 62
     7
100
AcDbLine
 10
2217.1866991992
 20
518.8881842261
 30
0.0
 11
2216.4866991992
 21
518.8881842261
 31
0.0
  0
LINE
  5
42E
330
1B
100
AcDbEntity
 67
     1
  8
7_ALL_FEATURES
  6
Continuous
 62
     7
100
AcDbLine
 10
2217.1866991992
 20
543.3881842261
 30
0.0
 11
2216.4866991992
 21
543.3881842261
 31
0.0
  0
LINE
  5
42F
330
1B
100
AcDbEntity
 67
     1
  8
7_ALL_FEATURES
  6
Continuous
 62
     7
100
AcDbLine
 10
2194.0866991992
 20
543.3881842261
 30
0.0
 11
2194.7866991992
 21
543.3881842261
 31
0.0
  0
LINE
  5
430
330
1B
100
AcDbEntity
 67
     1
  8
7_ALL_FEATURES
  6
Continuous
 62
     7
100
AcDbLine
 10
2194.0866991992
 20
518.8881842261
 30
0.0
 11
2194.7866991992
 21
518.8881842261
 31
0.0
  0
LINE
  5
431
330
1B
100
AcDbEntity
 67
     1
  8
7_ALL_FEATURES
  6
Continuous
 62
     7
100
AcDbLine
 10
2194.0866991992
 20
507.8881842261
 30
0.0
 11
2194.7866991992
 21
507.8881842261
 31
0.0
  0
LINE
  5
432
330
1B
100
AcDbEntity
 67
     1
  8
7_ALL_FEATURES
  6
Continuous
 62
     7
100
AcDbLine
 10
2194.0866991992
 20
593.3881842261
 30
0.0
 11
2194.5866991992
 21
593.3881842261
 31
0.0
  0
LINE
  5
433
330
1B
100
AcDbEntity
 67
     1
  8
7_ALL_FEATURES
  6
Continuous
 62
     7
100
AcDbLine
 10
2194.0866991992
 20
553.3881842261
 30
0.0
 11
2194.7866991992
 21
553.3881842261
 31
0.0
  0
ARC
  5
434
330
1B
100
AcDbEntity
 67
     1
  8
7_ALL_FEATURES
  6
Continuous
 62
     7
100
AcDbCircle
 10
2205.6366991992
 20
503.3881842261
 30
0.0
 40
2.0
100
AcDbArc
 50
41.81031489579999
 51
138.1896851042
  0
ARC
  5
435
330
1B
100
AcDbEntity
 67
     1
  8
7_ALL_FEATURES
  6
Continuous
 62
     7
100
AcDbCircle
 10
2207.8727671767
 20
505.3881842261
 30
0.0
 40
1.0
100
AcDbArc
 50
221.8103148957
 51
270.0
  0
LINE
  5
436
330
1B
100
AcDbEntity
 67
     1
  8
7_ALL_FEATURES
  6
Continuous
 62
     7
100
AcDbLine
 10
2216.6866991992
 20
504.3881842261
 30
0.0
 11
2207.8727671767
 21
504.3881842261
 31
0.0
  0
ARC
  5
437
330
1B
100
AcDbEntity
 67
     1
  8
7_ALL_FEATURES
  6
Continuous
 62
     7
100
AcDbCircle
 10
2216.6866991992
 20
504.8881842261
 30
0.0
 40
0.5
100
AcDbArc
 50
270.0
 51
360.0
  0
LINE
  5
438
330
1B
100
AcDbEntity
 67
     1
  8
7_ALL_FEATURES
  6
Continuous
 62
     7
100
AcDbLine
 10
2217.1866991992
 20
507.6881842261
 30
0.0
 11
2217.1866991992
 21
504.8881842261
 31
0.0
  0
LINE
  5
439
330
1B
100
AcDbEntity
 67
     1
  8
7_ALL_FEATURES
  6
Continuous
 62
     7
100
AcDbLine
 10
2217.1866991992
 20
507.6881842261
 30
0.0
 11
2216.4866991992
 21
507.6881842261
 31
0.0
  0
LINE
  5
43A
330
1B
100
AcDbEntity
 67
     1
  8
7_ALL_FEATURES
  6
Continuous
 62
     7
100
AcDbLine
 10
2216.4866991992
 20
508.8881842261
 30
0.0
 11
2216.4866991992
 21
507.6881842261
 31
0.0
  0
LINE
  5
43B
330
1B
100
AcDbEntity
 67
     1
  8
7_ALL_FEATURES
  6
Continuous
 62
     7
100
AcDbLine
 10
2216.4866991992
 20
517.8881842261
 30
0.0
 11
2216.4866991992
 21
519.0881842261
 31
0.0
  0
LINE
  5
43C
330
1B
100
AcDbEntity
 67
     1
  8
7_ALL_FEATURES
  6
Continuous
 62
     7
100
AcDbLine
 10
2217.1866991992
 20
519.0881842261
 30
0.0
 11
2216.4866991992
 21
519.0881842261
 31
0.0
  0
LINE
  5
43D
330
1B
100
AcDbEntity
 67
     1
  8
7_ALL_FEATURES
  6
Continuous
 62
     7
100
AcDbLine
 10
2217.1866991992
 20
542.6881842261
 30
0.0
 11
2217.1866991992
 21
519.0881842261
 31
0.0
  0
LINE
  5
43E
330
1B
100
AcDbEntity
 67
     1
  8
7_ALL_FEATURES
  6
Continuous
 62
     7
100
AcDbLine
 10
2217.1866991992
 20
542.6881842261
 30
0.0
 11
2216.4866991992
 21
542.6881842261
 31
0.0
  0
LINE
  5
43F
330
1B
100
AcDbEntity
 67
     1
  8
7_ALL_FEATURES
  6
Continuous
 62
     7
100
AcDbLine
 10
2216.4866991992
 20
543.8881842261
 30
0.0
 11
2216.4866991992
 21
542.6881842261
 31
0.0
  0
LINE
  5
440
330
1B
100
AcDbEntity
 67
     1
  8
7_ALL_FEATURES
  6
Continuous
 62
     7
100
AcDbLine
 10
2216.4866991992
 20
552.8881842261
 30
0.0
 11
2216.4866991992
 21
554.0881842261
 31
0.0
  0
LINE
  5
441
330
1B
100
AcDbEntity
 67
     1
  8
7_ALL_FEATURES
  6
Continuous
 62
     7
100
AcDbLine
 10
2217.1866991992
 20
554.0881842261
 30
0.0
 11
2216.4866991992
 21
554.0881842261
 31
0.0
  0
LINE
  5
442
330
1B
100
AcDbEntity
 67
     1
  8
7_ALL_FEATURES
  6
Continuous
 62
     7
100
AcDbLine
 10
2217.1866991992
 20
592.8881842261
 30
0.0
 11
2217.1866991992
 21
554.0881842261
 31
0.0
  0
ARC
  5
443
330
1B
100
AcDbEntity
 67
     1
  8
7_ALL_FEATURES
  6
Continuous
 62
     7
100
AcDbCircle
 10
2216.6866991992
 20
592.8881842261
 30
0.0
 40
0.5
100
AcDbArc
 50
0.0
 51
90.0
  0
LINE
  5
444
330
1B
100
AcDbEntity
 67
     1
  8
7_ALL_FEATURES
  6
Continuous
 62
     7
100
AcDbLine
 10
2194.5866991992
 20
593.3881842261
 30
0.0
 11
2216.6866991992
 21
593.3881842261
 31
0.0
  0
ARC
  5
445
330
1B
100
AcDbEntity
 67
     1
  8
7_ALL_FEATURES
  6
Continuous
 62
     7
100
AcDbCircle
 10
2194.5866991992
 20
592.8881842261
 30
0.0
 40
0.5
100
AcDbArc
 50
90.0
 51
180.0
  0
LINE
  5
446
330
1B
100
AcDbEntity
 67
     1
  8
7_ALL_FEATURES
  6
Continuous
 62
     7
100
AcDbLine
 10
2194.0866991992
 20
553.8881842261
 30
0.0
 11
2194.0866991992
 21
592.8881842261
 31
0.0
  0
LINE
  5
447
330
1B
100
AcDbEntity
 67
     1
  8
7_ALL_FEATURES
  6
Continuous
 62
     7
100
AcDbLine
 10
2194.0866991992
 20
553.8881842261
 30
0.0
 11
2194.7866991992
 21
553.8881842261
 31
0.0
  0
LINE
  5
448
330
1B
100
AcDbEntity
 67
     1
  8
7_ALL_FEATURES
  6
Continuous
 62
     7
100
AcDbLine
 10
2194.7866991992
 20
552.8881842261
 30
0.0
 11
2194.7866991992
 21
553.8881842261
 31
0.0
  0
LINE
  5
449
330
1B
100
AcDbEntity
 67
     1
  8
7_ALL_FEATURES
  6
Continuous
 62
     7
100
AcDbLine
 10
2194.7866991992
 20
543.8881842261
 30
0.0
 11
2194.7866991992
 21
542.8881842261
 31
0.0
  0
LINE
  5
44A
330
1B
100
AcDbEntity
 67
     1
  8
7_ALL_FEATURES
  6
Continuous
 62
     7
100
AcDbLine
 10
2194.0866991992
 20
542.8881842261
 30
0.0
 11
2194.7866991992
 21
542.8881842261
 31
0.0
  0
LINE
  5
44B
330
1B
100
AcDbEntity
 67
     1
  8
7_ALL_FEATURES
  6
Continuous
 62
     7
100
AcDbLine
 10
2194.0866991992
 20
519.0881842261
 30
0.0
 11
2194.0866991992
 21
542.8881842261
 31
0.0
  0
LINE
  5
44C
330
1B
100
AcDbEntity
 67
     1
  8
7_ALL_FEATURES
  6
Continuous
 62
     7
100
AcDbLine
 10
2194.0866991992
 20
519.0881842261
 30
0.0
 11
2194.7866991992
 21
519.0881842261
 31
0.0
  0
LINE
  5
44D
330
1B
100
AcDbEntity
 67
     1
  8
7_ALL_FEATURES
  6
Continuous
 62
     7
100
AcDbLine
 10
2194.7866991992
 20
517.8881842261
 30
0.0
 11
2194.7866991992
 21
519.0881842261
 31
0.0
  0
LINE
  5
44E
330
1B
100
AcDbEntity
 67
     1
  8
7_ALL_FEATURES
  6
Continuous
 62
     7
100
AcDbLine
 10
2194.7866991992
 20
508.8881842261
 30
0.0
 11
2194.7866991992
 21
507.6881842261
 31
0.0
  0
LINE
  5
44F
330
1B
100
AcDbEntity
 67
     1
  8
7_ALL_FEATURES
  6
Continuous
 62
     7
100
AcDbLine
 10
2194.0866991992
 20
507.6881842261
 30
0.0
 11
2194.7866991992
 21
507.6881842261
 31
0.0
  0
LINE
  5
450
330
1B
100
AcDbEntity
 67
     1
  8
7_ALL_FEATURES
  6
Continuous
 62
     7
100
AcDbLine
 10
2194.0866991992
 20
504.8881842261
 30
0.0
 11
2194.0866991992
 21
507.6881842261
 31
0.0
  0
ARC
  5
451
330
1B
100
AcDbEntity
 67
     1
  8
7_ALL_FEATURES
  6
Continuous
 62
     7
100
AcDbCircle
 10
2194.5866991992
 20
504.8881842261
 30
0.0
 40
0.5
100
AcDbArc
 50
180.0
 51
270.0
  0
LINE
  5
452
330
1B
100
AcDbEntity
 67
     1
  8
7_ALL_FEATURES
  6
Continuous
 62
     7
100
AcDbLine
 10
2203.4006312217
 20
504.3881842261
 30
0.0
 11
2194.5866991992
 21
504.3881842261
 31
0.0
  0
ARC
  5
453
330
1B
100
AcDbEntity
 67
     1
  8
7_ALL_FEATURES
  6
Continuous
 62
     7
100
AcDbCircle
 10
2203.4006312217
 20
505.3881842261
 30
0.0
 40
1.0
100
AcDbArc
 50
270.0
 51
318.1896851042
  0
ARC
  5
454
330
1B
100
AcDbEntity
 67
     1
  8
02___PRT_ALL_AXES
  6
Continuous
 62
     7
100
AcDbCircle
 10
2205.6366991992
 20
530.5479141332
 30
0.0
 40
10.25
100
AcDbArc
 50
272.0000000000001
 51
358.0
  0
LINE
  5
455
330
1B
100
AcDbEntity
 67
     1
  8
02___PRT_ALL_AXES
  6
Continuous
 62
     7
100
AcDbLine
 10
2205.976969292
 20
520.8038535698
 30
0.0
 11
2205.9944190404
 21
520.3041581563
 31
0.0
  0
ARC
  5
456
330
1B
100
AcDbEntity
 67
     1
  8
02___PRT_ALL_AXES
  6
Continuous
 62
     7
100
AcDbCircle
 10
2205.6366991992
 20
530.5479141332
 30
0.0
 40
9.75
100
AcDbArc
 50
272.0000000000001
 51
358.0
  0
LINE
  5
457
330
1B
100
AcDbEntity
 67
     1
  8
02___PRT_ALL_AXES
  6
Continuous
 62
     7
100
AcDbLine
 10
2215.8804551761
 20
530.190194292
 30
0.0
 11
2215.3807597626
 21
530.2076440404
 31
0.0
  0
ARC
  5
458
330
1B
100
AcDbEntity
 67
     1
  8
02___PRT_ALL_AXES
  6
Continuous
 62
     7
100
AcDbCircle
 10
2205.6366991992
 20
530.5479141332
 30
0.0
 40
9.75
100
AcDbArc
 50
182.0
 51
267.9999999999999
  0
LINE
  5
459
330
1B
100
AcDbEntity
 67
     1
  8
02___PRT_ALL_AXES
  6
Continuous
 62
     7
100
AcDbLine
 10
2205.278979358
 20
520.3041581563
 30
0.0
 11
2205.2964291063
 21
520.8038535698
 31
0.0
  0
ARC
  5
45A
330
1B
100
AcDbEntity
 67
     1
  8
02___PRT_ALL_AXES
  6
Continuous
 62
     7
100
AcDbCircle
 10
2205.6366991992
 20
530.5479141332
 30
0.0
 40
10.25
100
AcDbArc
 50
182.0
 51
267.9999999999999
  0
LINE
  5
45B
330
1B
100
AcDbEntity
 67
     1
  8
02___PRT_ALL_AXES
  6
Continuous
 62
     7
100
AcDbLine
 10
2195.8926386358
 20
530.2076440404
 30
0.0
 11
2195.3929432223
 21
530.190194292
 31
0.0
  0
ARC
  5
45C
330
1B
100
AcDbEntity
 67
     1
  8
02___PRT_ALL_AXES
  6
Continuous
 62
     7
100
AcDbCircle
 10
2205.6366991992
 20
530.5479141332
 30
0.0
 40
10.25
100
AcDbArc
 50
92.0
 51
178.0
  0
LINE
  5
45D
330
1B
100
AcDbEntity
 67
     1
  8
02___PRT_ALL_AXES
  6
Continuous
 62
     7
100
AcDbLine
 10
2205.2964291063
 20
540.2919746967
 30
0.0
 11
2205.278979358
 21
540.7916701102
 31
0.0
  0
ARC
  5
45E
330
1B
100
AcDbEntity
 67
     1
  8
02___PRT_ALL_AXES
  6
Continuous
 62
     7
100
AcDbCircle
 10
2205.6366991992
 20
530.5479141332
 30
0.0
 40
9.75
100
AcDbArc
 50
92.0
 51
178.0
  0
LINE
  5
45F
330
1B
100
AcDbEntity
 67
     1
  8
02___PRT_ALL_AXES
  6
Continuous
 62
     7
100
AcDbLine
 10
2195.3929432223
 20
530.9056339744
 30
0.0
 11
2195.8926386358
 21
530.8881842261
 31
0.0
  0
LINE
  5
460
330
1B
100
AcDbEntity
 67
     1
  8
02___PRT_ALL_AXES
  6
Continuous
 62
     7
100
AcDbLine
 10
2205.9944190404
 20
540.7916701102
 30
0.0
 11
2205.976969292
 21
540.2919746967
 31
0.0
  0
ARC
  5
461
330
1B
100
AcDbEntity
 67
     1
  8
02___PRT_ALL_AXES
  6
Continuous
 62
     7
100
AcDbCircle
 10
2205.6366991992
 20
530.5479141332
 30
0.0
 40
10.25
100
AcDbArc
 50
2.0
 51
88.0
  0
LINE
  5
462
330
1B
100
AcDbEntity
 67
     1
  8
02___PRT_ALL_AXES
  6
Continuous
 62
     7
100
AcDbLine
 10
2215.3807597626
 20
530.8881842261
 30
0.0
 11
2215.8804551761
 21
530.9056339744
 31
0.0
  0
ARC
  5
463
330
1B
100
AcDbEntity
 67
     1
  8
02___PRT_ALL_AXES
  6
Continuous
 62
     7
100
AcDbCircle
 10
2205.6366991992
 20
530.5479141332
 30
0.0
 40
9.75
100
AcDbArc
 50
2.0
 51
88.0
  0
LINE
  5
464
330
1B
100
AcDbEntity
 67
     1
  8
7_ALL_FEATURES
  6
Continuous
 62
     7
100
AcDbLine
 10
2193.8518797434
 20
552.8881842261
 30
0.0
 11
2194.7866991992
 21
552.8881842261
 31
0.0
  0
LINE
  5
465
330
1B
100
AcDbEntity
 67
     1
  8
7_ALL_FEATURES
  6
Continuous
 62
     7
100
AcDbLine
 10
2192.7866991992
 20
552.8881842261
 30
0.0
 11
2193.7866991992
 21
552.8881842261
 31
0.0
  0
LINE
  5
466
330
1B
100
AcDbEntity
 67
     1
  8
7_ALL_FEATURES
  6
Continuous
 62
     7
100
AcDbLine
 10
2193.7866991992
 20
552.8881842261
 30
0.0
 11
2193.8518797434
 21
552.8881842261
 31
0.0
  0
LINE
  5
467
330
1B
100
AcDbEntity
 67
     1
  8
7_ALL_FEATURES
  6
Continuous
 62
     7
100
AcDbLine
 10
2192.7866991992
 20
543.8881842261
 30
0.0
 11
2192.7866991992
 21
552.8881842261
 31
0.0
  0
LINE
  5
468
330
1B
100
AcDbEntity
 67
     1
  8
7_ALL_FEATURES
  6
Continuous
 62
     7
100
AcDbLine
 10
2192.7866991992
 20
543.8881842261
 30
0.0
 11
2193.7866991992
 21
543.8881842261
 31
0.0
  0
LINE
  5
469
330
1B
100
AcDbEntity
 67
     1
  8
7_ALL_FEATURES
  6
Continuous
 62
     7
100
AcDbLine
 10
2193.7866991992
 20
543.8881842261
 30
0.0
 11
2193.8518797434
 21
543.8881842261
 31
0.0
  0
LINE
  5
46A
330
1B
100
AcDbEntity
 67
     1
  8
7_ALL_FEATURES
  6
Continuous
 62
     7
100
AcDbLine
 10
2193.8518797434
 20
543.8881842261
 30
0.0
 11
2194.7866991992
 21
543.8881842261
 31
0.0
  0
LINE
  5
46B
330
1B
100
AcDbEntity
 67
     1
  8
7_ALL_FEATURES
  6
Continuous
 62
     7
100
AcDbLine
 10
2217.421518655
 20
543.8881842261
 30
0.0
 11
2216.4866991992
 21
543.8881842261
 31
0.0
  0
LINE
  5
46C
330
1B
100
AcDbEntity
 67
     1
  8
7_ALL_FEATURES
  6
Continuous
 62
     7
100
AcDbLine
 10
2218.4866991992
 20
543.8881842261
 30
0.0
 11
2217.4866991992
 21
543.8881842261
 31
0.0
  0
LINE
  5
46D
330
1B
100
AcDbEntity
 67
     1
  8
7_ALL_FEATURES
  6
Continuous
 62
     7
100
AcDbLine
 10
2217.4866991992
 20
543.8881842261
 30
0.0
 11
2217.421518655
 21
543.8881842261
 31
0.0
  0
LINE
  5
46E
330
1B
100
AcDbEntity
 67
     1
  8
7_ALL_FEATURES
  6
Continuous
 62
     7
100
AcDbLine
 10
2218.4866991992
 20
552.8881842261
 30
0.0
 11
2218.4866991992
 21
543.8881842261
 31
0.0
  0
LINE
  5
46F
330
1B
100
AcDbEntity
 67
     1
  8
7_ALL_FEATURES
  6
Continuous
 62
     7
100
AcDbLine
 10
2218.4866991992
 20
552.8881842261
 30
0.0
 11
2217.4866991992
 21
552.8881842261
 31
0.0
  0
LINE
  5
470
330
1B
100
AcDbEntity
 67
     1
  8
7_ALL_FEATURES
  6
Continuous
 62
     7
100
AcDbLine
 10
2217.4866991992
 20
552.8881842261
 30
0.0
 11
2217.421518655
 21
552.8881842261
 31
0.0
  0
LINE
  5
471
330
1B
100
AcDbEntity
 67
     1
  8
7_ALL_FEATURES
  6
Continuous
 62
     7
100
AcDbLine
 10
2217.421518655
 20
552.8881842261
 30
0.0
 11
2216.4866991992
 21
552.8881842261
 31
0.0
  0
LINE
  5
472
330
1B
100
AcDbEntity
 67
     1
  8
7_ALL_FEATURES
  6
Continuous
 62
     7
100
AcDbLine
 10
2193.8518797434
 20
517.8881842261
 30
0.0
 11
2194.7866991992
 21
517.8881842261
 31
0.0
  0
LINE
  5
473
330
1B
100
AcDbEntity
 67
     1
  8
7_ALL_FEATURES
  6
Continuous
 62
     7
100
AcDbLine
 10
2192.7866991992
 20
517.8881842261
 30
0.0
 11
2193.7866991992
 21
517.8881842261
 31
0.0
  0
LINE
  5
474
330
1B
100
AcDbEntity
 67
     1
  8
7_ALL_FEATURES
  6
Continuous
 62
     7
100
AcDbLine
 10
2193.7866991992
 20
517.8881842261
 30
0.0
 11
2193.8518797434
 21
517.8881842261
 31
0.0
  0
LINE
  5
475
330
1B
100
AcDbEntity
 67
     1
  8
7_ALL_FEATURES
  6
Continuous
 62
     7
100
AcDbLine
 10
2192.7866991992
 20
508.8881842261
 30
0.0
 11
2192.7866991992
 21
517.8881842261
 31
0.0
  0
LINE
  5
476
330
1B
100
AcDbEntity
 67
     1
  8
7_ALL_FEATURES
  6
Continuous
 62
     7
100
AcDbLine
 10
2192.7866991992
 20
508.8881842261
 30
0.0
 11
2193.7866991992
 21
508.8881842261
 31
0.0
  0
LINE
  5
477
330
1B
100
AcDbEntity
 67
     1
  8
7_ALL_FEATURES
  6
Continuous
 62
     7
100
AcDbLine
 10
2193.7866991992
 20
508.8881842261
 30
0.0
 11
2193.8518797434
 21
508.8881842261
 31
0.0
  0
LINE
  5
478
330
1B
100
AcDbEntity
 67
     1
  8
7_ALL_FEATURES
  6
Continuous
 62
     7
100
AcDbLine
 10
2193.8518797434
 20
508.8881842261
 30
0.0
 11
2194.7866991992
 21
508.8881842261
 31
0.0
  0
LINE
  5
479
330
1B
100
AcDbEntity
 67
     1
  8
7_ALL_FEATURES
  6
Continuous
 62
     7
100
AcDbLine
 10
2217.421518655
 20
508.8881842261
 30
0.0
 11
2216.4866991992
 21
508.8881842261
 31
0.0
  0
LINE
  5
47A
330
1B
100
AcDbEntity
 67
     1
  8
7_ALL_FEATURES
  6
Continuous
 62
     7
100
AcDbLine
 10
2218.4866991992
 20
508.8881842261
 30
0.0
 11
2217.4866991992
 21
508.8881842261
 31
0.0
  0
LINE
  5
47B
330
1B
100
AcDbEntity
 67
     1
  8
7_ALL_FEATURES
  6
Continuous
 62
     7
100
AcDbLine
 10
2217.4866991992
 20
508.8881842261
 30
0.0
 11
2217.421518655
 21
508.8881842261
 31
0.0
  0
LINE
  5
47C
330
1B
100
AcDbEntity
 67
     1
  8
7_ALL_FEATURES
  6
Continuous
 62
     7
100
AcDbLine
 10
2218.4866991992
 20
517.8881842261
 30
0.0
 11
2218.4866991992
 21
508.8881842261
 31
0.0
  0
LINE
  5
47D
330
1B
100
AcDbEntity
 67
     1
  8
7_ALL_FEATURES
  6
Continuous
 62
     7
100
AcDbLine
 10
2218.4866991992
 20
517.8881842261
 30
0.0
 11
2217.4866991992
 21
517.8881842261
 31
0.0
  0
LINE
  5
47E
330
1B
100
AcDbEntity
 67
     1
  8
7_ALL_FEATURES
  6
Continuous
 62
     7
100
AcDbLine
 10
2217.4866991992
 20
517.8881842261
 30
0.0
 11
2217.421518655
 21
517.8881842261
 31
0.0
  0
LINE
  5
47F
330
1B
100
AcDbEntity
 67
     1
  8
7_ALL_FEATURES
  6
Continuous
 62
     7
100
AcDbLine
 10
2217.421518655
 20
517.8881842261
 30
0.0
 11
2216.4866991992
 21
517.8881842261
 31
0.0
  0
LINE
  5
480
330
1B
100
AcDbEntity
 67
     1
  8
7_ALL_FEATURES
  6
Continuous
 62
     9
100
AcDbLine
 10
2216.4866991992
 20
552.8881842261
 30
0.0
 11
2216.4866991992
 21
543.8881842261
 31
0.0
  0
LINE
  5
481
330
1B
100
AcDbEntity
 67
     1
  8
7_ALL_FEATURES
  6
Continuous
 62
     9
100
AcDbLine
 10
2194.7866991992
 20
508.8881842261
 30
0.0
 11
2194.7866991992
 21
517.8881842261
 31
0.0
  0
LINE
  5
482
330
1B
100
AcDbEntity
 67
     1
  8
7_ALL_FEATURES
  6
Continuous
 62
     9
100
AcDbLine
 10
2216.4866991992
 20
517.8881842261
 30
0.0
 11
2216.4866991992
 21
508.8881842261
 31
0.0
  0
LINE
  5
483
330
1B
100
AcDbEntity
 67
     1
  8
7_ALL_FEATURES
  6
Continuous
 62
     9
100
AcDbLine
 10
2194.7866991992
 20
543.8881842261
 30
0.0
 11
2194.7866991992
 21
552.8881842261
 31
0.0
  0
LINE
  5
484
330
1B
100
AcDbEntity
 67
     1
  8
7_ALL_FEATURES
  6
Continuous
 62
     3
100
AcDbLine
 10
2179.6366991992
 20
503.1881842261
 30
0.0
 11
2176.3866991992
 21
503.1881842261
 31
0.0
  0
LINE
  5
485
330
1B
100
AcDbEntity
 67
     1
  8
7_ALL_FEATURES
  6
Continuous
 62
     3
100
AcDbLine
 10
2176.3866991992
 20
503.1881842261
 30
0.0
 11
2169.6366991992
 21
503.1881842261
 31
0.0
  0
LINE
  5
486
330
1B
100
AcDbEntity
 67
     1
  8
7_ALL_FEATURES
  6
Continuous
 62
     3
100
AcDbLine
 10
2231.6366991992
 20
503.1881842261
 30
0.0
 11
2179.6366991992
 21
503.1881842261
 31
0.0
  0
LINE
  5
487
330
1B
100
AcDbEntity
 67
     1
  8
7_ALL_FEATURES
  6
Continuous
 62
     3
100
AcDbLine
 10
2241.6366991992
 20
503.1881842261
 30
0.0
 11
2234.8866991992
 21
503.1881842261
 31
0.0
  0
LINE
  5
488
330
1B
100
AcDbEntity
 67
     1
  8
7_ALL_FEATURES
  6
Continuous
 62
     3
100
AcDbLine
 10
2234.8866991992
 20
503.1881842261
 30
0.0
 11
2231.6366991992
 21
503.1881842261
 31
0.0
  0
LINE
  5
489
330
1B
100
AcDbEntity
 67
     1
  8
7_ALL_FEATURES
  6
Continuous
 62
     3
100
AcDbLine
 10
2217.1866991992
 20
593.3881842261
 30
0.0
 11
2217.1866991992
 21
592.8881842261
 31
0.0
  0
LINE
  5
48A
330
1B
100
AcDbEntity
 67
     1
  8
7_ALL_FEATURES
  6
Continuous
 62
     3
100
AcDbLine
 10
2217.1866991992
 20
554.0881842261
 30
0.0
 11
2217.1866991992
 21
553.3881842261
 31
0.0
  0
LINE
  5
48B
330
1B
100
AcDbEntity
 67
     1
  8
7_ALL_FEATURES
  6
Continuous
 62
     3
100
AcDbLine
 10
2217.1866991992
 20
507.8881842261
 30
0.0
 11
2217.1866991992
 21
507.6881842261
 31
0.0
  0
LINE
  5
48C
330
1B
100
AcDbEntity
 67
     1
  8
7_ALL_FEATURES
  6
Continuous
 62
     3
100
AcDbLine
 10
2217.1866991992
 20
507.8881842261
 30
0.0
 11
2217.1866991992
 21
508.8881842261
 31
0.0
  0
LINE
  5
48D
330
1B
100
AcDbEntity
 67
     1
  8
7_ALL_FEATURES
  6
Continuous
 62
     3
100
AcDbLine
 10
2217.1866991992
 20
517.8881842261
 30
0.0
 11
2217.1866991992
 21
518.8881842261
 31
0.0
  0
LINE
  5
48E
330
1B
100
AcDbEntity
 67
     1
  8
7_ALL_FEATURES
  6
Continuous
 62
     3
100
AcDbLine
 10
2217.1866991992
 20
543.3881842261
 30
0.0
 11
2217.1866991992
 21
542.6881842261
 31
0.0
  0
LINE
  5
48F
330
1B
100
AcDbEntity
 67
     1
  8
7_ALL_FEATURES
  6
Continuous
 62
     3
100
AcDbLine
 10
2217.1866991992
 20
519.0881842261
 30
0.0
 11
2217.1866991992
 21
518.8881842261
 31
0.0
  0
LINE
  5
490
330
1B
100
AcDbEntity
 67
     1
  8
7_ALL_FEATURES
  6
Continuous
 62
     3
100
AcDbLine
 10
2217.1866991992
 20
543.3881842261
 30
0.0
 11
2217.1866991992
 21
543.8881842261
 31
0.0
  0
LINE
  5
491
330
1B
100
AcDbEntity
 67
     1
  8
7_ALL_FEATURES
  6
Continuous
 62
     3
100
AcDbLine
 10
2217.1866991992
 20
552.8881842261
 30
0.0
 11
2217.1866991992
 21
553.3881842261
 31
0.0
  0
LINE
  5
492
330
1B
100
AcDbEntity
 67
     1
  8
7_ALL_FEATURES
  6
Continuous
 62
     3
100
AcDbLine
 10
2207.8727671767
 20
504.3881842261
 30
0.0
 11
2203.4006312217
 21
504.3881842261
 31
0.0
  0
LINE
  5
493
330
1B
100
AcDbEntity
 67
     1
  8
7_ALL_FEATURES
  6
Continuous
 62
     3
100
AcDbLine
 10
2194.0866991992
 20
518.8881842261
 30
0.0
 11
2194.0866991992
 21
519.0881842261
 31
0.0
  0
LINE
  5
494
330
1B
100
AcDbEntity
 67
     1
  8
7_ALL_FEATURES
  6
Continuous
 62
     3
100
AcDbLine
 10
2194.0866991992
 20
542.8881842261
 30
0.0
 11
2194.0866991992
 21
543.3881842261
 31
0.0
  0
LINE
  5
495
330
1B
100
AcDbEntity
 67
     1
  8
7_ALL_FEATURES
  6
Continuous
 62
     3
100
AcDbLine
 10
2194.0866991992
 20
507.8881842261
 30
0.0
 11
2194.0866991992
 21
508.8881842261
 31
0.0
  0
LINE
  5
496
330
1B
100
AcDbEntity
 67
     1
  8
7_ALL_FEATURES
  6
Continuous
 62
     3
100
AcDbLine
 10
2194.0866991992
 20
517.8881842261
 30
0.0
 11
2194.0866991992
 21
518.8881842261
 31
0.0
  0
LINE
  5
497
330
1B
100
AcDbEntity
 67
     1
  8
7_ALL_FEATURES
  6
Continuous
 62
     3
100
AcDbLine
 10
2194.0866991992
 20
507.6881842261
 30
0.0
 11
2194.0866991992
 21
507.8881842261
 31
0.0
  0
LINE
  5
498
330
1B
100
AcDbEntity
 67
     1
  8
7_ALL_FEATURES
  6
Continuous
 62
     3
100
AcDbLine
 10
2194.0866991992
 20
553.3881842261
 30
0.0
 11
2194.0866991992
 21
553.8881842261
 31
0.0
  0
LINE
  5
499
330
1B
100
AcDbEntity
 67
     1
  8
7_ALL_FEATURES
  6
Continuous
 62
     3
100
AcDbLine
 10
2194.0866991992
 20
592.8881842261
 30
0.0
 11
2194.0866991992
 21
593.3881842261
 31
0.0
  0
LINE
  5
49A
330
1B
100
AcDbEntity
 67
     1
  8
7_ALL_FEATURES
  6
Continuous
 62
     3
100
AcDbLine
 10
2194.0866991992
 20
543.3881842261
 30
0.0
 11
2194.0866991992
 21
543.8881842261
 31
0.0
  0
LINE
  5
49B
330
1B
100
AcDbEntity
 67
     1
  8
7_ALL_FEATURES
  6
Continuous
 62
     3
100
AcDbLine
 10
2194.0866991992
 20
552.8881842261
 30
0.0
 11
2194.0866991992
 21
553.3881842261
 31
0.0
  0
LINE
  5
49C
330
1B
100
AcDbEntity
 67
     1
  8
3_ALL_AXES
  6
Continuous
 62
     7
100
AcDbLine
 10
1265.353626643
 20
287.7802477478
 30
0.0
 11
1265.353626643
 21
287.0743775772
 31
0.0
  0
LINE
  5
49D
330
1B
100
AcDbEntity
 67
     1
  8
3_ALL_AXES
  6
Continuous
 62
     7
100
AcDbLine
 10
1271.153626643
 20
287.7802477478
 30
0.0
 11
1271.153626643
 21
287.0743775772
 31
0.0
  0
ARC
  5
49E
330
1B
100
AcDbEntity
 67
     1
  8
3_ALL_AXES
  6
Continuous
 62
     7
100
AcDbCircle
 10
1268.253626643
 20
294.5302477478
 30
0.0
 40
8.0
100
AcDbArc
 50
270.0
 51
291.2538091854
  0
ARC
  5
49F
330
1B
100
AcDbEntity
 67
     1
  8
3_ALL_AXES
  6
Continuous
 62
     7
100
AcDbCircle
 10
1268.253626643
 20
294.5302477478
 30
0.0
 40
8.0
100
AcDbArc
 50
248.7461908146
 51
270.0
  0
LINE
  5
4A0
330
1B
100
AcDbEntity
 67
     1
  8
3_ALL_AXES
  6
Continuous
 62
     7
100
AcDbLine
 10
1265.353626643
 20
287.0743775772
 30
0.0
 11
1271.153626643
 21
287.0743775772
 31
0.0
  0
LINE
  5
4A1
330
1B
100
AcDbEntity
 67
     1
  8
3_ALL_AXES
  6
Continuous
 62
     7
100
AcDbLine
 10
1180.353626643
 20
287.7802477478
 30
0.0
 11
1180.353626643
 21
287.0743775772
 31
0.0
  0
LINE
  5
4A2
330
1B
100
AcDbEntity
 67
     1
  8
3_ALL_AXES
  6
Continuous
 62
     7
100
AcDbLine
 10
1186.153626643
 20
287.7802477478
 30
0.0
 11
1186.153626643
 21
287.0743775772
 31
0.0
  0
ARC
  5
4A3
330
1B
100
AcDbEntity
 67
     1
  8
3_ALL_AXES
  6
Continuous
 62
     7
100
AcDbCircle
 10
1183.253626643
 20
294.5302477478
 30
0.0
 40
8.0
100
AcDbArc
 50
270.0
 51
291.2538091854
  0
ARC
  5
4A4
330
1B
100
AcDbEntity
 67
     1
  8
3_ALL_AXES
  6
Continuous
 62
     7
100
AcDbCircle
 10
1183.253626643
 20
294.5302477478
 30
0.0
 40
8.0
100
AcDbArc
 50
248.7461908146
 51
270.0
  0
LINE
  5
4A5
330
1B
100
AcDbEntity
 67
     1
  8
3_ALL_AXES
  6
Continuous
 62
     7
100
AcDbLine
 10
1180.353626643
 20
287.0743775772
 30
0.0
 11
1186.153626643
 21
287.0743775772
 31
0.0
  0
LINE
  5
4A6
330
1B
100
AcDbEntity
 67
     1
  8
3_ALL_AXES
  6
Continuous
 62
     7
100
AcDbLine
 10
898.853626643
 20
287.7802477478
 30
0.0
 11
898.853626643
 21
287.0743775772
 31
0.0
  0
LINE
  5
4A7
330
1B
100
AcDbEntity
 67
     1
  8
3_ALL_AXES
  6
Continuous
 62
     7
100
AcDbLine
 10
904.653626643
 20
287.7802477478
 30
0.0
 11
904.653626643
 21
287.0743775772
 31
0.0
  0
ARC
  5
4A8
330
1B
100
AcDbEntity
 67
     1
  8
3_ALL_AXES
  6
Continuous
 62
     7
100
AcDbCircle
 10
901.753626643
 20
294.5302477478
 30
0.0
 40
8.0
100
AcDbArc
 50
270.0
 51
291.2538091854
  0
ARC
  5
4A9
330
1B
100
AcDbEntity
 67
     1
  8
3_ALL_AXES
  6
Continuous
 62
     7
100
AcDbCircle
 10
901.753626643
 20
294.5302477478
 30
0.0
 40
8.0
100
AcDbArc
 50
248.7461908146
 51
270.0
  0
LINE
  5
4AA
330
1B
100
AcDbEntity
 67
     1
  8
3_ALL_AXES
  6
Continuous
 62
     7
100
AcDbLine
 10
898.853626643
 20
287.0743775772
 30
0.0
 11
904.653626643
 21
287.0743775772
 31
0.0
  0
LINE
  5
4AB
330
1B
100
AcDbEntity
 67
     1
  8
3_ALL_AXES
  6
Continuous
 62
     7
100
AcDbLine
 10
816.853626643
 20
287.7802477478
 30
0.0
 11
816.853626643
 21
287.0743775772
 31
0.0
  0
LINE
  5
4AC
330
1B
100
AcDbEntity
 67
     1
  8
3_ALL_AXES
  6
Continuous
 62
     7
100
AcDbLine
 10
822.653626643
 20
287.7802477478
 30
0.0
 11
822.653626643
 21
287.0743775772
 31
0.0
  0
ARC
  5
4AD
330
1B
100
AcDbEntity
 67
     1
  8
3_ALL_AXES
  6
Continuous
 62
     7
100
AcDbCircle
 10
819.753626643
 20
294.5302477478
 30
0.0
 40
8.0
100
AcDbArc
 50
270.0
 51
291.2538091854
  0
ARC
  5
4AE
330
1B
100
AcDbEntity
 67
     1
  8
3_ALL_AXES
  6
Continuous
 62
     7
100
AcDbCircle
 10
819.753626643
 20
294.5302477478
 30
0.0
 40
8.0
100
AcDbArc
 50
248.7461908146
 51
270.0
  0
LINE
  5
4AF
330
1B
100
AcDbEntity
 67
     1
  8
3_ALL_AXES
  6
Continuous
 62
     7
100
AcDbLine
 10
816.853626643
 20
287.0743775772
 30
0.0
 11
822.653626643
 21
287.0743775772
 31
0.0
  0
LINE
  5
4B0
330
1B
100
AcDbEntity
 67
     1
  8
3_ALL_AXES
  6
Continuous
 62
     7
100
AcDbLine
 10
574.853626643
 20
287.7802477478
 30
0.0
 11
574.853626643
 21
287.0743775772
 31
0.0
  0
LINE
  5
4B1
330
1B
100
AcDbEntity
 67
     1
  8
3_ALL_AXES
  6
Continuous
 62
     7
100
AcDbLine
 10
580.653626643
 20
287.7802477478
 30
0.0
 11
580.653626643
 21
287.0743775772
 31
0.0
  0
ARC
  5
4B2
330
1B
100
AcDbEntity
 67
     1
  8
3_ALL_AXES
  6
Continuous
 62
     7
100
AcDbCircle
 10
577.753626643
 20
294.5302477478
 30
0.0
 40
8.0
100
AcDbArc
 50
270.0
 51
291.2538091854
  0
ARC
  5
4B3
330
1B
100
AcDbEntity
 67
     1
  8
3_ALL_AXES
  6
Continuous
 62
     7
100
AcDbCircle
 10
577.753626643
 20
294.5302477478
 30
0.0
 40
8.0
100
AcDbArc
 50
248.7461908146
 51
270.0
  0
LINE
  5
4B4
330
1B
100
AcDbEntity
 67
     1
  8
3_ALL_AXES
  6
Continuous
 62
     7
100
AcDbLine
 10
574.853626643
 20
287.0743775772
 30
0.0
 11
580.653626643
 21
287.0743775772
 31
0.0
  0
LINE
  5
4B5
330
1B
100
AcDbEntity
 67
     1
  8
3_ALL_AXES
  6
Continuous
 62
     7
100
AcDbLine
 10
580.653626643
 20
310.8802477478
 30
0.0
 11
580.653626643
 21
311.5861179183
 31
0.0
  0
LINE
  5
4B6
330
1B
100
AcDbEntity
 67
     1
  8
3_ALL_AXES
  6
Continuous
 62
     7
100
AcDbLine
 10
574.853626643
 20
310.8802477478
 30
0.0
 11
574.853626643
 21
311.5861179183
 31
0.0
  0
ARC
  5
4B7
330
1B
100
AcDbEntity
 67
     1
  8
3_ALL_AXES
  6
Continuous
 62
     7
100
AcDbCircle
 10
577.753626643
 20
304.1302477478
 30
0.0
 40
8.0
100
AcDbArc
 50
90.0
 51
111.2538091854
  0
ARC
  5
4B8
330
1B
100
AcDbEntity
 67
     1
  8
3_ALL_AXES
  6
Continuous
 62
     7
100
AcDbCircle
 10
577.753626643
 20
304.1302477478
 30
0.0
 40
8.0
100
AcDbArc
 50
68.7461908146
 51
90.0
  0
LINE
  5
4B9
330
1B
100
AcDbEntity
 67
     1
  8
3_ALL_AXES
  6
Continuous
 62
     7
100
AcDbLine
 10
580.653626643
 20
311.5861179183
 30
0.0
 11
574.853626643
 21
311.5861179183
 31
0.0
  0
LINE
  5
4BA
330
1B
100
AcDbEntity
 67
     1
  8
3_ALL_AXES
  6
Continuous
 62
     7
100
AcDbLine
 10
822.653626643
 20
310.8802477478
 30
0.0
 11
822.653626643
 21
311.5861179183
 31
0.0
  0
LINE
  5
4BB
330
1B
100
AcDbEntity
 67
     1
  8
3_ALL_AXES
  6
Continuous
 62
     7
100
AcDbLine
 10
816.853626643
 20
310.8802477478
 30
0.0
 11
816.853626643
 21
311.5861179183
 31
0.0
  0
ARC
  5
4BC
330
1B
100
AcDbEntity
 67
     1
  8
3_ALL_AXES
  6
Continuous
 62
     7
100
AcDbCircle
 10
819.753626643
 20
304.1302477478
 30
0.0
 40
8.0
100
AcDbArc
 50
90.0
 51
111.2538091854
  0
ARC
  5
4BD
330
1B
100
AcDbEntity
 67
     1
  8
3_ALL_AXES
  6
Continuous
 62
     7
100
AcDbCircle
 10
819.753626643
 20
304.1302477478
 30
0.0
 40
8.0
100
AcDbArc
 50
68.7461908146
 51
90.0
  0
LINE
  5
4BE
330
1B
100
AcDbEntity
 67
     1
  8
3_ALL_AXES
  6
Continuous
 62
     7
100
AcDbLine
 10
822.653626643
 20
311.5861179183
 30
0.0
 11
816.853626643
 21
311.5861179183
 31
0.0
  0
LINE
  5
4BF
330
1B
100
AcDbEntity
 67
     1
  8
3_ALL_AXES
  6
Continuous
 62
     7
100
AcDbLine
 10
1876.653626643
 20
310.8802477478
 30
0.0
 11
1876.653626643
 21
311.5861179183
 31
0.0
  0
LINE
  5
4C0
330
1B
100
AcDbEntity
 67
     1
  8
3_ALL_AXES
  6
Continuous
 62
     7
100
AcDbLine
 10
1870.853626643
 20
310.8802477478
 30
0.0
 11
1870.853626643
 21
311.5861179183
 31
0.0
  0
ARC
  5
4C1
330
1B
100
AcDbEntity
 67
     1
  8
3_ALL_AXES
  6
Continuous
 62
     7
100
AcDbCircle
 10
1873.753626643
 20
304.1302477478
 30
0.0
 40
8.0
100
AcDbArc
 50
90.0
 51
111.2538091854
  0
ARC
  5
4C2
330
1B
100
AcDbEntity
 67
     1
  8
3_ALL_AXES
  6
Continuous
 62
     7
100
AcDbCircle
 10
1873.753626643
 20
304.1302477478
 30
0.0
 40
8.0
100
AcDbArc
 50
68.7461908146
 51
90.0
  0
LINE
  5
4C3
330
1B
100
AcDbEntity
 67
     1
  8
3_ALL_AXES
  6
Continuous
 62
     7
100
AcDbLine
 10
1876.653626643
 20
311.5861179183
 30
0.0
 11
1870.853626643
 21
311.5861179183
 31
0.0
  0
LINE
  5
4C4
330
1B
100
AcDbEntity
 67
     1
  8
3_ALL_AXES
  6
Continuous
 62
     7
100
AcDbLine
 10
1634.653626643
 20
310.8802477478
 30
0.0
 11
1634.653626643
 21
311.5861179183
 31
0.0
  0
LINE
  5
4C5
330
1B
100
AcDbEntity
 67
     1
  8
3_ALL_AXES
  6
Continuous
 62
     7
100
AcDbLine
 10
1628.853626643
 20
310.8802477478
 30
0.0
 11
1628.853626643
 21
311.5861179183
 31
0.0
  0
ARC
  5
4C6
330
1B
100
AcDbEntity
 67
     1
  8
3_ALL_AXES
  6
Continuous
 62
     7
100
AcDbCircle
 10
1631.753626643
 20
304.1302477478
 30
0.0
 40
8.0
100
AcDbArc
 50
90.0
 51
111.2538091854
  0
ARC
  5
4C7
330
1B
100
AcDbEntity
 67
     1
  8
3_ALL_AXES
  6
Continuous
 62
     7
100
AcDbCircle
 10
1631.753626643
 20
304.1302477478
 30
0.0
 40
8.0
100
AcDbArc
 50
68.7461908146
 51
90.0
  0
LINE
  5
4C8
330
1B
100
AcDbEntity
 67
     1
  8
3_ALL_AXES
  6
Continuous
 62
     7
100
AcDbLine
 10
1634.653626643
 20
311.5861179183
 30
0.0
 11
1628.853626643
 21
311.5861179183
 31
0.0
  0
LINE
  5
4C9
330
1B
100
AcDbEntity
 67
     1
  8
3_ALL_AXES
  6
Continuous
 62
     7
100
AcDbLine
 10
1552.653626643
 20
310.8802477478
 30
0.0
 11
1552.653626643
 21
311.5861179183
 31
0.0
  0
LINE
  5
4CA
330
1B
100
AcDbEntity
 67
     1
  8
3_ALL_AXES
  6
Continuous
 62
     7
100
AcDbLine
 10
1546.853626643
 20
310.8802477478
 30
0.0
 11
1546.853626643
 21
311.5861179183
 31
0.0
  0
ARC
  5
4CB
330
1B
100
AcDbEntity
 67
     1
  8
3_ALL_AXES
  6
Continuous
 62
     7
100
AcDbCircle
 10
1549.753626643
 20
304.1302477478
 30
0.0
 40
8.0
100
AcDbArc
 50
90.0
 51
111.2538091854
  0
ARC
  5
4CC
330
1B
100
AcDbEntity
 67
     1
  8
3_ALL_AXES
  6
Continuous
 62
     7
100
AcDbCircle
 10
1549.753626643
 20
304.1302477478
 30
0.0
 40
8.0
100
AcDbArc
 50
68.7461908146
 51
90.0
  0
LINE
  5
4CD
330
1B
100
AcDbEntity
 67
     1
  8
3_ALL_AXES
  6
Continuous
 62
     7
100
AcDbLine
 10
1552.653626643
 20
311.5861179183
 30
0.0
 11
1546.853626643
 21
311.5861179183
 31
0.0
  0
LINE
  5
4CE
330
1B
100
AcDbEntity
 67
     1
  8
3_ALL_AXES
  6
Continuous
 62
     7
100
AcDbLine
 10
1271.153626643
 20
310.8802477478
 30
0.0
 11
1271.153626643
 21
311.5861179183
 31
0.0
  0
LINE
  5
4CF
330
1B
100
AcDbEntity
 67
     1
  8
3_ALL_AXES
  6
Continuous
 62
     7
100
AcDbLine
 10
1265.353626643
 20
310.8802477478
 30
0.0
 11
1265.353626643
 21
311.5861179183
 31
0.0
  0
ARC
  5
4D0
330
1B
100
AcDbEntity
 67
     1
  8
3_ALL_AXES
  6
Continuous
 62
     7
100
AcDbCircle
 10
1268.253626643
 20
304.1302477478
 30
0.0
 40
8.0
100
AcDbArc
 50
90.0
 51
111.2538091854
  0
ARC
  5
4D1
330
1B
100
AcDbEntity
 67
     1
  8
3_ALL_AXES
  6
Continuous
 62
     7
100
AcDbCircle
 10
1268.253626643
 20
304.1302477478
 30
0.0
 40
8.0
100
AcDbArc
 50
68.7461908146
 51
90.0
  0
LINE
  5
4D2
330
1B
100
AcDbEntity
 67
     1
  8
3_ALL_AXES
  6
Continuous
 62
     7
100
AcDbLine
 10
1271.153626643
 20
311.5861179183
 30
0.0
 11
1265.353626643
 21
311.5861179183
 31
0.0
  0
LINE
  5
4D3
330
1B
100
AcDbEntity
 67
     1
  8
3_ALL_AXES
  6
Continuous
 62
     7
100
AcDbLine
 10
1186.153626643
 20
310.8802477478
 30
0.0
 11
1186.153626643
 21
311.5861179183
 31
0.0
  0
LINE
  5
4D4
330
1B
100
AcDbEntity
 67
     1
  8
3_ALL_AXES
  6
Continuous
 62
     7
100
AcDbLine
 10
1180.353626643
 20
310.8802477478
 30
0.0
 11
1180.353626643
 21
311.5861179183
 31
0.0
  0
ARC
  5
4D5
330
1B
100
AcDbEntity
 67
     1
  8
3_ALL_AXES
  6
Continuous
 62
     7
100
AcDbCircle
 10
1183.253626643
 20
304.1302477478
 30
0.0
 40
8.0
100
AcDbArc
 50
90.0
 51
111.2538091854
  0
ARC
  5
4D6
330
1B
100
AcDbEntity
 67
     1
  8
3_ALL_AXES
  6
Continuous
 62
     7
100
AcDbCircle
 10
1183.253626643
 20
304.1302477478
 30
0.0
 40
8.0
100
AcDbArc
 50
68.7461908146
 51
90.0
  0
LINE
  5
4D7
330
1B
100
AcDbEntity
 67
     1
  8
3_ALL_AXES
  6
Continuous
 62
     7
100
AcDbLine
 10
1186.153626643
 20
311.5861179183
 30
0.0
 11
1180.353626643
 21
311.5861179183
 31
0.0
  0
LINE
  5
4D8
330
1B
100
AcDbEntity
 67
     1
  8
3_ALL_AXES
  6
Continuous
 62
     7
100
AcDbLine
 10
904.653626643
 20
310.8802477478
 30
0.0
 11
904.653626643
 21
311.5861179183
 31
0.0
  0
LINE
  5
4D9
330
1B
100
AcDbEntity
 67
     1
  8
3_ALL_AXES
  6
Continuous
 62
     7
100
AcDbLine
 10
898.853626643
 20
310.8802477478
 30
0.0
 11
898.853626643
 21
311.5861179183
 31
0.0
  0
ARC
  5
4DA
330
1B
100
AcDbEntity
 67
     1
  8
3_ALL_AXES
  6
Continuous
 62
     7
100
AcDbCircle
 10
901.753626643
 20
304.1302477478
 30
0.0
 40
8.0
100
AcDbArc
 50
90.0
 51
111.2538091854
  0
ARC
  5
4DB
330
1B
100
AcDbEntity
 67
     1
  8
3_ALL_AXES
  6
Continuous
 62
     7
100
AcDbCircle
 10
901.753626643
 20
304.1302477478
 30
0.0
 40
8.0
100
AcDbArc
 50
68.7461908146
 51
90.0
  0
LINE
  5
4DC
330
1B
100
AcDbEntity
 67
     1
  8
3_ALL_AXES
  6
Continuous
 62
     7
100
AcDbLine
 10
904.653626643
 20
311.5861179183
 30
0.0
 11
898.853626643
 21
311.5861179183
 31
0.0
  0
LINE
  5
4DD
330
1B
100
AcDbEntity
 67
     1
  8
3_ALL_AXES
  6
Continuous
 62
     7
100
AcDbLine
 10
1958.653626643
 20
310.8802477478
 30
0.0
 11
1958.653626643
 21
311.5861179183
 31
0.0
  0
LINE
  5
4DE
330
1B
100
AcDbEntity
 67
     1
  8
3_ALL_AXES
  6
Continuous
 62
     7
100
AcDbLine
 10
1952.853626643
 20
310.8802477478
 30
0.0
 11
1952.853626643
 21
311.5861179183
 31
0.0
  0
ARC
  5
4DF
330
1B
100
AcDbEntity
 67
     1
  8
3_ALL_AXES
  6
Continuous
 62
     7
100
AcDbCircle
 10
1955.753626643
 20
304.1302477478
 30
0.0
 40
8.0
100
AcDbArc
 50
90.0
 51
111.2538091854
  0
ARC
  5
4E0
330
1B
100
AcDbEntity
 67
     1
  8
3_ALL_AXES
  6
Continuous
 62
     7
100
AcDbCircle
 10
1955.753626643
 20
304.1302477478
 30
0.0
 40
8.0
100
AcDbArc
 50
68.7461908146
 51
90.0
  0
LINE
  5
4E1
330
1B
100
AcDbEntity
 67
     1
  8
3_ALL_AXES
  6
Continuous
 62
     7
100
AcDbLine
 10
1958.653626643
 20
311.5861179183
 30
0.0
 11
1952.853626643
 21
311.5861179183
 31
0.0
  0
LINE
  5
4E2
330
1B
100
AcDbEntity
 67
     1
  8
3_ALL_AXES
  6
Continuous
 62
     7
100
AcDbLine
 10
498.653626643
 20
310.8802477478
 30
0.0
 11
498.653626643
 21
311.5861179183
 31
0.0
  0
LINE
  5
4E3
330
1B
100
AcDbEntity
 67
     1
  8
3_ALL_AXES
  6
Continuous
 62
     7
100
AcDbLine
 10
492.853626643
 20
310.8802477478
 30
0.0
 11
492.853626643
 21
311.5861179183
 31
0.0
  0
ARC
  5
4E4
330
1B
100
AcDbEntity
 67
     1
  8
3_ALL_AXES
  6
Continuous
 62
     7
100
AcDbCircle
 10
495.753626643
 20
304.1302477478
 30
0.0
 40
8.0
100
AcDbArc
 50
90.0
 51
111.2538091854
  0
ARC
  5
4E5
330
1B
100
AcDbEntity
 67
     1
  8
3_ALL_AXES
  6
Continuous
 62
     7
100
AcDbCircle
 10
495.753626643
 20
304.1302477478
 30
0.0
 40
8.0
100
AcDbArc
 50
68.7461908146
 51
90.0
  0
LINE
  5
4E6
330
1B
100
AcDbEntity
 67
     1
  8
3_ALL_AXES
  6
Continuous
 62
     7
100
AcDbLine
 10
498.653626643
 20
311.5861179183
 30
0.0
 11
492.853626643
 21
311.5861179183
 31
0.0
  0
LINE
  5
4E7
330
1B
100
AcDbEntity
 67
     1
  8
3_ALL_AXES
  6
Continuous
 62
     7
100
AcDbLine
 10
492.853626643
 20
287.7802477478
 30
0.0
 11
492.853626643
 21
287.0743775772
 31
0.0
  0
LINE
  5
4E8
330
1B
100
AcDbEntity
 67
     1
  8
3_ALL_AXES
  6
Continuous
 62
     7
100
AcDbLine
 10
498.653626643
 20
287.7802477478
 30
0.0
 11
498.653626643
 21
287.0743775772
 31
0.0
  0
ARC
  5
4E9
330
1B
100
AcDbEntity
 67
     1
  8
3_ALL_AXES
  6
Continuous
 62
     7
100
AcDbCircle
 10
495.753626643
 20
294.5302477478
 30
0.0
 40
8.0
100
AcDbArc
 50
270.0
 51
291.2538091854
  0
ARC
  5
4EA
330
1B
100
AcDbEntity
 67
     1
  8
3_ALL_AXES
  6
Continuous
 62
     7
100
AcDbCircle
 10
495.753626643
 20
294.5302477478
 30
0.0
 40
8.0
100
AcDbArc
 50
248.7461908146
 51
270.0
  0
LINE
  5
4EB
330
1B
100
AcDbEntity
 67
     1
  8
3_ALL_AXES
  6
Continuous
 62
     7
100
AcDbLine
 10
492.853626643
 20
287.0743775772
 30
0.0
 11
498.653626643
 21
287.0743775772
 31
0.0
  0
LINE
  5
4EC
330
1B
100
AcDbEntity
 67
     1
  8
3_ALL_AXES
  6
Continuous
 62
     7
100
AcDbLine
 10
1952.853626643
 20
287.7802477478
 30
0.0
 11
1952.853626643
 21
287.0743775772
 31
0.0
  0
LINE
  5
4ED
330
1B
100
AcDbEntity
 67
     1
  8
3_ALL_AXES
  6
Continuous
 62
     7
100
AcDbLine
 10
1958.653626643
 20
287.7802477478
 30
0.0
 11
1958.653626643
 21
287.0743775772
 31
0.0
  0
ARC
  5
4EE
330
1B
100
AcDbEntity
 67
     1
  8
3_ALL_AXES
  6
Continuous
 62
     7
100
AcDbCircle
 10
1955.753626643
 20
294.5302477478
 30
0.0
 40
8.0
100
AcDbArc
 50
270.0
 51
291.2538091854
  0
ARC
  5
4EF
330
1B
100
AcDbEntity
 67
     1
  8
3_ALL_AXES
  6
Continuous
 62
     7
100
AcDbCircle
 10
1955.753626643
 20
294.5302477478
 30
0.0
 40
8.0
100
AcDbArc
 50
248.7461908146
 51
270.0
  0
LINE
  5
4F0
330
1B
100
AcDbEntity
 67
     1
  8
3_ALL_AXES
  6
Continuous
 62
     7
100
AcDbLine
 10
1952.853626643
 20
287.0743775772
 30
0.0
 11
1958.653626643
 21
287.0743775772
 31
0.0
  0
LINE
  5
4F1
330
1B
100
AcDbEntity
 67
     1
  8
3_ALL_AXES
  6
Continuous
 62
     7
100
AcDbLine
 10
1870.853626643
 20
287.7802477478
 30
0.0
 11
1870.853626643
 21
287.0743775772
 31
0.0
  0
LINE
  5
4F2
330
1B
100
AcDbEntity
 67
     1
  8
3_ALL_AXES
  6
Continuous
 62
     7
100
AcDbLine
 10
1876.653626643
 20
287.7802477478
 30
0.0
 11
1876.653626643
 21
287.0743775772
 31
0.0
  0
ARC
  5
4F3
330
1B
100
AcDbEntity
 67
     1
  8
3_ALL_AXES
  6
Continuous
 62
     7
100
AcDbCircle
 10
1873.753626643
 20
294.5302477478
 30
0.0
 40
8.0
100
AcDbArc
 50
270.0
 51
291.2538091854
  0
ARC
  5
4F4
330
1B
100
AcDbEntity
 67
     1
  8
3_ALL_AXES
  6
Continuous
 62
     7
100
AcDbCircle
 10
1873.753626643
 20
294.5302477478
 30
0.0
 40
8.0
100
AcDbArc
 50
248.7461908146
 51
270.0
  0
LINE
  5
4F5
330
1B
100
AcDbEntity
 67
     1
  8
3_ALL_AXES
  6
Continuous
 62
     7
100
AcDbLine
 10
1870.853626643
 20
287.0743775772
 30
0.0
 11
1876.653626643
 21
287.0743775772
 31
0.0
  0
LINE
  5
4F6
330
1B
100
AcDbEntity
 67
     1
  8
3_ALL_AXES
  6
Continuous
 62
     7
100
AcDbLine
 10
1628.853626643
 20
287.7802477478
 30
0.0
 11
1628.853626643
 21
287.0743775772
 31
0.0
  0
LINE
  5
4F7
330
1B
100
AcDbEntity
 67
     1
  8
3_ALL_AXES
  6
Continuous
 62
     7
100
AcDbLine
 10
1634.653626643
 20
287.7802477478
 30
0.0
 11
1634.653626643
 21
287.0743775772
 31
0.0
  0
ARC
  5
4F8
330
1B
100
AcDbEntity
 67
     1
  8
3_ALL_AXES
  6
Continuous
 62
     7
100
AcDbCircle
 10
1631.753626643
 20
294.5302477478
 30
0.0
 40
8.0
100
AcDbArc
 50
270.0
 51
291.2538091854
  0
ARC
  5
4F9
330
1B
100
AcDbEntity
 67
     1
  8
3_ALL_AXES
  6
Continuous
 62
     7
100
AcDbCircle
 10
1631.753626643
 20
294.5302477478
 30
0.0
 40
8.0
100
AcDbArc
 50
248.7461908146
 51
270.0
  0
LINE
  5
4FA
330
1B
100
AcDbEntity
 67
     1
  8
3_ALL_AXES
  6
Continuous
 62
     7
100
AcDbLine
 10
1628.853626643
 20
287.0743775772
 30
0.0
 11
1634.653626643
 21
287.0743775772
 31
0.0
  0
LINE
  5
4FB
330
1B
100
AcDbEntity
 67
     1
  8
3_ALL_AXES
  6
Continuous
 62
     7
100
AcDbLine
 10
1546.853626643
 20
287.7802477478
 30
0.0
 11
1546.853626643
 21
287.0743775772
 31
0.0
  0
LINE
  5
4FC
330
1B
100
AcDbEntity
 67
     1
  8
3_ALL_AXES
  6
Continuous
 62
     7
100
AcDbLine
 10
1552.653626643
 20
287.7802477478
 30
0.0
 11
1552.653626643
 21
287.0743775772
 31
0.0
  0
ARC
  5
4FD
330
1B
100
AcDbEntity
 67
     1
  8
3_ALL_AXES
  6
Continuous
 62
     7
100
AcDbCircle
 10
1549.753626643
 20
294.5302477478
 30
0.0
 40
8.0
100
AcDbArc
 50
270.0
 51
291.2538091854
  0
ARC
  5
4FE
330
1B
100
AcDbEntity
 67
     1
  8
3_ALL_AXES
  6
Continuous
 62
     7
100
AcDbCircle
 10
1549.753626643
 20
294.5302477478
 30
0.0
 40
8.0
100
AcDbArc
 50
248.7461908146
 51
270.0
  0
LINE
  5
4FF
330
1B
100
AcDbEntity
 67
     1
  8
3_ALL_AXES
  6
Continuous
 62
     7
100
AcDbLine
 10
1546.853626643
 20
287.0743775772
 30
0.0
 11
1552.653626643
 21
287.0743775772
 31
0.0
  0
LINE
  5
500
330
1B
100
AcDbEntity
 67
     1
  8
3_ALL_AXES
  6
Continuous
 62
     7
100
AcDbLine
 10
474.038626643
 20
314.3802477477
 30
0.0
 11
474.56025097
 21
314.3802477477
 31
0.0
  0
LINE
  5
501
330
1B
100
AcDbEntity
 67
     1
  8
3_ALL_AXES
  6
Continuous
 62
     7
100
AcDbLine
 10
474.56025097
 20
314.3802477477
 30
0.0
 11
475.2819388065
 21
314.3802477477
 31
0.0
  0
LINE
  5
502
330
1B
100
AcDbEntity
 67
     1
  8
3_ALL_AXES
  6
Continuous
 62
     7
100
AcDbLine
 10
475.2819388065
 20
314.3802477477
 30
0.0
 11
476.7253144795
 21
314.3802477477
 31
0.0
  0
LINE
  5
503
330
1B
100
AcDbEntity
 67
     1
  8
3_ALL_AXES
  6
Continuous
 62
     7
100
AcDbLine
 10
476.7253144795
 20
314.3802477477
 30
0.0
 11
477.447002316
 21
314.3802477477
 31
0.0
  0
LINE
  5
504
330
1B
100
AcDbEntity
 67
     1
  8
3_ALL_AXES
  6
Continuous
 62
     7
100
AcDbLine
 10
477.447002316
 20
314.3802477477
 30
0.0
 11
477.968626643
 21
314.3802477477
 31
0.0
  0
ARC
  5
505
330
1B
100
AcDbEntity
 67
     1
  8
3_ALL_AXES
  6
Continuous
 62
     7
100
AcDbCircle
 10
475.8611838457
 20
310.7076076561
 30
0.0
 40
4.1
100
AcDbArc
 50
116.3930257743
 51
153.1366968699
  0
ARC
  5
506
330
1B
100
AcDbEntity
 67
     1
  8
3_ALL_AXES
  6
Continuous
 62
     7
100
AcDbCircle
 10
476.1460694403
 20
310.7076076561
 30
0.0
 40
4.1
100
AcDbArc
 50
26.8633031301
 51
63.6069742257
  0
LINE
  5
507
330
1B
100
AcDbEntity
 67
     1
  8
3_ALL_AXES
  6
Continuous
 62
     7
100
AcDbLine
 10
472.203626643
 20
312.5602477478
 30
0.0
 11
472.203626643
 21
312.1802477478
 31
0.0
  0
LINE
  5
508
330
1B
100
AcDbEntity
 67
     1
  8
3_ALL_AXES
  6
Continuous
 62
     7
100
AcDbLine
 10
479.803626643
 20
312.5602477478
 30
0.0
 11
479.803626643
 21
312.1802477478
 31
0.0
  0
LINE
  5
509
330
1B
100
AcDbEntity
 67
     1
  8
7_ALL_FEATURES
  6
Continuous
 62
     7
100
AcDbLine
 10
478.003626643
 20
311.1802477477
 30
0.0
 11
478.003626643
 21
310.8802477478
 31
0.0
  0
LINE
  5
50A
330
1B
100
AcDbEntity
 67
     1
  8
7_ALL_FEATURES
  6
Continuous
 62
     7
100
AcDbLine
 10
474.003626643
 20
311.1802477477
 30
0.0
 11
474.003626643
 21
310.8802477478
 31
0.0
  0
LINE
  5
50B
330
1B
100
AcDbEntity
 67
     1
  8
3_ALL_AXES
  6
Continuous
 62
     7
100
AcDbLine
 10
472.203626643
 20
312.5602477478
 30
0.0
 11
479.803626643
 21
312.5602477478
 31
0.0
  0
LINE
  5
50C
330
1B
100
AcDbEntity
 67
     1
  8
3_ALL_AXES
  6
Continuous
 62
     7
100
AcDbLine
 10
477.968626643
 20
284.2802477478
 30
0.0
 11
477.447002316
 21
284.2802477478
 31
0.0
  0
LINE
  5
50D
330
1B
100
AcDbEntity
 67
     1
  8
3_ALL_AXES
  6
Continuous
 62
     7
100
AcDbLine
 10
477.447002316
 20
284.2802477478
 30
0.0
 11
476.7253144795
 21
284.2802477478
 31
0.0
  0
LINE
  5
50E
330
1B
100
AcDbEntity
 67
     1
  8
3_ALL_AXES
  6
Continuous
 62
     7
100
AcDbLine
 10
476.7253144795
 20
284.2802477478
 30
0.0
 11
475.2819388065
 21
284.2802477478
 31
0.0
  0
LINE
  5
50F
330
1B
100
AcDbEntity
 67
     1
  8
3_ALL_AXES
  6
Continuous
 62
     7
100
AcDbLine
 10
475.2819388065
 20
284.2802477478
 30
0.0
 11
474.56025097
 21
284.2802477478
 31
0.0
  0
LINE
  5
510
330
1B
100
AcDbEntity
 67
     1
  8
3_ALL_AXES
  6
Continuous
 62
     7
100
AcDbLine
 10
474.56025097
 20
284.2802477478
 30
0.0
 11
474.038626643
 21
284.2802477478
 31
0.0
  0
ARC
  5
511
330
1B
100
AcDbEntity
 67
     1
  8
3_ALL_AXES
  6
Continuous
 62
     7
100
AcDbCircle
 10
476.1460694403
 20
287.9528878394
 30
0.0
 40
4.1
100
AcDbArc
 50
296.3930257743
 51
333.1366968699
  0
ARC
  5
512
330
1B
100
AcDbEntity
 67
     1
  8
3_ALL_AXES
  6
Continuous
 62
     7
100
AcDbCircle
 10
475.8611838457
 20
287.9528878394
 30
0.0
 40
4.1
100
AcDbArc
 50
206.8633031301
 51
243.6069742257
  0
LINE
  5
513
330
1B
100
AcDbEntity
 67
     1
  8
3_ALL_AXES
  6
Continuous
 62
     7
100
AcDbLine
 10
479.803626643
 20
286.1002477477
 30
0.0
 11
479.803626643
 21
286.4802477478
 31
0.0
  0
LINE
  5
514
330
1B
100
AcDbEntity
 67
     1
  8
3_ALL_AXES
  6
Continuous
 62
     7
100
AcDbLine
 10
472.203626643
 20
286.1002477477
 30
0.0
 11
472.203626643
 21
286.4802477478
 31
0.0
  0
LINE
  5
515
330
1B
100
AcDbEntity
 67
     1
  8
7_ALL_FEATURES
  6
Continuous
 62
     7
100
AcDbLine
 10
474.003626643
 20
287.4802477478
 30
0.0
 11
474.003626643
 21
287.7802477478
 31
0.0
  0
LINE
  5
516
330
1B
100
AcDbEntity
 67
     1
  8
7_ALL_FEATURES
  6
Continuous
 62
     7
100
AcDbLine
 10
478.003626643
 20
287.4802477478
 30
0.0
 11
478.003626643
 21
287.7802477478
 31
0.0
  0
LINE
  5
517
330
1B
100
AcDbEntity
 67
     1
  8
3_ALL_AXES
  6
Continuous
 62
     7
100
AcDbLine
 10
479.803626643
 20
286.1002477477
 30
0.0
 11
472.203626643
 21
286.1002477477
 31
0.0
  0
LINE
  5
518
330
1B
100
AcDbEntity
 67
     1
  8
3_ALL_AXES
  6
Continuous
 62
     7
100
AcDbLine
 10
1977.468626643
 20
284.2802477478
 30
0.0
 11
1976.947002316
 21
284.2802477478
 31
0.0
  0
LINE
  5
519
330
1B
100
AcDbEntity
 67
     1
  8
3_ALL_AXES
  6
Continuous
 62
     7
100
AcDbLine
 10
1976.947002316
 20
284.2802477478
 30
0.0
 11
1976.2253144795
 21
284.2802477478
 31
0.0
  0
LINE
  5
51A
330
1B
100
AcDbEntity
 67
     1
  8
3_ALL_AXES
  6
Continuous
 62
     7
100
AcDbLine
 10
1976.2253144795
 20
284.2802477478
 30
0.0
 11
1974.7819388065
 21
284.2802477478
 31
0.0
  0
LINE
  5
51B
330
1B
100
AcDbEntity
 67
     1
  8
3_ALL_AXES
  6
Continuous
 62
     7
100
AcDbLine
 10
1974.7819388065
 20
284.2802477478
 30
0.0
 11
1974.06025097
 21
284.2802477478
 31
0.0
  0
LINE
  5
51C
330
1B
100
AcDbEntity
 67
     1
  8
3_ALL_AXES
  6
Continuous
 62
     7
100
AcDbLine
 10
1974.06025097
 20
284.2802477478
 30
0.0
 11
1973.538626643
 21
284.2802477478
 31
0.0
  0
ARC
  5
51D
330
1B
100
AcDbEntity
 67
     1
  8
3_ALL_AXES
  6
Continuous
 62
     7
100
AcDbCircle
 10
1975.6460694403
 20
287.9528878394
 30
0.0
 40
4.1
100
AcDbArc
 50
296.3930257743
 51
333.1366968699
  0
ARC
  5
51E
330
1B
100
AcDbEntity
 67
     1
  8
3_ALL_AXES
  6
Continuous
 62
     7
100
AcDbCircle
 10
1975.3611838457
 20
287.9528878394
 30
0.0
 40
4.1
100
AcDbArc
 50
206.8633031301
 51
243.6069742257
  0
LINE
  5
51F
330
1B
100
AcDbEntity
 67
     1
  8
3_ALL_AXES
  6
Continuous
 62
     7
100
AcDbLine
 10
1979.303626643
 20
286.1002477478
 30
0.0
 11
1979.303626643
 21
286.4802477478
 31
0.0
  0
LINE
  5
520
330
1B
100
AcDbEntity
 67
     1
  8
3_ALL_AXES
  6
Continuous
 62
     7
100
AcDbLine
 10
1971.703626643
 20
286.1002477478
 30
0.0
 11
1971.703626643
 21
286.4802477478
 31
0.0
  0
LINE
  5
521
330
1B
100
AcDbEntity
 67
     1
  8
7_ALL_FEATURES
  6
Continuous
 62
     7
100
AcDbLine
 10
1973.503626643
 20
287.4802477478
 30
0.0
 11
1973.503626643
 21
287.7802477478
 31
0.0
  0
LINE
  5
522
330
1B
100
AcDbEntity
 67
     1
  8
7_ALL_FEATURES
  6
Continuous
 62
     7
100
AcDbLine
 10
1977.503626643
 20
287.4802477478
 30
0.0
 11
1977.503626643
 21
287.7802477478
 31
0.0
  0
LINE
  5
523
330
1B
100
AcDbEntity
 67
     1
  8
3_ALL_AXES
  6
Continuous
 62
     7
100
AcDbLine
 10
1979.303626643
 20
286.1002477478
 30
0.0
 11
1971.703626643
 21
286.1002477478
 31
0.0
  0
LINE
  5
524
330
1B
100
AcDbEntity
 67
     1
  8
3_ALL_AXES
  6
Continuous
 62
     7
100
AcDbLine
 10
1973.538626643
 20
314.3802477478
 30
0.0
 11
1974.06025097
 21
314.3802477478
 31
0.0
  0
LINE
  5
525
330
1B
100
AcDbEntity
 67
     1
  8
3_ALL_AXES
  6
Continuous
 62
     7
100
AcDbLine
 10
1974.06025097
 20
314.3802477478
 30
0.0
 11
1974.7819388065
 21
314.3802477478
 31
0.0
  0
LINE
  5
526
330
1B
100
AcDbEntity
 67
     1
  8
3_ALL_AXES
  6
Continuous
 62
     7
100
AcDbLine
 10
1974.7819388065
 20
314.3802477478
 30
0.0
 11
1976.2253144795
 21
314.3802477478
 31
0.0
  0
LINE
  5
527
330
1B
100
AcDbEntity
 67
     1
  8
3_ALL_AXES
  6
Continuous
 62
     7
100
AcDbLine
 10
1976.2253144795
 20
314.3802477478
 30
0.0
 11
1976.947002316
 21
314.3802477478
 31
0.0
  0
LINE
  5
528
330
1B
100
AcDbEntity
 67
     1
  8
3_ALL_AXES
  6
Continuous
 62
     7
100
AcDbLine
 10
1976.947002316
 20
314.3802477478
 30
0.0
 11
1977.468626643
 21
314.3802477478
 31
0.0
  0
ARC
  5
529
330
1B
100
AcDbEntity
 67
     1
  8
3_ALL_AXES
  6
Continuous
 62
     7
100
AcDbCircle
 10
1975.3611838457
 20
310.7076076561
 30
0.0
 40
4.1
100
AcDbArc
 50
116.3930257743
 51
153.1366968699
  0
ARC
  5
52A
330
1B
100
AcDbEntity
 67
     1
  8
3_ALL_AXES
  6
Continuous
 62
     7
100
AcDbCircle
 10
1975.6460694403
 20
310.7076076561
 30
0.0
 40
4.1
100
AcDbArc
 50
26.8633031301
 51
63.6069742257
  0
LINE
  5
52B
330
1B
100
AcDbEntity
 67
     1
  8
3_ALL_AXES
  6
Continuous
 62
     7
100
AcDbLine
 10
1971.703626643
 20
312.5602477478
 30
0.0
 11
1971.703626643
 21
312.1802477478
 31
0.0
  0
LINE
  5
52C
330
1B
100
AcDbEntity
 67
     1
  8
3_ALL_AXES
  6
Continuous
 62
     7
100
AcDbLine
 10
1979.303626643
 20
312.5602477478
 30
0.0
 11
1979.303626643
 21
312.1802477478
 31
0.0
  0
LINE
  5
52D
330
1B
100
AcDbEntity
 67
     1
  8
7_ALL_FEATURES
  6
Continuous
 62
     7
100
AcDbLine
 10
1977.503626643
 20
311.1802477478
 30
0.0
 11
1977.503626643
 21
310.8802477478
 31
0.0
  0
LINE
  5
52E
330
1B
100
AcDbEntity
 67
     1
  8
7_ALL_FEATURES
  6
Continuous
 62
     7
100
AcDbLine
 10
1973.503626643
 20
311.1802477478
 30
0.0
 11
1973.503626643
 21
310.8802477478
 31
0.0
  0
LINE
  5
52F
330
1B
100
AcDbEntity
 67
     1
  8
3_ALL_AXES
  6
Continuous
 62
     7
100
AcDbLine
 10
1971.703626643
 20
312.5602477478
 30
0.0
 11
1979.303626643
 21
312.5602477478
 31
0.0
  0
LINE
  5
530
330
1B
100
AcDbEntity
 67
     1
  8
7_ALL_FEATURES
  6
Continuous
 62
     7
100
AcDbLine
 10
469.003626643
 20
287.7802477478
 30
0.0
 11
469.003626643
 21
288.2802477478
 31
0.0
  0
LINE
  5
531
330
1B
100
AcDbEntity
 67
     1
  8
7_ALL_FEATURES
  6
Continuous
 62
     7
100
AcDbLine
 10
469.003626643
 20
310.3802477477
 30
0.0
 11
469.003626643
 21
288.2802477478
 31
0.0
  0
LINE
  5
532
330
1B
100
AcDbEntity
 67
     1
  8
7_ALL_FEATURES
  6
Continuous
 62
     7
100
AcDbLine
 10
469.003626643
 20
310.3802477477
 30
0.0
 11
469.003626643
 21
310.8802477477
 31
0.0
  0
LINE
  5
533
330
1B
100
AcDbEntity
 67
     1
  8
7_ALL_FEATURES
  6
Continuous
 62
     7
100
AcDbLine
 10
469.003626643
 20
310.8802477477
 30
0.0
 11
470.003626643
 21
310.8802477477
 31
0.0
  0
LINE
  5
534
330
1B
100
AcDbEntity
 67
     1
  8
7_ALL_FEATURES
  6
Continuous
 62
     7
100
AcDbLine
 10
469.003626643
 20
287.7802477478
 30
0.0
 11
470.003626643
 21
287.7802477478
 31
0.0
  0
ARC
  5
535
330
1B
100
AcDbEntity
 67
     1
  8
7_ALL_FEATURES
  6
Continuous
 62
     7
100
AcDbCircle
 10
471.003626643
 20
310.1802477478
 30
0.0
 40
2.0
100
AcDbArc
 50
152.1337126868
 51
159.5063626242
  0
ARC
  5
536
330
1B
100
AcDbEntity
 67
     1
  8
7_ALL_FEATURES
  6
Continuous
 62
     7
100
AcDbCircle
 10
471.003626643
 20
310.1802477478
 30
0.0
 40
2.0
100
AcDbArc
 50
90.0
 51
152.1337126868
  0
LINE
  5
537
330
1B
100
AcDbEntity
 67
     1
  8
7_ALL_FEATURES
  6
Continuous
 62
     7
100
AcDbLine
 10
471.003626643
 20
312.1802477478
 30
0.0
 11
477.503626643
 21
312.1802477478
 31
0.0
  0
LINE
  5
538
330
1B
100
AcDbEntity
 67
     1
  8
7_ALL_FEATURES
  6
Continuous
 62
     7
100
AcDbLine
 10
477.503626643
 20
312.1802477478
 30
0.0
 11
479.803626643
 21
312.1802477478
 31
0.0
  0
LINE
  5
539
330
1B
100
AcDbEntity
 67
     1
  8
7_ALL_FEATURES
  6
Continuous
 62
     7
100
AcDbLine
 10
479.803626643
 20
312.1802477478
 30
0.0
 11
481.503626643
 21
312.1802477478
 31
0.0
  0
ARC
  5
53A
330
1B
100
AcDbEntity
 67
     1
  8
7_ALL_FEATURES
  6
Continuous
 62
     7
100
AcDbCircle
 10
471.003626643
 20
288.4802477478
 30
0.0
 40
2.0
100
AcDbArc
 50
207.8662873132
 51
270.0
  0
ARC
  5
53B
330
1B
100
AcDbEntity
 67
     1
  8
7_ALL_FEATURES
  6
Continuous
 62
     7
100
AcDbCircle
 10
471.003626643
 20
288.4802477478
 30
0.0
 40
2.0
100
AcDbArc
 50
200.4936373758
 51
207.8662873132
  0
LINE
  5
53C
330
1B
100
AcDbEntity
 67
     1
  8
7_ALL_FEATURES
  6
Continuous
 62
     7
100
AcDbLine
 10
477.503626643
 20
286.4802477478
 30
0.0
 11
471.003626643
 21
286.4802477478
 31
0.0
  0
LINE
  5
53D
330
1B
100
AcDbEntity
 67
     1
  8
7_ALL_FEATURES
  6
Continuous
 62
     7
100
AcDbLine
 10
481.503626643
 20
286.4802477478
 30
0.0
 11
479.803626643
 21
286.4802477478
 31
0.0
  0
LINE
  5
53E
330
1B
100
AcDbEntity
 67
     1
  8
7_ALL_FEATURES
  6
Continuous
 62
     7
100
AcDbLine
 10
479.803626643
 20
286.4802477478
 30
0.0
 11
477.503626643
 21
286.4802477478
 31
0.0
  0
LINE
  5
53F
330
1B
100
AcDbEntity
 67
     1
  8
7_ALL_FEATURES
  6
Continuous
 62
     7
100
AcDbLine
 10
481.503626643
 20
311.1802477478
 30
0.0
 11
481.503626643
 21
312.1802477478
 31
0.0
  0
LINE
  5
540
330
1B
100
AcDbEntity
 67
     1
  8
7_ALL_FEATURES
  6
Continuous
 62
     7
100
AcDbLine
 10
481.503626643
 20
287.4802477478
 30
0.0
 11
481.503626643
 21
286.4802477478
 31
0.0
  0
LINE
  5
541
330
1B
100
AcDbEntity
 67
     1
  8
7_ALL_FEATURES
  6
Continuous
 62
     9
100
AcDbLine
 10
469.003626643
 20
310.3802477477
 30
0.0
 11
470.003626643
 21
310.3802477477
 31
0.0
  0
LINE
  5
542
330
1B
100
AcDbEntity
 67
     1
  8
7_ALL_FEATURES
  6
Continuous
 62
     9
100
AcDbLine
 10
471.003626643
 20
312.1802477478
 30
0.0
 11
471.003626643
 21
311.1802477478
 31
0.0
  0
LINE
  5
543
330
1B
100
AcDbEntity
 67
     1
  8
7_ALL_FEATURES
  6
Continuous
 62
     9
100
AcDbLine
 10
469.2355450315
 20
311.1150672036
 30
0.0
 11
469.6796735306
 21
310.8802477477
 31
0.0
  0
LINE
  5
544
330
1B
100
AcDbEntity
 67
     1
  8
7_ALL_FEATURES
  6
Continuous
 62
     9
100
AcDbLine
 10
477.503626643
 20
311.1802477478
 30
0.0
 11
477.503626643
 21
312.1802477478
 31
0.0
  0
LINE
  5
545
330
1B
100
AcDbEntity
 67
     1
  8
7_ALL_FEATURES
  6
Continuous
 62
     9
100
AcDbLine
 10
469.003626643
 20
288.2802477478
 30
0.0
 11
470.003626643
 21
288.2802477478
 31
0.0
  0
LINE
  5
546
330
1B
100
AcDbEntity
 67
     1
  8
7_ALL_FEATURES
  6
Continuous
 62
     9
100
AcDbLine
 10
469.2355450315
 20
287.5454282919
 30
0.0
 11
469.6796735306
 21
287.7802477478
 31
0.0
  0
LINE
  5
547
330
1B
100
AcDbEntity
 67
     1
  8
7_ALL_FEATURES
  6
Continuous
 62
     9
100
AcDbLine
 10
471.003626643
 20
286.4802477478
 30
0.0
 11
471.003626643
 21
287.4802477478
 31
0.0
  0
LINE
  5
548
330
1B
100
AcDbEntity
 67
     1
  8
7_ALL_FEATURES
  6
Continuous
 62
     9
100
AcDbLine
 10
477.503626643
 20
287.4802477478
 30
0.0
 11
477.503626643
 21
286.4802477478
 31
0.0
  0
LINE
  5
549
330
1B
100
AcDbEntity
 67
     1
  8
7_ALL_FEATURES
  6
Continuous
 62
     7
100
AcDbLine
 10
1982.503626643
 20
310.8802477478
 30
0.0
 11
1982.503626643
 21
310.3802477478
 31
0.0
  0
LINE
  5
54A
330
1B
100
AcDbEntity
 67
     1
  8
7_ALL_FEATURES
  6
Continuous
 62
     7
100
AcDbLine
 10
1982.503626643
 20
288.2802477478
 30
0.0
 11
1982.503626643
 21
310.3802477478
 31
0.0
  0
LINE
  5
54B
330
1B
100
AcDbEntity
 67
     1
  8
7_ALL_FEATURES
  6
Continuous
 62
     7
100
AcDbLine
 10
1982.503626643
 20
288.2802477478
 30
0.0
 11
1982.503626643
 21
287.7802477478
 31
0.0
  0
LINE
  5
54C
330
1B
100
AcDbEntity
 67
     1
  8
7_ALL_FEATURES
  6
Continuous
 62
     7
100
AcDbLine
 10
1982.503626643
 20
287.7802477478
 30
0.0
 11
1981.503626643
 21
287.7802477478
 31
0.0
  0
LINE
  5
54D
330
1B
100
AcDbEntity
 67
     1
  8
7_ALL_FEATURES
  6
Continuous
 62
     7
100
AcDbLine
 10
1982.503626643
 20
310.8802477478
 30
0.0
 11
1981.503626643
 21
310.8802477478
 31
0.0
  0
ARC
  5
54E
330
1B
100
AcDbEntity
 67
     1
  8
7_ALL_FEATURES
  6
Continuous
 62
     7
100
AcDbCircle
 10
1980.503626643
 20
288.4802477478
 30
0.0
 40
2.0
100
AcDbArc
 50
332.1337126867999
 51
339.5063626241999
  0
ARC
  5
54F
330
1B
100
AcDbEntity
 67
     1
  8
7_ALL_FEATURES
  6
Continuous
 62
     7
100
AcDbCircle
 10
1980.503626643
 20
288.4802477478
 30
0.0
 40
2.0
100
AcDbArc
 50
270.0
 51
332.1337126867999
  0
LINE
  5
550
330
1B
100
AcDbEntity
 67
     1
  8
7_ALL_FEATURES
  6
Continuous
 62
     7
100
AcDbLine
 10
1980.503626643
 20
286.4802477478
 30
0.0
 11
1974.003626643
 21
286.4802477478
 31
0.0
  0
LINE
  5
551
330
1B
100
AcDbEntity
 67
     1
  8
7_ALL_FEATURES
  6
Continuous
 62
     7
100
AcDbLine
 10
1974.003626643
 20
286.4802477478
 30
0.0
 11
1971.703626643
 21
286.4802477478
 31
0.0
  0
LINE
  5
552
330
1B
100
AcDbEntity
 67
     1
  8
7_ALL_FEATURES
  6
Continuous
 62
     7
100
AcDbLine
 10
1971.703626643
 20
286.4802477478
 30
0.0
 11
1970.003626643
 21
286.4802477478
 31
0.0
  0
ARC
  5
553
330
1B
100
AcDbEntity
 67
     1
  8
7_ALL_FEATURES
  6
Continuous
 62
     7
100
AcDbCircle
 10
1980.503626643
 20
310.1802477478
 30
0.0
 40
2.0
100
AcDbArc
 50
27.8662873132
 51
90.0
  0
ARC
  5
554
330
1B
100
AcDbEntity
 67
     1
  8
7_ALL_FEATURES
  6
Continuous
 62
     7
100
AcDbCircle
 10
1980.503626643
 20
310.1802477478
 30
0.0
 40
2.0
100
AcDbArc
 50
20.4936373758
 51
27.8662873132
  0
LINE
  5
555
330
1B
100
AcDbEntity
 67
     1
  8
7_ALL_FEATURES
  6
Continuous
 62
     7
100
AcDbLine
 10
1974.003626643
 20
312.1802477478
 30
0.0
 11
1980.503626643
 21
312.1802477478
 31
0.0
  0
LINE
  5
556
330
1B
100
AcDbEntity
 67
     1
  8
7_ALL_FEATURES
  6
Continuous
 62
     7
100
AcDbLine
 10
1970.003626643
 20
312.1802477478
 30
0.0
 11
1971.703626643
 21
312.1802477478
 31
0.0
  0
LINE
  5
557
330
1B
100
AcDbEntity
 67
     1
  8
7_ALL_FEATURES
  6
Continuous
 62
     7
100
AcDbLine
 10
1971.703626643
 20
312.1802477478
 30
0.0
 11
1974.003626643
 21
312.1802477478
 31
0.0
  0
LINE
  5
558
330
1B
100
AcDbEntity
 67
     1
  8
7_ALL_FEATURES
  6
Continuous
 62
     7
100
AcDbLine
 10
1970.003626643
 20
287.4802477478
 30
0.0
 11
1970.003626643
 21
286.4802477478
 31
0.0
  0
LINE
  5
559
330
1B
100
AcDbEntity
 67
     1
  8
7_ALL_FEATURES
  6
Continuous
 62
     7
100
AcDbLine
 10
1970.003626643
 20
311.1802477478
 30
0.0
 11
1970.003626643
 21
312.1802477478
 31
0.0
  0
LINE
  5
55A
330
1B
100
AcDbEntity
 67
     1
  8
7_ALL_FEATURES
  6
Continuous
 62
     9
100
AcDbLine
 10
1982.503626643
 20
288.2802477478
 30
0.0
 11
1981.503626643
 21
288.2802477478
 31
0.0
  0
LINE
  5
55B
330
1B
100
AcDbEntity
 67
     1
  8
7_ALL_FEATURES
  6
Continuous
 62
     9
100
AcDbLine
 10
1980.503626643
 20
286.4802477478
 30
0.0
 11
1980.503626643
 21
287.4802477478
 31
0.0
  0
LINE
  5
55C
330
1B
100
AcDbEntity
 67
     1
  8
7_ALL_FEATURES
  6
Continuous
 62
     9
100
AcDbLine
 10
1982.2717082545
 20
287.5454282919
 30
0.0
 11
1981.8275797554
 21
287.7802477478
 31
0.0
  0
LINE
  5
55D
330
1B
100
AcDbEntity
 67
     1
  8
7_ALL_FEATURES
  6
Continuous
 62
     9
100
AcDbLine
 10
1974.003626643
 20
287.4802477478
 30
0.0
 11
1974.003626643
 21
286.4802477478
 31
0.0
  0
LINE
  5
55E
330
1B
100
AcDbEntity
 67
     1
  8
7_ALL_FEATURES
  6
Continuous
 62
     9
100
AcDbLine
 10
1982.503626643
 20
310.3802477478
 30
0.0
 11
1981.503626643
 21
310.3802477478
 31
0.0
  0
LINE
  5
55F
330
1B
100
AcDbEntity
 67
     1
  8
7_ALL_FEATURES
  6
Continuous
 62
     9
100
AcDbLine
 10
1982.2717082545
 20
311.1150672036
 30
0.0
 11
1981.8275797554
 21
310.8802477478
 31
0.0
  0
LINE
  5
560
330
1B
100
AcDbEntity
 67
     1
  8
7_ALL_FEATURES
  6
Continuous
 62
     9
100
AcDbLine
 10
1980.503626643
 20
312.1802477478
 30
0.0
 11
1980.503626643
 21
311.1802477478
 31
0.0
  0
LINE
  5
561
330
1B
100
AcDbEntity
 67
     1
  8
7_ALL_FEATURES
  6
Continuous
 62
     9
100
AcDbLine
 10
1974.003626643
 20
311.1802477478
 30
0.0
 11
1974.003626643
 21
312.1802477478
 31
0.0
  0
LINE
  5
562
330
1B
100
AcDbEntity
 67
     1
  8
7_ALL_FEATURES
  6
Continuous
 62
     7
100
AcDbLine
 10
1204.503626643
 20
273.3302477478
 30
0.0
 11
1204.503626643
 21
287.7802477478
 31
0.0
  0
LINE
  5
563
330
1B
100
AcDbEntity
 67
     1
  8
7_ALL_FEATURES
  6
Continuous
 62
     7
100
AcDbLine
 10
1204.503626643
 20
310.8802477478
 30
0.0
 11
1204.503626643
 21
325.3302477478
 31
0.0
  0
ARC
  5
564
330
1B
100
AcDbEntity
 67
     1
  8
7_ALL_FEATURES
  6
Continuous
 62
     7
100
AcDbCircle
 10
1214.503626643
 20
273.3302477478
 30
0.0
 40
10.0
100
AcDbArc
 50
180.0
 51
270.0
  0
LINE
  5
565
330
1B
100
AcDbEntity
 67
     1
  8
7_ALL_FEATURES
  6
Continuous
 62
     7
100
AcDbLine
 10
1237.003626643
 20
263.3302477478
 30
0.0
 11
1214.503626643
 21
263.3302477478
 31
0.0
  0
ARC
  5
566
330
1B
100
AcDbEntity
 67
     1
  8
7_ALL_FEATURES
  6
Continuous
 62
     7
100
AcDbCircle
 10
1237.003626643
 20
273.3302477478
 30
0.0
 40
10.0
100
AcDbArc
 50
270.0
 51
360.0
  0
LINE
  5
567
330
1B
100
AcDbEntity
 67
     1
  8
7_ALL_FEATURES
  6
Continuous
 62
     7
100
AcDbLine
 10
1247.003626643
 20
325.3302477478
 30
0.0
 11
1247.003626643
 21
310.8802477478
 31
0.0
  0
LINE
  5
568
330
1B
100
AcDbEntity
 67
     1
  8
7_ALL_FEATURES
  6
Continuous
 62
     7
100
AcDbLine
 10
1247.003626643
 20
287.7802477478
 30
0.0
 11
1247.003626643
 21
273.3302477478
 31
0.0
  0
ARC
  5
569
330
1B
100
AcDbEntity
 67
     1
  8
7_ALL_FEATURES
  6
Continuous
 62
     7
100
AcDbCircle
 10
1237.003626643
 20
325.3302477478
 30
0.0
 40
10.0
100
AcDbArc
 50
0.0
 51
90.0
  0
LINE
  5
56A
330
1B
100
AcDbEntity
 67
     1
  8
7_ALL_FEATURES
  6
Continuous
 62
     7
100
AcDbLine
 10
1214.503626643
 20
335.3302477478
 30
0.0
 11
1237.003626643
 21
335.3302477478
 31
0.0
  0
ARC
  5
56B
330
1B
100
AcDbEntity
 67
     1
  8
7_ALL_FEATURES
  6
Continuous
 62
     7
100
AcDbCircle
 10
1214.503626643
 20
325.3302477478
 30
0.0
 40
10.0
100
AcDbArc
 50
90.0
 51
180.0
  0
ARC
  5
56C
330
1B
100
AcDbEntity
 67
     1
  8
02___PRT_ALL_AXES
  6
Continuous
 62
     7
100
AcDbCircle
 10
1240.753626643
 20
273.3302477478
 30
0.0
 40
3.25
100
AcDbArc
 50
180.0
 51
360.0
  0
ARC
  5
56D
330
1B
100
AcDbEntity
 67
     1
  8
02___PRT_ALL_AXES
  6
Continuous
 62
     7
100
AcDbCircle
 10
1240.753626643
 20
273.3302477478
 30
0.0
 40
3.25
100
AcDbArc
 50
0.0
 51
180.0
  0
ARC
  5
56E
330
1B
100
AcDbEntity
 67
     1
  8
02___PRT_ALL_AXES
  6
Continuous
 62
     7
100
AcDbCircle
 10
1210.753626643
 20
273.3302477478
 30
0.0
 40
3.25
100
AcDbArc
 50
180.0
 51
360.0
  0
ARC
  5
56F
330
1B
100
AcDbEntity
 67
     1
  8
02___PRT_ALL_AXES
  6
Continuous
 62
     7
100
AcDbCircle
 10
1210.753626643
 20
273.3302477478
 30
0.0
 40
3.25
100
AcDbArc
 50
0.0
 51
180.0
  0
ARC
  5
570
330
1B
100
AcDbEntity
 67
     1
  8
02___PRT_ALL_AXES
  6
Continuous
 62
     7
100
AcDbCircle
 10
1225.753626643
 20
270.3302477478
 30
0.0
 40
3.25
100
AcDbArc
 50
180.0
 51
360.0
  0
LINE
  5
571
330
1B
100
AcDbEntity
 67
     1
  8
02___PRT_ALL_AXES
  6
Continuous
 62
     7
100
AcDbLine
 10
1222.503626643
 20
276.3302477478
 30
0.0
 11
1222.503626643
 21
270.3302477478
 31
0.0
  0
ARC
  5
572
330
1B
100
AcDbEntity
 67
     1
  8
02___PRT_ALL_AXES
  6
Continuous
 62
     7
100
AcDbCircle
 10
1225.753626643
 20
276.3302477478
 30
0.0
 40
3.25
100
AcDbArc
 50
0.0
 51
180.0
  0
LINE
  5
573
330
1B
100
AcDbEntity
 67
     1
  8
02___PRT_ALL_AXES
  6
Continuous
 62
     7
100
AcDbLine
 10
1229.003626643
 20
270.3302477478
 30
0.0
 11
1229.003626643
 21
276.3302477478
 31
0.0
  0
ARC
  5
574
330
1B
100
AcDbEntity
 67
     1
  8
02___PRT_ALL_AXES
  6
Continuous
 62
     7
100
AcDbCircle
 10
1240.753626643
 20
325.3302477478
 30
0.0
 40
3.25
100
AcDbArc
 50
180.0
 51
360.0
  0
ARC
  5
575
330
1B
100
AcDbEntity
 67
     1
  8
02___PRT_ALL_AXES
  6
Continuous
 62
     7
100
AcDbCircle
 10
1240.753626643
 20
325.3302477478
 30
0.0
 40
3.25
100
AcDbArc
 50
0.0
 51
180.0
  0
ARC
  5
576
330
1B
100
AcDbEntity
 67
     1
  8
02___PRT_ALL_AXES
  6
Continuous
 62
     7
100
AcDbCircle
 10
1210.753626643
 20
325.3302477478
 30
0.0
 40
3.25
100
AcDbArc
 50
180.0
 51
360.0
  0
ARC
  5
577
330
1B
100
AcDbEntity
 67
     1
  8
02___PRT_ALL_AXES
  6
Continuous
 62
     7
100
AcDbCircle
 10
1210.753626643
 20
325.3302477478
 30
0.0
 40
3.25
100
AcDbArc
 50
0.0
 51
180.0
  0
LINE
  5
578
330
1B
100
AcDbEntity
 67
     1
  8
02___PRT_ALL_AXES
  6
Continuous
 62
     7
100
AcDbLine
 10
1229.003626643
 20
322.3302477478
 30
0.0
 11
1229.003626643
 21
328.3302477478
 31
0.0
  0
ARC
  5
579
330
1B
100
AcDbEntity
 67
     1
  8
02___PRT_ALL_AXES
  6
Continuous
 62
     7
100
AcDbCircle
 10
1225.753626643
 20
322.3302477478
 30
0.0
 40
3.25
100
AcDbArc
 50
180.0
 51
360.0
  0
LINE
  5
57A
330
1B
100
AcDbEntity
 67
     1
  8
02___PRT_ALL_AXES
  6
Continuous
 62
     7
100
AcDbLine
 10
1222.503626643
 20
328.3302477478
 30
0.0
 11
1222.503626643
 21
322.3302477478
 31
0.0
  0
ARC
  5
57B
330
1B
100
AcDbEntity
 67
     1
  8
02___PRT_ALL_AXES
  6
Continuous
 62
     7
100
AcDbCircle
 10
1225.753626643
 20
328.3302477478
 30
0.0
 40
3.25
100
AcDbArc
 50
0.0
 51
180.0
  0
LINE
  5
57C
330
1B
100
AcDbEntity
 67
     1
  8
7_ALL_FEATURES
  6
Continuous
 62
     7
100
AcDbLine
 10
1929.503626643
 20
273.3302477478
 30
0.0
 11
1929.503626643
 21
287.7802477478
 31
0.0
  0
LINE
  5
57D
330
1B
100
AcDbEntity
 67
     1
  8
7_ALL_FEATURES
  6
Continuous
 62
     7
100
AcDbLine
 10
1929.503626643
 20
310.8802477478
 30
0.0
 11
1929.503626643
 21
325.3302477478
 31
0.0
  0
ARC
  5
57E
330
1B
100
AcDbEntity
 67
     1
  8
7_ALL_FEATURES
  6
Continuous
 62
     7
100
AcDbCircle
 10
1939.503626643
 20
273.3302477478
 30
0.0
 40
10.0
100
AcDbArc
 50
180.0
 51
270.0
  0
LINE
  5
57F
330
1B
100
AcDbEntity
 67
     1
  8
7_ALL_FEATURES
  6
Continuous
 62
     7
100
AcDbLine
 10
1962.003626643
 20
263.3302477478
 30
0.0
 11
1939.503626643
 21
263.3302477478
 31
0.0
  0
ARC
  5
580
330
1B
100
AcDbEntity
 67
     1
  8
7_ALL_FEATURES
  6
Continuous
 62
     7
100
AcDbCircle
 10
1962.003626643
 20
273.3302477478
 30
0.0
 40
10.0
100
AcDbArc
 50
270.0
 51
360.0
  0
LINE
  5
581
330
1B
100
AcDbEntity
 67
     1
  8
7_ALL_FEATURES
  6
Continuous
 62
     7
100
AcDbLine
 10
1972.003626643
 20
325.3302477478
 30
0.0
 11
1972.003626643
 21
313.0552587556
 31
0.0
  0
LINE
  5
582
330
1B
100
AcDbEntity
 67
     1
  8
7_ALL_FEATURES
  6
Continuous
 62
     7
100
AcDbLine
 10
1972.003626643
 20
311.1802477478
 30
0.0
 11
1972.003626643
 21
310.8802477478
 31
0.0
  0
LINE
  5
583
330
1B
100
AcDbEntity
 67
     1
  8
7_ALL_FEATURES
  6
Continuous
 62
     7
100
AcDbLine
 10
1972.003626643
 20
287.7802477478
 30
0.0
 11
1972.003626643
 21
287.4802477478
 31
0.0
  0
LINE
  5
584
330
1B
100
AcDbEntity
 67
     1
  8
7_ALL_FEATURES
  6
Continuous
 62
     7
100
AcDbLine
 10
1972.003626643
 20
285.6052367399
 30
0.0
 11
1972.003626643
 21
273.3302477478
 31
0.0
  0
ARC
  5
585
330
1B
100
AcDbEntity
 67
     1
  8
7_ALL_FEATURES
  6
Continuous
 62
     7
100
AcDbCircle
 10
1962.003626643
 20
325.3302477478
 30
0.0
 40
10.0
100
AcDbArc
 50
0.0
 51
90.0
  0
LINE
  5
586
330
1B
100
AcDbEntity
 67
     1
  8
7_ALL_FEATURES
  6
Continuous
 62
     7
100
AcDbLine
 10
1939.503626643
 20
335.3302477478
 30
0.0
 11
1962.003626643
 21
335.3302477478
 31
0.0
  0
ARC
  5
587
330
1B
100
AcDbEntity
 67
     1
  8
7_ALL_FEATURES
  6
Continuous
 62
     7
100
AcDbCircle
 10
1939.503626643
 20
325.3302477478
 30
0.0
 40
10.0
100
AcDbArc
 50
90.0
 51
180.0
  0
ARC
  5
588
330
1B
100
AcDbEntity
 67
     1
  8
02___PRT_ALL_AXES
  6
Continuous
 62
     7
100
AcDbCircle
 10
1965.753626643
 20
273.3302477478
 30
0.0
 40
3.25
100
AcDbArc
 50
180.0
 51
360.0
  0
ARC
  5
589
330
1B
100
AcDbEntity
 67
     1
  8
02___PRT_ALL_AXES
  6
Continuous
 62
     7
100
AcDbCircle
 10
1965.753626643
 20
273.3302477478
 30
0.0
 40
3.25
100
AcDbArc
 50
0.0
 51
180.0
  0
ARC
  5
58A
330
1B
100
AcDbEntity
 67
     1
  8
02___PRT_ALL_AXES
  6
Continuous
 62
     7
100
AcDbCircle
 10
1935.753626643
 20
273.3302477478
 30
0.0
 40
3.25
100
AcDbArc
 50
180.0
 51
360.0
  0
ARC
  5
58B
330
1B
100
AcDbEntity
 67
     1
  8
02___PRT_ALL_AXES
  6
Continuous
 62
     7
100
AcDbCircle
 10
1935.753626643
 20
273.3302477478
 30
0.0
 40
3.25
100
AcDbArc
 50
0.0
 51
180.0
  0
ARC
  5
58C
330
1B
100
AcDbEntity
 67
     1
  8
02___PRT_ALL_AXES
  6
Continuous
 62
     7
100
AcDbCircle
 10
1950.753626643
 20
270.3302477478
 30
0.0
 40
3.25
100
AcDbArc
 50
180.0
 51
360.0
  0
LINE
  5
58D
330
1B
100
AcDbEntity
 67
     1
  8
02___PRT_ALL_AXES
  6
Continuous
 62
     7
100
AcDbLine
 10
1947.503626643
 20
276.3302477478
 30
0.0
 11
1947.503626643
 21
270.3302477478
 31
0.0
  0
ARC
  5
58E
330
1B
100
AcDbEntity
 67
     1
  8
02___PRT_ALL_AXES
  6
Continuous
 62
     7
100
AcDbCircle
 10
1950.753626643
 20
276.3302477478
 30
0.0
 40
3.25
100
AcDbArc
 50
0.0
 51
180.0
  0
LINE
  5
58F
330
1B
100
AcDbEntity
 67
     1
  8
02___PRT_ALL_AXES
  6
Continuous
 62
     7
100
AcDbLine
 10
1954.003626643
 20
270.3302477478
 30
0.0
 11
1954.003626643
 21
276.3302477478
 31
0.0
  0
ARC
  5
590
330
1B
100
AcDbEntity
 67
     1
  8
02___PRT_ALL_AXES
  6
Continuous
 62
     7
100
AcDbCircle
 10
1965.753626643
 20
325.3302477478
 30
0.0
 40
3.25
100
AcDbArc
 50
180.0
 51
360.0
  0
ARC
  5
591
330
1B
100
AcDbEntity
 67
     1
  8
02___PRT_ALL_AXES
  6
Continuous
 62
     7
100
AcDbCircle
 10
1965.753626643
 20
325.3302477478
 30
0.0
 40
3.25
100
AcDbArc
 50
0.0
 51
180.0
  0
ARC
  5
592
330
1B
100
AcDbEntity
 67
     1
  8
02___PRT_ALL_AXES
  6
Continuous
 62
     7
100
AcDbCircle
 10
1935.753626643
 20
325.3302477478
 30
0.0
 40
3.25
100
AcDbArc
 50
180.0
 51
360.0
  0
ARC
  5
593
330
1B
100
AcDbEntity
 67
     1
  8
02___PRT_ALL_AXES
  6
Continuous
 62
     7
100
AcDbCircle
 10
1935.753626643
 20
325.3302477478
 30
0.0
 40
3.25
100
AcDbArc
 50
0.0
 51
180.0
  0
LINE
  5
594
330
1B
100
AcDbEntity
 67
     1
  8
02___PRT_ALL_AXES
  6
Continuous
 62
     7
100
AcDbLine
 10
1954.003626643
 20
322.3302477478
 30
0.0
 11
1954.003626643
 21
328.3302477478
 31
0.0
  0
ARC
  5
595
330
1B
100
AcDbEntity
 67
     1
  8
02___PRT_ALL_AXES
  6
Continuous
 62
     7
100
AcDbCircle
 10
1950.753626643
 20
322.3302477478
 30
0.0
 40
3.25
100
AcDbArc
 50
180.0
 51
360.0
  0
LINE
  5
596
330
1B
100
AcDbEntity
 67
     1
  8
02___PRT_ALL_AXES
  6
Continuous
 62
     7
100
AcDbLine
 10
1947.503626643
 20
328.3302477478
 30
0.0
 11
1947.503626643
 21
322.3302477478
 31
0.0
  0
ARC
  5
597
330
1B
100
AcDbEntity
 67
     1
  8
02___PRT_ALL_AXES
  6
Continuous
 62
     7
100
AcDbCircle
 10
1950.753626643
 20
328.3302477478
 30
0.0
 40
3.25
100
AcDbArc
 50
0.0
 51
180.0
  0
LINE
  5
598
330
1B
100
AcDbEntity
 67
     1
  8
7_ALL_FEATURES
  6
Continuous
 62
     7
100
AcDbLine
 10
479.503626643
 20
273.3302477478
 30
0.0
 11
479.503626643
 21
285.6052367399
 31
0.0
  0
LINE
  5
599
330
1B
100
AcDbEntity
 67
     1
  8
7_ALL_FEATURES
  6
Continuous
 62
     7
100
AcDbLine
 10
479.503626643
 20
287.4802477478
 30
0.0
 11
479.503626643
 21
287.7802477478
 31
0.0
  0
LINE
  5
59A
330
1B
100
AcDbEntity
 67
     1
  8
7_ALL_FEATURES
  6
Continuous
 62
     7
100
AcDbLine
 10
479.503626643
 20
310.8802477478
 30
0.0
 11
479.503626643
 21
311.1802477478
 31
0.0
  0
LINE
  5
59B
330
1B
100
AcDbEntity
 67
     1
  8
7_ALL_FEATURES
  6
Continuous
 62
     7
100
AcDbLine
 10
479.503626643
 20
313.0552587556
 30
0.0
 11
479.503626643
 21
325.3302477478
 31
0.0
  0
ARC
  5
59C
330
1B
100
AcDbEntity
 67
     1
  8
7_ALL_FEATURES
  6
Continuous
 62
     7
100
AcDbCircle
 10
489.503626643
 20
273.3302477478
 30
0.0
 40
10.0
100
AcDbArc
 50
180.0
 51
270.0
  0
LINE
  5
59D
330
1B
100
AcDbEntity
 67
     1
  8
7_ALL_FEATURES
  6
Continuous
 62
     7
100
AcDbLine
 10
512.003626643
 20
263.3302477478
 30
0.0
 11
489.503626643
 21
263.3302477478
 31
0.0
  0
ARC
  5
59E
330
1B
100
AcDbEntity
 67
     1
  8
7_ALL_FEATURES
  6
Continuous
 62
     7
100
AcDbCircle
 10
512.003626643
 20
273.3302477478
 30
0.0
 40
10.0
100
AcDbArc
 50
270.0
 51
360.0
  0
LINE
  5
59F
330
1B
100
AcDbEntity
 67
     1
  8
7_ALL_FEATURES
  6
Continuous
 62
     7
100
AcDbLine
 10
522.003626643
 20
325.3302477478
 30
0.0
 11
522.003626643
 21
310.8802477478
 31
0.0
  0
LINE
  5
5A0
330
1B
100
AcDbEntity
 67
     1
  8
7_ALL_FEATURES
  6
Continuous
 62
     7
100
AcDbLine
 10
522.003626643
 20
287.7802477478
 30
0.0
 11
522.003626643
 21
273.3302477478
 31
0.0
  0
ARC
  5
5A1
330
1B
100
AcDbEntity
 67
     1
  8
7_ALL_FEATURES
  6
Continuous
 62
     7
100
AcDbCircle
 10
512.003626643
 20
325.3302477478
 30
0.0
 40
10.0
100
AcDbArc
 50
0.0
 51
90.0
  0
LINE
  5
5A2
330
1B
100
AcDbEntity
 67
     1
  8
7_ALL_FEATURES
  6
Continuous
 62
     7
100
AcDbLine
 10
489.503626643
 20
335.3302477478
 30
0.0
 11
512.003626643
 21
335.3302477478
 31
0.0
  0
ARC
  5
5A3
330
1B
100
AcDbEntity
 67
     1
  8
7_ALL_FEATURES
  6
Continuous
 62
     7
100
AcDbCircle
 10
489.503626643
 20
325.3302477478
 30
0.0
 40
10.0
100
AcDbArc
 50
90.0
 51
180.0
  0
ARC
  5
5A4
330
1B
100
AcDbEntity
 67
     1
  8
02___PRT_ALL_AXES
  6
Continuous
 62
     7
100
AcDbCircle
 10
515.753626643
 20
273.3302477478
 30
0.0
 40
3.25
100
AcDbArc
 50
180.0
 51
360.0
  0
ARC
  5
5A5
330
1B
100
AcDbEntity
 67
     1
  8
02___PRT_ALL_AXES
  6
Continuous
 62
     7
100
AcDbCircle
 10
515.753626643
 20
273.3302477478
 30
0.0
 40
3.25
100
AcDbArc
 50
0.0
 51
180.0
  0
ARC
  5
5A6
330
1B
100
AcDbEntity
 67
     1
  8
02___PRT_ALL_AXES
  6
Continuous
 62
     7
100
AcDbCircle
 10
485.753626643
 20
273.3302477478
 30
0.0
 40
3.25
100
AcDbArc
 50
180.0
 51
360.0
  0
ARC
  5
5A7
330
1B
100
AcDbEntity
 67
     1
  8
02___PRT_ALL_AXES
  6
Continuous
 62
     7
100
AcDbCircle
 10
485.753626643
 20
273.3302477478
 30
0.0
 40
3.25
100
AcDbArc
 50
0.0
 51
180.0
  0
ARC
  5
5A8
330
1B
100
AcDbEntity
 67
     1
  8
02___PRT_ALL_AXES
  6
Continuous
 62
     7
100
AcDbCircle
 10
500.753626643
 20
270.3302477478
 30
0.0
 40
3.25
100
AcDbArc
 50
180.0
 51
360.0
  0
LINE
  5
5A9
330
1B
100
AcDbEntity
 67
     1
  8
02___PRT_ALL_AXES
  6
Continuous
 62
     7
100
AcDbLine
 10
497.503626643
 20
276.3302477478
 30
0.0
 11
497.503626643
 21
270.3302477478
 31
0.0
  0
ARC
  5
5AA
330
1B
100
AcDbEntity
 67
     1
  8
02___PRT_ALL_AXES
  6
Continuous
 62
     7
100
AcDbCircle
 10
500.753626643
 20
276.3302477478
 30
0.0
 40
3.25
100
AcDbArc
 50
0.0
 51
180.0
  0
LINE
  5
5AB
330
1B
100
AcDbEntity
 67
     1
  8
02___PRT_ALL_AXES
  6
Continuous
 62
     7
100
AcDbLine
 10
504.003626643
 20
270.3302477478
 30
0.0
 11
504.003626643
 21
276.3302477478
 31
0.0
  0
ARC
  5
5AC
330
1B
100
AcDbEntity
 67
     1
  8
02___PRT_ALL_AXES
  6
Continuous
 62
     7
100
AcDbCircle
 10
515.753626643
 20
325.3302477478
 30
0.0
 40
3.25
100
AcDbArc
 50
180.0
 51
360.0
  0
ARC
  5
5AD
330
1B
100
AcDbEntity
 67
     1
  8
02___PRT_ALL_AXES
  6
Continuous
 62
     7
100
AcDbCircle
 10
515.753626643
 20
325.3302477478
 30
0.0
 40
3.25
100
AcDbArc
 50
0.0
 51
180.0
  0
ARC
  5
5AE
330
1B
100
AcDbEntity
 67
     1
  8
02___PRT_ALL_AXES
  6
Continuous
 62
     7
100
AcDbCircle
 10
485.753626643
 20
325.3302477478
 30
0.0
 40
3.25
100
AcDbArc
 50
180.0
 51
360.0
  0
ARC
  5
5AF
330
1B
100
AcDbEntity
 67
     1
  8
02___PRT_ALL_AXES
  6
Continuous
 62
     7
100
AcDbCircle
 10
485.753626643
 20
325.3302477478
 30
0.0
 40
3.25
100
AcDbArc
 50
0.0
 51
180.0
  0
LINE
  5
5B0
330
1B
100
AcDbEntity
 67
     1
  8
02___PRT_ALL_AXES
  6
Continuous
 62
     7
100
AcDbLine
 10
504.003626643
 20
322.3302477478
 30
0.0
 11
504.003626643
 21
328.3302477478
 31
0.0
  0
ARC
  5
5B1
330
1B
100
AcDbEntity
 67
     1
  8
02___PRT_ALL_AXES
  6
Continuous
 62
     7
100
AcDbCircle
 10
500.753626643
 20
322.3302477478
 30
0.0
 40
3.25
100
AcDbArc
 50
180.0
 51
360.0
  0
LINE
  5
5B2
330
1B
100
AcDbEntity
 67
     1
  8
02___PRT_ALL_AXES
  6
Continuous
 62
     7
100
AcDbLine
 10
497.503626643
 20
328.3302477478
 30
0.0
 11
497.503626643
 21
322.3302477478
 31
0.0
  0
ARC
  5
5B3
330
1B
100
AcDbEntity
 67
     1
  8
02___PRT_ALL_AXES
  6
Continuous
 62
     7
100
AcDbCircle
 10
500.753626643
 20
328.3302477478
 30
0.0
 40
3.25
100
AcDbArc
 50
0.0
 51
180.0
  0
LINE
  5
5B4
330
1B
100
AcDbEntity
 67
     1
  8
7_ALL_FEATURES
  6
Continuous
 62
     7
100
AcDbLine
 10
470.003626643
 20
309.6802477478
 30
0.0
 11
1981.503626643
 21
309.6802477478
 31
0.0
  0
LINE
  5
5B5
330
1B
100
AcDbEntity
 67
     1
  8
7_ALL_FEATURES
  6
Continuous
 62
     7
100
AcDbLine
 10
1981.503626643
 20
288.9802477478
 30
0.0
 11
470.003626643
 21
288.9802477478
 31
0.0
  0
LINE
  5
5B6
330
1B
100
AcDbEntity
 67
     1
  8
7_ALL_FEATURES
  6
Continuous
 62
     7
100
AcDbLine
 10
470.003626643
 20
310.8802477478
 30
0.0
 11
470.003626643
 21
310.3802477477
 31
0.0
  0
LINE
  5
5B7
330
1B
100
AcDbEntity
 67
     1
  8
7_ALL_FEATURES
  6
Continuous
 62
     7
100
AcDbLine
 10
470.003626643
 20
310.3802477477
 30
0.0
 11
470.003626643
 21
309.6802477478
 31
0.0
  0
LINE
  5
5B8
330
1B
100
AcDbEntity
 67
     1
  8
7_ALL_FEATURES
  6
Continuous
 62
     7
100
AcDbLine
 10
1981.503626643
 20
310.8802477478
 30
0.0
 11
1981.503626643
 21
310.3802477478
 31
0.0
  0
LINE
  5
5B9
330
1B
100
AcDbEntity
 67
     1
  8
7_ALL_FEATURES
  6
Continuous
 62
     7
100
AcDbLine
 10
1981.503626643
 20
310.3802477478
 30
0.0
 11
1981.503626643
 21
309.6802477478
 31
0.0
  0
LINE
  5
5BA
330
1B
100
AcDbEntity
 67
     1
  8
7_ALL_FEATURES
  6
Continuous
 62
     7
100
AcDbLine
 10
1981.503626643
 20
287.7802477478
 30
0.0
 11
1981.503626643
 21
288.2802477478
 31
0.0
  0
LINE
  5
5BB
330
1B
100
AcDbEntity
 67
     1
  8
7_ALL_FEATURES
  6
Continuous
 62
     7
100
AcDbLine
 10
1981.503626643
 20
288.2802477478
 30
0.0
 11
1981.503626643
 21
288.9802477478
 31
0.0
  0
LINE
  5
5BC
330
1B
100
AcDbEntity
 67
     1
  8
7_ALL_FEATURES
  6
Continuous
 62
     7
100
AcDbLine
 10
470.003626643
 20
287.7802477478
 30
0.0
 11
470.003626643
 21
288.2802477478
 31
0.0
  0
LINE
  5
5BD
330
1B
100
AcDbEntity
 67
     1
  8
7_ALL_FEATURES
  6
Continuous
 62
     7
100
AcDbLine
 10
470.003626643
 20
288.2802477478
 30
0.0
 11
470.003626643
 21
288.9802477478
 31
0.0
  0
LINE
  5
5BE
330
1B
100
AcDbEntity
 67
     1
  8
7_ALL_FEATURES
  6
Continuous
 62
     9
100
AcDbLine
 10
1981.503626643
 20
308.4802477478
 30
0.0
 11
1980.753626643
 21
308.4802477478
 31
0.0
  0
LINE
  5
5BF
330
1B
100
AcDbEntity
 67
     1
  8
7_ALL_FEATURES
  6
Continuous
 62
     9
100
AcDbLine
 10
470.753626643
 20
308.4802477478
 30
0.0
 11
470.003626643
 21
308.4802477478
 31
0.0
  0
LINE
  5
5C0
330
1B
100
AcDbEntity
 67
     1
  8
7_ALL_FEATURES
  6
Continuous
 62
     9
100
AcDbLine
 10
1981.503626643
 20
290.1802477478
 30
0.0
 11
1980.753626643
 21
290.1802477478
 31
0.0
  0
LINE
  5
5C1
330
1B
100
AcDbEntity
 67
     1
  8
7_ALL_FEATURES
  6
Continuous
 62
     9
100
AcDbLine
 10
470.753626643
 20
290.1802477478
 30
0.0
 11
470.003626643
 21
290.1802477478
 31
0.0
  0
LINE
  5
5C2
330
1B
100
AcDbEntity
 67
     1
  8
7_ALL_FEATURES
  6
Continuous
 62
     3
100
AcDbLine
 10
470.003626643
 20
310.3802477477
 30
0.0
 11
470.003626643
 21
309.6802477478
 31
0.0
  0
LINE
  5
5C3
330
1B
100
AcDbEntity
 67
     1
  8
7_ALL_FEATURES
  6
Continuous
 62
     3
100
AcDbLine
 10
470.003626643
 20
309.6802477478
 30
0.0
 11
470.003626643
 21
288.9802477478
 31
0.0
  0
LINE
  5
5C4
330
1B
100
AcDbEntity
 67
     1
  8
7_ALL_FEATURES
  6
Continuous
 62
     3
100
AcDbLine
 10
470.003626643
 20
288.9802477478
 30
0.0
 11
470.003626643
 21
288.2802477478
 31
0.0
  0
LINE
  5
5C5
330
1B
100
AcDbEntity
 67
     1
  8
7_ALL_FEATURES
  6
Continuous
 62
     3
100
AcDbLine
 10
477.503626643
 20
287.4802477478
 30
0.0
 11
481.503626643
 21
287.4802477478
 31
0.0
  0
LINE
  5
5C6
330
1B
100
AcDbEntity
 67
     1
  8
7_ALL_FEATURES
  6
Continuous
 62
     3
100
AcDbLine
 10
477.503626643
 20
287.4802477478
 30
0.0
 11
471.003626643
 21
287.4802477478
 31
0.0
  0
ARC
  5
5C7
330
1B
100
AcDbEntity
 67
     1
  8
7_ALL_FEATURES
  6
Continuous
 62
     3
100
AcDbCircle
 10
471.003626643
 20
288.4802477478
 30
0.0
 40
1.0
100
AcDbArc
 50
224.4595049186
 51
270.0
  0
LINE
  5
5C8
330
1B
100
AcDbEntity
 67
     1
  8
7_ALL_FEATURES
  6
Continuous
 62
     3
100
AcDbLine
 10
481.503626643
 20
311.1802477478
 30
0.0
 11
477.503626643
 21
311.1802477478
 31
0.0
  0
LINE
  5
5C9
330
1B
100
AcDbEntity
 67
     1
  8
7_ALL_FEATURES
  6
Continuous
 62
     3
100
AcDbLine
 10
471.003626643
 20
311.1802477478
 30
0.0
 11
477.503626643
 21
311.1802477478
 31
0.0
  0
ARC
  5
5CA
330
1B
100
AcDbEntity
 67
     1
  8
7_ALL_FEATURES
  6
Continuous
 62
     3
100
AcDbCircle
 10
471.003626643
 20
310.1802477478
 30
0.0
 40
1.0
100
AcDbArc
 50
90.0
 51
135.5404950814
  0
LINE
  5
5CB
330
1B
100
AcDbEntity
 67
     1
  8
7_ALL_FEATURES
  6
Continuous
 62
     3
100
AcDbLine
 10
1981.503626643
 20
288.2802477478
 30
0.0
 11
1981.503626643
 21
288.9802477478
 31
0.0
  0
LINE
  5
5CC
330
1B
100
AcDbEntity
 67
     1
  8
7_ALL_FEATURES
  6
Continuous
 62
     3
100
AcDbLine
 10
1981.503626643
 20
288.9802477478
 30
0.0
 11
1981.503626643
 21
309.6802477478
 31
0.0
  0
LINE
  5
5CD
330
1B
100
AcDbEntity
 67
     1
  8
7_ALL_FEATURES
  6
Continuous
 62
     3
100
AcDbLine
 10
1981.503626643
 20
309.6802477478
 30
0.0
 11
1981.503626643
 21
310.3802477478
 31
0.0
  0
LINE
  5
5CE
330
1B
100
AcDbEntity
 67
     1
  8
7_ALL_FEATURES
  6
Continuous
 62
     3
100
AcDbLine
 10
1974.003626643
 20
311.1802477478
 30
0.0
 11
1970.003626643
 21
311.1802477478
 31
0.0
  0
LINE
  5
5CF
330
1B
100
AcDbEntity
 67
     1
  8
7_ALL_FEATURES
  6
Continuous
 62
     3
100
AcDbLine
 10
1974.003626643
 20
311.1802477478
 30
0.0
 11
1980.503626643
 21
311.1802477478
 31
0.0
  0
ARC
  5
5D0
330
1B
100
AcDbEntity
 67
     1
  8
7_ALL_FEATURES
  6
Continuous
 62
     3
100
AcDbCircle
 10
1980.503626643
 20
310.1802477478
 30
0.0
 40
1.0
100
AcDbArc
 50
44.4595049186
 51
90.0
  0
LINE
  5
5D1
330
1B
100
AcDbEntity
 67
     1
  8
7_ALL_FEATURES
  6
Continuous
 62
     3
100
AcDbLine
 10
1970.003626643
 20
287.4802477478
 30
0.0
 11
1974.003626643
 21
287.4802477478
 31
0.0
  0
LINE
  5
5D2
330
1B
100
AcDbEntity
 67
     1
  8
7_ALL_FEATURES
  6
Continuous
 62
     3
100
AcDbLine
 10
1980.503626643
 20
287.4802477478
 30
0.0
 11
1974.003626643
 21
287.4802477478
 31
0.0
  0
ARC
  5
5D3
330
1B
100
AcDbEntity
 67
     1
  8
7_ALL_FEATURES
  6
Continuous
 62
     3
100
AcDbCircle
 10
1980.503626643
 20
288.4802477478
 30
0.0
 40
1.0
100
AcDbArc
 50
270.0
 51
315.5404950814
  0
LINE
  5
5D4
330
1B
100
AcDbEntity
 67
     1
  8
7_ALL_FEATURES
  6
Continuous
 62
     3
100
AcDbLine
 10
470.753626643
 20
308.6876113712
 30
0.0
 11
470.753626643
 21
289.9728841243
 31
0.0
  0
LINE
  5
5D5
330
1B
100
AcDbEntity
 67
     1
  8
7_ALL_FEATURES
  6
Continuous
 62
     3
100
AcDbLine
 10
1980.753626643
 20
289.9728841243
 30
0.0
 11
1980.753626643
 21
308.6876113712
 31
0.0
  0
ARC
  5
5D6
330
1B
100
AcDbEntity
 67
     1
  8
02___PRT_ALL_AXES
  6
Continuous
 62
     3
100
AcDbCircle
 10
1970.753626643
 20
299.3302477478
 30
0.0
 40
2.5
100
AcDbArc
 50
0.0
 51
180.0
  0
ARC
  5
5D7
330
1B
100
AcDbEntity
 67
     1
  8
02___PRT_ALL_AXES
  6
Continuous
 62
     3
100
AcDbCircle
 10
1970.753626643
 20
299.3302477478
 30
0.0
 40
2.5
100
AcDbArc
 50
180.0
 51
360.0
  0
ARC
  5
5D8
330
1B
100
AcDbEntity
 67
     1
  8
02___PRT_ALL_AXES
  6
Continuous
 62
     3
100
AcDbCircle
 10
480.753626643
 20
299.3302477477
 30
0.0
 40
2.5
100
AcDbArc
 50
180.0
 51
360.0
  0
ARC
  5
5D9
330
1B
100
AcDbEntity
 67
     1
  8
02___PRT_ALL_AXES
  6
Continuous
 62
     3
100
AcDbCircle
 10
480.753626643
 20
299.3302477477
 30
0.0
 40
2.5
100
AcDbArc
 50
0.0
 51
180.0
  0
LINE
  5
5DA
330
1B
100
AcDbEntity
 67
     1
  8
7_ALL_FEATURES
  6
Continuous
 62
     3
100
AcDbLine
 10
1980.753626643
 20
309.6802477478
 30
0.0
 11
1980.753626643
 21
309.2872458674
 31
0.0
  0
LINE
  5
5DB
330
1B
100
AcDbEntity
 67
     1
  8
7_ALL_FEATURES
  6
Continuous
 62
     3
100
AcDbLine
 10
1980.753626643
 20
309.2872458674
 30
0.0
 11
1980.753626643
 21
309.1067701637
 31
0.0
  0
LINE
  5
5DC
330
1B
100
AcDbEntity
 67
     1
  8
7_ALL_FEATURES
  6
Continuous
 62
     3
100
AcDbLine
 10
1980.753626643
 20
309.1067701637
 30
0.0
 11
1980.753626643
 21
308.6876113712
 31
0.0
  0
LINE
  5
5DD
330
1B
100
AcDbEntity
 67
     1
  8
7_ALL_FEATURES
  6
Continuous
 62
     3
100
AcDbLine
 10
470.753626643
 20
309.6802477478
 30
0.0
 11
470.753626643
 21
309.4731244378
 31
0.0
  0
LINE
  5
5DE
330
1B
100
AcDbEntity
 67
     1
  8
7_ALL_FEATURES
  6
Continuous
 62
     3
100
AcDbLine
 10
470.753626643
 20
309.4731244378
 30
0.0
 11
470.753626643
 21
309.2872458674
 31
0.0
  0
LINE
  5
5DF
330
1B
100
AcDbEntity
 67
     1
  8
7_ALL_FEATURES
  6
Continuous
 62
     3
100
AcDbLine
 10
470.753626643
 20
309.2872458674
 30
0.0
 11
470.753626643
 21
309.1067701637
 31
0.0
  0
LINE
  5
5E0
330
1B
100
AcDbEntity
 67
     1
  8
7_ALL_FEATURES
  6
Continuous
 62
     3
100
AcDbLine
 10
470.753626643
 20
309.1067701637
 30
0.0
 11
470.753626643
 21
308.6876113712
 31
0.0
  0
LINE
  5
5E1
330
1B
100
AcDbEntity
 67
     1
  8
7_ALL_FEATURES
  6
Continuous
 62
     3
100
AcDbLine
 10
470.753626643
 20
288.9802477478
 30
0.0
 11
470.753626643
 21
289.3732496281
 31
0.0
  0
LINE
  5
5E2
330
1B
100
AcDbEntity
 67
     1
  8
7_ALL_FEATURES
  6
Continuous
 62
     3
100
AcDbLine
 10
470.753626643
 20
289.3732496281
 30
0.0
 11
470.753626643
 21
289.5537253318
 31
0.0
  0
LINE
  5
5E3
330
1B
100
AcDbEntity
 67
     1
  8
7_ALL_FEATURES
  6
Continuous
 62
     3
100
AcDbLine
 10
470.753626643
 20
289.5537253318
 30
0.0
 11
470.753626643
 21
289.9728841243
 31
0.0
  0
LINE
  5
5E4
330
1B
100
AcDbEntity
 67
     1
  8
7_ALL_FEATURES
  6
Continuous
 62
     3
100
AcDbLine
 10
1980.753626643
 20
288.9802477478
 30
0.0
 11
1980.753626643
 21
289.1873710577
 31
0.0
  0
LINE
  5
5E5
330
1B
100
AcDbEntity
 67
     1
  8
7_ALL_FEATURES
  6
Continuous
 62
     3
100
AcDbLine
 10
1980.753626643
 20
289.1873710577
 30
0.0
 11
1980.753626643
 21
289.3732496281
 31
0.0
  0
LINE
  5
5E6
330
1B
100
AcDbEntity
 67
     1
  8
7_ALL_FEATURES
  6
Continuous
 62
     3
100
AcDbLine
 10
1980.753626643
 20
289.3732496281
 30
0.0
 11
1980.753626643
 21
289.5537253318
 31
0.0
  0
LINE
  5
5E7
330
1B
100
AcDbEntity
 67
     1
  8
7_ALL_FEATURES
  6
Continuous
 62
     3
100
AcDbLine
 10
1980.753626643
 20
289.5537253318
 30
0.0
 11
1980.753626643
 21
289.9728841243
 31
0.0
  0
LINE
  5
5E8
330
1B
100
AcDbEntity
 67
     1
  8
7_ALL_FEATURES
  6
Continuous
 62
     9
100
AcDbLine
 10
1980.753626643
 20
289.9728841243
 30
0.0
 11
470.753626643
 21
289.9728841243
 31
0.0
  0
LINE
  5
5E9
330
1B
100
AcDbEntity
 67
     1
  8
7_ALL_FEATURES
  6
Continuous
 62
     9
100
AcDbLine
 10
470.753626643
 20
308.6876113712
 30
0.0
 11
1980.753626643
 21
308.6876113712
 31
0.0
  0
LINE
  5
5EA
330
1B
100
AcDbEntity
 67
     1
  8
7_ALL_FEATURES
  6
Continuous
 62
     3
100
AcDbLine
 10
1981.503626643
 20
287.7802477478
 30
0.0
 11
470.003626643
 21
287.7802477478
 31
0.0
  0
LINE
  5
5EB
330
1B
100
AcDbEntity
 67
     1
  8
7_ALL_FEATURES
  6
Continuous
 62
     3
100
AcDbLine
 10
470.003626643
 20
310.8802477478
 30
0.0
 11
1981.503626643
 21
310.8802477478
 31
0.0
  0
DIMENSION
  5
5EC
330
1B
100
AcDbEntity
 67
     1
  8
0
  6
Continuous
 62
     2
100
AcDbDimension
280
     0
  2
*D1
 10
1982.503626643
 20
636.7051948699
 30
0.0
 11
1225.8897569444
 21
636.7051948699
 31
0.0
 70
   160
 71
     5
 42
-1.0
 73
     0
 74
     0
 75
     0
  3
DIMSTYLE_1
100
AcDbAlignedDimension
 13
469.003626643
 23
611.8534663572
 33
0.0
 14
1982.503626643
 24
608.9013942851
 34
0.0
100
AcDbRotatedDimension
  0
DIMENSION
  5
5ED
330
1B
100
AcDbEntity
 67
     1
  8
0
  6
Continuous
 62
     2
100
AcDbDimension
280
     0
  2
*D2
 10
2217.1866991992
 20
629.5905511637
 30
0.0
 11
2205.309375
 21
629.5905511637
 31
0.0
 70
   160
 71
     5
 42
-1.0
 73
     0
 74
     0
 75
     0
  3
DIMSTYLE_2
100
AcDbAlignedDimension
 13
2194.0866991992
 23
600.4535030097
 33
0.0
 14
2217.1866991992
 24
606.8920846139
 34
0.0
100
AcDbRotatedDimension
  0
DIMENSION
  5
5EE
330
1B
100
AcDbEntity
 67
     1
  8
0
  6
Continuous
 62
     2
100
AcDbDimension
280
     0
  2
*D3
 10
2135.5265169711
 20
501.9381842261
 30
0.0
 11
2135.5265169711
 21
547.6623926784
 31
0.0
 70
   160
 71
     5
 42
-1.0
 73
     0
 74
     0
 75
     0
  3
DIMSTYLE_3
100
AcDbAlignedDimension
 13
2154.7202639431
 23
593.3881842261
 33
0.0
 14
2157.1878095038
 24
501.9381842261
 34
0.0
 50
270.0
100
AcDbRotatedDimension
  0
DIMENSION
  5
5EF
330
1B
100
AcDbEntity
 67
     1
  8
0
  6
Continuous
 62
     2
100
AcDbDimension
280
     0
  2
*D4
 10
2003.8309593124
 20
335.3302477478
 30
0.0
 11
2003.8309593124
 21
299.3165815649
 31
0.0
 70
   160
 71
     5
 42
-1.0
 73
     0
 74
     0
 75
     0
  3
DIMSTYLE_3
100
AcDbAlignedDimension
 13
1962.003626643
 23
263.3302477478
 33
0.0
 14
1962.003626643
 24
335.3302477478
 34
0.0
 50
90.0
100
AcDbRotatedDimension
  0
LINE
  5
5F0
330
1B
100
AcDbEntity
 67
     1
  8
0
  6
Continuous
 62
     2
100
AcDbLine
 10
2355.0771636625
 20
78.8268006746
 30
0.0
 11
2485.0771636625
 21
78.8268006746
 31
0.0
  0
LINE
  5
5F1
330
1B
100
AcDbEntity
 67
     1
  8
0
  6
Continuous
 62
     2
100
AcDbLine
 10
2355.0771636625
 20
78.8268006746
 30
0.0
 11
2355.0771636625
 21
12.8268006746
 31
0.0
  0
LINE
  5
5F2
330
1B
100
AcDbEntity
 67
     1
  8
0
  6
Continuous
 62
     2
100
AcDbLine
 10
2385.0771636625
 20
70.8268006746
 30
0.0
 11
2485.0771636625
 21
70.8268006746
 31
0.0
  0
LINE
  5
5F3
330
1B
100
AcDbEntity
 67
     1
  8
0
  6
Continuous
 62
     2
100
AcDbLine
 10
2355.0771636625
 20
62.8268006746
 30
0.0
 11
2485.0771636625
 21
62.8268006746
 31
0.0
  0
LINE
  5
5F4
330
1B
100
AcDbEntity
 67
     1
  8
0
  6
Continuous
 62
     2
100
AcDbLine
 10
2385.0771636625
 20
56.8268006746
 30
0.0
 11
2485.0771636625
 21
56.8268006746
 31
0.0
  0
LINE
  5
5F5
330
1B
100
AcDbEntity
 67
     1
  8
0
  6
Continuous
 62
     2
100
AcDbLine
 10
2385.0771636625
 20
50.8268006746
 30
0.0
 11
2485.0771636625
 21
50.8268006746
 31
0.0
  0
LINE
  5
5F6
330
1B
100
AcDbEntity
 67
     1
  8
0
  6
Continuous
 62
     2
100
AcDbLine
 10
2385.0771636625
 20
44.8268006746
 30
0.0
 11
2485.0771636625
 21
44.8268006746
 31
0.0
  0
LINE
  5
5F7
330
1B
100
AcDbEntity
 67
     1
  8
0
  6
Continuous
 62
     2
100
AcDbLine
 10
2385.0771636625
 20
38.8268006746
 30
0.0
 11
2485.0771636625
 21
38.8268006746
 31
0.0
  0
LINE
  5
5F8
330
1B
100
AcDbEntity
 67
     1
  8
0
  6
Continuous
 62
     2
100
AcDbLine
 10
2385.0771636625
 20
32.8268006746
 30
0.0
 11
2485.0771636625
 21
32.8268006746
 31
0.0
  0
LINE
  5
5F9
330
1B
100
AcDbEntity
 67
     1
  8
0
  6
Continuous
 62
     2
100
AcDbLine
 10
2355.0771636625
 20
26.8268006746
 30
0.0
 11
2485.0771636625
 21
26.8268006746
 31
0.0
  0
LINE
  5
5FA
330
1B
100
AcDbEntity
 67
     1
  8
0
  6
Continuous
 62
     2
100
AcDbLine
 10
2355.0771636625
 20
20.8268006746
 30
0.0
 11
2485.0771636625
 21
20.8268006746
 31
0.0
  0
LINE
  5
5FB
330
1B
100
AcDbEntity
 67
     1
  8
0
  6
Continuous
 62
     2
100
AcDbLine
 10
2355.0771636625
 20
16.8268006746
 30
0.0
 11
2485.0771636625
 21
16.8268006746
 31
0.0
  0
LINE
  5
5FC
330
1B
100
AcDbEntity
 67
     1
  8
0
  6
Continuous
 62
     2
100
AcDbLine
 10
2355.0771636625
 20
12.8268006746
 30
0.0
 11
2485.0771636625
 21
12.8268006746
 31
0.0
  0
LINE
  5
5FD
330
1B
100
AcDbEntity
 67
     1
  8
0
  6
Continuous
 62
     2
100
AcDbLine
 10
2385.0771636625
 20
78.8268006746
 30
0.0
 11
2385.0771636625
 21
20.8268006746
 31
0.0
  0
LINE
  5
5FE
330
1B
100
AcDbEntity
 67
     1
  8
0
  6
Continuous
 62
     2
100
AcDbLine
 10
2405.0771636625
 20
62.8268006746
 30
0.0
 11
2405.0771636625
 21
56.8268006746
 31
0.0
  0
LINE
  5
5FF
330
1B
100
AcDbEntity
 67
     1
  8
0
  6
Continuous
 62
     2
100
AcDbLine
 10
2435.0771636625
 20
32.8268006746
 30
0.0
 11
2435.0771636625
 21
20.8268006746
 31
0.0
  0
LINE
  5
600
330
1B
100
AcDbEntity
 67
     1
  8
0
  6
Continuous
 62
     2
100
AcDbLine
 10
2445.0771636625
 20
62.8268006746
 30
0.0
 11
2445.0771636625
 21
56.8268006746
 31
0.0
  0
LINE
  5
601
330
1B
100
AcDbEntity
 67
     1
  8
0
  6
Continuous
 62
     2
100
AcDbLine
 10
2445.0771636625
 20
50.8268006746
 30
0.0
 11
2445.0771636625
 21
44.8268006746
 31
0.0
  0
LINE
  5
602
330
1B
100
AcDbEntity
 67
     1
  8
0
  6
Continuous
 62
     2
100
AcDbLine
 10
2465.0771636625
 20
62.8268006746
 30
0.0
 11
2465.0771636625
 21
56.8268006746
 31
0.0
  0
LINE
  5
603
330
1B
100
AcDbEntity
 67
     1
  8
0
  6
Continuous
 62
     2
100
AcDbLine
 10
2475.0771636625
 20
50.8268006746
 30
0.0
 11
2475.0771636625
 21
44.8268006746
 31
0.0
  0
LINE
  5
604
330
1B
100
AcDbEntity
 67
     1
  8
0
  6
Continuous
 62
     2
100
AcDbLine
 10
2485.0771636625
 20
78.8268006746
 30
0.0
 11
2485.0771636625
 21
12.8268006746
 31
0.0
  0
INSERT
  5
605
330
1B
100
AcDbEntity
 67
     1
  8
0
  6
Continuous
 62
     2
100
AcDbBlockReference
  2
PROIEZIONE_EU_BL0
 10
2370.0771636625
 20
70.4518006746
 30
0.0
  0
MTEXT
  5
606
330
1B
100
AcDbEntity
 67
     1
  8
9_SOLID
  6
Continuous
 62
     2
100
AcDbMText
 10
2386.5646636625
 20
77.2018006746
 30
0.0
 40
1.9
 41
142.3642857143
 46
0.0
 71
     1
 72
     1
  1
EN: Chamfer/radii unlisted 0.3x45°. Remove sharp edges.\PGen. tol.: hole H11, shaft h11, lenght Js12. UNI EN 22768 Medium Grande.
  7
TEXTSTYLE_3
 73
     1
 44
1.0
  0
MTEXT
  5
607
330
1B
100
AcDbEntity
 67
     1
  8
9_SOLID
  6
Continuous
 62
     2
100
AcDbMText
 10
2386.5646636625
 20
69.2018006746
 30
0.0
 40
1.9
 41
148.2678571429
 46
0.0
 71
     1
 72
     1
  1
IT: Sm./rac. non quotati 0.3x45°. Eliminare spigoli taglienti.\PToll. gen.: foro H11, albero h11, lunghezza Js12. UNI EN 22768 Grado Medio.
  7
TEXTSTYLE_3
 73
     1
 44
1.0
  0
INSERT
  5
608
330
1B
100
AcDbEntity
 67
     1
  8
0
  6
Continuous
 62
     2
100
AcDbBlockReference
  2
LOGO2_BL1
 10
2368.9032107073
 20
44.8268006746
 30
0.0
  0
MTEXT
  5
609
330
1B
100
AcDbEntity
 67
     1
  8
9_SOLID
  6
Continuous
 62
     2
100
AcDbMText
 10
2386.5646636625
 20
61.0768006746
 30
0.0
 40
3.0
 41
22.0714285714
 46
0.0
 71
     1
 72
     1
  1
Pj: 570
  7
TEXTSTYLE_3
 73
     1
 44
1.0
  0
MTEXT
  5
60A
330
1B
100
AcDbEntity
 67
     1
  8
9_SOLID
  6
Continuous
 62
     2
100
AcDbMText
 10
2406.5646636625
 20
61.0768006746
 30
0.0
 40
3.0
 41
38.0357142857
 46
0.0
 71
     1
 72
     1
  1
% Check: %
  7
TEXTSTYLE_3
 73
     1
 44
1.0
  0
MTEXT
  5
60B
330
1B
100
AcDbEntity
 67
     1
  8
9_SOLID
  6
Continuous
 62
     2
100
AcDbMText
 10
2446.5646636625
 20
61.0768006746
 30
0.0
 40
3.0
 41
19.5
 46
0.0
 71
     1
 72
     1
  1
Rev:00
  7
TEXTSTYLE_3
 73
     1
 44
1.0
  0
MTEXT
  5
60C
330
1B
100
AcDbEntity
 67
     1
  8
9_SOLID
  6
Continuous
 62
     2
100
AcDbMText
 10
2466.5646636625
 20
61.3268006746
 30
0.0
 40
3.0
 41
19.7142857143
 46
0.0
 71
     1
 72
     1
  1
Ver: A
  7
TEXTSTYLE_3
 73
     1
 44
1.0
  0
MTEXT
  5
60D
330
1B
100
AcDbEntity
 67
     1
  8
9_SOLID
  6
Continuous
 62
     2
100
AcDbMText
 10
2386.5646636625
 20
55.0768006746
 30
0.0
 40
3.0
 41
74.0357142857
 46
0.0
 71
     1
 72
     1
  1
Neutral code: 570_C_359
  7
TEXTSTYLE_3
 73
     1
 44
1.0
  0
MTEXT
  5
60E
330
1B
100
AcDbEntity
 67
     1
  8
9_SOLID
  6
Continuous
 62
     2
100
AcDbMText
 10
2386.5646636625
 20
49.0768006746
 30
0.0
 40
3.0
 41
19.3928571429
 46
0.0
 71
     1
 72
     1
  1
Code: 
  7
TEXTSTYLE_3
 73
     1
 44
1.0
  0
MTEXT
  5
60F
330
1B
100
AcDbEntity
 67
     1
  8
9_SOLID
  6
Continuous
 62
     2
100
AcDbMText
 10
2446.5646636625
 20
49.3268006746
 30
0.0
 40
3.0
 41
27.8571428571
 46
0.0
 71
     1
 72
     1
  1
Scale: 1:1
  7
TEXTSTYLE_3
 73
     1
 44
1.0
  0
MTEXT
  5
610
330
1B
100
AcDbEntity
 67
     1
  8
9_SOLID
  6
Continuous
 62
     2
100
AcDbMText
 10
2480.0771636625
 20
49.3268006746
 30
0.0
 40
3.0
 41
41.5714285714
 46
0.0
 71
     2
 72
     1
  1
2500 by 3200
  7
TEXTSTYLE_3
 73
     1
 44
1.0
  0
MTEXT
  5
611
330
1B
100
AcDbEntity
 67
     1
  8
9_SOLID
  6
Continuous
 62
     2
100
AcDbMText
 10
2386.5646636625
 20
43.3268006746
 30
0.0
 40
3.0
 41
132.5357142857
 46
0.0
 71
     1
 72
     1
  1
It descr.: CASSAFORMA RIO1.3 1514mm INOX
  7
TEXTSTYLE_3
 73
     1
 44
1.0
  0
MTEXT
  5
612
330
1B
100
AcDbEntity
 67
     1
  8
9_SOLID
  6
Continuous
 62
     2
100
AcDbMText
 10
2386.5646636625
 20
37.3268006746
 30
0.0
 40
3.0
 41
33.9642857143
 46
0.0
 71
     1
 72
     1
  1
En descr.: 
  7
TEXTSTYLE_3
 73
     1
 44
1.0
  0
MTEXT
  5
613
330
1B
100
AcDbEntity
 67
     1
  8
9_SOLID
  6
Continuous
 62
     2
100
AcDbMText
 10
2386.5646636625
 20
31.3268006746
 30
0.0
 40
3.0
 41
31.2857142857
 46
0.0
 71
     1
 72
     1
  1
Des.: S.Z.
  7
TEXTSTYLE_3
 73
     1
 44
1.0
  0
MTEXT
  5
614
330
1B
100
AcDbEntity
 67
     1
  8
9_SOLID
  6
Continuous
 62
     2
100
AcDbMText
 10
2436.5646636625
 20
31.3268006746
 30
0.0
 40
3.0
 41
34.8214285714
 46
0.0
 71
     1
 72
     1
  1
Check: A.P.
  7
TEXTSTYLE_3
 73
     1
 44
1.0
  0
MTEXT
  5
615
330
1B
100
AcDbEntity
 67
     1
  8
9_SOLID
  6
Continuous
 62
     2
100
AcDbMText
 10
2356.5646636625
 20
25.3268006746
 30
0.0
 40
3.0
 41
43.5
 46
0.0
 71
     1
 72
     1
  1
Date: 06.12.18
  7
TEXTSTYLE_3
 73
     1
 44
1.0
  0
MTEXT
  5
616
330
1B
100
AcDbEntity
 67
     1
  8
9_SOLID
  6
Continuous
 62
     2
100
AcDbMText
 10
2386.5646636625
 20
25.3268006746
 30
0.0
 40
3.0
 41
18.2142857143
 46
0.0
 71
     1
 72
     1
  1
Mat.: 
  7
TEXTSTYLE_3
 73
     1
 44
1.0
  0
MTEXT
  5
617
330
1B
100
AcDbEntity
 67
     1
  8
9_SOLID
  6
Continuous
 62
     2
100
AcDbMText
 10
2436.5646636625
 20
24.8268006746
 30
0.0
 40
2.0
 41
42.3571428571
 46
0.0
 71
     1
 72
     1
  1
Disegno per catalogo
  7
TEXTSTYLE_3
 73
     1
 44
1.0
  0
MTEXT
  5
618
330
1B
100
AcDbEntity
 67
     1
  8
9_SOLID
  6
Continuous
 62
     2
100
AcDbMText
 10
2356.5646636625
 20
19.7268006746
 30
0.0
 40
1.8
 41
176.2071428571
 46
0.0
 71
     1
 72
     1
  1
It: A norma di legge si diffida da qualsiasi riproduzione senza nostra autorizzazione esplicita.
  7
TEXTSTYLE_3
 73
     1
 44
1.0
  0
MTEXT
  5
619
330
1B
100
AcDbEntity
 67
     1
  8
9_SOLID
  6
Continuous
 62
     2
100
AcDbMText
 10
2356.5646636625
 20
15.7268006746
 30
0.0
 40
1.8
 41
158.1428571429
 46
0.0
 71
     1
 72
     1
  1
En: According to the law, beware of any reproduction made without our authorization.
  7
TEXTSTYLE_3
 73
     1
 44
1.0
  0
ENDSEC
  0
SECTION
  2
OBJECTS
  0
DICTIONARY
  5
61A
330
0
100
AcDbDictionary
281
     1
  3
ACAD_DETAILVIEWSTYLE
350
670
  3
ACAD_GROUP
350
61B
  3
ACAD_LAYOUT
350
643
  3
ACAD_MATERIAL
350
65F
  3
ACAD_MLEADERSTYLE
350
665
  3
ACAD_MLINESTYLE
350
61C
  3
ACAD_PLOTSETTINGS
350
61E
  3
ACAD_PLOTSTYLENAME
350
61F
  3
ACAD_SCALELIST
350
621
  3
ACAD_SECTIONVIEWSTYLE
350
671
  3
ACAD_TABLESTYLE
350
663
  3
ACAD_VISUALSTYLE
350
646
  3
ACDB_RECOMPOSE_DATA
350
66C
  3
AcDbVariableDictionary
350
668
  3
APPDATA
350
667
  0
DICTIONARY
  5
670
102
{ACAD_REACTORS
330
61A
102
}
330
61A
100
AcDbDictionary
281
     1
  0
DICTIONARY
  5
61B
102
{ACAD_REACTORS
330
61A
102
}
330
61A
100
AcDbDictionary
281
     1
  0
DICTIONARY
  5
643
102
{ACAD_REACTORS
330
61A
102
}
330
61A
100
AcDbDictionary
281
     1
  3
Foglio 1
350
645
  3
Model
350
644
  0
DICTIONARY
  5
65F
102
{ACAD_REACTORS
330
61A
102
}
330
61A
100
AcDbDictionary
281
     1
  3
ByBlock
350
661
  3
ByLayer
350
660
  3
Global
350
662
  0
DICTIONARY
  5
665
102
{ACAD_REACTORS
330
61A
102
}
330
61A
100
AcDbDictionary
281
     1
  3
Standard
350
666
  0
DICTIONARY
  5
61C
102
{ACAD_REACTORS
330
61A
102
}
330
61A
100
AcDbDictionary
281
     1
  3
STANDARD
350
61D
  0
DICTIONARY
  5
61E
102
{ACAD_REACTORS
330
61A
102
}
330
61A
100
AcDbDictionary
281
     1
  0
ACDBDICTIONARYWDFLT
  5
61F
102
{ACAD_REACTORS
330
61A
102
}
330
61A
100
AcDbDictionary
281
     1
  3
Normal
350
620
100
AcDbDictionaryWithDefault
340
620
  0
DICTIONARY
  5
621
102
{ACAD_REACTORS
330
61A
102
}
330
61A
100
AcDbDictionary
281
     1
  3
A0
350
622
  3
A1
350
623
  3
A2
350
624
  3
A3
350
625
  3
A4
350
626
  3
A5
350
627
  3
A6
350
628
  3
A7
350
629
  3
A8
350
62A
  3
A9
350
62B
  3
B0
350
62C
  3
B1
350
62D
  3
B2
350
62E
  3
B3
350
62F
  3
B4
350
630
  3
B5
350
631
  3
B6
350
632
  3
B7
350
633
  3
B8
350
634
  3
B9
350
635
  3
C0
350
636
  3
C1
350
637
  3
C2
350
638
  3
C3
350
639
  3
C4
350
63A
  3
C5
350
63B
  3
C6
350
63C
  3
C7
350
63D
  3
C8
350
63E
  3
C9
350
63F
  3
D0
350
640
  3
D1
350
641
  3
D2
350
642
  0
DICTIONARY
  5
671
102
{ACAD_REACTORS
330
61A
102
}
330
61A
100
AcDbDictionary
281
     1
  0
DICTIONARY
  5
663
102
{ACAD_REACTORS
330
61A
102
}
330
61A
100
AcDbDictionary
281
     1
  3
Standard
350
664
  0
DICTIONARY
  5
646
102
{ACAD_REACTORS
330
61A
102
}
330
61A
100
AcDbDictionary
281
     1
  3
2dWireframe
350
64B
  3
Basic
350
64E
  3
Brighten
350
652
  3
ColorChange
350
656
  3
Conceptual
350
650
  3
Dim
350
651
  3
EdgeColorOff
350
659
  3
Facepattern
350
655
  3
Flat
350
647
  3
FlatWithEdges
350
648
  3
Gouraud
350
649
  3
GouraudWithEdges
350
64A
  3
Hidden
350
64D
  3
JitterOff
350
657
  3
Linepattern
350
654
  3
OverhangOff
350
658
  3
Realistic
350
64F
  3
Shaded
350
65E
  3
Shaded with edges
350
65D
  3
Shades of Gray
350
65A
  3
Sketchy
350
65B
  3
Thicken
350
653
  3
Wireframe
350
64C
  3
X-Ray
350
65C
  0
XRECORD
  5
66C
102
{ACAD_REACTORS
330
61A
102
}
330
61A
100
AcDbXrecord
280
     1
 90
        1
330
664
  0
DICTIONARY
  5
668
102
{ACAD_REACTORS
330
61A
102
}
330
61A
100
AcDbDictionary
281
     1
  3
CANNOSCALE
350
669
  3
CMLEADERSTYLE
350
66E
  3
CTABLESTYLE
350
66D
  3
MSLTSCALE
350
66F
  0
DICTIONARY
  5
667
102
{ACAD_REACTORS
330
61A
102
}
330
61A
100
AcDbDictionary
281
     1
  0
LAYOUT
  5
645
102
{ACAD_REACTORS
330
643
102
}
330
643
100
AcDbPlotSettings
  1

  2
none_device
  4
ISO_A3_(420.00_x_297.00_MM)
  6

 40
7.5
 41
20.0
 42
7.5
 43
20.0
 44
420.0
 45
297.0
 46
0.0
 47
0.0
 48
0.0
 49
0.0
140
0.0
141
0.0
142
1.0
143
12.45136186770428
 70
   688
 72
     1
 73
     0
 74
     1
  7

 75
     0
 76
     0
 77
     2
 78
   300
147
0.0803125
148
0.0
149
0.0
100
AcDbLayout
  1
Foglio 1
 70
     1
 71
     1
 10
0.0
 20
0.0
 11
412.5
 21
277.0
 12
0.0
 22
0.0
 32
0.0
 14
0.0
 24
0.0
 34
0.0
 15
2500.0
 25
3200.0
 35
0.0
146
0.0
 13
0.0
 23
0.0
 33
0.0
 16
1.0
 26
0.0
 36
0.0
 17
0.0
 27
1.0
 37
0.0
 76
     0
330
1B
331
29F
  0
LAYOUT
  5
644
102
{ACAD_REACTORS
330
643
102
}
330
643
100
AcDbPlotSettings
  1

  2
none_device
  4
Letter_(8.50_x_11.00_Inches)
  6

 40
6.35
 41
6.35
 42
6.35
 43
6.35
 44
215.9
 45
279.4
 46
0.0
 47
0.0
 48
0.0
 49
0.0
140
0.0
141
0.0
142
1.0
143
312.5
 70
  1712
 72
     0
 73
     0
 74
     0
  7

 75
     0
 76
     0
 77
     2
 78
   300
147
0.0032
148
0.0
149
0.0
100
AcDbLayout
  1
Model
 70
     1
 71
     0
 10
0.0
 20
0.0
 11
2500.0
 21
3200.0
 12
0.0
 22
0.0
 32
0.0
 14
0.0
 24
0.0
 34
0.0
 15
2500.0
 25
3200.0
 35
0.0
146
0.0
 13
0.0
 23
0.0
 33
0.0
 16
1.0
 26
0.0
 36
0.0
 17
0.0
 27
1.0
 37
0.0
 76
     0
330
1F
331
1F4
  0
MATERIAL
  5
661
102
{ACAD_REACTORS
330
65F
102
}
330
65F
100
AcDbMaterial
  1
ByBlock
 72
     1
 94
      127
  0
MATERIAL
  5
660
102
{ACAD_REACTORS
330
65F
102
}
330
65F
100
AcDbMaterial
  1
ByLayer
 72
     1
 94
      127
  0
MATERIAL
  5
662
102
{ACAD_REACTORS
330
65F
102
}
330
65F
100
AcDbMaterial
  1
Global
 72
     1
 94
      127
  0
MLEADERSTYLE
  5
666
102
{ACAD_REACTORS
330
665
102
}
330
665
100
AcDbMLeaderStyle
179
     2
170
     2
171
     1
172
     0
 90
        2
 40
0.0
 41
0.0
173
     1
 91
-1056964608
340
14
 92
       -2
290
     1
 42
2.0
291
     1
 43
8.0
  3
Standard
341
0
 44
4.0
300

342
11
174
     1
178
     1
175
     1
176
     0
 93
-1056964608
 45
4.0
292
     0
297
     0
 46
4.0
343
0
 94
-1056964608
 47
1.0
 49
1.0
140
1.0
293
     1
141
0.0
294
     1
177
     0
142
1.0
295
     0
296
     0
143
3.75
271
     0
272
     9
273
     9
298
     0
  0
MLINESTYLE
  5
61D
102
{ACAD_REACTORS
330
61C
102
}
330
61C
100
AcDbMlineStyle
  2
STANDARD
 70
     0
  3

 62
   256
 51
90.0
 52
90.0
 71
     2
 49
0.5
 62
   256
  6
BYLAYER
 49
-0.5
 62
   256
  6
BYLAYER
  0
ACDBPLACEHOLDER
  5
620
102
{ACAD_REACTORS
330
61F
102
}
330
61F
  0
SCALE
  5
622
102
{ACAD_REACTORS
330
621
102
}
330
621
100
AcDbScale
 70
     0
300
1:1
140
1.0
141
1.0
290
     1
  0
SCALE
  5
623
102
{ACAD_REACTORS
330
621
102
}
330
621
100
AcDbScale
 70
     0
300
1:2
140
1.0
141
2.0
290
     0
  0
SCALE
  5
624
102
{ACAD_REACTORS
330
621
102
}
330
621
100
AcDbScale
 70
     0
300
1:4
140
1.0
141
4.0
290
     0
  0
SCALE
  5
625
102
{ACAD_REACTORS
330
621
102
}
330
621
100
AcDbScale
 70
     0
300
1:5
140
1.0
141
5.0
290
     0
  0
SCALE
  5
626
102
{ACAD_REACTORS
330
621
102
}
330
621
100
AcDbScale
 70
     0
300
1:8
140
1.0
141
8.0
290
     0
  0
SCALE
  5
627
102
{ACAD_REACTORS
330
621
102
}
330
621
100
AcDbScale
 70
     0
300
1:10
140
1.0
141
10.0
290
     0
  0
SCALE
  5
628
102
{ACAD_REACTORS
330
621
102
}
330
621
100
AcDbScale
 70
     0
300
1:16
140
1.0
141
16.0
290
     0
  0
SCALE
  5
629
102
{ACAD_REACTORS
330
621
102
}
330
621
100
AcDbScale
 70
     0
300
1:20
140
1.0
141
20.0
290
     0
  0
SCALE
  5
62A
102
{ACAD_REACTORS
330
621
102
}
330
621
100
AcDbScale
 70
     0
300
1:30
140
1.0
141
30.0
290
     0
  0
SCALE
  5
62B
102
{ACAD_REACTORS
330
621
102
}
330
621
100
AcDbScale
 70
     0
300
1:40
140
1.0
141
40.0
290
     0
  0
SCALE
  5
62C
102
{ACAD_REACTORS
330
621
102
}
330
621
100
AcDbScale
 70
     0
300
1:50
140
1.0
141
50.0
290
     0
  0
SCALE
  5
62D
102
{ACAD_REACTORS
330
621
102
}
330
621
100
AcDbScale
 70
     0
300
1:100
140
1.0
141
100.0
290
     0
  0
SCALE
  5
62E
102
{ACAD_REACTORS
330
621
102
}
330
621
100
AcDbScale
 70
     0
300
2:1
140
2.0
141
1.0
290
     0
  0
SCALE
  5
62F
102
{ACAD_REACTORS
330
621
102
}
330
621
100
AcDbScale
 70
     0
300
4:1
140
4.0
141
1.0
290
     0
  0
SCALE
  5
630
102
{ACAD_REACTORS
330
621
102
}
330
621
100
AcDbScale
 70
     0
300
8:1
140
8.0
141
1.0
290
     0
  0
SCALE
  5
631
102
{ACAD_REACTORS
330
621
102
}
330
621
100
AcDbScale
 70
     0
300
10:1
140
10.0
141
1.0
290
     0
  0
SCALE
  5
632
102
{ACAD_REACTORS
330
621
102
}
330
621
100
AcDbScale
 70
     0
300
100:1
140
100.0
141
1.0
290
     0
  0
SCALE
  5
633
102
{ACAD_REACTORS
330
621
102
}
330
621
100
AcDbScale
 70
     0
300
1/128" = 1'-0"
140
0.0078125
141
12.0
290
     0
  0
SCALE
  5
634
102
{ACAD_REACTORS
330
621
102
}
330
621
100
AcDbScale
 70
     0
300
1/64" = 1'-0"
140
0.015625
141
12.0
290
     0
  0
SCALE
  5
635
102
{ACAD_REACTORS
330
621
102
}
330
621
100
AcDbScale
 70
     0
300
1/32" = 1'-0"
140
0.03125
141
12.0
290
     0
  0
SCALE
  5
636
102
{ACAD_REACTORS
330
621
102
}
330
621
100
AcDbScale
 70
     0
300
1/16" = 1'-0"
140
0.0625
141
12.0
290
     0
  0
SCALE
  5
637
102
{ACAD_REACTORS
330
621
102
}
330
621
100
AcDbScale
 70
     0
300
3/32" = 1'-0"
140
0.09375
141
12.0
290
     0
  0
SCALE
  5
638
102
{ACAD_REACTORS
330
621
102
}
330
621
100
AcDbScale
 70
     0
300
1/8" = 1'-0"
140
0.125
141
12.0
290
     0
  0
SCALE
  5
639
102
{ACAD_REACTORS
330
621
102
}
330
621
100
AcDbScale
 70
     0
300
3/16" = 1'-0"
140
0.1875
141
12.0
290
     0
  0
SCALE
  5
63A
102
{ACAD_REACTORS
330
621
102
}
330
621
100
AcDbScale
 70
     0
300
1/4" = 1'-0"
140
0.25
141
12.0
290
     0
  0
SCALE
  5
63B
102
{ACAD_REACTORS
330
621
102
}
330
621
100
AcDbScale
 70
     0
300
3/8" = 1'-0"
140
0.375
141
12.0
290
     0
  0
SCALE
  5
63C
102
{ACAD_REACTORS
330
621
102
}
330
621
100
AcDbScale
 70
     0
300
1/2" = 1'-0"
140
0.5
141
12.0
290
     0
  0
SCALE
  5
63D
102
{ACAD_REACTORS
330
621
102
}
330
621
100
AcDbScale
 70
     0
300
3/4" = 1'-0"
140
0.75
141
12.0
290
     0
  0
SCALE
  5
63E
102
{ACAD_REACTORS
330
621
102
}
330
621
100
AcDbScale
 70
     0
300
1" = 1'-0"
140
1.0
141
12.0
290
     0
  0
SCALE
  5
63F
102
{ACAD_REACTORS
330
621
102
}
330
621
100
AcDbScale
 70
     0
300
1-1/2" = 1'-0"
140
1.5
141
12.0
290
     0
  0
SCALE
  5
640
102
{ACAD_REACTORS
330
621
102
}
330
621
100
AcDbScale
 70
     0
300
3" = 1'-0"
140
3.0
141
12.0
290
     0
  0
SCALE
  5
641
102
{ACAD_REACTORS
330
621
102
}
330
621
100
AcDbScale
 70
     0
300
6" = 1'-0"
140
6.0
141
12.0
290
     0
  0
SCALE
  5
642
102
{ACAD_REACTORS
330
621
102
}
330
621
100
AcDbScale
 70
     0
300
1'-0" = 1'-0"
140
12.0
141
12.0
290
     0
  0
TABLESTYLE
  5
664
102
{ACAD_REACTORS
330
663
102
}
102
{ACAD_XDICTIONARY
360
66A
102
}
330
663
100
AcDbTableStyle
  3
Standard
 70
     0
 71
     0
 40
0.06
 41
0.06
280
     0
281
     0
  7
STANDARD
140
4.5
170
     2
 62
     0
 63
   257
283
     0
 90
        4
 91
        0
  1

274
    -2
284
     1
 64
     0
275
    -2
285
     1
 65
     0
276
    -2
286
     1
 66
     0
277
    -2
287
     1
 67
     0
278
    -2
288
     1
 68
     0
279
    -2
289
     1
 69
     0
  7
STANDARD
140
6.0
170
     5
 62
     0
 63
   257
283
     0
 90
        4
 91
        0
  1

274
    -2
284
     1
 64
     0
275
    -2
285
     1
 65
     0
276
    -2
286
     1
 66
     0
277
    -2
287
     1
 67
     0
278
    -2
288
     1
 68
     0
279
    -2
289
     1
 69
     0
  7
STANDARD
140
4.5
170
     5
 62
     0
 63
   257
283
     0
 90
        4
 91
        0
  1

274
    -2
284
     1
 64
     0
275
    -2
285
     1
 65
     0
276
    -2
286
     1
 66
     0
277
    -2
287
     1
 67
     0
278
    -2
288
     1
 68
     0
279
    -2
289
     1
 69
     0
  0
VISUALSTYLE
  5
64B
102
{ACAD_REACTORS
330
646
102
}
330
646
100
AcDbVisualStyle
  2
2dWireframe
 70
     4
177
     3
291
     0
 70
    58
 90
        0
176
     1
 90
        2
176
     1
 90
        0
176
     1
 90
        0
176
     1
 40
0.6
176
     1
 40
30.0
176
     1
 62
     7
420
 16777215
176
     1
 90
        1
176
     1
 90
        4
176
     1
 62
     7
176
     1
 62
   257
176
     1
 90
        1
176
     1
 90
        1
176
     1
 40
1.0
176
     1
 90
        0
176
     1
 62
   257
176
     1
 40
1.0
176
     1
 90
        1
176
     1
 90
        6
176
     1
 90
        2
176
     1
 62
     7
176
     1
 90
        5
176
     1
 90
        0
176
     1
 90
        0
176
     1
290
     0
176
     1
 90
        1
176
     1
 40
0.0
176
     1
 90
        0
176
     1
290
     1
176
     1
290
     1
176
     1
290
     0
176
     1
290
     0
176
     1
290
     0
176
     1
290
     0
176
     1
290
     0
176
     1
290
     0
176
     1
290
     0
176
     1
 90
       50
176
     1
 40
0.0
176
     1
 40
1.0
176
     1
 90
        0
176
     1
 62
    18
420
        0
176
     1
 90
       50
176
     1
 90
        3
176
     1
 62
     5
420
      255
176
     1
290
     0
176
     1
 90
       50
176
     1
 90
       50
176
     1
 90
       50
176
     1
290
     0
176
     1
 90
       50
176
     1
 62
   256
176
     0
 40
1.0
176
     0
 90
        2
176
     1
  1
strokes_ogs.tif
176
     1
290
     0
176
     1
 40
1.0
176
     1
 40
1.0
176
     1
  0
VISUALSTYLE
  5
64E
102
{ACAD_REACTORS
330
646
102
}
330
646
100
AcDbVisualStyle
  2
Basic
 70
     7
177
     3
291
     1
 70
    58
 90
        1
176
     1
 90
        0
176
     1
 90
        1
176
     1
 90
        0
176
     1
 40
0.6
176
     1
 40
30.0
176
     1
 62
     7
420
 16777215
176
     1
 90
        0
176
     1
 90
        4
176
     1
 62
     7
176
     1
 62
   257
176
     1
 90
        1
176
     1
 90
        1
176
     1
 40
1.0
176
     1
 90
        8
176
     1
 62
     7
176
     1
 40
1.0
176
     1
 90
        1
176
     1
 90
        6
176
     1
 90
        2
176
     1
 62
     7
176
     1
 90
        5
176
     1
 90
        0
176
     1
 90
        0
176
     1
290
     0
176
     1
 90
        1
176
     1
 40
0.0
176
     1
 90
        0
176
     1
290
     0
176
     1
290
     1
176
     1
290
     1
176
     1
290
     0
176
     1
290
     0
176
     1
290
     0
176
     1
290
     0
176
     1
290
     0
176
     1
290
     0
176
     1
 90
       50
176
     1
 40
0.0
176
     1
 40
1.0
176
     1
 90
        0
176
     1
 62
    18
420
        0
176
     1
 90
       50
176
     1
 90
        3
176
     1
 62
     5
420
      255
176
     1
290
     0
176
     1
 90
       50
176
     1
 90
       50
176
     1
 90
       50
176
     1
290
     0
176
     1
 90
       50
176
     1
 62
   256
176
     0
 40
1.0
176
     0
 90
        2
176
     1
  1
strokes_ogs.tif
176
     1
290
     0
176
     1
 40
1.0
176
     1
 40
1.0
176
     1
  0
VISUALSTYLE
  5
652
102
{ACAD_REACTORS
330
646
102
}
330
646
100
AcDbVisualStyle
  2
Brighten
 70
    12
177
     3
291
     1
 70
    58
 90
        2
176
     1
 90
        2
176
     1
 90
        0
176
     1
 90
        0
176
     1
 40
0.6
176
     1
 40
30.0
176
     1
 62
     7
420
 16777215
176
     1
 90
        1
176
     1
 90
        4
176
     1
 62
     7
176
     1
 62
   257
176
     1
 90
        1
176
     1
 90
        1
176
     1
 40
1.0
176
     1
 90
        8
176
     1
 62
     7
176
     1
 40
1.0
176
     1
 90
        1
176
     1
 90
        6
176
     1
 90
        2
176
     1
 62
     7
176
     1
 90
        5
176
     1
 90
        0
176
     1
 90
        0
176
     1
290
     0
176
     1
 90
        1
176
     1
 40
50.0
176
     1
 90
        0
176
     1
290
     0
176
     1
290
     1
176
     1
290
     1
176
     1
290
     0
176
     1
290
     0
176
     1
290
     0
176
     1
290
     0
176
     1
290
     0
176
     1
290
     0
176
     1
 90
       50
176
     1
 40
0.0
176
     1
 40
1.0
176
     1
 90
        0
176
     1
 62
    18
420
        0
176
     1
 90
       50
176
     1
 90
        3
176
     1
 62
     5
420
      255
176
     1
290
     0
176
     1
 90
       50
176
     1
 90
       50
176
     1
 90
       50
176
     1
290
     0
176
     1
 90
       50
176
     1
 62
   256
176
     0
 40
1.0
176
     0
 90
        2
176
     1
  1
strokes_ogs.tif
176
     1
290
     0
176
     1
 40
1.0
176
     1
 40
1.0
176
     1
  0
VISUALSTYLE
  5
656
102
{ACAD_REACTORS
330
646
102
}
330
646
100
AcDbVisualStyle
  2
ColorChange
 70
    16
177
     3
291
     1
 70
    58
 90
        2
176
     1
 90
        2
176
     1
 90
        3
176
     1
 90
        0
176
     1
 40
0.6
176
     1
 40
30.0
176
     1
 62
     8
420
  8421504
176
     1
 90
        1
176
     1
 90
        4
176
     1
 62
     7
176
     1
 62
   257
176
     1
 90
        1
176
     1
 90
        1
176
     1
 40
1.0
176
     1
 90
        8
176
     1
 62
     8
420
  8421504
176
     1
 40
1.0
176
     1
 90
        1
176
     1
 90
        6
176
     1
 90
        2
176
     1
 62
     7
176
     1
 90
        5
176
     1
 90
        0
176
     1
 90
        0
176
     1
290
     0
176
     1
 90
        1
176
     1
 40
0.0
176
     1
 90
        0
176
     1
290
     0
176
     1
290
     1
176
     1
290
     1
176
     1
290
     0
176
     1
290
     0
176
     1
290
     0
176
     1
290
     0
176
     1
290
     0
176
     1
290
     0
176
     1
 90
       50
176
     1
 40
0.0
176
     1
 40
1.0
176
     1
 90
        0
176
     1
 62
    18
420
        0
176
     1
 90
       50
176
     1
 90
        3
176
     1
 62
     5
420
      255
176
     1
290
     0
176
     1
 90
       50
176
     1
 90
       50
176
     1
 90
       50
176
     1
290
     0
176
     1
 90
       50
176
     1
 62
   256
176
     0
 40
1.0
176
     0
 90
        2
176
     1
  1
strokes_ogs.tif
176
     1
290
     0
176
     1
 40
1.0
176
     1
 40
1.0
176
     1
  0
VISUALSTYLE
  5
650
102
{ACAD_REACTORS
330
646
102
}
330
646
100
AcDbVisualStyle
  2
Conceptual
 70
     9
177
     3
291
     0
 70
    58
 90
        3
176
     1
 90
        2
176
     1
 90
        0
176
     1
 90
        0
176
     1
 40
0.6
176
     1
 40
30.0
176
     1
 62
     7
420
 16777215
176
     1
 90
        2
176
     1
 90
        2
176
     1
 62
     7
176
     1
 62
   257
176
     1
 90
        1
176
     1
 90
        1
176
     1
 40
179.0
176
     1
 90
        8
176
     1
 62
     7
176
     1
 40
1.0
176
     1
 90
        1
176
     1
 90
        6
176
     1
 90
        2
176
     1
 62
     7
176
     1
 90
        3
176
     1
 90
        0
176
     1
 90
        0
176
     1
290
     0
176
     1
 90
        1
176
     1
 40
0.0
176
     1
 90
        0
176
     1
290
     0
176
     1
290
     1
176
     1
290
     1
176
     1
290
     0
176
     1
290
     0
176
     1
290
     0
176
     1
290
     0
176
     1
290
     0
176
     1
290
     0
176
     1
 90
       50
176
     1
 40
0.0
176
     1
 40
1.0
176
     1
 90
        0
176
     1
 62
    18
420
        0
176
     1
 90
       50
176
     1
 90
        3
176
     1
 62
     5
420
      255
176
     1
290
     0
176
     1
 90
       50
176
     1
 90
       50
176
     1
 90
       50
176
     1
290
     0
176
     1
 90
       50
176
     1
 62
   256
176
     0
 40
1.0
176
     0
 90
        2
176
     1
  1
strokes_ogs.tif
176
     1
290
     0
176
     1
 40
1.0
176
     1
 40
1.0
176
     1
  0
VISUALSTYLE
  5
651
102
{ACAD_REACTORS
330
646
102
}
330
646
100
AcDbVisualStyle
  2
Dim
 70
    11
177
     3
291
     1
 70
    58
 90
        2
176
     1
 90
        2
176
     1
 90
        0
176
     1
 90
        0
176
     1
 40
0.6
176
     1
 40
30.0
176
     1
 62
     7
420
 16777215
176
     1
 90
        1
176
     1
 90
        4
176
     1
 62
     7
176
     1
 62
   257
176
     1
 90
        1
176
     1
 90
        1
176
     1
 40
1.0
176
     1
 90
        8
176
     1
 62
     7
176
     1
 40
1.0
176
     1
 90
        1
176
     1
 90
        6
176
     1
 90
        2
176
     1
 62
     7
176
     1
 90
        5
176
     1
 90
        0
176
     1
 90
        0
176
     1
290
     0
176
     1
 90
        1
176
     1
 40
-50.0
176
     1
 90
        0
176
     1
290
     0
176
     1
290
     1
176
     1
290
     1
176
     1
290
     0
176
     1
290
     0
176
     1
290
     0
176
     1
290
     0
176
     1
290
     0
176
     1
290
     0
176
     1
 90
       50
176
     1
 40
0.0
176
     1
 40
1.0
176
     1
 90
        0
176
     1
 62
    18
420
        0
176
     1
 90
       50
176
     1
 90
        3
176
     1
 62
     5
420
      255
176
     1
290
     0
176
     1
 90
       50
176
     1
 90
       50
176
     1
 90
       50
176
     1
290
     0
176
     1
 90
       50
176
     1
 62
   256
176
     0
 40
1.0
176
     0
 90
        2
176
     1
  1
strokes_ogs.tif
176
     1
290
     0
176
     1
 40
1.0
176
     1
 40
1.0
176
     1
  0
VISUALSTYLE
  5
659
102
{ACAD_REACTORS
330
646
102
}
330
646
100
AcDbVisualStyle
  2
EdgeColorOff
 70
    22
177
     3
291
     1
 70
    58
 90
        2
176
     0
 90
        2
176
     0
 90
        0
176
     0
 90
        0
176
     0
 40
0.6
176
     0
 40
30.0
176
     0
 62
     7
420
 16777215
176
     0
 90
        1
176
     0
 90
        4
176
     0
 62
     7
176
     0
 62
   257
176
     0
 90
        1
176
     0
 90
        1
176
     0
 40
1.0
176
     0
 90
        8
176
     2
 62
     7
176
     0
 40
1.0
176
     0
 90
        1
176
     0
 90
        6
176
     0
 90
        2
176
     0
 62
     7
176
     0
 90
        5
176
     0
 90
        0
176
     0
 90
        0
176
     0
290
     0
176
     0
 90
        1
176
     0
 40
0.0
176
     0
 90
        0
176
     0
290
     0
176
     0
290
     1
176
     0
290
     1
176
     0
290
     0
176
     0
290
     0
176
     0
290
     0
176
     0
290
     0
176
     0
290
     0
176
     0
290
     0
176
     0
 90
       50
176
     0
 40
0.0
176
     0
 40
1.0
176
     0
 90
        0
176
     0
 62
    18
420
        0
176
     0
 90
       50
176
     0
 90
        3
176
     0
 62
     5
420
      255
176
     0
290
     0
176
     0
 90
       50
176
     0
 90
       50
176
     0
 90
       50
176
     0
290
     0
176
     0
 90
       50
176
     0
 62
   256
176
     0
 40
1.0
176
     0
 90
        2
176
     0
  1
strokes_ogs.tif
176
     0
290
     0
176
     0
 40
1.0
176
     0
 40
1.0
176
     0
  0
VISUALSTYLE
  5
655
102
{ACAD_REACTORS
330
646
102
}
330
646
100
AcDbVisualStyle
  2
Facepattern
 70
    15
177
     3
291
     1
 70
    58
 90
        2
176
     1
 90
        2
176
     1
 90
        0
176
     1
 90
        0
176
     1
 40
0.6
176
     1
 40
30.0
176
     1
 62
     7
420
 16777215
176
     1
 90
        1
176
     1
 90
        4
176
     1
 62
     7
176
     1
 62
   257
176
     1
 90
        1
176
     1
 90
        1
176
     1
 40
1.0
176
     1
 90
        8
176
     1
 62
     7
176
     1
 40
1.0
176
     1
 90
        1
176
     1
 90
        6
176
     1
 90
        2
176
     1
 62
     7
176
     1
 90
        5
176
     1
 90
        0
176
     1
 90
        0
176
     1
290
     0
176
     1
 90
        1
176
     1
 40
0.0
176
     1
 90
        0
176
     1
290
     0
176
     1
290
     1
176
     1
290
     1
176
     1
290
     0
176
     1
290
     0
176
     1
290
     0
176
     1
290
     0
176
     1
290
     0
176
     1
290
     0
176
     1
 90
       50
176
     1
 40
0.0
176
     1
 40
1.0
176
     1
 90
        0
176
     1
 62
    18
420
        0
176
     1
 90
       50
176
     1
 90
        3
176
     1
 62
     5
420
      255
176
     1
290
     0
176
     1
 90
       50
176
     1
 90
       50
176
     1
 90
       50
176
     1
290
     0
176
     1
 90
       50
176
     1
 62
   256
176
     0
 40
1.0
176
     0
 90
        2
176
     1
  1
strokes_ogs.tif
176
     1
290
     0
176
     1
 40
1.0
176
     1
 40
1.0
176
     1
  0
VISUALSTYLE
  5
647
102
{ACAD_REACTORS
330
646
102
}
330
646
100
AcDbVisualStyle
  2
Flat
 70
     0
177
     3
291
     1
 70
    58
 90
        2
176
     1
 90
        1
176
     1
 90
        1
176
     1
 90
        2
176
     1
 40
0.6
176
     1
 40
30.0
176
     1
 62
     7
420
 16777215
176
     1
 90
        0
176
     1
 90
        0
176
     1
 62
     7
176
     1
 62
   257
176
     1
 90
        1
176
     1
 90
        1
176
     1
 40
1.0
176
     1
 90
        8
176
     1
 62
     7
176
     1
 40
1.0
176
     1
 90
        1
176
     1
 90
        6
176
     1
 90
        2
176
     1
 62
     7
176
     1
 90
        5
176
     1
 90
        0
176
     1
 90
        0
176
     1
290
     0
176
     1
 90
       13
176
     1
 40
0.0
176
     1
 90
        0
176
     1
290
     0
176
     1
290
     1
176
     1
290
     1
176
     1
290
     0
176
     1
290
     0
176
     1
290
     0
176
     1
290
     0
176
     1
290
     0
176
     1
290
     0
176
     1
 90
       50
176
     1
 40
0.0
176
     1
 40
1.0
176
     1
 90
        0
176
     1
 62
    18
420
        0
176
     1
 90
       50
176
     1
 90
        3
176
     1
 62
     5
420
      255
176
     1
290
     0
176
     1
 90
       50
176
     1
 90
       50
176
     1
 90
       50
176
     1
290
     0
176
     1
 90
       50
176
     1
 62
   256
176
     0
 40
1.0
176
     0
 90
        2
176
     1
  1
strokes_ogs.tif
176
     1
290
     0
176
     1
 40
1.0
176
     1
 40
1.0
176
     1
  0
VISUALSTYLE
  5
648
102
{ACAD_REACTORS
330
646
102
}
330
646
100
AcDbVisualStyle
  2
FlatWithEdges
 70
     1
177
     3
291
     1
 70
    58
 90
        2
176
     1
 90
        1
176
     1
 90
        1
176
     1
 90
        2
176
     1
 40
0.6
176
     1
 40
30.0
176
     1
 62
     7
420
 16777215
176
     1
 90
        1
176
     1
 90
        0
176
     1
 62
     7
176
     1
 62
   257
176
     1
 90
        1
176
     1
 90
        1
176
     1
 40
1.0
176
     1
 90
        0
176
     1
 62
   257
176
     1
 40
1.0
176
     1
 90
        1
176
     1
 90
        6
176
     1
 90
        2
176
     1
 62
     7
176
     1
 90
        5
176
     1
 90
        0
176
     1
 90
        0
176
     1
290
     0
176
     1
 90
       13
176
     1
 40
0.0
176
     1
 90
        0
176
     1
290
     0
176
     1
290
     1
176
     1
290
     1
176
     1
290
     0
176
     1
290
     0
176
     1
290
     0
176
     1
290
     0
176
     1
290
     0
176
     1
290
     0
176
     1
 90
       50
176
     1
 40
0.0
176
     1
 40
1.0
176
     1
 90
        0
176
     1
 62
    18
420
        0
176
     1
 90
       50
176
     1
 90
        3
176
     1
 62
     5
420
      255
176
     1
290
     0
176
     1
 90
       50
176
     1
 90
       50
176
     1
 90
       50
176
     1
290
     0
176
     1
 90
       50
176
     1
 62
   256
176
     0
 40
1.0
176
     0
 90
        2
176
     1
  1
strokes_ogs.tif
176
     1
290
     0
176
     1
 40
1.0
176
     1
 40
1.0
176
     1
  0
VISUALSTYLE
  5
649
102
{ACAD_REACTORS
330
646
102
}
330
646
100
AcDbVisualStyle
  2
Gouraud
 70
     2
177
     3
291
     1
 70
    58
 90
        2
176
     1
 90
        2
176
     1
 90
        1
176
     1
 90
        2
176
     1
 40
0.6
176
     1
 40
30.0
176
     1
 62
     7
420
 16777215
176
     1
 90
        0
176
     1
 90
        0
176
     1
 62
     7
176
     1
 62
   257
176
     1
 90
        1
176
     1
 90
        1
176
     1
 40
1.0
176
     1
 90
        0
176
     1
 62
     7
176
     1
 40
1.0
176
     1
 90
        1
176
     1
 90
        6
176
     1
 90
        2
176
     1
 62
     7
176
     1
 90
        5
176
     1
 90
        0
176
     1
 90
        0
176
     1
290
     0
176
     1
 90
       13
176
     1
 40
0.0
176
     1
 90
        0
176
     1
290
     0
176
     1
290
     1
176
     1
290
     1
176
     1
290
     0
176
     1
290
     0
176
     1
290
     0
176
     1
290
     0
176
     1
290
     0
176
     1
290
     0
176
     1
 90
       50
176
     1
 40
0.0
176
     1
 40
1.0
176
     1
 90
        0
176
     1
 62
    18
420
        0
176
     1
 90
       50
176
     1
 90
        3
176
     1
 62
     5
420
      255
176
     1
290
     0
176
     1
 90
       50
176
     1
 90
       50
176
     1
 90
       50
176
     1
290
     0
176
     1
 90
       50
176
     1
 62
   256
176
     0
 40
1.0
176
     0
 90
        2
176
     1
  1
strokes_ogs.tif
176
     1
290
     0
176
     1
 40
1.0
176
     1
 40
1.0
176
     1
  0
VISUALSTYLE
  5
64A
102
{ACAD_REACTORS
330
646
102
}
330
646
100
AcDbVisualStyle
  2
GouraudWithEdges
 70
     3
177
     3
291
     1
 70
    58
 90
        2
176
     1
 90
        2
176
     1
 90
        1
176
     1
 90
        2
176
     1
 40
0.6
176
     1
 40
30.0
176
     1
 62
     7
420
 16777215
176
     1
 90
        1
176
     1
 90
        0
176
     1
 62
     7
176
     1
 62
   257
176
     1
 90
        1
176
     1
 90
        1
176
     1
 40
1.0
176
     1
 90
        0
176
     1
 62
   257
176
     1
 40
1.0
176
     1
 90
        1
176
     1
 90
        6
176
     1
 90
        2
176
     1
 62
     7
176
     1
 90
        5
176
     1
 90
        0
176
     1
 90
        0
176
     1
290
     0
176
     1
 90
       13
176
     1
 40
0.0
176
     1
 90
        0
176
     1
290
     0
176
     1
290
     1
176
     1
290
     1
176
     1
290
     0
176
     1
290
     0
176
     1
290
     0
176
     1
290
     0
176
     1
290
     0
176
     1
290
     0
176
     1
 90
       50
176
     1
 40
0.0
176
     1
 40
1.0
176
     1
 90
        0
176
     1
 62
    18
420
        0
176
     1
 90
       50
176
     1
 90
        3
176
     1
 62
     5
420
      255
176
     1
290
     0
176
     1
 90
       50
176
     1
 90
       50
176
     1
 90
       50
176
     1
290
     0
176
     1
 90
       50
176
     1
 62
   256
176
     0
 40
1.0
176
     0
 90
        2
176
     1
  1
strokes_ogs.tif
176
     1
290
     0
176
     1
 40
1.0
176
     1
 40
1.0
176
     1
  0
VISUALSTYLE
  5
64D
102
{ACAD_REACTORS
330
646
102
}
330
646
100
AcDbVisualStyle
  2
Hidden
 70
     6
177
     3
291
     0
 70
    58
 90
        1
176
     1
 90
        2
176
     1
 90
        2
176
     1
 90
        0
176
     1
 40
0.6
176
     1
 40
30.0
176
     1
 62
     7
420
 16777215
176
     1
 90
        2
176
     1
 90
        2
176
     1
 62
     7
176
     1
 62
   257
176
     1
 90
        2
176
     1
 90
        1
176
     1
 40
40.0
176
     1
 90
        0
176
     1
 62
   257
176
     1
 40
1.0
176
     1
 90
        1
176
     1
 90
        6
176
     1
 90
        2
176
     1
 62
     7
176
     1
 90
        3
176
     1
 90
        0
176
     1
 90
        0
176
     1
290
     0
176
     1
 90
        1
176
     1
 40
0.0
176
     1
 90
        0
176
     1
290
     0
176
     1
290
     1
176
     1
290
     1
176
     1
290
     0
176
     1
290
     0
176
     1
290
     0
176
     1
290
     0
176
     1
290
     0
176
     1
290
     0
176
     1
 90
       50
176
     1
 40
0.0
176
     1
 40
1.0
176
     1
 90
        0
176
     1
 62
    18
420
        0
176
     1
 90
       50
176
     1
 90
        3
176
     1
 62
     5
420
      255
176
     1
290
     0
176
     1
 90
       50
176
     1
 90
       50
176
     1
 90
       50
176
     1
290
     0
176
     1
 90
       50
176
     1
 62
   256
176
     0
 40
1.0
176
     0
 90
        2
176
     1
  1
strokes_ogs.tif
176
     1
290
     0
176
     1
 40
1.0
176
     1
 40
1.0
176
     1
  0
VISUALSTYLE
  5
657
102
{ACAD_REACTORS
330
646
102
}
330
646
100
AcDbVisualStyle
  2
JitterOff
 70
    20
177
     3
291
     1
 70
    58
 90
        2
176
     0
 90
        2
176
     0
 90
        0
176
     0
 90
        0
176
     0
 40
0.6
176
     0
 40
30.0
176
     0
 62
     7
420
 16777215
176
     0
 90
        1
176
     0
 90
        4
176
     0
 62
     7
176
     0
 62
   257
176
     0
 90
        1
176
     0
 90
        1
176
     0
 40
1.0
176
     0
 90
       10
176
     2
 62
     7
176
     0
 40
1.0
176
     0
 90
        1
176
     0
 90
        6
176
     0
 90
        2
176
     0
 62
     7
176
     0
 90
        5
176
     0
 90
        0
176
     0
 90
        0
176
     0
290
     0
176
     0
 90
        1
176
     0
 40
0.0
176
     0
 90
        0
176
     0
290
     0
176
     0
290
     1
176
     0
290
     1
176
     0
290
     0
176
     0
290
     0
176
     0
290
     0
176
     0
290
     0
176
     0
290
     0
176
     0
290
     0
176
     0
 90
       50
176
     0
 40
0.0
176
     0
 40
1.0
176
     0
 90
        0
176
     0
 62
    18
420
        0
176
     0
 90
       50
176
     0
 90
        3
176
     0
 62
     5
420
      255
176
     0
290
     0
176
     0
 90
       50
176
     0
 90
       50
176
     0
 90
       50
176
     0
290
     0
176
     0
 90
       50
176
     0
 62
   256
176
     0
 40
1.0
176
     0
 90
        2
176
     0
  1
strokes_ogs.tif
176
     0
290
     0
176
     0
 40
1.0
176
     0
 40
1.0
176
     0
  0
VISUALSTYLE
  5
654
102
{ACAD_REACTORS
330
646
102
}
330
646
100
AcDbVisualStyle
  2
Linepattern
 70
    14
177
     3
291
     1
 70
    58
 90
        2
176
     1
 90
        2
176
     1
 90
        0
176
     1
 90
        0
176
     1
 40
0.6
176
     1
 40
30.0
176
     1
 62
     7
420
 16777215
176
     1
 90
        1
176
     1
 90
        4
176
     1
 62
     7
176
     1
 62
   257
176
     1
 90
        7
176
     1
 90
        7
176
     1
 40
1.0
176
     1
 90
        8
176
     1
 62
     7
176
     1
 40
1.0
176
     1
 90
        1
176
     1
 90
        6
176
     1
 90
        2
176
     1
 62
     7
176
     1
 90
        5
176
     1
 90
        0
176
     1
 90
        0
176
     1
290
     0
176
     1
 90
        1
176
     1
 40
0.0
176
     1
 90
        0
176
     1
290
     0
176
     1
290
     1
176
     1
290
     1
176
     1
290
     0
176
     1
290
     0
176
     1
290
     0
176
     1
290
     0
176
     1
290
     0
176
     1
290
     0
176
     1
 90
       50
176
     1
 40
0.0
176
     1
 40
1.0
176
     1
 90
        0
176
     1
 62
    18
420
        0
176
     1
 90
       50
176
     1
 90
        3
176
     1
 62
     5
420
      255
176
     1
290
     0
176
     1
 90
       50
176
     1
 90
       50
176
     1
 90
       50
176
     1
290
     0
176
     1
 90
       50
176
     1
 62
   256
176
     0
 40
1.0
176
     0
 90
        2
176
     1
  1
strokes_ogs.tif
176
     1
290
     0
176
     1
 40
1.0
176
     1
 40
1.0
176
     1
  0
VISUALSTYLE
  5
658
102
{ACAD_REACTORS
330
646
102
}
330
646
100
AcDbVisualStyle
  2
OverhangOff
 70
    21
177
     3
291
     1
 70
    58
 90
        2
176
     0
 90
        2
176
     0
 90
        0
176
     0
 90
        0
176
     0
 40
0.6
176
     0
 40
30.0
176
     0
 62
     7
420
 16777215
176
     0
 90
        1
176
     0
 90
        4
176
     0
 62
     7
176
     0
 62
   257
176
     0
 90
        1
176
     0
 90
        1
176
     0
 40
1.0
176
     0
 90
        9
176
     2
 62
     7
176
     0
 40
1.0
176
     0
 90
        1
176
     0
 90
        6
176
     0
 90
        2
176
     0
 62
     7
176
     0
 90
        5
176
     0
 90
        0
176
     0
 90
        0
176
     0
290
     0
176
     0
 90
        1
176
     0
 40
0.0
176
     0
 90
        0
176
     0
290
     0
176
     0
290
     1
176
     0
290
     1
176
     0
290
     0
176
     0
290
     0
176
     0
290
     0
176
     0
290
     0
176
     0
290
     0
176
     0
290
     0
176
     0
 90
       50
176
     0
 40
0.0
176
     0
 40
1.0
176
     0
 90
        0
176
     0
 62
    18
420
        0
176
     0
 90
       50
176
     0
 90
        3
176
     0
 62
     5
420
      255
176
     0
290
     0
176
     0
 90
       50
176
     0
 90
       50
176
     0
 90
       50
176
     0
290
     0
176
     0
 90
       50
176
     0
 62
   256
176
     0
 40
1.0
176
     0
 90
        2
176
     0
  1
strokes_ogs.tif
176
     0
290
     0
176
     0
 40
1.0
176
     0
 40
1.0
176
     0
  0
VISUALSTYLE
  5
64F
102
{ACAD_REACTORS
330
646
102
}
330
646
100
AcDbVisualStyle
  2
Realistic
 70
     8
177
     3
291
     0
 70
    58
 90
        2
176
     1
 90
        3
176
     1
 90
        0
176
     1
 90
        2
176
     1
 40
0.6
176
     1
 40
30.0
176
     1
 62
     7
420
 16777215
176
     1
 90
        0
176
     1
 90
        0
176
     1
 62
     7
176
     1
 62
   257
176
     1
 90
        1
176
     1
 90
        1
176
     1
 40
1.0
176
     1
 90
        8
176
     1
 62
   257
176
     1
 40
1.0
176
     1
 90
        1
176
     1
 90
        6
176
     1
 90
        2
176
     1
 62
     7
176
     1
 90
        3
176
     1
 90
        0
176
     1
 90
        0
176
     1
290
     0
176
     1
 90
       13
176
     1
 40
0.0
176
     1
 90
        0
176
     1
290
     0
176
     1
290
     1
176
     1
290
     1
176
     1
290
     0
176
     1
290
     0
176
     1
290
     0
176
     1
290
     0
176
     1
290
     0
176
     1
290
     0
176
     1
 90
       50
176
     1
 40
0.0
176
     1
 40
1.0
176
     1
 90
        0
176
     1
 62
    18
420
        0
176
     1
 90
       50
176
     1
 90
        3
176
     1
 62
     5
420
      255
176
     1
290
     0
176
     1
 90
       50
176
     1
 90
       50
176
     1
 90
       50
176
     1
290
     0
176
     1
 90
       50
176
     1
 62
   256
176
     0
 40
1.0
176
     0
 90
        2
176
     1
  1
strokes_ogs.tif
176
     1
290
     0
176
     1
 40
1.0
176
     1
 40
1.0
176
     1
  0
VISUALSTYLE
  5
65E
102
{ACAD_REACTORS
330
646
102
}
330
646
100
AcDbVisualStyle
  2
Shaded
 70
    27
177
     3
291
     0
 70
    58
 90
        2
176
     1
 90
        2
176
     1
 90
        1
176
     1
 90
        2
176
     1
 40
0.6
176
     1
 40
30.0
176
     1
 62
     7
420
 16777215
176
     1
 90
        0
176
     1
 90
        4
176
     1
 62
     7
176
     1
 62
   257
176
     1
 90
        1
176
     1
 90
        1
176
     1
 40
1.0
176
     1
 90
        8
176
     1
 62
   257
176
     1
 40
1.0
176
     1
 90
        1
176
     1
 90
        6
176
     1
 90
        2
176
     1
 62
     8
420
  7895160
176
     1
 90
        3
176
     1
 90
        0
176
     1
 90
        0
176
     1
290
     0
176
     1
 90
        5
176
     1
 40
0.0
176
     1
 90
        0
176
     1
290
     0
176
     1
290
     1
176
     1
290
     1
176
     1
290
     0
176
     1
290
     0
176
     1
290
     0
176
     1
290
     0
176
     1
290
     0
176
     1
290
     0
176
     1
 90
       50
176
     1
 40
0.0
176
     1
 40
1.0
176
     1
 90
        0
176
     1
 62
    18
420
        0
176
     1
 90
       50
176
     1
 90
        3
176
     1
 62
     5
420
      255
176
     1
290
     0
176
     1
 90
       50
176
     1
 90
       50
176
     1
 90
       50
176
     1
290
     0
176
     1
 90
       50
176
     1
 62
   256
176
     0
 40
1.0
176
     0
 90
        2
176
     1
  1
strokes_ogs.tif
176
     1
290
     0
176
     1
 40
1.0
176
     1
 40
1.0
176
     1
  0
VISUALSTYLE
  5
65D
102
{ACAD_REACTORS
330
646
102
}
330
646
100
AcDbVisualStyle
  2
Shaded with edges
 70
    26
177
     3
291
     0
 70
    58
 90
        2
176
     1
 90
        2
176
     1
 90
        1
176
     1
 90
        2
176
     1
 40
0.6
176
     1
 40
30.0
176
     1
 62
     7
420
 16777215
176
     1
 90
        1
176
     1
 90
       10
176
     1
 62
     7
176
     1
 62
   257
176
     1
 90
        2
176
     1
 90
        1
176
     1
 40
1.0
176
     1
 90
        8
176
     1
 62
   257
176
     1
 40
1.0
176
     1
 90
        1
176
     1
 90
        6
176
     1
 90
        2
176
     1
 62
     7
176
     1
 90
        3
176
     1
 90
        0
176
     1
 90
        0
176
     1
290
     0
176
     1
 90
        5
176
     1
 40
0.0
176
     1
 90
        0
176
     1
290
     0
176
     1
290
     1
176
     1
290
     1
176
     1
290
     0
176
     1
290
     0
176
     1
290
     0
176
     1
290
     0
176
     1
290
     0
176
     1
290
     0
176
     1
 90
       50
176
     1
 40
0.0
176
     1
 40
1.0
176
     1
 90
        0
176
     1
 62
    18
420
        0
176
     1
 90
       50
176
     1
 90
        3
176
     1
 62
     5
420
      255
176
     1
290
     0
176
     1
 90
       50
176
     1
 90
       50
176
     1
 90
       50
176
     1
290
     0
176
     1
 90
       50
176
     1
 62
   256
176
     0
 40
1.0
176
     0
 90
        2
176
     1
  1
strokes_ogs.tif
176
     1
290
     0
176
     1
 40
1.0
176
     1
 40
1.0
176
     1
  0
VISUALSTYLE
  5
65A
102
{ACAD_REACTORS
330
646
102
}
330
646
100
AcDbVisualStyle
  2
Shades of Gray
 70
    23
177
     3
291
     0
 70
    58
 90
        2
176
     1
 90
        2
176
     1
 90
        3
176
     1
 90
        0
176
     1
 40
0.6
176
     1
 40
30.0
176
     1
 62
     7
420
 16777215
176
     1
 90
        2
176
     1
 90
        2
176
     1
 62
     7
176
     1
 62
     7
176
     1
 90
        1
176
     1
 90
        1
176
     1
 40
40.0
176
     1
 90
        8
176
     1
 62
     7
176
     1
 40
1.0
176
     1
 90
        1
176
     1
 90
        6
176
     1
 90
        2
176
     1
 62
     7
176
     1
 90
        3
176
     1
 90
        0
176
     1
 90
        0
176
     1
290
     0
176
     1
 90
        1
176
     1
 40
0.0
176
     1
 90
        0
176
     1
290
     0
176
     1
290
     1
176
     1
290
     1
176
     1
290
     0
176
     1
290
     0
176
     1
290
     0
176
     1
290
     0
176
     1
290
     0
176
     1
290
     0
176
     1
 90
       50
176
     1
 40
0.0
176
     1
 40
1.0
176
     1
 90
        0
176
     1
 62
    18
420
        0
176
     1
 90
       50
176
     1
 90
        3
176
     1
 62
     5
420
      255
176
     1
290
     0
176
     1
 90
       50
176
     1
 90
       50
176
     1
 90
       50
176
     1
290
     0
176
     1
 90
       50
176
     1
 62
   256
176
     0
 40
1.0
176
     0
 90
        2
176
     1
  1
strokes_ogs.tif
176
     1
290
     0
176
     1
 40
1.0
176
     1
 40
1.0
176
     1
  0
VISUALSTYLE
  5
65B
102
{ACAD_REACTORS
330
646
102
}
330
646
100
AcDbVisualStyle
  2
Sketchy
 70
    24
177
     3
291
     0
 70
    58
 90
        1
176
     1
 90
        2
176
     1
 90
        2
176
     1
 90
        0
176
     1
 40
0.6
176
     1
 40
30.0
176
     1
 62
     7
420
 16777215
176
     1
 90
        2
176
     1
 90
        2
176
     1
 62
     7
176
     1
 62
     7
176
     1
 90
        1
176
     1
 90
        1
176
     1
 40
40.0
176
     1
 90
       11
176
     1
 62
     7
176
     1
 40
1.0
176
     1
 90
        1
176
     1
 90
        6
176
     1
 90
        2
176
     1
 62
     7
176
     1
 90
        6
176
     1
 90
        0
176
     1
 90
        0
176
     1
290
     0
176
     1
 90
        1
176
     1
 40
0.0
176
     1
 90
        0
176
     1
290
     0
176
     1
290
     1
176
     1
290
     1
176
     1
290
     0
176
     1
290
     0
176
     1
290
     0
176
     1
290
     0
176
     1
290
     0
176
     1
290
     0
176
     1
 90
       50
176
     1
 40
0.0
176
     1
 40
1.0
176
     1
 90
        0
176
     1
 62
    18
420
        0
176
     1
 90
       50
176
     1
 90
        3
176
     1
 62
     5
420
      255
176
     1
290
     0
176
     1
 90
       50
176
     1
 90
       50
176
     1
 90
       50
176
     1
290
     0
176
     1
 90
       50
176
     1
 62
   256
176
     0
 40
1.0
176
     0
 90
        2
176
     1
  1
strokes_ogs.tif
176
     1
290
     0
176
     1
 40
1.0
176
     1
 40
1.0
176
     1
  0
VISUALSTYLE
  5
653
102
{ACAD_REACTORS
330
646
102
}
330
646
100
AcDbVisualStyle
  2
Thicken
 70
    13
177
     3
291
     1
 70
    58
 90
        2
176
     1
 90
        2
176
     1
 90
        0
176
     1
 90
        0
176
     1
 40
0.6
176
     1
 40
30.0
176
     1
 62
     7
420
 16777215
176
     1
 90
        1
176
     1
 90
        4
176
     1
 62
     7
176
     1
 62
   257
176
     1
 90
        1
176
     1
 90
        1
176
     1
 40
1.0
176
     1
 90
       12
176
     1
 62
     7
176
     1
 40
1.0
176
     1
 90
        1
176
     1
 90
        6
176
     1
 90
        2
176
     1
 62
     7
176
     1
 90
        5
176
     1
 90
        0
176
     1
 90
        0
176
     1
290
     0
176
     1
 90
        1
176
     1
 40
0.0
176
     1
 90
        0
176
     1
290
     0
176
     1
290
     1
176
     1
290
     1
176
     1
290
     0
176
     1
290
     0
176
     1
290
     0
176
     1
290
     0
176
     1
290
     0
176
     1
290
     0
176
     1
 90
       50
176
     1
 40
0.0
176
     1
 40
1.0
176
     1
 90
        0
176
     1
 62
    18
420
        0
176
     1
 90
       50
176
     1
 90
        3
176
     1
 62
     5
420
      255
176
     1
290
     0
176
     1
 90
       50
176
     1
 90
       50
176
     1
 90
       50
176
     1
290
     0
176
     1
 90
       50
176
     1
 62
   256
176
     0
 40
1.0
176
     0
 90
        2
176
     1
  1
strokes_ogs.tif
176
     1
290
     0
176
     1
 40
1.0
176
     1
 40
1.0
176
     1
  0
VISUALSTYLE
  5
64C
102
{ACAD_REACTORS
330
646
102
}
330
646
100
AcDbVisualStyle
  2
Wireframe
 70
     5
177
     3
291
     0
 70
    58
 90
        0
176
     1
 90
        2
176
     1
 90
        0
176
     1
 90
        0
176
     1
 40
0.6
176
     1
 40
30.0
176
     1
 62
     7
420
 16777215
176
     1
 90
        1
176
     1
 90
        4
176
     1
 62
     7
176
     1
 62
   257
176
     1
 90
        1
176
     1
 90
        1
176
     1
 40
1.0
176
     1
 90
        0
176
     1
 62
   257
176
     1
 40
1.0
176
     1
 90
        1
176
     1
 90
        6
176
     1
 90
        2
176
     1
 62
     7
176
     1
 90
        3
176
     1
 90
        0
176
     1
 90
        0
176
     1
290
     0
176
     1
 90
        1
176
     1
 40
0.0
176
     1
 90
        0
176
     1
290
     0
176
     1
290
     1
176
     1
290
     1
176
     1
290
     0
176
     1
290
     0
176
     1
290
     0
176
     1
290
     0
176
     1
290
     0
176
     1
290
     0
176
     1
 90
       50
176
     1
 40
0.0
176
     1
 40
1.0
176
     1
 90
        0
176
     1
 62
    18
420
        0
176
     1
 90
       50
176
     1
 90
        3
176
     1
 62
     5
420
      255
176
     1
290
     0
176
     1
 90
       50
176
     1
 90
       50
176
     1
 90
       50
176
     1
290
     0
176
     1
 90
       50
176
     1
 62
   256
176
     0
 40
1.0
176
     0
 90
        2
176
     1
  1
strokes_ogs.tif
176
     1
290
     0
176
     1
 40
1.0
176
     1
 40
1.0
176
     1
  0
VISUALSTYLE
  5
65C
102
{ACAD_REACTORS
330
646
102
}
330
646
100
AcDbVisualStyle
  2
X-Ray
 70
    25
177
     3
291
     0
 70
    58
 90
        2
176
     1
 90
        2
176
     1
 90
        1
176
     1
 90
        1
176
     1
 40
0.5
176
     1
 40
30.0
176
     1
 62
     7
420
 16777215
176
     1
 90
        1
176
     1
 90
        0
176
     1
 62
     7
176
     1
 62
   257
176
     1
 90
        1
176
     1
 90
        1
176
     1
 40
1.0
176
     1
 90
        8
176
     1
 62
     7
176
     1
 40
1.0
176
     1
 90
        1
176
     1
 90
        6
176
     1
 90
        2
176
     1
 62
     7
176
     1
 90
        3
176
     1
 90
        0
176
     1
 90
        0
176
     1
290
     0
176
     1
 90
       13
176
     1
 40
0.0
176
     1
 90
        0
176
     1
290
     0
176
     1
290
     1
176
     1
290
     1
176
     1
290
     0
176
     1
290
     0
176
     1
290
     0
176
     1
290
     0
176
     1
290
     0
176
     1
290
     0
176
     1
 90
       50
176
     1
 40
0.0
176
     1
 40
1.0
176
     1
 90
        0
176
     1
 62
    18
420
        0
176
     1
 90
       50
176
     1
 90
        3
176
     1
 62
     5
420
      255
176
     1
290
     0
176
     1
 90
       50
176
     1
 90
       50
176
     1
 90
       50
176
     1
290
     0
176
     1
 90
       50
176
     1
 62
   256
176
     0
 40
1.0
176
     0
 90
        2
176
     1
  1
strokes_ogs.tif
176
     1
290
     0
176
     1
 40
1.0
176
     1
 40
1.0
176
     1
  0
DICTIONARYVAR
  5
669
102
{ACAD_REACTORS
330
668
102
}
330
668
100
DictionaryVariables
280
     0
  1
1:1
  0
DICTIONARYVAR
  5
66E
102
{ACAD_REACTORS
330
668
102
}
330
668
100
DictionaryVariables
280
     0
  1
Standard
  0
DICTIONARYVAR
  5
66D
102
{ACAD_REACTORS
330
668
102
}
330
668
100
DictionaryVariables
280
     0
  1
Standard
  0
DICTIONARYVAR
  5
66F
102
{ACAD_REACTORS
330
668
102
}
330
668
100
DictionaryVariables
280
     0
  1
0
  0
DICTIONARY
  5
66A
330
664
100
AcDbDictionary
280
     1
281
     1
  3
ACAD_ROUNDTRIP_2008_TABLESTYLE_CELLSTYLEMAP
360
66B
  0
CELLSTYLEMAP
  5
66B
102
{ACAD_REACTORS
330
66A
102
}
330
66A
100
AcDbCellStyleMap
 90
        3
300
CELLSTYLE
  1
TABLEFORMAT_BEGIN
 90
        5
170
     1
 91
        0
 92
    32768
 62
   257
 93
        1
300
CONTENTFORMAT
  1
CONTENTFORMAT_BEGIN
 90
        0
 91
        0
 92
        4
 93
        0
300

 40
0.0
140
1.0
 94
        5
 62
     0
340
11
144
6.0
309
CONTENTFORMAT_END
171
     1
301
MARGIN
  1
CELLMARGIN_BEGIN
 40
1.5
 40
1.5
 40
1.5
 40
1.5
 40
1.5
 40
1.5
309
CELLMARGIN_END
 94
        6
 95
        1
302
GRIDFORMAT
  1
GRIDFORMAT_BEGIN
 90
        0
 91
        1
 62
     0
 92
       -2
340
14
 93
        0
 40
0.045
309
GRIDFORMAT_END
 95
        2
302
GRIDFORMAT
  1
GRIDFORMAT_BEGIN
 90
        0
 91
        1
 62
     0
 92
       -2
340
14
 93
        0
 40
0.045
309
GRIDFORMAT_END
 95
        4
302
GRIDFORMAT
  1
GRIDFORMAT_BEGIN
 90
        0
 91
        1
 62
     0
 92
       -2
340
14
 93
        0
 40
0.045
309
GRIDFORMAT_END
 95
        8
302
GRIDFORMAT
  1
GRIDFORMAT_BEGIN
 90
        0
 91
        1
 62
     0
 92
       -2
340
14
 93
        0
 40
0.045
309
GRIDFORMAT_END
 95
       16
302
GRIDFORMAT
  1
GRIDFORMAT_BEGIN
 90
        0
 91
        1
 62
     0
 92
       -2
340
14
 93
        0
 40
0.045
309
GRIDFORMAT_END
 95
       32
302
GRIDFORMAT
  1
GRIDFORMAT_BEGIN
 90
        0
 91
        1
 62
     0
 92
       -2
340
14
 93
        0
 40
0.045
309
GRIDFORMAT_END
309
TABLEFORMAT_END
  1
CELLSTYLE_BEGIN
 90
        1
 91
        1
300
_TITLE
309
CELLSTYLE_END
300
CELLSTYLE
  1
TABLEFORMAT_BEGIN
 90
        5
170
     1
 91
        0
 92
        0
 62
   257
 93
        1
300
CONTENTFORMAT
  1
CONTENTFORMAT_BEGIN
 90
        0
 91
        0
 92
        4
 93
        0
300

 40
0.0
140
1.0
 94
        5
 62
     0
340
11
144
4.5
309
CONTENTFORMAT_END
171
     1
301
MARGIN
  1
CELLMARGIN_BEGIN
 40
1.5
 40
1.5
 40
1.5
 40
1.5
 40
1.5
 40
1.5
309
CELLMARGIN_END
 94
        6
 95
        1
302
GRIDFORMAT
  1
GRIDFORMAT_BEGIN
 90
        0
 91
        1
 62
     0
 92
       -2
340
14
 93
        0
 40
0.045
309
GRIDFORMAT_END
 95
        2
302
GRIDFORMAT
  1
GRIDFORMAT_BEGIN
 90
        0
 91
        1
 62
     0
 92
       -2
340
14
 93
        0
 40
0.045
309
GRIDFORMAT_END
 95
        4
302
GRIDFORMAT
  1
GRIDFORMAT_BEGIN
 90
        0
 91
        1
 62
     0
 92
       -2
340
14
 93
        0
 40
0.045
309
GRIDFORMAT_END
 95
        8
302
GRIDFORMAT
  1
GRIDFORMAT_BEGIN
 90
        0
 91
        1
 62
     0
 92
       -2
340
14
 93
        0
 40
0.045
309
GRIDFORMAT_END
 95
       16
302
GRIDFORMAT
  1
GRIDFORMAT_BEGIN
 90
        0
 91
        1
 62
     0
 92
       -2
340
14
 93
        0
 40
0.045
309
GRIDFORMAT_END
 95
       32
302
GRIDFORMAT
  1
GRIDFORMAT_BEGIN
 90
        0
 91
        1
 62
     0
 92
       -2
340
14
 93
        0
 40
0.045
309
GRIDFORMAT_END
309
TABLEFORMAT_END
  1
CELLSTYLE_BEGIN
 90
        2
 91
        1
300
_HEADER
309
CELLSTYLE_END
300
CELLSTYLE
  1
TABLEFORMAT_BEGIN
 90
        5
170
     1
 91
        0
 92
        0
 62
   257
 93
        1
300
CONTENTFORMAT
  1
CONTENTFORMAT_BEGIN
 90
        0
 91
        0
 92
        4
 93
        0
300

 40
0.0
140
1.0
 94
        2
 62
     0
340
11
144
4.5
309
CONTENTFORMAT_END
171
     1
301
MARGIN
  1
CELLMARGIN_BEGIN
 40
1.5
 40
1.5
 40
1.5
 40
1.5
 40
1.5
 40
1.5
309
CELLMARGIN_END
 94
        6
 95
        1
302
GRIDFORMAT
  1
GRIDFORMAT_BEGIN
 90
        0
 91
        1
 62
     0
 92
       -2
340
14
 93
        0
 40
0.045
309
GRIDFORMAT_END
 95
        2
302
GRIDFORMAT
  1
GRIDFORMAT_BEGIN
 90
        0
 91
        1
 62
     0
 92
       -2
340
14
 93
        0
 40
0.045
309
GRIDFORMAT_END
 95
        4
302
GRIDFORMAT
  1
GRIDFORMAT_BEGIN
 90
        0
 91
        1
 62
     0
 92
       -2
340
14
 93
        0
 40
0.045
309
GRIDFORMAT_END
 95
        8
302
GRIDFORMAT
  1
GRIDFORMAT_BEGIN
 90
        0
 91
        1
 62
     0
 92
       -2
340
14
 93
        0
 40
0.045
309
GRIDFORMAT_END
 95
       16
302
GRIDFORMAT
  1
GRIDFORMAT_BEGIN
 90
        0
 91
        1
 62
     0
 92
       -2
340
14
 93
        0
 40
0.045
309
GRIDFORMAT_END
 95
       32
302
GRIDFORMAT
  1
GRIDFORMAT_BEGIN
 90
        0
 91
        1
 62
     0
 92
       -2
340
14
 93
        0
 40
0.045
309
GRIDFORMAT_END
309
TABLEFORMAT_END
  1
CELLSTYLE_BEGIN
 90
        3
 91
        2
300
_DATA
309
CELLSTYLE_END
  0
ENDSEC
  0
EOF
