  0
SECTION
  2
HEADER
  9
$ACADVER
  1
AC1027
  9
$ACADMAINTVER
 70
   105
  9
$DWGCODEPAGE
  3
ANSI_1252
  9
$REQUIREDVERSIONS
160
                 0
  9
$LASTSAVEDBY
  1
andrea.zolin
  9
$INSBASE
 10
0.0
 20
0.0
 30
0.0
  9
$EXTMIN
 10
0.0
 20
0.0
 30
0.0
  9
$EXTMAX
 10
594.0
 20
420.0
 30
0.0
  9
$LIMMIN
 10
0.0
 20
0.0
  9
$LIMMAX
 10
594.0
 20
420.0
  9
$ORTHOMODE
 70
     0
  9
$REGENMODE
 70
     1
  9
$FILLMODE
 70
     1
  9
$QTEXTMODE
 70
     0
  9
$MIRRTEXT
 70
     1
  9
$LTSCALE
 40
32.67
  9
$ATTMODE
 70
     1
  9
$TEXTSIZE
 40
0.2
  9
$TRACEWID
 40
0.05
  9
$TEXTSTYLE
  7
STANDARD
  9
$CLAYER
  8
0
  9
$CELTYPE
  6
BYLAYER
  9
$CECOLOR
 62
   256
  9
$CELTSCALE
 40
1.0
  9
$DISPSILH
 70
     0
  9
$DIMSCALE
 40
1.0
  9
$DIMASZ
 40
2.5
  9
$DIMEXO
 40
0.75
  9
$DIMDLI
 40
22.572
  9
$DIMRND
 40
0.0
  9
$DIMDLE
 40
0.0
  9
$DIMEXE
 40
0.75
  9
$DIMTP
 40
0.01
  9
$DIMTM
 40
0.01
  9
$DIMTXT
 40
3.0
  9
$DIMCEN
 40
5.346
  9
$DIMTSZ
 40
0.0
  9
$DIMTOL
 70
     1
  9
$DIMLIM
 70
     0
  9
$DIMTIH
 70
     1
  9
$DIMTOH
 70
     1
  9
$DIMSE1
 70
     0
  9
$DIMSE2
 70
     0
  9
$DIMTAD
 70
     0
  9
$DIMZIN
 70
     0
  9
$DIMBLK
  1
CLOSED
  9
$DIMASO
 70
     1
  9
$DIMSHO
 70
     1
  9
$DIMPOST
  1

  9
$DIMAPOST
  1

  9
$DIMALT
 70
     0
  9
$DIMALTD
 70
     2
  9
$DIMALTF
 40
25.4
  9
$DIMLFAC
 40
1.0
  9
$DIMTOFL
 70
     0
  9
$DIMTVP
 40
0.0
  9
$DIMTIX
 70
     0
  9
$DIMSOXD
 70
     0
  9
$DIMSAH
 70
     0
  9
$DIMBLK1
  1

  9
$DIMBLK2
  1

  9
$DIMSTYLE
  2
STANDARD
  9
$DIMCLRD
 70
     0
  9
$DIMCLRE
 70
     0
  9
$DIMCLRT
 70
     0
  9
$DIMTFAC
 40
1.0
  9
$DIMGAP
 40
0.625
  9
$DIMJUST
 70
     0
  9
$DIMSD1
 70
     0
  9
$DIMSD2
 70
     0
  9
$DIMTOLJ
 70
     1
  9
$DIMTZIN
 70
     0
  9
$DIMALTZ
 70
     0
  9
$DIMALTTZ
 70
     0
  9
$DIMUPT
 70
     0
  9
$DIMDEC
 70
     4
  9
$DIMTDEC
 70
     4
  9
$DIMALTU
 70
     2
  9
$DIMALTTD
 70
     2
  9
$DIMTXSTY
  7
STANDARD
  9
$DIMAUNIT
 70
     0
  9
$DIMADEC
 70
     0
  9
$DIMALTRND
 40
0.0
  9
$DIMAZIN
 70
     0
  9
$DIMDSEP
 70
    46
  9
$DIMATFIT
 70
     3
  9
$DIMFRAC
 70
     0
  9
$DIMLDRBLK
  1

  9
$DIMLUNIT
 70
     2
  9
$DIMLWD
 70
    -2
  9
$DIMLWE
 70
    -2
  9
$DIMTMOVE
 70
     2
  9
$DIMFXL
 40
1.0
  9
$DIMFXLON
 70
     0
  9
$DIMJOGANG
 40
0.7853981633974483
  9
$DIMTFILL
 70
     0
  9
$DIMTFILLCLR
 70
     0
  9
$DIMARCSYM
 70
     0
  9
$DIMLTYPE
  6

  9
$DIMLTEX1
  6

  9
$DIMLTEX2
  6

  9
$DIMTXTDIRECTION
 70
     0
  9
$LUNITS
 70
     2
  9
$LUPREC
 70
     4
  9
$SKETCHINC
 40
0.1
  9
$FILLETRAD
 40
0.5
  9
$AUNITS
 70
     0
  9
$AUPREC
 70
     0
  9
$MENU
  1
.
  9
$ELEVATION
 40
0.0
  9
$PELEVATION
 40
0.0
  9
$THICKNESS
 40
0.0
  9
$LIMCHECK
 70
     0
  9
$CHAMFERA
 40
0.0
  9
$CHAMFERB
 40
0.0
  9
$CHAMFERC
 40
0.0
  9
$CHAMFERD
 40
0.0
  9
$SKPOLY
 70
     0
  9
$TDCREATE
 40
2447893.041666667
  9
$TDUCREATE
 40
0.0
  9
$TDUPDATE
 40
2458466.596771377
  9
$TDUUPDATE
 40
2458466.555104711
  9
$TDINDWG
 40
0.0001901042
  9
$TDUSRTIMER
 40
0.0001901042
  9
$USRTIMER
 70
     1
  9
$ANGBASE
 50
0.0
  9
$ANGDIR
 70
     0
  9
$PDMODE
 70
     3
  9
$PDSIZE
 40
0.3125
  9
$PLINEWID
 40
0.0
  9
$SPLFRAME
 70
     0
  9
$SPLINETYPE
 70
     6
  9
$SPLINESEGS
 70
     8
  9
$HANDSEED
  5
5C9
  9
$SURFTAB1
 70
     6
  9
$SURFTAB2
 70
     6
  9
$SURFTYPE
 70
     6
  9
$SURFU
 70
     6
  9
$SURFV
 70
     6
  9
$UCSBASE
  2

  9
$UCSNAME
  2

  9
$UCSORG
 10
0.0
 20
0.0
 30
0.0
  9
$UCSXDIR
 10
1.0
 20
0.0
 30
0.0
  9
$UCSYDIR
 10
0.0
 20
1.0
 30
0.0
  9
$UCSORTHOREF
  2

  9
$UCSORTHOVIEW
 70
     0
  9
$UCSORGTOP
 10
0.0
 20
0.0
 30
0.0
  9
$UCSORGBOTTOM
 10
0.0
 20
0.0
 30
0.0
  9
$UCSORGLEFT
 10
0.0
 20
0.0
 30
0.0
  9
$UCSORGRIGHT
 10
0.0
 20
0.0
 30
0.0
  9
$UCSORGFRONT
 10
0.0
 20
0.0
 30
0.0
  9
$UCSORGBACK
 10
0.0
 20
0.0
 30
0.0
  9
$PUCSBASE
  2

  9
$PUCSNAME
  2

  9
$PUCSORG
 10
0.0
 20
0.0
 30
0.0
  9
$PUCSXDIR
 10
1.0
 20
0.0
 30
0.0
  9
$PUCSYDIR
 10
0.0
 20
1.0
 30
0.0
  9
$PUCSORTHOREF
  2

  9
$PUCSORTHOVIEW
 70
     0
  9
$PUCSORGTOP
 10
0.0
 20
0.0
 30
0.0
  9
$PUCSORGBOTTOM
 10
0.0
 20
0.0
 30
0.0
  9
$PUCSORGLEFT
 10
0.0
 20
0.0
 30
0.0
  9
$PUCSORGRIGHT
 10
0.0
 20
0.0
 30
0.0
  9
$PUCSORGFRONT
 10
0.0
 20
0.0
 30
0.0
  9
$PUCSORGBACK
 10
0.0
 20
0.0
 30
0.0
  9
$USERI1
 70
     0
  9
$USERI2
 70
     0
  9
$USERI3
 70
     0
  9
$USERI4
 70
     0
  9
$USERI5
 70
     0
  9
$USERR1
 40
0.0
  9
$USERR2
 40
0.0
  9
$USERR3
 40
0.0
  9
$USERR4
 40
0.0
  9
$USERR5
 40
0.0
  9
$WORLDVIEW
 70
     1
  9
$SHADEDGE
 70
     3
  9
$SHADEDIF
 70
    70
  9
$TILEMODE
 70
     0
  9
$MAXACTVP
 70
    64
  9
$PINSBASE
 10
0.0
 20
0.0
 30
0.0
  9
$PLIMCHECK
 70
     0
  9
$PEXTMIN
 10
0.0
 20
0.0
 30
0.0
  9
$PEXTMAX
 10
594.0
 20
420.0
 30
0.0
  9
$PLIMMIN
 10
-12.2568093385214
 20
-32.68482490272373
  9
$PLIMMAX
 10
674.1245136186769
 20
452.6848249027237
  9
$UNITMODE
 70
     0
  9
$VISRETAIN
 70
     1
  9
$PLINEGEN
 70
     0
  9
$PSLTSCALE
 70
     1
  9
$TREEDEPTH
 70
  3020
  9
$CMLSTYLE
  2
STANDARD
  9
$CMLJUST
 70
     0
  9
$CMLSCALE
 40
1.0
  9
$PROXYGRAPHICS
 70
     1
  9
$MEASUREMENT
 70
     1
  9
$CELWEIGHT
370
    -1
  9
$ENDCAPS
280
     0
  9
$JOINSTYLE
280
     0
  9
$LWDISPLAY
290
     0
  9
$INSUNITS
 70
     0
  9
$HYPERLINKBASE
  1

  9
$STYLESHEET
  1

  9
$XEDIT
290
     1
  9
$CEPSNTYPE
380
     0
  9
$PSTYLEMODE
290
     1
  9
$FINGERPRINTGUID
  2
{790AA640-B1E9-458C-8B9B-B6311721067F}
  9
$VERSIONGUID
  2
{FAEB1C32-E019-11D5-929B-00C0DF256EC4}
  9
$EXTNAMES
290
     1
  9
$PSVPSCALE
 40
0.0
  9
$OLESTARTUP
290
     0
  9
$SORTENTS
280
   127
  9
$INDEXCTL
280
     0
  9
$HIDETEXT
280
     1
  9
$XCLIPFRAME
280
     2
  9
$HALOGAP
280
     0
  9
$OBSCOLOR
 70
   257
  9
$OBSLTYPE
280
     0
  9
$INTERSECTIONDISPLAY
280
     0
  9
$INTERSECTIONCOLOR
 70
   257
  9
$DIMASSOC
280
     2
  9
$PROJECTNAME
  1

  9
$CAMERADISPLAY
290
     0
  9
$LENSLENGTH
 40
50.0
  9
$CAMERAHEIGHT
 40
0.0
  9
$STEPSPERSEC
 40
2.0
  9
$STEPSIZE
 40
6.0
  9
$3DDWFPREC
 40
2.0
  9
$PSOLWIDTH
 40
0.25
  9
$PSOLHEIGHT
 40
4.0
  9
$LOFTANG1
 40
1.570796326794897
  9
$LOFTANG2
 40
1.570796326794897
  9
$LOFTMAG1
 40
0.0
  9
$LOFTMAG2
 40
0.0
  9
$LOFTPARAM
 70
     7
  9
$LOFTNORMALS
280
     1
  9
$LATITUDE
 40
37.795
  9
$LONGITUDE
 40
-122.394
  9
$NORTHDIRECTION
 40
0.0
  9
$TIMEZONE
 70
 -8000
  9
$LIGHTGLYPHDISPLAY
280
     1
  9
$TILEMODELIGHTSYNCH
280
     1
  9
$SOLIDHIST
280
     0
  9
$SHOWHIST
280
     1
  9
$DWFFRAME
280
     2
  9
$DGNFRAME
280
     2
  9
$REALWORLDSCALE
290
     1
  9
$INTERFERECOLOR
 62
   256
  9
$CSHADOW
280
     0
  9
$SHADOWPLANELOCATION
 40
0.0
  0
ENDSEC
  0
SECTION
  2
CLASSES
  0
CLASS
  1
ACDBDICTIONARYWDFLT
  2
AcDbDictionaryWithDefault
  3
ObjectDBX Classes
 90
        0
 91
        4
280
     0
281
     0
  0
CLASS
  1
SCALE
  2
AcDbScale
  3
ObjectDBX Classes
 90
     1153
 91
        4
280
     0
281
     0
  0
CLASS
  1
VISUALSTYLE
  2
AcDbVisualStyle
  3
ObjectDBX Classes
 90
     4095
 91
        4
280
     0
281
     0
  0
CLASS
  1
MATERIAL
  2
AcDbMaterial
  3
ObjectDBX Classes
 90
     1153
 91
        4
280
     0
281
     0
  0
CLASS
  1
TABLESTYLE
  2
AcDbTableStyle
  3
ObjectDBX Classes
 90
     4095
 91
        4
280
     0
281
     0
  0
CLASS
  1
MLEADERSTYLE
  2
AcDbMLeaderStyle
  3
ACDB_MLEADERSTYLE_CLASS
 90
     4095
 91
        4
280
     0
281
     0
  0
CLASS
  1
DICTIONARYVAR
  2
AcDbDictionaryVar
  3
ObjectDBX Classes
 90
        0
 91
        4
280
     0
281
     0
  0
CLASS
  1
CELLSTYLEMAP
  2
AcDbCellStyleMap
  3
ObjectDBX Classes
 90
     1152
 91
        4
280
     0
281
     0
  0
ENDSEC
  0
SECTION
  2
TABLES
  0
TABLE
  2
VPORT
  5
8
330
0
100
AcDbSymbolTable
 70
     1
  0
VPORT
  5
1F4
330
8
100
AcDbSymbolTableRecord
100
AcDbViewportTableRecord
  2
*ACTIVE
 70
     0
 10
0.0
 20
0.0
 11
1.0
 21
1.0
 12
297.0
 22
210.0
 13
0.0
 23
0.0
 14
1.0
 24
1.0
 15
0.0
 25
0.0
 16
0.0
 26
0.0
 36
1.0
 17
0.0
 27
0.0
 37
0.0
 40
420.0
 41
1.4142857143
 42
50.0
 43
0.0
 44
0.0
 50
0.0
 51
0.0
 71
     0
 72
   100
 73
     1
 74
     1
 75
     0
 76
     0
 77
     0
 78
     0
281
     0
 65
     1
110
0.0
120
0.0
130
0.0
111
1.0
121
0.0
131
0.0
112
0.0
122
1.0
132
0.0
 79
     0
146
0.0
348
5A2
 60
     3
 61
     5
292
     1
282
     1
141
0.0
142
0.0
 63
   256
  0
ENDTAB
  0
TABLE
  2
LTYPE
  5
5
330
0
100
AcDbSymbolTable
 70
     6
  0
LTYPE
  5
14
330
5
100
AcDbSymbolTableRecord
100
AcDbLinetypeTableRecord
  2
BYBLOCK
 70
     0
  3

 72
    65
 73
     0
 40
0.0
  0
LTYPE
  5
15
330
5
100
AcDbSymbolTableRecord
100
AcDbLinetypeTableRecord
  2
BYLAYER
 70
     0
  3

 72
    65
 73
     0
 40
0.0
  0
LTYPE
  5
16
330
5
100
AcDbSymbolTableRecord
100
AcDbLinetypeTableRecord
  2
CONTINUOUS
 70
     0
  3
Solid line
 72
    65
 73
     0
 40
0.0
  0
LTYPE
  5
1F5
330
5
100
AcDbSymbolTableRecord
100
AcDbLinetypeTableRecord
  2
CENTER
 70
     0
  3
____ _ ____ _ ____ _ ____ _ ____ _ ____ _ ____
 72
    65
 73
     4
 40
0.6
 49
0.375
 74
     0
 49
-0.075
 74
     0
 49
0.075
 74
     0
 49
-0.075
 74
     0
  0
LTYPE
  5
1F6
330
5
100
AcDbSymbolTableRecord
100
AcDbLinetypeTableRecord
  2
HIDDEN
 70
     0
  3
- - - - - - - - - - - - - - - - - - - -
 72
    65
 73
     2
 40
0.2
 49
0.1
 74
     0
 49
-0.1
 74
     0
  0
LTYPE
  5
1F7
330
5
100
AcDbSymbolTableRecord
100
AcDbLinetypeTableRecord
  2
PHANTOM
 70
     0
  3
_____ _ _ _____ _ _ _____ _ _ _____
 72
    65
 73
     6
 40
0.8
 49
0.45
 74
     0
 49
-0.05
 74
     0
 49
0.1
 74
     0
 49
-0.05
 74
     0
 49
0.1
 74
     0
 49
-0.05
 74
     0
  0
LTYPE
  5
1F8
330
5
100
AcDbSymbolTableRecord
100
AcDbLinetypeTableRecord
  2
DOT
 70
     0
  3
. . . . . . . . . . . . . . . . . . . .
 72
    65
 73
     2
 40
0.2
 49
0.1
 74
     0
 49
-0.1
 74
     0
  0
LTYPE
  5
1F9
330
5
100
AcDbSymbolTableRecord
100
AcDbLinetypeTableRecord
  2
DASHED
 70
     0
  3
- - - - - - - - - - - - - - - - - - - -
 72
    65
 73
     2
 40
0.2
 49
0.1
 74
     0
 49
-0.1
 74
     0
  0
ENDTAB
  0
TABLE
  2
LAYER
  5
2
330
0
100
AcDbSymbolTable
 70
    35
  0
LAYER
  5
10
330
2
100
AcDbSymbolTableRecord
100
AcDbLayerTableRecord
  2
0
 70
     0
 62
     7
  6
CONTINUOUS
370
    -3
390
577
347
5B9
348
0
  0
LAYER
  5
1FA
330
2
100
AcDbSymbolTableRecord
100
AcDbLayerTableRecord
  2
DEFAULT_1
 70
     0
 62
     7
  6
CENTER
370
    -3
390
577
347
5B9
348
0
  0
LAYER
  5
1FB
330
2
100
AcDbSymbolTableRecord
100
AcDbLayerTableRecord
  2
DEFAULT_2
 70
     0
 62
     8
  6
HIDDEN
370
    -3
390
577
347
5B9
348
0
  0
LAYER
  5
1FC
330
2
100
AcDbSymbolTableRecord
100
AcDbLayerTableRecord
  2
DEFAULT_3
 70
     0
 62
     7
  6
PHANTOM
370
    -3
390
577
347
5B9
348
0
  0
LAYER
  5
1FD
330
2
100
AcDbSymbolTableRecord
100
AcDbLayerTableRecord
  2
01_ALL_DTM_PLN
 70
     0
 62
     7
  6
CONTINUOUS
370
    -3
390
577
347
5B9
348
0
  0
LAYER
  5
1FE
330
2
100
AcDbSymbolTableRecord
100
AcDbLayerTableRecord
  2
01__ASM_ALL_DTM_PLN
 70
     0
 62
     7
  6
CONTINUOUS
370
    -3
390
577
347
5B9
348
0
  0
LAYER
  5
1FF
330
2
100
AcDbSymbolTableRecord
100
AcDbLayerTableRecord
  2
01__ASM_DEF_DTM_PLN
 70
     0
 62
     7
  6
CONTINUOUS
370
    -3
390
577
347
5B9
348
0
  0
LAYER
  5
200
330
2
100
AcDbSymbolTableRecord
100
AcDbLayerTableRecord
  2
01___PRT_ALL_DTM_PLN
 70
     0
 62
     7
  6
CONTINUOUS
370
    -3
390
577
347
5B9
348
0
  0
LAYER
  5
201
330
2
100
AcDbSymbolTableRecord
100
AcDbLayerTableRecord
  2
01___PRT_DEF_DTM_PLN
 70
     0
 62
     7
  6
CONTINUOUS
370
    -3
390
577
347
5B9
348
0
  0
LAYER
  5
202
330
2
100
AcDbSymbolTableRecord
100
AcDbLayerTableRecord
  2
02_ALL_AXES
 70
     0
 62
     7
  6
CONTINUOUS
370
    -3
390
577
347
5B9
348
0
  0
LAYER
  5
203
330
2
100
AcDbSymbolTableRecord
100
AcDbLayerTableRecord
  2
02__ASM_ALL_AXES
 70
     0
 62
     7
  6
CONTINUOUS
370
    -3
390
577
347
5B9
348
0
  0
LAYER
  5
204
330
2
100
AcDbSymbolTableRecord
100
AcDbLayerTableRecord
  2
02___PRT_ALL_AXES
 70
     0
 62
     7
  6
CONTINUOUS
370
    -3
390
577
347
5B9
348
0
  0
LAYER
  5
205
330
2
100
AcDbSymbolTableRecord
100
AcDbLayerTableRecord
  2
03_ALL_CURVES
 70
     0
 62
     7
  6
CONTINUOUS
370
    -3
390
577
347
5B9
348
0
  0
LAYER
  5
206
330
2
100
AcDbSymbolTableRecord
100
AcDbLayerTableRecord
  2
03__ASM_ALL_CURVES
 70
     0
 62
     7
  6
CONTINUOUS
370
    -3
390
577
347
5B9
348
0
  0
LAYER
  5
207
330
2
100
AcDbSymbolTableRecord
100
AcDbLayerTableRecord
  2
03___PRT_ALL_CURVES
 70
     0
 62
     7
  6
CONTINUOUS
370
    -3
390
577
347
5B9
348
0
  0
LAYER
  5
208
330
2
100
AcDbSymbolTableRecord
100
AcDbLayerTableRecord
  2
04_ALL_DTM_PNT
 70
     0
 62
     7
  6
CONTINUOUS
370
    -3
390
577
347
5B9
348
0
  0
LAYER
  5
209
330
2
100
AcDbSymbolTableRecord
100
AcDbLayerTableRecord
  2
04__ASM_ALL_DTM_PNT
 70
     0
 62
     7
  6
CONTINUOUS
370
    -3
390
577
347
5B9
348
0
  0
LAYER
  5
20A
330
2
100
AcDbSymbolTableRecord
100
AcDbLayerTableRecord
  2
04___PRT_ALL_DTM_PNT
 70
     0
 62
     7
  6
CONTINUOUS
370
    -3
390
577
347
5B9
348
0
  0
LAYER
  5
20B
330
2
100
AcDbSymbolTableRecord
100
AcDbLayerTableRecord
  2
05_ALL_DTM_CSYS
 70
     0
 62
     7
  6
CONTINUOUS
370
    -3
390
577
347
5B9
348
0
  0
LAYER
  5
20C
330
2
100
AcDbSymbolTableRecord
100
AcDbLayerTableRecord
  2
05__ASM_ALL_DTM_CSYS
 70
     0
 62
     7
  6
CONTINUOUS
370
    -3
390
577
347
5B9
348
0
  0
LAYER
  5
20D
330
2
100
AcDbSymbolTableRecord
100
AcDbLayerTableRecord
  2
05__ASM_DEF_DTM_CSYS
 70
     0
 62
     7
  6
CONTINUOUS
370
    -3
390
577
347
5B9
348
0
  0
LAYER
  5
20E
330
2
100
AcDbSymbolTableRecord
100
AcDbLayerTableRecord
  2
05___PRT_ALL_DTM_CSYS
 70
     0
 62
     7
  6
CONTINUOUS
370
    -3
390
577
347
5B9
348
0
  0
LAYER
  5
20F
330
2
100
AcDbSymbolTableRecord
100
AcDbLayerTableRecord
  2
05___PRT_DEF_DTM_CSYS
 70
     0
 62
     7
  6
CONTINUOUS
370
    -3
390
577
347
5B9
348
0
  0
LAYER
  5
210
330
2
100
AcDbSymbolTableRecord
100
AcDbLayerTableRecord
  2
06_ALL_SURFS
 70
     0
 62
     7
  6
CONTINUOUS
370
    -3
390
577
347
5B9
348
0
  0
LAYER
  5
211
330
2
100
AcDbSymbolTableRecord
100
AcDbLayerTableRecord
  2
06__ASM_ALL_SURFS
 70
     0
 62
     7
  6
CONTINUOUS
370
    -3
390
577
347
5B9
348
0
  0
LAYER
  5
212
330
2
100
AcDbSymbolTableRecord
100
AcDbLayerTableRecord
  2
06___PRT_ALL_SURFS
 70
     0
 62
     7
  6
CONTINUOUS
370
    -3
390
577
347
5B9
348
0
  0
LAYER
  5
213
330
2
100
AcDbSymbolTableRecord
100
AcDbLayerTableRecord
  2
07__ASM_ALL_SKELETONS
 70
     0
 62
     7
  6
CONTINUOUS
370
    -3
390
577
347
5B9
348
0
  0
LAYER
  5
214
330
2
100
AcDbSymbolTableRecord
100
AcDbLayerTableRecord
  2
1_ALL_PLANES
 70
     0
 62
     7
  6
CONTINUOUS
370
    -3
390
577
347
5B9
348
0
  0
LAYER
  5
215
330
2
100
AcDbSymbolTableRecord
100
AcDbLayerTableRecord
  2
2_ALL_CSYS
 70
     0
 62
     7
  6
CONTINUOUS
370
    -3
390
577
347
5B9
348
0
  0
LAYER
  5
216
330
2
100
AcDbSymbolTableRecord
100
AcDbLayerTableRecord
  2
3_ALL_AXES
 70
     0
 62
     7
  6
CONTINUOUS
370
    -3
390
577
347
5B9
348
0
  0
LAYER
  5
217
330
2
100
AcDbSymbolTableRecord
100
AcDbLayerTableRecord
  2
4_ALL_POINTS
 70
     0
 62
     7
  6
CONTINUOUS
370
    -3
390
577
347
5B9
348
0
  0
LAYER
  5
218
330
2
100
AcDbSymbolTableRecord
100
AcDbLayerTableRecord
  2
5_ALL_CURVES
 70
     0
 62
     7
  6
CONTINUOUS
370
    -3
390
577
347
5B9
348
0
  0
LAYER
  5
219
330
2
100
AcDbSymbolTableRecord
100
AcDbLayerTableRecord
  2
6_ALL_SURFS
 70
     0
 62
     7
  6
CONTINUOUS
370
    -3
390
577
347
5B9
348
0
  0
LAYER
  5
21A
330
2
100
AcDbSymbolTableRecord
100
AcDbLayerTableRecord
  2
7_ALL_FEATURES
 70
     0
 62
     7
  6
CONTINUOUS
370
    -3
390
577
347
5B9
348
0
  0
LAYER
  5
21B
330
2
100
AcDbSymbolTableRecord
100
AcDbLayerTableRecord
  2
9_SOLID
 70
     0
 62
     7
  6
CONTINUOUS
370
    -3
390
577
347
5B9
348
0
  0
ENDTAB
  0
TABLE
  2
STYLE
  5
3
330
0
100
AcDbSymbolTable
 70
     4
  0
STYLE
  5
11
330
3
100
AcDbSymbolTableRecord
100
AcDbTextStyleTableRecord
  2
STANDARD
 70
     0
 40
0.0
 41
1.0
 50
0.0
 71
     0
 42
0.2
  3
arial.ttf
  4

  0
STYLE
  5
21C
330
3
100
AcDbSymbolTableRecord
100
AcDbTextStyleTableRecord
  2
TEXTSTYLE_1
 70
     0
 40
0.0
 41
0.8
 50
0.0
 71
     0
 42
0.2
  3
gdt
  4

  0
STYLE
  5
21D
330
3
100
AcDbSymbolTableRecord
100
AcDbTextStyleTableRecord
  2
TEXTSTYLE_2
 70
     0
 40
0.0
 41
2.0
 50
0.0
 71
     0
 42
0.2
  3
txt
  4

  0
STYLE
  5
21E
330
3
100
AcDbSymbolTableRecord
100
AcDbTextStyleTableRecord
  2
TEXTSTYLE_3
 70
     0
 40
0.0
 41
0.85
 50
0.0
 71
     0
 42
0.2
  3
txt
  4

  0
ENDTAB
  0
TABLE
  2
VIEW
  5
6
330
0
100
AcDbSymbolTable
 70
     0
  0
ENDTAB
  0
TABLE
  2
UCS
  5
7
330
0
100
AcDbSymbolTable
 70
     0
  0
ENDTAB
  0
TABLE
  2
APPID
  5
9
330
0
100
AcDbSymbolTable
 70
     1
  0
APPID
  5
21F
330
9
100
AcDbSymbolTableRecord
100
AcDbRegAppTableRecord
  2
ACAD
 70
     0
  0
ENDTAB
  0
TABLE
  2
DIMSTYLE
  5
A
330
0
100
AcDbSymbolTable
 70
     4
100
AcDbDimStyleTable
  0
DIMSTYLE
105
227
330
A
100
AcDbSymbolTableRecord
100
AcDbDimStyleTableRecord
  2
STANDARD
 70
     0
 41
2.5
 42
0.75
 44
0.75
 47
0.01
 48
0.01
 71
     1
 73
     0
 74
     0
 77
     1
 78
     8
 79
     2
140
3.0
147
0.625
171
     1
178
     0
179
     2
271
     2
272
     2
284
     8
340
11
341
220
342
220
343
220
344
220
  0
DIMSTYLE
105
228
330
A
100
AcDbSymbolTableRecord
100
AcDbDimStyleTableRecord
  2
DIMSTYLE_1
 70
     0
 41
2.5
 42
0.75
 44
0.75
 47
0.3
 48
0.3
 73
     0
 74
     0
 77
     1
 78
     8
 79
     2
140
3.0
147
0.75
171
     1
178
     0
179
     2
271
     2
272
     2
284
     8
340
11
341
220
342
220
343
220
344
220
  0
DIMSTYLE
105
229
330
A
100
AcDbSymbolTableRecord
100
AcDbDimStyleTableRecord
  2
DIMSTYLE_2
 70
     0
 41
2.5
 42
0.75
 44
0.75
 47
0.5
 48
0.5
 73
     0
 74
     0
 77
     1
 78
     8
 79
     2
140
3.0
147
0.75
171
     1
178
     0
179
     2
271
     2
272
     2
284
     8
340
11
341
220
342
220
343
220
344
220
  0
DIMSTYLE
105
22A
330
A
100
AcDbSymbolTableRecord
100
AcDbDimStyleTableRecord
  2
DIMSTYLE_3
 70
     0
 41
2.5
 42
0.75
 44
0.75
 47
0.2
 48
0.2
 73
     0
 74
     0
 77
     1
 78
     8
 79
     2
140
3.0
147
0.75
171
     1
178
     0
179
     2
271
     2
272
     2
284
     8
340
11
341
220
342
220
343
220
344
220
  0
ENDTAB
  0
TABLE
  2
BLOCK_RECORD
  5
1
330
0
100
AcDbSymbolTable
 70
     7
  0
BLOCK_RECORD
  5
1F
330
1
100
AcDbSymbolTableRecord
100
AcDbBlockTableRecord
  2
*MODEL_SPACE
340
59B
 70
     0
280
     1
281
     0
  0
BLOCK_RECORD
  5
1B
330
1
100
AcDbSymbolTableRecord
100
AcDbBlockTableRecord
  2
*PAPER_SPACE
340
59C
 70
     0
280
     1
281
     0
  0
BLOCK_RECORD
  5
220
330
1
100
AcDbSymbolTableRecord
100
AcDbBlockTableRecord
  2
_CLOSED
340
0
102
{BLKREFS
331
27D
331
27E
331
286
331
287
331
28F
331
290
331
298
331
299
102
}
 70
     0
280
     1
281
     0
  0
BLOCK_RECORD
  5
221
330
1
100
AcDbSymbolTableRecord
100
AcDbBlockTableRecord
  2
*D1
340
0
 70
     0
280
     1
281
     0
  0
BLOCK_RECORD
  5
222
330
1
100
AcDbSymbolTableRecord
100
AcDbBlockTableRecord
  2
*D2
340
0
 70
     0
280
     1
281
     0
  0
BLOCK_RECORD
  5
223
330
1
100
AcDbSymbolTableRecord
100
AcDbBlockTableRecord
  2
*D3
340
0
 70
     0
280
     1
281
     0
  0
BLOCK_RECORD
  5
224
330
1
100
AcDbSymbolTableRecord
100
AcDbBlockTableRecord
  2
*D4
340
0
 70
     0
280
     1
281
     0
  0
BLOCK_RECORD
  5
225
330
1
100
AcDbSymbolTableRecord
100
AcDbBlockTableRecord
  2
LOGO2_BL1
340
0
102
{BLKREFS
331
55F
102
}
 70
     0
280
     1
281
     0
  0
BLOCK_RECORD
  5
226
330
1
100
AcDbSymbolTableRecord
100
AcDbBlockTableRecord
  2
PROIEZIONE_EU_BL0
340
0
102
{BLKREFS
331
55C
102
}
 70
     0
280
     1
281
     0
  0
ENDTAB
  0
ENDSEC
  0
SECTION
  2
BLOCKS
  0
BLOCK
  5
20
330
1F
100
AcDbEntity
  8
0
100
AcDbBlockBegin
  2
*MODEL_SPACE
 70
     0
 10
0.0
 20
0.0
 30
0.0
  3
*MODEL_SPACE
  1

  0
ENDBLK
  5
21
330
1F
100
AcDbEntity
  8
0
100
AcDbBlockEnd
  0
BLOCK
  5
1C
330
1B
100
AcDbEntity
 67
     1
  8
0
100
AcDbBlockBegin
  2
*PAPER_SPACE
 70
     0
 10
0.0
 20
0.0
 30
0.0
  3
*PAPER_SPACE
  1

  0
ENDBLK
  5
1D
330
1B
100
AcDbEntity
 67
     1
  8
0
100
AcDbBlockEnd
  0
BLOCK
  5
271
330
220
100
AcDbEntity
  8
0
100
AcDbBlockBegin
  2
_CLOSED
 70
     0
 10
0.0
 20
0.0
 30
0.0
  3
_CLOSED
  1

  0
LINE
  5
272
330
220
100
AcDbEntity
  8
0
  6
ByBlock
 62
     0
100
AcDbLine
 10
0.0
 20
0.0
 30
0.0
 11
-1.0
 21
0.2
 31
0.0
  0
LINE
  5
273
330
220
100
AcDbEntity
  8
0
  6
ByBlock
 62
     0
100
AcDbLine
 10
-1.0
 20
0.2
 30
0.0
 11
-1.0
 21
-0.2
 31
0.0
  0
LINE
  5
274
330
220
100
AcDbEntity
  8
0
  6
ByBlock
 62
     0
100
AcDbLine
 10
-1.0
 20
-0.2
 30
0.0
 11
0.0
 21
0.0
 31
0.0
  0
LINE
  5
275
330
220
100
AcDbEntity
  8
0
  6
ByBlock
 62
     0
100
AcDbLine
 10
-1.0
 20
0.0
 30
0.0
 11
0.0
 21
0.0
 31
0.0
  0
ENDBLK
  5
276
330
220
100
AcDbEntity
  8
0
  6
ByBlock
 62
     0
100
AcDbBlockEnd
  0
BLOCK
  5
277
330
221
100
AcDbEntity
  8
0
100
AcDbBlockBegin
  2
*D1
 70
     1
 10
0.0
 20
0.0
 30
0.0
  3
*D1
  1

  0
MTEXT
  5
278
330
221
100
AcDbEntity
  8
0
  6
Continuous
 62
     2
100
AcDbMText
 10
376.724872837
 20
277.3984454155
 30
0.0
 40
3.0
 41
8.1524163569
 46
0.0
 71
     2
 72
     1
  1
90,2
 11
0.0
 21
1.0
 31
0.0
 73
     1
 44
1.0
  0
LINE
  5
279
330
221
100
AcDbEntity
  8
0
  6
Continuous
 62
     2
100
AcDbLine
 10
385.3310874316
 20
232.2984454155
 30
0.0
 11
379.724872837
 21
232.2984454155
 31
0.0
  0
LINE
  5
27A
330
221
100
AcDbEntity
  8
0
  6
Continuous
 62
     2
100
AcDbLine
 10
385.1163914856
 20
322.4984454155
 30
0.0
 11
379.724872837
 21
322.4984454155
 31
0.0
  0
LINE
  5
27B
330
221
100
AcDbEntity
  8
0
  6
Continuous
 62
     2
100
AcDbLine
 10
380.474872837
 20
232.2984454155
 30
0.0
 11
380.474872837
 21
277.3984454155
 31
0.0
  0
LINE
  5
27C
330
221
100
AcDbEntity
  8
0
  6
Continuous
 62
     2
100
AcDbLine
 10
380.474872837
 20
322.4984454155
 30
0.0
 11
380.474872837
 21
277.3984454155
 31
0.0
  0
INSERT
  5
27D
330
221
100
AcDbEntity
  8
0
  6
Continuous
 62
     2
100
AcDbBlockReference
  2
_CLOSED
 10
380.474872837
 20
232.2984454155
 30
0.0
 41
2.5
 42
2.5
 43
2.5
 50
270.0
  0
INSERT
  5
27E
330
221
100
AcDbEntity
  8
0
  6
Continuous
 62
     2
100
AcDbBlockReference
  2
_CLOSED
 10
380.474872837
 20
322.4984454155
 30
0.0
 41
2.5
 42
2.5
 43
2.5
 50
90.0
  0
ENDBLK
  5
27F
330
221
100
AcDbEntity
  8
0
  6
ByBlock
 62
     0
100
AcDbBlockEnd
  0
BLOCK
  5
280
330
222
100
AcDbEntity
  8
0
100
AcDbBlockBegin
  2
*D2
 70
     1
 10
0.0
 20
0.0
 30
0.0
  3
*D2
  1

  0
MTEXT
  5
281
330
222
100
AcDbEntity
  8
0
  6
Continuous
 62
     2
100
AcDbMText
 10
170.8712056748
 20
346.2443068682
 30
0.0
 40
3.0
 41
10.4832713755
 46
0.0
 71
     2
 72
     1
  1
262,5
 73
     1
 44
1.0
  0
LINE
  5
282
330
222
100
AcDbEntity
  8
0
  6
Continuous
 62
     2
100
AcDbLine
 10
302.1212056748
 20
333.7624350355
 30
0.0
 11
302.1212056748
 21
343.2443068682
 31
0.0
  0
LINE
  5
283
330
222
100
AcDbEntity
  8
0
  6
Continuous
 62
     2
100
AcDbLine
 10
39.6212056748
 20
333.7624350355
 30
0.0
 11
39.6212056748
 21
343.2443068682
 31
0.0
  0
LINE
  5
284
330
222
100
AcDbEntity
  8
0
  6
Continuous
 62
     2
100
AcDbLine
 10
302.1212056748
 20
342.4943068682
 30
0.0
 11
170.8712056748
 21
342.4943068682
 31
0.0
  0
LINE
  5
285
330
222
100
AcDbEntity
  8
0
  6
Continuous
 62
     2
100
AcDbLine
 10
39.6212056748
 20
342.4943068682
 30
0.0
 11
170.8712056748
 21
342.4943068682
 31
0.0
  0
INSERT
  5
286
330
222
100
AcDbEntity
  8
0
  6
Continuous
 62
     2
100
AcDbBlockReference
  2
_CLOSED
 10
302.1212056748
 20
342.4943068682
 30
0.0
 41
2.5
 42
2.5
 43
2.5
  0
INSERT
  5
287
330
222
100
AcDbEntity
  8
0
  6
Continuous
 62
     2
100
AcDbBlockReference
  2
_CLOSED
 10
39.6212056748
 20
342.4943068682
 30
0.0
 41
2.5
 42
2.5
 43
2.5
 50
180.0
  0
ENDBLK
  5
288
330
222
100
AcDbEntity
  8
0
  6
ByBlock
 62
     0
100
AcDbBlockEnd
  0
BLOCK
  5
289
330
223
100
AcDbEntity
  8
0
100
AcDbBlockBegin
  2
*D3
 70
     1
 10
0.0
 20
0.0
 30
0.0
  3
*D3
  1

  0
MTEXT
  5
28A
330
223
100
AcDbEntity
  8
0
  6
Continuous
 62
     2
100
AcDbMText
 10
424.8513577019
 20
346.2443068682
 30
0.0
 40
3.0
 41
8.1524163569
 46
0.0
 71
     2
 72
     1
  1
23,1
 73
     1
 44
1.0
  0
LINE
  5
28B
330
223
100
AcDbEntity
  8
0
  6
Continuous
 62
     2
100
AcDbLine
 10
413.3013577019
 20
333.7624350355
 30
0.0
 11
413.3013577019
 21
343.2443068682
 31
0.0
  0
LINE
  5
28C
330
223
100
AcDbEntity
  8
0
  6
Continuous
 62
     2
100
AcDbLine
 10
436.4013577019
 20
333.5233609561
 30
0.0
 11
436.4013577019
 21
343.2443068682
 31
0.0
  0
LINE
  5
28D
330
223
100
AcDbEntity
  8
0
  6
Continuous
 62
     2
100
AcDbLine
 10
413.3013577019
 20
342.4943068682
 30
0.0
 11
424.8513577019
 21
342.4943068682
 31
0.0
  0
LINE
  5
28E
330
223
100
AcDbEntity
  8
0
  6
Continuous
 62
     2
100
AcDbLine
 10
436.4013577019
 20
342.4943068682
 30
0.0
 11
424.8513577019
 21
342.4943068682
 31
0.0
  0
INSERT
  5
28F
330
223
100
AcDbEntity
  8
0
  6
Continuous
 62
     2
100
AcDbBlockReference
  2
_CLOSED
 10
413.3013577019
 20
342.4943068682
 30
0.0
 41
2.5
 42
2.5
 43
2.5
 50
180.0
  0
INSERT
  5
290
330
223
100
AcDbEntity
  8
0
  6
Continuous
 62
     2
100
AcDbBlockReference
  2
_CLOSED
 10
436.4013577019
 20
342.4943068682
 30
0.0
 41
2.5
 42
2.5
 43
2.5
  0
ENDBLK
  5
291
330
223
100
AcDbEntity
  8
0
  6
ByBlock
 62
     0
100
AcDbBlockEnd
  0
BLOCK
  5
292
330
224
100
AcDbEntity
  8
0
100
AcDbBlockBegin
  2
*D4
 70
     1
 10
0.0
 20
0.0
 30
0.0
  3
*D4
  1

  0
MTEXT
  5
293
330
224
100
AcDbEntity
  8
0
  6
Continuous
 62
     2
100
AcDbMText
 10
310.3755083944
 20
158.6021246807
 30
0.0
 40
3.0
 41
4.6617100372
 46
0.0
 71
     2
 72
     1
  1
72
 11
0.0
 21
1.0
 31
0.0
 73
     1
 44
1.0
  0
LINE
  5
294
330
224
100
AcDbEntity
  8
0
  6
Continuous
 62
     2
100
AcDbLine
 10
291.8154624316
 20
194.6021246807
 30
0.0
 11
314.8755083944
 21
194.6021246807
 31
0.0
  0
LINE
  5
295
330
224
100
AcDbEntity
  8
0
  6
Continuous
 62
     2
100
AcDbLine
 10
290.6182495937
 20
122.6021246807
 30
0.0
 11
314.8755083944
 21
122.6021246807
 31
0.0
  0
LINE
  5
296
330
224
100
AcDbEntity
  8
0
  6
Continuous
 62
     2
100
AcDbLine
 10
314.1255083944
 20
194.6021246807
 30
0.0
 11
314.1255083944
 21
158.6021246807
 31
0.0
  0
LINE
  5
297
330
224
100
AcDbEntity
  8
0
  6
Continuous
 62
     2
100
AcDbLine
 10
314.1255083944
 20
122.6021246807
 30
0.0
 11
314.1255083944
 21
158.6021246807
 31
0.0
  0
INSERT
  5
298
330
224
100
AcDbEntity
  8
0
  6
Continuous
 62
     2
100
AcDbBlockReference
  2
_CLOSED
 10
314.1255083944
 20
194.6021246807
 30
0.0
 41
2.5
 42
2.5
 43
2.5
 50
90.0
  0
INSERT
  5
299
330
224
100
AcDbEntity
  8
0
  6
Continuous
 62
     2
100
AcDbBlockReference
  2
_CLOSED
 10
314.1255083944
 20
122.6021246807
 30
0.0
 41
2.5
 42
2.5
 43
2.5
 50
270.0
  0
ENDBLK
  5
29A
330
224
100
AcDbEntity
  8
0
  6
ByBlock
 62
     0
100
AcDbBlockEnd
  0
BLOCK
  5
22B
330
225
100
AcDbEntity
  8
0
100
AcDbBlockBegin
  2
LOGO2_BL1
 70
     0
 10
464.0756908615
 20
40.519974799
 30
0.0
  3
LOGO2_BL1
  1

  0
LINE
  5
22C
330
225
100
AcDbEntity
  8
0
  6
Continuous
 62
     7
100
AcDbLine
 10
455.8186160897
 20
43.7154661378
 30
0.0
 11
454.5142751603
 21
43.7154661378
 31
0.0
  0
LINE
  5
22D
330
225
100
AcDbEntity
  8
0
  6
Continuous
 62
     7
100
AcDbLine
 10
454.5142751603
 20
43.7154661378
 30
0.0
 11
454.5142751603
 21
33.256400078
 31
0.0
  0
LINE
  5
22E
330
225
100
AcDbEntity
  8
0
  6
Continuous
 62
     7
100
AcDbLine
 10
454.5142751603
 20
33.256400078
 30
0.0
 11
458.9953300486
 21
33.256400078
 31
0.0
  0
LINE
  5
22F
330
225
100
AcDbEntity
  8
0
  6
Continuous
 62
     7
100
AcDbLine
 10
458.9953300486
 20
33.256400078
 30
0.0
 11
458.9953300486
 21
34.449254403
 31
0.0
  0
LINE
  5
230
330
225
100
AcDbEntity
  8
0
  6
Continuous
 62
     7
100
AcDbLine
 10
458.9953300486
 20
34.449254403
 30
0.0
 11
455.8186160897
 21
34.449254403
 31
0.0
  0
LINE
  5
231
330
225
100
AcDbEntity
  8
0
  6
Continuous
 62
     7
100
AcDbLine
 10
455.8186160897
 20
34.449254403
 30
0.0
 11
455.8186160897
 21
43.7154661378
 31
0.0
  0
LINE
  5
232
330
225
100
AcDbEntity
  8
0
  6
Continuous
 62
     7
100
AcDbLine
 10
470.754942306
 20
43.7154661378
 30
0.0
 11
469.4511247879
 21
43.7154661378
 31
0.0
  0
LINE
  5
233
330
225
100
AcDbEntity
  8
0
  6
Continuous
 62
     7
100
AcDbLine
 10
469.4511247879
 20
43.7154661378
 30
0.0
 11
469.4511247879
 21
33.256400078
 31
0.0
  0
LINE
  5
234
330
225
100
AcDbEntity
  8
0
  6
Continuous
 62
     7
100
AcDbLine
 10
469.4511247879
 20
33.256400078
 30
0.0
 11
473.932310529
 21
33.256400078
 31
0.0
  0
LINE
  5
235
330
225
100
AcDbEntity
  8
0
  6
Continuous
 62
     7
100
AcDbLine
 10
473.932310529
 20
33.256400078
 30
0.0
 11
473.932310529
 21
34.449254403
 31
0.0
  0
LINE
  5
236
330
225
100
AcDbEntity
  8
0
  6
Continuous
 62
     7
100
AcDbLine
 10
473.932310529
 20
34.449254403
 30
0.0
 11
470.754942306
 21
34.449254403
 31
0.0
  0
LINE
  5
237
330
225
100
AcDbEntity
  8
0
  6
Continuous
 62
     7
100
AcDbLine
 10
470.754942306
 20
34.449254403
 30
0.0
 11
470.754942306
 21
43.7154661378
 31
0.0
  0
LWPOLYLINE
  5
238
330
225
100
AcDbEntity
  8
0
  6
Continuous
 62
     7
100
AcDbPolyline
 90
        2
 70
     0
 43
0.2
 10
452.8686700713
 20
29.9128487711
 10
452.8686700713
 20
28.0557855217
  0
LWPOLYLINE
  5
239
330
225
100
AcDbEntity
  8
0
  6
Continuous
 62
     7
100
AcDbPolyline
 90
        2
 70
     0
 43
0.2
 10
452.8686700713
 20
28.0557855217
 10
453.6643860817
 20
28.0557855217
  0
LWPOLYLINE
  5
23A
330
225
100
AcDbEntity
  8
0
  6
Continuous
 62
     7
100
AcDbPolyline
 90
        2
 70
     0
 43
0.2
 10
453.6643860817
 20
28.0557855217
 10
453.6643860817
 20
28.2677670933
  0
LWPOLYLINE
  5
23B
330
225
100
AcDbEntity
  8
0
  6
Continuous
 62
     7
100
AcDbPolyline
 90
        2
 70
     0
 43
0.2
 10
453.6643860817
 20
28.2677670933
 10
453.1002795662
 20
28.2677670933
  0
LWPOLYLINE
  5
23C
330
225
100
AcDbEntity
  8
0
  6
Continuous
 62
     7
100
AcDbPolyline
 90
        2
 70
     0
 43
0.2
 10
453.1002795662
 20
28.2677670933
 10
453.1002795662
 20
29.9128487711
  0
LWPOLYLINE
  5
23D
330
225
100
AcDbEntity
  8
0
  6
Continuous
 62
     7
100
AcDbPolyline
 90
        2
 70
     0
 43
0.2
 10
453.1002795662
 20
29.9128487711
 10
452.8686700713
 20
29.9128487711
  0
SPLINE
  5
23E
330
225
100
AcDbEntity
  8
0
  6
Continuous
 62
     7
100
AcDbSpline
 70
     3
 71
     3
 72
    35
 73
    31
 74
     0
 42
0.000000001
 43
0.0000001
 40
0.0
 40
0.0
 40
0.0
 40
0.0
 40
1.0
 40
1.0
 40
1.0
 40
2.0
 40
2.0
 40
2.0
 40
3.0
 40
3.0
 40
3.0
 40
4.0
 40
4.0
 40
4.0
 40
5.0
 40
5.0
 40
5.0
 40
6.0
 40
6.0
 40
6.0
 40
7.0
 40
7.0
 40
7.0
 40
8.0
 40
8.0
 40
8.0
 40
9.0
 40
9.0
 40
9.0
 40
10.0
 40
10.0
 40
10.0
 40
10.0
 10
455.0626793372
 20
29.2083371776
 30
0.0
 10
455.0626793372
 20
29.2083371776
 30
0.0
 10
455.0626793372
 20
28.5462218984
 30
0.0
 10
455.0626793372
 20
28.5462218984
 30
0.0
 10
455.0626793372
 20
28.2311283031
 30
0.0
 10
455.210543026
 20
28.0165296751
 30
0.0
 10
455.5506295103
 20
28.0165296751
 30
0.0
 10
455.8901925833
 20
28.0165296751
 30
0.0
 10
456.0383179778
 20
28.2311283031
 30
0.0
 10
456.0383179778
 20
28.5462218984
 30
0.0
 10
456.0383179778
 20
28.5462218984
 30
0.0
 10
456.0383179778
 20
29.2083371776
 30
0.0
 10
456.0383179778
 20
29.2083371776
 30
0.0
 10
456.0383179778
 20
29.2083371776
 30
0.0
 10
455.8162607389
 20
29.2083371776
 30
0.0
 10
455.8162607389
 20
29.2083371776
 30
0.0
 10
455.8162607389
 20
29.2083371776
 30
0.0
 10
455.8162607389
 20
28.5713456403
 30
0.0
 10
455.8162607389
 20
28.5713456403
 30
0.0
 10
455.8162607389
 20
28.3855346331
 30
0.0
 10
455.7695462815
 20
28.2227537225
 30
0.0
 10
455.5506295103
 20
28.2227537225
 30
0.0
 10
455.3311893279
 20
28.2227537225
 30
0.0
 10
455.2844748704
 20
28.3855346331
 30
0.0
 10
455.2844748704
 20
28.5713456403
 30
0.0
 10
455.2844748704
 20
28.5713456403
 30
0.0
 10
455.2844748704
 20
29.2083371776
 30
0.0
 10
455.2844748704
 20
29.2083371776
 30
0.0
 10
455.2844748704
 20
29.2083371776
 30
0.0
 10
455.0626793372
 20
29.2083371776
 30
0.0
 10
455.0626793372
 20
29.2083371776
 30
0.0
  0
SPLINE
  5
23F
330
225
100
AcDbEntity
  8
0
  6
Continuous
 62
     7
100
AcDbSpline
 70
     3
 71
     3
 72
    35
 73
    31
 74
     0
 42
0.000000001
 43
0.0000001
 40
0.0
 40
0.0
 40
0.0
 40
0.0
 40
1.0
 40
1.0
 40
1.0
 40
2.0
 40
2.0
 40
2.0
 40
3.0
 40
3.0
 40
3.0
 40
4.0
 40
4.0
 40
4.0
 40
5.0
 40
5.0
 40
5.0
 40
6.0
 40
6.0
 40
6.0
 40
7.0
 40
7.0
 40
7.0
 40
8.0
 40
8.0
 40
8.0
 40
9.0
 40
9.0
 40
9.0
 40
10.0
 40
10.0
 40
10.0
 40
10.0
 10
458.461450535
 20
29.1669876859
 30
0.0
 10
458.3729940273
 20
29.2182819921
 30
0.0
 10
458.2595446307
 20
29.2434057339
 30
0.0
 10
458.1559091957
 20
29.2434057339
 30
0.0
 10
457.8010363425
 20
29.2434057339
 30
0.0
 10
457.5255911523
 20
28.9796064448
 30
0.0
 10
457.5255911523
 20
28.6221165352
 30
0.0
 10
457.5255911523
 20
28.2771884965
 30
0.0
 10
457.8040459574
 20
28.0170530864
 30
0.0
 10
458.1436090304
 20
28.0170530864
 30
0.0
 10
458.2595446307
 20
28.0170530864
 30
0.0
 10
458.3603013036
 20
28.0390363605
 30
0.0
 10
458.461450535
 20
28.0929477231
 30
0.0
 10
458.461450535
 20
28.0929477231
 30
0.0
 10
458.461450535
 20
28.3755898186
 30
0.0
 10
458.461450535
 20
28.3755898186
 30
0.0
 10
458.3775738761
 20
28.2824226094
 30
0.0
 10
458.2740692939
 20
28.2232771338
 30
0.0
 10
458.1459643812
 20
28.2232771338
 30
0.0
 10
457.9122612412
 20
28.2232771338
 30
0.0
 10
457.746994127
 20
28.3954794475
 30
0.0
 10
457.746994127
 20
28.6320613496
 30
0.0
 10
457.746994127
 20
28.8440429212
 30
0.0
 10
457.9147474448
 20
29.0361348639
 30
0.0
 10
458.1315705708
 20
29.0361348639
 30
0.0
 10
458.2643861851
 20
29.0361348639
 30
0.0
 10
458.3729940273
 20
28.9822235012
 30
0.0
 10
458.461450535
 20
28.8812051227
 30
0.0
 10
458.461450535
 20
28.8812051227
 30
0.0
 10
458.461450535
 20
29.1669876859
 30
0.0
 10
458.461450535
 20
29.1669876859
 30
0.0
  0
SPLINE
  5
240
330
225
100
AcDbEntity
  8
0
  6
Continuous
 62
     7
100
AcDbSpline
 70
     3
 71
     3
 72
    32
 73
    28
 74
     0
 42
0.000000001
 43
0.0000001
 40
0.0
 40
0.0
 40
0.0
 40
0.0
 40
1.0
 40
1.0
 40
1.0
 40
2.0
 40
2.0
 40
2.0
 40
3.0
 40
3.0
 40
3.0
 40
4.0
 40
4.0
 40
4.0
 40
5.0
 40
5.0
 40
5.0
 40
6.0
 40
6.0
 40
6.0
 40
7.0
 40
7.0
 40
7.0
 40
8.0
 40
8.0
 40
8.0
 40
9.0
 40
9.0
 40
9.0
 40
9.0
 10
460.9933217872
 20
28.5954225595
 30
0.0
 10
460.9933217872
 20
28.5954225595
 30
0.0
 10
460.9933217872
 20
28.6294442932
 30
0.0
 10
460.9933217872
 20
28.6294442932
 30
0.0
 10
460.9933217872
 20
28.9717552755
 30
0.0
 10
460.8204652094
 20
29.2434057339
 30
0.0
 10
460.4538156023
 20
29.2434057339
 30
0.0
 10
460.0821935879
 20
29.2434057339
 30
0.0
 10
459.892456996
 20
28.9769893884
 30
0.0
 10
459.892456996
 20
28.6221165352
 30
0.0
 10
459.892456996
 20
28.2824226094
 30
0.0
 10
460.1065322128
 20
28.0165296751
 30
0.0
 10
460.4586571567
 20
28.0165296751
 30
0.0
 10
460.6826771879
 20
28.0165296751
 30
0.0
 10
460.8848447978
 20
28.1322035697
 30
0.0
 10
460.9933217872
 20
28.3316232704
 30
0.0
 10
460.9933217872
 20
28.3316232704
 30
0.0
 10
460.8056788405
 20
28.4383991731
 30
0.0
 10
460.8056788405
 20
28.4383991731
 30
0.0
 10
460.7221947401
 20
28.2996951819
 30
0.0
 10
460.6309903232
 20
28.2138557306
 30
0.0
 10
460.4614050659
 20
28.2138557306
 30
0.0
 10
460.2494234943
 20
28.2138557306
 30
0.0
 10
460.1164770272
 20
28.3986199153
 30
0.0
 10
460.1141216764
 20
28.5954225595
 30
0.0
 10
460.1141216764
 20
28.5954225595
 30
0.0
 10
460.9933217872
 20
28.5954225595
 30
0.0
 10
460.9933217872
 20
28.5954225595
 30
0.0
  0
SPLINE
  5
241
330
225
100
AcDbEntity
  8
0
  6
Continuous
 62
     7
100
AcDbSpline
 70
     3
 71
     3
 72
    14
 73
    10
 74
     0
 42
0.000000001
 43
0.0000001
 40
0.0
 40
0.0
 40
0.0
 40
0.0
 40
1.0
 40
1.0
 40
1.0
 40
2.0
 40
2.0
 40
2.0
 40
3.0
 40
3.0
 40
3.0
 40
3.0
 10
460.1261601361
 20
28.7629141716
 30
0.0
 10
460.1537700815
 20
28.9277887273
 30
0.0
 10
460.2816132886
 20
29.0507903799
 30
0.0
 10
460.4538156023
 20
29.0507903799
 30
0.0
 10
460.6309903232
 20
29.0507903799
 30
0.0
 10
460.7444397199
 20
28.9351164853
 30
0.0
 10
460.7716571068
 20
28.7629141716
 30
0.0
 10
460.7716571068
 20
28.7629141716
 30
0.0
 10
460.1261601361
 20
28.7629141716
 30
0.0
 10
460.1261601361
 20
28.7629141716
 30
0.0
  0
SPLINE
  5
242
330
225
100
AcDbEntity
  8
0
  6
Continuous
 62
     7
100
AcDbSpline
 70
     3
 71
     3
 72
    20
 73
    16
 74
     0
 42
0.000000001
 43
0.0000001
 40
0.0
 40
0.0
 40
0.0
 40
0.0
 40
1.0
 40
1.0
 40
1.0
 40
2.0
 40
2.0
 40
2.0
 40
3.0
 40
3.0
 40
3.0
 40
4.0
 40
4.0
 40
4.0
 40
5.0
 40
5.0
 40
5.0
 40
5.0
 10
463.0173532374
 20
28.9722786868
 30
0.0
 10
463.0173532374
 20
28.9722786868
 30
0.0
 10
463.428492804
 20
28.4698038504
 30
0.0
 10
463.428492804
 20
28.4698038504
 30
0.0
 10
463.312426351
 20
28.3541299558
 30
0.0
 10
463.1746383294
 20
28.2238005451
 30
0.0
 10
463.0026977214
 20
28.2238005451
 30
0.0
 10
462.8252612948
 20
28.2238005451
 30
0.0
 10
462.6577696827
 20
28.3881516895
 30
0.0
 10
462.6577696827
 20
28.5650647048
 30
0.0
 10
462.6577696827
 20
28.7430245427
 30
0.0
 10
462.8675267563
 20
28.8691666631
 30
0.0
 10
462.9951082577
 20
28.9570997594
 30
0.0
 10
462.9951082577
 20
28.9570997594
 30
0.0
 10
463.0173532374
 20
28.9722786868
 30
0.0
 10
463.0173532374
 20
28.9722786868
 30
0.0
  0
SPLINE
  5
243
330
225
100
AcDbEntity
  8
0
  6
Continuous
 62
     7
100
AcDbSpline
 70
     3
 71
     3
 72
    23
 73
    19
 74
     0
 42
0.000000001
 43
0.0000001
 40
0.0
 40
0.0
 40
0.0
 40
0.0
 40
1.0
 40
1.0
 40
1.0
 40
2.0
 40
2.0
 40
2.0
 40
3.0
 40
3.0
 40
3.0
 40
4.0
 40
4.0
 40
4.0
 40
5.0
 40
5.0
 40
5.0
 40
6.0
 40
6.0
 40
6.0
 40
6.0
 10
463.0666847513
 20
29.2632953628
 30
0.0
 10
463.0666847513
 20
29.2632953628
 30
0.0
 10
463.0050530722
 20
29.341807056
 30
0.0
 10
463.0050530722
 20
29.341807056
 30
0.0
 10
462.9511417095
 20
29.4103739347
 30
0.0
 10
462.8943515848
 20
29.4794642247
 30
0.0
 10
462.8943515848
 20
29.5731548452
 30
0.0
 10
462.8943515848
 20
29.6919692076
 30
0.0
 10
462.9902667033
 20
29.7694340782
 30
0.0
 10
463.1012298963
 20
29.7694340782
 30
0.0
 10
463.2244932546
 20
29.7694340782
 30
0.0
 10
463.3177913167
 20
29.698250143
 30
0.0
 10
463.3177913167
 20
29.5679207324
 30
0.0
 10
463.3177913167
 20
29.4328806201
 30
0.0
 10
463.189686404
 20
29.3564625721
 30
0.0
 10
463.0961266363
 20
29.2826615805
 30
0.0
 10
463.0961266363
 20
29.2826615805
 30
0.0
 10
463.0666847513
 20
29.2632953628
 30
0.0
 10
463.0666847513
 20
29.2632953628
 30
0.0
  0
SPLINE
  5
244
330
225
100
AcDbEntity
  8
0
  6
Continuous
 62
     7
100
AcDbSpline
 70
     3
 71
     3
 72
    50
 73
    46
 74
     0
 42
0.000000001
 43
0.0000001
 40
0.0
 40
0.0
 40
0.0
 40
0.0
 40
1.0
 40
1.0
 40
1.0
 40
2.0
 40
2.0
 40
2.0
 40
3.0
 40
3.0
 40
3.0
 40
4.0
 40
4.0
 40
4.0
 40
5.0
 40
5.0
 40
5.0
 40
6.0
 40
6.0
 40
6.0
 40
7.0
 40
7.0
 40
7.0
 40
8.0
 40
8.0
 40
8.0
 40
9.0
 40
9.0
 40
9.0
 40
10.0
 40
10.0
 40
10.0
 40
11.0
 40
11.0
 40
11.0
 40
12.0
 40
12.0
 40
12.0
 40
13.0
 40
13.0
 40
13.0
 40
14.0
 40
14.0
 40
14.0
 40
15.0
 40
15.0
 40
15.0
 40
15.0
 10
463.768840994
 20
28.056308933
 30
0.0
 10
463.768840994
 20
28.056308933
 30
0.0
 10
464.0542309987
 20
28.056308933
 30
0.0
 10
464.0542309987
 20
28.056308933
 30
0.0
 10
464.0542309987
 20
28.056308933
 30
0.0
 10
463.7218648309
 20
28.467186794
 30
0.0
 10
463.7218648309
 20
28.467186794
 30
0.0
 10
463.7218648309
 20
28.467186794
 30
0.0
 10
463.9483710657
 20
28.7330797282
 30
0.0
 10
463.9483710657
 20
28.7330797282
 30
0.0
 10
463.9483710657
 20
28.7330797282
 30
0.0
 10
463.8001148184
 20
28.8859158243
 30
0.0
 10
463.8001148184
 20
28.8859158243
 30
0.0
 10
463.8001148184
 20
28.8859158243
 30
0.0
 10
463.5842076622
 20
28.6346784061
 30
0.0
 10
463.5842076622
 20
28.6346784061
 30
0.0
 10
463.5842076622
 20
28.6346784061
 30
0.0
 10
463.1971450148
 20
29.1026080974
 30
0.0
 10
463.1971450148
 20
29.1026080974
 30
0.0
 10
463.3525981673
 20
29.2167117582
 30
0.0
 10
463.5348761483
 20
29.3564625721
 30
0.0
 10
463.5348761483
 20
29.5658270872
 30
0.0
 10
463.5348761483
 20
29.8097367474
 30
0.0
 10
463.3328393912
 20
29.9531514402
 30
0.0
 10
463.1063331564
 20
29.9531514402
 30
0.0
 10
462.8621617906
 20
29.9531514402
 30
0.0
 10
462.6777901644
 20
29.8024089893
 30
0.0
 10
462.6777901644
 20
29.5459374583
 30
0.0
 10
462.6777901644
 20
29.3883906606
 30
0.0
 10
462.7764531922
 20
29.2507334919
 30
0.0
 10
462.8817897139
 20
29.1397702989
 30
0.0
 10
462.8817897139
 20
29.1397702989
 30
0.0
 10
462.7662466721
 20
29.0560244928
 30
0.0
 10
462.7662466721
 20
29.0560244928
 30
0.0
 10
462.5885485398
 20
28.9277887273
 30
0.0
 10
462.4412082623
 20
28.8000763731
 30
0.0
 10
462.4412082623
 20
28.5629710596
 30
0.0
 10
462.4412082623
 20
28.2426433515
 30
0.0
 10
462.6997734385
 20
28.0165296751
 30
0.0
 10
463.0101563322
 20
28.0165296751
 30
0.0
 10
463.2290731034
 20
28.0165296751
 30
0.0
 10
463.4262683061
 20
28.1416249729
 30
0.0
 10
463.5665425312
 20
28.3075463512
 30
0.0
 10
463.5665425312
 20
28.3075463512
 30
0.0
 10
463.768840994
 20
28.056308933
 30
0.0
 10
463.768840994
 20
28.056308933
 30
0.0
  0
LWPOLYLINE
  5
245
330
225
100
AcDbEntity
  8
0
  6
Continuous
 62
     7
100
AcDbPolyline
 90
        2
 70
     0
 43
0.2
 10
465.7042850837
 20
29.9128487711
 10
465.4729372945
 20
29.9128487711
  0
LWPOLYLINE
  5
246
330
225
100
AcDbEntity
  8
0
  6
Continuous
 62
     7
100
AcDbPolyline
 90
        2
 70
     0
 43
0.2
 10
465.4729372945
 20
29.9128487711
 10
465.4729372945
 20
28.0557855217
  0
LWPOLYLINE
  5
247
330
225
100
AcDbEntity
  8
0
  6
Continuous
 62
     7
100
AcDbPolyline
 90
        2
 70
     0
 43
0.2
 10
465.4729372945
 20
28.0557855217
 10
466.2682607464
 20
28.0557855217
  0
LWPOLYLINE
  5
248
330
225
100
AcDbEntity
  8
0
  6
Continuous
 62
     7
100
AcDbPolyline
 90
        2
 70
     0
 43
0.2
 10
466.2682607464
 20
28.0557855217
 10
466.2682607464
 20
28.2677670933
  0
LWPOLYLINE
  5
249
330
225
100
AcDbEntity
  8
0
  6
Continuous
 62
     7
100
AcDbPolyline
 90
        2
 70
     0
 43
0.2
 10
466.2682607464
 20
28.2677670933
 10
465.7042850837
 20
28.2677670933
  0
LWPOLYLINE
  5
24A
330
225
100
AcDbEntity
  8
0
  6
Continuous
 62
     7
100
AcDbPolyline
 90
        2
 70
     0
 43
0.2
 10
465.7042850837
 20
28.2677670933
 10
465.7042850837
 20
29.9128487711
  0
LWPOLYLINE
  5
24B
330
225
100
AcDbEntity
  8
0
  6
Continuous
 62
     7
100
AcDbPolyline
 90
        2
 70
     0
 43
0.2
 10
467.9473641579
 20
29.2083371776
 10
467.7262228888
 20
29.2083371776
  0
LWPOLYLINE
  5
24C
330
225
100
AcDbEntity
  8
0
  6
Continuous
 62
     7
100
AcDbPolyline
 90
        2
 70
     0
 43
0.2
 10
467.7262228888
 20
29.2083371776
 10
467.7262228888
 20
28.056308933
  0
LWPOLYLINE
  5
24D
330
225
100
AcDbEntity
  8
0
  6
Continuous
 62
     7
100
AcDbPolyline
 90
        2
 70
     0
 43
0.2
 10
467.7262228888
 20
28.056308933
 10
467.9473641579
 20
28.056308933
  0
LWPOLYLINE
  5
24E
330
225
100
AcDbEntity
  8
0
  6
Continuous
 62
     7
100
AcDbPolyline
 90
        2
 70
     0
 43
0.2
 10
467.9473641579
 20
28.056308933
 10
467.9473641579
 20
29.2083371776
  0
LWPOLYLINE
  5
24F
330
225
100
AcDbEntity
  8
0
  6
Continuous
 62
     7
100
AcDbPolyline
 90
        2
 70
     1
 43
0.2
 10
467.6843408807
 20
29.7382911066
 42
1.0
 10
467.9895078716
 20
29.7382911066
 42
1.0
  0
SPLINE
  5
250
330
225
100
AcDbEntity
  8
0
  6
Continuous
 62
     7
100
AcDbSpline
 70
     3
 71
     3
 72
    17
 73
    13
 74
     0
 42
0.000000001
 43
0.0000001
 40
0.0
 40
0.0
 40
0.0
 40
0.0
 40
1.0
 40
1.0
 40
1.0
 40
2.0
 40
2.0
 40
2.0
 40
3.0
 40
3.0
 40
3.0
 40
4.0
 40
4.0
 40
4.0
 40
4.0
 10
470.0776480995
 20
28.2138557306
 30
0.0
 10
469.8436832538
 20
28.2138557306
 30
0.0
 10
469.7133538431
 20
28.4158924878
 30
0.0
 10
469.7133538431
 20
28.6320613496
 30
0.0
 10
469.7133538431
 20
28.8466599777
 30
0.0
 10
469.8491790724
 20
29.0455562671
 30
0.0
 10
470.0776480995
 20
29.0455562671
 30
0.0
 10
470.3171087637
 20
29.0455562671
 30
0.0
 10
470.4526722873
 20
28.8566047921
 30
0.0
 10
470.4526722873
 20
28.6320613496
 30
0.0
 10
470.4526722873
 20
28.4059476733
 30
0.0
 10
470.3194641145
 20
28.2138557306
 30
0.0
 10
470.0776480995
 20
28.2138557306
 30
0.0
  0
SPLINE
  5
251
330
225
100
AcDbEntity
  8
0
  6
Continuous
 62
     7
100
AcDbSpline
 70
     3
 71
     3
 72
    50
 73
    46
 74
     0
 42
0.000000001
 43
0.0000001
 40
0.0
 40
0.0
 40
0.0
 40
0.0
 40
1.0
 40
1.0
 40
1.0
 40
2.0
 40
2.0
 40
2.0
 40
3.0
 40
3.0
 40
3.0
 40
4.0
 40
4.0
 40
4.0
 40
5.0
 40
5.0
 40
5.0
 40
6.0
 40
6.0
 40
6.0
 40
7.0
 40
7.0
 40
7.0
 40
8.0
 40
8.0
 40
8.0
 40
9.0
 40
9.0
 40
9.0
 40
10.0
 40
10.0
 40
10.0
 40
11.0
 40
11.0
 40
11.0
 40
12.0
 40
12.0
 40
12.0
 40
13.0
 40
13.0
 40
13.0
 40
14.0
 40
14.0
 40
14.0
 40
15.0
 40
15.0
 40
15.0
 40
15.0
 10
470.6617750968
 20
29.2088605889
 30
0.0
 10
470.6617750968
 20
29.2088605889
 30
0.0
 10
470.4401104164
 20
29.2088605889
 30
0.0
 10
470.4401104164
 20
29.2088605889
 30
0.0
 10
470.4401104164
 20
29.2088605889
 30
0.0
 10
470.4401104164
 20
29.0115345334
 30
0.0
 10
470.4401104164
 20
29.0115345334
 30
0.0
 10
470.4401104164
 20
29.0115345334
 30
0.0
 10
470.4353997148
 20
29.0115345334
 30
0.0
 10
470.4353997148
 20
29.0115345334
 30
0.0
 10
470.344064445
 20
29.1544258149
 30
0.0
 10
470.2061455707
 20
29.2428823226
 30
0.0
 10
470.0334198457
 20
29.2428823226
 30
0.0
 10
469.7010536779
 20
29.2428823226
 30
0.0
 10
469.4919508684
 20
28.9550061143
 30
0.0
 10
469.4919508684
 20
28.6393891077
 30
0.0
 10
469.4919508684
 20
28.3096399963
 30
0.0
 10
469.6890152183
 20
28.0165296751
 30
0.0
 10
470.0438880714
 20
28.0165296751
 30
0.0
 10
470.2061455707
 20
28.0165296751
 30
0.0
 10
470.3461580902
 20
28.1049861828
 30
0.0
 10
470.4353997148
 20
28.2358390047
 30
0.0
 10
470.4353997148
 20
28.2358390047
 30
0.0
 10
470.4401104164
 20
28.2358390047
 30
0.0
 10
470.4401104164
 20
28.2358390047
 30
0.0
 10
470.4401104164
 20
28.2358390047
 30
0.0
 10
470.4401104164
 20
28.0165296751
 30
0.0
 10
470.4401104164
 20
28.0165296751
 30
0.0
 10
470.4401104164
 20
27.779947773
 30
0.0
 10
470.3835819973
 20
27.5930899432
 30
0.0
 10
470.110361305
 20
27.5930899432
 30
0.0
 10
469.9080628422
 20
27.5930899432
 30
0.0
 10
469.7654332663
 20
27.7113808943
 30
0.0
 10
469.7654332663
 20
27.9176049417
 30
0.0
 10
469.7654332663
 20
27.9176049417
 30
0.0
 10
469.5437685859
 20
27.9176049417
 30
0.0
 10
469.5437685859
 20
27.9176049417
 30
0.0
 10
469.5487409931
 20
27.5930899432
 30
0.0
 10
469.7798270767
 20
27.396287299
 30
0.0
 10
470.1001547849
 20
27.396287299
 30
0.0
 10
470.5481948473
 20
27.396287299
 30
0.0
 10
470.6617750968
 20
27.6815464509
 30
0.0
 10
470.6617750968
 20
28.0782922071
 30
0.0
 10
470.6617750968
 20
28.0782922071
 30
0.0
 10
470.6617750968
 20
29.2088605889
 30
0.0
 10
470.6617750968
 20
29.2088605889
 30
0.0
  0
SPLINE
  5
252
330
225
100
AcDbEntity
  8
0
  6
Continuous
 62
     7
100
AcDbSpline
 70
     3
 71
     3
 72
    44
 73
    40
 74
     0
 42
0.000000001
 43
0.0000001
 40
0.0
 40
0.0
 40
0.0
 40
0.0
 40
1.0
 40
1.0
 40
1.0
 40
2.0
 40
2.0
 40
2.0
 40
3.0
 40
3.0
 40
3.0
 40
4.0
 40
4.0
 40
4.0
 40
5.0
 40
5.0
 40
5.0
 40
6.0
 40
6.0
 40
6.0
 40
7.0
 40
7.0
 40
7.0
 40
8.0
 40
8.0
 40
8.0
 40
9.0
 40
9.0
 40
9.0
 40
10.0
 40
10.0
 40
10.0
 40
11.0
 40
11.0
 40
11.0
 40
12.0
 40
12.0
 40
12.0
 40
13.0
 40
13.0
 40
13.0
 40
13.0
 10
472.2307004322
 20
30.1939206327
 30
0.0
 10
472.2307004322
 20
30.1939206327
 30
0.0
 10
472.2307004322
 20
28.0557855217
 30
0.0
 10
472.2307004322
 20
28.0557855217
 30
0.0
 10
472.2307004322
 20
28.0557855217
 30
0.0
 10
472.4521034069
 20
28.0557855217
 30
0.0
 10
472.4521034069
 20
28.0557855217
 30
0.0
 10
472.4521034069
 20
28.0557855217
 30
0.0
 10
472.4521034069
 20
28.585477745
 30
0.0
 10
472.4521034069
 20
28.585477745
 30
0.0
 10
472.4521034069
 20
28.7953656715
 30
0.0
 10
472.4521034069
 20
29.0460796784
 30
0.0
 10
472.7373625588
 20
29.0460796784
 30
0.0
 10
472.9642613521
 20
29.0460796784
 30
0.0
 10
472.9912170334
 20
28.9131332112
 30
0.0
 10
472.9912170334
 20
28.7168539783
 30
0.0
 10
472.9912170334
 20
28.7168539783
 30
0.0
 10
472.9912170334
 20
28.0557855217
 30
0.0
 10
472.9912170334
 20
28.0557855217
 30
0.0
 10
472.9912170334
 20
28.0557855217
 30
0.0
 10
473.2131434195
 20
28.0557855217
 30
0.0
 10
473.2131434195
 20
28.0557855217
 30
0.0
 10
473.2131434195
 20
28.0557855217
 30
0.0
 10
473.2131434195
 20
28.7430245427
 30
0.0
 10
473.2131434195
 20
28.7430245427
 30
0.0
 10
473.2131434195
 20
29.023572993
 30
0.0
 10
473.1291359078
 20
29.2434057339
 30
0.0
 10
472.804097498
 20
29.2434057339
 30
0.0
 10
472.6643466842
 20
29.2434057339
 30
0.0
 10
472.5261661042
 20
29.1769325003
 30
0.0
 10
472.4568141085
 20
29.0539308477
 30
0.0
 10
472.4568141085
 20
29.0539308477
 30
0.0
 10
472.4521034069
 20
29.0539308477
 30
0.0
 10
472.4521034069
 20
29.0539308477
 30
0.0
 10
472.4521034069
 20
29.0539308477
 30
0.0
 10
472.4521034069
 20
30.1939206327
 30
0.0
 10
472.4521034069
 20
30.1939206327
 30
0.0
 10
472.4521034069
 20
30.1939206327
 30
0.0
 10
472.2307004322
 20
30.1939206327
 30
0.0
 10
472.2307004322
 20
30.1939206327
 30
0.0
  0
LWPOLYLINE
  5
253
330
225
100
AcDbEntity
  8
0
  6
Continuous
 62
     7
100
AcDbPolyline
 90
        2
 70
     0
 43
0.2
 10
475.0529340964
 20
29.0015897189
 10
475.2693646639
 20
29.0015897189
  0
LWPOLYLINE
  5
254
330
225
100
AcDbEntity
  8
0
  6
Continuous
 62
     7
100
AcDbPolyline
 90
        2
 70
     0
 43
0.2
 10
475.2693646639
 20
29.0015897189
 10
475.2693646639
 20
29.2083371776
  0
LWPOLYLINE
  5
255
330
225
100
AcDbEntity
  8
0
  6
Continuous
 62
     7
100
AcDbPolyline
 90
        2
 70
     0
 43
0.2
 10
475.2693646639
 20
29.2083371776
 10
475.0529340964
 20
29.2083371776
  0
LWPOLYLINE
  5
256
330
225
100
AcDbEntity
  8
0
  6
Continuous
 62
     7
100
AcDbPolyline
 90
        2
 70
     0
 43
0.2
 10
475.0529340964
 20
29.2083371776
 10
475.0529340964
 20
29.649049482
  0
LWPOLYLINE
  5
257
330
225
100
AcDbEntity
  8
0
  6
Continuous
 62
     7
100
AcDbPolyline
 90
        2
 70
     0
 43
0.2
 10
475.0529340964
 20
29.649049482
 10
474.8312694159
 20
29.649049482
  0
LWPOLYLINE
  5
258
330
225
100
AcDbEntity
  8
0
  6
Continuous
 62
     7
100
AcDbPolyline
 90
        2
 70
     0
 43
0.2
 10
474.8312694159
 20
29.649049482
 10
474.8312694159
 20
29.2083371776
  0
LWPOLYLINE
  5
259
330
225
100
AcDbEntity
  8
0
  6
Continuous
 62
     7
100
AcDbPolyline
 90
        2
 70
     0
 43
0.2
 10
474.8312694159
 20
29.2083371776
 10
474.7106231141
 20
29.2083371776
  0
LWPOLYLINE
  5
25A
330
225
100
AcDbEntity
  8
0
  6
Continuous
 62
     7
100
AcDbPolyline
 90
        2
 70
     0
 43
0.2
 10
474.7106231141
 20
29.2083371776
 10
474.7106231141
 20
29.0015897189
  0
LWPOLYLINE
  5
25B
330
225
100
AcDbEntity
  8
0
  6
Continuous
 62
     7
100
AcDbPolyline
 90
        2
 70
     0
 43
0.2
 10
474.7106231141
 20
29.0015897189
 10
474.8312694159
 20
29.0015897189
  0
LWPOLYLINE
  5
25C
330
225
100
AcDbEntity
  8
0
  6
Continuous
 62
     7
100
AcDbPolyline
 90
        2
 70
     0
 43
0.2
 10
474.8312694159
 20
29.0015897189
 10
474.8312694159
 20
28.0557855217
  0
LWPOLYLINE
  5
25D
330
225
100
AcDbEntity
  8
0
  6
Continuous
 62
     7
100
AcDbPolyline
 90
        2
 70
     0
 43
0.2
 10
474.8312694159
 20
28.0557855217
 10
475.0529340964
 20
28.0557855217
  0
LWPOLYLINE
  5
25E
330
225
100
AcDbEntity
  8
0
  6
Continuous
 62
     7
100
AcDbPolyline
 90
        2
 70
     0
 43
0.2
 10
475.0529340964
 20
28.0557855217
 10
475.0529340964
 20
29.0015897189
  0
SPLINE
  5
25F
330
225
100
AcDbEntity
  8
0
  6
Continuous
 62
     7
100
AcDbSpline
 70
     3
 71
     3
 72
    20
 73
    16
 74
     0
 42
0.000000001
 43
0.0000001
 40
0.0
 40
0.0
 40
0.0
 40
0.0
 40
1.0
 40
1.0
 40
1.0
 40
2.0
 40
2.0
 40
2.0
 40
3.0
 40
3.0
 40
3.0
 40
4.0
 40
4.0
 40
4.0
 40
5.0
 40
5.0
 40
5.0
 40
5.0
 10
462.8349444036
 20
38.4167119651
 30
0.0
 10
462.8349444036
 20
38.4167119651
 30
0.0
 10
465.1513010581
 20
35.5871505429
 30
0.0
 10
465.1513010581
 20
35.5871505429
 30
0.0
 10
464.4996540047
 20
34.9349800782
 30
0.0
 10
463.7227808007
 20
34.1990638074
 30
0.0
 10
462.751591156
 20
34.1990638074
 30
0.0
 10
461.7530532716
 20
34.1990638074
 30
0.0
 10
460.809735278
 20
35.1286422547
 30
0.0
 10
460.809735278
 20
36.1278344032
 30
0.0
 10
460.809735278
 20
37.1270265518
 30
0.0
 10
461.9885883511
 20
37.8336317904
 30
0.0
 10
462.7101108114
 20
38.3334895703
 30
0.0
 10
462.7101108114
 20
38.3334895703
 30
0.0
 10
462.8349444036
 20
38.4167119651
 30
0.0
 10
462.8349444036
 20
38.4167119651
 30
0.0
  0
SPLINE
  5
260
330
225
100
AcDbEntity
  8
0
  6
Continuous
 62
     7
100
AcDbSpline
 70
     3
 71
     3
 72
    23
 73
    19
 74
     0
 42
0.000000001
 43
0.0000001
 40
0.0
 40
0.0
 40
0.0
 40
0.0
 40
1.0
 40
1.0
 40
1.0
 40
2.0
 40
2.0
 40
2.0
 40
3.0
 40
3.0
 40
3.0
 40
4.0
 40
4.0
 40
4.0
 40
5.0
 40
5.0
 40
5.0
 40
6.0
 40
6.0
 40
6.0
 40
6.0
 10
463.1123523862
 20
40.0544658848
 30
0.0
 10
463.1123523862
 20
40.0544658848
 30
0.0
 10
462.7658541136
 20
40.4977952457
 30
0.0
 10
462.7658541136
 20
40.4977952457
 30
0.0
 10
462.4600510687
 20
40.8859047156
 30
0.0
 10
462.1411627415
 20
41.274406744
 30
0.0
 10
462.1411627415
 20
41.8013510581
 30
0.0
 10
462.1411627415
 20
42.4675227747
 30
0.0
 10
462.682500866
 20
42.911244694
 30
0.0
 10
463.3064071212
 20
42.911244694
 30
0.0
 10
464.0001887832
 20
42.911244694
 30
0.0
 10
464.5273948029
 20
42.5090031193
 30
0.0
 10
464.5273948029
 20
41.7740028183
 30
0.0
 10
464.5273948029
 20
41.0107383078
 30
0.0
 10
463.8061340482
 20
40.580625082
 30
0.0
 10
463.2790588814
 20
40.1649056666
 30
0.0
 10
463.2790588814
 20
40.1649056666
 30
0.0
 10
463.1123523862
 20
40.0544658848
 30
0.0
 10
463.1123523862
 20
40.0544658848
 30
0.0
  0
SPLINE
  5
261
330
225
100
AcDbEntity
  8
0
  6
Continuous
 62
     7
100
AcDbSpline
 70
     3
 71
     3
 72
    50
 73
    46
 74
     0
 42
0.000000001
 43
0.0000001
 40
0.0
 40
0.0
 40
0.0
 40
0.0
 40
1.0
 40
1.0
 40
1.0
 40
2.0
 40
2.0
 40
2.0
 40
3.0
 40
3.0
 40
3.0
 40
4.0
 40
4.0
 40
4.0
 40
5.0
 40
5.0
 40
5.0
 40
6.0
 40
6.0
 40
6.0
 40
7.0
 40
7.0
 40
7.0
 40
8.0
 40
8.0
 40
8.0
 40
9.0
 40
9.0
 40
9.0
 40
10.0
 40
10.0
 40
10.0
 40
11.0
 40
11.0
 40
11.0
 40
12.0
 40
12.0
 40
12.0
 40
13.0
 40
13.0
 40
13.0
 40
14.0
 40
14.0
 40
14.0
 40
15.0
 40
15.0
 40
15.0
 40
15.0
 10
467.0659395491
 20
33.2558766667
 30
0.0
 10
467.0659395491
 20
33.2558766667
 30
0.0
 10
468.6751675537
 20
33.2558766667
 30
0.0
 10
468.6751675537
 20
33.2558766667
 30
0.0
 10
468.6751675537
 20
33.2558766667
 30
0.0
 10
466.80214026
 20
35.5730184381
 30
0.0
 10
466.80214026
 20
35.5730184381
 30
0.0
 10
466.80214026
 20
35.5730184381
 30
0.0
 10
468.0784786855
 20
37.0704981327
 30
0.0
 10
468.0784786855
 20
37.0704981327
 30
0.0
 10
468.0784786855
 20
37.0704981327
 30
0.0
 10
467.2462547378
 20
37.9315097012
 30
0.0
 10
467.2462547378
 20
37.9315097012
 30
0.0
 10
467.2462547378
 20
37.9315097012
 30
0.0
 10
466.0256596145
 20
36.5162055788
 30
0.0
 10
466.0256596145
 20
36.5162055788
 30
0.0
 10
466.0256596145
 20
36.5162055788
 30
0.0
 10
463.8477452456
 20
39.1515814133
 30
0.0
 10
463.8477452456
 20
39.1515814133
 30
0.0
 10
464.7213186851
 20
39.7896197732
 30
0.0
 10
465.7479899262
 20
40.580625082
 30
0.0
 10
465.7479899262
 20
41.7594781551
 30
0.0
 10
465.7479899262
 20
43.1331710801
 30
0.0
 10
464.6100937864
 20
43.9376542295
 30
0.0
 10
463.3348021835
 20
43.9376542295
 30
0.0
 10
461.9613709641
 20
43.9376542295
 30
0.0
 10
460.9204367654
 20
43.0914290299
 30
0.0
 10
460.9204367654
 20
41.6487766677
 30
0.0
 10
460.9204367654
 20
40.7612019763
 30
0.0
 10
461.4757761418
 20
39.9843287723
 30
0.0
 10
462.0719415987
 20
39.3598991058
 30
0.0
 10
462.0719415987
 20
39.3598991058
 30
0.0
 10
461.4200328397
 20
38.8883055355
 30
0.0
 10
461.4200328397
 20
38.8883055355
 30
0.0
 10
460.4214949552
 20
38.1670447808
 30
0.0
 10
459.5886167434
 20
37.4457840261
 30
0.0
 10
459.5886167434
 20
36.1142257098
 30
0.0
 10
459.5886167434
 20
34.3105504118
 30
0.0
 10
461.045662916
 20
33.0339502806
 30
0.0
 10
462.7932023534
 20
33.0339502806
 30
0.0
 10
464.0280604343
 20
33.0339502806
 30
0.0
 10
465.1374306589
 20
33.7421257531
 30
0.0
 10
465.9283051149
 20
34.6706573778
 30
0.0
 10
465.9283051149
 20
34.6706573778
 30
0.0
 10
467.0659395491
 20
33.2558766667
 30
0.0
 10
467.0659395491
 20
33.2558766667
 30
0.0
  0
LINE
  5
262
330
225
100
AcDbEntity
  8
0
  6
Continuous
 62
     7
100
AcDbLine
 10
452.8688009241
 20
31.2297515713
 30
0.0
 11
475.2827116517
 21
31.2297515713
 31
0.0
  0
LINE
  5
263
330
225
100
AcDbEntity
  8
0
  6
Continuous
 62
     7
100
AcDbLine
 10
475.2827116517
 20
31.2297515713
 30
0.0
 11
475.2827116517
 21
53.643662299
 31
0.0
  0
LINE
  5
264
330
225
100
AcDbEntity
  8
0
  6
Continuous
 62
     7
100
AcDbLine
 10
475.2827116517
 20
53.643662299
 30
0.0
 11
452.8688009241
 21
53.643662299
 31
0.0
  0
LINE
  5
265
330
225
100
AcDbEntity
  8
0
  6
Continuous
 62
     7
100
AcDbLine
 10
452.8688009241
 20
53.643662299
 30
0.0
 11
452.8688009241
 21
31.2297515713
 31
0.0
  0
ENDBLK
  5
266
330
225
100
AcDbEntity
  8
0
  6
ByBlock
 62
     0
100
AcDbBlockEnd
  0
BLOCK
  5
267
330
226
100
AcDbEntity
  8
0
100
AcDbBlockBegin
  2
PROIEZIONE_EU_BL0
 70
     0
 10
465.2496438167
 20
66.144974799
 30
0.0
  3
PROIEZIONE_EU_BL0
  1

  0
LWPOLYLINE
  5
268
330
226
100
AcDbEntity
  8
DEFAULT_1
  6
CENTER
 62
     7
100
AcDbPolyline
 90
        2
 70
     0
 43
0.25
 10
471.3762644784
 20
71.1446689309
 10
471.3763054607
 20
61.1452806671
  0
LWPOLYLINE
  5
269
330
226
100
AcDbEntity
  8
DEFAULT_1
  6
CENTER
 62
     7
100
AcDbPolyline
 90
        2
 70
     0
 43
0.25
 10
477.3762943034
 20
66.1452459341
 10
453.12299333
 20
66.1449752737
  0
LWPOLYLINE
  5
26A
330
226
100
AcDbEntity
  8
0
  6
Continuous
 62
     7
100
AcDbPolyline
 90
        2
 70
     1
 43
0.25
 10
467.8291543026
 20
66.1264270448
 42
1.0
 10
474.9354834012
 20
66.1264270448
 42
1.0
  0
LWPOLYLINE
  5
26B
330
226
100
AcDbEntity
  8
0
  6
Continuous
 62
     7
100
AcDbPolyline
 90
        2
 70
     1
 43
0.25
 10
469.378898131
 20
66.1443250894
 42
1.0
 10
473.390649881
 20
66.1443250894
 42
1.0
  0
LWPOLYLINE
  5
26C
330
226
100
AcDbEntity
  8
0
  6
Continuous
 62
     7
100
AcDbPolyline
 90
        2
 70
     0
 43
0.25
 10
465.3762920974
 20
69.7201782942
 10
465.3762917429
 20
62.6199753859
  0
LWPOLYLINE
  5
26D
330
226
100
AcDbEntity
  8
0
  6
Continuous
 62
     7
100
AcDbPolyline
 90
        2
 70
     0
 43
0.25
 10
465.3763201792
 20
62.6199469495
 10
455.3817629081
 20
64.1400403624
  0
LWPOLYLINE
  5
26E
330
226
100
AcDbEntity
  8
0
  6
Continuous
 62
     7
100
AcDbPolyline
 90
        2
 70
     0
 43
0.25
 10
455.3794529225
 20
64.1393628208
 10
455.3767860184
 20
68.1450014323
  0
LWPOLYLINE
  5
26F
330
226
100
AcDbEntity
  8
0
  6
Continuous
 62
     7
100
AcDbPolyline
 90
        2
 70
     0
 43
0.25
 10
455.3767777423
 20
68.1449931562
 10
465.3765209796
 20
69.7201503763
  0
ENDBLK
  5
270
330
226
100
AcDbEntity
  8
0
  6
ByBlock
 62
     0
100
AcDbBlockEnd
  0
ENDSEC
  0
SECTION
  2
ENTITIES
  0
LINE
  5
29B
330
1B
100
AcDbEntity
 67
     1
  8
0
  6
Continuous
 62
     7
100
AcDbLine
 10
0.0
 20
0.0
 30
0.0
 11
594.0
 21
0.0
 31
0.0
  0
LINE
  5
29C
330
1B
100
AcDbEntity
 67
     1
  8
0
  6
Continuous
 62
     7
100
AcDbLine
 10
594.0
 20
0.0
 30
0.0
 11
594.0
 21
420.0
 31
0.0
  0
LINE
  5
29D
330
1B
100
AcDbEntity
 67
     1
  8
0
  6
Continuous
 62
     7
100
AcDbLine
 10
0.0
 20
420.0
 30
0.0
 11
594.0
 21
420.0
 31
0.0
  0
LINE
  5
29E
330
1B
100
AcDbEntity
 67
     1
  8
0
  6
Continuous
 62
     7
100
AcDbLine
 10
0.0
 20
0.0
 30
0.0
 11
0.0
 21
420.0
 31
0.0
  0
VIEWPORT
  5
29F
330
1B
100
AcDbEntity
 67
     1
  8
0
100
AcDbViewport
 10
0.0
 20
0.0
 30
0.0
 40
700.1089494163423
 41
495.0770428015564
 68
     1
 69
     1
 12
330.9338521400778
 22
210.0
 13
0.0
 23
0.0
 14
1.0
 24
1.0
 15
0.0
 25
0.0
 16
0.0
 26
0.0
 36
1.0
 17
0.0
 27
0.0
 37
0.0
 42
50.0
 43
0.0
 44
0.0
 45
495.0770428015564
 50
0.0
 51
0.0
 72
   100
 90
   557216
  1

281
     0
 71
     1
 74
     0
110
0.0
120
0.0
130
0.0
111
1.0
121
0.0
131
0.0
112
0.0
122
1.0
132
0.0
 79
     0
146
0.0
170
     0
 61
     5
348
5A2
292
     1
282
     1
141
0.0
142
0.0
 63
   256
  0
ARC
  5
2A0
330
1B
100
AcDbEntity
 67
     1
  8
3_ALL_AXES
  6
Continuous
 62
     7
100
AcDbCircle
 10
188.3712056748
 20
276.0984454155
 30
0.0
 40
2.9
100
AcDbArc
 50
180.0
 51
360.0
  0
ARC
  5
2A1
330
1B
100
AcDbEntity
 67
     1
  8
3_ALL_AXES
  6
Continuous
 62
     7
100
AcDbCircle
 10
188.3712056748
 20
276.0984454155
 30
0.0
 40
2.9
100
AcDbArc
 50
0.0
 51
180.0
  0
ARC
  5
2A2
330
1B
100
AcDbEntity
 67
     1
  8
3_ALL_AXES
  6
Continuous
 62
     7
100
AcDbCircle
 10
268.3712056748
 20
276.0984454155
 30
0.0
 40
2.9
100
AcDbArc
 50
180.0
 51
360.0
  0
ARC
  5
2A3
330
1B
100
AcDbEntity
 67
     1
  8
3_ALL_AXES
  6
Continuous
 62
     7
100
AcDbCircle
 10
268.3712056748
 20
276.0984454155
 30
0.0
 40
2.9
100
AcDbArc
 50
0.0
 51
180.0
  0
ARC
  5
2A4
330
1B
100
AcDbEntity
 67
     1
  8
3_ALL_AXES
  6
Continuous
 62
     7
100
AcDbCircle
 10
153.3712056748
 20
276.0984454155
 30
0.0
 40
2.9
100
AcDbArc
 50
180.0
 51
360.0
  0
ARC
  5
2A5
330
1B
100
AcDbEntity
 67
     1
  8
3_ALL_AXES
  6
Continuous
 62
     7
100
AcDbCircle
 10
153.3712056748
 20
276.0984454155
 30
0.0
 40
2.9
100
AcDbArc
 50
0.0
 51
180.0
  0
ARC
  5
2A6
330
1B
100
AcDbEntity
 67
     1
  8
3_ALL_AXES
  6
Continuous
 62
     7
100
AcDbCircle
 10
73.3712056748
 20
276.0984454155
 30
0.0
 40
2.9
100
AcDbArc
 50
180.0
 51
360.0
  0
ARC
  5
2A7
330
1B
100
AcDbEntity
 67
     1
  8
3_ALL_AXES
  6
Continuous
 62
     7
100
AcDbCircle
 10
73.3712056748
 20
276.0984454155
 30
0.0
 40
2.9
100
AcDbArc
 50
0.0
 51
180.0
  0
LINE
  5
2A8
330
1B
100
AcDbEntity
 67
     1
  8
3_ALL_AXES
  6
Continuous
 62
     7
100
AcDbLine
 10
99.4712056748
 20
232.2984454155
 30
0.0
 11
99.4712056748
 21
231.592575245
 31
0.0
  0
LINE
  5
2A9
330
1B
100
AcDbEntity
 67
     1
  8
3_ALL_AXES
  6
Continuous
 62
     7
100
AcDbLine
 10
105.2712056748
 20
232.2984454155
 30
0.0
 11
105.2712056748
 21
231.592575245
 31
0.0
  0
ARC
  5
2AA
330
1B
100
AcDbEntity
 67
     1
  8
3_ALL_AXES
  6
Continuous
 62
     7
100
AcDbCircle
 10
102.3712056748
 20
239.0484454155
 30
0.0
 40
8.0
100
AcDbArc
 50
270.0
 51
291.2538091854
  0
ARC
  5
2AB
330
1B
100
AcDbEntity
 67
     1
  8
3_ALL_AXES
  6
Continuous
 62
     7
100
AcDbCircle
 10
102.3712056748
 20
239.0484454155
 30
0.0
 40
8.0
100
AcDbArc
 50
248.7461908146
 51
270.0
  0
LINE
  5
2AC
330
1B
100
AcDbEntity
 67
     1
  8
3_ALL_AXES
  6
Continuous
 62
     7
100
AcDbLine
 10
99.4712056748
 20
231.592575245
 30
0.0
 11
105.2712056748
 21
231.592575245
 31
0.0
  0
LINE
  5
2AD
330
1B
100
AcDbEntity
 67
     1
  8
3_ALL_AXES
  6
Continuous
 62
     7
100
AcDbLine
 10
269.4712056748
 20
232.2984454155
 30
0.0
 11
269.4712056748
 21
231.592575245
 31
0.0
  0
LINE
  5
2AE
330
1B
100
AcDbEntity
 67
     1
  8
3_ALL_AXES
  6
Continuous
 62
     7
100
AcDbLine
 10
275.2712056748
 20
232.2984454155
 30
0.0
 11
275.2712056748
 21
231.592575245
 31
0.0
  0
ARC
  5
2AF
330
1B
100
AcDbEntity
 67
     1
  8
3_ALL_AXES
  6
Continuous
 62
     7
100
AcDbCircle
 10
272.3712056748
 20
239.0484454155
 30
0.0
 40
8.0
100
AcDbArc
 50
270.0
 51
291.2538091854
  0
ARC
  5
2B0
330
1B
100
AcDbEntity
 67
     1
  8
3_ALL_AXES
  6
Continuous
 62
     7
100
AcDbCircle
 10
272.3712056748
 20
239.0484454155
 30
0.0
 40
8.0
100
AcDbArc
 50
248.7461908146
 51
270.0
  0
LINE
  5
2B1
330
1B
100
AcDbEntity
 67
     1
  8
3_ALL_AXES
  6
Continuous
 62
     7
100
AcDbLine
 10
269.4712056748
 20
231.592575245
 30
0.0
 11
275.2712056748
 21
231.592575245
 31
0.0
  0
LINE
  5
2B2
330
1B
100
AcDbEntity
 67
     1
  8
3_ALL_AXES
  6
Continuous
 62
     7
100
AcDbLine
 10
236.4712056748
 20
232.2984454155
 30
0.0
 11
236.4712056748
 21
231.592575245
 31
0.0
  0
LINE
  5
2B3
330
1B
100
AcDbEntity
 67
     1
  8
3_ALL_AXES
  6
Continuous
 62
     7
100
AcDbLine
 10
242.2712056748
 20
232.2984454155
 30
0.0
 11
242.2712056748
 21
231.592575245
 31
0.0
  0
ARC
  5
2B4
330
1B
100
AcDbEntity
 67
     1
  8
3_ALL_AXES
  6
Continuous
 62
     7
100
AcDbCircle
 10
239.3712056748
 20
239.0484454155
 30
0.0
 40
8.0
100
AcDbArc
 50
270.0
 51
291.2538091854
  0
ARC
  5
2B5
330
1B
100
AcDbEntity
 67
     1
  8
3_ALL_AXES
  6
Continuous
 62
     7
100
AcDbCircle
 10
239.3712056748
 20
239.0484454155
 30
0.0
 40
8.0
100
AcDbArc
 50
248.7461908146
 51
270.0
  0
LINE
  5
2B6
330
1B
100
AcDbEntity
 67
     1
  8
3_ALL_AXES
  6
Continuous
 62
     7
100
AcDbLine
 10
236.4712056748
 20
231.592575245
 30
0.0
 11
242.2712056748
 21
231.592575245
 31
0.0
  0
LINE
  5
2B7
330
1B
100
AcDbEntity
 67
     1
  8
3_ALL_AXES
  6
Continuous
 62
     7
100
AcDbLine
 10
66.4712056748
 20
232.2984454155
 30
0.0
 11
66.4712056748
 21
231.592575245
 31
0.0
  0
LINE
  5
2B8
330
1B
100
AcDbEntity
 67
     1
  8
3_ALL_AXES
  6
Continuous
 62
     7
100
AcDbLine
 10
72.2712056748
 20
232.2984454155
 30
0.0
 11
72.2712056748
 21
231.592575245
 31
0.0
  0
ARC
  5
2B9
330
1B
100
AcDbEntity
 67
     1
  8
3_ALL_AXES
  6
Continuous
 62
     7
100
AcDbCircle
 10
69.3712056748
 20
239.0484454155
 30
0.0
 40
8.0
100
AcDbArc
 50
270.0
 51
291.2538091854
  0
ARC
  5
2BA
330
1B
100
AcDbEntity
 67
     1
  8
3_ALL_AXES
  6
Continuous
 62
     7
100
AcDbCircle
 10
69.3712056748
 20
239.0484454155
 30
0.0
 40
8.0
100
AcDbArc
 50
248.7461908146
 51
270.0
  0
LINE
  5
2BB
330
1B
100
AcDbEntity
 67
     1
  8
3_ALL_AXES
  6
Continuous
 62
     7
100
AcDbLine
 10
66.4712056748
 20
231.592575245
 30
0.0
 11
72.2712056748
 21
231.592575245
 31
0.0
  0
LINE
  5
2BC
330
1B
100
AcDbEntity
 67
     1
  8
7_ALL_FEATURES
  6
Continuous
 62
     7
100
AcDbLine
 10
294.3995178383
 20
278.7484454155
 30
0.0
 11
293.6778300019
 21
277.4984454155
 31
0.0
  0
LINE
  5
2BD
330
1B
100
AcDbEntity
 67
     1
  8
7_ALL_FEATURES
  6
Continuous
 62
     7
100
AcDbLine
 10
293.6778300019
 20
277.4984454155
 30
0.0
 11
294.3995178383
 21
276.2484454155
 31
0.0
  0
LINE
  5
2BE
330
1B
100
AcDbEntity
 67
     1
  8
7_ALL_FEATURES
  6
Continuous
 62
     7
100
AcDbLine
 10
294.3995178383
 20
276.2484454155
 30
0.0
 11
295.8428935113
 21
276.2484454155
 31
0.0
  0
LINE
  5
2BF
330
1B
100
AcDbEntity
 67
     1
  8
7_ALL_FEATURES
  6
Continuous
 62
     7
100
AcDbLine
 10
295.8428935113
 20
276.2484454155
 30
0.0
 11
296.5645813478
 21
277.4984454155
 31
0.0
  0
LINE
  5
2C0
330
1B
100
AcDbEntity
 67
     1
  8
7_ALL_FEATURES
  6
Continuous
 62
     7
100
AcDbLine
 10
296.5645813478
 20
277.4984454155
 30
0.0
 11
295.8428935113
 21
278.7484454155
 31
0.0
  0
LINE
  5
2C1
330
1B
100
AcDbEntity
 67
     1
  8
7_ALL_FEATURES
  6
Continuous
 62
     7
100
AcDbLine
 10
295.8428935113
 20
278.7484454155
 30
0.0
 11
294.3995178383
 21
278.7484454155
 31
0.0
  0
ARC
  5
2C2
330
1B
100
AcDbEntity
 67
     1
  8
3_ALL_AXES
  6
Continuous
 62
     7
100
AcDbCircle
 10
295.1212056748
 20
277.4984454155
 30
0.0
 40
3.8
100
AcDbArc
 50
0.0
 51
180.0
  0
ARC
  5
2C3
330
1B
100
AcDbEntity
 67
     1
  8
3_ALL_AXES
  6
Continuous
 62
     7
100
AcDbCircle
 10
295.1212056748
 20
277.4984454155
 30
0.0
 40
3.8
100
AcDbArc
 50
180.0
 51
360.0
  0
ARC
  5
2C4
330
1B
100
AcDbEntity
 67
     1
  8
3_ALL_AXES
  6
Continuous
 62
     7
100
AcDbCircle
 10
295.1212056748
 20
277.4984454155
 30
0.0
 40
1.965
100
AcDbArc
 50
0.0
 51
180.0
  0
ARC
  5
2C5
330
1B
100
AcDbEntity
 67
     1
  8
3_ALL_AXES
  6
Continuous
 62
     7
100
AcDbCircle
 10
295.1212056748
 20
277.4984454155
 30
0.0
 40
1.965
100
AcDbArc
 50
180.0
 51
360.0
  0
LINE
  5
2C6
330
1B
100
AcDbEntity
 67
     1
  8
7_ALL_FEATURES
  6
Continuous
 62
     7
100
AcDbLine
 10
294.3995178383
 20
243.7484454155
 30
0.0
 11
293.6778300019
 21
242.4984454155
 31
0.0
  0
LINE
  5
2C7
330
1B
100
AcDbEntity
 67
     1
  8
7_ALL_FEATURES
  6
Continuous
 62
     7
100
AcDbLine
 10
293.6778300019
 20
242.4984454155
 30
0.0
 11
294.3995178383
 21
241.2484454155
 31
0.0
  0
LINE
  5
2C8
330
1B
100
AcDbEntity
 67
     1
  8
7_ALL_FEATURES
  6
Continuous
 62
     7
100
AcDbLine
 10
294.3995178383
 20
241.2484454155
 30
0.0
 11
295.8428935113
 21
241.2484454155
 31
0.0
  0
LINE
  5
2C9
330
1B
100
AcDbEntity
 67
     1
  8
7_ALL_FEATURES
  6
Continuous
 62
     7
100
AcDbLine
 10
295.8428935113
 20
241.2484454155
 30
0.0
 11
296.5645813478
 21
242.4984454155
 31
0.0
  0
LINE
  5
2CA
330
1B
100
AcDbEntity
 67
     1
  8
7_ALL_FEATURES
  6
Continuous
 62
     7
100
AcDbLine
 10
296.5645813478
 20
242.4984454155
 30
0.0
 11
295.8428935113
 21
243.7484454155
 31
0.0
  0
LINE
  5
2CB
330
1B
100
AcDbEntity
 67
     1
  8
7_ALL_FEATURES
  6
Continuous
 62
     7
100
AcDbLine
 10
295.8428935113
 20
243.7484454155
 30
0.0
 11
294.3995178383
 21
243.7484454155
 31
0.0
  0
ARC
  5
2CC
330
1B
100
AcDbEntity
 67
     1
  8
3_ALL_AXES
  6
Continuous
 62
     7
100
AcDbCircle
 10
295.1212056748
 20
242.4984454155
 30
0.0
 40
3.8
100
AcDbArc
 50
0.0
 51
180.0
  0
ARC
  5
2CD
330
1B
100
AcDbEntity
 67
     1
  8
3_ALL_AXES
  6
Continuous
 62
     7
100
AcDbCircle
 10
295.1212056748
 20
242.4984454155
 30
0.0
 40
3.8
100
AcDbArc
 50
180.0
 51
360.0
  0
ARC
  5
2CE
330
1B
100
AcDbEntity
 67
     1
  8
3_ALL_AXES
  6
Continuous
 62
     7
100
AcDbCircle
 10
295.1212056748
 20
242.4984454155
 30
0.0
 40
1.965
100
AcDbArc
 50
0.0
 51
180.0
  0
ARC
  5
2CF
330
1B
100
AcDbEntity
 67
     1
  8
3_ALL_AXES
  6
Continuous
 62
     7
100
AcDbCircle
 10
295.1212056748
 20
242.4984454155
 30
0.0
 40
1.965
100
AcDbArc
 50
180.0
 51
360.0
  0
LINE
  5
2D0
330
1B
100
AcDbEntity
 67
     1
  8
7_ALL_FEATURES
  6
Continuous
 62
     7
100
AcDbLine
 10
45.8995178383
 20
278.7484454155
 30
0.0
 11
45.1778300019
 21
277.4984454155
 31
0.0
  0
LINE
  5
2D1
330
1B
100
AcDbEntity
 67
     1
  8
7_ALL_FEATURES
  6
Continuous
 62
     7
100
AcDbLine
 10
45.1778300019
 20
277.4984454155
 30
0.0
 11
45.8995178383
 21
276.2484454155
 31
0.0
  0
LINE
  5
2D2
330
1B
100
AcDbEntity
 67
     1
  8
7_ALL_FEATURES
  6
Continuous
 62
     7
100
AcDbLine
 10
45.8995178383
 20
276.2484454155
 30
0.0
 11
47.3428935113
 21
276.2484454155
 31
0.0
  0
LINE
  5
2D3
330
1B
100
AcDbEntity
 67
     1
  8
7_ALL_FEATURES
  6
Continuous
 62
     7
100
AcDbLine
 10
47.3428935113
 20
276.2484454155
 30
0.0
 11
48.0645813478
 21
277.4984454155
 31
0.0
  0
LINE
  5
2D4
330
1B
100
AcDbEntity
 67
     1
  8
7_ALL_FEATURES
  6
Continuous
 62
     7
100
AcDbLine
 10
48.0645813478
 20
277.4984454155
 30
0.0
 11
47.3428935113
 21
278.7484454155
 31
0.0
  0
LINE
  5
2D5
330
1B
100
AcDbEntity
 67
     1
  8
7_ALL_FEATURES
  6
Continuous
 62
     7
100
AcDbLine
 10
47.3428935113
 20
278.7484454155
 30
0.0
 11
45.8995178383
 21
278.7484454155
 31
0.0
  0
ARC
  5
2D6
330
1B
100
AcDbEntity
 67
     1
  8
3_ALL_AXES
  6
Continuous
 62
     7
100
AcDbCircle
 10
46.6212056748
 20
277.4984454155
 30
0.0
 40
3.8
100
AcDbArc
 50
0.0
 51
180.0
  0
ARC
  5
2D7
330
1B
100
AcDbEntity
 67
     1
  8
3_ALL_AXES
  6
Continuous
 62
     7
100
AcDbCircle
 10
46.6212056748
 20
277.4984454155
 30
0.0
 40
3.8
100
AcDbArc
 50
180.0
 51
360.0
  0
ARC
  5
2D8
330
1B
100
AcDbEntity
 67
     1
  8
3_ALL_AXES
  6
Continuous
 62
     7
100
AcDbCircle
 10
46.6212056748
 20
277.4984454155
 30
0.0
 40
1.965
100
AcDbArc
 50
0.0
 51
180.0
  0
ARC
  5
2D9
330
1B
100
AcDbEntity
 67
     1
  8
3_ALL_AXES
  6
Continuous
 62
     7
100
AcDbCircle
 10
46.6212056748
 20
277.4984454155
 30
0.0
 40
1.965
100
AcDbArc
 50
180.0
 51
360.0
  0
LINE
  5
2DA
330
1B
100
AcDbEntity
 67
     1
  8
7_ALL_FEATURES
  6
Continuous
 62
     7
100
AcDbLine
 10
45.8995178383
 20
243.7484454155
 30
0.0
 11
45.1778300019
 21
242.4984454155
 31
0.0
  0
LINE
  5
2DB
330
1B
100
AcDbEntity
 67
     1
  8
7_ALL_FEATURES
  6
Continuous
 62
     7
100
AcDbLine
 10
45.1778300019
 20
242.4984454155
 30
0.0
 11
45.8995178383
 21
241.2484454155
 31
0.0
  0
LINE
  5
2DC
330
1B
100
AcDbEntity
 67
     1
  8
7_ALL_FEATURES
  6
Continuous
 62
     7
100
AcDbLine
 10
45.8995178383
 20
241.2484454155
 30
0.0
 11
47.3428935113
 21
241.2484454155
 31
0.0
  0
LINE
  5
2DD
330
1B
100
AcDbEntity
 67
     1
  8
7_ALL_FEATURES
  6
Continuous
 62
     7
100
AcDbLine
 10
47.3428935113
 20
241.2484454155
 30
0.0
 11
48.0645813478
 21
242.4984454155
 31
0.0
  0
LINE
  5
2DE
330
1B
100
AcDbEntity
 67
     1
  8
7_ALL_FEATURES
  6
Continuous
 62
     7
100
AcDbLine
 10
48.0645813478
 20
242.4984454155
 30
0.0
 11
47.3428935113
 21
243.7484454155
 31
0.0
  0
LINE
  5
2DF
330
1B
100
AcDbEntity
 67
     1
  8
7_ALL_FEATURES
  6
Continuous
 62
     7
100
AcDbLine
 10
47.3428935113
 20
243.7484454155
 30
0.0
 11
45.8995178383
 21
243.7484454155
 31
0.0
  0
ARC
  5
2E0
330
1B
100
AcDbEntity
 67
     1
  8
3_ALL_AXES
  6
Continuous
 62
     7
100
AcDbCircle
 10
46.6212056748
 20
242.4984454155
 30
0.0
 40
3.8
100
AcDbArc
 50
0.0
 51
180.0
  0
ARC
  5
2E1
330
1B
100
AcDbEntity
 67
     1
  8
3_ALL_AXES
  6
Continuous
 62
     7
100
AcDbCircle
 10
46.6212056748
 20
242.4984454155
 30
0.0
 40
3.8
100
AcDbArc
 50
180.0
 51
360.0
  0
ARC
  5
2E2
330
1B
100
AcDbEntity
 67
     1
  8
3_ALL_AXES
  6
Continuous
 62
     7
100
AcDbCircle
 10
46.6212056748
 20
242.4984454155
 30
0.0
 40
1.965
100
AcDbArc
 50
0.0
 51
180.0
  0
ARC
  5
2E3
330
1B
100
AcDbEntity
 67
     1
  8
3_ALL_AXES
  6
Continuous
 62
     7
100
AcDbCircle
 10
46.6212056748
 20
242.4984454155
 30
0.0
 40
1.965
100
AcDbArc
 50
180.0
 51
360.0
  0
LINE
  5
2E4
330
1B
100
AcDbEntity
 67
     1
  8
7_ALL_FEATURES
  6
Continuous
 62
     7
100
AcDbLine
 10
234.6212056748
 20
233.4984454155
 30
0.0
 11
237.6212056748
 21
233.4984454155
 31
0.0
  0
LINE
  5
2E5
330
1B
100
AcDbEntity
 67
     1
  8
7_ALL_FEATURES
  6
Continuous
 62
     7
100
AcDbLine
 10
237.6212056748
 20
233.4984454155
 30
0.0
 11
244.1147139864
 21
233.4984454155
 31
0.0
  0
LINE
  5
2E6
330
1B
100
AcDbEntity
 67
     1
  8
7_ALL_FEATURES
  6
Continuous
 62
     7
100
AcDbLine
 10
244.1147139864
 20
233.4984454155
 30
0.0
 11
244.1212056748
 21
233.4984454155
 31
0.0
  0
LINE
  5
2E7
330
1B
100
AcDbEntity
 67
     1
  8
7_ALL_FEATURES
  6
Continuous
 62
     7
100
AcDbLine
 10
244.1212056748
 20
233.4984454155
 30
0.0
 11
244.6212056748
 21
233.4984454155
 31
0.0
  0
LINE
  5
2E8
330
1B
100
AcDbEntity
 67
     1
  8
7_ALL_FEATURES
  6
Continuous
 62
     7
100
AcDbLine
 10
267.1212056748
 20
233.4984454155
 30
0.0
 11
244.6212056748
 21
233.4984454155
 31
0.0
  0
LINE
  5
2E9
330
1B
100
AcDbEntity
 67
     1
  8
7_ALL_FEATURES
  6
Continuous
 62
     7
100
AcDbLine
 10
267.1212056748
 20
233.4984454155
 30
0.0
 11
267.6212056748
 21
233.4984454155
 31
0.0
  0
LINE
  5
2EA
330
1B
100
AcDbEntity
 67
     1
  8
7_ALL_FEATURES
  6
Continuous
 62
     7
100
AcDbLine
 10
267.6212056748
 20
233.4984454155
 30
0.0
 11
267.6276973632
 21
233.4984454155
 31
0.0
  0
LINE
  5
2EB
330
1B
100
AcDbEntity
 67
     1
  8
7_ALL_FEATURES
  6
Continuous
 62
     7
100
AcDbLine
 10
267.6276973632
 20
233.4984454155
 30
0.0
 11
274.1212056748
 21
233.4984454155
 31
0.0
  0
LINE
  5
2EC
330
1B
100
AcDbEntity
 67
     1
  8
7_ALL_FEATURES
  6
Continuous
 62
     7
100
AcDbLine
 10
274.1212056748
 20
233.4984454155
 30
0.0
 11
277.1212056748
 21
233.4984454155
 31
0.0
  0
LINE
  5
2ED
330
1B
100
AcDbEntity
 67
     1
  8
7_ALL_FEATURES
  6
Continuous
 62
     7
100
AcDbLine
 10
234.6212056748
 20
233.4984454155
 30
0.0
 11
234.6212056748
 21
232.2984454155
 31
0.0
  0
LINE
  5
2EE
330
1B
100
AcDbEntity
 67
     1
  8
7_ALL_FEATURES
  6
Continuous
 62
     7
100
AcDbLine
 10
277.1212056748
 20
233.4984454155
 30
0.0
 11
277.1212056748
 21
232.2984454155
 31
0.0
  0
LINE
  5
2EF
330
1B
100
AcDbEntity
 67
     1
  8
7_ALL_FEATURES
  6
Continuous
 62
     9
100
AcDbLine
 10
244.6212056748
 20
233.4984454155
 30
0.0
 11
244.6212056748
 21
232.2984454155
 31
0.0
  0
LINE
  5
2F0
330
1B
100
AcDbEntity
 67
     1
  8
7_ALL_FEATURES
  6
Continuous
 62
     9
100
AcDbLine
 10
267.1212056748
 20
233.4984454155
 30
0.0
 11
267.1212056748
 21
232.2984454155
 31
0.0
  0
LINE
  5
2F1
330
1B
100
AcDbEntity
 67
     1
  8
7_ALL_FEATURES
  6
Continuous
 62
     7
100
AcDbLine
 10
64.6212056748
 20
233.4984454155
 30
0.0
 11
67.6212056748
 21
233.4984454155
 31
0.0
  0
LINE
  5
2F2
330
1B
100
AcDbEntity
 67
     1
  8
7_ALL_FEATURES
  6
Continuous
 62
     7
100
AcDbLine
 10
67.6212056748
 20
233.4984454155
 30
0.0
 11
74.1147139864
 21
233.4984454155
 31
0.0
  0
LINE
  5
2F3
330
1B
100
AcDbEntity
 67
     1
  8
7_ALL_FEATURES
  6
Continuous
 62
     7
100
AcDbLine
 10
74.1147139864
 20
233.4984454155
 30
0.0
 11
74.1212056748
 21
233.4984454155
 31
0.0
  0
LINE
  5
2F4
330
1B
100
AcDbEntity
 67
     1
  8
7_ALL_FEATURES
  6
Continuous
 62
     7
100
AcDbLine
 10
74.1212056748
 20
233.4984454155
 30
0.0
 11
74.6212056748
 21
233.4984454155
 31
0.0
  0
LINE
  5
2F5
330
1B
100
AcDbEntity
 67
     1
  8
7_ALL_FEATURES
  6
Continuous
 62
     7
100
AcDbLine
 10
97.1212056748
 20
233.4984454155
 30
0.0
 11
74.6212056748
 21
233.4984454155
 31
0.0
  0
LINE
  5
2F6
330
1B
100
AcDbEntity
 67
     1
  8
7_ALL_FEATURES
  6
Continuous
 62
     7
100
AcDbLine
 10
97.1212056748
 20
233.4984454155
 30
0.0
 11
97.6212056748
 21
233.4984454155
 31
0.0
  0
LINE
  5
2F7
330
1B
100
AcDbEntity
 67
     1
  8
7_ALL_FEATURES
  6
Continuous
 62
     7
100
AcDbLine
 10
97.6212056748
 20
233.4984454155
 30
0.0
 11
97.6276973632
 21
233.4984454155
 31
0.0
  0
LINE
  5
2F8
330
1B
100
AcDbEntity
 67
     1
  8
7_ALL_FEATURES
  6
Continuous
 62
     7
100
AcDbLine
 10
97.6276973632
 20
233.4984454155
 30
0.0
 11
104.1212056748
 21
233.4984454155
 31
0.0
  0
LINE
  5
2F9
330
1B
100
AcDbEntity
 67
     1
  8
7_ALL_FEATURES
  6
Continuous
 62
     7
100
AcDbLine
 10
104.1212056748
 20
233.4984454155
 30
0.0
 11
107.1212056748
 21
233.4984454155
 31
0.0
  0
LINE
  5
2FA
330
1B
100
AcDbEntity
 67
     1
  8
7_ALL_FEATURES
  6
Continuous
 62
     7
100
AcDbLine
 10
64.6212056748
 20
233.4984454155
 30
0.0
 11
64.6212056748
 21
232.2984454155
 31
0.0
  0
LINE
  5
2FB
330
1B
100
AcDbEntity
 67
     1
  8
7_ALL_FEATURES
  6
Continuous
 62
     7
100
AcDbLine
 10
107.1212056748
 20
233.4984454155
 30
0.0
 11
107.1212056748
 21
232.2984454155
 31
0.0
  0
LINE
  5
2FC
330
1B
100
AcDbEntity
 67
     1
  8
7_ALL_FEATURES
  6
Continuous
 62
     9
100
AcDbLine
 10
74.6212056748
 20
233.4984454155
 30
0.0
 11
74.6212056748
 21
232.2984454155
 31
0.0
  0
LINE
  5
2FD
330
1B
100
AcDbEntity
 67
     1
  8
7_ALL_FEATURES
  6
Continuous
 62
     9
100
AcDbLine
 10
97.1212056748
 20
233.4984454155
 30
0.0
 11
97.1212056748
 21
232.2984454155
 31
0.0
  0
LINE
  5
2FE
330
1B
100
AcDbEntity
 67
     1
  8
7_ALL_FEATURES
  6
Continuous
 62
     7
100
AcDbLine
 10
302.1212056748
 20
233.4984454155
 30
0.0
 11
301.1212056748
 21
233.4984454155
 31
0.0
  0
LINE
  5
2FF
330
1B
100
AcDbEntity
 67
     1
  8
7_ALL_FEATURES
  6
Continuous
 62
     7
100
AcDbLine
 10
302.1212056748
 20
322.4984454155
 30
0.0
 11
302.1212056748
 21
321.9984454155
 31
0.0
  0
LINE
  5
300
330
1B
100
AcDbEntity
 67
     1
  8
7_ALL_FEATURES
  6
Continuous
 62
     7
100
AcDbLine
 10
302.1212056748
 20
282.9984454155
 30
0.0
 11
302.1212056748
 21
321.9984454155
 31
0.0
  0
LINE
  5
301
330
1B
100
AcDbEntity
 67
     1
  8
7_ALL_FEATURES
  6
Continuous
 62
     7
100
AcDbLine
 10
302.1212056748
 20
281.9984454155
 30
0.0
 11
302.1212056748
 21
282.9984454155
 31
0.0
  0
LINE
  5
302
330
1B
100
AcDbEntity
 67
     1
  8
7_ALL_FEATURES
  6
Continuous
 62
     7
100
AcDbLine
 10
302.1212056748
 20
272.9984454155
 30
0.0
 11
302.1212056748
 21
271.9984454155
 31
0.0
  0
LINE
  5
303
330
1B
100
AcDbEntity
 67
     1
  8
7_ALL_FEATURES
  6
Continuous
 62
     7
100
AcDbLine
 10
302.1212056748
 20
248.1984454155
 30
0.0
 11
302.1212056748
 21
271.9984454155
 31
0.0
  0
LINE
  5
304
330
1B
100
AcDbEntity
 67
     1
  8
7_ALL_FEATURES
  6
Continuous
 62
     7
100
AcDbLine
 10
302.1212056748
 20
246.9984454155
 30
0.0
 11
302.1212056748
 21
248.1984454155
 31
0.0
  0
LINE
  5
305
330
1B
100
AcDbEntity
 67
     1
  8
7_ALL_FEATURES
  6
Continuous
 62
     7
100
AcDbLine
 10
302.1212056748
 20
237.9984454155
 30
0.0
 11
302.1212056748
 21
236.7984454155
 31
0.0
  0
LINE
  5
306
330
1B
100
AcDbEntity
 67
     1
  8
7_ALL_FEATURES
  6
Continuous
 62
     7
100
AcDbLine
 10
302.1212056748
 20
233.9984454155
 30
0.0
 11
302.1212056748
 21
236.7984454155
 31
0.0
  0
LINE
  5
307
330
1B
100
AcDbEntity
 67
     1
  8
7_ALL_FEATURES
  6
Continuous
 62
     7
100
AcDbLine
 10
302.1212056748
 20
233.9984454155
 30
0.0
 11
302.1212056748
 21
233.4984454155
 31
0.0
  0
LINE
  5
308
330
1B
100
AcDbEntity
 67
     1
  8
7_ALL_FEATURES
  6
Continuous
 62
     7
100
AcDbLine
 10
302.1212056748
 20
282.9984454155
 30
0.0
 11
301.1212056748
 21
282.9984454155
 31
0.0
  0
LINE
  5
309
330
1B
100
AcDbEntity
 67
     1
  8
7_ALL_FEATURES
  6
Continuous
 62
     7
100
AcDbLine
 10
302.1212056748
 20
236.7984454155
 30
0.0
 11
301.1212056748
 21
236.7984454155
 31
0.0
  0
LINE
  5
30A
330
1B
100
AcDbEntity
 67
     1
  8
7_ALL_FEATURES
  6
Continuous
 62
     7
100
AcDbLine
 10
302.1212056748
 20
248.1984454155
 30
0.0
 11
301.1212056748
 21
248.1984454155
 31
0.0
  0
LINE
  5
30B
330
1B
100
AcDbEntity
 67
     1
  8
7_ALL_FEATURES
  6
Continuous
 62
     7
100
AcDbLine
 10
302.1212056748
 20
271.9984454155
 30
0.0
 11
301.1212056748
 21
271.9984454155
 31
0.0
  0
LINE
  5
30C
330
1B
100
AcDbEntity
 67
     1
  8
7_ALL_FEATURES
  6
Continuous
 62
     7
100
AcDbLine
 10
302.1212056748
 20
322.4984454155
 30
0.0
 11
301.1212056748
 21
322.4984454155
 31
0.0
  0
LINE
  5
30D
330
1B
100
AcDbEntity
 67
     1
  8
7_ALL_FEATURES
  6
Continuous
 62
     7
100
AcDbLine
 10
302.1212056748
 20
272.9984454155
 30
0.0
 11
302.1212056748
 21
281.9984454155
 31
0.0
  0
LINE
  5
30E
330
1B
100
AcDbEntity
 67
     1
  8
7_ALL_FEATURES
  6
Continuous
 62
     7
100
AcDbLine
 10
301.8892872864
 20
281.9984454155
 30
0.0
 11
302.1212056748
 21
281.9984454155
 31
0.0
  0
LINE
  5
30F
330
1B
100
AcDbEntity
 67
     1
  8
7_ALL_FEATURES
  6
Continuous
 62
     7
100
AcDbLine
 10
300.1212056748
 20
281.9984454155
 30
0.0
 11
301.8892872864
 21
281.9984454155
 31
0.0
  0
LINE
  5
310
330
1B
100
AcDbEntity
 67
     1
  8
7_ALL_FEATURES
  6
Continuous
 62
     7
100
AcDbLine
 10
300.1212056748
 20
272.9984454155
 30
0.0
 11
301.8892872864
 21
272.9984454155
 31
0.0
  0
LINE
  5
311
330
1B
100
AcDbEntity
 67
     1
  8
7_ALL_FEATURES
  6
Continuous
 62
     7
100
AcDbLine
 10
301.8892872864
 20
272.9984454155
 30
0.0
 11
302.1212056748
 21
272.9984454155
 31
0.0
  0
LINE
  5
312
330
1B
100
AcDbEntity
 67
     1
  8
7_ALL_FEATURES
  6
Continuous
 62
     7
100
AcDbLine
 10
289.6212056748
 20
277.9984454155
 30
0.0
 11
289.6212056748
 21
276.9984454155
 31
0.0
  0
ARC
  5
313
330
1B
100
AcDbEntity
 67
     1
  8
7_ALL_FEATURES
  6
Continuous
 62
     7
100
AcDbCircle
 10
293.6212056748
 20
276.9984454155
 30
0.0
 40
4.0
100
AcDbArc
 50
180.0
 51
270.0
  0
LINE
  5
314
330
1B
100
AcDbEntity
 67
     1
  8
7_ALL_FEATURES
  6
Continuous
 62
     7
100
AcDbLine
 10
293.6212056748
 20
272.9984454155
 30
0.0
 11
300.1212056748
 21
272.9984454155
 31
0.0
  0
LINE
  5
315
330
1B
100
AcDbEntity
 67
     1
  8
7_ALL_FEATURES
  6
Continuous
 62
     7
100
AcDbLine
 10
300.1212056748
 20
281.9984454155
 30
0.0
 11
293.6212056748
 21
281.9984454155
 31
0.0
  0
ARC
  5
316
330
1B
100
AcDbEntity
 67
     1
  8
7_ALL_FEATURES
  6
Continuous
 62
     7
100
AcDbCircle
 10
293.6212056748
 20
277.9984454155
 30
0.0
 40
4.0
100
AcDbArc
 50
90.0
 51
180.0
  0
ARC
  5
317
330
1B
100
AcDbEntity
 67
     1
  8
02___PRT_ALL_AXES
  6
Continuous
 62
     7
100
AcDbCircle
 10
296.8712056748
 20
277.4984454155
 30
0.0
 40
2.25
100
AcDbArc
 50
322.6319343851999
 51
37.3680656148
  0
ARC
  5
318
330
1B
100
AcDbEntity
 67
     1
  8
02___PRT_ALL_AXES
  6
Continuous
 62
     7
100
AcDbCircle
 10
293.3712056748
 20
277.4984454155
 30
0.0
 40
2.25
100
AcDbArc
 50
142.6319343852
 51
217.3680656148
  0
LINE
  5
319
330
1B
100
AcDbEntity
 67
     1
  8
7_ALL_FEATURES
  6
Continuous
 62
     7
100
AcDbLine
 10
302.1212056748
 20
237.9984454155
 30
0.0
 11
302.1212056748
 21
246.9984454155
 31
0.0
  0
LINE
  5
31A
330
1B
100
AcDbEntity
 67
     1
  8
7_ALL_FEATURES
  6
Continuous
 62
     7
100
AcDbLine
 10
301.8892872864
 20
246.9984454155
 30
0.0
 11
302.1212056748
 21
246.9984454155
 31
0.0
  0
LINE
  5
31B
330
1B
100
AcDbEntity
 67
     1
  8
7_ALL_FEATURES
  6
Continuous
 62
     7
100
AcDbLine
 10
300.1212056748
 20
246.9984454155
 30
0.0
 11
301.8892872864
 21
246.9984454155
 31
0.0
  0
LINE
  5
31C
330
1B
100
AcDbEntity
 67
     1
  8
7_ALL_FEATURES
  6
Continuous
 62
     7
100
AcDbLine
 10
300.1212056748
 20
237.9984454155
 30
0.0
 11
301.8892872864
 21
237.9984454155
 31
0.0
  0
LINE
  5
31D
330
1B
100
AcDbEntity
 67
     1
  8
7_ALL_FEATURES
  6
Continuous
 62
     7
100
AcDbLine
 10
301.8892872864
 20
237.9984454155
 30
0.0
 11
302.1212056748
 21
237.9984454155
 31
0.0
  0
LINE
  5
31E
330
1B
100
AcDbEntity
 67
     1
  8
7_ALL_FEATURES
  6
Continuous
 62
     7
100
AcDbLine
 10
289.6212056748
 20
242.9984454155
 30
0.0
 11
289.6212056748
 21
241.9984454155
 31
0.0
  0
ARC
  5
31F
330
1B
100
AcDbEntity
 67
     1
  8
7_ALL_FEATURES
  6
Continuous
 62
     7
100
AcDbCircle
 10
293.6212056748
 20
241.9984454155
 30
0.0
 40
4.0
100
AcDbArc
 50
180.0
 51
270.0
  0
LINE
  5
320
330
1B
100
AcDbEntity
 67
     1
  8
7_ALL_FEATURES
  6
Continuous
 62
     7
100
AcDbLine
 10
293.6212056748
 20
237.9984454155
 30
0.0
 11
300.1212056748
 21
237.9984454155
 31
0.0
  0
LINE
  5
321
330
1B
100
AcDbEntity
 67
     1
  8
7_ALL_FEATURES
  6
Continuous
 62
     7
100
AcDbLine
 10
300.1212056748
 20
246.9984454155
 30
0.0
 11
293.6212056748
 21
246.9984454155
 31
0.0
  0
ARC
  5
322
330
1B
100
AcDbEntity
 67
     1
  8
7_ALL_FEATURES
  6
Continuous
 62
     7
100
AcDbCircle
 10
293.6212056748
 20
242.9984454155
 30
0.0
 40
4.0
100
AcDbArc
 50
90.0
 51
180.0
  0
ARC
  5
323
330
1B
100
AcDbEntity
 67
     1
  8
02___PRT_ALL_AXES
  6
Continuous
 62
     7
100
AcDbCircle
 10
293.3712056748
 20
242.4984454155
 30
0.0
 40
2.25
100
AcDbArc
 50
142.6319343852
 51
217.3680656148
  0
ARC
  5
324
330
1B
100
AcDbEntity
 67
     1
  8
02___PRT_ALL_AXES
  6
Continuous
 62
     7
100
AcDbCircle
 10
296.8712056748
 20
242.4984454155
 30
0.0
 40
2.25
100
AcDbArc
 50
322.6319343851999
 51
37.3680656148
  0
LINE
  5
325
330
1B
100
AcDbEntity
 67
     1
  8
7_ALL_FEATURES
  6
Continuous
 62
     9
100
AcDbLine
 10
300.1212056748
 20
272.9984454155
 30
0.0
 11
300.1212056748
 21
281.9984454155
 31
0.0
  0
LINE
  5
326
330
1B
100
AcDbEntity
 67
     1
  8
7_ALL_FEATURES
  6
Continuous
 62
     9
100
AcDbLine
 10
300.1212056748
 20
237.9984454155
 30
0.0
 11
300.1212056748
 21
246.9984454155
 31
0.0
  0
LINE
  5
327
330
1B
100
AcDbEntity
 67
     1
  8
7_ALL_FEATURES
  6
Continuous
 62
     9
100
AcDbLine
 10
302.1212056748
 20
321.9984454155
 30
0.0
 11
301.1212056748
 21
321.9984454155
 31
0.0
  0
LINE
  5
328
330
1B
100
AcDbEntity
 67
     1
  8
7_ALL_FEATURES
  6
Continuous
 62
     9
100
AcDbLine
 10
302.1212056748
 20
233.9984454155
 30
0.0
 11
301.1212056748
 21
233.9984454155
 31
0.0
  0
LINE
  5
329
330
1B
100
AcDbEntity
 67
     1
  8
7_ALL_FEATURES
  6
Continuous
 62
     7
100
AcDbLine
 10
39.6212056748
 20
233.4984454155
 30
0.0
 11
40.6212056748
 21
233.4984454155
 31
0.0
  0
LINE
  5
32A
330
1B
100
AcDbEntity
 67
     1
  8
7_ALL_FEATURES
  6
Continuous
 62
     7
100
AcDbLine
 10
39.6212056748
 20
233.4984454155
 30
0.0
 11
39.6212056748
 21
233.9984454155
 31
0.0
  0
LINE
  5
32B
330
1B
100
AcDbEntity
 67
     1
  8
7_ALL_FEATURES
  6
Continuous
 62
     7
100
AcDbLine
 10
39.6212056748
 20
236.7984454155
 30
0.0
 11
39.6212056748
 21
233.9984454155
 31
0.0
  0
LINE
  5
32C
330
1B
100
AcDbEntity
 67
     1
  8
7_ALL_FEATURES
  6
Continuous
 62
     7
100
AcDbLine
 10
39.6212056748
 20
237.9984454155
 30
0.0
 11
39.6212056748
 21
236.7984454155
 31
0.0
  0
LINE
  5
32D
330
1B
100
AcDbEntity
 67
     1
  8
7_ALL_FEATURES
  6
Continuous
 62
     7
100
AcDbLine
 10
39.6212056748
 20
246.9984454155
 30
0.0
 11
39.6212056748
 21
248.1984454155
 31
0.0
  0
LINE
  5
32E
330
1B
100
AcDbEntity
 67
     1
  8
7_ALL_FEATURES
  6
Continuous
 62
     7
100
AcDbLine
 10
39.6212056748
 20
271.7984454155
 30
0.0
 11
39.6212056748
 21
248.1984454155
 31
0.0
  0
LINE
  5
32F
330
1B
100
AcDbEntity
 67
     1
  8
7_ALL_FEATURES
  6
Continuous
 62
     7
100
AcDbLine
 10
39.6212056748
 20
272.9984454155
 30
0.0
 11
39.6212056748
 21
271.7984454155
 31
0.0
  0
LINE
  5
330
330
1B
100
AcDbEntity
 67
     1
  8
7_ALL_FEATURES
  6
Continuous
 62
     7
100
AcDbLine
 10
39.6212056748
 20
281.9984454155
 30
0.0
 11
39.6212056748
 21
283.1984454155
 31
0.0
  0
LINE
  5
331
330
1B
100
AcDbEntity
 67
     1
  8
7_ALL_FEATURES
  6
Continuous
 62
     7
100
AcDbLine
 10
39.6212056748
 20
321.9984454155
 30
0.0
 11
39.6212056748
 21
283.1984454155
 31
0.0
  0
LINE
  5
332
330
1B
100
AcDbEntity
 67
     1
  8
7_ALL_FEATURES
  6
Continuous
 62
     7
100
AcDbLine
 10
39.6212056748
 20
321.9984454155
 30
0.0
 11
39.6212056748
 21
322.4984454155
 31
0.0
  0
LINE
  5
333
330
1B
100
AcDbEntity
 67
     1
  8
7_ALL_FEATURES
  6
Continuous
 62
     7
100
AcDbLine
 10
39.6212056748
 20
322.4984454155
 30
0.0
 11
40.6212056748
 21
322.4984454155
 31
0.0
  0
LINE
  5
334
330
1B
100
AcDbEntity
 67
     1
  8
7_ALL_FEATURES
  6
Continuous
 62
     7
100
AcDbLine
 10
39.6212056748
 20
283.1984454155
 30
0.0
 11
40.6212056748
 21
283.1984454155
 31
0.0
  0
LINE
  5
335
330
1B
100
AcDbEntity
 67
     1
  8
7_ALL_FEATURES
  6
Continuous
 62
     7
100
AcDbLine
 10
39.6212056748
 20
236.7984454155
 30
0.0
 11
40.6212056748
 21
236.7984454155
 31
0.0
  0
LINE
  5
336
330
1B
100
AcDbEntity
 67
     1
  8
7_ALL_FEATURES
  6
Continuous
 62
     7
100
AcDbLine
 10
39.6212056748
 20
248.1984454155
 30
0.0
 11
40.6212056748
 21
248.1984454155
 31
0.0
  0
LINE
  5
337
330
1B
100
AcDbEntity
 67
     1
  8
7_ALL_FEATURES
  6
Continuous
 62
     7
100
AcDbLine
 10
39.6212056748
 20
271.7984454155
 30
0.0
 11
40.6212056748
 21
271.7984454155
 31
0.0
  0
LINE
  5
338
330
1B
100
AcDbEntity
 67
     1
  8
7_ALL_FEATURES
  6
Continuous
 62
     7
100
AcDbLine
 10
39.6212056748
 20
281.9984454155
 30
0.0
 11
39.6212056748
 21
272.9984454155
 31
0.0
  0
LINE
  5
339
330
1B
100
AcDbEntity
 67
     1
  8
7_ALL_FEATURES
  6
Continuous
 62
     7
100
AcDbLine
 10
39.8531240633
 20
272.9984454155
 30
0.0
 11
39.6212056748
 21
272.9984454155
 31
0.0
  0
LINE
  5
33A
330
1B
100
AcDbEntity
 67
     1
  8
7_ALL_FEATURES
  6
Continuous
 62
     7
100
AcDbLine
 10
41.6212056748
 20
272.9984454155
 30
0.0
 11
39.8531240633
 21
272.9984454155
 31
0.0
  0
LINE
  5
33B
330
1B
100
AcDbEntity
 67
     1
  8
7_ALL_FEATURES
  6
Continuous
 62
     7
100
AcDbLine
 10
41.6212056748
 20
281.9984454155
 30
0.0
 11
39.8531240633
 21
281.9984454155
 31
0.0
  0
LINE
  5
33C
330
1B
100
AcDbEntity
 67
     1
  8
7_ALL_FEATURES
  6
Continuous
 62
     7
100
AcDbLine
 10
39.8531240633
 20
281.9984454155
 30
0.0
 11
39.6212056748
 21
281.9984454155
 31
0.0
  0
LINE
  5
33D
330
1B
100
AcDbEntity
 67
     1
  8
7_ALL_FEATURES
  6
Continuous
 62
     7
100
AcDbLine
 10
48.1212056748
 20
281.9984454155
 30
0.0
 11
41.6212056748
 21
281.9984454155
 31
0.0
  0
LINE
  5
33E
330
1B
100
AcDbEntity
 67
     1
  8
7_ALL_FEATURES
  6
Continuous
 62
     7
100
AcDbLine
 10
41.6212056748
 20
272.9984454155
 30
0.0
 11
48.1212056748
 21
272.9984454155
 31
0.0
  0
ARC
  5
33F
330
1B
100
AcDbEntity
 67
     1
  8
7_ALL_FEATURES
  6
Continuous
 62
     7
100
AcDbCircle
 10
48.1212056748
 20
276.9984454155
 30
0.0
 40
4.0
100
AcDbArc
 50
270.0
 51
360.0
  0
LINE
  5
340
330
1B
100
AcDbEntity
 67
     1
  8
7_ALL_FEATURES
  6
Continuous
 62
     7
100
AcDbLine
 10
52.1212056748
 20
276.9984454155
 30
0.0
 11
52.1212056748
 21
277.9984454155
 31
0.0
  0
ARC
  5
341
330
1B
100
AcDbEntity
 67
     1
  8
7_ALL_FEATURES
  6
Continuous
 62
     7
100
AcDbCircle
 10
48.1212056748
 20
277.9984454155
 30
0.0
 40
4.0
100
AcDbArc
 50
0.0
 51
90.0
  0
ARC
  5
342
330
1B
100
AcDbEntity
 67
     1
  8
02___PRT_ALL_AXES
  6
Continuous
 62
     7
100
AcDbCircle
 10
48.3712056748
 20
277.4984454155
 30
0.0
 40
2.25
100
AcDbArc
 50
322.6319343851999
 51
37.3680656148
  0
ARC
  5
343
330
1B
100
AcDbEntity
 67
     1
  8
02___PRT_ALL_AXES
  6
Continuous
 62
     7
100
AcDbCircle
 10
44.8712056748
 20
277.4984454155
 30
0.0
 40
2.25
100
AcDbArc
 50
142.6319343852
 51
217.3680656148
  0
LINE
  5
344
330
1B
100
AcDbEntity
 67
     1
  8
7_ALL_FEATURES
  6
Continuous
 62
     7
100
AcDbLine
 10
39.6212056748
 20
246.9984454155
 30
0.0
 11
39.6212056748
 21
237.9984454155
 31
0.0
  0
LINE
  5
345
330
1B
100
AcDbEntity
 67
     1
  8
7_ALL_FEATURES
  6
Continuous
 62
     7
100
AcDbLine
 10
39.8531240633
 20
237.9984454155
 30
0.0
 11
39.6212056748
 21
237.9984454155
 31
0.0
  0
LINE
  5
346
330
1B
100
AcDbEntity
 67
     1
  8
7_ALL_FEATURES
  6
Continuous
 62
     7
100
AcDbLine
 10
41.6212056748
 20
237.9984454155
 30
0.0
 11
39.8531240633
 21
237.9984454155
 31
0.0
  0
LINE
  5
347
330
1B
100
AcDbEntity
 67
     1
  8
7_ALL_FEATURES
  6
Continuous
 62
     7
100
AcDbLine
 10
41.6212056748
 20
246.9984454155
 30
0.0
 11
39.8531240633
 21
246.9984454155
 31
0.0
  0
LINE
  5
348
330
1B
100
AcDbEntity
 67
     1
  8
7_ALL_FEATURES
  6
Continuous
 62
     7
100
AcDbLine
 10
39.8531240633
 20
246.9984454155
 30
0.0
 11
39.6212056748
 21
246.9984454155
 31
0.0
  0
LINE
  5
349
330
1B
100
AcDbEntity
 67
     1
  8
7_ALL_FEATURES
  6
Continuous
 62
     7
100
AcDbLine
 10
48.1212056748
 20
246.9984454155
 30
0.0
 11
41.6212056748
 21
246.9984454155
 31
0.0
  0
LINE
  5
34A
330
1B
100
AcDbEntity
 67
     1
  8
7_ALL_FEATURES
  6
Continuous
 62
     7
100
AcDbLine
 10
41.6212056748
 20
237.9984454155
 30
0.0
 11
48.1212056748
 21
237.9984454155
 31
0.0
  0
ARC
  5
34B
330
1B
100
AcDbEntity
 67
     1
  8
7_ALL_FEATURES
  6
Continuous
 62
     7
100
AcDbCircle
 10
48.1212056748
 20
241.9984454155
 30
0.0
 40
4.0
100
AcDbArc
 50
270.0
 51
360.0
  0
LINE
  5
34C
330
1B
100
AcDbEntity
 67
     1
  8
7_ALL_FEATURES
  6
Continuous
 62
     7
100
AcDbLine
 10
52.1212056748
 20
241.9984454155
 30
0.0
 11
52.1212056748
 21
242.9984454155
 31
0.0
  0
ARC
  5
34D
330
1B
100
AcDbEntity
 67
     1
  8
7_ALL_FEATURES
  6
Continuous
 62
     7
100
AcDbCircle
 10
48.1212056748
 20
242.9984454155
 30
0.0
 40
4.0
100
AcDbArc
 50
0.0
 51
90.0
  0
ARC
  5
34E
330
1B
100
AcDbEntity
 67
     1
  8
02___PRT_ALL_AXES
  6
Continuous
 62
     7
100
AcDbCircle
 10
48.3712056748
 20
242.4984454155
 30
0.0
 40
2.25
100
AcDbArc
 50
322.6319343851999
 51
37.3680656148
  0
ARC
  5
34F
330
1B
100
AcDbEntity
 67
     1
  8
02___PRT_ALL_AXES
  6
Continuous
 62
     7
100
AcDbCircle
 10
44.8712056748
 20
242.4984454155
 30
0.0
 40
2.25
100
AcDbArc
 50
142.6319343852
 51
217.3680656148
  0
LINE
  5
350
330
1B
100
AcDbEntity
 67
     1
  8
7_ALL_FEATURES
  6
Continuous
 62
     9
100
AcDbLine
 10
41.6212056748
 20
246.9984454155
 30
0.0
 11
41.6212056748
 21
237.9984454155
 31
0.0
  0
LINE
  5
351
330
1B
100
AcDbEntity
 67
     1
  8
7_ALL_FEATURES
  6
Continuous
 62
     9
100
AcDbLine
 10
41.6212056748
 20
281.9984454155
 30
0.0
 11
41.6212056748
 21
272.9984454155
 31
0.0
  0
LINE
  5
352
330
1B
100
AcDbEntity
 67
     1
  8
7_ALL_FEATURES
  6
Continuous
 62
     9
100
AcDbLine
 10
39.6212056748
 20
233.9984454155
 30
0.0
 11
40.6212056748
 21
233.9984454155
 31
0.0
  0
LINE
  5
353
330
1B
100
AcDbEntity
 67
     1
  8
7_ALL_FEATURES
  6
Continuous
 62
     9
100
AcDbLine
 10
39.6212056748
 20
321.9984454155
 30
0.0
 11
40.6212056748
 21
321.9984454155
 31
0.0
  0
LINE
  5
354
330
1B
100
AcDbEntity
 67
     1
  8
7_ALL_FEATURES
  6
Continuous
 62
     3
100
AcDbLine
 10
244.6212056748
 20
232.2984454155
 30
0.0
 11
244.1212056748
 21
232.2984454155
 31
0.0
  0
LINE
  5
355
330
1B
100
AcDbEntity
 67
     1
  8
7_ALL_FEATURES
  6
Continuous
 62
     3
100
AcDbLine
 10
244.1212056748
 20
232.2984454155
 30
0.0
 11
244.1147139864
 21
232.2984454155
 31
0.0
  0
LINE
  5
356
330
1B
100
AcDbEntity
 67
     1
  8
7_ALL_FEATURES
  6
Continuous
 62
     3
100
AcDbLine
 10
244.1147139864
 20
232.2984454155
 30
0.0
 11
237.6212056748
 21
232.2984454155
 31
0.0
  0
LINE
  5
357
330
1B
100
AcDbEntity
 67
     1
  8
7_ALL_FEATURES
  6
Continuous
 62
     3
100
AcDbLine
 10
237.6212056748
 20
232.2984454155
 30
0.0
 11
234.6212056748
 21
232.2984454155
 31
0.0
  0
LINE
  5
358
330
1B
100
AcDbEntity
 67
     1
  8
7_ALL_FEATURES
  6
Continuous
 62
     3
100
AcDbLine
 10
267.1212056748
 20
232.2984454155
 30
0.0
 11
244.6212056748
 21
232.2984454155
 31
0.0
  0
LINE
  5
359
330
1B
100
AcDbEntity
 67
     1
  8
7_ALL_FEATURES
  6
Continuous
 62
     3
100
AcDbLine
 10
277.1212056748
 20
232.2984454155
 30
0.0
 11
274.1212056748
 21
232.2984454155
 31
0.0
  0
LINE
  5
35A
330
1B
100
AcDbEntity
 67
     1
  8
7_ALL_FEATURES
  6
Continuous
 62
     3
100
AcDbLine
 10
274.1212056748
 20
232.2984454155
 30
0.0
 11
267.6276973632
 21
232.2984454155
 31
0.0
  0
LINE
  5
35B
330
1B
100
AcDbEntity
 67
     1
  8
7_ALL_FEATURES
  6
Continuous
 62
     3
100
AcDbLine
 10
267.6276973632
 20
232.2984454155
 30
0.0
 11
267.6212056748
 21
232.2984454155
 31
0.0
  0
LINE
  5
35C
330
1B
100
AcDbEntity
 67
     1
  8
7_ALL_FEATURES
  6
Continuous
 62
     3
100
AcDbLine
 10
267.6212056748
 20
232.2984454155
 30
0.0
 11
267.1212056748
 21
232.2984454155
 31
0.0
  0
LINE
  5
35D
330
1B
100
AcDbEntity
 67
     1
  8
7_ALL_FEATURES
  6
Continuous
 62
     3
100
AcDbLine
 10
74.6212056748
 20
232.2984454155
 30
0.0
 11
74.1212056748
 21
232.2984454155
 31
0.0
  0
LINE
  5
35E
330
1B
100
AcDbEntity
 67
     1
  8
7_ALL_FEATURES
  6
Continuous
 62
     3
100
AcDbLine
 10
74.1212056748
 20
232.2984454155
 30
0.0
 11
74.1147139864
 21
232.2984454155
 31
0.0
  0
LINE
  5
35F
330
1B
100
AcDbEntity
 67
     1
  8
7_ALL_FEATURES
  6
Continuous
 62
     3
100
AcDbLine
 10
74.1147139864
 20
232.2984454155
 30
0.0
 11
67.6212056748
 21
232.2984454155
 31
0.0
  0
LINE
  5
360
330
1B
100
AcDbEntity
 67
     1
  8
7_ALL_FEATURES
  6
Continuous
 62
     3
100
AcDbLine
 10
67.6212056748
 20
232.2984454155
 30
0.0
 11
64.6212056748
 21
232.2984454155
 31
0.0
  0
LINE
  5
361
330
1B
100
AcDbEntity
 67
     1
  8
7_ALL_FEATURES
  6
Continuous
 62
     3
100
AcDbLine
 10
97.1212056748
 20
232.2984454155
 30
0.0
 11
74.6212056748
 21
232.2984454155
 31
0.0
  0
LINE
  5
362
330
1B
100
AcDbEntity
 67
     1
  8
7_ALL_FEATURES
  6
Continuous
 62
     3
100
AcDbLine
 10
107.1212056748
 20
232.2984454155
 30
0.0
 11
104.1212056748
 21
232.2984454155
 31
0.0
  0
LINE
  5
363
330
1B
100
AcDbEntity
 67
     1
  8
7_ALL_FEATURES
  6
Continuous
 62
     3
100
AcDbLine
 10
104.1212056748
 20
232.2984454155
 30
0.0
 11
97.6276973632
 21
232.2984454155
 31
0.0
  0
LINE
  5
364
330
1B
100
AcDbEntity
 67
     1
  8
7_ALL_FEATURES
  6
Continuous
 62
     3
100
AcDbLine
 10
97.6276973632
 20
232.2984454155
 30
0.0
 11
97.6212056748
 21
232.2984454155
 31
0.0
  0
LINE
  5
365
330
1B
100
AcDbEntity
 67
     1
  8
7_ALL_FEATURES
  6
Continuous
 62
     3
100
AcDbLine
 10
97.6212056748
 20
232.2984454155
 30
0.0
 11
97.1212056748
 21
232.2984454155
 31
0.0
  0
LINE
  5
366
330
1B
100
AcDbEntity
 67
     1
  8
7_ALL_FEATURES
  6
Continuous
 62
     3
100
AcDbLine
 10
301.1212056748
 20
282.9984454155
 30
0.0
 11
301.1212056748
 21
321.9984454155
 31
0.0
  0
LINE
  5
367
330
1B
100
AcDbEntity
 67
     1
  8
7_ALL_FEATURES
  6
Continuous
 62
     3
100
AcDbLine
 10
301.1212056748
 20
281.9984454155
 30
0.0
 11
301.1212056748
 21
282.4984454155
 31
0.0
  0
LINE
  5
368
330
1B
100
AcDbEntity
 67
     1
  8
7_ALL_FEATURES
  6
Continuous
 62
     3
100
AcDbLine
 10
301.1212056748
 20
272.9984454155
 30
0.0
 11
301.1212056748
 21
272.4984454155
 31
0.0
  0
LINE
  5
369
330
1B
100
AcDbEntity
 67
     1
  8
7_ALL_FEATURES
  6
Continuous
 62
     3
100
AcDbLine
 10
301.1212056748
 20
248.1984454155
 30
0.0
 11
301.1212056748
 21
271.9984454155
 31
0.0
  0
LINE
  5
36A
330
1B
100
AcDbEntity
 67
     1
  8
7_ALL_FEATURES
  6
Continuous
 62
     3
100
AcDbLine
 10
301.1212056748
 20
246.9984454155
 30
0.0
 11
301.1212056748
 21
247.9984454155
 31
0.0
  0
LINE
  5
36B
330
1B
100
AcDbEntity
 67
     1
  8
7_ALL_FEATURES
  6
Continuous
 62
     3
100
AcDbLine
 10
301.1212056748
 20
237.9984454155
 30
0.0
 11
301.1212056748
 21
236.9984454155
 31
0.0
  0
LINE
  5
36C
330
1B
100
AcDbEntity
 67
     1
  8
7_ALL_FEATURES
  6
Continuous
 62
     3
100
AcDbLine
 10
301.1212056748
 20
233.9984454155
 30
0.0
 11
301.1212056748
 21
235.8984454155
 31
0.0
  0
LINE
  5
36D
330
1B
100
AcDbEntity
 67
     1
  8
7_ALL_FEATURES
  6
Continuous
 62
     3
100
AcDbLine
 10
301.1212056748
 20
235.8984454155
 30
0.0
 11
301.1212056748
 21
236.7984454155
 31
0.0
  0
LINE
  5
36E
330
1B
100
AcDbEntity
 67
     1
  8
7_ALL_FEATURES
  6
Continuous
 62
     3
100
AcDbLine
 10
301.1212056748
 20
233.4984454155
 30
0.0
 11
301.1212056748
 21
233.9984454155
 31
0.0
  0
LINE
  5
36F
330
1B
100
AcDbEntity
 67
     1
  8
7_ALL_FEATURES
  6
Continuous
 62
     3
100
AcDbLine
 10
40.6212056748
 20
233.9984454155
 30
0.0
 11
40.6212056748
 21
233.4984454155
 31
0.0
  0
LINE
  5
370
330
1B
100
AcDbEntity
 67
     1
  8
7_ALL_FEATURES
  6
Continuous
 62
     3
100
AcDbLine
 10
40.6212056748
 20
236.7984454155
 30
0.0
 11
40.6212056748
 21
235.8984454155
 31
0.0
  0
LINE
  5
371
330
1B
100
AcDbEntity
 67
     1
  8
7_ALL_FEATURES
  6
Continuous
 62
     3
100
AcDbLine
 10
40.6212056748
 20
235.8984454155
 30
0.0
 11
40.6212056748
 21
233.9984454155
 31
0.0
  0
LINE
  5
372
330
1B
100
AcDbEntity
 67
     1
  8
7_ALL_FEATURES
  6
Continuous
 62
     3
100
AcDbLine
 10
40.6212056748
 20
237.9984454155
 30
0.0
 11
40.6212056748
 21
236.9984454155
 31
0.0
  0
LINE
  5
373
330
1B
100
AcDbEntity
 67
     1
  8
7_ALL_FEATURES
  6
Continuous
 62
     3
100
AcDbLine
 10
40.6212056748
 20
246.9984454155
 30
0.0
 11
40.6212056748
 21
247.9984454155
 31
0.0
  0
LINE
  5
374
330
1B
100
AcDbEntity
 67
     1
  8
7_ALL_FEATURES
  6
Continuous
 62
     3
100
AcDbLine
 10
40.6212056748
 20
271.7984454155
 30
0.0
 11
40.6212056748
 21
248.1984454155
 31
0.0
  0
LINE
  5
375
330
1B
100
AcDbEntity
 67
     1
  8
7_ALL_FEATURES
  6
Continuous
 62
     3
100
AcDbLine
 10
40.6212056748
 20
272.9984454155
 30
0.0
 11
40.6212056748
 21
272.4984454155
 31
0.0
  0
LINE
  5
376
330
1B
100
AcDbEntity
 67
     1
  8
7_ALL_FEATURES
  6
Continuous
 62
     3
100
AcDbLine
 10
40.6212056748
 20
281.9984454155
 30
0.0
 11
40.6212056748
 21
282.4984454155
 31
0.0
  0
LINE
  5
377
330
1B
100
AcDbEntity
 67
     1
  8
7_ALL_FEATURES
  6
Continuous
 62
     3
100
AcDbLine
 10
40.6212056748
 20
321.9984454155
 30
0.0
 11
40.6212056748
 21
283.1984454155
 31
0.0
  0
ARC
  5
378
330
1B
100
AcDbEntity
 67
     1
  8
02___PRT_ALL_AXES
  6
Continuous
 62
     3
100
AcDbCircle
 10
170.8712056748
 20
262.1669001969
 30
0.0
 40
9.5
100
AcDbArc
 50
2.0
 51
178.0
  0
LINE
  5
379
330
1B
100
AcDbEntity
 67
     1
  8
02___PRT_ALL_AXES
  6
Continuous
 62
     3
100
AcDbLine
 10
180.865113945
 20
262.5158951639
 30
0.0
 11
180.3654185315
 21
262.4984454155
 31
0.0
  0
ARC
  5
37A
330
1B
100
AcDbEntity
 67
     1
  8
02___PRT_ALL_AXES
  6
Continuous
 62
     3
100
AcDbCircle
 10
170.8712056748
 20
262.1669001969
 30
0.0
 40
10.0
100
AcDbArc
 50
2.0
 51
178.0
  0
LINE
  5
37B
330
1B
100
AcDbEntity
 67
     1
  8
02___PRT_ALL_AXES
  6
Continuous
 62
     3
100
AcDbLine
 10
161.3769928182
 20
262.4984454155
 30
0.0
 11
160.8772974046
 21
262.5158951639
 31
0.0
  0
LINE
  5
37C
330
1B
100
AcDbEntity
 67
     1
  8
02___PRT_ALL_AXES
  6
Continuous
 62
     3
100
AcDbLine
 10
180.3654185315
 20
261.8353549782
 30
0.0
 11
180.865113945
 21
261.8179052298
 31
0.0
  0
ARC
  5
37D
330
1B
100
AcDbEntity
 67
     1
  8
02___PRT_ALL_AXES
  6
Continuous
 62
     3
100
AcDbCircle
 10
170.8712056748
 20
262.1669001969
 30
0.0
 40
9.5
100
AcDbArc
 50
182.0
 51
358.0
  0
LINE
  5
37E
330
1B
100
AcDbEntity
 67
     1
  8
02___PRT_ALL_AXES
  6
Continuous
 62
     3
100
AcDbLine
 10
160.8772974046
 20
261.8179052298
 30
0.0
 11
161.3769928182
 21
261.8353549782
 31
0.0
  0
ARC
  5
37F
330
1B
100
AcDbEntity
 67
     1
  8
02___PRT_ALL_AXES
  6
Continuous
 62
     3
100
AcDbCircle
 10
170.8712056748
 20
262.1669001969
 30
0.0
 40
10.0
100
AcDbArc
 50
182.0
 51
358.0
  0
LINE
  5
380
330
1B
100
AcDbEntity
 67
     1
  8
7_ALL_FEATURES
  6
Continuous
 62
     3
100
AcDbLine
 10
40.6212056748
 20
282.4984454155
 30
0.0
 11
43.1212056748
 21
282.4984454155
 31
0.0
  0
LINE
  5
381
330
1B
100
AcDbEntity
 67
     1
  8
7_ALL_FEATURES
  6
Continuous
 62
     3
100
AcDbLine
 10
40.6212056748
 20
322.4984454155
 30
0.0
 11
40.6212056748
 21
321.9984454155
 31
0.0
  0
LINE
  5
382
330
1B
100
AcDbEntity
 67
     1
  8
7_ALL_FEATURES
  6
Continuous
 62
     3
100
AcDbLine
 10
40.6212056748
 20
321.9984454155
 30
0.0
 11
40.6212056748
 21
283.1984454155
 31
0.0
  0
LINE
  5
383
330
1B
100
AcDbEntity
 67
     1
  8
7_ALL_FEATURES
  6
Continuous
 62
     3
100
AcDbLine
 10
40.6212056748
 20
283.1984454155
 30
0.0
 11
40.6212056748
 21
282.4984454155
 31
0.0
  0
LINE
  5
384
330
1B
100
AcDbEntity
 67
     1
  8
7_ALL_FEATURES
  6
Continuous
 62
     3
100
AcDbLine
 10
301.1212056748
 20
322.4984454155
 30
0.0
 11
40.6212056748
 21
322.4984454155
 31
0.0
  0
LINE
  5
385
330
1B
100
AcDbEntity
 67
     1
  8
7_ALL_FEATURES
  6
Continuous
 62
     3
100
AcDbLine
 10
301.1212056748
 20
282.4984454155
 30
0.0
 11
301.1212056748
 21
282.9984454155
 31
0.0
  0
LINE
  5
386
330
1B
100
AcDbEntity
 67
     1
  8
7_ALL_FEATURES
  6
Continuous
 62
     3
100
AcDbLine
 10
301.1212056748
 20
282.9984454155
 30
0.0
 11
301.1212056748
 21
321.9984454155
 31
0.0
  0
LINE
  5
387
330
1B
100
AcDbEntity
 67
     1
  8
7_ALL_FEATURES
  6
Continuous
 62
     3
100
AcDbLine
 10
301.1212056748
 20
321.9984454155
 30
0.0
 11
301.1212056748
 21
322.4984454155
 31
0.0
  0
LINE
  5
388
330
1B
100
AcDbEntity
 67
     1
  8
7_ALL_FEATURES
  6
Continuous
 62
     3
100
AcDbLine
 10
301.1212056748
 20
282.4984454155
 30
0.0
 11
298.6212056748
 21
282.4984454155
 31
0.0
  0
LINE
  5
389
330
1B
100
AcDbEntity
 67
     1
  8
7_ALL_FEATURES
  6
Continuous
 62
     3
100
AcDbLine
 10
298.6212056748
 20
272.4984454155
 30
0.0
 11
298.6212056748
 21
272.9984454155
 31
0.0
  0
LINE
  5
38A
330
1B
100
AcDbEntity
 67
     1
  8
7_ALL_FEATURES
  6
Continuous
 62
     3
100
AcDbLine
 10
298.6212056748
 20
281.9984454155
 30
0.0
 11
298.6212056748
 21
282.4984454155
 31
0.0
  0
LINE
  5
38B
330
1B
100
AcDbEntity
 67
     1
  8
7_ALL_FEATURES
  6
Continuous
 62
     3
100
AcDbLine
 10
301.1212056748
 20
272.4984454155
 30
0.0
 11
298.6212056748
 21
272.4984454155
 31
0.0
  0
LINE
  5
38C
330
1B
100
AcDbEntity
 67
     1
  8
7_ALL_FEATURES
  6
Continuous
 62
     3
100
AcDbLine
 10
301.1212056748
 20
247.9984454155
 30
0.0
 11
301.1212056748
 21
248.1984454155
 31
0.0
  0
LINE
  5
38D
330
1B
100
AcDbEntity
 67
     1
  8
7_ALL_FEATURES
  6
Continuous
 62
     3
100
AcDbLine
 10
301.1212056748
 20
248.1984454155
 30
0.0
 11
301.1212056748
 21
271.9984454155
 31
0.0
  0
LINE
  5
38E
330
1B
100
AcDbEntity
 67
     1
  8
7_ALL_FEATURES
  6
Continuous
 62
     3
100
AcDbLine
 10
301.1212056748
 20
271.9984454155
 30
0.0
 11
301.1212056748
 21
272.4984454155
 31
0.0
  0
LINE
  5
38F
330
1B
100
AcDbEntity
 67
     1
  8
7_ALL_FEATURES
  6
Continuous
 62
     3
100
AcDbLine
 10
301.1212056748
 20
247.9984454155
 30
0.0
 11
298.6212056748
 21
247.9984454155
 31
0.0
  0
LINE
  5
390
330
1B
100
AcDbEntity
 67
     1
  8
7_ALL_FEATURES
  6
Continuous
 62
     3
100
AcDbLine
 10
298.6212056748
 20
236.9984454155
 30
0.0
 11
298.6212056748
 21
237.9984454155
 31
0.0
  0
LINE
  5
391
330
1B
100
AcDbEntity
 67
     1
  8
7_ALL_FEATURES
  6
Continuous
 62
     3
100
AcDbLine
 10
298.6212056748
 20
246.9984454155
 30
0.0
 11
298.6212056748
 21
247.9984454155
 31
0.0
  0
LINE
  5
392
330
1B
100
AcDbEntity
 67
     1
  8
7_ALL_FEATURES
  6
Continuous
 62
     3
100
AcDbLine
 10
301.1212056748
 20
236.9984454155
 30
0.0
 11
298.6212056748
 21
236.9984454155
 31
0.0
  0
LINE
  5
393
330
1B
100
AcDbEntity
 67
     1
  8
7_ALL_FEATURES
  6
Continuous
 62
     3
100
AcDbLine
 10
301.1212056748
 20
235.8984454155
 30
0.0
 11
301.1212056748
 21
236.7984454155
 31
0.0
  0
LINE
  5
394
330
1B
100
AcDbEntity
 67
     1
  8
7_ALL_FEATURES
  6
Continuous
 62
     3
100
AcDbLine
 10
301.1212056748
 20
236.7984454155
 30
0.0
 11
301.1212056748
 21
236.9984454155
 31
0.0
  0
LINE
  5
395
330
1B
100
AcDbEntity
 67
     1
  8
7_ALL_FEATURES
  6
Continuous
 62
     3
100
AcDbLine
 10
40.6212056748
 20
236.9984454155
 30
0.0
 11
40.6212056748
 21
236.7984454155
 31
0.0
  0
LINE
  5
396
330
1B
100
AcDbEntity
 67
     1
  8
7_ALL_FEATURES
  6
Continuous
 62
     3
100
AcDbLine
 10
40.6212056748
 20
236.7984454155
 30
0.0
 11
40.6212056748
 21
235.8984454155
 31
0.0
  0
LINE
  5
397
330
1B
100
AcDbEntity
 67
     1
  8
7_ALL_FEATURES
  6
Continuous
 62
     3
100
AcDbLine
 10
40.6212056748
 20
236.9984454155
 30
0.0
 11
43.1212056748
 21
236.9984454155
 31
0.0
  0
LINE
  5
398
330
1B
100
AcDbEntity
 67
     1
  8
7_ALL_FEATURES
  6
Continuous
 62
     3
100
AcDbLine
 10
43.1212056748
 20
236.9984454155
 30
0.0
 11
43.1212056748
 21
237.9984454155
 31
0.0
  0
LINE
  5
399
330
1B
100
AcDbEntity
 67
     1
  8
7_ALL_FEATURES
  6
Continuous
 62
     3
100
AcDbLine
 10
43.1212056748
 20
246.9984454155
 30
0.0
 11
43.1212056748
 21
247.9984454155
 31
0.0
  0
LINE
  5
39A
330
1B
100
AcDbEntity
 67
     1
  8
7_ALL_FEATURES
  6
Continuous
 62
     3
100
AcDbLine
 10
40.6212056748
 20
247.9984454155
 30
0.0
 11
43.1212056748
 21
247.9984454155
 31
0.0
  0
LINE
  5
39B
330
1B
100
AcDbEntity
 67
     1
  8
7_ALL_FEATURES
  6
Continuous
 62
     3
100
AcDbLine
 10
40.6212056748
 20
272.4984454155
 30
0.0
 11
40.6212056748
 21
271.7984454155
 31
0.0
  0
LINE
  5
39C
330
1B
100
AcDbEntity
 67
     1
  8
7_ALL_FEATURES
  6
Continuous
 62
     3
100
AcDbLine
 10
40.6212056748
 20
271.7984454155
 30
0.0
 11
40.6212056748
 21
248.1984454155
 31
0.0
  0
LINE
  5
39D
330
1B
100
AcDbEntity
 67
     1
  8
7_ALL_FEATURES
  6
Continuous
 62
     3
100
AcDbLine
 10
40.6212056748
 20
248.1984454155
 30
0.0
 11
40.6212056748
 21
247.9984454155
 31
0.0
  0
LINE
  5
39E
330
1B
100
AcDbEntity
 67
     1
  8
7_ALL_FEATURES
  6
Continuous
 62
     3
100
AcDbLine
 10
40.6212056748
 20
272.4984454155
 30
0.0
 11
43.1212056748
 21
272.4984454155
 31
0.0
  0
LINE
  5
39F
330
1B
100
AcDbEntity
 67
     1
  8
7_ALL_FEATURES
  6
Continuous
 62
     3
100
AcDbLine
 10
43.1212056748
 20
272.4984454155
 30
0.0
 11
43.1212056748
 21
272.9984454155
 31
0.0
  0
LINE
  5
3A0
330
1B
100
AcDbEntity
 67
     1
  8
7_ALL_FEATURES
  6
Continuous
 62
     3
100
AcDbLine
 10
43.1212056748
 20
281.9984454155
 30
0.0
 11
43.1212056748
 21
282.4984454155
 31
0.0
  0
LINE
  5
3A1
330
1B
100
AcDbEntity
 67
     1
  8
7_ALL_FEATURES
  6
Continuous
 62
     3
100
AcDbLine
 10
301.1212056748
 20
233.4984454155
 30
0.0
 11
277.1212056748
 21
233.4984454155
 31
0.0
  0
LINE
  5
3A2
330
1B
100
AcDbEntity
 67
     1
  8
7_ALL_FEATURES
  6
Continuous
 62
     3
100
AcDbLine
 10
234.6212056748
 20
233.4984454155
 30
0.0
 11
107.1212056748
 21
233.4984454155
 31
0.0
  0
LINE
  5
3A3
330
1B
100
AcDbEntity
 67
     1
  8
7_ALL_FEATURES
  6
Continuous
 62
     3
100
AcDbLine
 10
64.6212056748
 20
233.4984454155
 30
0.0
 11
40.6212056748
 21
233.4984454155
 31
0.0
  0
LINE
  5
3A4
330
1B
100
AcDbEntity
 67
     1
  8
7_ALL_FEATURES
  6
Continuous
 62
     9
100
AcDbLine
 10
301.1212056748
 20
235.8984454155
 30
0.0
 11
40.6212056748
 21
235.8984454155
 31
0.0
  0
ARC
  5
3A5
330
1B
100
AcDbEntity
 67
     1
  8
3_ALL_AXES
  6
Continuous
 62
     7
100
AcDbCircle
 10
419.8513577019
 20
239.0484454155
 30
0.0
 40
8.0
100
AcDbArc
 50
248.7461908146
 51
270.0
  0
LINE
  5
3A6
330
1B
100
AcDbEntity
 67
     1
  8
3_ALL_AXES
  6
Continuous
 62
     7
100
AcDbLine
 10
422.7513577019
 20
231.592575245
 30
0.0
 11
422.7513577019
 21
232.2984454155
 31
0.0
  0
LINE
  5
3A7
330
1B
100
AcDbEntity
 67
     1
  8
3_ALL_AXES
  6
Continuous
 62
     7
100
AcDbLine
 10
416.9513577019
 20
231.592575245
 30
0.0
 11
416.9513577019
 21
232.2984454155
 31
0.0
  0
ARC
  5
3A8
330
1B
100
AcDbEntity
 67
     1
  8
3_ALL_AXES
  6
Continuous
 62
     7
100
AcDbCircle
 10
419.8513577019
 20
239.0484454155
 30
0.0
 40
8.0
100
AcDbArc
 50
270.0
 51
291.2538091854
  0
LINE
  5
3A9
330
1B
100
AcDbEntity
 67
     1
  8
3_ALL_AXES
  6
Continuous
 62
     7
100
AcDbLine
 10
419.8513577019
 20
231.592575245
 30
0.0
 11
416.9513577019
 21
231.592575245
 31
0.0
  0
LINE
  5
3AA
330
1B
100
AcDbEntity
 67
     1
  8
3_ALL_AXES
  6
Continuous
 62
     7
100
AcDbLine
 10
419.8513577019
 20
231.592575245
 30
0.0
 11
422.7513577019
 21
231.592575245
 31
0.0
  0
ARC
  5
3AB
330
1B
100
AcDbEntity
 67
     1
  8
3_ALL_AXES
  6
Continuous
 62
     7
100
AcDbCircle
 10
429.8513577019
 20
239.0484454155
 30
0.0
 40
8.0
100
AcDbArc
 50
248.7461908146
 51
270.0
  0
LINE
  5
3AC
330
1B
100
AcDbEntity
 67
     1
  8
3_ALL_AXES
  6
Continuous
 62
     7
100
AcDbLine
 10
432.7513577019
 20
231.592575245
 30
0.0
 11
432.7513577019
 21
232.2984454155
 31
0.0
  0
LINE
  5
3AD
330
1B
100
AcDbEntity
 67
     1
  8
3_ALL_AXES
  6
Continuous
 62
     7
100
AcDbLine
 10
426.9513577019
 20
231.592575245
 30
0.0
 11
426.9513577019
 21
232.2984454155
 31
0.0
  0
ARC
  5
3AE
330
1B
100
AcDbEntity
 67
     1
  8
3_ALL_AXES
  6
Continuous
 62
     7
100
AcDbCircle
 10
429.8513577019
 20
239.0484454155
 30
0.0
 40
8.0
100
AcDbArc
 50
270.0
 51
291.2538091854
  0
LINE
  5
3AF
330
1B
100
AcDbEntity
 67
     1
  8
3_ALL_AXES
  6
Continuous
 62
     7
100
AcDbLine
 10
429.8513577019
 20
231.592575245
 30
0.0
 11
426.9513577019
 21
231.592575245
 31
0.0
  0
LINE
  5
3B0
330
1B
100
AcDbEntity
 67
     1
  8
3_ALL_AXES
  6
Continuous
 62
     7
100
AcDbLine
 10
429.8513577019
 20
231.592575245
 30
0.0
 11
432.7513577019
 21
231.592575245
 31
0.0
  0
LINE
  5
3B1
330
1B
100
AcDbEntity
 67
     1
  8
3_ALL_AXES
  6
Continuous
 62
     7
100
AcDbLine
 10
412.0013577019
 20
238.6984454155
 30
0.0
 11
411.6213577019
 21
238.6984454155
 31
0.0
  0
LINE
  5
3B2
330
1B
100
AcDbEntity
 67
     1
  8
3_ALL_AXES
  6
Continuous
 62
     7
100
AcDbLine
 10
409.8013577019
 20
242.4984454155
 30
0.0
 11
409.8013577019
 21
244.4634110701
 31
0.0
  0
ARC
  5
3B3
330
1B
100
AcDbEntity
 67
     1
  8
3_ALL_AXES
  6
Continuous
 62
     7
100
AcDbCircle
 10
413.4739977935
 20
242.3560026182
 30
0.0
 40
4.1
100
AcDbArc
 50
206.3930257743
 51
243.1366968699
  0
LINE
  5
3B4
330
1B
100
AcDbEntity
 67
     1
  8
3_ALL_AXES
  6
Continuous
 62
     7
100
AcDbLine
 10
409.8013577019
 20
242.4984454155
 30
0.0
 11
409.8013577019
 21
240.533479761
 31
0.0
  0
LINE
  5
3B5
330
1B
100
AcDbEntity
 67
     1
  8
3_ALL_AXES
  6
Continuous
 62
     7
100
AcDbLine
 10
412.0013577019
 20
246.2984454155
 30
0.0
 11
411.6213577019
 21
246.2984454155
 31
0.0
  0
ARC
  5
3B6
330
1B
100
AcDbEntity
 67
     1
  8
3_ALL_AXES
  6
Continuous
 62
     7
100
AcDbCircle
 10
413.4739977935
 20
242.6408882129
 30
0.0
 40
4.1
100
AcDbArc
 50
116.8633031301
 51
153.6069742257
  0
LINE
  5
3B7
330
1B
100
AcDbEntity
 67
     1
  8
3_ALL_AXES
  6
Continuous
 62
     7
100
AcDbLine
 10
411.6213577019
 20
242.4984454155
 30
0.0
 11
411.6213577019
 21
238.6984454155
 31
0.0
  0
LINE
  5
3B8
330
1B
100
AcDbEntity
 67
     1
  8
3_ALL_AXES
  6
Continuous
 62
     7
100
AcDbLine
 10
411.6213577019
 20
242.4984454155
 30
0.0
 11
411.6213577019
 21
246.2984454155
 31
0.0
  0
LINE
  5
3B9
330
1B
100
AcDbEntity
 67
     1
  8
3_ALL_AXES
  6
Continuous
 62
     7
100
AcDbLine
 10
412.0013577019
 20
273.6984454155
 30
0.0
 11
411.6213577019
 21
273.6984454155
 31
0.0
  0
LINE
  5
3BA
330
1B
100
AcDbEntity
 67
     1
  8
3_ALL_AXES
  6
Continuous
 62
     7
100
AcDbLine
 10
409.8013577019
 20
277.4984454155
 30
0.0
 11
409.8013577019
 21
279.4634110701
 31
0.0
  0
ARC
  5
3BB
330
1B
100
AcDbEntity
 67
     1
  8
3_ALL_AXES
  6
Continuous
 62
     7
100
AcDbCircle
 10
413.4739977935
 20
277.3560026182
 30
0.0
 40
4.1
100
AcDbArc
 50
206.3930257743
 51
243.1366968699
  0
LINE
  5
3BC
330
1B
100
AcDbEntity
 67
     1
  8
3_ALL_AXES
  6
Continuous
 62
     7
100
AcDbLine
 10
409.8013577019
 20
277.4984454155
 30
0.0
 11
409.8013577019
 21
275.533479761
 31
0.0
  0
LINE
  5
3BD
330
1B
100
AcDbEntity
 67
     1
  8
3_ALL_AXES
  6
Continuous
 62
     7
100
AcDbLine
 10
412.0013577019
 20
281.2984454155
 30
0.0
 11
411.6213577019
 21
281.2984454155
 31
0.0
  0
ARC
  5
3BE
330
1B
100
AcDbEntity
 67
     1
  8
3_ALL_AXES
  6
Continuous
 62
     7
100
AcDbCircle
 10
413.4739977935
 20
277.6408882129
 30
0.0
 40
4.1
100
AcDbArc
 50
116.8633031301
 51
153.6069742257
  0
LINE
  5
3BF
330
1B
100
AcDbEntity
 67
     1
  8
3_ALL_AXES
  6
Continuous
 62
     7
100
AcDbLine
 10
411.6213577019
 20
277.4984454155
 30
0.0
 11
411.6213577019
 21
273.6984454155
 31
0.0
  0
LINE
  5
3C0
330
1B
100
AcDbEntity
 67
     1
  8
3_ALL_AXES
  6
Continuous
 62
     7
100
AcDbLine
 10
411.6213577019
 20
277.4984454155
 30
0.0
 11
411.6213577019
 21
281.2984454155
 31
0.0
  0
LINE
  5
3C1
330
1B
100
AcDbEntity
 67
     1
  8
3_ALL_AXES
  6
Continuous
 62
     7
100
AcDbLine
 10
437.7013577019
 20
273.6984454155
 30
0.0
 11
438.0813577019
 21
273.6984454155
 31
0.0
  0
LINE
  5
3C2
330
1B
100
AcDbEntity
 67
     1
  8
3_ALL_AXES
  6
Continuous
 62
     7
100
AcDbLine
 10
439.9013577019
 20
275.533479761
 30
0.0
 11
439.9013577019
 21
277.4984454155
 31
0.0
  0
ARC
  5
3C3
330
1B
100
AcDbEntity
 67
     1
  8
3_ALL_AXES
  6
Continuous
 62
     7
100
AcDbCircle
 10
436.2287176102
 20
277.3560026182
 30
0.0
 40
4.1
100
AcDbArc
 50
296.8633031301
 51
333.6069742257001
  0
LINE
  5
3C4
330
1B
100
AcDbEntity
 67
     1
  8
3_ALL_AXES
  6
Continuous
 62
     7
100
AcDbLine
 10
437.7013577019
 20
281.2984454155
 30
0.0
 11
438.0813577019
 21
281.2984454155
 31
0.0
  0
LINE
  5
3C5
330
1B
100
AcDbEntity
 67
     1
  8
3_ALL_AXES
  6
Continuous
 62
     7
100
AcDbLine
 10
439.9013577019
 20
279.4634110701
 30
0.0
 11
439.9013577019
 21
277.4984454155
 31
0.0
  0
ARC
  5
3C6
330
1B
100
AcDbEntity
 67
     1
  8
3_ALL_AXES
  6
Continuous
 62
     7
100
AcDbCircle
 10
436.2287176102
 20
277.6408882129
 30
0.0
 40
4.1
100
AcDbArc
 50
26.3930257743
 51
63.13669686989999
  0
LINE
  5
3C7
330
1B
100
AcDbEntity
 67
     1
  8
3_ALL_AXES
  6
Continuous
 62
     7
100
AcDbLine
 10
438.0813577019
 20
273.6984454155
 30
0.0
 11
438.0813577019
 21
277.4984454155
 31
0.0
  0
LINE
  5
3C8
330
1B
100
AcDbEntity
 67
     1
  8
3_ALL_AXES
  6
Continuous
 62
     7
100
AcDbLine
 10
438.0813577019
 20
281.2984454155
 30
0.0
 11
438.0813577019
 21
277.4984454155
 31
0.0
  0
LINE
  5
3C9
330
1B
100
AcDbEntity
 67
     1
  8
3_ALL_AXES
  6
Continuous
 62
     7
100
AcDbLine
 10
437.7013577019
 20
238.6984454155
 30
0.0
 11
438.0813577019
 21
238.6984454155
 31
0.0
  0
LINE
  5
3CA
330
1B
100
AcDbEntity
 67
     1
  8
3_ALL_AXES
  6
Continuous
 62
     7
100
AcDbLine
 10
439.9013577019
 20
240.533479761
 30
0.0
 11
439.9013577019
 21
242.4984454155
 31
0.0
  0
ARC
  5
3CB
330
1B
100
AcDbEntity
 67
     1
  8
3_ALL_AXES
  6
Continuous
 62
     7
100
AcDbCircle
 10
436.2287176102
 20
242.3560026182
 30
0.0
 40
4.1
100
AcDbArc
 50
296.8633031301
 51
333.6069742257001
  0
LINE
  5
3CC
330
1B
100
AcDbEntity
 67
     1
  8
3_ALL_AXES
  6
Continuous
 62
     7
100
AcDbLine
 10
437.7013577019
 20
246.2984454155
 30
0.0
 11
438.0813577019
 21
246.2984454155
 31
0.0
  0
LINE
  5
3CD
330
1B
100
AcDbEntity
 67
     1
  8
3_ALL_AXES
  6
Continuous
 62
     7
100
AcDbLine
 10
439.9013577019
 20
244.4634110701
 30
0.0
 11
439.9013577019
 21
242.4984454155
 31
0.0
  0
ARC
  5
3CE
330
1B
100
AcDbEntity
 67
     1
  8
3_ALL_AXES
  6
Continuous
 62
     7
100
AcDbCircle
 10
436.2287176102
 20
242.6408882129
 30
0.0
 40
4.1
100
AcDbArc
 50
26.3930257743
 51
63.13669686989999
  0
LINE
  5
3CF
330
1B
100
AcDbEntity
 67
     1
  8
3_ALL_AXES
  6
Continuous
 62
     7
100
AcDbLine
 10
438.0813577019
 20
238.6984454155
 30
0.0
 11
438.0813577019
 21
242.4984454155
 31
0.0
  0
LINE
  5
3D0
330
1B
100
AcDbEntity
 67
     1
  8
3_ALL_AXES
  6
Continuous
 62
     7
100
AcDbLine
 10
438.0813577019
 20
246.2984454155
 30
0.0
 11
438.0813577019
 21
242.4984454155
 31
0.0
  0
LINE
  5
3D1
330
1B
100
AcDbEntity
 67
     1
  8
7_ALL_FEATURES
  6
Continuous
 62
     7
100
AcDbLine
 10
388.8513577019
 20
233.4984454155
 30
0.0
 11
388.8513577019
 21
232.2984454155
 31
0.0
  0
LINE
  5
3D2
330
1B
100
AcDbEntity
 67
     1
  8
7_ALL_FEATURES
  6
Continuous
 62
     7
100
AcDbLine
 10
460.8513577019
 20
233.4984454155
 30
0.0
 11
460.8513577019
 21
232.2984454155
 31
0.0
  0
LINE
  5
3D3
330
1B
100
AcDbEntity
 67
     1
  8
7_ALL_FEATURES
  6
Continuous
 62
     7
100
AcDbLine
 10
450.8513577019
 20
233.4984454155
 30
0.0
 11
435.9013577019
 21
233.4984454155
 31
0.0
  0
LINE
  5
3D4
330
1B
100
AcDbEntity
 67
     1
  8
7_ALL_FEATURES
  6
Continuous
 62
     7
100
AcDbLine
 10
413.8013577019
 20
233.4984454155
 30
0.0
 11
398.8513577019
 21
233.4984454155
 31
0.0
  0
LINE
  5
3D5
330
1B
100
AcDbEntity
 67
     1
  8
7_ALL_FEATURES
  6
Continuous
 62
     7
100
AcDbLine
 10
450.8513577019
 20
233.4984454155
 30
0.0
 11
454.1013577019
 21
233.4984454155
 31
0.0
  0
LINE
  5
3D6
330
1B
100
AcDbEntity
 67
     1
  8
7_ALL_FEATURES
  6
Continuous
 62
     7
100
AcDbLine
 10
454.1013577019
 20
233.4984454155
 30
0.0
 11
460.8513577019
 21
233.4984454155
 31
0.0
  0
LINE
  5
3D7
330
1B
100
AcDbEntity
 67
     1
  8
7_ALL_FEATURES
  6
Continuous
 62
     7
100
AcDbLine
 10
388.8513577019
 20
233.4984454155
 30
0.0
 11
395.6013577019
 21
233.4984454155
 31
0.0
  0
LINE
  5
3D8
330
1B
100
AcDbEntity
 67
     1
  8
7_ALL_FEATURES
  6
Continuous
 62
     7
100
AcDbLine
 10
395.6013577019
 20
233.4984454155
 30
0.0
 11
398.8513577019
 21
233.4984454155
 31
0.0
  0
LINE
  5
3D9
330
1B
100
AcDbEntity
 67
     1
  8
7_ALL_FEATURES
  6
Continuous
 62
     9
100
AcDbLine
 10
450.8513577019
 20
233.4984454155
 30
0.0
 11
450.8513577019
 21
232.2984454155
 31
0.0
  0
LINE
  5
3DA
330
1B
100
AcDbEntity
 67
     1
  8
7_ALL_FEATURES
  6
Continuous
 62
     9
100
AcDbLine
 10
398.8513577019
 20
233.4984454155
 30
0.0
 11
398.8513577019
 21
232.2984454155
 31
0.0
  0
LINE
  5
3DB
330
1B
100
AcDbEntity
 67
     1
  8
7_ALL_FEATURES
  6
Continuous
 62
     7
100
AcDbLine
 10
434.9990103176
 20
261.0984454155
 30
0.0
 11
434.4929508333
 21
261.0984454155
 31
0.0
  0
LINE
  5
3DC
330
1B
100
AcDbEntity
 67
     1
  8
7_ALL_FEATURES
  6
Continuous
 62
     7
100
AcDbLine
 10
434.0013577019
 20
263.0227499314
 30
0.0
 11
434.0013577019
 21
264.2707924665
 31
0.0
  0
LINE
  5
3DD
330
1B
100
AcDbEntity
 67
     1
  8
7_ALL_FEATURES
  6
Continuous
 62
     7
100
AcDbLine
 10
414.7037050861
 20
261.0984454155
 30
0.0
 11
415.2097645704
 21
261.0984454155
 31
0.0
  0
LINE
  5
3DE
330
1B
100
AcDbEntity
 67
     1
  8
7_ALL_FEATURES
  6
Continuous
 62
     7
100
AcDbLine
 10
415.7013577019
 20
264.2707924665
 30
0.0
 11
415.7013577019
 21
263.0227499314
 31
0.0
  0
LINE
  5
3DF
330
1B
100
AcDbEntity
 67
     1
  8
7_ALL_FEATURES
  6
Continuous
 62
     7
100
AcDbLine
 10
436.4013577019
 20
282.4984454155
 30
0.0
 11
435.7013577019
 21
282.4984454155
 31
0.0
  0
LINE
  5
3E0
330
1B
100
AcDbEntity
 67
     1
  8
7_ALL_FEATURES
  6
Continuous
 62
     7
100
AcDbLine
 10
436.4013577019
 20
322.4984454155
 30
0.0
 11
435.9013577019
 21
322.4984454155
 31
0.0
  0
LINE
  5
3E1
330
1B
100
AcDbEntity
 67
     1
  8
7_ALL_FEATURES
  6
Continuous
 62
     7
100
AcDbLine
 10
436.4013577019
 20
236.9984454155
 30
0.0
 11
435.7013577019
 21
236.9984454155
 31
0.0
  0
LINE
  5
3E2
330
1B
100
AcDbEntity
 67
     1
  8
7_ALL_FEATURES
  6
Continuous
 62
     7
100
AcDbLine
 10
436.4013577019
 20
247.9984454155
 30
0.0
 11
435.7013577019
 21
247.9984454155
 31
0.0
  0
LINE
  5
3E3
330
1B
100
AcDbEntity
 67
     1
  8
7_ALL_FEATURES
  6
Continuous
 62
     7
100
AcDbLine
 10
436.4013577019
 20
272.4984454155
 30
0.0
 11
435.7013577019
 21
272.4984454155
 31
0.0
  0
LINE
  5
3E4
330
1B
100
AcDbEntity
 67
     1
  8
7_ALL_FEATURES
  6
Continuous
 62
     7
100
AcDbLine
 10
413.3013577019
 20
282.4984454155
 30
0.0
 11
414.0013577019
 21
282.4984454155
 31
0.0
  0
LINE
  5
3E5
330
1B
100
AcDbEntity
 67
     1
  8
7_ALL_FEATURES
  6
Continuous
 62
     7
100
AcDbLine
 10
413.3013577019
 20
272.4984454155
 30
0.0
 11
414.0013577019
 21
272.4984454155
 31
0.0
  0
LINE
  5
3E6
330
1B
100
AcDbEntity
 67
     1
  8
7_ALL_FEATURES
  6
Continuous
 62
     7
100
AcDbLine
 10
413.3013577019
 20
247.9984454155
 30
0.0
 11
414.0013577019
 21
247.9984454155
 31
0.0
  0
LINE
  5
3E7
330
1B
100
AcDbEntity
 67
     1
  8
7_ALL_FEATURES
  6
Continuous
 62
     7
100
AcDbLine
 10
413.3013577019
 20
236.9984454155
 30
0.0
 11
414.0013577019
 21
236.9984454155
 31
0.0
  0
LINE
  5
3E8
330
1B
100
AcDbEntity
 67
     1
  8
7_ALL_FEATURES
  6
Continuous
 62
     7
100
AcDbLine
 10
413.3013577019
 20
322.4984454155
 30
0.0
 11
413.8013577019
 21
322.4984454155
 31
0.0
  0
ARC
  5
3E9
330
1B
100
AcDbEntity
 67
     1
  8
7_ALL_FEATURES
  6
Continuous
 62
     7
100
AcDbCircle
 10
424.8513577019
 20
232.4984454155
 30
0.0
 40
2.0
100
AcDbArc
 50
41.81031489579999
 51
138.1896851042
  0
ARC
  5
3EA
330
1B
100
AcDbEntity
 67
     1
  8
7_ALL_FEATURES
  6
Continuous
 62
     7
100
AcDbCircle
 10
427.0874256794
 20
234.4984454155
 30
0.0
 40
1.0
100
AcDbArc
 50
221.8103148957
 51
270.0
  0
LINE
  5
3EB
330
1B
100
AcDbEntity
 67
     1
  8
7_ALL_FEATURES
  6
Continuous
 62
     7
100
AcDbLine
 10
435.9013577019
 20
233.4984454155
 30
0.0
 11
427.0874256794
 21
233.4984454155
 31
0.0
  0
ARC
  5
3EC
330
1B
100
AcDbEntity
 67
     1
  8
7_ALL_FEATURES
  6
Continuous
 62
     7
100
AcDbCircle
 10
435.9013577019
 20
233.9984454155
 30
0.0
 40
0.5
100
AcDbArc
 50
270.0
 51
360.0
  0
LINE
  5
3ED
330
1B
100
AcDbEntity
 67
     1
  8
7_ALL_FEATURES
  6
Continuous
 62
     7
100
AcDbLine
 10
436.4013577019
 20
236.7984454155
 30
0.0
 11
436.4013577019
 21
233.9984454155
 31
0.0
  0
LINE
  5
3EE
330
1B
100
AcDbEntity
 67
     1
  8
7_ALL_FEATURES
  6
Continuous
 62
     7
100
AcDbLine
 10
436.4013577019
 20
236.7984454155
 30
0.0
 11
435.7013577019
 21
236.7984454155
 31
0.0
  0
LINE
  5
3EF
330
1B
100
AcDbEntity
 67
     1
  8
7_ALL_FEATURES
  6
Continuous
 62
     7
100
AcDbLine
 10
435.7013577019
 20
237.9984454155
 30
0.0
 11
435.7013577019
 21
236.7984454155
 31
0.0
  0
LINE
  5
3F0
330
1B
100
AcDbEntity
 67
     1
  8
7_ALL_FEATURES
  6
Continuous
 62
     7
100
AcDbLine
 10
435.7013577019
 20
246.9984454155
 30
0.0
 11
435.7013577019
 21
248.1984454155
 31
0.0
  0
LINE
  5
3F1
330
1B
100
AcDbEntity
 67
     1
  8
7_ALL_FEATURES
  6
Continuous
 62
     7
100
AcDbLine
 10
436.4013577019
 20
248.1984454155
 30
0.0
 11
435.7013577019
 21
248.1984454155
 31
0.0
  0
LINE
  5
3F2
330
1B
100
AcDbEntity
 67
     1
  8
7_ALL_FEATURES
  6
Continuous
 62
     7
100
AcDbLine
 10
436.4013577019
 20
271.7984454155
 30
0.0
 11
436.4013577019
 21
248.1984454155
 31
0.0
  0
LINE
  5
3F3
330
1B
100
AcDbEntity
 67
     1
  8
7_ALL_FEATURES
  6
Continuous
 62
     7
100
AcDbLine
 10
436.4013577019
 20
271.7984454155
 30
0.0
 11
435.7013577019
 21
271.7984454155
 31
0.0
  0
LINE
  5
3F4
330
1B
100
AcDbEntity
 67
     1
  8
7_ALL_FEATURES
  6
Continuous
 62
     7
100
AcDbLine
 10
435.7013577019
 20
272.9984454155
 30
0.0
 11
435.7013577019
 21
271.7984454155
 31
0.0
  0
LINE
  5
3F5
330
1B
100
AcDbEntity
 67
     1
  8
7_ALL_FEATURES
  6
Continuous
 62
     7
100
AcDbLine
 10
435.7013577019
 20
281.9984454155
 30
0.0
 11
435.7013577019
 21
283.1984454155
 31
0.0
  0
LINE
  5
3F6
330
1B
100
AcDbEntity
 67
     1
  8
7_ALL_FEATURES
  6
Continuous
 62
     7
100
AcDbLine
 10
436.4013577019
 20
283.1984454155
 30
0.0
 11
435.7013577019
 21
283.1984454155
 31
0.0
  0
LINE
  5
3F7
330
1B
100
AcDbEntity
 67
     1
  8
7_ALL_FEATURES
  6
Continuous
 62
     7
100
AcDbLine
 10
436.4013577019
 20
321.9984454155
 30
0.0
 11
436.4013577019
 21
283.1984454155
 31
0.0
  0
ARC
  5
3F8
330
1B
100
AcDbEntity
 67
     1
  8
7_ALL_FEATURES
  6
Continuous
 62
     7
100
AcDbCircle
 10
435.9013577019
 20
321.9984454155
 30
0.0
 40
0.5
100
AcDbArc
 50
0.0
 51
90.0
  0
LINE
  5
3F9
330
1B
100
AcDbEntity
 67
     1
  8
7_ALL_FEATURES
  6
Continuous
 62
     7
100
AcDbLine
 10
413.8013577019
 20
322.4984454155
 30
0.0
 11
435.9013577019
 21
322.4984454155
 31
0.0
  0
ARC
  5
3FA
330
1B
100
AcDbEntity
 67
     1
  8
7_ALL_FEATURES
  6
Continuous
 62
     7
100
AcDbCircle
 10
413.8013577019
 20
321.9984454155
 30
0.0
 40
0.5
100
AcDbArc
 50
90.0
 51
180.0
  0
LINE
  5
3FB
330
1B
100
AcDbEntity
 67
     1
  8
7_ALL_FEATURES
  6
Continuous
 62
     7
100
AcDbLine
 10
413.3013577019
 20
282.9984454155
 30
0.0
 11
413.3013577019
 21
321.9984454155
 31
0.0
  0
LINE
  5
3FC
330
1B
100
AcDbEntity
 67
     1
  8
7_ALL_FEATURES
  6
Continuous
 62
     7
100
AcDbLine
 10
413.3013577019
 20
282.9984454155
 30
0.0
 11
414.0013577019
 21
282.9984454155
 31
0.0
  0
LINE
  5
3FD
330
1B
100
AcDbEntity
 67
     1
  8
7_ALL_FEATURES
  6
Continuous
 62
     7
100
AcDbLine
 10
414.0013577019
 20
281.9984454155
 30
0.0
 11
414.0013577019
 21
282.9984454155
 31
0.0
  0
LINE
  5
3FE
330
1B
100
AcDbEntity
 67
     1
  8
7_ALL_FEATURES
  6
Continuous
 62
     7
100
AcDbLine
 10
414.0013577019
 20
272.9984454155
 30
0.0
 11
414.0013577019
 21
271.9984454155
 31
0.0
  0
LINE
  5
3FF
330
1B
100
AcDbEntity
 67
     1
  8
7_ALL_FEATURES
  6
Continuous
 62
     7
100
AcDbLine
 10
413.3013577019
 20
271.9984454155
 30
0.0
 11
414.0013577019
 21
271.9984454155
 31
0.0
  0
LINE
  5
400
330
1B
100
AcDbEntity
 67
     1
  8
7_ALL_FEATURES
  6
Continuous
 62
     7
100
AcDbLine
 10
413.3013577019
 20
248.1984454155
 30
0.0
 11
413.3013577019
 21
271.9984454155
 31
0.0
  0
LINE
  5
401
330
1B
100
AcDbEntity
 67
     1
  8
7_ALL_FEATURES
  6
Continuous
 62
     7
100
AcDbLine
 10
413.3013577019
 20
248.1984454155
 30
0.0
 11
414.0013577019
 21
248.1984454155
 31
0.0
  0
LINE
  5
402
330
1B
100
AcDbEntity
 67
     1
  8
7_ALL_FEATURES
  6
Continuous
 62
     7
100
AcDbLine
 10
414.0013577019
 20
246.9984454155
 30
0.0
 11
414.0013577019
 21
248.1984454155
 31
0.0
  0
LINE
  5
403
330
1B
100
AcDbEntity
 67
     1
  8
7_ALL_FEATURES
  6
Continuous
 62
     7
100
AcDbLine
 10
414.0013577019
 20
237.9984454155
 30
0.0
 11
414.0013577019
 21
236.7984454155
 31
0.0
  0
LINE
  5
404
330
1B
100
AcDbEntity
 67
     1
  8
7_ALL_FEATURES
  6
Continuous
 62
     7
100
AcDbLine
 10
413.3013577019
 20
236.7984454155
 30
0.0
 11
414.0013577019
 21
236.7984454155
 31
0.0
  0
LINE
  5
405
330
1B
100
AcDbEntity
 67
     1
  8
7_ALL_FEATURES
  6
Continuous
 62
     7
100
AcDbLine
 10
413.3013577019
 20
233.9984454155
 30
0.0
 11
413.3013577019
 21
236.7984454155
 31
0.0
  0
ARC
  5
406
330
1B
100
AcDbEntity
 67
     1
  8
7_ALL_FEATURES
  6
Continuous
 62
     7
100
AcDbCircle
 10
413.8013577019
 20
233.9984454155
 30
0.0
 40
0.5
100
AcDbArc
 50
180.0
 51
270.0
  0
LINE
  5
407
330
1B
100
AcDbEntity
 67
     1
  8
7_ALL_FEATURES
  6
Continuous
 62
     7
100
AcDbLine
 10
422.6152897244
 20
233.4984454155
 30
0.0
 11
413.8013577019
 21
233.4984454155
 31
0.0
  0
ARC
  5
408
330
1B
100
AcDbEntity
 67
     1
  8
7_ALL_FEATURES
  6
Continuous
 62
     7
100
AcDbCircle
 10
422.6152897244
 20
234.4984454155
 30
0.0
 40
1.0
100
AcDbArc
 50
270.0
 51
318.1896851042
  0
ARC
  5
409
330
1B
100
AcDbEntity
 67
     1
  8
02___PRT_ALL_AXES
  6
Continuous
 62
     7
100
AcDbCircle
 10
424.8513577019
 20
259.6581753227
 30
0.0
 40
10.25
100
AcDbArc
 50
272.0000000000001
 51
358.0
  0
LINE
  5
40A
330
1B
100
AcDbEntity
 67
     1
  8
02___PRT_ALL_AXES
  6
Continuous
 62
     7
100
AcDbLine
 10
425.1916277947
 20
249.9141147593
 30
0.0
 11
425.2090775431
 21
249.4144193457
 31
0.0
  0
ARC
  5
40B
330
1B
100
AcDbEntity
 67
     1
  8
02___PRT_ALL_AXES
  6
Continuous
 62
     7
100
AcDbCircle
 10
424.8513577019
 20
259.6581753227
 30
0.0
 40
9.75
100
AcDbArc
 50
272.0000000000001
 51
358.0
  0
LINE
  5
40C
330
1B
100
AcDbEntity
 67
     1
  8
02___PRT_ALL_AXES
  6
Continuous
 62
     7
100
AcDbLine
 10
435.0951136788
 20
259.3004554815
 30
0.0
 11
434.5954182653
 21
259.3179052298
 31
0.0
  0
ARC
  5
40D
330
1B
100
AcDbEntity
 67
     1
  8
02___PRT_ALL_AXES
  6
Continuous
 62
     7
100
AcDbCircle
 10
424.8513577019
 20
259.6581753227
 30
0.0
 40
9.75
100
AcDbArc
 50
182.0
 51
267.9999999999999
  0
LINE
  5
40E
330
1B
100
AcDbEntity
 67
     1
  8
02___PRT_ALL_AXES
  6
Continuous
 62
     7
100
AcDbLine
 10
424.4936378607
 20
249.4144193457
 30
0.0
 11
424.511087609
 21
249.9141147593
 31
0.0
  0
ARC
  5
40F
330
1B
100
AcDbEntity
 67
     1
  8
02___PRT_ALL_AXES
  6
Continuous
 62
     7
100
AcDbCircle
 10
424.8513577019
 20
259.6581753227
 30
0.0
 40
10.25
100
AcDbArc
 50
182.0
 51
267.9999999999999
  0
LINE
  5
410
330
1B
100
AcDbEntity
 67
     1
  8
02___PRT_ALL_AXES
  6
Continuous
 62
     7
100
AcDbLine
 10
415.1072971384
 20
259.3179052298
 30
0.0
 11
414.6076017249
 21
259.3004554815
 31
0.0
  0
ARC
  5
411
330
1B
100
AcDbEntity
 67
     1
  8
02___PRT_ALL_AXES
  6
Continuous
 62
     7
100
AcDbCircle
 10
424.8513577019
 20
259.6581753227
 30
0.0
 40
10.25
100
AcDbArc
 50
92.0
 51
178.0
  0
LINE
  5
412
330
1B
100
AcDbEntity
 67
     1
  8
02___PRT_ALL_AXES
  6
Continuous
 62
     7
100
AcDbLine
 10
424.511087609
 20
269.4022358861
 30
0.0
 11
424.4936378607
 21
269.9019312996
 31
0.0
  0
ARC
  5
413
330
1B
100
AcDbEntity
 67
     1
  8
02___PRT_ALL_AXES
  6
Continuous
 62
     7
100
AcDbCircle
 10
424.8513577019
 20
259.6581753227
 30
0.0
 40
9.75
100
AcDbArc
 50
92.0
 51
178.0
  0
LINE
  5
414
330
1B
100
AcDbEntity
 67
     1
  8
02___PRT_ALL_AXES
  6
Continuous
 62
     7
100
AcDbLine
 10
414.6076017249
 20
260.0158951639
 30
0.0
 11
415.1072971384
 21
259.9984454155
 31
0.0
  0
LINE
  5
415
330
1B
100
AcDbEntity
 67
     1
  8
02___PRT_ALL_AXES
  6
Continuous
 62
     7
100
AcDbLine
 10
425.2090775431
 20
269.9019312996
 30
0.0
 11
425.1916277947
 21
269.4022358861
 31
0.0
  0
ARC
  5
416
330
1B
100
AcDbEntity
 67
     1
  8
02___PRT_ALL_AXES
  6
Continuous
 62
     7
100
AcDbCircle
 10
424.8513577019
 20
259.6581753227
 30
0.0
 40
10.25
100
AcDbArc
 50
2.0
 51
88.0
  0
LINE
  5
417
330
1B
100
AcDbEntity
 67
     1
  8
02___PRT_ALL_AXES
  6
Continuous
 62
     7
100
AcDbLine
 10
434.5954182653
 20
259.9984454155
 30
0.0
 11
435.0951136788
 21
260.0158951639
 31
0.0
  0
ARC
  5
418
330
1B
100
AcDbEntity
 67
     1
  8
02___PRT_ALL_AXES
  6
Continuous
 62
     7
100
AcDbCircle
 10
424.8513577019
 20
259.6581753227
 30
0.0
 40
9.75
100
AcDbArc
 50
2.0
 51
88.0
  0
LINE
  5
419
330
1B
100
AcDbEntity
 67
     1
  8
7_ALL_FEATURES
  6
Continuous
 62
     7
100
AcDbLine
 10
413.0665382461
 20
281.9984454155
 30
0.0
 11
414.0013577019
 21
281.9984454155
 31
0.0
  0
LINE
  5
41A
330
1B
100
AcDbEntity
 67
     1
  8
7_ALL_FEATURES
  6
Continuous
 62
     7
100
AcDbLine
 10
412.0013577019
 20
281.9984454155
 30
0.0
 11
413.0013577019
 21
281.9984454155
 31
0.0
  0
LINE
  5
41B
330
1B
100
AcDbEntity
 67
     1
  8
7_ALL_FEATURES
  6
Continuous
 62
     7
100
AcDbLine
 10
413.0013577019
 20
281.9984454155
 30
0.0
 11
413.0665382461
 21
281.9984454155
 31
0.0
  0
LINE
  5
41C
330
1B
100
AcDbEntity
 67
     1
  8
7_ALL_FEATURES
  6
Continuous
 62
     7
100
AcDbLine
 10
412.0013577019
 20
272.9984454155
 30
0.0
 11
412.0013577019
 21
281.9984454155
 31
0.0
  0
LINE
  5
41D
330
1B
100
AcDbEntity
 67
     1
  8
7_ALL_FEATURES
  6
Continuous
 62
     7
100
AcDbLine
 10
412.0013577019
 20
272.9984454155
 30
0.0
 11
413.0013577019
 21
272.9984454155
 31
0.0
  0
LINE
  5
41E
330
1B
100
AcDbEntity
 67
     1
  8
7_ALL_FEATURES
  6
Continuous
 62
     7
100
AcDbLine
 10
413.0013577019
 20
272.9984454155
 30
0.0
 11
413.0665382461
 21
272.9984454155
 31
0.0
  0
LINE
  5
41F
330
1B
100
AcDbEntity
 67
     1
  8
7_ALL_FEATURES
  6
Continuous
 62
     7
100
AcDbLine
 10
413.0665382461
 20
272.9984454155
 30
0.0
 11
414.0013577019
 21
272.9984454155
 31
0.0
  0
LINE
  5
420
330
1B
100
AcDbEntity
 67
     1
  8
7_ALL_FEATURES
  6
Continuous
 62
     7
100
AcDbLine
 10
436.6361771577
 20
272.9984454155
 30
0.0
 11
435.7013577019
 21
272.9984454155
 31
0.0
  0
LINE
  5
421
330
1B
100
AcDbEntity
 67
     1
  8
7_ALL_FEATURES
  6
Continuous
 62
     7
100
AcDbLine
 10
437.7013577019
 20
272.9984454155
 30
0.0
 11
436.7013577019
 21
272.9984454155
 31
0.0
  0
LINE
  5
422
330
1B
100
AcDbEntity
 67
     1
  8
7_ALL_FEATURES
  6
Continuous
 62
     7
100
AcDbLine
 10
436.7013577019
 20
272.9984454155
 30
0.0
 11
436.6361771577
 21
272.9984454155
 31
0.0
  0
LINE
  5
423
330
1B
100
AcDbEntity
 67
     1
  8
7_ALL_FEATURES
  6
Continuous
 62
     7
100
AcDbLine
 10
437.7013577019
 20
281.9984454155
 30
0.0
 11
437.7013577019
 21
272.9984454155
 31
0.0
  0
LINE
  5
424
330
1B
100
AcDbEntity
 67
     1
  8
7_ALL_FEATURES
  6
Continuous
 62
     7
100
AcDbLine
 10
437.7013577019
 20
281.9984454155
 30
0.0
 11
436.7013577019
 21
281.9984454155
 31
0.0
  0
LINE
  5
425
330
1B
100
AcDbEntity
 67
     1
  8
7_ALL_FEATURES
  6
Continuous
 62
     7
100
AcDbLine
 10
436.7013577019
 20
281.9984454155
 30
0.0
 11
436.6361771577
 21
281.9984454155
 31
0.0
  0
LINE
  5
426
330
1B
100
AcDbEntity
 67
     1
  8
7_ALL_FEATURES
  6
Continuous
 62
     7
100
AcDbLine
 10
436.6361771577
 20
281.9984454155
 30
0.0
 11
435.7013577019
 21
281.9984454155
 31
0.0
  0
LINE
  5
427
330
1B
100
AcDbEntity
 67
     1
  8
7_ALL_FEATURES
  6
Continuous
 62
     7
100
AcDbLine
 10
413.0665382461
 20
246.9984454155
 30
0.0
 11
414.0013577019
 21
246.9984454155
 31
0.0
  0
LINE
  5
428
330
1B
100
AcDbEntity
 67
     1
  8
7_ALL_FEATURES
  6
Continuous
 62
     7
100
AcDbLine
 10
412.0013577019
 20
246.9984454155
 30
0.0
 11
413.0013577019
 21
246.9984454155
 31
0.0
  0
LINE
  5
429
330
1B
100
AcDbEntity
 67
     1
  8
7_ALL_FEATURES
  6
Continuous
 62
     7
100
AcDbLine
 10
413.0013577019
 20
246.9984454155
 30
0.0
 11
413.0665382461
 21
246.9984454155
 31
0.0
  0
LINE
  5
42A
330
1B
100
AcDbEntity
 67
     1
  8
7_ALL_FEATURES
  6
Continuous
 62
     7
100
AcDbLine
 10
412.0013577019
 20
237.9984454155
 30
0.0
 11
412.0013577019
 21
246.9984454155
 31
0.0
  0
LINE
  5
42B
330
1B
100
AcDbEntity
 67
     1
  8
7_ALL_FEATURES
  6
Continuous
 62
     7
100
AcDbLine
 10
412.0013577019
 20
237.9984454155
 30
0.0
 11
413.0013577019
 21
237.9984454155
 31
0.0
  0
LINE
  5
42C
330
1B
100
AcDbEntity
 67
     1
  8
7_ALL_FEATURES
  6
Continuous
 62
     7
100
AcDbLine
 10
413.0013577019
 20
237.9984454155
 30
0.0
 11
413.0665382461
 21
237.9984454155
 31
0.0
  0
LINE
  5
42D
330
1B
100
AcDbEntity
 67
     1
  8
7_ALL_FEATURES
  6
Continuous
 62
     7
100
AcDbLine
 10
413.0665382461
 20
237.9984454155
 30
0.0
 11
414.0013577019
 21
237.9984454155
 31
0.0
  0
LINE
  5
42E
330
1B
100
AcDbEntity
 67
     1
  8
7_ALL_FEATURES
  6
Continuous
 62
     7
100
AcDbLine
 10
436.6361771577
 20
237.9984454155
 30
0.0
 11
435.7013577019
 21
237.9984454155
 31
0.0
  0
LINE
  5
42F
330
1B
100
AcDbEntity
 67
     1
  8
7_ALL_FEATURES
  6
Continuous
 62
     7
100
AcDbLine
 10
437.7013577019
 20
237.9984454155
 30
0.0
 11
436.7013577019
 21
237.9984454155
 31
0.0
  0
LINE
  5
430
330
1B
100
AcDbEntity
 67
     1
  8
7_ALL_FEATURES
  6
Continuous
 62
     7
100
AcDbLine
 10
436.7013577019
 20
237.9984454155
 30
0.0
 11
436.6361771577
 21
237.9984454155
 31
0.0
  0
LINE
  5
431
330
1B
100
AcDbEntity
 67
     1
  8
7_ALL_FEATURES
  6
Continuous
 62
     7
100
AcDbLine
 10
437.7013577019
 20
246.9984454155
 30
0.0
 11
437.7013577019
 21
237.9984454155
 31
0.0
  0
LINE
  5
432
330
1B
100
AcDbEntity
 67
     1
  8
7_ALL_FEATURES
  6
Continuous
 62
     7
100
AcDbLine
 10
437.7013577019
 20
246.9984454155
 30
0.0
 11
436.7013577019
 21
246.9984454155
 31
0.0
  0
LINE
  5
433
330
1B
100
AcDbEntity
 67
     1
  8
7_ALL_FEATURES
  6
Continuous
 62
     7
100
AcDbLine
 10
436.7013577019
 20
246.9984454155
 30
0.0
 11
436.6361771577
 21
246.9984454155
 31
0.0
  0
LINE
  5
434
330
1B
100
AcDbEntity
 67
     1
  8
7_ALL_FEATURES
  6
Continuous
 62
     7
100
AcDbLine
 10
436.6361771577
 20
246.9984454155
 30
0.0
 11
435.7013577019
 21
246.9984454155
 31
0.0
  0
LINE
  5
435
330
1B
100
AcDbEntity
 67
     1
  8
7_ALL_FEATURES
  6
Continuous
 62
     9
100
AcDbLine
 10
435.7013577019
 20
281.9984454155
 30
0.0
 11
435.7013577019
 21
272.9984454155
 31
0.0
  0
LINE
  5
436
330
1B
100
AcDbEntity
 67
     1
  8
7_ALL_FEATURES
  6
Continuous
 62
     9
100
AcDbLine
 10
414.0013577019
 20
237.9984454155
 30
0.0
 11
414.0013577019
 21
246.9984454155
 31
0.0
  0
LINE
  5
437
330
1B
100
AcDbEntity
 67
     1
  8
7_ALL_FEATURES
  6
Continuous
 62
     9
100
AcDbLine
 10
435.7013577019
 20
246.9984454155
 30
0.0
 11
435.7013577019
 21
237.9984454155
 31
0.0
  0
LINE
  5
438
330
1B
100
AcDbEntity
 67
     1
  8
7_ALL_FEATURES
  6
Continuous
 62
     9
100
AcDbLine
 10
414.0013577019
 20
272.9984454155
 30
0.0
 11
414.0013577019
 21
281.9984454155
 31
0.0
  0
LINE
  5
439
330
1B
100
AcDbEntity
 67
     1
  8
7_ALL_FEATURES
  6
Continuous
 62
     3
100
AcDbLine
 10
398.8513577019
 20
232.2984454155
 30
0.0
 11
395.6013577019
 21
232.2984454155
 31
0.0
  0
LINE
  5
43A
330
1B
100
AcDbEntity
 67
     1
  8
7_ALL_FEATURES
  6
Continuous
 62
     3
100
AcDbLine
 10
395.6013577019
 20
232.2984454155
 30
0.0
 11
388.8513577019
 21
232.2984454155
 31
0.0
  0
LINE
  5
43B
330
1B
100
AcDbEntity
 67
     1
  8
7_ALL_FEATURES
  6
Continuous
 62
     3
100
AcDbLine
 10
450.8513577019
 20
232.2984454155
 30
0.0
 11
398.8513577019
 21
232.2984454155
 31
0.0
  0
LINE
  5
43C
330
1B
100
AcDbEntity
 67
     1
  8
7_ALL_FEATURES
  6
Continuous
 62
     3
100
AcDbLine
 10
460.8513577019
 20
232.2984454155
 30
0.0
 11
454.1013577019
 21
232.2984454155
 31
0.0
  0
LINE
  5
43D
330
1B
100
AcDbEntity
 67
     1
  8
7_ALL_FEATURES
  6
Continuous
 62
     3
100
AcDbLine
 10
454.1013577019
 20
232.2984454155
 30
0.0
 11
450.8513577019
 21
232.2984454155
 31
0.0
  0
LINE
  5
43E
330
1B
100
AcDbEntity
 67
     1
  8
7_ALL_FEATURES
  6
Continuous
 62
     3
100
AcDbLine
 10
436.4013577019
 20
322.4984454155
 30
0.0
 11
436.4013577019
 21
321.9984454155
 31
0.0
  0
LINE
  5
43F
330
1B
100
AcDbEntity
 67
     1
  8
7_ALL_FEATURES
  6
Continuous
 62
     3
100
AcDbLine
 10
436.4013577019
 20
283.1984454155
 30
0.0
 11
436.4013577019
 21
282.4984454155
 31
0.0
  0
LINE
  5
440
330
1B
100
AcDbEntity
 67
     1
  8
7_ALL_FEATURES
  6
Continuous
 62
     3
100
AcDbLine
 10
436.4013577019
 20
236.9984454155
 30
0.0
 11
436.4013577019
 21
236.7984454155
 31
0.0
  0
LINE
  5
441
330
1B
100
AcDbEntity
 67
     1
  8
7_ALL_FEATURES
  6
Continuous
 62
     3
100
AcDbLine
 10
436.4013577019
 20
236.9984454155
 30
0.0
 11
436.4013577019
 21
237.9984454155
 31
0.0
  0
LINE
  5
442
330
1B
100
AcDbEntity
 67
     1
  8
7_ALL_FEATURES
  6
Continuous
 62
     3
100
AcDbLine
 10
436.4013577019
 20
246.9984454155
 30
0.0
 11
436.4013577019
 21
247.9984454155
 31
0.0
  0
LINE
  5
443
330
1B
100
AcDbEntity
 67
     1
  8
7_ALL_FEATURES
  6
Continuous
 62
     3
100
AcDbLine
 10
436.4013577019
 20
272.4984454155
 30
0.0
 11
436.4013577019
 21
271.7984454155
 31
0.0
  0
LINE
  5
444
330
1B
100
AcDbEntity
 67
     1
  8
7_ALL_FEATURES
  6
Continuous
 62
     3
100
AcDbLine
 10
436.4013577019
 20
248.1984454155
 30
0.0
 11
436.4013577019
 21
247.9984454155
 31
0.0
  0
LINE
  5
445
330
1B
100
AcDbEntity
 67
     1
  8
7_ALL_FEATURES
  6
Continuous
 62
     3
100
AcDbLine
 10
436.4013577019
 20
272.4984454155
 30
0.0
 11
436.4013577019
 21
272.9984454155
 31
0.0
  0
LINE
  5
446
330
1B
100
AcDbEntity
 67
     1
  8
7_ALL_FEATURES
  6
Continuous
 62
     3
100
AcDbLine
 10
436.4013577019
 20
281.9984454155
 30
0.0
 11
436.4013577019
 21
282.4984454155
 31
0.0
  0
LINE
  5
447
330
1B
100
AcDbEntity
 67
     1
  8
7_ALL_FEATURES
  6
Continuous
 62
     3
100
AcDbLine
 10
427.0874256794
 20
233.4984454155
 30
0.0
 11
422.6152897244
 21
233.4984454155
 31
0.0
  0
LINE
  5
448
330
1B
100
AcDbEntity
 67
     1
  8
7_ALL_FEATURES
  6
Continuous
 62
     3
100
AcDbLine
 10
413.3013577019
 20
272.4984454155
 30
0.0
 11
413.3013577019
 21
272.9984454155
 31
0.0
  0
LINE
  5
449
330
1B
100
AcDbEntity
 67
     1
  8
7_ALL_FEATURES
  6
Continuous
 62
     3
100
AcDbLine
 10
413.3013577019
 20
281.9984454155
 30
0.0
 11
413.3013577019
 21
282.4984454155
 31
0.0
  0
LINE
  5
44A
330
1B
100
AcDbEntity
 67
     1
  8
7_ALL_FEATURES
  6
Continuous
 62
     3
100
AcDbLine
 10
413.3013577019
 20
247.9984454155
 30
0.0
 11
413.3013577019
 21
248.1984454155
 31
0.0
  0
LINE
  5
44B
330
1B
100
AcDbEntity
 67
     1
  8
7_ALL_FEATURES
  6
Continuous
 62
     3
100
AcDbLine
 10
413.3013577019
 20
271.9984454155
 30
0.0
 11
413.3013577019
 21
272.4984454155
 31
0.0
  0
LINE
  5
44C
330
1B
100
AcDbEntity
 67
     1
  8
7_ALL_FEATURES
  6
Continuous
 62
     3
100
AcDbLine
 10
413.3013577019
 20
236.9984454155
 30
0.0
 11
413.3013577019
 21
237.9984454155
 31
0.0
  0
LINE
  5
44D
330
1B
100
AcDbEntity
 67
     1
  8
7_ALL_FEATURES
  6
Continuous
 62
     3
100
AcDbLine
 10
413.3013577019
 20
246.9984454155
 30
0.0
 11
413.3013577019
 21
247.9984454155
 31
0.0
  0
LINE
  5
44E
330
1B
100
AcDbEntity
 67
     1
  8
7_ALL_FEATURES
  6
Continuous
 62
     3
100
AcDbLine
 10
413.3013577019
 20
236.7984454155
 30
0.0
 11
413.3013577019
 21
236.9984454155
 31
0.0
  0
LINE
  5
44F
330
1B
100
AcDbEntity
 67
     1
  8
7_ALL_FEATURES
  6
Continuous
 62
     3
100
AcDbLine
 10
413.3013577019
 20
282.4984454155
 30
0.0
 11
413.3013577019
 21
282.9984454155
 31
0.0
  0
LINE
  5
450
330
1B
100
AcDbEntity
 67
     1
  8
7_ALL_FEATURES
  6
Continuous
 62
     3
100
AcDbLine
 10
413.3013577019
 20
321.9984454155
 30
0.0
 11
413.3013577019
 21
322.4984454155
 31
0.0
  0
LINE
  5
451
330
1B
100
AcDbEntity
 67
     1
  8
3_ALL_AXES
  6
Continuous
 62
     7
100
AcDbLine
 10
76.2712056748
 20
170.1521246807
 30
0.0
 11
76.2712056748
 21
170.8579948513
 31
0.0
  0
LINE
  5
452
330
1B
100
AcDbEntity
 67
     1
  8
3_ALL_AXES
  6
Continuous
 62
     7
100
AcDbLine
 10
70.4712056748
 20
170.1521246807
 30
0.0
 11
70.4712056748
 21
170.8579948513
 31
0.0
  0
ARC
  5
453
330
1B
100
AcDbEntity
 67
     1
  8
3_ALL_AXES
  6
Continuous
 62
     7
100
AcDbCircle
 10
73.3712056748
 20
163.4021246807
 30
0.0
 40
8.0
100
AcDbArc
 50
90.0
 51
111.2538091854
  0
ARC
  5
454
330
1B
100
AcDbEntity
 67
     1
  8
3_ALL_AXES
  6
Continuous
 62
     7
100
AcDbCircle
 10
73.3712056748
 20
163.4021246807
 30
0.0
 40
8.0
100
AcDbArc
 50
68.7461908146
 51
90.0
  0
LINE
  5
455
330
1B
100
AcDbEntity
 67
     1
  8
3_ALL_AXES
  6
Continuous
 62
     7
100
AcDbLine
 10
76.2712056748
 20
170.8579948513
 30
0.0
 11
70.4712056748
 21
170.8579948513
 31
0.0
  0
LINE
  5
456
330
1B
100
AcDbEntity
 67
     1
  8
3_ALL_AXES
  6
Continuous
 62
     7
100
AcDbLine
 10
185.4712056748
 20
147.0521246807
 30
0.0
 11
185.4712056748
 21
146.3462545102
 31
0.0
  0
LINE
  5
457
330
1B
100
AcDbEntity
 67
     1
  8
3_ALL_AXES
  6
Continuous
 62
     7
100
AcDbLine
 10
191.2712056748
 20
147.0521246807
 30
0.0
 11
191.2712056748
 21
146.3462545102
 31
0.0
  0
ARC
  5
458
330
1B
100
AcDbEntity
 67
     1
  8
3_ALL_AXES
  6
Continuous
 62
     7
100
AcDbCircle
 10
188.3712056748
 20
153.8021246807
 30
0.0
 40
8.0
100
AcDbArc
 50
270.0
 51
291.2538091854
  0
ARC
  5
459
330
1B
100
AcDbEntity
 67
     1
  8
3_ALL_AXES
  6
Continuous
 62
     7
100
AcDbCircle
 10
188.3712056748
 20
153.8021246807
 30
0.0
 40
8.0
100
AcDbArc
 50
248.7461908146
 51
270.0
  0
LINE
  5
45A
330
1B
100
AcDbEntity
 67
     1
  8
3_ALL_AXES
  6
Continuous
 62
     7
100
AcDbLine
 10
185.4712056748
 20
146.3462545102
 30
0.0
 11
191.2712056748
 21
146.3462545102
 31
0.0
  0
LINE
  5
45B
330
1B
100
AcDbEntity
 67
     1
  8
3_ALL_AXES
  6
Continuous
 62
     7
100
AcDbLine
 10
156.2712056748
 20
170.1521246807
 30
0.0
 11
156.2712056748
 21
170.8579948513
 31
0.0
  0
LINE
  5
45C
330
1B
100
AcDbEntity
 67
     1
  8
3_ALL_AXES
  6
Continuous
 62
     7
100
AcDbLine
 10
150.4712056748
 20
170.1521246807
 30
0.0
 11
150.4712056748
 21
170.8579948513
 31
0.0
  0
ARC
  5
45D
330
1B
100
AcDbEntity
 67
     1
  8
3_ALL_AXES
  6
Continuous
 62
     7
100
AcDbCircle
 10
153.3712056748
 20
163.4021246807
 30
0.0
 40
8.0
100
AcDbArc
 50
90.0
 51
111.2538091854
  0
ARC
  5
45E
330
1B
100
AcDbEntity
 67
     1
  8
3_ALL_AXES
  6
Continuous
 62
     7
100
AcDbCircle
 10
153.3712056748
 20
163.4021246807
 30
0.0
 40
8.0
100
AcDbArc
 50
68.7461908146
 51
90.0
  0
LINE
  5
45F
330
1B
100
AcDbEntity
 67
     1
  8
3_ALL_AXES
  6
Continuous
 62
     7
100
AcDbLine
 10
156.2712056748
 20
170.8579948513
 30
0.0
 11
150.4712056748
 21
170.8579948513
 31
0.0
  0
LINE
  5
460
330
1B
100
AcDbEntity
 67
     1
  8
3_ALL_AXES
  6
Continuous
 62
     7
100
AcDbLine
 10
191.2712056748
 20
170.1521246807
 30
0.0
 11
191.2712056748
 21
170.8579948513
 31
0.0
  0
LINE
  5
461
330
1B
100
AcDbEntity
 67
     1
  8
3_ALL_AXES
  6
Continuous
 62
     7
100
AcDbLine
 10
185.4712056748
 20
170.1521246807
 30
0.0
 11
185.4712056748
 21
170.8579948513
 31
0.0
  0
ARC
  5
462
330
1B
100
AcDbEntity
 67
     1
  8
3_ALL_AXES
  6
Continuous
 62
     7
100
AcDbCircle
 10
188.3712056748
 20
163.4021246807
 30
0.0
 40
8.0
100
AcDbArc
 50
90.0
 51
111.2538091854
  0
ARC
  5
463
330
1B
100
AcDbEntity
 67
     1
  8
3_ALL_AXES
  6
Continuous
 62
     7
100
AcDbCircle
 10
188.3712056748
 20
163.4021246807
 30
0.0
 40
8.0
100
AcDbArc
 50
68.7461908146
 51
90.0
  0
LINE
  5
464
330
1B
100
AcDbEntity
 67
     1
  8
3_ALL_AXES
  6
Continuous
 62
     7
100
AcDbLine
 10
191.2712056748
 20
170.8579948513
 30
0.0
 11
185.4712056748
 21
170.8579948513
 31
0.0
  0
LINE
  5
465
330
1B
100
AcDbEntity
 67
     1
  8
3_ALL_AXES
  6
Continuous
 62
     7
100
AcDbLine
 10
271.2712056748
 20
170.1521246807
 30
0.0
 11
271.2712056748
 21
170.8579948513
 31
0.0
  0
LINE
  5
466
330
1B
100
AcDbEntity
 67
     1
  8
3_ALL_AXES
  6
Continuous
 62
     7
100
AcDbLine
 10
265.4712056748
 20
170.1521246807
 30
0.0
 11
265.4712056748
 21
170.8579948513
 31
0.0
  0
ARC
  5
467
330
1B
100
AcDbEntity
 67
     1
  8
3_ALL_AXES
  6
Continuous
 62
     7
100
AcDbCircle
 10
268.3712056748
 20
163.4021246807
 30
0.0
 40
8.0
100
AcDbArc
 50
90.0
 51
111.2538091854
  0
ARC
  5
468
330
1B
100
AcDbEntity
 67
     1
  8
3_ALL_AXES
  6
Continuous
 62
     7
100
AcDbCircle
 10
268.3712056748
 20
163.4021246807
 30
0.0
 40
8.0
100
AcDbArc
 50
68.7461908146
 51
90.0
  0
LINE
  5
469
330
1B
100
AcDbEntity
 67
     1
  8
3_ALL_AXES
  6
Continuous
 62
     7
100
AcDbLine
 10
271.2712056748
 20
170.8579948513
 30
0.0
 11
265.4712056748
 21
170.8579948513
 31
0.0
  0
LINE
  5
46A
330
1B
100
AcDbEntity
 67
     1
  8
3_ALL_AXES
  6
Continuous
 62
     7
100
AcDbLine
 10
265.4712056748
 20
147.0521246807
 30
0.0
 11
265.4712056748
 21
146.3462545102
 31
0.0
  0
LINE
  5
46B
330
1B
100
AcDbEntity
 67
     1
  8
3_ALL_AXES
  6
Continuous
 62
     7
100
AcDbLine
 10
271.2712056748
 20
147.0521246807
 30
0.0
 11
271.2712056748
 21
146.3462545102
 31
0.0
  0
ARC
  5
46C
330
1B
100
AcDbEntity
 67
     1
  8
3_ALL_AXES
  6
Continuous
 62
     7
100
AcDbCircle
 10
268.3712056748
 20
153.8021246807
 30
0.0
 40
8.0
100
AcDbArc
 50
270.0
 51
291.2538091854
  0
ARC
  5
46D
330
1B
100
AcDbEntity
 67
     1
  8
3_ALL_AXES
  6
Continuous
 62
     7
100
AcDbCircle
 10
268.3712056748
 20
153.8021246807
 30
0.0
 40
8.0
100
AcDbArc
 50
248.7461908146
 51
270.0
  0
LINE
  5
46E
330
1B
100
AcDbEntity
 67
     1
  8
3_ALL_AXES
  6
Continuous
 62
     7
100
AcDbLine
 10
265.4712056748
 20
146.3462545102
 30
0.0
 11
271.2712056748
 21
146.3462545102
 31
0.0
  0
LINE
  5
46F
330
1B
100
AcDbEntity
 67
     1
  8
3_ALL_AXES
  6
Continuous
 62
     7
100
AcDbLine
 10
150.4712056748
 20
147.0521246807
 30
0.0
 11
150.4712056748
 21
146.3462545102
 31
0.0
  0
LINE
  5
470
330
1B
100
AcDbEntity
 67
     1
  8
3_ALL_AXES
  6
Continuous
 62
     7
100
AcDbLine
 10
156.2712056748
 20
147.0521246807
 30
0.0
 11
156.2712056748
 21
146.3462545102
 31
0.0
  0
ARC
  5
471
330
1B
100
AcDbEntity
 67
     1
  8
3_ALL_AXES
  6
Continuous
 62
     7
100
AcDbCircle
 10
153.3712056748
 20
153.8021246807
 30
0.0
 40
8.0
100
AcDbArc
 50
270.0
 51
291.2538091854
  0
ARC
  5
472
330
1B
100
AcDbEntity
 67
     1
  8
3_ALL_AXES
  6
Continuous
 62
     7
100
AcDbCircle
 10
153.3712056748
 20
153.8021246807
 30
0.0
 40
8.0
100
AcDbArc
 50
248.7461908146
 51
270.0
  0
LINE
  5
473
330
1B
100
AcDbEntity
 67
     1
  8
3_ALL_AXES
  6
Continuous
 62
     7
100
AcDbLine
 10
150.4712056748
 20
146.3462545102
 30
0.0
 11
156.2712056748
 21
146.3462545102
 31
0.0
  0
LINE
  5
474
330
1B
100
AcDbEntity
 67
     1
  8
3_ALL_AXES
  6
Continuous
 62
     7
100
AcDbLine
 10
70.4712056748
 20
147.0521246807
 30
0.0
 11
70.4712056748
 21
146.3462545102
 31
0.0
  0
LINE
  5
475
330
1B
100
AcDbEntity
 67
     1
  8
3_ALL_AXES
  6
Continuous
 62
     7
100
AcDbLine
 10
76.2712056748
 20
147.0521246807
 30
0.0
 11
76.2712056748
 21
146.3462545102
 31
0.0
  0
ARC
  5
476
330
1B
100
AcDbEntity
 67
     1
  8
3_ALL_AXES
  6
Continuous
 62
     7
100
AcDbCircle
 10
73.3712056748
 20
153.8021246807
 30
0.0
 40
8.0
100
AcDbArc
 50
270.0
 51
291.2538091854
  0
ARC
  5
477
330
1B
100
AcDbEntity
 67
     1
  8
3_ALL_AXES
  6
Continuous
 62
     7
100
AcDbCircle
 10
73.3712056748
 20
153.8021246807
 30
0.0
 40
8.0
100
AcDbArc
 50
248.7461908146
 51
270.0
  0
LINE
  5
478
330
1B
100
AcDbEntity
 67
     1
  8
3_ALL_AXES
  6
Continuous
 62
     7
100
AcDbLine
 10
70.4712056748
 20
146.3462545102
 30
0.0
 11
76.2712056748
 21
146.3462545102
 31
0.0
  0
LINE
  5
479
330
1B
100
AcDbEntity
 67
     1
  8
3_ALL_AXES
  6
Continuous
 62
     7
100
AcDbLine
 10
48.5862056748
 20
143.5521246807
 30
0.0
 11
48.0645813478
 21
143.5521246807
 31
0.0
  0
LINE
  5
47A
330
1B
100
AcDbEntity
 67
     1
  8
3_ALL_AXES
  6
Continuous
 62
     7
100
AcDbLine
 10
48.0645813478
 20
143.5521246807
 30
0.0
 11
47.3428935113
 21
143.5521246807
 31
0.0
  0
LINE
  5
47B
330
1B
100
AcDbEntity
 67
     1
  8
3_ALL_AXES
  6
Continuous
 62
     7
100
AcDbLine
 10
47.3428935113
 20
143.5521246807
 30
0.0
 11
45.8995178383
 21
143.5521246807
 31
0.0
  0
LINE
  5
47C
330
1B
100
AcDbEntity
 67
     1
  8
3_ALL_AXES
  6
Continuous
 62
     7
100
AcDbLine
 10
45.8995178383
 20
143.5521246807
 30
0.0
 11
45.1778300019
 21
143.5521246807
 31
0.0
  0
LINE
  5
47D
330
1B
100
AcDbEntity
 67
     1
  8
3_ALL_AXES
  6
Continuous
 62
     7
100
AcDbLine
 10
45.1778300019
 20
143.5521246807
 30
0.0
 11
44.6562056748
 21
143.5521246807
 31
0.0
  0
ARC
  5
47E
330
1B
100
AcDbEntity
 67
     1
  8
3_ALL_AXES
  6
Continuous
 62
     7
100
AcDbCircle
 10
46.7636484722
 20
147.2247647724
 30
0.0
 40
4.1
100
AcDbArc
 50
296.3930257743
 51
333.1366968699
  0
ARC
  5
47F
330
1B
100
AcDbEntity
 67
     1
  8
3_ALL_AXES
  6
Continuous
 62
     7
100
AcDbCircle
 10
46.4787628775
 20
147.2247647724
 30
0.0
 40
4.1
100
AcDbArc
 50
206.8633031301
 51
243.6069742257
  0
LINE
  5
480
330
1B
100
AcDbEntity
 67
     1
  8
3_ALL_AXES
  6
Continuous
 62
     7
100
AcDbLine
 10
50.4212056748
 20
145.3721246807
 30
0.0
 11
50.4212056748
 21
145.7521246807
 31
0.0
  0
LINE
  5
481
330
1B
100
AcDbEntity
 67
     1
  8
3_ALL_AXES
  6
Continuous
 62
     7
100
AcDbLine
 10
42.8212056748
 20
145.3721246807
 30
0.0
 11
42.8212056748
 21
145.7521246807
 31
0.0
  0
LINE
  5
482
330
1B
100
AcDbEntity
 67
     1
  8
7_ALL_FEATURES
  6
Continuous
 62
     7
100
AcDbLine
 10
44.6212056748
 20
146.7521246807
 30
0.0
 11
44.6212056748
 21
147.0521246807
 31
0.0
  0
LINE
  5
483
330
1B
100
AcDbEntity
 67
     1
  8
7_ALL_FEATURES
  6
Continuous
 62
     7
100
AcDbLine
 10
48.6212056748
 20
146.7521246807
 30
0.0
 11
48.6212056748
 21
147.0521246807
 31
0.0
  0
LINE
  5
484
330
1B
100
AcDbEntity
 67
     1
  8
3_ALL_AXES
  6
Continuous
 62
     7
100
AcDbLine
 10
50.4212056748
 20
145.3721246807
 30
0.0
 11
42.8212056748
 21
145.3721246807
 31
0.0
  0
LINE
  5
485
330
1B
100
AcDbEntity
 67
     1
  8
3_ALL_AXES
  6
Continuous
 62
     7
100
AcDbLine
 10
297.0862056748
 20
143.5521246807
 30
0.0
 11
296.5645813478
 21
143.5521246807
 31
0.0
  0
LINE
  5
486
330
1B
100
AcDbEntity
 67
     1
  8
3_ALL_AXES
  6
Continuous
 62
     7
100
AcDbLine
 10
296.5645813478
 20
143.5521246807
 30
0.0
 11
295.8428935113
 21
143.5521246807
 31
0.0
  0
LINE
  5
487
330
1B
100
AcDbEntity
 67
     1
  8
3_ALL_AXES
  6
Continuous
 62
     7
100
AcDbLine
 10
295.8428935113
 20
143.5521246807
 30
0.0
 11
294.3995178383
 21
143.5521246807
 31
0.0
  0
LINE
  5
488
330
1B
100
AcDbEntity
 67
     1
  8
3_ALL_AXES
  6
Continuous
 62
     7
100
AcDbLine
 10
294.3995178383
 20
143.5521246807
 30
0.0
 11
293.6778300019
 21
143.5521246807
 31
0.0
  0
LINE
  5
489
330
1B
100
AcDbEntity
 67
     1
  8
3_ALL_AXES
  6
Continuous
 62
     7
100
AcDbLine
 10
293.6778300019
 20
143.5521246807
 30
0.0
 11
293.1562056748
 21
143.5521246807
 31
0.0
  0
ARC
  5
48A
330
1B
100
AcDbEntity
 67
     1
  8
3_ALL_AXES
  6
Continuous
 62
     7
100
AcDbCircle
 10
295.2636484722
 20
147.2247647724
 30
0.0
 40
4.1
100
AcDbArc
 50
296.3930257743
 51
333.1366968699
  0
ARC
  5
48B
330
1B
100
AcDbEntity
 67
     1
  8
3_ALL_AXES
  6
Continuous
 62
     7
100
AcDbCircle
 10
294.9787628775
 20
147.2247647724
 30
0.0
 40
4.1
100
AcDbArc
 50
206.8633031301
 51
243.6069742257
  0
LINE
  5
48C
330
1B
100
AcDbEntity
 67
     1
  8
3_ALL_AXES
  6
Continuous
 62
     7
100
AcDbLine
 10
298.9212056748
 20
145.3721246807
 30
0.0
 11
298.9212056748
 21
145.7521246807
 31
0.0
  0
LINE
  5
48D
330
1B
100
AcDbEntity
 67
     1
  8
3_ALL_AXES
  6
Continuous
 62
     7
100
AcDbLine
 10
291.3212056748
 20
145.3721246807
 30
0.0
 11
291.3212056748
 21
145.7521246807
 31
0.0
  0
LINE
  5
48E
330
1B
100
AcDbEntity
 67
     1
  8
7_ALL_FEATURES
  6
Continuous
 62
     7
100
AcDbLine
 10
293.1212056748
 20
146.7521246807
 30
0.0
 11
293.1212056748
 21
147.0521246807
 31
0.0
  0
LINE
  5
48F
330
1B
100
AcDbEntity
 67
     1
  8
7_ALL_FEATURES
  6
Continuous
 62
     7
100
AcDbLine
 10
297.1212056748
 20
146.7521246807
 30
0.0
 11
297.1212056748
 21
147.0521246807
 31
0.0
  0
LINE
  5
490
330
1B
100
AcDbEntity
 67
     1
  8
3_ALL_AXES
  6
Continuous
 62
     7
100
AcDbLine
 10
298.9212056748
 20
145.3721246807
 30
0.0
 11
291.3212056748
 21
145.3721246807
 31
0.0
  0
LINE
  5
491
330
1B
100
AcDbEntity
 67
     1
  8
3_ALL_AXES
  6
Continuous
 62
     7
100
AcDbLine
 10
293.1562056748
 20
173.6521246807
 30
0.0
 11
293.6778300019
 21
173.6521246807
 31
0.0
  0
LINE
  5
492
330
1B
100
AcDbEntity
 67
     1
  8
3_ALL_AXES
  6
Continuous
 62
     7
100
AcDbLine
 10
293.6778300019
 20
173.6521246807
 30
0.0
 11
294.3995178383
 21
173.6521246807
 31
0.0
  0
LINE
  5
493
330
1B
100
AcDbEntity
 67
     1
  8
3_ALL_AXES
  6
Continuous
 62
     7
100
AcDbLine
 10
294.3995178383
 20
173.6521246807
 30
0.0
 11
295.8428935113
 21
173.6521246807
 31
0.0
  0
LINE
  5
494
330
1B
100
AcDbEntity
 67
     1
  8
3_ALL_AXES
  6
Continuous
 62
     7
100
AcDbLine
 10
295.8428935113
 20
173.6521246807
 30
0.0
 11
296.5645813478
 21
173.6521246807
 31
0.0
  0
LINE
  5
495
330
1B
100
AcDbEntity
 67
     1
  8
3_ALL_AXES
  6
Continuous
 62
     7
100
AcDbLine
 10
296.5645813478
 20
173.6521246807
 30
0.0
 11
297.0862056748
 21
173.6521246807
 31
0.0
  0
ARC
  5
496
330
1B
100
AcDbEntity
 67
     1
  8
3_ALL_AXES
  6
Continuous
 62
     7
100
AcDbCircle
 10
294.9787628775
 20
169.9794845891
 30
0.0
 40
4.1
100
AcDbArc
 50
116.3930257743
 51
153.1366968699
  0
ARC
  5
497
330
1B
100
AcDbEntity
 67
     1
  8
3_ALL_AXES
  6
Continuous
 62
     7
100
AcDbCircle
 10
295.2636484722
 20
169.9794845891
 30
0.0
 40
4.1
100
AcDbArc
 50
26.8633031301
 51
63.6069742257
  0
LINE
  5
498
330
1B
100
AcDbEntity
 67
     1
  8
3_ALL_AXES
  6
Continuous
 62
     7
100
AcDbLine
 10
291.3212056748
 20
171.8321246807
 30
0.0
 11
291.3212056748
 21
171.4521246807
 31
0.0
  0
LINE
  5
499
330
1B
100
AcDbEntity
 67
     1
  8
3_ALL_AXES
  6
Continuous
 62
     7
100
AcDbLine
 10
298.9212056748
 20
171.8321246807
 30
0.0
 11
298.9212056748
 21
171.4521246807
 31
0.0
  0
LINE
  5
49A
330
1B
100
AcDbEntity
 67
     1
  8
7_ALL_FEATURES
  6
Continuous
 62
     7
100
AcDbLine
 10
297.1212056748
 20
170.4521246807
 30
0.0
 11
297.1212056748
 21
170.1521246807
 31
0.0
  0
LINE
  5
49B
330
1B
100
AcDbEntity
 67
     1
  8
7_ALL_FEATURES
  6
Continuous
 62
     7
100
AcDbLine
 10
293.1212056748
 20
170.4521246807
 30
0.0
 11
293.1212056748
 21
170.1521246807
 31
0.0
  0
LINE
  5
49C
330
1B
100
AcDbEntity
 67
     1
  8
3_ALL_AXES
  6
Continuous
 62
     7
100
AcDbLine
 10
291.3212056748
 20
171.8321246807
 30
0.0
 11
298.9212056748
 21
171.8321246807
 31
0.0
  0
LINE
  5
49D
330
1B
100
AcDbEntity
 67
     1
  8
3_ALL_AXES
  6
Continuous
 62
     7
100
AcDbLine
 10
44.6562056748
 20
173.6521246807
 30
0.0
 11
45.1778300019
 21
173.6521246807
 31
0.0
  0
LINE
  5
49E
330
1B
100
AcDbEntity
 67
     1
  8
3_ALL_AXES
  6
Continuous
 62
     7
100
AcDbLine
 10
45.1778300019
 20
173.6521246807
 30
0.0
 11
45.8995178383
 21
173.6521246807
 31
0.0
  0
LINE
  5
49F
330
1B
100
AcDbEntity
 67
     1
  8
3_ALL_AXES
  6
Continuous
 62
     7
100
AcDbLine
 10
45.8995178383
 20
173.6521246807
 30
0.0
 11
47.3428935113
 21
173.6521246807
 31
0.0
  0
LINE
  5
4A0
330
1B
100
AcDbEntity
 67
     1
  8
3_ALL_AXES
  6
Continuous
 62
     7
100
AcDbLine
 10
47.3428935113
 20
173.6521246807
 30
0.0
 11
48.0645813478
 21
173.6521246807
 31
0.0
  0
LINE
  5
4A1
330
1B
100
AcDbEntity
 67
     1
  8
3_ALL_AXES
  6
Continuous
 62
     7
100
AcDbLine
 10
48.0645813478
 20
173.6521246807
 30
0.0
 11
48.5862056748
 21
173.6521246807
 31
0.0
  0
ARC
  5
4A2
330
1B
100
AcDbEntity
 67
     1
  8
3_ALL_AXES
  6
Continuous
 62
     7
100
AcDbCircle
 10
46.4787628775
 20
169.9794845891
 30
0.0
 40
4.1
100
AcDbArc
 50
116.3930257743
 51
153.1366968699
  0
ARC
  5
4A3
330
1B
100
AcDbEntity
 67
     1
  8
3_ALL_AXES
  6
Continuous
 62
     7
100
AcDbCircle
 10
46.7636484722
 20
169.9794845891
 30
0.0
 40
4.1
100
AcDbArc
 50
26.8633031301
 51
63.6069742257
  0
LINE
  5
4A4
330
1B
100
AcDbEntity
 67
     1
  8
3_ALL_AXES
  6
Continuous
 62
     7
100
AcDbLine
 10
42.8212056748
 20
171.8321246807
 30
0.0
 11
42.8212056748
 21
171.4521246807
 31
0.0
  0
LINE
  5
4A5
330
1B
100
AcDbEntity
 67
     1
  8
3_ALL_AXES
  6
Continuous
 62
     7
100
AcDbLine
 10
50.4212056748
 20
171.8321246807
 30
0.0
 11
50.4212056748
 21
171.4521246807
 31
0.0
  0
LINE
  5
4A6
330
1B
100
AcDbEntity
 67
     1
  8
7_ALL_FEATURES
  6
Continuous
 62
     7
100
AcDbLine
 10
48.6212056748
 20
170.4521246807
 30
0.0
 11
48.6212056748
 21
170.1521246807
 31
0.0
  0
LINE
  5
4A7
330
1B
100
AcDbEntity
 67
     1
  8
7_ALL_FEATURES
  6
Continuous
 62
     7
100
AcDbLine
 10
44.6212056748
 20
170.4521246807
 30
0.0
 11
44.6212056748
 21
170.1521246807
 31
0.0
  0
LINE
  5
4A8
330
1B
100
AcDbEntity
 67
     1
  8
3_ALL_AXES
  6
Continuous
 62
     7
100
AcDbLine
 10
42.8212056748
 20
171.8321246807
 30
0.0
 11
50.4212056748
 21
171.8321246807
 31
0.0
  0
LINE
  5
4A9
330
1B
100
AcDbEntity
 67
     1
  8
7_ALL_FEATURES
  6
Continuous
 62
     7
100
AcDbLine
 10
39.6212056748
 20
147.0521246807
 30
0.0
 11
39.6212056748
 21
147.5521246807
 31
0.0
  0
LINE
  5
4AA
330
1B
100
AcDbEntity
 67
     1
  8
7_ALL_FEATURES
  6
Continuous
 62
     7
100
AcDbLine
 10
39.6212056748
 20
169.6521246807
 30
0.0
 11
39.6212056748
 21
147.5521246807
 31
0.0
  0
LINE
  5
4AB
330
1B
100
AcDbEntity
 67
     1
  8
7_ALL_FEATURES
  6
Continuous
 62
     7
100
AcDbLine
 10
39.6212056748
 20
169.6521246807
 30
0.0
 11
39.6212056748
 21
170.1521246807
 31
0.0
  0
LINE
  5
4AC
330
1B
100
AcDbEntity
 67
     1
  8
7_ALL_FEATURES
  6
Continuous
 62
     7
100
AcDbLine
 10
39.6212056748
 20
170.1521246807
 30
0.0
 11
40.6212056748
 21
170.1521246807
 31
0.0
  0
LINE
  5
4AD
330
1B
100
AcDbEntity
 67
     1
  8
7_ALL_FEATURES
  6
Continuous
 62
     7
100
AcDbLine
 10
39.6212056748
 20
147.0521246807
 30
0.0
 11
40.6212056748
 21
147.0521246807
 31
0.0
  0
ARC
  5
4AE
330
1B
100
AcDbEntity
 67
     1
  8
7_ALL_FEATURES
  6
Continuous
 62
     7
100
AcDbCircle
 10
41.6212056748
 20
169.4521246807
 30
0.0
 40
2.0
100
AcDbArc
 50
152.1337126868
 51
159.5063626242
  0
ARC
  5
4AF
330
1B
100
AcDbEntity
 67
     1
  8
7_ALL_FEATURES
  6
Continuous
 62
     7
100
AcDbCircle
 10
41.6212056748
 20
169.4521246807
 30
0.0
 40
2.0
100
AcDbArc
 50
90.0
 51
152.1337126868
  0
LINE
  5
4B0
330
1B
100
AcDbEntity
 67
     1
  8
7_ALL_FEATURES
  6
Continuous
 62
     7
100
AcDbLine
 10
41.6212056748
 20
171.4521246807
 30
0.0
 11
48.1212056748
 21
171.4521246807
 31
0.0
  0
LINE
  5
4B1
330
1B
100
AcDbEntity
 67
     1
  8
7_ALL_FEATURES
  6
Continuous
 62
     7
100
AcDbLine
 10
48.1212056748
 20
171.4521246807
 30
0.0
 11
50.4212056748
 21
171.4521246807
 31
0.0
  0
LINE
  5
4B2
330
1B
100
AcDbEntity
 67
     1
  8
7_ALL_FEATURES
  6
Continuous
 62
     7
100
AcDbLine
 10
50.4212056748
 20
171.4521246807
 30
0.0
 11
52.1212056748
 21
171.4521246807
 31
0.0
  0
ARC
  5
4B3
330
1B
100
AcDbEntity
 67
     1
  8
7_ALL_FEATURES
  6
Continuous
 62
     7
100
AcDbCircle
 10
41.6212056748
 20
147.7521246807
 30
0.0
 40
2.0
100
AcDbArc
 50
207.8662873132
 51
270.0
  0
ARC
  5
4B4
330
1B
100
AcDbEntity
 67
     1
  8
7_ALL_FEATURES
  6
Continuous
 62
     7
100
AcDbCircle
 10
41.6212056748
 20
147.7521246807
 30
0.0
 40
2.0
100
AcDbArc
 50
200.4936373758
 51
207.8662873132
  0
LINE
  5
4B5
330
1B
100
AcDbEntity
 67
     1
  8
7_ALL_FEATURES
  6
Continuous
 62
     7
100
AcDbLine
 10
48.1212056748
 20
145.7521246807
 30
0.0
 11
41.6212056748
 21
145.7521246807
 31
0.0
  0
LINE
  5
4B6
330
1B
100
AcDbEntity
 67
     1
  8
7_ALL_FEATURES
  6
Continuous
 62
     7
100
AcDbLine
 10
52.1212056748
 20
145.7521246807
 30
0.0
 11
50.4212056748
 21
145.7521246807
 31
0.0
  0
LINE
  5
4B7
330
1B
100
AcDbEntity
 67
     1
  8
7_ALL_FEATURES
  6
Continuous
 62
     7
100
AcDbLine
 10
50.4212056748
 20
145.7521246807
 30
0.0
 11
48.1212056748
 21
145.7521246807
 31
0.0
  0
LINE
  5
4B8
330
1B
100
AcDbEntity
 67
     1
  8
7_ALL_FEATURES
  6
Continuous
 62
     7
100
AcDbLine
 10
52.1212056748
 20
170.4521246807
 30
0.0
 11
52.1212056748
 21
171.4521246807
 31
0.0
  0
LINE
  5
4B9
330
1B
100
AcDbEntity
 67
     1
  8
7_ALL_FEATURES
  6
Continuous
 62
     7
100
AcDbLine
 10
52.1212056748
 20
146.7521246807
 30
0.0
 11
52.1212056748
 21
145.7521246807
 31
0.0
  0
LINE
  5
4BA
330
1B
100
AcDbEntity
 67
     1
  8
7_ALL_FEATURES
  6
Continuous
 62
     9
100
AcDbLine
 10
39.6212056748
 20
169.6521246807
 30
0.0
 11
40.6212056748
 21
169.6521246807
 31
0.0
  0
LINE
  5
4BB
330
1B
100
AcDbEntity
 67
     1
  8
7_ALL_FEATURES
  6
Continuous
 62
     9
100
AcDbLine
 10
41.6212056748
 20
171.4521246807
 30
0.0
 11
41.6212056748
 21
170.4521246807
 31
0.0
  0
LINE
  5
4BC
330
1B
100
AcDbEntity
 67
     1
  8
7_ALL_FEATURES
  6
Continuous
 62
     9
100
AcDbLine
 10
39.8531240633
 20
170.3869441366
 30
0.0
 11
40.2972525624
 21
170.1521246807
 31
0.0
  0
LINE
  5
4BD
330
1B
100
AcDbEntity
 67
     1
  8
7_ALL_FEATURES
  6
Continuous
 62
     9
100
AcDbLine
 10
48.1212056748
 20
170.4521246807
 30
0.0
 11
48.1212056748
 21
171.4521246807
 31
0.0
  0
LINE
  5
4BE
330
1B
100
AcDbEntity
 67
     1
  8
7_ALL_FEATURES
  6
Continuous
 62
     9
100
AcDbLine
 10
39.6212056748
 20
147.5521246807
 30
0.0
 11
40.6212056748
 21
147.5521246807
 31
0.0
  0
LINE
  5
4BF
330
1B
100
AcDbEntity
 67
     1
  8
7_ALL_FEATURES
  6
Continuous
 62
     9
100
AcDbLine
 10
39.8531240633
 20
146.8173052249
 30
0.0
 11
40.2972525624
 21
147.0521246807
 31
0.0
  0
LINE
  5
4C0
330
1B
100
AcDbEntity
 67
     1
  8
7_ALL_FEATURES
  6
Continuous
 62
     9
100
AcDbLine
 10
41.6212056748
 20
145.7521246807
 30
0.0
 11
41.6212056748
 21
146.7521246807
 31
0.0
  0
LINE
  5
4C1
330
1B
100
AcDbEntity
 67
     1
  8
7_ALL_FEATURES
  6
Continuous
 62
     9
100
AcDbLine
 10
48.1212056748
 20
146.7521246807
 30
0.0
 11
48.1212056748
 21
145.7521246807
 31
0.0
  0
LINE
  5
4C2
330
1B
100
AcDbEntity
 67
     1
  8
7_ALL_FEATURES
  6
Continuous
 62
     7
100
AcDbLine
 10
302.1212056748
 20
170.1521246807
 30
0.0
 11
302.1212056748
 21
169.6521246807
 31
0.0
  0
LINE
  5
4C3
330
1B
100
AcDbEntity
 67
     1
  8
7_ALL_FEATURES
  6
Continuous
 62
     7
100
AcDbLine
 10
302.1212056748
 20
147.5521246807
 30
0.0
 11
302.1212056748
 21
169.6521246807
 31
0.0
  0
LINE
  5
4C4
330
1B
100
AcDbEntity
 67
     1
  8
7_ALL_FEATURES
  6
Continuous
 62
     7
100
AcDbLine
 10
302.1212056748
 20
147.5521246807
 30
0.0
 11
302.1212056748
 21
147.0521246807
 31
0.0
  0
LINE
  5
4C5
330
1B
100
AcDbEntity
 67
     1
  8
7_ALL_FEATURES
  6
Continuous
 62
     7
100
AcDbLine
 10
302.1212056748
 20
147.0521246807
 30
0.0
 11
301.1212056748
 21
147.0521246807
 31
0.0
  0
LINE
  5
4C6
330
1B
100
AcDbEntity
 67
     1
  8
7_ALL_FEATURES
  6
Continuous
 62
     7
100
AcDbLine
 10
302.1212056748
 20
170.1521246807
 30
0.0
 11
301.1212056748
 21
170.1521246807
 31
0.0
  0
ARC
  5
4C7
330
1B
100
AcDbEntity
 67
     1
  8
7_ALL_FEATURES
  6
Continuous
 62
     7
100
AcDbCircle
 10
300.1212056748
 20
147.7521246807
 30
0.0
 40
2.0
100
AcDbArc
 50
332.1337126867999
 51
339.5063626241999
  0
ARC
  5
4C8
330
1B
100
AcDbEntity
 67
     1
  8
7_ALL_FEATURES
  6
Continuous
 62
     7
100
AcDbCircle
 10
300.1212056748
 20
147.7521246807
 30
0.0
 40
2.0
100
AcDbArc
 50
270.0
 51
332.1337126867999
  0
LINE
  5
4C9
330
1B
100
AcDbEntity
 67
     1
  8
7_ALL_FEATURES
  6
Continuous
 62
     7
100
AcDbLine
 10
300.1212056748
 20
145.7521246807
 30
0.0
 11
293.6212056748
 21
145.7521246807
 31
0.0
  0
LINE
  5
4CA
330
1B
100
AcDbEntity
 67
     1
  8
7_ALL_FEATURES
  6
Continuous
 62
     7
100
AcDbLine
 10
293.6212056748
 20
145.7521246807
 30
0.0
 11
291.3212056748
 21
145.7521246807
 31
0.0
  0
LINE
  5
4CB
330
1B
100
AcDbEntity
 67
     1
  8
7_ALL_FEATURES
  6
Continuous
 62
     7
100
AcDbLine
 10
291.3212056748
 20
145.7521246807
 30
0.0
 11
289.6212056748
 21
145.7521246807
 31
0.0
  0
ARC
  5
4CC
330
1B
100
AcDbEntity
 67
     1
  8
7_ALL_FEATURES
  6
Continuous
 62
     7
100
AcDbCircle
 10
300.1212056748
 20
169.4521246807
 30
0.0
 40
2.0
100
AcDbArc
 50
27.8662873132
 51
90.0
  0
ARC
  5
4CD
330
1B
100
AcDbEntity
 67
     1
  8
7_ALL_FEATURES
  6
Continuous
 62
     7
100
AcDbCircle
 10
300.1212056748
 20
169.4521246807
 30
0.0
 40
2.0
100
AcDbArc
 50
20.4936373758
 51
27.8662873132
  0
LINE
  5
4CE
330
1B
100
AcDbEntity
 67
     1
  8
7_ALL_FEATURES
  6
Continuous
 62
     7
100
AcDbLine
 10
293.6212056748
 20
171.4521246807
 30
0.0
 11
300.1212056748
 21
171.4521246807
 31
0.0
  0
LINE
  5
4CF
330
1B
100
AcDbEntity
 67
     1
  8
7_ALL_FEATURES
  6
Continuous
 62
     7
100
AcDbLine
 10
289.6212056748
 20
171.4521246807
 30
0.0
 11
291.3212056748
 21
171.4521246807
 31
0.0
  0
LINE
  5
4D0
330
1B
100
AcDbEntity
 67
     1
  8
7_ALL_FEATURES
  6
Continuous
 62
     7
100
AcDbLine
 10
291.3212056748
 20
171.4521246807
 30
0.0
 11
293.6212056748
 21
171.4521246807
 31
0.0
  0
LINE
  5
4D1
330
1B
100
AcDbEntity
 67
     1
  8
7_ALL_FEATURES
  6
Continuous
 62
     7
100
AcDbLine
 10
289.6212056748
 20
146.7521246807
 30
0.0
 11
289.6212056748
 21
145.7521246807
 31
0.0
  0
LINE
  5
4D2
330
1B
100
AcDbEntity
 67
     1
  8
7_ALL_FEATURES
  6
Continuous
 62
     7
100
AcDbLine
 10
289.6212056748
 20
170.4521246807
 30
0.0
 11
289.6212056748
 21
171.4521246807
 31
0.0
  0
LINE
  5
4D3
330
1B
100
AcDbEntity
 67
     1
  8
7_ALL_FEATURES
  6
Continuous
 62
     9
100
AcDbLine
 10
302.1212056748
 20
147.5521246807
 30
0.0
 11
301.1212056748
 21
147.5521246807
 31
0.0
  0
LINE
  5
4D4
330
1B
100
AcDbEntity
 67
     1
  8
7_ALL_FEATURES
  6
Continuous
 62
     9
100
AcDbLine
 10
300.1212056748
 20
145.7521246807
 30
0.0
 11
300.1212056748
 21
146.7521246807
 31
0.0
  0
LINE
  5
4D5
330
1B
100
AcDbEntity
 67
     1
  8
7_ALL_FEATURES
  6
Continuous
 62
     9
100
AcDbLine
 10
301.8892872864
 20
146.8173052249
 30
0.0
 11
301.4451587873
 21
147.0521246807
 31
0.0
  0
LINE
  5
4D6
330
1B
100
AcDbEntity
 67
     1
  8
7_ALL_FEATURES
  6
Continuous
 62
     9
100
AcDbLine
 10
293.6212056748
 20
146.7521246807
 30
0.0
 11
293.6212056748
 21
145.7521246807
 31
0.0
  0
LINE
  5
4D7
330
1B
100
AcDbEntity
 67
     1
  8
7_ALL_FEATURES
  6
Continuous
 62
     9
100
AcDbLine
 10
302.1212056748
 20
169.6521246807
 30
0.0
 11
301.1212056748
 21
169.6521246807
 31
0.0
  0
LINE
  5
4D8
330
1B
100
AcDbEntity
 67
     1
  8
7_ALL_FEATURES
  6
Continuous
 62
     9
100
AcDbLine
 10
301.8892872864
 20
170.3869441366
 30
0.0
 11
301.4451587873
 21
170.1521246807
 31
0.0
  0
LINE
  5
4D9
330
1B
100
AcDbEntity
 67
     1
  8
7_ALL_FEATURES
  6
Continuous
 62
     9
100
AcDbLine
 10
300.1212056748
 20
171.4521246807
 30
0.0
 11
300.1212056748
 21
170.4521246807
 31
0.0
  0
LINE
  5
4DA
330
1B
100
AcDbEntity
 67
     1
  8
7_ALL_FEATURES
  6
Continuous
 62
     9
100
AcDbLine
 10
293.6212056748
 20
170.4521246807
 30
0.0
 11
293.6212056748
 21
171.4521246807
 31
0.0
  0
LINE
  5
4DB
330
1B
100
AcDbEntity
 67
     1
  8
7_ALL_FEATURES
  6
Continuous
 62
     7
100
AcDbLine
 10
234.6212056748
 20
132.6021246807
 30
0.0
 11
234.6212056748
 21
147.0521246807
 31
0.0
  0
LINE
  5
4DC
330
1B
100
AcDbEntity
 67
     1
  8
7_ALL_FEATURES
  6
Continuous
 62
     7
100
AcDbLine
 10
234.6212056748
 20
170.1521246807
 30
0.0
 11
234.6212056748
 21
184.6021246807
 31
0.0
  0
ARC
  5
4DD
330
1B
100
AcDbEntity
 67
     1
  8
7_ALL_FEATURES
  6
Continuous
 62
     7
100
AcDbCircle
 10
244.6212056748
 20
132.6021246807
 30
0.0
 40
10.0
100
AcDbArc
 50
180.0
 51
270.0
  0
LINE
  5
4DE
330
1B
100
AcDbEntity
 67
     1
  8
7_ALL_FEATURES
  6
Continuous
 62
     7
100
AcDbLine
 10
267.1212056748
 20
122.6021246807
 30
0.0
 11
244.6212056748
 21
122.6021246807
 31
0.0
  0
ARC
  5
4DF
330
1B
100
AcDbEntity
 67
     1
  8
7_ALL_FEATURES
  6
Continuous
 62
     7
100
AcDbCircle
 10
267.1212056748
 20
132.6021246807
 30
0.0
 40
10.0
100
AcDbArc
 50
270.0
 51
360.0
  0
LINE
  5
4E0
330
1B
100
AcDbEntity
 67
     1
  8
7_ALL_FEATURES
  6
Continuous
 62
     7
100
AcDbLine
 10
277.1212056748
 20
184.6021246807
 30
0.0
 11
277.1212056748
 21
170.1521246807
 31
0.0
  0
LINE
  5
4E1
330
1B
100
AcDbEntity
 67
     1
  8
7_ALL_FEATURES
  6
Continuous
 62
     7
100
AcDbLine
 10
277.1212056748
 20
147.0521246807
 30
0.0
 11
277.1212056748
 21
132.6021246807
 31
0.0
  0
ARC
  5
4E2
330
1B
100
AcDbEntity
 67
     1
  8
7_ALL_FEATURES
  6
Continuous
 62
     7
100
AcDbCircle
 10
267.1212056748
 20
184.6021246807
 30
0.0
 40
10.0
100
AcDbArc
 50
0.0
 51
90.0
  0
LINE
  5
4E3
330
1B
100
AcDbEntity
 67
     1
  8
7_ALL_FEATURES
  6
Continuous
 62
     7
100
AcDbLine
 10
244.6212056748
 20
194.6021246807
 30
0.0
 11
267.1212056748
 21
194.6021246807
 31
0.0
  0
ARC
  5
4E4
330
1B
100
AcDbEntity
 67
     1
  8
7_ALL_FEATURES
  6
Continuous
 62
     7
100
AcDbCircle
 10
244.6212056748
 20
184.6021246807
 30
0.0
 40
10.0
100
AcDbArc
 50
90.0
 51
180.0
  0
ARC
  5
4E5
330
1B
100
AcDbEntity
 67
     1
  8
02___PRT_ALL_AXES
  6
Continuous
 62
     7
100
AcDbCircle
 10
270.8712056748
 20
132.6021246807
 30
0.0
 40
3.25
100
AcDbArc
 50
180.0
 51
360.0
  0
ARC
  5
4E6
330
1B
100
AcDbEntity
 67
     1
  8
02___PRT_ALL_AXES
  6
Continuous
 62
     7
100
AcDbCircle
 10
270.8712056748
 20
132.6021246807
 30
0.0
 40
3.25
100
AcDbArc
 50
0.0
 51
180.0
  0
ARC
  5
4E7
330
1B
100
AcDbEntity
 67
     1
  8
02___PRT_ALL_AXES
  6
Continuous
 62
     7
100
AcDbCircle
 10
240.8712056748
 20
132.6021246807
 30
0.0
 40
3.25
100
AcDbArc
 50
180.0
 51
360.0
  0
ARC
  5
4E8
330
1B
100
AcDbEntity
 67
     1
  8
02___PRT_ALL_AXES
  6
Continuous
 62
     7
100
AcDbCircle
 10
240.8712056748
 20
132.6021246807
 30
0.0
 40
3.25
100
AcDbArc
 50
0.0
 51
180.0
  0
ARC
  5
4E9
330
1B
100
AcDbEntity
 67
     1
  8
02___PRT_ALL_AXES
  6
Continuous
 62
     7
100
AcDbCircle
 10
255.8712056748
 20
129.6021246807
 30
0.0
 40
3.25
100
AcDbArc
 50
180.0
 51
360.0
  0
LINE
  5
4EA
330
1B
100
AcDbEntity
 67
     1
  8
02___PRT_ALL_AXES
  6
Continuous
 62
     7
100
AcDbLine
 10
252.6212056748
 20
135.6021246807
 30
0.0
 11
252.6212056748
 21
129.6021246807
 31
0.0
  0
ARC
  5
4EB
330
1B
100
AcDbEntity
 67
     1
  8
02___PRT_ALL_AXES
  6
Continuous
 62
     7
100
AcDbCircle
 10
255.8712056748
 20
135.6021246807
 30
0.0
 40
3.25
100
AcDbArc
 50
0.0
 51
180.0
  0
LINE
  5
4EC
330
1B
100
AcDbEntity
 67
     1
  8
02___PRT_ALL_AXES
  6
Continuous
 62
     7
100
AcDbLine
 10
259.1212056748
 20
129.6021246807
 30
0.0
 11
259.1212056748
 21
135.6021246807
 31
0.0
  0
ARC
  5
4ED
330
1B
100
AcDbEntity
 67
     1
  8
02___PRT_ALL_AXES
  6
Continuous
 62
     7
100
AcDbCircle
 10
270.8712056748
 20
184.6021246807
 30
0.0
 40
3.25
100
AcDbArc
 50
180.0
 51
360.0
  0
ARC
  5
4EE
330
1B
100
AcDbEntity
 67
     1
  8
02___PRT_ALL_AXES
  6
Continuous
 62
     7
100
AcDbCircle
 10
270.8712056748
 20
184.6021246807
 30
0.0
 40
3.25
100
AcDbArc
 50
0.0
 51
180.0
  0
ARC
  5
4EF
330
1B
100
AcDbEntity
 67
     1
  8
02___PRT_ALL_AXES
  6
Continuous
 62
     7
100
AcDbCircle
 10
240.8712056748
 20
184.6021246807
 30
0.0
 40
3.25
100
AcDbArc
 50
180.0
 51
360.0
  0
ARC
  5
4F0
330
1B
100
AcDbEntity
 67
     1
  8
02___PRT_ALL_AXES
  6
Continuous
 62
     7
100
AcDbCircle
 10
240.8712056748
 20
184.6021246807
 30
0.0
 40
3.25
100
AcDbArc
 50
0.0
 51
180.0
  0
LINE
  5
4F1
330
1B
100
AcDbEntity
 67
     1
  8
02___PRT_ALL_AXES
  6
Continuous
 62
     7
100
AcDbLine
 10
259.1212056748
 20
181.6021246807
 30
0.0
 11
259.1212056748
 21
187.6021246807
 31
0.0
  0
ARC
  5
4F2
330
1B
100
AcDbEntity
 67
     1
  8
02___PRT_ALL_AXES
  6
Continuous
 62
     7
100
AcDbCircle
 10
255.8712056748
 20
181.6021246807
 30
0.0
 40
3.25
100
AcDbArc
 50
180.0
 51
360.0
  0
LINE
  5
4F3
330
1B
100
AcDbEntity
 67
     1
  8
02___PRT_ALL_AXES
  6
Continuous
 62
     7
100
AcDbLine
 10
252.6212056748
 20
187.6021246807
 30
0.0
 11
252.6212056748
 21
181.6021246807
 31
0.0
  0
ARC
  5
4F4
330
1B
100
AcDbEntity
 67
     1
  8
02___PRT_ALL_AXES
  6
Continuous
 62
     7
100
AcDbCircle
 10
255.8712056748
 20
187.6021246807
 30
0.0
 40
3.25
100
AcDbArc
 50
0.0
 51
180.0
  0
LINE
  5
4F5
330
1B
100
AcDbEntity
 67
     1
  8
7_ALL_FEATURES
  6
Continuous
 62
     7
100
AcDbLine
 10
64.6212056748
 20
132.6021246807
 30
0.0
 11
64.6212056748
 21
147.0521246807
 31
0.0
  0
LINE
  5
4F6
330
1B
100
AcDbEntity
 67
     1
  8
7_ALL_FEATURES
  6
Continuous
 62
     7
100
AcDbLine
 10
64.6212056748
 20
170.1521246807
 30
0.0
 11
64.6212056748
 21
184.6021246807
 31
0.0
  0
ARC
  5
4F7
330
1B
100
AcDbEntity
 67
     1
  8
7_ALL_FEATURES
  6
Continuous
 62
     7
100
AcDbCircle
 10
74.6212056748
 20
132.6021246807
 30
0.0
 40
10.0
100
AcDbArc
 50
180.0
 51
270.0
  0
LINE
  5
4F8
330
1B
100
AcDbEntity
 67
     1
  8
7_ALL_FEATURES
  6
Continuous
 62
     7
100
AcDbLine
 10
97.1212056748
 20
122.6021246807
 30
0.0
 11
74.6212056748
 21
122.6021246807
 31
0.0
  0
ARC
  5
4F9
330
1B
100
AcDbEntity
 67
     1
  8
7_ALL_FEATURES
  6
Continuous
 62
     7
100
AcDbCircle
 10
97.1212056748
 20
132.6021246807
 30
0.0
 40
10.0
100
AcDbArc
 50
270.0
 51
360.0
  0
LINE
  5
4FA
330
1B
100
AcDbEntity
 67
     1
  8
7_ALL_FEATURES
  6
Continuous
 62
     7
100
AcDbLine
 10
107.1212056748
 20
184.6021246807
 30
0.0
 11
107.1212056748
 21
170.1521246807
 31
0.0
  0
LINE
  5
4FB
330
1B
100
AcDbEntity
 67
     1
  8
7_ALL_FEATURES
  6
Continuous
 62
     7
100
AcDbLine
 10
107.1212056748
 20
147.0521246807
 30
0.0
 11
107.1212056748
 21
132.6021246807
 31
0.0
  0
ARC
  5
4FC
330
1B
100
AcDbEntity
 67
     1
  8
7_ALL_FEATURES
  6
Continuous
 62
     7
100
AcDbCircle
 10
97.1212056748
 20
184.6021246807
 30
0.0
 40
10.0
100
AcDbArc
 50
0.0
 51
90.0
  0
LINE
  5
4FD
330
1B
100
AcDbEntity
 67
     1
  8
7_ALL_FEATURES
  6
Continuous
 62
     7
100
AcDbLine
 10
74.6212056748
 20
194.6021246807
 30
0.0
 11
97.1212056748
 21
194.6021246807
 31
0.0
  0
ARC
  5
4FE
330
1B
100
AcDbEntity
 67
     1
  8
7_ALL_FEATURES
  6
Continuous
 62
     7
100
AcDbCircle
 10
74.6212056748
 20
184.6021246807
 30
0.0
 40
10.0
100
AcDbArc
 50
90.0
 51
180.0
  0
ARC
  5
4FF
330
1B
100
AcDbEntity
 67
     1
  8
02___PRT_ALL_AXES
  6
Continuous
 62
     7
100
AcDbCircle
 10
100.8712056748
 20
132.6021246807
 30
0.0
 40
3.25
100
AcDbArc
 50
180.0
 51
360.0
  0
ARC
  5
500
330
1B
100
AcDbEntity
 67
     1
  8
02___PRT_ALL_AXES
  6
Continuous
 62
     7
100
AcDbCircle
 10
100.8712056748
 20
132.6021246807
 30
0.0
 40
3.25
100
AcDbArc
 50
0.0
 51
180.0
  0
ARC
  5
501
330
1B
100
AcDbEntity
 67
     1
  8
02___PRT_ALL_AXES
  6
Continuous
 62
     7
100
AcDbCircle
 10
70.8712056748
 20
132.6021246807
 30
0.0
 40
3.25
100
AcDbArc
 50
180.0
 51
360.0
  0
ARC
  5
502
330
1B
100
AcDbEntity
 67
     1
  8
02___PRT_ALL_AXES
  6
Continuous
 62
     7
100
AcDbCircle
 10
70.8712056748
 20
132.6021246807
 30
0.0
 40
3.25
100
AcDbArc
 50
0.0
 51
180.0
  0
ARC
  5
503
330
1B
100
AcDbEntity
 67
     1
  8
02___PRT_ALL_AXES
  6
Continuous
 62
     7
100
AcDbCircle
 10
85.8712056748
 20
129.6021246807
 30
0.0
 40
3.25
100
AcDbArc
 50
180.0
 51
360.0
  0
LINE
  5
504
330
1B
100
AcDbEntity
 67
     1
  8
02___PRT_ALL_AXES
  6
Continuous
 62
     7
100
AcDbLine
 10
82.6212056748
 20
135.6021246807
 30
0.0
 11
82.6212056748
 21
129.6021246807
 31
0.0
  0
ARC
  5
505
330
1B
100
AcDbEntity
 67
     1
  8
02___PRT_ALL_AXES
  6
Continuous
 62
     7
100
AcDbCircle
 10
85.8712056748
 20
135.6021246807
 30
0.0
 40
3.25
100
AcDbArc
 50
0.0
 51
180.0
  0
LINE
  5
506
330
1B
100
AcDbEntity
 67
     1
  8
02___PRT_ALL_AXES
  6
Continuous
 62
     7
100
AcDbLine
 10
89.1212056748
 20
129.6021246807
 30
0.0
 11
89.1212056748
 21
135.6021246807
 31
0.0
  0
ARC
  5
507
330
1B
100
AcDbEntity
 67
     1
  8
02___PRT_ALL_AXES
  6
Continuous
 62
     7
100
AcDbCircle
 10
100.8712056748
 20
184.6021246807
 30
0.0
 40
3.25
100
AcDbArc
 50
180.0
 51
360.0
  0
ARC
  5
508
330
1B
100
AcDbEntity
 67
     1
  8
02___PRT_ALL_AXES
  6
Continuous
 62
     7
100
AcDbCircle
 10
100.8712056748
 20
184.6021246807
 30
0.0
 40
3.25
100
AcDbArc
 50
0.0
 51
180.0
  0
ARC
  5
509
330
1B
100
AcDbEntity
 67
     1
  8
02___PRT_ALL_AXES
  6
Continuous
 62
     7
100
AcDbCircle
 10
70.8712056748
 20
184.6021246807
 30
0.0
 40
3.25
100
AcDbArc
 50
180.0
 51
360.0
  0
ARC
  5
50A
330
1B
100
AcDbEntity
 67
     1
  8
02___PRT_ALL_AXES
  6
Continuous
 62
     7
100
AcDbCircle
 10
70.8712056748
 20
184.6021246807
 30
0.0
 40
3.25
100
AcDbArc
 50
0.0
 51
180.0
  0
LINE
  5
50B
330
1B
100
AcDbEntity
 67
     1
  8
02___PRT_ALL_AXES
  6
Continuous
 62
     7
100
AcDbLine
 10
89.1212056748
 20
181.6021246807
 30
0.0
 11
89.1212056748
 21
187.6021246807
 31
0.0
  0
ARC
  5
50C
330
1B
100
AcDbEntity
 67
     1
  8
02___PRT_ALL_AXES
  6
Continuous
 62
     7
100
AcDbCircle
 10
85.8712056748
 20
181.6021246807
 30
0.0
 40
3.25
100
AcDbArc
 50
180.0
 51
360.0
  0
LINE
  5
50D
330
1B
100
AcDbEntity
 67
     1
  8
02___PRT_ALL_AXES
  6
Continuous
 62
     7
100
AcDbLine
 10
82.6212056748
 20
187.6021246807
 30
0.0
 11
82.6212056748
 21
181.6021246807
 31
0.0
  0
ARC
  5
50E
330
1B
100
AcDbEntity
 67
     1
  8
02___PRT_ALL_AXES
  6
Continuous
 62
     7
100
AcDbCircle
 10
85.8712056748
 20
187.6021246807
 30
0.0
 40
3.25
100
AcDbArc
 50
0.0
 51
180.0
  0
LINE
  5
50F
330
1B
100
AcDbEntity
 67
     1
  8
7_ALL_FEATURES
  6
Continuous
 62
     7
100
AcDbLine
 10
40.6212056748
 20
168.9521246807
 30
0.0
 11
301.1212056748
 21
168.9521246807
 31
0.0
  0
LINE
  5
510
330
1B
100
AcDbEntity
 67
     1
  8
7_ALL_FEATURES
  6
Continuous
 62
     7
100
AcDbLine
 10
40.6212056748
 20
147.0521246807
 30
0.0
 11
40.6212056748
 21
147.5521246807
 31
0.0
  0
LINE
  5
511
330
1B
100
AcDbEntity
 67
     1
  8
7_ALL_FEATURES
  6
Continuous
 62
     7
100
AcDbLine
 10
40.6212056748
 20
147.5521246807
 30
0.0
 11
40.6212056748
 21
148.2521246807
 31
0.0
  0
LINE
  5
512
330
1B
100
AcDbEntity
 67
     1
  8
7_ALL_FEATURES
  6
Continuous
 62
     7
100
AcDbLine
 10
301.1212056748
 20
147.0521246807
 30
0.0
 11
301.1212056748
 21
147.5521246807
 31
0.0
  0
LINE
  5
513
330
1B
100
AcDbEntity
 67
     1
  8
7_ALL_FEATURES
  6
Continuous
 62
     7
100
AcDbLine
 10
301.1212056748
 20
147.5521246807
 30
0.0
 11
301.1212056748
 21
148.2521246807
 31
0.0
  0
LINE
  5
514
330
1B
100
AcDbEntity
 67
     1
  8
7_ALL_FEATURES
  6
Continuous
 62
     7
100
AcDbLine
 10
301.1212056748
 20
148.2521246807
 30
0.0
 11
40.6212056748
 21
148.2521246807
 31
0.0
  0
LINE
  5
515
330
1B
100
AcDbEntity
 67
     1
  8
7_ALL_FEATURES
  6
Continuous
 62
     7
100
AcDbLine
 10
40.6212056748
 20
170.1521246807
 30
0.0
 11
40.6212056748
 21
169.6521246807
 31
0.0
  0
LINE
  5
516
330
1B
100
AcDbEntity
 67
     1
  8
7_ALL_FEATURES
  6
Continuous
 62
     7
100
AcDbLine
 10
40.6212056748
 20
169.6521246807
 30
0.0
 11
40.6212056748
 21
168.9521246807
 31
0.0
  0
LINE
  5
517
330
1B
100
AcDbEntity
 67
     1
  8
7_ALL_FEATURES
  6
Continuous
 62
     7
100
AcDbLine
 10
301.1212056748
 20
170.1521246807
 30
0.0
 11
301.1212056748
 21
169.6521246807
 31
0.0
  0
LINE
  5
518
330
1B
100
AcDbEntity
 67
     1
  8
7_ALL_FEATURES
  6
Continuous
 62
     7
100
AcDbLine
 10
301.1212056748
 20
169.6521246807
 30
0.0
 11
301.1212056748
 21
168.9521246807
 31
0.0
  0
LINE
  5
519
330
1B
100
AcDbEntity
 67
     1
  8
7_ALL_FEATURES
  6
Continuous
 62
     9
100
AcDbLine
 10
301.1212056748
 20
167.7521246807
 30
0.0
 11
300.3712056748
 21
167.7521246807
 31
0.0
  0
LINE
  5
51A
330
1B
100
AcDbEntity
 67
     1
  8
7_ALL_FEATURES
  6
Continuous
 62
     9
100
AcDbLine
 10
41.3712056748
 20
167.7521246807
 30
0.0
 11
40.6212056748
 21
167.7521246807
 31
0.0
  0
LINE
  5
51B
330
1B
100
AcDbEntity
 67
     1
  8
7_ALL_FEATURES
  6
Continuous
 62
     9
100
AcDbLine
 10
301.1212056748
 20
149.4521246807
 30
0.0
 11
300.3712056748
 21
149.4521246807
 31
0.0
  0
LINE
  5
51C
330
1B
100
AcDbEntity
 67
     1
  8
7_ALL_FEATURES
  6
Continuous
 62
     9
100
AcDbLine
 10
41.3712056748
 20
149.4521246807
 30
0.0
 11
40.6212056748
 21
149.4521246807
 31
0.0
  0
LINE
  5
51D
330
1B
100
AcDbEntity
 67
     1
  8
7_ALL_FEATURES
  6
Continuous
 62
     3
100
AcDbLine
 10
40.6212056748
 20
169.6521246807
 30
0.0
 11
40.6212056748
 21
168.9521246807
 31
0.0
  0
LINE
  5
51E
330
1B
100
AcDbEntity
 67
     1
  8
7_ALL_FEATURES
  6
Continuous
 62
     3
100
AcDbLine
 10
40.6212056748
 20
168.9521246807
 30
0.0
 11
40.6212056748
 21
148.2521246807
 31
0.0
  0
LINE
  5
51F
330
1B
100
AcDbEntity
 67
     1
  8
7_ALL_FEATURES
  6
Continuous
 62
     3
100
AcDbLine
 10
40.6212056748
 20
148.2521246807
 30
0.0
 11
40.6212056748
 21
147.5521246807
 31
0.0
  0
LINE
  5
520
330
1B
100
AcDbEntity
 67
     1
  8
7_ALL_FEATURES
  6
Continuous
 62
     3
100
AcDbLine
 10
48.1212056748
 20
146.7521246807
 30
0.0
 11
52.1212056748
 21
146.7521246807
 31
0.0
  0
LINE
  5
521
330
1B
100
AcDbEntity
 67
     1
  8
7_ALL_FEATURES
  6
Continuous
 62
     3
100
AcDbLine
 10
48.1212056748
 20
146.7521246807
 30
0.0
 11
41.6212056748
 21
146.7521246807
 31
0.0
  0
ARC
  5
522
330
1B
100
AcDbEntity
 67
     1
  8
7_ALL_FEATURES
  6
Continuous
 62
     3
100
AcDbCircle
 10
41.6212056748
 20
147.7521246807
 30
0.0
 40
1.0
100
AcDbArc
 50
224.4595049186
 51
270.0
  0
LINE
  5
523
330
1B
100
AcDbEntity
 67
     1
  8
7_ALL_FEATURES
  6
Continuous
 62
     3
100
AcDbLine
 10
52.1212056748
 20
170.4521246807
 30
0.0
 11
48.1212056748
 21
170.4521246807
 31
0.0
  0
LINE
  5
524
330
1B
100
AcDbEntity
 67
     1
  8
7_ALL_FEATURES
  6
Continuous
 62
     3
100
AcDbLine
 10
41.6212056748
 20
170.4521246807
 30
0.0
 11
48.1212056748
 21
170.4521246807
 31
0.0
  0
ARC
  5
525
330
1B
100
AcDbEntity
 67
     1
  8
7_ALL_FEATURES
  6
Continuous
 62
     3
100
AcDbCircle
 10
41.6212056748
 20
169.4521246807
 30
0.0
 40
1.0
100
AcDbArc
 50
90.0
 51
135.5404950814
  0
LINE
  5
526
330
1B
100
AcDbEntity
 67
     1
  8
7_ALL_FEATURES
  6
Continuous
 62
     3
100
AcDbLine
 10
301.1212056748
 20
147.5521246807
 30
0.0
 11
301.1212056748
 21
148.2521246807
 31
0.0
  0
LINE
  5
527
330
1B
100
AcDbEntity
 67
     1
  8
7_ALL_FEATURES
  6
Continuous
 62
     3
100
AcDbLine
 10
301.1212056748
 20
148.2521246807
 30
0.0
 11
301.1212056748
 21
168.9521246807
 31
0.0
  0
LINE
  5
528
330
1B
100
AcDbEntity
 67
     1
  8
7_ALL_FEATURES
  6
Continuous
 62
     3
100
AcDbLine
 10
301.1212056748
 20
168.9521246807
 30
0.0
 11
301.1212056748
 21
169.6521246807
 31
0.0
  0
LINE
  5
529
330
1B
100
AcDbEntity
 67
     1
  8
7_ALL_FEATURES
  6
Continuous
 62
     3
100
AcDbLine
 10
293.6212056748
 20
170.4521246807
 30
0.0
 11
289.6212056748
 21
170.4521246807
 31
0.0
  0
LINE
  5
52A
330
1B
100
AcDbEntity
 67
     1
  8
7_ALL_FEATURES
  6
Continuous
 62
     3
100
AcDbLine
 10
293.6212056748
 20
170.4521246807
 30
0.0
 11
300.1212056748
 21
170.4521246807
 31
0.0
  0
ARC
  5
52B
330
1B
100
AcDbEntity
 67
     1
  8
7_ALL_FEATURES
  6
Continuous
 62
     3
100
AcDbCircle
 10
300.1212056748
 20
169.4521246807
 30
0.0
 40
1.0
100
AcDbArc
 50
44.4595049186
 51
90.0
  0
LINE
  5
52C
330
1B
100
AcDbEntity
 67
     1
  8
7_ALL_FEATURES
  6
Continuous
 62
     3
100
AcDbLine
 10
289.6212056748
 20
146.7521246807
 30
0.0
 11
293.6212056748
 21
146.7521246807
 31
0.0
  0
LINE
  5
52D
330
1B
100
AcDbEntity
 67
     1
  8
7_ALL_FEATURES
  6
Continuous
 62
     3
100
AcDbLine
 10
300.1212056748
 20
146.7521246807
 30
0.0
 11
293.6212056748
 21
146.7521246807
 31
0.0
  0
ARC
  5
52E
330
1B
100
AcDbEntity
 67
     1
  8
7_ALL_FEATURES
  6
Continuous
 62
     3
100
AcDbCircle
 10
300.1212056748
 20
147.7521246807
 30
0.0
 40
1.0
100
AcDbArc
 50
270.0
 51
315.5404950814
  0
LINE
  5
52F
330
1B
100
AcDbEntity
 67
     1
  8
7_ALL_FEATURES
  6
Continuous
 62
     3
100
AcDbLine
 10
41.3712056748
 20
167.9594883042
 30
0.0
 11
41.3712056748
 21
149.2447610573
 31
0.0
  0
LINE
  5
530
330
1B
100
AcDbEntity
 67
     1
  8
7_ALL_FEATURES
  6
Continuous
 62
     3
100
AcDbLine
 10
300.3712056748
 20
149.2447610573
 30
0.0
 11
300.3712056748
 21
167.9594883042
 31
0.0
  0
ARC
  5
531
330
1B
100
AcDbEntity
 67
     1
  8
02___PRT_ALL_AXES
  6
Continuous
 62
     3
100
AcDbCircle
 10
290.3712056748
 20
158.6021246807
 30
0.0
 40
2.5
100
AcDbArc
 50
0.0
 51
180.0
  0
ARC
  5
532
330
1B
100
AcDbEntity
 67
     1
  8
02___PRT_ALL_AXES
  6
Continuous
 62
     3
100
AcDbCircle
 10
290.3712056748
 20
158.6021246807
 30
0.0
 40
2.5
100
AcDbArc
 50
180.0
 51
360.0
  0
ARC
  5
533
330
1B
100
AcDbEntity
 67
     1
  8
02___PRT_ALL_AXES
  6
Continuous
 62
     3
100
AcDbCircle
 10
51.3712056748
 20
158.6021246807
 30
0.0
 40
2.5
100
AcDbArc
 50
180.0
 51
360.0
  0
ARC
  5
534
330
1B
100
AcDbEntity
 67
     1
  8
02___PRT_ALL_AXES
  6
Continuous
 62
     3
100
AcDbCircle
 10
51.3712056748
 20
158.6021246807
 30
0.0
 40
2.5
100
AcDbArc
 50
0.0
 51
180.0
  0
LINE
  5
535
330
1B
100
AcDbEntity
 67
     1
  8
7_ALL_FEATURES
  6
Continuous
 62
     3
100
AcDbLine
 10
300.3712056748
 20
168.9521246807
 30
0.0
 11
300.3712056748
 21
168.5591228004
 31
0.0
  0
LINE
  5
536
330
1B
100
AcDbEntity
 67
     1
  8
7_ALL_FEATURES
  6
Continuous
 62
     3
100
AcDbLine
 10
300.3712056748
 20
168.5591228004
 30
0.0
 11
300.3712056748
 21
167.9594883042
 31
0.0
  0
LINE
  5
537
330
1B
100
AcDbEntity
 67
     1
  8
7_ALL_FEATURES
  6
Continuous
 62
     3
100
AcDbLine
 10
41.3712056748
 20
168.9521246807
 30
0.0
 11
41.3712056748
 21
168.6107160624
 31
0.0
  0
LINE
  5
538
330
1B
100
AcDbEntity
 67
     1
  8
7_ALL_FEATURES
  6
Continuous
 62
     3
100
AcDbLine
 10
41.3712056748
 20
168.6107160624
 30
0.0
 11
41.3712056748
 21
168.5591228004
 31
0.0
  0
LINE
  5
539
330
1B
100
AcDbEntity
 67
     1
  8
7_ALL_FEATURES
  6
Continuous
 62
     3
100
AcDbLine
 10
41.3712056748
 20
168.5591228004
 30
0.0
 11
41.3712056748
 21
167.9594883042
 31
0.0
  0
LINE
  5
53A
330
1B
100
AcDbEntity
 67
     1
  8
7_ALL_FEATURES
  6
Continuous
 62
     3
100
AcDbLine
 10
41.3712056748
 20
148.2521246807
 30
0.0
 11
41.3712056748
 21
148.6451265611
 31
0.0
  0
LINE
  5
53B
330
1B
100
AcDbEntity
 67
     1
  8
7_ALL_FEATURES
  6
Continuous
 62
     3
100
AcDbLine
 10
41.3712056748
 20
148.6451265611
 30
0.0
 11
41.3712056748
 21
149.2447610573
 31
0.0
  0
LINE
  5
53C
330
1B
100
AcDbEntity
 67
     1
  8
7_ALL_FEATURES
  6
Continuous
 62
     3
100
AcDbLine
 10
300.3712056748
 20
148.2521246807
 30
0.0
 11
300.3712056748
 21
148.5935390747
 31
0.0
  0
LINE
  5
53D
330
1B
100
AcDbEntity
 67
     1
  8
7_ALL_FEATURES
  6
Continuous
 62
     3
100
AcDbLine
 10
300.3712056748
 20
148.5935390747
 30
0.0
 11
300.3712056748
 21
148.6451265611
 31
0.0
  0
LINE
  5
53E
330
1B
100
AcDbEntity
 67
     1
  8
7_ALL_FEATURES
  6
Continuous
 62
     3
100
AcDbLine
 10
300.3712056748
 20
148.6451265611
 30
0.0
 11
300.3712056748
 21
149.2447610573
 31
0.0
  0
LINE
  5
53F
330
1B
100
AcDbEntity
 67
     1
  8
7_ALL_FEATURES
  6
Continuous
 62
     9
100
AcDbLine
 10
300.3712056748
 20
149.2447610573
 30
0.0
 11
41.3712056748
 21
149.2447610573
 31
0.0
  0
LINE
  5
540
330
1B
100
AcDbEntity
 67
     1
  8
7_ALL_FEATURES
  6
Continuous
 62
     9
100
AcDbLine
 10
41.3712056748
 20
167.9594883042
 30
0.0
 11
300.3712056748
 21
167.9594883042
 31
0.0
  0
LINE
  5
541
330
1B
100
AcDbEntity
 67
     1
  8
7_ALL_FEATURES
  6
Continuous
 62
     3
100
AcDbLine
 10
301.1212056748
 20
147.0521246807
 30
0.0
 11
40.6212056748
 21
147.0521246807
 31
0.0
  0
LINE
  5
542
330
1B
100
AcDbEntity
 67
     1
  8
7_ALL_FEATURES
  6
Continuous
 62
     3
100
AcDbLine
 10
40.6212056748
 20
170.1521246807
 30
0.0
 11
301.1212056748
 21
170.1521246807
 31
0.0
  0
DIMENSION
  5
543
330
1B
100
AcDbEntity
 67
     1
  8
0
  6
Continuous
 62
     2
100
AcDbDimension
280
     0
  2
*D1
 10
380.474872837
 20
322.4984454155
 30
0.0
 11
380.474872837
 21
277.3722481281
 31
0.0
 70
   160
 71
     5
 42
-1.0
 73
     0
 74
     0
 75
     0
  3
DIMSTYLE_1
100
AcDbAlignedDimension
 13
386.0810874316
 23
232.2984454155
 33
0.0
 14
385.8663914856
 24
322.4984454155
 34
0.0
 50
90.0
100
AcDbRotatedDimension
  0
DIMENSION
  5
544
330
1B
100
AcDbEntity
 67
     1
  8
0
  6
Continuous
 62
     2
100
AcDbDimension
280
     0
  2
*D2
 10
39.6212056748
 20
342.4943068682
 30
0.0
 11
170.842533783
 21
342.4943068682
 31
0.0
 70
   160
 71
     5
 42
-1.0
 73
     0
 74
     0
 75
     0
  3
DIMSTYLE_2
100
AcDbAlignedDimension
 13
302.1212056748
 23
333.0124350355
 33
0.0
 14
39.6212056748
 24
333.0124350355
 34
0.0
 50
180.0
100
AcDbRotatedDimension
  0
DIMENSION
  5
545
330
1B
100
AcDbEntity
 67
     1
  8
0
  6
Continuous
 62
     2
100
AcDbDimension
280
     0
  2
*D3
 10
436.4013577019
 20
342.4943068682
 30
0.0
 11
424.5240487061
 21
342.4943068682
 31
0.0
 70
   160
 71
     5
 42
-1.0
 73
     0
 74
     0
 75
     0
  3
DIMSTYLE_3
100
AcDbAlignedDimension
 13
413.3013577019
 23
333.0124350355
 33
0.0
 14
436.4013577019
 24
332.7733609561
 34
0.0
100
AcDbRotatedDimension
  0
DIMENSION
  5
546
330
1B
100
AcDbEntity
 67
     1
  8
0
  6
Continuous
 62
     2
100
AcDbDimension
280
     0
  2
*D4
 10
314.1255083944
 20
122.6021246807
 30
0.0
 11
314.1255083944
 21
158.5884888068
 31
0.0
 70
   160
 71
     5
 42
-1.0
 73
     0
 74
     0
 75
     0
  3
DIMSTYLE_1
100
AcDbAlignedDimension
 13
291.0654624316
 23
194.6021246807
 33
0.0
 14
289.8682495937
 24
122.6021246807
 34
0.0
 50
270.0
100
AcDbRotatedDimension
  0
LINE
  5
547
330
1B
100
AcDbEntity
 67
     1
  8
0
  6
Continuous
 62
     2
100
AcDbLine
 10
450.2496438167
 20
74.519974799
 30
0.0
 11
580.2496438167
 21
74.519974799
 31
0.0
  0
LINE
  5
548
330
1B
100
AcDbEntity
 67
     1
  8
0
  6
Continuous
 62
     2
100
AcDbLine
 10
450.2496438167
 20
74.519974799
 30
0.0
 11
450.2496438167
 21
8.519974799
 31
0.0
  0
LINE
  5
549
330
1B
100
AcDbEntity
 67
     1
  8
0
  6
Continuous
 62
     2
100
AcDbLine
 10
480.2496438167
 20
66.519974799
 30
0.0
 11
580.2496438167
 21
66.519974799
 31
0.0
  0
LINE
  5
54A
330
1B
100
AcDbEntity
 67
     1
  8
0
  6
Continuous
 62
     2
100
AcDbLine
 10
450.2496438167
 20
58.519974799
 30
0.0
 11
580.2496438167
 21
58.519974799
 31
0.0
  0
LINE
  5
54B
330
1B
100
AcDbEntity
 67
     1
  8
0
  6
Continuous
 62
     2
100
AcDbLine
 10
480.2496438167
 20
52.519974799
 30
0.0
 11
580.2496438167
 21
52.519974799
 31
0.0
  0
LINE
  5
54C
330
1B
100
AcDbEntity
 67
     1
  8
0
  6
Continuous
 62
     2
100
AcDbLine
 10
480.2496438167
 20
46.519974799
 30
0.0
 11
580.2496438167
 21
46.519974799
 31
0.0
  0
LINE
  5
54D
330
1B
100
AcDbEntity
 67
     1
  8
0
  6
Continuous
 62
     2
100
AcDbLine
 10
480.2496438167
 20
40.519974799
 30
0.0
 11
580.2496438167
 21
40.519974799
 31
0.0
  0
LINE
  5
54E
330
1B
100
AcDbEntity
 67
     1
  8
0
  6
Continuous
 62
     2
100
AcDbLine
 10
480.2496438167
 20
34.519974799
 30
0.0
 11
580.2496438167
 21
34.519974799
 31
0.0
  0
LINE
  5
54F
330
1B
100
AcDbEntity
 67
     1
  8
0
  6
Continuous
 62
     2
100
AcDbLine
 10
480.2496438167
 20
28.519974799
 30
0.0
 11
580.2496438167
 21
28.519974799
 31
0.0
  0
LINE
  5
550
330
1B
100
AcDbEntity
 67
     1
  8
0
  6
Continuous
 62
     2
100
AcDbLine
 10
450.2496438167
 20
22.519974799
 30
0.0
 11
580.2496438167
 21
22.519974799
 31
0.0
  0
LINE
  5
551
330
1B
100
AcDbEntity
 67
     1
  8
0
  6
Continuous
 62
     2
100
AcDbLine
 10
450.2496438167
 20
16.519974799
 30
0.0
 11
580.2496438167
 21
16.519974799
 31
0.0
  0
LINE
  5
552
330
1B
100
AcDbEntity
 67
     1
  8
0
  6
Continuous
 62
     2
100
AcDbLine
 10
450.2496438167
 20
12.519974799
 30
0.0
 11
580.2496438167
 21
12.519974799
 31
0.0
  0
LINE
  5
553
330
1B
100
AcDbEntity
 67
     1
  8
0
  6
Continuous
 62
     2
100
AcDbLine
 10
450.2496438167
 20
8.519974799
 30
0.0
 11
580.2496438167
 21
8.519974799
 31
0.0
  0
LINE
  5
554
330
1B
100
AcDbEntity
 67
     1
  8
0
  6
Continuous
 62
     2
100
AcDbLine
 10
480.2496438167
 20
74.519974799
 30
0.0
 11
480.2496438167
 21
16.519974799
 31
0.0
  0
LINE
  5
555
330
1B
100
AcDbEntity
 67
     1
  8
0
  6
Continuous
 62
     2
100
AcDbLine
 10
500.2496438167
 20
58.519974799
 30
0.0
 11
500.2496438167
 21
52.519974799
 31
0.0
  0
LINE
  5
556
330
1B
100
AcDbEntity
 67
     1
  8
0
  6
Continuous
 62
     2
100
AcDbLine
 10
530.2496438167
 20
28.519974799
 30
0.0
 11
530.2496438167
 21
16.519974799
 31
0.0
  0
LINE
  5
557
330
1B
100
AcDbEntity
 67
     1
  8
0
  6
Continuous
 62
     2
100
AcDbLine
 10
540.2496438167
 20
58.519974799
 30
0.0
 11
540.2496438167
 21
52.519974799
 31
0.0
  0
LINE
  5
558
330
1B
100
AcDbEntity
 67
     1
  8
0
  6
Continuous
 62
     2
100
AcDbLine
 10
540.2496438167
 20
46.519974799
 30
0.0
 11
540.2496438167
 21
40.519974799
 31
0.0
  0
LINE
  5
559
330
1B
100
AcDbEntity
 67
     1
  8
0
  6
Continuous
 62
     2
100
AcDbLine
 10
560.2496438167
 20
58.519974799
 30
0.0
 11
560.2496438167
 21
52.519974799
 31
0.0
  0
LINE
  5
55A
330
1B
100
AcDbEntity
 67
     1
  8
0
  6
Continuous
 62
     2
100
AcDbLine
 10
570.2496438167
 20
46.519974799
 30
0.0
 11
570.2496438167
 21
40.519974799
 31
0.0
  0
LINE
  5
55B
330
1B
100
AcDbEntity
 67
     1
  8
0
  6
Continuous
 62
     2
100
AcDbLine
 10
580.2496438167
 20
74.519974799
 30
0.0
 11
580.2496438167
 21
8.519974799
 31
0.0
  0
INSERT
  5
55C
330
1B
100
AcDbEntity
 67
     1
  8
0
  6
Continuous
 62
     2
100
AcDbBlockReference
  2
PROIEZIONE_EU_BL0
 10
465.2496438167
 20
66.144974799
 30
0.0
  0
MTEXT
  5
55D
330
1B
100
AcDbEntity
 67
     1
  8
9_SOLID
  6
Continuous
 62
     2
100
AcDbMText
 10
481.7371438167
 20
72.894974799
 30
0.0
 40
1.9
 41
142.3642857143
 46
0.0
 71
     1
 72
     1
  1
EN: Chamfer/radii unlisted 0.3x45°. Remove sharp edges.\PGen. tol.: hole H11, shaft h11, lenght Js12. UNI EN 22768 Medium Grande.
  7
TEXTSTYLE_3
 73
     1
 44
1.0
  0
MTEXT
  5
55E
330
1B
100
AcDbEntity
 67
     1
  8
9_SOLID
  6
Continuous
 62
     2
100
AcDbMText
 10
481.7371438167
 20
64.894974799
 30
0.0
 40
1.9
 41
148.2678571429
 46
0.0
 71
     1
 72
     1
  1
IT: Sm./rac. non quotati 0.3x45°. Eliminare spigoli taglienti.\PToll. gen.: foro H11, albero h11, lunghezza Js12. UNI EN 22768 Grado Medio.
  7
TEXTSTYLE_3
 73
     1
 44
1.0
  0
INSERT
  5
55F
330
1B
100
AcDbEntity
 67
     1
  8
0
  6
Continuous
 62
     2
100
AcDbBlockReference
  2
LOGO2_BL1
 10
464.0756908615
 20
40.519974799
 30
0.0
  0
MTEXT
  5
560
330
1B
100
AcDbEntity
 67
     1
  8
9_SOLID
  6
Continuous
 62
     2
100
AcDbMText
 10
481.7371438167
 20
56.769974799
 30
0.0
 40
3.0
 41
22.0714285714
 46
0.0
 71
     1
 72
     1
  1
Pj: 570
  7
TEXTSTYLE_3
 73
     1
 44
1.0
  0
MTEXT
  5
561
330
1B
100
AcDbEntity
 67
     1
  8
9_SOLID
  6
Continuous
 62
     2
100
AcDbMText
 10
501.7371438167
 20
56.769974799
 30
0.0
 40
3.0
 41
38.0357142857
 46
0.0
 71
     1
 72
     1
  1
% Check: %
  7
TEXTSTYLE_3
 73
     1
 44
1.0
  0
MTEXT
  5
562
330
1B
100
AcDbEntity
 67
     1
  8
9_SOLID
  6
Continuous
 62
     2
100
AcDbMText
 10
541.7371438167
 20
56.769974799
 30
0.0
 40
3.0
 41
19.5
 46
0.0
 71
     1
 72
     1
  1
Rev:00
  7
TEXTSTYLE_3
 73
     1
 44
1.0
  0
MTEXT
  5
563
330
1B
100
AcDbEntity
 67
     1
  8
9_SOLID
  6
Continuous
 62
     2
100
AcDbMText
 10
561.7371438167
 20
57.019974799
 30
0.0
 40
3.0
 41
19.7142857143
 46
0.0
 71
     1
 72
     1
  1
Ver: A
  7
TEXTSTYLE_3
 73
     1
 44
1.0
  0
MTEXT
  5
564
330
1B
100
AcDbEntity
 67
     1
  8
9_SOLID
  6
Continuous
 62
     2
100
AcDbMText
 10
481.7371438167
 20
50.769974799
 30
0.0
 40
3.0
 41
74.0357142857
 46
0.0
 71
     1
 72
     1
  1
Neutral code: 570_C_357
  7
TEXTSTYLE_3
 73
     1
 44
1.0
  0
MTEXT
  5
565
330
1B
100
AcDbEntity
 67
     1
  8
9_SOLID
  6
Continuous
 62
     2
100
AcDbMText
 10
481.7371438167
 20
44.769974799
 30
0.0
 40
3.0
 41
19.3928571429
 46
0.0
 71
     1
 72
     1
  1
Code: 
  7
TEXTSTYLE_3
 73
     1
 44
1.0
  0
MTEXT
  5
566
330
1B
100
AcDbEntity
 67
     1
  8
9_SOLID
  6
Continuous
 62
     2
100
AcDbMText
 10
541.7371438167
 20
45.019974799
 30
0.0
 40
3.0
 41
27.8571428571
 46
0.0
 71
     1
 72
     1
  1
Scale: 1:1
  7
TEXTSTYLE_3
 73
     1
 44
1.0
  0
MTEXT
  5
567
330
1B
100
AcDbEntity
 67
     1
  8
9_SOLID
  6
Continuous
 62
     2
100
AcDbMText
 10
575.2496438167
 20
45.019974799
 30
0.0
 40
3.0
 41
8.25
 46
0.0
 71
     2
 72
     1
  1
A2
  7
TEXTSTYLE_3
 73
     1
 44
1.0
  0
MTEXT
  5
568
330
1B
100
AcDbEntity
 67
     1
  8
9_SOLID
  6
Continuous
 62
     2
100
AcDbMText
 10
481.7371438167
 20
39.019974799
 30
0.0
 40
3.0
 41
131.25
 46
0.0
 71
     1
 72
     1
  1
It descr.: CASSAFORMA RIO1.0 263mm INOX
  7
TEXTSTYLE_3
 73
     1
 44
1.0
  0
MTEXT
  5
569
330
1B
100
AcDbEntity
 67
     1
  8
9_SOLID
  6
Continuous
 62
     2
100
AcDbMText
 10
481.7371438167
 20
33.019974799
 30
0.0
 40
3.0
 41
33.9642857143
 46
0.0
 71
     1
 72
     1
  1
En descr.: 
  7
TEXTSTYLE_3
 73
     1
 44
1.0
  0
MTEXT
  5
56A
330
1B
100
AcDbEntity
 67
     1
  8
9_SOLID
  6
Continuous
 62
     2
100
AcDbMText
 10
481.7371438167
 20
27.019974799
 30
0.0
 40
3.0
 41
31.2857142857
 46
0.0
 71
     1
 72
     1
  1
Des.: S.Z.
  7
TEXTSTYLE_3
 73
     1
 44
1.0
  0
MTEXT
  5
56B
330
1B
100
AcDbEntity
 67
     1
  8
9_SOLID
  6
Continuous
 62
     2
100
AcDbMText
 10
531.7371438167
 20
27.019974799
 30
0.0
 40
3.0
 41
34.8214285714
 46
0.0
 71
     1
 72
     1
  1
Check: A.P.
  7
TEXTSTYLE_3
 73
     1
 44
1.0
  0
MTEXT
  5
56C
330
1B
100
AcDbEntity
 67
     1
  8
9_SOLID
  6
Continuous
 62
     2
100
AcDbMText
 10
451.7371438167
 20
21.019974799
 30
0.0
 40
3.0
 41
43.1785714286
 46
0.0
 71
     1
 72
     1
  1
Date: 05.12.18
  7
TEXTSTYLE_3
 73
     1
 44
1.0
  0
MTEXT
  5
56D
330
1B
100
AcDbEntity
 67
     1
  8
9_SOLID
  6
Continuous
 62
     2
100
AcDbMText
 10
481.7371438167
 20
21.019974799
 30
0.0
 40
3.0
 41
18.2142857143
 46
0.0
 71
     1
 72
     1
  1
Mat.: 
  7
TEXTSTYLE_3
 73
     1
 44
1.0
  0
MTEXT
  5
56E
330
1B
100
AcDbEntity
 67
     1
  8
9_SOLID
  6
Continuous
 62
     2
100
AcDbMText
 10
531.7371438167
 20
20.519974799
 30
0.0
 40
2.0
 41
42.3571428571
 46
0.0
 71
     1
 72
     1
  1
Disegno per catalogo
  7
TEXTSTYLE_3
 73
     1
 44
1.0
  0
MTEXT
  5
56F
330
1B
100
AcDbEntity
 67
     1
  8
9_SOLID
  6
Continuous
 62
     2
100
AcDbMText
 10
451.7371438167
 20
15.419974799
 30
0.0
 40
1.8
 41
176.2071428571
 46
0.0
 71
     1
 72
     1
  1
It: A norma di legge si diffida da qualsiasi riproduzione senza nostra autorizzazione esplicita.
  7
TEXTSTYLE_3
 73
     1
 44
1.0
  0
MTEXT
  5
570
330
1B
100
AcDbEntity
 67
     1
  8
9_SOLID
  6
Continuous
 62
     2
100
AcDbMText
 10
451.7371438167
 20
11.419974799
 30
0.0
 40
1.8
 41
158.1428571429
 46
0.0
 71
     1
 72
     1
  1
En: According to the law, beware of any reproduction made without our authorization.
  7
TEXTSTYLE_3
 73
     1
 44
1.0
  0
ENDSEC
  0
SECTION
  2
OBJECTS
  0
DICTIONARY
  5
571
330
0
100
AcDbDictionary
281
     1
  3
ACAD_DETAILVIEWSTYLE
350
5C7
  3
ACAD_GROUP
350
572
  3
ACAD_LAYOUT
350
59A
  3
ACAD_MATERIAL
350
5B6
  3
ACAD_MLEADERSTYLE
350
5BC
  3
ACAD_MLINESTYLE
350
573
  3
ACAD_PLOTSETTINGS
350
575
  3
ACAD_PLOTSTYLENAME
350
576
  3
ACAD_SCALELIST
350
578
  3
ACAD_SECTIONVIEWSTYLE
350
5C8
  3
ACAD_TABLESTYLE
350
5BA
  3
ACAD_VISUALSTYLE
350
59D
  3
ACDB_RECOMPOSE_DATA
350
5C3
  3
AcDbVariableDictionary
350
5BF
  3
APPDATA
350
5BE
  0
DICTIONARY
  5
5C7
102
{ACAD_REACTORS
330
571
102
}
330
571
100
AcDbDictionary
281
     1
  0
DICTIONARY
  5
572
102
{ACAD_REACTORS
330
571
102
}
330
571
100
AcDbDictionary
281
     1
  0
DICTIONARY
  5
59A
102
{ACAD_REACTORS
330
571
102
}
330
571
100
AcDbDictionary
281
     1
  3
Foglio 1
350
59C
  3
Model
350
59B
  0
DICTIONARY
  5
5B6
102
{ACAD_REACTORS
330
571
102
}
330
571
100
AcDbDictionary
281
     1
  3
ByBlock
350
5B8
  3
ByLayer
350
5B7
  3
Global
350
5B9
  0
DICTIONARY
  5
5BC
102
{ACAD_REACTORS
330
571
102
}
330
571
100
AcDbDictionary
281
     1
  3
Standard
350
5BD
  0
DICTIONARY
  5
573
102
{ACAD_REACTORS
330
571
102
}
330
571
100
AcDbDictionary
281
     1
  3
STANDARD
350
574
  0
DICTIONARY
  5
575
102
{ACAD_REACTORS
330
571
102
}
330
571
100
AcDbDictionary
281
     1
  0
ACDBDICTIONARYWDFLT
  5
576
102
{ACAD_REACTORS
330
571
102
}
330
571
100
AcDbDictionary
281
     1
  3
Normal
350
577
100
AcDbDictionaryWithDefault
340
577
  0
DICTIONARY
  5
578
102
{ACAD_REACTORS
330
571
102
}
330
571
100
AcDbDictionary
281
     1
  3
A0
350
579
  3
A1
350
57A
  3
A2
350
57B
  3
A3
350
57C
  3
A4
350
57D
  3
A5
350
57E
  3
A6
350
57F
  3
A7
350
580
  3
A8
350
581
  3
A9
350
582
  3
B0
350
583
  3
B1
350
584
  3
B2
350
585
  3
B3
350
586
  3
B4
350
587
  3
B5
350
588
  3
B6
350
589
  3
B7
350
58A
  3
B8
350
58B
  3
B9
350
58C
  3
C0
350
58D
  3
C1
350
58E
  3
C2
350
58F
  3
C3
350
590
  3
C4
350
591
  3
C5
350
592
  3
C6
350
593
  3
C7
350
594
  3
C8
350
595
  3
C9
350
596
  3
D0
350
597
  3
D1
350
598
  3
D2
350
599
  0
DICTIONARY
  5
5C8
102
{ACAD_REACTORS
330
571
102
}
330
571
100
AcDbDictionary
281
     1
  0
DICTIONARY
  5
5BA
102
{ACAD_REACTORS
330
571
102
}
330
571
100
AcDbDictionary
281
     1
  3
Standard
350
5BB
  0
DICTIONARY
  5
59D
102
{ACAD_REACTORS
330
571
102
}
330
571
100
AcDbDictionary
281
     1
  3
2dWireframe
350
5A2
  3
Basic
350
5A5
  3
Brighten
350
5A9
  3
ColorChange
350
5AD
  3
Conceptual
350
5A7
  3
Dim
350
5A8
  3
EdgeColorOff
350
5B0
  3
Facepattern
350
5AC
  3
Flat
350
59E
  3
FlatWithEdges
350
59F
  3
Gouraud
350
5A0
  3
GouraudWithEdges
350
5A1
  3
Hidden
350
5A4
  3
JitterOff
350
5AE
  3
Linepattern
350
5AB
  3
OverhangOff
350
5AF
  3
Realistic
350
5A6
  3
Shaded
350
5B5
  3
Shaded with edges
350
5B4
  3
Shades of Gray
350
5B1
  3
Sketchy
350
5B2
  3
Thicken
350
5AA
  3
Wireframe
350
5A3
  3
X-Ray
350
5B3
  0
XRECORD
  5
5C3
102
{ACAD_REACTORS
330
571
102
}
330
571
100
AcDbXrecord
280
     1
 90
        1
330
5BB
  0
DICTIONARY
  5
5BF
102
{ACAD_REACTORS
330
571
102
}
330
571
100
AcDbDictionary
281
     1
  3
CANNOSCALE
350
5C0
  3
CMLEADERSTYLE
350
5C5
  3
CTABLESTYLE
350
5C4
  3
MSLTSCALE
350
5C6
  0
DICTIONARY
  5
5BE
102
{ACAD_REACTORS
330
571
102
}
330
571
100
AcDbDictionary
281
     1
  0
LAYOUT
  5
59C
102
{ACAD_REACTORS
330
59A
102
}
330
59A
100
AcDbPlotSettings
  1

  2
none_device
  4
ISO_A3_(420.00_x_297.00_MM)
  6

 40
7.5
 41
20.0
 42
7.5
 43
20.0
 44
420.0
 45
297.0
 46
0.0
 47
0.0
 48
0.0
 49
0.0
140
0.0
141
0.0
142
1.0
143
1.634241245136187
 70
   688
 72
     1
 73
     0
 74
     1
  7

 75
     0
 76
     0
 77
     2
 78
   300
147
0.611904761904762
148
0.0
149
0.0
100
AcDbLayout
  1
Foglio 1
 70
     1
 71
     1
 10
0.0
 20
0.0
 11
412.5
 21
277.0
 12
0.0
 22
0.0
 32
0.0
 14
0.0
 24
0.0
 34
0.0
 15
594.0
 25
420.0
 35
0.0
146
0.0
 13
0.0
 23
0.0
 33
0.0
 16
1.0
 26
0.0
 36
0.0
 17
0.0
 27
1.0
 37
0.0
 76
     0
330
1B
331
29F
  0
LAYOUT
  5
59B
102
{ACAD_REACTORS
330
59A
102
}
330
59A
100
AcDbPlotSettings
  1

  2
none_device
  4
Letter_(8.50_x_11.00_Inches)
  6

 40
6.35
 41
6.35
 42
6.35
 43
6.35
 44
215.9
 45
279.4
 46
0.0
 47
0.0
 48
0.0
 49
0.0
140
0.0
141
0.0
142
1.0
143
74.25000000075
 70
  1712
 72
     0
 73
     0
 74
     0
  7

 75
     0
 76
     0
 77
     2
 78
   300
147
0.0134680134678774
148
0.000000076200638
149
0.0
100
AcDbLayout
  1
Model
 70
     1
 71
     0
 10
0.0
 20
0.0
 11
594.0
 21
420.0
 12
0.0
 22
0.0
 32
0.0
 14
0.0
 24
0.0
 34
0.0
 15
594.0
 25
420.0
 35
0.0
146
0.0
 13
0.0
 23
0.0
 33
0.0
 16
1.0
 26
0.0
 36
0.0
 17
0.0
 27
1.0
 37
0.0
 76
     0
330
1F
331
1F4
  0
MATERIAL
  5
5B8
102
{ACAD_REACTORS
330
5B6
102
}
330
5B6
100
AcDbMaterial
  1
ByBlock
 72
     1
 94
      127
  0
MATERIAL
  5
5B7
102
{ACAD_REACTORS
330
5B6
102
}
330
5B6
100
AcDbMaterial
  1
ByLayer
 72
     1
 94
      127
  0
MATERIAL
  5
5B9
102
{ACAD_REACTORS
330
5B6
102
}
330
5B6
100
AcDbMaterial
  1
Global
 72
     1
 94
      127
  0
MLEADERSTYLE
  5
5BD
102
{ACAD_REACTORS
330
5BC
102
}
330
5BC
100
AcDbMLeaderStyle
179
     2
170
     2
171
     1
172
     0
 90
        2
 40
0.0
 41
0.0
173
     1
 91
-1056964608
340
14
 92
       -2
290
     1
 42
2.0
291
     1
 43
8.0
  3
Standard
341
0
 44
4.0
300

342
11
174
     1
178
     1
175
     1
176
     0
 93
-1056964608
 45
4.0
292
     0
297
     0
 46
4.0
343
0
 94
-1056964608
 47
1.0
 49
1.0
140
1.0
293
     1
141
0.0
294
     1
177
     0
142
1.0
295
     0
296
     0
143
3.75
271
     0
272
     9
273
     9
298
     0
  0
MLINESTYLE
  5
574
102
{ACAD_REACTORS
330
573
102
}
330
573
100
AcDbMlineStyle
  2
STANDARD
 70
     0
  3

 62
   256
 51
90.0
 52
90.0
 71
     2
 49
0.5
 62
   256
  6
BYLAYER
 49
-0.5
 62
   256
  6
BYLAYER
  0
ACDBPLACEHOLDER
  5
577
102
{ACAD_REACTORS
330
576
102
}
330
576
  0
SCALE
  5
579
102
{ACAD_REACTORS
330
578
102
}
330
578
100
AcDbScale
 70
     0
300
1:1
140
1.0
141
1.0
290
     1
  0
SCALE
  5
57A
102
{ACAD_REACTORS
330
578
102
}
330
578
100
AcDbScale
 70
     0
300
1:2
140
1.0
141
2.0
290
     0
  0
SCALE
  5
57B
102
{ACAD_REACTORS
330
578
102
}
330
578
100
AcDbScale
 70
     0
300
1:4
140
1.0
141
4.0
290
     0
  0
SCALE
  5
57C
102
{ACAD_REACTORS
330
578
102
}
330
578
100
AcDbScale
 70
     0
300
1:5
140
1.0
141
5.0
290
     0
  0
SCALE
  5
57D
102
{ACAD_REACTORS
330
578
102
}
330
578
100
AcDbScale
 70
     0
300
1:8
140
1.0
141
8.0
290
     0
  0
SCALE
  5
57E
102
{ACAD_REACTORS
330
578
102
}
330
578
100
AcDbScale
 70
     0
300
1:10
140
1.0
141
10.0
290
     0
  0
SCALE
  5
57F
102
{ACAD_REACTORS
330
578
102
}
330
578
100
AcDbScale
 70
     0
300
1:16
140
1.0
141
16.0
290
     0
  0
SCALE
  5
580
102
{ACAD_REACTORS
330
578
102
}
330
578
100
AcDbScale
 70
     0
300
1:20
140
1.0
141
20.0
290
     0
  0
SCALE
  5
581
102
{ACAD_REACTORS
330
578
102
}
330
578
100
AcDbScale
 70
     0
300
1:30
140
1.0
141
30.0
290
     0
  0
SCALE
  5
582
102
{ACAD_REACTORS
330
578
102
}
330
578
100
AcDbScale
 70
     0
300
1:40
140
1.0
141
40.0
290
     0
  0
SCALE
  5
583
102
{ACAD_REACTORS
330
578
102
}
330
578
100
AcDbScale
 70
     0
300
1:50
140
1.0
141
50.0
290
     0
  0
SCALE
  5
584
102
{ACAD_REACTORS
330
578
102
}
330
578
100
AcDbScale
 70
     0
300
1:100
140
1.0
141
100.0
290
     0
  0
SCALE
  5
585
102
{ACAD_REACTORS
330
578
102
}
330
578
100
AcDbScale
 70
     0
300
2:1
140
2.0
141
1.0
290
     0
  0
SCALE
  5
586
102
{ACAD_REACTORS
330
578
102
}
330
578
100
AcDbScale
 70
     0
300
4:1
140
4.0
141
1.0
290
     0
  0
SCALE
  5
587
102
{ACAD_REACTORS
330
578
102
}
330
578
100
AcDbScale
 70
     0
300
8:1
140
8.0
141
1.0
290
     0
  0
SCALE
  5
588
102
{ACAD_REACTORS
330
578
102
}
330
578
100
AcDbScale
 70
     0
300
10:1
140
10.0
141
1.0
290
     0
  0
SCALE
  5
589
102
{ACAD_REACTORS
330
578
102
}
330
578
100
AcDbScale
 70
     0
300
100:1
140
100.0
141
1.0
290
     0
  0
SCALE
  5
58A
102
{ACAD_REACTORS
330
578
102
}
330
578
100
AcDbScale
 70
     0
300
1/128" = 1'-0"
140
0.0078125
141
12.0
290
     0
  0
SCALE
  5
58B
102
{ACAD_REACTORS
330
578
102
}
330
578
100
AcDbScale
 70
     0
300
1/64" = 1'-0"
140
0.015625
141
12.0
290
     0
  0
SCALE
  5
58C
102
{ACAD_REACTORS
330
578
102
}
330
578
100
AcDbScale
 70
     0
300
1/32" = 1'-0"
140
0.03125
141
12.0
290
     0
  0
SCALE
  5
58D
102
{ACAD_REACTORS
330
578
102
}
330
578
100
AcDbScale
 70
     0
300
1/16" = 1'-0"
140
0.0625
141
12.0
290
     0
  0
SCALE
  5
58E
102
{ACAD_REACTORS
330
578
102
}
330
578
100
AcDbScale
 70
     0
300
3/32" = 1'-0"
140
0.09375
141
12.0
290
     0
  0
SCALE
  5
58F
102
{ACAD_REACTORS
330
578
102
}
330
578
100
AcDbScale
 70
     0
300
1/8" = 1'-0"
140
0.125
141
12.0
290
     0
  0
SCALE
  5
590
102
{ACAD_REACTORS
330
578
102
}
330
578
100
AcDbScale
 70
     0
300
3/16" = 1'-0"
140
0.1875
141
12.0
290
     0
  0
SCALE
  5
591
102
{ACAD_REACTORS
330
578
102
}
330
578
100
AcDbScale
 70
     0
300
1/4" = 1'-0"
140
0.25
141
12.0
290
     0
  0
SCALE
  5
592
102
{ACAD_REACTORS
330
578
102
}
330
578
100
AcDbScale
 70
     0
300
3/8" = 1'-0"
140
0.375
141
12.0
290
     0
  0
SCALE
  5
593
102
{ACAD_REACTORS
330
578
102
}
330
578
100
AcDbScale
 70
     0
300
1/2" = 1'-0"
140
0.5
141
12.0
290
     0
  0
SCALE
  5
594
102
{ACAD_REACTORS
330
578
102
}
330
578
100
AcDbScale
 70
     0
300
3/4" = 1'-0"
140
0.75
141
12.0
290
     0
  0
SCALE
  5
595
102
{ACAD_REACTORS
330
578
102
}
330
578
100
AcDbScale
 70
     0
300
1" = 1'-0"
140
1.0
141
12.0
290
     0
  0
SCALE
  5
596
102
{ACAD_REACTORS
330
578
102
}
330
578
100
AcDbScale
 70
     0
300
1-1/2" = 1'-0"
140
1.5
141
12.0
290
     0
  0
SCALE
  5
597
102
{ACAD_REACTORS
330
578
102
}
330
578
100
AcDbScale
 70
     0
300
3" = 1'-0"
140
3.0
141
12.0
290
     0
  0
SCALE
  5
598
102
{ACAD_REACTORS
330
578
102
}
330
578
100
AcDbScale
 70
     0
300
6" = 1'-0"
140
6.0
141
12.0
290
     0
  0
SCALE
  5
599
102
{ACAD_REACTORS
330
578
102
}
330
578
100
AcDbScale
 70
     0
300
1'-0" = 1'-0"
140
12.0
141
12.0
290
     0
  0
TABLESTYLE
  5
5BB
102
{ACAD_REACTORS
330
5BA
102
}
102
{ACAD_XDICTIONARY
360
5C1
102
}
330
5BA
100
AcDbTableStyle
  3
Standard
 70
     0
 71
     0
 40
0.06
 41
0.06
280
     0
281
     0
  7
STANDARD
140
4.5
170
     2
 62
     0
 63
   257
283
     0
 90
        4
 91
        0
  1

274
    -2
284
     1
 64
     0
275
    -2
285
     1
 65
     0
276
    -2
286
     1
 66
     0
277
    -2
287
     1
 67
     0
278
    -2
288
     1
 68
     0
279
    -2
289
     1
 69
     0
  7
STANDARD
140
6.0
170
     5
 62
     0
 63
   257
283
     0
 90
        4
 91
        0
  1

274
    -2
284
     1
 64
     0
275
    -2
285
     1
 65
     0
276
    -2
286
     1
 66
     0
277
    -2
287
     1
 67
     0
278
    -2
288
     1
 68
     0
279
    -2
289
     1
 69
     0
  7
STANDARD
140
4.5
170
     5
 62
     0
 63
   257
283
     0
 90
        4
 91
        0
  1

274
    -2
284
     1
 64
     0
275
    -2
285
     1
 65
     0
276
    -2
286
     1
 66
     0
277
    -2
287
     1
 67
     0
278
    -2
288
     1
 68
     0
279
    -2
289
     1
 69
     0
  0
VISUALSTYLE
  5
5A2
102
{ACAD_REACTORS
330
59D
102
}
330
59D
100
AcDbVisualStyle
  2
2dWireframe
 70
     4
177
     3
291
     0
 70
    58
 90
        0
176
     1
 90
        2
176
     1
 90
        0
176
     1
 90
        0
176
     1
 40
0.6
176
     1
 40
30.0
176
     1
 62
     7
420
 16777215
176
     1
 90
        1
176
     1
 90
        4
176
     1
 62
     7
176
     1
 62
   257
176
     1
 90
        1
176
     1
 90
        1
176
     1
 40
1.0
176
     1
 90
        0
176
     1
 62
   257
176
     1
 40
1.0
176
     1
 90
        1
176
     1
 90
        6
176
     1
 90
        2
176
     1
 62
     7
176
     1
 90
        5
176
     1
 90
        0
176
     1
 90
        0
176
     1
290
     0
176
     1
 90
        1
176
     1
 40
0.0
176
     1
 90
        0
176
     1
290
     1
176
     1
290
     1
176
     1
290
     0
176
     1
290
     0
176
     1
290
     0
176
     1
290
     0
176
     1
290
     0
176
     1
290
     0
176
     1
290
     0
176
     1
 90
       50
176
     1
 40
0.0
176
     1
 40
1.0
176
     1
 90
        0
176
     1
 62
    18
420
        0
176
     1
 90
       50
176
     1
 90
        3
176
     1
 62
     5
420
      255
176
     1
290
     0
176
     1
 90
       50
176
     1
 90
       50
176
     1
 90
       50
176
     1
290
     0
176
     1
 90
       50
176
     1
 62
   256
176
     0
 40
1.0
176
     0
 90
        2
176
     1
  1
strokes_ogs.tif
176
     1
290
     0
176
     1
 40
1.0
176
     1
 40
1.0
176
     1
  0
VISUALSTYLE
  5
5A5
102
{ACAD_REACTORS
330
59D
102
}
330
59D
100
AcDbVisualStyle
  2
Basic
 70
     7
177
     3
291
     1
 70
    58
 90
        1
176
     1
 90
        0
176
     1
 90
        1
176
     1
 90
        0
176
     1
 40
0.6
176
     1
 40
30.0
176
     1
 62
     7
420
 16777215
176
     1
 90
        0
176
     1
 90
        4
176
     1
 62
     7
176
     1
 62
   257
176
     1
 90
        1
176
     1
 90
        1
176
     1
 40
1.0
176
     1
 90
        8
176
     1
 62
     7
176
     1
 40
1.0
176
     1
 90
        1
176
     1
 90
        6
176
     1
 90
        2
176
     1
 62
     7
176
     1
 90
        5
176
     1
 90
        0
176
     1
 90
        0
176
     1
290
     0
176
     1
 90
        1
176
     1
 40
0.0
176
     1
 90
        0
176
     1
290
     0
176
     1
290
     1
176
     1
290
     1
176
     1
290
     0
176
     1
290
     0
176
     1
290
     0
176
     1
290
     0
176
     1
290
     0
176
     1
290
     0
176
     1
 90
       50
176
     1
 40
0.0
176
     1
 40
1.0
176
     1
 90
        0
176
     1
 62
    18
420
        0
176
     1
 90
       50
176
     1
 90
        3
176
     1
 62
     5
420
      255
176
     1
290
     0
176
     1
 90
       50
176
     1
 90
       50
176
     1
 90
       50
176
     1
290
     0
176
     1
 90
       50
176
     1
 62
   256
176
     0
 40
1.0
176
     0
 90
        2
176
     1
  1
strokes_ogs.tif
176
     1
290
     0
176
     1
 40
1.0
176
     1
 40
1.0
176
     1
  0
VISUALSTYLE
  5
5A9
102
{ACAD_REACTORS
330
59D
102
}
330
59D
100
AcDbVisualStyle
  2
Brighten
 70
    12
177
     3
291
     1
 70
    58
 90
        2
176
     1
 90
        2
176
     1
 90
        0
176
     1
 90
        0
176
     1
 40
0.6
176
     1
 40
30.0
176
     1
 62
     7
420
 16777215
176
     1
 90
        1
176
     1
 90
        4
176
     1
 62
     7
176
     1
 62
   257
176
     1
 90
        1
176
     1
 90
        1
176
     1
 40
1.0
176
     1
 90
        8
176
     1
 62
     7
176
     1
 40
1.0
176
     1
 90
        1
176
     1
 90
        6
176
     1
 90
        2
176
     1
 62
     7
176
     1
 90
        5
176
     1
 90
        0
176
     1
 90
        0
176
     1
290
     0
176
     1
 90
        1
176
     1
 40
50.0
176
     1
 90
        0
176
     1
290
     0
176
     1
290
     1
176
     1
290
     1
176
     1
290
     0
176
     1
290
     0
176
     1
290
     0
176
     1
290
     0
176
     1
290
     0
176
     1
290
     0
176
     1
 90
       50
176
     1
 40
0.0
176
     1
 40
1.0
176
     1
 90
        0
176
     1
 62
    18
420
        0
176
     1
 90
       50
176
     1
 90
        3
176
     1
 62
     5
420
      255
176
     1
290
     0
176
     1
 90
       50
176
     1
 90
       50
176
     1
 90
       50
176
     1
290
     0
176
     1
 90
       50
176
     1
 62
   256
176
     0
 40
1.0
176
     0
 90
        2
176
     1
  1
strokes_ogs.tif
176
     1
290
     0
176
     1
 40
1.0
176
     1
 40
1.0
176
     1
  0
VISUALSTYLE
  5
5AD
102
{ACAD_REACTORS
330
59D
102
}
330
59D
100
AcDbVisualStyle
  2
ColorChange
 70
    16
177
     3
291
     1
 70
    58
 90
        2
176
     1
 90
        2
176
     1
 90
        3
176
     1
 90
        0
176
     1
 40
0.6
176
     1
 40
30.0
176
     1
 62
     8
420
  8421504
176
     1
 90
        1
176
     1
 90
        4
176
     1
 62
     7
176
     1
 62
   257
176
     1
 90
        1
176
     1
 90
        1
176
     1
 40
1.0
176
     1
 90
        8
176
     1
 62
     8
420
  8421504
176
     1
 40
1.0
176
     1
 90
        1
176
     1
 90
        6
176
     1
 90
        2
176
     1
 62
     7
176
     1
 90
        5
176
     1
 90
        0
176
     1
 90
        0
176
     1
290
     0
176
     1
 90
        1
176
     1
 40
0.0
176
     1
 90
        0
176
     1
290
     0
176
     1
290
     1
176
     1
290
     1
176
     1
290
     0
176
     1
290
     0
176
     1
290
     0
176
     1
290
     0
176
     1
290
     0
176
     1
290
     0
176
     1
 90
       50
176
     1
 40
0.0
176
     1
 40
1.0
176
     1
 90
        0
176
     1
 62
    18
420
        0
176
     1
 90
       50
176
     1
 90
        3
176
     1
 62
     5
420
      255
176
     1
290
     0
176
     1
 90
       50
176
     1
 90
       50
176
     1
 90
       50
176
     1
290
     0
176
     1
 90
       50
176
     1
 62
   256
176
     0
 40
1.0
176
     0
 90
        2
176
     1
  1
strokes_ogs.tif
176
     1
290
     0
176
     1
 40
1.0
176
     1
 40
1.0
176
     1
  0
VISUALSTYLE
  5
5A7
102
{ACAD_REACTORS
330
59D
102
}
330
59D
100
AcDbVisualStyle
  2
Conceptual
 70
     9
177
     3
291
     0
 70
    58
 90
        3
176
     1
 90
        2
176
     1
 90
        0
176
     1
 90
        0
176
     1
 40
0.6
176
     1
 40
30.0
176
     1
 62
     7
420
 16777215
176
     1
 90
        2
176
     1
 90
        2
176
     1
 62
     7
176
     1
 62
   257
176
     1
 90
        1
176
     1
 90
        1
176
     1
 40
179.0
176
     1
 90
        8
176
     1
 62
     7
176
     1
 40
1.0
176
     1
 90
        1
176
     1
 90
        6
176
     1
 90
        2
176
     1
 62
     7
176
     1
 90
        3
176
     1
 90
        0
176
     1
 90
        0
176
     1
290
     0
176
     1
 90
        1
176
     1
 40
0.0
176
     1
 90
        0
176
     1
290
     0
176
     1
290
     1
176
     1
290
     1
176
     1
290
     0
176
     1
290
     0
176
     1
290
     0
176
     1
290
     0
176
     1
290
     0
176
     1
290
     0
176
     1
 90
       50
176
     1
 40
0.0
176
     1
 40
1.0
176
     1
 90
        0
176
     1
 62
    18
420
        0
176
     1
 90
       50
176
     1
 90
        3
176
     1
 62
     5
420
      255
176
     1
290
     0
176
     1
 90
       50
176
     1
 90
       50
176
     1
 90
       50
176
     1
290
     0
176
     1
 90
       50
176
     1
 62
   256
176
     0
 40
1.0
176
     0
 90
        2
176
     1
  1
strokes_ogs.tif
176
     1
290
     0
176
     1
 40
1.0
176
     1
 40
1.0
176
     1
  0
VISUALSTYLE
  5
5A8
102
{ACAD_REACTORS
330
59D
102
}
330
59D
100
AcDbVisualStyle
  2
Dim
 70
    11
177
     3
291
     1
 70
    58
 90
        2
176
     1
 90
        2
176
     1
 90
        0
176
     1
 90
        0
176
     1
 40
0.6
176
     1
 40
30.0
176
     1
 62
     7
420
 16777215
176
     1
 90
        1
176
     1
 90
        4
176
     1
 62
     7
176
     1
 62
   257
176
     1
 90
        1
176
     1
 90
        1
176
     1
 40
1.0
176
     1
 90
        8
176
     1
 62
     7
176
     1
 40
1.0
176
     1
 90
        1
176
     1
 90
        6
176
     1
 90
        2
176
     1
 62
     7
176
     1
 90
        5
176
     1
 90
        0
176
     1
 90
        0
176
     1
290
     0
176
     1
 90
        1
176
     1
 40
-50.0
176
     1
 90
        0
176
     1
290
     0
176
     1
290
     1
176
     1
290
     1
176
     1
290
     0
176
     1
290
     0
176
     1
290
     0
176
     1
290
     0
176
     1
290
     0
176
     1
290
     0
176
     1
 90
       50
176
     1
 40
0.0
176
     1
 40
1.0
176
     1
 90
        0
176
     1
 62
    18
420
        0
176
     1
 90
       50
176
     1
 90
        3
176
     1
 62
     5
420
      255
176
     1
290
     0
176
     1
 90
       50
176
     1
 90
       50
176
     1
 90
       50
176
     1
290
     0
176
     1
 90
       50
176
     1
 62
   256
176
     0
 40
1.0
176
     0
 90
        2
176
     1
  1
strokes_ogs.tif
176
     1
290
     0
176
     1
 40
1.0
176
     1
 40
1.0
176
     1
  0
VISUALSTYLE
  5
5B0
102
{ACAD_REACTORS
330
59D
102
}
330
59D
100
AcDbVisualStyle
  2
EdgeColorOff
 70
    22
177
     3
291
     1
 70
    58
 90
        2
176
     0
 90
        2
176
     0
 90
        0
176
     0
 90
        0
176
     0
 40
0.6
176
     0
 40
30.0
176
     0
 62
     7
420
 16777215
176
     0
 90
        1
176
     0
 90
        4
176
     0
 62
     7
176
     0
 62
   257
176
     0
 90
        1
176
     0
 90
        1
176
     0
 40
1.0
176
     0
 90
        8
176
     2
 62
     7
176
     0
 40
1.0
176
     0
 90
        1
176
     0
 90
        6
176
     0
 90
        2
176
     0
 62
     7
176
     0
 90
        5
176
     0
 90
        0
176
     0
 90
        0
176
     0
290
     0
176
     0
 90
        1
176
     0
 40
0.0
176
     0
 90
        0
176
     0
290
     0
176
     0
290
     1
176
     0
290
     1
176
     0
290
     0
176
     0
290
     0
176
     0
290
     0
176
     0
290
     0
176
     0
290
     0
176
     0
290
     0
176
     0
 90
       50
176
     0
 40
0.0
176
     0
 40
1.0
176
     0
 90
        0
176
     0
 62
    18
420
        0
176
     0
 90
       50
176
     0
 90
        3
176
     0
 62
     5
420
      255
176
     0
290
     0
176
     0
 90
       50
176
     0
 90
       50
176
     0
 90
       50
176
     0
290
     0
176
     0
 90
       50
176
     0
 62
   256
176
     0
 40
1.0
176
     0
 90
        2
176
     0
  1
strokes_ogs.tif
176
     0
290
     0
176
     0
 40
1.0
176
     0
 40
1.0
176
     0
  0
VISUALSTYLE
  5
5AC
102
{ACAD_REACTORS
330
59D
102
}
330
59D
100
AcDbVisualStyle
  2
Facepattern
 70
    15
177
     3
291
     1
 70
    58
 90
        2
176
     1
 90
        2
176
     1
 90
        0
176
     1
 90
        0
176
     1
 40
0.6
176
     1
 40
30.0
176
     1
 62
     7
420
 16777215
176
     1
 90
        1
176
     1
 90
        4
176
     1
 62
     7
176
     1
 62
   257
176
     1
 90
        1
176
     1
 90
        1
176
     1
 40
1.0
176
     1
 90
        8
176
     1
 62
     7
176
     1
 40
1.0
176
     1
 90
        1
176
     1
 90
        6
176
     1
 90
        2
176
     1
 62
     7
176
     1
 90
        5
176
     1
 90
        0
176
     1
 90
        0
176
     1
290
     0
176
     1
 90
        1
176
     1
 40
0.0
176
     1
 90
        0
176
     1
290
     0
176
     1
290
     1
176
     1
290
     1
176
     1
290
     0
176
     1
290
     0
176
     1
290
     0
176
     1
290
     0
176
     1
290
     0
176
     1
290
     0
176
     1
 90
       50
176
     1
 40
0.0
176
     1
 40
1.0
176
     1
 90
        0
176
     1
 62
    18
420
        0
176
     1
 90
       50
176
     1
 90
        3
176
     1
 62
     5
420
      255
176
     1
290
     0
176
     1
 90
       50
176
     1
 90
       50
176
     1
 90
       50
176
     1
290
     0
176
     1
 90
       50
176
     1
 62
   256
176
     0
 40
1.0
176
     0
 90
        2
176
     1
  1
strokes_ogs.tif
176
     1
290
     0
176
     1
 40
1.0
176
     1
 40
1.0
176
     1
  0
VISUALSTYLE
  5
59E
102
{ACAD_REACTORS
330
59D
102
}
330
59D
100
AcDbVisualStyle
  2
Flat
 70
     0
177
     3
291
     1
 70
    58
 90
        2
176
     1
 90
        1
176
     1
 90
        1
176
     1
 90
        2
176
     1
 40
0.6
176
     1
 40
30.0
176
     1
 62
     7
420
 16777215
176
     1
 90
        0
176
     1
 90
        0
176
     1
 62
     7
176
     1
 62
   257
176
     1
 90
        1
176
     1
 90
        1
176
     1
 40
1.0
176
     1
 90
        8
176
     1
 62
     7
176
     1
 40
1.0
176
     1
 90
        1
176
     1
 90
        6
176
     1
 90
        2
176
     1
 62
     7
176
     1
 90
        5
176
     1
 90
        0
176
     1
 90
        0
176
     1
290
     0
176
     1
 90
       13
176
     1
 40
0.0
176
     1
 90
        0
176
     1
290
     0
176
     1
290
     1
176
     1
290
     1
176
     1
290
     0
176
     1
290
     0
176
     1
290
     0
176
     1
290
     0
176
     1
290
     0
176
     1
290
     0
176
     1
 90
       50
176
     1
 40
0.0
176
     1
 40
1.0
176
     1
 90
        0
176
     1
 62
    18
420
        0
176
     1
 90
       50
176
     1
 90
        3
176
     1
 62
     5
420
      255
176
     1
290
     0
176
     1
 90
       50
176
     1
 90
       50
176
     1
 90
       50
176
     1
290
     0
176
     1
 90
       50
176
     1
 62
   256
176
     0
 40
1.0
176
     0
 90
        2
176
     1
  1
strokes_ogs.tif
176
     1
290
     0
176
     1
 40
1.0
176
     1
 40
1.0
176
     1
  0
VISUALSTYLE
  5
59F
102
{ACAD_REACTORS
330
59D
102
}
330
59D
100
AcDbVisualStyle
  2
FlatWithEdges
 70
     1
177
     3
291
     1
 70
    58
 90
        2
176
     1
 90
        1
176
     1
 90
        1
176
     1
 90
        2
176
     1
 40
0.6
176
     1
 40
30.0
176
     1
 62
     7
420
 16777215
176
     1
 90
        1
176
     1
 90
        0
176
     1
 62
     7
176
     1
 62
   257
176
     1
 90
        1
176
     1
 90
        1
176
     1
 40
1.0
176
     1
 90
        0
176
     1
 62
   257
176
     1
 40
1.0
176
     1
 90
        1
176
     1
 90
        6
176
     1
 90
        2
176
     1
 62
     7
176
     1
 90
        5
176
     1
 90
        0
176
     1
 90
        0
176
     1
290
     0
176
     1
 90
       13
176
     1
 40
0.0
176
     1
 90
        0
176
     1
290
     0
176
     1
290
     1
176
     1
290
     1
176
     1
290
     0
176
     1
290
     0
176
     1
290
     0
176
     1
290
     0
176
     1
290
     0
176
     1
290
     0
176
     1
 90
       50
176
     1
 40
0.0
176
     1
 40
1.0
176
     1
 90
        0
176
     1
 62
    18
420
        0
176
     1
 90
       50
176
     1
 90
        3
176
     1
 62
     5
420
      255
176
     1
290
     0
176
     1
 90
       50
176
     1
 90
       50
176
     1
 90
       50
176
     1
290
     0
176
     1
 90
       50
176
     1
 62
   256
176
     0
 40
1.0
176
     0
 90
        2
176
     1
  1
strokes_ogs.tif
176
     1
290
     0
176
     1
 40
1.0
176
     1
 40
1.0
176
     1
  0
VISUALSTYLE
  5
5A0
102
{ACAD_REACTORS
330
59D
102
}
330
59D
100
AcDbVisualStyle
  2
Gouraud
 70
     2
177
     3
291
     1
 70
    58
 90
        2
176
     1
 90
        2
176
     1
 90
        1
176
     1
 90
        2
176
     1
 40
0.6
176
     1
 40
30.0
176
     1
 62
     7
420
 16777215
176
     1
 90
        0
176
     1
 90
        0
176
     1
 62
     7
176
     1
 62
   257
176
     1
 90
        1
176
     1
 90
        1
176
     1
 40
1.0
176
     1
 90
        0
176
     1
 62
     7
176
     1
 40
1.0
176
     1
 90
        1
176
     1
 90
        6
176
     1
 90
        2
176
     1
 62
     7
176
     1
 90
        5
176
     1
 90
        0
176
     1
 90
        0
176
     1
290
     0
176
     1
 90
       13
176
     1
 40
0.0
176
     1
 90
        0
176
     1
290
     0
176
     1
290
     1
176
     1
290
     1
176
     1
290
     0
176
     1
290
     0
176
     1
290
     0
176
     1
290
     0
176
     1
290
     0
176
     1
290
     0
176
     1
 90
       50
176
     1
 40
0.0
176
     1
 40
1.0
176
     1
 90
        0
176
     1
 62
    18
420
        0
176
     1
 90
       50
176
     1
 90
        3
176
     1
 62
     5
420
      255
176
     1
290
     0
176
     1
 90
       50
176
     1
 90
       50
176
     1
 90
       50
176
     1
290
     0
176
     1
 90
       50
176
     1
 62
   256
176
     0
 40
1.0
176
     0
 90
        2
176
     1
  1
strokes_ogs.tif
176
     1
290
     0
176
     1
 40
1.0
176
     1
 40
1.0
176
     1
  0
VISUALSTYLE
  5
5A1
102
{ACAD_REACTORS
330
59D
102
}
330
59D
100
AcDbVisualStyle
  2
GouraudWithEdges
 70
     3
177
     3
291
     1
 70
    58
 90
        2
176
     1
 90
        2
176
     1
 90
        1
176
     1
 90
        2
176
     1
 40
0.6
176
     1
 40
30.0
176
     1
 62
     7
420
 16777215
176
     1
 90
        1
176
     1
 90
        0
176
     1
 62
     7
176
     1
 62
   257
176
     1
 90
        1
176
     1
 90
        1
176
     1
 40
1.0
176
     1
 90
        0
176
     1
 62
   257
176
     1
 40
1.0
176
     1
 90
        1
176
     1
 90
        6
176
     1
 90
        2
176
     1
 62
     7
176
     1
 90
        5
176
     1
 90
        0
176
     1
 90
        0
176
     1
290
     0
176
     1
 90
       13
176
     1
 40
0.0
176
     1
 90
        0
176
     1
290
     0
176
     1
290
     1
176
     1
290
     1
176
     1
290
     0
176
     1
290
     0
176
     1
290
     0
176
     1
290
     0
176
     1
290
     0
176
     1
290
     0
176
     1
 90
       50
176
     1
 40
0.0
176
     1
 40
1.0
176
     1
 90
        0
176
     1
 62
    18
420
        0
176
     1
 90
       50
176
     1
 90
        3
176
     1
 62
     5
420
      255
176
     1
290
     0
176
     1
 90
       50
176
     1
 90
       50
176
     1
 90
       50
176
     1
290
     0
176
     1
 90
       50
176
     1
 62
   256
176
     0
 40
1.0
176
     0
 90
        2
176
     1
  1
strokes_ogs.tif
176
     1
290
     0
176
     1
 40
1.0
176
     1
 40
1.0
176
     1
  0
VISUALSTYLE
  5
5A4
102
{ACAD_REACTORS
330
59D
102
}
330
59D
100
AcDbVisualStyle
  2
Hidden
 70
     6
177
     3
291
     0
 70
    58
 90
        1
176
     1
 90
        2
176
     1
 90
        2
176
     1
 90
        0
176
     1
 40
0.6
176
     1
 40
30.0
176
     1
 62
     7
420
 16777215
176
     1
 90
        2
176
     1
 90
        2
176
     1
 62
     7
176
     1
 62
   257
176
     1
 90
        2
176
     1
 90
        1
176
     1
 40
40.0
176
     1
 90
        0
176
     1
 62
   257
176
     1
 40
1.0
176
     1
 90
        1
176
     1
 90
        6
176
     1
 90
        2
176
     1
 62
     7
176
     1
 90
        3
176
     1
 90
        0
176
     1
 90
        0
176
     1
290
     0
176
     1
 90
        1
176
     1
 40
0.0
176
     1
 90
        0
176
     1
290
     0
176
     1
290
     1
176
     1
290
     1
176
     1
290
     0
176
     1
290
     0
176
     1
290
     0
176
     1
290
     0
176
     1
290
     0
176
     1
290
     0
176
     1
 90
       50
176
     1
 40
0.0
176
     1
 40
1.0
176
     1
 90
        0
176
     1
 62
    18
420
        0
176
     1
 90
       50
176
     1
 90
        3
176
     1
 62
     5
420
      255
176
     1
290
     0
176
     1
 90
       50
176
     1
 90
       50
176
     1
 90
       50
176
     1
290
     0
176
     1
 90
       50
176
     1
 62
   256
176
     0
 40
1.0
176
     0
 90
        2
176
     1
  1
strokes_ogs.tif
176
     1
290
     0
176
     1
 40
1.0
176
     1
 40
1.0
176
     1
  0
VISUALSTYLE
  5
5AE
102
{ACAD_REACTORS
330
59D
102
}
330
59D
100
AcDbVisualStyle
  2
JitterOff
 70
    20
177
     3
291
     1
 70
    58
 90
        2
176
     0
 90
        2
176
     0
 90
        0
176
     0
 90
        0
176
     0
 40
0.6
176
     0
 40
30.0
176
     0
 62
     7
420
 16777215
176
     0
 90
        1
176
     0
 90
        4
176
     0
 62
     7
176
     0
 62
   257
176
     0
 90
        1
176
     0
 90
        1
176
     0
 40
1.0
176
     0
 90
       10
176
     2
 62
     7
176
     0
 40
1.0
176
     0
 90
        1
176
     0
 90
        6
176
     0
 90
        2
176
     0
 62
     7
176
     0
 90
        5
176
     0
 90
        0
176
     0
 90
        0
176
     0
290
     0
176
     0
 90
        1
176
     0
 40
0.0
176
     0
 90
        0
176
     0
290
     0
176
     0
290
     1
176
     0
290
     1
176
     0
290
     0
176
     0
290
     0
176
     0
290
     0
176
     0
290
     0
176
     0
290
     0
176
     0
290
     0
176
     0
 90
       50
176
     0
 40
0.0
176
     0
 40
1.0
176
     0
 90
        0
176
     0
 62
    18
420
        0
176
     0
 90
       50
176
     0
 90
        3
176
     0
 62
     5
420
      255
176
     0
290
     0
176
     0
 90
       50
176
     0
 90
       50
176
     0
 90
       50
176
     0
290
     0
176
     0
 90
       50
176
     0
 62
   256
176
     0
 40
1.0
176
     0
 90
        2
176
     0
  1
strokes_ogs.tif
176
     0
290
     0
176
     0
 40
1.0
176
     0
 40
1.0
176
     0
  0
VISUALSTYLE
  5
5AB
102
{ACAD_REACTORS
330
59D
102
}
330
59D
100
AcDbVisualStyle
  2
Linepattern
 70
    14
177
     3
291
     1
 70
    58
 90
        2
176
     1
 90
        2
176
     1
 90
        0
176
     1
 90
        0
176
     1
 40
0.6
176
     1
 40
30.0
176
     1
 62
     7
420
 16777215
176
     1
 90
        1
176
     1
 90
        4
176
     1
 62
     7
176
     1
 62
   257
176
     1
 90
        7
176
     1
 90
        7
176
     1
 40
1.0
176
     1
 90
        8
176
     1
 62
     7
176
     1
 40
1.0
176
     1
 90
        1
176
     1
 90
        6
176
     1
 90
        2
176
     1
 62
     7
176
     1
 90
        5
176
     1
 90
        0
176
     1
 90
        0
176
     1
290
     0
176
     1
 90
        1
176
     1
 40
0.0
176
     1
 90
        0
176
     1
290
     0
176
     1
290
     1
176
     1
290
     1
176
     1
290
     0
176
     1
290
     0
176
     1
290
     0
176
     1
290
     0
176
     1
290
     0
176
     1
290
     0
176
     1
 90
       50
176
     1
 40
0.0
176
     1
 40
1.0
176
     1
 90
        0
176
     1
 62
    18
420
        0
176
     1
 90
       50
176
     1
 90
        3
176
     1
 62
     5
420
      255
176
     1
290
     0
176
     1
 90
       50
176
     1
 90
       50
176
     1
 90
       50
176
     1
290
     0
176
     1
 90
       50
176
     1
 62
   256
176
     0
 40
1.0
176
     0
 90
        2
176
     1
  1
strokes_ogs.tif
176
     1
290
     0
176
     1
 40
1.0
176
     1
 40
1.0
176
     1
  0
VISUALSTYLE
  5
5AF
102
{ACAD_REACTORS
330
59D
102
}
330
59D
100
AcDbVisualStyle
  2
OverhangOff
 70
    21
177
     3
291
     1
 70
    58
 90
        2
176
     0
 90
        2
176
     0
 90
        0
176
     0
 90
        0
176
     0
 40
0.6
176
     0
 40
30.0
176
     0
 62
     7
420
 16777215
176
     0
 90
        1
176
     0
 90
        4
176
     0
 62
     7
176
     0
 62
   257
176
     0
 90
        1
176
     0
 90
        1
176
     0
 40
1.0
176
     0
 90
        9
176
     2
 62
     7
176
     0
 40
1.0
176
     0
 90
        1
176
     0
 90
        6
176
     0
 90
        2
176
     0
 62
     7
176
     0
 90
        5
176
     0
 90
        0
176
     0
 90
        0
176
     0
290
     0
176
     0
 90
        1
176
     0
 40
0.0
176
     0
 90
        0
176
     0
290
     0
176
     0
290
     1
176
     0
290
     1
176
     0
290
     0
176
     0
290
     0
176
     0
290
     0
176
     0
290
     0
176
     0
290
     0
176
     0
290
     0
176
     0
 90
       50
176
     0
 40
0.0
176
     0
 40
1.0
176
     0
 90
        0
176
     0
 62
    18
420
        0
176
     0
 90
       50
176
     0
 90
        3
176
     0
 62
     5
420
      255
176
     0
290
     0
176
     0
 90
       50
176
     0
 90
       50
176
     0
 90
       50
176
     0
290
     0
176
     0
 90
       50
176
     0
 62
   256
176
     0
 40
1.0
176
     0
 90
        2
176
     0
  1
strokes_ogs.tif
176
     0
290
     0
176
     0
 40
1.0
176
     0
 40
1.0
176
     0
  0
VISUALSTYLE
  5
5A6
102
{ACAD_REACTORS
330
59D
102
}
330
59D
100
AcDbVisualStyle
  2
Realistic
 70
     8
177
     3
291
     0
 70
    58
 90
        2
176
     1
 90
        3
176
     1
 90
        0
176
     1
 90
        2
176
     1
 40
0.6
176
     1
 40
30.0
176
     1
 62
     7
420
 16777215
176
     1
 90
        0
176
     1
 90
        0
176
     1
 62
     7
176
     1
 62
   257
176
     1
 90
        1
176
     1
 90
        1
176
     1
 40
1.0
176
     1
 90
        8
176
     1
 62
   257
176
     1
 40
1.0
176
     1
 90
        1
176
     1
 90
        6
176
     1
 90
        2
176
     1
 62
     7
176
     1
 90
        3
176
     1
 90
        0
176
     1
 90
        0
176
     1
290
     0
176
     1
 90
       13
176
     1
 40
0.0
176
     1
 90
        0
176
     1
290
     0
176
     1
290
     1
176
     1
290
     1
176
     1
290
     0
176
     1
290
     0
176
     1
290
     0
176
     1
290
     0
176
     1
290
     0
176
     1
290
     0
176
     1
 90
       50
176
     1
 40
0.0
176
     1
 40
1.0
176
     1
 90
        0
176
     1
 62
    18
420
        0
176
     1
 90
       50
176
     1
 90
        3
176
     1
 62
     5
420
      255
176
     1
290
     0
176
     1
 90
       50
176
     1
 90
       50
176
     1
 90
       50
176
     1
290
     0
176
     1
 90
       50
176
     1
 62
   256
176
     0
 40
1.0
176
     0
 90
        2
176
     1
  1
strokes_ogs.tif
176
     1
290
     0
176
     1
 40
1.0
176
     1
 40
1.0
176
     1
  0
VISUALSTYLE
  5
5B5
102
{ACAD_REACTORS
330
59D
102
}
330
59D
100
AcDbVisualStyle
  2
Shaded
 70
    27
177
     3
291
     0
 70
    58
 90
        2
176
     1
 90
        2
176
     1
 90
        1
176
     1
 90
        2
176
     1
 40
0.6
176
     1
 40
30.0
176
     1
 62
     7
420
 16777215
176
     1
 90
        0
176
     1
 90
        4
176
     1
 62
     7
176
     1
 62
   257
176
     1
 90
        1
176
     1
 90
        1
176
     1
 40
1.0
176
     1
 90
        8
176
     1
 62
   257
176
     1
 40
1.0
176
     1
 90
        1
176
     1
 90
        6
176
     1
 90
        2
176
     1
 62
     8
420
  7895160
176
     1
 90
        3
176
     1
 90
        0
176
     1
 90
        0
176
     1
290
     0
176
     1
 90
        5
176
     1
 40
0.0
176
     1
 90
        0
176
     1
290
     0
176
     1
290
     1
176
     1
290
     1
176
     1
290
     0
176
     1
290
     0
176
     1
290
     0
176
     1
290
     0
176
     1
290
     0
176
     1
290
     0
176
     1
 90
       50
176
     1
 40
0.0
176
     1
 40
1.0
176
     1
 90
        0
176
     1
 62
    18
420
        0
176
     1
 90
       50
176
     1
 90
        3
176
     1
 62
     5
420
      255
176
     1
290
     0
176
     1
 90
       50
176
     1
 90
       50
176
     1
 90
       50
176
     1
290
     0
176
     1
 90
       50
176
     1
 62
   256
176
     0
 40
1.0
176
     0
 90
        2
176
     1
  1
strokes_ogs.tif
176
     1
290
     0
176
     1
 40
1.0
176
     1
 40
1.0
176
     1
  0
VISUALSTYLE
  5
5B4
102
{ACAD_REACTORS
330
59D
102
}
330
59D
100
AcDbVisualStyle
  2
Shaded with edges
 70
    26
177
     3
291
     0
 70
    58
 90
        2
176
     1
 90
        2
176
     1
 90
        1
176
     1
 90
        2
176
     1
 40
0.6
176
     1
 40
30.0
176
     1
 62
     7
420
 16777215
176
     1
 90
        1
176
     1
 90
       10
176
     1
 62
     7
176
     1
 62
   257
176
     1
 90
        2
176
     1
 90
        1
176
     1
 40
1.0
176
     1
 90
        8
176
     1
 62
   257
176
     1
 40
1.0
176
     1
 90
        1
176
     1
 90
        6
176
     1
 90
        2
176
     1
 62
     7
176
     1
 90
        3
176
     1
 90
        0
176
     1
 90
        0
176
     1
290
     0
176
     1
 90
        5
176
     1
 40
0.0
176
     1
 90
        0
176
     1
290
     0
176
     1
290
     1
176
     1
290
     1
176
     1
290
     0
176
     1
290
     0
176
     1
290
     0
176
     1
290
     0
176
     1
290
     0
176
     1
290
     0
176
     1
 90
       50
176
     1
 40
0.0
176
     1
 40
1.0
176
     1
 90
        0
176
     1
 62
    18
420
        0
176
     1
 90
       50
176
     1
 90
        3
176
     1
 62
     5
420
      255
176
     1
290
     0
176
     1
 90
       50
176
     1
 90
       50
176
     1
 90
       50
176
     1
290
     0
176
     1
 90
       50
176
     1
 62
   256
176
     0
 40
1.0
176
     0
 90
        2
176
     1
  1
strokes_ogs.tif
176
     1
290
     0
176
     1
 40
1.0
176
     1
 40
1.0
176
     1
  0
VISUALSTYLE
  5
5B1
102
{ACAD_REACTORS
330
59D
102
}
330
59D
100
AcDbVisualStyle
  2
Shades of Gray
 70
    23
177
     3
291
     0
 70
    58
 90
        2
176
     1
 90
        2
176
     1
 90
        3
176
     1
 90
        0
176
     1
 40
0.6
176
     1
 40
30.0
176
     1
 62
     7
420
 16777215
176
     1
 90
        2
176
     1
 90
        2
176
     1
 62
     7
176
     1
 62
     7
176
     1
 90
        1
176
     1
 90
        1
176
     1
 40
40.0
176
     1
 90
        8
176
     1
 62
     7
176
     1
 40
1.0
176
     1
 90
        1
176
     1
 90
        6
176
     1
 90
        2
176
     1
 62
     7
176
     1
 90
        3
176
     1
 90
        0
176
     1
 90
        0
176
     1
290
     0
176
     1
 90
        1
176
     1
 40
0.0
176
     1
 90
        0
176
     1
290
     0
176
     1
290
     1
176
     1
290
     1
176
     1
290
     0
176
     1
290
     0
176
     1
290
     0
176
     1
290
     0
176
     1
290
     0
176
     1
290
     0
176
     1
 90
       50
176
     1
 40
0.0
176
     1
 40
1.0
176
     1
 90
        0
176
     1
 62
    18
420
        0
176
     1
 90
       50
176
     1
 90
        3
176
     1
 62
     5
420
      255
176
     1
290
     0
176
     1
 90
       50
176
     1
 90
       50
176
     1
 90
       50
176
     1
290
     0
176
     1
 90
       50
176
     1
 62
   256
176
     0
 40
1.0
176
     0
 90
        2
176
     1
  1
strokes_ogs.tif
176
     1
290
     0
176
     1
 40
1.0
176
     1
 40
1.0
176
     1
  0
VISUALSTYLE
  5
5B2
102
{ACAD_REACTORS
330
59D
102
}
330
59D
100
AcDbVisualStyle
  2
Sketchy
 70
    24
177
     3
291
     0
 70
    58
 90
        1
176
     1
 90
        2
176
     1
 90
        2
176
     1
 90
        0
176
     1
 40
0.6
176
     1
 40
30.0
176
     1
 62
     7
420
 16777215
176
     1
 90
        2
176
     1
 90
        2
176
     1
 62
     7
176
     1
 62
     7
176
     1
 90
        1
176
     1
 90
        1
176
     1
 40
40.0
176
     1
 90
       11
176
     1
 62
     7
176
     1
 40
1.0
176
     1
 90
        1
176
     1
 90
        6
176
     1
 90
        2
176
     1
 62
     7
176
     1
 90
        6
176
     1
 90
        0
176
     1
 90
        0
176
     1
290
     0
176
     1
 90
        1
176
     1
 40
0.0
176
     1
 90
        0
176
     1
290
     0
176
     1
290
     1
176
     1
290
     1
176
     1
290
     0
176
     1
290
     0
176
     1
290
     0
176
     1
290
     0
176
     1
290
     0
176
     1
290
     0
176
     1
 90
       50
176
     1
 40
0.0
176
     1
 40
1.0
176
     1
 90
        0
176
     1
 62
    18
420
        0
176
     1
 90
       50
176
     1
 90
        3
176
     1
 62
     5
420
      255
176
     1
290
     0
176
     1
 90
       50
176
     1
 90
       50
176
     1
 90
       50
176
     1
290
     0
176
     1
 90
       50
176
     1
 62
   256
176
     0
 40
1.0
176
     0
 90
        2
176
     1
  1
strokes_ogs.tif
176
     1
290
     0
176
     1
 40
1.0
176
     1
 40
1.0
176
     1
  0
VISUALSTYLE
  5
5AA
102
{ACAD_REACTORS
330
59D
102
}
330
59D
100
AcDbVisualStyle
  2
Thicken
 70
    13
177
     3
291
     1
 70
    58
 90
        2
176
     1
 90
        2
176
     1
 90
        0
176
     1
 90
        0
176
     1
 40
0.6
176
     1
 40
30.0
176
     1
 62
     7
420
 16777215
176
     1
 90
        1
176
     1
 90
        4
176
     1
 62
     7
176
     1
 62
   257
176
     1
 90
        1
176
     1
 90
        1
176
     1
 40
1.0
176
     1
 90
       12
176
     1
 62
     7
176
     1
 40
1.0
176
     1
 90
        1
176
     1
 90
        6
176
     1
 90
        2
176
     1
 62
     7
176
     1
 90
        5
176
     1
 90
        0
176
     1
 90
        0
176
     1
290
     0
176
     1
 90
        1
176
     1
 40
0.0
176
     1
 90
        0
176
     1
290
     0
176
     1
290
     1
176
     1
290
     1
176
     1
290
     0
176
     1
290
     0
176
     1
290
     0
176
     1
290
     0
176
     1
290
     0
176
     1
290
     0
176
     1
 90
       50
176
     1
 40
0.0
176
     1
 40
1.0
176
     1
 90
        0
176
     1
 62
    18
420
        0
176
     1
 90
       50
176
     1
 90
        3
176
     1
 62
     5
420
      255
176
     1
290
     0
176
     1
 90
       50
176
     1
 90
       50
176
     1
 90
       50
176
     1
290
     0
176
     1
 90
       50
176
     1
 62
   256
176
     0
 40
1.0
176
     0
 90
        2
176
     1
  1
strokes_ogs.tif
176
     1
290
     0
176
     1
 40
1.0
176
     1
 40
1.0
176
     1
  0
VISUALSTYLE
  5
5A3
102
{ACAD_REACTORS
330
59D
102
}
330
59D
100
AcDbVisualStyle
  2
Wireframe
 70
     5
177
     3
291
     0
 70
    58
 90
        0
176
     1
 90
        2
176
     1
 90
        0
176
     1
 90
        0
176
     1
 40
0.6
176
     1
 40
30.0
176
     1
 62
     7
420
 16777215
176
     1
 90
        1
176
     1
 90
        4
176
     1
 62
     7
176
     1
 62
   257
176
     1
 90
        1
176
     1
 90
        1
176
     1
 40
1.0
176
     1
 90
        0
176
     1
 62
   257
176
     1
 40
1.0
176
     1
 90
        1
176
     1
 90
        6
176
     1
 90
        2
176
     1
 62
     7
176
     1
 90
        3
176
     1
 90
        0
176
     1
 90
        0
176
     1
290
     0
176
     1
 90
        1
176
     1
 40
0.0
176
     1
 90
        0
176
     1
290
     0
176
     1
290
     1
176
     1
290
     1
176
     1
290
     0
176
     1
290
     0
176
     1
290
     0
176
     1
290
     0
176
     1
290
     0
176
     1
290
     0
176
     1
 90
       50
176
     1
 40
0.0
176
     1
 40
1.0
176
     1
 90
        0
176
     1
 62
    18
420
        0
176
     1
 90
       50
176
     1
 90
        3
176
     1
 62
     5
420
      255
176
     1
290
     0
176
     1
 90
       50
176
     1
 90
       50
176
     1
 90
       50
176
     1
290
     0
176
     1
 90
       50
176
     1
 62
   256
176
     0
 40
1.0
176
     0
 90
        2
176
     1
  1
strokes_ogs.tif
176
     1
290
     0
176
     1
 40
1.0
176
     1
 40
1.0
176
     1
  0
VISUALSTYLE
  5
5B3
102
{ACAD_REACTORS
330
59D
102
}
330
59D
100
AcDbVisualStyle
  2
X-Ray
 70
    25
177
     3
291
     0
 70
    58
 90
        2
176
     1
 90
        2
176
     1
 90
        1
176
     1
 90
        1
176
     1
 40
0.5
176
     1
 40
30.0
176
     1
 62
     7
420
 16777215
176
     1
 90
        1
176
     1
 90
        0
176
     1
 62
     7
176
     1
 62
   257
176
     1
 90
        1
176
     1
 90
        1
176
     1
 40
1.0
176
     1
 90
        8
176
     1
 62
     7
176
     1
 40
1.0
176
     1
 90
        1
176
     1
 90
        6
176
     1
 90
        2
176
     1
 62
     7
176
     1
 90
        3
176
     1
 90
        0
176
     1
 90
        0
176
     1
290
     0
176
     1
 90
       13
176
     1
 40
0.0
176
     1
 90
        0
176
     1
290
     0
176
     1
290
     1
176
     1
290
     1
176
     1
290
     0
176
     1
290
     0
176
     1
290
     0
176
     1
290
     0
176
     1
290
     0
176
     1
290
     0
176
     1
 90
       50
176
     1
 40
0.0
176
     1
 40
1.0
176
     1
 90
        0
176
     1
 62
    18
420
        0
176
     1
 90
       50
176
     1
 90
        3
176
     1
 62
     5
420
      255
176
     1
290
     0
176
     1
 90
       50
176
     1
 90
       50
176
     1
 90
       50
176
     1
290
     0
176
     1
 90
       50
176
     1
 62
   256
176
     0
 40
1.0
176
     0
 90
        2
176
     1
  1
strokes_ogs.tif
176
     1
290
     0
176
     1
 40
1.0
176
     1
 40
1.0
176
     1
  0
DICTIONARYVAR
  5
5C0
102
{ACAD_REACTORS
330
5BF
102
}
330
5BF
100
DictionaryVariables
280
     0
  1
1:1
  0
DICTIONARYVAR
  5
5C5
102
{ACAD_REACTORS
330
5BF
102
}
330
5BF
100
DictionaryVariables
280
     0
  1
Standard
  0
DICTIONARYVAR
  5
5C4
102
{ACAD_REACTORS
330
5BF
102
}
330
5BF
100
DictionaryVariables
280
     0
  1
Standard
  0
DICTIONARYVAR
  5
5C6
102
{ACAD_REACTORS
330
5BF
102
}
330
5BF
100
DictionaryVariables
280
     0
  1
0
  0
DICTIONARY
  5
5C1
330
5BB
100
AcDbDictionary
280
     1
281
     1
  3
ACAD_ROUNDTRIP_2008_TABLESTYLE_CELLSTYLEMAP
360
5C2
  0
CELLSTYLEMAP
  5
5C2
102
{ACAD_REACTORS
330
5C1
102
}
330
5C1
100
AcDbCellStyleMap
 90
        3
300
CELLSTYLE
  1
TABLEFORMAT_BEGIN
 90
        5
170
     1
 91
        0
 92
    32768
 62
   257
 93
        1
300
CONTENTFORMAT
  1
CONTENTFORMAT_BEGIN
 90
        0
 91
        0
 92
        4
 93
        0
300

 40
0.0
140
1.0
 94
        5
 62
     0
340
11
144
6.0
309
CONTENTFORMAT_END
171
     1
301
MARGIN
  1
CELLMARGIN_BEGIN
 40
1.5
 40
1.5
 40
1.5
 40
1.5
 40
1.5
 40
1.5
309
CELLMARGIN_END
 94
        6
 95
        1
302
GRIDFORMAT
  1
GRIDFORMAT_BEGIN
 90
        0
 91
        1
 62
     0
 92
       -2
340
14
 93
        0
 40
0.045
309
GRIDFORMAT_END
 95
        2
302
GRIDFORMAT
  1
GRIDFORMAT_BEGIN
 90
        0
 91
        1
 62
     0
 92
       -2
340
14
 93
        0
 40
0.045
309
GRIDFORMAT_END
 95
        4
302
GRIDFORMAT
  1
GRIDFORMAT_BEGIN
 90
        0
 91
        1
 62
     0
 92
       -2
340
14
 93
        0
 40
0.045
309
GRIDFORMAT_END
 95
        8
302
GRIDFORMAT
  1
GRIDFORMAT_BEGIN
 90
        0
 91
        1
 62
     0
 92
       -2
340
14
 93
        0
 40
0.045
309
GRIDFORMAT_END
 95
       16
302
GRIDFORMAT
  1
GRIDFORMAT_BEGIN
 90
        0
 91
        1
 62
     0
 92
       -2
340
14
 93
        0
 40
0.045
309
GRIDFORMAT_END
 95
       32
302
GRIDFORMAT
  1
GRIDFORMAT_BEGIN
 90
        0
 91
        1
 62
     0
 92
       -2
340
14
 93
        0
 40
0.045
309
GRIDFORMAT_END
309
TABLEFORMAT_END
  1
CELLSTYLE_BEGIN
 90
        1
 91
        1
300
_TITLE
309
CELLSTYLE_END
300
CELLSTYLE
  1
TABLEFORMAT_BEGIN
 90
        5
170
     1
 91
        0
 92
        0
 62
   257
 93
        1
300
CONTENTFORMAT
  1
CONTENTFORMAT_BEGIN
 90
        0
 91
        0
 92
        4
 93
        0
300

 40
0.0
140
1.0
 94
        5
 62
     0
340
11
144
4.5
309
CONTENTFORMAT_END
171
     1
301
MARGIN
  1
CELLMARGIN_BEGIN
 40
1.5
 40
1.5
 40
1.5
 40
1.5
 40
1.5
 40
1.5
309
CELLMARGIN_END
 94
        6
 95
        1
302
GRIDFORMAT
  1
GRIDFORMAT_BEGIN
 90
        0
 91
        1
 62
     0
 92
       -2
340
14
 93
        0
 40
0.045
309
GRIDFORMAT_END
 95
        2
302
GRIDFORMAT
  1
GRIDFORMAT_BEGIN
 90
        0
 91
        1
 62
     0
 92
       -2
340
14
 93
        0
 40
0.045
309
GRIDFORMAT_END
 95
        4
302
GRIDFORMAT
  1
GRIDFORMAT_BEGIN
 90
        0
 91
        1
 62
     0
 92
       -2
340
14
 93
        0
 40
0.045
309
GRIDFORMAT_END
 95
        8
302
GRIDFORMAT
  1
GRIDFORMAT_BEGIN
 90
        0
 91
        1
 62
     0
 92
       -2
340
14
 93
        0
 40
0.045
309
GRIDFORMAT_END
 95
       16
302
GRIDFORMAT
  1
GRIDFORMAT_BEGIN
 90
        0
 91
        1
 62
     0
 92
       -2
340
14
 93
        0
 40
0.045
309
GRIDFORMAT_END
 95
       32
302
GRIDFORMAT
  1
GRIDFORMAT_BEGIN
 90
        0
 91
        1
 62
     0
 92
       -2
340
14
 93
        0
 40
0.045
309
GRIDFORMAT_END
309
TABLEFORMAT_END
  1
CELLSTYLE_BEGIN
 90
        2
 91
        1
300
_HEADER
309
CELLSTYLE_END
300
CELLSTYLE
  1
TABLEFORMAT_BEGIN
 90
        5
170
     1
 91
        0
 92
        0
 62
   257
 93
        1
300
CONTENTFORMAT
  1
CONTENTFORMAT_BEGIN
 90
        0
 91
        0
 92
        4
 93
        0
300

 40
0.0
140
1.0
 94
        2
 62
     0
340
11
144
4.5
309
CONTENTFORMAT_END
171
     1
301
MARGIN
  1
CELLMARGIN_BEGIN
 40
1.5
 40
1.5
 40
1.5
 40
1.5
 40
1.5
 40
1.5
309
CELLMARGIN_END
 94
        6
 95
        1
302
GRIDFORMAT
  1
GRIDFORMAT_BEGIN
 90
        0
 91
        1
 62
     0
 92
       -2
340
14
 93
        0
 40
0.045
309
GRIDFORMAT_END
 95
        2
302
GRIDFORMAT
  1
GRIDFORMAT_BEGIN
 90
        0
 91
        1
 62
     0
 92
       -2
340
14
 93
        0
 40
0.045
309
GRIDFORMAT_END
 95
        4
302
GRIDFORMAT
  1
GRIDFORMAT_BEGIN
 90
        0
 91
        1
 62
     0
 92
       -2
340
14
 93
        0
 40
0.045
309
GRIDFORMAT_END
 95
        8
302
GRIDFORMAT
  1
GRIDFORMAT_BEGIN
 90
        0
 91
        1
 62
     0
 92
       -2
340
14
 93
        0
 40
0.045
309
GRIDFORMAT_END
 95
       16
302
GRIDFORMAT
  1
GRIDFORMAT_BEGIN
 90
        0
 91
        1
 62
     0
 92
       -2
340
14
 93
        0
 40
0.045
309
GRIDFORMAT_END
 95
       32
302
GRIDFORMAT
  1
GRIDFORMAT_BEGIN
 90
        0
 91
        1
 62
     0
 92
       -2
340
14
 93
        0
 40
0.045
309
GRIDFORMAT_END
309
TABLEFORMAT_END
  1
CELLSTYLE_BEGIN
 90
        3
 91
        2
300
_DATA
309
CELLSTYLE_END
  0
ENDSEC
  0
EOF
