  0
SECTION
  2
HEADER
  9
$ACADVER
  1
AC1027
  9
$ACADMAINTVER
 70
   105
  9
$DWGCODEPAGE
  3
ANSI_1252
  9
$REQUIREDVERSIONS
160
                 0
  9
$LASTSAVEDBY
  1
andrea.zolin
  9
$INSBASE
 10
0.0
 20
0.0
 30
0.0
  9
$EXTMIN
 10
0.0
 20
0.0
 30
0.0
  9
$EXTMAX
 10
2500.0
 20
3200.0
 30
0.0
  9
$LIMMIN
 10
0.0
 20
0.0
  9
$LIMMAX
 10
2500.0
 20
3200.0
  9
$ORTHOMODE
 70
     0
  9
$REGENMODE
 70
     1
  9
$FILLMODE
 70
     1
  9
$QTEXTMODE
 70
     0
  9
$MIRRTEXT
 70
     1
  9
$LTSCALE
 40
208.5925925926
  9
$ATTMODE
 70
     1
  9
$TEXTSIZE
 40
0.2
  9
$TRACEWID
 40
0.05
  9
$TEXTSTYLE
  7
STANDARD
  9
$CLAYER
  8
0
  9
$CELTYPE
  6
BYLAYER
  9
$CECOLOR
 62
   256
  9
$CELTSCALE
 40
1.0
  9
$DISPSILH
 70
     0
  9
$DIMSCALE
 40
1.0
  9
$DIMASZ
 40
2.5
  9
$DIMEXO
 40
0.75
  9
$DIMDLI
 40
144.1185185185
  9
$DIMRND
 40
0.0
  9
$DIMDLE
 40
0.0
  9
$DIMEXE
 40
0.75
  9
$DIMTP
 40
0.01
  9
$DIMTM
 40
0.01
  9
$DIMTXT
 40
3.0
  9
$DIMCEN
 40
34.1333333333
  9
$DIMTSZ
 40
0.0
  9
$DIMTOL
 70
     1
  9
$DIMLIM
 70
     0
  9
$DIMTIH
 70
     1
  9
$DIMTOH
 70
     1
  9
$DIMSE1
 70
     0
  9
$DIMSE2
 70
     0
  9
$DIMTAD
 70
     0
  9
$DIMZIN
 70
     0
  9
$DIMBLK
  1
CLOSED
  9
$DIMASO
 70
     1
  9
$DIMSHO
 70
     1
  9
$DIMPOST
  1

  9
$DIMAPOST
  1

  9
$DIMALT
 70
     0
  9
$DIMALTD
 70
     2
  9
$DIMALTF
 40
25.4
  9
$DIMLFAC
 40
1.0
  9
$DIMTOFL
 70
     0
  9
$DIMTVP
 40
0.0
  9
$DIMTIX
 70
     0
  9
$DIMSOXD
 70
     0
  9
$DIMSAH
 70
     0
  9
$DIMBLK1
  1

  9
$DIMBLK2
  1

  9
$DIMSTYLE
  2
STANDARD
  9
$DIMCLRD
 70
     0
  9
$DIMCLRE
 70
     0
  9
$DIMCLRT
 70
     0
  9
$DIMTFAC
 40
1.0
  9
$DIMGAP
 40
0.625
  9
$DIMJUST
 70
     0
  9
$DIMSD1
 70
     0
  9
$DIMSD2
 70
     0
  9
$DIMTOLJ
 70
     1
  9
$DIMTZIN
 70
     0
  9
$DIMALTZ
 70
     0
  9
$DIMALTTZ
 70
     0
  9
$DIMUPT
 70
     0
  9
$DIMDEC
 70
     4
  9
$DIMTDEC
 70
     4
  9
$DIMALTU
 70
     2
  9
$DIMALTTD
 70
     2
  9
$DIMTXSTY
  7
STANDARD
  9
$DIMAUNIT
 70
     0
  9
$DIMADEC
 70
     0
  9
$DIMALTRND
 40
0.0
  9
$DIMAZIN
 70
     0
  9
$DIMDSEP
 70
    46
  9
$DIMATFIT
 70
     3
  9
$DIMFRAC
 70
     0
  9
$DIMLDRBLK
  1

  9
$DIMLUNIT
 70
     2
  9
$DIMLWD
 70
    -2
  9
$DIMLWE
 70
    -2
  9
$DIMTMOVE
 70
     2
  9
$DIMFXL
 40
1.0
  9
$DIMFXLON
 70
     0
  9
$DIMJOGANG
 40
0.7853981633974483
  9
$DIMTFILL
 70
     0
  9
$DIMTFILLCLR
 70
     0
  9
$DIMARCSYM
 70
     0
  9
$DIMLTYPE
  6

  9
$DIMLTEX1
  6

  9
$DIMLTEX2
  6

  9
$DIMTXTDIRECTION
 70
     0
  9
$LUNITS
 70
     2
  9
$LUPREC
 70
     4
  9
$SKETCHINC
 40
0.1
  9
$FILLETRAD
 40
0.5
  9
$AUNITS
 70
     0
  9
$AUPREC
 70
     0
  9
$MENU
  1
.
  9
$ELEVATION
 40
0.0
  9
$PELEVATION
 40
0.0
  9
$THICKNESS
 40
0.0
  9
$LIMCHECK
 70
     0
  9
$CHAMFERA
 40
0.0
  9
$CHAMFERB
 40
0.0
  9
$CHAMFERC
 40
0.0
  9
$CHAMFERD
 40
0.0
  9
$SKPOLY
 70
     0
  9
$TDCREATE
 40
2447893.041666667
  9
$TDUCREATE
 40
0.0
  9
$TDUPDATE
 40
2458466.568267685
  9
$TDUUPDATE
 40
2458466.526601018
  9
$TDINDWG
 40
0.000278912
  9
$TDUSRTIMER
 40
0.000278912
  9
$USRTIMER
 70
     1
  9
$ANGBASE
 50
0.0
  9
$ANGDIR
 70
     0
  9
$PDMODE
 70
     3
  9
$PDSIZE
 40
0.3125
  9
$PLINEWID
 40
0.0
  9
$SPLFRAME
 70
     0
  9
$SPLINETYPE
 70
     6
  9
$SPLINESEGS
 70
     8
  9
$HANDSEED
  5
564
  9
$SURFTAB1
 70
     6
  9
$SURFTAB2
 70
     6
  9
$SURFTYPE
 70
     6
  9
$SURFU
 70
     6
  9
$SURFV
 70
     6
  9
$UCSBASE
  2

  9
$UCSNAME
  2

  9
$UCSORG
 10
0.0
 20
0.0
 30
0.0
  9
$UCSXDIR
 10
1.0
 20
0.0
 30
0.0
  9
$UCSYDIR
 10
0.0
 20
1.0
 30
0.0
  9
$UCSORTHOREF
  2

  9
$UCSORTHOVIEW
 70
     0
  9
$UCSORGTOP
 10
0.0
 20
0.0
 30
0.0
  9
$UCSORGBOTTOM
 10
0.0
 20
0.0
 30
0.0
  9
$UCSORGLEFT
 10
0.0
 20
0.0
 30
0.0
  9
$UCSORGRIGHT
 10
0.0
 20
0.0
 30
0.0
  9
$UCSORGFRONT
 10
0.0
 20
0.0
 30
0.0
  9
$UCSORGBACK
 10
0.0
 20
0.0
 30
0.0
  9
$PUCSBASE
  2

  9
$PUCSNAME
  2

  9
$PUCSORG
 10
0.0
 20
0.0
 30
0.0
  9
$PUCSXDIR
 10
1.0
 20
0.0
 30
0.0
  9
$PUCSYDIR
 10
0.0
 20
1.0
 30
0.0
  9
$PUCSORTHOREF
  2

  9
$PUCSORTHOVIEW
 70
     0
  9
$PUCSORGTOP
 10
0.0
 20
0.0
 30
0.0
  9
$PUCSORGBOTTOM
 10
0.0
 20
0.0
 30
0.0
  9
$PUCSORGLEFT
 10
0.0
 20
0.0
 30
0.0
  9
$PUCSORGRIGHT
 10
0.0
 20
0.0
 30
0.0
  9
$PUCSORGFRONT
 10
0.0
 20
0.0
 30
0.0
  9
$PUCSORGBACK
 10
0.0
 20
0.0
 30
0.0
  9
$USERI1
 70
     0
  9
$USERI2
 70
     0
  9
$USERI3
 70
     0
  9
$USERI4
 70
     0
  9
$USERI5
 70
     0
  9
$USERR1
 40
0.0
  9
$USERR2
 40
0.0
  9
$USERR3
 40
0.0
  9
$USERR4
 40
0.0
  9
$USERR5
 40
0.0
  9
$WORLDVIEW
 70
     1
  9
$SHADEDGE
 70
     3
  9
$SHADEDIF
 70
    70
  9
$TILEMODE
 70
     0
  9
$MAXACTVP
 70
    64
  9
$PINSBASE
 10
0.0
 20
0.0
 30
0.0
  9
$PLIMCHECK
 70
     0
  9
$PEXTMIN
 10
0.0
 20
0.0
 30
0.0
  9
$PEXTMAX
 10
2504.5154659267
 20
3200.0
 30
0.0
  9
$PLIMMIN
 10
-93.38521400778211
 20
-249.0272373540856
  9
$PLIMMAX
 10
5136.186770428016
 20
3449.027237354086
  9
$UNITMODE
 70
     0
  9
$VISRETAIN
 70
     1
  9
$PLINEGEN
 70
     0
  9
$PSLTSCALE
 70
     1
  9
$TREEDEPTH
 70
  3020
  9
$CMLSTYLE
  2
STANDARD
  9
$CMLJUST
 70
     0
  9
$CMLSCALE
 40
1.0
  9
$PROXYGRAPHICS
 70
     1
  9
$MEASUREMENT
 70
     1
  9
$CELWEIGHT
370
    -1
  9
$ENDCAPS
280
     0
  9
$JOINSTYLE
280
     0
  9
$LWDISPLAY
290
     0
  9
$INSUNITS
 70
     0
  9
$HYPERLINKBASE
  1

  9
$STYLESHEET
  1

  9
$XEDIT
290
     1
  9
$CEPSNTYPE
380
     0
  9
$PSTYLEMODE
290
     1
  9
$FINGERPRINTGUID
  2
{09778186-4D14-4292-A88D-B00E53708D9F}
  9
$VERSIONGUID
  2
{FAEB1C32-E019-11D5-929B-00C0DF256EC4}
  9
$EXTNAMES
290
     1
  9
$PSVPSCALE
 40
0.0
  9
$OLESTARTUP
290
     0
  9
$SORTENTS
280
   127
  9
$INDEXCTL
280
     0
  9
$HIDETEXT
280
     1
  9
$XCLIPFRAME
280
     2
  9
$HALOGAP
280
     0
  9
$OBSCOLOR
 70
   257
  9
$OBSLTYPE
280
     0
  9
$INTERSECTIONDISPLAY
280
     0
  9
$INTERSECTIONCOLOR
 70
   257
  9
$DIMASSOC
280
     2
  9
$PROJECTNAME
  1

  9
$CAMERADISPLAY
290
     0
  9
$LENSLENGTH
 40
50.0
  9
$CAMERAHEIGHT
 40
0.0
  9
$STEPSPERSEC
 40
2.0
  9
$STEPSIZE
 40
6.0
  9
$3DDWFPREC
 40
2.0
  9
$PSOLWIDTH
 40
0.25
  9
$PSOLHEIGHT
 40
4.0
  9
$LOFTANG1
 40
1.570796326794897
  9
$LOFTANG2
 40
1.570796326794897
  9
$LOFTMAG1
 40
0.0
  9
$LOFTMAG2
 40
0.0
  9
$LOFTPARAM
 70
     7
  9
$LOFTNORMALS
280
     1
  9
$LATITUDE
 40
37.795
  9
$LONGITUDE
 40
-122.394
  9
$NORTHDIRECTION
 40
0.0
  9
$TIMEZONE
 70
 -8000
  9
$LIGHTGLYPHDISPLAY
280
     1
  9
$TILEMODELIGHTSYNCH
280
     1
  9
$SOLIDHIST
280
     0
  9
$SHOWHIST
280
     1
  9
$DWFFRAME
280
     2
  9
$DGNFRAME
280
     2
  9
$REALWORLDSCALE
290
     1
  9
$INTERFERECOLOR
 62
   256
  9
$CSHADOW
280
     0
  9
$SHADOWPLANELOCATION
 40
0.0
  0
ENDSEC
  0
SECTION
  2
CLASSES
  0
CLASS
  1
ACDBDICTIONARYWDFLT
  2
AcDbDictionaryWithDefault
  3
ObjectDBX Classes
 90
        0
 91
        4
280
     0
281
     0
  0
CLASS
  1
SCALE
  2
AcDbScale
  3
ObjectDBX Classes
 90
     1153
 91
        4
280
     0
281
     0
  0
CLASS
  1
VISUALSTYLE
  2
AcDbVisualStyle
  3
ObjectDBX Classes
 90
     4095
 91
        4
280
     0
281
     0
  0
CLASS
  1
MATERIAL
  2
AcDbMaterial
  3
ObjectDBX Classes
 90
     1153
 91
        4
280
     0
281
     0
  0
CLASS
  1
TABLESTYLE
  2
AcDbTableStyle
  3
ObjectDBX Classes
 90
     4095
 91
        4
280
     0
281
     0
  0
CLASS
  1
MLEADERSTYLE
  2
AcDbMLeaderStyle
  3
ACDB_MLEADERSTYLE_CLASS
 90
     4095
 91
        4
280
     0
281
     0
  0
CLASS
  1
DICTIONARYVAR
  2
AcDbDictionaryVar
  3
ObjectDBX Classes
 90
        0
 91
        4
280
     0
281
     0
  0
CLASS
  1
CELLSTYLEMAP
  2
AcDbCellStyleMap
  3
ObjectDBX Classes
 90
     1152
 91
        4
280
     0
281
     0
  0
ENDSEC
  0
SECTION
  2
TABLES
  0
TABLE
  2
VPORT
  5
8
330
0
100
AcDbSymbolTable
 70
     1
  0
VPORT
  5
1F4
330
8
100
AcDbSymbolTableRecord
100
AcDbViewportTableRecord
  2
*ACTIVE
 70
     0
 10
0.0
 20
0.0
 11
1.0
 21
1.0
 12
1250.0
 22
1600.0
 13
0.0
 23
0.0
 14
1.0
 24
1.0
 15
0.0
 25
0.0
 16
0.0
 26
0.0
 36
1.0
 17
0.0
 27
0.0
 37
0.0
 40
3200.0
 41
0.78125
 42
50.0
 43
0.0
 44
0.0
 50
0.0
 51
0.0
 71
     0
 72
   100
 73
     1
 74
     1
 75
     0
 76
     0
 77
     0
 78
     0
281
     0
 65
     1
110
0.0
120
0.0
130
0.0
111
1.0
121
0.0
131
0.0
112
0.0
122
1.0
132
0.0
 79
     0
146
0.0
348
53D
 60
     3
 61
     5
292
     1
282
     1
141
0.0
142
0.0
 63
   256
  0
ENDTAB
  0
TABLE
  2
LTYPE
  5
5
330
0
100
AcDbSymbolTable
 70
     6
  0
LTYPE
  5
14
330
5
100
AcDbSymbolTableRecord
100
AcDbLinetypeTableRecord
  2
BYBLOCK
 70
     0
  3

 72
    65
 73
     0
 40
0.0
  0
LTYPE
  5
15
330
5
100
AcDbSymbolTableRecord
100
AcDbLinetypeTableRecord
  2
BYLAYER
 70
     0
  3

 72
    65
 73
     0
 40
0.0
  0
LTYPE
  5
16
330
5
100
AcDbSymbolTableRecord
100
AcDbLinetypeTableRecord
  2
CONTINUOUS
 70
     0
  3
Solid line
 72
    65
 73
     0
 40
0.0
  0
LTYPE
  5
1F5
330
5
100
AcDbSymbolTableRecord
100
AcDbLinetypeTableRecord
  2
CENTER
 70
     0
  3
____ _ ____ _ ____ _ ____ _ ____ _ ____ _ ____
 72
    65
 73
     4
 40
0.6
 49
0.375
 74
     0
 49
-0.075
 74
     0
 49
0.075
 74
     0
 49
-0.075
 74
     0
  0
LTYPE
  5
1F6
330
5
100
AcDbSymbolTableRecord
100
AcDbLinetypeTableRecord
  2
HIDDEN
 70
     0
  3
- - - - - - - - - - - - - - - - - - - -
 72
    65
 73
     2
 40
0.2
 49
0.1
 74
     0
 49
-0.1
 74
     0
  0
LTYPE
  5
1F7
330
5
100
AcDbSymbolTableRecord
100
AcDbLinetypeTableRecord
  2
PHANTOM
 70
     0
  3
_____ _ _ _____ _ _ _____ _ _ _____
 72
    65
 73
     6
 40
0.8
 49
0.45
 74
     0
 49
-0.05
 74
     0
 49
0.1
 74
     0
 49
-0.05
 74
     0
 49
0.1
 74
     0
 49
-0.05
 74
     0
  0
LTYPE
  5
1F8
330
5
100
AcDbSymbolTableRecord
100
AcDbLinetypeTableRecord
  2
DOT
 70
     0
  3
. . . . . . . . . . . . . . . . . . . .
 72
    65
 73
     2
 40
0.2
 49
0.1
 74
     0
 49
-0.1
 74
     0
  0
LTYPE
  5
1F9
330
5
100
AcDbSymbolTableRecord
100
AcDbLinetypeTableRecord
  2
DASHED
 70
     0
  3
- - - - - - - - - - - - - - - - - - - -
 72
    65
 73
     2
 40
0.2
 49
0.1
 74
     0
 49
-0.1
 74
     0
  0
ENDTAB
  0
TABLE
  2
LAYER
  5
2
330
0
100
AcDbSymbolTable
 70
    40
  0
LAYER
  5
10
330
2
100
AcDbSymbolTableRecord
100
AcDbLayerTableRecord
  2
0
 70
     0
 62
     7
  6
CONTINUOUS
370
    -3
390
512
347
554
348
0
  0
LAYER
  5
1FA
330
2
100
AcDbSymbolTableRecord
100
AcDbLayerTableRecord
  2
DEFAULT_1
 70
     0
 62
     7
  6
CENTER
370
    -3
390
512
347
554
348
0
  0
LAYER
  5
1FB
330
2
100
AcDbSymbolTableRecord
100
AcDbLayerTableRecord
  2
DEFAULT_2
 70
     0
 62
     8
  6
HIDDEN
370
    -3
390
512
347
554
348
0
  0
LAYER
  5
1FC
330
2
100
AcDbSymbolTableRecord
100
AcDbLayerTableRecord
  2
DEFAULT_3
 70
     0
 62
     7
  6
PHANTOM
370
    -3
390
512
347
554
348
0
  0
LAYER
  5
1FD
330
2
100
AcDbSymbolTableRecord
100
AcDbLayerTableRecord
  2
01_ALL_DTM_PLN
 70
     0
 62
     7
  6
CONTINUOUS
370
    -3
390
512
347
554
348
0
  0
LAYER
  5
1FE
330
2
100
AcDbSymbolTableRecord
100
AcDbLayerTableRecord
  2
01__ASM_ALL_DTM_PLN
 70
     0
 62
     7
  6
CONTINUOUS
370
    -3
390
512
347
554
348
0
  0
LAYER
  5
1FF
330
2
100
AcDbSymbolTableRecord
100
AcDbLayerTableRecord
  2
01__ASM_DEF_DTM_PLN
 70
     0
 62
     7
  6
CONTINUOUS
370
    -3
390
512
347
554
348
0
  0
LAYER
  5
200
330
2
100
AcDbSymbolTableRecord
100
AcDbLayerTableRecord
  2
01___PRT_ALL_DTM_PLN
 70
     0
 62
     7
  6
CONTINUOUS
370
    -3
390
512
347
554
348
0
  0
LAYER
  5
201
330
2
100
AcDbSymbolTableRecord
100
AcDbLayerTableRecord
  2
01___PRT_DEF_DTM_PLN
 70
     0
 62
     7
  6
CONTINUOUS
370
    -3
390
512
347
554
348
0
  0
LAYER
  5
202
330
2
100
AcDbSymbolTableRecord
100
AcDbLayerTableRecord
  2
02_ALL_AXES
 70
     0
 62
     7
  6
CONTINUOUS
370
    -3
390
512
347
554
348
0
  0
LAYER
  5
203
330
2
100
AcDbSymbolTableRecord
100
AcDbLayerTableRecord
  2
02__ASM_ALL_AXES
 70
     0
 62
     7
  6
CONTINUOUS
370
    -3
390
512
347
554
348
0
  0
LAYER
  5
204
330
2
100
AcDbSymbolTableRecord
100
AcDbLayerTableRecord
  2
02___PRT_ALL_AXES
 70
     0
 62
     7
  6
CONTINUOUS
370
    -3
390
512
347
554
348
0
  0
LAYER
  5
205
330
2
100
AcDbSymbolTableRecord
100
AcDbLayerTableRecord
  2
03_ALL_CURVES
 70
     0
 62
     7
  6
CONTINUOUS
370
    -3
390
512
347
554
348
0
  0
LAYER
  5
206
330
2
100
AcDbSymbolTableRecord
100
AcDbLayerTableRecord
  2
03__ASM_ALL_CURVES
 70
     0
 62
     7
  6
CONTINUOUS
370
    -3
390
512
347
554
348
0
  0
LAYER
  5
207
330
2
100
AcDbSymbolTableRecord
100
AcDbLayerTableRecord
  2
03___PRT_ALL_CURVES
 70
     0
 62
     7
  6
CONTINUOUS
370
    -3
390
512
347
554
348
0
  0
LAYER
  5
208
330
2
100
AcDbSymbolTableRecord
100
AcDbLayerTableRecord
  2
04_ALL_DTM_PNT
 70
     0
 62
     7
  6
CONTINUOUS
370
    -3
390
512
347
554
348
0
  0
LAYER
  5
209
330
2
100
AcDbSymbolTableRecord
100
AcDbLayerTableRecord
  2
04__ASM_ALL_DTM_PNT
 70
     0
 62
     7
  6
CONTINUOUS
370
    -3
390
512
347
554
348
0
  0
LAYER
  5
20A
330
2
100
AcDbSymbolTableRecord
100
AcDbLayerTableRecord
  2
04___PRT_ALL_DTM_PNT
 70
     0
 62
     7
  6
CONTINUOUS
370
    -3
390
512
347
554
348
0
  0
LAYER
  5
20B
330
2
100
AcDbSymbolTableRecord
100
AcDbLayerTableRecord
  2
05_ALL_DTM_CSYS
 70
     0
 62
     7
  6
CONTINUOUS
370
    -3
390
512
347
554
348
0
  0
LAYER
  5
20C
330
2
100
AcDbSymbolTableRecord
100
AcDbLayerTableRecord
  2
05__ASM_ALL_DTM_CSYS
 70
     0
 62
     7
  6
CONTINUOUS
370
    -3
390
512
347
554
348
0
  0
LAYER
  5
20D
330
2
100
AcDbSymbolTableRecord
100
AcDbLayerTableRecord
  2
05__ASM_DEF_DTM_CSYS
 70
     0
 62
     7
  6
CONTINUOUS
370
    -3
390
512
347
554
348
0
  0
LAYER
  5
20E
330
2
100
AcDbSymbolTableRecord
100
AcDbLayerTableRecord
  2
05___PRT_ALL_DTM_CSYS
 70
     0
 62
     7
  6
CONTINUOUS
370
    -3
390
512
347
554
348
0
  0
LAYER
  5
20F
330
2
100
AcDbSymbolTableRecord
100
AcDbLayerTableRecord
  2
05___PRT_DEF_DTM_CSYS
 70
     0
 62
     7
  6
CONTINUOUS
370
    -3
390
512
347
554
348
0
  0
LAYER
  5
210
330
2
100
AcDbSymbolTableRecord
100
AcDbLayerTableRecord
  2
06_ALL_SURFS
 70
     0
 62
     7
  6
CONTINUOUS
370
    -3
390
512
347
554
348
0
  0
LAYER
  5
211
330
2
100
AcDbSymbolTableRecord
100
AcDbLayerTableRecord
  2
06__ASM_ALL_SURFS
 70
     0
 62
     7
  6
CONTINUOUS
370
    -3
390
512
347
554
348
0
  0
LAYER
  5
212
330
2
100
AcDbSymbolTableRecord
100
AcDbLayerTableRecord
  2
06___PRT_ALL_SURFS
 70
     0
 62
     7
  6
CONTINUOUS
370
    -3
390
512
347
554
348
0
  0
LAYER
  5
213
330
2
100
AcDbSymbolTableRecord
100
AcDbLayerTableRecord
  2
07__ASM_ALL_SKELETONS
 70
     0
 62
     7
  6
CONTINUOUS
370
    -3
390
512
347
554
348
0
  0
LAYER
  5
214
330
2
100
AcDbSymbolTableRecord
100
AcDbLayerTableRecord
  2
1_ALL_PLANES
 70
     0
 62
     7
  6
CONTINUOUS
370
    -3
390
512
347
554
348
0
  0
LAYER
  5
215
330
2
100
AcDbSymbolTableRecord
100
AcDbLayerTableRecord
  2
2_ALL_CSYS
 70
     0
 62
     7
  6
CONTINUOUS
370
    -3
390
512
347
554
348
0
  0
LAYER
  5
216
330
2
100
AcDbSymbolTableRecord
100
AcDbLayerTableRecord
  2
3_ALL_AXES
 70
     0
 62
     7
  6
CONTINUOUS
370
    -3
390
512
347
554
348
0
  0
LAYER
  5
217
330
2
100
AcDbSymbolTableRecord
100
AcDbLayerTableRecord
  2
4_ALL_POINTS
 70
     0
 62
     7
  6
CONTINUOUS
370
    -3
390
512
347
554
348
0
  0
LAYER
  5
218
330
2
100
AcDbSymbolTableRecord
100
AcDbLayerTableRecord
  2
5_ALL_CURVES
 70
     0
 62
     7
  6
CONTINUOUS
370
    -3
390
512
347
554
348
0
  0
LAYER
  5
219
330
2
100
AcDbSymbolTableRecord
100
AcDbLayerTableRecord
  2
5__COSTRUZIONE
 70
     0
 62
     7
  6
CONTINUOUS
370
    -3
390
512
347
554
348
0
  0
LAYER
  5
21A
330
2
100
AcDbSymbolTableRecord
100
AcDbLayerTableRecord
  2
6_ALL_SURFS
 70
     0
 62
     7
  6
CONTINUOUS
370
    -3
390
512
347
554
348
0
  0
LAYER
  5
21B
330
2
100
AcDbSymbolTableRecord
100
AcDbLayerTableRecord
  2
7_ALL_FEATURES
 70
     0
 62
     7
  6
CONTINUOUS
370
    -3
390
512
347
554
348
0
  0
LAYER
  5
21C
330
2
100
AcDbSymbolTableRecord
100
AcDbLayerTableRecord
  2
9_SOLID
 70
     0
 62
     7
  6
CONTINUOUS
370
    -3
390
512
347
554
348
0
  0
LAYER
  5
21D
330
2
100
AcDbSymbolTableRecord
100
AcDbLayerTableRecord
  2
INTFCLR_2
 70
     0
 62
     7
  6
CONTINUOUS
370
    -3
390
512
347
554
348
0
  0
LAYER
  5
21E
330
2
100
AcDbSymbolTableRecord
100
AcDbLayerTableRecord
  2
INTFCLR_4
 70
     0
 62
     7
  6
CONTINUOUS
370
    -3
390
512
347
554
348
0
  0
LAYER
  5
21F
330
2
100
AcDbSymbolTableRecord
100
AcDbLayerTableRecord
  2
INTF_RED
 70
     0
 62
     7
  6
CONTINUOUS
370
    -3
390
512
347
554
348
0
  0
LAYER
  5
220
330
2
100
AcDbSymbolTableRecord
100
AcDbLayerTableRecord
  2
XXX_SOLIDO
 70
     0
 62
     7
  6
CONTINUOUS
370
    -3
390
512
347
554
348
0
  0
ENDTAB
  0
TABLE
  2
STYLE
  5
3
330
0
100
AcDbSymbolTable
 70
     4
  0
STYLE
  5
11
330
3
100
AcDbSymbolTableRecord
100
AcDbTextStyleTableRecord
  2
STANDARD
 70
     0
 40
0.0
 41
1.0
 50
0.0
 71
     0
 42
0.2
  3
arial.ttf
  4

  0
STYLE
  5
221
330
3
100
AcDbSymbolTableRecord
100
AcDbTextStyleTableRecord
  2
TEXTSTYLE_1
 70
     0
 40
0.0
 41
0.8
 50
0.0
 71
     0
 42
0.2
  3
gdt
  4

  0
STYLE
  5
222
330
3
100
AcDbSymbolTableRecord
100
AcDbTextStyleTableRecord
  2
TEXTSTYLE_2
 70
     0
 40
0.0
 41
2.0
 50
0.0
 71
     0
 42
0.2
  3
txt
  4

  0
STYLE
  5
223
330
3
100
AcDbSymbolTableRecord
100
AcDbTextStyleTableRecord
  2
TEXTSTYLE_3
 70
     0
 40
0.0
 41
0.85
 50
0.0
 71
     0
 42
0.2
  3
txt
  4

  0
ENDTAB
  0
TABLE
  2
VIEW
  5
6
330
0
100
AcDbSymbolTable
 70
     0
  0
ENDTAB
  0
TABLE
  2
UCS
  5
7
330
0
100
AcDbSymbolTable
 70
     0
  0
ENDTAB
  0
TABLE
  2
APPID
  5
9
330
0
100
AcDbSymbolTable
 70
     1
  0
APPID
  5
224
330
9
100
AcDbSymbolTableRecord
100
AcDbRegAppTableRecord
  2
ACAD
 70
     0
  0
ENDTAB
  0
TABLE
  2
DIMSTYLE
  5
A
330
0
100
AcDbSymbolTable
 70
     3
100
AcDbDimStyleTable
  0
DIMSTYLE
105
22E
330
A
100
AcDbSymbolTableRecord
100
AcDbDimStyleTableRecord
  2
STANDARD
 70
     0
 41
2.5
 42
0.75
 44
0.75
 47
0.01
 48
0.01
 71
     1
 73
     0
 74
     0
 77
     1
 78
     8
 79
     2
140
3.0
147
0.625
171
     1
178
     0
179
     2
271
     2
272
     2
284
     8
340
11
341
225
342
225
343
225
344
225
  0
DIMSTYLE
105
22F
330
A
100
AcDbSymbolTableRecord
100
AcDbDimStyleTableRecord
  2
DIMSTYLE_1
 70
     0
 41
2.5
 42
0.75
 44
0.75
 47
1.2
 48
1.2
 73
     0
 74
     0
 77
     1
 78
     8
 79
     2
140
3.0
147
0.75
171
     1
178
     0
179
     2
271
     2
272
     2
284
     8
340
11
341
225
342
225
343
225
344
225
  0
DIMSTYLE
105
230
330
A
100
AcDbSymbolTableRecord
100
AcDbDimStyleTableRecord
  2
DIMSTYLE_2
 70
     0
 41
2.5
 42
0.75
 44
0.75
 47
0.3
 48
0.3
 73
     0
 74
     0
 77
     1
 78
     8
 79
     2
140
3.0
147
0.75
171
     1
178
     0
179
     2
271
     2
272
     2
284
     8
340
11
341
225
342
225
343
225
344
225
  0
ENDTAB
  0
TABLE
  2
BLOCK_RECORD
  5
1
330
0
100
AcDbSymbolTable
 70
     9
  0
BLOCK_RECORD
  5
1F
330
1
100
AcDbSymbolTableRecord
100
AcDbBlockTableRecord
  2
*MODEL_SPACE
340
536
 70
     0
280
     1
281
     0
  0
BLOCK_RECORD
  5
1B
330
1
100
AcDbSymbolTableRecord
100
AcDbBlockTableRecord
  2
*PAPER_SPACE
340
537
 70
     0
280
     1
281
     0
  0
BLOCK_RECORD
  5
225
330
1
100
AcDbSymbolTableRecord
100
AcDbBlockTableRecord
  2
_CLOSED
340
0
102
{BLKREFS
331
283
331
284
331
28C
331
28D
331
295
331
296
331
29E
331
29F
331
2A7
331
2A8
331
2B0
331
2B1
102
}
 70
     0
280
     1
281
     0
  0
BLOCK_RECORD
  5
226
330
1
100
AcDbSymbolTableRecord
100
AcDbBlockTableRecord
  2
*D1
340
0
 70
     0
280
     1
281
     0
  0
BLOCK_RECORD
  5
227
330
1
100
AcDbSymbolTableRecord
100
AcDbBlockTableRecord
  2
*D2
340
0
 70
     0
280
     1
281
     0
  0
BLOCK_RECORD
  5
228
330
1
100
AcDbSymbolTableRecord
100
AcDbBlockTableRecord
  2
*D3
340
0
 70
     0
280
     1
281
     0
  0
BLOCK_RECORD
  5
229
330
1
100
AcDbSymbolTableRecord
100
AcDbBlockTableRecord
  2
*D4
340
0
 70
     0
280
     1
281
     0
  0
BLOCK_RECORD
  5
22A
330
1
100
AcDbSymbolTableRecord
100
AcDbBlockTableRecord
  2
*D5
340
0
 70
     0
280
     1
281
     0
  0
BLOCK_RECORD
  5
22B
330
1
100
AcDbSymbolTableRecord
100
AcDbBlockTableRecord
  2
*D6
340
0
 70
     0
280
     1
281
     0
  0
BLOCK_RECORD
  5
22C
330
1
100
AcDbSymbolTableRecord
100
AcDbBlockTableRecord
  2
LOGO2_BL1
340
0
102
{BLKREFS
331
4FA
102
}
 70
     0
280
     1
281
     0
  0
BLOCK_RECORD
  5
22D
330
1
100
AcDbSymbolTableRecord
100
AcDbBlockTableRecord
  2
PROIEZIONE_EU_BL0
340
0
102
{BLKREFS
331
4F7
102
}
 70
     0
280
     1
281
     0
  0
ENDTAB
  0
ENDSEC
  0
SECTION
  2
BLOCKS
  0
BLOCK
  5
20
330
1F
100
AcDbEntity
  8
0
100
AcDbBlockBegin
  2
*MODEL_SPACE
 70
     0
 10
0.0
 20
0.0
 30
0.0
  3
*MODEL_SPACE
  1

  0
ENDBLK
  5
21
330
1F
100
AcDbEntity
  8
0
100
AcDbBlockEnd
  0
BLOCK
  5
1C
330
1B
100
AcDbEntity
 67
     1
  8
0
100
AcDbBlockBegin
  2
*PAPER_SPACE
 70
     0
 10
0.0
 20
0.0
 30
0.0
  3
*PAPER_SPACE
  1

  0
ENDBLK
  5
1D
330
1B
100
AcDbEntity
 67
     1
  8
0
100
AcDbBlockEnd
  0
BLOCK
  5
277
330
225
100
AcDbEntity
  8
0
100
AcDbBlockBegin
  2
_CLOSED
 70
     0
 10
0.0
 20
0.0
 30
0.0
  3
_CLOSED
  1

  0
LINE
  5
278
330
225
100
AcDbEntity
  8
0
  6
ByBlock
 62
     0
100
AcDbLine
 10
0.0
 20
0.0
 30
0.0
 11
-1.0
 21
0.2
 31
0.0
  0
LINE
  5
279
330
225
100
AcDbEntity
  8
0
  6
ByBlock
 62
     0
100
AcDbLine
 10
-1.0
 20
0.2
 30
0.0
 11
-1.0
 21
-0.2
 31
0.0
  0
LINE
  5
27A
330
225
100
AcDbEntity
  8
0
  6
ByBlock
 62
     0
100
AcDbLine
 10
-1.0
 20
-0.2
 30
0.0
 11
0.0
 21
0.0
 31
0.0
  0
LINE
  5
27B
330
225
100
AcDbEntity
  8
0
  6
ByBlock
 62
     0
100
AcDbLine
 10
-1.0
 20
0.0
 30
0.0
 11
0.0
 21
0.0
 31
0.0
  0
ENDBLK
  5
27C
330
225
100
AcDbEntity
  8
0
  6
ByBlock
 62
     0
100
AcDbBlockEnd
  0
BLOCK
  5
27D
330
226
100
AcDbEntity
  8
0
100
AcDbBlockBegin
  2
*D1
 70
     1
 10
0.0
 20
0.0
 30
0.0
  3
*D1
  1

  0
MTEXT
  5
27E
330
226
100
AcDbEntity
  8
0
  6
Continuous
 62
     2
100
AcDbMText
 10
1611.5559895833
 20
608.8495470929
 30
0.0
 40
3.0
 41
9.3234200743
 46
0.0
 71
     2
 72
     1
  1
1042
 73
     1
 44
1.0
  0
LINE
  5
27F
330
226
100
AcDbEntity
  8
0
  6
Continuous
 62
     2
100
AcDbLine
 10
1090.5559895833
 20
588.7565649888
 30
0.0
 11
1090.5559895833
 21
605.8495470929
 31
0.0
  0
LINE
  5
280
330
226
100
AcDbEntity
  8
0
  6
Continuous
 62
     2
100
AcDbLine
 10
2132.5559895833
 20
589.3107155618
 30
0.0
 11
2132.5559895833
 21
605.8495470929
 31
0.0
  0
LINE
  5
281
330
226
100
AcDbEntity
  8
0
  6
Continuous
 62
     2
100
AcDbLine
 10
1090.5559895833
 20
605.0995470929
 30
0.0
 11
1611.5559895833
 21
605.0995470929
 31
0.0
  0
LINE
  5
282
330
226
100
AcDbEntity
  8
0
  6
Continuous
 62
     2
100
AcDbLine
 10
2132.5559895833
 20
605.0995470929
 30
0.0
 11
1611.5559895833
 21
605.0995470929
 31
0.0
  0
INSERT
  5
283
330
226
100
AcDbEntity
  8
0
  6
Continuous
 62
     2
100
AcDbBlockReference
  2
_CLOSED
 10
1090.5559895833
 20
605.0995470929
 30
0.0
 41
2.5
 42
2.5
 43
2.5
 50
180.0
  0
INSERT
  5
284
330
226
100
AcDbEntity
  8
0
  6
Continuous
 62
     2
100
AcDbBlockReference
  2
_CLOSED
 10
2132.5559895833
 20
605.0995470929
 30
0.0
 41
2.5
 42
2.5
 43
2.5
  0
ENDBLK
  5
285
330
226
100
AcDbEntity
  8
0
  6
ByBlock
 62
     0
100
AcDbBlockEnd
  0
BLOCK
  5
286
330
227
100
AcDbEntity
  8
0
100
AcDbBlockBegin
  2
*D2
 70
     1
 10
0.0
 20
0.0
 30
0.0
  3
*D2
  1

  0
MTEXT
  5
287
330
227
100
AcDbEntity
  8
0
  6
Continuous
 62
     2
100
AcDbMText
 10
2290.1796910191
 20
603.7422667491
 30
0.0
 40
3.0
 41
8.1524163569
 46
0.0
 71
     2
 72
     1
  1
44,3
 73
     1
 44
1.0
  0
LINE
  5
288
330
227
100
AcDbEntity
  8
0
  6
Continuous
 62
     2
100
AcDbLine
 10
2268.0296910191
 20
584.2720070246
 30
0.0
 11
2268.0296910191
 21
600.7422667491
 31
0.0
  0
LINE
  5
289
330
227
100
AcDbEntity
  8
0
  6
Continuous
 62
     2
100
AcDbLine
 10
2312.3296910191
 20
578.5763386824
 30
0.0
 11
2312.3296910191
 21
600.7422667491
 31
0.0
  0
LINE
  5
28A
330
227
100
AcDbEntity
  8
0
  6
Continuous
 62
     2
100
AcDbLine
 10
2268.0296910191
 20
599.9922667491
 30
0.0
 11
2290.1796910191
 21
599.9922667491
 31
0.0
  0
LINE
  5
28B
330
227
100
AcDbEntity
  8
0
  6
Continuous
 62
     2
100
AcDbLine
 10
2312.3296910191
 20
599.9922667491
 30
0.0
 11
2290.1796910191
 21
599.9922667491
 31
0.0
  0
INSERT
  5
28C
330
227
100
AcDbEntity
  8
0
  6
Continuous
 62
     2
100
AcDbBlockReference
  2
_CLOSED
 10
2268.0296910191
 20
599.9922667491
 30
0.0
 41
2.5
 42
2.5
 43
2.5
 50
180.0
  0
INSERT
  5
28D
330
227
100
AcDbEntity
  8
0
  6
Continuous
 62
     2
100
AcDbBlockReference
  2
_CLOSED
 10
2312.3296910191
 20
599.9922667491
 30
0.0
 41
2.5
 42
2.5
 43
2.5
  0
ENDBLK
  5
28E
330
227
100
AcDbEntity
  8
0
  6
ByBlock
 62
     0
100
AcDbBlockEnd
  0
BLOCK
  5
28F
330
228
100
AcDbEntity
  8
0
100
AcDbBlockBegin
  2
*D3
 70
     1
 10
0.0
 20
0.0
 30
0.0
  3
*D3
  1

  0
MTEXT
  5
290
330
228
100
AcDbEntity
  8
0
  6
Continuous
 62
     2
100
AcDbMText
 10
2290.1796910191
 20
488.2831311322
 30
0.0
 40
3.0
 41
8.1524163569
 46
0.0
 71
     2
 72
     1
  1
42,4
 73
     1
 44
1.0
  0
LINE
  5
291
330
228
100
AcDbEntity
  8
0
  6
Continuous
 62
     2
100
AcDbLine
 10
2268.9796910191
 20
492.8587308591
 30
0.0
 11
2268.9796910191
 21
483.7831311322
 31
0.0
  0
LINE
  5
292
330
228
100
AcDbEntity
  8
0
  6
Continuous
 62
     2
100
AcDbLine
 10
2311.3796910191
 20
492.1487038908
 30
0.0
 11
2311.3796910191
 21
483.7831311322
 31
0.0
  0
LINE
  5
293
330
228
100
AcDbEntity
  8
0
  6
Continuous
 62
     2
100
AcDbLine
 10
2268.9796910191
 20
484.5331311322
 30
0.0
 11
2290.1796910191
 21
484.5331311322
 31
0.0
  0
LINE
  5
294
330
228
100
AcDbEntity
  8
0
  6
Continuous
 62
     2
100
AcDbLine
 10
2311.3796910191
 20
484.5331311322
 30
0.0
 11
2290.1796910191
 21
484.5331311322
 31
0.0
  0
INSERT
  5
295
330
228
100
AcDbEntity
  8
0
  6
Continuous
 62
     2
100
AcDbBlockReference
  2
_CLOSED
 10
2268.9796910191
 20
484.5331311322
 30
0.0
 41
2.5
 42
2.5
 43
2.5
 50
180.0
  0
INSERT
  5
296
330
228
100
AcDbEntity
  8
0
  6
Continuous
 62
     2
100
AcDbBlockReference
  2
_CLOSED
 10
2311.3796910191
 20
484.5331311322
 30
0.0
 41
2.5
 42
2.5
 43
2.5
  0
ENDBLK
  5
297
330
228
100
AcDbEntity
  8
0
  6
ByBlock
 62
     0
100
AcDbBlockEnd
  0
BLOCK
  5
298
330
229
100
AcDbEntity
  8
0
100
AcDbBlockBegin
  2
*D4
 70
     1
 10
0.0
 20
0.0
 30
0.0
  3
*D4
  1

  0
MTEXT
  5
299
330
229
100
AcDbEntity
  8
0
  6
Continuous
 62
     2
100
AcDbMText
 10
2225.4652103823
 20
536.6763386824
 30
0.0
 40
3.0
 41
8.1524163569
 46
0.0
 71
     2
 72
     1
  1
83,5
 11
0.0
 21
1.0
 31
0.0
 73
     1
 44
1.0
  0
LINE
  5
29A
330
229
100
AcDbEntity
  8
0
  6
Continuous
 62
     2
100
AcDbLine
 10
2259.5241808589
 20
494.9263386824
 30
0.0
 11
2228.4652103823
 21
494.9263386824
 31
0.0
  0
LINE
  5
29B
330
229
100
AcDbEntity
  8
0
  6
Continuous
 62
     2
100
AcDbLine
 10
2255.0667012869
 20
578.4263386824
 30
0.0
 11
2228.4652103823
 21
578.4263386824
 31
0.0
  0
LINE
  5
29C
330
229
100
AcDbEntity
  8
0
  6
Continuous
 62
     2
100
AcDbLine
 10
2229.2152103823
 20
494.9263386824
 30
0.0
 11
2229.2152103823
 21
536.6763386824
 31
0.0
  0
LINE
  5
29D
330
229
100
AcDbEntity
  8
0
  6
Continuous
 62
     2
100
AcDbLine
 10
2229.2152103823
 20
578.4263386824
 30
0.0
 11
2229.2152103823
 21
536.6763386824
 31
0.0
  0
INSERT
  5
29E
330
229
100
AcDbEntity
  8
0
  6
Continuous
 62
     2
100
AcDbBlockReference
  2
_CLOSED
 10
2229.2152103823
 20
494.9263386824
 30
0.0
 41
2.5
 42
2.5
 43
2.5
 50
270.0
  0
INSERT
  5
29F
330
229
100
AcDbEntity
  8
0
  6
Continuous
 62
     2
100
AcDbBlockReference
  2
_CLOSED
 10
2229.2152103823
 20
578.4263386824
 30
0.0
 41
2.5
 42
2.5
 43
2.5
 50
90.0
  0
ENDBLK
  5
2A0
330
229
100
AcDbEntity
  8
0
  6
ByBlock
 62
     0
100
AcDbBlockEnd
  0
BLOCK
  5
2A1
330
22A
100
AcDbEntity
  8
0
100
AcDbBlockBegin
  2
*D5
 70
     1
 10
0.0
 20
0.0
 30
0.0
  3
*D5
  1

  0
MTEXT
  5
2A2
330
22A
100
AcDbEntity
  8
0
  6
Continuous
 62
     2
100
AcDbMText
 10
2361.2108636737
 20
543.7263386824
 30
0.0
 40
3.0
 41
8.1524163569
 46
0.0
 71
     2
 72
     1
  1
70,6
 11
0.0
 21
1.0
 31
0.0
 73
     1
 44
1.0
  0
LINE
  5
2A3
330
22A
100
AcDbEntity
  8
0
  6
Continuous
 62
     2
100
AcDbLine
 10
2337.4796910191
 20
508.4263386824
 30
0.0
 11
2365.7108636737
 21
508.4263386824
 31
0.0
  0
LINE
  5
2A4
330
22A
100
AcDbEntity
  8
0
  6
Continuous
 62
     2
100
AcDbLine
 10
2311.8796910191
 20
579.0263386824
 30
0.0
 11
2365.7108636737
 21
579.0263386824
 31
0.0
  0
LINE
  5
2A5
330
22A
100
AcDbEntity
  8
0
  6
Continuous
 62
     2
100
AcDbLine
 10
2364.9608636737
 20
508.4263386824
 30
0.0
 11
2364.9608636737
 21
543.7263386824
 31
0.0
  0
LINE
  5
2A6
330
22A
100
AcDbEntity
  8
0
  6
Continuous
 62
     2
100
AcDbLine
 10
2364.9608636737
 20
579.0263386824
 30
0.0
 11
2364.9608636737
 21
543.7263386824
 31
0.0
  0
INSERT
  5
2A7
330
22A
100
AcDbEntity
  8
0
  6
Continuous
 62
     2
100
AcDbBlockReference
  2
_CLOSED
 10
2364.9608636737
 20
508.4263386824
 30
0.0
 41
2.5
 42
2.5
 43
2.5
 50
270.0
  0
INSERT
  5
2A8
330
22A
100
AcDbEntity
  8
0
  6
Continuous
 62
     2
100
AcDbBlockReference
  2
_CLOSED
 10
2364.9608636737
 20
579.0263386824
 30
0.0
 41
2.5
 42
2.5
 43
2.5
 50
90.0
  0
ENDBLK
  5
2A9
330
22A
100
AcDbEntity
  8
0
  6
ByBlock
 62
     0
100
AcDbBlockEnd
  0
BLOCK
  5
2AA
330
22B
100
AcDbEntity
  8
0
100
AcDbBlockBegin
  2
*D6
 70
     1
 10
0.0
 20
0.0
 30
0.0
  3
*D6
  1

  0
MTEXT
  5
2AB
330
22B
100
AcDbEntity
  8
0
  6
Continuous
 62
     2
100
AcDbMText
 10
2143.4478621448
 20
273.3600436374
 30
0.0
 40
3.0
 41
8.1524163569
 46
0.0
 71
     2
 72
     1
  1
93,1
 11
0.0
 21
1.0
 31
0.0
 73
     1
 44
1.0
  0
LINE
  5
2AC
330
22B
100
AcDbEntity
  8
0
  6
Continuous
 62
     2
100
AcDbLine
 10
2133.9252699022
 20
226.8100436374
 30
0.0
 11
2147.9478621448
 21
226.8100436374
 31
0.0
  0
LINE
  5
2AD
330
22B
100
AcDbEntity
  8
0
  6
Continuous
 62
     2
100
AcDbLine
 10
2132.6870811323
 20
319.9100436374
 30
0.0
 11
2147.9478621448
 21
319.9100436374
 31
0.0
  0
LINE
  5
2AE
330
22B
100
AcDbEntity
  8
0
  6
Continuous
 62
     2
100
AcDbLine
 10
2147.1978621448
 20
226.8100436374
 30
0.0
 11
2147.1978621448
 21
273.3600436374
 31
0.0
  0
LINE
  5
2AF
330
22B
100
AcDbEntity
  8
0
  6
Continuous
 62
     2
100
AcDbLine
 10
2147.1978621448
 20
319.9100436374
 30
0.0
 11
2147.1978621448
 21
273.3600436374
 31
0.0
  0
INSERT
  5
2B0
330
22B
100
AcDbEntity
  8
0
  6
Continuous
 62
     2
100
AcDbBlockReference
  2
_CLOSED
 10
2147.1978621448
 20
226.8100436374
 30
0.0
 41
2.5
 42
2.5
 43
2.5
 50
270.0
  0
INSERT
  5
2B1
330
22B
100
AcDbEntity
  8
0
  6
Continuous
 62
     2
100
AcDbBlockReference
  2
_CLOSED
 10
2147.1978621448
 20
319.9100436374
 30
0.0
 41
2.5
 42
2.5
 43
2.5
 50
90.0
  0
ENDBLK
  5
2B2
330
22B
100
AcDbEntity
  8
0
  6
ByBlock
 62
     0
100
AcDbBlockEnd
  0
BLOCK
  5
231
330
22C
100
AcDbEntity
  8
0
100
AcDbBlockBegin
  2
LOGO2_BL1
 70
     0
 10
2379.3165129715
 20
34.645433406
 30
0.0
  3
LOGO2_BL1
  1

  0
LINE
  5
232
330
22C
100
AcDbEntity
  8
0
  6
Continuous
 62
     7
100
AcDbLine
 10
2371.0594381997
 20
37.8409247449
 30
0.0
 11
2369.7550972703
 21
37.8409247449
 31
0.0
  0
LINE
  5
233
330
22C
100
AcDbEntity
  8
0
  6
Continuous
 62
     7
100
AcDbLine
 10
2369.7550972703
 20
37.8409247449
 30
0.0
 11
2369.7550972703
 21
27.381858685
 31
0.0
  0
LINE
  5
234
330
22C
100
AcDbEntity
  8
0
  6
Continuous
 62
     7
100
AcDbLine
 10
2369.7550972703
 20
27.381858685
 30
0.0
 11
2374.2361521586
 21
27.381858685
 31
0.0
  0
LINE
  5
235
330
22C
100
AcDbEntity
  8
0
  6
Continuous
 62
     7
100
AcDbLine
 10
2374.2361521586
 20
27.381858685
 30
0.0
 11
2374.2361521586
 21
28.5747130101
 31
0.0
  0
LINE
  5
236
330
22C
100
AcDbEntity
  8
0
  6
Continuous
 62
     7
100
AcDbLine
 10
2374.2361521586
 20
28.5747130101
 30
0.0
 11
2371.0594381997
 21
28.5747130101
 31
0.0
  0
LINE
  5
237
330
22C
100
AcDbEntity
  8
0
  6
Continuous
 62
     7
100
AcDbLine
 10
2371.0594381997
 20
28.5747130101
 30
0.0
 11
2371.0594381997
 21
37.8409247449
 31
0.0
  0
LINE
  5
238
330
22C
100
AcDbEntity
  8
0
  6
Continuous
 62
     7
100
AcDbLine
 10
2385.995764416
 20
37.8409247449
 30
0.0
 11
2384.6919468979
 21
37.8409247449
 31
0.0
  0
LINE
  5
239
330
22C
100
AcDbEntity
  8
0
  6
Continuous
 62
     7
100
AcDbLine
 10
2384.6919468979
 20
37.8409247449
 30
0.0
 11
2384.6919468979
 21
27.381858685
 31
0.0
  0
LINE
  5
23A
330
22C
100
AcDbEntity
  8
0
  6
Continuous
 62
     7
100
AcDbLine
 10
2384.6919468979
 20
27.381858685
 30
0.0
 11
2389.173132639
 21
27.381858685
 31
0.0
  0
LINE
  5
23B
330
22C
100
AcDbEntity
  8
0
  6
Continuous
 62
     7
100
AcDbLine
 10
2389.173132639
 20
27.381858685
 30
0.0
 11
2389.173132639
 21
28.5747130101
 31
0.0
  0
LINE
  5
23C
330
22C
100
AcDbEntity
  8
0
  6
Continuous
 62
     7
100
AcDbLine
 10
2389.173132639
 20
28.5747130101
 30
0.0
 11
2385.995764416
 21
28.5747130101
 31
0.0
  0
LINE
  5
23D
330
22C
100
AcDbEntity
  8
0
  6
Continuous
 62
     7
100
AcDbLine
 10
2385.995764416
 20
28.5747130101
 30
0.0
 11
2385.995764416
 21
37.8409247449
 31
0.0
  0
LWPOLYLINE
  5
23E
330
22C
100
AcDbEntity
  8
0
  6
Continuous
 62
     7
100
AcDbPolyline
 90
        2
 70
     0
 43
0.2
 10
2368.1094921812
 20
24.0383073781
 10
2368.1094921812
 20
22.1812441288
  0
LWPOLYLINE
  5
23F
330
22C
100
AcDbEntity
  8
0
  6
Continuous
 62
     7
100
AcDbPolyline
 90
        2
 70
     0
 43
0.2
 10
2368.1094921812
 20
22.1812441288
 10
2368.9052081916
 20
22.1812441288
  0
LWPOLYLINE
  5
240
330
22C
100
AcDbEntity
  8
0
  6
Continuous
 62
     7
100
AcDbPolyline
 90
        2
 70
     0
 43
0.2
 10
2368.9052081916
 20
22.1812441288
 10
2368.9052081916
 20
22.3932257003
  0
LWPOLYLINE
  5
241
330
22C
100
AcDbEntity
  8
0
  6
Continuous
 62
     7
100
AcDbPolyline
 90
        2
 70
     0
 43
0.2
 10
2368.9052081916
 20
22.3932257003
 10
2368.3411016761
 20
22.3932257003
  0
LWPOLYLINE
  5
242
330
22C
100
AcDbEntity
  8
0
  6
Continuous
 62
     7
100
AcDbPolyline
 90
        2
 70
     0
 43
0.2
 10
2368.3411016761
 20
22.3932257003
 10
2368.3411016761
 20
24.0383073781
  0
LWPOLYLINE
  5
243
330
22C
100
AcDbEntity
  8
0
  6
Continuous
 62
     7
100
AcDbPolyline
 90
        2
 70
     0
 43
0.2
 10
2368.3411016761
 20
24.0383073781
 10
2368.1094921812
 20
24.0383073781
  0
SPLINE
  5
244
330
22C
100
AcDbEntity
  8
0
  6
Continuous
 62
     7
100
AcDbSpline
 70
     3
 71
     3
 72
    35
 73
    31
 74
     0
 42
0.000000001
 43
0.0000001
 40
0.0
 40
0.0
 40
0.0
 40
0.0
 40
1.0
 40
1.0
 40
1.0
 40
2.0
 40
2.0
 40
2.0
 40
3.0
 40
3.0
 40
3.0
 40
4.0
 40
4.0
 40
4.0
 40
5.0
 40
5.0
 40
5.0
 40
6.0
 40
6.0
 40
6.0
 40
7.0
 40
7.0
 40
7.0
 40
8.0
 40
8.0
 40
8.0
 40
9.0
 40
9.0
 40
9.0
 40
10.0
 40
10.0
 40
10.0
 40
10.0
 10
2370.3035014472
 20
23.3337957846
 30
0.0
 10
2370.3035014472
 20
23.3337957846
 30
0.0
 10
2370.3035014472
 20
22.6716805055
 30
0.0
 10
2370.3035014472
 20
22.6716805055
 30
0.0
 10
2370.3035014472
 20
22.3565869102
 30
0.0
 10
2370.451365136
 20
22.1419882822
 30
0.0
 10
2370.7914516203
 20
22.1419882822
 30
0.0
 10
2371.1310146933
 20
22.1419882822
 30
0.0
 10
2371.2791400877
 20
22.3565869102
 30
0.0
 10
2371.2791400877
 20
22.6716805055
 30
0.0
 10
2371.2791400877
 20
22.6716805055
 30
0.0
 10
2371.2791400877
 20
23.3337957846
 30
0.0
 10
2371.2791400877
 20
23.3337957846
 30
0.0
 10
2371.2791400877
 20
23.3337957846
 30
0.0
 10
2371.0570828489
 20
23.3337957846
 30
0.0
 10
2371.0570828489
 20
23.3337957846
 30
0.0
 10
2371.0570828489
 20
23.3337957846
 30
0.0
 10
2371.0570828489
 20
22.6968042473
 30
0.0
 10
2371.0570828489
 20
22.6968042473
 30
0.0
 10
2371.0570828489
 20
22.5109932401
 30
0.0
 10
2371.0103683914
 20
22.3482123296
 30
0.0
 10
2370.7914516203
 20
22.3482123296
 30
0.0
 10
2370.5720114378
 20
22.3482123296
 30
0.0
 10
2370.5252969804
 20
22.5109932401
 30
0.0
 10
2370.5252969804
 20
22.6968042473
 30
0.0
 10
2370.5252969804
 20
22.6968042473
 30
0.0
 10
2370.5252969804
 20
23.3337957846
 30
0.0
 10
2370.5252969804
 20
23.3337957846
 30
0.0
 10
2370.5252969804
 20
23.3337957846
 30
0.0
 10
2370.3035014472
 20
23.3337957846
 30
0.0
 10
2370.3035014472
 20
23.3337957846
 30
0.0
  0
SPLINE
  5
245
330
22C
100
AcDbEntity
  8
0
  6
Continuous
 62
     7
100
AcDbSpline
 70
     3
 71
     3
 72
    35
 73
    31
 74
     0
 42
0.000000001
 43
0.0000001
 40
0.0
 40
0.0
 40
0.0
 40
0.0
 40
1.0
 40
1.0
 40
1.0
 40
2.0
 40
2.0
 40
2.0
 40
3.0
 40
3.0
 40
3.0
 40
4.0
 40
4.0
 40
4.0
 40
5.0
 40
5.0
 40
5.0
 40
6.0
 40
6.0
 40
6.0
 40
7.0
 40
7.0
 40
7.0
 40
8.0
 40
8.0
 40
8.0
 40
9.0
 40
9.0
 40
9.0
 40
10.0
 40
10.0
 40
10.0
 40
10.0
 10
2373.7022726449
 20
23.2924462929
 30
0.0
 10
2373.6138161373
 20
23.3437405991
 30
0.0
 10
2373.5003667406
 20
23.3688643409
 30
0.0
 10
2373.3967313056
 20
23.3688643409
 30
0.0
 10
2373.0418584525
 20
23.3688643409
 30
0.0
 10
2372.7664132622
 20
23.1050650518
 30
0.0
 10
2372.7664132622
 20
22.7475751422
 30
0.0
 10
2372.7664132622
 20
22.4026471035
 30
0.0
 10
2373.0448680674
 20
22.1425116934
 30
0.0
 10
2373.3844311404
 20
22.1425116934
 30
0.0
 10
2373.5003667406
 20
22.1425116934
 30
0.0
 10
2373.6011234136
 20
22.1644949675
 30
0.0
 10
2373.7022726449
 20
22.2184063302
 30
0.0
 10
2373.7022726449
 20
22.2184063302
 30
0.0
 10
2373.7022726449
 20
22.5010484256
 30
0.0
 10
2373.7022726449
 20
22.5010484256
 30
0.0
 10
2373.6183959861
 20
22.4078812164
 30
0.0
 10
2373.5148914039
 20
22.3487357409
 30
0.0
 10
2373.3867864912
 20
22.3487357409
 30
0.0
 10
2373.1530833511
 20
22.3487357409
 30
0.0
 10
2372.987816237
 20
22.5209380546
 30
0.0
 10
2372.987816237
 20
22.7575199567
 30
0.0
 10
2372.987816237
 20
22.9695015283
 30
0.0
 10
2373.1555695548
 20
23.1615934709
 30
0.0
 10
2373.3723926808
 20
23.1615934709
 30
0.0
 10
2373.5052082951
 20
23.1615934709
 30
0.0
 10
2373.6138161373
 20
23.1076821083
 30
0.0
 10
2373.7022726449
 20
23.0066637297
 30
0.0
 10
2373.7022726449
 20
23.0066637297
 30
0.0
 10
2373.7022726449
 20
23.2924462929
 30
0.0
 10
2373.7022726449
 20
23.2924462929
 30
0.0
  0
SPLINE
  5
246
330
22C
100
AcDbEntity
  8
0
  6
Continuous
 62
     7
100
AcDbSpline
 70
     3
 71
     3
 72
    32
 73
    28
 74
     0
 42
0.000000001
 43
0.0000001
 40
0.0
 40
0.0
 40
0.0
 40
0.0
 40
1.0
 40
1.0
 40
1.0
 40
2.0
 40
2.0
 40
2.0
 40
3.0
 40
3.0
 40
3.0
 40
4.0
 40
4.0
 40
4.0
 40
5.0
 40
5.0
 40
5.0
 40
6.0
 40
6.0
 40
6.0
 40
7.0
 40
7.0
 40
7.0
 40
8.0
 40
8.0
 40
8.0
 40
9.0
 40
9.0
 40
9.0
 40
9.0
 10
2376.2341438972
 20
22.7208811665
 30
0.0
 10
2376.2341438972
 20
22.7208811665
 30
0.0
 10
2376.2341438972
 20
22.7549029003
 30
0.0
 10
2376.2341438972
 20
22.7549029003
 30
0.0
 10
2376.2341438972
 20
23.0972138825
 30
0.0
 10
2376.0612873194
 20
23.3688643409
 30
0.0
 10
2375.6946377122
 20
23.3688643409
 30
0.0
 10
2375.3230156978
 20
23.3688643409
 30
0.0
 10
2375.133279106
 20
23.1024479954
 30
0.0
 10
2375.133279106
 20
22.7475751422
 30
0.0
 10
2375.133279106
 20
22.4078812164
 30
0.0
 10
2375.3473543227
 20
22.1419882822
 30
0.0
 10
2375.6994792666
 20
22.1419882822
 30
0.0
 10
2375.9234992978
 20
22.1419882822
 30
0.0
 10
2376.1256669078
 20
22.2576621768
 30
0.0
 10
2376.2341438972
 20
22.4570818775
 30
0.0
 10
2376.2341438972
 20
22.4570818775
 30
0.0
 10
2376.0465009505
 20
22.5638577802
 30
0.0
 10
2376.0465009505
 20
22.5638577802
 30
0.0
 10
2375.9630168501
 20
22.4251537889
 30
0.0
 10
2375.8718124332
 20
22.3393143377
 30
0.0
 10
2375.7022271759
 20
22.3393143377
 30
0.0
 10
2375.4902456043
 20
22.3393143377
 30
0.0
 10
2375.3572991372
 20
22.5240785223
 30
0.0
 10
2375.3549437864
 20
22.7208811665
 30
0.0
 10
2375.3549437864
 20
22.7208811665
 30
0.0
 10
2376.2341438972
 20
22.7208811665
 30
0.0
 10
2376.2341438972
 20
22.7208811665
 30
0.0
  0
SPLINE
  5
247
330
22C
100
AcDbEntity
  8
0
  6
Continuous
 62
     7
100
AcDbSpline
 70
     3
 71
     3
 72
    14
 73
    10
 74
     0
 42
0.000000001
 43
0.0000001
 40
0.0
 40
0.0
 40
0.0
 40
0.0
 40
1.0
 40
1.0
 40
1.0
 40
2.0
 40
2.0
 40
2.0
 40
3.0
 40
3.0
 40
3.0
 40
3.0
 10
2375.366982246
 20
22.8883727787
 30
0.0
 10
2375.3945921914
 20
23.0532473343
 30
0.0
 10
2375.5224353985
 20
23.176248987
 30
0.0
 10
2375.6946377122
 20
23.176248987
 30
0.0
 10
2375.8718124332
 20
23.176248987
 30
0.0
 10
2375.9852618298
 20
23.0605750924
 30
0.0
 10
2376.0124792168
 20
22.8883727787
 30
0.0
 10
2376.0124792168
 20
22.8883727787
 30
0.0
 10
2375.366982246
 20
22.8883727787
 30
0.0
 10
2375.366982246
 20
22.8883727787
 30
0.0
  0
SPLINE
  5
248
330
22C
100
AcDbEntity
  8
0
  6
Continuous
 62
     7
100
AcDbSpline
 70
     3
 71
     3
 72
    20
 73
    16
 74
     0
 42
0.000000001
 43
0.0000001
 40
0.0
 40
0.0
 40
0.0
 40
0.0
 40
1.0
 40
1.0
 40
1.0
 40
2.0
 40
2.0
 40
2.0
 40
3.0
 40
3.0
 40
3.0
 40
4.0
 40
4.0
 40
4.0
 40
5.0
 40
5.0
 40
5.0
 40
5.0
 10
2378.2581753474
 20
23.0977372938
 30
0.0
 10
2378.2581753474
 20
23.0977372938
 30
0.0
 10
2378.669314914
 20
22.5952624575
 30
0.0
 10
2378.669314914
 20
22.5952624575
 30
0.0
 10
2378.5532484609
 20
22.4795885628
 30
0.0
 10
2378.4154604394
 20
22.3492591522
 30
0.0
 10
2378.2435198313
 20
22.3492591522
 30
0.0
 10
2378.0660834047
 20
22.3492591522
 30
0.0
 10
2377.8985917926
 20
22.5136102965
 30
0.0
 10
2377.8985917926
 20
22.6905233118
 30
0.0
 10
2377.8985917926
 20
22.8684831497
 30
0.0
 10
2378.1083488662
 20
22.9946252701
 30
0.0
 10
2378.2359303677
 20
23.0825583665
 30
0.0
 10
2378.2359303677
 20
23.0825583665
 30
0.0
 10
2378.2581753474
 20
23.0977372938
 30
0.0
 10
2378.2581753474
 20
23.0977372938
 30
0.0
  0
SPLINE
  5
249
330
22C
100
AcDbEntity
  8
0
  6
Continuous
 62
     7
100
AcDbSpline
 70
     3
 71
     3
 72
    23
 73
    19
 74
     0
 42
0.000000001
 43
0.0000001
 40
0.0
 40
0.0
 40
0.0
 40
0.0
 40
1.0
 40
1.0
 40
1.0
 40
2.0
 40
2.0
 40
2.0
 40
3.0
 40
3.0
 40
3.0
 40
4.0
 40
4.0
 40
4.0
 40
5.0
 40
5.0
 40
5.0
 40
6.0
 40
6.0
 40
6.0
 40
6.0
 10
2378.3075068613
 20
23.3887539699
 30
0.0
 10
2378.3075068613
 20
23.3887539699
 30
0.0
 10
2378.2458751821
 20
23.467265663
 30
0.0
 10
2378.2458751821
 20
23.467265663
 30
0.0
 10
2378.1919638195
 20
23.5358325418
 30
0.0
 10
2378.1351736947
 20
23.6049228318
 30
0.0
 10
2378.1351736947
 20
23.6986134523
 30
0.0
 10
2378.1351736947
 20
23.8174278146
 30
0.0
 10
2378.2310888132
 20
23.8948926852
 30
0.0
 10
2378.3420520063
 20
23.8948926852
 30
0.0
 10
2378.4653153646
 20
23.8948926852
 30
0.0
 10
2378.5586134266
 20
23.8237087501
 30
0.0
 10
2378.5586134266
 20
23.6933793394
 30
0.0
 10
2378.5586134266
 20
23.5583392271
 30
0.0
 10
2378.4305085139
 20
23.4819211791
 30
0.0
 10
2378.3369487462
 20
23.4081201875
 30
0.0
 10
2378.3369487462
 20
23.4081201875
 30
0.0
 10
2378.3075068613
 20
23.3887539699
 30
0.0
 10
2378.3075068613
 20
23.3887539699
 30
0.0
  0
SPLINE
  5
24A
330
22C
100
AcDbEntity
  8
0
  6
Continuous
 62
     7
100
AcDbSpline
 70
     3
 71
     3
 72
    50
 73
    46
 74
     0
 42
0.000000001
 43
0.0000001
 40
0.0
 40
0.0
 40
0.0
 40
0.0
 40
1.0
 40
1.0
 40
1.0
 40
2.0
 40
2.0
 40
2.0
 40
3.0
 40
3.0
 40
3.0
 40
4.0
 40
4.0
 40
4.0
 40
5.0
 40
5.0
 40
5.0
 40
6.0
 40
6.0
 40
6.0
 40
7.0
 40
7.0
 40
7.0
 40
8.0
 40
8.0
 40
8.0
 40
9.0
 40
9.0
 40
9.0
 40
10.0
 40
10.0
 40
10.0
 40
11.0
 40
11.0
 40
11.0
 40
12.0
 40
12.0
 40
12.0
 40
13.0
 40
13.0
 40
13.0
 40
14.0
 40
14.0
 40
14.0
 40
15.0
 40
15.0
 40
15.0
 40
15.0
 10
2379.0096631039
 20
22.18176754
 30
0.0
 10
2379.0096631039
 20
22.18176754
 30
0.0
 10
2379.2950531087
 20
22.18176754
 30
0.0
 10
2379.2950531087
 20
22.18176754
 30
0.0
 10
2379.2950531087
 20
22.18176754
 30
0.0
 10
2378.9626869409
 20
22.592645401
 30
0.0
 10
2378.9626869409
 20
22.592645401
 30
0.0
 10
2378.9626869409
 20
22.592645401
 30
0.0
 10
2379.1891931757
 20
22.8585383353
 30
0.0
 10
2379.1891931757
 20
22.8585383353
 30
0.0
 10
2379.1891931757
 20
22.8585383353
 30
0.0
 10
2379.0409369284
 20
23.0113744313
 30
0.0
 10
2379.0409369284
 20
23.0113744313
 30
0.0
 10
2379.0409369284
 20
23.0113744313
 30
0.0
 10
2378.8250297721
 20
22.7601370131
 30
0.0
 10
2378.8250297721
 20
22.7601370131
 30
0.0
 10
2378.8250297721
 20
22.7601370131
 30
0.0
 10
2378.4379671248
 20
23.2280667045
 30
0.0
 10
2378.4379671248
 20
23.2280667045
 30
0.0
 10
2378.5934202773
 20
23.3421703652
 30
0.0
 10
2378.7756982583
 20
23.4819211791
 30
0.0
 10
2378.7756982583
 20
23.6912856943
 30
0.0
 10
2378.7756982583
 20
23.9351953544
 30
0.0
 10
2378.5736615012
 20
24.0786100473
 30
0.0
 10
2378.3471552663
 20
24.0786100473
 30
0.0
 10
2378.1029839005
 20
24.0786100473
 30
0.0
 10
2377.9186122744
 20
23.9278675964
 30
0.0
 10
2377.9186122744
 20
23.6713960653
 30
0.0
 10
2377.9186122744
 20
23.5138492677
 30
0.0
 10
2378.0172753021
 20
23.376192099
 30
0.0
 10
2378.1226118238
 20
23.2652289059
 30
0.0
 10
2378.1226118238
 20
23.2652289059
 30
0.0
 10
2378.007068782
 20
23.1814830999
 30
0.0
 10
2378.007068782
 20
23.1814830999
 30
0.0
 10
2377.8293706498
 20
23.0532473343
 30
0.0
 10
2377.6820303723
 20
22.9255349801
 30
0.0
 10
2377.6820303723
 20
22.6884296667
 30
0.0
 10
2377.6820303723
 20
22.3681019585
 30
0.0
 10
2377.9405955485
 20
22.1419882822
 30
0.0
 10
2378.2509784422
 20
22.1419882822
 30
0.0
 10
2378.4698952133
 20
22.1419882822
 30
0.0
 10
2378.667090416
 20
22.26708358
 30
0.0
 10
2378.8073646412
 20
22.4330049582
 30
0.0
 10
2378.8073646412
 20
22.4330049582
 30
0.0
 10
2379.0096631039
 20
22.18176754
 30
0.0
 10
2379.0096631039
 20
22.18176754
 30
0.0
  0
LWPOLYLINE
  5
24B
330
22C
100
AcDbEntity
  8
0
  6
Continuous
 62
     7
100
AcDbPolyline
 90
        2
 70
     0
 43
0.2
 10
2380.9451071937
 20
24.0383073781
 10
2380.7137594044
 20
24.0383073781
  0
LWPOLYLINE
  5
24C
330
22C
100
AcDbEntity
  8
0
  6
Continuous
 62
     7
100
AcDbPolyline
 90
        2
 70
     0
 43
0.2
 10
2380.7137594044
 20
24.0383073781
 10
2380.7137594044
 20
22.1812441288
  0
LWPOLYLINE
  5
24D
330
22C
100
AcDbEntity
  8
0
  6
Continuous
 62
     7
100
AcDbPolyline
 90
        2
 70
     0
 43
0.2
 10
2380.7137594044
 20
22.1812441288
 10
2381.5090828563
 20
22.1812441288
  0
LWPOLYLINE
  5
24E
330
22C
100
AcDbEntity
  8
0
  6
Continuous
 62
     7
100
AcDbPolyline
 90
        2
 70
     0
 43
0.2
 10
2381.5090828563
 20
22.1812441288
 10
2381.5090828563
 20
22.3932257003
  0
LWPOLYLINE
  5
24F
330
22C
100
AcDbEntity
  8
0
  6
Continuous
 62
     7
100
AcDbPolyline
 90
        2
 70
     0
 43
0.2
 10
2381.5090828563
 20
22.3932257003
 10
2380.9451071937
 20
22.3932257003
  0
LWPOLYLINE
  5
250
330
22C
100
AcDbEntity
  8
0
  6
Continuous
 62
     7
100
AcDbPolyline
 90
        2
 70
     0
 43
0.2
 10
2380.9451071937
 20
22.3932257003
 10
2380.9451071937
 20
24.0383073781
  0
LWPOLYLINE
  5
251
330
22C
100
AcDbEntity
  8
0
  6
Continuous
 62
     7
100
AcDbPolyline
 90
        2
 70
     0
 43
0.2
 10
2383.1881862678
 20
23.3337957846
 10
2382.9670449987
 20
23.3337957846
  0
LWPOLYLINE
  5
252
330
22C
100
AcDbEntity
  8
0
  6
Continuous
 62
     7
100
AcDbPolyline
 90
        2
 70
     0
 43
0.2
 10
2382.9670449987
 20
23.3337957846
 10
2382.9670449987
 20
22.18176754
  0
LWPOLYLINE
  5
253
330
22C
100
AcDbEntity
  8
0
  6
Continuous
 62
     7
100
AcDbPolyline
 90
        2
 70
     0
 43
0.2
 10
2382.9670449987
 20
22.18176754
 10
2383.1881862678
 20
22.18176754
  0
LWPOLYLINE
  5
254
330
22C
100
AcDbEntity
  8
0
  6
Continuous
 62
     7
100
AcDbPolyline
 90
        2
 70
     0
 43
0.2
 10
2383.1881862678
 20
22.18176754
 10
2383.1881862678
 20
23.3337957846
  0
LWPOLYLINE
  5
255
330
22C
100
AcDbEntity
  8
0
  6
Continuous
 62
     7
100
AcDbPolyline
 90
        2
 70
     1
 43
0.2
 10
2382.9251629906
 20
23.8637497136
 42
1.0
 10
2383.2303299816
 20
23.8637497136
 42
1.0
  0
SPLINE
  5
256
330
22C
100
AcDbEntity
  8
0
  6
Continuous
 62
     7
100
AcDbSpline
 70
     3
 71
     3
 72
    17
 73
    13
 74
     0
 42
0.000000001
 43
0.0000001
 40
0.0
 40
0.0
 40
0.0
 40
0.0
 40
1.0
 40
1.0
 40
1.0
 40
2.0
 40
2.0
 40
2.0
 40
3.0
 40
3.0
 40
3.0
 40
4.0
 40
4.0
 40
4.0
 40
4.0
 10
2385.3184702095
 20
22.3393143377
 30
0.0
 10
2385.0845053638
 20
22.3393143377
 30
0.0
 10
2384.9541759531
 20
22.5413510948
 30
0.0
 10
2384.9541759531
 20
22.7575199567
 30
0.0
 10
2384.9541759531
 20
22.9721185847
 30
0.0
 10
2385.0900011823
 20
23.1710148741
 30
0.0
 10
2385.3184702095
 20
23.1710148741
 30
0.0
 10
2385.5579308737
 20
23.1710148741
 30
0.0
 10
2385.6934943972
 20
22.9820633992
 30
0.0
 10
2385.6934943972
 20
22.7575199567
 30
0.0
 10
2385.6934943972
 20
22.5314062803
 30
0.0
 10
2385.5602862245
 20
22.3393143377
 30
0.0
 10
2385.3184702095
 20
22.3393143377
 30
0.0
  0
SPLINE
  5
257
330
22C
100
AcDbEntity
  8
0
  6
Continuous
 62
     7
100
AcDbSpline
 70
     3
 71
     3
 72
    50
 73
    46
 74
     0
 42
0.000000001
 43
0.0000001
 40
0.0
 40
0.0
 40
0.0
 40
0.0
 40
1.0
 40
1.0
 40
1.0
 40
2.0
 40
2.0
 40
2.0
 40
3.0
 40
3.0
 40
3.0
 40
4.0
 40
4.0
 40
4.0
 40
5.0
 40
5.0
 40
5.0
 40
6.0
 40
6.0
 40
6.0
 40
7.0
 40
7.0
 40
7.0
 40
8.0
 40
8.0
 40
8.0
 40
9.0
 40
9.0
 40
9.0
 40
10.0
 40
10.0
 40
10.0
 40
11.0
 40
11.0
 40
11.0
 40
12.0
 40
12.0
 40
12.0
 40
13.0
 40
13.0
 40
13.0
 40
14.0
 40
14.0
 40
14.0
 40
15.0
 40
15.0
 40
15.0
 40
15.0
 10
2385.9025972067
 20
23.3343191959
 30
0.0
 10
2385.9025972067
 20
23.3343191959
 30
0.0
 10
2385.6809325263
 20
23.3343191959
 30
0.0
 10
2385.6809325263
 20
23.3343191959
 30
0.0
 10
2385.6809325263
 20
23.3343191959
 30
0.0
 10
2385.6809325263
 20
23.1369931404
 30
0.0
 10
2385.6809325263
 20
23.1369931404
 30
0.0
 10
2385.6809325263
 20
23.1369931404
 30
0.0
 10
2385.6762218247
 20
23.1369931404
 30
0.0
 10
2385.6762218247
 20
23.1369931404
 30
0.0
 10
2385.584886555
 20
23.279884422
 30
0.0
 10
2385.4469676806
 20
23.3683409296
 30
0.0
 10
2385.2742419556
 20
23.3683409296
 30
0.0
 10
2384.9418757878
 20
23.3683409296
 30
0.0
 10
2384.7327729783
 20
23.0804647213
 30
0.0
 10
2384.7327729783
 20
22.7648477147
 30
0.0
 10
2384.7327729783
 20
22.4350986034
 30
0.0
 10
2384.9298373282
 20
22.1419882822
 30
0.0
 10
2385.2847101814
 20
22.1419882822
 30
0.0
 10
2385.4469676806
 20
22.1419882822
 30
0.0
 10
2385.5869802001
 20
22.2304447898
 30
0.0
 10
2385.6762218247
 20
22.3612976118
 30
0.0
 10
2385.6762218247
 20
22.3612976118
 30
0.0
 10
2385.6809325263
 20
22.3612976118
 30
0.0
 10
2385.6809325263
 20
22.3612976118
 30
0.0
 10
2385.6809325263
 20
22.3612976118
 30
0.0
 10
2385.6809325263
 20
22.1419882822
 30
0.0
 10
2385.6809325263
 20
22.1419882822
 30
0.0
 10
2385.6809325263
 20
21.90540638
 30
0.0
 10
2385.6244041072
 20
21.7185485503
 30
0.0
 10
2385.351183415
 20
21.7185485503
 30
0.0
 10
2385.1488849522
 20
21.7185485503
 30
0.0
 10
2385.0062553763
 20
21.8368395013
 30
0.0
 10
2385.0062553763
 20
22.0430635488
 30
0.0
 10
2385.0062553763
 20
22.0430635488
 30
0.0
 10
2384.7845906958
 20
22.0430635488
 30
0.0
 10
2384.7845906958
 20
22.0430635488
 30
0.0
 10
2384.7895631031
 20
21.7185485503
 30
0.0
 10
2385.0206491867
 20
21.521745906
 30
0.0
 10
2385.3409768948
 20
21.521745906
 30
0.0
 10
2385.7890169573
 20
21.521745906
 30
0.0
 10
2385.9025972067
 20
21.8070050579
 30
0.0
 10
2385.9025972067
 20
22.2037508141
 30
0.0
 10
2385.9025972067
 20
22.2037508141
 30
0.0
 10
2385.9025972067
 20
23.3343191959
 30
0.0
 10
2385.9025972067
 20
23.3343191959
 30
0.0
  0
SPLINE
  5
258
330
22C
100
AcDbEntity
  8
0
  6
Continuous
 62
     7
100
AcDbSpline
 70
     3
 71
     3
 72
    44
 73
    40
 74
     0
 42
0.000000001
 43
0.0000001
 40
0.0
 40
0.0
 40
0.0
 40
0.0
 40
1.0
 40
1.0
 40
1.0
 40
2.0
 40
2.0
 40
2.0
 40
3.0
 40
3.0
 40
3.0
 40
4.0
 40
4.0
 40
4.0
 40
5.0
 40
5.0
 40
5.0
 40
6.0
 40
6.0
 40
6.0
 40
7.0
 40
7.0
 40
7.0
 40
8.0
 40
8.0
 40
8.0
 40
9.0
 40
9.0
 40
9.0
 40
10.0
 40
10.0
 40
10.0
 40
11.0
 40
11.0
 40
11.0
 40
12.0
 40
12.0
 40
12.0
 40
13.0
 40
13.0
 40
13.0
 40
13.0
 10
2387.4715225421
 20
24.3193792397
 30
0.0
 10
2387.4715225421
 20
24.3193792397
 30
0.0
 10
2387.4715225421
 20
22.1812441288
 30
0.0
 10
2387.4715225421
 20
22.1812441288
 30
0.0
 10
2387.4715225421
 20
22.1812441288
 30
0.0
 10
2387.6929255169
 20
22.1812441288
 30
0.0
 10
2387.6929255169
 20
22.1812441288
 30
0.0
 10
2387.6929255169
 20
22.1812441288
 30
0.0
 10
2387.6929255169
 20
22.7109363521
 30
0.0
 10
2387.6929255169
 20
22.7109363521
 30
0.0
 10
2387.6929255169
 20
22.9208242785
 30
0.0
 10
2387.6929255169
 20
23.1715382854
 30
0.0
 10
2387.9781846688
 20
23.1715382854
 30
0.0
 10
2388.2050834621
 20
23.1715382854
 30
0.0
 10
2388.2320391434
 20
23.0385918183
 30
0.0
 10
2388.2320391434
 20
22.8423125853
 30
0.0
 10
2388.2320391434
 20
22.8423125853
 30
0.0
 10
2388.2320391434
 20
22.1812441288
 30
0.0
 10
2388.2320391434
 20
22.1812441288
 30
0.0
 10
2388.2320391434
 20
22.1812441288
 30
0.0
 10
2388.4539655295
 20
22.1812441288
 30
0.0
 10
2388.4539655295
 20
22.1812441288
 30
0.0
 10
2388.4539655295
 20
22.1812441288
 30
0.0
 10
2388.4539655295
 20
22.8684831497
 30
0.0
 10
2388.4539655295
 20
22.8684831497
 30
0.0
 10
2388.4539655295
 20
23.1490316
 30
0.0
 10
2388.3699580177
 20
23.3688643409
 30
0.0
 10
2388.044919608
 20
23.3688643409
 30
0.0
 10
2387.9051687941
 20
23.3688643409
 30
0.0
 10
2387.7669882141
 20
23.3023911074
 30
0.0
 10
2387.6976362185
 20
23.1793894547
 30
0.0
 10
2387.6976362185
 20
23.1793894547
 30
0.0
 10
2387.6929255169
 20
23.1793894547
 30
0.0
 10
2387.6929255169
 20
23.1793894547
 30
0.0
 10
2387.6929255169
 20
23.1793894547
 30
0.0
 10
2387.6929255169
 20
24.3193792397
 30
0.0
 10
2387.6929255169
 20
24.3193792397
 30
0.0
 10
2387.6929255169
 20
24.3193792397
 30
0.0
 10
2387.4715225421
 20
24.3193792397
 30
0.0
 10
2387.4715225421
 20
24.3193792397
 30
0.0
  0
LWPOLYLINE
  5
259
330
22C
100
AcDbEntity
  8
0
  6
Continuous
 62
     7
100
AcDbPolyline
 90
        2
 70
     0
 43
0.2
 10
2390.2937562063
 20
23.1270483259
 10
2390.5101867739
 20
23.1270483259
  0
LWPOLYLINE
  5
25A
330
22C
100
AcDbEntity
  8
0
  6
Continuous
 62
     7
100
AcDbPolyline
 90
        2
 70
     0
 43
0.2
 10
2390.5101867739
 20
23.1270483259
 10
2390.5101867739
 20
23.3337957846
  0
LWPOLYLINE
  5
25B
330
22C
100
AcDbEntity
  8
0
  6
Continuous
 62
     7
100
AcDbPolyline
 90
        2
 70
     0
 43
0.2
 10
2390.5101867739
 20
23.3337957846
 10
2390.2937562063
 20
23.3337957846
  0
LWPOLYLINE
  5
25C
330
22C
100
AcDbEntity
  8
0
  6
Continuous
 62
     7
100
AcDbPolyline
 90
        2
 70
     0
 43
0.2
 10
2390.2937562063
 20
23.3337957846
 10
2390.2937562063
 20
23.774508089
  0
LWPOLYLINE
  5
25D
330
22C
100
AcDbEntity
  8
0
  6
Continuous
 62
     7
100
AcDbPolyline
 90
        2
 70
     0
 43
0.2
 10
2390.2937562063
 20
23.774508089
 10
2390.0720915259
 20
23.774508089
  0
LWPOLYLINE
  5
25E
330
22C
100
AcDbEntity
  8
0
  6
Continuous
 62
     7
100
AcDbPolyline
 90
        2
 70
     0
 43
0.2
 10
2390.0720915259
 20
23.774508089
 10
2390.0720915259
 20
23.3337957846
  0
LWPOLYLINE
  5
25F
330
22C
100
AcDbEntity
  8
0
  6
Continuous
 62
     7
100
AcDbPolyline
 90
        2
 70
     0
 43
0.2
 10
2390.0720915259
 20
23.3337957846
 10
2389.951445224
 20
23.3337957846
  0
LWPOLYLINE
  5
260
330
22C
100
AcDbEntity
  8
0
  6
Continuous
 62
     7
100
AcDbPolyline
 90
        2
 70
     0
 43
0.2
 10
2389.951445224
 20
23.3337957846
 10
2389.951445224
 20
23.1270483259
  0
LWPOLYLINE
  5
261
330
22C
100
AcDbEntity
  8
0
  6
Continuous
 62
     7
100
AcDbPolyline
 90
        2
 70
     0
 43
0.2
 10
2389.951445224
 20
23.1270483259
 10
2390.0720915259
 20
23.1270483259
  0
LWPOLYLINE
  5
262
330
22C
100
AcDbEntity
  8
0
  6
Continuous
 62
     7
100
AcDbPolyline
 90
        2
 70
     0
 43
0.2
 10
2390.0720915259
 20
23.1270483259
 10
2390.0720915259
 20
22.1812441288
  0
LWPOLYLINE
  5
263
330
22C
100
AcDbEntity
  8
0
  6
Continuous
 62
     7
100
AcDbPolyline
 90
        2
 70
     0
 43
0.2
 10
2390.0720915259
 20
22.1812441288
 10
2390.2937562063
 20
22.1812441288
  0
LWPOLYLINE
  5
264
330
22C
100
AcDbEntity
  8
0
  6
Continuous
 62
     7
100
AcDbPolyline
 90
        2
 70
     0
 43
0.2
 10
2390.2937562063
 20
22.1812441288
 10
2390.2937562063
 20
23.1270483259
  0
SPLINE
  5
265
330
22C
100
AcDbEntity
  8
0
  6
Continuous
 62
     7
100
AcDbSpline
 70
     3
 71
     3
 72
    20
 73
    16
 74
     0
 42
0.000000001
 43
0.0000001
 40
0.0
 40
0.0
 40
0.0
 40
0.0
 40
1.0
 40
1.0
 40
1.0
 40
2.0
 40
2.0
 40
2.0
 40
3.0
 40
3.0
 40
3.0
 40
4.0
 40
4.0
 40
4.0
 40
5.0
 40
5.0
 40
5.0
 40
5.0
 10
2378.0757665136
 20
32.5421705721
 30
0.0
 10
2378.0757665136
 20
32.5421705721
 30
0.0
 10
2380.392123168
 20
29.7126091499
 30
0.0
 10
2380.392123168
 20
29.7126091499
 30
0.0
 10
2379.7404761146
 20
29.0604386852
 30
0.0
 10
2378.9636029106
 20
28.3245224145
 30
0.0
 10
2377.992413266
 20
28.3245224145
 30
0.0
 10
2376.9938753815
 20
28.3245224145
 30
0.0
 10
2376.050557388
 20
29.2541008617
 30
0.0
 10
2376.050557388
 20
30.2532930103
 30
0.0
 10
2376.050557388
 20
31.2524851588
 30
0.0
 10
2377.2294104611
 20
31.9590903975
 30
0.0
 10
2377.9509329214
 20
32.4589481774
 30
0.0
 10
2377.9509329214
 20
32.4589481774
 30
0.0
 10
2378.0757665136
 20
32.5421705721
 30
0.0
 10
2378.0757665136
 20
32.5421705721
 30
0.0
  0
SPLINE
  5
266
330
22C
100
AcDbEntity
  8
0
  6
Continuous
 62
     7
100
AcDbSpline
 70
     3
 71
     3
 72
    23
 73
    19
 74
     0
 42
0.000000001
 43
0.0000001
 40
0.0
 40
0.0
 40
0.0
 40
0.0
 40
1.0
 40
1.0
 40
1.0
 40
2.0
 40
2.0
 40
2.0
 40
3.0
 40
3.0
 40
3.0
 40
4.0
 40
4.0
 40
4.0
 40
5.0
 40
5.0
 40
5.0
 40
6.0
 40
6.0
 40
6.0
 40
6.0
 10
2378.3531744961
 20
34.1799244919
 30
0.0
 10
2378.3531744961
 20
34.1799244919
 30
0.0
 10
2378.0066762236
 20
34.6232538527
 30
0.0
 10
2378.0066762236
 20
34.6232538527
 30
0.0
 10
2377.7008731786
 20
35.0113633227
 30
0.0
 10
2377.3819848515
 20
35.3998653511
 30
0.0
 10
2377.3819848515
 20
35.9268096652
 30
0.0
 10
2377.3819848515
 20
36.5929813818
 30
0.0
 10
2377.923322976
 20
37.0367033011
 30
0.0
 10
2378.5472292311
 20
37.0367033011
 30
0.0
 10
2379.2410108932
 20
37.0367033011
 30
0.0
 10
2379.7682169129
 20
36.6344617264
 30
0.0
 10
2379.7682169129
 20
35.8994614254
 30
0.0
 10
2379.7682169129
 20
35.1361969148
 30
0.0
 10
2379.0469561582
 20
34.706083689
 30
0.0
 10
2378.5198809913
 20
34.2903642736
 30
0.0
 10
2378.5198809913
 20
34.2903642736
 30
0.0
 10
2378.3531744961
 20
34.1799244919
 30
0.0
 10
2378.3531744961
 20
34.1799244919
 30
0.0
  0
SPLINE
  5
267
330
22C
100
AcDbEntity
  8
0
  6
Continuous
 62
     7
100
AcDbSpline
 70
     3
 71
     3
 72
    50
 73
    46
 74
     0
 42
0.000000001
 43
0.0000001
 40
0.0
 40
0.0
 40
0.0
 40
0.0
 40
1.0
 40
1.0
 40
1.0
 40
2.0
 40
2.0
 40
2.0
 40
3.0
 40
3.0
 40
3.0
 40
4.0
 40
4.0
 40
4.0
 40
5.0
 40
5.0
 40
5.0
 40
6.0
 40
6.0
 40
6.0
 40
7.0
 40
7.0
 40
7.0
 40
8.0
 40
8.0
 40
8.0
 40
9.0
 40
9.0
 40
9.0
 40
10.0
 40
10.0
 40
10.0
 40
11.0
 40
11.0
 40
11.0
 40
12.0
 40
12.0
 40
12.0
 40
13.0
 40
13.0
 40
13.0
 40
14.0
 40
14.0
 40
14.0
 40
15.0
 40
15.0
 40
15.0
 40
15.0
 10
2382.3067616591
 20
27.3813352737
 30
0.0
 10
2382.3067616591
 20
27.3813352737
 30
0.0
 10
2383.9159896636
 20
27.3813352737
 30
0.0
 10
2383.9159896636
 20
27.3813352737
 30
0.0
 10
2383.9159896636
 20
27.3813352737
 30
0.0
 10
2382.04296237
 20
29.6984770451
 30
0.0
 10
2382.04296237
 20
29.6984770451
 30
0.0
 10
2382.04296237
 20
29.6984770451
 30
0.0
 10
2383.3193007954
 20
31.1959567397
 30
0.0
 10
2383.3193007954
 20
31.1959567397
 30
0.0
 10
2383.3193007954
 20
31.1959567397
 30
0.0
 10
2382.4870768477
 20
32.0569683083
 30
0.0
 10
2382.4870768477
 20
32.0569683083
 30
0.0
 10
2382.4870768477
 20
32.0569683083
 30
0.0
 10
2381.2664817244
 20
30.6416641859
 30
0.0
 10
2381.2664817244
 20
30.6416641859
 30
0.0
 10
2381.2664817244
 20
30.6416641859
 30
0.0
 10
2379.0885673556
 20
33.2770400203
 30
0.0
 10
2379.0885673556
 20
33.2770400203
 30
0.0
 10
2379.962140795
 20
33.9150783802
 30
0.0
 10
2380.9888120362
 20
34.706083689
 30
0.0
 10
2380.9888120362
 20
35.8849367621
 30
0.0
 10
2380.9888120362
 20
37.2586296871
 30
0.0
 10
2379.8509158964
 20
38.0631128366
 30
0.0
 10
2378.5756242935
 20
38.0631128366
 30
0.0
 10
2377.2021930741
 20
38.0631128366
 30
0.0
 10
2376.1612588754
 20
37.2168876369
 30
0.0
 10
2376.1612588754
 20
35.7742352747
 30
0.0
 10
2376.1612588754
 20
34.8866605833
 30
0.0
 10
2376.7165982518
 20
34.1097873793
 30
0.0
 10
2377.3127637087
 20
33.4853577129
 30
0.0
 10
2377.3127637087
 20
33.4853577129
 30
0.0
 10
2376.6608549496
 20
33.0137641425
 30
0.0
 10
2376.6608549496
 20
33.0137641425
 30
0.0
 10
2375.6623170652
 20
32.2925033878
 30
0.0
 10
2374.8294388534
 20
31.5712426331
 30
0.0
 10
2374.8294388534
 20
30.2396843168
 30
0.0
 10
2374.8294388534
 20
28.4360090188
 30
0.0
 10
2376.286485026
 20
27.1594088877
 30
0.0
 10
2378.0340244634
 20
27.1594088877
 30
0.0
 10
2379.2688825443
 20
27.1594088877
 30
0.0
 10
2380.3782527689
 20
27.8675843602
 30
0.0
 10
2381.1691272249
 20
28.7961159849
 30
0.0
 10
2381.1691272249
 20
28.7961159849
 30
0.0
 10
2382.3067616591
 20
27.3813352737
 30
0.0
 10
2382.3067616591
 20
27.3813352737
 30
0.0
  0
LINE
  5
268
330
22C
100
AcDbEntity
  8
0
  6
Continuous
 62
     7
100
AcDbLine
 10
2368.1096230341
 20
25.3552101784
 30
0.0
 11
2390.5235337617
 21
25.3552101784
 31
0.0
  0
LINE
  5
269
330
22C
100
AcDbEntity
  8
0
  6
Continuous
 62
     7
100
AcDbLine
 10
2390.5235337617
 20
25.3552101784
 30
0.0
 11
2390.5235337617
 21
47.769120906
 31
0.0
  0
LINE
  5
26A
330
22C
100
AcDbEntity
  8
0
  6
Continuous
 62
     7
100
AcDbLine
 10
2390.5235337617
 20
47.769120906
 30
0.0
 11
2368.1096230341
 21
47.769120906
 31
0.0
  0
LINE
  5
26B
330
22C
100
AcDbEntity
  8
0
  6
Continuous
 62
     7
100
AcDbLine
 10
2368.1096230341
 20
47.769120906
 30
0.0
 11
2368.1096230341
 21
25.3552101784
 31
0.0
  0
ENDBLK
  5
26C
330
22C
100
AcDbEntity
  8
0
  6
ByBlock
 62
     0
100
AcDbBlockEnd
  0
BLOCK
  5
26D
330
22D
100
AcDbEntity
  8
0
100
AcDbBlockBegin
  2
PROIEZIONE_EU_BL0
 70
     0
 10
2380.4904659267
 20
60.270433406
 30
0.0
  3
PROIEZIONE_EU_BL0
  1

  0
LWPOLYLINE
  5
26E
330
22D
100
AcDbEntity
  8
DEFAULT_1
  6
CENTER
 62
     7
100
AcDbPolyline
 90
        2
 70
     0
 43
0.25
 10
2386.6170865884
 20
65.2701275379
 10
2386.6171275707
 20
55.2707392742
  0
LWPOLYLINE
  5
26F
330
22D
100
AcDbEntity
  8
DEFAULT_1
  6
CENTER
 62
     7
100
AcDbPolyline
 90
        2
 70
     0
 43
0.25
 10
2392.6171164134
 20
60.2707045412
 10
2368.36381544
 20
60.2704338807
  0
LWPOLYLINE
  5
270
330
22D
100
AcDbEntity
  8
0
  6
Continuous
 62
     7
100
AcDbPolyline
 90
        2
 70
     1
 43
0.25
 10
2383.0699764125
 20
60.2518856518
 42
1.0
 10
2390.1763055112
 20
60.2518856518
 42
1.0
  0
LWPOLYLINE
  5
271
330
22D
100
AcDbEntity
  8
0
  6
Continuous
 62
     7
100
AcDbPolyline
 90
        2
 70
     1
 43
0.25
 10
2384.6197202409
 20
60.2697836964
 42
1.0
 10
2388.631471991
 20
60.2697836964
 42
1.0
  0
LWPOLYLINE
  5
272
330
22D
100
AcDbEntity
  8
0
  6
Continuous
 62
     7
100
AcDbPolyline
 90
        2
 70
     0
 43
0.25
 10
2380.6171142074
 20
63.8456369013
 10
2380.6171138528
 20
56.7454339929
  0
LWPOLYLINE
  5
273
330
22D
100
AcDbEntity
  8
0
  6
Continuous
 62
     7
100
AcDbPolyline
 90
        2
 70
     0
 43
0.25
 10
2380.6171422892
 20
56.7454055566
 10
2370.622585018
 20
58.2654989694
  0
LWPOLYLINE
  5
274
330
22D
100
AcDbEntity
  8
0
  6
Continuous
 62
     7
100
AcDbPolyline
 90
        2
 70
     0
 43
0.25
 10
2370.6202750324
 20
58.2648214279
 10
2370.6176081283
 20
62.2704600393
  0
LWPOLYLINE
  5
275
330
22D
100
AcDbEntity
  8
0
  6
Continuous
 62
     7
100
AcDbPolyline
 90
        2
 70
     0
 43
0.25
 10
2370.6175998523
 20
62.2704517632
 10
2380.6173430896
 20
63.8456089833
  0
ENDBLK
  5
276
330
22D
100
AcDbEntity
  8
0
  6
ByBlock
 62
     0
100
AcDbBlockEnd
  0
ENDSEC
  0
SECTION
  2
ENTITIES
  0
LINE
  5
2B3
330
1B
100
AcDbEntity
 67
     1
  8
0
  6
Continuous
 62
     7
100
AcDbLine
 10
0.0
 20
0.0
 30
0.0
 11
2500.0
 21
0.0
 31
0.0
  0
LINE
  5
2B4
330
1B
100
AcDbEntity
 67
     1
  8
0
  6
Continuous
 62
     7
100
AcDbLine
 10
2500.0
 20
0.0
 30
0.0
 11
2500.0
 21
3200.0
 31
0.0
  0
LINE
  5
2B5
330
1B
100
AcDbEntity
 67
     1
  8
0
  6
Continuous
 62
     7
100
AcDbLine
 10
0.0
 20
3200.0
 30
0.0
 11
2500.0
 21
3200.0
 31
0.0
  0
LINE
  5
2B6
330
1B
100
AcDbEntity
 67
     1
  8
0
  6
Continuous
 62
     7
100
AcDbLine
 10
0.0
 20
0.0
 30
0.0
 11
0.0
 21
3200.0
 31
0.0
  0
VIEWPORT
  5
2B7
330
1B
100
AcDbEntity
 67
     1
  8
0
100
AcDbViewport
 10
0.0
 20
0.0
 30
0.0
 40
5334.163424124515
 41
3772.015564202335
 68
     1
 69
     1
 12
2521.400778210117
 22
1600.0
 13
0.0
 23
0.0
 14
1.0
 24
1.0
 15
0.0
 25
0.0
 16
0.0
 26
0.0
 36
1.0
 17
0.0
 27
0.0
 37
0.0
 42
50.0
 43
0.0
 44
0.0
 45
3772.015564202335
 50
0.0
 51
0.0
 72
   100
 90
   557216
  1

281
     0
 71
     1
 74
     0
110
0.0
120
0.0
130
0.0
111
1.0
121
0.0
131
0.0
112
0.0
122
1.0
132
0.0
 79
     0
146
0.0
170
     0
 61
     5
348
53D
292
     1
282
     1
141
0.0
142
0.0
 63
   256
  0
LINE
  5
2B8
330
1B
100
AcDbEntity
 67
     1
  8
7_ALL_FEATURES
  6
Continuous
 62
     7
100
AcDbLine
 10
2308.7546910191
 20
525.4263386824
 30
0.0
 11
2308.7546910191
 21
526.3013386824
 31
0.0
  0
LINE
  5
2B9
330
1B
100
AcDbEntity
 67
     1
  8
7_ALL_FEATURES
  6
Continuous
 62
     7
100
AcDbLine
 10
2308.7546910191
 20
526.3013386824
 30
0.0
 11
2309.6296910191
 21
526.3013386824
 31
0.0
  0
LINE
  5
2BA
330
1B
100
AcDbEntity
 67
     1
  8
7_ALL_FEATURES
  6
Continuous
 62
     7
100
AcDbLine
 10
2309.6296910191
 20
527.0513386824
 30
0.0
 11
2308.7546910191
 21
527.0513386824
 31
0.0
  0
LINE
  5
2BB
330
1B
100
AcDbEntity
 67
     1
  8
7_ALL_FEATURES
  6
Continuous
 62
     7
100
AcDbLine
 10
2308.7546910191
 20
527.0513386824
 30
0.0
 11
2308.7546910191
 21
527.9263386824
 31
0.0
  0
LINE
  5
2BC
330
1B
100
AcDbEntity
 67
     1
  8
7_ALL_FEATURES
  6
Continuous
 62
     7
100
AcDbLine
 10
2308.0046910191
 20
527.9263386824
 30
0.0
 11
2308.0046910191
 21
527.0513386824
 31
0.0
  0
LINE
  5
2BD
330
1B
100
AcDbEntity
 67
     1
  8
7_ALL_FEATURES
  6
Continuous
 62
     7
100
AcDbLine
 10
2308.0046910191
 20
527.0513386824
 30
0.0
 11
2307.1296910191
 21
527.0513386824
 31
0.0
  0
LINE
  5
2BE
330
1B
100
AcDbEntity
 67
     1
  8
7_ALL_FEATURES
  6
Continuous
 62
     7
100
AcDbLine
 10
2307.1296910191
 20
526.3013386824
 30
0.0
 11
2308.0046910191
 21
526.3013386824
 31
0.0
  0
LINE
  5
2BF
330
1B
100
AcDbEntity
 67
     1
  8
7_ALL_FEATURES
  6
Continuous
 62
     7
100
AcDbLine
 10
2308.0046910191
 20
526.3013386824
 30
0.0
 11
2308.0046910191
 21
525.4263386824
 31
0.0
  0
ARC
  5
2C0
330
1B
100
AcDbEntity
 67
     1
  8
3_ALL_AXES
  6
Continuous
 62
     7
100
AcDbCircle
 10
2308.3796910191
 20
526.6763386824
 30
0.0
 40
2.75
100
AcDbArc
 50
0.0
 51
180.0
  0
LINE
  5
2C1
330
1B
100
AcDbEntity
 67
     1
  8
7_ALL_FEATURES
  6
Continuous
 62
     7
100
AcDbLine
 10
2308.0046910191
 20
527.9263386824
 30
0.0
 11
2308.7546910191
 21
527.9263386824
 31
0.0
  0
LINE
  5
2C2
330
1B
100
AcDbEntity
 67
     1
  8
7_ALL_FEATURES
  6
Continuous
 62
     7
100
AcDbLine
 10
2309.6296910191
 20
527.0513386824
 30
0.0
 11
2309.6296910191
 21
526.3013386824
 31
0.0
  0
LINE
  5
2C3
330
1B
100
AcDbEntity
 67
     1
  8
7_ALL_FEATURES
  6
Continuous
 62
     7
100
AcDbLine
 10
2308.7546910191
 20
525.4263386824
 30
0.0
 11
2308.0046910191
 21
525.4263386824
 31
0.0
  0
LINE
  5
2C4
330
1B
100
AcDbEntity
 67
     1
  8
7_ALL_FEATURES
  6
Continuous
 62
     7
100
AcDbLine
 10
2307.1296910191
 20
526.3013386824
 30
0.0
 11
2307.1296910191
 21
527.0513386824
 31
0.0
  0
ARC
  5
2C5
330
1B
100
AcDbEntity
 67
     1
  8
3_ALL_AXES
  6
Continuous
 62
     7
100
AcDbCircle
 10
2308.3796910191
 20
526.6763386824
 30
0.0
 40
2.75
100
AcDbArc
 50
180.0
 51
360.0
  0
LINE
  5
2C6
330
1B
100
AcDbEntity
 67
     1
  8
7_ALL_FEATURES
  6
Continuous
 62
     7
100
AcDbLine
 10
2308.7546910191
 20
574.1763386824
 30
0.0
 11
2308.7546910191
 21
575.0513386824
 31
0.0
  0
LINE
  5
2C7
330
1B
100
AcDbEntity
 67
     1
  8
7_ALL_FEATURES
  6
Continuous
 62
     7
100
AcDbLine
 10
2308.7546910191
 20
575.0513386824
 30
0.0
 11
2309.6296910191
 21
575.0513386824
 31
0.0
  0
LINE
  5
2C8
330
1B
100
AcDbEntity
 67
     1
  8
7_ALL_FEATURES
  6
Continuous
 62
     7
100
AcDbLine
 10
2309.6296910191
 20
575.8013386824
 30
0.0
 11
2308.7546910191
 21
575.8013386824
 31
0.0
  0
LINE
  5
2C9
330
1B
100
AcDbEntity
 67
     1
  8
7_ALL_FEATURES
  6
Continuous
 62
     7
100
AcDbLine
 10
2308.7546910191
 20
575.8013386824
 30
0.0
 11
2308.7546910191
 21
576.6763386824
 31
0.0
  0
LINE
  5
2CA
330
1B
100
AcDbEntity
 67
     1
  8
7_ALL_FEATURES
  6
Continuous
 62
     7
100
AcDbLine
 10
2308.0046910191
 20
576.6763386824
 30
0.0
 11
2308.0046910191
 21
575.8013386824
 31
0.0
  0
LINE
  5
2CB
330
1B
100
AcDbEntity
 67
     1
  8
7_ALL_FEATURES
  6
Continuous
 62
     7
100
AcDbLine
 10
2308.0046910191
 20
575.8013386824
 30
0.0
 11
2307.1296910191
 21
575.8013386824
 31
0.0
  0
LINE
  5
2CC
330
1B
100
AcDbEntity
 67
     1
  8
7_ALL_FEATURES
  6
Continuous
 62
     7
100
AcDbLine
 10
2307.1296910191
 20
575.0513386824
 30
0.0
 11
2308.0046910191
 21
575.0513386824
 31
0.0
  0
LINE
  5
2CD
330
1B
100
AcDbEntity
 67
     1
  8
7_ALL_FEATURES
  6
Continuous
 62
     7
100
AcDbLine
 10
2308.0046910191
 20
575.0513386824
 30
0.0
 11
2308.0046910191
 21
574.1763386824
 31
0.0
  0
ARC
  5
2CE
330
1B
100
AcDbEntity
 67
     1
  8
3_ALL_AXES
  6
Continuous
 62
     7
100
AcDbCircle
 10
2308.3796910191
 20
575.4263386824
 30
0.0
 40
2.75
100
AcDbArc
 50
0.0
 51
180.0
  0
LINE
  5
2CF
330
1B
100
AcDbEntity
 67
     1
  8
7_ALL_FEATURES
  6
Continuous
 62
     7
100
AcDbLine
 10
2308.0046910191
 20
576.6763386824
 30
0.0
 11
2308.7546910191
 21
576.6763386824
 31
0.0
  0
LINE
  5
2D0
330
1B
100
AcDbEntity
 67
     1
  8
7_ALL_FEATURES
  6
Continuous
 62
     7
100
AcDbLine
 10
2309.6296910191
 20
575.8013386824
 30
0.0
 11
2309.6296910191
 21
575.0513386824
 31
0.0
  0
LINE
  5
2D1
330
1B
100
AcDbEntity
 67
     1
  8
7_ALL_FEATURES
  6
Continuous
 62
     7
100
AcDbLine
 10
2308.7546910191
 20
574.1763386824
 30
0.0
 11
2308.0046910191
 21
574.1763386824
 31
0.0
  0
LINE
  5
2D2
330
1B
100
AcDbEntity
 67
     1
  8
7_ALL_FEATURES
  6
Continuous
 62
     7
100
AcDbLine
 10
2307.1296910191
 20
575.0513386824
 30
0.0
 11
2307.1296910191
 21
575.8013386824
 31
0.0
  0
ARC
  5
2D3
330
1B
100
AcDbEntity
 67
     1
  8
3_ALL_AXES
  6
Continuous
 62
     7
100
AcDbCircle
 10
2308.3796910191
 20
575.4263386824
 30
0.0
 40
2.75
100
AcDbArc
 50
180.0
 51
360.0
  0
LINE
  5
2D4
330
1B
100
AcDbEntity
 67
     1
  8
7_ALL_FEATURES
  6
Continuous
 62
     7
100
AcDbLine
 10
2272.3546910191
 20
574.1763386824
 30
0.0
 11
2272.3546910191
 21
575.0513386824
 31
0.0
  0
LINE
  5
2D5
330
1B
100
AcDbEntity
 67
     1
  8
7_ALL_FEATURES
  6
Continuous
 62
     7
100
AcDbLine
 10
2272.3546910191
 20
575.0513386824
 30
0.0
 11
2273.2296910191
 21
575.0513386824
 31
0.0
  0
LINE
  5
2D6
330
1B
100
AcDbEntity
 67
     1
  8
7_ALL_FEATURES
  6
Continuous
 62
     7
100
AcDbLine
 10
2273.2296910191
 20
575.8013386824
 30
0.0
 11
2272.3546910191
 21
575.8013386824
 31
0.0
  0
LINE
  5
2D7
330
1B
100
AcDbEntity
 67
     1
  8
7_ALL_FEATURES
  6
Continuous
 62
     7
100
AcDbLine
 10
2272.3546910191
 20
575.8013386824
 30
0.0
 11
2272.3546910191
 21
576.6763386824
 31
0.0
  0
LINE
  5
2D8
330
1B
100
AcDbEntity
 67
     1
  8
7_ALL_FEATURES
  6
Continuous
 62
     7
100
AcDbLine
 10
2271.6046910191
 20
576.6763386824
 30
0.0
 11
2271.6046910191
 21
575.8013386824
 31
0.0
  0
LINE
  5
2D9
330
1B
100
AcDbEntity
 67
     1
  8
7_ALL_FEATURES
  6
Continuous
 62
     7
100
AcDbLine
 10
2271.6046910191
 20
575.8013386824
 30
0.0
 11
2270.7296910191
 21
575.8013386824
 31
0.0
  0
LINE
  5
2DA
330
1B
100
AcDbEntity
 67
     1
  8
7_ALL_FEATURES
  6
Continuous
 62
     7
100
AcDbLine
 10
2270.7296910191
 20
575.0513386824
 30
0.0
 11
2271.6046910191
 21
575.0513386824
 31
0.0
  0
LINE
  5
2DB
330
1B
100
AcDbEntity
 67
     1
  8
7_ALL_FEATURES
  6
Continuous
 62
     7
100
AcDbLine
 10
2271.6046910191
 20
575.0513386824
 30
0.0
 11
2271.6046910191
 21
574.1763386824
 31
0.0
  0
ARC
  5
2DC
330
1B
100
AcDbEntity
 67
     1
  8
3_ALL_AXES
  6
Continuous
 62
     7
100
AcDbCircle
 10
2271.9796910191
 20
575.4263386824
 30
0.0
 40
2.75
100
AcDbArc
 50
0.0
 51
180.0
  0
LINE
  5
2DD
330
1B
100
AcDbEntity
 67
     1
  8
7_ALL_FEATURES
  6
Continuous
 62
     7
100
AcDbLine
 10
2271.6046910191
 20
576.6763386824
 30
0.0
 11
2272.3546910191
 21
576.6763386824
 31
0.0
  0
LINE
  5
2DE
330
1B
100
AcDbEntity
 67
     1
  8
7_ALL_FEATURES
  6
Continuous
 62
     7
100
AcDbLine
 10
2273.2296910191
 20
575.8013386824
 30
0.0
 11
2273.2296910191
 21
575.0513386824
 31
0.0
  0
LINE
  5
2DF
330
1B
100
AcDbEntity
 67
     1
  8
7_ALL_FEATURES
  6
Continuous
 62
     7
100
AcDbLine
 10
2272.3546910191
 20
574.1763386824
 30
0.0
 11
2271.6046910191
 21
574.1763386824
 31
0.0
  0
LINE
  5
2E0
330
1B
100
AcDbEntity
 67
     1
  8
7_ALL_FEATURES
  6
Continuous
 62
     7
100
AcDbLine
 10
2270.7296910191
 20
575.0513386824
 30
0.0
 11
2270.7296910191
 21
575.8013386824
 31
0.0
  0
ARC
  5
2E1
330
1B
100
AcDbEntity
 67
     1
  8
3_ALL_AXES
  6
Continuous
 62
     7
100
AcDbCircle
 10
2271.9796910191
 20
575.4263386824
 30
0.0
 40
2.75
100
AcDbArc
 50
180.0
 51
360.0
  0
LINE
  5
2E2
330
1B
100
AcDbEntity
 67
     1
  8
7_ALL_FEATURES
  6
Continuous
 62
     7
100
AcDbLine
 10
2272.3546910191
 20
525.4263386824
 30
0.0
 11
2272.3546910191
 21
526.3013386824
 31
0.0
  0
LINE
  5
2E3
330
1B
100
AcDbEntity
 67
     1
  8
7_ALL_FEATURES
  6
Continuous
 62
     7
100
AcDbLine
 10
2272.3546910191
 20
526.3013386824
 30
0.0
 11
2273.2296910191
 21
526.3013386824
 31
0.0
  0
LINE
  5
2E4
330
1B
100
AcDbEntity
 67
     1
  8
7_ALL_FEATURES
  6
Continuous
 62
     7
100
AcDbLine
 10
2273.2296910191
 20
527.0513386824
 30
0.0
 11
2272.3546910191
 21
527.0513386824
 31
0.0
  0
LINE
  5
2E5
330
1B
100
AcDbEntity
 67
     1
  8
7_ALL_FEATURES
  6
Continuous
 62
     7
100
AcDbLine
 10
2272.3546910191
 20
527.0513386824
 30
0.0
 11
2272.3546910191
 21
527.9263386824
 31
0.0
  0
LINE
  5
2E6
330
1B
100
AcDbEntity
 67
     1
  8
7_ALL_FEATURES
  6
Continuous
 62
     7
100
AcDbLine
 10
2271.6046910191
 20
527.9263386824
 30
0.0
 11
2271.6046910191
 21
527.0513386824
 31
0.0
  0
LINE
  5
2E7
330
1B
100
AcDbEntity
 67
     1
  8
7_ALL_FEATURES
  6
Continuous
 62
     7
100
AcDbLine
 10
2271.6046910191
 20
527.0513386824
 30
0.0
 11
2270.7296910191
 21
527.0513386824
 31
0.0
  0
LINE
  5
2E8
330
1B
100
AcDbEntity
 67
     1
  8
7_ALL_FEATURES
  6
Continuous
 62
     7
100
AcDbLine
 10
2270.7296910191
 20
526.3013386824
 30
0.0
 11
2271.6046910191
 21
526.3013386824
 31
0.0
  0
LINE
  5
2E9
330
1B
100
AcDbEntity
 67
     1
  8
7_ALL_FEATURES
  6
Continuous
 62
     7
100
AcDbLine
 10
2271.6046910191
 20
526.3013386824
 30
0.0
 11
2271.6046910191
 21
525.4263386824
 31
0.0
  0
ARC
  5
2EA
330
1B
100
AcDbEntity
 67
     1
  8
3_ALL_AXES
  6
Continuous
 62
     7
100
AcDbCircle
 10
2271.9796910191
 20
526.6763386824
 30
0.0
 40
2.75
100
AcDbArc
 50
0.0
 51
180.0
  0
LINE
  5
2EB
330
1B
100
AcDbEntity
 67
     1
  8
7_ALL_FEATURES
  6
Continuous
 62
     7
100
AcDbLine
 10
2271.6046910191
 20
527.9263386824
 30
0.0
 11
2272.3546910191
 21
527.9263386824
 31
0.0
  0
LINE
  5
2EC
330
1B
100
AcDbEntity
 67
     1
  8
7_ALL_FEATURES
  6
Continuous
 62
     7
100
AcDbLine
 10
2273.2296910191
 20
527.0513386824
 30
0.0
 11
2273.2296910191
 21
526.3013386824
 31
0.0
  0
LINE
  5
2ED
330
1B
100
AcDbEntity
 67
     1
  8
7_ALL_FEATURES
  6
Continuous
 62
     7
100
AcDbLine
 10
2272.3546910191
 20
525.4263386824
 30
0.0
 11
2271.6046910191
 21
525.4263386824
 31
0.0
  0
LINE
  5
2EE
330
1B
100
AcDbEntity
 67
     1
  8
7_ALL_FEATURES
  6
Continuous
 62
     7
100
AcDbLine
 10
2270.7296910191
 20
526.3013386824
 30
0.0
 11
2270.7296910191
 21
527.0513386824
 31
0.0
  0
ARC
  5
2EF
330
1B
100
AcDbEntity
 67
     1
  8
3_ALL_AXES
  6
Continuous
 62
     7
100
AcDbCircle
 10
2271.9796910191
 20
526.6763386824
 30
0.0
 40
2.75
100
AcDbArc
 50
180.0
 51
360.0
  0
ARC
  5
2F0
330
1B
100
AcDbEntity
 67
     1
  8
7_ALL_FEATURES
  6
Continuous
 62
     7
100
AcDbCircle
 10
2311.6796910191
 20
504.9263386824
 30
0.0
 40
1.5
100
AcDbArc
 50
126.8698976458
 51
233.1301023542
  0
ARC
  5
2F1
330
1B
100
AcDbEntity
 67
     1
  8
7_ALL_FEATURES
  6
Continuous
 62
     7
100
AcDbCircle
 10
2310.1796910191
 20
506.9263386824
 30
0.0
 40
1.0
100
AcDbArc
 50
306.8698976458
 51
360.0
  0
LINE
  5
2F2
330
1B
100
AcDbEntity
 67
     1
  8
7_ALL_FEATURES
  6
Continuous
 62
     7
100
AcDbLine
 10
2311.1796910191
 20
577.4263386824
 30
0.0
 11
2311.1796910191
 21
506.9263386824
 31
0.0
  0
ARC
  5
2F3
330
1B
100
AcDbEntity
 67
     1
  8
7_ALL_FEATURES
  6
Continuous
 62
     7
100
AcDbCircle
 10
2310.1796910191
 20
577.4263386824
 30
0.0
 40
1.0
100
AcDbArc
 50
0.0
 51
90.0
  0
LINE
  5
2F4
330
1B
100
AcDbEntity
 67
     1
  8
7_ALL_FEATURES
  6
Continuous
 62
     7
100
AcDbLine
 10
2270.1796910191
 20
578.4263386824
 30
0.0
 11
2310.1796910191
 21
578.4263386824
 31
0.0
  0
ARC
  5
2F5
330
1B
100
AcDbEntity
 67
     1
  8
7_ALL_FEATURES
  6
Continuous
 62
     7
100
AcDbCircle
 10
2270.1796910191
 20
577.4263386824
 30
0.0
 40
1.0
100
AcDbArc
 50
90.0
 51
180.0
  0
LINE
  5
2F6
330
1B
100
AcDbEntity
 67
     1
  8
7_ALL_FEATURES
  6
Continuous
 62
     7
100
AcDbLine
 10
2269.1796910191
 20
566.9263386824
 30
0.0
 11
2269.1796910191
 21
577.4263386824
 31
0.0
  0
ARC
  5
2F7
330
1B
100
AcDbEntity
 67
     1
  8
7_ALL_FEATURES
  6
Continuous
 62
     7
100
AcDbCircle
 10
2270.1796910191
 20
566.9263386824
 30
0.0
 40
1.0
100
AcDbArc
 50
180.0
 51
233.1301023542
  0
ARC
  5
2F8
330
1B
100
AcDbEntity
 67
     1
  8
7_ALL_FEATURES
  6
Continuous
 62
     7
100
AcDbCircle
 10
2268.6796910191
 20
564.9263386824
 30
0.0
 40
1.5
100
AcDbArc
 50
306.8698976458
 51
53.1301023542
  0
ARC
  5
2F9
330
1B
100
AcDbEntity
 67
     1
  8
7_ALL_FEATURES
  6
Continuous
 62
     7
100
AcDbCircle
 10
2270.1796910191
 20
562.9263386824
 30
0.0
 40
1.0
100
AcDbArc
 50
126.8698976458
 51
180.0
  0
LINE
  5
2FA
330
1B
100
AcDbEntity
 67
     1
  8
7_ALL_FEATURES
  6
Continuous
 62
     7
100
AcDbLine
 10
2269.1796910191
 20
495.9263386824
 30
0.0
 11
2269.1796910191
 21
562.9263386824
 31
0.0
  0
ARC
  5
2FB
330
1B
100
AcDbEntity
 67
     1
  8
7_ALL_FEATURES
  6
Continuous
 62
     7
100
AcDbCircle
 10
2270.1796910191
 20
495.9263386824
 30
0.0
 40
1.0
100
AcDbArc
 50
180.0
 51
270.0
  0
LINE
  5
2FC
330
1B
100
AcDbEntity
 67
     1
  8
7_ALL_FEATURES
  6
Continuous
 62
     7
100
AcDbLine
 10
2310.1796910191
 20
494.9263386824
 30
0.0
 11
2270.1796910191
 21
494.9263386824
 31
0.0
  0
ARC
  5
2FD
330
1B
100
AcDbEntity
 67
     1
  8
7_ALL_FEATURES
  6
Continuous
 62
     7
100
AcDbCircle
 10
2310.1796910191
 20
495.9263386824
 30
0.0
 40
1.0
100
AcDbArc
 50
270.0
 51
360.0
  0
LINE
  5
2FE
330
1B
100
AcDbEntity
 67
     1
  8
7_ALL_FEATURES
  6
Continuous
 62
     7
100
AcDbLine
 10
2311.1796910191
 20
502.9263386824
 30
0.0
 11
2311.1796910191
 21
495.9263386824
 31
0.0
  0
ARC
  5
2FF
330
1B
100
AcDbEntity
 67
     1
  8
7_ALL_FEATURES
  6
Continuous
 62
     7
100
AcDbCircle
 10
2310.1796910191
 20
502.9263386824
 30
0.0
 40
1.0
100
AcDbArc
 50
0.0
 51
53.1301023542
  0
ARC
  5
300
330
1B
100
AcDbEntity
 67
     1
  8
02___PRT_ALL_AXES
  6
Continuous
 62
     7
100
AcDbCircle
 10
2290.1796910191
 20
555.2578839011
 30
0.0
 40
9.5
100
AcDbArc
 50
2.0
 51
178.0
  0
LINE
  5
301
330
1B
100
AcDbEntity
 67
     1
  8
02___PRT_ALL_AXES
  6
Continuous
 62
     7
100
AcDbLine
 10
2280.185782749
 20
555.6068788681
 30
0.0
 11
2280.6854781625
 21
555.5894291198
 31
0.0
  0
ARC
  5
302
330
1B
100
AcDbEntity
 67
     1
  8
02___PRT_ALL_AXES
  6
Continuous
 62
     7
100
AcDbCircle
 10
2290.1796910191
 20
555.2578839011
 30
0.0
 40
10.0
100
AcDbArc
 50
2.0
 51
178.0
  0
LINE
  5
303
330
1B
100
AcDbEntity
 67
     1
  8
02___PRT_ALL_AXES
  6
Continuous
 62
     7
100
AcDbLine
 10
2299.6739038758
 20
555.5894291198
 30
0.0
 11
2300.1735992893
 21
555.6068788681
 31
0.0
  0
LINE
  5
304
330
1B
100
AcDbEntity
 67
     1
  8
02___PRT_ALL_AXES
  6
Continuous
 62
     7
100
AcDbLine
 10
2300.1735992893
 20
554.9088889341
 30
0.0
 11
2299.6739038758
 21
554.9263386824
 31
0.0
  0
ARC
  5
305
330
1B
100
AcDbEntity
 67
     1
  8
02___PRT_ALL_AXES
  6
Continuous
 62
     7
100
AcDbCircle
 10
2290.1796910191
 20
555.2578839011
 30
0.0
 40
10.0
100
AcDbArc
 50
182.0
 51
358.0
  0
LINE
  5
306
330
1B
100
AcDbEntity
 67
     1
  8
02___PRT_ALL_AXES
  6
Continuous
 62
     7
100
AcDbLine
 10
2280.6854781625
 20
554.9263386824
 30
0.0
 11
2280.185782749
 21
554.9088889341
 31
0.0
  0
ARC
  5
307
330
1B
100
AcDbEntity
 67
     1
  8
02___PRT_ALL_AXES
  6
Continuous
 62
     7
100
AcDbCircle
 10
2290.1796910191
 20
555.2578839011
 30
0.0
 40
9.5
100
AcDbArc
 50
182.0
 51
358.0
  0
LINE
  5
308
330
1B
100
AcDbEntity
 67
     1
  8
7_ALL_FEATURES
  6
Continuous
 62
     7
100
AcDbLine
 10
2269.992783958
 20
494.9263386824
 30
0.0
 11
2270.1796910191
 21
494.9263386824
 31
0.0
  0
ARC
  5
309
330
1B
100
AcDbEntity
 67
     1
  8
7_ALL_FEATURES
  6
Continuous
 62
     7
100
AcDbCircle
 10
2269.992783958
 20
495.2263386824
 30
0.0
 40
0.3
100
AcDbArc
 50
227.7009465768
 51
270.0
  0
LINE
  5
30A
330
1B
100
AcDbEntity
 67
     1
  8
7_ALL_FEATURES
  6
Continuous
 62
     7
100
AcDbLine
 10
2269.0438545588
 20
500.1357837964
 30
0.0
 11
2269.1796910191
 21
499.1040034444
 31
0.0
  0
ARC
  5
30B
330
1B
100
AcDbEntity
 67
     1
  8
7_ALL_FEATURES
  6
Continuous
 62
     7
100
AcDbCircle
 10
2276.4796910191
 20
501.1147302381
 30
0.0
 40
7.5
100
AcDbArc
 50
180.0
 51
187.5
  0
LINE
  5
30C
330
1B
100
AcDbEntity
 67
     1
  8
7_ALL_FEATURES
  6
Continuous
 62
     7
100
AcDbLine
 10
2268.9796910191
 20
530.7263386824
 30
0.0
 11
2268.9796910191
 21
501.1147302381
 31
0.0
  0
ARC
  5
30D
330
1B
100
AcDbEntity
 67
     1
  8
7_ALL_FEATURES
  6
Continuous
 62
     7
100
AcDbCircle
 10
2269.1796910191
 20
530.7263386824
 30
0.0
 40
0.2
100
AcDbArc
 50
90.0
 51
180.0
  0
ARC
  5
30E
330
1B
100
AcDbEntity
 67
     1
  8
7_ALL_FEATURES
  6
Continuous
 62
     7
100
AcDbCircle
 10
2269.1796910191
 20
535.6263386824
 30
0.0
 40
0.2
100
AcDbArc
 50
180.0
 51
270.0
  0
LINE
  5
30F
330
1B
100
AcDbEntity
 67
     1
  8
7_ALL_FEATURES
  6
Continuous
 62
     7
100
AcDbLine
 10
2268.9796910191
 20
548.6263386824
 30
0.0
 11
2268.9796910191
 21
535.6263386824
 31
0.0
  0
ARC
  5
310
330
1B
100
AcDbEntity
 67
     1
  8
7_ALL_FEATURES
  6
Continuous
 62
     7
100
AcDbCircle
 10
2269.2796910191
 20
548.6263386824
 30
0.0
 40
0.3
100
AcDbArc
 50
109.5991446746
 51
180.0
  0
ARC
  5
311
330
1B
100
AcDbEntity
 67
     1
  8
7_ALL_FEATURES
  6
Continuous
 62
     7
100
AcDbCircle
 10
2269.2796910191
 20
553.7263386824
 30
0.0
 40
0.3
100
AcDbArc
 50
180.0
 51
250.4008553254
  0
LINE
  5
312
330
1B
100
AcDbEntity
 67
     1
  8
7_ALL_FEATURES
  6
Continuous
 62
     7
100
AcDbLine
 10
2268.9796910191
 20
577.4263386824
 30
0.0
 11
2268.9796910191
 21
553.7263386824
 31
0.0
  0
ARC
  5
313
330
1B
100
AcDbEntity
 67
     1
  8
7_ALL_FEATURES
  6
Continuous
 62
     7
100
AcDbCircle
 10
2269.9796910191
 20
577.4263386824
 30
0.0
 40
1.0
100
AcDbArc
 50
90.0
 51
180.0
  0
LINE
  5
314
330
1B
100
AcDbEntity
 67
     1
  8
7_ALL_FEATURES
  6
Continuous
 62
     7
100
AcDbLine
 10
2270.1796910191
 20
578.4263386824
 30
0.0
 11
2269.9796910191
 21
578.4263386824
 31
0.0
  0
LINE
  5
315
330
1B
100
AcDbEntity
 67
     1
  8
7_ALL_FEATURES
  6
Continuous
 62
     7
100
AcDbLine
 10
2310.3796910191
 20
578.4263386824
 30
0.0
 11
2310.1796910191
 21
578.4263386824
 31
0.0
  0
ARC
  5
316
330
1B
100
AcDbEntity
 67
     1
  8
7_ALL_FEATURES
  6
Continuous
 62
     7
100
AcDbCircle
 10
2310.3796910191
 20
577.4263386824
 30
0.0
 40
1.0
100
AcDbArc
 50
0.0
 51
90.0
  0
LINE
  5
317
330
1B
100
AcDbEntity
 67
     1
  8
7_ALL_FEATURES
  6
Continuous
 62
     7
100
AcDbLine
 10
2311.3796910191
 20
553.7263386824
 30
0.0
 11
2311.3796910191
 21
577.4263386824
 31
0.0
  0
ARC
  5
318
330
1B
100
AcDbEntity
 67
     1
  8
7_ALL_FEATURES
  6
Continuous
 62
     7
100
AcDbCircle
 10
2311.0796910191
 20
553.7263386824
 30
0.0
 40
0.3
100
AcDbArc
 50
289.5991446746
 51
360.0
  0
ARC
  5
319
330
1B
100
AcDbEntity
 67
     1
  8
7_ALL_FEATURES
  6
Continuous
 62
     7
100
AcDbCircle
 10
2311.0796910191
 20
548.6263386824
 30
0.0
 40
0.3
100
AcDbArc
 50
0.0
 51
70.4008553254
  0
LINE
  5
31A
330
1B
100
AcDbEntity
 67
     1
  8
7_ALL_FEATURES
  6
Continuous
 62
     7
100
AcDbLine
 10
2311.3796910191
 20
535.6263386824
 30
0.0
 11
2311.3796910191
 21
548.6263386824
 31
0.0
  0
ARC
  5
31B
330
1B
100
AcDbEntity
 67
     1
  8
7_ALL_FEATURES
  6
Continuous
 62
     7
100
AcDbCircle
 10
2311.1796910191
 20
535.6263386824
 30
0.0
 40
0.2
100
AcDbArc
 50
270.0
 51
360.0
  0
ARC
  5
31C
330
1B
100
AcDbEntity
 67
     1
  8
7_ALL_FEATURES
  6
Continuous
 62
     7
100
AcDbCircle
 10
2311.1796910191
 20
530.7263386824
 30
0.0
 40
0.2
100
AcDbArc
 50
0.0
 51
90.0
  0
LINE
  5
31D
330
1B
100
AcDbEntity
 67
     1
  8
7_ALL_FEATURES
  6
Continuous
 62
     7
100
AcDbLine
 10
2311.3796910191
 20
501.1147302381
 30
0.0
 11
2311.3796910191
 21
530.7263386824
 31
0.0
  0
ARC
  5
31E
330
1B
100
AcDbEntity
 67
     1
  8
7_ALL_FEATURES
  6
Continuous
 62
     7
100
AcDbCircle
 10
2303.8796910191
 20
501.1147302381
 30
0.0
 40
7.5
100
AcDbArc
 50
352.5
 51
360.0
  0
LINE
  5
31F
330
1B
100
AcDbEntity
 67
     1
  8
7_ALL_FEATURES
  6
Continuous
 62
     7
100
AcDbLine
 10
2311.1796910191
 20
499.1040034444
 30
0.0
 11
2311.3155274794
 21
500.1357837964
 31
0.0
  0
ARC
  5
320
330
1B
100
AcDbEntity
 67
     1
  8
7_ALL_FEATURES
  6
Continuous
 62
     7
100
AcDbCircle
 10
2310.3665980802
 20
495.2263386824
 30
0.0
 40
0.3
100
AcDbArc
 50
270.0
 51
312.2990534232
  0
LINE
  5
321
330
1B
100
AcDbEntity
 67
     1
  8
7_ALL_FEATURES
  6
Continuous
 62
     7
100
AcDbLine
 10
2310.1796910191
 20
494.9263386824
 30
0.0
 11
2310.3665980802
 21
494.9263386824
 31
0.0
  0
LINE
  5
322
330
1B
100
AcDbEntity
 67
     1
  8
7_ALL_FEATURES
  6
Continuous
 62
     7
100
AcDbLine
 10
2268.6296910191
 20
509.6263386824
 30
0.0
 11
2268.6296910191
 21
577.8263386824
 31
0.0
  0
ARC
  5
323
330
1B
100
AcDbEntity
 67
     1
  8
7_ALL_FEATURES
  6
Continuous
 62
     7
100
AcDbCircle
 10
2311.1296910191
 20
577.8263386824
 30
0.0
 40
0.6
100
AcDbArc
 50
0.0
 51
90.0
  0
LINE
  5
324
330
1B
100
AcDbEntity
 67
     1
  8
7_ALL_FEATURES
  6
Continuous
 62
     7
100
AcDbLine
 10
2336.7296910191
 20
508.4263386824
 30
0.0
 11
2313.7296910191
 21
508.4263386824
 31
0.0
  0
LINE
  5
325
330
1B
100
AcDbEntity
 67
     1
  8
7_ALL_FEATURES
  6
Continuous
 62
     7
100
AcDbLine
 10
2313.7296910191
 20
508.4263386824
 30
0.0
 11
2312.9296910191
 21
508.4263386824
 31
0.0
  0
LINE
  5
326
330
1B
100
AcDbEntity
 67
     1
  8
7_ALL_FEATURES
  6
Continuous
 62
     7
100
AcDbLine
 10
2311.7296910191
 20
577.8263386824
 30
0.0
 11
2311.7296910191
 21
509.6263386824
 31
0.0
  0
ARC
  5
327
330
1B
100
AcDbEntity
 67
     1
  8
7_ALL_FEATURES
  6
Continuous
 62
     7
100
AcDbCircle
 10
2312.9296910191
 20
509.6263386824
 30
0.0
 40
1.2
100
AcDbArc
 50
180.0
 51
270.0
  0
LINE
  5
328
330
1B
100
AcDbEntity
 67
     1
  8
7_ALL_FEATURES
  6
Continuous
 62
     7
100
AcDbLine
 10
2336.7296910191
 20
509.0263386824
 30
0.0
 11
2336.7296910191
 21
508.4263386824
 31
0.0
  0
LINE
  5
329
330
1B
100
AcDbEntity
 67
     1
  8
7_ALL_FEATURES
  6
Continuous
 62
     7
100
AcDbLine
 10
2243.6296910191
 20
509.0263386824
 30
0.0
 11
2243.6296910191
 21
508.4263386824
 31
0.0
  0
ARC
  5
32A
330
1B
100
AcDbEntity
 67
     1
  8
7_ALL_FEATURES
  6
Continuous
 62
     7
100
AcDbCircle
 10
2267.4296910191
 20
509.6263386824
 30
0.0
 40
1.2
100
AcDbArc
 50
270.0
 51
360.0
  0
LINE
  5
32B
330
1B
100
AcDbEntity
 67
     1
  8
7_ALL_FEATURES
  6
Continuous
 62
     7
100
AcDbLine
 10
2267.4296910191
 20
508.4263386824
 30
0.0
 11
2266.6296910191
 21
508.4263386824
 31
0.0
  0
LINE
  5
32C
330
1B
100
AcDbEntity
 67
     1
  8
7_ALL_FEATURES
  6
Continuous
 62
     7
100
AcDbLine
 10
2266.6296910191
 20
508.4263386824
 30
0.0
 11
2243.6296910191
 21
508.4263386824
 31
0.0
  0
LINE
  5
32D
330
1B
100
AcDbEntity
 67
     1
  8
7_ALL_FEATURES
  6
Continuous
 62
     7
100
AcDbLine
 10
2269.2296910191
 20
578.4263386824
 30
0.0
 11
2269.9796910191
 21
578.4263386824
 31
0.0
  0
LINE
  5
32E
330
1B
100
AcDbEntity
 67
     1
  8
7_ALL_FEATURES
  6
Continuous
 62
     7
100
AcDbLine
 10
2310.3796910191
 20
578.4263386824
 30
0.0
 11
2311.1296910191
 21
578.4263386824
 31
0.0
  0
ARC
  5
32F
330
1B
100
AcDbEntity
 67
     1
  8
7_ALL_FEATURES
  6
Continuous
 62
     7
100
AcDbCircle
 10
2269.2296910191
 20
577.8263386824
 30
0.0
 40
0.6
100
AcDbArc
 50
90.0
 51
180.0
  0
LINE
  5
330
330
1B
100
AcDbEntity
 67
     1
  8
7_ALL_FEATURES
  6
Continuous
 62
     9
100
AcDbLine
 10
2312.3296910191
 20
577.8263386824
 30
0.0
 11
2311.7296910191
 21
577.8263386824
 31
0.0
  0
LINE
  5
331
330
1B
100
AcDbEntity
 67
     1
  8
7_ALL_FEATURES
  6
Continuous
 62
     9
100
AcDbLine
 10
2311.1296910191
 20
579.0263386824
 30
0.0
 11
2311.1296910191
 21
578.4263386824
 31
0.0
  0
LINE
  5
332
330
1B
100
AcDbEntity
 67
     1
  8
7_ALL_FEATURES
  6
Continuous
 62
     9
100
AcDbLine
 10
2311.7296910191
 20
509.6263386824
 30
0.0
 11
2312.3296910191
 21
509.6263386824
 31
0.0
  0
LINE
  5
333
330
1B
100
AcDbEntity
 67
     1
  8
7_ALL_FEATURES
  6
Continuous
 62
     9
100
AcDbLine
 10
2269.2296910191
 20
579.0263386824
 30
0.0
 11
2269.2296910191
 21
578.4263386824
 31
0.0
  0
LINE
  5
334
330
1B
100
AcDbEntity
 67
     1
  8
7_ALL_FEATURES
  6
Continuous
 62
     9
100
AcDbLine
 10
2268.6296910191
 20
509.6263386824
 30
0.0
 11
2268.0296910191
 21
509.6263386824
 31
0.0
  0
LINE
  5
335
330
1B
100
AcDbEntity
 67
     1
  8
7_ALL_FEATURES
  6
Continuous
 62
     9
100
AcDbLine
 10
2268.0296910191
 20
577.8263386824
 30
0.0
 11
2268.6296910191
 21
577.8263386824
 31
0.0
  0
LINE
  5
336
330
1B
100
AcDbEntity
 67
     1
  8
7_ALL_FEATURES
  6
Continuous
 62
     9
100
AcDbLine
 10
2267.4296910191
 20
508.4263386824
 30
0.0
 11
2267.4296910191
 21
509.0263386824
 31
0.0
  0
LINE
  5
337
330
1B
100
AcDbEntity
 67
     1
  8
7_ALL_FEATURES
  6
Continuous
 62
     7
100
AcDbLine
 10
2266.6296910191
 20
509.0263386824
 30
0.0
 11
2266.6296910191
 21
508.4263386824
 31
0.0
  0
LINE
  5
338
330
1B
100
AcDbEntity
 67
     1
  8
7_ALL_FEATURES
  6
Continuous
 62
     7
100
AcDbLine
 10
2313.7296910191
 20
509.0263386824
 30
0.0
 11
2313.7296910191
 21
508.4263386824
 31
0.0
  0
LINE
  5
339
330
1B
100
AcDbEntity
 67
     1
  8
7_ALL_FEATURES
  6
Continuous
 62
     9
100
AcDbLine
 10
2312.9296910191
 20
508.4263386824
 30
0.0
 11
2312.9296910191
 21
509.0263386824
 31
0.0
  0
LINE
  5
33A
330
1B
100
AcDbEntity
 67
     1
  8
7_ALL_FEATURES
  6
Continuous
 62
     3
100
AcDbLine
 10
2312.3296910191
 20
577.8263386824
 30
0.0
 11
2312.3296910191
 21
509.6263386824
 31
0.0
  0
ARC
  5
33B
330
1B
100
AcDbEntity
 67
     1
  8
7_ALL_FEATURES
  6
Continuous
 62
     3
100
AcDbCircle
 10
2311.1296910191
 20
577.8263386824
 30
0.0
 40
1.2
100
AcDbArc
 50
0.0
 51
90.0
  0
ARC
  5
33C
330
1B
100
AcDbEntity
 67
     1
  8
7_ALL_FEATURES
  6
Continuous
 62
     3
100
AcDbCircle
 10
2267.4296910191
 20
509.6263386824
 30
0.0
 40
0.6
100
AcDbArc
 50
270.0
 51
360.0
  0
LINE
  5
33D
330
1B
100
AcDbEntity
 67
     1
  8
7_ALL_FEATURES
  6
Continuous
 62
     3
100
AcDbLine
 10
2267.4296910191
 20
509.0263386824
 30
0.0
 11
2266.6296910191
 21
509.0263386824
 31
0.0
  0
LINE
  5
33E
330
1B
100
AcDbEntity
 67
     1
  8
7_ALL_FEATURES
  6
Continuous
 62
     3
100
AcDbLine
 10
2243.6296910191
 20
509.0263386824
 30
0.0
 11
2266.6296910191
 21
509.0263386824
 31
0.0
  0
LINE
  5
33F
330
1B
100
AcDbEntity
 67
     1
  8
7_ALL_FEATURES
  6
Continuous
 62
     3
100
AcDbLine
 10
2313.7296910191
 20
509.0263386824
 30
0.0
 11
2336.7296910191
 21
509.0263386824
 31
0.0
  0
LINE
  5
340
330
1B
100
AcDbEntity
 67
     1
  8
7_ALL_FEATURES
  6
Continuous
 62
     3
100
AcDbLine
 10
2313.7296910191
 20
509.0263386824
 30
0.0
 11
2312.9296910191
 21
509.0263386824
 31
0.0
  0
ARC
  5
341
330
1B
100
AcDbEntity
 67
     1
  8
7_ALL_FEATURES
  6
Continuous
 62
     3
100
AcDbCircle
 10
2312.9296910191
 20
509.6263386824
 30
0.0
 40
0.6
100
AcDbArc
 50
180.0
 51
270.0
  0
LINE
  5
342
330
1B
100
AcDbEntity
 67
     1
  8
7_ALL_FEATURES
  6
Continuous
 62
     3
100
AcDbLine
 10
2269.2296910191
 20
579.0263386824
 30
0.0
 11
2311.1296910191
 21
579.0263386824
 31
0.0
  0
ARC
  5
343
330
1B
100
AcDbEntity
 67
     1
  8
7_ALL_FEATURES
  6
Continuous
 62
     3
100
AcDbCircle
 10
2269.2296910191
 20
577.8263386824
 30
0.0
 40
1.2
100
AcDbArc
 50
90.0
 51
180.0
  0
LINE
  5
344
330
1B
100
AcDbEntity
 67
     1
  8
7_ALL_FEATURES
  6
Continuous
 62
     3
100
AcDbLine
 10
2268.0296910191
 20
509.6263386824
 30
0.0
 11
2268.0296910191
 21
577.8263386824
 31
0.0
  0
LINE
  5
345
330
1B
100
AcDbEntity
 67
     1
  8
3_ALL_AXES
  6
Continuous
 62
     7
100
AcDbLine
 10
2132.5559895833
 20
524.219419125
 30
0.0
 11
2132.9052692537
 21
523.9263386824
 31
0.0
  0
LINE
  5
346
330
1B
100
AcDbEntity
 67
     1
  8
3_ALL_AXES
  6
Continuous
 62
     7
100
AcDbLine
 10
2133.0559895833
 20
523.9263867486
 30
0.0
 11
2133.0559895833
 21
526.6763386824
 31
0.0
  0
LINE
  5
347
330
1B
100
AcDbEntity
 67
     1
  8
3_ALL_AXES
  6
Continuous
 62
     7
100
AcDbLine
 10
2132.9052692537
 20
523.9263386824
 30
0.0
 11
2133.0559895833
 21
523.9263386824
 31
0.0
  0
LINE
  5
348
330
1B
100
AcDbEntity
 67
     1
  8
3_ALL_AXES
  6
Continuous
 62
     7
100
AcDbLine
 10
2132.5559895833
 20
529.1332582398
 30
0.0
 11
2132.9052692537
 21
529.4263386824
 31
0.0
  0
LINE
  5
349
330
1B
100
AcDbEntity
 67
     1
  8
3_ALL_AXES
  6
Continuous
 62
     7
100
AcDbLine
 10
2133.0559895833
 20
529.4262906163
 30
0.0
 11
2133.0559895833
 21
526.6763386824
 31
0.0
  0
LINE
  5
34A
330
1B
100
AcDbEntity
 67
     1
  8
3_ALL_AXES
  6
Continuous
 62
     7
100
AcDbLine
 10
2132.9052692537
 20
529.4263386824
 30
0.0
 11
2133.0559895833
 21
529.4263386824
 31
0.0
  0
LINE
  5
34B
330
1B
100
AcDbEntity
 67
     1
  8
3_ALL_AXES
  6
Continuous
 62
     7
100
AcDbLine
 10
2132.9052692537
 20
523.9263386824
 30
0.0
 11
2132.9052692537
 21
526.6763386824
 31
0.0
  0
LINE
  5
34C
330
1B
100
AcDbEntity
 67
     1
  8
3_ALL_AXES
  6
Continuous
 62
     7
100
AcDbLine
 10
2132.9052692537
 20
529.4263386824
 30
0.0
 11
2132.9052692537
 21
526.6763386824
 31
0.0
  0
LINE
  5
34D
330
1B
100
AcDbEntity
 67
     1
  8
3_ALL_AXES
  6
Continuous
 62
     7
100
AcDbLine
 10
2132.5559895833
 20
572.969419125
 30
0.0
 11
2132.9052692537
 21
572.6763386824
 31
0.0
  0
LINE
  5
34E
330
1B
100
AcDbEntity
 67
     1
  8
3_ALL_AXES
  6
Continuous
 62
     7
100
AcDbLine
 10
2133.0559895833
 20
572.6763867486
 30
0.0
 11
2133.0559895833
 21
575.4263386824
 31
0.0
  0
LINE
  5
34F
330
1B
100
AcDbEntity
 67
     1
  8
3_ALL_AXES
  6
Continuous
 62
     7
100
AcDbLine
 10
2132.9052692537
 20
572.6763386824
 30
0.0
 11
2133.0559895833
 21
572.6763386824
 31
0.0
  0
LINE
  5
350
330
1B
100
AcDbEntity
 67
     1
  8
3_ALL_AXES
  6
Continuous
 62
     7
100
AcDbLine
 10
2132.5559895833
 20
577.8832582398
 30
0.0
 11
2132.9052692537
 21
578.1763386824
 31
0.0
  0
LINE
  5
351
330
1B
100
AcDbEntity
 67
     1
  8
3_ALL_AXES
  6
Continuous
 62
     7
100
AcDbLine
 10
2133.0559895833
 20
578.1762906163
 30
0.0
 11
2133.0559895833
 21
575.4263386824
 31
0.0
  0
LINE
  5
352
330
1B
100
AcDbEntity
 67
     1
  8
3_ALL_AXES
  6
Continuous
 62
     7
100
AcDbLine
 10
2132.9052692537
 20
578.1763386824
 30
0.0
 11
2133.0559895833
 21
578.1763386824
 31
0.0
  0
LINE
  5
353
330
1B
100
AcDbEntity
 67
     1
  8
3_ALL_AXES
  6
Continuous
 62
     7
100
AcDbLine
 10
2132.9052692537
 20
572.6763386824
 30
0.0
 11
2132.9052692537
 21
575.4263386824
 31
0.0
  0
LINE
  5
354
330
1B
100
AcDbEntity
 67
     1
  8
3_ALL_AXES
  6
Continuous
 62
     7
100
AcDbLine
 10
2132.9052692537
 20
578.1763386824
 30
0.0
 11
2132.9052692537
 21
575.4263386824
 31
0.0
  0
LINE
  5
355
330
1B
100
AcDbEntity
 67
     1
  8
3_ALL_AXES
  6
Continuous
 62
     7
100
AcDbLine
 10
1090.5559895833
 20
524.219419125
 30
0.0
 11
1090.206709913
 21
523.9263386824
 31
0.0
  0
LINE
  5
356
330
1B
100
AcDbEntity
 67
     1
  8
3_ALL_AXES
  6
Continuous
 62
     7
100
AcDbLine
 10
1090.206709913
 20
523.9263386824
 30
0.0
 11
1090.0559895833
 21
523.9263386824
 31
0.0
  0
LINE
  5
357
330
1B
100
AcDbEntity
 67
     1
  8
3_ALL_AXES
  6
Continuous
 62
     7
100
AcDbLine
 10
1090.0559895833
 20
526.6763386824
 30
0.0
 11
1090.0559895833
 21
529.4262906163
 31
0.0
  0
LINE
  5
358
330
1B
100
AcDbEntity
 67
     1
  8
3_ALL_AXES
  6
Continuous
 62
     7
100
AcDbLine
 10
1090.0559895833
 20
526.6763386824
 30
0.0
 11
1090.0559895833
 21
523.9263867486
 31
0.0
  0
LINE
  5
359
330
1B
100
AcDbEntity
 67
     1
  8
3_ALL_AXES
  6
Continuous
 62
     7
100
AcDbLine
 10
1090.5559895833
 20
529.1332582398
 30
0.0
 11
1090.206709913
 21
529.4263386824
 31
0.0
  0
LINE
  5
35A
330
1B
100
AcDbEntity
 67
     1
  8
3_ALL_AXES
  6
Continuous
 62
     7
100
AcDbLine
 10
1090.206709913
 20
529.4263386824
 30
0.0
 11
1090.0559895833
 21
529.4263386824
 31
0.0
  0
LINE
  5
35B
330
1B
100
AcDbEntity
 67
     1
  8
3_ALL_AXES
  6
Continuous
 62
     7
100
AcDbLine
 10
1090.206709913
 20
526.6763386824
 30
0.0
 11
1090.206709913
 21
523.9263386824
 31
0.0
  0
LINE
  5
35C
330
1B
100
AcDbEntity
 67
     1
  8
3_ALL_AXES
  6
Continuous
 62
     7
100
AcDbLine
 10
1090.206709913
 20
526.6763386824
 30
0.0
 11
1090.206709913
 21
529.4263386824
 31
0.0
  0
LINE
  5
35D
330
1B
100
AcDbEntity
 67
     1
  8
3_ALL_AXES
  6
Continuous
 62
     7
100
AcDbLine
 10
1090.5559895833
 20
572.969419125
 30
0.0
 11
1090.206709913
 21
572.6763386824
 31
0.0
  0
LINE
  5
35E
330
1B
100
AcDbEntity
 67
     1
  8
3_ALL_AXES
  6
Continuous
 62
     7
100
AcDbLine
 10
1090.206709913
 20
572.6763386824
 30
0.0
 11
1090.0559895833
 21
572.6763386824
 31
0.0
  0
LINE
  5
35F
330
1B
100
AcDbEntity
 67
     1
  8
3_ALL_AXES
  6
Continuous
 62
     7
100
AcDbLine
 10
1090.0559895833
 20
575.4263386824
 30
0.0
 11
1090.0559895833
 21
578.1762906163
 31
0.0
  0
LINE
  5
360
330
1B
100
AcDbEntity
 67
     1
  8
3_ALL_AXES
  6
Continuous
 62
     7
100
AcDbLine
 10
1090.0559895833
 20
575.4263386824
 30
0.0
 11
1090.0559895833
 21
572.6763867486
 31
0.0
  0
LINE
  5
361
330
1B
100
AcDbEntity
 67
     1
  8
3_ALL_AXES
  6
Continuous
 62
     7
100
AcDbLine
 10
1090.5559895833
 20
577.8832582398
 30
0.0
 11
1090.206709913
 21
578.1763386824
 31
0.0
  0
LINE
  5
362
330
1B
100
AcDbEntity
 67
     1
  8
3_ALL_AXES
  6
Continuous
 62
     7
100
AcDbLine
 10
1090.206709913
 20
578.1763386824
 30
0.0
 11
1090.0559895833
 21
578.1763386824
 31
0.0
  0
LINE
  5
363
330
1B
100
AcDbEntity
 67
     1
  8
3_ALL_AXES
  6
Continuous
 62
     7
100
AcDbLine
 10
1090.206709913
 20
575.4263386824
 30
0.0
 11
1090.206709913
 21
572.6763386824
 31
0.0
  0
LINE
  5
364
330
1B
100
AcDbEntity
 67
     1
  8
3_ALL_AXES
  6
Continuous
 62
     7
100
AcDbLine
 10
1090.206709913
 20
575.4263386824
 30
0.0
 11
1090.206709913
 21
578.1763386824
 31
0.0
  0
LINE
  5
365
330
1B
100
AcDbEntity
 67
     1
  8
7_ALL_FEATURES
  6
Continuous
 62
     7
100
AcDbLine
 10
2132.5559895833
 20
578.4263386824
 30
0.0
 11
2132.5559895833
 21
577.4263386824
 31
0.0
  0
LINE
  5
366
330
1B
100
AcDbEntity
 67
     1
  8
7_ALL_FEATURES
  6
Continuous
 62
     7
100
AcDbLine
 10
2132.5559895833
 20
566.9263386824
 30
0.0
 11
2132.5559895833
 21
577.4263386824
 31
0.0
  0
LINE
  5
367
330
1B
100
AcDbEntity
 67
     1
  8
7_ALL_FEATURES
  6
Continuous
 62
     7
100
AcDbLine
 10
2132.5559895833
 20
566.9263386824
 30
0.0
 11
2132.5559895833
 21
566.1263386824
 31
0.0
  0
LINE
  5
368
330
1B
100
AcDbEntity
 67
     1
  8
7_ALL_FEATURES
  6
Continuous
 62
     7
100
AcDbLine
 10
2132.5559895833
 20
566.1263386824
 30
0.0
 11
2132.5559895833
 21
563.7263386824
 31
0.0
  0
LINE
  5
369
330
1B
100
AcDbEntity
 67
     1
  8
7_ALL_FEATURES
  6
Continuous
 62
     7
100
AcDbLine
 10
2132.5559895833
 20
563.7263386824
 30
0.0
 11
2132.5559895833
 21
562.9263386824
 31
0.0
  0
LINE
  5
36A
330
1B
100
AcDbEntity
 67
     1
  8
7_ALL_FEATURES
  6
Continuous
 62
     7
100
AcDbLine
 10
2132.5559895833
 20
495.9263386824
 30
0.0
 11
2132.5559895833
 21
562.9263386824
 31
0.0
  0
LINE
  5
36B
330
1B
100
AcDbEntity
 67
     1
  8
7_ALL_FEATURES
  6
Continuous
 62
     7
100
AcDbLine
 10
2132.5559895833
 20
495.9263386824
 30
0.0
 11
2132.5559895833
 21
494.9263386824
 31
0.0
  0
LINE
  5
36C
330
1B
100
AcDbEntity
 67
     1
  8
7_ALL_FEATURES
  6
Continuous
 62
     7
100
AcDbLine
 10
2132.5559895833
 20
578.4263386824
 30
0.0
 11
2131.0559895833
 21
578.4263386824
 31
0.0
  0
LINE
  5
36D
330
1B
100
AcDbEntity
 67
     1
  8
7_ALL_FEATURES
  6
Continuous
 62
     7
100
AcDbLine
 10
2132.5559895833
 20
494.9263386824
 30
0.0
 11
2131.0559895833
 21
494.9263386824
 31
0.0
  0
LINE
  5
36E
330
1B
100
AcDbEntity
 67
     1
  8
7_ALL_FEATURES
  6
Continuous
 62
     9
100
AcDbLine
 10
2132.5559895833
 20
566.1263386824
 30
0.0
 11
2131.0559895833
 21
566.1263386824
 31
0.0
  0
LINE
  5
36F
330
1B
100
AcDbEntity
 67
     1
  8
7_ALL_FEATURES
  6
Continuous
 62
     9
100
AcDbLine
 10
2132.5559895833
 20
563.7263386824
 30
0.0
 11
2131.0559895833
 21
563.7263386824
 31
0.0
  0
LINE
  5
370
330
1B
100
AcDbEntity
 67
     1
  8
7_ALL_FEATURES
  6
Continuous
 62
     9
100
AcDbLine
 10
2132.5559895833
 20
577.4263386824
 30
0.0
 11
2131.0559895833
 21
577.4263386824
 31
0.0
  0
LINE
  5
371
330
1B
100
AcDbEntity
 67
     1
  8
7_ALL_FEATURES
  6
Continuous
 62
     9
100
AcDbLine
 10
2132.5559895833
 20
566.9263386824
 30
0.0
 11
2131.0559895833
 21
566.9263386824
 31
0.0
  0
LINE
  5
372
330
1B
100
AcDbEntity
 67
     1
  8
7_ALL_FEATURES
  6
Continuous
 62
     9
100
AcDbLine
 10
2132.5559895833
 20
495.9263386824
 30
0.0
 11
2131.0559895833
 21
495.9263386824
 31
0.0
  0
LINE
  5
373
330
1B
100
AcDbEntity
 67
     1
  8
7_ALL_FEATURES
  6
Continuous
 62
     9
100
AcDbLine
 10
2132.5559895833
 20
562.9263386824
 30
0.0
 11
2131.0559895833
 21
562.9263386824
 31
0.0
  0
LINE
  5
374
330
1B
100
AcDbEntity
 67
     1
  8
7_ALL_FEATURES
  6
Continuous
 62
     7
100
AcDbLine
 10
1090.5559895833
 20
503.7263386824
 30
0.0
 11
1090.5559895833
 21
506.1263386824
 31
0.0
  0
LINE
  5
375
330
1B
100
AcDbEntity
 67
     1
  8
7_ALL_FEATURES
  6
Continuous
 62
     7
100
AcDbLine
 10
1090.5559895833
 20
506.1263386824
 30
0.0
 11
1090.5559895833
 21
506.9263386824
 31
0.0
  0
LINE
  5
376
330
1B
100
AcDbEntity
 67
     1
  8
7_ALL_FEATURES
  6
Continuous
 62
     7
100
AcDbLine
 10
1090.5559895833
 20
577.4263386824
 30
0.0
 11
1090.5559895833
 21
506.9263386824
 31
0.0
  0
LINE
  5
377
330
1B
100
AcDbEntity
 67
     1
  8
7_ALL_FEATURES
  6
Continuous
 62
     7
100
AcDbLine
 10
1090.5559895833
 20
577.4263386824
 30
0.0
 11
1090.5559895833
 21
578.4263386824
 31
0.0
  0
LINE
  5
378
330
1B
100
AcDbEntity
 67
     1
  8
7_ALL_FEATURES
  6
Continuous
 62
     7
100
AcDbLine
 10
1090.5559895833
 20
494.9263386824
 30
0.0
 11
1090.5559895833
 21
495.9263386824
 31
0.0
  0
LINE
  5
379
330
1B
100
AcDbEntity
 67
     1
  8
7_ALL_FEATURES
  6
Continuous
 62
     7
100
AcDbLine
 10
1090.5559895833
 20
502.9263386824
 30
0.0
 11
1090.5559895833
 21
495.9263386824
 31
0.0
  0
LINE
  5
37A
330
1B
100
AcDbEntity
 67
     1
  8
7_ALL_FEATURES
  6
Continuous
 62
     7
100
AcDbLine
 10
1090.5559895833
 20
502.9263386824
 30
0.0
 11
1090.5559895833
 21
503.7263386824
 31
0.0
  0
LINE
  5
37B
330
1B
100
AcDbEntity
 67
     1
  8
7_ALL_FEATURES
  6
Continuous
 62
     7
100
AcDbLine
 10
1090.5559895833
 20
578.4263386824
 30
0.0
 11
1092.0559895833
 21
578.4263386824
 31
0.0
  0
LINE
  5
37C
330
1B
100
AcDbEntity
 67
     1
  8
7_ALL_FEATURES
  6
Continuous
 62
     7
100
AcDbLine
 10
1090.5559895833
 20
494.9263386824
 30
0.0
 11
1092.0559895833
 21
494.9263386824
 31
0.0
  0
LINE
  5
37D
330
1B
100
AcDbEntity
 67
     1
  8
7_ALL_FEATURES
  6
Continuous
 62
     9
100
AcDbLine
 10
1090.5559895833
 20
577.4263386824
 30
0.0
 11
1092.0559895833
 21
577.4263386824
 31
0.0
  0
LINE
  5
37E
330
1B
100
AcDbEntity
 67
     1
  8
7_ALL_FEATURES
  6
Continuous
 62
     9
100
AcDbLine
 10
1090.5559895833
 20
506.1263386824
 30
0.0
 11
1092.0559895833
 21
506.1263386824
 31
0.0
  0
LINE
  5
37F
330
1B
100
AcDbEntity
 67
     1
  8
7_ALL_FEATURES
  6
Continuous
 62
     9
100
AcDbLine
 10
1090.5559895833
 20
503.7263386824
 30
0.0
 11
1092.0559895833
 21
503.7263386824
 31
0.0
  0
LINE
  5
380
330
1B
100
AcDbEntity
 67
     1
  8
7_ALL_FEATURES
  6
Continuous
 62
     9
100
AcDbLine
 10
1090.5559895833
 20
506.9263386824
 30
0.0
 11
1092.0559895833
 21
506.9263386824
 31
0.0
  0
LINE
  5
381
330
1B
100
AcDbEntity
 67
     1
  8
7_ALL_FEATURES
  6
Continuous
 62
     9
100
AcDbLine
 10
1090.5559895833
 20
495.9263386824
 30
0.0
 11
1092.0559895833
 21
495.9263386824
 31
0.0
  0
LINE
  5
382
330
1B
100
AcDbEntity
 67
     1
  8
7_ALL_FEATURES
  6
Continuous
 62
     9
100
AcDbLine
 10
1090.5559895833
 20
502.9263386824
 30
0.0
 11
1092.0559895833
 21
502.9263386824
 31
0.0
  0
LINE
  5
383
330
1B
100
AcDbEntity
 67
     1
  8
7_ALL_FEATURES
  6
Continuous
 62
     7
100
AcDbLine
 10
1966.0559895833
 20
508.4263386824
 30
0.0
 11
1954.0559895833
 21
508.4263386824
 31
0.0
  0
LINE
  5
384
330
1B
100
AcDbEntity
 67
     1
  8
7_ALL_FEATURES
  6
Continuous
 62
     7
100
AcDbLine
 10
2067.0559895833
 20
508.4263386824
 30
0.0
 11
1966.0559895833
 21
508.4263386824
 31
0.0
  0
LINE
  5
385
330
1B
100
AcDbEntity
 67
     1
  8
7_ALL_FEATURES
  6
Continuous
 62
     7
100
AcDbLine
 10
2079.0559895833
 20
508.4263386824
 30
0.0
 11
2067.0559895833
 21
508.4263386824
 31
0.0
  0
LINE
  5
386
330
1B
100
AcDbEntity
 67
     1
  8
7_ALL_FEATURES
  6
Continuous
 62
     7
100
AcDbLine
 10
2079.0559895833
 20
509.0263386824
 30
0.0
 11
2079.0559895833
 21
508.4263386824
 31
0.0
  0
LINE
  5
387
330
1B
100
AcDbEntity
 67
     1
  8
7_ALL_FEATURES
  6
Continuous
 62
     7
100
AcDbLine
 10
1954.0559895833
 20
509.0263386824
 30
0.0
 11
1954.0559895833
 21
508.4263386824
 31
0.0
  0
LINE
  5
388
330
1B
100
AcDbEntity
 67
     1
  8
7_ALL_FEATURES
  6
Continuous
 62
     7
100
AcDbLine
 10
1966.0559895833
 20
509.0263386824
 30
0.0
 11
1966.0559895833
 21
508.4263386824
 31
0.0
  0
LINE
  5
389
330
1B
100
AcDbEntity
 67
     1
  8
7_ALL_FEATURES
  6
Continuous
 62
     7
100
AcDbLine
 10
2067.0559895833
 20
509.0263386824
 30
0.0
 11
2067.0559895833
 21
508.4263386824
 31
0.0
  0
LINE
  5
38A
330
1B
100
AcDbEntity
 67
     1
  8
7_ALL_FEATURES
  6
Continuous
 62
     7
100
AcDbLine
 10
1166.0559895833
 20
508.4263386824
 30
0.0
 11
1154.0559895833
 21
508.4263386824
 31
0.0
  0
LINE
  5
38B
330
1B
100
AcDbEntity
 67
     1
  8
7_ALL_FEATURES
  6
Continuous
 62
     7
100
AcDbLine
 10
1267.0559895833
 20
508.4263386824
 30
0.0
 11
1166.0559895833
 21
508.4263386824
 31
0.0
  0
LINE
  5
38C
330
1B
100
AcDbEntity
 67
     1
  8
7_ALL_FEATURES
  6
Continuous
 62
     7
100
AcDbLine
 10
1279.0559895833
 20
508.4263386824
 30
0.0
 11
1267.0559895833
 21
508.4263386824
 31
0.0
  0
LINE
  5
38D
330
1B
100
AcDbEntity
 67
     1
  8
7_ALL_FEATURES
  6
Continuous
 62
     7
100
AcDbLine
 10
1279.0559895833
 20
509.0263386824
 30
0.0
 11
1279.0559895833
 21
508.4263386824
 31
0.0
  0
LINE
  5
38E
330
1B
100
AcDbEntity
 67
     1
  8
7_ALL_FEATURES
  6
Continuous
 62
     7
100
AcDbLine
 10
1154.0559895833
 20
509.0263386824
 30
0.0
 11
1154.0559895833
 21
508.4263386824
 31
0.0
  0
LINE
  5
38F
330
1B
100
AcDbEntity
 67
     1
  8
7_ALL_FEATURES
  6
Continuous
 62
     7
100
AcDbLine
 10
1166.0559895833
 20
509.0263386824
 30
0.0
 11
1166.0559895833
 21
508.4263386824
 31
0.0
  0
LINE
  5
390
330
1B
100
AcDbEntity
 67
     1
  8
7_ALL_FEATURES
  6
Continuous
 62
     7
100
AcDbLine
 10
1267.0559895833
 20
509.0263386824
 30
0.0
 11
1267.0559895833
 21
508.4263386824
 31
0.0
  0
LINE
  5
391
330
1B
100
AcDbEntity
 67
     1
  8
7_ALL_FEATURES
  6
Continuous
 62
     7
100
AcDbLine
 10
2131.0559895833
 20
495.0055815808
 30
0.0
 11
2131.0559895833
 21
494.9263386824
 31
0.0
  0
LINE
  5
392
330
1B
100
AcDbEntity
 67
     1
  8
7_ALL_FEATURES
  6
Continuous
 62
     7
100
AcDbLine
 10
2131.0559895833
 20
499.1040034444
 30
0.0
 11
2131.0559895833
 21
500.1357837964
 31
0.0
  0
LINE
  5
393
330
1B
100
AcDbEntity
 67
     1
  8
7_ALL_FEATURES
  6
Continuous
 62
     7
100
AcDbLine
 10
2131.0559895833
 20
501.1147302381
 30
0.0
 11
2131.0559895833
 21
500.1357837964
 31
0.0
  0
LINE
  5
394
330
1B
100
AcDbEntity
 67
     1
  8
7_ALL_FEATURES
  6
Continuous
 62
     7
100
AcDbLine
 10
2131.0559895833
 20
501.1147302381
 30
0.0
 11
2131.0559895833
 21
530.7263386824
 31
0.0
  0
LINE
  5
395
330
1B
100
AcDbEntity
 67
     1
  8
7_ALL_FEATURES
  6
Continuous
 62
     7
100
AcDbLine
 10
2131.0559895833
 20
530.9263386824
 30
0.0
 11
2131.0559895833
 21
530.7263386824
 31
0.0
  0
LINE
  5
396
330
1B
100
AcDbEntity
 67
     1
  8
7_ALL_FEATURES
  6
Continuous
 62
     7
100
AcDbLine
 10
2131.0559895833
 20
535.6263386824
 30
0.0
 11
2131.0559895833
 21
535.4263386824
 31
0.0
  0
LINE
  5
397
330
1B
100
AcDbEntity
 67
     1
  8
7_ALL_FEATURES
  6
Continuous
 62
     7
100
AcDbLine
 10
2131.0559895833
 20
535.6263386824
 30
0.0
 11
2131.0559895833
 21
548.6263386824
 31
0.0
  0
LINE
  5
398
330
1B
100
AcDbEntity
 67
     1
  8
7_ALL_FEATURES
  6
Continuous
 62
     7
100
AcDbLine
 10
2131.0559895833
 20
548.9071845754
 30
0.0
 11
2131.0559895833
 21
548.6263386824
 31
0.0
  0
LINE
  5
399
330
1B
100
AcDbEntity
 67
     1
  8
7_ALL_FEATURES
  6
Continuous
 62
     7
100
AcDbLine
 10
2131.0559895833
 20
553.7263386824
 30
0.0
 11
2131.0559895833
 21
553.4454927894
 31
0.0
  0
LINE
  5
39A
330
1B
100
AcDbEntity
 67
     1
  8
7_ALL_FEATURES
  6
Continuous
 62
     7
100
AcDbLine
 10
2131.0559895833
 20
553.7263386824
 30
0.0
 11
2131.0559895833
 21
577.4263386824
 31
0.0
  0
LINE
  5
39B
330
1B
100
AcDbEntity
 67
     1
  8
7_ALL_FEATURES
  6
Continuous
 62
     7
100
AcDbLine
 10
2131.0559895833
 20
578.4263386824
 30
0.0
 11
2131.0559895833
 21
577.4263386824
 31
0.0
  0
LINE
  5
39C
330
1B
100
AcDbEntity
 67
     1
  8
7_ALL_FEATURES
  6
Continuous
 62
     7
100
AcDbLine
 10
1092.0559895833
 20
577.4263386824
 30
0.0
 11
1092.0559895833
 21
578.4263386824
 31
0.0
  0
LINE
  5
39D
330
1B
100
AcDbEntity
 67
     1
  8
7_ALL_FEATURES
  6
Continuous
 62
     7
100
AcDbLine
 10
1092.0559895833
 20
553.7263386824
 30
0.0
 11
1092.0559895833
 21
577.4263386824
 31
0.0
  0
LINE
  5
39E
330
1B
100
AcDbEntity
 67
     1
  8
7_ALL_FEATURES
  6
Continuous
 62
     7
100
AcDbLine
 10
1092.0559895833
 20
553.4454927894
 30
0.0
 11
1092.0559895833
 21
553.7263386824
 31
0.0
  0
LINE
  5
39F
330
1B
100
AcDbEntity
 67
     1
  8
7_ALL_FEATURES
  6
Continuous
 62
     7
100
AcDbLine
 10
1092.0559895833
 20
548.6263386824
 30
0.0
 11
1092.0559895833
 21
548.9071845754
 31
0.0
  0
LINE
  5
3A0
330
1B
100
AcDbEntity
 67
     1
  8
7_ALL_FEATURES
  6
Continuous
 62
     7
100
AcDbLine
 10
1092.0559895833
 20
535.6263386824
 30
0.0
 11
1092.0559895833
 21
548.6263386824
 31
0.0
  0
LINE
  5
3A1
330
1B
100
AcDbEntity
 67
     1
  8
7_ALL_FEATURES
  6
Continuous
 62
     7
100
AcDbLine
 10
1092.0559895833
 20
535.4263386824
 30
0.0
 11
1092.0559895833
 21
535.6263386824
 31
0.0
  0
LINE
  5
3A2
330
1B
100
AcDbEntity
 67
     1
  8
02___PRT_ALL_AXES
  6
Continuous
 62
     7
100
AcDbLine
 10
1248.8360862739
 20
553.4263386824
 30
0.0
 11
1249.5217474918
 21
553.4263386824
 31
0.0
  0
LINE
  5
3A3
330
1B
100
AcDbEntity
 67
     1
  8
02___PRT_ALL_AXES
  6
Continuous
 62
     7
100
AcDbLine
 10
1279.0559895833
 20
553.4263386824
 30
0.0
 11
1954.0559895833
 21
553.4263386824
 31
0.0
  0
LINE
  5
3A4
330
1B
100
AcDbEntity
 67
     1
  8
02___PRT_ALL_AXES
  6
Continuous
 62
     7
100
AcDbLine
 10
1983.5902316749
 20
553.4263386824
 30
0.0
 11
1984.2758928928
 21
553.4263386824
 31
0.0
  0
LINE
  5
3A5
330
1B
100
AcDbEntity
 67
     1
  8
02___PRT_ALL_AXES
  6
Continuous
 62
     7
100
AcDbLine
 10
2048.8360862739
 20
553.4263386824
 30
0.0
 11
2049.5217474918
 21
553.4263386824
 31
0.0
  0
LINE
  5
3A6
330
1B
100
AcDbEntity
 67
     1
  8
02___PRT_ALL_AXES
  6
Continuous
 62
     7
100
AcDbLine
 10
2079.0559895833
 20
553.4263386824
 30
0.0
 11
2131.0559895833
 21
553.4263386824
 31
0.0
  0
LINE
  5
3A7
330
1B
100
AcDbEntity
 67
     1
  8
02___PRT_ALL_AXES
  6
Continuous
 62
     7
100
AcDbLine
 10
1092.0559895833
 20
553.4263386824
 30
0.0
 11
1154.0559895833
 21
553.4263386824
 31
0.0
  0
LINE
  5
3A8
330
1B
100
AcDbEntity
 67
     1
  8
7_ALL_FEATURES
  6
Continuous
 62
     7
100
AcDbLine
 10
1092.0559895833
 20
530.7263386824
 30
0.0
 11
1092.0559895833
 21
530.9263386824
 31
0.0
  0
LINE
  5
3A9
330
1B
100
AcDbEntity
 67
     1
  8
7_ALL_FEATURES
  6
Continuous
 62
     7
100
AcDbLine
 10
1092.0559895833
 20
501.1147302381
 30
0.0
 11
1092.0559895833
 21
530.7263386824
 31
0.0
  0
LINE
  5
3AA
330
1B
100
AcDbEntity
 67
     1
  8
7_ALL_FEATURES
  6
Continuous
 62
     7
100
AcDbLine
 10
1092.0559895833
 20
500.1357837964
 30
0.0
 11
1092.0559895833
 21
501.1147302381
 31
0.0
  0
LINE
  5
3AB
330
1B
100
AcDbEntity
 67
     1
  8
7_ALL_FEATURES
  6
Continuous
 62
     7
100
AcDbLine
 10
1092.0559895833
 20
499.1040034444
 30
0.0
 11
1092.0559895833
 21
500.1357837964
 31
0.0
  0
LINE
  5
3AC
330
1B
100
AcDbEntity
 67
     1
  8
7_ALL_FEATURES
  6
Continuous
 62
     7
100
AcDbLine
 10
1092.0559895833
 20
494.9263386824
 30
0.0
 11
1092.0559895833
 21
495.0055815808
 31
0.0
  0
LINE
  5
3AD
330
1B
100
AcDbEntity
 67
     1
  8
02___PRT_ALL_AXES
  6
Continuous
 62
     7
100
AcDbLine
 10
2131.0559895833
 20
548.9263386824
 30
0.0
 11
2079.0559895833
 21
548.9263386824
 31
0.0
  0
LINE
  5
3AE
330
1B
100
AcDbEntity
 67
     1
  8
02___PRT_ALL_AXES
  6
Continuous
 62
     7
100
AcDbLine
 10
2055.1677147901
 20
548.9263386824
 30
0.0
 11
2054.9420291724
 21
548.9263386824
 31
0.0
  0
LINE
  5
3AF
330
1B
100
AcDbEntity
 67
     1
  8
02___PRT_ALL_AXES
  6
Continuous
 62
     7
100
AcDbLine
 10
1978.1699499943
 20
548.9263386824
 30
0.0
 11
1977.9442643765
 21
548.9263386824
 31
0.0
  0
LINE
  5
3B0
330
1B
100
AcDbEntity
 67
     1
  8
02___PRT_ALL_AXES
  6
Continuous
 62
     7
100
AcDbLine
 10
1954.0559895833
 20
548.9263386824
 30
0.0
 11
1279.0559895833
 21
548.9263386824
 31
0.0
  0
LINE
  5
3B1
330
1B
100
AcDbEntity
 67
     1
  8
02___PRT_ALL_AXES
  6
Continuous
 62
     7
100
AcDbLine
 10
1255.1677147901
 20
548.9263386824
 30
0.0
 11
1254.9420291724
 21
548.9263386824
 31
0.0
  0
LINE
  5
3B2
330
1B
100
AcDbEntity
 67
     1
  8
02___PRT_ALL_AXES
  6
Continuous
 62
     7
100
AcDbLine
 10
1178.1699499943
 20
548.9263386824
 30
0.0
 11
1177.9442643765
 21
548.9263386824
 31
0.0
  0
LINE
  5
3B3
330
1B
100
AcDbEntity
 67
     1
  8
02___PRT_ALL_AXES
  6
Continuous
 62
     7
100
AcDbLine
 10
1154.0559895833
 20
548.9263386824
 30
0.0
 11
1092.0559895833
 21
548.9263386824
 31
0.0
  0
ARC
  5
3B4
330
1B
100
AcDbEntity
 67
     1
  8
02___PRT_ALL_AXES
  6
Continuous
 62
     7
100
AcDbCircle
 10
1192.0559895833
 20
560.9263386824
 30
0.0
 40
13.0
100
AcDbArc
 50
218.9810712014
 51
219.8799517312
  0
LINE
  5
3B5
330
1B
100
AcDbEntity
 67
     1
  8
7_ALL_FEATURES
  6
Continuous
 62
     7
100
AcDbLine
 10
1092.0559895833
 20
578.4263386824
 30
0.0
 11
1154.0559895833
 21
578.4263386824
 31
0.0
  0
LINE
  5
3B6
330
1B
100
AcDbEntity
 67
     1
  8
7_ALL_FEATURES
  6
Continuous
 62
     7
100
AcDbLine
 10
1279.0559895833
 20
578.4263386824
 30
0.0
 11
1954.0559895833
 21
578.4263386824
 31
0.0
  0
LINE
  5
3B7
330
1B
100
AcDbEntity
 67
     1
  8
7_ALL_FEATURES
  6
Continuous
 62
     7
100
AcDbLine
 10
2079.0559895833
 20
578.4263386824
 30
0.0
 11
2131.0559895833
 21
578.4263386824
 31
0.0
  0
ARC
  5
3B8
330
1B
100
AcDbEntity
 67
     1
  8
02___PRT_ALL_AXES
  6
Continuous
 62
     7
100
AcDbCircle
 10
1192.0559895833
 20
560.9263386824
 30
0.0
 40
13.0
100
AcDbArc
 50
326.3687225521
 51
327.4015548893
  0
LINE
  5
3B9
330
1B
100
AcDbEntity
 67
     1
  8
7_ALL_FEATURES
  6
Continuous
 62
     7
100
AcDbLine
 10
1092.0559895833
 20
535.4263386824
 30
0.0
 11
1154.0559895833
 21
535.4263386824
 31
0.0
  0
LINE
  5
3BA
330
1B
100
AcDbEntity
 67
     1
  8
7_ALL_FEATURES
  6
Continuous
 62
     7
100
AcDbLine
 10
1176.5559895833
 20
535.4263386824
 30
0.0
 11
1176.7559895833
 21
535.4263386824
 31
0.0
  0
LINE
  5
3BB
330
1B
100
AcDbEntity
 67
     1
  8
7_ALL_FEATURES
  6
Continuous
 62
     7
100
AcDbLine
 10
1256.3559895833
 20
535.4263386824
 30
0.0
 11
1256.5559895833
 21
535.4263386824
 31
0.0
  0
LINE
  5
3BC
330
1B
100
AcDbEntity
 67
     1
  8
7_ALL_FEATURES
  6
Continuous
 62
     7
100
AcDbLine
 10
1279.0559895833
 20
535.4263386824
 30
0.0
 11
1954.0559895833
 21
535.4263386824
 31
0.0
  0
LINE
  5
3BD
330
1B
100
AcDbEntity
 67
     1
  8
7_ALL_FEATURES
  6
Continuous
 62
     7
100
AcDbLine
 10
1976.5559895833
 20
535.4263386824
 30
0.0
 11
1976.7559895833
 21
535.4263386824
 31
0.0
  0
LINE
  5
3BE
330
1B
100
AcDbEntity
 67
     1
  8
7_ALL_FEATURES
  6
Continuous
 62
     7
100
AcDbLine
 10
2056.3559895833
 20
535.4263386824
 30
0.0
 11
2056.5559895833
 21
535.4263386824
 31
0.0
  0
LINE
  5
3BF
330
1B
100
AcDbEntity
 67
     1
  8
7_ALL_FEATURES
  6
Continuous
 62
     7
100
AcDbLine
 10
2079.0559895833
 20
535.4263386824
 30
0.0
 11
2131.0559895833
 21
535.4263386824
 31
0.0
  0
LINE
  5
3C0
330
1B
100
AcDbEntity
 67
     1
  8
7_ALL_FEATURES
  6
Continuous
 62
     7
100
AcDbLine
 10
1092.0559895833
 20
530.9263386824
 30
0.0
 11
1154.0559895833
 21
530.9263386824
 31
0.0
  0
LINE
  5
3C1
330
1B
100
AcDbEntity
 67
     1
  8
7_ALL_FEATURES
  6
Continuous
 62
     7
100
AcDbLine
 10
1176.5559895833
 20
530.9263386824
 30
0.0
 11
1176.7559895833
 21
530.9263386824
 31
0.0
  0
LINE
  5
3C2
330
1B
100
AcDbEntity
 67
     1
  8
7_ALL_FEATURES
  6
Continuous
 62
     7
100
AcDbLine
 10
1256.3559895833
 20
530.9263386824
 30
0.0
 11
1256.5559895833
 21
530.9263386824
 31
0.0
  0
LINE
  5
3C3
330
1B
100
AcDbEntity
 67
     1
  8
7_ALL_FEATURES
  6
Continuous
 62
     7
100
AcDbLine
 10
1279.0559895833
 20
530.9263386824
 30
0.0
 11
1954.0559895833
 21
530.9263386824
 31
0.0
  0
LINE
  5
3C4
330
1B
100
AcDbEntity
 67
     1
  8
7_ALL_FEATURES
  6
Continuous
 62
     7
100
AcDbLine
 10
1976.5559895833
 20
530.9263386824
 30
0.0
 11
1976.7559895833
 21
530.9263386824
 31
0.0
  0
LINE
  5
3C5
330
1B
100
AcDbEntity
 67
     1
  8
7_ALL_FEATURES
  6
Continuous
 62
     7
100
AcDbLine
 10
2056.3559895833
 20
530.9263386824
 30
0.0
 11
2056.5559895833
 21
530.9263386824
 31
0.0
  0
LINE
  5
3C6
330
1B
100
AcDbEntity
 67
     1
  8
7_ALL_FEATURES
  6
Continuous
 62
     7
100
AcDbLine
 10
2079.0559895833
 20
530.9263386824
 30
0.0
 11
2131.0559895833
 21
530.9263386824
 31
0.0
  0
LINE
  5
3C7
330
1B
100
AcDbEntity
 67
     1
  8
7_ALL_FEATURES
  6
Continuous
 62
     7
100
AcDbLine
 10
1092.0559895833
 20
494.9263386824
 30
0.0
 11
2131.0559895833
 21
494.9263386824
 31
0.0
  0
LINE
  5
3C8
330
1B
100
AcDbEntity
 67
     1
  8
02___PRT_ALL_AXES
  6
Continuous
 62
     9
100
AcDbLine
 10
2131.0559895833
 20
548.6263386824
 30
0.0
 11
2079.0559895833
 21
548.6263386824
 31
0.0
  0
LINE
  5
3C9
330
1B
100
AcDbEntity
 67
     1
  8
02___PRT_ALL_AXES
  6
Continuous
 62
     9
100
AcDbLine
 10
2055.3280681309
 20
548.6263386824
 30
0.0
 11
2055.1023825132
 21
548.6263386824
 31
0.0
  0
LINE
  5
3CA
330
1B
100
AcDbEntity
 67
     1
  8
02___PRT_ALL_AXES
  6
Continuous
 62
     9
100
AcDbLine
 10
1978.0095966535
 20
548.6263386824
 30
0.0
 11
1977.7839110358
 21
548.6263386824
 31
0.0
  0
LINE
  5
3CB
330
1B
100
AcDbEntity
 67
     1
  8
02___PRT_ALL_AXES
  6
Continuous
 62
     9
100
AcDbLine
 10
1954.0559895833
 20
548.6263386824
 30
0.0
 11
1279.0559895833
 21
548.6263386824
 31
0.0
  0
LINE
  5
3CC
330
1B
100
AcDbEntity
 67
     1
  8
02___PRT_ALL_AXES
  6
Continuous
 62
     9
100
AcDbLine
 10
1255.3280681309
 20
548.6263386824
 30
0.0
 11
1255.1023825132
 21
548.6263386824
 31
0.0
  0
LINE
  5
3CD
330
1B
100
AcDbEntity
 67
     1
  8
02___PRT_ALL_AXES
  6
Continuous
 62
     9
100
AcDbLine
 10
1246.5559895833
 20
553.7263386824
 30
0.0
 11
1248.5327800291
 21
553.7263386824
 31
0.0
  0
LINE
  5
3CE
330
1B
100
AcDbEntity
 67
     1
  8
02___PRT_ALL_AXES
  6
Continuous
 62
     9
100
AcDbLine
 10
1279.0559895833
 20
553.7263386824
 30
0.0
 11
1954.0559895833
 21
553.7263386824
 31
0.0
  0
LINE
  5
3CF
330
1B
100
AcDbEntity
 67
     1
  8
02___PRT_ALL_AXES
  6
Continuous
 62
     9
100
AcDbLine
 10
1984.5791991376
 20
553.7263386824
 30
0.0
 11
1986.5559895833
 21
553.7263386824
 31
0.0
  0
LINE
  5
3D0
330
1B
100
AcDbEntity
 67
     1
  8
02___PRT_ALL_AXES
  6
Continuous
 62
     9
100
AcDbLine
 10
2046.5559895833
 20
553.7263386824
 30
0.0
 11
2048.5327800291
 21
553.7263386824
 31
0.0
  0
LINE
  5
3D1
330
1B
100
AcDbEntity
 67
     1
  8
02___PRT_ALL_AXES
  6
Continuous
 62
     9
100
AcDbLine
 10
2079.0559895833
 20
553.7263386824
 30
0.0
 11
2131.0559895833
 21
553.7263386824
 31
0.0
  0
LINE
  5
3D2
330
1B
100
AcDbEntity
 67
     1
  8
7_ALL_FEATURES
  6
Continuous
 62
     9
100
AcDbLine
 10
1092.0559895833
 20
577.4263386824
 30
0.0
 11
1154.0559895833
 21
577.4263386824
 31
0.0
  0
LINE
  5
3D3
330
1B
100
AcDbEntity
 67
     1
  8
7_ALL_FEATURES
  6
Continuous
 62
     9
100
AcDbLine
 10
1279.0559895833
 20
577.4263386824
 30
0.0
 11
1954.0559895833
 21
577.4263386824
 31
0.0
  0
LINE
  5
3D4
330
1B
100
AcDbEntity
 67
     1
  8
7_ALL_FEATURES
  6
Continuous
 62
     9
100
AcDbLine
 10
2079.0559895833
 20
577.4263386824
 30
0.0
 11
2131.0559895833
 21
577.4263386824
 31
0.0
  0
LINE
  5
3D5
330
1B
100
AcDbEntity
 67
     1
  8
02___PRT_ALL_AXES
  6
Continuous
 62
     9
100
AcDbLine
 10
1092.0559895833
 20
553.7263386824
 30
0.0
 11
1154.0559895833
 21
553.7263386824
 31
0.0
  0
LINE
  5
3D6
330
1B
100
AcDbEntity
 67
     1
  8
7_ALL_FEATURES
  6
Continuous
 62
     9
100
AcDbLine
 10
1092.0559895833
 20
501.1147302381
 30
0.0
 11
2131.0559895833
 21
501.1147302381
 31
0.0
  0
LINE
  5
3D7
330
1B
100
AcDbEntity
 67
     1
  8
7_ALL_FEATURES
  6
Continuous
 62
     9
100
AcDbLine
 10
1092.0559895833
 20
530.7263386824
 30
0.0
 11
1154.0559895833
 21
530.7263386824
 31
0.0
  0
LINE
  5
3D8
330
1B
100
AcDbEntity
 67
     1
  8
7_ALL_FEATURES
  6
Continuous
 62
     9
100
AcDbLine
 10
1176.5559895833
 20
530.7263386824
 30
0.0
 11
1176.7559895833
 21
530.7263386824
 31
0.0
  0
LINE
  5
3D9
330
1B
100
AcDbEntity
 67
     1
  8
7_ALL_FEATURES
  6
Continuous
 62
     9
100
AcDbLine
 10
1256.3559895833
 20
530.7263386824
 30
0.0
 11
1256.5559895833
 21
530.7263386824
 31
0.0
  0
LINE
  5
3DA
330
1B
100
AcDbEntity
 67
     1
  8
7_ALL_FEATURES
  6
Continuous
 62
     9
100
AcDbLine
 10
1279.0559895833
 20
530.7263386824
 30
0.0
 11
1954.0559895833
 21
530.7263386824
 31
0.0
  0
LINE
  5
3DB
330
1B
100
AcDbEntity
 67
     1
  8
7_ALL_FEATURES
  6
Continuous
 62
     9
100
AcDbLine
 10
1976.5559895833
 20
530.7263386824
 30
0.0
 11
1976.7559895833
 21
530.7263386824
 31
0.0
  0
LINE
  5
3DC
330
1B
100
AcDbEntity
 67
     1
  8
7_ALL_FEATURES
  6
Continuous
 62
     9
100
AcDbLine
 10
2056.3559895833
 20
530.7263386824
 30
0.0
 11
2056.5559895833
 21
530.7263386824
 31
0.0
  0
LINE
  5
3DD
330
1B
100
AcDbEntity
 67
     1
  8
7_ALL_FEATURES
  6
Continuous
 62
     9
100
AcDbLine
 10
2079.0559895833
 20
530.7263386824
 30
0.0
 11
2131.0559895833
 21
530.7263386824
 31
0.0
  0
LINE
  5
3DE
330
1B
100
AcDbEntity
 67
     1
  8
7_ALL_FEATURES
  6
Continuous
 62
     9
100
AcDbLine
 10
1092.0559895833
 20
500.1357837964
 30
0.0
 11
2131.0559895833
 21
500.1357837964
 31
0.0
  0
LINE
  5
3DF
330
1B
100
AcDbEntity
 67
     1
  8
7_ALL_FEATURES
  6
Continuous
 62
     9
100
AcDbLine
 10
1092.0559895833
 20
495.1871808248
 30
0.0
 11
2131.0559895833
 21
495.1871808248
 31
0.0
  0
LINE
  5
3E0
330
1B
100
AcDbEntity
 67
     1
  8
02___PRT_ALL_AXES
  6
Continuous
 62
     9
100
AcDbLine
 10
1178.0095966535
 20
548.6263386824
 30
0.0
 11
1177.7839110358
 21
548.6263386824
 31
0.0
  0
LINE
  5
3E1
330
1B
100
AcDbEntity
 67
     1
  8
02___PRT_ALL_AXES
  6
Continuous
 62
     9
100
AcDbLine
 10
1154.0559895833
 20
548.6263386824
 30
0.0
 11
1092.0559895833
 21
548.6263386824
 31
0.0
  0
LINE
  5
3E2
330
1B
100
AcDbEntity
 67
     1
  8
7_ALL_FEATURES
  6
Continuous
 62
     9
100
AcDbLine
 10
1092.0559895833
 20
535.6263386824
 30
0.0
 11
1154.0559895833
 21
535.6263386824
 31
0.0
  0
LINE
  5
3E3
330
1B
100
AcDbEntity
 67
     1
  8
7_ALL_FEATURES
  6
Continuous
 62
     9
100
AcDbLine
 10
1176.5559895833
 20
535.6263386824
 30
0.0
 11
1176.7559895833
 21
535.6263386824
 31
0.0
  0
LINE
  5
3E4
330
1B
100
AcDbEntity
 67
     1
  8
7_ALL_FEATURES
  6
Continuous
 62
     9
100
AcDbLine
 10
1256.3559895833
 20
535.6263386824
 30
0.0
 11
1256.5559895833
 21
535.6263386824
 31
0.0
  0
LINE
  5
3E5
330
1B
100
AcDbEntity
 67
     1
  8
7_ALL_FEATURES
  6
Continuous
 62
     9
100
AcDbLine
 10
1279.0559895833
 20
535.6263386824
 30
0.0
 11
1954.0559895833
 21
535.6263386824
 31
0.0
  0
LINE
  5
3E6
330
1B
100
AcDbEntity
 67
     1
  8
7_ALL_FEATURES
  6
Continuous
 62
     9
100
AcDbLine
 10
1976.5559895833
 20
535.6263386824
 30
0.0
 11
1976.7559895833
 21
535.6263386824
 31
0.0
  0
LINE
  5
3E7
330
1B
100
AcDbEntity
 67
     1
  8
7_ALL_FEATURES
  6
Continuous
 62
     9
100
AcDbLine
 10
2056.3559895833
 20
535.6263386824
 30
0.0
 11
2056.5559895833
 21
535.6263386824
 31
0.0
  0
LINE
  5
3E8
330
1B
100
AcDbEntity
 67
     1
  8
7_ALL_FEATURES
  6
Continuous
 62
     9
100
AcDbLine
 10
2079.0559895833
 20
535.6263386824
 30
0.0
 11
2131.0559895833
 21
535.6263386824
 31
0.0
  0
LINE
  5
3E9
330
1B
100
AcDbEntity
 67
     1
  8
7_ALL_FEATURES
  6
Continuous
 62
     3
100
AcDbLine
 10
2131.0559895833
 20
495.9263386824
 30
0.0
 11
2131.0559895833
 21
499.1040034444
 31
0.0
  0
LINE
  5
3EA
330
1B
100
AcDbEntity
 67
     1
  8
7_ALL_FEATURES
  6
Continuous
 62
     3
100
AcDbLine
 10
2131.0559895833
 20
530.9263386824
 30
0.0
 11
2131.0559895833
 21
535.4263386824
 31
0.0
  0
LINE
  5
3EB
330
1B
100
AcDbEntity
 67
     1
  8
7_ALL_FEATURES
  6
Continuous
 62
     3
100
AcDbLine
 10
2131.0559895833
 20
548.9071845754
 30
0.0
 11
2131.0559895833
 21
548.9263386824
 31
0.0
  0
LINE
  5
3EC
330
1B
100
AcDbEntity
 67
     1
  8
7_ALL_FEATURES
  6
Continuous
 62
     3
100
AcDbLine
 10
2131.0559895833
 20
548.9263386824
 30
0.0
 11
2131.0559895833
 21
553.4263386824
 31
0.0
  0
LINE
  5
3ED
330
1B
100
AcDbEntity
 67
     1
  8
7_ALL_FEATURES
  6
Continuous
 62
     3
100
AcDbLine
 10
2131.0559895833
 20
553.4263386824
 30
0.0
 11
2131.0559895833
 21
553.4454927894
 31
0.0
  0
LINE
  5
3EE
330
1B
100
AcDbEntity
 67
     1
  8
7_ALL_FEATURES
  6
Continuous
 62
     3
100
AcDbLine
 10
2131.0559895833
 20
495.0055815808
 30
0.0
 11
2131.0559895833
 21
495.0761215467
 31
0.0
  0
LINE
  5
3EF
330
1B
100
AcDbEntity
 67
     1
  8
7_ALL_FEATURES
  6
Continuous
 62
     3
100
AcDbLine
 10
2131.0559895833
 20
495.0761215467
 30
0.0
 11
2131.0559895833
 21
495.2526430388
 31
0.0
  0
LINE
  5
3F0
330
1B
100
AcDbEntity
 67
     1
  8
7_ALL_FEATURES
  6
Continuous
 62
     3
100
AcDbLine
 10
2131.0559895833
 20
495.2526430388
 30
0.0
 11
2131.0559895833
 21
495.9263386824
 31
0.0
  0
LINE
  5
3F1
330
1B
100
AcDbEntity
 67
     1
  8
7_ALL_FEATURES
  6
Continuous
 62
     3
100
AcDbLine
 10
1092.0559895833
 20
553.4454927894
 30
0.0
 11
1092.0559895833
 21
553.4263386824
 31
0.0
  0
LINE
  5
3F2
330
1B
100
AcDbEntity
 67
     1
  8
7_ALL_FEATURES
  6
Continuous
 62
     3
100
AcDbLine
 10
1092.0559895833
 20
553.4263386824
 30
0.0
 11
1092.0559895833
 21
548.9263386824
 31
0.0
  0
LINE
  5
3F3
330
1B
100
AcDbEntity
 67
     1
  8
7_ALL_FEATURES
  6
Continuous
 62
     3
100
AcDbLine
 10
1092.0559895833
 20
548.9263386824
 30
0.0
 11
1092.0559895833
 21
548.9071845754
 31
0.0
  0
LINE
  5
3F4
330
1B
100
AcDbEntity
 67
     1
  8
7_ALL_FEATURES
  6
Continuous
 62
     3
100
AcDbLine
 10
1092.0559895833
 20
535.4263386824
 30
0.0
 11
1092.0559895833
 21
530.9263386824
 31
0.0
  0
LINE
  5
3F5
330
1B
100
AcDbEntity
 67
     1
  8
7_ALL_FEATURES
  6
Continuous
 62
     3
100
AcDbLine
 10
1092.0559895833
 20
495.9263386824
 30
0.0
 11
1092.0559895833
 21
495.2526430388
 31
0.0
  0
LINE
  5
3F6
330
1B
100
AcDbEntity
 67
     1
  8
7_ALL_FEATURES
  6
Continuous
 62
     3
100
AcDbLine
 10
1092.0559895833
 20
495.2526430388
 30
0.0
 11
1092.0559895833
 21
495.0761215467
 31
0.0
  0
LINE
  5
3F7
330
1B
100
AcDbEntity
 67
     1
  8
7_ALL_FEATURES
  6
Continuous
 62
     3
100
AcDbLine
 10
1092.0559895833
 20
495.0761215467
 30
0.0
 11
1092.0559895833
 21
495.0055815808
 31
0.0
  0
LINE
  5
3F8
330
1B
100
AcDbEntity
 67
     1
  8
7_ALL_FEATURES
  6
Continuous
 62
     3
100
AcDbLine
 10
1092.0559895833
 20
499.1040034444
 30
0.0
 11
1092.0559895833
 21
495.9263386824
 31
0.0
  0
LINE
  5
3F9
330
1B
100
AcDbEntity
 67
     1
  8
7_ALL_FEATURES
  6
Continuous
 62
     3
100
AcDbLine
 10
1954.0559895833
 20
577.8263386824
 30
0.0
 11
1954.0559895833
 21
509.6263386824
 31
0.0
  0
LINE
  5
3FA
330
1B
100
AcDbEntity
 67
     1
  8
7_ALL_FEATURES
  6
Continuous
 62
     3
100
AcDbLine
 10
2079.0559895833
 20
509.6263386824
 30
0.0
 11
2079.0559895833
 21
577.8263386824
 31
0.0
  0
LINE
  5
3FB
330
1B
100
AcDbEntity
 67
     1
  8
02___PRT_ALL_AXES
  6
Continuous
 62
     3
100
AcDbLine
 10
2056.5559895833
 20
523.9263386824
 30
0.0
 11
2056.5559895833
 21
543.9263386824
 31
0.0
  0
ARC
  5
3FC
330
1B
100
AcDbEntity
 67
     1
  8
02___PRT_ALL_AXES
  6
Continuous
 62
     3
100
AcDbCircle
 10
2046.5559895833
 20
543.9263386824
 30
0.0
 40
10.0
100
AcDbArc
 50
0.0
 51
90.0
  0
LINE
  5
3FD
330
1B
100
AcDbEntity
 67
     1
  8
02___PRT_ALL_AXES
  6
Continuous
 62
     3
100
AcDbLine
 10
2046.5559895833
 20
553.9263386824
 30
0.0
 11
1986.5559895833
 21
553.9263386824
 31
0.0
  0
ARC
  5
3FE
330
1B
100
AcDbEntity
 67
     1
  8
02___PRT_ALL_AXES
  6
Continuous
 62
     3
100
AcDbCircle
 10
1986.5559895833
 20
543.9263386824
 30
0.0
 40
10.0
100
AcDbArc
 50
90.0
 51
180.0
  0
LINE
  5
3FF
330
1B
100
AcDbEntity
 67
     1
  8
02___PRT_ALL_AXES
  6
Continuous
 62
     3
100
AcDbLine
 10
1976.5559895833
 20
543.9263386824
 30
0.0
 11
1976.5559895833
 21
523.9263386824
 31
0.0
  0
LINE
  5
400
330
1B
100
AcDbEntity
 67
     1
  8
02___PRT_ALL_AXES
  6
Continuous
 62
     3
100
AcDbLine
 10
1976.5559895833
 20
523.9263386824
 30
0.0
 11
1976.7559895833
 21
523.9263386824
 31
0.0
  0
LINE
  5
401
330
1B
100
AcDbEntity
 67
     1
  8
02___PRT_ALL_AXES
  6
Continuous
 62
     3
100
AcDbLine
 10
1976.7559895833
 20
523.9263386824
 30
0.0
 11
1976.7559895833
 21
543.9263386824
 31
0.0
  0
ARC
  5
402
330
1B
100
AcDbEntity
 67
     1
  8
02___PRT_ALL_AXES
  6
Continuous
 62
     3
100
AcDbCircle
 10
1986.5559895833
 20
543.9263386824
 30
0.0
 40
9.8
100
AcDbArc
 50
90.0
 51
180.0
  0
LINE
  5
403
330
1B
100
AcDbEntity
 67
     1
  8
02___PRT_ALL_AXES
  6
Continuous
 62
     3
100
AcDbLine
 10
1986.5559895833
 20
553.7263386824
 30
0.0
 11
2046.5559895833
 21
553.7263386824
 31
0.0
  0
ARC
  5
404
330
1B
100
AcDbEntity
 67
     1
  8
02___PRT_ALL_AXES
  6
Continuous
 62
     3
100
AcDbCircle
 10
2046.5559895833
 20
543.9263386824
 30
0.0
 40
9.8
100
AcDbArc
 50
0.0
 51
90.0
  0
LINE
  5
405
330
1B
100
AcDbEntity
 67
     1
  8
02___PRT_ALL_AXES
  6
Continuous
 62
     3
100
AcDbLine
 10
2056.3559895833
 20
543.9263386824
 30
0.0
 11
2056.3559895833
 21
523.9263386824
 31
0.0
  0
LINE
  5
406
330
1B
100
AcDbEntity
 67
     1
  8
02___PRT_ALL_AXES
  6
Continuous
 62
     3
100
AcDbLine
 10
2056.3559895833
 20
523.9263386824
 30
0.0
 11
2056.5559895833
 21
523.9263386824
 31
0.0
  0
LINE
  5
407
330
1B
100
AcDbEntity
 67
     1
  8
02___PRT_ALL_AXES
  6
Continuous
 62
     3
100
AcDbLine
 10
2054.7559895833
 20
523.8263386824
 30
0.0
 11
2054.7559895833
 21
524.0263386824
 31
0.0
  0
LINE
  5
408
330
1B
100
AcDbEntity
 67
     1
  8
02___PRT_ALL_AXES
  6
Continuous
 62
     3
100
AcDbLine
 10
2054.7559895833
 20
524.0263386824
 30
0.0
 11
2017.3559895833
 21
524.0263386824
 31
0.0
  0
LINE
  5
409
330
1B
100
AcDbEntity
 67
     1
  8
02___PRT_ALL_AXES
  6
Continuous
 62
     3
100
AcDbLine
 10
2017.3559895833
 20
524.0263386824
 30
0.0
 11
2017.3559895833
 21
523.8263386824
 31
0.0
  0
LINE
  5
40A
330
1B
100
AcDbEntity
 67
     1
  8
02___PRT_ALL_AXES
  6
Continuous
 62
     3
100
AcDbLine
 10
2017.3559895833
 20
523.8263386824
 30
0.0
 11
2054.7559895833
 21
523.8263386824
 31
0.0
  0
LINE
  5
40B
330
1B
100
AcDbEntity
 67
     1
  8
02___PRT_ALL_AXES
  6
Continuous
 62
     3
100
AcDbLine
 10
1978.3559895833
 20
523.8263386824
 30
0.0
 11
2015.7559895833
 21
523.8263386824
 31
0.0
  0
LINE
  5
40C
330
1B
100
AcDbEntity
 67
     1
  8
02___PRT_ALL_AXES
  6
Continuous
 62
     3
100
AcDbLine
 10
2015.7559895833
 20
523.8263386824
 30
0.0
 11
2015.7559895833
 21
524.0263386824
 31
0.0
  0
LINE
  5
40D
330
1B
100
AcDbEntity
 67
     1
  8
02___PRT_ALL_AXES
  6
Continuous
 62
     3
100
AcDbLine
 10
2015.7559895833
 20
524.0263386824
 30
0.0
 11
1978.3559895833
 21
524.0263386824
 31
0.0
  0
LINE
  5
40E
330
1B
100
AcDbEntity
 67
     1
  8
02___PRT_ALL_AXES
  6
Continuous
 62
     3
100
AcDbLine
 10
1978.3559895833
 20
524.0263386824
 30
0.0
 11
1978.3559895833
 21
523.8263386824
 31
0.0
  0
LINE
  5
40F
330
1B
100
AcDbEntity
 67
     1
  8
7_ALL_FEATURES
  6
Continuous
 62
     3
100
AcDbLine
 10
1954.0559895833
 20
577.8263386824
 30
0.0
 11
1954.0559895833
 21
578.5316809852
 31
0.0
  0
LINE
  5
410
330
1B
100
AcDbEntity
 67
     1
  8
7_ALL_FEATURES
  6
Continuous
 62
     3
100
AcDbLine
 10
1954.0559895833
 20
578.5316809852
 30
0.0
 11
1954.0559895833
 21
579.0263386824
 31
0.0
  0
LINE
  5
411
330
1B
100
AcDbEntity
 67
     1
  8
7_ALL_FEATURES
  6
Continuous
 62
     3
100
AcDbLine
 10
2079.0559895833
 20
579.0263386824
 30
0.0
 11
1954.0559895833
 21
579.0263386824
 31
0.0
  0
LINE
  5
412
330
1B
100
AcDbEntity
 67
     1
  8
7_ALL_FEATURES
  6
Continuous
 62
     3
100
AcDbLine
 10
2079.0559895833
 20
577.8263386824
 30
0.0
 11
2079.0559895833
 21
578.5316809852
 31
0.0
  0
LINE
  5
413
330
1B
100
AcDbEntity
 67
     1
  8
7_ALL_FEATURES
  6
Continuous
 62
     3
100
AcDbLine
 10
2079.0559895833
 20
578.5316809852
 30
0.0
 11
2079.0559895833
 21
579.0263386824
 31
0.0
  0
LINE
  5
414
330
1B
100
AcDbEntity
 67
     1
  8
7_ALL_FEATURES
  6
Continuous
 62
     3
100
AcDbLine
 10
1954.0559895833
 20
509.0263386824
 30
0.0
 11
1966.0559895833
 21
509.0263386824
 31
0.0
  0
LINE
  5
415
330
1B
100
AcDbEntity
 67
     1
  8
7_ALL_FEATURES
  6
Continuous
 62
     3
100
AcDbLine
 10
2067.0559895833
 20
509.0263386824
 30
0.0
 11
2079.0559895833
 21
509.0263386824
 31
0.0
  0
LINE
  5
416
330
1B
100
AcDbEntity
 67
     1
  8
7_ALL_FEATURES
  6
Continuous
 62
     3
100
AcDbLine
 10
2067.0559895833
 20
509.0263386824
 30
0.0
 11
1966.0559895833
 21
509.0263386824
 31
0.0
  0
LINE
  5
417
330
1B
100
AcDbEntity
 67
     1
  8
7_ALL_FEATURES
  6
Continuous
 62
     3
100
AcDbLine
 10
1954.0559895833
 20
509.0263386824
 30
0.0
 11
1954.0559895833
 21
509.6263386824
 31
0.0
  0
LINE
  5
418
330
1B
100
AcDbEntity
 67
     1
  8
7_ALL_FEATURES
  6
Continuous
 62
     3
100
AcDbLine
 10
2079.0559895833
 20
509.0263386824
 30
0.0
 11
2079.0559895833
 21
509.6263386824
 31
0.0
  0
LINE
  5
419
330
1B
100
AcDbEntity
 67
     1
  8
7_ALL_FEATURES
  6
Continuous
 62
     9
100
AcDbLine
 10
1954.0559895833
 20
509.6263386824
 30
0.0
 11
2079.0559895833
 21
509.6263386824
 31
0.0
  0
LINE
  5
41A
330
1B
100
AcDbEntity
 67
     1
  8
7_ALL_FEATURES
  6
Continuous
 62
     9
100
AcDbLine
 10
2079.0559895833
 20
577.8263386824
 30
0.0
 11
1954.0559895833
 21
577.8263386824
 31
0.0
  0
LINE
  5
41B
330
1B
100
AcDbEntity
 67
     1
  8
7_ALL_FEATURES
  6
Continuous
 62
     3
100
AcDbLine
 10
1154.0559895833
 20
577.8263386824
 30
0.0
 11
1154.0559895833
 21
509.6263386824
 31
0.0
  0
LINE
  5
41C
330
1B
100
AcDbEntity
 67
     1
  8
7_ALL_FEATURES
  6
Continuous
 62
     3
100
AcDbLine
 10
1279.0559895833
 20
509.6263386824
 30
0.0
 11
1279.0559895833
 21
577.8263386824
 31
0.0
  0
LINE
  5
41D
330
1B
100
AcDbEntity
 67
     1
  8
02___PRT_ALL_AXES
  6
Continuous
 62
     3
100
AcDbLine
 10
1256.5559895833
 20
523.9263386824
 30
0.0
 11
1256.5559895833
 21
543.9263386824
 31
0.0
  0
ARC
  5
41E
330
1B
100
AcDbEntity
 67
     1
  8
02___PRT_ALL_AXES
  6
Continuous
 62
     3
100
AcDbCircle
 10
1246.5559895833
 20
543.9263386824
 30
0.0
 40
10.0
100
AcDbArc
 50
0.0
 51
90.0
  0
LINE
  5
41F
330
1B
100
AcDbEntity
 67
     1
  8
02___PRT_ALL_AXES
  6
Continuous
 62
     3
100
AcDbLine
 10
1246.5559895833
 20
553.9263386824
 30
0.0
 11
1186.5559895833
 21
553.9263386824
 31
0.0
  0
ARC
  5
420
330
1B
100
AcDbEntity
 67
     1
  8
02___PRT_ALL_AXES
  6
Continuous
 62
     3
100
AcDbCircle
 10
1186.5559895833
 20
543.9263386824
 30
0.0
 40
10.0
100
AcDbArc
 50
90.0
 51
180.0
  0
LINE
  5
421
330
1B
100
AcDbEntity
 67
     1
  8
02___PRT_ALL_AXES
  6
Continuous
 62
     3
100
AcDbLine
 10
1176.5559895833
 20
543.9263386824
 30
0.0
 11
1176.5559895833
 21
523.9263386824
 31
0.0
  0
LINE
  5
422
330
1B
100
AcDbEntity
 67
     1
  8
02___PRT_ALL_AXES
  6
Continuous
 62
     3
100
AcDbLine
 10
1176.5559895833
 20
523.9263386824
 30
0.0
 11
1176.7559895833
 21
523.9263386824
 31
0.0
  0
LINE
  5
423
330
1B
100
AcDbEntity
 67
     1
  8
02___PRT_ALL_AXES
  6
Continuous
 62
     3
100
AcDbLine
 10
1176.7559895833
 20
523.9263386824
 30
0.0
 11
1176.7559895833
 21
543.9263386824
 31
0.0
  0
ARC
  5
424
330
1B
100
AcDbEntity
 67
     1
  8
02___PRT_ALL_AXES
  6
Continuous
 62
     3
100
AcDbCircle
 10
1186.5559895833
 20
543.9263386824
 30
0.0
 40
9.8
100
AcDbArc
 50
90.0
 51
180.0
  0
LINE
  5
425
330
1B
100
AcDbEntity
 67
     1
  8
02___PRT_ALL_AXES
  6
Continuous
 62
     3
100
AcDbLine
 10
1186.5559895833
 20
553.7263386824
 30
0.0
 11
1246.5559895833
 21
553.7263386824
 31
0.0
  0
ARC
  5
426
330
1B
100
AcDbEntity
 67
     1
  8
02___PRT_ALL_AXES
  6
Continuous
 62
     3
100
AcDbCircle
 10
1246.5559895833
 20
543.9263386824
 30
0.0
 40
9.8
100
AcDbArc
 50
0.0
 51
90.0
  0
LINE
  5
427
330
1B
100
AcDbEntity
 67
     1
  8
02___PRT_ALL_AXES
  6
Continuous
 62
     3
100
AcDbLine
 10
1256.3559895833
 20
543.9263386824
 30
0.0
 11
1256.3559895833
 21
523.9263386824
 31
0.0
  0
LINE
  5
428
330
1B
100
AcDbEntity
 67
     1
  8
02___PRT_ALL_AXES
  6
Continuous
 62
     3
100
AcDbLine
 10
1256.3559895833
 20
523.9263386824
 30
0.0
 11
1256.5559895833
 21
523.9263386824
 31
0.0
  0
LINE
  5
429
330
1B
100
AcDbEntity
 67
     1
  8
02___PRT_ALL_AXES
  6
Continuous
 62
     3
100
AcDbLine
 10
1254.7559895833
 20
523.8263386824
 30
0.0
 11
1254.7559895833
 21
524.0263386824
 31
0.0
  0
LINE
  5
42A
330
1B
100
AcDbEntity
 67
     1
  8
02___PRT_ALL_AXES
  6
Continuous
 62
     3
100
AcDbLine
 10
1254.7559895833
 20
524.0263386824
 30
0.0
 11
1217.3559895833
 21
524.0263386824
 31
0.0
  0
LINE
  5
42B
330
1B
100
AcDbEntity
 67
     1
  8
02___PRT_ALL_AXES
  6
Continuous
 62
     3
100
AcDbLine
 10
1217.3559895833
 20
524.0263386824
 30
0.0
 11
1217.3559895833
 21
523.8263386824
 31
0.0
  0
LINE
  5
42C
330
1B
100
AcDbEntity
 67
     1
  8
02___PRT_ALL_AXES
  6
Continuous
 62
     3
100
AcDbLine
 10
1217.3559895833
 20
523.8263386824
 30
0.0
 11
1254.7559895833
 21
523.8263386824
 31
0.0
  0
LINE
  5
42D
330
1B
100
AcDbEntity
 67
     1
  8
02___PRT_ALL_AXES
  6
Continuous
 62
     3
100
AcDbLine
 10
1178.3559895833
 20
523.8263386824
 30
0.0
 11
1215.7559895833
 21
523.8263386824
 31
0.0
  0
LINE
  5
42E
330
1B
100
AcDbEntity
 67
     1
  8
02___PRT_ALL_AXES
  6
Continuous
 62
     3
100
AcDbLine
 10
1215.7559895833
 20
523.8263386824
 30
0.0
 11
1215.7559895833
 21
524.0263386824
 31
0.0
  0
LINE
  5
42F
330
1B
100
AcDbEntity
 67
     1
  8
02___PRT_ALL_AXES
  6
Continuous
 62
     3
100
AcDbLine
 10
1215.7559895833
 20
524.0263386824
 30
0.0
 11
1178.3559895833
 21
524.0263386824
 31
0.0
  0
LINE
  5
430
330
1B
100
AcDbEntity
 67
     1
  8
02___PRT_ALL_AXES
  6
Continuous
 62
     3
100
AcDbLine
 10
1178.3559895833
 20
524.0263386824
 30
0.0
 11
1178.3559895833
 21
523.8263386824
 31
0.0
  0
LINE
  5
431
330
1B
100
AcDbEntity
 67
     1
  8
7_ALL_FEATURES
  6
Continuous
 62
     3
100
AcDbLine
 10
1154.0559895833
 20
577.8263386824
 30
0.0
 11
1154.0559895833
 21
578.5316809852
 31
0.0
  0
LINE
  5
432
330
1B
100
AcDbEntity
 67
     1
  8
7_ALL_FEATURES
  6
Continuous
 62
     3
100
AcDbLine
 10
1154.0559895833
 20
578.5316809852
 30
0.0
 11
1154.0559895833
 21
579.0263386824
 31
0.0
  0
LINE
  5
433
330
1B
100
AcDbEntity
 67
     1
  8
7_ALL_FEATURES
  6
Continuous
 62
     3
100
AcDbLine
 10
1279.0559895833
 20
579.0263386824
 30
0.0
 11
1154.0559895833
 21
579.0263386824
 31
0.0
  0
LINE
  5
434
330
1B
100
AcDbEntity
 67
     1
  8
7_ALL_FEATURES
  6
Continuous
 62
     3
100
AcDbLine
 10
1279.0559895833
 20
577.8263386824
 30
0.0
 11
1279.0559895833
 21
578.5316809852
 31
0.0
  0
LINE
  5
435
330
1B
100
AcDbEntity
 67
     1
  8
7_ALL_FEATURES
  6
Continuous
 62
     3
100
AcDbLine
 10
1279.0559895833
 20
578.5316809852
 30
0.0
 11
1279.0559895833
 21
579.0263386824
 31
0.0
  0
LINE
  5
436
330
1B
100
AcDbEntity
 67
     1
  8
7_ALL_FEATURES
  6
Continuous
 62
     3
100
AcDbLine
 10
1154.0559895833
 20
509.0263386824
 30
0.0
 11
1166.0559895833
 21
509.0263386824
 31
0.0
  0
LINE
  5
437
330
1B
100
AcDbEntity
 67
     1
  8
7_ALL_FEATURES
  6
Continuous
 62
     3
100
AcDbLine
 10
1267.0559895833
 20
509.0263386824
 30
0.0
 11
1279.0559895833
 21
509.0263386824
 31
0.0
  0
LINE
  5
438
330
1B
100
AcDbEntity
 67
     1
  8
7_ALL_FEATURES
  6
Continuous
 62
     3
100
AcDbLine
 10
1267.0559895833
 20
509.0263386824
 30
0.0
 11
1166.0559895833
 21
509.0263386824
 31
0.0
  0
LINE
  5
439
330
1B
100
AcDbEntity
 67
     1
  8
7_ALL_FEATURES
  6
Continuous
 62
     3
100
AcDbLine
 10
1154.0559895833
 20
509.0263386824
 30
0.0
 11
1154.0559895833
 21
509.6263386824
 31
0.0
  0
LINE
  5
43A
330
1B
100
AcDbEntity
 67
     1
  8
7_ALL_FEATURES
  6
Continuous
 62
     3
100
AcDbLine
 10
1279.0559895833
 20
509.0263386824
 30
0.0
 11
1279.0559895833
 21
509.6263386824
 31
0.0
  0
LINE
  5
43B
330
1B
100
AcDbEntity
 67
     1
  8
7_ALL_FEATURES
  6
Continuous
 62
     9
100
AcDbLine
 10
1154.0559895833
 20
509.6263386824
 30
0.0
 11
1279.0559895833
 21
509.6263386824
 31
0.0
  0
LINE
  5
43C
330
1B
100
AcDbEntity
 67
     1
  8
7_ALL_FEATURES
  6
Continuous
 62
     9
100
AcDbLine
 10
1279.0559895833
 20
577.8263386824
 30
0.0
 11
1154.0559895833
 21
577.8263386824
 31
0.0
  0
LINE
  5
43D
330
1B
100
AcDbEntity
 67
     1
  8
7_ALL_FEATURES
  6
Continuous
 62
     7
100
AcDbLine
 10
2132.5559895833
 20
252.3600436374
 30
0.0
 11
2131.0559895833
 21
252.3600436374
 31
0.0
  0
LINE
  5
43E
330
1B
100
AcDbEntity
 67
     1
  8
7_ALL_FEATURES
  6
Continuous
 62
     7
100
AcDbLine
 10
2132.5559895833
 20
294.3600436374
 30
0.0
 11
2131.0559895833
 21
294.3600436374
 31
0.0
  0
LINE
  5
43F
330
1B
100
AcDbEntity
 67
     1
  8
7_ALL_FEATURES
  6
Continuous
 62
     7
100
AcDbLine
 10
2132.5559895833
 20
294.3600436374
 30
0.0
 11
2132.5559895833
 21
293.3600436374
 31
0.0
  0
LINE
  5
440
330
1B
100
AcDbEntity
 67
     1
  8
7_ALL_FEATURES
  6
Continuous
 62
     7
100
AcDbLine
 10
2132.5559895833
 20
253.3600436374
 30
0.0
 11
2132.5559895833
 21
293.3600436374
 31
0.0
  0
LINE
  5
441
330
1B
100
AcDbEntity
 67
     1
  8
7_ALL_FEATURES
  6
Continuous
 62
     7
100
AcDbLine
 10
2132.5559895833
 20
253.3600436374
 30
0.0
 11
2132.5559895833
 21
252.3600436374
 31
0.0
  0
LINE
  5
442
330
1B
100
AcDbEntity
 67
     1
  8
7_ALL_FEATURES
  6
Continuous
 62
     9
100
AcDbLine
 10
2132.5559895833
 20
253.3600436374
 30
0.0
 11
2131.0559895833
 21
253.3600436374
 31
0.0
  0
LINE
  5
443
330
1B
100
AcDbEntity
 67
     1
  8
7_ALL_FEATURES
  6
Continuous
 62
     9
100
AcDbLine
 10
2132.5559895833
 20
293.3600436374
 30
0.0
 11
2131.0559895833
 21
293.3600436374
 31
0.0
  0
LINE
  5
444
330
1B
100
AcDbEntity
 67
     1
  8
7_ALL_FEATURES
  6
Continuous
 62
     7
100
AcDbLine
 10
1090.5559895833
 20
294.3600436374
 30
0.0
 11
1092.0559895833
 21
294.3600436374
 31
0.0
  0
LINE
  5
445
330
1B
100
AcDbEntity
 67
     1
  8
7_ALL_FEATURES
  6
Continuous
 62
     7
100
AcDbLine
 10
1090.5559895833
 20
252.3600436374
 30
0.0
 11
1092.0559895833
 21
252.3600436374
 31
0.0
  0
LINE
  5
446
330
1B
100
AcDbEntity
 67
     1
  8
7_ALL_FEATURES
  6
Continuous
 62
     7
100
AcDbLine
 10
1090.5559895833
 20
252.3600436374
 30
0.0
 11
1090.5559895833
 21
253.3600436374
 31
0.0
  0
LINE
  5
447
330
1B
100
AcDbEntity
 67
     1
  8
7_ALL_FEATURES
  6
Continuous
 62
     7
100
AcDbLine
 10
1090.5559895833
 20
293.3600436374
 30
0.0
 11
1090.5559895833
 21
253.3600436374
 31
0.0
  0
LINE
  5
448
330
1B
100
AcDbEntity
 67
     1
  8
7_ALL_FEATURES
  6
Continuous
 62
     7
100
AcDbLine
 10
1090.5559895833
 20
293.3600436374
 30
0.0
 11
1090.5559895833
 21
294.3600436374
 31
0.0
  0
LINE
  5
449
330
1B
100
AcDbEntity
 67
     1
  8
7_ALL_FEATURES
  6
Continuous
 62
     9
100
AcDbLine
 10
1090.5559895833
 20
293.3600436374
 30
0.0
 11
1092.0559895833
 21
293.3600436374
 31
0.0
  0
LINE
  5
44A
330
1B
100
AcDbEntity
 67
     1
  8
7_ALL_FEATURES
  6
Continuous
 62
     9
100
AcDbLine
 10
1090.5559895833
 20
253.3600436374
 30
0.0
 11
1092.0559895833
 21
253.3600436374
 31
0.0
  0
LINE
  5
44B
330
1B
100
AcDbEntity
 67
     1
  8
3_ALL_AXES
  6
Continuous
 62
     7
100
AcDbLine
 10
1090.0559895833
 20
288.8100436374
 30
0.0
 11
1090.0559895833
 21
294.3100436374
 31
0.0
  0
LINE
  5
44C
330
1B
100
AcDbEntity
 67
     1
  8
3_ALL_AXES
  6
Continuous
 62
     7
100
AcDbLine
 10
1090.0559895833
 20
288.8100436374
 30
0.0
 11
1090.206709913
 21
288.8100436374
 31
0.0
  0
LINE
  5
44D
330
1B
100
AcDbEntity
 67
     1
  8
3_ALL_AXES
  6
Continuous
 62
     7
100
AcDbLine
 10
1090.0559895833
 20
294.3100436374
 30
0.0
 11
1090.206709913
 21
294.3100436374
 31
0.0
  0
LINE
  5
44E
330
1B
100
AcDbEntity
 67
     1
  8
3_ALL_AXES
  6
Continuous
 62
     7
100
AcDbLine
 10
1090.206709913
 20
294.3100436374
 30
0.0
 11
1090.5559895833
 21
294.0169631948
 31
0.0
  0
LINE
  5
44F
330
1B
100
AcDbEntity
 67
     1
  8
3_ALL_AXES
  6
Continuous
 62
     7
100
AcDbLine
 10
1090.206709913
 20
288.8100436374
 30
0.0
 11
1090.5559895833
 21
289.10312408
 31
0.0
  0
LINE
  5
450
330
1B
100
AcDbEntity
 67
     1
  8
3_ALL_AXES
  6
Continuous
 62
     7
100
AcDbLine
 10
1090.206709913
 20
288.8100436374
 30
0.0
 11
1090.206709913
 21
294.3100436374
 31
0.0
  0
LINE
  5
451
330
1B
100
AcDbEntity
 67
     1
  8
3_ALL_AXES
  6
Continuous
 62
     7
100
AcDbLine
 10
1090.0559895833
 20
252.4100436374
 30
0.0
 11
1090.0559895833
 21
257.9100436374
 31
0.0
  0
LINE
  5
452
330
1B
100
AcDbEntity
 67
     1
  8
3_ALL_AXES
  6
Continuous
 62
     7
100
AcDbLine
 10
1090.0559895833
 20
252.4100436374
 30
0.0
 11
1090.206709913
 21
252.4100436374
 31
0.0
  0
LINE
  5
453
330
1B
100
AcDbEntity
 67
     1
  8
3_ALL_AXES
  6
Continuous
 62
     7
100
AcDbLine
 10
1090.0559895833
 20
257.9100436374
 30
0.0
 11
1090.206709913
 21
257.9100436374
 31
0.0
  0
LINE
  5
454
330
1B
100
AcDbEntity
 67
     1
  8
3_ALL_AXES
  6
Continuous
 62
     7
100
AcDbLine
 10
1090.206709913
 20
257.9100436374
 30
0.0
 11
1090.5559895833
 21
257.6169631948
 31
0.0
  0
LINE
  5
455
330
1B
100
AcDbEntity
 67
     1
  8
3_ALL_AXES
  6
Continuous
 62
     7
100
AcDbLine
 10
1090.206709913
 20
252.4100436374
 30
0.0
 11
1090.5559895833
 21
252.70312408
 31
0.0
  0
LINE
  5
456
330
1B
100
AcDbEntity
 67
     1
  8
3_ALL_AXES
  6
Continuous
 62
     7
100
AcDbLine
 10
1090.206709913
 20
252.4100436374
 30
0.0
 11
1090.206709913
 21
257.9100436374
 31
0.0
  0
LINE
  5
457
330
1B
100
AcDbEntity
 67
     1
  8
3_ALL_AXES
  6
Continuous
 62
     7
100
AcDbLine
 10
2133.0559895833
 20
257.9100436374
 30
0.0
 11
2133.0559895833
 21
252.4100436374
 31
0.0
  0
LINE
  5
458
330
1B
100
AcDbEntity
 67
     1
  8
3_ALL_AXES
  6
Continuous
 62
     7
100
AcDbLine
 10
2133.0559895833
 20
257.9100436374
 30
0.0
 11
2132.9052692537
 21
257.9100436374
 31
0.0
  0
LINE
  5
459
330
1B
100
AcDbEntity
 67
     1
  8
3_ALL_AXES
  6
Continuous
 62
     7
100
AcDbLine
 10
2133.0559895833
 20
252.4100436374
 30
0.0
 11
2132.9052692537
 21
252.4100436374
 31
0.0
  0
LINE
  5
45A
330
1B
100
AcDbEntity
 67
     1
  8
3_ALL_AXES
  6
Continuous
 62
     7
100
AcDbLine
 10
2132.9052692537
 20
252.4100436374
 30
0.0
 11
2132.5559895833
 21
252.70312408
 31
0.0
  0
LINE
  5
45B
330
1B
100
AcDbEntity
 67
     1
  8
3_ALL_AXES
  6
Continuous
 62
     7
100
AcDbLine
 10
2132.9052692537
 20
257.9100436374
 30
0.0
 11
2132.5559895833
 21
257.6169631948
 31
0.0
  0
LINE
  5
45C
330
1B
100
AcDbEntity
 67
     1
  8
3_ALL_AXES
  6
Continuous
 62
     7
100
AcDbLine
 10
2132.9052692537
 20
257.9100436374
 30
0.0
 11
2132.9052692537
 21
252.4100436374
 31
0.0
  0
LINE
  5
45D
330
1B
100
AcDbEntity
 67
     1
  8
3_ALL_AXES
  6
Continuous
 62
     7
100
AcDbLine
 10
2133.0559895833
 20
294.3100436374
 30
0.0
 11
2133.0559895833
 21
288.8100436374
 31
0.0
  0
LINE
  5
45E
330
1B
100
AcDbEntity
 67
     1
  8
3_ALL_AXES
  6
Continuous
 62
     7
100
AcDbLine
 10
2133.0559895833
 20
294.3100436374
 30
0.0
 11
2132.9052692537
 21
294.3100436374
 31
0.0
  0
LINE
  5
45F
330
1B
100
AcDbEntity
 67
     1
  8
3_ALL_AXES
  6
Continuous
 62
     7
100
AcDbLine
 10
2133.0559895833
 20
288.8100436374
 30
0.0
 11
2132.9052692537
 21
288.8100436374
 31
0.0
  0
LINE
  5
460
330
1B
100
AcDbEntity
 67
     1
  8
3_ALL_AXES
  6
Continuous
 62
     7
100
AcDbLine
 10
2132.9052692537
 20
288.8100436374
 30
0.0
 11
2132.5559895833
 21
289.10312408
 31
0.0
  0
LINE
  5
461
330
1B
100
AcDbEntity
 67
     1
  8
3_ALL_AXES
  6
Continuous
 62
     7
100
AcDbLine
 10
2132.9052692537
 20
294.3100436374
 30
0.0
 11
2132.5559895833
 21
294.0169631948
 31
0.0
  0
LINE
  5
462
330
1B
100
AcDbEntity
 67
     1
  8
3_ALL_AXES
  6
Continuous
 62
     7
100
AcDbLine
 10
2132.9052692537
 20
294.3100436374
 30
0.0
 11
2132.9052692537
 21
288.8100436374
 31
0.0
  0
LINE
  5
463
330
1B
100
AcDbEntity
 67
     1
  8
7_ALL_FEATURES
  6
Continuous
 62
     7
100
AcDbLine
 10
2131.0559895833
 20
253.1600436374
 30
0.0
 11
2131.0559895833
 21
252.4529368562
 31
0.0
  0
LINE
  5
464
330
1B
100
AcDbEntity
 67
     1
  8
7_ALL_FEATURES
  6
Continuous
 62
     7
100
AcDbLine
 10
2131.0559895833
 20
252.4529368562
 30
0.0
 11
2131.0559895833
 21
252.3600436374
 31
0.0
  0
LINE
  5
465
330
1B
100
AcDbEntity
 67
     1
  8
7_ALL_FEATURES
  6
Continuous
 62
     7
100
AcDbLine
 10
2131.0559895833
 20
252.3600436374
 30
0.0
 11
2131.0559895833
 21
252.1600436374
 31
0.0
  0
LINE
  5
466
330
1B
100
AcDbEntity
 67
     1
  8
7_ALL_FEATURES
  6
Continuous
 62
     7
100
AcDbLine
 10
2131.0559895833
 20
253.1600436374
 30
0.0
 11
2131.0559895833
 21
253.3600436374
 31
0.0
  0
LINE
  5
467
330
1B
100
AcDbEntity
 67
     1
  8
7_ALL_FEATURES
  6
Continuous
 62
     7
100
AcDbLine
 10
2131.0559895833
 20
253.3600436374
 30
0.0
 11
2131.0559895833
 21
272.1394665008
 31
0.0
  0
LINE
  5
468
330
1B
100
AcDbEntity
 67
     1
  8
7_ALL_FEATURES
  6
Continuous
 62
     7
100
AcDbLine
 10
2131.0559895833
 20
274.580620774
 30
0.0
 11
2131.0559895833
 21
293.3600436374
 31
0.0
  0
LINE
  5
469
330
1B
100
AcDbEntity
 67
     1
  8
7_ALL_FEATURES
  6
Continuous
 62
     7
100
AcDbLine
 10
2131.0559895833
 20
293.3600436374
 30
0.0
 11
2131.0559895833
 21
293.5600436374
 31
0.0
  0
LINE
  5
46A
330
1B
100
AcDbEntity
 67
     1
  8
7_ALL_FEATURES
  6
Continuous
 62
     7
100
AcDbLine
 10
2131.0559895833
 20
294.5600436374
 30
0.0
 11
2131.0559895833
 21
294.3600436374
 31
0.0
  0
LINE
  5
46B
330
1B
100
AcDbEntity
 67
     1
  8
7_ALL_FEATURES
  6
Continuous
 62
     7
100
AcDbLine
 10
2131.0559895833
 20
294.3600436374
 30
0.0
 11
2131.0559895833
 21
294.2671504186
 31
0.0
  0
LINE
  5
46C
330
1B
100
AcDbEntity
 67
     1
  8
7_ALL_FEATURES
  6
Continuous
 62
     7
100
AcDbLine
 10
2131.0559895833
 20
294.2671504186
 30
0.0
 11
2131.0559895833
 21
293.5600436374
 31
0.0
  0
LINE
  5
46D
330
1B
100
AcDbEntity
 67
     1
  8
7_ALL_FEATURES
  6
Continuous
 62
     7
100
AcDbLine
 10
1092.0559895833
 20
293.5600436374
 30
0.0
 11
1092.0559895833
 21
294.2671504186
 31
0.0
  0
LINE
  5
46E
330
1B
100
AcDbEntity
 67
     1
  8
7_ALL_FEATURES
  6
Continuous
 62
     7
100
AcDbLine
 10
1092.0559895833
 20
294.2671504186
 30
0.0
 11
1092.0559895833
 21
294.3600436374
 31
0.0
  0
LINE
  5
46F
330
1B
100
AcDbEntity
 67
     1
  8
7_ALL_FEATURES
  6
Continuous
 62
     7
100
AcDbLine
 10
1092.0559895833
 20
294.3600436374
 30
0.0
 11
1092.0559895833
 21
294.5600436374
 31
0.0
  0
LINE
  5
470
330
1B
100
AcDbEntity
 67
     1
  8
7_ALL_FEATURES
  6
Continuous
 62
     7
100
AcDbLine
 10
1092.0559895833
 20
274.580620774
 30
0.0
 11
1092.0559895833
 21
293.3600436374
 31
0.0
  0
LINE
  5
471
330
1B
100
AcDbEntity
 67
     1
  8
7_ALL_FEATURES
  6
Continuous
 62
     7
100
AcDbLine
 10
1092.0559895833
 20
293.3600436374
 30
0.0
 11
1092.0559895833
 21
293.5600436374
 31
0.0
  0
LINE
  5
472
330
1B
100
AcDbEntity
 67
     1
  8
7_ALL_FEATURES
  6
Continuous
 62
     7
100
AcDbLine
 10
1092.0559895833
 20
253.1600436374
 30
0.0
 11
1092.0559895833
 21
253.3600436374
 31
0.0
  0
LINE
  5
473
330
1B
100
AcDbEntity
 67
     1
  8
7_ALL_FEATURES
  6
Continuous
 62
     7
100
AcDbLine
 10
1092.0559895833
 20
253.3600436374
 30
0.0
 11
1092.0559895833
 21
272.1394665008
 31
0.0
  0
LINE
  5
474
330
1B
100
AcDbEntity
 67
     1
  8
7_ALL_FEATURES
  6
Continuous
 62
     7
100
AcDbLine
 10
1092.0559895833
 20
252.1600436374
 30
0.0
 11
1092.0559895833
 21
252.3600436374
 31
0.0
  0
LINE
  5
475
330
1B
100
AcDbEntity
 67
     1
  8
7_ALL_FEATURES
  6
Continuous
 62
     7
100
AcDbLine
 10
1092.0559895833
 20
252.3600436374
 30
0.0
 11
1092.0559895833
 21
252.4529368562
 31
0.0
  0
LINE
  5
476
330
1B
100
AcDbEntity
 67
     1
  8
7_ALL_FEATURES
  6
Continuous
 62
     7
100
AcDbLine
 10
1092.0559895833
 20
252.4529368562
 30
0.0
 11
1092.0559895833
 21
253.1600436374
 31
0.0
  0
LINE
  5
477
330
1B
100
AcDbEntity
 67
     1
  8
7_ALL_FEATURES
  6
Continuous
 62
     7
100
AcDbLine
 10
1092.0559895833
 20
294.5600436374
 30
0.0
 11
1154.0559895833
 21
294.5600436374
 31
0.0
  0
LINE
  5
478
330
1B
100
AcDbEntity
 67
     1
  8
7_ALL_FEATURES
  6
Continuous
 62
     7
100
AcDbLine
 10
1279.0559895833
 20
294.5600436374
 30
0.0
 11
1954.0559895833
 21
294.5600436374
 31
0.0
  0
LINE
  5
479
330
1B
100
AcDbEntity
 67
     1
  8
7_ALL_FEATURES
  6
Continuous
 62
     7
100
AcDbLine
 10
2079.0559895833
 20
294.5600436374
 30
0.0
 11
2131.0559895833
 21
294.5600436374
 31
0.0
  0
LINE
  5
47A
330
1B
100
AcDbEntity
 67
     1
  8
7_ALL_FEATURES
  6
Continuous
 62
     7
100
AcDbLine
 10
1092.0559895833
 20
252.1600436374
 30
0.0
 11
1154.0559895833
 21
252.1600436374
 31
0.0
  0
LINE
  5
47B
330
1B
100
AcDbEntity
 67
     1
  8
7_ALL_FEATURES
  6
Continuous
 62
     7
100
AcDbLine
 10
1279.0559895833
 20
252.1600436374
 30
0.0
 11
1954.0559895833
 21
252.1600436374
 31
0.0
  0
LINE
  5
47C
330
1B
100
AcDbEntity
 67
     1
  8
7_ALL_FEATURES
  6
Continuous
 62
     7
100
AcDbLine
 10
2079.0559895833
 20
252.1600436374
 30
0.0
 11
2131.0559895833
 21
252.1600436374
 31
0.0
  0
LINE
  5
47D
330
1B
100
AcDbEntity
 67
     1
  8
7_ALL_FEATURES
  6
Continuous
 62
     9
100
AcDbLine
 10
1092.0559895833
 20
274.080620774
 30
0.0
 11
1154.0559895833
 21
274.080620774
 31
0.0
  0
LINE
  5
47E
330
1B
100
AcDbEntity
 67
     1
  8
7_ALL_FEATURES
  6
Continuous
 62
     9
100
AcDbLine
 10
1279.0559895833
 20
274.080620774
 30
0.0
 11
1954.0559895833
 21
274.080620774
 31
0.0
  0
LINE
  5
47F
330
1B
100
AcDbEntity
 67
     1
  8
7_ALL_FEATURES
  6
Continuous
 62
     9
100
AcDbLine
 10
2079.0559895833
 20
274.080620774
 30
0.0
 11
2131.0559895833
 21
274.080620774
 31
0.0
  0
LINE
  5
480
330
1B
100
AcDbEntity
 67
     1
  8
7_ALL_FEATURES
  6
Continuous
 62
     9
100
AcDbLine
 10
1092.0559895833
 20
272.6394665008
 30
0.0
 11
1154.0559895833
 21
272.6394665008
 31
0.0
  0
LINE
  5
481
330
1B
100
AcDbEntity
 67
     1
  8
7_ALL_FEATURES
  6
Continuous
 62
     9
100
AcDbLine
 10
1279.0559895833
 20
272.6394665008
 30
0.0
 11
1954.0559895833
 21
272.6394665008
 31
0.0
  0
LINE
  5
482
330
1B
100
AcDbEntity
 67
     1
  8
7_ALL_FEATURES
  6
Continuous
 62
     9
100
AcDbLine
 10
2079.0559895833
 20
272.6394665008
 30
0.0
 11
2131.0559895833
 21
272.6394665008
 31
0.0
  0
LINE
  5
483
330
1B
100
AcDbEntity
 67
     1
  8
7_ALL_FEATURES
  6
Continuous
 62
     9
100
AcDbLine
 10
1092.0559895833
 20
253.1600436374
 30
0.0
 11
1154.0559895833
 21
253.1600436374
 31
0.0
  0
LINE
  5
484
330
1B
100
AcDbEntity
 67
     1
  8
7_ALL_FEATURES
  6
Continuous
 62
     9
100
AcDbLine
 10
1279.0559895833
 20
253.1600436374
 30
0.0
 11
1954.0559895833
 21
253.1600436374
 31
0.0
  0
LINE
  5
485
330
1B
100
AcDbEntity
 67
     1
  8
7_ALL_FEATURES
  6
Continuous
 62
     9
100
AcDbLine
 10
2079.0559895833
 20
253.1600436374
 30
0.0
 11
2131.0559895833
 21
253.1600436374
 31
0.0
  0
LINE
  5
486
330
1B
100
AcDbEntity
 67
     1
  8
7_ALL_FEATURES
  6
Continuous
 62
     9
100
AcDbLine
 10
1092.0559895833
 20
272.1394665008
 30
0.0
 11
1154.0559895833
 21
272.1394665008
 31
0.0
  0
LINE
  5
487
330
1B
100
AcDbEntity
 67
     1
  8
7_ALL_FEATURES
  6
Continuous
 62
     9
100
AcDbLine
 10
1279.0559895833
 20
272.1394665008
 30
0.0
 11
1954.0559895833
 21
272.1394665008
 31
0.0
  0
LINE
  5
488
330
1B
100
AcDbEntity
 67
     1
  8
7_ALL_FEATURES
  6
Continuous
 62
     9
100
AcDbLine
 10
2079.0559895833
 20
272.1394665008
 30
0.0
 11
2131.0559895833
 21
272.1394665008
 31
0.0
  0
LINE
  5
489
330
1B
100
AcDbEntity
 67
     1
  8
7_ALL_FEATURES
  6
Continuous
 62
     9
100
AcDbLine
 10
1092.0559895833
 20
293.5600436374
 30
0.0
 11
1154.0559895833
 21
293.5600436374
 31
0.0
  0
LINE
  5
48A
330
1B
100
AcDbEntity
 67
     1
  8
7_ALL_FEATURES
  6
Continuous
 62
     9
100
AcDbLine
 10
1279.0559895833
 20
293.5600436374
 30
0.0
 11
1954.0559895833
 21
293.5600436374
 31
0.0
  0
LINE
  5
48B
330
1B
100
AcDbEntity
 67
     1
  8
7_ALL_FEATURES
  6
Continuous
 62
     9
100
AcDbLine
 10
2079.0559895833
 20
293.5600436374
 30
0.0
 11
2131.0559895833
 21
293.5600436374
 31
0.0
  0
LINE
  5
48C
330
1B
100
AcDbEntity
 67
     1
  8
7_ALL_FEATURES
  6
Continuous
 62
     9
100
AcDbLine
 10
1092.0559895833
 20
274.580620774
 30
0.0
 11
1154.0559895833
 21
274.580620774
 31
0.0
  0
LINE
  5
48D
330
1B
100
AcDbEntity
 67
     1
  8
7_ALL_FEATURES
  6
Continuous
 62
     9
100
AcDbLine
 10
1279.0559895833
 20
274.580620774
 30
0.0
 11
1954.0559895833
 21
274.580620774
 31
0.0
  0
LINE
  5
48E
330
1B
100
AcDbEntity
 67
     1
  8
7_ALL_FEATURES
  6
Continuous
 62
     9
100
AcDbLine
 10
2079.0559895833
 20
274.580620774
 30
0.0
 11
2131.0559895833
 21
274.580620774
 31
0.0
  0
LINE
  5
48F
330
1B
100
AcDbEntity
 67
     1
  8
7_ALL_FEATURES
  6
Continuous
 62
     7
100
AcDbLine
 10
2131.0559895833
 20
273.3600436374
 30
0.0
 11
2079.0559895833
 21
273.3600436374
 31
0.0
  0
LINE
  5
490
330
1B
100
AcDbEntity
 67
     1
  8
7_ALL_FEATURES
  6
Continuous
 62
     7
100
AcDbLine
 10
1954.0559895833
 20
273.3600436374
 30
0.0
 11
1279.0559895833
 21
273.3600436374
 31
0.0
  0
LINE
  5
491
330
1B
100
AcDbEntity
 67
     1
  8
7_ALL_FEATURES
  6
Continuous
 62
     7
100
AcDbLine
 10
1154.0559895833
 20
273.3600436374
 30
0.0
 11
1092.0559895833
 21
273.3600436374
 31
0.0
  0
LINE
  5
492
330
1B
100
AcDbEntity
 67
     1
  8
7_ALL_FEATURES
  6
Continuous
 62
     3
100
AcDbLine
 10
2131.0559895833
 20
293.3600436374
 30
0.0
 11
2131.0559895833
 21
293.4523119969
 31
0.0
  0
LINE
  5
493
330
1B
100
AcDbEntity
 67
     1
  8
7_ALL_FEATURES
  6
Continuous
 62
     3
100
AcDbLine
 10
2131.0559895833
 20
253.3600436374
 30
0.0
 11
2131.0559895833
 21
272.1394665008
 31
0.0
  0
LINE
  5
494
330
1B
100
AcDbEntity
 67
     1
  8
7_ALL_FEATURES
  6
Continuous
 62
     3
100
AcDbLine
 10
2131.0559895833
 20
272.1394665008
 30
0.0
 11
2131.0559895833
 21
272.6394665008
 31
0.0
  0
LINE
  5
495
330
1B
100
AcDbEntity
 67
     1
  8
7_ALL_FEATURES
  6
Continuous
 62
     3
100
AcDbLine
 10
2131.0559895833
 20
272.6394665008
 30
0.0
 11
2131.0559895833
 21
274.080620774
 31
0.0
  0
LINE
  5
496
330
1B
100
AcDbEntity
 67
     1
  8
7_ALL_FEATURES
  6
Continuous
 62
     3
100
AcDbLine
 10
2131.0559895833
 20
274.080620774
 30
0.0
 11
2131.0559895833
 21
274.580620774
 31
0.0
  0
LINE
  5
497
330
1B
100
AcDbEntity
 67
     1
  8
7_ALL_FEATURES
  6
Continuous
 62
     3
100
AcDbLine
 10
2131.0559895833
 20
274.580620774
 30
0.0
 11
2131.0559895833
 21
293.3600436374
 31
0.0
  0
LINE
  5
498
330
1B
100
AcDbEntity
 67
     1
  8
7_ALL_FEATURES
  6
Continuous
 62
     3
100
AcDbLine
 10
2131.0559895833
 20
253.2677752779
 30
0.0
 11
2131.0559895833
 21
253.3600436374
 31
0.0
  0
LINE
  5
499
330
1B
100
AcDbEntity
 67
     1
  8
7_ALL_FEATURES
  6
Continuous
 62
     3
100
AcDbLine
 10
1092.0559895833
 20
253.3600436374
 30
0.0
 11
1092.0559895833
 21
253.2677752779
 31
0.0
  0
LINE
  5
49A
330
1B
100
AcDbEntity
 67
     1
  8
7_ALL_FEATURES
  6
Continuous
 62
     3
100
AcDbLine
 10
1092.0559895833
 20
293.3600436374
 30
0.0
 11
1092.0559895833
 21
274.580620774
 31
0.0
  0
LINE
  5
49B
330
1B
100
AcDbEntity
 67
     1
  8
7_ALL_FEATURES
  6
Continuous
 62
     3
100
AcDbLine
 10
1092.0559895833
 20
274.580620774
 30
0.0
 11
1092.0559895833
 21
274.080620774
 31
0.0
  0
LINE
  5
49C
330
1B
100
AcDbEntity
 67
     1
  8
7_ALL_FEATURES
  6
Continuous
 62
     3
100
AcDbLine
 10
1092.0559895833
 20
274.080620774
 30
0.0
 11
1092.0559895833
 21
272.6394665008
 31
0.0
  0
LINE
  5
49D
330
1B
100
AcDbEntity
 67
     1
  8
7_ALL_FEATURES
  6
Continuous
 62
     3
100
AcDbLine
 10
1092.0559895833
 20
272.6394665008
 30
0.0
 11
1092.0559895833
 21
272.1394665008
 31
0.0
  0
LINE
  5
49E
330
1B
100
AcDbEntity
 67
     1
  8
7_ALL_FEATURES
  6
Continuous
 62
     3
100
AcDbLine
 10
1092.0559895833
 20
272.1394665008
 30
0.0
 11
1092.0559895833
 21
253.3600436374
 31
0.0
  0
LINE
  5
49F
330
1B
100
AcDbEntity
 67
     1
  8
7_ALL_FEATURES
  6
Continuous
 62
     3
100
AcDbLine
 10
1092.0559895833
 20
293.4523119969
 30
0.0
 11
1092.0559895833
 21
293.3600436374
 31
0.0
  0
LINE
  5
4A0
330
1B
100
AcDbEntity
 67
     1
  8
7_ALL_FEATURES
  6
Continuous
 62
     3
100
AcDbLine
 10
1279.0559895833
 20
251.2100436374
 30
0.0
 11
1154.0559895833
 21
251.2100436374
 31
0.0
  0
LINE
  5
4A1
330
1B
100
AcDbEntity
 67
     1
  8
7_ALL_FEATURES
  6
Continuous
 62
     3
100
AcDbLine
 10
1154.0559895833
 20
251.2100436374
 30
0.0
 11
1154.0559895833
 21
251.8100436374
 31
0.0
  0
LINE
  5
4A2
330
1B
100
AcDbEntity
 67
     1
  8
7_ALL_FEATURES
  6
Continuous
 62
     3
100
AcDbLine
 10
1154.0559895833
 20
251.8100436374
 30
0.0
 11
1154.0559895833
 21
252.4100436374
 31
0.0
  0
LINE
  5
4A3
330
1B
100
AcDbEntity
 67
     1
  8
7_ALL_FEATURES
  6
Continuous
 62
     3
100
AcDbLine
 10
1279.0559895833
 20
251.2100436374
 30
0.0
 11
1279.0559895833
 21
251.8100436374
 31
0.0
  0
LINE
  5
4A4
330
1B
100
AcDbEntity
 67
     1
  8
7_ALL_FEATURES
  6
Continuous
 62
     3
100
AcDbLine
 10
1279.0559895833
 20
251.8100436374
 30
0.0
 11
1279.0559895833
 21
252.4100436374
 31
0.0
  0
LINE
  5
4A5
330
1B
100
AcDbEntity
 67
     1
  8
7_ALL_FEATURES
  6
Continuous
 62
     3
100
AcDbLine
 10
1154.0559895833
 20
296.1100436374
 30
0.0
 11
1154.0559895833
 21
295.5100436374
 31
0.0
  0
LINE
  5
4A6
330
1B
100
AcDbEntity
 67
     1
  8
7_ALL_FEATURES
  6
Continuous
 62
     3
100
AcDbLine
 10
1279.0559895833
 20
296.1100436374
 30
0.0
 11
1279.0559895833
 21
295.5100436374
 31
0.0
  0
LINE
  5
4A7
330
1B
100
AcDbEntity
 67
     1
  8
7_ALL_FEATURES
  6
Continuous
 62
     3
100
AcDbLine
 10
1154.0559895833
 20
296.1100436374
 30
0.0
 11
1154.0559895833
 21
296.9100436374
 31
0.0
  0
LINE
  5
4A8
330
1B
100
AcDbEntity
 67
     1
  8
7_ALL_FEATURES
  6
Continuous
 62
     3
100
AcDbLine
 10
1279.0559895833
 20
296.9100436374
 30
0.0
 11
1279.0559895833
 21
296.1100436374
 31
0.0
  0
LINE
  5
4A9
330
1B
100
AcDbEntity
 67
     1
  8
7_ALL_FEATURES
  6
Continuous
 62
     3
100
AcDbLine
 10
1154.0559895833
 20
249.8100436374
 30
0.0
 11
1166.0559895833
 21
226.8100436374
 31
0.0
  0
LINE
  5
4AA
330
1B
100
AcDbEntity
 67
     1
  8
7_ALL_FEATURES
  6
Continuous
 62
     3
100
AcDbLine
 10
1154.0559895833
 20
249.8100436374
 30
0.0
 11
1154.0559895833
 21
250.6100436374
 31
0.0
  0
LINE
  5
4AB
330
1B
100
AcDbEntity
 67
     1
  8
7_ALL_FEATURES
  6
Continuous
 62
     3
100
AcDbLine
 10
1279.0559895833
 20
250.6100436374
 30
0.0
 11
1279.0559895833
 21
249.8100436374
 31
0.0
  0
LINE
  5
4AC
330
1B
100
AcDbEntity
 67
     1
  8
7_ALL_FEATURES
  6
Continuous
 62
     3
100
AcDbLine
 10
1267.0559895833
 20
226.8100436374
 30
0.0
 11
1279.0559895833
 21
249.8100436374
 31
0.0
  0
LINE
  5
4AD
330
1B
100
AcDbEntity
 67
     1
  8
7_ALL_FEATURES
  6
Continuous
 62
     3
100
AcDbLine
 10
1267.0559895833
 20
226.8100436374
 30
0.0
 11
1166.0559895833
 21
226.8100436374
 31
0.0
  0
LINE
  5
4AE
330
1B
100
AcDbEntity
 67
     1
  8
7_ALL_FEATURES
  6
Continuous
 62
     3
100
AcDbLine
 10
1154.0559895833
 20
250.6100436374
 30
0.0
 11
1154.0559895833
 21
251.2100436374
 31
0.0
  0
LINE
  5
4AF
330
1B
100
AcDbEntity
 67
     1
  8
7_ALL_FEATURES
  6
Continuous
 62
     3
100
AcDbLine
 10
1279.0559895833
 20
250.6100436374
 30
0.0
 11
1279.0559895833
 21
251.2100436374
 31
0.0
  0
LINE
  5
4B0
330
1B
100
AcDbEntity
 67
     1
  8
7_ALL_FEATURES
  6
Continuous
 62
     3
100
AcDbLine
 10
1154.0559895833
 20
294.3100436374
 30
0.0
 11
1154.0559895833
 21
252.4100436374
 31
0.0
  0
LINE
  5
4B1
330
1B
100
AcDbEntity
 67
     1
  8
7_ALL_FEATURES
  6
Continuous
 62
     3
100
AcDbLine
 10
1279.0559895833
 20
296.9100436374
 30
0.0
 11
1267.0559895833
 21
319.9100436374
 31
0.0
  0
LINE
  5
4B2
330
1B
100
AcDbEntity
 67
     1
  8
7_ALL_FEATURES
  6
Continuous
 62
     3
100
AcDbLine
 10
1166.0559895833
 20
319.9100436374
 30
0.0
 11
1267.0559895833
 21
319.9100436374
 31
0.0
  0
LINE
  5
4B3
330
1B
100
AcDbEntity
 67
     1
  8
7_ALL_FEATURES
  6
Continuous
 62
     3
100
AcDbLine
 10
1279.0559895833
 20
294.3100436374
 30
0.0
 11
1279.0559895833
 21
252.4100436374
 31
0.0
  0
LINE
  5
4B4
330
1B
100
AcDbEntity
 67
     1
  8
7_ALL_FEATURES
  6
Continuous
 62
     3
100
AcDbLine
 10
1166.0559895833
 20
319.9100436374
 30
0.0
 11
1154.0559895833
 21
296.9100436374
 31
0.0
  0
LINE
  5
4B5
330
1B
100
AcDbEntity
 67
     1
  8
7_ALL_FEATURES
  6
Continuous
 62
     3
100
AcDbLine
 10
1154.0559895833
 20
295.5100436374
 30
0.0
 11
1154.0559895833
 21
294.9100436374
 31
0.0
  0
LINE
  5
4B6
330
1B
100
AcDbEntity
 67
     1
  8
7_ALL_FEATURES
  6
Continuous
 62
     3
100
AcDbLine
 10
1154.0559895833
 20
294.9100436374
 30
0.0
 11
1154.0559895833
 21
294.3100436374
 31
0.0
  0
LINE
  5
4B7
330
1B
100
AcDbEntity
 67
     1
  8
7_ALL_FEATURES
  6
Continuous
 62
     3
100
AcDbLine
 10
1279.0559895833
 20
295.5100436374
 30
0.0
 11
1279.0559895833
 21
294.9100436374
 31
0.0
  0
LINE
  5
4B8
330
1B
100
AcDbEntity
 67
     1
  8
7_ALL_FEATURES
  6
Continuous
 62
     3
100
AcDbLine
 10
1279.0559895833
 20
294.9100436374
 30
0.0
 11
1279.0559895833
 21
294.3100436374
 31
0.0
  0
LINE
  5
4B9
330
1B
100
AcDbEntity
 67
     1
  8
7_ALL_FEATURES
  6
Continuous
 62
     3
100
AcDbLine
 10
1154.0559895833
 20
295.5100436374
 30
0.0
 11
1279.0559895833
 21
295.5100436374
 31
0.0
  0
LINE
  5
4BA
330
1B
100
AcDbEntity
 67
     1
  8
7_ALL_FEATURES
  6
Continuous
 62
     9
100
AcDbLine
 10
1154.0559895833
 20
250.6100436374
 30
0.0
 11
1279.0559895833
 21
250.6100436374
 31
0.0
  0
LINE
  5
4BB
330
1B
100
AcDbEntity
 67
     1
  8
7_ALL_FEATURES
  6
Continuous
 62
     9
100
AcDbLine
 10
1279.0559895833
 20
296.1100436374
 30
0.0
 11
1154.0559895833
 21
296.1100436374
 31
0.0
  0
LINE
  5
4BC
330
1B
100
AcDbEntity
 67
     1
  8
7_ALL_FEATURES
  6
Continuous
 62
     9
100
AcDbLine
 10
1279.0559895833
 20
252.4100436374
 30
0.0
 11
1154.0559895833
 21
252.4100436374
 31
0.0
  0
LINE
  5
4BD
330
1B
100
AcDbEntity
 67
     1
  8
7_ALL_FEATURES
  6
Continuous
 62
     9
100
AcDbLine
 10
1154.0559895833
 20
294.3100436374
 30
0.0
 11
1279.0559895833
 21
294.3100436374
 31
0.0
  0
LINE
  5
4BE
330
1B
100
AcDbEntity
 67
     1
  8
7_ALL_FEATURES
  6
Continuous
 62
     3
100
AcDbLine
 10
2079.0559895833
 20
251.2100436374
 30
0.0
 11
1954.0559895833
 21
251.2100436374
 31
0.0
  0
LINE
  5
4BF
330
1B
100
AcDbEntity
 67
     1
  8
7_ALL_FEATURES
  6
Continuous
 62
     3
100
AcDbLine
 10
1954.0559895833
 20
251.2100436374
 30
0.0
 11
1954.0559895833
 21
251.8100436374
 31
0.0
  0
LINE
  5
4C0
330
1B
100
AcDbEntity
 67
     1
  8
7_ALL_FEATURES
  6
Continuous
 62
     3
100
AcDbLine
 10
1954.0559895833
 20
251.8100436374
 30
0.0
 11
1954.0559895833
 21
252.4100436374
 31
0.0
  0
LINE
  5
4C1
330
1B
100
AcDbEntity
 67
     1
  8
7_ALL_FEATURES
  6
Continuous
 62
     3
100
AcDbLine
 10
2079.0559895833
 20
251.2100436374
 30
0.0
 11
2079.0559895833
 21
251.8100436374
 31
0.0
  0
LINE
  5
4C2
330
1B
100
AcDbEntity
 67
     1
  8
7_ALL_FEATURES
  6
Continuous
 62
     3
100
AcDbLine
 10
2079.0559895833
 20
251.8100436374
 30
0.0
 11
2079.0559895833
 21
252.4100436374
 31
0.0
  0
LINE
  5
4C3
330
1B
100
AcDbEntity
 67
     1
  8
7_ALL_FEATURES
  6
Continuous
 62
     3
100
AcDbLine
 10
1954.0559895833
 20
296.1100436374
 30
0.0
 11
1954.0559895833
 21
295.5100436374
 31
0.0
  0
LINE
  5
4C4
330
1B
100
AcDbEntity
 67
     1
  8
7_ALL_FEATURES
  6
Continuous
 62
     3
100
AcDbLine
 10
2079.0559895833
 20
296.1100436374
 30
0.0
 11
2079.0559895833
 21
295.5100436374
 31
0.0
  0
LINE
  5
4C5
330
1B
100
AcDbEntity
 67
     1
  8
7_ALL_FEATURES
  6
Continuous
 62
     3
100
AcDbLine
 10
1954.0559895833
 20
296.1100436374
 30
0.0
 11
1954.0559895833
 21
296.9100436374
 31
0.0
  0
LINE
  5
4C6
330
1B
100
AcDbEntity
 67
     1
  8
7_ALL_FEATURES
  6
Continuous
 62
     3
100
AcDbLine
 10
2079.0559895833
 20
296.9100436374
 30
0.0
 11
2079.0559895833
 21
296.1100436374
 31
0.0
  0
LINE
  5
4C7
330
1B
100
AcDbEntity
 67
     1
  8
7_ALL_FEATURES
  6
Continuous
 62
     3
100
AcDbLine
 10
1954.0559895833
 20
249.8100436374
 30
0.0
 11
1966.0559895833
 21
226.8100436374
 31
0.0
  0
LINE
  5
4C8
330
1B
100
AcDbEntity
 67
     1
  8
7_ALL_FEATURES
  6
Continuous
 62
     3
100
AcDbLine
 10
1954.0559895833
 20
249.8100436374
 30
0.0
 11
1954.0559895833
 21
250.6100436374
 31
0.0
  0
LINE
  5
4C9
330
1B
100
AcDbEntity
 67
     1
  8
7_ALL_FEATURES
  6
Continuous
 62
     3
100
AcDbLine
 10
2079.0559895833
 20
250.6100436374
 30
0.0
 11
2079.0559895833
 21
249.8100436374
 31
0.0
  0
LINE
  5
4CA
330
1B
100
AcDbEntity
 67
     1
  8
7_ALL_FEATURES
  6
Continuous
 62
     3
100
AcDbLine
 10
2067.0559895833
 20
226.8100436374
 30
0.0
 11
2079.0559895833
 21
249.8100436374
 31
0.0
  0
LINE
  5
4CB
330
1B
100
AcDbEntity
 67
     1
  8
7_ALL_FEATURES
  6
Continuous
 62
     3
100
AcDbLine
 10
2067.0559895833
 20
226.8100436374
 30
0.0
 11
1966.0559895833
 21
226.8100436374
 31
0.0
  0
LINE
  5
4CC
330
1B
100
AcDbEntity
 67
     1
  8
7_ALL_FEATURES
  6
Continuous
 62
     3
100
AcDbLine
 10
1954.0559895833
 20
250.6100436374
 30
0.0
 11
1954.0559895833
 21
251.2100436374
 31
0.0
  0
LINE
  5
4CD
330
1B
100
AcDbEntity
 67
     1
  8
7_ALL_FEATURES
  6
Continuous
 62
     3
100
AcDbLine
 10
2079.0559895833
 20
250.6100436374
 30
0.0
 11
2079.0559895833
 21
251.2100436374
 31
0.0
  0
LINE
  5
4CE
330
1B
100
AcDbEntity
 67
     1
  8
7_ALL_FEATURES
  6
Continuous
 62
     3
100
AcDbLine
 10
1954.0559895833
 20
294.3100436374
 30
0.0
 11
1954.0559895833
 21
252.4100436374
 31
0.0
  0
LINE
  5
4CF
330
1B
100
AcDbEntity
 67
     1
  8
7_ALL_FEATURES
  6
Continuous
 62
     3
100
AcDbLine
 10
2079.0559895833
 20
296.9100436374
 30
0.0
 11
2067.0559895833
 21
319.9100436374
 31
0.0
  0
LINE
  5
4D0
330
1B
100
AcDbEntity
 67
     1
  8
7_ALL_FEATURES
  6
Continuous
 62
     3
100
AcDbLine
 10
1966.0559895833
 20
319.9100436374
 30
0.0
 11
2067.0559895833
 21
319.9100436374
 31
0.0
  0
LINE
  5
4D1
330
1B
100
AcDbEntity
 67
     1
  8
7_ALL_FEATURES
  6
Continuous
 62
     3
100
AcDbLine
 10
2079.0559895833
 20
294.3100436374
 30
0.0
 11
2079.0559895833
 21
252.4100436374
 31
0.0
  0
LINE
  5
4D2
330
1B
100
AcDbEntity
 67
     1
  8
7_ALL_FEATURES
  6
Continuous
 62
     3
100
AcDbLine
 10
1966.0559895833
 20
319.9100436374
 30
0.0
 11
1954.0559895833
 21
296.9100436374
 31
0.0
  0
LINE
  5
4D3
330
1B
100
AcDbEntity
 67
     1
  8
7_ALL_FEATURES
  6
Continuous
 62
     3
100
AcDbLine
 10
1954.0559895833
 20
295.5100436374
 30
0.0
 11
1954.0559895833
 21
294.9100436374
 31
0.0
  0
LINE
  5
4D4
330
1B
100
AcDbEntity
 67
     1
  8
7_ALL_FEATURES
  6
Continuous
 62
     3
100
AcDbLine
 10
1954.0559895833
 20
294.9100436374
 30
0.0
 11
1954.0559895833
 21
294.3100436374
 31
0.0
  0
LINE
  5
4D5
330
1B
100
AcDbEntity
 67
     1
  8
7_ALL_FEATURES
  6
Continuous
 62
     3
100
AcDbLine
 10
2079.0559895833
 20
295.5100436374
 30
0.0
 11
2079.0559895833
 21
294.9100436374
 31
0.0
  0
LINE
  5
4D6
330
1B
100
AcDbEntity
 67
     1
  8
7_ALL_FEATURES
  6
Continuous
 62
     3
100
AcDbLine
 10
2079.0559895833
 20
294.9100436374
 30
0.0
 11
2079.0559895833
 21
294.3100436374
 31
0.0
  0
LINE
  5
4D7
330
1B
100
AcDbEntity
 67
     1
  8
7_ALL_FEATURES
  6
Continuous
 62
     3
100
AcDbLine
 10
1954.0559895833
 20
295.5100436374
 30
0.0
 11
2079.0559895833
 21
295.5100436374
 31
0.0
  0
LINE
  5
4D8
330
1B
100
AcDbEntity
 67
     1
  8
7_ALL_FEATURES
  6
Continuous
 62
     9
100
AcDbLine
 10
1954.0559895833
 20
250.6100436374
 30
0.0
 11
2079.0559895833
 21
250.6100436374
 31
0.0
  0
LINE
  5
4D9
330
1B
100
AcDbEntity
 67
     1
  8
7_ALL_FEATURES
  6
Continuous
 62
     9
100
AcDbLine
 10
2079.0559895833
 20
296.1100436374
 30
0.0
 11
1954.0559895833
 21
296.1100436374
 31
0.0
  0
LINE
  5
4DA
330
1B
100
AcDbEntity
 67
     1
  8
7_ALL_FEATURES
  6
Continuous
 62
     9
100
AcDbLine
 10
2079.0559895833
 20
252.4100436374
 30
0.0
 11
1954.0559895833
 21
252.4100436374
 31
0.0
  0
LINE
  5
4DB
330
1B
100
AcDbEntity
 67
     1
  8
7_ALL_FEATURES
  6
Continuous
 62
     9
100
AcDbLine
 10
1954.0559895833
 20
294.3100436374
 30
0.0
 11
2079.0559895833
 21
294.3100436374
 31
0.0
  0
DIMENSION
  5
4DC
330
1B
100
AcDbEntity
 67
     1
  8
0
  6
Continuous
 62
     2
100
AcDbDimension
280
     0
  2
*D1
 10
2132.5559895833
 20
605.0995470929
 30
0.0
 11
1611.6657407407
 21
605.0995470929
 31
0.0
 70
   160
 71
     5
 42
-1.0
 73
     0
 74
     0
 75
     0
  3
DIMSTYLE_1
100
AcDbAlignedDimension
 13
1090.5559895833
 23
588.0065649888
 33
0.0
 14
2132.5559895833
 24
588.5607155618
 34
0.0
100
AcDbRotatedDimension
  0
DIMENSION
  5
4DD
330
1B
100
AcDbEntity
 67
     1
  8
0
  6
Continuous
 62
     2
100
AcDbDimension
280
     0
  2
*D2
 10
2312.3296910191
 20
599.9922667491
 30
0.0
 11
2290.1033564815
 21
599.9922667491
 31
0.0
 70
   160
 71
     5
 42
-1.0
 73
     0
 74
     0
 75
     0
  3
DIMSTYLE_2
100
AcDbAlignedDimension
 13
2268.0296910191
 23
583.5220070246
 33
0.0
 14
2312.3296910191
 24
577.8263386824
 34
0.0
100
AcDbRotatedDimension
  0
DIMENSION
  5
4DE
330
1B
100
AcDbEntity
 67
     1
  8
0
  6
Continuous
 62
     2
100
AcDbDimension
280
     0
  2
*D3
 10
2311.3796910191
 20
484.5331311322
 30
0.0
 11
2290.1033564815
 21
484.5331311322
 31
0.0
 70
   160
 71
     5
 42
-1.0
 73
     0
 74
     0
 75
     0
  3
DIMSTYLE_2
100
AcDbAlignedDimension
 13
2268.9796910191
 23
493.6087308591
 33
0.0
 14
2311.3796910191
 24
492.8987038908
 34
0.0
100
AcDbRotatedDimension
  0
DIMENSION
  5
4DF
330
1B
100
AcDbEntity
 67
     1
  8
0
  6
Continuous
 62
     2
100
AcDbDimension
280
     0
  2
*D4
 10
2229.2152103823
 20
578.4263386824
 30
0.0
 11
2229.2152103823
 21
536.6724201217
 31
0.0
 70
   160
 71
     5
 42
-1.0
 73
     0
 74
     0
 75
     0
  3
DIMSTYLE_2
100
AcDbAlignedDimension
 13
2260.2741808589
 23
494.9263386824
 33
0.0
 14
2255.8167012869
 24
578.4263386824
 34
0.0
 50
90.0
100
AcDbRotatedDimension
  0
DIMENSION
  5
4E0
330
1B
100
AcDbEntity
 67
     1
  8
0
  6
Continuous
 62
     2
100
AcDbDimension
280
     0
  2
*D5
 10
2364.9608636737
 20
579.0263386824
 30
0.0
 11
2364.9608636737
 21
543.7280399784
 31
0.0
 70
   160
 71
     5
 42
-1.0
 73
     0
 74
     0
 75
     0
  3
DIMSTYLE_2
100
AcDbAlignedDimension
 13
2336.7296910191
 23
508.4263386824
 33
0.0
 14
2311.1296910191
 24
579.0263386824
 34
0.0
 50
90.0
100
AcDbRotatedDimension
  0
DIMENSION
  5
4E1
330
1B
100
AcDbEntity
 67
     1
  8
0
  6
Continuous
 62
     2
100
AcDbDimension
280
     0
  2
*D6
 10
2147.1978621448
 20
319.9100436374
 30
0.0
 11
2147.1978621448
 21
273.0606260919
 31
0.0
 70
   160
 71
     5
 42
-1.0
 73
     0
 74
     0
 75
     0
  3
DIMSTYLE_2
100
AcDbAlignedDimension
 13
2133.1752699022
 23
226.8100436374
 33
0.0
 14
2131.9370811323
 24
319.9100436374
 34
0.0
 50
90.0
100
AcDbRotatedDimension
  0
LINE
  5
4E2
330
1B
100
AcDbEntity
 67
     1
  8
0
  6
Continuous
 62
     2
100
AcDbLine
 10
2365.4904659267
 20
68.645433406
 30
0.0
 11
2495.4904659267
 21
68.645433406
 31
0.0
  0
LINE
  5
4E3
330
1B
100
AcDbEntity
 67
     1
  8
0
  6
Continuous
 62
     2
100
AcDbLine
 10
2365.4904659267
 20
68.645433406
 30
0.0
 11
2365.4904659267
 21
2.645433406
 31
0.0
  0
LINE
  5
4E4
330
1B
100
AcDbEntity
 67
     1
  8
0
  6
Continuous
 62
     2
100
AcDbLine
 10
2395.4904659267
 20
60.645433406
 30
0.0
 11
2495.4904659267
 21
60.645433406
 31
0.0
  0
LINE
  5
4E5
330
1B
100
AcDbEntity
 67
     1
  8
0
  6
Continuous
 62
     2
100
AcDbLine
 10
2365.4904659267
 20
52.645433406
 30
0.0
 11
2495.4904659267
 21
52.645433406
 31
0.0
  0
LINE
  5
4E6
330
1B
100
AcDbEntity
 67
     1
  8
0
  6
Continuous
 62
     2
100
AcDbLine
 10
2395.4904659267
 20
46.645433406
 30
0.0
 11
2495.4904659267
 21
46.645433406
 31
0.0
  0
LINE
  5
4E7
330
1B
100
AcDbEntity
 67
     1
  8
0
  6
Continuous
 62
     2
100
AcDbLine
 10
2395.4904659267
 20
40.645433406
 30
0.0
 11
2495.4904659267
 21
40.645433406
 31
0.0
  0
LINE
  5
4E8
330
1B
100
AcDbEntity
 67
     1
  8
0
  6
Continuous
 62
     2
100
AcDbLine
 10
2395.4904659267
 20
34.645433406
 30
0.0
 11
2495.4904659267
 21
34.645433406
 31
0.0
  0
LINE
  5
4E9
330
1B
100
AcDbEntity
 67
     1
  8
0
  6
Continuous
 62
     2
100
AcDbLine
 10
2395.4904659267
 20
28.645433406
 30
0.0
 11
2495.4904659267
 21
28.645433406
 31
0.0
  0
LINE
  5
4EA
330
1B
100
AcDbEntity
 67
     1
  8
0
  6
Continuous
 62
     2
100
AcDbLine
 10
2395.4904659267
 20
22.645433406
 30
0.0
 11
2495.4904659267
 21
22.645433406
 31
0.0
  0
LINE
  5
4EB
330
1B
100
AcDbEntity
 67
     1
  8
0
  6
Continuous
 62
     2
100
AcDbLine
 10
2365.4904659267
 20
16.645433406
 30
0.0
 11
2495.4904659267
 21
16.645433406
 31
0.0
  0
LINE
  5
4EC
330
1B
100
AcDbEntity
 67
     1
  8
0
  6
Continuous
 62
     2
100
AcDbLine
 10
2365.4904659267
 20
10.645433406
 30
0.0
 11
2495.4904659267
 21
10.645433406
 31
0.0
  0
LINE
  5
4ED
330
1B
100
AcDbEntity
 67
     1
  8
0
  6
Continuous
 62
     2
100
AcDbLine
 10
2365.4904659267
 20
6.645433406
 30
0.0
 11
2495.4904659267
 21
6.645433406
 31
0.0
  0
LINE
  5
4EE
330
1B
100
AcDbEntity
 67
     1
  8
0
  6
Continuous
 62
     2
100
AcDbLine
 10
2365.4904659267
 20
2.645433406
 30
0.0
 11
2495.4904659267
 21
2.645433406
 31
0.0
  0
LINE
  5
4EF
330
1B
100
AcDbEntity
 67
     1
  8
0
  6
Continuous
 62
     2
100
AcDbLine
 10
2395.4904659267
 20
68.645433406
 30
0.0
 11
2395.4904659267
 21
10.645433406
 31
0.0
  0
LINE
  5
4F0
330
1B
100
AcDbEntity
 67
     1
  8
0
  6
Continuous
 62
     2
100
AcDbLine
 10
2415.4904659267
 20
52.645433406
 30
0.0
 11
2415.4904659267
 21
46.645433406
 31
0.0
  0
LINE
  5
4F1
330
1B
100
AcDbEntity
 67
     1
  8
0
  6
Continuous
 62
     2
100
AcDbLine
 10
2445.4904659267
 20
22.645433406
 30
0.0
 11
2445.4904659267
 21
10.645433406
 31
0.0
  0
LINE
  5
4F2
330
1B
100
AcDbEntity
 67
     1
  8
0
  6
Continuous
 62
     2
100
AcDbLine
 10
2455.4904659267
 20
52.645433406
 30
0.0
 11
2455.4904659267
 21
46.645433406
 31
0.0
  0
LINE
  5
4F3
330
1B
100
AcDbEntity
 67
     1
  8
0
  6
Continuous
 62
     2
100
AcDbLine
 10
2455.4904659267
 20
40.645433406
 30
0.0
 11
2455.4904659267
 21
34.645433406
 31
0.0
  0
LINE
  5
4F4
330
1B
100
AcDbEntity
 67
     1
  8
0
  6
Continuous
 62
     2
100
AcDbLine
 10
2475.4904659267
 20
52.645433406
 30
0.0
 11
2475.4904659267
 21
46.645433406
 31
0.0
  0
LINE
  5
4F5
330
1B
100
AcDbEntity
 67
     1
  8
0
  6
Continuous
 62
     2
100
AcDbLine
 10
2485.4904659267
 20
40.645433406
 30
0.0
 11
2485.4904659267
 21
34.645433406
 31
0.0
  0
LINE
  5
4F6
330
1B
100
AcDbEntity
 67
     1
  8
0
  6
Continuous
 62
     2
100
AcDbLine
 10
2495.4904659267
 20
68.645433406
 30
0.0
 11
2495.4904659267
 21
2.645433406
 31
0.0
  0
INSERT
  5
4F7
330
1B
100
AcDbEntity
 67
     1
  8
0
  6
Continuous
 62
     2
100
AcDbBlockReference
  2
PROIEZIONE_EU_BL0
 10
2380.4904659267
 20
60.270433406
 30
0.0
  0
MTEXT
  5
4F8
330
1B
100
AcDbEntity
 67
     1
  8
9_SOLID
  6
Continuous
 62
     2
100
AcDbMText
 10
2396.9779659267
 20
67.020433406
 30
0.0
 40
1.9
 41
142.3642857143
 46
0.0
 71
     1
 72
     1
  1
EN: Chamfer/radii unlisted 0.3x45°. Remove sharp edges.\PGen. tol.: hole H11, shaft h11, lenght Js12. UNI EN 22768 Medium Grande.
  7
TEXTSTYLE_3
 73
     1
 44
1.0
  0
MTEXT
  5
4F9
330
1B
100
AcDbEntity
 67
     1
  8
9_SOLID
  6
Continuous
 62
     2
100
AcDbMText
 10
2396.9779659267
 20
59.020433406
 30
0.0
 40
1.9
 41
148.2678571429
 46
0.0
 71
     1
 72
     1
  1
IT: Sm./rac. non quotati 0.3x45°. Eliminare spigoli taglienti.\PToll. gen.: foro H11, albero h11, lunghezza Js12. UNI EN 22768 Grado Medio.
  7
TEXTSTYLE_3
 73
     1
 44
1.0
  0
INSERT
  5
4FA
330
1B
100
AcDbEntity
 67
     1
  8
0
  6
Continuous
 62
     2
100
AcDbBlockReference
  2
LOGO2_BL1
 10
2379.3165129715
 20
34.645433406
 30
0.0
  0
MTEXT
  5
4FB
330
1B
100
AcDbEntity
 67
     1
  8
9_SOLID
  6
Continuous
 62
     2
100
AcDbMText
 10
2396.9779659267
 20
50.895433406
 30
0.0
 40
3.0
 41
21.75
 46
0.0
 71
     1
 72
     1
  1
Pj: 565
  7
TEXTSTYLE_3
 73
     1
 44
1.0
  0
MTEXT
  5
4FC
330
1B
100
AcDbEntity
 67
     1
  8
9_SOLID
  6
Continuous
 62
     2
100
AcDbMText
 10
2416.9779659267
 20
50.895433406
 30
0.0
 40
3.0
 41
38.0357142857
 46
0.0
 71
     1
 72
     1
  1
% Check: %
  7
TEXTSTYLE_3
 73
     1
 44
1.0
  0
MTEXT
  5
4FD
330
1B
100
AcDbEntity
 67
     1
  8
9_SOLID
  6
Continuous
 62
     2
100
AcDbMText
 10
2456.9779659267
 20
50.895433406
 30
0.0
 40
3.0
 41
19.5
 46
0.0
 71
     1
 72
     1
  1
Rev:00
  7
TEXTSTYLE_3
 73
     1
 44
1.0
  0
MTEXT
  5
4FE
330
1B
100
AcDbEntity
 67
     1
  8
9_SOLID
  6
Continuous
 62
     2
100
AcDbMText
 10
2476.9779659267
 20
51.145433406
 30
0.0
 40
3.0
 41
19.7142857143
 46
0.0
 71
     1
 72
     1
  1
Ver: A
  7
TEXTSTYLE_3
 73
     1
 44
1.0
  0
MTEXT
  5
4FF
330
1B
100
AcDbEntity
 67
     1
  8
9_SOLID
  6
Continuous
 62
     2
100
AcDbMText
 10
2396.9779659267
 20
44.895433406
 30
0.0
 40
3.0
 41
74.3571428571
 46
0.0
 71
     1
 72
     1
  1
Neutral code: 565_C_707
  7
TEXTSTYLE_3
 73
     1
 44
1.0
  0
MTEXT
  5
500
330
1B
100
AcDbEntity
 67
     1
  8
9_SOLID
  6
Continuous
 62
     2
100
AcDbMText
 10
2396.9779659267
 20
38.895433406
 30
0.0
 40
3.0
 41
19.3928571429
 46
0.0
 71
     1
 72
     1
  1
Code: 
  7
TEXTSTYLE_3
 73
     1
 44
1.0
  0
MTEXT
  5
501
330
1B
100
AcDbEntity
 67
     1
  8
9_SOLID
  6
Continuous
 62
     2
100
AcDbMText
 10
2456.9779659267
 20
39.145433406
 30
0.0
 40
3.0
 41
27.8571428571
 46
0.0
 71
     1
 72
     1
  1
Scale: 1:1
  7
TEXTSTYLE_3
 73
     1
 44
1.0
  0
MTEXT
  5
502
330
1B
100
AcDbEntity
 67
     1
  8
9_SOLID
  6
Continuous
 62
     2
100
AcDbMText
 10
2490.4904659267
 20
39.145433406
 30
0.0
 40
3.0
 41
41.5714285714
 46
0.0
 71
     2
 72
     1
  1
2500 by 3200
  7
TEXTSTYLE_3
 73
     1
 44
1.0
  0
MTEXT
  5
503
330
1B
100
AcDbEntity
 67
     1
  8
9_SOLID
  6
Continuous
 62
     2
100
AcDbMText
 10
2396.9779659267
 20
33.020433406
 30
0.0
 40
2.75
 41
147.6160714286
 46
0.0
 71
     1
 72
     1
  1
It descr.: CASSAF CART.NEVA2.1/5.1/7.1 1042mm ALL
  7
TEXTSTYLE_3
 73
     1
 44
1.0
  0
MTEXT
  5
504
330
1B
100
AcDbEntity
 67
     1
  8
9_SOLID
  6
Continuous
 62
     2
100
AcDbMText
 10
2396.9779659267
 20
27.145433406
 30
0.0
 40
3.0
 41
33.9642857143
 46
0.0
 71
     1
 72
     1
  1
En descr.: 
  7
TEXTSTYLE_3
 73
     1
 44
1.0
  0
MTEXT
  5
505
330
1B
100
AcDbEntity
 67
     1
  8
9_SOLID
  6
Continuous
 62
     2
100
AcDbMText
 10
2396.9779659267
 20
21.145433406
 30
0.0
 40
3.0
 41
31.2857142857
 46
0.0
 71
     1
 72
     1
  1
Des.: S.Z.
  7
TEXTSTYLE_3
 73
     1
 44
1.0
  0
MTEXT
  5
506
330
1B
100
AcDbEntity
 67
     1
  8
9_SOLID
  6
Continuous
 62
     2
100
AcDbMText
 10
2446.9779659267
 20
21.145433406
 30
0.0
 40
3.0
 41
34.8214285714
 46
0.0
 71
     1
 72
     1
  1
Check: A.P.
  7
TEXTSTYLE_3
 73
     1
 44
1.0
  0
MTEXT
  5
507
330
1B
100
AcDbEntity
 67
     1
  8
9_SOLID
  6
Continuous
 62
     2
100
AcDbMText
 10
2366.9779659267
 20
15.145433406
 30
0.0
 40
3.0
 41
43.1785714286
 46
0.0
 71
     1
 72
     1
  1
Date: 05.12.18
  7
TEXTSTYLE_3
 73
     1
 44
1.0
  0
MTEXT
  5
508
330
1B
100
AcDbEntity
 67
     1
  8
9_SOLID
  6
Continuous
 62
     2
100
AcDbMText
 10
2396.9779659267
 20
15.145433406
 30
0.0
 40
3.0
 41
18.2142857143
 46
0.0
 71
     1
 72
     1
  1
Mat.: 
  7
TEXTSTYLE_3
 73
     1
 44
1.0
  0
MTEXT
  5
509
330
1B
100
AcDbEntity
 67
     1
  8
9_SOLID
  6
Continuous
 62
     2
100
AcDbMText
 10
2446.9779659267
 20
14.645433406
 30
0.0
 40
2.0
 41
42.3571428571
 46
0.0
 71
     1
 72
     1
  1
Disegno per catalogo
  7
TEXTSTYLE_3
 73
     1
 44
1.0
  0
MTEXT
  5
50A
330
1B
100
AcDbEntity
 67
     1
  8
9_SOLID
  6
Continuous
 62
     2
100
AcDbMText
 10
2366.9779659267
 20
9.545433406
 30
0.0
 40
1.8
 41
176.2071428571
 46
0.0
 71
     1
 72
     1
  1
It: A norma di legge si diffida da qualsiasi riproduzione senza nostra autorizzazione esplicita.
  7
TEXTSTYLE_3
 73
     1
 44
1.0
  0
MTEXT
  5
50B
330
1B
100
AcDbEntity
 67
     1
  8
9_SOLID
  6
Continuous
 62
     2
100
AcDbMText
 10
2366.9779659267
 20
5.545433406
 30
0.0
 40
1.8
 41
158.1428571429
 46
0.0
 71
     1
 72
     1
  1
En: According to the law, beware of any reproduction made without our authorization.
  7
TEXTSTYLE_3
 73
     1
 44
1.0
  0
ENDSEC
  0
SECTION
  2
OBJECTS
  0
DICTIONARY
  5
50C
330
0
100
AcDbDictionary
281
     1
  3
ACAD_DETAILVIEWSTYLE
350
562
  3
ACAD_GROUP
350
50D
  3
ACAD_LAYOUT
350
535
  3
ACAD_MATERIAL
350
551
  3
ACAD_MLEADERSTYLE
350
557
  3
ACAD_MLINESTYLE
350
50E
  3
ACAD_PLOTSETTINGS
350
510
  3
ACAD_PLOTSTYLENAME
350
511
  3
ACAD_SCALELIST
350
513
  3
ACAD_SECTIONVIEWSTYLE
350
563
  3
ACAD_TABLESTYLE
350
555
  3
ACAD_VISUALSTYLE
350
538
  3
ACDB_RECOMPOSE_DATA
350
55E
  3
AcDbVariableDictionary
350
55A
  3
APPDATA
350
559
  0
DICTIONARY
  5
562
102
{ACAD_REACTORS
330
50C
102
}
330
50C
100
AcDbDictionary
281
     1
  0
DICTIONARY
  5
50D
102
{ACAD_REACTORS
330
50C
102
}
330
50C
100
AcDbDictionary
281
     1
  0
DICTIONARY
  5
535
102
{ACAD_REACTORS
330
50C
102
}
330
50C
100
AcDbDictionary
281
     1
  3
Foglio 1
350
537
  3
Model
350
536
  0
DICTIONARY
  5
551
102
{ACAD_REACTORS
330
50C
102
}
330
50C
100
AcDbDictionary
281
     1
  3
ByBlock
350
553
  3
ByLayer
350
552
  3
Global
350
554
  0
DICTIONARY
  5
557
102
{ACAD_REACTORS
330
50C
102
}
330
50C
100
AcDbDictionary
281
     1
  3
Standard
350
558
  0
DICTIONARY
  5
50E
102
{ACAD_REACTORS
330
50C
102
}
330
50C
100
AcDbDictionary
281
     1
  3
STANDARD
350
50F
  0
DICTIONARY
  5
510
102
{ACAD_REACTORS
330
50C
102
}
330
50C
100
AcDbDictionary
281
     1
  0
ACDBDICTIONARYWDFLT
  5
511
102
{ACAD_REACTORS
330
50C
102
}
330
50C
100
AcDbDictionary
281
     1
  3
Normal
350
512
100
AcDbDictionaryWithDefault
340
512
  0
DICTIONARY
  5
513
102
{ACAD_REACTORS
330
50C
102
}
330
50C
100
AcDbDictionary
281
     1
  3
A0
350
514
  3
A1
350
515
  3
A2
350
516
  3
A3
350
517
  3
A4
350
518
  3
A5
350
519
  3
A6
350
51A
  3
A7
350
51B
  3
A8
350
51C
  3
A9
350
51D
  3
B0
350
51E
  3
B1
350
51F
  3
B2
350
520
  3
B3
350
521
  3
B4
350
522
  3
B5
350
523
  3
B6
350
524
  3
B7
350
525
  3
B8
350
526
  3
B9
350
527
  3
C0
350
528
  3
C1
350
529
  3
C2
350
52A
  3
C3
350
52B
  3
C4
350
52C
  3
C5
350
52D
  3
C6
350
52E
  3
C7
350
52F
  3
C8
350
530
  3
C9
350
531
  3
D0
350
532
  3
D1
350
533
  3
D2
350
534
  0
DICTIONARY
  5
563
102
{ACAD_REACTORS
330
50C
102
}
330
50C
100
AcDbDictionary
281
     1
  0
DICTIONARY
  5
555
102
{ACAD_REACTORS
330
50C
102
}
330
50C
100
AcDbDictionary
281
     1
  3
Standard
350
556
  0
DICTIONARY
  5
538
102
{ACAD_REACTORS
330
50C
102
}
330
50C
100
AcDbDictionary
281
     1
  3
2dWireframe
350
53D
  3
Basic
350
540
  3
Brighten
350
544
  3
ColorChange
350
548
  3
Conceptual
350
542
  3
Dim
350
543
  3
EdgeColorOff
350
54B
  3
Facepattern
350
547
  3
Flat
350
539
  3
FlatWithEdges
350
53A
  3
Gouraud
350
53B
  3
GouraudWithEdges
350
53C
  3
Hidden
350
53F
  3
JitterOff
350
549
  3
Linepattern
350
546
  3
OverhangOff
350
54A
  3
Realistic
350
541
  3
Shaded
350
550
  3
Shaded with edges
350
54F
  3
Shades of Gray
350
54C
  3
Sketchy
350
54D
  3
Thicken
350
545
  3
Wireframe
350
53E
  3
X-Ray
350
54E
  0
XRECORD
  5
55E
102
{ACAD_REACTORS
330
50C
102
}
330
50C
100
AcDbXrecord
280
     1
 90
        1
330
556
  0
DICTIONARY
  5
55A
102
{ACAD_REACTORS
330
50C
102
}
330
50C
100
AcDbDictionary
281
     1
  3
CANNOSCALE
350
55B
  3
CMLEADERSTYLE
350
560
  3
CTABLESTYLE
350
55F
  3
MSLTSCALE
350
561
  0
DICTIONARY
  5
559
102
{ACAD_REACTORS
330
50C
102
}
330
50C
100
AcDbDictionary
281
     1
  0
LAYOUT
  5
537
102
{ACAD_REACTORS
330
535
102
}
330
535
100
AcDbPlotSettings
  1

  2
none_device
  4
ISO_A3_(420.00_x_297.00_MM)
  6

 40
7.5
 41
20.0
 42
7.5
 43
20.0
 44
420.0
 45
297.0
 46
0.0
 47
0.0
 48
0.0
 49
0.0
140
0.0
141
0.0
142
1.0
143
12.45136186770428
 70
   688
 72
     1
 73
     0
 74
     1
  7

 75
     0
 76
     0
 77
     2
 78
   300
147
0.0803125
148
0.0
149
0.0
100
AcDbLayout
  1
Foglio 1
 70
     1
 71
     1
 10
0.0
 20
0.0
 11
412.5
 21
277.0
 12
0.0
 22
0.0
 32
0.0
 14
0.0
 24
0.0
 34
0.0
 15
2504.5154659267
 25
3200.0
 35
0.0
146
0.0
 13
0.0
 23
0.0
 33
0.0
 16
1.0
 26
0.0
 36
0.0
 17
0.0
 27
1.0
 37
0.0
 76
     0
330
1B
331
2B7
  0
LAYOUT
  5
536
102
{ACAD_REACTORS
330
535
102
}
330
535
100
AcDbPlotSettings
  1

  2
none_device
  4
Letter_(8.50_x_11.00_Inches)
  6

 40
6.35
 41
6.35
 42
6.35
 43
6.35
 44
215.9
 45
279.4
 46
0.0
 47
0.0
 48
0.0
 49
0.0
140
0.0
141
0.0
142
1.0
143
312.5
 70
  1712
 72
     0
 73
     0
 74
     0
  7

 75
     0
 76
     0
 77
     2
 78
   300
147
0.0032
148
0.0
149
0.0
100
AcDbLayout
  1
Model
 70
     1
 71
     0
 10
0.0
 20
0.0
 11
2500.0
 21
3200.0
 12
0.0
 22
0.0
 32
0.0
 14
0.0
 24
0.0
 34
0.0
 15
2500.0
 25
3200.0
 35
0.0
146
0.0
 13
0.0
 23
0.0
 33
0.0
 16
1.0
 26
0.0
 36
0.0
 17
0.0
 27
1.0
 37
0.0
 76
     0
330
1F
331
1F4
  0
MATERIAL
  5
553
102
{ACAD_REACTORS
330
551
102
}
330
551
100
AcDbMaterial
  1
ByBlock
 72
     1
 94
      127
  0
MATERIAL
  5
552
102
{ACAD_REACTORS
330
551
102
}
330
551
100
AcDbMaterial
  1
ByLayer
 72
     1
 94
      127
  0
MATERIAL
  5
554
102
{ACAD_REACTORS
330
551
102
}
330
551
100
AcDbMaterial
  1
Global
 72
     1
 94
      127
  0
MLEADERSTYLE
  5
558
102
{ACAD_REACTORS
330
557
102
}
330
557
100
AcDbMLeaderStyle
179
     2
170
     2
171
     1
172
     0
 90
        2
 40
0.0
 41
0.0
173
     1
 91
-1056964608
340
14
 92
       -2
290
     1
 42
2.0
291
     1
 43
8.0
  3
Standard
341
0
 44
4.0
300

342
11
174
     1
178
     1
175
     1
176
     0
 93
-1056964608
 45
4.0
292
     0
297
     0
 46
4.0
343
0
 94
-1056964608
 47
1.0
 49
1.0
140
1.0
293
     1
141
0.0
294
     1
177
     0
142
1.0
295
     0
296
     0
143
3.75
271
     0
272
     9
273
     9
298
     0
  0
MLINESTYLE
  5
50F
102
{ACAD_REACTORS
330
50E
102
}
330
50E
100
AcDbMlineStyle
  2
STANDARD
 70
     0
  3

 62
   256
 51
90.0
 52
90.0
 71
     2
 49
0.5
 62
   256
  6
BYLAYER
 49
-0.5
 62
   256
  6
BYLAYER
  0
ACDBPLACEHOLDER
  5
512
102
{ACAD_REACTORS
330
511
102
}
330
511
  0
SCALE
  5
514
102
{ACAD_REACTORS
330
513
102
}
330
513
100
AcDbScale
 70
     0
300
1:1
140
1.0
141
1.0
290
     1
  0
SCALE
  5
515
102
{ACAD_REACTORS
330
513
102
}
330
513
100
AcDbScale
 70
     0
300
1:2
140
1.0
141
2.0
290
     0
  0
SCALE
  5
516
102
{ACAD_REACTORS
330
513
102
}
330
513
100
AcDbScale
 70
     0
300
1:4
140
1.0
141
4.0
290
     0
  0
SCALE
  5
517
102
{ACAD_REACTORS
330
513
102
}
330
513
100
AcDbScale
 70
     0
300
1:5
140
1.0
141
5.0
290
     0
  0
SCALE
  5
518
102
{ACAD_REACTORS
330
513
102
}
330
513
100
AcDbScale
 70
     0
300
1:8
140
1.0
141
8.0
290
     0
  0
SCALE
  5
519
102
{ACAD_REACTORS
330
513
102
}
330
513
100
AcDbScale
 70
     0
300
1:10
140
1.0
141
10.0
290
     0
  0
SCALE
  5
51A
102
{ACAD_REACTORS
330
513
102
}
330
513
100
AcDbScale
 70
     0
300
1:16
140
1.0
141
16.0
290
     0
  0
SCALE
  5
51B
102
{ACAD_REACTORS
330
513
102
}
330
513
100
AcDbScale
 70
     0
300
1:20
140
1.0
141
20.0
290
     0
  0
SCALE
  5
51C
102
{ACAD_REACTORS
330
513
102
}
330
513
100
AcDbScale
 70
     0
300
1:30
140
1.0
141
30.0
290
     0
  0
SCALE
  5
51D
102
{ACAD_REACTORS
330
513
102
}
330
513
100
AcDbScale
 70
     0
300
1:40
140
1.0
141
40.0
290
     0
  0
SCALE
  5
51E
102
{ACAD_REACTORS
330
513
102
}
330
513
100
AcDbScale
 70
     0
300
1:50
140
1.0
141
50.0
290
     0
  0
SCALE
  5
51F
102
{ACAD_REACTORS
330
513
102
}
330
513
100
AcDbScale
 70
     0
300
1:100
140
1.0
141
100.0
290
     0
  0
SCALE
  5
520
102
{ACAD_REACTORS
330
513
102
}
330
513
100
AcDbScale
 70
     0
300
2:1
140
2.0
141
1.0
290
     0
  0
SCALE
  5
521
102
{ACAD_REACTORS
330
513
102
}
330
513
100
AcDbScale
 70
     0
300
4:1
140
4.0
141
1.0
290
     0
  0
SCALE
  5
522
102
{ACAD_REACTORS
330
513
102
}
330
513
100
AcDbScale
 70
     0
300
8:1
140
8.0
141
1.0
290
     0
  0
SCALE
  5
523
102
{ACAD_REACTORS
330
513
102
}
330
513
100
AcDbScale
 70
     0
300
10:1
140
10.0
141
1.0
290
     0
  0
SCALE
  5
524
102
{ACAD_REACTORS
330
513
102
}
330
513
100
AcDbScale
 70
     0
300
100:1
140
100.0
141
1.0
290
     0
  0
SCALE
  5
525
102
{ACAD_REACTORS
330
513
102
}
330
513
100
AcDbScale
 70
     0
300
1/128" = 1'-0"
140
0.0078125
141
12.0
290
     0
  0
SCALE
  5
526
102
{ACAD_REACTORS
330
513
102
}
330
513
100
AcDbScale
 70
     0
300
1/64" = 1'-0"
140
0.015625
141
12.0
290
     0
  0
SCALE
  5
527
102
{ACAD_REACTORS
330
513
102
}
330
513
100
AcDbScale
 70
     0
300
1/32" = 1'-0"
140
0.03125
141
12.0
290
     0
  0
SCALE
  5
528
102
{ACAD_REACTORS
330
513
102
}
330
513
100
AcDbScale
 70
     0
300
1/16" = 1'-0"
140
0.0625
141
12.0
290
     0
  0
SCALE
  5
529
102
{ACAD_REACTORS
330
513
102
}
330
513
100
AcDbScale
 70
     0
300
3/32" = 1'-0"
140
0.09375
141
12.0
290
     0
  0
SCALE
  5
52A
102
{ACAD_REACTORS
330
513
102
}
330
513
100
AcDbScale
 70
     0
300
1/8" = 1'-0"
140
0.125
141
12.0
290
     0
  0
SCALE
  5
52B
102
{ACAD_REACTORS
330
513
102
}
330
513
100
AcDbScale
 70
     0
300
3/16" = 1'-0"
140
0.1875
141
12.0
290
     0
  0
SCALE
  5
52C
102
{ACAD_REACTORS
330
513
102
}
330
513
100
AcDbScale
 70
     0
300
1/4" = 1'-0"
140
0.25
141
12.0
290
     0
  0
SCALE
  5
52D
102
{ACAD_REACTORS
330
513
102
}
330
513
100
AcDbScale
 70
     0
300
3/8" = 1'-0"
140
0.375
141
12.0
290
     0
  0
SCALE
  5
52E
102
{ACAD_REACTORS
330
513
102
}
330
513
100
AcDbScale
 70
     0
300
1/2" = 1'-0"
140
0.5
141
12.0
290
     0
  0
SCALE
  5
52F
102
{ACAD_REACTORS
330
513
102
}
330
513
100
AcDbScale
 70
     0
300
3/4" = 1'-0"
140
0.75
141
12.0
290
     0
  0
SCALE
  5
530
102
{ACAD_REACTORS
330
513
102
}
330
513
100
AcDbScale
 70
     0
300
1" = 1'-0"
140
1.0
141
12.0
290
     0
  0
SCALE
  5
531
102
{ACAD_REACTORS
330
513
102
}
330
513
100
AcDbScale
 70
     0
300
1-1/2" = 1'-0"
140
1.5
141
12.0
290
     0
  0
SCALE
  5
532
102
{ACAD_REACTORS
330
513
102
}
330
513
100
AcDbScale
 70
     0
300
3" = 1'-0"
140
3.0
141
12.0
290
     0
  0
SCALE
  5
533
102
{ACAD_REACTORS
330
513
102
}
330
513
100
AcDbScale
 70
     0
300
6" = 1'-0"
140
6.0
141
12.0
290
     0
  0
SCALE
  5
534
102
{ACAD_REACTORS
330
513
102
}
330
513
100
AcDbScale
 70
     0
300
1'-0" = 1'-0"
140
12.0
141
12.0
290
     0
  0
TABLESTYLE
  5
556
102
{ACAD_REACTORS
330
555
102
}
102
{ACAD_XDICTIONARY
360
55C
102
}
330
555
100
AcDbTableStyle
  3
Standard
 70
     0
 71
     0
 40
0.06
 41
0.06
280
     0
281
     0
  7
STANDARD
140
4.5
170
     2
 62
     0
 63
   257
283
     0
 90
        4
 91
        0
  1

274
    -2
284
     1
 64
     0
275
    -2
285
     1
 65
     0
276
    -2
286
     1
 66
     0
277
    -2
287
     1
 67
     0
278
    -2
288
     1
 68
     0
279
    -2
289
     1
 69
     0
  7
STANDARD
140
6.0
170
     5
 62
     0
 63
   257
283
     0
 90
        4
 91
        0
  1

274
    -2
284
     1
 64
     0
275
    -2
285
     1
 65
     0
276
    -2
286
     1
 66
     0
277
    -2
287
     1
 67
     0
278
    -2
288
     1
 68
     0
279
    -2
289
     1
 69
     0
  7
STANDARD
140
4.5
170
     5
 62
     0
 63
   257
283
     0
 90
        4
 91
        0
  1

274
    -2
284
     1
 64
     0
275
    -2
285
     1
 65
     0
276
    -2
286
     1
 66
     0
277
    -2
287
     1
 67
     0
278
    -2
288
     1
 68
     0
279
    -2
289
     1
 69
     0
  0
VISUALSTYLE
  5
53D
102
{ACAD_REACTORS
330
538
102
}
330
538
100
AcDbVisualStyle
  2
2dWireframe
 70
     4
177
     3
291
     0
 70
    58
 90
        0
176
     1
 90
        2
176
     1
 90
        0
176
     1
 90
        0
176
     1
 40
0.6
176
     1
 40
30.0
176
     1
 62
     7
420
 16777215
176
     1
 90
        1
176
     1
 90
        4
176
     1
 62
     7
176
     1
 62
   257
176
     1
 90
        1
176
     1
 90
        1
176
     1
 40
1.0
176
     1
 90
        0
176
     1
 62
   257
176
     1
 40
1.0
176
     1
 90
        1
176
     1
 90
        6
176
     1
 90
        2
176
     1
 62
     7
176
     1
 90
        5
176
     1
 90
        0
176
     1
 90
        0
176
     1
290
     0
176
     1
 90
        1
176
     1
 40
0.0
176
     1
 90
        0
176
     1
290
     1
176
     1
290
     1
176
     1
290
     0
176
     1
290
     0
176
     1
290
     0
176
     1
290
     0
176
     1
290
     0
176
     1
290
     0
176
     1
290
     0
176
     1
 90
       50
176
     1
 40
0.0
176
     1
 40
1.0
176
     1
 90
        0
176
     1
 62
    18
420
        0
176
     1
 90
       50
176
     1
 90
        3
176
     1
 62
     5
420
      255
176
     1
290
     0
176
     1
 90
       50
176
     1
 90
       50
176
     1
 90
       50
176
     1
290
     0
176
     1
 90
       50
176
     1
 62
   256
176
     0
 40
1.0
176
     0
 90
        2
176
     1
  1
strokes_ogs.tif
176
     1
290
     0
176
     1
 40
1.0
176
     1
 40
1.0
176
     1
  0
VISUALSTYLE
  5
540
102
{ACAD_REACTORS
330
538
102
}
330
538
100
AcDbVisualStyle
  2
Basic
 70
     7
177
     3
291
     1
 70
    58
 90
        1
176
     1
 90
        0
176
     1
 90
        1
176
     1
 90
        0
176
     1
 40
0.6
176
     1
 40
30.0
176
     1
 62
     7
420
 16777215
176
     1
 90
        0
176
     1
 90
        4
176
     1
 62
     7
176
     1
 62
   257
176
     1
 90
        1
176
     1
 90
        1
176
     1
 40
1.0
176
     1
 90
        8
176
     1
 62
     7
176
     1
 40
1.0
176
     1
 90
        1
176
     1
 90
        6
176
     1
 90
        2
176
     1
 62
     7
176
     1
 90
        5
176
     1
 90
        0
176
     1
 90
        0
176
     1
290
     0
176
     1
 90
        1
176
     1
 40
0.0
176
     1
 90
        0
176
     1
290
     0
176
     1
290
     1
176
     1
290
     1
176
     1
290
     0
176
     1
290
     0
176
     1
290
     0
176
     1
290
     0
176
     1
290
     0
176
     1
290
     0
176
     1
 90
       50
176
     1
 40
0.0
176
     1
 40
1.0
176
     1
 90
        0
176
     1
 62
    18
420
        0
176
     1
 90
       50
176
     1
 90
        3
176
     1
 62
     5
420
      255
176
     1
290
     0
176
     1
 90
       50
176
     1
 90
       50
176
     1
 90
       50
176
     1
290
     0
176
     1
 90
       50
176
     1
 62
   256
176
     0
 40
1.0
176
     0
 90
        2
176
     1
  1
strokes_ogs.tif
176
     1
290
     0
176
     1
 40
1.0
176
     1
 40
1.0
176
     1
  0
VISUALSTYLE
  5
544
102
{ACAD_REACTORS
330
538
102
}
330
538
100
AcDbVisualStyle
  2
Brighten
 70
    12
177
     3
291
     1
 70
    58
 90
        2
176
     1
 90
        2
176
     1
 90
        0
176
     1
 90
        0
176
     1
 40
0.6
176
     1
 40
30.0
176
     1
 62
     7
420
 16777215
176
     1
 90
        1
176
     1
 90
        4
176
     1
 62
     7
176
     1
 62
   257
176
     1
 90
        1
176
     1
 90
        1
176
     1
 40
1.0
176
     1
 90
        8
176
     1
 62
     7
176
     1
 40
1.0
176
     1
 90
        1
176
     1
 90
        6
176
     1
 90
        2
176
     1
 62
     7
176
     1
 90
        5
176
     1
 90
        0
176
     1
 90
        0
176
     1
290
     0
176
     1
 90
        1
176
     1
 40
50.0
176
     1
 90
        0
176
     1
290
     0
176
     1
290
     1
176
     1
290
     1
176
     1
290
     0
176
     1
290
     0
176
     1
290
     0
176
     1
290
     0
176
     1
290
     0
176
     1
290
     0
176
     1
 90
       50
176
     1
 40
0.0
176
     1
 40
1.0
176
     1
 90
        0
176
     1
 62
    18
420
        0
176
     1
 90
       50
176
     1
 90
        3
176
     1
 62
     5
420
      255
176
     1
290
     0
176
     1
 90
       50
176
     1
 90
       50
176
     1
 90
       50
176
     1
290
     0
176
     1
 90
       50
176
     1
 62
   256
176
     0
 40
1.0
176
     0
 90
        2
176
     1
  1
strokes_ogs.tif
176
     1
290
     0
176
     1
 40
1.0
176
     1
 40
1.0
176
     1
  0
VISUALSTYLE
  5
548
102
{ACAD_REACTORS
330
538
102
}
330
538
100
AcDbVisualStyle
  2
ColorChange
 70
    16
177
     3
291
     1
 70
    58
 90
        2
176
     1
 90
        2
176
     1
 90
        3
176
     1
 90
        0
176
     1
 40
0.6
176
     1
 40
30.0
176
     1
 62
     8
420
  8421504
176
     1
 90
        1
176
     1
 90
        4
176
     1
 62
     7
176
     1
 62
   257
176
     1
 90
        1
176
     1
 90
        1
176
     1
 40
1.0
176
     1
 90
        8
176
     1
 62
     8
420
  8421504
176
     1
 40
1.0
176
     1
 90
        1
176
     1
 90
        6
176
     1
 90
        2
176
     1
 62
     7
176
     1
 90
        5
176
     1
 90
        0
176
     1
 90
        0
176
     1
290
     0
176
     1
 90
        1
176
     1
 40
0.0
176
     1
 90
        0
176
     1
290
     0
176
     1
290
     1
176
     1
290
     1
176
     1
290
     0
176
     1
290
     0
176
     1
290
     0
176
     1
290
     0
176
     1
290
     0
176
     1
290
     0
176
     1
 90
       50
176
     1
 40
0.0
176
     1
 40
1.0
176
     1
 90
        0
176
     1
 62
    18
420
        0
176
     1
 90
       50
176
     1
 90
        3
176
     1
 62
     5
420
      255
176
     1
290
     0
176
     1
 90
       50
176
     1
 90
       50
176
     1
 90
       50
176
     1
290
     0
176
     1
 90
       50
176
     1
 62
   256
176
     0
 40
1.0
176
     0
 90
        2
176
     1
  1
strokes_ogs.tif
176
     1
290
     0
176
     1
 40
1.0
176
     1
 40
1.0
176
     1
  0
VISUALSTYLE
  5
542
102
{ACAD_REACTORS
330
538
102
}
330
538
100
AcDbVisualStyle
  2
Conceptual
 70
     9
177
     3
291
     0
 70
    58
 90
        3
176
     1
 90
        2
176
     1
 90
        0
176
     1
 90
        0
176
     1
 40
0.6
176
     1
 40
30.0
176
     1
 62
     7
420
 16777215
176
     1
 90
        2
176
     1
 90
        2
176
     1
 62
     7
176
     1
 62
   257
176
     1
 90
        1
176
     1
 90
        1
176
     1
 40
179.0
176
     1
 90
        8
176
     1
 62
     7
176
     1
 40
1.0
176
     1
 90
        1
176
     1
 90
        6
176
     1
 90
        2
176
     1
 62
     7
176
     1
 90
        3
176
     1
 90
        0
176
     1
 90
        0
176
     1
290
     0
176
     1
 90
        1
176
     1
 40
0.0
176
     1
 90
        0
176
     1
290
     0
176
     1
290
     1
176
     1
290
     1
176
     1
290
     0
176
     1
290
     0
176
     1
290
     0
176
     1
290
     0
176
     1
290
     0
176
     1
290
     0
176
     1
 90
       50
176
     1
 40
0.0
176
     1
 40
1.0
176
     1
 90
        0
176
     1
 62
    18
420
        0
176
     1
 90
       50
176
     1
 90
        3
176
     1
 62
     5
420
      255
176
     1
290
     0
176
     1
 90
       50
176
     1
 90
       50
176
     1
 90
       50
176
     1
290
     0
176
     1
 90
       50
176
     1
 62
   256
176
     0
 40
1.0
176
     0
 90
        2
176
     1
  1
strokes_ogs.tif
176
     1
290
     0
176
     1
 40
1.0
176
     1
 40
1.0
176
     1
  0
VISUALSTYLE
  5
543
102
{ACAD_REACTORS
330
538
102
}
330
538
100
AcDbVisualStyle
  2
Dim
 70
    11
177
     3
291
     1
 70
    58
 90
        2
176
     1
 90
        2
176
     1
 90
        0
176
     1
 90
        0
176
     1
 40
0.6
176
     1
 40
30.0
176
     1
 62
     7
420
 16777215
176
     1
 90
        1
176
     1
 90
        4
176
     1
 62
     7
176
     1
 62
   257
176
     1
 90
        1
176
     1
 90
        1
176
     1
 40
1.0
176
     1
 90
        8
176
     1
 62
     7
176
     1
 40
1.0
176
     1
 90
        1
176
     1
 90
        6
176
     1
 90
        2
176
     1
 62
     7
176
     1
 90
        5
176
     1
 90
        0
176
     1
 90
        0
176
     1
290
     0
176
     1
 90
        1
176
     1
 40
-50.0
176
     1
 90
        0
176
     1
290
     0
176
     1
290
     1
176
     1
290
     1
176
     1
290
     0
176
     1
290
     0
176
     1
290
     0
176
     1
290
     0
176
     1
290
     0
176
     1
290
     0
176
     1
 90
       50
176
     1
 40
0.0
176
     1
 40
1.0
176
     1
 90
        0
176
     1
 62
    18
420
        0
176
     1
 90
       50
176
     1
 90
        3
176
     1
 62
     5
420
      255
176
     1
290
     0
176
     1
 90
       50
176
     1
 90
       50
176
     1
 90
       50
176
     1
290
     0
176
     1
 90
       50
176
     1
 62
   256
176
     0
 40
1.0
176
     0
 90
        2
176
     1
  1
strokes_ogs.tif
176
     1
290
     0
176
     1
 40
1.0
176
     1
 40
1.0
176
     1
  0
VISUALSTYLE
  5
54B
102
{ACAD_REACTORS
330
538
102
}
330
538
100
AcDbVisualStyle
  2
EdgeColorOff
 70
    22
177
     3
291
     1
 70
    58
 90
        2
176
     0
 90
        2
176
     0
 90
        0
176
     0
 90
        0
176
     0
 40
0.6
176
     0
 40
30.0
176
     0
 62
     7
420
 16777215
176
     0
 90
        1
176
     0
 90
        4
176
     0
 62
     7
176
     0
 62
   257
176
     0
 90
        1
176
     0
 90
        1
176
     0
 40
1.0
176
     0
 90
        8
176
     2
 62
     7
176
     0
 40
1.0
176
     0
 90
        1
176
     0
 90
        6
176
     0
 90
        2
176
     0
 62
     7
176
     0
 90
        5
176
     0
 90
        0
176
     0
 90
        0
176
     0
290
     0
176
     0
 90
        1
176
     0
 40
0.0
176
     0
 90
        0
176
     0
290
     0
176
     0
290
     1
176
     0
290
     1
176
     0
290
     0
176
     0
290
     0
176
     0
290
     0
176
     0
290
     0
176
     0
290
     0
176
     0
290
     0
176
     0
 90
       50
176
     0
 40
0.0
176
     0
 40
1.0
176
     0
 90
        0
176
     0
 62
    18
420
        0
176
     0
 90
       50
176
     0
 90
        3
176
     0
 62
     5
420
      255
176
     0
290
     0
176
     0
 90
       50
176
     0
 90
       50
176
     0
 90
       50
176
     0
290
     0
176
     0
 90
       50
176
     0
 62
   256
176
     0
 40
1.0
176
     0
 90
        2
176
     0
  1
strokes_ogs.tif
176
     0
290
     0
176
     0
 40
1.0
176
     0
 40
1.0
176
     0
  0
VISUALSTYLE
  5
547
102
{ACAD_REACTORS
330
538
102
}
330
538
100
AcDbVisualStyle
  2
Facepattern
 70
    15
177
     3
291
     1
 70
    58
 90
        2
176
     1
 90
        2
176
     1
 90
        0
176
     1
 90
        0
176
     1
 40
0.6
176
     1
 40
30.0
176
     1
 62
     7
420
 16777215
176
     1
 90
        1
176
     1
 90
        4
176
     1
 62
     7
176
     1
 62
   257
176
     1
 90
        1
176
     1
 90
        1
176
     1
 40
1.0
176
     1
 90
        8
176
     1
 62
     7
176
     1
 40
1.0
176
     1
 90
        1
176
     1
 90
        6
176
     1
 90
        2
176
     1
 62
     7
176
     1
 90
        5
176
     1
 90
        0
176
     1
 90
        0
176
     1
290
     0
176
     1
 90
        1
176
     1
 40
0.0
176
     1
 90
        0
176
     1
290
     0
176
     1
290
     1
176
     1
290
     1
176
     1
290
     0
176
     1
290
     0
176
     1
290
     0
176
     1
290
     0
176
     1
290
     0
176
     1
290
     0
176
     1
 90
       50
176
     1
 40
0.0
176
     1
 40
1.0
176
     1
 90
        0
176
     1
 62
    18
420
        0
176
     1
 90
       50
176
     1
 90
        3
176
     1
 62
     5
420
      255
176
     1
290
     0
176
     1
 90
       50
176
     1
 90
       50
176
     1
 90
       50
176
     1
290
     0
176
     1
 90
       50
176
     1
 62
   256
176
     0
 40
1.0
176
     0
 90
        2
176
     1
  1
strokes_ogs.tif
176
     1
290
     0
176
     1
 40
1.0
176
     1
 40
1.0
176
     1
  0
VISUALSTYLE
  5
539
102
{ACAD_REACTORS
330
538
102
}
330
538
100
AcDbVisualStyle
  2
Flat
 70
     0
177
     3
291
     1
 70
    58
 90
        2
176
     1
 90
        1
176
     1
 90
        1
176
     1
 90
        2
176
     1
 40
0.6
176
     1
 40
30.0
176
     1
 62
     7
420
 16777215
176
     1
 90
        0
176
     1
 90
        0
176
     1
 62
     7
176
     1
 62
   257
176
     1
 90
        1
176
     1
 90
        1
176
     1
 40
1.0
176
     1
 90
        8
176
     1
 62
     7
176
     1
 40
1.0
176
     1
 90
        1
176
     1
 90
        6
176
     1
 90
        2
176
     1
 62
     7
176
     1
 90
        5
176
     1
 90
        0
176
     1
 90
        0
176
     1
290
     0
176
     1
 90
       13
176
     1
 40
0.0
176
     1
 90
        0
176
     1
290
     0
176
     1
290
     1
176
     1
290
     1
176
     1
290
     0
176
     1
290
     0
176
     1
290
     0
176
     1
290
     0
176
     1
290
     0
176
     1
290
     0
176
     1
 90
       50
176
     1
 40
0.0
176
     1
 40
1.0
176
     1
 90
        0
176
     1
 62
    18
420
        0
176
     1
 90
       50
176
     1
 90
        3
176
     1
 62
     5
420
      255
176
     1
290
     0
176
     1
 90
       50
176
     1
 90
       50
176
     1
 90
       50
176
     1
290
     0
176
     1
 90
       50
176
     1
 62
   256
176
     0
 40
1.0
176
     0
 90
        2
176
     1
  1
strokes_ogs.tif
176
     1
290
     0
176
     1
 40
1.0
176
     1
 40
1.0
176
     1
  0
VISUALSTYLE
  5
53A
102
{ACAD_REACTORS
330
538
102
}
330
538
100
AcDbVisualStyle
  2
FlatWithEdges
 70
     1
177
     3
291
     1
 70
    58
 90
        2
176
     1
 90
        1
176
     1
 90
        1
176
     1
 90
        2
176
     1
 40
0.6
176
     1
 40
30.0
176
     1
 62
     7
420
 16777215
176
     1
 90
        1
176
     1
 90
        0
176
     1
 62
     7
176
     1
 62
   257
176
     1
 90
        1
176
     1
 90
        1
176
     1
 40
1.0
176
     1
 90
        0
176
     1
 62
   257
176
     1
 40
1.0
176
     1
 90
        1
176
     1
 90
        6
176
     1
 90
        2
176
     1
 62
     7
176
     1
 90
        5
176
     1
 90
        0
176
     1
 90
        0
176
     1
290
     0
176
     1
 90
       13
176
     1
 40
0.0
176
     1
 90
        0
176
     1
290
     0
176
     1
290
     1
176
     1
290
     1
176
     1
290
     0
176
     1
290
     0
176
     1
290
     0
176
     1
290
     0
176
     1
290
     0
176
     1
290
     0
176
     1
 90
       50
176
     1
 40
0.0
176
     1
 40
1.0
176
     1
 90
        0
176
     1
 62
    18
420
        0
176
     1
 90
       50
176
     1
 90
        3
176
     1
 62
     5
420
      255
176
     1
290
     0
176
     1
 90
       50
176
     1
 90
       50
176
     1
 90
       50
176
     1
290
     0
176
     1
 90
       50
176
     1
 62
   256
176
     0
 40
1.0
176
     0
 90
        2
176
     1
  1
strokes_ogs.tif
176
     1
290
     0
176
     1
 40
1.0
176
     1
 40
1.0
176
     1
  0
VISUALSTYLE
  5
53B
102
{ACAD_REACTORS
330
538
102
}
330
538
100
AcDbVisualStyle
  2
Gouraud
 70
     2
177
     3
291
     1
 70
    58
 90
        2
176
     1
 90
        2
176
     1
 90
        1
176
     1
 90
        2
176
     1
 40
0.6
176
     1
 40
30.0
176
     1
 62
     7
420
 16777215
176
     1
 90
        0
176
     1
 90
        0
176
     1
 62
     7
176
     1
 62
   257
176
     1
 90
        1
176
     1
 90
        1
176
     1
 40
1.0
176
     1
 90
        0
176
     1
 62
     7
176
     1
 40
1.0
176
     1
 90
        1
176
     1
 90
        6
176
     1
 90
        2
176
     1
 62
     7
176
     1
 90
        5
176
     1
 90
        0
176
     1
 90
        0
176
     1
290
     0
176
     1
 90
       13
176
     1
 40
0.0
176
     1
 90
        0
176
     1
290
     0
176
     1
290
     1
176
     1
290
     1
176
     1
290
     0
176
     1
290
     0
176
     1
290
     0
176
     1
290
     0
176
     1
290
     0
176
     1
290
     0
176
     1
 90
       50
176
     1
 40
0.0
176
     1
 40
1.0
176
     1
 90
        0
176
     1
 62
    18
420
        0
176
     1
 90
       50
176
     1
 90
        3
176
     1
 62
     5
420
      255
176
     1
290
     0
176
     1
 90
       50
176
     1
 90
       50
176
     1
 90
       50
176
     1
290
     0
176
     1
 90
       50
176
     1
 62
   256
176
     0
 40
1.0
176
     0
 90
        2
176
     1
  1
strokes_ogs.tif
176
     1
290
     0
176
     1
 40
1.0
176
     1
 40
1.0
176
     1
  0
VISUALSTYLE
  5
53C
102
{ACAD_REACTORS
330
538
102
}
330
538
100
AcDbVisualStyle
  2
GouraudWithEdges
 70
     3
177
     3
291
     1
 70
    58
 90
        2
176
     1
 90
        2
176
     1
 90
        1
176
     1
 90
        2
176
     1
 40
0.6
176
     1
 40
30.0
176
     1
 62
     7
420
 16777215
176
     1
 90
        1
176
     1
 90
        0
176
     1
 62
     7
176
     1
 62
   257
176
     1
 90
        1
176
     1
 90
        1
176
     1
 40
1.0
176
     1
 90
        0
176
     1
 62
   257
176
     1
 40
1.0
176
     1
 90
        1
176
     1
 90
        6
176
     1
 90
        2
176
     1
 62
     7
176
     1
 90
        5
176
     1
 90
        0
176
     1
 90
        0
176
     1
290
     0
176
     1
 90
       13
176
     1
 40
0.0
176
     1
 90
        0
176
     1
290
     0
176
     1
290
     1
176
     1
290
     1
176
     1
290
     0
176
     1
290
     0
176
     1
290
     0
176
     1
290
     0
176
     1
290
     0
176
     1
290
     0
176
     1
 90
       50
176
     1
 40
0.0
176
     1
 40
1.0
176
     1
 90
        0
176
     1
 62
    18
420
        0
176
     1
 90
       50
176
     1
 90
        3
176
     1
 62
     5
420
      255
176
     1
290
     0
176
     1
 90
       50
176
     1
 90
       50
176
     1
 90
       50
176
     1
290
     0
176
     1
 90
       50
176
     1
 62
   256
176
     0
 40
1.0
176
     0
 90
        2
176
     1
  1
strokes_ogs.tif
176
     1
290
     0
176
     1
 40
1.0
176
     1
 40
1.0
176
     1
  0
VISUALSTYLE
  5
53F
102
{ACAD_REACTORS
330
538
102
}
330
538
100
AcDbVisualStyle
  2
Hidden
 70
     6
177
     3
291
     0
 70
    58
 90
        1
176
     1
 90
        2
176
     1
 90
        2
176
     1
 90
        0
176
     1
 40
0.6
176
     1
 40
30.0
176
     1
 62
     7
420
 16777215
176
     1
 90
        2
176
     1
 90
        2
176
     1
 62
     7
176
     1
 62
   257
176
     1
 90
        2
176
     1
 90
        1
176
     1
 40
40.0
176
     1
 90
        0
176
     1
 62
   257
176
     1
 40
1.0
176
     1
 90
        1
176
     1
 90
        6
176
     1
 90
        2
176
     1
 62
     7
176
     1
 90
        3
176
     1
 90
        0
176
     1
 90
        0
176
     1
290
     0
176
     1
 90
        1
176
     1
 40
0.0
176
     1
 90
        0
176
     1
290
     0
176
     1
290
     1
176
     1
290
     1
176
     1
290
     0
176
     1
290
     0
176
     1
290
     0
176
     1
290
     0
176
     1
290
     0
176
     1
290
     0
176
     1
 90
       50
176
     1
 40
0.0
176
     1
 40
1.0
176
     1
 90
        0
176
     1
 62
    18
420
        0
176
     1
 90
       50
176
     1
 90
        3
176
     1
 62
     5
420
      255
176
     1
290
     0
176
     1
 90
       50
176
     1
 90
       50
176
     1
 90
       50
176
     1
290
     0
176
     1
 90
       50
176
     1
 62
   256
176
     0
 40
1.0
176
     0
 90
        2
176
     1
  1
strokes_ogs.tif
176
     1
290
     0
176
     1
 40
1.0
176
     1
 40
1.0
176
     1
  0
VISUALSTYLE
  5
549
102
{ACAD_REACTORS
330
538
102
}
330
538
100
AcDbVisualStyle
  2
JitterOff
 70
    20
177
     3
291
     1
 70
    58
 90
        2
176
     0
 90
        2
176
     0
 90
        0
176
     0
 90
        0
176
     0
 40
0.6
176
     0
 40
30.0
176
     0
 62
     7
420
 16777215
176
     0
 90
        1
176
     0
 90
        4
176
     0
 62
     7
176
     0
 62
   257
176
     0
 90
        1
176
     0
 90
        1
176
     0
 40
1.0
176
     0
 90
       10
176
     2
 62
     7
176
     0
 40
1.0
176
     0
 90
        1
176
     0
 90
        6
176
     0
 90
        2
176
     0
 62
     7
176
     0
 90
        5
176
     0
 90
        0
176
     0
 90
        0
176
     0
290
     0
176
     0
 90
        1
176
     0
 40
0.0
176
     0
 90
        0
176
     0
290
     0
176
     0
290
     1
176
     0
290
     1
176
     0
290
     0
176
     0
290
     0
176
     0
290
     0
176
     0
290
     0
176
     0
290
     0
176
     0
290
     0
176
     0
 90
       50
176
     0
 40
0.0
176
     0
 40
1.0
176
     0
 90
        0
176
     0
 62
    18
420
        0
176
     0
 90
       50
176
     0
 90
        3
176
     0
 62
     5
420
      255
176
     0
290
     0
176
     0
 90
       50
176
     0
 90
       50
176
     0
 90
       50
176
     0
290
     0
176
     0
 90
       50
176
     0
 62
   256
176
     0
 40
1.0
176
     0
 90
        2
176
     0
  1
strokes_ogs.tif
176
     0
290
     0
176
     0
 40
1.0
176
     0
 40
1.0
176
     0
  0
VISUALSTYLE
  5
546
102
{ACAD_REACTORS
330
538
102
}
330
538
100
AcDbVisualStyle
  2
Linepattern
 70
    14
177
     3
291
     1
 70
    58
 90
        2
176
     1
 90
        2
176
     1
 90
        0
176
     1
 90
        0
176
     1
 40
0.6
176
     1
 40
30.0
176
     1
 62
     7
420
 16777215
176
     1
 90
        1
176
     1
 90
        4
176
     1
 62
     7
176
     1
 62
   257
176
     1
 90
        7
176
     1
 90
        7
176
     1
 40
1.0
176
     1
 90
        8
176
     1
 62
     7
176
     1
 40
1.0
176
     1
 90
        1
176
     1
 90
        6
176
     1
 90
        2
176
     1
 62
     7
176
     1
 90
        5
176
     1
 90
        0
176
     1
 90
        0
176
     1
290
     0
176
     1
 90
        1
176
     1
 40
0.0
176
     1
 90
        0
176
     1
290
     0
176
     1
290
     1
176
     1
290
     1
176
     1
290
     0
176
     1
290
     0
176
     1
290
     0
176
     1
290
     0
176
     1
290
     0
176
     1
290
     0
176
     1
 90
       50
176
     1
 40
0.0
176
     1
 40
1.0
176
     1
 90
        0
176
     1
 62
    18
420
        0
176
     1
 90
       50
176
     1
 90
        3
176
     1
 62
     5
420
      255
176
     1
290
     0
176
     1
 90
       50
176
     1
 90
       50
176
     1
 90
       50
176
     1
290
     0
176
     1
 90
       50
176
     1
 62
   256
176
     0
 40
1.0
176
     0
 90
        2
176
     1
  1
strokes_ogs.tif
176
     1
290
     0
176
     1
 40
1.0
176
     1
 40
1.0
176
     1
  0
VISUALSTYLE
  5
54A
102
{ACAD_REACTORS
330
538
102
}
330
538
100
AcDbVisualStyle
  2
OverhangOff
 70
    21
177
     3
291
     1
 70
    58
 90
        2
176
     0
 90
        2
176
     0
 90
        0
176
     0
 90
        0
176
     0
 40
0.6
176
     0
 40
30.0
176
     0
 62
     7
420
 16777215
176
     0
 90
        1
176
     0
 90
        4
176
     0
 62
     7
176
     0
 62
   257
176
     0
 90
        1
176
     0
 90
        1
176
     0
 40
1.0
176
     0
 90
        9
176
     2
 62
     7
176
     0
 40
1.0
176
     0
 90
        1
176
     0
 90
        6
176
     0
 90
        2
176
     0
 62
     7
176
     0
 90
        5
176
     0
 90
        0
176
     0
 90
        0
176
     0
290
     0
176
     0
 90
        1
176
     0
 40
0.0
176
     0
 90
        0
176
     0
290
     0
176
     0
290
     1
176
     0
290
     1
176
     0
290
     0
176
     0
290
     0
176
     0
290
     0
176
     0
290
     0
176
     0
290
     0
176
     0
290
     0
176
     0
 90
       50
176
     0
 40
0.0
176
     0
 40
1.0
176
     0
 90
        0
176
     0
 62
    18
420
        0
176
     0
 90
       50
176
     0
 90
        3
176
     0
 62
     5
420
      255
176
     0
290
     0
176
     0
 90
       50
176
     0
 90
       50
176
     0
 90
       50
176
     0
290
     0
176
     0
 90
       50
176
     0
 62
   256
176
     0
 40
1.0
176
     0
 90
        2
176
     0
  1
strokes_ogs.tif
176
     0
290
     0
176
     0
 40
1.0
176
     0
 40
1.0
176
     0
  0
VISUALSTYLE
  5
541
102
{ACAD_REACTORS
330
538
102
}
330
538
100
AcDbVisualStyle
  2
Realistic
 70
     8
177
     3
291
     0
 70
    58
 90
        2
176
     1
 90
        3
176
     1
 90
        0
176
     1
 90
        2
176
     1
 40
0.6
176
     1
 40
30.0
176
     1
 62
     7
420
 16777215
176
     1
 90
        0
176
     1
 90
        0
176
     1
 62
     7
176
     1
 62
   257
176
     1
 90
        1
176
     1
 90
        1
176
     1
 40
1.0
176
     1
 90
        8
176
     1
 62
   257
176
     1
 40
1.0
176
     1
 90
        1
176
     1
 90
        6
176
     1
 90
        2
176
     1
 62
     7
176
     1
 90
        3
176
     1
 90
        0
176
     1
 90
        0
176
     1
290
     0
176
     1
 90
       13
176
     1
 40
0.0
176
     1
 90
        0
176
     1
290
     0
176
     1
290
     1
176
     1
290
     1
176
     1
290
     0
176
     1
290
     0
176
     1
290
     0
176
     1
290
     0
176
     1
290
     0
176
     1
290
     0
176
     1
 90
       50
176
     1
 40
0.0
176
     1
 40
1.0
176
     1
 90
        0
176
     1
 62
    18
420
        0
176
     1
 90
       50
176
     1
 90
        3
176
     1
 62
     5
420
      255
176
     1
290
     0
176
     1
 90
       50
176
     1
 90
       50
176
     1
 90
       50
176
     1
290
     0
176
     1
 90
       50
176
     1
 62
   256
176
     0
 40
1.0
176
     0
 90
        2
176
     1
  1
strokes_ogs.tif
176
     1
290
     0
176
     1
 40
1.0
176
     1
 40
1.0
176
     1
  0
VISUALSTYLE
  5
550
102
{ACAD_REACTORS
330
538
102
}
330
538
100
AcDbVisualStyle
  2
Shaded
 70
    27
177
     3
291
     0
 70
    58
 90
        2
176
     1
 90
        2
176
     1
 90
        1
176
     1
 90
        2
176
     1
 40
0.6
176
     1
 40
30.0
176
     1
 62
     7
420
 16777215
176
     1
 90
        0
176
     1
 90
        4
176
     1
 62
     7
176
     1
 62
   257
176
     1
 90
        1
176
     1
 90
        1
176
     1
 40
1.0
176
     1
 90
        8
176
     1
 62
   257
176
     1
 40
1.0
176
     1
 90
        1
176
     1
 90
        6
176
     1
 90
        2
176
     1
 62
     8
420
  7895160
176
     1
 90
        3
176
     1
 90
        0
176
     1
 90
        0
176
     1
290
     0
176
     1
 90
        5
176
     1
 40
0.0
176
     1
 90
        0
176
     1
290
     0
176
     1
290
     1
176
     1
290
     1
176
     1
290
     0
176
     1
290
     0
176
     1
290
     0
176
     1
290
     0
176
     1
290
     0
176
     1
290
     0
176
     1
 90
       50
176
     1
 40
0.0
176
     1
 40
1.0
176
     1
 90
        0
176
     1
 62
    18
420
        0
176
     1
 90
       50
176
     1
 90
        3
176
     1
 62
     5
420
      255
176
     1
290
     0
176
     1
 90
       50
176
     1
 90
       50
176
     1
 90
       50
176
     1
290
     0
176
     1
 90
       50
176
     1
 62
   256
176
     0
 40
1.0
176
     0
 90
        2
176
     1
  1
strokes_ogs.tif
176
     1
290
     0
176
     1
 40
1.0
176
     1
 40
1.0
176
     1
  0
VISUALSTYLE
  5
54F
102
{ACAD_REACTORS
330
538
102
}
330
538
100
AcDbVisualStyle
  2
Shaded with edges
 70
    26
177
     3
291
     0
 70
    58
 90
        2
176
     1
 90
        2
176
     1
 90
        1
176
     1
 90
        2
176
     1
 40
0.6
176
     1
 40
30.0
176
     1
 62
     7
420
 16777215
176
     1
 90
        1
176
     1
 90
       10
176
     1
 62
     7
176
     1
 62
   257
176
     1
 90
        2
176
     1
 90
        1
176
     1
 40
1.0
176
     1
 90
        8
176
     1
 62
   257
176
     1
 40
1.0
176
     1
 90
        1
176
     1
 90
        6
176
     1
 90
        2
176
     1
 62
     7
176
     1
 90
        3
176
     1
 90
        0
176
     1
 90
        0
176
     1
290
     0
176
     1
 90
        5
176
     1
 40
0.0
176
     1
 90
        0
176
     1
290
     0
176
     1
290
     1
176
     1
290
     1
176
     1
290
     0
176
     1
290
     0
176
     1
290
     0
176
     1
290
     0
176
     1
290
     0
176
     1
290
     0
176
     1
 90
       50
176
     1
 40
0.0
176
     1
 40
1.0
176
     1
 90
        0
176
     1
 62
    18
420
        0
176
     1
 90
       50
176
     1
 90
        3
176
     1
 62
     5
420
      255
176
     1
290
     0
176
     1
 90
       50
176
     1
 90
       50
176
     1
 90
       50
176
     1
290
     0
176
     1
 90
       50
176
     1
 62
   256
176
     0
 40
1.0
176
     0
 90
        2
176
     1
  1
strokes_ogs.tif
176
     1
290
     0
176
     1
 40
1.0
176
     1
 40
1.0
176
     1
  0
VISUALSTYLE
  5
54C
102
{ACAD_REACTORS
330
538
102
}
330
538
100
AcDbVisualStyle
  2
Shades of Gray
 70
    23
177
     3
291
     0
 70
    58
 90
        2
176
     1
 90
        2
176
     1
 90
        3
176
     1
 90
        0
176
     1
 40
0.6
176
     1
 40
30.0
176
     1
 62
     7
420
 16777215
176
     1
 90
        2
176
     1
 90
        2
176
     1
 62
     7
176
     1
 62
     7
176
     1
 90
        1
176
     1
 90
        1
176
     1
 40
40.0
176
     1
 90
        8
176
     1
 62
     7
176
     1
 40
1.0
176
     1
 90
        1
176
     1
 90
        6
176
     1
 90
        2
176
     1
 62
     7
176
     1
 90
        3
176
     1
 90
        0
176
     1
 90
        0
176
     1
290
     0
176
     1
 90
        1
176
     1
 40
0.0
176
     1
 90
        0
176
     1
290
     0
176
     1
290
     1
176
     1
290
     1
176
     1
290
     0
176
     1
290
     0
176
     1
290
     0
176
     1
290
     0
176
     1
290
     0
176
     1
290
     0
176
     1
 90
       50
176
     1
 40
0.0
176
     1
 40
1.0
176
     1
 90
        0
176
     1
 62
    18
420
        0
176
     1
 90
       50
176
     1
 90
        3
176
     1
 62
     5
420
      255
176
     1
290
     0
176
     1
 90
       50
176
     1
 90
       50
176
     1
 90
       50
176
     1
290
     0
176
     1
 90
       50
176
     1
 62
   256
176
     0
 40
1.0
176
     0
 90
        2
176
     1
  1
strokes_ogs.tif
176
     1
290
     0
176
     1
 40
1.0
176
     1
 40
1.0
176
     1
  0
VISUALSTYLE
  5
54D
102
{ACAD_REACTORS
330
538
102
}
330
538
100
AcDbVisualStyle
  2
Sketchy
 70
    24
177
     3
291
     0
 70
    58
 90
        1
176
     1
 90
        2
176
     1
 90
        2
176
     1
 90
        0
176
     1
 40
0.6
176
     1
 40
30.0
176
     1
 62
     7
420
 16777215
176
     1
 90
        2
176
     1
 90
        2
176
     1
 62
     7
176
     1
 62
     7
176
     1
 90
        1
176
     1
 90
        1
176
     1
 40
40.0
176
     1
 90
       11
176
     1
 62
     7
176
     1
 40
1.0
176
     1
 90
        1
176
     1
 90
        6
176
     1
 90
        2
176
     1
 62
     7
176
     1
 90
        6
176
     1
 90
        0
176
     1
 90
        0
176
     1
290
     0
176
     1
 90
        1
176
     1
 40
0.0
176
     1
 90
        0
176
     1
290
     0
176
     1
290
     1
176
     1
290
     1
176
     1
290
     0
176
     1
290
     0
176
     1
290
     0
176
     1
290
     0
176
     1
290
     0
176
     1
290
     0
176
     1
 90
       50
176
     1
 40
0.0
176
     1
 40
1.0
176
     1
 90
        0
176
     1
 62
    18
420
        0
176
     1
 90
       50
176
     1
 90
        3
176
     1
 62
     5
420
      255
176
     1
290
     0
176
     1
 90
       50
176
     1
 90
       50
176
     1
 90
       50
176
     1
290
     0
176
     1
 90
       50
176
     1
 62
   256
176
     0
 40
1.0
176
     0
 90
        2
176
     1
  1
strokes_ogs.tif
176
     1
290
     0
176
     1
 40
1.0
176
     1
 40
1.0
176
     1
  0
VISUALSTYLE
  5
545
102
{ACAD_REACTORS
330
538
102
}
330
538
100
AcDbVisualStyle
  2
Thicken
 70
    13
177
     3
291
     1
 70
    58
 90
        2
176
     1
 90
        2
176
     1
 90
        0
176
     1
 90
        0
176
     1
 40
0.6
176
     1
 40
30.0
176
     1
 62
     7
420
 16777215
176
     1
 90
        1
176
     1
 90
        4
176
     1
 62
     7
176
     1
 62
   257
176
     1
 90
        1
176
     1
 90
        1
176
     1
 40
1.0
176
     1
 90
       12
176
     1
 62
     7
176
     1
 40
1.0
176
     1
 90
        1
176
     1
 90
        6
176
     1
 90
        2
176
     1
 62
     7
176
     1
 90
        5
176
     1
 90
        0
176
     1
 90
        0
176
     1
290
     0
176
     1
 90
        1
176
     1
 40
0.0
176
     1
 90
        0
176
     1
290
     0
176
     1
290
     1
176
     1
290
     1
176
     1
290
     0
176
     1
290
     0
176
     1
290
     0
176
     1
290
     0
176
     1
290
     0
176
     1
290
     0
176
     1
 90
       50
176
     1
 40
0.0
176
     1
 40
1.0
176
     1
 90
        0
176
     1
 62
    18
420
        0
176
     1
 90
       50
176
     1
 90
        3
176
     1
 62
     5
420
      255
176
     1
290
     0
176
     1
 90
       50
176
     1
 90
       50
176
     1
 90
       50
176
     1
290
     0
176
     1
 90
       50
176
     1
 62
   256
176
     0
 40
1.0
176
     0
 90
        2
176
     1
  1
strokes_ogs.tif
176
     1
290
     0
176
     1
 40
1.0
176
     1
 40
1.0
176
     1
  0
VISUALSTYLE
  5
53E
102
{ACAD_REACTORS
330
538
102
}
330
538
100
AcDbVisualStyle
  2
Wireframe
 70
     5
177
     3
291
     0
 70
    58
 90
        0
176
     1
 90
        2
176
     1
 90
        0
176
     1
 90
        0
176
     1
 40
0.6
176
     1
 40
30.0
176
     1
 62
     7
420
 16777215
176
     1
 90
        1
176
     1
 90
        4
176
     1
 62
     7
176
     1
 62
   257
176
     1
 90
        1
176
     1
 90
        1
176
     1
 40
1.0
176
     1
 90
        0
176
     1
 62
   257
176
     1
 40
1.0
176
     1
 90
        1
176
     1
 90
        6
176
     1
 90
        2
176
     1
 62
     7
176
     1
 90
        3
176
     1
 90
        0
176
     1
 90
        0
176
     1
290
     0
176
     1
 90
        1
176
     1
 40
0.0
176
     1
 90
        0
176
     1
290
     0
176
     1
290
     1
176
     1
290
     1
176
     1
290
     0
176
     1
290
     0
176
     1
290
     0
176
     1
290
     0
176
     1
290
     0
176
     1
290
     0
176
     1
 90
       50
176
     1
 40
0.0
176
     1
 40
1.0
176
     1
 90
        0
176
     1
 62
    18
420
        0
176
     1
 90
       50
176
     1
 90
        3
176
     1
 62
     5
420
      255
176
     1
290
     0
176
     1
 90
       50
176
     1
 90
       50
176
     1
 90
       50
176
     1
290
     0
176
     1
 90
       50
176
     1
 62
   256
176
     0
 40
1.0
176
     0
 90
        2
176
     1
  1
strokes_ogs.tif
176
     1
290
     0
176
     1
 40
1.0
176
     1
 40
1.0
176
     1
  0
VISUALSTYLE
  5
54E
102
{ACAD_REACTORS
330
538
102
}
330
538
100
AcDbVisualStyle
  2
X-Ray
 70
    25
177
     3
291
     0
 70
    58
 90
        2
176
     1
 90
        2
176
     1
 90
        1
176
     1
 90
        1
176
     1
 40
0.5
176
     1
 40
30.0
176
     1
 62
     7
420
 16777215
176
     1
 90
        1
176
     1
 90
        0
176
     1
 62
     7
176
     1
 62
   257
176
     1
 90
        1
176
     1
 90
        1
176
     1
 40
1.0
176
     1
 90
        8
176
     1
 62
     7
176
     1
 40
1.0
176
     1
 90
        1
176
     1
 90
        6
176
     1
 90
        2
176
     1
 62
     7
176
     1
 90
        3
176
     1
 90
        0
176
     1
 90
        0
176
     1
290
     0
176
     1
 90
       13
176
     1
 40
0.0
176
     1
 90
        0
176
     1
290
     0
176
     1
290
     1
176
     1
290
     1
176
     1
290
     0
176
     1
290
     0
176
     1
290
     0
176
     1
290
     0
176
     1
290
     0
176
     1
290
     0
176
     1
 90
       50
176
     1
 40
0.0
176
     1
 40
1.0
176
     1
 90
        0
176
     1
 62
    18
420
        0
176
     1
 90
       50
176
     1
 90
        3
176
     1
 62
     5
420
      255
176
     1
290
     0
176
     1
 90
       50
176
     1
 90
       50
176
     1
 90
       50
176
     1
290
     0
176
     1
 90
       50
176
     1
 62
   256
176
     0
 40
1.0
176
     0
 90
        2
176
     1
  1
strokes_ogs.tif
176
     1
290
     0
176
     1
 40
1.0
176
     1
 40
1.0
176
     1
  0
DICTIONARYVAR
  5
55B
102
{ACAD_REACTORS
330
55A
102
}
330
55A
100
DictionaryVariables
280
     0
  1
1:1
  0
DICTIONARYVAR
  5
560
102
{ACAD_REACTORS
330
55A
102
}
330
55A
100
DictionaryVariables
280
     0
  1
Standard
  0
DICTIONARYVAR
  5
55F
102
{ACAD_REACTORS
330
55A
102
}
330
55A
100
DictionaryVariables
280
     0
  1
Standard
  0
DICTIONARYVAR
  5
561
102
{ACAD_REACTORS
330
55A
102
}
330
55A
100
DictionaryVariables
280
     0
  1
0
  0
DICTIONARY
  5
55C
330
556
100
AcDbDictionary
280
     1
281
     1
  3
ACAD_ROUNDTRIP_2008_TABLESTYLE_CELLSTYLEMAP
360
55D
  0
CELLSTYLEMAP
  5
55D
102
{ACAD_REACTORS
330
55C
102
}
330
55C
100
AcDbCellStyleMap
 90
        3
300
CELLSTYLE
  1
TABLEFORMAT_BEGIN
 90
        5
170
     1
 91
        0
 92
    32768
 62
   257
 93
        1
300
CONTENTFORMAT
  1
CONTENTFORMAT_BEGIN
 90
        0
 91
        0
 92
        4
 93
        0
300

 40
0.0
140
1.0
 94
        5
 62
     0
340
11
144
6.0
309
CONTENTFORMAT_END
171
     1
301
MARGIN
  1
CELLMARGIN_BEGIN
 40
1.5
 40
1.5
 40
1.5
 40
1.5
 40
1.5
 40
1.5
309
CELLMARGIN_END
 94
        6
 95
        1
302
GRIDFORMAT
  1
GRIDFORMAT_BEGIN
 90
        0
 91
        1
 62
     0
 92
       -2
340
14
 93
        0
 40
0.045
309
GRIDFORMAT_END
 95
        2
302
GRIDFORMAT
  1
GRIDFORMAT_BEGIN
 90
        0
 91
        1
 62
     0
 92
       -2
340
14
 93
        0
 40
0.045
309
GRIDFORMAT_END
 95
        4
302
GRIDFORMAT
  1
GRIDFORMAT_BEGIN
 90
        0
 91
        1
 62
     0
 92
       -2
340
14
 93
        0
 40
0.045
309
GRIDFORMAT_END
 95
        8
302
GRIDFORMAT
  1
GRIDFORMAT_BEGIN
 90
        0
 91
        1
 62
     0
 92
       -2
340
14
 93
        0
 40
0.045
309
GRIDFORMAT_END
 95
       16
302
GRIDFORMAT
  1
GRIDFORMAT_BEGIN
 90
        0
 91
        1
 62
     0
 92
       -2
340
14
 93
        0
 40
0.045
309
GRIDFORMAT_END
 95
       32
302
GRIDFORMAT
  1
GRIDFORMAT_BEGIN
 90
        0
 91
        1
 62
     0
 92
       -2
340
14
 93
        0
 40
0.045
309
GRIDFORMAT_END
309
TABLEFORMAT_END
  1
CELLSTYLE_BEGIN
 90
        1
 91
        1
300
_TITLE
309
CELLSTYLE_END
300
CELLSTYLE
  1
TABLEFORMAT_BEGIN
 90
        5
170
     1
 91
        0
 92
        0
 62
   257
 93
        1
300
CONTENTFORMAT
  1
CONTENTFORMAT_BEGIN
 90
        0
 91
        0
 92
        4
 93
        0
300

 40
0.0
140
1.0
 94
        5
 62
     0
340
11
144
4.5
309
CONTENTFORMAT_END
171
     1
301
MARGIN
  1
CELLMARGIN_BEGIN
 40
1.5
 40
1.5
 40
1.5
 40
1.5
 40
1.5
 40
1.5
309
CELLMARGIN_END
 94
        6
 95
        1
302
GRIDFORMAT
  1
GRIDFORMAT_BEGIN
 90
        0
 91
        1
 62
     0
 92
       -2
340
14
 93
        0
 40
0.045
309
GRIDFORMAT_END
 95
        2
302
GRIDFORMAT
  1
GRIDFORMAT_BEGIN
 90
        0
 91
        1
 62
     0
 92
       -2
340
14
 93
        0
 40
0.045
309
GRIDFORMAT_END
 95
        4
302
GRIDFORMAT
  1
GRIDFORMAT_BEGIN
 90
        0
 91
        1
 62
     0
 92
       -2
340
14
 93
        0
 40
0.045
309
GRIDFORMAT_END
 95
        8
302
GRIDFORMAT
  1
GRIDFORMAT_BEGIN
 90
        0
 91
        1
 62
     0
 92
       -2
340
14
 93
        0
 40
0.045
309
GRIDFORMAT_END
 95
       16
302
GRIDFORMAT
  1
GRIDFORMAT_BEGIN
 90
        0
 91
        1
 62
     0
 92
       -2
340
14
 93
        0
 40
0.045
309
GRIDFORMAT_END
 95
       32
302
GRIDFORMAT
  1
GRIDFORMAT_BEGIN
 90
        0
 91
        1
 62
     0
 92
       -2
340
14
 93
        0
 40
0.045
309
GRIDFORMAT_END
309
TABLEFORMAT_END
  1
CELLSTYLE_BEGIN
 90
        2
 91
        1
300
_HEADER
309
CELLSTYLE_END
300
CELLSTYLE
  1
TABLEFORMAT_BEGIN
 90
        5
170
     1
 91
        0
 92
        0
 62
   257
 93
        1
300
CONTENTFORMAT
  1
CONTENTFORMAT_BEGIN
 90
        0
 91
        0
 92
        4
 93
        0
300

 40
0.0
140
1.0
 94
        2
 62
     0
340
11
144
4.5
309
CONTENTFORMAT_END
171
     1
301
MARGIN
  1
CELLMARGIN_BEGIN
 40
1.5
 40
1.5
 40
1.5
 40
1.5
 40
1.5
 40
1.5
309
CELLMARGIN_END
 94
        6
 95
        1
302
GRIDFORMAT
  1
GRIDFORMAT_BEGIN
 90
        0
 91
        1
 62
     0
 92
       -2
340
14
 93
        0
 40
0.045
309
GRIDFORMAT_END
 95
        2
302
GRIDFORMAT
  1
GRIDFORMAT_BEGIN
 90
        0
 91
        1
 62
     0
 92
       -2
340
14
 93
        0
 40
0.045
309
GRIDFORMAT_END
 95
        4
302
GRIDFORMAT
  1
GRIDFORMAT_BEGIN
 90
        0
 91
        1
 62
     0
 92
       -2
340
14
 93
        0
 40
0.045
309
GRIDFORMAT_END
 95
        8
302
GRIDFORMAT
  1
GRIDFORMAT_BEGIN
 90
        0
 91
        1
 62
     0
 92
       -2
340
14
 93
        0
 40
0.045
309
GRIDFORMAT_END
 95
       16
302
GRIDFORMAT
  1
GRIDFORMAT_BEGIN
 90
        0
 91
        1
 62
     0
 92
       -2
340
14
 93
        0
 40
0.045
309
GRIDFORMAT_END
 95
       32
302
GRIDFORMAT
  1
GRIDFORMAT_BEGIN
 90
        0
 91
        1
 62
     0
 92
       -2
340
14
 93
        0
 40
0.045
309
GRIDFORMAT_END
309
TABLEFORMAT_END
  1
CELLSTYLE_BEGIN
 90
        3
 91
        2
300
_DATA
309
CELLSTYLE_END
  0
ENDSEC
  0
EOF
