  0
SECTION
  2
HEADER
  9
$ACADVER
  1
AC1027
  9
$ACADMAINTVER
 70
   105
  9
$DWGCODEPAGE
  3
ANSI_1252
  9
$REQUIREDVERSIONS
160
                 0
  9
$LASTSAVEDBY
  1
andrea.zolin
  9
$INSBASE
 10
0.0
 20
0.0
 30
0.0
  9
$EXTMIN
 10
0.0
 20
0.0
 30
0.0
  9
$EXTMAX
 10
1189.0
 20
841.0
 30
0.0
  9
$LIMMIN
 10
0.0
 20
0.0
  9
$LIMMAX
 10
1189.0
 20
841.0
  9
$ORTHOMODE
 70
     0
  9
$REGENMODE
 70
     1
  9
$FILLMODE
 70
     1
  9
$QTEXTMODE
 70
     0
  9
$MIRRTEXT
 70
     1
  9
$LTSCALE
 40
65.395
  9
$ATTMODE
 70
     1
  9
$TEXTSIZE
 40
0.2
  9
$TRACEWID
 40
0.05
  9
$TEXTSTYLE
  7
STANDARD
  9
$CLAYER
  8
0
  9
$CELTYPE
  6
BYLAYER
  9
$CECOLOR
 62
   256
  9
$CELTSCALE
 40
1.0
  9
$DISPSILH
 70
     0
  9
$DIMSCALE
 40
1.0
  9
$DIMASZ
 40
2.5
  9
$DIMEXO
 40
0.75
  9
$DIMDLI
 40
45.182
  9
$DIMRND
 40
0.0
  9
$DIMDLE
 40
0.0
  9
$DIMEXE
 40
0.75
  9
$DIMTP
 40
0.01
  9
$DIMTM
 40
0.01
  9
$DIMTXT
 40
3.0
  9
$DIMCEN
 40
10.701
  9
$DIMTSZ
 40
0.0
  9
$DIMTOL
 70
     1
  9
$DIMLIM
 70
     0
  9
$DIMTIH
 70
     1
  9
$DIMTOH
 70
     1
  9
$DIMSE1
 70
     0
  9
$DIMSE2
 70
     0
  9
$DIMTAD
 70
     0
  9
$DIMZIN
 70
     0
  9
$DIMBLK
  1
CLOSED
  9
$DIMASO
 70
     1
  9
$DIMSHO
 70
     1
  9
$DIMPOST
  1

  9
$DIMAPOST
  1

  9
$DIMALT
 70
     0
  9
$DIMALTD
 70
     2
  9
$DIMALTF
 40
25.4
  9
$DIMLFAC
 40
1.0
  9
$DIMTOFL
 70
     0
  9
$DIMTVP
 40
0.0
  9
$DIMTIX
 70
     0
  9
$DIMSOXD
 70
     0
  9
$DIMSAH
 70
     0
  9
$DIMBLK1
  1

  9
$DIMBLK2
  1

  9
$DIMSTYLE
  2
STANDARD
  9
$DIMCLRD
 70
     0
  9
$DIMCLRE
 70
     0
  9
$DIMCLRT
 70
     0
  9
$DIMTFAC
 40
1.0
  9
$DIMGAP
 40
0.625
  9
$DIMJUST
 70
     0
  9
$DIMSD1
 70
     0
  9
$DIMSD2
 70
     0
  9
$DIMTOLJ
 70
     1
  9
$DIMTZIN
 70
     0
  9
$DIMALTZ
 70
     0
  9
$DIMALTTZ
 70
     0
  9
$DIMUPT
 70
     0
  9
$DIMDEC
 70
     4
  9
$DIMTDEC
 70
     4
  9
$DIMALTU
 70
     2
  9
$DIMALTTD
 70
     2
  9
$DIMTXSTY
  7
STANDARD
  9
$DIMAUNIT
 70
     0
  9
$DIMADEC
 70
     0
  9
$DIMALTRND
 40
0.0
  9
$DIMAZIN
 70
     0
  9
$DIMDSEP
 70
    46
  9
$DIMATFIT
 70
     3
  9
$DIMFRAC
 70
     0
  9
$DIMLDRBLK
  1

  9
$DIMLUNIT
 70
     2
  9
$DIMLWD
 70
    -2
  9
$DIMLWE
 70
    -2
  9
$DIMTMOVE
 70
     2
  9
$DIMFXL
 40
1.0
  9
$DIMFXLON
 70
     0
  9
$DIMJOGANG
 40
0.7853981633974483
  9
$DIMTFILL
 70
     0
  9
$DIMTFILLCLR
 70
     0
  9
$DIMARCSYM
 70
     0
  9
$DIMLTYPE
  6

  9
$DIMLTEX1
  6

  9
$DIMLTEX2
  6

  9
$DIMTXTDIRECTION
 70
     0
  9
$LUNITS
 70
     2
  9
$LUPREC
 70
     4
  9
$SKETCHINC
 40
0.1
  9
$FILLETRAD
 40
0.5
  9
$AUNITS
 70
     0
  9
$AUPREC
 70
     0
  9
$MENU
  1
.
  9
$ELEVATION
 40
0.0
  9
$PELEVATION
 40
0.0
  9
$THICKNESS
 40
0.0
  9
$LIMCHECK
 70
     0
  9
$CHAMFERA
 40
0.0
  9
$CHAMFERB
 40
0.0
  9
$CHAMFERC
 40
0.0
  9
$CHAMFERD
 40
0.0
  9
$SKPOLY
 70
     0
  9
$TDCREATE
 40
2447893.041666667
  9
$TDUCREATE
 40
0.0
  9
$TDUPDATE
 40
2458466.457341586
  9
$TDUUPDATE
 40
2458466.415674919
  9
$TDINDWG
 40
0.0002241667
  9
$TDUSRTIMER
 40
0.0002241667
  9
$USRTIMER
 70
     1
  9
$ANGBASE
 50
0.0
  9
$ANGDIR
 70
     0
  9
$PDMODE
 70
     3
  9
$PDSIZE
 40
0.3125
  9
$PLINEWID
 40
0.0
  9
$SPLFRAME
 70
     0
  9
$SPLINETYPE
 70
     6
  9
$SPLINESEGS
 70
     8
  9
$HANDSEED
  5
4F0
  9
$SURFTAB1
 70
     6
  9
$SURFTAB2
 70
     6
  9
$SURFTYPE
 70
     6
  9
$SURFU
 70
     6
  9
$SURFV
 70
     6
  9
$UCSBASE
  2

  9
$UCSNAME
  2

  9
$UCSORG
 10
0.0
 20
0.0
 30
0.0
  9
$UCSXDIR
 10
1.0
 20
0.0
 30
0.0
  9
$UCSYDIR
 10
0.0
 20
1.0
 30
0.0
  9
$UCSORTHOREF
  2

  9
$UCSORTHOVIEW
 70
     0
  9
$UCSORGTOP
 10
0.0
 20
0.0
 30
0.0
  9
$UCSORGBOTTOM
 10
0.0
 20
0.0
 30
0.0
  9
$UCSORGLEFT
 10
0.0
 20
0.0
 30
0.0
  9
$UCSORGRIGHT
 10
0.0
 20
0.0
 30
0.0
  9
$UCSORGFRONT
 10
0.0
 20
0.0
 30
0.0
  9
$UCSORGBACK
 10
0.0
 20
0.0
 30
0.0
  9
$PUCSBASE
  2

  9
$PUCSNAME
  2

  9
$PUCSORG
 10
0.0
 20
0.0
 30
0.0
  9
$PUCSXDIR
 10
1.0
 20
0.0
 30
0.0
  9
$PUCSYDIR
 10
0.0
 20
1.0
 30
0.0
  9
$PUCSORTHOREF
  2

  9
$PUCSORTHOVIEW
 70
     0
  9
$PUCSORGTOP
 10
0.0
 20
0.0
 30
0.0
  9
$PUCSORGBOTTOM
 10
0.0
 20
0.0
 30
0.0
  9
$PUCSORGLEFT
 10
0.0
 20
0.0
 30
0.0
  9
$PUCSORGRIGHT
 10
0.0
 20
0.0
 30
0.0
  9
$PUCSORGFRONT
 10
0.0
 20
0.0
 30
0.0
  9
$PUCSORGBACK
 10
0.0
 20
0.0
 30
0.0
  9
$USERI1
 70
     0
  9
$USERI2
 70
     0
  9
$USERI3
 70
     0
  9
$USERI4
 70
     0
  9
$USERI5
 70
     0
  9
$USERR1
 40
0.0
  9
$USERR2
 40
0.0
  9
$USERR3
 40
0.0
  9
$USERR4
 40
0.0
  9
$USERR5
 40
0.0
  9
$WORLDVIEW
 70
     1
  9
$SHADEDGE
 70
     3
  9
$SHADEDIF
 70
    70
  9
$TILEMODE
 70
     0
  9
$MAXACTVP
 70
    64
  9
$PINSBASE
 10
0.0
 20
0.0
 30
0.0
  9
$PLIMCHECK
 70
     0
  9
$PEXTMIN
 10
-3.0
 20
0.0
 30
0.0
  9
$PEXTMAX
 10
1189.0
 20
841.0
 30
0.0
  9
$PLIMMIN
 10
-27.54280155642023
 20
-65.44747081712062
  9
$PLIMMAX
 10
1346.854085603113
 20
906.4474708171206
  9
$UNITMODE
 70
     0
  9
$VISRETAIN
 70
     1
  9
$PLINEGEN
 70
     0
  9
$PSLTSCALE
 70
     1
  9
$TREEDEPTH
 70
  3020
  9
$CMLSTYLE
  2
STANDARD
  9
$CMLJUST
 70
     0
  9
$CMLSCALE
 40
1.0
  9
$PROXYGRAPHICS
 70
     1
  9
$MEASUREMENT
 70
     1
  9
$CELWEIGHT
370
    -1
  9
$ENDCAPS
280
     0
  9
$JOINSTYLE
280
     0
  9
$LWDISPLAY
290
     0
  9
$INSUNITS
 70
     0
  9
$HYPERLINKBASE
  1

  9
$STYLESHEET
  1

  9
$XEDIT
290
     1
  9
$CEPSNTYPE
380
     0
  9
$PSTYLEMODE
290
     1
  9
$FINGERPRINTGUID
  2
{0E1108CD-CAF7-410B-A120-3BEC7D39AF5F}
  9
$VERSIONGUID
  2
{FAEB1C32-E019-11D5-929B-00C0DF256EC4}
  9
$EXTNAMES
290
     1
  9
$PSVPSCALE
 40
0.0
  9
$OLESTARTUP
290
     0
  9
$SORTENTS
280
   127
  9
$INDEXCTL
280
     0
  9
$HIDETEXT
280
     1
  9
$XCLIPFRAME
280
     2
  9
$HALOGAP
280
     0
  9
$OBSCOLOR
 70
   257
  9
$OBSLTYPE
280
     0
  9
$INTERSECTIONDISPLAY
280
     0
  9
$INTERSECTIONCOLOR
 70
   257
  9
$DIMASSOC
280
     2
  9
$PROJECTNAME
  1

  9
$CAMERADISPLAY
290
     0
  9
$LENSLENGTH
 40
50.0
  9
$CAMERAHEIGHT
 40
0.0
  9
$STEPSPERSEC
 40
2.0
  9
$STEPSIZE
 40
6.0
  9
$3DDWFPREC
 40
2.0
  9
$PSOLWIDTH
 40
0.25
  9
$PSOLHEIGHT
 40
4.0
  9
$LOFTANG1
 40
1.570796326794897
  9
$LOFTANG2
 40
1.570796326794897
  9
$LOFTMAG1
 40
0.0
  9
$LOFTMAG2
 40
0.0
  9
$LOFTPARAM
 70
     7
  9
$LOFTNORMALS
280
     1
  9
$LATITUDE
 40
37.795
  9
$LONGITUDE
 40
-122.394
  9
$NORTHDIRECTION
 40
0.0
  9
$TIMEZONE
 70
 -8000
  9
$LIGHTGLYPHDISPLAY
280
     1
  9
$TILEMODELIGHTSYNCH
280
     1
  9
$SOLIDHIST
280
     0
  9
$SHOWHIST
280
     1
  9
$DWFFRAME
280
     2
  9
$DGNFRAME
280
     2
  9
$REALWORLDSCALE
290
     1
  9
$INTERFERECOLOR
 62
   256
  9
$CSHADOW
280
     0
  9
$SHADOWPLANELOCATION
 40
0.0
  0
ENDSEC
  0
SECTION
  2
CLASSES
  0
CLASS
  1
ACDBDICTIONARYWDFLT
  2
AcDbDictionaryWithDefault
  3
ObjectDBX Classes
 90
        0
 91
        4
280
     0
281
     0
  0
CLASS
  1
SCALE
  2
AcDbScale
  3
ObjectDBX Classes
 90
     1153
 91
        4
280
     0
281
     0
  0
CLASS
  1
VISUALSTYLE
  2
AcDbVisualStyle
  3
ObjectDBX Classes
 90
     4095
 91
        4
280
     0
281
     0
  0
CLASS
  1
MATERIAL
  2
AcDbMaterial
  3
ObjectDBX Classes
 90
     1153
 91
        4
280
     0
281
     0
  0
CLASS
  1
TABLESTYLE
  2
AcDbTableStyle
  3
ObjectDBX Classes
 90
     4095
 91
        4
280
     0
281
     0
  0
CLASS
  1
MLEADERSTYLE
  2
AcDbMLeaderStyle
  3
ACDB_MLEADERSTYLE_CLASS
 90
     4095
 91
        4
280
     0
281
     0
  0
CLASS
  1
DICTIONARYVAR
  2
AcDbDictionaryVar
  3
ObjectDBX Classes
 90
        0
 91
        4
280
     0
281
     0
  0
CLASS
  1
CELLSTYLEMAP
  2
AcDbCellStyleMap
  3
ObjectDBX Classes
 90
     1152
 91
        4
280
     0
281
     0
  0
ENDSEC
  0
SECTION
  2
TABLES
  0
TABLE
  2
VPORT
  5
8
330
0
100
AcDbSymbolTable
 70
     1
  0
VPORT
  5
1F4
330
8
100
AcDbSymbolTableRecord
100
AcDbViewportTableRecord
  2
*ACTIVE
 70
     0
 10
0.0
 20
0.0
 11
1.0
 21
1.0
 12
594.5
 22
420.5
 13
0.0
 23
0.0
 14
1.0
 24
1.0
 15
0.0
 25
0.0
 16
0.0
 26
0.0
 36
1.0
 17
0.0
 27
0.0
 37
0.0
 40
841.0
 41
1.4137931034
 42
50.0
 43
0.0
 44
0.0
 50
0.0
 51
0.0
 71
     0
 72
   100
 73
     1
 74
     1
 75
     0
 76
     0
 77
     0
 78
     0
281
     0
 65
     1
110
0.0
120
0.0
130
0.0
111
1.0
121
0.0
131
0.0
112
0.0
122
1.0
132
0.0
 79
     0
146
0.0
348
4C9
 60
     3
 61
     5
292
     1
282
     1
141
0.0
142
0.0
 63
   256
  0
ENDTAB
  0
TABLE
  2
LTYPE
  5
5
330
0
100
AcDbSymbolTable
 70
     6
  0
LTYPE
  5
14
330
5
100
AcDbSymbolTableRecord
100
AcDbLinetypeTableRecord
  2
BYBLOCK
 70
     0
  3

 72
    65
 73
     0
 40
0.0
  0
LTYPE
  5
15
330
5
100
AcDbSymbolTableRecord
100
AcDbLinetypeTableRecord
  2
BYLAYER
 70
     0
  3

 72
    65
 73
     0
 40
0.0
  0
LTYPE
  5
16
330
5
100
AcDbSymbolTableRecord
100
AcDbLinetypeTableRecord
  2
CONTINUOUS
 70
     0
  3
Solid line
 72
    65
 73
     0
 40
0.0
  0
LTYPE
  5
1F5
330
5
100
AcDbSymbolTableRecord
100
AcDbLinetypeTableRecord
  2
CENTER
 70
     0
  3
____ _ ____ _ ____ _ ____ _ ____ _ ____ _ ____
 72
    65
 73
     4
 40
0.6
 49
0.375
 74
     0
 49
-0.075
 74
     0
 49
0.075
 74
     0
 49
-0.075
 74
     0
  0
LTYPE
  5
1F6
330
5
100
AcDbSymbolTableRecord
100
AcDbLinetypeTableRecord
  2
HIDDEN
 70
     0
  3
- - - - - - - - - - - - - - - - - - - -
 72
    65
 73
     2
 40
0.2
 49
0.1
 74
     0
 49
-0.1
 74
     0
  0
LTYPE
  5
1F7
330
5
100
AcDbSymbolTableRecord
100
AcDbLinetypeTableRecord
  2
PHANTOM
 70
     0
  3
_____ _ _ _____ _ _ _____ _ _ _____
 72
    65
 73
     6
 40
0.8
 49
0.45
 74
     0
 49
-0.05
 74
     0
 49
0.1
 74
     0
 49
-0.05
 74
     0
 49
0.1
 74
     0
 49
-0.05
 74
     0
  0
LTYPE
  5
1F8
330
5
100
AcDbSymbolTableRecord
100
AcDbLinetypeTableRecord
  2
DOT
 70
     0
  3
. . . . . . . . . . . . . . . . . . . .
 72
    65
 73
     2
 40
0.2
 49
0.1
 74
     0
 49
-0.1
 74
     0
  0
LTYPE
  5
1F9
330
5
100
AcDbSymbolTableRecord
100
AcDbLinetypeTableRecord
  2
DASHED
 70
     0
  3
- - - - - - - - - - - - - - - - - - - -
 72
    65
 73
     2
 40
0.2
 49
0.1
 74
     0
 49
-0.1
 74
     0
  0
ENDTAB
  0
TABLE
  2
LAYER
  5
2
330
0
100
AcDbSymbolTable
 70
    40
  0
LAYER
  5
10
330
2
100
AcDbSymbolTableRecord
100
AcDbLayerTableRecord
  2
0
 70
     0
 62
     7
  6
CONTINUOUS
370
    -3
390
49E
347
4E0
348
0
  0
LAYER
  5
1FA
330
2
100
AcDbSymbolTableRecord
100
AcDbLayerTableRecord
  2
DEFAULT_1
 70
     0
 62
     7
  6
CENTER
370
    -3
390
49E
347
4E0
348
0
  0
LAYER
  5
1FB
330
2
100
AcDbSymbolTableRecord
100
AcDbLayerTableRecord
  2
DEFAULT_2
 70
     0
 62
     8
  6
HIDDEN
370
    -3
390
49E
347
4E0
348
0
  0
LAYER
  5
1FC
330
2
100
AcDbSymbolTableRecord
100
AcDbLayerTableRecord
  2
DEFAULT_3
 70
     0
 62
     7
  6
PHANTOM
370
    -3
390
49E
347
4E0
348
0
  0
LAYER
  5
1FD
330
2
100
AcDbSymbolTableRecord
100
AcDbLayerTableRecord
  2
01_ALL_DTM_PLN
 70
     0
 62
     7
  6
CONTINUOUS
370
    -3
390
49E
347
4E0
348
0
  0
LAYER
  5
1FE
330
2
100
AcDbSymbolTableRecord
100
AcDbLayerTableRecord
  2
01__ASM_ALL_DTM_PLN
 70
     0
 62
     7
  6
CONTINUOUS
370
    -3
390
49E
347
4E0
348
0
  0
LAYER
  5
1FF
330
2
100
AcDbSymbolTableRecord
100
AcDbLayerTableRecord
  2
01__ASM_DEF_DTM_PLN
 70
     0
 62
     7
  6
CONTINUOUS
370
    -3
390
49E
347
4E0
348
0
  0
LAYER
  5
200
330
2
100
AcDbSymbolTableRecord
100
AcDbLayerTableRecord
  2
01___PRT_ALL_DTM_PLN
 70
     0
 62
     7
  6
CONTINUOUS
370
    -3
390
49E
347
4E0
348
0
  0
LAYER
  5
201
330
2
100
AcDbSymbolTableRecord
100
AcDbLayerTableRecord
  2
01___PRT_DEF_DTM_PLN
 70
     0
 62
     7
  6
CONTINUOUS
370
    -3
390
49E
347
4E0
348
0
  0
LAYER
  5
202
330
2
100
AcDbSymbolTableRecord
100
AcDbLayerTableRecord
  2
02_ALL_AXES
 70
     0
 62
     7
  6
CONTINUOUS
370
    -3
390
49E
347
4E0
348
0
  0
LAYER
  5
203
330
2
100
AcDbSymbolTableRecord
100
AcDbLayerTableRecord
  2
02__ASM_ALL_AXES
 70
     0
 62
     7
  6
CONTINUOUS
370
    -3
390
49E
347
4E0
348
0
  0
LAYER
  5
204
330
2
100
AcDbSymbolTableRecord
100
AcDbLayerTableRecord
  2
02___PRT_ALL_AXES
 70
     0
 62
     7
  6
CONTINUOUS
370
    -3
390
49E
347
4E0
348
0
  0
LAYER
  5
205
330
2
100
AcDbSymbolTableRecord
100
AcDbLayerTableRecord
  2
03_ALL_CURVES
 70
     0
 62
     7
  6
CONTINUOUS
370
    -3
390
49E
347
4E0
348
0
  0
LAYER
  5
206
330
2
100
AcDbSymbolTableRecord
100
AcDbLayerTableRecord
  2
03__ASM_ALL_CURVES
 70
     0
 62
     7
  6
CONTINUOUS
370
    -3
390
49E
347
4E0
348
0
  0
LAYER
  5
207
330
2
100
AcDbSymbolTableRecord
100
AcDbLayerTableRecord
  2
03___PRT_ALL_CURVES
 70
     0
 62
     7
  6
CONTINUOUS
370
    -3
390
49E
347
4E0
348
0
  0
LAYER
  5
208
330
2
100
AcDbSymbolTableRecord
100
AcDbLayerTableRecord
  2
04_ALL_DTM_PNT
 70
     0
 62
     7
  6
CONTINUOUS
370
    -3
390
49E
347
4E0
348
0
  0
LAYER
  5
209
330
2
100
AcDbSymbolTableRecord
100
AcDbLayerTableRecord
  2
04__ASM_ALL_DTM_PNT
 70
     0
 62
     7
  6
CONTINUOUS
370
    -3
390
49E
347
4E0
348
0
  0
LAYER
  5
20A
330
2
100
AcDbSymbolTableRecord
100
AcDbLayerTableRecord
  2
04___PRT_ALL_DTM_PNT
 70
     0
 62
     7
  6
CONTINUOUS
370
    -3
390
49E
347
4E0
348
0
  0
LAYER
  5
20B
330
2
100
AcDbSymbolTableRecord
100
AcDbLayerTableRecord
  2
05_ALL_DTM_CSYS
 70
     0
 62
     7
  6
CONTINUOUS
370
    -3
390
49E
347
4E0
348
0
  0
LAYER
  5
20C
330
2
100
AcDbSymbolTableRecord
100
AcDbLayerTableRecord
  2
05__ASM_ALL_DTM_CSYS
 70
     0
 62
     7
  6
CONTINUOUS
370
    -3
390
49E
347
4E0
348
0
  0
LAYER
  5
20D
330
2
100
AcDbSymbolTableRecord
100
AcDbLayerTableRecord
  2
05__ASM_DEF_DTM_CSYS
 70
     0
 62
     7
  6
CONTINUOUS
370
    -3
390
49E
347
4E0
348
0
  0
LAYER
  5
20E
330
2
100
AcDbSymbolTableRecord
100
AcDbLayerTableRecord
  2
05___PRT_ALL_DTM_CSYS
 70
     0
 62
     7
  6
CONTINUOUS
370
    -3
390
49E
347
4E0
348
0
  0
LAYER
  5
20F
330
2
100
AcDbSymbolTableRecord
100
AcDbLayerTableRecord
  2
05___PRT_DEF_DTM_CSYS
 70
     0
 62
     7
  6
CONTINUOUS
370
    -3
390
49E
347
4E0
348
0
  0
LAYER
  5
210
330
2
100
AcDbSymbolTableRecord
100
AcDbLayerTableRecord
  2
06_ALL_SURFS
 70
     0
 62
     7
  6
CONTINUOUS
370
    -3
390
49E
347
4E0
348
0
  0
LAYER
  5
211
330
2
100
AcDbSymbolTableRecord
100
AcDbLayerTableRecord
  2
06__ASM_ALL_SURFS
 70
     0
 62
     7
  6
CONTINUOUS
370
    -3
390
49E
347
4E0
348
0
  0
LAYER
  5
212
330
2
100
AcDbSymbolTableRecord
100
AcDbLayerTableRecord
  2
06___PRT_ALL_SURFS
 70
     0
 62
     7
  6
CONTINUOUS
370
    -3
390
49E
347
4E0
348
0
  0
LAYER
  5
213
330
2
100
AcDbSymbolTableRecord
100
AcDbLayerTableRecord
  2
07__ASM_ALL_SKELETONS
 70
     0
 62
     7
  6
CONTINUOUS
370
    -3
390
49E
347
4E0
348
0
  0
LAYER
  5
214
330
2
100
AcDbSymbolTableRecord
100
AcDbLayerTableRecord
  2
1_ALL_PLANES
 70
     0
 62
     7
  6
CONTINUOUS
370
    -3
390
49E
347
4E0
348
0
  0
LAYER
  5
215
330
2
100
AcDbSymbolTableRecord
100
AcDbLayerTableRecord
  2
2_ALL_CSYS
 70
     0
 62
     7
  6
CONTINUOUS
370
    -3
390
49E
347
4E0
348
0
  0
LAYER
  5
216
330
2
100
AcDbSymbolTableRecord
100
AcDbLayerTableRecord
  2
3_ALL_AXES
 70
     0
 62
     7
  6
CONTINUOUS
370
    -3
390
49E
347
4E0
348
0
  0
LAYER
  5
217
330
2
100
AcDbSymbolTableRecord
100
AcDbLayerTableRecord
  2
4_ALL_POINTS
 70
     0
 62
     7
  6
CONTINUOUS
370
    -3
390
49E
347
4E0
348
0
  0
LAYER
  5
218
330
2
100
AcDbSymbolTableRecord
100
AcDbLayerTableRecord
  2
5_ALL_CURVES
 70
     0
 62
     7
  6
CONTINUOUS
370
    -3
390
49E
347
4E0
348
0
  0
LAYER
  5
219
330
2
100
AcDbSymbolTableRecord
100
AcDbLayerTableRecord
  2
5__COSTRUZIONE
 70
     0
 62
     7
  6
CONTINUOUS
370
    -3
390
49E
347
4E0
348
0
  0
LAYER
  5
21A
330
2
100
AcDbSymbolTableRecord
100
AcDbLayerTableRecord
  2
6_ALL_SURFS
 70
     0
 62
     7
  6
CONTINUOUS
370
    -3
390
49E
347
4E0
348
0
  0
LAYER
  5
21B
330
2
100
AcDbSymbolTableRecord
100
AcDbLayerTableRecord
  2
7_ALL_FEATURES
 70
     0
 62
     7
  6
CONTINUOUS
370
    -3
390
49E
347
4E0
348
0
  0
LAYER
  5
21C
330
2
100
AcDbSymbolTableRecord
100
AcDbLayerTableRecord
  2
8_ALL_NOTES_BALLOONS_SYMBOLS_GT
 70
     0
 62
     7
  6
CONTINUOUS
370
    -3
390
49E
347
4E0
348
0
  0
LAYER
  5
21D
330
2
100
AcDbSymbolTableRecord
100
AcDbLayerTableRecord
  2
9_SOLID
 70
     0
 62
     7
  6
CONTINUOUS
370
    -3
390
49E
347
4E0
348
0
  0
LAYER
  5
21E
330
2
100
AcDbSymbolTableRecord
100
AcDbLayerTableRecord
  2
INTFCLR_4
 70
     0
 62
     7
  6
CONTINUOUS
370
    -3
390
49E
347
4E0
348
0
  0
LAYER
  5
21F
330
2
100
AcDbSymbolTableRecord
100
AcDbLayerTableRecord
  2
INTF_RED
 70
     0
 62
     7
  6
CONTINUOUS
370
    -3
390
49E
347
4E0
348
0
  0
LAYER
  5
220
330
2
100
AcDbSymbolTableRecord
100
AcDbLayerTableRecord
  2
XXX_SOLIDO
 70
     0
 62
     7
  6
CONTINUOUS
370
    -3
390
49E
347
4E0
348
0
  0
ENDTAB
  0
TABLE
  2
STYLE
  5
3
330
0
100
AcDbSymbolTable
 70
     4
  0
STYLE
  5
11
330
3
100
AcDbSymbolTableRecord
100
AcDbTextStyleTableRecord
  2
STANDARD
 70
     0
 40
0.0
 41
0.85
 50
0.0
 71
     0
 42
0.2
  3
txt
  4

  0
STYLE
  5
221
330
3
100
AcDbSymbolTableRecord
100
AcDbTextStyleTableRecord
  2
TEXTSTYLE_1
 70
     0
 40
0.0
 41
0.8
 50
0.0
 71
     0
 42
0.2
  3
gdt
  4

  0
STYLE
  5
222
330
3
100
AcDbSymbolTableRecord
100
AcDbTextStyleTableRecord
  2
TEXTSTYLE_2
 70
     0
 40
0.0
 41
0.9
 50
0.0
 71
     0
 42
0.2
  3
txt
  4

  0
STYLE
  5
223
330
3
100
AcDbSymbolTableRecord
100
AcDbTextStyleTableRecord
  2
TEXTSTYLE_3
 70
     0
 40
0.0
 41
2.0
 50
0.0
 71
     0
 42
0.2
  3
txt
  4

  0
ENDTAB
  0
TABLE
  2
VIEW
  5
6
330
0
100
AcDbSymbolTable
 70
     0
  0
ENDTAB
  0
TABLE
  2
UCS
  5
7
330
0
100
AcDbSymbolTable
 70
     0
  0
ENDTAB
  0
TABLE
  2
APPID
  5
9
330
0
100
AcDbSymbolTable
 70
     1
  0
APPID
  5
224
330
9
100
AcDbSymbolTableRecord
100
AcDbRegAppTableRecord
  2
ACAD
 70
     0
  0
ENDTAB
  0
TABLE
  2
DIMSTYLE
  5
A
330
0
100
AcDbSymbolTable
 70
     3
100
AcDbDimStyleTable
  0
DIMSTYLE
105
22B
330
A
100
AcDbSymbolTableRecord
100
AcDbDimStyleTableRecord
  2
STANDARD
 70
     0
 41
2.5
 42
0.75
 44
0.75
 47
0.01
 48
0.01
 71
     1
 73
     0
 74
     0
 77
     1
 78
     8
 79
     2
140
3.0
147
0.625
171
     1
178
     0
179
     2
271
     2
272
     2
284
     8
340
11
341
225
342
225
343
225
344
225
  0
DIMSTYLE
105
22C
330
A
100
AcDbSymbolTableRecord
100
AcDbDimStyleTableRecord
  2
DIMSTYLE_1
 70
     0
 41
2.5
 42
0.75
 44
0.75
 47
0.8
 48
0.8
 73
     0
 74
     0
 77
     1
 78
     8
 79
     2
140
3.0
147
0.75
171
     1
178
     0
179
     2
271
     2
272
     2
284
     8
340
11
341
225
342
225
343
225
344
225
  0
DIMSTYLE
105
22D
330
A
100
AcDbSymbolTableRecord
100
AcDbDimStyleTableRecord
  2
DIMSTYLE_2
 70
     0
 41
2.5
 42
0.75
 44
0.75
 47
0.3
 48
0.3
 73
     0
 74
     0
 77
     1
 78
     8
 79
     2
140
3.0
147
0.75
171
     1
178
     0
179
     2
271
     2
272
     2
284
     8
340
11
341
225
342
225
343
225
344
225
  0
ENDTAB
  0
TABLE
  2
BLOCK_RECORD
  5
1
330
0
100
AcDbSymbolTable
 70
     6
  0
BLOCK_RECORD
  5
1F
330
1
100
AcDbSymbolTableRecord
100
AcDbBlockTableRecord
  2
*MODEL_SPACE
340
4C2
 70
     0
280
     1
281
     0
  0
BLOCK_RECORD
  5
1B
330
1
100
AcDbSymbolTableRecord
100
AcDbBlockTableRecord
  2
*PAPER_SPACE
340
4C3
 70
     0
280
     1
281
     0
  0
BLOCK_RECORD
  5
225
330
1
100
AcDbSymbolTableRecord
100
AcDbBlockTableRecord
  2
_CLOSED
340
0
102
{BLKREFS
331
280
331
281
331
289
331
28A
331
292
331
293
102
}
 70
     0
280
     1
281
     0
  0
BLOCK_RECORD
  5
226
330
1
100
AcDbSymbolTableRecord
100
AcDbBlockTableRecord
  2
*D1
340
0
 70
     0
280
     1
281
     0
  0
BLOCK_RECORD
  5
227
330
1
100
AcDbSymbolTableRecord
100
AcDbBlockTableRecord
  2
*D2
340
0
 70
     0
280
     1
281
     0
  0
BLOCK_RECORD
  5
228
330
1
100
AcDbSymbolTableRecord
100
AcDbBlockTableRecord
  2
*D3
340
0
 70
     0
280
     1
281
     0
  0
BLOCK_RECORD
  5
229
330
1
100
AcDbSymbolTableRecord
100
AcDbBlockTableRecord
  2
LOGO2_BL1
340
0
102
{BLKREFS
331
486
102
}
 70
     0
280
     1
281
     0
  0
BLOCK_RECORD
  5
22A
330
1
100
AcDbSymbolTableRecord
100
AcDbBlockTableRecord
  2
PROIEZIONE_EU_BL0
340
0
102
{BLKREFS
331
483
102
}
 70
     0
280
     1
281
     0
  0
ENDTAB
  0
ENDSEC
  0
SECTION
  2
BLOCKS
  0
BLOCK
  5
20
330
1F
100
AcDbEntity
  8
0
100
AcDbBlockBegin
  2
*MODEL_SPACE
 70
     0
 10
0.0
 20
0.0
 30
0.0
  3
*MODEL_SPACE
  1

  0
ENDBLK
  5
21
330
1F
100
AcDbEntity
  8
0
100
AcDbBlockEnd
  0
BLOCK
  5
1C
330
1B
100
AcDbEntity
 67
     1
  8
0
100
AcDbBlockBegin
  2
*PAPER_SPACE
 70
     0
 10
0.0
 20
0.0
 30
0.0
  3
*PAPER_SPACE
  1

  0
ENDBLK
  5
1D
330
1B
100
AcDbEntity
 67
     1
  8
0
100
AcDbBlockEnd
  0
BLOCK
  5
274
330
225
100
AcDbEntity
  8
0
100
AcDbBlockBegin
  2
_CLOSED
 70
     0
 10
0.0
 20
0.0
 30
0.0
  3
_CLOSED
  1

  0
LINE
  5
275
330
225
100
AcDbEntity
  8
0
  6
ByBlock
 62
     0
100
AcDbLine
 10
0.0
 20
0.0
 30
0.0
 11
-1.0
 21
0.2
 31
0.0
  0
LINE
  5
276
330
225
100
AcDbEntity
  8
0
  6
ByBlock
 62
     0
100
AcDbLine
 10
-1.0
 20
0.2
 30
0.0
 11
-1.0
 21
-0.2
 31
0.0
  0
LINE
  5
277
330
225
100
AcDbEntity
  8
0
  6
ByBlock
 62
     0
100
AcDbLine
 10
-1.0
 20
-0.2
 30
0.0
 11
0.0
 21
0.0
 31
0.0
  0
LINE
  5
278
330
225
100
AcDbEntity
  8
0
  6
ByBlock
 62
     0
100
AcDbLine
 10
-1.0
 20
0.0
 30
0.0
 11
0.0
 21
0.0
 31
0.0
  0
ENDBLK
  5
279
330
225
100
AcDbEntity
  8
0
  6
ByBlock
 62
     0
100
AcDbBlockEnd
  0
BLOCK
  5
27A
330
226
100
AcDbEntity
  8
0
100
AcDbBlockBegin
  2
*D1
 70
     1
 10
0.0
 20
0.0
 30
0.0
  3
*D1
  1

  0
MTEXT
  5
27B
330
226
100
AcDbEntity
  8
0
  6
Continuous
 62
     2
100
AcDbMText
 10
570.5117449168
 20
459.0240691838
 30
0.0
 40
3.0
 41
15.4285714286
 46
0.0
 71
     2
 72
     1
  1
921,5
 73
     1
 44
1.0
  0
LINE
  5
27C
330
226
100
AcDbEntity
  8
0
  6
Continuous
 62
     2
100
AcDbLine
 10
109.7617449168
 20
445.4829611963
 30
0.0
 11
109.7617449168
 21
456.0240691838
 31
0.0
  0
LINE
  5
27D
330
226
100
AcDbEntity
  8
0
  6
Continuous
 62
     2
100
AcDbLine
 10
1031.2617449168
 20
445.4829611963
 30
0.0
 11
1031.2617449168
 21
456.0240691838
 31
0.0
  0
LINE
  5
27E
330
226
100
AcDbEntity
  8
0
  6
Continuous
 62
     2
100
AcDbLine
 10
109.7617449168
 20
455.2740691838
 30
0.0
 11
570.5117449168
 21
455.2740691838
 31
0.0
  0
LINE
  5
27F
330
226
100
AcDbEntity
  8
0
  6
Continuous
 62
     2
100
AcDbLine
 10
1031.2617449168
 20
455.2740691838
 30
0.0
 11
570.5117449168
 21
455.2740691838
 31
0.0
  0
INSERT
  5
280
330
226
100
AcDbEntity
  8
0
  6
Continuous
 62
     2
100
AcDbBlockReference
  2
_CLOSED
 10
109.7617449168
 20
455.2740691838
 30
0.0
 41
2.5
 42
2.5
 43
2.5
 50
180.0
  0
INSERT
  5
281
330
226
100
AcDbEntity
  8
0
  6
Continuous
 62
     2
100
AcDbBlockReference
  2
_CLOSED
 10
1031.2617449168
 20
455.2740691838
 30
0.0
 41
2.5
 42
2.5
 43
2.5
  0
ENDBLK
  5
282
330
226
100
AcDbEntity
  8
0
  6
ByBlock
 62
     0
100
AcDbBlockEnd
  0
BLOCK
  5
283
330
227
100
AcDbEntity
  8
0
100
AcDbBlockBegin
  2
*D2
 70
     1
 10
0.0
 20
0.0
 30
0.0
  3
*D2
  1

  0
MTEXT
  5
284
330
227
100
AcDbEntity
  8
0
  6
Continuous
 62
     2
100
AcDbMText
 10
1121.1440364437
 20
458.3255532994
 30
0.0
 40
3.0
 41
13.1785714286
 46
0.0
 71
     2
 72
     1
  1
42,4
 73
     1
 44
1.0
  0
LINE
  5
285
330
227
100
AcDbEntity
  8
0
  6
Continuous
 62
     2
100
AcDbLine
 10
1142.3440364437
 20
445.4829611963
 30
0.0
 11
1142.3440364437
 21
455.3255532994
 31
0.0
  0
LINE
  5
286
330
227
100
AcDbEntity
  8
0
  6
Continuous
 62
     2
100
AcDbLine
 10
1099.9440364437
 20
444.8347364713
 30
0.0
 11
1099.9440364437
 21
455.3255532994
 31
0.0
  0
LINE
  5
287
330
227
100
AcDbEntity
  8
0
  6
Continuous
 62
     2
100
AcDbLine
 10
1142.3440364437
 20
454.5755532994
 30
0.0
 11
1121.1440364437
 21
454.5755532994
 31
0.0
  0
LINE
  5
288
330
227
100
AcDbEntity
  8
0
  6
Continuous
 62
     2
100
AcDbLine
 10
1099.9440364437
 20
454.5755532994
 30
0.0
 11
1121.1440364437
 21
454.5755532994
 31
0.0
  0
INSERT
  5
289
330
227
100
AcDbEntity
  8
0
  6
Continuous
 62
     2
100
AcDbBlockReference
  2
_CLOSED
 10
1142.3440364437
 20
454.5755532994
 30
0.0
 41
2.5
 42
2.5
 43
2.5
  0
INSERT
  5
28A
330
227
100
AcDbEntity
  8
0
  6
Continuous
 62
     2
100
AcDbBlockReference
  2
_CLOSED
 10
1099.9440364437
 20
454.5755532994
 30
0.0
 41
2.5
 42
2.5
 43
2.5
 50
180.0
  0
ENDBLK
  5
28B
330
227
100
AcDbEntity
  8
0
  6
ByBlock
 62
     0
100
AcDbBlockEnd
  0
BLOCK
  5
28C
330
228
100
AcDbEntity
  8
0
100
AcDbBlockBegin
  2
*D3
 70
     1
 10
0.0
 20
0.0
 30
0.0
  3
*D3
  1

  0
MTEXT
  5
28D
330
228
100
AcDbEntity
  8
0
  6
Continuous
 62
     2
100
AcDbMText
 10
1081.2834316955
 20
395.2540342878
 30
0.0
 40
3.0
 41
12.5357142857
 46
0.0
 71
     2
 72
     1
  1
83,5
 11
0.0
 21
1.0
 31
0.0
 73
     1
 44
1.0
  0
LINE
  5
28E
330
228
100
AcDbEntity
  8
0
  6
Continuous
 62
     2
100
AcDbLine
 10
1091.1709286643
 20
353.5040342878
 30
0.0
 11
1084.2834316955
 21
353.5040342878
 31
0.0
  0
LINE
  5
28F
330
228
100
AcDbEntity
  8
0
  6
Continuous
 62
     2
100
AcDbLine
 10
1093.9552630883
 20
437.0040342878
 30
0.0
 11
1084.2834316955
 21
437.0040342878
 31
0.0
  0
LINE
  5
290
330
228
100
AcDbEntity
  8
0
  6
Continuous
 62
     2
100
AcDbLine
 10
1085.0334316955
 20
353.5040342878
 30
0.0
 11
1085.0334316955
 21
395.2540342878
 31
0.0
  0
LINE
  5
291
330
228
100
AcDbEntity
  8
0
  6
Continuous
 62
     2
100
AcDbLine
 10
1085.0334316955
 20
437.0040342878
 30
0.0
 11
1085.0334316955
 21
395.2540342878
 31
0.0
  0
INSERT
  5
292
330
228
100
AcDbEntity
  8
0
  6
Continuous
 62
     2
100
AcDbBlockReference
  2
_CLOSED
 10
1085.0334316955
 20
353.5040342878
 30
0.0
 41
2.5
 42
2.5
 43
2.5
 50
270.0
  0
INSERT
  5
293
330
228
100
AcDbEntity
  8
0
  6
Continuous
 62
     2
100
AcDbBlockReference
  2
_CLOSED
 10
1085.0334316955
 20
437.0040342878
 30
0.0
 41
2.5
 42
2.5
 43
2.5
 50
90.0
  0
ENDBLK
  5
294
330
228
100
AcDbEntity
  8
0
  6
ByBlock
 62
     0
100
AcDbBlockEnd
  0
BLOCK
  5
22E
330
229
100
AcDbEntity
  8
0
100
AcDbBlockBegin
  2
LOGO2_BL1
 70
     0
 10
1062.8268200977
 20
41.9871519533
 30
0.0
  3
LOGO2_BL1
  1

  0
LINE
  5
22F
330
229
100
AcDbEntity
  8
0
  6
Continuous
 62
     7
100
AcDbLine
 10
1054.5697453259
 20
45.1826432921
 30
0.0
 11
1053.2654043965
 21
45.1826432921
 31
0.0
  0
LINE
  5
230
330
229
100
AcDbEntity
  8
0
  6
Continuous
 62
     7
100
AcDbLine
 10
1053.2654043965
 20
45.1826432921
 30
0.0
 11
1053.2654043965
 21
34.7235772323
 31
0.0
  0
LINE
  5
231
330
229
100
AcDbEntity
  8
0
  6
Continuous
 62
     7
100
AcDbLine
 10
1053.2654043965
 20
34.7235772323
 30
0.0
 11
1057.7464592848
 21
34.7235772323
 31
0.0
  0
LINE
  5
232
330
229
100
AcDbEntity
  8
0
  6
Continuous
 62
     7
100
AcDbLine
 10
1057.7464592848
 20
34.7235772323
 30
0.0
 11
1057.7464592848
 21
35.9164315573
 31
0.0
  0
LINE
  5
233
330
229
100
AcDbEntity
  8
0
  6
Continuous
 62
     7
100
AcDbLine
 10
1057.7464592848
 20
35.9164315573
 30
0.0
 11
1054.5697453259
 21
35.9164315573
 31
0.0
  0
LINE
  5
234
330
229
100
AcDbEntity
  8
0
  6
Continuous
 62
     7
100
AcDbLine
 10
1054.5697453259
 20
35.9164315573
 30
0.0
 11
1054.5697453259
 21
45.1826432921
 31
0.0
  0
LINE
  5
235
330
229
100
AcDbEntity
  8
0
  6
Continuous
 62
     7
100
AcDbLine
 10
1069.5060715422
 20
45.1826432921
 30
0.0
 11
1068.2022540241
 21
45.1826432921
 31
0.0
  0
LINE
  5
236
330
229
100
AcDbEntity
  8
0
  6
Continuous
 62
     7
100
AcDbLine
 10
1068.2022540241
 20
45.1826432921
 30
0.0
 11
1068.2022540241
 21
34.7235772323
 31
0.0
  0
LINE
  5
237
330
229
100
AcDbEntity
  8
0
  6
Continuous
 62
     7
100
AcDbLine
 10
1068.2022540241
 20
34.7235772323
 30
0.0
 11
1072.6834397652
 21
34.7235772323
 31
0.0
  0
LINE
  5
238
330
229
100
AcDbEntity
  8
0
  6
Continuous
 62
     7
100
AcDbLine
 10
1072.6834397652
 20
34.7235772323
 30
0.0
 11
1072.6834397652
 21
35.9164315573
 31
0.0
  0
LINE
  5
239
330
229
100
AcDbEntity
  8
0
  6
Continuous
 62
     7
100
AcDbLine
 10
1072.6834397652
 20
35.9164315573
 30
0.0
 11
1069.5060715422
 21
35.9164315573
 31
0.0
  0
LINE
  5
23A
330
229
100
AcDbEntity
  8
0
  6
Continuous
 62
     7
100
AcDbLine
 10
1069.5060715422
 20
35.9164315573
 30
0.0
 11
1069.5060715422
 21
45.1826432921
 31
0.0
  0
LWPOLYLINE
  5
23B
330
229
100
AcDbEntity
  8
0
  6
Continuous
 62
     7
100
AcDbPolyline
 90
        2
 70
     0
 43
0.2
 10
1051.6197993074
 20
31.3800259254
 10
1051.6197993074
 20
29.522962676
  0
LWPOLYLINE
  5
23C
330
229
100
AcDbEntity
  8
0
  6
Continuous
 62
     7
100
AcDbPolyline
 90
        2
 70
     0
 43
0.2
 10
1051.6197993074
 20
29.522962676
 10
1052.4155153178
 20
29.522962676
  0
LWPOLYLINE
  5
23D
330
229
100
AcDbEntity
  8
0
  6
Continuous
 62
     7
100
AcDbPolyline
 90
        2
 70
     0
 43
0.2
 10
1052.4155153178
 20
29.522962676
 10
1052.4155153178
 20
29.7349442476
  0
LWPOLYLINE
  5
23E
330
229
100
AcDbEntity
  8
0
  6
Continuous
 62
     7
100
AcDbPolyline
 90
        2
 70
     0
 43
0.2
 10
1052.4155153178
 20
29.7349442476
 10
1051.8514088023
 20
29.7349442476
  0
LWPOLYLINE
  5
23F
330
229
100
AcDbEntity
  8
0
  6
Continuous
 62
     7
100
AcDbPolyline
 90
        2
 70
     0
 43
0.2
 10
1051.8514088023
 20
29.7349442476
 10
1051.8514088023
 20
31.3800259254
  0
LWPOLYLINE
  5
240
330
229
100
AcDbEntity
  8
0
  6
Continuous
 62
     7
100
AcDbPolyline
 90
        2
 70
     0
 43
0.2
 10
1051.8514088023
 20
31.3800259254
 10
1051.6197993074
 20
31.3800259254
  0
SPLINE
  5
241
330
229
100
AcDbEntity
  8
0
  6
Continuous
 62
     7
100
AcDbSpline
 70
     3
 71
     3
 72
    35
 73
    31
 74
     0
 42
0.000000001
 43
0.0000001
 40
0.0
 40
0.0
 40
0.0
 40
0.0
 40
1.0
 40
1.0
 40
1.0
 40
2.0
 40
2.0
 40
2.0
 40
3.0
 40
3.0
 40
3.0
 40
4.0
 40
4.0
 40
4.0
 40
5.0
 40
5.0
 40
5.0
 40
6.0
 40
6.0
 40
6.0
 40
7.0
 40
7.0
 40
7.0
 40
8.0
 40
8.0
 40
8.0
 40
9.0
 40
9.0
 40
9.0
 40
10.0
 40
10.0
 40
10.0
 40
10.0
 10
1053.8138085734
 20
30.6755143319
 30
0.0
 10
1053.8138085734
 20
30.6755143319
 30
0.0
 10
1053.8138085734
 20
30.0133990527
 30
0.0
 10
1053.8138085734
 20
30.0133990527
 30
0.0
 10
1053.8138085734
 20
29.6983054574
 30
0.0
 10
1053.9616722622
 20
29.4837068294
 30
0.0
 10
1054.3017587465
 20
29.4837068294
 30
0.0
 10
1054.6413218195
 20
29.4837068294
 30
0.0
 10
1054.7894472139
 20
29.6983054574
 30
0.0
 10
1054.7894472139
 20
30.0133990527
 30
0.0
 10
1054.7894472139
 20
30.0133990527
 30
0.0
 10
1054.7894472139
 20
30.6755143319
 30
0.0
 10
1054.7894472139
 20
30.6755143319
 30
0.0
 10
1054.7894472139
 20
30.6755143319
 30
0.0
 10
1054.5673899751
 20
30.6755143319
 30
0.0
 10
1054.5673899751
 20
30.6755143319
 30
0.0
 10
1054.5673899751
 20
30.6755143319
 30
0.0
 10
1054.5673899751
 20
30.0385227945
 30
0.0
 10
1054.5673899751
 20
30.0385227945
 30
0.0
 10
1054.5673899751
 20
29.8527117873
 30
0.0
 10
1054.5206755176
 20
29.6899308768
 30
0.0
 10
1054.3017587465
 20
29.6899308768
 30
0.0
 10
1054.082318564
 20
29.6899308768
 30
0.0
 10
1054.0356041066
 20
29.8527117873
 30
0.0
 10
1054.0356041066
 20
30.0385227945
 30
0.0
 10
1054.0356041066
 20
30.0385227945
 30
0.0
 10
1054.0356041066
 20
30.6755143319
 30
0.0
 10
1054.0356041066
 20
30.6755143319
 30
0.0
 10
1054.0356041066
 20
30.6755143319
 30
0.0
 10
1053.8138085734
 20
30.6755143319
 30
0.0
 10
1053.8138085734
 20
30.6755143319
 30
0.0
  0
SPLINE
  5
242
330
229
100
AcDbEntity
  8
0
  6
Continuous
 62
     7
100
AcDbSpline
 70
     3
 71
     3
 72
    35
 73
    31
 74
     0
 42
0.000000001
 43
0.0000001
 40
0.0
 40
0.0
 40
0.0
 40
0.0
 40
1.0
 40
1.0
 40
1.0
 40
2.0
 40
2.0
 40
2.0
 40
3.0
 40
3.0
 40
3.0
 40
4.0
 40
4.0
 40
4.0
 40
5.0
 40
5.0
 40
5.0
 40
6.0
 40
6.0
 40
6.0
 40
7.0
 40
7.0
 40
7.0
 40
8.0
 40
8.0
 40
8.0
 40
9.0
 40
9.0
 40
9.0
 40
10.0
 40
10.0
 40
10.0
 40
10.0
 10
1057.2125797711
 20
30.6341648401
 30
0.0
 10
1057.1241232635
 20
30.6854591464
 30
0.0
 10
1057.0106738668
 20
30.7105828882
 30
0.0
 10
1056.9070384318
 20
30.7105828882
 30
0.0
 10
1056.5521655787
 20
30.7105828882
 30
0.0
 10
1056.2767203884
 20
30.4467835991
 30
0.0
 10
1056.2767203884
 20
30.0892936895
 30
0.0
 10
1056.2767203884
 20
29.7443656508
 30
0.0
 10
1056.5551751936
 20
29.4842302407
 30
0.0
 10
1056.8947382666
 20
29.4842302407
 30
0.0
 10
1057.0106738668
 20
29.4842302407
 30
0.0
 10
1057.1114305398
 20
29.5062135148
 30
0.0
 10
1057.2125797711
 20
29.5601248774
 30
0.0
 10
1057.2125797711
 20
29.5601248774
 30
0.0
 10
1057.2125797711
 20
29.8427669729
 30
0.0
 10
1057.2125797711
 20
29.8427669729
 30
0.0
 10
1057.1287031123
 20
29.7495997636
 30
0.0
 10
1057.0251985301
 20
29.6904542881
 30
0.0
 10
1056.8970936174
 20
29.6904542881
 30
0.0
 10
1056.6633904773
 20
29.6904542881
 30
0.0
 10
1056.4981233632
 20
29.8626566018
 30
0.0
 10
1056.4981233632
 20
30.0992385039
 30
0.0
 10
1056.4981233632
 20
30.3112200755
 30
0.0
 10
1056.665876681
 20
30.5033120182
 30
0.0
 10
1056.882699807
 20
30.5033120182
 30
0.0
 10
1057.0155154213
 20
30.5033120182
 30
0.0
 10
1057.1241232635
 20
30.4494006555
 30
0.0
 10
1057.2125797711
 20
30.348382277
 30
0.0
 10
1057.2125797711
 20
30.348382277
 30
0.0
 10
1057.2125797711
 20
30.6341648401
 30
0.0
 10
1057.2125797711
 20
30.6341648401
 30
0.0
  0
SPLINE
  5
243
330
229
100
AcDbEntity
  8
0
  6
Continuous
 62
     7
100
AcDbSpline
 70
     3
 71
     3
 72
    32
 73
    28
 74
     0
 42
0.000000001
 43
0.0000001
 40
0.0
 40
0.0
 40
0.0
 40
0.0
 40
1.0
 40
1.0
 40
1.0
 40
2.0
 40
2.0
 40
2.0
 40
3.0
 40
3.0
 40
3.0
 40
4.0
 40
4.0
 40
4.0
 40
5.0
 40
5.0
 40
5.0
 40
6.0
 40
6.0
 40
6.0
 40
7.0
 40
7.0
 40
7.0
 40
8.0
 40
8.0
 40
8.0
 40
9.0
 40
9.0
 40
9.0
 40
9.0
 10
1059.7444510234
 20
30.0625997138
 30
0.0
 10
1059.7444510234
 20
30.0625997138
 30
0.0
 10
1059.7444510234
 20
30.0966214475
 30
0.0
 10
1059.7444510234
 20
30.0966214475
 30
0.0
 10
1059.7444510234
 20
30.4389324298
 30
0.0
 10
1059.5715944456
 20
30.7105828882
 30
0.0
 10
1059.2049448384
 20
30.7105828882
 30
0.0
 10
1058.833322824
 20
30.7105828882
 30
0.0
 10
1058.6435862322
 20
30.4441665426
 30
0.0
 10
1058.6435862322
 20
30.0892936895
 30
0.0
 10
1058.6435862322
 20
29.7495997636
 30
0.0
 10
1058.8576614489
 20
29.4837068294
 30
0.0
 10
1059.2097863928
 20
29.4837068294
 30
0.0
 10
1059.433806424
 20
29.4837068294
 30
0.0
 10
1059.635974034
 20
29.599380724
 30
0.0
 10
1059.7444510234
 20
29.7988004247
 30
0.0
 10
1059.7444510234
 20
29.7988004247
 30
0.0
 10
1059.5568080767
 20
29.9055763274
 30
0.0
 10
1059.5568080767
 20
29.9055763274
 30
0.0
 10
1059.4733239763
 20
29.7668723361
 30
0.0
 10
1059.3821195594
 20
29.6810328849
 30
0.0
 10
1059.2125343021
 20
29.6810328849
 30
0.0
 10
1059.0005527305
 20
29.6810328849
 30
0.0
 10
1058.8676062634
 20
29.8657970695
 30
0.0
 10
1058.8652509126
 20
30.0625997138
 30
0.0
 10
1058.8652509126
 20
30.0625997138
 30
0.0
 10
1059.7444510234
 20
30.0625997138
 30
0.0
 10
1059.7444510234
 20
30.0625997138
 30
0.0
  0
SPLINE
  5
244
330
229
100
AcDbEntity
  8
0
  6
Continuous
 62
     7
100
AcDbSpline
 70
     3
 71
     3
 72
    14
 73
    10
 74
     0
 42
0.000000001
 43
0.0000001
 40
0.0
 40
0.0
 40
0.0
 40
0.0
 40
1.0
 40
1.0
 40
1.0
 40
2.0
 40
2.0
 40
2.0
 40
3.0
 40
3.0
 40
3.0
 40
3.0
 10
1058.8772893722
 20
30.2300913259
 30
0.0
 10
1058.9048993176
 20
30.3949658816
 30
0.0
 10
1059.0327425247
 20
30.5179675342
 30
0.0
 10
1059.2049448384
 20
30.5179675342
 30
0.0
 10
1059.3821195594
 20
30.5179675342
 30
0.0
 10
1059.495568956
 20
30.4022936396
 30
0.0
 10
1059.522786343
 20
30.2300913259
 30
0.0
 10
1059.522786343
 20
30.2300913259
 30
0.0
 10
1058.8772893722
 20
30.2300913259
 30
0.0
 10
1058.8772893722
 20
30.2300913259
 30
0.0
  0
SPLINE
  5
245
330
229
100
AcDbEntity
  8
0
  6
Continuous
 62
     7
100
AcDbSpline
 70
     3
 71
     3
 72
    20
 73
    16
 74
     0
 42
0.000000001
 43
0.0000001
 40
0.0
 40
0.0
 40
0.0
 40
0.0
 40
1.0
 40
1.0
 40
1.0
 40
2.0
 40
2.0
 40
2.0
 40
3.0
 40
3.0
 40
3.0
 40
4.0
 40
4.0
 40
4.0
 40
5.0
 40
5.0
 40
5.0
 40
5.0
 10
1061.7684824736
 20
30.4394558411
 30
0.0
 10
1061.7684824736
 20
30.4394558411
 30
0.0
 10
1062.1796220402
 20
29.9369810047
 30
0.0
 10
1062.1796220402
 20
29.9369810047
 30
0.0
 10
1062.0635555871
 20
29.8213071101
 30
0.0
 10
1061.9257675656
 20
29.6909776994
 30
0.0
 10
1061.7538269575
 20
29.6909776994
 30
0.0
 10
1061.5763905309
 20
29.6909776994
 30
0.0
 10
1061.4088989188
 20
29.8553288438
 30
0.0
 10
1061.4088989188
 20
30.0322418591
 30
0.0
 10
1061.4088989188
 20
30.210201697
 30
0.0
 10
1061.6186559924
 20
30.3363438173
 30
0.0
 10
1061.7462374938
 20
30.4242769137
 30
0.0
 10
1061.7462374938
 20
30.4242769137
 30
0.0
 10
1061.7684824736
 20
30.4394558411
 30
0.0
 10
1061.7684824736
 20
30.4394558411
 30
0.0
  0
SPLINE
  5
246
330
229
100
AcDbEntity
  8
0
  6
Continuous
 62
     7
100
AcDbSpline
 70
     3
 71
     3
 72
    23
 73
    19
 74
     0
 42
0.000000001
 43
0.0000001
 40
0.0
 40
0.0
 40
0.0
 40
0.0
 40
1.0
 40
1.0
 40
1.0
 40
2.0
 40
2.0
 40
2.0
 40
3.0
 40
3.0
 40
3.0
 40
4.0
 40
4.0
 40
4.0
 40
5.0
 40
5.0
 40
5.0
 40
6.0
 40
6.0
 40
6.0
 40
6.0
 10
1061.8178139875
 20
30.7304725171
 30
0.0
 10
1061.8178139875
 20
30.7304725171
 30
0.0
 10
1061.7561823083
 20
30.8089842103
 30
0.0
 10
1061.7561823083
 20
30.8089842103
 30
0.0
 10
1061.7022709457
 20
30.877551089
 30
0.0
 10
1061.6454808209
 20
30.946641379
 30
0.0
 10
1061.6454808209
 20
31.0403319995
 30
0.0
 10
1061.6454808209
 20
31.1591463619
 30
0.0
 10
1061.7413959394
 20
31.2366112325
 30
0.0
 10
1061.8523591325
 20
31.2366112325
 30
0.0
 10
1061.9756224908
 20
31.2366112325
 30
0.0
 10
1062.0689205528
 20
31.1654272973
 30
0.0
 10
1062.0689205528
 20
31.0350978866
 30
0.0
 10
1062.0689205528
 20
30.9000577744
 30
0.0
 10
1061.9408156401
 20
30.8236397263
 30
0.0
 10
1061.8472558724
 20
30.7498387348
 30
0.0
 10
1061.8472558724
 20
30.7498387348
 30
0.0
 10
1061.8178139875
 20
30.7304725171
 30
0.0
 10
1061.8178139875
 20
30.7304725171
 30
0.0
  0
SPLINE
  5
247
330
229
100
AcDbEntity
  8
0
  6
Continuous
 62
     7
100
AcDbSpline
 70
     3
 71
     3
 72
    50
 73
    46
 74
     0
 42
0.000000001
 43
0.0000001
 40
0.0
 40
0.0
 40
0.0
 40
0.0
 40
1.0
 40
1.0
 40
1.0
 40
2.0
 40
2.0
 40
2.0
 40
3.0
 40
3.0
 40
3.0
 40
4.0
 40
4.0
 40
4.0
 40
5.0
 40
5.0
 40
5.0
 40
6.0
 40
6.0
 40
6.0
 40
7.0
 40
7.0
 40
7.0
 40
8.0
 40
8.0
 40
8.0
 40
9.0
 40
9.0
 40
9.0
 40
10.0
 40
10.0
 40
10.0
 40
11.0
 40
11.0
 40
11.0
 40
12.0
 40
12.0
 40
12.0
 40
13.0
 40
13.0
 40
13.0
 40
14.0
 40
14.0
 40
14.0
 40
15.0
 40
15.0
 40
15.0
 40
15.0
 10
1062.5199702301
 20
29.5234860873
 30
0.0
 10
1062.5199702301
 20
29.5234860873
 30
0.0
 10
1062.8053602349
 20
29.5234860873
 30
0.0
 10
1062.8053602349
 20
29.5234860873
 30
0.0
 10
1062.8053602349
 20
29.5234860873
 30
0.0
 10
1062.4729940671
 20
29.9343639483
 30
0.0
 10
1062.4729940671
 20
29.9343639483
 30
0.0
 10
1062.4729940671
 20
29.9343639483
 30
0.0
 10
1062.6995003019
 20
30.2002568825
 30
0.0
 10
1062.6995003019
 20
30.2002568825
 30
0.0
 10
1062.6995003019
 20
30.2002568825
 30
0.0
 10
1062.5512440546
 20
30.3530929786
 30
0.0
 10
1062.5512440546
 20
30.3530929786
 30
0.0
 10
1062.5512440546
 20
30.3530929786
 30
0.0
 10
1062.3353368983
 20
30.1018555604
 30
0.0
 10
1062.3353368983
 20
30.1018555604
 30
0.0
 10
1062.3353368983
 20
30.1018555604
 30
0.0
 10
1061.948274251
 20
30.5697852517
 30
0.0
 10
1061.948274251
 20
30.5697852517
 30
0.0
 10
1062.1037274035
 20
30.6838889125
 30
0.0
 10
1062.2860053845
 20
30.8236397263
 30
0.0
 10
1062.2860053845
 20
31.0330042415
 30
0.0
 10
1062.2860053845
 20
31.2769139016
 30
0.0
 10
1062.0839686273
 20
31.4203285945
 30
0.0
 10
1061.8574623925
 20
31.4203285945
 30
0.0
 10
1061.6132910267
 20
31.4203285945
 30
0.0
 10
1061.4289194006
 20
31.2695861436
 30
0.0
 10
1061.4289194006
 20
31.0131146126
 30
0.0
 10
1061.4289194006
 20
30.8555678149
 30
0.0
 10
1061.5275824283
 20
30.7179106462
 30
0.0
 10
1061.63291895
 20
30.6069474532
 30
0.0
 10
1061.63291895
 20
30.6069474532
 30
0.0
 10
1061.5173759082
 20
30.5232016471
 30
0.0
 10
1061.5173759082
 20
30.5232016471
 30
0.0
 10
1061.339677776
 20
30.3949658816
 30
0.0
 10
1061.1923374985
 20
30.2672535273
 30
0.0
 10
1061.1923374985
 20
30.0301482139
 30
0.0
 10
1061.1923374985
 20
29.7098205058
 30
0.0
 10
1061.4509026747
 20
29.4837068294
 30
0.0
 10
1061.7612855684
 20
29.4837068294
 30
0.0
 10
1061.9802023395
 20
29.4837068294
 30
0.0
 10
1062.1773975422
 20
29.6088021272
 30
0.0
 10
1062.3176717674
 20
29.7747235055
 30
0.0
 10
1062.3176717674
 20
29.7747235055
 30
0.0
 10
1062.5199702301
 20
29.5234860873
 30
0.0
 10
1062.5199702301
 20
29.5234860873
 30
0.0
  0
LWPOLYLINE
  5
248
330
229
100
AcDbEntity
  8
0
  6
Continuous
 62
     7
100
AcDbPolyline
 90
        2
 70
     0
 43
0.2
 10
1064.4554143199
 20
31.3800259254
 10
1064.2240665306
 20
31.3800259254
  0
LWPOLYLINE
  5
249
330
229
100
AcDbEntity
  8
0
  6
Continuous
 62
     7
100
AcDbPolyline
 90
        2
 70
     0
 43
0.2
 10
1064.2240665306
 20
31.3800259254
 10
1064.2240665306
 20
29.522962676
  0
LWPOLYLINE
  5
24A
330
229
100
AcDbEntity
  8
0
  6
Continuous
 62
     7
100
AcDbPolyline
 90
        2
 70
     0
 43
0.2
 10
1064.2240665306
 20
29.522962676
 10
1065.0193899825
 20
29.522962676
  0
LWPOLYLINE
  5
24B
330
229
100
AcDbEntity
  8
0
  6
Continuous
 62
     7
100
AcDbPolyline
 90
        2
 70
     0
 43
0.2
 10
1065.0193899825
 20
29.522962676
 10
1065.0193899825
 20
29.7349442476
  0
LWPOLYLINE
  5
24C
330
229
100
AcDbEntity
  8
0
  6
Continuous
 62
     7
100
AcDbPolyline
 90
        2
 70
     0
 43
0.2
 10
1065.0193899825
 20
29.7349442476
 10
1064.4554143199
 20
29.7349442476
  0
LWPOLYLINE
  5
24D
330
229
100
AcDbEntity
  8
0
  6
Continuous
 62
     7
100
AcDbPolyline
 90
        2
 70
     0
 43
0.2
 10
1064.4554143199
 20
29.7349442476
 10
1064.4554143199
 20
31.3800259254
  0
LWPOLYLINE
  5
24E
330
229
100
AcDbEntity
  8
0
  6
Continuous
 62
     7
100
AcDbPolyline
 90
        2
 70
     0
 43
0.2
 10
1066.698493394
 20
30.6755143319
 10
1066.4773521249
 20
30.6755143319
  0
LWPOLYLINE
  5
24F
330
229
100
AcDbEntity
  8
0
  6
Continuous
 62
     7
100
AcDbPolyline
 90
        2
 70
     0
 43
0.2
 10
1066.4773521249
 20
30.6755143319
 10
1066.4773521249
 20
29.5234860873
  0
LWPOLYLINE
  5
250
330
229
100
AcDbEntity
  8
0
  6
Continuous
 62
     7
100
AcDbPolyline
 90
        2
 70
     0
 43
0.2
 10
1066.4773521249
 20
29.5234860873
 10
1066.698493394
 20
29.5234860873
  0
LWPOLYLINE
  5
251
330
229
100
AcDbEntity
  8
0
  6
Continuous
 62
     7
100
AcDbPolyline
 90
        2
 70
     0
 43
0.2
 10
1066.698493394
 20
29.5234860873
 10
1066.698493394
 20
30.6755143319
  0
LWPOLYLINE
  5
252
330
229
100
AcDbEntity
  8
0
  6
Continuous
 62
     7
100
AcDbPolyline
 90
        2
 70
     1
 43
0.2
 10
1066.4354701168
 20
31.2054682609
 42
1.0
 10
1066.7406371078
 20
31.2054682609
 42
1.0
  0
SPLINE
  5
253
330
229
100
AcDbEntity
  8
0
  6
Continuous
 62
     7
100
AcDbSpline
 70
     3
 71
     3
 72
    17
 73
    13
 74
     0
 42
0.000000001
 43
0.0000001
 40
0.0
 40
0.0
 40
0.0
 40
0.0
 40
1.0
 40
1.0
 40
1.0
 40
2.0
 40
2.0
 40
2.0
 40
3.0
 40
3.0
 40
3.0
 40
4.0
 40
4.0
 40
4.0
 40
4.0
 10
1068.8287773357
 20
29.6810328849
 30
0.0
 10
1068.59481249
 20
29.6810328849
 30
0.0
 10
1068.4644830793
 20
29.883069642
 30
0.0
 10
1068.4644830793
 20
30.0992385039
 30
0.0
 10
1068.4644830793
 20
30.313837132
 30
0.0
 10
1068.6003083085
 20
30.5127334214
 30
0.0
 10
1068.8287773357
 20
30.5127334214
 30
0.0
 10
1069.0682379999
 20
30.5127334214
 30
0.0
 10
1069.2038015234
 20
30.3237819464
 30
0.0
 10
1069.2038015234
 20
30.0992385039
 30
0.0
 10
1069.2038015234
 20
29.8731248276
 30
0.0
 10
1069.0705933507
 20
29.6810328849
 30
0.0
 10
1068.8287773357
 20
29.6810328849
 30
0.0
  0
SPLINE
  5
254
330
229
100
AcDbEntity
  8
0
  6
Continuous
 62
     7
100
AcDbSpline
 70
     3
 71
     3
 72
    50
 73
    46
 74
     0
 42
0.000000001
 43
0.0000001
 40
0.0
 40
0.0
 40
0.0
 40
0.0
 40
1.0
 40
1.0
 40
1.0
 40
2.0
 40
2.0
 40
2.0
 40
3.0
 40
3.0
 40
3.0
 40
4.0
 40
4.0
 40
4.0
 40
5.0
 40
5.0
 40
5.0
 40
6.0
 40
6.0
 40
6.0
 40
7.0
 40
7.0
 40
7.0
 40
8.0
 40
8.0
 40
8.0
 40
9.0
 40
9.0
 40
9.0
 40
10.0
 40
10.0
 40
10.0
 40
11.0
 40
11.0
 40
11.0
 40
12.0
 40
12.0
 40
12.0
 40
13.0
 40
13.0
 40
13.0
 40
14.0
 40
14.0
 40
14.0
 40
15.0
 40
15.0
 40
15.0
 40
15.0
 10
1069.4129043329
 20
30.6760377432
 30
0.0
 10
1069.4129043329
 20
30.6760377432
 30
0.0
 10
1069.1912396525
 20
30.6760377432
 30
0.0
 10
1069.1912396525
 20
30.6760377432
 30
0.0
 10
1069.1912396525
 20
30.6760377432
 30
0.0
 10
1069.1912396525
 20
30.4787116876
 30
0.0
 10
1069.1912396525
 20
30.4787116876
 30
0.0
 10
1069.1912396525
 20
30.4787116876
 30
0.0
 10
1069.1865289509
 20
30.4787116876
 30
0.0
 10
1069.1865289509
 20
30.4787116876
 30
0.0
 10
1069.0951936812
 20
30.6216029692
 30
0.0
 10
1068.9572748068
 20
30.7100594769
 30
0.0
 10
1068.7845490818
 20
30.7100594769
 30
0.0
 10
1068.452182914
 20
30.7100594769
 30
0.0
 10
1068.2430801045
 20
30.4221832686
 30
0.0
 10
1068.2430801045
 20
30.106566262
 30
0.0
 10
1068.2430801045
 20
29.7768171506
 30
0.0
 10
1068.4401444544
 20
29.4837068294
 30
0.0
 10
1068.7950173076
 20
29.4837068294
 30
0.0
 10
1068.9572748068
 20
29.4837068294
 30
0.0
 10
1069.0972873263
 20
29.5721633371
 30
0.0
 10
1069.1865289509
 20
29.703016159
 30
0.0
 10
1069.1865289509
 20
29.703016159
 30
0.0
 10
1069.1912396525
 20
29.703016159
 30
0.0
 10
1069.1912396525
 20
29.703016159
 30
0.0
 10
1069.1912396525
 20
29.703016159
 30
0.0
 10
1069.1912396525
 20
29.4837068294
 30
0.0
 10
1069.1912396525
 20
29.4837068294
 30
0.0
 10
1069.1912396525
 20
29.2471249273
 30
0.0
 10
1069.1347112334
 20
29.0602670975
 30
0.0
 10
1068.8614905412
 20
29.0602670975
 30
0.0
 10
1068.6591920784
 20
29.0602670975
 30
0.0
 10
1068.5165625024
 20
29.1785580486
 30
0.0
 10
1068.5165625024
 20
29.384782096
 30
0.0
 10
1068.5165625024
 20
29.384782096
 30
0.0
 10
1068.294897822
 20
29.384782096
 30
0.0
 10
1068.294897822
 20
29.384782096
 30
0.0
 10
1068.2998702293
 20
29.0602670975
 30
0.0
 10
1068.5309563129
 20
28.8634644533
 30
0.0
 10
1068.851284021
 20
28.8634644533
 30
0.0
 10
1069.2993240835
 20
28.8634644533
 30
0.0
 10
1069.4129043329
 20
29.1487236052
 30
0.0
 10
1069.4129043329
 20
29.5454693614
 30
0.0
 10
1069.4129043329
 20
29.5454693614
 30
0.0
 10
1069.4129043329
 20
30.6760377432
 30
0.0
 10
1069.4129043329
 20
30.6760377432
 30
0.0
  0
SPLINE
  5
255
330
229
100
AcDbEntity
  8
0
  6
Continuous
 62
     7
100
AcDbSpline
 70
     3
 71
     3
 72
    44
 73
    40
 74
     0
 42
0.000000001
 43
0.0000001
 40
0.0
 40
0.0
 40
0.0
 40
0.0
 40
1.0
 40
1.0
 40
1.0
 40
2.0
 40
2.0
 40
2.0
 40
3.0
 40
3.0
 40
3.0
 40
4.0
 40
4.0
 40
4.0
 40
5.0
 40
5.0
 40
5.0
 40
6.0
 40
6.0
 40
6.0
 40
7.0
 40
7.0
 40
7.0
 40
8.0
 40
8.0
 40
8.0
 40
9.0
 40
9.0
 40
9.0
 40
10.0
 40
10.0
 40
10.0
 40
11.0
 40
11.0
 40
11.0
 40
12.0
 40
12.0
 40
12.0
 40
13.0
 40
13.0
 40
13.0
 40
13.0
 10
1070.9818296683
 20
31.6610977869
 30
0.0
 10
1070.9818296683
 20
31.6610977869
 30
0.0
 10
1070.9818296683
 20
29.522962676
 30
0.0
 10
1070.9818296683
 20
29.522962676
 30
0.0
 10
1070.9818296683
 20
29.522962676
 30
0.0
 10
1071.2032326431
 20
29.522962676
 30
0.0
 10
1071.2032326431
 20
29.522962676
 30
0.0
 10
1071.2032326431
 20
29.522962676
 30
0.0
 10
1071.2032326431
 20
30.0526548993
 30
0.0
 10
1071.2032326431
 20
30.0526548993
 30
0.0
 10
1071.2032326431
 20
30.2625428258
 30
0.0
 10
1071.2032326431
 20
30.5132568326
 30
0.0
 10
1071.488491795
 20
30.5132568326
 30
0.0
 10
1071.7153905883
 20
30.5132568326
 30
0.0
 10
1071.7423462696
 20
30.3803103655
 30
0.0
 10
1071.7423462696
 20
30.1840311326
 30
0.0
 10
1071.7423462696
 20
30.1840311326
 30
0.0
 10
1071.7423462696
 20
29.522962676
 30
0.0
 10
1071.7423462696
 20
29.522962676
 30
0.0
 10
1071.7423462696
 20
29.522962676
 30
0.0
 10
1071.9642726556
 20
29.522962676
 30
0.0
 10
1071.9642726556
 20
29.522962676
 30
0.0
 10
1071.9642726556
 20
29.522962676
 30
0.0
 10
1071.9642726556
 20
30.210201697
 30
0.0
 10
1071.9642726556
 20
30.210201697
 30
0.0
 10
1071.9642726556
 20
30.4907501473
 30
0.0
 10
1071.8802651439
 20
30.7105828882
 30
0.0
 10
1071.5552267342
 20
30.7105828882
 30
0.0
 10
1071.4154759203
 20
30.7105828882
 30
0.0
 10
1071.2772953403
 20
30.6441096546
 30
0.0
 10
1071.2079433447
 20
30.521108002
 30
0.0
 10
1071.2079433447
 20
30.521108002
 30
0.0
 10
1071.2032326431
 20
30.521108002
 30
0.0
 10
1071.2032326431
 20
30.521108002
 30
0.0
 10
1071.2032326431
 20
30.521108002
 30
0.0
 10
1071.2032326431
 20
31.6610977869
 30
0.0
 10
1071.2032326431
 20
31.6610977869
 30
0.0
 10
1071.2032326431
 20
31.6610977869
 30
0.0
 10
1070.9818296683
 20
31.6610977869
 30
0.0
 10
1070.9818296683
 20
31.6610977869
 30
0.0
  0
LWPOLYLINE
  5
256
330
229
100
AcDbEntity
  8
0
  6
Continuous
 62
     7
100
AcDbPolyline
 90
        2
 70
     0
 43
0.2
 10
1073.8040633325
 20
30.4687668732
 10
1074.0204939
 20
30.4687668732
  0
LWPOLYLINE
  5
257
330
229
100
AcDbEntity
  8
0
  6
Continuous
 62
     7
100
AcDbPolyline
 90
        2
 70
     0
 43
0.2
 10
1074.0204939
 20
30.4687668732
 10
1074.0204939
 20
30.6755143319
  0
LWPOLYLINE
  5
258
330
229
100
AcDbEntity
  8
0
  6
Continuous
 62
     7
100
AcDbPolyline
 90
        2
 70
     0
 43
0.2
 10
1074.0204939
 20
30.6755143319
 10
1073.8040633325
 20
30.6755143319
  0
LWPOLYLINE
  5
259
330
229
100
AcDbEntity
  8
0
  6
Continuous
 62
     7
100
AcDbPolyline
 90
        2
 70
     0
 43
0.2
 10
1073.8040633325
 20
30.6755143319
 10
1073.8040633325
 20
31.1162266363
  0
LWPOLYLINE
  5
25A
330
229
100
AcDbEntity
  8
0
  6
Continuous
 62
     7
100
AcDbPolyline
 90
        2
 70
     0
 43
0.2
 10
1073.8040633325
 20
31.1162266363
 10
1073.5823986521
 20
31.1162266363
  0
LWPOLYLINE
  5
25B
330
229
100
AcDbEntity
  8
0
  6
Continuous
 62
     7
100
AcDbPolyline
 90
        2
 70
     0
 43
0.2
 10
1073.5823986521
 20
31.1162266363
 10
1073.5823986521
 20
30.6755143319
  0
LWPOLYLINE
  5
25C
330
229
100
AcDbEntity
  8
0
  6
Continuous
 62
     7
100
AcDbPolyline
 90
        2
 70
     0
 43
0.2
 10
1073.5823986521
 20
30.6755143319
 10
1073.4617523502
 20
30.6755143319
  0
LWPOLYLINE
  5
25D
330
229
100
AcDbEntity
  8
0
  6
Continuous
 62
     7
100
AcDbPolyline
 90
        2
 70
     0
 43
0.2
 10
1073.4617523502
 20
30.6755143319
 10
1073.4617523502
 20
30.4687668732
  0
LWPOLYLINE
  5
25E
330
229
100
AcDbEntity
  8
0
  6
Continuous
 62
     7
100
AcDbPolyline
 90
        2
 70
     0
 43
0.2
 10
1073.4617523502
 20
30.4687668732
 10
1073.5823986521
 20
30.4687668732
  0
LWPOLYLINE
  5
25F
330
229
100
AcDbEntity
  8
0
  6
Continuous
 62
     7
100
AcDbPolyline
 90
        2
 70
     0
 43
0.2
 10
1073.5823986521
 20
30.4687668732
 10
1073.5823986521
 20
29.522962676
  0
LWPOLYLINE
  5
260
330
229
100
AcDbEntity
  8
0
  6
Continuous
 62
     7
100
AcDbPolyline
 90
        2
 70
     0
 43
0.2
 10
1073.5823986521
 20
29.522962676
 10
1073.8040633325
 20
29.522962676
  0
LWPOLYLINE
  5
261
330
229
100
AcDbEntity
  8
0
  6
Continuous
 62
     7
100
AcDbPolyline
 90
        2
 70
     0
 43
0.2
 10
1073.8040633325
 20
29.522962676
 10
1073.8040633325
 20
30.4687668732
  0
SPLINE
  5
262
330
229
100
AcDbEntity
  8
0
  6
Continuous
 62
     7
100
AcDbSpline
 70
     3
 71
     3
 72
    20
 73
    16
 74
     0
 42
0.000000001
 43
0.0000001
 40
0.0
 40
0.0
 40
0.0
 40
0.0
 40
1.0
 40
1.0
 40
1.0
 40
2.0
 40
2.0
 40
2.0
 40
3.0
 40
3.0
 40
3.0
 40
4.0
 40
4.0
 40
4.0
 40
5.0
 40
5.0
 40
5.0
 40
5.0
 10
1061.5860736398
 20
39.8838891194
 30
0.0
 10
1061.5860736398
 20
39.8838891194
 30
0.0
 10
1063.9024302942
 20
37.0543276972
 30
0.0
 10
1063.9024302942
 20
37.0543276972
 30
0.0
 10
1063.2507832408
 20
36.4021572325
 30
0.0
 10
1062.4739100368
 20
35.6662409617
 30
0.0
 10
1061.5027203922
 20
35.6662409617
 30
0.0
 10
1060.5041825077
 20
35.6662409617
 30
0.0
 10
1059.5608645142
 20
36.595819409
 30
0.0
 10
1059.5608645142
 20
37.5950115575
 30
0.0
 10
1059.5608645142
 20
38.5942037061
 30
0.0
 10
1060.7397175873
 20
39.3008089447
 30
0.0
 10
1061.4612400476
 20
39.8006667246
 30
0.0
 10
1061.4612400476
 20
39.8006667246
 30
0.0
 10
1061.5860736398
 20
39.8838891194
 30
0.0
 10
1061.5860736398
 20
39.8838891194
 30
0.0
  0
SPLINE
  5
263
330
229
100
AcDbEntity
  8
0
  6
Continuous
 62
     7
100
AcDbSpline
 70
     3
 71
     3
 72
    23
 73
    19
 74
     0
 42
0.000000001
 43
0.0000001
 40
0.0
 40
0.0
 40
0.0
 40
0.0
 40
1.0
 40
1.0
 40
1.0
 40
2.0
 40
2.0
 40
2.0
 40
3.0
 40
3.0
 40
3.0
 40
4.0
 40
4.0
 40
4.0
 40
5.0
 40
5.0
 40
5.0
 40
6.0
 40
6.0
 40
6.0
 40
6.0
 10
1061.8634816223
 20
41.5216430391
 30
0.0
 10
1061.8634816223
 20
41.5216430391
 30
0.0
 10
1061.5169833498
 20
41.9649724
 30
0.0
 10
1061.5169833498
 20
41.9649724
 30
0.0
 10
1061.2111803048
 20
42.3530818699
 30
0.0
 10
1060.8922919777
 20
42.7415838983
 30
0.0
 10
1060.8922919777
 20
43.2685282124
 30
0.0
 10
1060.8922919777
 20
43.934699929
 30
0.0
 10
1061.4336301022
 20
44.3784218483
 30
0.0
 10
1062.0575363573
 20
44.3784218483
 30
0.0
 10
1062.7513180194
 20
44.3784218483
 30
0.0
 10
1063.2785240391
 20
43.9761802736
 30
0.0
 10
1063.2785240391
 20
43.2411799726
 30
0.0
 10
1063.2785240391
 20
42.4779154621
 30
0.0
 10
1062.5572632844
 20
42.0478022363
 30
0.0
 10
1062.0301881175
 20
41.6320828209
 30
0.0
 10
1062.0301881175
 20
41.6320828209
 30
0.0
 10
1061.8634816223
 20
41.5216430391
 30
0.0
 10
1061.8634816223
 20
41.5216430391
 30
0.0
  0
SPLINE
  5
264
330
229
100
AcDbEntity
  8
0
  6
Continuous
 62
     7
100
AcDbSpline
 70
     3
 71
     3
 72
    50
 73
    46
 74
     0
 42
0.000000001
 43
0.0000001
 40
0.0
 40
0.0
 40
0.0
 40
0.0
 40
1.0
 40
1.0
 40
1.0
 40
2.0
 40
2.0
 40
2.0
 40
3.0
 40
3.0
 40
3.0
 40
4.0
 40
4.0
 40
4.0
 40
5.0
 40
5.0
 40
5.0
 40
6.0
 40
6.0
 40
6.0
 40
7.0
 40
7.0
 40
7.0
 40
8.0
 40
8.0
 40
8.0
 40
9.0
 40
9.0
 40
9.0
 40
10.0
 40
10.0
 40
10.0
 40
11.0
 40
11.0
 40
11.0
 40
12.0
 40
12.0
 40
12.0
 40
13.0
 40
13.0
 40
13.0
 40
14.0
 40
14.0
 40
14.0
 40
15.0
 40
15.0
 40
15.0
 40
15.0
 10
1065.8170687853
 20
34.723053821
 30
0.0
 10
1065.8170687853
 20
34.723053821
 30
0.0
 10
1067.4262967898
 20
34.723053821
 30
0.0
 10
1067.4262967898
 20
34.723053821
 30
0.0
 10
1067.4262967898
 20
34.723053821
 30
0.0
 10
1065.5532694962
 20
37.0401955924
 30
0.0
 10
1065.5532694962
 20
37.0401955924
 30
0.0
 10
1065.5532694962
 20
37.0401955924
 30
0.0
 10
1066.8296079216
 20
38.537675287
 30
0.0
 10
1066.8296079216
 20
38.537675287
 30
0.0
 10
1066.8296079216
 20
38.537675287
 30
0.0
 10
1065.9973839739
 20
39.3986868555
 30
0.0
 10
1065.9973839739
 20
39.3986868555
 30
0.0
 10
1065.9973839739
 20
39.3986868555
 30
0.0
 10
1064.7767888506
 20
37.9833827331
 30
0.0
 10
1064.7767888506
 20
37.9833827331
 30
0.0
 10
1064.7767888506
 20
37.9833827331
 30
0.0
 10
1062.5988744818
 20
40.6187585676
 30
0.0
 10
1062.5988744818
 20
40.6187585676
 30
0.0
 10
1063.4724479212
 20
41.2567969275
 30
0.0
 10
1064.4991191624
 20
42.0478022363
 30
0.0
 10
1064.4991191624
 20
43.2266553094
 30
0.0
 10
1064.4991191624
 20
44.6003482344
 30
0.0
 10
1063.3612230226
 20
45.4048313838
 30
0.0
 10
1062.0859314197
 20
45.4048313838
 30
0.0
 10
1060.7125002003
 20
45.4048313838
 30
0.0
 10
1059.6715660016
 20
44.5586061842
 30
0.0
 10
1059.6715660016
 20
43.115953822
 30
0.0
 10
1059.6715660016
 20
42.2283791306
 30
0.0
 10
1060.226905378
 20
41.4515059266
 30
0.0
 10
1060.8230708349
 20
40.8270762601
 30
0.0
 10
1060.8230708349
 20
40.8270762601
 30
0.0
 10
1060.1711620758
 20
40.3554826898
 30
0.0
 10
1060.1711620758
 20
40.3554826898
 30
0.0
 10
1059.1726241914
 20
39.6342219351
 30
0.0
 10
1058.3397459796
 20
38.9129611804
 30
0.0
 10
1058.3397459796
 20
37.581402864
 30
0.0
 10
1058.3397459796
 20
35.777727566
 30
0.0
 10
1059.7967921522
 20
34.5011274349
 30
0.0
 10
1061.5443315896
 20
34.5011274349
 30
0.0
 10
1062.7791896705
 20
34.5011274349
 30
0.0
 10
1063.8885598951
 20
35.2093029074
 30
0.0
 10
1064.6794343511
 20
36.1378345321
 30
0.0
 10
1064.6794343511
 20
36.1378345321
 30
0.0
 10
1065.8170687853
 20
34.723053821
 30
0.0
 10
1065.8170687853
 20
34.723053821
 30
0.0
  0
LINE
  5
265
330
229
100
AcDbEntity
  8
0
  6
Continuous
 62
     7
100
AcDbLine
 10
1051.6199301602
 20
32.6969287256
 30
0.0
 11
1074.0338408879
 21
32.6969287256
 31
0.0
  0
LINE
  5
266
330
229
100
AcDbEntity
  8
0
  6
Continuous
 62
     7
100
AcDbLine
 10
1074.0338408879
 20
32.6969287256
 30
0.0
 11
1074.0338408879
 21
55.1108394533
 31
0.0
  0
LINE
  5
267
330
229
100
AcDbEntity
  8
0
  6
Continuous
 62
     7
100
AcDbLine
 10
1074.0338408879
 20
55.1108394533
 30
0.0
 11
1051.6199301602
 21
55.1108394533
 31
0.0
  0
LINE
  5
268
330
229
100
AcDbEntity
  8
0
  6
Continuous
 62
     7
100
AcDbLine
 10
1051.6199301602
 20
55.1108394533
 30
0.0
 11
1051.6199301602
 21
32.6969287256
 31
0.0
  0
ENDBLK
  5
269
330
229
100
AcDbEntity
  8
0
  6
ByBlock
 62
     0
100
AcDbBlockEnd
  0
BLOCK
  5
26A
330
22A
100
AcDbEntity
  8
0
100
AcDbBlockBegin
  2
PROIEZIONE_EU_BL0
 70
     0
 10
1064.0007730529
 20
67.6121519533
 30
0.0
  3
PROIEZIONE_EU_BL0
  1

  0
LWPOLYLINE
  5
26B
330
22A
100
AcDbEntity
  8
DEFAULT_1
  6
CENTER
 62
     7
100
AcDbPolyline
 90
        2
 70
     0
 43
0.25
 10
1070.1273937145
 20
72.6118460852
 10
1070.1274346969
 20
62.6124578214
  0
LWPOLYLINE
  5
26C
330
22A
100
AcDbEntity
  8
DEFAULT_1
  6
CENTER
 62
     7
100
AcDbPolyline
 90
        2
 70
     0
 43
0.25
 10
1076.1274235396
 20
67.6124230884
 10
1051.8741225662
 20
67.612152428
  0
LWPOLYLINE
  5
26D
330
22A
100
AcDbEntity
  8
0
  6
Continuous
 62
     7
100
AcDbPolyline
 90
        2
 70
     1
 43
0.25
 10
1066.5802835387
 20
67.5936041991
 42
1.0
 10
1073.6866126374
 20
67.5936041991
 42
1.0
  0
LWPOLYLINE
  5
26E
330
22A
100
AcDbEntity
  8
0
  6
Continuous
 62
     7
100
AcDbPolyline
 90
        2
 70
     1
 43
0.25
 10
1068.1300273671
 20
67.6115022437
 42
1.0
 10
1072.1417791172
 20
67.6115022437
 42
1.0
  0
LWPOLYLINE
  5
26F
330
22A
100
AcDbEntity
  8
0
  6
Continuous
 62
     7
100
AcDbPolyline
 90
        2
 70
     0
 43
0.25
 10
1064.1274213336
 20
71.1873554485
 10
1064.127420979
 20
64.0871525402
  0
LWPOLYLINE
  5
270
330
22A
100
AcDbEntity
  8
0
  6
Continuous
 62
     7
100
AcDbPolyline
 90
        2
 70
     0
 43
0.25
 10
1064.1274494154
 20
64.0871241038
 10
1054.1328921442
 20
65.6072175167
  0
LWPOLYLINE
  5
271
330
22A
100
AcDbEntity
  8
0
  6
Continuous
 62
     7
100
AcDbPolyline
 90
        2
 70
     0
 43
0.25
 10
1054.1305821586
 20
65.6065399751
 10
1054.1279152545
 20
69.6121785866
  0
LWPOLYLINE
  5
272
330
22A
100
AcDbEntity
  8
0
  6
Continuous
 62
     7
100
AcDbPolyline
 90
        2
 70
     0
 43
0.25
 10
1054.1279069785
 20
69.6121703105
 10
1064.1276502158
 20
71.1873275306
  0
ENDBLK
  5
273
330
22A
100
AcDbEntity
  8
0
  6
ByBlock
 62
     0
100
AcDbBlockEnd
  0
ENDSEC
  0
SECTION
  2
ENTITIES
  0
LINE
  5
295
330
1B
100
AcDbEntity
 67
     1
  8
0
  6
Continuous
 62
     7
100
AcDbLine
 10
1189.0
 20
0.0
 30
0.0
 11
1189.0
 21
841.0
 31
0.0
  0
LINE
  5
296
330
1B
100
AcDbEntity
 67
     1
  8
0
  6
Continuous
 62
     7
100
AcDbLine
 10
0.0
 20
841.0
 30
0.0
 11
1189.0
 21
841.0
 31
0.0
  0
LINE
  5
297
330
1B
100
AcDbEntity
 67
     1
  8
0
  6
Continuous
 62
     7
100
AcDbLine
 10
0.0
 20
0.0
 30
0.0
 11
0.0
 21
841.0
 31
0.0
  0
LINE
  5
298
330
1B
100
AcDbEntity
 67
     1
  8
0
  6
Continuous
 62
     7
100
AcDbLine
 10
7.0
 20
834.0
 30
0.0
 11
1182.0
 21
834.0
 31
0.0
  0
LINE
  5
299
330
1B
100
AcDbEntity
 67
     1
  8
0
  6
Continuous
 62
     7
100
AcDbLine
 10
1182.0
 20
7.0
 30
0.0
 11
1182.0
 21
834.0
 31
0.0
  0
LINE
  5
29A
330
1B
100
AcDbEntity
 67
     1
  8
0
  6
Continuous
 62
     7
100
AcDbLine
 10
7.0
 20
7.0
 30
0.0
 11
7.0
 21
841.0
 31
0.0
  0
LINE
  5
29B
330
1B
100
AcDbEntity
 67
     1
  8
0
  6
Continuous
 62
     7
100
AcDbLine
 10
7.0
 20
7.0
 30
0.0
 11
1182.0
 21
7.0
 31
0.0
  0
LINE
  5
29C
330
1B
100
AcDbEntity
 67
     1
  8
0
  6
Continuous
 62
     7
100
AcDbLine
 10
10.0
 20
831.0
 30
0.0
 11
1179.0
 21
831.0
 31
0.0
  0
LINE
  5
29D
330
1B
100
AcDbEntity
 67
     1
  8
0
  6
Continuous
 62
     7
100
AcDbLine
 10
10.0
 20
10.0
 30
0.0
 11
10.0
 21
831.0
 31
0.0
  0
LINE
  5
29E
330
1B
100
AcDbEntity
 67
     1
  8
0
  6
Continuous
 62
     7
100
AcDbLine
 10
10.0
 20
10.0
 30
0.0
 11
1179.0
 21
10.0
 31
0.0
  0
LINE
  5
29F
330
1B
100
AcDbEntity
 67
     1
  8
0
  6
Continuous
 62
     7
100
AcDbLine
 10
1179.0
 20
10.0
 30
0.0
 11
1179.0
 21
831.0
 31
0.0
  0
LINE
  5
2A0
330
1B
100
AcDbEntity
 67
     1
  8
0
  6
Continuous
 62
     7
100
AcDbLine
 10
594.5
 20
841.0
 30
0.0
 11
594.5
 21
830.9963547375
 31
0.0
  0
LINE
  5
2A1
330
1B
100
AcDbEntity
 67
     1
  8
0
  6
Continuous
 62
     7
100
AcDbLine
 10
1189.0
 20
420.5
 30
0.0
 11
1179.0324714513
 21
420.5
 31
0.0
  0
LINE
  5
2A2
330
1B
100
AcDbEntity
 67
     1
  8
0
  6
Continuous
 62
     7
100
AcDbLine
 10
979.0
 20
0.0
 30
0.0
 11
979.0
 21
10.0
 31
0.0
  0
LINE
  5
2A3
330
1B
100
AcDbEntity
 67
     1
  8
0
  6
Continuous
 62
     7
100
AcDbLine
 10
0.0
 20
0.0
 30
0.0
 11
1189.0
 21
0.0
 31
0.0
  0
LINE
  5
2A4
330
1B
100
AcDbEntity
 67
     1
  8
0
  6
Continuous
 62
     7
100
AcDbLine
 10
1182.0
 20
7.0
 30
0.0
 11
1182.0
 21
0.0
 31
0.0
  0
LINE
  5
2A5
330
1B
100
AcDbEntity
 67
     1
  8
0
  6
Continuous
 62
     7
100
AcDbLine
 10
1182.0
 20
7.0
 30
0.0
 11
1189.0
 21
7.0
 31
0.0
  0
LINE
  5
2A6
330
1B
100
AcDbEntity
 67
     1
  8
0
  6
Continuous
 62
     7
100
AcDbLine
 10
1082.0
 20
7.0
 30
0.0
 11
1082.0
 21
0.0
 31
0.0
  0
LINE
  5
2A7
330
1B
100
AcDbEntity
 67
     1
  8
0
  6
Continuous
 62
     7
100
AcDbLine
 10
882.0
 20
7.0
 30
0.0
 11
882.0
 21
0.0
 31
0.0
  0
LINE
  5
2A8
330
1B
100
AcDbEntity
 67
     1
  8
0
  6
Continuous
 62
     7
100
AcDbLine
 10
782.0
 20
7.0
 30
0.0
 11
782.0
 21
0.0
 31
0.0
  0
LINE
  5
2A9
330
1B
100
AcDbEntity
 67
     1
  8
0
  6
Continuous
 62
     7
100
AcDbLine
 10
682.0
 20
7.0
 30
0.0
 11
682.0
 21
0.0
 31
0.0
  0
LINE
  5
2AA
330
1B
100
AcDbEntity
 67
     1
  8
0
  6
Continuous
 62
     7
100
AcDbLine
 10
582.0
 20
7.0
 30
0.0
 11
582.0
 21
0.0
 31
0.0
  0
LINE
  5
2AB
330
1B
100
AcDbEntity
 67
     1
  8
0
  6
Continuous
 62
     7
100
AcDbLine
 10
482.0
 20
7.0
 30
0.0
 11
482.0
 21
0.0
 31
0.0
  0
LINE
  5
2AC
330
1B
100
AcDbEntity
 67
     1
  8
0
  6
Continuous
 62
     7
100
AcDbLine
 10
382.0
 20
7.0
 30
0.0
 11
382.0
 21
0.0
 31
0.0
  0
LINE
  5
2AD
330
1B
100
AcDbEntity
 67
     1
  8
0
  6
Continuous
 62
     7
100
AcDbLine
 10
282.0
 20
7.0
 30
0.0
 11
282.0
 21
0.0
 31
0.0
  0
LINE
  5
2AE
330
1B
100
AcDbEntity
 67
     1
  8
0
  6
Continuous
 62
     7
100
AcDbLine
 10
182.0
 20
7.0
 30
0.0
 11
182.0
 21
0.0
 31
0.0
  0
LINE
  5
2AF
330
1B
100
AcDbEntity
 67
     1
  8
0
  6
Continuous
 62
     7
100
AcDbLine
 10
82.0
 20
7.0
 30
0.0
 11
82.0
 21
0.0
 31
0.0
  0
LINE
  5
2B0
330
1B
100
AcDbEntity
 67
     1
  8
0
  6
Continuous
 62
     7
100
AcDbLine
 10
7.0
 20
7.0
 30
0.0
 11
0.0
 21
7.0
 31
0.0
  0
LINE
  5
2B1
330
1B
100
AcDbEntity
 67
     1
  8
0
  6
Continuous
 62
     7
100
AcDbLine
 10
7.0
 20
7.0
 30
0.0
 11
7.0
 21
0.0
 31
0.0
  0
LINE
  5
2B2
330
1B
100
AcDbEntity
 67
     1
  8
0
  6
Continuous
 62
     7
100
AcDbLine
 10
1182.0
 20
107.0
 30
0.0
 11
1189.0
 21
107.0
 31
0.0
  0
LINE
  5
2B3
330
1B
100
AcDbEntity
 67
     1
  8
0
  6
Continuous
 62
     7
100
AcDbLine
 10
1182.0
 20
207.0
 30
0.0
 11
1189.0
 21
207.0
 31
0.0
  0
LINE
  5
2B4
330
1B
100
AcDbEntity
 67
     1
  8
0
  6
Continuous
 62
     7
100
AcDbLine
 10
1182.0
 20
307.0
 30
0.0
 11
1189.0
 21
307.0
 31
0.0
  0
LINE
  5
2B5
330
1B
100
AcDbEntity
 67
     1
  8
0
  6
Continuous
 62
     7
100
AcDbLine
 10
1179.0
 20
507.0
 30
0.0
 11
1189.0
 21
507.0
 31
0.0
  0
LINE
  5
2B6
330
1B
100
AcDbEntity
 67
     1
  8
0
  6
Continuous
 62
     7
100
AcDbLine
 10
1182.0
 20
607.0
 30
0.0
 11
1189.0
 21
607.0
 31
0.0
  0
LINE
  5
2B7
330
1B
100
AcDbEntity
 67
     1
  8
0
  6
Continuous
 62
     7
100
AcDbLine
 10
1182.0
 20
707.0
 30
0.0
 11
1189.0
 21
707.0
 31
0.0
  0
LINE
  5
2B8
330
1B
100
AcDbEntity
 67
     1
  8
0
  6
Continuous
 62
     7
100
AcDbLine
 10
1182.0
 20
834.0
 30
0.0
 11
1189.0
 21
834.0
 31
0.0
  0
LINE
  5
2B9
330
1B
100
AcDbEntity
 67
     1
  8
0
  6
Continuous
 62
     7
100
AcDbLine
 10
1182.0
 20
834.0
 30
0.0
 11
1182.0
 21
841.0
 31
0.0
  0
LINE
  5
2BA
330
1B
100
AcDbEntity
 67
     1
  8
0
  6
Continuous
 62
     7
100
AcDbLine
 10
0.0
 20
834.0
 30
0.0
 11
1189.0
 21
834.0
 31
0.0
  0
LINE
  5
2BB
330
1B
100
AcDbEntity
 67
     1
  8
0
  6
Continuous
 62
     7
100
AcDbLine
 10
979.0
 20
831.0
 30
0.0
 11
979.0
 21
841.0
 31
0.0
  0
LINE
  5
2BC
330
1B
100
AcDbEntity
 67
     1
  8
0
  6
Continuous
 62
     7
100
AcDbLine
 10
1082.0
 20
841.0
 30
0.0
 11
1082.0
 21
834.0
 31
0.0
  0
LINE
  5
2BD
330
1B
100
AcDbEntity
 67
     1
  8
0
  6
Continuous
 62
     7
100
AcDbLine
 10
882.0
 20
841.0
 30
0.0
 11
882.0
 21
834.0
 31
0.0
  0
LINE
  5
2BE
330
1B
100
AcDbEntity
 67
     1
  8
0
  6
Continuous
 62
     7
100
AcDbLine
 10
782.0
 20
841.0
 30
0.0
 11
782.0
 21
834.0
 31
0.0
  0
LINE
  5
2BF
330
1B
100
AcDbEntity
 67
     1
  8
0
  6
Continuous
 62
     7
100
AcDbLine
 10
682.0
 20
841.0
 30
0.0
 11
682.0
 21
834.0
 31
0.0
  0
LINE
  5
2C0
330
1B
100
AcDbEntity
 67
     1
  8
0
  6
Continuous
 62
     7
100
AcDbLine
 10
582.0
 20
841.0
 30
0.0
 11
582.0
 21
834.0
 31
0.0
  0
LINE
  5
2C1
330
1B
100
AcDbEntity
 67
     1
  8
0
  6
Continuous
 62
     7
100
AcDbLine
 10
482.0
 20
841.0
 30
0.0
 11
482.0
 21
834.0
 31
0.0
  0
LINE
  5
2C2
330
1B
100
AcDbEntity
 67
     1
  8
0
  6
Continuous
 62
     7
100
AcDbLine
 10
382.0
 20
841.0
 30
0.0
 11
382.0
 21
834.0
 31
0.0
  0
LINE
  5
2C3
330
1B
100
AcDbEntity
 67
     1
  8
0
  6
Continuous
 62
     7
100
AcDbLine
 10
282.0
 20
841.0
 30
0.0
 11
282.0
 21
834.0
 31
0.0
  0
LINE
  5
2C4
330
1B
100
AcDbEntity
 67
     1
  8
0
  6
Continuous
 62
     7
100
AcDbLine
 10
182.0
 20
841.0
 30
0.0
 11
182.0
 21
834.0
 31
0.0
  0
LINE
  5
2C5
330
1B
100
AcDbEntity
 67
     1
  8
0
  6
Continuous
 62
     7
100
AcDbLine
 10
82.0
 20
841.0
 30
0.0
 11
82.0
 21
834.0
 31
0.0
  0
LINE
  5
2C6
330
1B
100
AcDbEntity
 67
     1
  8
0
  6
Continuous
 62
     7
100
AcDbLine
 10
7.0
 20
420.5
 30
0.0
 11
-2.9675285487
 21
420.5
 31
0.0
  0
LINE
  5
2C7
330
1B
100
AcDbEntity
 67
     1
  8
0
  6
Continuous
 62
     7
100
AcDbLine
 10
0.0
 20
107.0
 30
0.0
 11
7.0
 21
107.0
 31
0.0
  0
LINE
  5
2C8
330
1B
100
AcDbEntity
 67
     1
  8
0
  6
Continuous
 62
     7
100
AcDbLine
 10
0.0
 20
207.0
 30
0.0
 11
7.0
 21
207.0
 31
0.0
  0
LINE
  5
2C9
330
1B
100
AcDbEntity
 67
     1
  8
0
  6
Continuous
 62
     7
100
AcDbLine
 10
0.0
 20
307.0
 30
0.0
 11
7.0
 21
307.0
 31
0.0
  0
LINE
  5
2CA
330
1B
100
AcDbEntity
 67
     1
  8
0
  6
Continuous
 62
     7
100
AcDbLine
 10
-3.0
 20
507.0
 30
0.0
 11
7.0
 21
507.0
 31
0.0
  0
LINE
  5
2CB
330
1B
100
AcDbEntity
 67
     1
  8
0
  6
Continuous
 62
     7
100
AcDbLine
 10
0.0
 20
607.0
 30
0.0
 11
7.0
 21
607.0
 31
0.0
  0
LINE
  5
2CC
330
1B
100
AcDbEntity
 67
     1
  8
0
  6
Continuous
 62
     7
100
AcDbLine
 10
0.0
 20
707.0
 30
0.0
 11
7.0
 21
707.0
 31
0.0
  0
MTEXT
  5
2CD
330
1B
100
AcDbEntity
 67
     1
  8
0
  6
Continuous
 62
     2
100
AcDbMText
 10
1131.154890719
 20
5.35876025
 30
0.0
 40
4.0
 41
5.1428571429
 46
0.0
 71
     1
 72
     1
  1
A
  7
TEXTSTYLE_2
 73
     1
 44
1.0
  0
MTEXT
  5
2CE
330
1B
100
AcDbEntity
 67
     1
  8
0
  6
Continuous
 62
     2
100
AcDbMText
 10
1031.154890719
 20
5.35876025
 30
0.0
 40
4.0
 41
4.7142857143
 46
0.0
 71
     1
 72
     1
  1
B
  7
TEXTSTYLE_2
 73
     1
 44
1.0
  0
MTEXT
  5
2CF
330
1B
100
AcDbEntity
 67
     1
  8
0
  6
Continuous
 62
     2
100
AcDbMText
 10
931.154890719
 20
5.35876025
 30
0.0
 40
4.0
 41
5.0
 46
0.0
 71
     1
 72
     1
  1
C
  7
TEXTSTYLE_2
 73
     1
 44
1.0
  0
MTEXT
  5
2D0
330
1B
100
AcDbEntity
 67
     1
  8
0
  6
Continuous
 62
     2
100
AcDbMText
 10
831.154890719
 20
5.35876025
 30
0.0
 40
4.0
 41
5.4285714286
 46
0.0
 71
     1
 72
     1
  1
D
  7
TEXTSTYLE_2
 73
     1
 44
1.0
  0
MTEXT
  5
2D1
330
1B
100
AcDbEntity
 67
     1
  8
0
  6
Continuous
 62
     2
100
AcDbMText
 10
731.154890719
 20
5.35876025
 30
0.0
 40
4.0
 41
4.2857142857
 46
0.0
 71
     1
 72
     1
  1
E
  7
TEXTSTYLE_2
 73
     1
 44
1.0
  0
MTEXT
  5
2D2
330
1B
100
AcDbEntity
 67
     1
  8
0
  6
Continuous
 62
     2
100
AcDbMText
 10
631.154890719
 20
5.35876025
 30
0.0
 40
4.0
 41
4.2857142857
 46
0.0
 71
     1
 72
     1
  1
F
  7
TEXTSTYLE_2
 73
     1
 44
1.0
  0
MTEXT
  5
2D3
330
1B
100
AcDbEntity
 67
     1
  8
0
  6
Continuous
 62
     2
100
AcDbMText
 10
531.154890719
 20
5.35876025
 30
0.0
 40
4.0
 41
4.7142857143
 46
0.0
 71
     1
 72
     1
  1
G
  7
TEXTSTYLE_2
 73
     1
 44
1.0
  0
MTEXT
  5
2D4
330
1B
100
AcDbEntity
 67
     1
  8
0
  6
Continuous
 62
     2
100
AcDbMText
 10
431.154890719
 20
5.35876025
 30
0.0
 40
4.0
 41
4.7142857143
 46
0.0
 71
     1
 72
     1
  1
H
  7
TEXTSTYLE_2
 73
     1
 44
1.0
  0
MTEXT
  5
2D5
330
1B
100
AcDbEntity
 67
     1
  8
0
  6
Continuous
 62
     2
100
AcDbMText
 10
331.154890719
 20
5.35876025
 30
0.0
 40
4.0
 41
3.8571428571
 46
0.0
 71
     1
 72
     1
  1
I
  7
TEXTSTYLE_2
 73
     1
 44
1.0
  0
MTEXT
  5
2D6
330
1B
100
AcDbEntity
 67
     1
  8
0
  6
Continuous
 62
     2
100
AcDbMText
 10
231.154890719
 20
5.35876025
 30
0.0
 40
4.0
 41
3.8571428571
 46
0.0
 71
     1
 72
     1
  1
L
  7
TEXTSTYLE_2
 73
     1
 44
1.0
  0
MTEXT
  5
2D7
330
1B
100
AcDbEntity
 67
     1
  8
0
  6
Continuous
 62
     2
100
AcDbMText
 10
131.154890719
 20
5.35876025
 30
0.0
 40
4.0
 41
5.1428571429
 46
0.0
 71
     1
 72
     1
  1
M
  7
TEXTSTYLE_2
 73
     1
 44
1.0
  0
MTEXT
  5
2D8
330
1B
100
AcDbEntity
 67
     1
  8
0
  6
Continuous
 62
     2
100
AcDbMText
 10
31.154890719
 20
5.35876025
 30
0.0
 40
4.0
 41
4.7142857143
 46
0.0
 71
     1
 72
     1
  1
N
  7
TEXTSTYLE_2
 73
     1
 44
1.0
  0
MTEXT
  5
2D9
330
1B
100
AcDbEntity
 67
     1
  8
0
  6
Continuous
 62
     2
100
AcDbMText
 10
1183.6467220993
 20
60.6268709614
 30
0.0
 40
4.0
 41
3.4285714286
 46
0.0
 71
     1
 72
     1
  1
1
  7
TEXTSTYLE_2
 73
     1
 44
1.0
  0
MTEXT
  5
2DA
330
1B
100
AcDbEntity
 67
     1
  8
0
  6
Continuous
 62
     2
100
AcDbMText
 10
1183.6467220993
 20
160.6268709614
 30
0.0
 40
4.0
 41
4.7142857143
 46
0.0
 71
     1
 72
     1
  1
2
  7
TEXTSTYLE_2
 73
     1
 44
1.0
  0
MTEXT
  5
2DB
330
1B
100
AcDbEntity
 67
     1
  8
0
  6
Continuous
 62
     2
100
AcDbMText
 10
1183.6467220993
 20
260.6268709614
 30
0.0
 40
4.0
 41
4.2857142857
 46
0.0
 71
     1
 72
     1
  1
3
  7
TEXTSTYLE_2
 73
     1
 44
1.0
  0
MTEXT
  5
2DC
330
1B
100
AcDbEntity
 67
     1
  8
0
  6
Continuous
 62
     2
100
AcDbMText
 10
1183.6467220993
 20
360.6268709614
 30
0.0
 40
4.0
 41
4.7142857143
 46
0.0
 71
     1
 72
     1
  1
4
  7
TEXTSTYLE_2
 73
     1
 44
1.0
  0
MTEXT
  5
2DD
330
1B
100
AcDbEntity
 67
     1
  8
0
  6
Continuous
 62
     2
100
AcDbMText
 10
1183.6467220993
 20
460.6268709614
 30
0.0
 40
4.0
 41
4.2857142857
 46
0.0
 71
     1
 72
     1
  1
5
  7
TEXTSTYLE_2
 73
     1
 44
1.0
  0
MTEXT
  5
2DE
330
1B
100
AcDbEntity
 67
     1
  8
0
  6
Continuous
 62
     2
100
AcDbMText
 10
1183.6467220993
 20
560.6268709614
 30
0.0
 40
4.0
 41
4.7142857143
 46
0.0
 71
     1
 72
     1
  1
6
  7
TEXTSTYLE_2
 73
     1
 44
1.0
  0
MTEXT
  5
2DF
330
1B
100
AcDbEntity
 67
     1
  8
0
  6
Continuous
 62
     2
100
AcDbMText
 10
1183.6467220993
 20
660.6268709614
 30
0.0
 40
4.0
 41
4.7142857143
 46
0.0
 71
     1
 72
     1
  1
7
  7
TEXTSTYLE_2
 73
     1
 44
1.0
  0
MTEXT
  5
2E0
330
1B
100
AcDbEntity
 67
     1
  8
0
  6
Continuous
 62
     2
100
AcDbMText
 10
1183.8487460335
 20
775.1725942251
 30
0.0
 40
4.0
 41
4.7142857143
 46
0.0
 71
     1
 72
     1
  1
8
  7
TEXTSTYLE_2
 73
     1
 44
1.0
  0
MTEXT
  5
2E1
330
1B
100
AcDbEntity
 67
     1
  8
0
  6
Continuous
 62
     2
100
AcDbMText
 10
1131.154890719
 20
839.35876025
 30
0.0
 40
4.0
 41
5.1428571429
 46
0.0
 71
     1
 72
     1
  1
A
  7
TEXTSTYLE_2
 73
     1
 44
1.0
  0
MTEXT
  5
2E2
330
1B
100
AcDbEntity
 67
     1
  8
0
  6
Continuous
 62
     2
100
AcDbMText
 10
1031.154890719
 20
839.35876025
 30
0.0
 40
4.0
 41
4.7142857143
 46
0.0
 71
     1
 72
     1
  1
B
  7
TEXTSTYLE_2
 73
     1
 44
1.0
  0
MTEXT
  5
2E3
330
1B
100
AcDbEntity
 67
     1
  8
0
  6
Continuous
 62
     2
100
AcDbMText
 10
931.154890719
 20
839.35876025
 30
0.0
 40
4.0
 41
5.0
 46
0.0
 71
     1
 72
     1
  1
C
  7
TEXTSTYLE_2
 73
     1
 44
1.0
  0
MTEXT
  5
2E4
330
1B
100
AcDbEntity
 67
     1
  8
0
  6
Continuous
 62
     2
100
AcDbMText
 10
831.154890719
 20
839.35876025
 30
0.0
 40
4.0
 41
5.4285714286
 46
0.0
 71
     1
 72
     1
  1
D
  7
TEXTSTYLE_2
 73
     1
 44
1.0
  0
MTEXT
  5
2E5
330
1B
100
AcDbEntity
 67
     1
  8
0
  6
Continuous
 62
     2
100
AcDbMText
 10
731.154890719
 20
839.35876025
 30
0.0
 40
4.0
 41
4.2857142857
 46
0.0
 71
     1
 72
     1
  1
E
  7
TEXTSTYLE_2
 73
     1
 44
1.0
  0
MTEXT
  5
2E6
330
1B
100
AcDbEntity
 67
     1
  8
0
  6
Continuous
 62
     2
100
AcDbMText
 10
631.154890719
 20
839.35876025
 30
0.0
 40
4.0
 41
4.2857142857
 46
0.0
 71
     1
 72
     1
  1
F
  7
TEXTSTYLE_2
 73
     1
 44
1.0
  0
MTEXT
  5
2E7
330
1B
100
AcDbEntity
 67
     1
  8
0
  6
Continuous
 62
     2
100
AcDbMText
 10
531.154890719
 20
839.35876025
 30
0.0
 40
4.0
 41
4.7142857143
 46
0.0
 71
     1
 72
     1
  1
G
  7
TEXTSTYLE_2
 73
     1
 44
1.0
  0
MTEXT
  5
2E8
330
1B
100
AcDbEntity
 67
     1
  8
0
  6
Continuous
 62
     2
100
AcDbMText
 10
431.154890719
 20
839.35876025
 30
0.0
 40
4.0
 41
4.7142857143
 46
0.0
 71
     1
 72
     1
  1
H
  7
TEXTSTYLE_2
 73
     1
 44
1.0
  0
MTEXT
  5
2E9
330
1B
100
AcDbEntity
 67
     1
  8
0
  6
Continuous
 62
     2
100
AcDbMText
 10
331.154890719
 20
839.35876025
 30
0.0
 40
4.0
 41
3.8571428571
 46
0.0
 71
     1
 72
     1
  1
I
  7
TEXTSTYLE_2
 73
     1
 44
1.0
  0
MTEXT
  5
2EA
330
1B
100
AcDbEntity
 67
     1
  8
0
  6
Continuous
 62
     2
100
AcDbMText
 10
231.154890719
 20
839.35876025
 30
0.0
 40
4.0
 41
3.8571428571
 46
0.0
 71
     1
 72
     1
  1
L
  7
TEXTSTYLE_2
 73
     1
 44
1.0
  0
MTEXT
  5
2EB
330
1B
100
AcDbEntity
 67
     1
  8
0
  6
Continuous
 62
     2
100
AcDbMText
 10
131.154890719
 20
839.35876025
 30
0.0
 40
4.0
 41
5.1428571429
 46
0.0
 71
     1
 72
     1
  1
M
  7
TEXTSTYLE_2
 73
     1
 44
1.0
  0
MTEXT
  5
2EC
330
1B
100
AcDbEntity
 67
     1
  8
0
  6
Continuous
 62
     2
100
AcDbMText
 10
31.154890719
 20
839.35876025
 30
0.0
 40
4.0
 41
4.7142857143
 46
0.0
 71
     1
 72
     1
  1
N
  7
TEXTSTYLE_2
 73
     1
 44
1.0
  0
MTEXT
  5
2ED
330
1B
100
AcDbEntity
 67
     1
  8
0
  6
Continuous
 62
     2
100
AcDbMText
 10
1.6467220993
 20
60.6268709614
 30
0.0
 40
4.0
 41
3.4285714286
 46
0.0
 71
     1
 72
     1
  1
1
  7
TEXTSTYLE_2
 73
     1
 44
1.0
  0
MTEXT
  5
2EE
330
1B
100
AcDbEntity
 67
     1
  8
0
  6
Continuous
 62
     2
100
AcDbMText
 10
1.6467220993
 20
160.6268709614
 30
0.0
 40
4.0
 41
4.7142857143
 46
0.0
 71
     1
 72
     1
  1
2
  7
TEXTSTYLE_2
 73
     1
 44
1.0
  0
MTEXT
  5
2EF
330
1B
100
AcDbEntity
 67
     1
  8
0
  6
Continuous
 62
     2
100
AcDbMText
 10
1.6467220993
 20
260.6268709614
 30
0.0
 40
4.0
 41
4.2857142857
 46
0.0
 71
     1
 72
     1
  1
3
  7
TEXTSTYLE_2
 73
     1
 44
1.0
  0
MTEXT
  5
2F0
330
1B
100
AcDbEntity
 67
     1
  8
0
  6
Continuous
 62
     2
100
AcDbMText
 10
1.6467220993
 20
360.6268709614
 30
0.0
 40
4.0
 41
4.7142857143
 46
0.0
 71
     1
 72
     1
  1
4
  7
TEXTSTYLE_2
 73
     1
 44
1.0
  0
MTEXT
  5
2F1
330
1B
100
AcDbEntity
 67
     1
  8
0
  6
Continuous
 62
     2
100
AcDbMText
 10
1.6467220993
 20
460.6268709614
 30
0.0
 40
4.0
 41
4.2857142857
 46
0.0
 71
     1
 72
     1
  1
5
  7
TEXTSTYLE_2
 73
     1
 44
1.0
  0
MTEXT
  5
2F2
330
1B
100
AcDbEntity
 67
     1
  8
0
  6
Continuous
 62
     2
100
AcDbMText
 10
1.6467220993
 20
560.6268709614
 30
0.0
 40
4.0
 41
4.7142857143
 46
0.0
 71
     1
 72
     1
  1
6
  7
TEXTSTYLE_2
 73
     1
 44
1.0
  0
MTEXT
  5
2F3
330
1B
100
AcDbEntity
 67
     1
  8
0
  6
Continuous
 62
     2
100
AcDbMText
 10
1.6467220993
 20
660.6268709614
 30
0.0
 40
4.0
 41
4.7142857143
 46
0.0
 71
     1
 72
     1
  1
7
  7
TEXTSTYLE_2
 73
     1
 44
1.0
  0
MTEXT
  5
2F4
330
1B
100
AcDbEntity
 67
     1
  8
0
  6
Continuous
 62
     2
100
AcDbMText
 10
1.8487460335
 20
775.1725942251
 30
0.0
 40
4.0
 41
4.7142857143
 46
0.0
 71
     1
 72
     1
  1
8
  7
TEXTSTYLE_2
 73
     1
 44
1.0
  0
VIEWPORT
  5
2F5
330
1B
100
AcDbEntity
 67
     1
  8
0
100
AcDbViewport
 10
0.0
 20
0.0
 30
0.0
 40
1401.884824902724
 41
991.332840466926
 68
     1
 69
     1
 12
659.6556420233462
 22
420.4999999999999
 13
0.0
 23
0.0
 14
1.0
 24
1.0
 15
0.0
 25
0.0
 16
0.0
 26
0.0
 36
1.0
 17
0.0
 27
0.0
 37
0.0
 42
50.0
 43
0.0
 44
0.0
 45
991.332840466926
 50
0.0
 51
0.0
 72
   100
 90
   557216
  1

281
     0
 71
     1
 74
     0
110
0.0
120
0.0
130
0.0
111
1.0
121
0.0
131
0.0
112
0.0
122
1.0
132
0.0
 79
     0
146
0.0
170
     0
 61
     5
348
4C9
292
     1
282
     1
141
0.0
142
0.0
 63
   256
  0
LINE
  5
2F6
330
1B
100
AcDbEntity
 67
     1
  8
7_ALL_FEATURES
  6
Continuous
 62
     7
100
AcDbLine
 10
1138.9690364437
 20
357.7540342878
 30
0.0
 11
1138.9690364437
 21
356.8790342878
 31
0.0
  0
LINE
  5
2F7
330
1B
100
AcDbEntity
 67
     1
  8
7_ALL_FEATURES
  6
Continuous
 62
     7
100
AcDbLine
 10
1138.9690364437
 20
356.8790342878
 30
0.0
 11
1138.0940364437
 21
356.8790342878
 31
0.0
  0
LINE
  5
2F8
330
1B
100
AcDbEntity
 67
     1
  8
7_ALL_FEATURES
  6
Continuous
 62
     7
100
AcDbLine
 10
1138.0940364437
 20
356.1290342878
 30
0.0
 11
1138.9690364437
 21
356.1290342878
 31
0.0
  0
LINE
  5
2F9
330
1B
100
AcDbEntity
 67
     1
  8
7_ALL_FEATURES
  6
Continuous
 62
     7
100
AcDbLine
 10
1138.9690364437
 20
356.1290342878
 30
0.0
 11
1138.9690364437
 21
355.2540342878
 31
0.0
  0
LINE
  5
2FA
330
1B
100
AcDbEntity
 67
     1
  8
7_ALL_FEATURES
  6
Continuous
 62
     7
100
AcDbLine
 10
1139.7190364437
 20
355.2540342878
 30
0.0
 11
1139.7190364437
 21
356.1290342878
 31
0.0
  0
LINE
  5
2FB
330
1B
100
AcDbEntity
 67
     1
  8
7_ALL_FEATURES
  6
Continuous
 62
     7
100
AcDbLine
 10
1139.7190364437
 20
356.1290342878
 30
0.0
 11
1140.5940364437
 21
356.1290342878
 31
0.0
  0
LINE
  5
2FC
330
1B
100
AcDbEntity
 67
     1
  8
7_ALL_FEATURES
  6
Continuous
 62
     7
100
AcDbLine
 10
1140.5940364437
 20
356.8790342878
 30
0.0
 11
1139.7190364437
 21
356.8790342878
 31
0.0
  0
LINE
  5
2FD
330
1B
100
AcDbEntity
 67
     1
  8
7_ALL_FEATURES
  6
Continuous
 62
     7
100
AcDbLine
 10
1139.7190364437
 20
356.8790342878
 30
0.0
 11
1139.7190364437
 21
357.7540342878
 31
0.0
  0
ARC
  5
2FE
330
1B
100
AcDbEntity
 67
     1
  8
3_ALL_AXES
  6
Continuous
 62
     7
100
AcDbCircle
 10
1139.3440364437
 20
356.5040342878
 30
0.0
 40
2.75
100
AcDbArc
 50
180.0
 51
360.0
  0
ARC
  5
2FF
330
1B
100
AcDbEntity
 67
     1
  8
3_ALL_AXES
  6
Continuous
 62
     7
100
AcDbCircle
 10
1139.3440364437
 20
356.5040342878
 30
0.0
 40
2.75
100
AcDbArc
 50
0.0
 51
180.0
  0
LINE
  5
300
330
1B
100
AcDbEntity
 67
     1
  8
7_ALL_FEATURES
  6
Continuous
 62
     7
100
AcDbLine
 10
1140.5940364437
 20
356.8790342878
 30
0.0
 11
1140.5940364437
 21
356.1290342878
 31
0.0
  0
LINE
  5
301
330
1B
100
AcDbEntity
 67
     1
  8
7_ALL_FEATURES
  6
Continuous
 62
     7
100
AcDbLine
 10
1138.9690364437
 20
357.7540342878
 30
0.0
 11
1139.7190364437
 21
357.7540342878
 31
0.0
  0
LINE
  5
302
330
1B
100
AcDbEntity
 67
     1
  8
7_ALL_FEATURES
  6
Continuous
 62
     7
100
AcDbLine
 10
1138.0940364437
 20
356.1290342878
 30
0.0
 11
1138.0940364437
 21
356.8790342878
 31
0.0
  0
LINE
  5
303
330
1B
100
AcDbEntity
 67
     1
  8
7_ALL_FEATURES
  6
Continuous
 62
     7
100
AcDbLine
 10
1139.7190364437
 20
355.2540342878
 30
0.0
 11
1138.9690364437
 21
355.2540342878
 31
0.0
  0
LINE
  5
304
330
1B
100
AcDbEntity
 67
     1
  8
7_ALL_FEATURES
  6
Continuous
 62
     7
100
AcDbLine
 10
1102.5690364437
 20
357.7540342878
 30
0.0
 11
1102.5690364437
 21
356.8790342878
 31
0.0
  0
LINE
  5
305
330
1B
100
AcDbEntity
 67
     1
  8
7_ALL_FEATURES
  6
Continuous
 62
     7
100
AcDbLine
 10
1102.5690364437
 20
356.8790342878
 30
0.0
 11
1101.6940364437
 21
356.8790342878
 31
0.0
  0
LINE
  5
306
330
1B
100
AcDbEntity
 67
     1
  8
7_ALL_FEATURES
  6
Continuous
 62
     7
100
AcDbLine
 10
1101.6940364437
 20
356.1290342878
 30
0.0
 11
1102.5690364437
 21
356.1290342878
 31
0.0
  0
LINE
  5
307
330
1B
100
AcDbEntity
 67
     1
  8
7_ALL_FEATURES
  6
Continuous
 62
     7
100
AcDbLine
 10
1102.5690364437
 20
356.1290342878
 30
0.0
 11
1102.5690364437
 21
355.2540342878
 31
0.0
  0
LINE
  5
308
330
1B
100
AcDbEntity
 67
     1
  8
7_ALL_FEATURES
  6
Continuous
 62
     7
100
AcDbLine
 10
1103.3190364437
 20
355.2540342878
 30
0.0
 11
1103.3190364437
 21
356.1290342878
 31
0.0
  0
LINE
  5
309
330
1B
100
AcDbEntity
 67
     1
  8
7_ALL_FEATURES
  6
Continuous
 62
     7
100
AcDbLine
 10
1103.3190364437
 20
356.1290342878
 30
0.0
 11
1104.1940364437
 21
356.1290342878
 31
0.0
  0
LINE
  5
30A
330
1B
100
AcDbEntity
 67
     1
  8
7_ALL_FEATURES
  6
Continuous
 62
     7
100
AcDbLine
 10
1104.1940364437
 20
356.8790342878
 30
0.0
 11
1103.3190364437
 21
356.8790342878
 31
0.0
  0
LINE
  5
30B
330
1B
100
AcDbEntity
 67
     1
  8
7_ALL_FEATURES
  6
Continuous
 62
     7
100
AcDbLine
 10
1103.3190364437
 20
356.8790342878
 30
0.0
 11
1103.3190364437
 21
357.7540342878
 31
0.0
  0
ARC
  5
30C
330
1B
100
AcDbEntity
 67
     1
  8
3_ALL_AXES
  6
Continuous
 62
     7
100
AcDbCircle
 10
1102.9440364437
 20
356.5040342878
 30
0.0
 40
2.75
100
AcDbArc
 50
180.0
 51
360.0
  0
ARC
  5
30D
330
1B
100
AcDbEntity
 67
     1
  8
3_ALL_AXES
  6
Continuous
 62
     7
100
AcDbCircle
 10
1102.9440364437
 20
356.5040342878
 30
0.0
 40
2.75
100
AcDbArc
 50
0.0
 51
180.0
  0
LINE
  5
30E
330
1B
100
AcDbEntity
 67
     1
  8
7_ALL_FEATURES
  6
Continuous
 62
     7
100
AcDbLine
 10
1104.1940364437
 20
356.8790342878
 30
0.0
 11
1104.1940364437
 21
356.1290342878
 31
0.0
  0
LINE
  5
30F
330
1B
100
AcDbEntity
 67
     1
  8
7_ALL_FEATURES
  6
Continuous
 62
     7
100
AcDbLine
 10
1102.5690364437
 20
357.7540342878
 30
0.0
 11
1103.3190364437
 21
357.7540342878
 31
0.0
  0
LINE
  5
310
330
1B
100
AcDbEntity
 67
     1
  8
7_ALL_FEATURES
  6
Continuous
 62
     7
100
AcDbLine
 10
1101.6940364437
 20
356.1290342878
 30
0.0
 11
1101.6940364437
 21
356.8790342878
 31
0.0
  0
LINE
  5
311
330
1B
100
AcDbEntity
 67
     1
  8
7_ALL_FEATURES
  6
Continuous
 62
     7
100
AcDbLine
 10
1103.3190364437
 20
355.2540342878
 30
0.0
 11
1102.5690364437
 21
355.2540342878
 31
0.0
  0
LINE
  5
312
330
1B
100
AcDbEntity
 67
     1
  8
7_ALL_FEATURES
  6
Continuous
 62
     7
100
AcDbLine
 10
1138.9690364437
 20
406.5040342878
 30
0.0
 11
1138.9690364437
 21
405.6290342878
 31
0.0
  0
LINE
  5
313
330
1B
100
AcDbEntity
 67
     1
  8
7_ALL_FEATURES
  6
Continuous
 62
     7
100
AcDbLine
 10
1138.9690364437
 20
405.6290342878
 30
0.0
 11
1138.0940364437
 21
405.6290342878
 31
0.0
  0
LINE
  5
314
330
1B
100
AcDbEntity
 67
     1
  8
7_ALL_FEATURES
  6
Continuous
 62
     7
100
AcDbLine
 10
1138.0940364437
 20
404.8790342878
 30
0.0
 11
1138.9690364437
 21
404.8790342878
 31
0.0
  0
LINE
  5
315
330
1B
100
AcDbEntity
 67
     1
  8
7_ALL_FEATURES
  6
Continuous
 62
     7
100
AcDbLine
 10
1138.9690364437
 20
404.8790342878
 30
0.0
 11
1138.9690364437
 21
404.0040342878
 31
0.0
  0
LINE
  5
316
330
1B
100
AcDbEntity
 67
     1
  8
7_ALL_FEATURES
  6
Continuous
 62
     7
100
AcDbLine
 10
1139.7190364437
 20
404.0040342878
 30
0.0
 11
1139.7190364437
 21
404.8790342878
 31
0.0
  0
LINE
  5
317
330
1B
100
AcDbEntity
 67
     1
  8
7_ALL_FEATURES
  6
Continuous
 62
     7
100
AcDbLine
 10
1139.7190364437
 20
404.8790342878
 30
0.0
 11
1140.5940364437
 21
404.8790342878
 31
0.0
  0
LINE
  5
318
330
1B
100
AcDbEntity
 67
     1
  8
7_ALL_FEATURES
  6
Continuous
 62
     7
100
AcDbLine
 10
1140.5940364437
 20
405.6290342878
 30
0.0
 11
1139.7190364437
 21
405.6290342878
 31
0.0
  0
LINE
  5
319
330
1B
100
AcDbEntity
 67
     1
  8
7_ALL_FEATURES
  6
Continuous
 62
     7
100
AcDbLine
 10
1139.7190364437
 20
405.6290342878
 30
0.0
 11
1139.7190364437
 21
406.5040342878
 31
0.0
  0
ARC
  5
31A
330
1B
100
AcDbEntity
 67
     1
  8
3_ALL_AXES
  6
Continuous
 62
     7
100
AcDbCircle
 10
1139.3440364437
 20
405.2540342878
 30
0.0
 40
2.75
100
AcDbArc
 50
180.0
 51
360.0
  0
ARC
  5
31B
330
1B
100
AcDbEntity
 67
     1
  8
3_ALL_AXES
  6
Continuous
 62
     7
100
AcDbCircle
 10
1139.3440364437
 20
405.2540342878
 30
0.0
 40
2.75
100
AcDbArc
 50
0.0
 51
180.0
  0
LINE
  5
31C
330
1B
100
AcDbEntity
 67
     1
  8
7_ALL_FEATURES
  6
Continuous
 62
     7
100
AcDbLine
 10
1140.5940364437
 20
405.6290342878
 30
0.0
 11
1140.5940364437
 21
404.8790342878
 31
0.0
  0
LINE
  5
31D
330
1B
100
AcDbEntity
 67
     1
  8
7_ALL_FEATURES
  6
Continuous
 62
     7
100
AcDbLine
 10
1138.9690364437
 20
406.5040342878
 30
0.0
 11
1139.7190364437
 21
406.5040342878
 31
0.0
  0
LINE
  5
31E
330
1B
100
AcDbEntity
 67
     1
  8
7_ALL_FEATURES
  6
Continuous
 62
     7
100
AcDbLine
 10
1138.0940364437
 20
404.8790342878
 30
0.0
 11
1138.0940364437
 21
405.6290342878
 31
0.0
  0
LINE
  5
31F
330
1B
100
AcDbEntity
 67
     1
  8
7_ALL_FEATURES
  6
Continuous
 62
     7
100
AcDbLine
 10
1139.7190364437
 20
404.0040342878
 30
0.0
 11
1138.9690364437
 21
404.0040342878
 31
0.0
  0
LINE
  5
320
330
1B
100
AcDbEntity
 67
     1
  8
7_ALL_FEATURES
  6
Continuous
 62
     7
100
AcDbLine
 10
1102.5690364437
 20
406.5040342878
 30
0.0
 11
1102.5690364437
 21
405.6290342878
 31
0.0
  0
LINE
  5
321
330
1B
100
AcDbEntity
 67
     1
  8
7_ALL_FEATURES
  6
Continuous
 62
     7
100
AcDbLine
 10
1102.5690364437
 20
405.6290342878
 30
0.0
 11
1101.6940364437
 21
405.6290342878
 31
0.0
  0
LINE
  5
322
330
1B
100
AcDbEntity
 67
     1
  8
7_ALL_FEATURES
  6
Continuous
 62
     7
100
AcDbLine
 10
1101.6940364437
 20
404.8790342878
 30
0.0
 11
1102.5690364437
 21
404.8790342878
 31
0.0
  0
LINE
  5
323
330
1B
100
AcDbEntity
 67
     1
  8
7_ALL_FEATURES
  6
Continuous
 62
     7
100
AcDbLine
 10
1102.5690364437
 20
404.8790342878
 30
0.0
 11
1102.5690364437
 21
404.0040342878
 31
0.0
  0
LINE
  5
324
330
1B
100
AcDbEntity
 67
     1
  8
7_ALL_FEATURES
  6
Continuous
 62
     7
100
AcDbLine
 10
1103.3190364437
 20
404.0040342878
 30
0.0
 11
1103.3190364437
 21
404.8790342878
 31
0.0
  0
LINE
  5
325
330
1B
100
AcDbEntity
 67
     1
  8
7_ALL_FEATURES
  6
Continuous
 62
     7
100
AcDbLine
 10
1103.3190364437
 20
404.8790342878
 30
0.0
 11
1104.1940364437
 21
404.8790342878
 31
0.0
  0
LINE
  5
326
330
1B
100
AcDbEntity
 67
     1
  8
7_ALL_FEATURES
  6
Continuous
 62
     7
100
AcDbLine
 10
1104.1940364437
 20
405.6290342878
 30
0.0
 11
1103.3190364437
 21
405.6290342878
 31
0.0
  0
LINE
  5
327
330
1B
100
AcDbEntity
 67
     1
  8
7_ALL_FEATURES
  6
Continuous
 62
     7
100
AcDbLine
 10
1103.3190364437
 20
405.6290342878
 30
0.0
 11
1103.3190364437
 21
406.5040342878
 31
0.0
  0
ARC
  5
328
330
1B
100
AcDbEntity
 67
     1
  8
3_ALL_AXES
  6
Continuous
 62
     7
100
AcDbCircle
 10
1102.9440364437
 20
405.2540342878
 30
0.0
 40
2.75
100
AcDbArc
 50
180.0
 51
360.0
  0
ARC
  5
329
330
1B
100
AcDbEntity
 67
     1
  8
3_ALL_AXES
  6
Continuous
 62
     7
100
AcDbCircle
 10
1102.9440364437
 20
405.2540342878
 30
0.0
 40
2.75
100
AcDbArc
 50
0.0
 51
180.0
  0
LINE
  5
32A
330
1B
100
AcDbEntity
 67
     1
  8
7_ALL_FEATURES
  6
Continuous
 62
     7
100
AcDbLine
 10
1104.1940364437
 20
405.6290342878
 30
0.0
 11
1104.1940364437
 21
404.8790342878
 31
0.0
  0
LINE
  5
32B
330
1B
100
AcDbEntity
 67
     1
  8
7_ALL_FEATURES
  6
Continuous
 62
     7
100
AcDbLine
 10
1102.5690364437
 20
406.5040342878
 30
0.0
 11
1103.3190364437
 21
406.5040342878
 31
0.0
  0
LINE
  5
32C
330
1B
100
AcDbEntity
 67
     1
  8
7_ALL_FEATURES
  6
Continuous
 62
     7
100
AcDbLine
 10
1101.6940364437
 20
404.8790342878
 30
0.0
 11
1101.6940364437
 21
405.6290342878
 31
0.0
  0
LINE
  5
32D
330
1B
100
AcDbEntity
 67
     1
  8
7_ALL_FEATURES
  6
Continuous
 62
     7
100
AcDbLine
 10
1103.3190364437
 20
404.0040342878
 30
0.0
 11
1102.5690364437
 21
404.0040342878
 31
0.0
  0
ARC
  5
32E
330
1B
100
AcDbEntity
 67
     1
  8
7_ALL_FEATURES
  6
Continuous
 62
     7
100
AcDbCircle
 10
1099.6440364437
 20
427.0040342878
 30
0.0
 40
1.5
100
AcDbArc
 50
306.8698976459
 51
53.1301023541
  0
ARC
  5
32F
330
1B
100
AcDbEntity
 67
     1
  8
7_ALL_FEATURES
  6
Continuous
 62
     7
100
AcDbCircle
 10
1101.1440364437
 20
425.0040342878
 30
0.0
 40
1.0
100
AcDbArc
 50
126.8698976458
 51
180.0
  0
LINE
  5
330
330
1B
100
AcDbEntity
 67
     1
  8
7_ALL_FEATURES
  6
Continuous
 62
     7
100
AcDbLine
 10
1100.1440364437
 20
354.5040342878
 30
0.0
 11
1100.1440364437
 21
425.0040342878
 31
0.0
  0
ARC
  5
331
330
1B
100
AcDbEntity
 67
     1
  8
7_ALL_FEATURES
  6
Continuous
 62
     7
100
AcDbCircle
 10
1101.1440364437
 20
354.5040342878
 30
0.0
 40
1.0
100
AcDbArc
 50
180.0
 51
270.0
  0
LINE
  5
332
330
1B
100
AcDbEntity
 67
     1
  8
7_ALL_FEATURES
  6
Continuous
 62
     7
100
AcDbLine
 10
1141.1440364437
 20
353.5040342878
 30
0.0
 11
1101.1440364437
 21
353.5040342878
 31
0.0
  0
ARC
  5
333
330
1B
100
AcDbEntity
 67
     1
  8
7_ALL_FEATURES
  6
Continuous
 62
     7
100
AcDbCircle
 10
1141.1440364437
 20
354.5040342878
 30
0.0
 40
1.0
100
AcDbArc
 50
270.0
 51
360.0
  0
LINE
  5
334
330
1B
100
AcDbEntity
 67
     1
  8
7_ALL_FEATURES
  6
Continuous
 62
     7
100
AcDbLine
 10
1142.1440364437
 20
365.0040342878
 30
0.0
 11
1142.1440364437
 21
354.5040342878
 31
0.0
  0
ARC
  5
335
330
1B
100
AcDbEntity
 67
     1
  8
7_ALL_FEATURES
  6
Continuous
 62
     7
100
AcDbCircle
 10
1141.1440364437
 20
365.0040342878
 30
0.0
 40
1.0
100
AcDbArc
 50
0.0
 51
53.1301023542
  0
ARC
  5
336
330
1B
100
AcDbEntity
 67
     1
  8
7_ALL_FEATURES
  6
Continuous
 62
     7
100
AcDbCircle
 10
1142.6440364437
 20
367.0040342878
 30
0.0
 40
1.5
100
AcDbArc
 50
126.8698976458
 51
233.1301023542
  0
ARC
  5
337
330
1B
100
AcDbEntity
 67
     1
  8
7_ALL_FEATURES
  6
Continuous
 62
     7
100
AcDbCircle
 10
1141.1440364437
 20
369.0040342878
 30
0.0
 40
1.0
100
AcDbArc
 50
306.8698976458
 51
360.0
  0
LINE
  5
338
330
1B
100
AcDbEntity
 67
     1
  8
7_ALL_FEATURES
  6
Continuous
 62
     7
100
AcDbLine
 10
1142.1440364437
 20
436.0040342878
 30
0.0
 11
1142.1440364437
 21
369.0040342878
 31
0.0
  0
ARC
  5
339
330
1B
100
AcDbEntity
 67
     1
  8
7_ALL_FEATURES
  6
Continuous
 62
     7
100
AcDbCircle
 10
1141.1440364437
 20
436.0040342878
 30
0.0
 40
1.0
100
AcDbArc
 50
0.0
 51
90.0
  0
LINE
  5
33A
330
1B
100
AcDbEntity
 67
     1
  8
7_ALL_FEATURES
  6
Continuous
 62
     7
100
AcDbLine
 10
1101.1440364437
 20
437.0040342878
 30
0.0
 11
1141.1440364437
 21
437.0040342878
 31
0.0
  0
ARC
  5
33B
330
1B
100
AcDbEntity
 67
     1
  8
7_ALL_FEATURES
  6
Continuous
 62
     7
100
AcDbCircle
 10
1101.1440364437
 20
436.0040342878
 30
0.0
 40
1.0
100
AcDbArc
 50
90.0
 51
180.0
  0
LINE
  5
33C
330
1B
100
AcDbEntity
 67
     1
  8
7_ALL_FEATURES
  6
Continuous
 62
     7
100
AcDbLine
 10
1100.1440364437
 20
429.0040342878
 30
0.0
 11
1100.1440364437
 21
436.0040342878
 31
0.0
  0
ARC
  5
33D
330
1B
100
AcDbEntity
 67
     1
  8
7_ALL_FEATURES
  6
Continuous
 62
     7
100
AcDbCircle
 10
1101.1440364437
 20
429.0040342878
 30
0.0
 40
1.0
100
AcDbArc
 50
180.0
 51
233.1301023542
  0
ARC
  5
33E
330
1B
100
AcDbEntity
 67
     1
  8
02___PRT_ALL_AXES
  6
Continuous
 62
     7
100
AcDbCircle
 10
1121.1440364437
 20
376.6724890691
 30
0.0
 40
9.5
100
AcDbArc
 50
182.0
 51
358.0
  0
LINE
  5
33F
330
1B
100
AcDbEntity
 67
     1
  8
02___PRT_ALL_AXES
  6
Continuous
 62
     7
100
AcDbLine
 10
1131.1379447139
 20
376.3234941021
 30
0.0
 11
1130.6382493004
 21
376.3409438505
 31
0.0
  0
ARC
  5
340
330
1B
100
AcDbEntity
 67
     1
  8
02___PRT_ALL_AXES
  6
Continuous
 62
     7
100
AcDbCircle
 10
1121.1440364437
 20
376.6724890691
 30
0.0
 40
10.0
100
AcDbArc
 50
182.0
 51
358.0
  0
LINE
  5
341
330
1B
100
AcDbEntity
 67
     1
  8
02___PRT_ALL_AXES
  6
Continuous
 62
     7
100
AcDbLine
 10
1111.649823587
 20
376.3409438505
 30
0.0
 11
1111.1501281735
 21
376.3234941021
 31
0.0
  0
LINE
  5
342
330
1B
100
AcDbEntity
 67
     1
  8
02___PRT_ALL_AXES
  6
Continuous
 62
     7
100
AcDbLine
 10
1111.1501281735
 20
377.0214840362
 30
0.0
 11
1111.649823587
 21
377.0040342878
 31
0.0
  0
ARC
  5
343
330
1B
100
AcDbEntity
 67
     1
  8
02___PRT_ALL_AXES
  6
Continuous
 62
     7
100
AcDbCircle
 10
1121.1440364437
 20
376.6724890691
 30
0.0
 40
10.0
100
AcDbArc
 50
2.0
 51
178.0
  0
LINE
  5
344
330
1B
100
AcDbEntity
 67
     1
  8
02___PRT_ALL_AXES
  6
Continuous
 62
     7
100
AcDbLine
 10
1130.6382493004
 20
377.0040342878
 30
0.0
 11
1131.1379447139
 21
377.0214840362
 31
0.0
  0
ARC
  5
345
330
1B
100
AcDbEntity
 67
     1
  8
02___PRT_ALL_AXES
  6
Continuous
 62
     7
100
AcDbCircle
 10
1121.1440364437
 20
376.6724890691
 30
0.0
 40
9.5
100
AcDbArc
 50
2.0
 51
178.0
  0
LINE
  5
346
330
1B
100
AcDbEntity
 67
     1
  8
7_ALL_FEATURES
  6
Continuous
 62
     7
100
AcDbLine
 10
1141.3309435048
 20
437.0040342878
 30
0.0
 11
1141.1440364437
 21
437.0040342878
 31
0.0
  0
ARC
  5
347
330
1B
100
AcDbEntity
 67
     1
  8
7_ALL_FEATURES
  6
Continuous
 62
     7
100
AcDbCircle
 10
1141.3309435048
 20
436.7040342878
 30
0.0
 40
0.3
100
AcDbArc
 50
47.7009465767
 51
90.0
  0
LINE
  5
348
330
1B
100
AcDbEntity
 67
     1
  8
7_ALL_FEATURES
  6
Continuous
 62
     7
100
AcDbLine
 10
1142.279872904
 20
431.7945891738
 30
0.0
 11
1142.1440364437
 21
432.8263695258
 31
0.0
  0
ARC
  5
349
330
1B
100
AcDbEntity
 67
     1
  8
7_ALL_FEATURES
  6
Continuous
 62
     7
100
AcDbCircle
 10
1134.8440364437
 20
430.8156427322
 30
0.0
 40
7.5
100
AcDbArc
 50
0.0
 51
7.5
  0
LINE
  5
34A
330
1B
100
AcDbEntity
 67
     1
  8
7_ALL_FEATURES
  6
Continuous
 62
     7
100
AcDbLine
 10
1142.3440364437
 20
401.2040342878
 30
0.0
 11
1142.3440364437
 21
430.8156427322
 31
0.0
  0
ARC
  5
34B
330
1B
100
AcDbEntity
 67
     1
  8
7_ALL_FEATURES
  6
Continuous
 62
     7
100
AcDbCircle
 10
1142.1440364437
 20
401.2040342878
 30
0.0
 40
0.2
100
AcDbArc
 50
270.0
 51
360.0
  0
ARC
  5
34C
330
1B
100
AcDbEntity
 67
     1
  8
7_ALL_FEATURES
  6
Continuous
 62
     7
100
AcDbCircle
 10
1142.1440364437
 20
396.3040342878
 30
0.0
 40
0.2
100
AcDbArc
 50
0.0
 51
90.0
  0
LINE
  5
34D
330
1B
100
AcDbEntity
 67
     1
  8
7_ALL_FEATURES
  6
Continuous
 62
     7
100
AcDbLine
 10
1142.3440364437
 20
383.3040342878
 30
0.0
 11
1142.3440364437
 21
396.3040342878
 31
0.0
  0
ARC
  5
34E
330
1B
100
AcDbEntity
 67
     1
  8
7_ALL_FEATURES
  6
Continuous
 62
     7
100
AcDbCircle
 10
1142.0440364437
 20
383.3040342878
 30
0.0
 40
0.3
100
AcDbArc
 50
289.5991446746
 51
360.0
  0
ARC
  5
34F
330
1B
100
AcDbEntity
 67
     1
  8
7_ALL_FEATURES
  6
Continuous
 62
     7
100
AcDbCircle
 10
1142.0440364437
 20
378.2040342878
 30
0.0
 40
0.3
100
AcDbArc
 50
0.0
 51
70.4008553254
  0
LINE
  5
350
330
1B
100
AcDbEntity
 67
     1
  8
7_ALL_FEATURES
  6
Continuous
 62
     7
100
AcDbLine
 10
1142.3440364437
 20
354.5040342878
 30
0.0
 11
1142.3440364437
 21
378.2040342878
 31
0.0
  0
ARC
  5
351
330
1B
100
AcDbEntity
 67
     1
  8
7_ALL_FEATURES
  6
Continuous
 62
     7
100
AcDbCircle
 10
1141.3440364437
 20
354.5040342878
 30
0.0
 40
1.0
100
AcDbArc
 50
270.0
 51
360.0
  0
LINE
  5
352
330
1B
100
AcDbEntity
 67
     1
  8
7_ALL_FEATURES
  6
Continuous
 62
     7
100
AcDbLine
 10
1141.1440364437
 20
353.5040342878
 30
0.0
 11
1141.3440364437
 21
353.5040342878
 31
0.0
  0
LINE
  5
353
330
1B
100
AcDbEntity
 67
     1
  8
7_ALL_FEATURES
  6
Continuous
 62
     7
100
AcDbLine
 10
1100.9440364437
 20
353.5040342878
 30
0.0
 11
1101.1440364437
 21
353.5040342878
 31
0.0
  0
ARC
  5
354
330
1B
100
AcDbEntity
 67
     1
  8
7_ALL_FEATURES
  6
Continuous
 62
     7
100
AcDbCircle
 10
1100.9440364437
 20
354.5040342878
 30
0.0
 40
1.0
100
AcDbArc
 50
180.0
 51
270.0
  0
LINE
  5
355
330
1B
100
AcDbEntity
 67
     1
  8
7_ALL_FEATURES
  6
Continuous
 62
     7
100
AcDbLine
 10
1099.9440364437
 20
378.2040342878
 30
0.0
 11
1099.9440364437
 21
354.5040342878
 31
0.0
  0
ARC
  5
356
330
1B
100
AcDbEntity
 67
     1
  8
7_ALL_FEATURES
  6
Continuous
 62
     7
100
AcDbCircle
 10
1100.2440364437
 20
378.2040342878
 30
0.0
 40
0.3
100
AcDbArc
 50
109.5991446746
 51
180.0
  0
ARC
  5
357
330
1B
100
AcDbEntity
 67
     1
  8
7_ALL_FEATURES
  6
Continuous
 62
     7
100
AcDbCircle
 10
1100.2440364437
 20
383.3040342878
 30
0.0
 40
0.3
100
AcDbArc
 50
180.0
 51
250.4008553254
  0
LINE
  5
358
330
1B
100
AcDbEntity
 67
     1
  8
7_ALL_FEATURES
  6
Continuous
 62
     7
100
AcDbLine
 10
1099.9440364437
 20
396.3040342878
 30
0.0
 11
1099.9440364437
 21
383.3040342878
 31
0.0
  0
ARC
  5
359
330
1B
100
AcDbEntity
 67
     1
  8
7_ALL_FEATURES
  6
Continuous
 62
     7
100
AcDbCircle
 10
1100.1440364437
 20
396.3040342878
 30
0.0
 40
0.2
100
AcDbArc
 50
90.0
 51
180.0
  0
ARC
  5
35A
330
1B
100
AcDbEntity
 67
     1
  8
7_ALL_FEATURES
  6
Continuous
 62
     7
100
AcDbCircle
 10
1100.1440364437
 20
401.2040342878
 30
0.0
 40
0.2
100
AcDbArc
 50
180.0
 51
270.0
  0
LINE
  5
35B
330
1B
100
AcDbEntity
 67
     1
  8
7_ALL_FEATURES
  6
Continuous
 62
     7
100
AcDbLine
 10
1099.9440364437
 20
430.8156427322
 30
0.0
 11
1099.9440364437
 21
401.2040342878
 31
0.0
  0
ARC
  5
35C
330
1B
100
AcDbEntity
 67
     1
  8
7_ALL_FEATURES
  6
Continuous
 62
     7
100
AcDbCircle
 10
1107.4440364437
 20
430.8156427322
 30
0.0
 40
7.5
100
AcDbArc
 50
172.5
 51
180.0
  0
LINE
  5
35D
330
1B
100
AcDbEntity
 67
     1
  8
7_ALL_FEATURES
  6
Continuous
 62
     7
100
AcDbLine
 10
1100.1440364437
 20
432.8263695258
 30
0.0
 11
1100.0081999834
 21
431.7945891738
 31
0.0
  0
ARC
  5
35E
330
1B
100
AcDbEntity
 67
     1
  8
7_ALL_FEATURES
  6
Continuous
 62
     7
100
AcDbCircle
 10
1100.9571293826
 20
436.7040342878
 30
0.0
 40
0.3
100
AcDbArc
 50
90.0
 51
132.2990534233
  0
LINE
  5
35F
330
1B
100
AcDbEntity
 67
     1
  8
7_ALL_FEATURES
  6
Continuous
 62
     7
100
AcDbLine
 10
1101.1440364437
 20
437.0040342878
 30
0.0
 11
1100.9571293826
 21
437.0040342878
 31
0.0
  0
LINE
  5
360
330
1B
100
AcDbEntity
 67
     1
  8
3_ALL_AXES
  6
Continuous
 62
     7
100
AcDbLine
 10
1031.7617449168
 20
405.2540342878
 30
0.0
 11
1031.7617449168
 21
402.504082354
 31
0.0
  0
LINE
  5
361
330
1B
100
AcDbEntity
 67
     1
  8
3_ALL_AXES
  6
Continuous
 62
     7
100
AcDbLine
 10
1031.7617449168
 20
405.2540342878
 30
0.0
 11
1031.7617449168
 21
408.0039862216
 31
0.0
  0
LINE
  5
362
330
1B
100
AcDbEntity
 67
     1
  8
3_ALL_AXES
  6
Continuous
 62
     7
100
AcDbLine
 10
1031.6110245872
 20
402.5040342878
 30
0.0
 11
1031.7617449168
 21
402.5040342878
 31
0.0
  0
LINE
  5
363
330
1B
100
AcDbEntity
 67
     1
  8
3_ALL_AXES
  6
Continuous
 62
     7
100
AcDbLine
 10
1031.2617449168
 20
402.7971147304
 30
0.0
 11
1031.6110245872
 21
402.5040342878
 31
0.0
  0
LINE
  5
364
330
1B
100
AcDbEntity
 67
     1
  8
3_ALL_AXES
  6
Continuous
 62
     7
100
AcDbLine
 10
1031.6110245872
 20
408.0040342878
 30
0.0
 11
1031.7617449168
 21
408.0040342878
 31
0.0
  0
LINE
  5
365
330
1B
100
AcDbEntity
 67
     1
  8
3_ALL_AXES
  6
Continuous
 62
     7
100
AcDbLine
 10
1031.2617449168
 20
407.7109538452
 30
0.0
 11
1031.6110245872
 21
408.0040342878
 31
0.0
  0
LINE
  5
366
330
1B
100
AcDbEntity
 67
     1
  8
3_ALL_AXES
  6
Continuous
 62
     7
100
AcDbLine
 10
1031.6110245872
 20
405.2540342878
 30
0.0
 11
1031.6110245872
 21
402.5040342878
 31
0.0
  0
LINE
  5
367
330
1B
100
AcDbEntity
 67
     1
  8
3_ALL_AXES
  6
Continuous
 62
     7
100
AcDbLine
 10
1031.6110245872
 20
405.2540342878
 30
0.0
 11
1031.6110245872
 21
408.0040342878
 31
0.0
  0
LINE
  5
368
330
1B
100
AcDbEntity
 67
     1
  8
3_ALL_AXES
  6
Continuous
 62
     7
100
AcDbLine
 10
1031.7617449168
 20
356.5040342878
 30
0.0
 11
1031.7617449168
 21
353.754082354
 31
0.0
  0
LINE
  5
369
330
1B
100
AcDbEntity
 67
     1
  8
3_ALL_AXES
  6
Continuous
 62
     7
100
AcDbLine
 10
1031.7617449168
 20
356.5040342878
 30
0.0
 11
1031.7617449168
 21
359.2539862216
 31
0.0
  0
LINE
  5
36A
330
1B
100
AcDbEntity
 67
     1
  8
3_ALL_AXES
  6
Continuous
 62
     7
100
AcDbLine
 10
1031.6110245872
 20
353.7540342878
 30
0.0
 11
1031.7617449168
 21
353.7540342878
 31
0.0
  0
LINE
  5
36B
330
1B
100
AcDbEntity
 67
     1
  8
3_ALL_AXES
  6
Continuous
 62
     7
100
AcDbLine
 10
1031.2617449168
 20
354.0471147304
 30
0.0
 11
1031.6110245872
 21
353.7540342878
 31
0.0
  0
LINE
  5
36C
330
1B
100
AcDbEntity
 67
     1
  8
3_ALL_AXES
  6
Continuous
 62
     7
100
AcDbLine
 10
1031.6110245872
 20
359.2540342878
 30
0.0
 11
1031.7617449168
 21
359.2540342878
 31
0.0
  0
LINE
  5
36D
330
1B
100
AcDbEntity
 67
     1
  8
3_ALL_AXES
  6
Continuous
 62
     7
100
AcDbLine
 10
1031.2617449168
 20
358.9609538452
 30
0.0
 11
1031.6110245872
 21
359.2540342878
 31
0.0
  0
LINE
  5
36E
330
1B
100
AcDbEntity
 67
     1
  8
3_ALL_AXES
  6
Continuous
 62
     7
100
AcDbLine
 10
1031.6110245872
 20
356.5040342878
 30
0.0
 11
1031.6110245872
 21
353.7540342878
 31
0.0
  0
LINE
  5
36F
330
1B
100
AcDbEntity
 67
     1
  8
3_ALL_AXES
  6
Continuous
 62
     7
100
AcDbLine
 10
1031.6110245872
 20
356.5040342878
 30
0.0
 11
1031.6110245872
 21
359.2540342878
 31
0.0
  0
LINE
  5
370
330
1B
100
AcDbEntity
 67
     1
  8
3_ALL_AXES
  6
Continuous
 62
     7
100
AcDbLine
 10
109.4124652465
 20
402.5040342878
 30
0.0
 11
109.2617449168
 21
402.5040342878
 31
0.0
  0
LINE
  5
371
330
1B
100
AcDbEntity
 67
     1
  8
3_ALL_AXES
  6
Continuous
 62
     7
100
AcDbLine
 10
109.2617449168
 20
402.504082354
 30
0.0
 11
109.2617449168
 21
405.2540342878
 31
0.0
  0
LINE
  5
372
330
1B
100
AcDbEntity
 67
     1
  8
3_ALL_AXES
  6
Continuous
 62
     7
100
AcDbLine
 10
109.7617449168
 20
402.7971147304
 30
0.0
 11
109.4124652465
 21
402.5040342878
 31
0.0
  0
LINE
  5
373
330
1B
100
AcDbEntity
 67
     1
  8
3_ALL_AXES
  6
Continuous
 62
     7
100
AcDbLine
 10
109.4124652465
 20
408.0040342878
 30
0.0
 11
109.2617449168
 21
408.0040342878
 31
0.0
  0
LINE
  5
374
330
1B
100
AcDbEntity
 67
     1
  8
3_ALL_AXES
  6
Continuous
 62
     7
100
AcDbLine
 10
109.2617449168
 20
408.0039862216
 30
0.0
 11
109.2617449168
 21
405.2540342878
 31
0.0
  0
LINE
  5
375
330
1B
100
AcDbEntity
 67
     1
  8
3_ALL_AXES
  6
Continuous
 62
     7
100
AcDbLine
 10
109.7617449168
 20
407.7109538452
 30
0.0
 11
109.4124652465
 21
408.0040342878
 31
0.0
  0
LINE
  5
376
330
1B
100
AcDbEntity
 67
     1
  8
3_ALL_AXES
  6
Continuous
 62
     7
100
AcDbLine
 10
109.4124652465
 20
408.0040342878
 30
0.0
 11
109.4124652465
 21
405.2540342878
 31
0.0
  0
LINE
  5
377
330
1B
100
AcDbEntity
 67
     1
  8
3_ALL_AXES
  6
Continuous
 62
     7
100
AcDbLine
 10
109.4124652465
 20
402.5040342878
 30
0.0
 11
109.4124652465
 21
405.2540342878
 31
0.0
  0
LINE
  5
378
330
1B
100
AcDbEntity
 67
     1
  8
3_ALL_AXES
  6
Continuous
 62
     7
100
AcDbLine
 10
109.4124652465
 20
353.7540342878
 30
0.0
 11
109.2617449168
 21
353.7540342878
 31
0.0
  0
LINE
  5
379
330
1B
100
AcDbEntity
 67
     1
  8
3_ALL_AXES
  6
Continuous
 62
     7
100
AcDbLine
 10
109.2617449168
 20
353.754082354
 30
0.0
 11
109.2617449168
 21
356.5040342878
 31
0.0
  0
LINE
  5
37A
330
1B
100
AcDbEntity
 67
     1
  8
3_ALL_AXES
  6
Continuous
 62
     7
100
AcDbLine
 10
109.7617449168
 20
354.0471147304
 30
0.0
 11
109.4124652465
 21
353.7540342878
 31
0.0
  0
LINE
  5
37B
330
1B
100
AcDbEntity
 67
     1
  8
3_ALL_AXES
  6
Continuous
 62
     7
100
AcDbLine
 10
109.4124652465
 20
359.2540342878
 30
0.0
 11
109.2617449168
 21
359.2540342878
 31
0.0
  0
LINE
  5
37C
330
1B
100
AcDbEntity
 67
     1
  8
3_ALL_AXES
  6
Continuous
 62
     7
100
AcDbLine
 10
109.2617449168
 20
359.2539862216
 30
0.0
 11
109.2617449168
 21
356.5040342878
 31
0.0
  0
LINE
  5
37D
330
1B
100
AcDbEntity
 67
     1
  8
3_ALL_AXES
  6
Continuous
 62
     7
100
AcDbLine
 10
109.7617449168
 20
358.9609538452
 30
0.0
 11
109.4124652465
 21
359.2540342878
 31
0.0
  0
LINE
  5
37E
330
1B
100
AcDbEntity
 67
     1
  8
3_ALL_AXES
  6
Continuous
 62
     7
100
AcDbLine
 10
109.4124652465
 20
359.2540342878
 30
0.0
 11
109.4124652465
 21
356.5040342878
 31
0.0
  0
LINE
  5
37F
330
1B
100
AcDbEntity
 67
     1
  8
3_ALL_AXES
  6
Continuous
 62
     7
100
AcDbLine
 10
109.4124652465
 20
353.7540342878
 30
0.0
 11
109.4124652465
 21
356.5040342878
 31
0.0
  0
LINE
  5
380
330
1B
100
AcDbEntity
 67
     1
  8
7_ALL_FEATURES
  6
Continuous
 62
     7
100
AcDbLine
 10
1031.2617449168
 20
353.5040342878
 30
0.0
 11
1029.7617449168
 21
353.5040342878
 31
0.0
  0
LINE
  5
381
330
1B
100
AcDbEntity
 67
     1
  8
7_ALL_FEATURES
  6
Continuous
 62
     7
100
AcDbLine
 10
1031.2617449168
 20
428.2040342878
 30
0.0
 11
1031.2617449168
 21
425.8040342878
 31
0.0
  0
LINE
  5
382
330
1B
100
AcDbEntity
 67
     1
  8
7_ALL_FEATURES
  6
Continuous
 62
     7
100
AcDbLine
 10
1031.2617449168
 20
425.8040342878
 30
0.0
 11
1031.2617449168
 21
425.0040342878
 31
0.0
  0
LINE
  5
383
330
1B
100
AcDbEntity
 67
     1
  8
7_ALL_FEATURES
  6
Continuous
 62
     7
100
AcDbLine
 10
1031.2617449168
 20
354.5040342878
 30
0.0
 11
1031.2617449168
 21
425.0040342878
 31
0.0
  0
LINE
  5
384
330
1B
100
AcDbEntity
 67
     1
  8
7_ALL_FEATURES
  6
Continuous
 62
     7
100
AcDbLine
 10
1031.2617449168
 20
354.5040342878
 30
0.0
 11
1031.2617449168
 21
353.5040342878
 31
0.0
  0
LINE
  5
385
330
1B
100
AcDbEntity
 67
     1
  8
7_ALL_FEATURES
  6
Continuous
 62
     7
100
AcDbLine
 10
1031.2617449168
 20
437.0040342878
 30
0.0
 11
1031.2617449168
 21
436.0040342878
 31
0.0
  0
LINE
  5
386
330
1B
100
AcDbEntity
 67
     1
  8
7_ALL_FEATURES
  6
Continuous
 62
     7
100
AcDbLine
 10
1031.2617449168
 20
353.5040342878
 30
0.0
 11
1029.7617449168
 21
353.5040342878
 31
0.0
  0
LINE
  5
387
330
1B
100
AcDbEntity
 67
     1
  8
7_ALL_FEATURES
  6
Continuous
 62
     7
100
AcDbLine
 10
1031.2617449168
 20
437.0040342878
 30
0.0
 11
1029.7617449168
 21
437.0040342878
 31
0.0
  0
LINE
  5
388
330
1B
100
AcDbEntity
 67
     1
  8
7_ALL_FEATURES
  6
Continuous
 62
     7
100
AcDbLine
 10
1031.2617449168
 20
429.0040342878
 30
0.0
 11
1031.2617449168
 21
436.0040342878
 31
0.0
  0
LINE
  5
389
330
1B
100
AcDbEntity
 67
     1
  8
7_ALL_FEATURES
  6
Continuous
 62
     7
100
AcDbLine
 10
1031.2617449168
 20
429.0040342878
 30
0.0
 11
1031.2617449168
 21
428.2040342878
 31
0.0
  0
LINE
  5
38A
330
1B
100
AcDbEntity
 67
     1
  8
7_ALL_FEATURES
  6
Continuous
 62
     9
100
AcDbLine
 10
1031.2617449168
 20
429.0040342878
 30
0.0
 11
1029.7617449168
 21
429.0040342878
 31
0.0
  0
LINE
  5
38B
330
1B
100
AcDbEntity
 67
     1
  8
7_ALL_FEATURES
  6
Continuous
 62
     9
100
AcDbLine
 10
1031.2617449168
 20
425.8040342878
 30
0.0
 11
1029.7617449168
 21
425.8040342878
 31
0.0
  0
LINE
  5
38C
330
1B
100
AcDbEntity
 67
     1
  8
7_ALL_FEATURES
  6
Continuous
 62
     9
100
AcDbLine
 10
1031.2617449168
 20
428.2040342878
 30
0.0
 11
1029.7617449168
 21
428.2040342878
 31
0.0
  0
LINE
  5
38D
330
1B
100
AcDbEntity
 67
     1
  8
7_ALL_FEATURES
  6
Continuous
 62
     9
100
AcDbLine
 10
1031.2617449168
 20
354.5040342878
 30
0.0
 11
1029.7617449168
 21
354.5040342878
 31
0.0
  0
LINE
  5
38E
330
1B
100
AcDbEntity
 67
     1
  8
7_ALL_FEATURES
  6
Continuous
 62
     9
100
AcDbLine
 10
1031.2617449168
 20
425.0040342878
 30
0.0
 11
1029.7617449168
 21
425.0040342878
 31
0.0
  0
LINE
  5
38F
330
1B
100
AcDbEntity
 67
     1
  8
7_ALL_FEATURES
  6
Continuous
 62
     9
100
AcDbLine
 10
1031.2617449168
 20
436.0040342878
 30
0.0
 11
1029.7617449168
 21
436.0040342878
 31
0.0
  0
LINE
  5
390
330
1B
100
AcDbEntity
 67
     1
  8
7_ALL_FEATURES
  6
Continuous
 62
     7
100
AcDbLine
 10
109.7617449168
 20
437.0040342878
 30
0.0
 11
111.2617449168
 21
437.0040342878
 31
0.0
  0
LINE
  5
391
330
1B
100
AcDbEntity
 67
     1
  8
7_ALL_FEATURES
  6
Continuous
 62
     7
100
AcDbLine
 10
109.7617449168
 20
353.5040342878
 30
0.0
 11
109.7617449168
 21
354.5040342878
 31
0.0
  0
LINE
  5
392
330
1B
100
AcDbEntity
 67
     1
  8
7_ALL_FEATURES
  6
Continuous
 62
     7
100
AcDbLine
 10
109.7617449168
 20
365.0040342878
 30
0.0
 11
109.7617449168
 21
354.5040342878
 31
0.0
  0
LINE
  5
393
330
1B
100
AcDbEntity
 67
     1
  8
7_ALL_FEATURES
  6
Continuous
 62
     7
100
AcDbLine
 10
109.7617449168
 20
365.0040342878
 30
0.0
 11
109.7617449168
 21
365.8040342878
 31
0.0
  0
LINE
  5
394
330
1B
100
AcDbEntity
 67
     1
  8
7_ALL_FEATURES
  6
Continuous
 62
     7
100
AcDbLine
 10
109.7617449168
 20
365.8040342878
 30
0.0
 11
109.7617449168
 21
368.2040342878
 31
0.0
  0
LINE
  5
395
330
1B
100
AcDbEntity
 67
     1
  8
7_ALL_FEATURES
  6
Continuous
 62
     7
100
AcDbLine
 10
109.7617449168
 20
368.2040342878
 30
0.0
 11
109.7617449168
 21
369.0040342878
 31
0.0
  0
LINE
  5
396
330
1B
100
AcDbEntity
 67
     1
  8
7_ALL_FEATURES
  6
Continuous
 62
     7
100
AcDbLine
 10
109.7617449168
 20
353.5040342878
 30
0.0
 11
111.2617449168
 21
353.5040342878
 31
0.0
  0
LINE
  5
397
330
1B
100
AcDbEntity
 67
     1
  8
7_ALL_FEATURES
  6
Continuous
 62
     7
100
AcDbLine
 10
109.7617449168
 20
436.0040342878
 30
0.0
 11
109.7617449168
 21
369.0040342878
 31
0.0
  0
LINE
  5
398
330
1B
100
AcDbEntity
 67
     1
  8
7_ALL_FEATURES
  6
Continuous
 62
     7
100
AcDbLine
 10
109.7617449168
 20
437.0040342878
 30
0.0
 11
111.2617449168
 21
437.0040342878
 31
0.0
  0
LINE
  5
399
330
1B
100
AcDbEntity
 67
     1
  8
7_ALL_FEATURES
  6
Continuous
 62
     7
100
AcDbLine
 10
109.7617449168
 20
436.0040342878
 30
0.0
 11
109.7617449168
 21
437.0040342878
 31
0.0
  0
LINE
  5
39A
330
1B
100
AcDbEntity
 67
     1
  8
7_ALL_FEATURES
  6
Continuous
 62
     9
100
AcDbLine
 10
109.7617449168
 20
369.0040342878
 30
0.0
 11
111.2617449168
 21
369.0040342878
 31
0.0
  0
LINE
  5
39B
330
1B
100
AcDbEntity
 67
     1
  8
7_ALL_FEATURES
  6
Continuous
 62
     9
100
AcDbLine
 10
109.7617449168
 20
365.8040342878
 30
0.0
 11
111.2617449168
 21
365.8040342878
 31
0.0
  0
LINE
  5
39C
330
1B
100
AcDbEntity
 67
     1
  8
7_ALL_FEATURES
  6
Continuous
 62
     9
100
AcDbLine
 10
109.7617449168
 20
368.2040342878
 30
0.0
 11
111.2617449168
 21
368.2040342878
 31
0.0
  0
LINE
  5
39D
330
1B
100
AcDbEntity
 67
     1
  8
7_ALL_FEATURES
  6
Continuous
 62
     9
100
AcDbLine
 10
109.7617449168
 20
354.5040342878
 30
0.0
 11
111.2617449168
 21
354.5040342878
 31
0.0
  0
LINE
  5
39E
330
1B
100
AcDbEntity
 67
     1
  8
7_ALL_FEATURES
  6
Continuous
 62
     9
100
AcDbLine
 10
109.7617449168
 20
365.0040342878
 30
0.0
 11
111.2617449168
 21
365.0040342878
 31
0.0
  0
LINE
  5
39F
330
1B
100
AcDbEntity
 67
     1
  8
7_ALL_FEATURES
  6
Continuous
 62
     9
100
AcDbLine
 10
109.7617449168
 20
436.0040342878
 30
0.0
 11
111.2617449168
 21
436.0040342878
 31
0.0
  0
LINE
  5
3A0
330
1B
100
AcDbEntity
 67
     1
  8
7_ALL_FEATURES
  6
Continuous
 62
     7
100
AcDbLine
 10
216.2617449168
 20
383.0040342878
 30
0.0
 11
1029.7617449168
 21
383.0040342878
 31
0.0
  0
ARC
  5
3A1
330
1B
100
AcDbEntity
 67
     1
  8
02___PRT_ALL_AXES
  6
Continuous
 62
     7
100
AcDbCircle
 10
211.2617449168
 20
371.0040342878
 30
0.0
 40
13.0
100
AcDbArc
 50
108.8878819509
 51
112.619864948
  0
LINE
  5
3A2
330
1B
100
AcDbEntity
 67
     1
  8
7_ALL_FEATURES
  6
Continuous
 62
     7
100
AcDbLine
 10
111.2617449168
 20
383.0231883948
 30
0.0
 11
111.2617449168
 21
383.3040342878
 31
0.0
  0
LINE
  5
3A3
330
1B
100
AcDbEntity
 67
     1
  8
7_ALL_FEATURES
  6
Continuous
 62
     7
100
AcDbLine
 10
111.2617449168
 20
383.0040342878
 30
0.0
 11
206.2617449168
 21
383.0040342878
 31
0.0
  0
LINE
  5
3A4
330
1B
100
AcDbEntity
 67
     1
  8
7_ALL_FEATURES
  6
Continuous
 62
     7
100
AcDbLine
 10
200.643364626
 20
378.5040342878
 30
0.0
 11
111.2617449168
 21
378.5040342878
 31
0.0
  0
LINE
  5
3A5
330
1B
100
AcDbEntity
 67
     1
  8
7_ALL_FEATURES
  6
Continuous
 62
     7
100
AcDbLine
 10
1029.7617449168
 20
354.5040342878
 30
0.0
 11
1029.7617449168
 21
353.5040342878
 31
0.0
  0
LINE
  5
3A6
330
1B
100
AcDbEntity
 67
     1
  8
7_ALL_FEATURES
  6
Continuous
 62
     7
100
AcDbLine
 10
1029.7617449168
 20
354.5040342878
 30
0.0
 11
1029.7617449168
 21
378.2040342878
 31
0.0
  0
LINE
  5
3A7
330
1B
100
AcDbEntity
 67
     1
  8
7_ALL_FEATURES
  6
Continuous
 62
     7
100
AcDbLine
 10
1029.7617449168
 20
378.4848801808
 30
0.0
 11
1029.7617449168
 21
378.2040342878
 31
0.0
  0
LINE
  5
3A8
330
1B
100
AcDbEntity
 67
     1
  8
7_ALL_FEATURES
  6
Continuous
 62
     7
100
AcDbLine
 10
1029.7617449168
 20
383.3040342878
 30
0.0
 11
1029.7617449168
 21
383.0231883948
 31
0.0
  0
LINE
  5
3A9
330
1B
100
AcDbEntity
 67
     1
  8
7_ALL_FEATURES
  6
Continuous
 62
     7
100
AcDbLine
 10
1029.7617449168
 20
383.3040342878
 30
0.0
 11
1029.7617449168
 21
396.3040342878
 31
0.0
  0
LINE
  5
3AA
330
1B
100
AcDbEntity
 67
     1
  8
7_ALL_FEATURES
  6
Continuous
 62
     7
100
AcDbLine
 10
1029.7617449168
 20
396.5040342878
 30
0.0
 11
1029.7617449168
 21
396.3040342878
 31
0.0
  0
LINE
  5
3AB
330
1B
100
AcDbEntity
 67
     1
  8
7_ALL_FEATURES
  6
Continuous
 62
     7
100
AcDbLine
 10
111.2617449168
 20
396.5040342878
 30
0.0
 11
1029.7617449168
 21
396.5040342878
 31
0.0
  0
LINE
  5
3AC
330
1B
100
AcDbEntity
 67
     1
  8
7_ALL_FEATURES
  6
Continuous
 62
     7
100
AcDbLine
 10
111.2617449168
 20
401.0040342878
 30
0.0
 11
111.2617449168
 21
401.2040342878
 31
0.0
  0
LINE
  5
3AD
330
1B
100
AcDbEntity
 67
     1
  8
7_ALL_FEATURES
  6
Continuous
 62
     7
100
AcDbLine
 10
111.2617449168
 20
401.0040342878
 30
0.0
 11
1029.7617449168
 21
401.0040342878
 31
0.0
  0
LINE
  5
3AE
330
1B
100
AcDbEntity
 67
     1
  8
7_ALL_FEATURES
  6
Continuous
 62
     7
100
AcDbLine
 10
1029.7617449168
 20
401.2040342878
 30
0.0
 11
1029.7617449168
 21
401.0040342878
 31
0.0
  0
LINE
  5
3AF
330
1B
100
AcDbEntity
 67
     1
  8
7_ALL_FEATURES
  6
Continuous
 62
     7
100
AcDbLine
 10
1029.7617449168
 20
401.2040342878
 30
0.0
 11
1029.7617449168
 21
430.8156427322
 31
0.0
  0
LINE
  5
3B0
330
1B
100
AcDbEntity
 67
     1
  8
7_ALL_FEATURES
  6
Continuous
 62
     7
100
AcDbLine
 10
1029.7617449168
 20
431.7945891738
 30
0.0
 11
1029.7617449168
 21
430.8156427322
 31
0.0
  0
LINE
  5
3B1
330
1B
100
AcDbEntity
 67
     1
  8
7_ALL_FEATURES
  6
Continuous
 62
     7
100
AcDbLine
 10
1029.7617449168
 20
431.7945891738
 30
0.0
 11
1029.7617449168
 21
432.8263695258
 31
0.0
  0
LINE
  5
3B2
330
1B
100
AcDbEntity
 67
     1
  8
7_ALL_FEATURES
  6
Continuous
 62
     7
100
AcDbLine
 10
1029.7617449168
 20
437.0040342878
 30
0.0
 11
1029.7617449168
 21
436.9247913894
 31
0.0
  0
LINE
  5
3B3
330
1B
100
AcDbEntity
 67
     1
  8
7_ALL_FEATURES
  6
Continuous
 62
     7
100
AcDbLine
 10
111.2617449168
 20
437.0040342878
 30
0.0
 11
1029.7617449168
 21
437.0040342878
 31
0.0
  0
LINE
  5
3B4
330
1B
100
AcDbEntity
 67
     1
  8
7_ALL_FEATURES
  6
Continuous
 62
     7
100
AcDbLine
 10
111.2617449168
 20
436.9247913894
 30
0.0
 11
111.2617449168
 21
437.0040342878
 31
0.0
  0
LINE
  5
3B5
330
1B
100
AcDbEntity
 67
     1
  8
7_ALL_FEATURES
  6
Continuous
 62
     7
100
AcDbLine
 10
111.2617449168
 20
431.7945891738
 30
0.0
 11
111.2617449168
 21
432.8263695258
 31
0.0
  0
LINE
  5
3B6
330
1B
100
AcDbEntity
 67
     1
  8
7_ALL_FEATURES
  6
Continuous
 62
     7
100
AcDbLine
 10
111.2617449168
 20
430.8156427322
 30
0.0
 11
111.2617449168
 21
431.7945891738
 31
0.0
  0
LINE
  5
3B7
330
1B
100
AcDbEntity
 67
     1
  8
7_ALL_FEATURES
  6
Continuous
 62
     7
100
AcDbLine
 10
111.2617449168
 20
401.2040342878
 30
0.0
 11
111.2617449168
 21
430.8156427322
 31
0.0
  0
ARC
  5
3B8
330
1B
100
AcDbEntity
 67
     1
  8
02___PRT_ALL_AXES
  6
Continuous
 62
     7
100
AcDbCircle
 10
211.2617449168
 20
371.0040342878
 30
0.0
 40
13.0
100
AcDbArc
 50
67.380135052
 51
71.11211804909999
  0
ARC
  5
3B9
330
1B
100
AcDbEntity
 67
     1
  8
02___PRT_ALL_AXES
  6
Continuous
 62
     7
100
AcDbCircle
 10
211.2617449168
 20
371.0040342878
 30
0.0
 40
13.0
100
AcDbArc
 50
33.6312774479
 51
35.2344179846
  0
ARC
  5
3BA
330
1B
100
AcDbEntity
 67
     1
  8
02___PRT_ALL_AXES
  6
Continuous
 62
     7
100
AcDbCircle
 10
211.2617449168
 20
371.0040342878
 30
0.0
 40
13.0
100
AcDbArc
 50
144.7655820154
 51
146.3687225521
  0
LINE
  5
3BB
330
1B
100
AcDbEntity
 67
     1
  8
7_ALL_FEATURES
  6
Continuous
 62
     7
100
AcDbLine
 10
111.2617449168
 20
396.3040342878
 30
0.0
 11
111.2617449168
 21
396.5040342878
 31
0.0
  0
LINE
  5
3BC
330
1B
100
AcDbEntity
 67
     1
  8
7_ALL_FEATURES
  6
Continuous
 62
     7
100
AcDbLine
 10
111.2617449168
 20
383.3040342878
 30
0.0
 11
111.2617449168
 21
396.3040342878
 31
0.0
  0
LINE
  5
3BD
330
1B
100
AcDbEntity
 67
     1
  8
7_ALL_FEATURES
  6
Continuous
 62
     7
100
AcDbLine
 10
111.2617449168
 20
378.2040342878
 30
0.0
 11
111.2617449168
 21
378.4848801808
 31
0.0
  0
LINE
  5
3BE
330
1B
100
AcDbEntity
 67
     1
  8
7_ALL_FEATURES
  6
Continuous
 62
     7
100
AcDbLine
 10
111.2617449168
 20
354.5040342878
 30
0.0
 11
111.2617449168
 21
378.2040342878
 31
0.0
  0
LINE
  5
3BF
330
1B
100
AcDbEntity
 67
     1
  8
7_ALL_FEATURES
  6
Continuous
 62
     7
100
AcDbLine
 10
111.2617449168
 20
353.5040342878
 30
0.0
 11
111.2617449168
 21
354.5040342878
 31
0.0
  0
LINE
  5
3C0
330
1B
100
AcDbEntity
 67
     1
  8
02___PRT_ALL_AXES
  6
Continuous
 62
     7
100
AcDbLine
 10
216.2617449168
 20
383.0040342878
 30
0.0
 11
1029.7617449168
 21
383.0040342878
 31
0.0
  0
LINE
  5
3C1
330
1B
100
AcDbEntity
 67
     1
  8
02___PRT_ALL_AXES
  6
Continuous
 62
     7
100
AcDbLine
 10
111.2617449168
 20
383.0040342878
 30
0.0
 11
206.2617449168
 21
383.0040342878
 31
0.0
  0
LINE
  5
3C2
330
1B
100
AcDbEntity
 67
     1
  8
02___PRT_ALL_AXES
  6
Continuous
 62
     7
100
AcDbLine
 10
1029.7617449168
 20
378.5040342878
 30
0.0
 11
221.8801252076
 21
378.5040342878
 31
0.0
  0
LINE
  5
3C3
330
1B
100
AcDbEntity
 67
     1
  8
02___PRT_ALL_AXES
  6
Continuous
 62
     7
100
AcDbLine
 10
200.643364626
 20
378.5040342878
 30
0.0
 11
111.2617449168
 21
378.5040342878
 31
0.0
  0
ARC
  5
3C4
330
1B
100
AcDbEntity
 67
     1
  8
02___PRT_ALL_AXES
  6
Continuous
 62
     7
100
AcDbCircle
 10
211.2617449168
 20
371.0040342878
 30
0.0
 40
13.0
100
AcDbArc
 50
112.619111191
 51
144.7663769709
  0
ARC
  5
3C5
330
1B
100
AcDbEntity
 67
     1
  8
02___PRT_ALL_AXES
  6
Continuous
 62
     7
100
AcDbCircle
 10
211.2617449168
 20
371.0040342878
 30
0.0
 40
13.0
100
AcDbArc
 50
35.2336230291
 51
67.380888809
  0
LINE
  5
3C6
330
1B
100
AcDbEntity
 67
     1
  8
7_ALL_FEATURES
  6
Continuous
 62
     7
100
AcDbLine
 10
111.2617449168
 20
437.0040342878
 30
0.0
 11
1029.7617449168
 21
437.0040342878
 31
0.0
  0
LINE
  5
3C7
330
1B
100
AcDbEntity
 67
     1
  8
7_ALL_FEATURES
  6
Continuous
 62
     7
100
AcDbLine
 10
111.2617449168
 20
401.0040342878
 30
0.0
 11
1029.7617449168
 21
401.0040342878
 31
0.0
  0
LINE
  5
3C8
330
1B
100
AcDbEntity
 67
     1
  8
7_ALL_FEATURES
  6
Continuous
 62
     7
100
AcDbLine
 10
111.2617449168
 20
396.5040342878
 30
0.0
 11
1029.7617449168
 21
396.5040342878
 31
0.0
  0
ARC
  5
3C9
330
1B
100
AcDbEntity
 67
     1
  8
02___PRT_ALL_AXES
  6
Continuous
 62
     7
100
AcDbCircle
 10
211.2617449168
 20
371.0040342878
 30
0.0
 40
13.0
100
AcDbArc
 50
71.11211804909999
 51
108.8878819509
  0
ARC
  5
3CA
330
1B
100
AcDbEntity
 67
     1
  8
02___PRT_ALL_AXES
  6
Continuous
 62
     7
100
AcDbCircle
 10
211.2617449168
 20
371.0040342878
 30
0.0
 40
13.0
100
AcDbArc
 50
146.3687225521
 51
180.0
  0
ARC
  5
3CB
330
1B
100
AcDbEntity
 67
     1
  8
02___PRT_ALL_AXES
  6
Continuous
 62
     7
100
AcDbCircle
 10
211.2617449168
 20
371.0040342878
 30
0.0
 40
13.0
100
AcDbArc
 50
0.0
 51
33.6312774479
  0
ARC
  5
3CC
330
1B
100
AcDbEntity
 67
     1
  8
02___PRT_ALL_AXES
  6
Continuous
 62
     7
100
AcDbCircle
 10
211.2617449168
 20
371.0040342878
 30
0.0
 40
13.0
100
AcDbArc
 50
180.0
 51
360.0
  0
LINE
  5
3CD
330
1B
100
AcDbEntity
 67
     1
  8
7_ALL_FEATURES
  6
Continuous
 62
     7
100
AcDbLine
 10
111.2617449168
 20
353.5040342878
 30
0.0
 11
1029.7617449168
 21
353.5040342878
 31
0.0
  0
LINE
  5
3CE
330
1B
100
AcDbEntity
 67
     1
  8
02___PRT_ALL_AXES
  6
Continuous
 62
     9
100
AcDbLine
 10
215.4700699993
 20
383.3040342878
 30
0.0
 11
1029.7617449168
 21
383.3040342878
 31
0.0
  0
LINE
  5
3CF
330
1B
100
AcDbEntity
 67
     1
  8
7_ALL_FEATURES
  6
Continuous
 62
     9
100
AcDbLine
 10
111.2617449168
 20
396.3040342878
 30
0.0
 11
1029.7617449168
 21
396.3040342878
 31
0.0
  0
LINE
  5
3D0
330
1B
100
AcDbEntity
 67
     1
  8
02___PRT_ALL_AXES
  6
Continuous
 62
     9
100
AcDbLine
 10
111.2617449168
 20
383.3040342878
 30
0.0
 11
207.0534198343
 21
383.3040342878
 31
0.0
  0
LINE
  5
3D1
330
1B
100
AcDbEntity
 67
     1
  8
02___PRT_ALL_AXES
  6
Continuous
 62
     9
100
AcDbLine
 10
200.4376976146
 20
378.2040342878
 30
0.0
 11
111.2617449168
 21
378.2040342878
 31
0.0
  0
LINE
  5
3D2
330
1B
100
AcDbEntity
 67
     1
  8
7_ALL_FEATURES
  6
Continuous
 62
     9
100
AcDbLine
 10
111.2617449168
 20
354.5040342878
 30
0.0
 11
1029.7617449168
 21
354.5040342878
 31
0.0
  0
LINE
  5
3D3
330
1B
100
AcDbEntity
 67
     1
  8
02___PRT_ALL_AXES
  6
Continuous
 62
     9
100
AcDbLine
 10
1029.7617449168
 20
378.2040342878
 30
0.0
 11
222.085792219
 21
378.2040342878
 31
0.0
  0
LINE
  5
3D4
330
1B
100
AcDbEntity
 67
     1
  8
7_ALL_FEATURES
  6
Continuous
 62
     9
100
AcDbLine
 10
111.2617449168
 20
431.7945891738
 30
0.0
 11
1029.7617449168
 21
431.7945891738
 31
0.0
  0
LINE
  5
3D5
330
1B
100
AcDbEntity
 67
     1
  8
7_ALL_FEATURES
  6
Continuous
 62
     9
100
AcDbLine
 10
111.2617449168
 20
436.7431921455
 30
0.0
 11
1029.7617449168
 21
436.7431921455
 31
0.0
  0
LINE
  5
3D6
330
1B
100
AcDbEntity
 67
     1
  8
7_ALL_FEATURES
  6
Continuous
 62
     9
100
AcDbLine
 10
111.2617449168
 20
430.8156427322
 30
0.0
 11
1029.7617449168
 21
430.8156427322
 31
0.0
  0
LINE
  5
3D7
330
1B
100
AcDbEntity
 67
     1
  8
7_ALL_FEATURES
  6
Continuous
 62
     9
100
AcDbLine
 10
111.2617449168
 20
401.2040342878
 30
0.0
 11
1029.7617449168
 21
401.2040342878
 31
0.0
  0
LINE
  5
3D8
330
1B
100
AcDbEntity
 67
     1
  8
7_ALL_FEATURES
  6
Continuous
 62
     3
100
AcDbLine
 10
1029.7617449168
 20
378.4848801808
 30
0.0
 11
1029.7617449168
 21
378.5040342878
 31
0.0
  0
LINE
  5
3D9
330
1B
100
AcDbEntity
 67
     1
  8
7_ALL_FEATURES
  6
Continuous
 62
     3
100
AcDbLine
 10
1029.7617449168
 20
378.5040342878
 30
0.0
 11
1029.7617449168
 21
383.0040342878
 31
0.0
  0
LINE
  5
3DA
330
1B
100
AcDbEntity
 67
     1
  8
7_ALL_FEATURES
  6
Continuous
 62
     3
100
AcDbLine
 10
1029.7617449168
 20
383.0040342878
 30
0.0
 11
1029.7617449168
 21
383.0231883948
 31
0.0
  0
LINE
  5
3DB
330
1B
100
AcDbEntity
 67
     1
  8
7_ALL_FEATURES
  6
Continuous
 62
     3
100
AcDbLine
 10
1029.7617449168
 20
396.5040342878
 30
0.0
 11
1029.7617449168
 21
401.0040342878
 31
0.0
  0
LINE
  5
3DC
330
1B
100
AcDbEntity
 67
     1
  8
7_ALL_FEATURES
  6
Continuous
 62
     3
100
AcDbLine
 10
1029.7617449168
 20
436.0040342878
 30
0.0
 11
1029.7617449168
 21
436.6777299315
 31
0.0
  0
LINE
  5
3DD
330
1B
100
AcDbEntity
 67
     1
  8
7_ALL_FEATURES
  6
Continuous
 62
     3
100
AcDbLine
 10
1029.7617449168
 20
436.6777299315
 30
0.0
 11
1029.7617449168
 21
436.8020515151
 31
0.0
  0
LINE
  5
3DE
330
1B
100
AcDbEntity
 67
     1
  8
7_ALL_FEATURES
  6
Continuous
 62
     3
100
AcDbLine
 10
1029.7617449168
 20
436.8020515151
 30
0.0
 11
1029.7617449168
 21
436.9247913894
 31
0.0
  0
LINE
  5
3DF
330
1B
100
AcDbEntity
 67
     1
  8
7_ALL_FEATURES
  6
Continuous
 62
     3
100
AcDbLine
 10
1029.7617449168
 20
432.8263695258
 30
0.0
 11
1029.7617449168
 21
436.0040342878
 31
0.0
  0
LINE
  5
3E0
330
1B
100
AcDbEntity
 67
     1
  8
7_ALL_FEATURES
  6
Continuous
 62
     3
100
AcDbLine
 10
111.2617449168
 20
436.9247913894
 30
0.0
 11
111.2617449168
 21
436.8020515151
 31
0.0
  0
LINE
  5
3E1
330
1B
100
AcDbEntity
 67
     1
  8
7_ALL_FEATURES
  6
Continuous
 62
     3
100
AcDbLine
 10
111.2617449168
 20
436.8020515151
 30
0.0
 11
111.2617449168
 21
436.6777299315
 31
0.0
  0
LINE
  5
3E2
330
1B
100
AcDbEntity
 67
     1
  8
7_ALL_FEATURES
  6
Continuous
 62
     3
100
AcDbLine
 10
111.2617449168
 20
436.6777299315
 30
0.0
 11
111.2617449168
 21
436.0040342878
 31
0.0
  0
LINE
  5
3E3
330
1B
100
AcDbEntity
 67
     1
  8
7_ALL_FEATURES
  6
Continuous
 62
     3
100
AcDbLine
 10
111.2617449168
 20
436.0040342878
 30
0.0
 11
111.2617449168
 21
432.8263695258
 31
0.0
  0
LINE
  5
3E4
330
1B
100
AcDbEntity
 67
     1
  8
7_ALL_FEATURES
  6
Continuous
 62
     3
100
AcDbLine
 10
111.2617449168
 20
401.0040342878
 30
0.0
 11
111.2617449168
 21
396.5040342878
 31
0.0
  0
LINE
  5
3E5
330
1B
100
AcDbEntity
 67
     1
  8
7_ALL_FEATURES
  6
Continuous
 62
     3
100
AcDbLine
 10
111.2617449168
 20
383.0231883948
 30
0.0
 11
111.2617449168
 21
383.0040342878
 31
0.0
  0
LINE
  5
3E6
330
1B
100
AcDbEntity
 67
     1
  8
7_ALL_FEATURES
  6
Continuous
 62
     3
100
AcDbLine
 10
111.2617449168
 20
383.0040342878
 30
0.0
 11
111.2617449168
 21
378.5040342878
 31
0.0
  0
LINE
  5
3E7
330
1B
100
AcDbEntity
 67
     1
  8
7_ALL_FEATURES
  6
Continuous
 62
     3
100
AcDbLine
 10
111.2617449168
 20
378.5040342878
 30
0.0
 11
111.2617449168
 21
378.4848801808
 31
0.0
  0
LINE
  5
3E8
330
1B
100
AcDbEntity
 67
     1
  8
3_ALL_AXES
  6
Continuous
 62
     7
100
AcDbLine
 10
1031.7617449168
 20
212.4526531833
 30
0.0
 11
1031.6110245872
 21
212.4526531833
 31
0.0
  0
LINE
  5
3E9
330
1B
100
AcDbEntity
 67
     1
  8
3_ALL_AXES
  6
Continuous
 62
     7
100
AcDbLine
 10
1031.7617449168
 20
217.9526531833
 30
0.0
 11
1031.6110245872
 21
217.9526531833
 31
0.0
  0
LINE
  5
3EA
330
1B
100
AcDbEntity
 67
     1
  8
3_ALL_AXES
  6
Continuous
 62
     7
100
AcDbLine
 10
1031.7617449168
 20
212.4526531833
 30
0.0
 11
1031.7617449168
 21
217.9526531833
 31
0.0
  0
LINE
  5
3EB
330
1B
100
AcDbEntity
 67
     1
  8
3_ALL_AXES
  6
Continuous
 62
     7
100
AcDbLine
 10
1031.6110245872
 20
212.4526531833
 30
0.0
 11
1031.2617449168
 21
212.7457336258
 31
0.0
  0
LINE
  5
3EC
330
1B
100
AcDbEntity
 67
     1
  8
3_ALL_AXES
  6
Continuous
 62
     7
100
AcDbLine
 10
1031.6110245872
 20
217.9526531833
 30
0.0
 11
1031.2617449168
 21
217.6595727407
 31
0.0
  0
LINE
  5
3ED
330
1B
100
AcDbEntity
 67
     1
  8
3_ALL_AXES
  6
Continuous
 62
     7
100
AcDbLine
 10
1031.6110245872
 20
212.4526531833
 30
0.0
 11
1031.7617449168
 21
212.4526531833
 31
0.0
  0
LINE
  5
3EE
330
1B
100
AcDbEntity
 67
     1
  8
3_ALL_AXES
  6
Continuous
 62
     7
100
AcDbLine
 10
1031.2617449168
 20
212.7457336258
 30
0.0
 11
1031.6110245872
 21
212.4526531833
 31
0.0
  0
LINE
  5
3EF
330
1B
100
AcDbEntity
 67
     1
  8
3_ALL_AXES
  6
Continuous
 62
     7
100
AcDbLine
 10
1031.6110245872
 20
217.9526531833
 30
0.0
 11
1031.7617449168
 21
217.9526531833
 31
0.0
  0
LINE
  5
3F0
330
1B
100
AcDbEntity
 67
     1
  8
3_ALL_AXES
  6
Continuous
 62
     7
100
AcDbLine
 10
1031.2617449168
 20
217.6595727407
 30
0.0
 11
1031.6110245872
 21
217.9526531833
 31
0.0
  0
LINE
  5
3F1
330
1B
100
AcDbEntity
 67
     1
  8
3_ALL_AXES
  6
Continuous
 62
     7
100
AcDbLine
 10
1031.6110245872
 20
212.4526531833
 30
0.0
 11
1031.6110245872
 21
217.9526531833
 31
0.0
  0
LINE
  5
3F2
330
1B
100
AcDbEntity
 67
     1
  8
3_ALL_AXES
  6
Continuous
 62
     7
100
AcDbLine
 10
1031.7617449168
 20
248.8526531833
 30
0.0
 11
1031.6110245872
 21
248.8526531833
 31
0.0
  0
LINE
  5
3F3
330
1B
100
AcDbEntity
 67
     1
  8
3_ALL_AXES
  6
Continuous
 62
     7
100
AcDbLine
 10
1031.7617449168
 20
254.3526531833
 30
0.0
 11
1031.6110245872
 21
254.3526531833
 31
0.0
  0
LINE
  5
3F4
330
1B
100
AcDbEntity
 67
     1
  8
3_ALL_AXES
  6
Continuous
 62
     7
100
AcDbLine
 10
1031.7617449168
 20
248.8526531833
 30
0.0
 11
1031.7617449168
 21
254.3526531833
 31
0.0
  0
LINE
  5
3F5
330
1B
100
AcDbEntity
 67
     1
  8
3_ALL_AXES
  6
Continuous
 62
     7
100
AcDbLine
 10
1031.6110245872
 20
248.8526531833
 30
0.0
 11
1031.2617449168
 21
249.1457336258
 31
0.0
  0
LINE
  5
3F6
330
1B
100
AcDbEntity
 67
     1
  8
3_ALL_AXES
  6
Continuous
 62
     7
100
AcDbLine
 10
1031.6110245872
 20
254.3526531833
 30
0.0
 11
1031.2617449168
 21
254.0595727407
 31
0.0
  0
LINE
  5
3F7
330
1B
100
AcDbEntity
 67
     1
  8
3_ALL_AXES
  6
Continuous
 62
     7
100
AcDbLine
 10
1031.6110245872
 20
248.8526531833
 30
0.0
 11
1031.7617449168
 21
248.8526531833
 31
0.0
  0
LINE
  5
3F8
330
1B
100
AcDbEntity
 67
     1
  8
3_ALL_AXES
  6
Continuous
 62
     7
100
AcDbLine
 10
1031.2617449168
 20
249.1457336258
 30
0.0
 11
1031.6110245872
 21
248.8526531833
 31
0.0
  0
LINE
  5
3F9
330
1B
100
AcDbEntity
 67
     1
  8
3_ALL_AXES
  6
Continuous
 62
     7
100
AcDbLine
 10
1031.6110245872
 20
254.3526531833
 30
0.0
 11
1031.7617449168
 21
254.3526531833
 31
0.0
  0
LINE
  5
3FA
330
1B
100
AcDbEntity
 67
     1
  8
3_ALL_AXES
  6
Continuous
 62
     7
100
AcDbLine
 10
1031.2617449168
 20
254.0595727407
 30
0.0
 11
1031.6110245872
 21
254.3526531833
 31
0.0
  0
LINE
  5
3FB
330
1B
100
AcDbEntity
 67
     1
  8
3_ALL_AXES
  6
Continuous
 62
     7
100
AcDbLine
 10
1031.6110245872
 20
248.8526531833
 30
0.0
 11
1031.6110245872
 21
254.3526531833
 31
0.0
  0
LINE
  5
3FC
330
1B
100
AcDbEntity
 67
     1
  8
3_ALL_AXES
  6
Continuous
 62
     7
100
AcDbLine
 10
109.2617449168
 20
254.3526531833
 30
0.0
 11
109.4124652465
 21
254.3526531833
 31
0.0
  0
LINE
  5
3FD
330
1B
100
AcDbEntity
 67
     1
  8
3_ALL_AXES
  6
Continuous
 62
     7
100
AcDbLine
 10
109.2617449168
 20
248.8526531833
 30
0.0
 11
109.4124652465
 21
248.8526531833
 31
0.0
  0
LINE
  5
3FE
330
1B
100
AcDbEntity
 67
     1
  8
3_ALL_AXES
  6
Continuous
 62
     7
100
AcDbLine
 10
109.2617449168
 20
254.3526531833
 30
0.0
 11
109.2617449168
 21
248.8526531833
 31
0.0
  0
LINE
  5
3FF
330
1B
100
AcDbEntity
 67
     1
  8
3_ALL_AXES
  6
Continuous
 62
     7
100
AcDbLine
 10
109.4124652465
 20
254.3526531833
 30
0.0
 11
109.7617449168
 21
254.0595727407
 31
0.0
  0
LINE
  5
400
330
1B
100
AcDbEntity
 67
     1
  8
3_ALL_AXES
  6
Continuous
 62
     7
100
AcDbLine
 10
109.4124652465
 20
248.8526531833
 30
0.0
 11
109.7617449168
 21
249.1457336258
 31
0.0
  0
LINE
  5
401
330
1B
100
AcDbEntity
 67
     1
  8
3_ALL_AXES
  6
Continuous
 62
     7
100
AcDbLine
 10
109.4124652465
 20
254.3526531833
 30
0.0
 11
109.2617449168
 21
254.3526531833
 31
0.0
  0
LINE
  5
402
330
1B
100
AcDbEntity
 67
     1
  8
3_ALL_AXES
  6
Continuous
 62
     7
100
AcDbLine
 10
109.7617449168
 20
254.0595727407
 30
0.0
 11
109.4124652465
 21
254.3526531833
 31
0.0
  0
LINE
  5
403
330
1B
100
AcDbEntity
 67
     1
  8
3_ALL_AXES
  6
Continuous
 62
     7
100
AcDbLine
 10
109.4124652465
 20
248.8526531833
 30
0.0
 11
109.2617449168
 21
248.8526531833
 31
0.0
  0
LINE
  5
404
330
1B
100
AcDbEntity
 67
     1
  8
3_ALL_AXES
  6
Continuous
 62
     7
100
AcDbLine
 10
109.7617449168
 20
249.1457336258
 30
0.0
 11
109.4124652465
 21
248.8526531833
 31
0.0
  0
LINE
  5
405
330
1B
100
AcDbEntity
 67
     1
  8
3_ALL_AXES
  6
Continuous
 62
     7
100
AcDbLine
 10
109.4124652465
 20
254.3526531833
 30
0.0
 11
109.4124652465
 21
248.8526531833
 31
0.0
  0
LINE
  5
406
330
1B
100
AcDbEntity
 67
     1
  8
3_ALL_AXES
  6
Continuous
 62
     7
100
AcDbLine
 10
109.2617449168
 20
217.9526531833
 30
0.0
 11
109.4124652465
 21
217.9526531833
 31
0.0
  0
LINE
  5
407
330
1B
100
AcDbEntity
 67
     1
  8
3_ALL_AXES
  6
Continuous
 62
     7
100
AcDbLine
 10
109.2617449168
 20
212.4526531833
 30
0.0
 11
109.4124652465
 21
212.4526531833
 31
0.0
  0
LINE
  5
408
330
1B
100
AcDbEntity
 67
     1
  8
3_ALL_AXES
  6
Continuous
 62
     7
100
AcDbLine
 10
109.2617449168
 20
217.9526531833
 30
0.0
 11
109.2617449168
 21
212.4526531833
 31
0.0
  0
LINE
  5
409
330
1B
100
AcDbEntity
 67
     1
  8
3_ALL_AXES
  6
Continuous
 62
     7
100
AcDbLine
 10
109.4124652465
 20
217.9526531833
 30
0.0
 11
109.7617449168
 21
217.6595727407
 31
0.0
  0
LINE
  5
40A
330
1B
100
AcDbEntity
 67
     1
  8
3_ALL_AXES
  6
Continuous
 62
     7
100
AcDbLine
 10
109.4124652465
 20
212.4526531833
 30
0.0
 11
109.7617449168
 21
212.7457336258
 31
0.0
  0
LINE
  5
40B
330
1B
100
AcDbEntity
 67
     1
  8
3_ALL_AXES
  6
Continuous
 62
     7
100
AcDbLine
 10
109.4124652465
 20
217.9526531833
 30
0.0
 11
109.2617449168
 21
217.9526531833
 31
0.0
  0
LINE
  5
40C
330
1B
100
AcDbEntity
 67
     1
  8
3_ALL_AXES
  6
Continuous
 62
     7
100
AcDbLine
 10
109.7617449168
 20
217.6595727407
 30
0.0
 11
109.4124652465
 21
217.9526531833
 31
0.0
  0
LINE
  5
40D
330
1B
100
AcDbEntity
 67
     1
  8
3_ALL_AXES
  6
Continuous
 62
     7
100
AcDbLine
 10
109.4124652465
 20
212.4526531833
 30
0.0
 11
109.2617449168
 21
212.4526531833
 31
0.0
  0
LINE
  5
40E
330
1B
100
AcDbEntity
 67
     1
  8
3_ALL_AXES
  6
Continuous
 62
     7
100
AcDbLine
 10
109.7617449168
 20
212.7457336258
 30
0.0
 11
109.4124652465
 21
212.4526531833
 31
0.0
  0
LINE
  5
40F
330
1B
100
AcDbEntity
 67
     1
  8
3_ALL_AXES
  6
Continuous
 62
     7
100
AcDbLine
 10
109.4124652465
 20
217.9526531833
 30
0.0
 11
109.4124652465
 21
212.4526531833
 31
0.0
  0
LINE
  5
410
330
1B
100
AcDbEntity
 67
     1
  8
7_ALL_FEATURES
  6
Continuous
 62
     7
100
AcDbLine
 10
1031.2617449168
 20
213.4026531833
 30
0.0
 11
1031.2617449168
 21
212.4026531833
 31
0.0
  0
LINE
  5
411
330
1B
100
AcDbEntity
 67
     1
  8
7_ALL_FEATURES
  6
Continuous
 62
     7
100
AcDbLine
 10
1031.2617449168
 20
213.4026531833
 30
0.0
 11
1031.2617449168
 21
253.4026531833
 31
0.0
  0
LINE
  5
412
330
1B
100
AcDbEntity
 67
     1
  8
7_ALL_FEATURES
  6
Continuous
 62
     7
100
AcDbLine
 10
1031.2617449168
 20
254.4026531833
 30
0.0
 11
1031.2617449168
 21
253.4026531833
 31
0.0
  0
LINE
  5
413
330
1B
100
AcDbEntity
 67
     1
  8
7_ALL_FEATURES
  6
Continuous
 62
     7
100
AcDbLine
 10
1031.2617449168
 20
212.4026531833
 30
0.0
 11
1029.7617449168
 21
212.4026531833
 31
0.0
  0
LINE
  5
414
330
1B
100
AcDbEntity
 67
     1
  8
7_ALL_FEATURES
  6
Continuous
 62
     7
100
AcDbLine
 10
1031.2617449168
 20
254.4026531833
 30
0.0
 11
1029.7617449168
 21
254.4026531833
 31
0.0
  0
LINE
  5
415
330
1B
100
AcDbEntity
 67
     1
  8
7_ALL_FEATURES
  6
Continuous
 62
     7
100
AcDbLine
 10
1031.2617449168
 20
212.4026531833
 30
0.0
 11
1029.7617449168
 21
212.4026531833
 31
0.0
  0
LINE
  5
416
330
1B
100
AcDbEntity
 67
     1
  8
7_ALL_FEATURES
  6
Continuous
 62
     9
100
AcDbLine
 10
1031.2617449168
 20
253.4026531833
 30
0.0
 11
1029.7617449168
 21
253.4026531833
 31
0.0
  0
LINE
  5
417
330
1B
100
AcDbEntity
 67
     1
  8
7_ALL_FEATURES
  6
Continuous
 62
     9
100
AcDbLine
 10
1031.2617449168
 20
213.4026531833
 30
0.0
 11
1029.7617449168
 21
213.4026531833
 31
0.0
  0
LINE
  5
418
330
1B
100
AcDbEntity
 67
     1
  8
7_ALL_FEATURES
  6
Continuous
 62
     7
100
AcDbLine
 10
109.7617449168
 20
253.4026531833
 30
0.0
 11
109.7617449168
 21
254.4026531833
 31
0.0
  0
LINE
  5
419
330
1B
100
AcDbEntity
 67
     1
  8
7_ALL_FEATURES
  6
Continuous
 62
     7
100
AcDbLine
 10
109.7617449168
 20
253.4026531833
 30
0.0
 11
109.7617449168
 21
213.4026531833
 31
0.0
  0
LINE
  5
41A
330
1B
100
AcDbEntity
 67
     1
  8
7_ALL_FEATURES
  6
Continuous
 62
     7
100
AcDbLine
 10
109.7617449168
 20
212.4026531833
 30
0.0
 11
109.7617449168
 21
213.4026531833
 31
0.0
  0
LINE
  5
41B
330
1B
100
AcDbEntity
 67
     1
  8
7_ALL_FEATURES
  6
Continuous
 62
     7
100
AcDbLine
 10
109.7617449168
 20
254.4026531833
 30
0.0
 11
111.2617449168
 21
254.4026531833
 31
0.0
  0
LINE
  5
41C
330
1B
100
AcDbEntity
 67
     1
  8
7_ALL_FEATURES
  6
Continuous
 62
     7
100
AcDbLine
 10
109.7617449168
 20
212.4026531833
 30
0.0
 11
111.2617449168
 21
212.4026531833
 31
0.0
  0
LINE
  5
41D
330
1B
100
AcDbEntity
 67
     1
  8
7_ALL_FEATURES
  6
Continuous
 62
     7
100
AcDbLine
 10
109.7617449168
 20
254.4026531833
 30
0.0
 11
111.2617449168
 21
254.4026531833
 31
0.0
  0
LINE
  5
41E
330
1B
100
AcDbEntity
 67
     1
  8
7_ALL_FEATURES
  6
Continuous
 62
     9
100
AcDbLine
 10
109.7617449168
 20
213.4026531833
 30
0.0
 11
111.2617449168
 21
213.4026531833
 31
0.0
  0
LINE
  5
41F
330
1B
100
AcDbEntity
 67
     1
  8
7_ALL_FEATURES
  6
Continuous
 62
     9
100
AcDbLine
 10
109.7617449168
 20
253.4026531833
 30
0.0
 11
111.2617449168
 21
253.4026531833
 31
0.0
  0
LINE
  5
420
330
1B
100
AcDbEntity
 67
     1
  8
7_ALL_FEATURES
  6
Continuous
 62
     7
100
AcDbLine
 10
1029.7617449168
 20
252.7026531833
 30
0.0
 11
1029.7617449168
 21
253.4026531833
 31
0.0
  0
LINE
  5
421
330
1B
100
AcDbEntity
 67
     1
  8
7_ALL_FEATURES
  6
Continuous
 62
     7
100
AcDbLine
 10
1029.7617449168
 20
253.4026531833
 30
0.0
 11
1029.7617449168
 21
253.5895602444
 31
0.0
  0
LINE
  5
422
330
1B
100
AcDbEntity
 67
     1
  8
7_ALL_FEATURES
  6
Continuous
 62
     7
100
AcDbLine
 10
1029.7617449168
 20
253.7904270845
 30
0.0
 11
1029.7617449168
 21
253.5895602444
 31
0.0
  0
LINE
  5
423
330
1B
100
AcDbEntity
 67
     1
  8
7_ALL_FEATURES
  6
Continuous
 62
     7
100
AcDbLine
 10
1029.7617449168
 20
254.4026531833
 30
0.0
 11
1029.7617449168
 21
254.5384896436
 31
0.0
  0
LINE
  5
424
330
1B
100
AcDbEntity
 67
     1
  8
7_ALL_FEATURES
  6
Continuous
 62
     7
100
AcDbLine
 10
1029.7617449168
 20
254.6026531833
 30
0.0
 11
1029.7617449168
 21
254.5384896436
 31
0.0
  0
LINE
  5
425
330
1B
100
AcDbEntity
 67
     1
  8
7_ALL_FEATURES
  6
Continuous
 62
     7
100
AcDbLine
 10
111.2617449168
 20
254.6026531833
 30
0.0
 11
1029.7617449168
 21
254.6026531833
 31
0.0
  0
LINE
  5
426
330
1B
100
AcDbEntity
 67
     1
  8
7_ALL_FEATURES
  6
Continuous
 62
     7
100
AcDbLine
 10
1029.7617449168
 20
212.2668167229
 30
0.0
 11
1029.7617449168
 21
212.2026531833
 31
0.0
  0
LINE
  5
427
330
1B
100
AcDbEntity
 67
     1
  8
7_ALL_FEATURES
  6
Continuous
 62
     7
100
AcDbLine
 10
1029.7617449168
 20
212.2668167229
 30
0.0
 11
1029.7617449168
 21
212.4026531833
 31
0.0
  0
LINE
  5
428
330
1B
100
AcDbEntity
 67
     1
  8
7_ALL_FEATURES
  6
Continuous
 62
     7
100
AcDbLine
 10
1029.7617449168
 20
213.2157461221
 30
0.0
 11
1029.7617449168
 21
213.014879282
 31
0.0
  0
LINE
  5
429
330
1B
100
AcDbEntity
 67
     1
  8
7_ALL_FEATURES
  6
Continuous
 62
     7
100
AcDbLine
 10
1029.7617449168
 20
213.2157461221
 30
0.0
 11
1029.7617449168
 21
213.4026531833
 31
0.0
  0
LINE
  5
42A
330
1B
100
AcDbEntity
 67
     1
  8
7_ALL_FEATURES
  6
Continuous
 62
     7
100
AcDbLine
 10
1029.7617449168
 20
213.4026531833
 30
0.0
 11
1029.7617449168
 21
214.1026531833
 31
0.0
  0
LINE
  5
42B
330
1B
100
AcDbEntity
 67
     1
  8
7_ALL_FEATURES
  6
Continuous
 62
     7
100
AcDbLine
 10
111.2617449168
 20
214.4026531833
 30
0.0
 11
1029.7617449168
 21
214.4026531833
 31
0.0
  0
LINE
  5
42C
330
1B
100
AcDbEntity
 67
     1
  8
7_ALL_FEATURES
  6
Continuous
 62
     7
100
AcDbLine
 10
111.2617449168
 20
252.4026531833
 30
0.0
 11
1029.7617449168
 21
252.4026531833
 31
0.0
  0
ARC
  5
42D
330
1B
100
AcDbEntity
 67
     1
  8
02___PRT_ALL_AXES
  6
Continuous
 62
     7
100
AcDbCircle
 10
121.2617449168
 20
233.4026531833
 30
0.0
 40
5.0
100
AcDbArc
 50
270.0
 51
90.0
  0
ARC
  5
42E
330
1B
100
AcDbEntity
 67
     1
  8
02___PRT_ALL_AXES
  6
Continuous
 62
     7
100
AcDbCircle
 10
121.2617449168
 20
233.4026531833
 30
0.0
 40
5.0
100
AcDbArc
 50
90.0
 51
270.0
  0
LINE
  5
42F
330
1B
100
AcDbEntity
 67
     1
  8
7_ALL_FEATURES
  6
Continuous
 62
     7
100
AcDbLine
 10
111.2617449168
 20
213.2157461221
 30
0.0
 11
111.2617449168
 21
213.4026531833
 31
0.0
  0
LINE
  5
430
330
1B
100
AcDbEntity
 67
     1
  8
7_ALL_FEATURES
  6
Continuous
 62
     7
100
AcDbLine
 10
111.2617449168
 20
213.4026531833
 30
0.0
 11
111.2617449168
 21
214.1026531833
 31
0.0
  0
LINE
  5
431
330
1B
100
AcDbEntity
 67
     1
  8
7_ALL_FEATURES
  6
Continuous
 62
     7
100
AcDbLine
 10
111.2617449168
 20
213.014879282
 30
0.0
 11
111.2617449168
 21
213.2157461221
 31
0.0
  0
LINE
  5
432
330
1B
100
AcDbEntity
 67
     1
  8
7_ALL_FEATURES
  6
Continuous
 62
     7
100
AcDbLine
 10
111.2617449168
 20
212.2668167229
 30
0.0
 11
111.2617449168
 21
212.4026531833
 31
0.0
  0
LINE
  5
433
330
1B
100
AcDbEntity
 67
     1
  8
7_ALL_FEATURES
  6
Continuous
 62
     7
100
AcDbLine
 10
111.2617449168
 20
212.2026531833
 30
0.0
 11
111.2617449168
 21
212.2668167229
 31
0.0
  0
LINE
  5
434
330
1B
100
AcDbEntity
 67
     1
  8
7_ALL_FEATURES
  6
Continuous
 62
     7
100
AcDbLine
 10
111.2617449168
 20
254.5384896436
 30
0.0
 11
111.2617449168
 21
254.6026531833
 31
0.0
  0
LINE
  5
435
330
1B
100
AcDbEntity
 67
     1
  8
7_ALL_FEATURES
  6
Continuous
 62
     7
100
AcDbLine
 10
111.2617449168
 20
254.4026531833
 30
0.0
 11
111.2617449168
 21
254.5384896436
 31
0.0
  0
LINE
  5
436
330
1B
100
AcDbEntity
 67
     1
  8
7_ALL_FEATURES
  6
Continuous
 62
     7
100
AcDbLine
 10
111.2617449168
 20
253.5895602444
 30
0.0
 11
111.2617449168
 21
253.7904270845
 31
0.0
  0
LINE
  5
437
330
1B
100
AcDbEntity
 67
     1
  8
7_ALL_FEATURES
  6
Continuous
 62
     7
100
AcDbLine
 10
111.2617449168
 20
252.7026531833
 30
0.0
 11
111.2617449168
 21
253.4026531833
 31
0.0
  0
LINE
  5
438
330
1B
100
AcDbEntity
 67
     1
  8
7_ALL_FEATURES
  6
Continuous
 62
     7
100
AcDbLine
 10
111.2617449168
 20
253.4026531833
 30
0.0
 11
111.2617449168
 21
253.5895602444
 31
0.0
  0
LINE
  5
439
330
1B
100
AcDbEntity
 67
     1
  8
7_ALL_FEATURES
  6
Continuous
 62
     7
100
AcDbLine
 10
111.2617449168
 20
214.4026531833
 30
0.0
 11
1029.7617449168
 21
214.4026531833
 31
0.0
  0
LINE
  5
43A
330
1B
100
AcDbEntity
 67
     1
  8
7_ALL_FEATURES
  6
Continuous
 62
     7
100
AcDbLine
 10
111.2617449168
 20
212.2026531833
 30
0.0
 11
1029.7617449168
 21
212.2026531833
 31
0.0
  0
LINE
  5
43B
330
1B
100
AcDbEntity
 67
     1
  8
7_ALL_FEATURES
  6
Continuous
 62
     7
100
AcDbLine
 10
111.2617449168
 20
252.4026531833
 30
0.0
 11
1029.7617449168
 21
252.4026531833
 31
0.0
  0
LINE
  5
43C
330
1B
100
AcDbEntity
 67
     1
  8
7_ALL_FEATURES
  6
Continuous
 62
     7
100
AcDbLine
 10
111.2617449168
 20
254.6026531833
 30
0.0
 11
1029.7617449168
 21
254.6026531833
 31
0.0
  0
LINE
  5
43D
330
1B
100
AcDbEntity
 67
     1
  8
7_ALL_FEATURES
  6
Continuous
 62
     9
100
AcDbLine
 10
111.2617449168
 20
250.633037941
 30
0.0
 11
1029.7617449168
 21
250.633037941
 31
0.0
  0
LINE
  5
43E
330
1B
100
AcDbEntity
 67
     1
  8
7_ALL_FEATURES
  6
Continuous
 62
     9
100
AcDbLine
 10
111.2617449168
 20
213.2157461221
 30
0.0
 11
1029.7617449168
 21
213.2157461221
 31
0.0
  0
LINE
  5
43F
330
1B
100
AcDbEntity
 67
     1
  8
7_ALL_FEATURES
  6
Continuous
 62
     9
100
AcDbLine
 10
111.2617449168
 20
214.1026531833
 30
0.0
 11
1029.7617449168
 21
214.1026531833
 31
0.0
  0
LINE
  5
440
330
1B
100
AcDbEntity
 67
     1
  8
7_ALL_FEATURES
  6
Continuous
 62
     9
100
AcDbLine
 10
111.2617449168
 20
212.2668167229
 30
0.0
 11
1029.7617449168
 21
212.2668167229
 31
0.0
  0
LINE
  5
441
330
1B
100
AcDbEntity
 67
     1
  8
7_ALL_FEATURES
  6
Continuous
 62
     9
100
AcDbLine
 10
111.2617449168
 20
212.9183126637
 30
0.0
 11
1029.7617449168
 21
212.9183126637
 31
0.0
  0
LINE
  5
442
330
1B
100
AcDbEntity
 67
     1
  8
7_ALL_FEATURES
  6
Continuous
 62
     9
100
AcDbLine
 10
1029.7617449168
 20
214.768678587
 30
0.0
 11
111.2617449168
 21
214.768678587
 31
0.0
  0
LINE
  5
443
330
1B
100
AcDbEntity
 67
     1
  8
7_ALL_FEATURES
  6
Continuous
 62
     9
100
AcDbLine
 10
125.8267291089
 20
231.3784249353
 30
0.0
 11
116.6967607248
 21
231.3784249353
 31
0.0
  0
LINE
  5
444
330
1B
100
AcDbEntity
 67
     1
  8
7_ALL_FEATURES
  6
Continuous
 62
     9
100
AcDbLine
 10
126.0195427772
 20
231.8844819973
 30
0.0
 11
116.5039470564
 21
231.8844819973
 31
0.0
  0
LINE
  5
445
330
1B
100
AcDbEntity
 67
     1
  8
7_ALL_FEATURES
  6
Continuous
 62
     9
100
AcDbLine
 10
126.0195427772
 20
234.9208243693
 30
0.0
 11
116.5039470564
 21
234.9208243693
 31
0.0
  0
LINE
  5
446
330
1B
100
AcDbEntity
 67
     1
  8
7_ALL_FEATURES
  6
Continuous
 62
     9
100
AcDbLine
 10
125.8267291089
 20
235.4268814313
 30
0.0
 11
116.6967607248
 21
235.4268814313
 31
0.0
  0
LINE
  5
447
330
1B
100
AcDbEntity
 67
     1
  8
7_ALL_FEATURES
  6
Continuous
 62
     9
100
AcDbLine
 10
1029.7617449168
 20
252.0366277795
 30
0.0
 11
111.2617449168
 21
252.0366277795
 31
0.0
  0
LINE
  5
448
330
1B
100
AcDbEntity
 67
     1
  8
7_ALL_FEATURES
  6
Continuous
 62
     9
100
AcDbLine
 10
111.2617449168
 20
216.4222684255
 30
0.0
 11
1029.7617449168
 21
216.4222684255
 31
0.0
  0
LINE
  5
449
330
1B
100
AcDbEntity
 67
     1
  8
7_ALL_FEATURES
  6
Continuous
 62
     9
100
AcDbLine
 10
111.2617449168
 20
250.383037941
 30
0.0
 11
1029.7617449168
 21
250.383037941
 31
0.0
  0
LINE
  5
44A
330
1B
100
AcDbEntity
 67
     1
  8
7_ALL_FEATURES
  6
Continuous
 62
     9
100
AcDbLine
 10
1029.7617449168
 20
215.018678587
 30
0.0
 11
111.2617449168
 21
215.018678587
 31
0.0
  0
LINE
  5
44B
330
1B
100
AcDbEntity
 67
     1
  8
7_ALL_FEATURES
  6
Continuous
 62
     9
100
AcDbLine
 10
111.2617449168
 20
216.1722684255
 30
0.0
 11
1029.7617449168
 21
216.1722684255
 31
0.0
  0
LINE
  5
44C
330
1B
100
AcDbEntity
 67
     1
  8
7_ALL_FEATURES
  6
Continuous
 62
     9
100
AcDbLine
 10
111.2617449168
 20
252.7026531833
 30
0.0
 11
1029.7617449168
 21
252.7026531833
 31
0.0
  0
LINE
  5
44D
330
1B
100
AcDbEntity
 67
     1
  8
7_ALL_FEATURES
  6
Continuous
 62
     9
100
AcDbLine
 10
111.2617449168
 20
253.5895602444
 30
0.0
 11
1029.7617449168
 21
253.5895602444
 31
0.0
  0
LINE
  5
44E
330
1B
100
AcDbEntity
 67
     1
  8
7_ALL_FEATURES
  6
Continuous
 62
     9
100
AcDbLine
 10
111.2617449168
 20
253.8869937028
 30
0.0
 11
1029.7617449168
 21
253.8869937028
 31
0.0
  0
LINE
  5
44F
330
1B
100
AcDbEntity
 67
     1
  8
7_ALL_FEATURES
  6
Continuous
 62
     9
100
AcDbLine
 10
111.2617449168
 20
254.5384896436
 30
0.0
 11
1029.7617449168
 21
254.5384896436
 31
0.0
  0
LINE
  5
450
330
1B
100
AcDbEntity
 67
     1
  8
7_ALL_FEATURES
  6
Continuous
 62
     9
100
AcDbLine
 10
1029.7617449168
 20
251.7866277795
 30
0.0
 11
111.2617449168
 21
251.7866277795
 31
0.0
  0
LINE
  5
451
330
1B
100
AcDbEntity
 67
     1
  8
7_ALL_FEATURES
  6
Continuous
 62
     3
100
AcDbLine
 10
1029.7617449168
 20
253.4026531833
 30
0.0
 11
1029.7617449168
 21
253.4949215427
 31
0.0
  0
LINE
  5
452
330
1B
100
AcDbEntity
 67
     1
  8
7_ALL_FEATURES
  6
Continuous
 62
     3
100
AcDbLine
 10
1029.7617449168
 20
253.7904270845
 30
0.0
 11
1029.7617449168
 21
253.848391539
 31
0.0
  0
LINE
  5
453
330
1B
100
AcDbEntity
 67
     1
  8
7_ALL_FEATURES
  6
Continuous
 62
     3
100
AcDbLine
 10
1029.7617449168
 20
253.848391539
 30
0.0
 11
1029.7617449168
 21
253.9290853461
 31
0.0
  0
LINE
  5
454
330
1B
100
AcDbEntity
 67
     1
  8
7_ALL_FEATURES
  6
Continuous
 62
     3
100
AcDbLine
 10
1029.7617449168
 20
253.9290853461
 30
0.0
 11
1029.7617449168
 21
254.4026531833
 31
0.0
  0
LINE
  5
455
330
1B
100
AcDbEntity
 67
     1
  8
7_ALL_FEATURES
  6
Continuous
 62
     3
100
AcDbLine
 10
1029.7617449168
 20
213.4026531833
 30
0.0
 11
1029.7617449168
 21
214.1026531833
 31
0.0
  0
LINE
  5
456
330
1B
100
AcDbEntity
 67
     1
  8
7_ALL_FEATURES
  6
Continuous
 62
     3
100
AcDbLine
 10
1029.7617449168
 20
214.1026531833
 30
0.0
 11
1029.7617449168
 21
214.4026531833
 31
0.0
  0
LINE
  5
457
330
1B
100
AcDbEntity
 67
     1
  8
7_ALL_FEATURES
  6
Continuous
 62
     3
100
AcDbLine
 10
1029.7617449168
 20
214.4026531833
 30
0.0
 11
1029.7617449168
 21
252.4026531833
 31
0.0
  0
LINE
  5
458
330
1B
100
AcDbEntity
 67
     1
  8
7_ALL_FEATURES
  6
Continuous
 62
     3
100
AcDbLine
 10
1029.7617449168
 20
252.4026531833
 30
0.0
 11
1029.7617449168
 21
252.7026531833
 31
0.0
  0
LINE
  5
459
330
1B
100
AcDbEntity
 67
     1
  8
7_ALL_FEATURES
  6
Continuous
 62
     3
100
AcDbLine
 10
1029.7617449168
 20
252.7026531833
 30
0.0
 11
1029.7617449168
 21
253.4026531833
 31
0.0
  0
LINE
  5
45A
330
1B
100
AcDbEntity
 67
     1
  8
7_ALL_FEATURES
  6
Continuous
 62
     3
100
AcDbLine
 10
1029.7617449168
 20
212.4026531833
 30
0.0
 11
1029.7617449168
 21
212.8762210204
 31
0.0
  0
LINE
  5
45B
330
1B
100
AcDbEntity
 67
     1
  8
7_ALL_FEATURES
  6
Continuous
 62
     3
100
AcDbLine
 10
1029.7617449168
 20
212.8762210204
 30
0.0
 11
1029.7617449168
 21
212.9569148275
 31
0.0
  0
LINE
  5
45C
330
1B
100
AcDbEntity
 67
     1
  8
7_ALL_FEATURES
  6
Continuous
 62
     3
100
AcDbLine
 10
1029.7617449168
 20
212.9569148275
 30
0.0
 11
1029.7617449168
 21
213.014879282
 31
0.0
  0
LINE
  5
45D
330
1B
100
AcDbEntity
 67
     1
  8
7_ALL_FEATURES
  6
Continuous
 62
     3
100
AcDbLine
 10
1029.7617449168
 20
213.3103848238
 30
0.0
 11
1029.7617449168
 21
213.4026531833
 31
0.0
  0
LINE
  5
45E
330
1B
100
AcDbEntity
 67
     1
  8
7_ALL_FEATURES
  6
Continuous
 62
     3
100
AcDbLine
 10
111.2617449168
 20
213.4026531833
 30
0.0
 11
111.2617449168
 21
213.3103848238
 31
0.0
  0
LINE
  5
45F
330
1B
100
AcDbEntity
 67
     1
  8
7_ALL_FEATURES
  6
Continuous
 62
     3
100
AcDbLine
 10
111.2617449168
 20
213.014879282
 30
0.0
 11
111.2617449168
 21
212.9569148275
 31
0.0
  0
LINE
  5
460
330
1B
100
AcDbEntity
 67
     1
  8
7_ALL_FEATURES
  6
Continuous
 62
     3
100
AcDbLine
 10
111.2617449168
 20
212.9569148275
 30
0.0
 11
111.2617449168
 21
212.8762210204
 31
0.0
  0
LINE
  5
461
330
1B
100
AcDbEntity
 67
     1
  8
7_ALL_FEATURES
  6
Continuous
 62
     3
100
AcDbLine
 10
111.2617449168
 20
212.8762210204
 30
0.0
 11
111.2617449168
 21
212.4026531833
 31
0.0
  0
LINE
  5
462
330
1B
100
AcDbEntity
 67
     1
  8
7_ALL_FEATURES
  6
Continuous
 62
     3
100
AcDbLine
 10
111.2617449168
 20
253.4026531833
 30
0.0
 11
111.2617449168
 21
252.7026531833
 31
0.0
  0
LINE
  5
463
330
1B
100
AcDbEntity
 67
     1
  8
7_ALL_FEATURES
  6
Continuous
 62
     3
100
AcDbLine
 10
111.2617449168
 20
252.7026531833
 30
0.0
 11
111.2617449168
 21
252.4026531833
 31
0.0
  0
LINE
  5
464
330
1B
100
AcDbEntity
 67
     1
  8
7_ALL_FEATURES
  6
Continuous
 62
     3
100
AcDbLine
 10
111.2617449168
 20
252.4026531833
 30
0.0
 11
111.2617449168
 21
214.4026531833
 31
0.0
  0
LINE
  5
465
330
1B
100
AcDbEntity
 67
     1
  8
7_ALL_FEATURES
  6
Continuous
 62
     3
100
AcDbLine
 10
111.2617449168
 20
214.4026531833
 30
0.0
 11
111.2617449168
 21
214.1026531833
 31
0.0
  0
LINE
  5
466
330
1B
100
AcDbEntity
 67
     1
  8
7_ALL_FEATURES
  6
Continuous
 62
     3
100
AcDbLine
 10
111.2617449168
 20
214.1026531833
 30
0.0
 11
111.2617449168
 21
213.4026531833
 31
0.0
  0
LINE
  5
467
330
1B
100
AcDbEntity
 67
     1
  8
7_ALL_FEATURES
  6
Continuous
 62
     3
100
AcDbLine
 10
111.2617449168
 20
254.4026531833
 30
0.0
 11
111.2617449168
 21
253.9290853461
 31
0.0
  0
LINE
  5
468
330
1B
100
AcDbEntity
 67
     1
  8
7_ALL_FEATURES
  6
Continuous
 62
     3
100
AcDbLine
 10
111.2617449168
 20
253.9290853461
 30
0.0
 11
111.2617449168
 21
253.848391539
 31
0.0
  0
LINE
  5
469
330
1B
100
AcDbEntity
 67
     1
  8
7_ALL_FEATURES
  6
Continuous
 62
     3
100
AcDbLine
 10
111.2617449168
 20
253.848391539
 30
0.0
 11
111.2617449168
 21
253.7904270845
 31
0.0
  0
LINE
  5
46A
330
1B
100
AcDbEntity
 67
     1
  8
7_ALL_FEATURES
  6
Continuous
 62
     3
100
AcDbLine
 10
111.2617449168
 20
253.4949215427
 30
0.0
 11
111.2617449168
 21
253.4026531833
 31
0.0
  0
DIMENSION
  5
46B
330
1B
100
AcDbEntity
 67
     1
  8
0
  6
Continuous
 62
     2
100
AcDbDimension
280
     0
  2
*D1
 10
1031.2617449168
 20
455.2740691838
 30
0.0
 11
570.0831730804
 21
455.2740691838
 31
0.0
 70
   160
 71
     5
 42
-1.0
 73
     0
 74
     0
 75
     0
  3
DIMSTYLE_1
100
AcDbAlignedDimension
 13
109.7617449168
 23
444.7329611963
 33
0.0
 14
1031.2617449168
 24
444.7329611963
 34
0.0
100
AcDbRotatedDimension
  0
DIMENSION
  5
46C
330
1B
100
AcDbEntity
 67
     1
  8
0
  6
Continuous
 62
     2
100
AcDbDimension
280
     0
  2
*D2
 10
1099.9440364437
 20
454.5755532994
 30
0.0
 11
1120.7154847107
 21
454.5755532994
 31
0.0
 70
   160
 71
     5
 42
-1.0
 73
     0
 74
     0
 75
     0
  3
DIMSTYLE_2
100
AcDbAlignedDimension
 13
1142.3440364437
 23
444.7329611963
 33
0.0
 14
1099.9440364437
 24
444.0847364713
 34
0.0
 50
180.0
100
AcDbRotatedDimension
  0
DIMENSION
  5
46D
330
1B
100
AcDbEntity
 67
     1
  8
0
  6
Continuous
 62
     2
100
AcDbDimension
280
     0
  2
*D3
 10
1085.0334316955
 20
437.0040342878
 30
0.0
 11
1085.0334316955
 21
394.8254734551
 31
0.0
 70
   160
 71
     5
 42
-1.0
 73
     0
 74
     0
 75
     0
  3
DIMSTYLE_2
100
AcDbAlignedDimension
 13
1091.9209286643
 23
353.5040342878
 33
0.0
 14
1094.7052630883
 24
437.0040342878
 34
0.0
 50
90.0
100
AcDbRotatedDimension
  0
LINE
  5
46E
330
1B
100
AcDbEntity
 67
     1
  8
0
  6
Continuous
 62
     2
100
AcDbLine
 10
1049.0007730529
 20
75.9871519533
 30
0.0
 11
1179.0007730529
 21
75.9871519533
 31
0.0
  0
LINE
  5
46F
330
1B
100
AcDbEntity
 67
     1
  8
0
  6
Continuous
 62
     2
100
AcDbLine
 10
1049.0007730529
 20
75.9871519533
 30
0.0
 11
1049.0007730529
 21
9.9871519533
 31
0.0
  0
LINE
  5
470
330
1B
100
AcDbEntity
 67
     1
  8
0
  6
Continuous
 62
     2
100
AcDbLine
 10
1079.0007730529
 20
67.9871519533
 30
0.0
 11
1179.0007730529
 21
67.9871519533
 31
0.0
  0
LINE
  5
471
330
1B
100
AcDbEntity
 67
     1
  8
0
  6
Continuous
 62
     2
100
AcDbLine
 10
1049.0007730529
 20
59.9871519533
 30
0.0
 11
1179.0007730529
 21
59.9871519533
 31
0.0
  0
LINE
  5
472
330
1B
100
AcDbEntity
 67
     1
  8
0
  6
Continuous
 62
     2
100
AcDbLine
 10
1079.0007730529
 20
53.9871519533
 30
0.0
 11
1179.0007730529
 21
53.9871519533
 31
0.0
  0
LINE
  5
473
330
1B
100
AcDbEntity
 67
     1
  8
0
  6
Continuous
 62
     2
100
AcDbLine
 10
1079.0007730529
 20
47.9871519533
 30
0.0
 11
1179.0007730529
 21
47.9871519533
 31
0.0
  0
LINE
  5
474
330
1B
100
AcDbEntity
 67
     1
  8
0
  6
Continuous
 62
     2
100
AcDbLine
 10
1079.0007730529
 20
41.9871519533
 30
0.0
 11
1179.0007730529
 21
41.9871519533
 31
0.0
  0
LINE
  5
475
330
1B
100
AcDbEntity
 67
     1
  8
0
  6
Continuous
 62
     2
100
AcDbLine
 10
1079.0007730529
 20
35.9871519533
 30
0.0
 11
1179.0007730529
 21
35.9871519533
 31
0.0
  0
LINE
  5
476
330
1B
100
AcDbEntity
 67
     1
  8
0
  6
Continuous
 62
     2
100
AcDbLine
 10
1079.0007730529
 20
29.9871519533
 30
0.0
 11
1179.0007730529
 21
29.9871519533
 31
0.0
  0
LINE
  5
477
330
1B
100
AcDbEntity
 67
     1
  8
0
  6
Continuous
 62
     2
100
AcDbLine
 10
1049.0007730529
 20
23.9871519533
 30
0.0
 11
1179.0007730529
 21
23.9871519533
 31
0.0
  0
LINE
  5
478
330
1B
100
AcDbEntity
 67
     1
  8
0
  6
Continuous
 62
     2
100
AcDbLine
 10
1049.0007730529
 20
17.9871519533
 30
0.0
 11
1179.0007730529
 21
17.9871519533
 31
0.0
  0
LINE
  5
479
330
1B
100
AcDbEntity
 67
     1
  8
0
  6
Continuous
 62
     2
100
AcDbLine
 10
1049.0007730529
 20
13.9871519533
 30
0.0
 11
1179.0007730529
 21
13.9871519533
 31
0.0
  0
LINE
  5
47A
330
1B
100
AcDbEntity
 67
     1
  8
0
  6
Continuous
 62
     2
100
AcDbLine
 10
1049.0007730529
 20
9.9871519533
 30
0.0
 11
1179.0007730529
 21
9.9871519533
 31
0.0
  0
LINE
  5
47B
330
1B
100
AcDbEntity
 67
     1
  8
0
  6
Continuous
 62
     2
100
AcDbLine
 10
1079.0007730529
 20
75.9871519533
 30
0.0
 11
1079.0007730529
 21
17.9871519533
 31
0.0
  0
LINE
  5
47C
330
1B
100
AcDbEntity
 67
     1
  8
0
  6
Continuous
 62
     2
100
AcDbLine
 10
1099.0007730529
 20
59.9871519533
 30
0.0
 11
1099.0007730529
 21
53.9871519533
 31
0.0
  0
LINE
  5
47D
330
1B
100
AcDbEntity
 67
     1
  8
0
  6
Continuous
 62
     2
100
AcDbLine
 10
1129.0007730529
 20
29.9871519533
 30
0.0
 11
1129.0007730529
 21
17.9871519533
 31
0.0
  0
LINE
  5
47E
330
1B
100
AcDbEntity
 67
     1
  8
0
  6
Continuous
 62
     2
100
AcDbLine
 10
1139.0007730529
 20
59.9871519533
 30
0.0
 11
1139.0007730529
 21
53.9871519533
 31
0.0
  0
LINE
  5
47F
330
1B
100
AcDbEntity
 67
     1
  8
0
  6
Continuous
 62
     2
100
AcDbLine
 10
1139.0007730529
 20
47.9871519533
 30
0.0
 11
1139.0007730529
 21
41.9871519533
 31
0.0
  0
LINE
  5
480
330
1B
100
AcDbEntity
 67
     1
  8
0
  6
Continuous
 62
     2
100
AcDbLine
 10
1159.0007730529
 20
59.9871519533
 30
0.0
 11
1159.0007730529
 21
53.9871519533
 31
0.0
  0
LINE
  5
481
330
1B
100
AcDbEntity
 67
     1
  8
0
  6
Continuous
 62
     2
100
AcDbLine
 10
1169.0007730529
 20
47.9871519533
 30
0.0
 11
1169.0007730529
 21
41.9871519533
 31
0.0
  0
LINE
  5
482
330
1B
100
AcDbEntity
 67
     1
  8
0
  6
Continuous
 62
     2
100
AcDbLine
 10
1179.0007730529
 20
75.9871519533
 30
0.0
 11
1179.0007730529
 21
9.9871519533
 31
0.0
  0
INSERT
  5
483
330
1B
100
AcDbEntity
 67
     1
  8
0
  6
Continuous
 62
     2
100
AcDbBlockReference
  2
PROIEZIONE_EU_BL0
 10
1064.0007730529
 20
67.6121519533
 30
0.0
  0
MTEXT
  5
484
330
1B
100
AcDbEntity
 67
     1
  8
9_SOLID
  6
Continuous
 62
     2
100
AcDbMText
 10
1080.4882730529
 20
74.3621519533
 30
0.0
 40
1.9
 41
142.3642857143
 46
0.0
 71
     1
 72
     1
  1
EN: Chamfer/radii unlisted 0.3x45°. Remove sharp edges.\PGen. tol.: hole H11, shaft h11, lenght Js12. UNI EN 22768 Medium Grande.
 73
     1
 44
1.0
  0
MTEXT
  5
485
330
1B
100
AcDbEntity
 67
     1
  8
9_SOLID
  6
Continuous
 62
     2
100
AcDbMText
 10
1080.4882730529
 20
66.3621519533
 30
0.0
 40
1.9
 41
148.2678571429
 46
0.0
 71
     1
 72
     1
  1
IT: Sm./rac. non quotati 0.3x45°. Eliminare spigoli taglienti.\PToll. gen.: foro H11, albero h11, lunghezza Js12. UNI EN 22768 Grado Medio.
 73
     1
 44
1.0
  0
INSERT
  5
486
330
1B
100
AcDbEntity
 67
     1
  8
0
  6
Continuous
 62
     2
100
AcDbBlockReference
  2
LOGO2_BL1
 10
1062.8268200977
 20
41.9871519533
 30
0.0
  0
MTEXT
  5
487
330
1B
100
AcDbEntity
 67
     1
  8
9_SOLID
  6
Continuous
 62
     2
100
AcDbMText
 10
1080.4882730529
 20
58.2371519533
 30
0.0
 40
3.0
 41
21.75
 46
0.0
 71
     1
 72
     1
  1
Pj: 565
 73
     1
 44
1.0
  0
MTEXT
  5
488
330
1B
100
AcDbEntity
 67
     1
  8
0
  6
Continuous
 62
     2
100
AcDbMText
 10
1100.4882730529
 20
58.2371519533
 30
0.0
 40
3.0
 41
41.5714285714
 46
0.0
 71
     1
 72
     1
  1
% Check:  %
 73
     1
 44
1.0
  0
MTEXT
  5
489
330
1B
100
AcDbEntity
 67
     1
  8
9_SOLID
  6
Continuous
 62
     2
100
AcDbMText
 10
1140.4882730529
 20
58.2371519533
 30
0.0
 40
3.0
 41
19.5
 46
0.0
 71
     1
 72
     1
  1
Rev:00
 73
     1
 44
1.0
  0
MTEXT
  5
48A
330
1B
100
AcDbEntity
 67
     1
  8
9_SOLID
  6
Continuous
 62
     2
100
AcDbMText
 10
1160.4882730529
 20
58.4871519533
 30
0.0
 40
3.0
 41
19.7142857143
 46
0.0
 71
     1
 72
     1
  1
Ver: A
 73
     1
 44
1.0
  0
MTEXT
  5
48B
330
1B
100
AcDbEntity
 67
     1
  8
9_SOLID
  6
Continuous
 62
     2
100
AcDbMText
 10
1080.4882730529
 20
52.2371519533
 30
0.0
 40
3.0
 41
73.3928571429
 46
0.0
 71
     1
 72
     1
  1
Neutral code: 565_C_401
 73
     1
 44
1.0
  0
MTEXT
  5
48C
330
1B
100
AcDbEntity
 67
     1
  8
0
  6
Continuous
 62
     2
100
AcDbMText
 10
1080.4882730529
 20
46.2371519533
 30
0.0
 40
3.0
 41
22.9285714286
 46
0.0
 71
     1
 72
     1
  1
Code:  
 73
     1
 44
1.0
  0
MTEXT
  5
48D
330
1B
100
AcDbEntity
 67
     1
  8
9_SOLID
  6
Continuous
 62
     2
100
AcDbMText
 10
1140.4882730529
 20
46.4871519533
 30
0.0
 40
3.0
 41
27.8571428571
 46
0.0
 71
     1
 72
     1
  1
Scale: 1:1
 73
     1
 44
1.0
  0
MTEXT
  5
48E
330
1B
100
AcDbEntity
 67
     1
  8
9_SOLID
  6
Continuous
 62
     2
100
AcDbMText
 10
1174.0007730529
 20
46.4871519533
 30
0.0
 40
3.0
 41
8.25
 46
0.0
 71
     2
 72
     1
  1
A0
 73
     1
 44
1.0
  0
MTEXT
  5
48F
330
1B
100
AcDbEntity
 67
     1
  8
9_SOLID
  6
Continuous
 62
     2
100
AcDbMText
 10
1080.4882730529
 20
40.4871519533
 30
0.0
 40
3.0
 41
130.8214285714
 46
0.0
 71
     1
 72
     1
  1
It descr.: CASSAFORMA NEVA1.1 mm920 ALL
 73
     1
 44
1.0
  0
MTEXT
  5
490
330
1B
100
AcDbEntity
 67
     1
  8
0
  6
Continuous
 62
     2
100
AcDbMText
 10
1080.4882730529
 20
34.4871519533
 30
0.0
 40
3.0
 41
37.5
 46
0.0
 71
     1
 72
     1
  1
En descr.:  
 73
     1
 44
1.0
  0
MTEXT
  5
491
330
1B
100
AcDbEntity
 67
     1
  8
9_SOLID
  6
Continuous
 62
     2
100
AcDbMText
 10
1080.4882730529
 20
28.4871519533
 30
0.0
 40
3.0
 41
31.2857142857
 46
0.0
 71
     1
 72
     1
  1
Des.: A.F.
 73
     1
 44
1.0
  0
MTEXT
  5
492
330
1B
100
AcDbEntity
 67
     1
  8
9_SOLID
  6
Continuous
 62
     2
100
AcDbMText
 10
1130.4882730529
 20
28.4871519533
 30
0.0
 40
3.0
 41
22.2857142857
 46
0.0
 71
     1
 72
     1
  1
Check: 
 73
     1
 44
1.0
  0
MTEXT
  5
493
330
1B
100
AcDbEntity
 67
     1
  8
9_SOLID
  6
Continuous
 62
     2
100
AcDbMText
 10
1050.4882730529
 20
22.4871519533
 30
0.0
 40
3.0
 41
42.8571428571
 46
0.0
 71
     1
 72
     1
  1
Date: 30.10.13
 73
     1
 44
1.0
  0
MTEXT
  5
494
330
1B
100
AcDbEntity
 67
     1
  8
0
  6
Continuous
 62
     2
100
AcDbMText
 10
1080.4882730529
 20
22.4871519533
 30
0.0
 40
3.0
 41
21.75
 46
0.0
 71
     1
 72
     1
  1
Mat.:  
 73
     1
 44
1.0
  0
MTEXT
  5
495
330
1B
100
AcDbEntity
 67
     1
  8
9_SOLID
  6
Continuous
 62
     2
100
AcDbMText
 10
1130.4882730529
 20
21.9871519533
 30
0.0
 40
2.0
 41
42.3571428571
 46
0.0
 71
     1
 72
     1
  1
Disegno per catalogo
 73
     1
 44
1.0
  0
MTEXT
  5
496
330
1B
100
AcDbEntity
 67
     1
  8
9_SOLID
  6
Continuous
 62
     2
100
AcDbMText
 10
1050.4882730529
 20
16.8871519533
 30
0.0
 40
1.8
 41
176.2071428571
 46
0.0
 71
     1
 72
     1
  1
It: A norma di legge si diffida da qualsiasi riproduzione senza nostra autorizzazione esplicita.
 73
     1
 44
1.0
  0
MTEXT
  5
497
330
1B
100
AcDbEntity
 67
     1
  8
9_SOLID
  6
Continuous
 62
     2
100
AcDbMText
 10
1050.4882730529
 20
12.8871519533
 30
0.0
 40
1.8
 41
158.1428571429
 46
0.0
 71
     1
 72
     1
  1
En: According to the law, beware of any reproduction made without our authorization.
 73
     1
 44
1.0
  0
ENDSEC
  0
SECTION
  2
OBJECTS
  0
DICTIONARY
  5
498
330
0
100
AcDbDictionary
281
     1
  3
ACAD_DETAILVIEWSTYLE
350
4EE
  3
ACAD_GROUP
350
499
  3
ACAD_LAYOUT
350
4C1
  3
ACAD_MATERIAL
350
4DD
  3
ACAD_MLEADERSTYLE
350
4E3
  3
ACAD_MLINESTYLE
350
49A
  3
ACAD_PLOTSETTINGS
350
49C
  3
ACAD_PLOTSTYLENAME
350
49D
  3
ACAD_SCALELIST
350
49F
  3
ACAD_SECTIONVIEWSTYLE
350
4EF
  3
ACAD_TABLESTYLE
350
4E1
  3
ACAD_VISUALSTYLE
350
4C4
  3
ACDB_RECOMPOSE_DATA
350
4EA
  3
AcDbVariableDictionary
350
4E6
  3
APPDATA
350
4E5
  0
DICTIONARY
  5
4EE
102
{ACAD_REACTORS
330
498
102
}
330
498
100
AcDbDictionary
281
     1
  0
DICTIONARY
  5
499
102
{ACAD_REACTORS
330
498
102
}
330
498
100
AcDbDictionary
281
     1
  0
DICTIONARY
  5
4C1
102
{ACAD_REACTORS
330
498
102
}
330
498
100
AcDbDictionary
281
     1
  3
Foglio 1
350
4C3
  3
Model
350
4C2
  0
DICTIONARY
  5
4DD
102
{ACAD_REACTORS
330
498
102
}
330
498
100
AcDbDictionary
281
     1
  3
ByBlock
350
4DF
  3
ByLayer
350
4DE
  3
Global
350
4E0
  0
DICTIONARY
  5
4E3
102
{ACAD_REACTORS
330
498
102
}
330
498
100
AcDbDictionary
281
     1
  3
Standard
350
4E4
  0
DICTIONARY
  5
49A
102
{ACAD_REACTORS
330
498
102
}
330
498
100
AcDbDictionary
281
     1
  3
STANDARD
350
49B
  0
DICTIONARY
  5
49C
102
{ACAD_REACTORS
330
498
102
}
330
498
100
AcDbDictionary
281
     1
  0
ACDBDICTIONARYWDFLT
  5
49D
102
{ACAD_REACTORS
330
498
102
}
330
498
100
AcDbDictionary
281
     1
  3
Normal
350
49E
100
AcDbDictionaryWithDefault
340
49E
  0
DICTIONARY
  5
49F
102
{ACAD_REACTORS
330
498
102
}
330
498
100
AcDbDictionary
281
     1
  3
A0
350
4A0
  3
A1
350
4A1
  3
A2
350
4A2
  3
A3
350
4A3
  3
A4
350
4A4
  3
A5
350
4A5
  3
A6
350
4A6
  3
A7
350
4A7
  3
A8
350
4A8
  3
A9
350
4A9
  3
B0
350
4AA
  3
B1
350
4AB
  3
B2
350
4AC
  3
B3
350
4AD
  3
B4
350
4AE
  3
B5
350
4AF
  3
B6
350
4B0
  3
B7
350
4B1
  3
B8
350
4B2
  3
B9
350
4B3
  3
C0
350
4B4
  3
C1
350
4B5
  3
C2
350
4B6
  3
C3
350
4B7
  3
C4
350
4B8
  3
C5
350
4B9
  3
C6
350
4BA
  3
C7
350
4BB
  3
C8
350
4BC
  3
C9
350
4BD
  3
D0
350
4BE
  3
D1
350
4BF
  3
D2
350
4C0
  0
DICTIONARY
  5
4EF
102
{ACAD_REACTORS
330
498
102
}
330
498
100
AcDbDictionary
281
     1
  0
DICTIONARY
  5
4E1
102
{ACAD_REACTORS
330
498
102
}
330
498
100
AcDbDictionary
281
     1
  3
Standard
350
4E2
  0
DICTIONARY
  5
4C4
102
{ACAD_REACTORS
330
498
102
}
330
498
100
AcDbDictionary
281
     1
  3
2dWireframe
350
4C9
  3
Basic
350
4CC
  3
Brighten
350
4D0
  3
ColorChange
350
4D4
  3
Conceptual
350
4CE
  3
Dim
350
4CF
  3
EdgeColorOff
350
4D7
  3
Facepattern
350
4D3
  3
Flat
350
4C5
  3
FlatWithEdges
350
4C6
  3
Gouraud
350
4C7
  3
GouraudWithEdges
350
4C8
  3
Hidden
350
4CB
  3
JitterOff
350
4D5
  3
Linepattern
350
4D2
  3
OverhangOff
350
4D6
  3
Realistic
350
4CD
  3
Shaded
350
4DC
  3
Shaded with edges
350
4DB
  3
Shades of Gray
350
4D8
  3
Sketchy
350
4D9
  3
Thicken
350
4D1
  3
Wireframe
350
4CA
  3
X-Ray
350
4DA
  0
XRECORD
  5
4EA
102
{ACAD_REACTORS
330
498
102
}
330
498
100
AcDbXrecord
280
     1
 90
        1
330
4E2
  0
DICTIONARY
  5
4E6
102
{ACAD_REACTORS
330
498
102
}
330
498
100
AcDbDictionary
281
     1
  3
CANNOSCALE
350
4E7
  3
CMLEADERSTYLE
350
4EC
  3
CTABLESTYLE
350
4EB
  3
MSLTSCALE
350
4ED
  0
DICTIONARY
  5
4E5
102
{ACAD_REACTORS
330
498
102
}
330
498
100
AcDbDictionary
281
     1
  0
LAYOUT
  5
4C3
102
{ACAD_REACTORS
330
4C1
102
}
330
4C1
100
AcDbPlotSettings
  1

  2
none_device
  4
ISO_A3_(420.00_x_297.00_MM)
  6

 40
7.5
 41
20.0
 42
7.5
 43
20.0
 44
420.0
 45
297.0
 46
0.0
 47
0.0
 48
0.0
 49
0.0
140
0.0
141
0.0
142
1.0
143
3.272373540856031
 70
   688
 72
     1
 73
     0
 74
     1
  7

 75
     0
 76
     0
 77
     2
 78
   300
147
0.3055885850178359
148
3.0
149
0.0
100
AcDbLayout
  1
Foglio 1
 70
     1
 71
     1
 10
0.0
 20
0.0
 11
412.5
 21
277.0
 12
0.0
 22
0.0
 32
0.0
 14
-3.0
 24
0.0
 34
0.0
 15
1189.0
 25
841.0
 35
0.0
146
0.0
 13
0.0
 23
0.0
 33
0.0
 16
1.0
 26
0.0
 36
0.0
 17
0.0
 27
1.0
 37
0.0
 76
     0
330
1B
331
2F5
  0
LAYOUT
  5
4C2
102
{ACAD_REACTORS
330
4C1
102
}
330
4C1
100
AcDbPlotSettings
  1

  2
none_device
  4
Letter_(8.50_x_11.00_Inches)
  6

 40
6.35
 41
6.35
 42
6.35
 43
6.35
 44
215.9
 45
279.4
 46
0.0
 47
0.0
 48
0.0
 49
0.0
140
0.0
141
0.0
142
1.0
143
148.624999994925
 70
  1712
 72
     0
 73
     0
 74
     0
  7

 75
     0
 76
     0
 77
     2
 78
   300
147
0.0067283431457302
148
-0.0000005156208999
149
0.0
100
AcDbLayout
  1
Model
 70
     1
 71
     0
 10
0.0
 20
0.0
 11
1189.0
 21
841.0
 12
0.0
 22
0.0
 32
0.0
 14
0.0
 24
0.0
 34
0.0
 15
1189.0
 25
841.0
 35
0.0
146
0.0
 13
0.0
 23
0.0
 33
0.0
 16
1.0
 26
0.0
 36
0.0
 17
0.0
 27
1.0
 37
0.0
 76
     0
330
1F
331
1F4
  0
MATERIAL
  5
4DF
102
{ACAD_REACTORS
330
4DD
102
}
330
4DD
100
AcDbMaterial
  1
ByBlock
 72
     1
 94
      127
  0
MATERIAL
  5
4DE
102
{ACAD_REACTORS
330
4DD
102
}
330
4DD
100
AcDbMaterial
  1
ByLayer
 72
     1
 94
      127
  0
MATERIAL
  5
4E0
102
{ACAD_REACTORS
330
4DD
102
}
330
4DD
100
AcDbMaterial
  1
Global
 72
     1
 94
      127
  0
MLEADERSTYLE
  5
4E4
102
{ACAD_REACTORS
330
4E3
102
}
330
4E3
100
AcDbMLeaderStyle
179
     2
170
     2
171
     1
172
     0
 90
        2
 40
0.0
 41
0.0
173
     1
 91
-1056964608
340
14
 92
       -2
290
     1
 42
2.0
291
     1
 43
8.0
  3
Standard
341
0
 44
4.0
300

342
11
174
     1
178
     1
175
     1
176
     0
 93
-1056964608
 45
4.0
292
     0
297
     0
 46
4.0
343
0
 94
-1056964608
 47
1.0
 49
1.0
140
1.0
293
     1
141
0.0
294
     1
177
     0
142
1.0
295
     0
296
     0
143
3.75
271
     0
272
     9
273
     9
298
     0
  0
MLINESTYLE
  5
49B
102
{ACAD_REACTORS
330
49A
102
}
330
49A
100
AcDbMlineStyle
  2
STANDARD
 70
     0
  3

 62
   256
 51
90.0
 52
90.0
 71
     2
 49
0.5
 62
   256
  6
BYLAYER
 49
-0.5
 62
   256
  6
BYLAYER
  0
ACDBPLACEHOLDER
  5
49E
102
{ACAD_REACTORS
330
49D
102
}
330
49D
  0
SCALE
  5
4A0
102
{ACAD_REACTORS
330
49F
102
}
330
49F
100
AcDbScale
 70
     0
300
1:1
140
1.0
141
1.0
290
     1
  0
SCALE
  5
4A1
102
{ACAD_REACTORS
330
49F
102
}
330
49F
100
AcDbScale
 70
     0
300
1:2
140
1.0
141
2.0
290
     0
  0
SCALE
  5
4A2
102
{ACAD_REACTORS
330
49F
102
}
330
49F
100
AcDbScale
 70
     0
300
1:4
140
1.0
141
4.0
290
     0
  0
SCALE
  5
4A3
102
{ACAD_REACTORS
330
49F
102
}
330
49F
100
AcDbScale
 70
     0
300
1:5
140
1.0
141
5.0
290
     0
  0
SCALE
  5
4A4
102
{ACAD_REACTORS
330
49F
102
}
330
49F
100
AcDbScale
 70
     0
300
1:8
140
1.0
141
8.0
290
     0
  0
SCALE
  5
4A5
102
{ACAD_REACTORS
330
49F
102
}
330
49F
100
AcDbScale
 70
     0
300
1:10
140
1.0
141
10.0
290
     0
  0
SCALE
  5
4A6
102
{ACAD_REACTORS
330
49F
102
}
330
49F
100
AcDbScale
 70
     0
300
1:16
140
1.0
141
16.0
290
     0
  0
SCALE
  5
4A7
102
{ACAD_REACTORS
330
49F
102
}
330
49F
100
AcDbScale
 70
     0
300
1:20
140
1.0
141
20.0
290
     0
  0
SCALE
  5
4A8
102
{ACAD_REACTORS
330
49F
102
}
330
49F
100
AcDbScale
 70
     0
300
1:30
140
1.0
141
30.0
290
     0
  0
SCALE
  5
4A9
102
{ACAD_REACTORS
330
49F
102
}
330
49F
100
AcDbScale
 70
     0
300
1:40
140
1.0
141
40.0
290
     0
  0
SCALE
  5
4AA
102
{ACAD_REACTORS
330
49F
102
}
330
49F
100
AcDbScale
 70
     0
300
1:50
140
1.0
141
50.0
290
     0
  0
SCALE
  5
4AB
102
{ACAD_REACTORS
330
49F
102
}
330
49F
100
AcDbScale
 70
     0
300
1:100
140
1.0
141
100.0
290
     0
  0
SCALE
  5
4AC
102
{ACAD_REACTORS
330
49F
102
}
330
49F
100
AcDbScale
 70
     0
300
2:1
140
2.0
141
1.0
290
     0
  0
SCALE
  5
4AD
102
{ACAD_REACTORS
330
49F
102
}
330
49F
100
AcDbScale
 70
     0
300
4:1
140
4.0
141
1.0
290
     0
  0
SCALE
  5
4AE
102
{ACAD_REACTORS
330
49F
102
}
330
49F
100
AcDbScale
 70
     0
300
8:1
140
8.0
141
1.0
290
     0
  0
SCALE
  5
4AF
102
{ACAD_REACTORS
330
49F
102
}
330
49F
100
AcDbScale
 70
     0
300
10:1
140
10.0
141
1.0
290
     0
  0
SCALE
  5
4B0
102
{ACAD_REACTORS
330
49F
102
}
330
49F
100
AcDbScale
 70
     0
300
100:1
140
100.0
141
1.0
290
     0
  0
SCALE
  5
4B1
102
{ACAD_REACTORS
330
49F
102
}
330
49F
100
AcDbScale
 70
     0
300
1/128" = 1'-0"
140
0.0078125
141
12.0
290
     0
  0
SCALE
  5
4B2
102
{ACAD_REACTORS
330
49F
102
}
330
49F
100
AcDbScale
 70
     0
300
1/64" = 1'-0"
140
0.015625
141
12.0
290
     0
  0
SCALE
  5
4B3
102
{ACAD_REACTORS
330
49F
102
}
330
49F
100
AcDbScale
 70
     0
300
1/32" = 1'-0"
140
0.03125
141
12.0
290
     0
  0
SCALE
  5
4B4
102
{ACAD_REACTORS
330
49F
102
}
330
49F
100
AcDbScale
 70
     0
300
1/16" = 1'-0"
140
0.0625
141
12.0
290
     0
  0
SCALE
  5
4B5
102
{ACAD_REACTORS
330
49F
102
}
330
49F
100
AcDbScale
 70
     0
300
3/32" = 1'-0"
140
0.09375
141
12.0
290
     0
  0
SCALE
  5
4B6
102
{ACAD_REACTORS
330
49F
102
}
330
49F
100
AcDbScale
 70
     0
300
1/8" = 1'-0"
140
0.125
141
12.0
290
     0
  0
SCALE
  5
4B7
102
{ACAD_REACTORS
330
49F
102
}
330
49F
100
AcDbScale
 70
     0
300
3/16" = 1'-0"
140
0.1875
141
12.0
290
     0
  0
SCALE
  5
4B8
102
{ACAD_REACTORS
330
49F
102
}
330
49F
100
AcDbScale
 70
     0
300
1/4" = 1'-0"
140
0.25
141
12.0
290
     0
  0
SCALE
  5
4B9
102
{ACAD_REACTORS
330
49F
102
}
330
49F
100
AcDbScale
 70
     0
300
3/8" = 1'-0"
140
0.375
141
12.0
290
     0
  0
SCALE
  5
4BA
102
{ACAD_REACTORS
330
49F
102
}
330
49F
100
AcDbScale
 70
     0
300
1/2" = 1'-0"
140
0.5
141
12.0
290
     0
  0
SCALE
  5
4BB
102
{ACAD_REACTORS
330
49F
102
}
330
49F
100
AcDbScale
 70
     0
300
3/4" = 1'-0"
140
0.75
141
12.0
290
     0
  0
SCALE
  5
4BC
102
{ACAD_REACTORS
330
49F
102
}
330
49F
100
AcDbScale
 70
     0
300
1" = 1'-0"
140
1.0
141
12.0
290
     0
  0
SCALE
  5
4BD
102
{ACAD_REACTORS
330
49F
102
}
330
49F
100
AcDbScale
 70
     0
300
1-1/2" = 1'-0"
140
1.5
141
12.0
290
     0
  0
SCALE
  5
4BE
102
{ACAD_REACTORS
330
49F
102
}
330
49F
100
AcDbScale
 70
     0
300
3" = 1'-0"
140
3.0
141
12.0
290
     0
  0
SCALE
  5
4BF
102
{ACAD_REACTORS
330
49F
102
}
330
49F
100
AcDbScale
 70
     0
300
6" = 1'-0"
140
6.0
141
12.0
290
     0
  0
SCALE
  5
4C0
102
{ACAD_REACTORS
330
49F
102
}
330
49F
100
AcDbScale
 70
     0
300
1'-0" = 1'-0"
140
12.0
141
12.0
290
     0
  0
TABLESTYLE
  5
4E2
102
{ACAD_REACTORS
330
4E1
102
}
102
{ACAD_XDICTIONARY
360
4E8
102
}
330
4E1
100
AcDbTableStyle
  3
Standard
 70
     0
 71
     0
 40
0.06
 41
0.06
280
     0
281
     0
  7
STANDARD
140
4.5
170
     2
 62
     0
 63
   257
283
     0
 90
        4
 91
        0
  1

274
    -2
284
     1
 64
     0
275
    -2
285
     1
 65
     0
276
    -2
286
     1
 66
     0
277
    -2
287
     1
 67
     0
278
    -2
288
     1
 68
     0
279
    -2
289
     1
 69
     0
  7
STANDARD
140
6.0
170
     5
 62
     0
 63
   257
283
     0
 90
        4
 91
        0
  1

274
    -2
284
     1
 64
     0
275
    -2
285
     1
 65
     0
276
    -2
286
     1
 66
     0
277
    -2
287
     1
 67
     0
278
    -2
288
     1
 68
     0
279
    -2
289
     1
 69
     0
  7
STANDARD
140
4.5
170
     5
 62
     0
 63
   257
283
     0
 90
        4
 91
        0
  1

274
    -2
284
     1
 64
     0
275
    -2
285
     1
 65
     0
276
    -2
286
     1
 66
     0
277
    -2
287
     1
 67
     0
278
    -2
288
     1
 68
     0
279
    -2
289
     1
 69
     0
  0
VISUALSTYLE
  5
4C9
102
{ACAD_REACTORS
330
4C4
102
}
330
4C4
100
AcDbVisualStyle
  2
2dWireframe
 70
     4
177
     3
291
     0
 70
    58
 90
        0
176
     1
 90
        2
176
     1
 90
        0
176
     1
 90
        0
176
     1
 40
0.6
176
     1
 40
30.0
176
     1
 62
     7
420
 16777215
176
     1
 90
        1
176
     1
 90
        4
176
     1
 62
     7
176
     1
 62
   257
176
     1
 90
        1
176
     1
 90
        1
176
     1
 40
1.0
176
     1
 90
        0
176
     1
 62
   257
176
     1
 40
1.0
176
     1
 90
        1
176
     1
 90
        6
176
     1
 90
        2
176
     1
 62
     7
176
     1
 90
        5
176
     1
 90
        0
176
     1
 90
        0
176
     1
290
     0
176
     1
 90
        1
176
     1
 40
0.0
176
     1
 90
        0
176
     1
290
     1
176
     1
290
     1
176
     1
290
     0
176
     1
290
     0
176
     1
290
     0
176
     1
290
     0
176
     1
290
     0
176
     1
290
     0
176
     1
290
     0
176
     1
 90
       50
176
     1
 40
0.0
176
     1
 40
1.0
176
     1
 90
        0
176
     1
 62
    18
420
        0
176
     1
 90
       50
176
     1
 90
        3
176
     1
 62
     5
420
      255
176
     1
290
     0
176
     1
 90
       50
176
     1
 90
       50
176
     1
 90
       50
176
     1
290
     0
176
     1
 90
       50
176
     1
 62
   256
176
     0
 40
1.0
176
     0
 90
        2
176
     1
  1
strokes_ogs.tif
176
     1
290
     0
176
     1
 40
1.0
176
     1
 40
1.0
176
     1
  0
VISUALSTYLE
  5
4CC
102
{ACAD_REACTORS
330
4C4
102
}
330
4C4
100
AcDbVisualStyle
  2
Basic
 70
     7
177
     3
291
     1
 70
    58
 90
        1
176
     1
 90
        0
176
     1
 90
        1
176
     1
 90
        0
176
     1
 40
0.6
176
     1
 40
30.0
176
     1
 62
     7
420
 16777215
176
     1
 90
        0
176
     1
 90
        4
176
     1
 62
     7
176
     1
 62
   257
176
     1
 90
        1
176
     1
 90
        1
176
     1
 40
1.0
176
     1
 90
        8
176
     1
 62
     7
176
     1
 40
1.0
176
     1
 90
        1
176
     1
 90
        6
176
     1
 90
        2
176
     1
 62
     7
176
     1
 90
        5
176
     1
 90
        0
176
     1
 90
        0
176
     1
290
     0
176
     1
 90
        1
176
     1
 40
0.0
176
     1
 90
        0
176
     1
290
     0
176
     1
290
     1
176
     1
290
     1
176
     1
290
     0
176
     1
290
     0
176
     1
290
     0
176
     1
290
     0
176
     1
290
     0
176
     1
290
     0
176
     1
 90
       50
176
     1
 40
0.0
176
     1
 40
1.0
176
     1
 90
        0
176
     1
 62
    18
420
        0
176
     1
 90
       50
176
     1
 90
        3
176
     1
 62
     5
420
      255
176
     1
290
     0
176
     1
 90
       50
176
     1
 90
       50
176
     1
 90
       50
176
     1
290
     0
176
     1
 90
       50
176
     1
 62
   256
176
     0
 40
1.0
176
     0
 90
        2
176
     1
  1
strokes_ogs.tif
176
     1
290
     0
176
     1
 40
1.0
176
     1
 40
1.0
176
     1
  0
VISUALSTYLE
  5
4D0
102
{ACAD_REACTORS
330
4C4
102
}
330
4C4
100
AcDbVisualStyle
  2
Brighten
 70
    12
177
     3
291
     1
 70
    58
 90
        2
176
     1
 90
        2
176
     1
 90
        0
176
     1
 90
        0
176
     1
 40
0.6
176
     1
 40
30.0
176
     1
 62
     7
420
 16777215
176
     1
 90
        1
176
     1
 90
        4
176
     1
 62
     7
176
     1
 62
   257
176
     1
 90
        1
176
     1
 90
        1
176
     1
 40
1.0
176
     1
 90
        8
176
     1
 62
     7
176
     1
 40
1.0
176
     1
 90
        1
176
     1
 90
        6
176
     1
 90
        2
176
     1
 62
     7
176
     1
 90
        5
176
     1
 90
        0
176
     1
 90
        0
176
     1
290
     0
176
     1
 90
        1
176
     1
 40
50.0
176
     1
 90
        0
176
     1
290
     0
176
     1
290
     1
176
     1
290
     1
176
     1
290
     0
176
     1
290
     0
176
     1
290
     0
176
     1
290
     0
176
     1
290
     0
176
     1
290
     0
176
     1
 90
       50
176
     1
 40
0.0
176
     1
 40
1.0
176
     1
 90
        0
176
     1
 62
    18
420
        0
176
     1
 90
       50
176
     1
 90
        3
176
     1
 62
     5
420
      255
176
     1
290
     0
176
     1
 90
       50
176
     1
 90
       50
176
     1
 90
       50
176
     1
290
     0
176
     1
 90
       50
176
     1
 62
   256
176
     0
 40
1.0
176
     0
 90
        2
176
     1
  1
strokes_ogs.tif
176
     1
290
     0
176
     1
 40
1.0
176
     1
 40
1.0
176
     1
  0
VISUALSTYLE
  5
4D4
102
{ACAD_REACTORS
330
4C4
102
}
330
4C4
100
AcDbVisualStyle
  2
ColorChange
 70
    16
177
     3
291
     1
 70
    58
 90
        2
176
     1
 90
        2
176
     1
 90
        3
176
     1
 90
        0
176
     1
 40
0.6
176
     1
 40
30.0
176
     1
 62
     8
420
  8421504
176
     1
 90
        1
176
     1
 90
        4
176
     1
 62
     7
176
     1
 62
   257
176
     1
 90
        1
176
     1
 90
        1
176
     1
 40
1.0
176
     1
 90
        8
176
     1
 62
     8
420
  8421504
176
     1
 40
1.0
176
     1
 90
        1
176
     1
 90
        6
176
     1
 90
        2
176
     1
 62
     7
176
     1
 90
        5
176
     1
 90
        0
176
     1
 90
        0
176
     1
290
     0
176
     1
 90
        1
176
     1
 40
0.0
176
     1
 90
        0
176
     1
290
     0
176
     1
290
     1
176
     1
290
     1
176
     1
290
     0
176
     1
290
     0
176
     1
290
     0
176
     1
290
     0
176
     1
290
     0
176
     1
290
     0
176
     1
 90
       50
176
     1
 40
0.0
176
     1
 40
1.0
176
     1
 90
        0
176
     1
 62
    18
420
        0
176
     1
 90
       50
176
     1
 90
        3
176
     1
 62
     5
420
      255
176
     1
290
     0
176
     1
 90
       50
176
     1
 90
       50
176
     1
 90
       50
176
     1
290
     0
176
     1
 90
       50
176
     1
 62
   256
176
     0
 40
1.0
176
     0
 90
        2
176
     1
  1
strokes_ogs.tif
176
     1
290
     0
176
     1
 40
1.0
176
     1
 40
1.0
176
     1
  0
VISUALSTYLE
  5
4CE
102
{ACAD_REACTORS
330
4C4
102
}
330
4C4
100
AcDbVisualStyle
  2
Conceptual
 70
     9
177
     3
291
     0
 70
    58
 90
        3
176
     1
 90
        2
176
     1
 90
        0
176
     1
 90
        0
176
     1
 40
0.6
176
     1
 40
30.0
176
     1
 62
     7
420
 16777215
176
     1
 90
        2
176
     1
 90
        2
176
     1
 62
     7
176
     1
 62
   257
176
     1
 90
        1
176
     1
 90
        1
176
     1
 40
179.0
176
     1
 90
        8
176
     1
 62
     7
176
     1
 40
1.0
176
     1
 90
        1
176
     1
 90
        6
176
     1
 90
        2
176
     1
 62
     7
176
     1
 90
        3
176
     1
 90
        0
176
     1
 90
        0
176
     1
290
     0
176
     1
 90
        1
176
     1
 40
0.0
176
     1
 90
        0
176
     1
290
     0
176
     1
290
     1
176
     1
290
     1
176
     1
290
     0
176
     1
290
     0
176
     1
290
     0
176
     1
290
     0
176
     1
290
     0
176
     1
290
     0
176
     1
 90
       50
176
     1
 40
0.0
176
     1
 40
1.0
176
     1
 90
        0
176
     1
 62
    18
420
        0
176
     1
 90
       50
176
     1
 90
        3
176
     1
 62
     5
420
      255
176
     1
290
     0
176
     1
 90
       50
176
     1
 90
       50
176
     1
 90
       50
176
     1
290
     0
176
     1
 90
       50
176
     1
 62
   256
176
     0
 40
1.0
176
     0
 90
        2
176
     1
  1
strokes_ogs.tif
176
     1
290
     0
176
     1
 40
1.0
176
     1
 40
1.0
176
     1
  0
VISUALSTYLE
  5
4CF
102
{ACAD_REACTORS
330
4C4
102
}
330
4C4
100
AcDbVisualStyle
  2
Dim
 70
    11
177
     3
291
     1
 70
    58
 90
        2
176
     1
 90
        2
176
     1
 90
        0
176
     1
 90
        0
176
     1
 40
0.6
176
     1
 40
30.0
176
     1
 62
     7
420
 16777215
176
     1
 90
        1
176
     1
 90
        4
176
     1
 62
     7
176
     1
 62
   257
176
     1
 90
        1
176
     1
 90
        1
176
     1
 40
1.0
176
     1
 90
        8
176
     1
 62
     7
176
     1
 40
1.0
176
     1
 90
        1
176
     1
 90
        6
176
     1
 90
        2
176
     1
 62
     7
176
     1
 90
        5
176
     1
 90
        0
176
     1
 90
        0
176
     1
290
     0
176
     1
 90
        1
176
     1
 40
-50.0
176
     1
 90
        0
176
     1
290
     0
176
     1
290
     1
176
     1
290
     1
176
     1
290
     0
176
     1
290
     0
176
     1
290
     0
176
     1
290
     0
176
     1
290
     0
176
     1
290
     0
176
     1
 90
       50
176
     1
 40
0.0
176
     1
 40
1.0
176
     1
 90
        0
176
     1
 62
    18
420
        0
176
     1
 90
       50
176
     1
 90
        3
176
     1
 62
     5
420
      255
176
     1
290
     0
176
     1
 90
       50
176
     1
 90
       50
176
     1
 90
       50
176
     1
290
     0
176
     1
 90
       50
176
     1
 62
   256
176
     0
 40
1.0
176
     0
 90
        2
176
     1
  1
strokes_ogs.tif
176
     1
290
     0
176
     1
 40
1.0
176
     1
 40
1.0
176
     1
  0
VISUALSTYLE
  5
4D7
102
{ACAD_REACTORS
330
4C4
102
}
330
4C4
100
AcDbVisualStyle
  2
EdgeColorOff
 70
    22
177
     3
291
     1
 70
    58
 90
        2
176
     0
 90
        2
176
     0
 90
        0
176
     0
 90
        0
176
     0
 40
0.6
176
     0
 40
30.0
176
     0
 62
     7
420
 16777215
176
     0
 90
        1
176
     0
 90
        4
176
     0
 62
     7
176
     0
 62
   257
176
     0
 90
        1
176
     0
 90
        1
176
     0
 40
1.0
176
     0
 90
        8
176
     2
 62
     7
176
     0
 40
1.0
176
     0
 90
        1
176
     0
 90
        6
176
     0
 90
        2
176
     0
 62
     7
176
     0
 90
        5
176
     0
 90
        0
176
     0
 90
        0
176
     0
290
     0
176
     0
 90
        1
176
     0
 40
0.0
176
     0
 90
        0
176
     0
290
     0
176
     0
290
     1
176
     0
290
     1
176
     0
290
     0
176
     0
290
     0
176
     0
290
     0
176
     0
290
     0
176
     0
290
     0
176
     0
290
     0
176
     0
 90
       50
176
     0
 40
0.0
176
     0
 40
1.0
176
     0
 90
        0
176
     0
 62
    18
420
        0
176
     0
 90
       50
176
     0
 90
        3
176
     0
 62
     5
420
      255
176
     0
290
     0
176
     0
 90
       50
176
     0
 90
       50
176
     0
 90
       50
176
     0
290
     0
176
     0
 90
       50
176
     0
 62
   256
176
     0
 40
1.0
176
     0
 90
        2
176
     0
  1
strokes_ogs.tif
176
     0
290
     0
176
     0
 40
1.0
176
     0
 40
1.0
176
     0
  0
VISUALSTYLE
  5
4D3
102
{ACAD_REACTORS
330
4C4
102
}
330
4C4
100
AcDbVisualStyle
  2
Facepattern
 70
    15
177
     3
291
     1
 70
    58
 90
        2
176
     1
 90
        2
176
     1
 90
        0
176
     1
 90
        0
176
     1
 40
0.6
176
     1
 40
30.0
176
     1
 62
     7
420
 16777215
176
     1
 90
        1
176
     1
 90
        4
176
     1
 62
     7
176
     1
 62
   257
176
     1
 90
        1
176
     1
 90
        1
176
     1
 40
1.0
176
     1
 90
        8
176
     1
 62
     7
176
     1
 40
1.0
176
     1
 90
        1
176
     1
 90
        6
176
     1
 90
        2
176
     1
 62
     7
176
     1
 90
        5
176
     1
 90
        0
176
     1
 90
        0
176
     1
290
     0
176
     1
 90
        1
176
     1
 40
0.0
176
     1
 90
        0
176
     1
290
     0
176
     1
290
     1
176
     1
290
     1
176
     1
290
     0
176
     1
290
     0
176
     1
290
     0
176
     1
290
     0
176
     1
290
     0
176
     1
290
     0
176
     1
 90
       50
176
     1
 40
0.0
176
     1
 40
1.0
176
     1
 90
        0
176
     1
 62
    18
420
        0
176
     1
 90
       50
176
     1
 90
        3
176
     1
 62
     5
420
      255
176
     1
290
     0
176
     1
 90
       50
176
     1
 90
       50
176
     1
 90
       50
176
     1
290
     0
176
     1
 90
       50
176
     1
 62
   256
176
     0
 40
1.0
176
     0
 90
        2
176
     1
  1
strokes_ogs.tif
176
     1
290
     0
176
     1
 40
1.0
176
     1
 40
1.0
176
     1
  0
VISUALSTYLE
  5
4C5
102
{ACAD_REACTORS
330
4C4
102
}
330
4C4
100
AcDbVisualStyle
  2
Flat
 70
     0
177
     3
291
     1
 70
    58
 90
        2
176
     1
 90
        1
176
     1
 90
        1
176
     1
 90
        2
176
     1
 40
0.6
176
     1
 40
30.0
176
     1
 62
     7
420
 16777215
176
     1
 90
        0
176
     1
 90
        0
176
     1
 62
     7
176
     1
 62
   257
176
     1
 90
        1
176
     1
 90
        1
176
     1
 40
1.0
176
     1
 90
        8
176
     1
 62
     7
176
     1
 40
1.0
176
     1
 90
        1
176
     1
 90
        6
176
     1
 90
        2
176
     1
 62
     7
176
     1
 90
        5
176
     1
 90
        0
176
     1
 90
        0
176
     1
290
     0
176
     1
 90
       13
176
     1
 40
0.0
176
     1
 90
        0
176
     1
290
     0
176
     1
290
     1
176
     1
290
     1
176
     1
290
     0
176
     1
290
     0
176
     1
290
     0
176
     1
290
     0
176
     1
290
     0
176
     1
290
     0
176
     1
 90
       50
176
     1
 40
0.0
176
     1
 40
1.0
176
     1
 90
        0
176
     1
 62
    18
420
        0
176
     1
 90
       50
176
     1
 90
        3
176
     1
 62
     5
420
      255
176
     1
290
     0
176
     1
 90
       50
176
     1
 90
       50
176
     1
 90
       50
176
     1
290
     0
176
     1
 90
       50
176
     1
 62
   256
176
     0
 40
1.0
176
     0
 90
        2
176
     1
  1
strokes_ogs.tif
176
     1
290
     0
176
     1
 40
1.0
176
     1
 40
1.0
176
     1
  0
VISUALSTYLE
  5
4C6
102
{ACAD_REACTORS
330
4C4
102
}
330
4C4
100
AcDbVisualStyle
  2
FlatWithEdges
 70
     1
177
     3
291
     1
 70
    58
 90
        2
176
     1
 90
        1
176
     1
 90
        1
176
     1
 90
        2
176
     1
 40
0.6
176
     1
 40
30.0
176
     1
 62
     7
420
 16777215
176
     1
 90
        1
176
     1
 90
        0
176
     1
 62
     7
176
     1
 62
   257
176
     1
 90
        1
176
     1
 90
        1
176
     1
 40
1.0
176
     1
 90
        0
176
     1
 62
   257
176
     1
 40
1.0
176
     1
 90
        1
176
     1
 90
        6
176
     1
 90
        2
176
     1
 62
     7
176
     1
 90
        5
176
     1
 90
        0
176
     1
 90
        0
176
     1
290
     0
176
     1
 90
       13
176
     1
 40
0.0
176
     1
 90
        0
176
     1
290
     0
176
     1
290
     1
176
     1
290
     1
176
     1
290
     0
176
     1
290
     0
176
     1
290
     0
176
     1
290
     0
176
     1
290
     0
176
     1
290
     0
176
     1
 90
       50
176
     1
 40
0.0
176
     1
 40
1.0
176
     1
 90
        0
176
     1
 62
    18
420
        0
176
     1
 90
       50
176
     1
 90
        3
176
     1
 62
     5
420
      255
176
     1
290
     0
176
     1
 90
       50
176
     1
 90
       50
176
     1
 90
       50
176
     1
290
     0
176
     1
 90
       50
176
     1
 62
   256
176
     0
 40
1.0
176
     0
 90
        2
176
     1
  1
strokes_ogs.tif
176
     1
290
     0
176
     1
 40
1.0
176
     1
 40
1.0
176
     1
  0
VISUALSTYLE
  5
4C7
102
{ACAD_REACTORS
330
4C4
102
}
330
4C4
100
AcDbVisualStyle
  2
Gouraud
 70
     2
177
     3
291
     1
 70
    58
 90
        2
176
     1
 90
        2
176
     1
 90
        1
176
     1
 90
        2
176
     1
 40
0.6
176
     1
 40
30.0
176
     1
 62
     7
420
 16777215
176
     1
 90
        0
176
     1
 90
        0
176
     1
 62
     7
176
     1
 62
   257
176
     1
 90
        1
176
     1
 90
        1
176
     1
 40
1.0
176
     1
 90
        0
176
     1
 62
     7
176
     1
 40
1.0
176
     1
 90
        1
176
     1
 90
        6
176
     1
 90
        2
176
     1
 62
     7
176
     1
 90
        5
176
     1
 90
        0
176
     1
 90
        0
176
     1
290
     0
176
     1
 90
       13
176
     1
 40
0.0
176
     1
 90
        0
176
     1
290
     0
176
     1
290
     1
176
     1
290
     1
176
     1
290
     0
176
     1
290
     0
176
     1
290
     0
176
     1
290
     0
176
     1
290
     0
176
     1
290
     0
176
     1
 90
       50
176
     1
 40
0.0
176
     1
 40
1.0
176
     1
 90
        0
176
     1
 62
    18
420
        0
176
     1
 90
       50
176
     1
 90
        3
176
     1
 62
     5
420
      255
176
     1
290
     0
176
     1
 90
       50
176
     1
 90
       50
176
     1
 90
       50
176
     1
290
     0
176
     1
 90
       50
176
     1
 62
   256
176
     0
 40
1.0
176
     0
 90
        2
176
     1
  1
strokes_ogs.tif
176
     1
290
     0
176
     1
 40
1.0
176
     1
 40
1.0
176
     1
  0
VISUALSTYLE
  5
4C8
102
{ACAD_REACTORS
330
4C4
102
}
330
4C4
100
AcDbVisualStyle
  2
GouraudWithEdges
 70
     3
177
     3
291
     1
 70
    58
 90
        2
176
     1
 90
        2
176
     1
 90
        1
176
     1
 90
        2
176
     1
 40
0.6
176
     1
 40
30.0
176
     1
 62
     7
420
 16777215
176
     1
 90
        1
176
     1
 90
        0
176
     1
 62
     7
176
     1
 62
   257
176
     1
 90
        1
176
     1
 90
        1
176
     1
 40
1.0
176
     1
 90
        0
176
     1
 62
   257
176
     1
 40
1.0
176
     1
 90
        1
176
     1
 90
        6
176
     1
 90
        2
176
     1
 62
     7
176
     1
 90
        5
176
     1
 90
        0
176
     1
 90
        0
176
     1
290
     0
176
     1
 90
       13
176
     1
 40
0.0
176
     1
 90
        0
176
     1
290
     0
176
     1
290
     1
176
     1
290
     1
176
     1
290
     0
176
     1
290
     0
176
     1
290
     0
176
     1
290
     0
176
     1
290
     0
176
     1
290
     0
176
     1
 90
       50
176
     1
 40
0.0
176
     1
 40
1.0
176
     1
 90
        0
176
     1
 62
    18
420
        0
176
     1
 90
       50
176
     1
 90
        3
176
     1
 62
     5
420
      255
176
     1
290
     0
176
     1
 90
       50
176
     1
 90
       50
176
     1
 90
       50
176
     1
290
     0
176
     1
 90
       50
176
     1
 62
   256
176
     0
 40
1.0
176
     0
 90
        2
176
     1
  1
strokes_ogs.tif
176
     1
290
     0
176
     1
 40
1.0
176
     1
 40
1.0
176
     1
  0
VISUALSTYLE
  5
4CB
102
{ACAD_REACTORS
330
4C4
102
}
330
4C4
100
AcDbVisualStyle
  2
Hidden
 70
     6
177
     3
291
     0
 70
    58
 90
        1
176
     1
 90
        2
176
     1
 90
        2
176
     1
 90
        0
176
     1
 40
0.6
176
     1
 40
30.0
176
     1
 62
     7
420
 16777215
176
     1
 90
        2
176
     1
 90
        2
176
     1
 62
     7
176
     1
 62
   257
176
     1
 90
        2
176
     1
 90
        1
176
     1
 40
40.0
176
     1
 90
        0
176
     1
 62
   257
176
     1
 40
1.0
176
     1
 90
        1
176
     1
 90
        6
176
     1
 90
        2
176
     1
 62
     7
176
     1
 90
        3
176
     1
 90
        0
176
     1
 90
        0
176
     1
290
     0
176
     1
 90
        1
176
     1
 40
0.0
176
     1
 90
        0
176
     1
290
     0
176
     1
290
     1
176
     1
290
     1
176
     1
290
     0
176
     1
290
     0
176
     1
290
     0
176
     1
290
     0
176
     1
290
     0
176
     1
290
     0
176
     1
 90
       50
176
     1
 40
0.0
176
     1
 40
1.0
176
     1
 90
        0
176
     1
 62
    18
420
        0
176
     1
 90
       50
176
     1
 90
        3
176
     1
 62
     5
420
      255
176
     1
290
     0
176
     1
 90
       50
176
     1
 90
       50
176
     1
 90
       50
176
     1
290
     0
176
     1
 90
       50
176
     1
 62
   256
176
     0
 40
1.0
176
     0
 90
        2
176
     1
  1
strokes_ogs.tif
176
     1
290
     0
176
     1
 40
1.0
176
     1
 40
1.0
176
     1
  0
VISUALSTYLE
  5
4D5
102
{ACAD_REACTORS
330
4C4
102
}
330
4C4
100
AcDbVisualStyle
  2
JitterOff
 70
    20
177
     3
291
     1
 70
    58
 90
        2
176
     0
 90
        2
176
     0
 90
        0
176
     0
 90
        0
176
     0
 40
0.6
176
     0
 40
30.0
176
     0
 62
     7
420
 16777215
176
     0
 90
        1
176
     0
 90
        4
176
     0
 62
     7
176
     0
 62
   257
176
     0
 90
        1
176
     0
 90
        1
176
     0
 40
1.0
176
     0
 90
       10
176
     2
 62
     7
176
     0
 40
1.0
176
     0
 90
        1
176
     0
 90
        6
176
     0
 90
        2
176
     0
 62
     7
176
     0
 90
        5
176
     0
 90
        0
176
     0
 90
        0
176
     0
290
     0
176
     0
 90
        1
176
     0
 40
0.0
176
     0
 90
        0
176
     0
290
     0
176
     0
290
     1
176
     0
290
     1
176
     0
290
     0
176
     0
290
     0
176
     0
290
     0
176
     0
290
     0
176
     0
290
     0
176
     0
290
     0
176
     0
 90
       50
176
     0
 40
0.0
176
     0
 40
1.0
176
     0
 90
        0
176
     0
 62
    18
420
        0
176
     0
 90
       50
176
     0
 90
        3
176
     0
 62
     5
420
      255
176
     0
290
     0
176
     0
 90
       50
176
     0
 90
       50
176
     0
 90
       50
176
     0
290
     0
176
     0
 90
       50
176
     0
 62
   256
176
     0
 40
1.0
176
     0
 90
        2
176
     0
  1
strokes_ogs.tif
176
     0
290
     0
176
     0
 40
1.0
176
     0
 40
1.0
176
     0
  0
VISUALSTYLE
  5
4D2
102
{ACAD_REACTORS
330
4C4
102
}
330
4C4
100
AcDbVisualStyle
  2
Linepattern
 70
    14
177
     3
291
     1
 70
    58
 90
        2
176
     1
 90
        2
176
     1
 90
        0
176
     1
 90
        0
176
     1
 40
0.6
176
     1
 40
30.0
176
     1
 62
     7
420
 16777215
176
     1
 90
        1
176
     1
 90
        4
176
     1
 62
     7
176
     1
 62
   257
176
     1
 90
        7
176
     1
 90
        7
176
     1
 40
1.0
176
     1
 90
        8
176
     1
 62
     7
176
     1
 40
1.0
176
     1
 90
        1
176
     1
 90
        6
176
     1
 90
        2
176
     1
 62
     7
176
     1
 90
        5
176
     1
 90
        0
176
     1
 90
        0
176
     1
290
     0
176
     1
 90
        1
176
     1
 40
0.0
176
     1
 90
        0
176
     1
290
     0
176
     1
290
     1
176
     1
290
     1
176
     1
290
     0
176
     1
290
     0
176
     1
290
     0
176
     1
290
     0
176
     1
290
     0
176
     1
290
     0
176
     1
 90
       50
176
     1
 40
0.0
176
     1
 40
1.0
176
     1
 90
        0
176
     1
 62
    18
420
        0
176
     1
 90
       50
176
     1
 90
        3
176
     1
 62
     5
420
      255
176
     1
290
     0
176
     1
 90
       50
176
     1
 90
       50
176
     1
 90
       50
176
     1
290
     0
176
     1
 90
       50
176
     1
 62
   256
176
     0
 40
1.0
176
     0
 90
        2
176
     1
  1
strokes_ogs.tif
176
     1
290
     0
176
     1
 40
1.0
176
     1
 40
1.0
176
     1
  0
VISUALSTYLE
  5
4D6
102
{ACAD_REACTORS
330
4C4
102
}
330
4C4
100
AcDbVisualStyle
  2
OverhangOff
 70
    21
177
     3
291
     1
 70
    58
 90
        2
176
     0
 90
        2
176
     0
 90
        0
176
     0
 90
        0
176
     0
 40
0.6
176
     0
 40
30.0
176
     0
 62
     7
420
 16777215
176
     0
 90
        1
176
     0
 90
        4
176
     0
 62
     7
176
     0
 62
   257
176
     0
 90
        1
176
     0
 90
        1
176
     0
 40
1.0
176
     0
 90
        9
176
     2
 62
     7
176
     0
 40
1.0
176
     0
 90
        1
176
     0
 90
        6
176
     0
 90
        2
176
     0
 62
     7
176
     0
 90
        5
176
     0
 90
        0
176
     0
 90
        0
176
     0
290
     0
176
     0
 90
        1
176
     0
 40
0.0
176
     0
 90
        0
176
     0
290
     0
176
     0
290
     1
176
     0
290
     1
176
     0
290
     0
176
     0
290
     0
176
     0
290
     0
176
     0
290
     0
176
     0
290
     0
176
     0
290
     0
176
     0
 90
       50
176
     0
 40
0.0
176
     0
 40
1.0
176
     0
 90
        0
176
     0
 62
    18
420
        0
176
     0
 90
       50
176
     0
 90
        3
176
     0
 62
     5
420
      255
176
     0
290
     0
176
     0
 90
       50
176
     0
 90
       50
176
     0
 90
       50
176
     0
290
     0
176
     0
 90
       50
176
     0
 62
   256
176
     0
 40
1.0
176
     0
 90
        2
176
     0
  1
strokes_ogs.tif
176
     0
290
     0
176
     0
 40
1.0
176
     0
 40
1.0
176
     0
  0
VISUALSTYLE
  5
4CD
102
{ACAD_REACTORS
330
4C4
102
}
330
4C4
100
AcDbVisualStyle
  2
Realistic
 70
     8
177
     3
291
     0
 70
    58
 90
        2
176
     1
 90
        3
176
     1
 90
        0
176
     1
 90
        2
176
     1
 40
0.6
176
     1
 40
30.0
176
     1
 62
     7
420
 16777215
176
     1
 90
        0
176
     1
 90
        0
176
     1
 62
     7
176
     1
 62
   257
176
     1
 90
        1
176
     1
 90
        1
176
     1
 40
1.0
176
     1
 90
        8
176
     1
 62
   257
176
     1
 40
1.0
176
     1
 90
        1
176
     1
 90
        6
176
     1
 90
        2
176
     1
 62
     7
176
     1
 90
        3
176
     1
 90
        0
176
     1
 90
        0
176
     1
290
     0
176
     1
 90
       13
176
     1
 40
0.0
176
     1
 90
        0
176
     1
290
     0
176
     1
290
     1
176
     1
290
     1
176
     1
290
     0
176
     1
290
     0
176
     1
290
     0
176
     1
290
     0
176
     1
290
     0
176
     1
290
     0
176
     1
 90
       50
176
     1
 40
0.0
176
     1
 40
1.0
176
     1
 90
        0
176
     1
 62
    18
420
        0
176
     1
 90
       50
176
     1
 90
        3
176
     1
 62
     5
420
      255
176
     1
290
     0
176
     1
 90
       50
176
     1
 90
       50
176
     1
 90
       50
176
     1
290
     0
176
     1
 90
       50
176
     1
 62
   256
176
     0
 40
1.0
176
     0
 90
        2
176
     1
  1
strokes_ogs.tif
176
     1
290
     0
176
     1
 40
1.0
176
     1
 40
1.0
176
     1
  0
VISUALSTYLE
  5
4DC
102
{ACAD_REACTORS
330
4C4
102
}
330
4C4
100
AcDbVisualStyle
  2
Shaded
 70
    27
177
     3
291
     0
 70
    58
 90
        2
176
     1
 90
        2
176
     1
 90
        1
176
     1
 90
        2
176
     1
 40
0.6
176
     1
 40
30.0
176
     1
 62
     7
420
 16777215
176
     1
 90
        0
176
     1
 90
        4
176
     1
 62
     7
176
     1
 62
   257
176
     1
 90
        1
176
     1
 90
        1
176
     1
 40
1.0
176
     1
 90
        8
176
     1
 62
   257
176
     1
 40
1.0
176
     1
 90
        1
176
     1
 90
        6
176
     1
 90
        2
176
     1
 62
     8
420
  7895160
176
     1
 90
        3
176
     1
 90
        0
176
     1
 90
        0
176
     1
290
     0
176
     1
 90
        5
176
     1
 40
0.0
176
     1
 90
        0
176
     1
290
     0
176
     1
290
     1
176
     1
290
     1
176
     1
290
     0
176
     1
290
     0
176
     1
290
     0
176
     1
290
     0
176
     1
290
     0
176
     1
290
     0
176
     1
 90
       50
176
     1
 40
0.0
176
     1
 40
1.0
176
     1
 90
        0
176
     1
 62
    18
420
        0
176
     1
 90
       50
176
     1
 90
        3
176
     1
 62
     5
420
      255
176
     1
290
     0
176
     1
 90
       50
176
     1
 90
       50
176
     1
 90
       50
176
     1
290
     0
176
     1
 90
       50
176
     1
 62
   256
176
     0
 40
1.0
176
     0
 90
        2
176
     1
  1
strokes_ogs.tif
176
     1
290
     0
176
     1
 40
1.0
176
     1
 40
1.0
176
     1
  0
VISUALSTYLE
  5
4DB
102
{ACAD_REACTORS
330
4C4
102
}
330
4C4
100
AcDbVisualStyle
  2
Shaded with edges
 70
    26
177
     3
291
     0
 70
    58
 90
        2
176
     1
 90
        2
176
     1
 90
        1
176
     1
 90
        2
176
     1
 40
0.6
176
     1
 40
30.0
176
     1
 62
     7
420
 16777215
176
     1
 90
        1
176
     1
 90
       10
176
     1
 62
     7
176
     1
 62
   257
176
     1
 90
        2
176
     1
 90
        1
176
     1
 40
1.0
176
     1
 90
        8
176
     1
 62
   257
176
     1
 40
1.0
176
     1
 90
        1
176
     1
 90
        6
176
     1
 90
        2
176
     1
 62
     7
176
     1
 90
        3
176
     1
 90
        0
176
     1
 90
        0
176
     1
290
     0
176
     1
 90
        5
176
     1
 40
0.0
176
     1
 90
        0
176
     1
290
     0
176
     1
290
     1
176
     1
290
     1
176
     1
290
     0
176
     1
290
     0
176
     1
290
     0
176
     1
290
     0
176
     1
290
     0
176
     1
290
     0
176
     1
 90
       50
176
     1
 40
0.0
176
     1
 40
1.0
176
     1
 90
        0
176
     1
 62
    18
420
        0
176
     1
 90
       50
176
     1
 90
        3
176
     1
 62
     5
420
      255
176
     1
290
     0
176
     1
 90
       50
176
     1
 90
       50
176
     1
 90
       50
176
     1
290
     0
176
     1
 90
       50
176
     1
 62
   256
176
     0
 40
1.0
176
     0
 90
        2
176
     1
  1
strokes_ogs.tif
176
     1
290
     0
176
     1
 40
1.0
176
     1
 40
1.0
176
     1
  0
VISUALSTYLE
  5
4D8
102
{ACAD_REACTORS
330
4C4
102
}
330
4C4
100
AcDbVisualStyle
  2
Shades of Gray
 70
    23
177
     3
291
     0
 70
    58
 90
        2
176
     1
 90
        2
176
     1
 90
        3
176
     1
 90
        0
176
     1
 40
0.6
176
     1
 40
30.0
176
     1
 62
     7
420
 16777215
176
     1
 90
        2
176
     1
 90
        2
176
     1
 62
     7
176
     1
 62
     7
176
     1
 90
        1
176
     1
 90
        1
176
     1
 40
40.0
176
     1
 90
        8
176
     1
 62
     7
176
     1
 40
1.0
176
     1
 90
        1
176
     1
 90
        6
176
     1
 90
        2
176
     1
 62
     7
176
     1
 90
        3
176
     1
 90
        0
176
     1
 90
        0
176
     1
290
     0
176
     1
 90
        1
176
     1
 40
0.0
176
     1
 90
        0
176
     1
290
     0
176
     1
290
     1
176
     1
290
     1
176
     1
290
     0
176
     1
290
     0
176
     1
290
     0
176
     1
290
     0
176
     1
290
     0
176
     1
290
     0
176
     1
 90
       50
176
     1
 40
0.0
176
     1
 40
1.0
176
     1
 90
        0
176
     1
 62
    18
420
        0
176
     1
 90
       50
176
     1
 90
        3
176
     1
 62
     5
420
      255
176
     1
290
     0
176
     1
 90
       50
176
     1
 90
       50
176
     1
 90
       50
176
     1
290
     0
176
     1
 90
       50
176
     1
 62
   256
176
     0
 40
1.0
176
     0
 90
        2
176
     1
  1
strokes_ogs.tif
176
     1
290
     0
176
     1
 40
1.0
176
     1
 40
1.0
176
     1
  0
VISUALSTYLE
  5
4D9
102
{ACAD_REACTORS
330
4C4
102
}
330
4C4
100
AcDbVisualStyle
  2
Sketchy
 70
    24
177
     3
291
     0
 70
    58
 90
        1
176
     1
 90
        2
176
     1
 90
        2
176
     1
 90
        0
176
     1
 40
0.6
176
     1
 40
30.0
176
     1
 62
     7
420
 16777215
176
     1
 90
        2
176
     1
 90
        2
176
     1
 62
     7
176
     1
 62
     7
176
     1
 90
        1
176
     1
 90
        1
176
     1
 40
40.0
176
     1
 90
       11
176
     1
 62
     7
176
     1
 40
1.0
176
     1
 90
        1
176
     1
 90
        6
176
     1
 90
        2
176
     1
 62
     7
176
     1
 90
        6
176
     1
 90
        0
176
     1
 90
        0
176
     1
290
     0
176
     1
 90
        1
176
     1
 40
0.0
176
     1
 90
        0
176
     1
290
     0
176
     1
290
     1
176
     1
290
     1
176
     1
290
     0
176
     1
290
     0
176
     1
290
     0
176
     1
290
     0
176
     1
290
     0
176
     1
290
     0
176
     1
 90
       50
176
     1
 40
0.0
176
     1
 40
1.0
176
     1
 90
        0
176
     1
 62
    18
420
        0
176
     1
 90
       50
176
     1
 90
        3
176
     1
 62
     5
420
      255
176
     1
290
     0
176
     1
 90
       50
176
     1
 90
       50
176
     1
 90
       50
176
     1
290
     0
176
     1
 90
       50
176
     1
 62
   256
176
     0
 40
1.0
176
     0
 90
        2
176
     1
  1
strokes_ogs.tif
176
     1
290
     0
176
     1
 40
1.0
176
     1
 40
1.0
176
     1
  0
VISUALSTYLE
  5
4D1
102
{ACAD_REACTORS
330
4C4
102
}
330
4C4
100
AcDbVisualStyle
  2
Thicken
 70
    13
177
     3
291
     1
 70
    58
 90
        2
176
     1
 90
        2
176
     1
 90
        0
176
     1
 90
        0
176
     1
 40
0.6
176
     1
 40
30.0
176
     1
 62
     7
420
 16777215
176
     1
 90
        1
176
     1
 90
        4
176
     1
 62
     7
176
     1
 62
   257
176
     1
 90
        1
176
     1
 90
        1
176
     1
 40
1.0
176
     1
 90
       12
176
     1
 62
     7
176
     1
 40
1.0
176
     1
 90
        1
176
     1
 90
        6
176
     1
 90
        2
176
     1
 62
     7
176
     1
 90
        5
176
     1
 90
        0
176
     1
 90
        0
176
     1
290
     0
176
     1
 90
        1
176
     1
 40
0.0
176
     1
 90
        0
176
     1
290
     0
176
     1
290
     1
176
     1
290
     1
176
     1
290
     0
176
     1
290
     0
176
     1
290
     0
176
     1
290
     0
176
     1
290
     0
176
     1
290
     0
176
     1
 90
       50
176
     1
 40
0.0
176
     1
 40
1.0
176
     1
 90
        0
176
     1
 62
    18
420
        0
176
     1
 90
       50
176
     1
 90
        3
176
     1
 62
     5
420
      255
176
     1
290
     0
176
     1
 90
       50
176
     1
 90
       50
176
     1
 90
       50
176
     1
290
     0
176
     1
 90
       50
176
     1
 62
   256
176
     0
 40
1.0
176
     0
 90
        2
176
     1
  1
strokes_ogs.tif
176
     1
290
     0
176
     1
 40
1.0
176
     1
 40
1.0
176
     1
  0
VISUALSTYLE
  5
4CA
102
{ACAD_REACTORS
330
4C4
102
}
330
4C4
100
AcDbVisualStyle
  2
Wireframe
 70
     5
177
     3
291
     0
 70
    58
 90
        0
176
     1
 90
        2
176
     1
 90
        0
176
     1
 90
        0
176
     1
 40
0.6
176
     1
 40
30.0
176
     1
 62
     7
420
 16777215
176
     1
 90
        1
176
     1
 90
        4
176
     1
 62
     7
176
     1
 62
   257
176
     1
 90
        1
176
     1
 90
        1
176
     1
 40
1.0
176
     1
 90
        0
176
     1
 62
   257
176
     1
 40
1.0
176
     1
 90
        1
176
     1
 90
        6
176
     1
 90
        2
176
     1
 62
     7
176
     1
 90
        3
176
     1
 90
        0
176
     1
 90
        0
176
     1
290
     0
176
     1
 90
        1
176
     1
 40
0.0
176
     1
 90
        0
176
     1
290
     0
176
     1
290
     1
176
     1
290
     1
176
     1
290
     0
176
     1
290
     0
176
     1
290
     0
176
     1
290
     0
176
     1
290
     0
176
     1
290
     0
176
     1
 90
       50
176
     1
 40
0.0
176
     1
 40
1.0
176
     1
 90
        0
176
     1
 62
    18
420
        0
176
     1
 90
       50
176
     1
 90
        3
176
     1
 62
     5
420
      255
176
     1
290
     0
176
     1
 90
       50
176
     1
 90
       50
176
     1
 90
       50
176
     1
290
     0
176
     1
 90
       50
176
     1
 62
   256
176
     0
 40
1.0
176
     0
 90
        2
176
     1
  1
strokes_ogs.tif
176
     1
290
     0
176
     1
 40
1.0
176
     1
 40
1.0
176
     1
  0
VISUALSTYLE
  5
4DA
102
{ACAD_REACTORS
330
4C4
102
}
330
4C4
100
AcDbVisualStyle
  2
X-Ray
 70
    25
177
     3
291
     0
 70
    58
 90
        2
176
     1
 90
        2
176
     1
 90
        1
176
     1
 90
        1
176
     1
 40
0.5
176
     1
 40
30.0
176
     1
 62
     7
420
 16777215
176
     1
 90
        1
176
     1
 90
        0
176
     1
 62
     7
176
     1
 62
   257
176
     1
 90
        1
176
     1
 90
        1
176
     1
 40
1.0
176
     1
 90
        8
176
     1
 62
     7
176
     1
 40
1.0
176
     1
 90
        1
176
     1
 90
        6
176
     1
 90
        2
176
     1
 62
     7
176
     1
 90
        3
176
     1
 90
        0
176
     1
 90
        0
176
     1
290
     0
176
     1
 90
       13
176
     1
 40
0.0
176
     1
 90
        0
176
     1
290
     0
176
     1
290
     1
176
     1
290
     1
176
     1
290
     0
176
     1
290
     0
176
     1
290
     0
176
     1
290
     0
176
     1
290
     0
176
     1
290
     0
176
     1
 90
       50
176
     1
 40
0.0
176
     1
 40
1.0
176
     1
 90
        0
176
     1
 62
    18
420
        0
176
     1
 90
       50
176
     1
 90
        3
176
     1
 62
     5
420
      255
176
     1
290
     0
176
     1
 90
       50
176
     1
 90
       50
176
     1
 90
       50
176
     1
290
     0
176
     1
 90
       50
176
     1
 62
   256
176
     0
 40
1.0
176
     0
 90
        2
176
     1
  1
strokes_ogs.tif
176
     1
290
     0
176
     1
 40
1.0
176
     1
 40
1.0
176
     1
  0
DICTIONARYVAR
  5
4E7
102
{ACAD_REACTORS
330
4E6
102
}
330
4E6
100
DictionaryVariables
280
     0
  1
1:1
  0
DICTIONARYVAR
  5
4EC
102
{ACAD_REACTORS
330
4E6
102
}
330
4E6
100
DictionaryVariables
280
     0
  1
Standard
  0
DICTIONARYVAR
  5
4EB
102
{ACAD_REACTORS
330
4E6
102
}
330
4E6
100
DictionaryVariables
280
     0
  1
Standard
  0
DICTIONARYVAR
  5
4ED
102
{ACAD_REACTORS
330
4E6
102
}
330
4E6
100
DictionaryVariables
280
     0
  1
0
  0
DICTIONARY
  5
4E8
330
4E2
100
AcDbDictionary
280
     1
281
     1
  3
ACAD_ROUNDTRIP_2008_TABLESTYLE_CELLSTYLEMAP
360
4E9
  0
CELLSTYLEMAP
  5
4E9
102
{ACAD_REACTORS
330
4E8
102
}
330
4E8
100
AcDbCellStyleMap
 90
        3
300
CELLSTYLE
  1
TABLEFORMAT_BEGIN
 90
        5
170
     1
 91
        0
 92
    32768
 62
   257
 93
        1
300
CONTENTFORMAT
  1
CONTENTFORMAT_BEGIN
 90
        0
 91
        0
 92
        4
 93
        0
300

 40
0.0
140
1.0
 94
        5
 62
     0
340
11
144
6.0
309
CONTENTFORMAT_END
171
     1
301
MARGIN
  1
CELLMARGIN_BEGIN
 40
1.5
 40
1.5
 40
1.5
 40
1.5
 40
1.5
 40
1.5
309
CELLMARGIN_END
 94
        6
 95
        1
302
GRIDFORMAT
  1
GRIDFORMAT_BEGIN
 90
        0
 91
        1
 62
     0
 92
       -2
340
14
 93
        0
 40
0.045
309
GRIDFORMAT_END
 95
        2
302
GRIDFORMAT
  1
GRIDFORMAT_BEGIN
 90
        0
 91
        1
 62
     0
 92
       -2
340
14
 93
        0
 40
0.045
309
GRIDFORMAT_END
 95
        4
302
GRIDFORMAT
  1
GRIDFORMAT_BEGIN
 90
        0
 91
        1
 62
     0
 92
       -2
340
14
 93
        0
 40
0.045
309
GRIDFORMAT_END
 95
        8
302
GRIDFORMAT
  1
GRIDFORMAT_BEGIN
 90
        0
 91
        1
 62
     0
 92
       -2
340
14
 93
        0
 40
0.045
309
GRIDFORMAT_END
 95
       16
302
GRIDFORMAT
  1
GRIDFORMAT_BEGIN
 90
        0
 91
        1
 62
     0
 92
       -2
340
14
 93
        0
 40
0.045
309
GRIDFORMAT_END
 95
       32
302
GRIDFORMAT
  1
GRIDFORMAT_BEGIN
 90
        0
 91
        1
 62
     0
 92
       -2
340
14
 93
        0
 40
0.045
309
GRIDFORMAT_END
309
TABLEFORMAT_END
  1
CELLSTYLE_BEGIN
 90
        1
 91
        1
300
_TITLE
309
CELLSTYLE_END
300
CELLSTYLE
  1
TABLEFORMAT_BEGIN
 90
        5
170
     1
 91
        0
 92
        0
 62
   257
 93
        1
300
CONTENTFORMAT
  1
CONTENTFORMAT_BEGIN
 90
        0
 91
        0
 92
        4
 93
        0
300

 40
0.0
140
1.0
 94
        5
 62
     0
340
11
144
4.5
309
CONTENTFORMAT_END
171
     1
301
MARGIN
  1
CELLMARGIN_BEGIN
 40
1.5
 40
1.5
 40
1.5
 40
1.5
 40
1.5
 40
1.5
309
CELLMARGIN_END
 94
        6
 95
        1
302
GRIDFORMAT
  1
GRIDFORMAT_BEGIN
 90
        0
 91
        1
 62
     0
 92
       -2
340
14
 93
        0
 40
0.045
309
GRIDFORMAT_END
 95
        2
302
GRIDFORMAT
  1
GRIDFORMAT_BEGIN
 90
        0
 91
        1
 62
     0
 92
       -2
340
14
 93
        0
 40
0.045
309
GRIDFORMAT_END
 95
        4
302
GRIDFORMAT
  1
GRIDFORMAT_BEGIN
 90
        0
 91
        1
 62
     0
 92
       -2
340
14
 93
        0
 40
0.045
309
GRIDFORMAT_END
 95
        8
302
GRIDFORMAT
  1
GRIDFORMAT_BEGIN
 90
        0
 91
        1
 62
     0
 92
       -2
340
14
 93
        0
 40
0.045
309
GRIDFORMAT_END
 95
       16
302
GRIDFORMAT
  1
GRIDFORMAT_BEGIN
 90
        0
 91
        1
 62
     0
 92
       -2
340
14
 93
        0
 40
0.045
309
GRIDFORMAT_END
 95
       32
302
GRIDFORMAT
  1
GRIDFORMAT_BEGIN
 90
        0
 91
        1
 62
     0
 92
       -2
340
14
 93
        0
 40
0.045
309
GRIDFORMAT_END
309
TABLEFORMAT_END
  1
CELLSTYLE_BEGIN
 90
        2
 91
        1
300
_HEADER
309
CELLSTYLE_END
300
CELLSTYLE
  1
TABLEFORMAT_BEGIN
 90
        5
170
     1
 91
        0
 92
        0
 62
   257
 93
        1
300
CONTENTFORMAT
  1
CONTENTFORMAT_BEGIN
 90
        0
 91
        0
 92
        4
 93
        0
300

 40
0.0
140
1.0
 94
        2
 62
     0
340
11
144
4.5
309
CONTENTFORMAT_END
171
     1
301
MARGIN
  1
CELLMARGIN_BEGIN
 40
1.5
 40
1.5
 40
1.5
 40
1.5
 40
1.5
 40
1.5
309
CELLMARGIN_END
 94
        6
 95
        1
302
GRIDFORMAT
  1
GRIDFORMAT_BEGIN
 90
        0
 91
        1
 62
     0
 92
       -2
340
14
 93
        0
 40
0.045
309
GRIDFORMAT_END
 95
        2
302
GRIDFORMAT
  1
GRIDFORMAT_BEGIN
 90
        0
 91
        1
 62
     0
 92
       -2
340
14
 93
        0
 40
0.045
309
GRIDFORMAT_END
 95
        4
302
GRIDFORMAT
  1
GRIDFORMAT_BEGIN
 90
        0
 91
        1
 62
     0
 92
       -2
340
14
 93
        0
 40
0.045
309
GRIDFORMAT_END
 95
        8
302
GRIDFORMAT
  1
GRIDFORMAT_BEGIN
 90
        0
 91
        1
 62
     0
 92
       -2
340
14
 93
        0
 40
0.045
309
GRIDFORMAT_END
 95
       16
302
GRIDFORMAT
  1
GRIDFORMAT_BEGIN
 90
        0
 91
        1
 62
     0
 92
       -2
340
14
 93
        0
 40
0.045
309
GRIDFORMAT_END
 95
       32
302
GRIDFORMAT
  1
GRIDFORMAT_BEGIN
 90
        0
 91
        1
 62
     0
 92
       -2
340
14
 93
        0
 40
0.045
309
GRIDFORMAT_END
309
TABLEFORMAT_END
  1
CELLSTYLE_BEGIN
 90
        3
 91
        2
300
_DATA
309
CELLSTYLE_END
  0
ENDSEC
  0
EOF
