  0
SECTION
  2
HEADER
  9
$ACADVER
  1
AC1027
  9
$ACADMAINTVER
 70
   105
  9
$DWGCODEPAGE
  3
ANSI_1252
  9
$REQUIREDVERSIONS
160
                 0
  9
$LASTSAVEDBY
  1
andrea.zolin
  9
$INSBASE
 10
0.0
 20
0.0
 30
0.0
  9
$EXTMIN
 10
0.0
 20
0.0
 30
0.0
  9
$EXTMAX
 10
1189.0
 20
841.0
 30
0.0
  9
$LIMMIN
 10
0.0
 20
0.0
  9
$LIMMAX
 10
1189.0
 20
841.0
  9
$ORTHOMODE
 70
     0
  9
$REGENMODE
 70
     1
  9
$FILLMODE
 70
     1
  9
$QTEXTMODE
 70
     0
  9
$MIRRTEXT
 70
     1
  9
$LTSCALE
 40
65.395
  9
$ATTMODE
 70
     1
  9
$TEXTSIZE
 40
0.2
  9
$TRACEWID
 40
0.05
  9
$TEXTSTYLE
  7
STANDARD
  9
$CLAYER
  8
0
  9
$CELTYPE
  6
BYLAYER
  9
$CECOLOR
 62
   256
  9
$CELTSCALE
 40
1.0
  9
$DISPSILH
 70
     0
  9
$DIMSCALE
 40
1.0
  9
$DIMASZ
 40
2.5
  9
$DIMEXO
 40
0.75
  9
$DIMDLI
 40
45.182
  9
$DIMRND
 40
0.0
  9
$DIMDLE
 40
0.0
  9
$DIMEXE
 40
0.75
  9
$DIMTP
 40
0.01
  9
$DIMTM
 40
0.01
  9
$DIMTXT
 40
3.0
  9
$DIMCEN
 40
10.701
  9
$DIMTSZ
 40
0.0
  9
$DIMTOL
 70
     1
  9
$DIMLIM
 70
     0
  9
$DIMTIH
 70
     1
  9
$DIMTOH
 70
     1
  9
$DIMSE1
 70
     0
  9
$DIMSE2
 70
     0
  9
$DIMTAD
 70
     0
  9
$DIMZIN
 70
     0
  9
$DIMBLK
  1
CLOSED
  9
$DIMASO
 70
     1
  9
$DIMSHO
 70
     1
  9
$DIMPOST
  1

  9
$DIMAPOST
  1

  9
$DIMALT
 70
     0
  9
$DIMALTD
 70
     2
  9
$DIMALTF
 40
25.4
  9
$DIMLFAC
 40
6.6666666667
  9
$DIMTOFL
 70
     0
  9
$DIMTVP
 40
0.0
  9
$DIMTIX
 70
     0
  9
$DIMSOXD
 70
     0
  9
$DIMSAH
 70
     0
  9
$DIMBLK1
  1

  9
$DIMBLK2
  1

  9
$DIMSTYLE
  2
STANDARD
  9
$DIMCLRD
 70
     0
  9
$DIMCLRE
 70
     0
  9
$DIMCLRT
 70
     0
  9
$DIMTFAC
 40
1.0
  9
$DIMGAP
 40
0.625
  9
$DIMJUST
 70
     0
  9
$DIMSD1
 70
     0
  9
$DIMSD2
 70
     0
  9
$DIMTOLJ
 70
     1
  9
$DIMTZIN
 70
     0
  9
$DIMALTZ
 70
     0
  9
$DIMALTTZ
 70
     0
  9
$DIMUPT
 70
     0
  9
$DIMDEC
 70
     4
  9
$DIMTDEC
 70
     4
  9
$DIMALTU
 70
     2
  9
$DIMALTTD
 70
     2
  9
$DIMTXSTY
  7
STANDARD
  9
$DIMAUNIT
 70
     0
  9
$DIMADEC
 70
     0
  9
$DIMALTRND
 40
0.0
  9
$DIMAZIN
 70
     0
  9
$DIMDSEP
 70
    46
  9
$DIMATFIT
 70
     3
  9
$DIMFRAC
 70
     0
  9
$DIMLDRBLK
  1

  9
$DIMLUNIT
 70
     2
  9
$DIMLWD
 70
    -2
  9
$DIMLWE
 70
    -2
  9
$DIMTMOVE
 70
     2
  9
$DIMFXL
 40
1.0
  9
$DIMFXLON
 70
     0
  9
$DIMJOGANG
 40
0.7853981633974483
  9
$DIMTFILL
 70
     0
  9
$DIMTFILLCLR
 70
     0
  9
$DIMARCSYM
 70
     0
  9
$DIMLTYPE
  6

  9
$DIMLTEX1
  6

  9
$DIMLTEX2
  6

  9
$DIMTXTDIRECTION
 70
     0
  9
$LUNITS
 70
     2
  9
$LUPREC
 70
     4
  9
$SKETCHINC
 40
0.1
  9
$FILLETRAD
 40
0.5
  9
$AUNITS
 70
     0
  9
$AUPREC
 70
     0
  9
$MENU
  1
.
  9
$ELEVATION
 40
0.0
  9
$PELEVATION
 40
0.0
  9
$THICKNESS
 40
0.0
  9
$LIMCHECK
 70
     0
  9
$CHAMFERA
 40
0.0
  9
$CHAMFERB
 40
0.0
  9
$CHAMFERC
 40
0.0
  9
$CHAMFERD
 40
0.0
  9
$SKPOLY
 70
     0
  9
$TDCREATE
 40
2447893.041666667
  9
$TDUCREATE
 40
0.0
  9
$TDUPDATE
 40
2458473.566465035
  9
$TDUUPDATE
 40
2458473.524798368
  9
$TDINDWG
 40
0.000198588
  9
$TDUSRTIMER
 40
0.000198588
  9
$USRTIMER
 70
     1
  9
$ANGBASE
 50
0.0
  9
$ANGDIR
 70
     0
  9
$PDMODE
 70
     3
  9
$PDSIZE
 40
0.3125
  9
$PLINEWID
 40
0.0
  9
$SPLFRAME
 70
     0
  9
$SPLINETYPE
 70
     6
  9
$SPLINESEGS
 70
     8
  9
$HANDSEED
  5
648
  9
$SURFTAB1
 70
     6
  9
$SURFTAB2
 70
     6
  9
$SURFTYPE
 70
     6
  9
$SURFU
 70
     6
  9
$SURFV
 70
     6
  9
$UCSBASE
  2

  9
$UCSNAME
  2

  9
$UCSORG
 10
0.0
 20
0.0
 30
0.0
  9
$UCSXDIR
 10
1.0
 20
0.0
 30
0.0
  9
$UCSYDIR
 10
0.0
 20
1.0
 30
0.0
  9
$UCSORTHOREF
  2

  9
$UCSORTHOVIEW
 70
     0
  9
$UCSORGTOP
 10
0.0
 20
0.0
 30
0.0
  9
$UCSORGBOTTOM
 10
0.0
 20
0.0
 30
0.0
  9
$UCSORGLEFT
 10
0.0
 20
0.0
 30
0.0
  9
$UCSORGRIGHT
 10
0.0
 20
0.0
 30
0.0
  9
$UCSORGFRONT
 10
0.0
 20
0.0
 30
0.0
  9
$UCSORGBACK
 10
0.0
 20
0.0
 30
0.0
  9
$PUCSBASE
  2

  9
$PUCSNAME
  2

  9
$PUCSORG
 10
0.0
 20
0.0
 30
0.0
  9
$PUCSXDIR
 10
1.0
 20
0.0
 30
0.0
  9
$PUCSYDIR
 10
0.0
 20
1.0
 30
0.0
  9
$PUCSORTHOREF
  2

  9
$PUCSORTHOVIEW
 70
     0
  9
$PUCSORGTOP
 10
0.0
 20
0.0
 30
0.0
  9
$PUCSORGBOTTOM
 10
0.0
 20
0.0
 30
0.0
  9
$PUCSORGLEFT
 10
0.0
 20
0.0
 30
0.0
  9
$PUCSORGRIGHT
 10
0.0
 20
0.0
 30
0.0
  9
$PUCSORGFRONT
 10
0.0
 20
0.0
 30
0.0
  9
$PUCSORGBACK
 10
0.0
 20
0.0
 30
0.0
  9
$USERI1
 70
     0
  9
$USERI2
 70
     0
  9
$USERI3
 70
     0
  9
$USERI4
 70
     0
  9
$USERI5
 70
     0
  9
$USERR1
 40
0.0
  9
$USERR2
 40
0.0
  9
$USERR3
 40
0.0
  9
$USERR4
 40
0.0
  9
$USERR5
 40
0.0
  9
$WORLDVIEW
 70
     1
  9
$SHADEDGE
 70
     3
  9
$SHADEDIF
 70
    70
  9
$TILEMODE
 70
     0
  9
$MAXACTVP
 70
    64
  9
$PINSBASE
 10
0.0
 20
0.0
 30
0.0
  9
$PLIMCHECK
 70
     0
  9
$PEXTMIN
 10
-3.0
 20
0.0
 30
0.0
  9
$PEXTMAX
 10
1189.0
 20
841.0
 30
0.0
  9
$PLIMMIN
 10
-27.54280155642023
 20
-65.44747081712062
  9
$PLIMMAX
 10
1346.854085603113
 20
906.4474708171206
  9
$UNITMODE
 70
     0
  9
$VISRETAIN
 70
     1
  9
$PLINEGEN
 70
     0
  9
$PSLTSCALE
 70
     1
  9
$TREEDEPTH
 70
  3020
  9
$CMLSTYLE
  2
STANDARD
  9
$CMLJUST
 70
     0
  9
$CMLSCALE
 40
1.0
  9
$PROXYGRAPHICS
 70
     1
  9
$MEASUREMENT
 70
     1
  9
$CELWEIGHT
370
    -1
  9
$ENDCAPS
280
     0
  9
$JOINSTYLE
280
     0
  9
$LWDISPLAY
290
     0
  9
$INSUNITS
 70
     0
  9
$HYPERLINKBASE
  1

  9
$STYLESHEET
  1

  9
$XEDIT
290
     1
  9
$CEPSNTYPE
380
     0
  9
$PSTYLEMODE
290
     1
  9
$FINGERPRINTGUID
  2
{9C0163F9-7E69-4A49-A7F0-487F51585198}
  9
$VERSIONGUID
  2
{FAEB1C32-E019-11D5-929B-00C0DF256EC4}
  9
$EXTNAMES
290
     1
  9
$PSVPSCALE
 40
0.0
  9
$OLESTARTUP
290
     0
  9
$SORTENTS
280
   127
  9
$INDEXCTL
280
     0
  9
$HIDETEXT
280
     1
  9
$XCLIPFRAME
280
     2
  9
$HALOGAP
280
     0
  9
$OBSCOLOR
 70
   257
  9
$OBSLTYPE
280
     0
  9
$INTERSECTIONDISPLAY
280
     0
  9
$INTERSECTIONCOLOR
 70
   257
  9
$DIMASSOC
280
     2
  9
$PROJECTNAME
  1

  9
$CAMERADISPLAY
290
     0
  9
$LENSLENGTH
 40
50.0
  9
$CAMERAHEIGHT
 40
0.0
  9
$STEPSPERSEC
 40
2.0
  9
$STEPSIZE
 40
6.0
  9
$3DDWFPREC
 40
2.0
  9
$PSOLWIDTH
 40
0.25
  9
$PSOLHEIGHT
 40
4.0
  9
$LOFTANG1
 40
1.570796326794897
  9
$LOFTANG2
 40
1.570796326794897
  9
$LOFTMAG1
 40
0.0
  9
$LOFTMAG2
 40
0.0
  9
$LOFTPARAM
 70
     7
  9
$LOFTNORMALS
280
     1
  9
$LATITUDE
 40
37.795
  9
$LONGITUDE
 40
-122.394
  9
$NORTHDIRECTION
 40
0.0
  9
$TIMEZONE
 70
 -8000
  9
$LIGHTGLYPHDISPLAY
280
     1
  9
$TILEMODELIGHTSYNCH
280
     1
  9
$SOLIDHIST
280
     0
  9
$SHOWHIST
280
     1
  9
$DWFFRAME
280
     2
  9
$DGNFRAME
280
     2
  9
$REALWORLDSCALE
290
     1
  9
$INTERFERECOLOR
 62
   256
  9
$CSHADOW
280
     0
  9
$SHADOWPLANELOCATION
 40
0.0
  0
ENDSEC
  0
SECTION
  2
CLASSES
  0
CLASS
  1
ACDBDICTIONARYWDFLT
  2
AcDbDictionaryWithDefault
  3
ObjectDBX Classes
 90
        0
 91
        4
280
     0
281
     0
  0
CLASS
  1
SCALE
  2
AcDbScale
  3
ObjectDBX Classes
 90
     1153
 91
        4
280
     0
281
     0
  0
CLASS
  1
VISUALSTYLE
  2
AcDbVisualStyle
  3
ObjectDBX Classes
 90
     4095
 91
        4
280
     0
281
     0
  0
CLASS
  1
MATERIAL
  2
AcDbMaterial
  3
ObjectDBX Classes
 90
     1153
 91
        4
280
     0
281
     0
  0
CLASS
  1
TABLESTYLE
  2
AcDbTableStyle
  3
ObjectDBX Classes
 90
     4095
 91
        4
280
     0
281
     0
  0
CLASS
  1
MLEADERSTYLE
  2
AcDbMLeaderStyle
  3
ACDB_MLEADERSTYLE_CLASS
 90
     4095
 91
        4
280
     0
281
     0
  0
CLASS
  1
DICTIONARYVAR
  2
AcDbDictionaryVar
  3
ObjectDBX Classes
 90
        0
 91
        4
280
     0
281
     0
  0
CLASS
  1
CELLSTYLEMAP
  2
AcDbCellStyleMap
  3
ObjectDBX Classes
 90
     1152
 91
        4
280
     0
281
     0
  0
ENDSEC
  0
SECTION
  2
TABLES
  0
TABLE
  2
VPORT
  5
8
330
0
100
AcDbSymbolTable
 70
     1
  0
VPORT
  5
1F4
330
8
100
AcDbSymbolTableRecord
100
AcDbViewportTableRecord
  2
*ACTIVE
 70
     0
 10
0.0
 20
0.0
 11
1.0
 21
1.0
 12
594.5
 22
420.5
 13
0.0
 23
0.0
 14
1.0
 24
1.0
 15
0.0
 25
0.0
 16
0.0
 26
0.0
 36
1.0
 17
0.0
 27
0.0
 37
0.0
 40
841.0
 41
1.4137931034
 42
50.0
 43
0.0
 44
0.0
 50
0.0
 51
0.0
 71
     0
 72
   100
 73
     1
 74
     1
 75
     0
 76
     0
 77
     0
 78
     0
281
     0
 65
     1
110
0.0
120
0.0
130
0.0
111
1.0
121
0.0
131
0.0
112
0.0
122
1.0
132
0.0
 79
     0
146
0.0
348
621
 60
     3
 61
     5
292
     1
282
     1
141
0.0
142
0.0
 63
   256
  0
ENDTAB
  0
TABLE
  2
LTYPE
  5
5
330
0
100
AcDbSymbolTable
 70
     6
  0
LTYPE
  5
14
330
5
100
AcDbSymbolTableRecord
100
AcDbLinetypeTableRecord
  2
BYBLOCK
 70
     0
  3

 72
    65
 73
     0
 40
0.0
  0
LTYPE
  5
15
330
5
100
AcDbSymbolTableRecord
100
AcDbLinetypeTableRecord
  2
BYLAYER
 70
     0
  3

 72
    65
 73
     0
 40
0.0
  0
LTYPE
  5
16
330
5
100
AcDbSymbolTableRecord
100
AcDbLinetypeTableRecord
  2
CONTINUOUS
 70
     0
  3
Solid line
 72
    65
 73
     0
 40
0.0
  0
LTYPE
  5
1F5
330
5
100
AcDbSymbolTableRecord
100
AcDbLinetypeTableRecord
  2
CENTER
 70
     0
  3
____ _ ____ _ ____ _ ____ _ ____ _ ____ _ ____
 72
    65
 73
     4
 40
0.6
 49
0.375
 74
     0
 49
-0.075
 74
     0
 49
0.075
 74
     0
 49
-0.075
 74
     0
  0
LTYPE
  5
1F6
330
5
100
AcDbSymbolTableRecord
100
AcDbLinetypeTableRecord
  2
HIDDEN
 70
     0
  3
- - - - - - - - - - - - - - - - - - - -
 72
    65
 73
     2
 40
0.2
 49
0.1
 74
     0
 49
-0.1
 74
     0
  0
LTYPE
  5
1F7
330
5
100
AcDbSymbolTableRecord
100
AcDbLinetypeTableRecord
  2
PHANTOM
 70
     0
  3
_____ _ _ _____ _ _ _____ _ _ _____
 72
    65
 73
     6
 40
0.8
 49
0.45
 74
     0
 49
-0.05
 74
     0
 49
0.1
 74
     0
 49
-0.05
 74
     0
 49
0.1
 74
     0
 49
-0.05
 74
     0
  0
LTYPE
  5
1F8
330
5
100
AcDbSymbolTableRecord
100
AcDbLinetypeTableRecord
  2
DOT
 70
     0
  3
. . . . . . . . . . . . . . . . . . . .
 72
    65
 73
     2
 40
0.2
 49
0.1
 74
     0
 49
-0.1
 74
     0
  0
LTYPE
  5
1F9
330
5
100
AcDbSymbolTableRecord
100
AcDbLinetypeTableRecord
  2
DASHED
 70
     0
  3
- - - - - - - - - - - - - - - - - - - -
 72
    65
 73
     2
 40
0.2
 49
0.1
 74
     0
 49
-0.1
 74
     0
  0
ENDTAB
  0
TABLE
  2
LAYER
  5
2
330
0
100
AcDbSymbolTable
 70
    33
  0
LAYER
  5
10
330
2
100
AcDbSymbolTableRecord
100
AcDbLayerTableRecord
  2
0
 70
     0
 62
     7
  6
CONTINUOUS
370
    -3
390
5F6
347
638
348
0
  0
LAYER
  5
1FA
330
2
100
AcDbSymbolTableRecord
100
AcDbLayerTableRecord
  2
DEFAULT_1
 70
     0
 62
     7
  6
CENTER
370
    -3
390
5F6
347
638
348
0
  0
LAYER
  5
1FB
330
2
100
AcDbSymbolTableRecord
100
AcDbLayerTableRecord
  2
DEFAULT_2
 70
     0
 62
     8
  6
HIDDEN
370
    -3
390
5F6
347
638
348
0
  0
LAYER
  5
1FC
330
2
100
AcDbSymbolTableRecord
100
AcDbLayerTableRecord
  2
DEFAULT_3
 70
     0
 62
     7
  6
PHANTOM
370
    -3
390
5F6
347
638
348
0
  0
LAYER
  5
1FD
330
2
100
AcDbSymbolTableRecord
100
AcDbLayerTableRecord
  2
01_ALL_DTM_PLN
 70
     0
 62
     7
  6
CONTINUOUS
370
    -3
390
5F6
347
638
348
0
  0
LAYER
  5
1FE
330
2
100
AcDbSymbolTableRecord
100
AcDbLayerTableRecord
  2
01__ASM_ALL_DTM_PLN
 70
     0
 62
     7
  6
CONTINUOUS
370
    -3
390
5F6
347
638
348
0
  0
LAYER
  5
1FF
330
2
100
AcDbSymbolTableRecord
100
AcDbLayerTableRecord
  2
01__ASM_DEF_DTM_PLN
 70
     0
 62
     7
  6
CONTINUOUS
370
    -3
390
5F6
347
638
348
0
  0
LAYER
  5
200
330
2
100
AcDbSymbolTableRecord
100
AcDbLayerTableRecord
  2
01___PRT_ALL_DTM_PLN
 70
     0
 62
     7
  6
CONTINUOUS
370
    -3
390
5F6
347
638
348
0
  0
LAYER
  5
201
330
2
100
AcDbSymbolTableRecord
100
AcDbLayerTableRecord
  2
01___PRT_DEF_DTM_PLN
 70
     0
 62
     7
  6
CONTINUOUS
370
    -3
390
5F6
347
638
348
0
  0
LAYER
  5
202
330
2
100
AcDbSymbolTableRecord
100
AcDbLayerTableRecord
  2
02_ALL_AXES
 70
     0
 62
     7
  6
CONTINUOUS
370
    -3
390
5F6
347
638
348
0
  0
LAYER
  5
203
330
2
100
AcDbSymbolTableRecord
100
AcDbLayerTableRecord
  2
02__ASM_ALL_AXES
 70
     0
 62
     7
  6
CONTINUOUS
370
    -3
390
5F6
347
638
348
0
  0
LAYER
  5
204
330
2
100
AcDbSymbolTableRecord
100
AcDbLayerTableRecord
  2
02___PRT_ALL_AXES
 70
     0
 62
     7
  6
CONTINUOUS
370
    -3
390
5F6
347
638
348
0
  0
LAYER
  5
205
330
2
100
AcDbSymbolTableRecord
100
AcDbLayerTableRecord
  2
03_ALL_CURVES
 70
     0
 62
     7
  6
CONTINUOUS
370
    -3
390
5F6
347
638
348
0
  0
LAYER
  5
206
330
2
100
AcDbSymbolTableRecord
100
AcDbLayerTableRecord
  2
03__ASM_ALL_CURVES
 70
     0
 62
     7
  6
CONTINUOUS
370
    -3
390
5F6
347
638
348
0
  0
LAYER
  5
207
330
2
100
AcDbSymbolTableRecord
100
AcDbLayerTableRecord
  2
03___PRT_ALL_CURVES
 70
     0
 62
     7
  6
CONTINUOUS
370
    -3
390
5F6
347
638
348
0
  0
LAYER
  5
208
330
2
100
AcDbSymbolTableRecord
100
AcDbLayerTableRecord
  2
04_ALL_DTM_PNT
 70
     0
 62
     7
  6
CONTINUOUS
370
    -3
390
5F6
347
638
348
0
  0
LAYER
  5
209
330
2
100
AcDbSymbolTableRecord
100
AcDbLayerTableRecord
  2
04__ASM_ALL_DTM_PNT
 70
     0
 62
     7
  6
CONTINUOUS
370
    -3
390
5F6
347
638
348
0
  0
LAYER
  5
20A
330
2
100
AcDbSymbolTableRecord
100
AcDbLayerTableRecord
  2
04___PRT_ALL_DTM_PNT
 70
     0
 62
     7
  6
CONTINUOUS
370
    -3
390
5F6
347
638
348
0
  0
LAYER
  5
20B
330
2
100
AcDbSymbolTableRecord
100
AcDbLayerTableRecord
  2
05_ALL_DTM_CSYS
 70
     0
 62
     7
  6
CONTINUOUS
370
    -3
390
5F6
347
638
348
0
  0
LAYER
  5
20C
330
2
100
AcDbSymbolTableRecord
100
AcDbLayerTableRecord
  2
05__ASM_ALL_DTM_CSYS
 70
     0
 62
     7
  6
CONTINUOUS
370
    -3
390
5F6
347
638
348
0
  0
LAYER
  5
20D
330
2
100
AcDbSymbolTableRecord
100
AcDbLayerTableRecord
  2
05__ASM_DEF_DTM_CSYS
 70
     0
 62
     7
  6
CONTINUOUS
370
    -3
390
5F6
347
638
348
0
  0
LAYER
  5
20E
330
2
100
AcDbSymbolTableRecord
100
AcDbLayerTableRecord
  2
05___PRT_ALL_DTM_CSYS
 70
     0
 62
     7
  6
CONTINUOUS
370
    -3
390
5F6
347
638
348
0
  0
LAYER
  5
20F
330
2
100
AcDbSymbolTableRecord
100
AcDbLayerTableRecord
  2
05___PRT_DEF_DTM_CSYS
 70
     0
 62
     7
  6
CONTINUOUS
370
    -3
390
5F6
347
638
348
0
  0
LAYER
  5
210
330
2
100
AcDbSymbolTableRecord
100
AcDbLayerTableRecord
  2
06_ALL_SURFS
 70
     0
 62
     7
  6
CONTINUOUS
370
    -3
390
5F6
347
638
348
0
  0
LAYER
  5
211
330
2
100
AcDbSymbolTableRecord
100
AcDbLayerTableRecord
  2
06__ASM_ALL_SURFS
 70
     0
 62
     7
  6
CONTINUOUS
370
    -3
390
5F6
347
638
348
0
  0
LAYER
  5
212
330
2
100
AcDbSymbolTableRecord
100
AcDbLayerTableRecord
  2
06___PRT_ALL_SURFS
 70
     0
 62
     7
  6
CONTINUOUS
370
    -3
390
5F6
347
638
348
0
  0
LAYER
  5
213
330
2
100
AcDbSymbolTableRecord
100
AcDbLayerTableRecord
  2
07__ASM_ALL_SKELETONS
 70
     0
 62
     7
  6
CONTINUOUS
370
    -3
390
5F6
347
638
348
0
  0
LAYER
  5
214
330
2
100
AcDbSymbolTableRecord
100
AcDbLayerTableRecord
  2
1_ALL_PLANES
 70
     0
 62
     7
  6
CONTINUOUS
370
    -3
390
5F6
347
638
348
0
  0
LAYER
  5
215
330
2
100
AcDbSymbolTableRecord
100
AcDbLayerTableRecord
  2
3_ALL_AXES
 70
     0
 62
     7
  6
CONTINUOUS
370
    -3
390
5F6
347
638
348
0
  0
LAYER
  5
216
330
2
100
AcDbSymbolTableRecord
100
AcDbLayerTableRecord
  2
5_ALL_CURVES
 70
     0
 62
     7
  6
CONTINUOUS
370
    -3
390
5F6
347
638
348
0
  0
LAYER
  5
217
330
2
100
AcDbSymbolTableRecord
100
AcDbLayerTableRecord
  2
7_ALL_FEATURES
 70
     0
 62
     7
  6
CONTINUOUS
370
    -3
390
5F6
347
638
348
0
  0
LAYER
  5
218
330
2
100
AcDbSymbolTableRecord
100
AcDbLayerTableRecord
  2
9_SOLID
 70
     0
 62
     7
  6
CONTINUOUS
370
    -3
390
5F6
347
638
348
0
  0
LAYER
  5
219
330
2
100
AcDbSymbolTableRecord
100
AcDbLayerTableRecord
  2
INTFCLR_3
 70
     0
 62
     7
  6
CONTINUOUS
370
    -3
390
5F6
347
638
348
0
  0
ENDTAB
  0
TABLE
  2
STYLE
  5
3
330
0
100
AcDbSymbolTable
 70
     5
  0
STYLE
  5
11
330
3
100
AcDbSymbolTableRecord
100
AcDbTextStyleTableRecord
  2
STANDARD
 70
     0
 40
0.0
 41
1.0
 50
0.0
 71
     0
 42
0.2
  3
arial.ttf
  4

  0
STYLE
  5
21A
330
3
100
AcDbSymbolTableRecord
100
AcDbTextStyleTableRecord
  2
TEXTSTYLE_1
 70
     0
 40
0.0
 41
0.8
 50
0.0
 71
     0
 42
0.2
  3
gdt
  4

  0
STYLE
  5
21B
330
3
100
AcDbSymbolTableRecord
100
AcDbTextStyleTableRecord
  2
TEXTSTYLE_2
 70
     0
 40
0.0
 41
0.9
 50
0.0
 71
     0
 42
0.2
  3
txt
  4

  0
STYLE
  5
21C
330
3
100
AcDbSymbolTableRecord
100
AcDbTextStyleTableRecord
  2
TEXTSTYLE_3
 70
     0
 40
0.0
 41
2.0
 50
0.0
 71
     0
 42
0.2
  3
txt
  4

  0
STYLE
  5
21D
330
3
100
AcDbSymbolTableRecord
100
AcDbTextStyleTableRecord
  2
TEXTSTYLE_4
 70
     0
 40
0.0
 41
0.85
 50
0.0
 71
     0
 42
0.2
  3
txt
  4

  0
ENDTAB
  0
TABLE
  2
VIEW
  5
6
330
0
100
AcDbSymbolTable
 70
     0
  0
ENDTAB
  0
TABLE
  2
UCS
  5
7
330
0
100
AcDbSymbolTable
 70
     0
  0
ENDTAB
  0
TABLE
  2
APPID
  5
9
330
0
100
AcDbSymbolTable
 70
     1
  0
APPID
  5
21E
330
9
100
AcDbSymbolTableRecord
100
AcDbRegAppTableRecord
  2
ACAD
 70
     0
  0
ENDTAB
  0
TABLE
  2
DIMSTYLE
  5
A
330
0
100
AcDbSymbolTable
 70
     4
100
AcDbDimStyleTable
  0
DIMSTYLE
105
225
330
A
100
AcDbSymbolTableRecord
100
AcDbDimStyleTableRecord
  2
STANDARD
 70
     0
 41
2.5
 42
0.75
 44
0.75
 47
0.01
 48
0.01
 71
     1
 73
     0
 74
     0
 77
     1
 78
     8
 79
     2
140
3.0
147
0.625
171
     1
178
     0
179
     2
271
     2
272
     2
284
     8
340
11
341
21F
342
21F
343
21F
344
21F
  0
DIMSTYLE
105
226
330
A
100
AcDbSymbolTableRecord
100
AcDbDimStyleTableRecord
  2
DIMSTYLE_1
 70
     0
 41
2.5
 42
0.75
 44
0.75
 47
0.3
 48
0.3
 73
     0
 74
     0
 77
     1
 78
     8
 79
     2
140
3.0
147
0.75
171
     1
178
     0
179
     2
271
     2
272
     2
284
     8
340
11
341
21F
342
21F
343
21F
344
21F
  0
DIMSTYLE
105
227
330
A
100
AcDbSymbolTableRecord
100
AcDbDimStyleTableRecord
  2
DIMSTYLE_2
 70
     0
 41
2.5
 42
0.75
 44
0.75
 47
0.5
 48
0.5
 73
     0
 74
     0
 77
     1
 78
     8
 79
     2
140
3.0
147
0.75
171
     1
178
     0
179
     2
271
     2
272
     2
284
     8
340
11
341
21F
342
21F
343
21F
344
21F
  0
DIMSTYLE
105
228
330
A
100
AcDbSymbolTableRecord
100
AcDbDimStyleTableRecord
  2
DIMSTYLE_3
 70
     0
 41
2.5
 42
0.75
 44
0.75
 47
1.2
 48
1.2
 73
     0
 74
     0
 77
     1
 78
     8
 79
     2
140
3.0
147
0.75
171
     1
178
     0
179
     2
271
     2
272
     2
284
     8
340
11
341
21F
342
21F
343
21F
344
21F
  0
ENDTAB
  0
TABLE
  2
BLOCK_RECORD
  5
1
330
0
100
AcDbSymbolTable
 70
     6
  0
BLOCK_RECORD
  5
1F
330
1
100
AcDbSymbolTableRecord
100
AcDbBlockTableRecord
  2
*MODEL_SPACE
340
61A
 70
     0
280
     1
281
     0
  0
BLOCK_RECORD
  5
1B
330
1
100
AcDbSymbolTableRecord
100
AcDbBlockTableRecord
  2
*PAPER_SPACE
340
61B
 70
     0
280
     1
281
     0
  0
BLOCK_RECORD
  5
21F
330
1
100
AcDbSymbolTableRecord
100
AcDbBlockTableRecord
  2
_CLOSED
340
0
102
{BLKREFS
331
27B
331
27C
331
284
331
285
331
28D
331
28E
102
}
 70
     0
280
     1
281
     0
  0
BLOCK_RECORD
  5
220
330
1
100
AcDbSymbolTableRecord
100
AcDbBlockTableRecord
  2
*D1
340
0
 70
     0
280
     1
281
     0
  0
BLOCK_RECORD
  5
221
330
1
100
AcDbSymbolTableRecord
100
AcDbBlockTableRecord
  2
*D2
340
0
 70
     0
280
     1
281
     0
  0
BLOCK_RECORD
  5
222
330
1
100
AcDbSymbolTableRecord
100
AcDbBlockTableRecord
  2
*D3
340
0
 70
     0
280
     1
281
     0
  0
BLOCK_RECORD
  5
223
330
1
100
AcDbSymbolTableRecord
100
AcDbBlockTableRecord
  2
LOGO2_BL1
340
0
102
{BLKREFS
331
5E0
102
}
 70
     0
280
     1
281
     0
  0
BLOCK_RECORD
  5
224
330
1
100
AcDbSymbolTableRecord
100
AcDbBlockTableRecord
  2
PROIEZIONE_EU_BL0
340
0
102
{BLKREFS
331
5DD
102
}
 70
     0
280
     1
281
     0
  0
ENDTAB
  0
ENDSEC
  0
SECTION
  2
BLOCKS
  0
BLOCK
  5
20
330
1F
100
AcDbEntity
  8
0
100
AcDbBlockBegin
  2
*MODEL_SPACE
 70
     0
 10
0.0
 20
0.0
 30
0.0
  3
*MODEL_SPACE
  1

  0
ENDBLK
  5
21
330
1F
100
AcDbEntity
  8
0
100
AcDbBlockEnd
  0
BLOCK
  5
1C
330
1B
100
AcDbEntity
 67
     1
  8
0
100
AcDbBlockBegin
  2
*PAPER_SPACE
 70
     0
 10
0.0
 20
0.0
 30
0.0
  3
*PAPER_SPACE
  1

  0
ENDBLK
  5
1D
330
1B
100
AcDbEntity
 67
     1
  8
0
100
AcDbBlockEnd
  0
BLOCK
  5
26F
330
21F
100
AcDbEntity
  8
0
100
AcDbBlockBegin
  2
_CLOSED
 70
     0
 10
0.0
 20
0.0
 30
0.0
  3
_CLOSED
  1

  0
LINE
  5
270
330
21F
100
AcDbEntity
  8
0
  6
ByBlock
 62
     0
100
AcDbLine
 10
0.0
 20
0.0
 30
0.0
 11
-1.0
 21
0.2
 31
0.0
  0
LINE
  5
271
330
21F
100
AcDbEntity
  8
0
  6
ByBlock
 62
     0
100
AcDbLine
 10
-1.0
 20
0.2
 30
0.0
 11
-1.0
 21
-0.2
 31
0.0
  0
LINE
  5
272
330
21F
100
AcDbEntity
  8
0
  6
ByBlock
 62
     0
100
AcDbLine
 10
-1.0
 20
-0.2
 30
0.0
 11
0.0
 21
0.0
 31
0.0
  0
LINE
  5
273
330
21F
100
AcDbEntity
  8
0
  6
ByBlock
 62
     0
100
AcDbLine
 10
-1.0
 20
0.0
 30
0.0
 11
0.0
 21
0.0
 31
0.0
  0
ENDBLK
  5
274
330
21F
100
AcDbEntity
  8
0
  6
ByBlock
 62
     0
100
AcDbBlockEnd
  0
BLOCK
  5
275
330
220
100
AcDbEntity
  8
0
100
AcDbBlockBegin
  2
*D1
 70
     1
 10
0.0
 20
0.0
 30
0.0
  3
*D1
  1

  0
MTEXT
  5
276
330
220
100
AcDbEntity
  8
0
  6
Continuous
 62
     2
100
AcDbMText
 10
69.9626820161
 20
583.2952853674
 30
0.0
 40
3.0
 41
4.6617100372
 46
0.0
 71
     2
 72
     1
  1
60
 73
     1
 44
1.0
  0
LINE
  5
277
330
220
100
AcDbEntity
  8
0
  6
Continuous
 62
     2
100
AcDbLine
 10
39.9626820161
 20
593.7393165744
 30
0.0
 11
39.9626820161
 21
578.7952853674
 31
0.0
  0
LINE
  5
278
330
220
100
AcDbEntity
  8
0
  6
Continuous
 62
     2
100
AcDbLine
 10
99.9626820161
 20
593.2600293973
 30
0.0
 11
99.9626820161
 21
578.7952853674
 31
0.0
  0
LINE
  5
279
330
220
100
AcDbEntity
  8
0
  6
Continuous
 62
     2
100
AcDbLine
 10
39.9626820161
 20
579.5452853674
 30
0.0
 11
69.9626820161
 21
579.5452853674
 31
0.0
  0
LINE
  5
27A
330
220
100
AcDbEntity
  8
0
  6
Continuous
 62
     2
100
AcDbLine
 10
99.9626820161
 20
579.5452853674
 30
0.0
 11
69.9626820161
 21
579.5452853674
 31
0.0
  0
INSERT
  5
27B
330
220
100
AcDbEntity
  8
0
  6
Continuous
 62
     2
100
AcDbBlockReference
  2
_CLOSED
 10
39.9626820161
 20
579.5452853674
 30
0.0
 41
2.5
 42
2.5
 43
2.5
 50
180.0
  0
INSERT
  5
27C
330
220
100
AcDbEntity
  8
0
  6
Continuous
 62
     2
100
AcDbBlockReference
  2
_CLOSED
 10
99.9626820161
 20
579.5452853674
 30
0.0
 41
2.5
 42
2.5
 43
2.5
  0
ENDBLK
  5
27D
330
220
100
AcDbEntity
  8
0
  6
ByBlock
 62
     0
100
AcDbBlockEnd
  0
BLOCK
  5
27E
330
221
100
AcDbEntity
  8
0
100
AcDbBlockBegin
  2
*D2
 70
     1
 10
0.0
 20
0.0
 30
0.0
  3
*D2
  1

  0
MTEXT
  5
27F
330
221
100
AcDbEntity
  8
0
  6
Continuous
 62
     2
100
AcDbMText
 10
127.798651317
 20
670.1253960484
 30
0.0
 40
3.0
 41
6.9925650558
 46
0.0
 71
     2
 72
     1
  1
150
 11
0.0
 21
1.0
 31
0.0
 73
     1
 44
1.0
  0
LINE
  5
280
330
221
100
AcDbEntity
  8
0
  6
Continuous
 62
     2
100
AcDbLine
 10
147.9881532888
 20
595.1253960484
 30
0.0
 11
130.798651317
 21
595.1253960484
 31
0.0
  0
LINE
  5
281
330
221
100
AcDbEntity
  8
0
  6
Continuous
 62
     2
100
AcDbLine
 10
148.4777941827
 20
745.1253960484
 30
0.0
 11
130.798651317
 21
745.1253960484
 31
0.0
  0
LINE
  5
282
330
221
100
AcDbEntity
  8
0
  6
Continuous
 62
     2
100
AcDbLine
 10
131.548651317
 20
595.1253960484
 30
0.0
 11
131.548651317
 21
670.1253960484
 31
0.0
  0
LINE
  5
283
330
221
100
AcDbEntity
  8
0
  6
Continuous
 62
     2
100
AcDbLine
 10
131.548651317
 20
745.1253960484
 30
0.0
 11
131.548651317
 21
670.1253960484
 31
0.0
  0
INSERT
  5
284
330
221
100
AcDbEntity
  8
0
  6
Continuous
 62
     2
100
AcDbBlockReference
  2
_CLOSED
 10
131.548651317
 20
595.1253960484
 30
0.0
 41
2.5
 42
2.5
 43
2.5
 50
270.0
  0
INSERT
  5
285
330
221
100
AcDbEntity
  8
0
  6
Continuous
 62
     2
100
AcDbBlockReference
  2
_CLOSED
 10
131.548651317
 20
745.1253960484
 30
0.0
 41
2.5
 42
2.5
 43
2.5
 50
90.0
  0
ENDBLK
  5
286
330
221
100
AcDbEntity
  8
0
  6
ByBlock
 62
     0
100
AcDbBlockEnd
  0
BLOCK
  5
287
330
222
100
AcDbEntity
  8
0
100
AcDbBlockBegin
  2
*D3
 70
     1
 10
0.0
 20
0.0
 30
0.0
  3
*D3
  1

  0
MTEXT
  5
288
330
222
100
AcDbEntity
  8
0
  6
Continuous
 62
     2
100
AcDbMText
 10
652.1081412527
 20
770.5913225284
 30
0.0
 40
3.0
 41
9.3234200743
 46
0.0
 71
     2
 72
     1
  1
1003
 73
     1
 44
1.0
  0
LINE
  5
289
330
222
100
AcDbEntity
  8
0
  6
Continuous
 62
     2
100
AcDbLine
 10
150.6081412527
 20
750.4678223049
 30
0.0
 11
150.6081412527
 21
767.5913225284
 31
0.0
  0
LINE
  5
28A
330
222
100
AcDbEntity
  8
0
  6
Continuous
 62
     2
100
AcDbLine
 10
1153.6081412527
 20
749.8687133336
 30
0.0
 11
1153.6081412527
 21
767.5913225284
 31
0.0
  0
LINE
  5
28B
330
222
100
AcDbEntity
  8
0
  6
Continuous
 62
     2
100
AcDbLine
 10
150.6081412527
 20
766.8413225284
 30
0.0
 11
652.1081412527
 21
766.8413225284
 31
0.0
  0
LINE
  5
28C
330
222
100
AcDbEntity
  8
0
  6
Continuous
 62
     2
100
AcDbLine
 10
1153.6081412527
 20
766.8413225284
 30
0.0
 11
652.1081412527
 21
766.8413225284
 31
0.0
  0
INSERT
  5
28D
330
222
100
AcDbEntity
  8
0
  6
Continuous
 62
     2
100
AcDbBlockReference
  2
_CLOSED
 10
150.6081412527
 20
766.8413225284
 30
0.0
 41
2.5
 42
2.5
 43
2.5
 50
180.0
  0
INSERT
  5
28E
330
222
100
AcDbEntity
  8
0
  6
Continuous
 62
     2
100
AcDbBlockReference
  2
_CLOSED
 10
1153.6081412527
 20
766.8413225284
 30
0.0
 41
2.5
 42
2.5
 43
2.5
  0
ENDBLK
  5
28F
330
222
100
AcDbEntity
  8
0
  6
ByBlock
 62
     0
100
AcDbBlockEnd
  0
BLOCK
  5
229
330
223
100
AcDbEntity
  8
0
100
AcDbBlockBegin
  2
LOGO2_BL1
 70
     0
 10
1062.8311111097
 20
39.0054331513
 30
0.0
  3
LOGO2_BL1
  1

  0
LINE
  5
22A
330
223
100
AcDbEntity
  8
0
  6
Continuous
 62
     7
100
AcDbLine
 10
1054.5740363379
 20
42.2009244902
 30
0.0
 11
1053.2696954085
 21
42.2009244902
 31
0.0
  0
LINE
  5
22B
330
223
100
AcDbEntity
  8
0
  6
Continuous
 62
     7
100
AcDbLine
 10
1053.2696954085
 20
42.2009244902
 30
0.0
 11
1053.2696954085
 21
31.7418584303
 31
0.0
  0
LINE
  5
22C
330
223
100
AcDbEntity
  8
0
  6
Continuous
 62
     7
100
AcDbLine
 10
1053.2696954085
 20
31.7418584303
 30
0.0
 11
1057.7507502968
 21
31.7418584303
 31
0.0
  0
LINE
  5
22D
330
223
100
AcDbEntity
  8
0
  6
Continuous
 62
     7
100
AcDbLine
 10
1057.7507502968
 20
31.7418584303
 30
0.0
 11
1057.7507502968
 21
32.9347127554
 31
0.0
  0
LINE
  5
22E
330
223
100
AcDbEntity
  8
0
  6
Continuous
 62
     7
100
AcDbLine
 10
1057.7507502968
 20
32.9347127554
 30
0.0
 11
1054.5740363379
 21
32.9347127554
 31
0.0
  0
LINE
  5
22F
330
223
100
AcDbEntity
  8
0
  6
Continuous
 62
     7
100
AcDbLine
 10
1054.5740363379
 20
32.9347127554
 30
0.0
 11
1054.5740363379
 21
42.2009244902
 31
0.0
  0
LINE
  5
230
330
223
100
AcDbEntity
  8
0
  6
Continuous
 62
     7
100
AcDbLine
 10
1069.5103625542
 20
42.2009244902
 30
0.0
 11
1068.2065450361
 21
42.2009244902
 31
0.0
  0
LINE
  5
231
330
223
100
AcDbEntity
  8
0
  6
Continuous
 62
     7
100
AcDbLine
 10
1068.2065450361
 20
42.2009244902
 30
0.0
 11
1068.2065450361
 21
31.7418584303
 31
0.0
  0
LINE
  5
232
330
223
100
AcDbEntity
  8
0
  6
Continuous
 62
     7
100
AcDbLine
 10
1068.2065450361
 20
31.7418584303
 30
0.0
 11
1072.6877307772
 21
31.7418584303
 31
0.0
  0
LINE
  5
233
330
223
100
AcDbEntity
  8
0
  6
Continuous
 62
     7
100
AcDbLine
 10
1072.6877307772
 20
31.7418584303
 30
0.0
 11
1072.6877307772
 21
32.9347127554
 31
0.0
  0
LINE
  5
234
330
223
100
AcDbEntity
  8
0
  6
Continuous
 62
     7
100
AcDbLine
 10
1072.6877307772
 20
32.9347127554
 30
0.0
 11
1069.5103625542
 21
32.9347127554
 31
0.0
  0
LINE
  5
235
330
223
100
AcDbEntity
  8
0
  6
Continuous
 62
     7
100
AcDbLine
 10
1069.5103625542
 20
32.9347127554
 30
0.0
 11
1069.5103625542
 21
42.2009244902
 31
0.0
  0
LWPOLYLINE
  5
236
330
223
100
AcDbEntity
  8
0
  6
Continuous
 62
     7
100
AcDbPolyline
 90
        2
 70
     0
 43
0.2
 10
1051.6240903195
 20
28.3983071234
 10
1051.6240903195
 20
26.541243874
  0
LWPOLYLINE
  5
237
330
223
100
AcDbEntity
  8
0
  6
Continuous
 62
     7
100
AcDbPolyline
 90
        2
 70
     0
 43
0.2
 10
1051.6240903195
 20
26.541243874
 10
1052.4198063299
 20
26.541243874
  0
LWPOLYLINE
  5
238
330
223
100
AcDbEntity
  8
0
  6
Continuous
 62
     7
100
AcDbPolyline
 90
        2
 70
     0
 43
0.2
 10
1052.4198063299
 20
26.541243874
 10
1052.4198063299
 20
26.7532254456
  0
LWPOLYLINE
  5
239
330
223
100
AcDbEntity
  8
0
  6
Continuous
 62
     7
100
AcDbPolyline
 90
        2
 70
     0
 43
0.2
 10
1052.4198063299
 20
26.7532254456
 10
1051.8556998144
 20
26.7532254456
  0
LWPOLYLINE
  5
23A
330
223
100
AcDbEntity
  8
0
  6
Continuous
 62
     7
100
AcDbPolyline
 90
        2
 70
     0
 43
0.2
 10
1051.8556998144
 20
26.7532254456
 10
1051.8556998144
 20
28.3983071234
  0
LWPOLYLINE
  5
23B
330
223
100
AcDbEntity
  8
0
  6
Continuous
 62
     7
100
AcDbPolyline
 90
        2
 70
     0
 43
0.2
 10
1051.8556998144
 20
28.3983071234
 10
1051.6240903195
 20
28.3983071234
  0
SPLINE
  5
23C
330
223
100
AcDbEntity
  8
0
  6
Continuous
 62
     7
100
AcDbSpline
 70
     3
 71
     3
 72
    35
 73
    31
 74
     0
 42
0.000000001
 43
0.0000001
 40
0.0
 40
0.0
 40
0.0
 40
0.0
 40
1.0
 40
1.0
 40
1.0
 40
2.0
 40
2.0
 40
2.0
 40
3.0
 40
3.0
 40
3.0
 40
4.0
 40
4.0
 40
4.0
 40
5.0
 40
5.0
 40
5.0
 40
6.0
 40
6.0
 40
6.0
 40
7.0
 40
7.0
 40
7.0
 40
8.0
 40
8.0
 40
8.0
 40
9.0
 40
9.0
 40
9.0
 40
10.0
 40
10.0
 40
10.0
 40
10.0
 10
1053.8180995854
 20
27.6937955299
 30
0.0
 10
1053.8180995854
 20
27.6937955299
 30
0.0
 10
1053.8180995854
 20
27.0316802508
 30
0.0
 10
1053.8180995854
 20
27.0316802508
 30
0.0
 10
1053.8180995854
 20
26.7165866555
 30
0.0
 10
1053.9659632742
 20
26.5019880274
 30
0.0
 10
1054.3060497585
 20
26.5019880274
 30
0.0
 10
1054.6456128315
 20
26.5019880274
 30
0.0
 10
1054.793738226
 20
26.7165866555
 30
0.0
 10
1054.793738226
 20
27.0316802508
 30
0.0
 10
1054.793738226
 20
27.0316802508
 30
0.0
 10
1054.793738226
 20
27.6937955299
 30
0.0
 10
1054.793738226
 20
27.6937955299
 30
0.0
 10
1054.793738226
 20
27.6937955299
 30
0.0
 10
1054.5716809871
 20
27.6937955299
 30
0.0
 10
1054.5716809871
 20
27.6937955299
 30
0.0
 10
1054.5716809871
 20
27.6937955299
 30
0.0
 10
1054.5716809871
 20
27.0568039926
 30
0.0
 10
1054.5716809871
 20
27.0568039926
 30
0.0
 10
1054.5716809871
 20
26.8709929854
 30
0.0
 10
1054.5249665297
 20
26.7082120749
 30
0.0
 10
1054.3060497585
 20
26.7082120749
 30
0.0
 10
1054.0866095761
 20
26.7082120749
 30
0.0
 10
1054.0398951186
 20
26.8709929854
 30
0.0
 10
1054.0398951186
 20
27.0568039926
 30
0.0
 10
1054.0398951186
 20
27.0568039926
 30
0.0
 10
1054.0398951186
 20
27.6937955299
 30
0.0
 10
1054.0398951186
 20
27.6937955299
 30
0.0
 10
1054.0398951186
 20
27.6937955299
 30
0.0
 10
1053.8180995854
 20
27.6937955299
 30
0.0
 10
1053.8180995854
 20
27.6937955299
 30
0.0
  0
SPLINE
  5
23D
330
223
100
AcDbEntity
  8
0
  6
Continuous
 62
     7
100
AcDbSpline
 70
     3
 71
     3
 72
    35
 73
    31
 74
     0
 42
0.000000001
 43
0.0000001
 40
0.0
 40
0.0
 40
0.0
 40
0.0
 40
1.0
 40
1.0
 40
1.0
 40
2.0
 40
2.0
 40
2.0
 40
3.0
 40
3.0
 40
3.0
 40
4.0
 40
4.0
 40
4.0
 40
5.0
 40
5.0
 40
5.0
 40
6.0
 40
6.0
 40
6.0
 40
7.0
 40
7.0
 40
7.0
 40
8.0
 40
8.0
 40
8.0
 40
9.0
 40
9.0
 40
9.0
 40
10.0
 40
10.0
 40
10.0
 40
10.0
 10
1057.2168707832
 20
27.6524460382
 30
0.0
 10
1057.1284142755
 20
27.7037403444
 30
0.0
 10
1057.0149648789
 20
27.7288640862
 30
0.0
 10
1056.9113294439
 20
27.7288640862
 30
0.0
 10
1056.5564565907
 20
27.7288640862
 30
0.0
 10
1056.2810114005
 20
27.4650647971
 30
0.0
 10
1056.2810114005
 20
27.1075748875
 30
0.0
 10
1056.2810114005
 20
26.7626468488
 30
0.0
 10
1056.5594662056
 20
26.5025114387
 30
0.0
 10
1056.8990292786
 20
26.5025114387
 30
0.0
 10
1057.0149648789
 20
26.5025114387
 30
0.0
 10
1057.1157215518
 20
26.5244947128
 30
0.0
 10
1057.2168707832
 20
26.5784060755
 30
0.0
 10
1057.2168707832
 20
26.5784060755
 30
0.0
 10
1057.2168707832
 20
26.8610481709
 30
0.0
 10
1057.2168707832
 20
26.8610481709
 30
0.0
 10
1057.1329941243
 20
26.7678809617
 30
0.0
 10
1057.0294895421
 20
26.7087354861
 30
0.0
 10
1056.9013846294
 20
26.7087354861
 30
0.0
 10
1056.6676814894
 20
26.7087354861
 30
0.0
 10
1056.5024143753
 20
26.8809377999
 30
0.0
 10
1056.5024143753
 20
27.117519702
 30
0.0
 10
1056.5024143753
 20
27.3295012736
 30
0.0
 10
1056.670167693
 20
27.5215932162
 30
0.0
 10
1056.886990819
 20
27.5215932162
 30
0.0
 10
1057.0198064333
 20
27.5215932162
 30
0.0
 10
1057.1284142755
 20
27.4676818536
 30
0.0
 10
1057.2168707832
 20
27.366663475
 30
0.0
 10
1057.2168707832
 20
27.366663475
 30
0.0
 10
1057.2168707832
 20
27.6524460382
 30
0.0
 10
1057.2168707832
 20
27.6524460382
 30
0.0
  0
SPLINE
  5
23E
330
223
100
AcDbEntity
  8
0
  6
Continuous
 62
     7
100
AcDbSpline
 70
     3
 71
     3
 72
    32
 73
    28
 74
     0
 42
0.000000001
 43
0.0000001
 40
0.0
 40
0.0
 40
0.0
 40
0.0
 40
1.0
 40
1.0
 40
1.0
 40
2.0
 40
2.0
 40
2.0
 40
3.0
 40
3.0
 40
3.0
 40
4.0
 40
4.0
 40
4.0
 40
5.0
 40
5.0
 40
5.0
 40
6.0
 40
6.0
 40
6.0
 40
7.0
 40
7.0
 40
7.0
 40
8.0
 40
8.0
 40
8.0
 40
9.0
 40
9.0
 40
9.0
 40
9.0
 10
1059.7487420354
 20
27.0808809118
 30
0.0
 10
1059.7487420354
 20
27.0808809118
 30
0.0
 10
1059.7487420354
 20
27.1149026455
 30
0.0
 10
1059.7487420354
 20
27.1149026455
 30
0.0
 10
1059.7487420354
 20
27.4572136278
 30
0.0
 10
1059.5758854576
 20
27.7288640862
 30
0.0
 10
1059.2092358505
 20
27.7288640862
 30
0.0
 10
1058.8376138361
 20
27.7288640862
 30
0.0
 10
1058.6478772442
 20
27.4624477407
 30
0.0
 10
1058.6478772442
 20
27.1075748875
 30
0.0
 10
1058.6478772442
 20
26.7678809617
 30
0.0
 10
1058.861952461
 20
26.5019880274
 30
0.0
 10
1059.2140774049
 20
26.5019880274
 30
0.0
 10
1059.4380974361
 20
26.5019880274
 30
0.0
 10
1059.640265046
 20
26.6176619221
 30
0.0
 10
1059.7487420354
 20
26.8170816227
 30
0.0
 10
1059.7487420354
 20
26.8170816227
 30
0.0
 10
1059.5610990887
 20
26.9238575255
 30
0.0
 10
1059.5610990887
 20
26.9238575255
 30
0.0
 10
1059.4776149883
 20
26.7851535342
 30
0.0
 10
1059.3864105714
 20
26.699314083
 30
0.0
 10
1059.2168253141
 20
26.699314083
 30
0.0
 10
1059.0048437426
 20
26.699314083
 30
0.0
 10
1058.8718972754
 20
26.8840782676
 30
0.0
 10
1058.8695419246
 20
27.0808809118
 30
0.0
 10
1058.8695419246
 20
27.0808809118
 30
0.0
 10
1059.7487420354
 20
27.0808809118
 30
0.0
 10
1059.7487420354
 20
27.0808809118
 30
0.0
  0
SPLINE
  5
23F
330
223
100
AcDbEntity
  8
0
  6
Continuous
 62
     7
100
AcDbSpline
 70
     3
 71
     3
 72
    14
 73
    10
 74
     0
 42
0.000000001
 43
0.0000001
 40
0.0
 40
0.0
 40
0.0
 40
0.0
 40
1.0
 40
1.0
 40
1.0
 40
2.0
 40
2.0
 40
2.0
 40
3.0
 40
3.0
 40
3.0
 40
3.0
 10
1058.8815803843
 20
27.2483725239
 30
0.0
 10
1058.9091903297
 20
27.4132470796
 30
0.0
 10
1059.0370335368
 20
27.5362487323
 30
0.0
 10
1059.2092358505
 20
27.5362487323
 30
0.0
 10
1059.3864105714
 20
27.5362487323
 30
0.0
 10
1059.4998599681
 20
27.4205748376
 30
0.0
 10
1059.527077355
 20
27.2483725239
 30
0.0
 10
1059.527077355
 20
27.2483725239
 30
0.0
 10
1058.8815803843
 20
27.2483725239
 30
0.0
 10
1058.8815803843
 20
27.2483725239
 30
0.0
  0
SPLINE
  5
240
330
223
100
AcDbEntity
  8
0
  6
Continuous
 62
     7
100
AcDbSpline
 70
     3
 71
     3
 72
    20
 73
    16
 74
     0
 42
0.000000001
 43
0.0000001
 40
0.0
 40
0.0
 40
0.0
 40
0.0
 40
1.0
 40
1.0
 40
1.0
 40
2.0
 40
2.0
 40
2.0
 40
3.0
 40
3.0
 40
3.0
 40
4.0
 40
4.0
 40
4.0
 40
5.0
 40
5.0
 40
5.0
 40
5.0
 10
1061.7727734856
 20
27.4577370391
 30
0.0
 10
1061.7727734856
 20
27.4577370391
 30
0.0
 10
1062.1839130523
 20
26.9552622027
 30
0.0
 10
1062.1839130523
 20
26.9552622027
 30
0.0
 10
1062.0678465992
 20
26.8395883081
 30
0.0
 10
1061.9300585776
 20
26.7092588974
 30
0.0
 10
1061.7581179696
 20
26.7092588974
 30
0.0
 10
1061.580681543
 20
26.7092588974
 30
0.0
 10
1061.4131899309
 20
26.8736100418
 30
0.0
 10
1061.4131899309
 20
27.0505230571
 30
0.0
 10
1061.4131899309
 20
27.228482895
 30
0.0
 10
1061.6229470045
 20
27.3546250154
 30
0.0
 10
1061.7505285059
 20
27.4425581117
 30
0.0
 10
1061.7505285059
 20
27.4425581117
 30
0.0
 10
1061.7727734856
 20
27.4577370391
 30
0.0
 10
1061.7727734856
 20
27.4577370391
 30
0.0
  0
SPLINE
  5
241
330
223
100
AcDbEntity
  8
0
  6
Continuous
 62
     7
100
AcDbSpline
 70
     3
 71
     3
 72
    23
 73
    19
 74
     0
 42
0.000000001
 43
0.0000001
 40
0.0
 40
0.0
 40
0.0
 40
0.0
 40
1.0
 40
1.0
 40
1.0
 40
2.0
 40
2.0
 40
2.0
 40
3.0
 40
3.0
 40
3.0
 40
4.0
 40
4.0
 40
4.0
 40
5.0
 40
5.0
 40
5.0
 40
6.0
 40
6.0
 40
6.0
 40
6.0
 10
1061.8221049995
 20
27.7487537151
 30
0.0
 10
1061.8221049995
 20
27.7487537151
 30
0.0
 10
1061.7604733204
 20
27.8272654083
 30
0.0
 10
1061.7604733204
 20
27.8272654083
 30
0.0
 10
1061.7065619577
 20
27.895832287
 30
0.0
 10
1061.649771833
 20
27.964922577
 30
0.0
 10
1061.649771833
 20
28.0586131976
 30
0.0
 10
1061.649771833
 20
28.1774275599
 30
0.0
 10
1061.7456869515
 20
28.2548924305
 30
0.0
 10
1061.8566501445
 20
28.2548924305
 30
0.0
 10
1061.9799135028
 20
28.2548924305
 30
0.0
 10
1062.0732115649
 20
28.1837084954
 30
0.0
 10
1062.0732115649
 20
28.0533790847
 30
0.0
 10
1062.0732115649
 20
27.9183389724
 30
0.0
 10
1061.9451066522
 20
27.8419209244
 30
0.0
 10
1061.8515468845
 20
27.7681199328
 30
0.0
 10
1061.8515468845
 20
27.7681199328
 30
0.0
 10
1061.8221049995
 20
27.7487537151
 30
0.0
 10
1061.8221049995
 20
27.7487537151
 30
0.0
  0
SPLINE
  5
242
330
223
100
AcDbEntity
  8
0
  6
Continuous
 62
     7
100
AcDbSpline
 70
     3
 71
     3
 72
    50
 73
    46
 74
     0
 42
0.000000001
 43
0.0000001
 40
0.0
 40
0.0
 40
0.0
 40
0.0
 40
1.0
 40
1.0
 40
1.0
 40
2.0
 40
2.0
 40
2.0
 40
3.0
 40
3.0
 40
3.0
 40
4.0
 40
4.0
 40
4.0
 40
5.0
 40
5.0
 40
5.0
 40
6.0
 40
6.0
 40
6.0
 40
7.0
 40
7.0
 40
7.0
 40
8.0
 40
8.0
 40
8.0
 40
9.0
 40
9.0
 40
9.0
 40
10.0
 40
10.0
 40
10.0
 40
11.0
 40
11.0
 40
11.0
 40
12.0
 40
12.0
 40
12.0
 40
13.0
 40
13.0
 40
13.0
 40
14.0
 40
14.0
 40
14.0
 40
15.0
 40
15.0
 40
15.0
 40
15.0
 10
1062.5242612422
 20
26.5417672853
 30
0.0
 10
1062.5242612422
 20
26.5417672853
 30
0.0
 10
1062.8096512469
 20
26.5417672853
 30
0.0
 10
1062.8096512469
 20
26.5417672853
 30
0.0
 10
1062.8096512469
 20
26.5417672853
 30
0.0
 10
1062.4772850791
 20
26.9526451463
 30
0.0
 10
1062.4772850791
 20
26.9526451463
 30
0.0
 10
1062.4772850791
 20
26.9526451463
 30
0.0
 10
1062.7037913139
 20
27.2185380805
 30
0.0
 10
1062.7037913139
 20
27.2185380805
 30
0.0
 10
1062.7037913139
 20
27.2185380805
 30
0.0
 10
1062.5555350667
 20
27.3713741766
 30
0.0
 10
1062.5555350667
 20
27.3713741766
 30
0.0
 10
1062.5555350667
 20
27.3713741766
 30
0.0
 10
1062.3396279104
 20
27.1201367584
 30
0.0
 10
1062.3396279104
 20
27.1201367584
 30
0.0
 10
1062.3396279104
 20
27.1201367584
 30
0.0
 10
1061.952565263
 20
27.5880664498
 30
0.0
 10
1061.952565263
 20
27.5880664498
 30
0.0
 10
1062.1080184155
 20
27.7021701105
 30
0.0
 10
1062.2902963965
 20
27.8419209244
 30
0.0
 10
1062.2902963965
 20
28.0512854395
 30
0.0
 10
1062.2902963965
 20
28.2951950997
 30
0.0
 10
1062.0882596394
 20
28.4386097926
 30
0.0
 10
1061.8617534046
 20
28.4386097926
 30
0.0
 10
1061.6175820388
 20
28.4386097926
 30
0.0
 10
1061.4332104126
 20
28.2878673417
 30
0.0
 10
1061.4332104126
 20
28.0313958106
 30
0.0
 10
1061.4332104126
 20
27.8738490129
 30
0.0
 10
1061.5318734404
 20
27.7361918442
 30
0.0
 10
1061.6372099621
 20
27.6252286512
 30
0.0
 10
1061.6372099621
 20
27.6252286512
 30
0.0
 10
1061.5216669203
 20
27.5414828451
 30
0.0
 10
1061.5216669203
 20
27.5414828451
 30
0.0
 10
1061.3439687881
 20
27.4132470796
 30
0.0
 10
1061.1966285105
 20
27.2855347254
 30
0.0
 10
1061.1966285105
 20
27.048429412
 30
0.0
 10
1061.1966285105
 20
26.7281017038
 30
0.0
 10
1061.4551936867
 20
26.5019880274
 30
0.0
 10
1061.7655765804
 20
26.5019880274
 30
0.0
 10
1061.9844933516
 20
26.5019880274
 30
0.0
 10
1062.1816885543
 20
26.6270833252
 30
0.0
 10
1062.3219627794
 20
26.7930047035
 30
0.0
 10
1062.3219627794
 20
26.7930047035
 30
0.0
 10
1062.5242612422
 20
26.5417672853
 30
0.0
 10
1062.5242612422
 20
26.5417672853
 30
0.0
  0
LWPOLYLINE
  5
243
330
223
100
AcDbEntity
  8
0
  6
Continuous
 62
     7
100
AcDbPolyline
 90
        2
 70
     0
 43
0.2
 10
1064.4597053319
 20
28.3983071234
 10
1064.2283575427
 20
28.3983071234
  0
LWPOLYLINE
  5
244
330
223
100
AcDbEntity
  8
0
  6
Continuous
 62
     7
100
AcDbPolyline
 90
        2
 70
     0
 43
0.2
 10
1064.2283575427
 20
28.3983071234
 10
1064.2283575427
 20
26.541243874
  0
LWPOLYLINE
  5
245
330
223
100
AcDbEntity
  8
0
  6
Continuous
 62
     7
100
AcDbPolyline
 90
        2
 70
     0
 43
0.2
 10
1064.2283575427
 20
26.541243874
 10
1065.0236809946
 20
26.541243874
  0
LWPOLYLINE
  5
246
330
223
100
AcDbEntity
  8
0
  6
Continuous
 62
     7
100
AcDbPolyline
 90
        2
 70
     0
 43
0.2
 10
1065.0236809946
 20
26.541243874
 10
1065.0236809946
 20
26.7532254456
  0
LWPOLYLINE
  5
247
330
223
100
AcDbEntity
  8
0
  6
Continuous
 62
     7
100
AcDbPolyline
 90
        2
 70
     0
 43
0.2
 10
1065.0236809946
 20
26.7532254456
 10
1064.4597053319
 20
26.7532254456
  0
LWPOLYLINE
  5
248
330
223
100
AcDbEntity
  8
0
  6
Continuous
 62
     7
100
AcDbPolyline
 90
        2
 70
     0
 43
0.2
 10
1064.4597053319
 20
26.7532254456
 10
1064.4597053319
 20
28.3983071234
  0
LWPOLYLINE
  5
249
330
223
100
AcDbEntity
  8
0
  6
Continuous
 62
     7
100
AcDbPolyline
 90
        2
 70
     0
 43
0.2
 10
1066.7027844061
 20
27.6937955299
 10
1066.481643137
 20
27.6937955299
  0
LWPOLYLINE
  5
24A
330
223
100
AcDbEntity
  8
0
  6
Continuous
 62
     7
100
AcDbPolyline
 90
        2
 70
     0
 43
0.2
 10
1066.481643137
 20
27.6937955299
 10
1066.481643137
 20
26.5417672853
  0
LWPOLYLINE
  5
24B
330
223
100
AcDbEntity
  8
0
  6
Continuous
 62
     7
100
AcDbPolyline
 90
        2
 70
     0
 43
0.2
 10
1066.481643137
 20
26.5417672853
 10
1066.7027844061
 20
26.5417672853
  0
LWPOLYLINE
  5
24C
330
223
100
AcDbEntity
  8
0
  6
Continuous
 62
     7
100
AcDbPolyline
 90
        2
 70
     0
 43
0.2
 10
1066.7027844061
 20
26.5417672853
 10
1066.7027844061
 20
27.6937955299
  0
LWPOLYLINE
  5
24D
330
223
100
AcDbEntity
  8
0
  6
Continuous
 62
     7
100
AcDbPolyline
 90
        2
 70
     1
 43
0.2
 10
1066.4397611289
 20
28.2237494589
 42
1.0
 10
1066.7449281198
 20
28.2237494589
 42
1.0
  0
SPLINE
  5
24E
330
223
100
AcDbEntity
  8
0
  6
Continuous
 62
     7
100
AcDbSpline
 70
     3
 71
     3
 72
    17
 73
    13
 74
     0
 42
0.000000001
 43
0.0000001
 40
0.0
 40
0.0
 40
0.0
 40
0.0
 40
1.0
 40
1.0
 40
1.0
 40
2.0
 40
2.0
 40
2.0
 40
3.0
 40
3.0
 40
3.0
 40
4.0
 40
4.0
 40
4.0
 40
4.0
 10
1068.8330683477
 20
26.699314083
 30
0.0
 10
1068.599103502
 20
26.699314083
 30
0.0
 10
1068.4687740914
 20
26.9013508401
 30
0.0
 10
1068.4687740914
 20
27.117519702
 30
0.0
 10
1068.4687740914
 20
27.33211833
 30
0.0
 10
1068.6045993206
 20
27.5310146194
 30
0.0
 10
1068.8330683477
 20
27.5310146194
 30
0.0
 10
1069.0725290119
 20
27.5310146194
 30
0.0
 10
1069.2080925355
 20
27.3420631445
 30
0.0
 10
1069.2080925355
 20
27.117519702
 30
0.0
 10
1069.2080925355
 20
26.8914060256
 30
0.0
 10
1069.0748843627
 20
26.699314083
 30
0.0
 10
1068.8330683477
 20
26.699314083
 30
0.0
  0
SPLINE
  5
24F
330
223
100
AcDbEntity
  8
0
  6
Continuous
 62
     7
100
AcDbSpline
 70
     3
 71
     3
 72
    50
 73
    46
 74
     0
 42
0.000000001
 43
0.0000001
 40
0.0
 40
0.0
 40
0.0
 40
0.0
 40
1.0
 40
1.0
 40
1.0
 40
2.0
 40
2.0
 40
2.0
 40
3.0
 40
3.0
 40
3.0
 40
4.0
 40
4.0
 40
4.0
 40
5.0
 40
5.0
 40
5.0
 40
6.0
 40
6.0
 40
6.0
 40
7.0
 40
7.0
 40
7.0
 40
8.0
 40
8.0
 40
8.0
 40
9.0
 40
9.0
 40
9.0
 40
10.0
 40
10.0
 40
10.0
 40
11.0
 40
11.0
 40
11.0
 40
12.0
 40
12.0
 40
12.0
 40
13.0
 40
13.0
 40
13.0
 40
14.0
 40
14.0
 40
14.0
 40
15.0
 40
15.0
 40
15.0
 40
15.0
 10
1069.417195345
 20
27.6943189412
 30
0.0
 10
1069.417195345
 20
27.6943189412
 30
0.0
 10
1069.1955306646
 20
27.6943189412
 30
0.0
 10
1069.1955306646
 20
27.6943189412
 30
0.0
 10
1069.1955306646
 20
27.6943189412
 30
0.0
 10
1069.1955306646
 20
27.4969928857
 30
0.0
 10
1069.1955306646
 20
27.4969928857
 30
0.0
 10
1069.1955306646
 20
27.4969928857
 30
0.0
 10
1069.190819963
 20
27.4969928857
 30
0.0
 10
1069.190819963
 20
27.4969928857
 30
0.0
 10
1069.0994846932
 20
27.6398841673
 30
0.0
 10
1068.9615658189
 20
27.7283406749
 30
0.0
 10
1068.7888400939
 20
27.7283406749
 30
0.0
 10
1068.4564739261
 20
27.7283406749
 30
0.0
 10
1068.2473711166
 20
27.4404644666
 30
0.0
 10
1068.2473711166
 20
27.12484746
 30
0.0
 10
1068.2473711166
 20
26.7950983486
 30
0.0
 10
1068.4444354665
 20
26.5019880274
 30
0.0
 10
1068.7993083197
 20
26.5019880274
 30
0.0
 10
1068.9615658189
 20
26.5019880274
 30
0.0
 10
1069.1015783384
 20
26.5904445351
 30
0.0
 10
1069.190819963
 20
26.7212973571
 30
0.0
 10
1069.190819963
 20
26.7212973571
 30
0.0
 10
1069.1955306646
 20
26.7212973571
 30
0.0
 10
1069.1955306646
 20
26.7212973571
 30
0.0
 10
1069.1955306646
 20
26.7212973571
 30
0.0
 10
1069.1955306646
 20
26.5019880274
 30
0.0
 10
1069.1955306646
 20
26.5019880274
 30
0.0
 10
1069.1955306646
 20
26.2654061253
 30
0.0
 10
1069.1390022455
 20
26.0785482956
 30
0.0
 10
1068.8657815532
 20
26.0785482956
 30
0.0
 10
1068.6634830905
 20
26.0785482956
 30
0.0
 10
1068.5208535145
 20
26.1968392466
 30
0.0
 10
1068.5208535145
 20
26.403063294
 30
0.0
 10
1068.5208535145
 20
26.403063294
 30
0.0
 10
1068.2991888341
 20
26.403063294
 30
0.0
 10
1068.2991888341
 20
26.403063294
 30
0.0
 10
1068.3041612413
 20
26.0785482956
 30
0.0
 10
1068.5352473249
 20
25.8817456513
 30
0.0
 10
1068.8555750331
 20
25.8817456513
 30
0.0
 10
1069.3036150955
 20
25.8817456513
 30
0.0
 10
1069.417195345
 20
26.1670048032
 30
0.0
 10
1069.417195345
 20
26.5637505594
 30
0.0
 10
1069.417195345
 20
26.5637505594
 30
0.0
 10
1069.417195345
 20
27.6943189412
 30
0.0
 10
1069.417195345
 20
27.6943189412
 30
0.0
  0
SPLINE
  5
250
330
223
100
AcDbEntity
  8
0
  6
Continuous
 62
     7
100
AcDbSpline
 70
     3
 71
     3
 72
    44
 73
    40
 74
     0
 42
0.000000001
 43
0.0000001
 40
0.0
 40
0.0
 40
0.0
 40
0.0
 40
1.0
 40
1.0
 40
1.0
 40
2.0
 40
2.0
 40
2.0
 40
3.0
 40
3.0
 40
3.0
 40
4.0
 40
4.0
 40
4.0
 40
5.0
 40
5.0
 40
5.0
 40
6.0
 40
6.0
 40
6.0
 40
7.0
 40
7.0
 40
7.0
 40
8.0
 40
8.0
 40
8.0
 40
9.0
 40
9.0
 40
9.0
 40
10.0
 40
10.0
 40
10.0
 40
11.0
 40
11.0
 40
11.0
 40
12.0
 40
12.0
 40
12.0
 40
13.0
 40
13.0
 40
13.0
 40
13.0
 10
1070.9861206804
 20
28.679378985
 30
0.0
 10
1070.9861206804
 20
28.679378985
 30
0.0
 10
1070.9861206804
 20
26.541243874
 30
0.0
 10
1070.9861206804
 20
26.541243874
 30
0.0
 10
1070.9861206804
 20
26.541243874
 30
0.0
 10
1071.2075236551
 20
26.541243874
 30
0.0
 10
1071.2075236551
 20
26.541243874
 30
0.0
 10
1071.2075236551
 20
26.541243874
 30
0.0
 10
1071.2075236551
 20
27.0709360974
 30
0.0
 10
1071.2075236551
 20
27.0709360974
 30
0.0
 10
1071.2075236551
 20
27.2808240238
 30
0.0
 10
1071.2075236551
 20
27.5315380307
 30
0.0
 10
1071.492782807
 20
27.5315380307
 30
0.0
 10
1071.7196816003
 20
27.5315380307
 30
0.0
 10
1071.7466372817
 20
27.3985915636
 30
0.0
 10
1071.7466372817
 20
27.2023123306
 30
0.0
 10
1071.7466372817
 20
27.2023123306
 30
0.0
 10
1071.7466372817
 20
26.541243874
 30
0.0
 10
1071.7466372817
 20
26.541243874
 30
0.0
 10
1071.7466372817
 20
26.541243874
 30
0.0
 10
1071.9685636677
 20
26.541243874
 30
0.0
 10
1071.9685636677
 20
26.541243874
 30
0.0
 10
1071.9685636677
 20
26.541243874
 30
0.0
 10
1071.9685636677
 20
27.228482895
 30
0.0
 10
1071.9685636677
 20
27.228482895
 30
0.0
 10
1071.9685636677
 20
27.5090313453
 30
0.0
 10
1071.884556156
 20
27.7288640862
 30
0.0
 10
1071.5595177462
 20
27.7288640862
 30
0.0
 10
1071.4197669324
 20
27.7288640862
 30
0.0
 10
1071.2815863524
 20
27.6623908526
 30
0.0
 10
1071.2122343567
 20
27.5393892
 30
0.0
 10
1071.2122343567
 20
27.5393892
 30
0.0
 10
1071.2075236551
 20
27.5393892
 30
0.0
 10
1071.2075236551
 20
27.5393892
 30
0.0
 10
1071.2075236551
 20
27.5393892
 30
0.0
 10
1071.2075236551
 20
28.679378985
 30
0.0
 10
1071.2075236551
 20
28.679378985
 30
0.0
 10
1071.2075236551
 20
28.679378985
 30
0.0
 10
1070.9861206804
 20
28.679378985
 30
0.0
 10
1070.9861206804
 20
28.679378985
 30
0.0
  0
LWPOLYLINE
  5
251
330
223
100
AcDbEntity
  8
0
  6
Continuous
 62
     7
100
AcDbPolyline
 90
        2
 70
     0
 43
0.2
 10
1073.8083543446
 20
27.4870480712
 10
1074.0247849121
 20
27.4870480712
  0
LWPOLYLINE
  5
252
330
223
100
AcDbEntity
  8
0
  6
Continuous
 62
     7
100
AcDbPolyline
 90
        2
 70
     0
 43
0.2
 10
1074.0247849121
 20
27.4870480712
 10
1074.0247849121
 20
27.6937955299
  0
LWPOLYLINE
  5
253
330
223
100
AcDbEntity
  8
0
  6
Continuous
 62
     7
100
AcDbPolyline
 90
        2
 70
     0
 43
0.2
 10
1074.0247849121
 20
27.6937955299
 10
1073.8083543446
 20
27.6937955299
  0
LWPOLYLINE
  5
254
330
223
100
AcDbEntity
  8
0
  6
Continuous
 62
     7
100
AcDbPolyline
 90
        2
 70
     0
 43
0.2
 10
1073.8083543446
 20
27.6937955299
 10
1073.8083543446
 20
28.1345078343
  0
LWPOLYLINE
  5
255
330
223
100
AcDbEntity
  8
0
  6
Continuous
 62
     7
100
AcDbPolyline
 90
        2
 70
     0
 43
0.2
 10
1073.8083543446
 20
28.1345078343
 10
1073.5866896642
 20
28.1345078343
  0
LWPOLYLINE
  5
256
330
223
100
AcDbEntity
  8
0
  6
Continuous
 62
     7
100
AcDbPolyline
 90
        2
 70
     0
 43
0.2
 10
1073.5866896642
 20
28.1345078343
 10
1073.5866896642
 20
27.6937955299
  0
LWPOLYLINE
  5
257
330
223
100
AcDbEntity
  8
0
  6
Continuous
 62
     7
100
AcDbPolyline
 90
        2
 70
     0
 43
0.2
 10
1073.5866896642
 20
27.6937955299
 10
1073.4660433623
 20
27.6937955299
  0
LWPOLYLINE
  5
258
330
223
100
AcDbEntity
  8
0
  6
Continuous
 62
     7
100
AcDbPolyline
 90
        2
 70
     0
 43
0.2
 10
1073.4660433623
 20
27.6937955299
 10
1073.4660433623
 20
27.4870480712
  0
LWPOLYLINE
  5
259
330
223
100
AcDbEntity
  8
0
  6
Continuous
 62
     7
100
AcDbPolyline
 90
        2
 70
     0
 43
0.2
 10
1073.4660433623
 20
27.4870480712
 10
1073.5866896642
 20
27.4870480712
  0
LWPOLYLINE
  5
25A
330
223
100
AcDbEntity
  8
0
  6
Continuous
 62
     7
100
AcDbPolyline
 90
        2
 70
     0
 43
0.2
 10
1073.5866896642
 20
27.4870480712
 10
1073.5866896642
 20
26.541243874
  0
LWPOLYLINE
  5
25B
330
223
100
AcDbEntity
  8
0
  6
Continuous
 62
     7
100
AcDbPolyline
 90
        2
 70
     0
 43
0.2
 10
1073.5866896642
 20
26.541243874
 10
1073.8083543446
 20
26.541243874
  0
LWPOLYLINE
  5
25C
330
223
100
AcDbEntity
  8
0
  6
Continuous
 62
     7
100
AcDbPolyline
 90
        2
 70
     0
 43
0.2
 10
1073.8083543446
 20
26.541243874
 10
1073.8083543446
 20
27.4870480712
  0
SPLINE
  5
25D
330
223
100
AcDbEntity
  8
0
  6
Continuous
 62
     7
100
AcDbSpline
 70
     3
 71
     3
 72
    20
 73
    16
 74
     0
 42
0.000000001
 43
0.0000001
 40
0.0
 40
0.0
 40
0.0
 40
0.0
 40
1.0
 40
1.0
 40
1.0
 40
2.0
 40
2.0
 40
2.0
 40
3.0
 40
3.0
 40
3.0
 40
4.0
 40
4.0
 40
4.0
 40
5.0
 40
5.0
 40
5.0
 40
5.0
 10
1061.5903646518
 20
36.9021703174
 30
0.0
 10
1061.5903646518
 20
36.9021703174
 30
0.0
 10
1063.9067213063
 20
34.0726088952
 30
0.0
 10
1063.9067213063
 20
34.0726088952
 30
0.0
 10
1063.2550742529
 20
33.4204384305
 30
0.0
 10
1062.4782010489
 20
32.6845221598
 30
0.0
 10
1061.5070114042
 20
32.6845221598
 30
0.0
 10
1060.5084735198
 20
32.6845221598
 30
0.0
 10
1059.5651555262
 20
33.614100607
 30
0.0
 10
1059.5651555262
 20
34.6132927556
 30
0.0
 10
1059.5651555262
 20
35.6124849041
 30
0.0
 10
1060.7440085993
 20
36.3190901427
 30
0.0
 10
1061.4655310597
 20
36.8189479226
 30
0.0
 10
1061.4655310597
 20
36.8189479226
 30
0.0
 10
1061.5903646518
 20
36.9021703174
 30
0.0
 10
1061.5903646518
 20
36.9021703174
 30
0.0
  0
SPLINE
  5
25E
330
223
100
AcDbEntity
  8
0
  6
Continuous
 62
     7
100
AcDbSpline
 70
     3
 71
     3
 72
    23
 73
    19
 74
     0
 42
0.000000001
 43
0.0000001
 40
0.0
 40
0.0
 40
0.0
 40
0.0
 40
1.0
 40
1.0
 40
1.0
 40
2.0
 40
2.0
 40
2.0
 40
3.0
 40
3.0
 40
3.0
 40
4.0
 40
4.0
 40
4.0
 40
5.0
 40
5.0
 40
5.0
 40
6.0
 40
6.0
 40
6.0
 40
6.0
 10
1061.8677726344
 20
38.5399242372
 30
0.0
 10
1061.8677726344
 20
38.5399242372
 30
0.0
 10
1061.5212743618
 20
38.983253598
 30
0.0
 10
1061.5212743618
 20
38.983253598
 30
0.0
 10
1061.2154713169
 20
39.3713630679
 30
0.0
 10
1060.8965829897
 20
39.7598650964
 30
0.0
 10
1060.8965829897
 20
40.2868094104
 30
0.0
 10
1060.8965829897
 20
40.9529811271
 30
0.0
 10
1061.4379211142
 20
41.3967030464
 30
0.0
 10
1062.0618273694
 20
41.3967030464
 30
0.0
 10
1062.7556090314
 20
41.3967030464
 30
0.0
 10
1063.2828150511
 20
40.9944614716
 30
0.0
 10
1063.2828150511
 20
40.2594611706
 30
0.0
 10
1063.2828150511
 20
39.4961966601
 30
0.0
 10
1062.5615542965
 20
39.0660834343
 30
0.0
 10
1062.0344791296
 20
38.6503640189
 30
0.0
 10
1062.0344791296
 20
38.6503640189
 30
0.0
 10
1061.8677726344
 20
38.5399242372
 30
0.0
 10
1061.8677726344
 20
38.5399242372
 30
0.0
  0
SPLINE
  5
25F
330
223
100
AcDbEntity
  8
0
  6
Continuous
 62
     7
100
AcDbSpline
 70
     3
 71
     3
 72
    50
 73
    46
 74
     0
 42
0.000000001
 43
0.0000001
 40
0.0
 40
0.0
 40
0.0
 40
0.0
 40
1.0
 40
1.0
 40
1.0
 40
2.0
 40
2.0
 40
2.0
 40
3.0
 40
3.0
 40
3.0
 40
4.0
 40
4.0
 40
4.0
 40
5.0
 40
5.0
 40
5.0
 40
6.0
 40
6.0
 40
6.0
 40
7.0
 40
7.0
 40
7.0
 40
8.0
 40
8.0
 40
8.0
 40
9.0
 40
9.0
 40
9.0
 40
10.0
 40
10.0
 40
10.0
 40
11.0
 40
11.0
 40
11.0
 40
12.0
 40
12.0
 40
12.0
 40
13.0
 40
13.0
 40
13.0
 40
14.0
 40
14.0
 40
14.0
 40
15.0
 40
15.0
 40
15.0
 40
15.0
 10
1065.8213597973
 20
31.741335019
 30
0.0
 10
1065.8213597973
 20
31.741335019
 30
0.0
 10
1067.4305878019
 20
31.741335019
 30
0.0
 10
1067.4305878019
 20
31.741335019
 30
0.0
 10
1067.4305878019
 20
31.741335019
 30
0.0
 10
1065.5575605082
 20
34.0584767904
 30
0.0
 10
1065.5575605082
 20
34.0584767904
 30
0.0
 10
1065.5575605082
 20
34.0584767904
 30
0.0
 10
1066.8338989337
 20
35.555956485
 30
0.0
 10
1066.8338989337
 20
35.555956485
 30
0.0
 10
1066.8338989337
 20
35.555956485
 30
0.0
 10
1066.001674986
 20
36.4169680536
 30
0.0
 10
1066.001674986
 20
36.4169680536
 30
0.0
 10
1066.001674986
 20
36.4169680536
 30
0.0
 10
1064.7810798627
 20
35.0016639312
 30
0.0
 10
1064.7810798627
 20
35.0016639312
 30
0.0
 10
1064.7810798627
 20
35.0016639312
 30
0.0
 10
1062.6031654938
 20
37.6370397656
 30
0.0
 10
1062.6031654938
 20
37.6370397656
 30
0.0
 10
1063.4767389333
 20
38.2750781255
 30
0.0
 10
1064.5034101745
 20
39.0660834343
 30
0.0
 10
1064.5034101745
 20
40.2449365074
 30
0.0
 10
1064.5034101745
 20
41.6186294324
 30
0.0
 10
1063.3655140346
 20
42.4231125819
 30
0.0
 10
1062.0902224317
 20
42.4231125819
 30
0.0
 10
1060.7167912124
 20
42.4231125819
 30
0.0
 10
1059.6758570136
 20
41.5768873822
 30
0.0
 10
1059.6758570136
 20
40.13423502
 30
0.0
 10
1059.6758570136
 20
39.2466603286
 30
0.0
 10
1060.23119639
 20
38.4697871246
 30
0.0
 10
1060.8273618469
 20
37.8453574582
 30
0.0
 10
1060.8273618469
 20
37.8453574582
 30
0.0
 10
1060.1754530879
 20
37.3737638878
 30
0.0
 10
1060.1754530879
 20
37.3737638878
 30
0.0
 10
1059.1769152034
 20
36.6525031331
 30
0.0
 10
1058.3440369916
 20
35.9312423784
 30
0.0
 10
1058.3440369916
 20
34.5996840621
 30
0.0
 10
1058.3440369916
 20
32.7960087641
 30
0.0
 10
1059.8010831642
 20
31.519408633
 30
0.0
 10
1061.5486226016
 20
31.519408633
 30
0.0
 10
1062.7834806825
 20
31.519408633
 30
0.0
 10
1063.8928509072
 20
32.2275841054
 30
0.0
 10
1064.6837253631
 20
33.1561157301
 30
0.0
 10
1064.6837253631
 20
33.1561157301
 30
0.0
 10
1065.8213597973
 20
31.741335019
 30
0.0
 10
1065.8213597973
 20
31.741335019
 30
0.0
  0
LINE
  5
260
330
223
100
AcDbEntity
  8
0
  6
Continuous
 62
     7
100
AcDbLine
 10
1051.6242211723
 20
29.7152099237
 30
0.0
 11
1074.0381318999
 21
29.7152099237
 31
0.0
  0
LINE
  5
261
330
223
100
AcDbEntity
  8
0
  6
Continuous
 62
     7
100
AcDbLine
 10
1074.0381318999
 20
29.7152099237
 30
0.0
 11
1074.0381318999
 21
52.1291206513
 31
0.0
  0
LINE
  5
262
330
223
100
AcDbEntity
  8
0
  6
Continuous
 62
     7
100
AcDbLine
 10
1074.0381318999
 20
52.1291206513
 30
0.0
 11
1051.6242211723
 21
52.1291206513
 31
0.0
  0
LINE
  5
263
330
223
100
AcDbEntity
  8
0
  6
Continuous
 62
     7
100
AcDbLine
 10
1051.6242211723
 20
52.1291206513
 30
0.0
 11
1051.6242211723
 21
29.7152099237
 31
0.0
  0
ENDBLK
  5
264
330
223
100
AcDbEntity
  8
0
  6
ByBlock
 62
     0
100
AcDbBlockEnd
  0
BLOCK
  5
265
330
224
100
AcDbEntity
  8
0
100
AcDbBlockBegin
  2
PROIEZIONE_EU_BL0
 70
     0
 10
1064.0050640649
 20
61.6304331513
 30
0.0
  3
PROIEZIONE_EU_BL0
  1

  0
LWPOLYLINE
  5
266
330
224
100
AcDbEntity
  8
DEFAULT_1
  6
CENTER
 62
     7
100
AcDbPolyline
 90
        2
 70
     0
 43
0.25
 10
1070.1316847266
 20
66.6301272832
 10
1070.131725709
 20
56.6307390194
  0
LWPOLYLINE
  5
267
330
224
100
AcDbEntity
  8
DEFAULT_1
  6
CENTER
 62
     7
100
AcDbPolyline
 90
        2
 70
     0
 43
0.25
 10
1076.1317145517
 20
61.6307042864
 10
1051.8784135782
 20
61.630433626
  0
LWPOLYLINE
  5
268
330
224
100
AcDbEntity
  8
0
  6
Continuous
 62
     7
100
AcDbPolyline
 90
        2
 70
     1
 43
0.25
 10
1066.5845745508
 20
61.6118853971
 42
1.0
 10
1073.6909036494
 20
61.6118853971
 42
1.0
  0
LWPOLYLINE
  5
269
330
224
100
AcDbEntity
  8
0
  6
Continuous
 62
     7
100
AcDbPolyline
 90
        2
 70
     1
 43
0.25
 10
1068.1343183792
 20
61.6297834417
 42
1.0
 10
1072.1460701292
 20
61.6297834417
 42
1.0
  0
LWPOLYLINE
  5
26A
330
224
100
AcDbEntity
  8
0
  6
Continuous
 62
     7
100
AcDbPolyline
 90
        2
 70
     0
 43
0.25
 10
1064.1317123457
 20
65.2056366465
 10
1064.1317119911
 20
58.1054337382
  0
LWPOLYLINE
  5
26B
330
224
100
AcDbEntity
  8
0
  6
Continuous
 62
     7
100
AcDbPolyline
 90
        2
 70
     0
 43
0.25
 10
1064.1317404275
 20
58.1054053018
 10
1054.1371831563
 20
59.6254987147
  0
LWPOLYLINE
  5
26C
330
224
100
AcDbEntity
  8
0
  6
Continuous
 62
     7
100
AcDbPolyline
 90
        2
 70
     0
 43
0.25
 10
1054.1348731707
 20
59.6248211731
 10
1054.1322062666
 20
63.6304597846
  0
LWPOLYLINE
  5
26D
330
224
100
AcDbEntity
  8
0
  6
Continuous
 62
     7
100
AcDbPolyline
 90
        2
 70
     0
 43
0.25
 10
1054.1321979905
 20
63.6304515085
 10
1064.1319412278
 20
65.2056087286
  0
ENDBLK
  5
26E
330
224
100
AcDbEntity
  8
0
  6
ByBlock
 62
     0
100
AcDbBlockEnd
  0
ENDSEC
  0
SECTION
  2
ENTITIES
  0
LINE
  5
290
330
1B
100
AcDbEntity
 67
     1
  8
0
  6
Continuous
 62
     7
100
AcDbLine
 10
1189.0
 20
0.0
 30
0.0
 11
1189.0
 21
841.0
 31
0.0
  0
LINE
  5
291
330
1B
100
AcDbEntity
 67
     1
  8
0
  6
Continuous
 62
     7
100
AcDbLine
 10
0.0
 20
841.0
 30
0.0
 11
1189.0
 21
841.0
 31
0.0
  0
LINE
  5
292
330
1B
100
AcDbEntity
 67
     1
  8
0
  6
Continuous
 62
     7
100
AcDbLine
 10
0.0
 20
0.0
 30
0.0
 11
0.0
 21
841.0
 31
0.0
  0
LINE
  5
293
330
1B
100
AcDbEntity
 67
     1
  8
0
  6
Continuous
 62
     7
100
AcDbLine
 10
7.0
 20
834.0
 30
0.0
 11
1182.0
 21
834.0
 31
0.0
  0
LINE
  5
294
330
1B
100
AcDbEntity
 67
     1
  8
0
  6
Continuous
 62
     7
100
AcDbLine
 10
1182.0
 20
7.0
 30
0.0
 11
1182.0
 21
834.0
 31
0.0
  0
LINE
  5
295
330
1B
100
AcDbEntity
 67
     1
  8
0
  6
Continuous
 62
     7
100
AcDbLine
 10
7.0
 20
7.0
 30
0.0
 11
7.0
 21
841.0
 31
0.0
  0
LINE
  5
296
330
1B
100
AcDbEntity
 67
     1
  8
0
  6
Continuous
 62
     7
100
AcDbLine
 10
7.0
 20
7.0
 30
0.0
 11
1182.0
 21
7.0
 31
0.0
  0
LINE
  5
297
330
1B
100
AcDbEntity
 67
     1
  8
0
  6
Continuous
 62
     7
100
AcDbLine
 10
10.0
 20
831.0
 30
0.0
 11
1179.0
 21
831.0
 31
0.0
  0
LINE
  5
298
330
1B
100
AcDbEntity
 67
     1
  8
0
  6
Continuous
 62
     7
100
AcDbLine
 10
10.0
 20
10.0
 30
0.0
 11
10.0
 21
831.0
 31
0.0
  0
LINE
  5
299
330
1B
100
AcDbEntity
 67
     1
  8
0
  6
Continuous
 62
     7
100
AcDbLine
 10
10.0
 20
10.0
 30
0.0
 11
1179.0
 21
10.0
 31
0.0
  0
LINE
  5
29A
330
1B
100
AcDbEntity
 67
     1
  8
0
  6
Continuous
 62
     7
100
AcDbLine
 10
1179.0
 20
10.0
 30
0.0
 11
1179.0
 21
831.0
 31
0.0
  0
LINE
  5
29B
330
1B
100
AcDbEntity
 67
     1
  8
0
  6
Continuous
 62
     7
100
AcDbLine
 10
594.5
 20
841.0
 30
0.0
 11
594.5
 21
830.9963547375
 31
0.0
  0
LINE
  5
29C
330
1B
100
AcDbEntity
 67
     1
  8
0
  6
Continuous
 62
     7
100
AcDbLine
 10
1189.0
 20
420.5
 30
0.0
 11
1179.0324714513
 21
420.5
 31
0.0
  0
LINE
  5
29D
330
1B
100
AcDbEntity
 67
     1
  8
0
  6
Continuous
 62
     7
100
AcDbLine
 10
979.0
 20
0.0
 30
0.0
 11
979.0
 21
10.0
 31
0.0
  0
LINE
  5
29E
330
1B
100
AcDbEntity
 67
     1
  8
0
  6
Continuous
 62
     7
100
AcDbLine
 10
0.0
 20
0.0
 30
0.0
 11
1189.0
 21
0.0
 31
0.0
  0
LINE
  5
29F
330
1B
100
AcDbEntity
 67
     1
  8
0
  6
Continuous
 62
     7
100
AcDbLine
 10
1182.0
 20
7.0
 30
0.0
 11
1182.0
 21
0.0
 31
0.0
  0
LINE
  5
2A0
330
1B
100
AcDbEntity
 67
     1
  8
0
  6
Continuous
 62
     7
100
AcDbLine
 10
1182.0
 20
7.0
 30
0.0
 11
1189.0
 21
7.0
 31
0.0
  0
LINE
  5
2A1
330
1B
100
AcDbEntity
 67
     1
  8
0
  6
Continuous
 62
     7
100
AcDbLine
 10
1082.0
 20
7.0
 30
0.0
 11
1082.0
 21
0.0
 31
0.0
  0
LINE
  5
2A2
330
1B
100
AcDbEntity
 67
     1
  8
0
  6
Continuous
 62
     7
100
AcDbLine
 10
882.0
 20
7.0
 30
0.0
 11
882.0
 21
0.0
 31
0.0
  0
LINE
  5
2A3
330
1B
100
AcDbEntity
 67
     1
  8
0
  6
Continuous
 62
     7
100
AcDbLine
 10
782.0
 20
7.0
 30
0.0
 11
782.0
 21
0.0
 31
0.0
  0
LINE
  5
2A4
330
1B
100
AcDbEntity
 67
     1
  8
0
  6
Continuous
 62
     7
100
AcDbLine
 10
682.0
 20
7.0
 30
0.0
 11
682.0
 21
0.0
 31
0.0
  0
LINE
  5
2A5
330
1B
100
AcDbEntity
 67
     1
  8
0
  6
Continuous
 62
     7
100
AcDbLine
 10
582.0
 20
7.0
 30
0.0
 11
582.0
 21
0.0
 31
0.0
  0
LINE
  5
2A6
330
1B
100
AcDbEntity
 67
     1
  8
0
  6
Continuous
 62
     7
100
AcDbLine
 10
482.0
 20
7.0
 30
0.0
 11
482.0
 21
0.0
 31
0.0
  0
LINE
  5
2A7
330
1B
100
AcDbEntity
 67
     1
  8
0
  6
Continuous
 62
     7
100
AcDbLine
 10
382.0
 20
7.0
 30
0.0
 11
382.0
 21
0.0
 31
0.0
  0
LINE
  5
2A8
330
1B
100
AcDbEntity
 67
     1
  8
0
  6
Continuous
 62
     7
100
AcDbLine
 10
282.0
 20
7.0
 30
0.0
 11
282.0
 21
0.0
 31
0.0
  0
LINE
  5
2A9
330
1B
100
AcDbEntity
 67
     1
  8
0
  6
Continuous
 62
     7
100
AcDbLine
 10
182.0
 20
7.0
 30
0.0
 11
182.0
 21
0.0
 31
0.0
  0
LINE
  5
2AA
330
1B
100
AcDbEntity
 67
     1
  8
0
  6
Continuous
 62
     7
100
AcDbLine
 10
82.0
 20
7.0
 30
0.0
 11
82.0
 21
0.0
 31
0.0
  0
LINE
  5
2AB
330
1B
100
AcDbEntity
 67
     1
  8
0
  6
Continuous
 62
     7
100
AcDbLine
 10
7.0
 20
7.0
 30
0.0
 11
0.0
 21
7.0
 31
0.0
  0
LINE
  5
2AC
330
1B
100
AcDbEntity
 67
     1
  8
0
  6
Continuous
 62
     7
100
AcDbLine
 10
7.0
 20
7.0
 30
0.0
 11
7.0
 21
0.0
 31
0.0
  0
LINE
  5
2AD
330
1B
100
AcDbEntity
 67
     1
  8
0
  6
Continuous
 62
     7
100
AcDbLine
 10
1182.0
 20
107.0
 30
0.0
 11
1189.0
 21
107.0
 31
0.0
  0
LINE
  5
2AE
330
1B
100
AcDbEntity
 67
     1
  8
0
  6
Continuous
 62
     7
100
AcDbLine
 10
1182.0
 20
207.0
 30
0.0
 11
1189.0
 21
207.0
 31
0.0
  0
LINE
  5
2AF
330
1B
100
AcDbEntity
 67
     1
  8
0
  6
Continuous
 62
     7
100
AcDbLine
 10
1182.0
 20
307.0
 30
0.0
 11
1189.0
 21
307.0
 31
0.0
  0
LINE
  5
2B0
330
1B
100
AcDbEntity
 67
     1
  8
0
  6
Continuous
 62
     7
100
AcDbLine
 10
1179.0
 20
507.0
 30
0.0
 11
1189.0
 21
507.0
 31
0.0
  0
LINE
  5
2B1
330
1B
100
AcDbEntity
 67
     1
  8
0
  6
Continuous
 62
     7
100
AcDbLine
 10
1182.0
 20
607.0
 30
0.0
 11
1189.0
 21
607.0
 31
0.0
  0
LINE
  5
2B2
330
1B
100
AcDbEntity
 67
     1
  8
0
  6
Continuous
 62
     7
100
AcDbLine
 10
1182.0
 20
707.0
 30
0.0
 11
1189.0
 21
707.0
 31
0.0
  0
LINE
  5
2B3
330
1B
100
AcDbEntity
 67
     1
  8
0
  6
Continuous
 62
     7
100
AcDbLine
 10
1182.0
 20
834.0
 30
0.0
 11
1189.0
 21
834.0
 31
0.0
  0
LINE
  5
2B4
330
1B
100
AcDbEntity
 67
     1
  8
0
  6
Continuous
 62
     7
100
AcDbLine
 10
1182.0
 20
834.0
 30
0.0
 11
1182.0
 21
841.0
 31
0.0
  0
LINE
  5
2B5
330
1B
100
AcDbEntity
 67
     1
  8
0
  6
Continuous
 62
     7
100
AcDbLine
 10
0.0
 20
834.0
 30
0.0
 11
1189.0
 21
834.0
 31
0.0
  0
LINE
  5
2B6
330
1B
100
AcDbEntity
 67
     1
  8
0
  6
Continuous
 62
     7
100
AcDbLine
 10
979.0
 20
831.0
 30
0.0
 11
979.0
 21
841.0
 31
0.0
  0
LINE
  5
2B7
330
1B
100
AcDbEntity
 67
     1
  8
0
  6
Continuous
 62
     7
100
AcDbLine
 10
1082.0
 20
841.0
 30
0.0
 11
1082.0
 21
834.0
 31
0.0
  0
LINE
  5
2B8
330
1B
100
AcDbEntity
 67
     1
  8
0
  6
Continuous
 62
     7
100
AcDbLine
 10
882.0
 20
841.0
 30
0.0
 11
882.0
 21
834.0
 31
0.0
  0
LINE
  5
2B9
330
1B
100
AcDbEntity
 67
     1
  8
0
  6
Continuous
 62
     7
100
AcDbLine
 10
782.0
 20
841.0
 30
0.0
 11
782.0
 21
834.0
 31
0.0
  0
LINE
  5
2BA
330
1B
100
AcDbEntity
 67
     1
  8
0
  6
Continuous
 62
     7
100
AcDbLine
 10
682.0
 20
841.0
 30
0.0
 11
682.0
 21
834.0
 31
0.0
  0
LINE
  5
2BB
330
1B
100
AcDbEntity
 67
     1
  8
0
  6
Continuous
 62
     7
100
AcDbLine
 10
582.0
 20
841.0
 30
0.0
 11
582.0
 21
834.0
 31
0.0
  0
LINE
  5
2BC
330
1B
100
AcDbEntity
 67
     1
  8
0
  6
Continuous
 62
     7
100
AcDbLine
 10
482.0
 20
841.0
 30
0.0
 11
482.0
 21
834.0
 31
0.0
  0
LINE
  5
2BD
330
1B
100
AcDbEntity
 67
     1
  8
0
  6
Continuous
 62
     7
100
AcDbLine
 10
382.0
 20
841.0
 30
0.0
 11
382.0
 21
834.0
 31
0.0
  0
LINE
  5
2BE
330
1B
100
AcDbEntity
 67
     1
  8
0
  6
Continuous
 62
     7
100
AcDbLine
 10
282.0
 20
841.0
 30
0.0
 11
282.0
 21
834.0
 31
0.0
  0
LINE
  5
2BF
330
1B
100
AcDbEntity
 67
     1
  8
0
  6
Continuous
 62
     7
100
AcDbLine
 10
182.0
 20
841.0
 30
0.0
 11
182.0
 21
834.0
 31
0.0
  0
LINE
  5
2C0
330
1B
100
AcDbEntity
 67
     1
  8
0
  6
Continuous
 62
     7
100
AcDbLine
 10
82.0
 20
841.0
 30
0.0
 11
82.0
 21
834.0
 31
0.0
  0
LINE
  5
2C1
330
1B
100
AcDbEntity
 67
     1
  8
0
  6
Continuous
 62
     7
100
AcDbLine
 10
7.0
 20
420.5
 30
0.0
 11
-2.9675285487
 21
420.5
 31
0.0
  0
LINE
  5
2C2
330
1B
100
AcDbEntity
 67
     1
  8
0
  6
Continuous
 62
     7
100
AcDbLine
 10
0.0
 20
107.0
 30
0.0
 11
7.0
 21
107.0
 31
0.0
  0
LINE
  5
2C3
330
1B
100
AcDbEntity
 67
     1
  8
0
  6
Continuous
 62
     7
100
AcDbLine
 10
0.0
 20
207.0
 30
0.0
 11
7.0
 21
207.0
 31
0.0
  0
LINE
  5
2C4
330
1B
100
AcDbEntity
 67
     1
  8
0
  6
Continuous
 62
     7
100
AcDbLine
 10
0.0
 20
307.0
 30
0.0
 11
7.0
 21
307.0
 31
0.0
  0
LINE
  5
2C5
330
1B
100
AcDbEntity
 67
     1
  8
0
  6
Continuous
 62
     7
100
AcDbLine
 10
-3.0
 20
507.0
 30
0.0
 11
7.0
 21
507.0
 31
0.0
  0
LINE
  5
2C6
330
1B
100
AcDbEntity
 67
     1
  8
0
  6
Continuous
 62
     7
100
AcDbLine
 10
0.0
 20
607.0
 30
0.0
 11
7.0
 21
607.0
 31
0.0
  0
LINE
  5
2C7
330
1B
100
AcDbEntity
 67
     1
  8
0
  6
Continuous
 62
     7
100
AcDbLine
 10
0.0
 20
707.0
 30
0.0
 11
7.0
 21
707.0
 31
0.0
  0
MTEXT
  5
2C8
330
1B
100
AcDbEntity
 67
     1
  8
0
  6
Continuous
 62
     2
100
AcDbMText
 10
1131.154890719
 20
5.35876025
 30
0.0
 40
4.0
 41
5.1428571429
 46
0.0
 71
     1
 72
     1
  1
A
  7
TEXTSTYLE_2
 73
     1
 44
1.0
  0
MTEXT
  5
2C9
330
1B
100
AcDbEntity
 67
     1
  8
0
  6
Continuous
 62
     2
100
AcDbMText
 10
1031.154890719
 20
5.35876025
 30
0.0
 40
4.0
 41
4.7142857143
 46
0.0
 71
     1
 72
     1
  1
B
  7
TEXTSTYLE_2
 73
     1
 44
1.0
  0
MTEXT
  5
2CA
330
1B
100
AcDbEntity
 67
     1
  8
0
  6
Continuous
 62
     2
100
AcDbMText
 10
931.154890719
 20
5.35876025
 30
0.0
 40
4.0
 41
5.0
 46
0.0
 71
     1
 72
     1
  1
C
  7
TEXTSTYLE_2
 73
     1
 44
1.0
  0
MTEXT
  5
2CB
330
1B
100
AcDbEntity
 67
     1
  8
0
  6
Continuous
 62
     2
100
AcDbMText
 10
831.154890719
 20
5.35876025
 30
0.0
 40
4.0
 41
5.4285714286
 46
0.0
 71
     1
 72
     1
  1
D
  7
TEXTSTYLE_2
 73
     1
 44
1.0
  0
MTEXT
  5
2CC
330
1B
100
AcDbEntity
 67
     1
  8
0
  6
Continuous
 62
     2
100
AcDbMText
 10
731.154890719
 20
5.35876025
 30
0.0
 40
4.0
 41
4.2857142857
 46
0.0
 71
     1
 72
     1
  1
E
  7
TEXTSTYLE_2
 73
     1
 44
1.0
  0
MTEXT
  5
2CD
330
1B
100
AcDbEntity
 67
     1
  8
0
  6
Continuous
 62
     2
100
AcDbMText
 10
631.154890719
 20
5.35876025
 30
0.0
 40
4.0
 41
4.2857142857
 46
0.0
 71
     1
 72
     1
  1
F
  7
TEXTSTYLE_2
 73
     1
 44
1.0
  0
MTEXT
  5
2CE
330
1B
100
AcDbEntity
 67
     1
  8
0
  6
Continuous
 62
     2
100
AcDbMText
 10
531.154890719
 20
5.35876025
 30
0.0
 40
4.0
 41
4.7142857143
 46
0.0
 71
     1
 72
     1
  1
G
  7
TEXTSTYLE_2
 73
     1
 44
1.0
  0
MTEXT
  5
2CF
330
1B
100
AcDbEntity
 67
     1
  8
0
  6
Continuous
 62
     2
100
AcDbMText
 10
431.154890719
 20
5.35876025
 30
0.0
 40
4.0
 41
4.7142857143
 46
0.0
 71
     1
 72
     1
  1
H
  7
TEXTSTYLE_2
 73
     1
 44
1.0
  0
MTEXT
  5
2D0
330
1B
100
AcDbEntity
 67
     1
  8
0
  6
Continuous
 62
     2
100
AcDbMText
 10
331.154890719
 20
5.35876025
 30
0.0
 40
4.0
 41
3.8571428571
 46
0.0
 71
     1
 72
     1
  1
I
  7
TEXTSTYLE_2
 73
     1
 44
1.0
  0
MTEXT
  5
2D1
330
1B
100
AcDbEntity
 67
     1
  8
0
  6
Continuous
 62
     2
100
AcDbMText
 10
231.154890719
 20
5.35876025
 30
0.0
 40
4.0
 41
3.8571428571
 46
0.0
 71
     1
 72
     1
  1
L
  7
TEXTSTYLE_2
 73
     1
 44
1.0
  0
MTEXT
  5
2D2
330
1B
100
AcDbEntity
 67
     1
  8
0
  6
Continuous
 62
     2
100
AcDbMText
 10
131.154890719
 20
5.35876025
 30
0.0
 40
4.0
 41
5.1428571429
 46
0.0
 71
     1
 72
     1
  1
M
  7
TEXTSTYLE_2
 73
     1
 44
1.0
  0
MTEXT
  5
2D3
330
1B
100
AcDbEntity
 67
     1
  8
0
  6
Continuous
 62
     2
100
AcDbMText
 10
31.154890719
 20
5.35876025
 30
0.0
 40
4.0
 41
4.7142857143
 46
0.0
 71
     1
 72
     1
  1
N
  7
TEXTSTYLE_2
 73
     1
 44
1.0
  0
MTEXT
  5
2D4
330
1B
100
AcDbEntity
 67
     1
  8
0
  6
Continuous
 62
     2
100
AcDbMText
 10
1183.6467220993
 20
60.6268709614
 30
0.0
 40
4.0
 41
3.4285714286
 46
0.0
 71
     1
 72
     1
  1
1
  7
TEXTSTYLE_2
 73
     1
 44
1.0
  0
MTEXT
  5
2D5
330
1B
100
AcDbEntity
 67
     1
  8
0
  6
Continuous
 62
     2
100
AcDbMText
 10
1183.6467220993
 20
160.6268709614
 30
0.0
 40
4.0
 41
4.7142857143
 46
0.0
 71
     1
 72
     1
  1
2
  7
TEXTSTYLE_2
 73
     1
 44
1.0
  0
MTEXT
  5
2D6
330
1B
100
AcDbEntity
 67
     1
  8
0
  6
Continuous
 62
     2
100
AcDbMText
 10
1183.6467220993
 20
260.6268709614
 30
0.0
 40
4.0
 41
4.2857142857
 46
0.0
 71
     1
 72
     1
  1
3
  7
TEXTSTYLE_2
 73
     1
 44
1.0
  0
MTEXT
  5
2D7
330
1B
100
AcDbEntity
 67
     1
  8
0
  6
Continuous
 62
     2
100
AcDbMText
 10
1183.6467220993
 20
360.6268709614
 30
0.0
 40
4.0
 41
4.7142857143
 46
0.0
 71
     1
 72
     1
  1
4
  7
TEXTSTYLE_2
 73
     1
 44
1.0
  0
MTEXT
  5
2D8
330
1B
100
AcDbEntity
 67
     1
  8
0
  6
Continuous
 62
     2
100
AcDbMText
 10
1183.6467220993
 20
460.6268709614
 30
0.0
 40
4.0
 41
4.2857142857
 46
0.0
 71
     1
 72
     1
  1
5
  7
TEXTSTYLE_2
 73
     1
 44
1.0
  0
MTEXT
  5
2D9
330
1B
100
AcDbEntity
 67
     1
  8
0
  6
Continuous
 62
     2
100
AcDbMText
 10
1183.6467220993
 20
560.6268709614
 30
0.0
 40
4.0
 41
4.7142857143
 46
0.0
 71
     1
 72
     1
  1
6
  7
TEXTSTYLE_2
 73
     1
 44
1.0
  0
MTEXT
  5
2DA
330
1B
100
AcDbEntity
 67
     1
  8
0
  6
Continuous
 62
     2
100
AcDbMText
 10
1183.6467220993
 20
660.6268709614
 30
0.0
 40
4.0
 41
4.7142857143
 46
0.0
 71
     1
 72
     1
  1
7
  7
TEXTSTYLE_2
 73
     1
 44
1.0
  0
MTEXT
  5
2DB
330
1B
100
AcDbEntity
 67
     1
  8
0
  6
Continuous
 62
     2
100
AcDbMText
 10
1183.8487460335
 20
775.1725942251
 30
0.0
 40
4.0
 41
4.7142857143
 46
0.0
 71
     1
 72
     1
  1
8
  7
TEXTSTYLE_2
 73
     1
 44
1.0
  0
MTEXT
  5
2DC
330
1B
100
AcDbEntity
 67
     1
  8
0
  6
Continuous
 62
     2
100
AcDbMText
 10
1131.154890719
 20
839.35876025
 30
0.0
 40
4.0
 41
5.1428571429
 46
0.0
 71
     1
 72
     1
  1
A
  7
TEXTSTYLE_2
 73
     1
 44
1.0
  0
MTEXT
  5
2DD
330
1B
100
AcDbEntity
 67
     1
  8
0
  6
Continuous
 62
     2
100
AcDbMText
 10
1031.154890719
 20
839.35876025
 30
0.0
 40
4.0
 41
4.7142857143
 46
0.0
 71
     1
 72
     1
  1
B
  7
TEXTSTYLE_2
 73
     1
 44
1.0
  0
MTEXT
  5
2DE
330
1B
100
AcDbEntity
 67
     1
  8
0
  6
Continuous
 62
     2
100
AcDbMText
 10
931.154890719
 20
839.35876025
 30
0.0
 40
4.0
 41
5.0
 46
0.0
 71
     1
 72
     1
  1
C
  7
TEXTSTYLE_2
 73
     1
 44
1.0
  0
MTEXT
  5
2DF
330
1B
100
AcDbEntity
 67
     1
  8
0
  6
Continuous
 62
     2
100
AcDbMText
 10
831.154890719
 20
839.35876025
 30
0.0
 40
4.0
 41
5.4285714286
 46
0.0
 71
     1
 72
     1
  1
D
  7
TEXTSTYLE_2
 73
     1
 44
1.0
  0
MTEXT
  5
2E0
330
1B
100
AcDbEntity
 67
     1
  8
0
  6
Continuous
 62
     2
100
AcDbMText
 10
731.154890719
 20
839.35876025
 30
0.0
 40
4.0
 41
4.2857142857
 46
0.0
 71
     1
 72
     1
  1
E
  7
TEXTSTYLE_2
 73
     1
 44
1.0
  0
MTEXT
  5
2E1
330
1B
100
AcDbEntity
 67
     1
  8
0
  6
Continuous
 62
     2
100
AcDbMText
 10
631.154890719
 20
839.35876025
 30
0.0
 40
4.0
 41
4.2857142857
 46
0.0
 71
     1
 72
     1
  1
F
  7
TEXTSTYLE_2
 73
     1
 44
1.0
  0
MTEXT
  5
2E2
330
1B
100
AcDbEntity
 67
     1
  8
0
  6
Continuous
 62
     2
100
AcDbMText
 10
531.154890719
 20
839.35876025
 30
0.0
 40
4.0
 41
4.7142857143
 46
0.0
 71
     1
 72
     1
  1
G
  7
TEXTSTYLE_2
 73
     1
 44
1.0
  0
MTEXT
  5
2E3
330
1B
100
AcDbEntity
 67
     1
  8
0
  6
Continuous
 62
     2
100
AcDbMText
 10
431.154890719
 20
839.35876025
 30
0.0
 40
4.0
 41
4.7142857143
 46
0.0
 71
     1
 72
     1
  1
H
  7
TEXTSTYLE_2
 73
     1
 44
1.0
  0
MTEXT
  5
2E4
330
1B
100
AcDbEntity
 67
     1
  8
0
  6
Continuous
 62
     2
100
AcDbMText
 10
331.154890719
 20
839.35876025
 30
0.0
 40
4.0
 41
3.8571428571
 46
0.0
 71
     1
 72
     1
  1
I
  7
TEXTSTYLE_2
 73
     1
 44
1.0
  0
MTEXT
  5
2E5
330
1B
100
AcDbEntity
 67
     1
  8
0
  6
Continuous
 62
     2
100
AcDbMText
 10
231.154890719
 20
839.35876025
 30
0.0
 40
4.0
 41
3.8571428571
 46
0.0
 71
     1
 72
     1
  1
L
  7
TEXTSTYLE_2
 73
     1
 44
1.0
  0
MTEXT
  5
2E6
330
1B
100
AcDbEntity
 67
     1
  8
0
  6
Continuous
 62
     2
100
AcDbMText
 10
131.154890719
 20
839.35876025
 30
0.0
 40
4.0
 41
5.1428571429
 46
0.0
 71
     1
 72
     1
  1
M
  7
TEXTSTYLE_2
 73
     1
 44
1.0
  0
MTEXT
  5
2E7
330
1B
100
AcDbEntity
 67
     1
  8
0
  6
Continuous
 62
     2
100
AcDbMText
 10
31.154890719
 20
839.35876025
 30
0.0
 40
4.0
 41
4.7142857143
 46
0.0
 71
     1
 72
     1
  1
N
  7
TEXTSTYLE_2
 73
     1
 44
1.0
  0
MTEXT
  5
2E8
330
1B
100
AcDbEntity
 67
     1
  8
0
  6
Continuous
 62
     2
100
AcDbMText
 10
1.6467220993
 20
60.6268709614
 30
0.0
 40
4.0
 41
3.4285714286
 46
0.0
 71
     1
 72
     1
  1
1
  7
TEXTSTYLE_2
 73
     1
 44
1.0
  0
MTEXT
  5
2E9
330
1B
100
AcDbEntity
 67
     1
  8
0
  6
Continuous
 62
     2
100
AcDbMText
 10
1.6467220993
 20
160.6268709614
 30
0.0
 40
4.0
 41
4.7142857143
 46
0.0
 71
     1
 72
     1
  1
2
  7
TEXTSTYLE_2
 73
     1
 44
1.0
  0
MTEXT
  5
2EA
330
1B
100
AcDbEntity
 67
     1
  8
0
  6
Continuous
 62
     2
100
AcDbMText
 10
1.6467220993
 20
260.6268709614
 30
0.0
 40
4.0
 41
4.2857142857
 46
0.0
 71
     1
 72
     1
  1
3
  7
TEXTSTYLE_2
 73
     1
 44
1.0
  0
MTEXT
  5
2EB
330
1B
100
AcDbEntity
 67
     1
  8
0
  6
Continuous
 62
     2
100
AcDbMText
 10
1.6467220993
 20
360.6268709614
 30
0.0
 40
4.0
 41
4.7142857143
 46
0.0
 71
     1
 72
     1
  1
4
  7
TEXTSTYLE_2
 73
     1
 44
1.0
  0
MTEXT
  5
2EC
330
1B
100
AcDbEntity
 67
     1
  8
0
  6
Continuous
 62
     2
100
AcDbMText
 10
1.6467220993
 20
460.6268709614
 30
0.0
 40
4.0
 41
4.2857142857
 46
0.0
 71
     1
 72
     1
  1
5
  7
TEXTSTYLE_2
 73
     1
 44
1.0
  0
MTEXT
  5
2ED
330
1B
100
AcDbEntity
 67
     1
  8
0
  6
Continuous
 62
     2
100
AcDbMText
 10
1.6467220993
 20
560.6268709614
 30
0.0
 40
4.0
 41
4.7142857143
 46
0.0
 71
     1
 72
     1
  1
6
  7
TEXTSTYLE_2
 73
     1
 44
1.0
  0
MTEXT
  5
2EE
330
1B
100
AcDbEntity
 67
     1
  8
0
  6
Continuous
 62
     2
100
AcDbMText
 10
1.6467220993
 20
660.6268709614
 30
0.0
 40
4.0
 41
4.7142857143
 46
0.0
 71
     1
 72
     1
  1
7
  7
TEXTSTYLE_2
 73
     1
 44
1.0
  0
MTEXT
  5
2EF
330
1B
100
AcDbEntity
 67
     1
  8
0
  6
Continuous
 62
     2
100
AcDbMText
 10
1.8487460335
 20
775.1725942251
 30
0.0
 40
4.0
 41
4.7142857143
 46
0.0
 71
     1
 72
     1
  1
8
  7
TEXTSTYLE_2
 73
     1
 44
1.0
  0
VIEWPORT
  5
2F0
330
1B
100
AcDbEntity
 67
     1
  8
0
100
AcDbViewport
 10
0.0
 20
0.0
 30
0.0
 40
1401.884824902724
 41
991.332840466926
 68
     1
 69
     1
 12
659.6556420233462
 22
420.4999999999999
 13
0.0
 23
0.0
 14
1.0
 24
1.0
 15
0.0
 25
0.0
 16
0.0
 26
0.0
 36
1.0
 17
0.0
 27
0.0
 37
0.0
 42
50.0
 43
0.0
 44
0.0
 45
991.332840466926
 50
0.0
 51
0.0
 72
   100
 90
   557216
  1

281
     0
 71
     1
 74
     0
110
0.0
120
0.0
130
0.0
111
1.0
121
0.0
131
0.0
112
0.0
122
1.0
132
0.0
 79
     0
146
0.0
170
     0
 61
     5
348
621
292
     1
282
     1
141
0.0
142
0.0
 63
   256
  0
LINE
  5
2F1
330
1B
100
AcDbEntity
 67
     1
  8
7_ALL_FEATURES
  6
Continuous
 62
     7
100
AcDbLine
 10
39.9626820161
 20
730.8753960484
 30
0.0
 11
40.8413346565
 21
730.8753960484
 31
0.0
  0
LINE
  5
2F2
330
1B
100
AcDbEntity
 67
     1
  8
7_ALL_FEATURES
  6
Continuous
 62
     7
100
AcDbLine
 10
40.8413346565
 20
730.8753960484
 30
0.0
 11
41.4611134877
 21
730.8753960484
 31
0.0
  0
LINE
  5
2F3
330
1B
100
AcDbEntity
 67
     1
  8
7_ALL_FEATURES
  6
Continuous
 62
     7
100
AcDbLine
 10
41.4611134877
 20
730.8753960484
 30
0.0
 11
42.9626820161
 21
730.8753960484
 31
0.0
  0
LINE
  5
2F4
330
1B
100
AcDbEntity
 67
     1
  8
7_ALL_FEATURES
  6
Continuous
 62
     7
100
AcDbLine
 10
41.4626820161
 20
730.9753960484
 30
0.0
 11
41.4626820161
 21
730.8753960484
 31
0.0
  0
LINE
  5
2F5
330
1B
100
AcDbEntity
 67
     1
  8
7_ALL_FEATURES
  6
Continuous
 62
     7
100
AcDbLine
 10
42.9626820161
 20
723.8753960484
 30
0.0
 11
41.4626820161
 21
723.8753960484
 31
0.0
  0
LINE
  5
2F6
330
1B
100
AcDbEntity
 67
     1
  8
7_ALL_FEATURES
  6
Continuous
 62
     7
100
AcDbLine
 10
41.4626820161
 20
723.8753960484
 30
0.0
 11
40.8414098596
 21
723.8753960484
 31
0.0
  0
LINE
  5
2F7
330
1B
100
AcDbEntity
 67
     1
  8
7_ALL_FEATURES
  6
Continuous
 62
     7
100
AcDbLine
 10
40.8414098596
 20
723.8753960484
 30
0.0
 11
39.9626820161
 21
723.8753960484
 31
0.0
  0
LINE
  5
2F8
330
1B
100
AcDbEntity
 67
     1
  8
7_ALL_FEATURES
  6
Continuous
 62
     7
100
AcDbLine
 10
39.9626820161
 20
618.8753960484
 30
0.0
 11
40.8413346565
 21
618.8753960484
 31
0.0
  0
LINE
  5
2F9
330
1B
100
AcDbEntity
 67
     1
  8
7_ALL_FEATURES
  6
Continuous
 62
     7
100
AcDbLine
 10
40.8413346565
 20
618.8753960484
 30
0.0
 11
41.4611134877
 21
618.8753960484
 31
0.0
  0
LINE
  5
2FA
330
1B
100
AcDbEntity
 67
     1
  8
7_ALL_FEATURES
  6
Continuous
 62
     7
100
AcDbLine
 10
41.4611134877
 20
618.8753960484
 30
0.0
 11
42.9626820161
 21
618.8753960484
 31
0.0
  0
LINE
  5
2FB
330
1B
100
AcDbEntity
 67
     1
  8
7_ALL_FEATURES
  6
Continuous
 62
     7
100
AcDbLine
 10
39.9626820161
 20
617.8253960484
 30
0.0
 11
39.9626820161
 21
612.9253960484
 31
0.0
  0
SPLINE
  5
2FC
330
1B
100
AcDbEntity
 67
     1
  8
7_ALL_FEATURES
  6
Continuous
 62
     7
100
AcDbSpline
 70
     0
 71
     3
 72
     9
 73
     5
 74
     0
 42
0.000000001
 43
0.0000001
 40
0.0
 40
0.0
 40
0.0
 40
0.0
 40
0.2291976521
 40
1.0
 40
1.0
 40
1.0
 40
1.0
 10
40.8413616726
 20
613.8753960484
 30
0.0
 10
40.88970307
 20
613.8753960484
 30
0.0
 10
41.1005912748
 20
613.8874289246
 30
0.0
 10
41.3078734913
 20
613.9401431564
 30
0.0
 10
41.4608295811
 20
613.9952327066
 30
0.0
  0
ARC
  5
2FD
330
1B
100
AcDbEntity
 67
     1
  8
7_ALL_FEATURES
  6
Continuous
 62
     7
100
AcDbCircle
 10
40.6306926178
 20
616.2977756019
 30
0.0
 40
2.4476174461
100
AcDbArc
 50
289.825780408
 51
293.8364417194
  0
SPLINE
  5
2FE
330
1B
100
AcDbEntity
 67
     1
  8
7_ALL_FEATURES
  6
Continuous
 62
     7
100
AcDbSpline
 70
     0
 71
     3
 72
    15
 73
    11
 74
     0
 42
0.000000001
 43
0.0000001
 40
0.0
 40
0.0
 40
0.0
 40
0.0
 40
0.1201589812
 40
0.2453379035
 40
0.3726188035
 40
0.5001056329
 40
0.6275082984
 40
0.7547064437
 40
0.8798533234
 40
1.0
 40
1.0
 40
1.0
 40
1.0
 10
41.6198412919
 20
614.0589330297
 30
0.0
 10
41.7517611513
 20
614.1171693667
 30
0.0
 10
42.0117006318
 20
614.2590169275
 30
0.0
 10
42.3602412411
 20
614.5439502141
 30
0.0
 10
42.6370404067
 20
614.9146881546
 30
0.0
 10
42.7583094759
 20
615.3753005152
 30
0.0
 10
42.6370444732
 20
615.8357657394
 30
0.0
 10
42.3605751293
 20
616.2064302123
 30
0.0
 10
42.0122578841
 20
616.4914074544
 30
0.0
 10
41.7524012672
 20
616.6332967157
 30
0.0
 10
41.6205095045
 20
616.6915601228
 30
0.0
  0
ARC
  5
2FF
330
1B
100
AcDbEntity
 67
     1
  8
7_ALL_FEATURES
  6
Continuous
 62
     7
100
AcDbCircle
 10
40.6297658297
 20
614.4506713837
 30
0.0
 40
2.4501337453
100
AcDbArc
 50
66.14877817909999
 51
70.17134819000002
  0
SPLINE
  5
300
330
1B
100
AcDbEntity
 67
     1
  8
7_ALL_FEATURES
  6
Continuous
 62
     7
100
AcDbSpline
 70
     0
 71
     3
 72
     9
 73
     5
 74
     0
 42
0.000000001
 43
0.0000001
 40
0.0
 40
0.0
 40
0.0
 40
0.0
 40
0.2703053213
 40
1.0
 40
1.0
 40
1.0
 40
1.0
 10
41.4608717346
 20
616.7555397844
 30
0.0
 10
41.4072448033
 20
616.7748569396
 30
0.0
 10
41.2065242421
 20
616.8390138094
 30
0.0
 10
40.9952343306
 20
616.8753960484
 30
0.0
 10
40.8413616726
 20
616.8753960484
 30
0.0
  0
SPLINE
  5
301
330
1B
100
AcDbEntity
 67
     1
  8
7_ALL_FEATURES
  6
Continuous
 62
     7
100
AcDbSpline
 70
     0
 71
     3
 72
    13
 73
     9
 74
     0
 42
0.000000001
 43
0.0000001
 40
0.0
 40
0.0
 40
0.0
 40
0.0
 40
0.0957628996
 40
0.2141149816
 40
0.4998099785
 40
0.7856384736
 40
0.9041087766
 40
1.0
 40
1.0
 40
1.0
 40
1.0
 10
41.6185089821
 20
616.6867398964
 30
0.0
 10
41.5774719424
 20
616.6124940195
 30
0.0
 10
41.5204813801
 20
616.4283097617
 30
0.0
 10
41.4682123276
 20
615.9884479772
 30
0.0
 10
41.4673238561
 20
615.3764048768
 30
0.0
 10
41.4681625784
 20
614.7642723689
 30
0.0
 10
41.5201819065
 20
614.3240443816
 30
0.0
 10
41.5769717646
 20
614.1395909874
 30
0.0
 10
41.6179006491
 20
614.0651556799
 30
0.0
  0
LINE
  5
302
330
1B
100
AcDbEntity
 67
     1
  8
7_ALL_FEATURES
  6
Continuous
 62
     7
100
AcDbLine
 10
39.9626820161
 20
729.8253960484
 30
0.0
 11
39.9626820161
 21
724.9253960484
 31
0.0
  0
SPLINE
  5
303
330
1B
100
AcDbEntity
 67
     1
  8
7_ALL_FEATURES
  6
Continuous
 62
     7
100
AcDbSpline
 70
     0
 71
     3
 72
     9
 73
     5
 74
     0
 42
0.000000001
 43
0.0000001
 40
0.0
 40
0.0
 40
0.0
 40
0.0
 40
0.2291976521
 40
1.0
 40
1.0
 40
1.0
 40
1.0
 10
40.8413616726
 20
725.8753960484
 30
0.0
 10
40.88970307
 20
725.8753960484
 30
0.0
 10
41.1005912748
 20
725.8874289246
 30
0.0
 10
41.3078734913
 20
725.9401431564
 30
0.0
 10
41.4608295811
 20
725.9952327066
 30
0.0
  0
ARC
  5
304
330
1B
100
AcDbEntity
 67
     1
  8
7_ALL_FEATURES
  6
Continuous
 62
     7
100
AcDbCircle
 10
40.6306926177
 20
728.2977756021
 30
0.0
 40
2.4476174463
100
AcDbArc
 50
289.8257804081
 51
293.8364417192
  0
SPLINE
  5
305
330
1B
100
AcDbEntity
 67
     1
  8
7_ALL_FEATURES
  6
Continuous
 62
     7
100
AcDbSpline
 70
     0
 71
     3
 72
    15
 73
    11
 74
     0
 42
0.000000001
 43
0.0000001
 40
0.0
 40
0.0
 40
0.0
 40
0.0
 40
0.1201589812
 40
0.2453379035
 40
0.3726188035
 40
0.5001056329
 40
0.6275082984
 40
0.7547064437
 40
0.8798533234
 40
1.0
 40
1.0
 40
1.0
 40
1.0
 10
41.6198412919
 20
726.0589330297
 30
0.0
 10
41.7517611513
 20
726.1171693667
 30
0.0
 10
42.0117006318
 20
726.2590169275
 30
0.0
 10
42.360241241
 20
726.5439502141
 30
0.0
 10
42.6370404067
 20
726.9146881546
 30
0.0
 10
42.7583094759
 20
727.3753005152
 30
0.0
 10
42.6370444732
 20
727.8357657394
 30
0.0
 10
42.3605751293
 20
728.2064302123
 30
0.0
 10
42.0122578841
 20
728.4914074544
 30
0.0
 10
41.7524012672
 20
728.6332967157
 30
0.0
 10
41.6205095045
 20
728.6915601228
 30
0.0
  0
ARC
  5
306
330
1B
100
AcDbEntity
 67
     1
  8
7_ALL_FEATURES
  6
Continuous
 62
     7
100
AcDbCircle
 10
40.6297658296
 20
726.4506713837
 30
0.0
 40
2.4501337454
100
AcDbArc
 50
66.1487781788
 51
70.1713481897
  0
SPLINE
  5
307
330
1B
100
AcDbEntity
 67
     1
  8
7_ALL_FEATURES
  6
Continuous
 62
     7
100
AcDbSpline
 70
     0
 71
     3
 72
     9
 73
     5
 74
     0
 42
0.000000001
 43
0.0000001
 40
0.0
 40
0.0
 40
0.0
 40
0.0
 40
0.2703053213
 40
1.0
 40
1.0
 40
1.0
 40
1.0
 10
41.4608717346
 20
728.7555397844
 30
0.0
 10
41.4072448033
 20
728.7748569396
 30
0.0
 10
41.2065242421
 20
728.8390138094
 30
0.0
 10
40.9952343306
 20
728.8753960484
 30
0.0
 10
40.8413616726
 20
728.8753960484
 30
0.0
  0
LINE
  5
308
330
1B
100
AcDbEntity
 67
     1
  8
7_ALL_FEATURES
  6
Continuous
 62
     7
100
AcDbLine
 10
41.4626820161
 20
618.9753960484
 30
0.0
 11
41.4626820161
 21
618.8753960484
 31
0.0
  0
SPLINE
  5
309
330
1B
100
AcDbEntity
 67
     1
  8
7_ALL_FEATURES
  6
Continuous
 62
     7
100
AcDbSpline
 70
     0
 71
     3
 72
    13
 73
     9
 74
     0
 42
0.000000001
 43
0.0000001
 40
0.0
 40
0.0
 40
0.0
 40
0.0
 40
0.0957628996
 40
0.2141149816
 40
0.4998099785
 40
0.7856384736
 40
0.9041087766
 40
1.0
 40
1.0
 40
1.0
 40
1.0
 10
41.6185089821
 20
728.6867398964
 30
0.0
 10
41.5774719424
 20
728.6124940195
 30
0.0
 10
41.52048138
 20
728.4283097617
 30
0.0
 10
41.4682123276
 20
727.9884479772
 30
0.0
 10
41.4673238561
 20
727.3764048768
 30
0.0
 10
41.4681625784
 20
726.7642723689
 30
0.0
 10
41.5201819065
 20
726.3240443816
 30
0.0
 10
41.5769717646
 20
726.1395909874
 30
0.0
 10
41.617900649
 20
726.0651556799
 30
0.0
  0
LINE
  5
30A
330
1B
100
AcDbEntity
 67
     1
  8
7_ALL_FEATURES
  6
Continuous
 62
     7
100
AcDbLine
 10
42.9626820161
 20
611.8753960484
 30
0.0
 11
41.4626820161
 21
611.8753960484
 31
0.0
  0
LINE
  5
30B
330
1B
100
AcDbEntity
 67
     1
  8
7_ALL_FEATURES
  6
Continuous
 62
     7
100
AcDbLine
 10
41.4626820161
 20
611.8753960484
 30
0.0
 11
40.8414098596
 21
611.8753960484
 31
0.0
  0
LINE
  5
30C
330
1B
100
AcDbEntity
 67
     1
  8
7_ALL_FEATURES
  6
Continuous
 62
     7
100
AcDbLine
 10
40.8414098596
 20
611.8753960484
 30
0.0
 11
39.9626820161
 21
611.8753960484
 31
0.0
  0
LINE
  5
30D
330
1B
100
AcDbEntity
 67
     1
  8
7_ALL_FEATURES
  6
Continuous
 62
     7
100
AcDbLine
 10
99.9626820161
 20
611.8753960484
 30
0.0
 11
99.0840293758
 21
611.8753960484
 31
0.0
  0
LINE
  5
30E
330
1B
100
AcDbEntity
 67
     1
  8
7_ALL_FEATURES
  6
Continuous
 62
     7
100
AcDbLine
 10
99.0840293758
 20
611.8753960484
 30
0.0
 11
98.4642505446
 21
611.8753960484
 31
0.0
  0
LINE
  5
30F
330
1B
100
AcDbEntity
 67
     1
  8
7_ALL_FEATURES
  6
Continuous
 62
     7
100
AcDbLine
 10
98.4642505446
 20
611.8753960484
 30
0.0
 11
96.9626820161
 21
611.8753960484
 31
0.0
  0
SPLINE
  5
310
330
1B
100
AcDbEntity
 67
     1
  8
7_ALL_FEATURES
  6
Continuous
 62
     7
100
AcDbSpline
 70
     0
 71
     3
 72
     9
 73
     5
 74
     0
 42
0.000000001
 43
0.0000001
 40
0.0
 40
0.0
 40
0.0
 40
0.0
 40
0.2291976521
 40
1.0
 40
1.0
 40
1.0
 40
1.0
 10
99.0840023597
 20
616.8753960484
 30
0.0
 10
99.0356609623
 20
616.8753960484
 30
0.0
 10
98.8247727574
 20
616.8633631721
 30
0.0
 10
98.617490541
 20
616.8106489404
 30
0.0
 10
98.4645344511
 20
616.7555593902
 30
0.0
  0
ARC
  5
311
330
1B
100
AcDbEntity
 67
     1
  8
7_ALL_FEATURES
  6
Continuous
 62
     7
100
AcDbCircle
 10
99.2946714145
 20
614.4530164949
 30
0.0
 40
2.4476174461
100
AcDbArc
 50
109.8257804083
 51
113.8364417198
  0
SPLINE
  5
312
330
1B
100
AcDbEntity
 67
     1
  8
7_ALL_FEATURES
  6
Continuous
 62
     7
100
AcDbSpline
 70
     0
 71
     3
 72
    15
 73
    11
 74
     0
 42
0.000000001
 43
0.0000001
 40
0.0
 40
0.0
 40
0.0
 40
0.0
 40
0.1201589812
 40
0.2453379035
 40
0.3726188035
 40
0.5001056329
 40
0.6275082984
 40
0.7547064437
 40
0.8798533234
 40
1.0
 40
1.0
 40
1.0
 40
1.0
 10
98.3055227403
 20
616.691859067
 30
0.0
 10
98.1736028809
 20
616.6336227301
 30
0.0
 10
97.9136634005
 20
616.4917751692
 30
0.0
 10
97.5651227912
 20
616.2068418826
 30
0.0
 10
97.2883236255
 20
615.8361039422
 30
0.0
 10
97.1670545563
 20
615.3754915816
 30
0.0
 10
97.288319559
 20
614.9150263574
 30
0.0
 10
97.564788903
 20
614.5443618845
 30
0.0
 10
97.9131061482
 20
614.2593846424
 30
0.0
 10
98.172962765
 20
614.117495381
 30
0.0
 10
98.3048545278
 20
614.059231974
 30
0.0
  0
ARC
  5
313
330
1B
100
AcDbEntity
 67
     1
  8
7_ALL_FEATURES
  6
Continuous
 62
     7
100
AcDbCircle
 10
99.2955982026
 20
616.300120713
 30
0.0
 40
2.4501337452
100
AcDbArc
 50
246.148778179
 51
250.1713481901
  0
SPLINE
  5
314
330
1B
100
AcDbEntity
 67
     1
  8
7_ALL_FEATURES
  6
Continuous
 62
     7
100
AcDbSpline
 70
     0
 71
     3
 72
     9
 73
     5
 74
     0
 42
0.000000001
 43
0.0000001
 40
0.0
 40
0.0
 40
0.0
 40
0.0
 40
0.2703053213
 40
1.0
 40
1.0
 40
1.0
 40
1.0
 10
98.4644922976
 20
613.9952523123
 30
0.0
 10
98.518119229
 20
613.9759351572
 30
0.0
 10
98.7188397901
 20
613.9117782874
 30
0.0
 10
98.9301297017
 20
613.8753960484
 30
0.0
 10
99.0840023597
 20
613.8753960484
 30
0.0
  0
LINE
  5
315
330
1B
100
AcDbEntity
 67
     1
  8
7_ALL_FEATURES
  6
Continuous
 62
     7
100
AcDbLine
 10
99.9626820161
 20
612.9253960484
 30
0.0
 11
99.9626820161
 21
617.8253960484
 31
0.0
  0
SPLINE
  5
316
330
1B
100
AcDbEntity
 67
     1
  8
7_ALL_FEATURES
  6
Continuous
 62
     7
100
AcDbSpline
 70
     0
 71
     3
 72
    13
 73
     9
 74
     0
 42
0.000000001
 43
0.0000001
 40
0.0
 40
0.0
 40
0.0
 40
0.0
 40
0.0957628996
 40
0.2141149816
 40
0.4998099785
 40
0.7856384736
 40
0.9041087766
 40
1.0
 40
1.0
 40
1.0
 40
1.0
 10
98.3068550502
 20
614.0640522004
 30
0.0
 10
98.3478920898
 20
614.1382980772
 30
0.0
 10
98.4048826522
 20
614.3224823351
 30
0.0
 10
98.4571517046
 20
614.7623441196
 30
0.0
 10
98.4580401761
 20
615.37438722
 30
0.0
 10
98.4572014539
 20
615.9865197279
 30
0.0
 10
98.4051821257
 20
616.4267477152
 30
0.0
 10
98.3483922677
 20
616.6112011094
 30
0.0
 10
98.3074633832
 20
616.6856364168
 30
0.0
  0
LINE
  5
317
330
1B
100
AcDbEntity
 67
     1
  8
7_ALL_FEATURES
  6
Continuous
 62
     7
100
AcDbLine
 10
98.4626820161
 20
611.7753960484
 30
0.0
 11
98.4626820161
 21
611.8753960484
 31
0.0
  0
LINE
  5
318
330
1B
100
AcDbEntity
 67
     1
  8
7_ALL_FEATURES
  6
Continuous
 62
     7
100
AcDbLine
 10
99.4626820161
 20
745.1253960484
 30
0.0
 11
40.4626820161
 21
745.1253960484
 31
0.0
  0
ARC
  5
319
330
1B
100
AcDbEntity
 67
     1
  8
7_ALL_FEATURES
  6
Continuous
 62
     7
100
AcDbCircle
 10
99.4626820161
 20
744.6253960484
 30
0.0
 40
0.5
100
AcDbArc
 50
0.0
 51
90.0
  0
LINE
  5
31A
330
1B
100
AcDbEntity
 67
     1
  8
7_ALL_FEATURES
  6
Continuous
 62
     7
100
AcDbLine
 10
99.9626820161
 20
733.6253960484
 30
0.0
 11
99.9626820161
 21
744.6253960484
 31
0.0
  0
ARC
  5
31B
330
1B
100
AcDbEntity
 67
     1
  8
7_ALL_FEATURES
  6
Continuous
 62
     7
100
AcDbCircle
 10
99.4626820161
 20
733.6253960484
 30
0.0
 40
0.5
100
AcDbArc
 50
270.0
 51
360.0
  0
LINE
  5
31C
330
1B
100
AcDbEntity
 67
     1
  8
7_ALL_FEATURES
  6
Continuous
 62
     7
100
AcDbLine
 10
97.4626820161
 20
733.1253960484
 30
0.0
 11
99.4626820161
 21
733.1253960484
 31
0.0
  0
ARC
  5
31D
330
1B
100
AcDbEntity
 67
     1
  8
7_ALL_FEATURES
  6
Continuous
 62
     7
100
AcDbCircle
 10
97.4626820161
 20
732.6253960484
 30
0.0
 40
0.5
100
AcDbArc
 50
90.0
 51
180.0
  0
LINE
  5
31E
330
1B
100
AcDbEntity
 67
     1
  8
7_ALL_FEATURES
  6
Continuous
 62
     7
100
AcDbLine
 10
96.9626820161
 20
730.8753960484
 30
0.0
 11
96.9626820161
 21
732.6253960484
 31
0.0
  0
LINE
  5
31F
330
1B
100
AcDbEntity
 67
     1
  8
7_ALL_FEATURES
  6
Continuous
 62
     7
100
AcDbLine
 10
96.9626820161
 20
722.1253960484
 30
0.0
 11
96.9626820161
 21
723.8753960484
 31
0.0
  0
ARC
  5
320
330
1B
100
AcDbEntity
 67
     1
  8
7_ALL_FEATURES
  6
Continuous
 62
     7
100
AcDbCircle
 10
97.4626820161
 20
722.1253960484
 30
0.0
 40
0.5
100
AcDbArc
 50
180.0
 51
270.0
  0
LINE
  5
321
330
1B
100
AcDbEntity
 67
     1
  8
7_ALL_FEATURES
  6
Continuous
 62
     7
100
AcDbLine
 10
99.4626820161
 20
721.6253960484
 30
0.0
 11
97.4626820161
 21
721.6253960484
 31
0.0
  0
ARC
  5
322
330
1B
100
AcDbEntity
 67
     1
  8
7_ALL_FEATURES
  6
Continuous
 62
     7
100
AcDbCircle
 10
99.4626820161
 20
721.1253960484
 30
0.0
 40
0.5
100
AcDbArc
 50
0.0
 51
90.0
  0
LINE
  5
323
330
1B
100
AcDbEntity
 67
     1
  8
7_ALL_FEATURES
  6
Continuous
 62
     7
100
AcDbLine
 10
99.9626820161
 20
621.6253960484
 30
0.0
 11
99.9626820161
 21
721.1253960484
 31
0.0
  0
ARC
  5
324
330
1B
100
AcDbEntity
 67
     1
  8
7_ALL_FEATURES
  6
Continuous
 62
     7
100
AcDbCircle
 10
99.4626820161
 20
621.6253960484
 30
0.0
 40
0.5
100
AcDbArc
 50
270.0
 51
360.0
  0
LINE
  5
325
330
1B
100
AcDbEntity
 67
     1
  8
7_ALL_FEATURES
  6
Continuous
 62
     7
100
AcDbLine
 10
97.4626820161
 20
621.1253960484
 30
0.0
 11
99.4626820161
 21
621.1253960484
 31
0.0
  0
ARC
  5
326
330
1B
100
AcDbEntity
 67
     1
  8
7_ALL_FEATURES
  6
Continuous
 62
     7
100
AcDbCircle
 10
97.4626820161
 20
620.6253960484
 30
0.0
 40
0.5
100
AcDbArc
 50
90.0
 51
180.0
  0
LINE
  5
327
330
1B
100
AcDbEntity
 67
     1
  8
7_ALL_FEATURES
  6
Continuous
 62
     7
100
AcDbLine
 10
96.9626820161
 20
618.8753960484
 30
0.0
 11
96.9626820161
 21
620.6253960484
 31
0.0
  0
LINE
  5
328
330
1B
100
AcDbEntity
 67
     1
  8
7_ALL_FEATURES
  6
Continuous
 62
     7
100
AcDbLine
 10
96.9626820161
 20
610.1253960484
 30
0.0
 11
96.9626820161
 21
611.8753960484
 31
0.0
  0
ARC
  5
329
330
1B
100
AcDbEntity
 67
     1
  8
7_ALL_FEATURES
  6
Continuous
 62
     7
100
AcDbCircle
 10
97.4626820161
 20
610.1253960484
 30
0.0
 40
0.5
100
AcDbArc
 50
180.0
 51
270.0
  0
LINE
  5
32A
330
1B
100
AcDbEntity
 67
     1
  8
7_ALL_FEATURES
  6
Continuous
 62
     7
100
AcDbLine
 10
99.4626820161
 20
609.6253960484
 30
0.0
 11
97.4626820161
 21
609.6253960484
 31
0.0
  0
ARC
  5
32B
330
1B
100
AcDbEntity
 67
     1
  8
7_ALL_FEATURES
  6
Continuous
 62
     7
100
AcDbCircle
 10
99.4626820161
 20
609.1253960484
 30
0.0
 40
0.5
100
AcDbArc
 50
0.0
 51
90.0
  0
LINE
  5
32C
330
1B
100
AcDbEntity
 67
     1
  8
7_ALL_FEATURES
  6
Continuous
 62
     7
100
AcDbLine
 10
99.9626820161
 20
597.1253960484
 30
0.0
 11
99.9626820161
 21
609.1253960484
 31
0.0
  0
ARC
  5
32D
330
1B
100
AcDbEntity
 67
     1
  8
7_ALL_FEATURES
  6
Continuous
 62
     7
100
AcDbCircle
 10
97.9626820161
 20
597.1253960484
 30
0.0
 40
2.0
100
AcDbArc
 50
270.0
 51
360.0
  0
LINE
  5
32E
330
1B
100
AcDbEntity
 67
     1
  8
7_ALL_FEATURES
  6
Continuous
 62
     7
100
AcDbLine
 10
41.9626820161
 20
595.1253960484
 30
0.0
 11
97.9626820161
 21
595.1253960484
 31
0.0
  0
ARC
  5
32F
330
1B
100
AcDbEntity
 67
     1
  8
7_ALL_FEATURES
  6
Continuous
 62
     7
100
AcDbCircle
 10
41.9626820161
 20
597.1253960484
 30
0.0
 40
2.0
100
AcDbArc
 50
180.0
 51
270.0
  0
LINE
  5
330
330
1B
100
AcDbEntity
 67
     1
  8
7_ALL_FEATURES
  6
Continuous
 62
     7
100
AcDbLine
 10
39.9626820161
 20
609.1253960484
 30
0.0
 11
39.9626820161
 21
597.1253960484
 31
0.0
  0
ARC
  5
331
330
1B
100
AcDbEntity
 67
     1
  8
7_ALL_FEATURES
  6
Continuous
 62
     7
100
AcDbCircle
 10
40.4626820161
 20
609.1253960484
 30
0.0
 40
0.5
100
AcDbArc
 50
90.0
 51
180.0
  0
LINE
  5
332
330
1B
100
AcDbEntity
 67
     1
  8
7_ALL_FEATURES
  6
Continuous
 62
     7
100
AcDbLine
 10
42.4626820161
 20
609.6253960484
 30
0.0
 11
40.4626820161
 21
609.6253960484
 31
0.0
  0
ARC
  5
333
330
1B
100
AcDbEntity
 67
     1
  8
7_ALL_FEATURES
  6
Continuous
 62
     7
100
AcDbCircle
 10
42.4626820161
 20
610.1253960484
 30
0.0
 40
0.5
100
AcDbArc
 50
270.0
 51
360.0
  0
LINE
  5
334
330
1B
100
AcDbEntity
 67
     1
  8
7_ALL_FEATURES
  6
Continuous
 62
     7
100
AcDbLine
 10
42.9626820161
 20
611.8753960484
 30
0.0
 11
42.9626820161
 21
610.1253960484
 31
0.0
  0
LINE
  5
335
330
1B
100
AcDbEntity
 67
     1
  8
7_ALL_FEATURES
  6
Continuous
 62
     7
100
AcDbLine
 10
42.9626820161
 20
620.6253960484
 30
0.0
 11
42.9626820161
 21
618.8753960484
 31
0.0
  0
ARC
  5
336
330
1B
100
AcDbEntity
 67
     1
  8
7_ALL_FEATURES
  6
Continuous
 62
     7
100
AcDbCircle
 10
42.4626820161
 20
620.6253960484
 30
0.0
 40
0.5
100
AcDbArc
 50
0.0
 51
90.0
  0
LINE
  5
337
330
1B
100
AcDbEntity
 67
     1
  8
7_ALL_FEATURES
  6
Continuous
 62
     7
100
AcDbLine
 10
40.4626820161
 20
621.1253960484
 30
0.0
 11
42.4626820161
 21
621.1253960484
 31
0.0
  0
ARC
  5
338
330
1B
100
AcDbEntity
 67
     1
  8
7_ALL_FEATURES
  6
Continuous
 62
     7
100
AcDbCircle
 10
40.4626820161
 20
621.6253960484
 30
0.0
 40
0.5
100
AcDbArc
 50
180.0
 51
270.0
  0
LINE
  5
339
330
1B
100
AcDbEntity
 67
     1
  8
7_ALL_FEATURES
  6
Continuous
 62
     7
100
AcDbLine
 10
39.9626820161
 20
721.1253960484
 30
0.0
 11
39.9626820161
 21
621.6253960484
 31
0.0
  0
ARC
  5
33A
330
1B
100
AcDbEntity
 67
     1
  8
7_ALL_FEATURES
  6
Continuous
 62
     7
100
AcDbCircle
 10
40.4626820161
 20
721.1253960484
 30
0.0
 40
0.5
100
AcDbArc
 50
90.0
 51
180.0
  0
LINE
  5
33B
330
1B
100
AcDbEntity
 67
     1
  8
7_ALL_FEATURES
  6
Continuous
 62
     7
100
AcDbLine
 10
42.4626820161
 20
721.6253960484
 30
0.0
 11
40.4626820161
 21
721.6253960484
 31
0.0
  0
ARC
  5
33C
330
1B
100
AcDbEntity
 67
     1
  8
7_ALL_FEATURES
  6
Continuous
 62
     7
100
AcDbCircle
 10
42.4626820161
 20
722.1253960484
 30
0.0
 40
0.5
100
AcDbArc
 50
270.0
 51
360.0
  0
LINE
  5
33D
330
1B
100
AcDbEntity
 67
     1
  8
7_ALL_FEATURES
  6
Continuous
 62
     7
100
AcDbLine
 10
42.9626820161
 20
723.8753960484
 30
0.0
 11
42.9626820161
 21
722.1253960484
 31
0.0
  0
LINE
  5
33E
330
1B
100
AcDbEntity
 67
     1
  8
7_ALL_FEATURES
  6
Continuous
 62
     7
100
AcDbLine
 10
42.9626820161
 20
732.6253960484
 30
0.0
 11
42.9626820161
 21
730.8753960484
 31
0.0
  0
ARC
  5
33F
330
1B
100
AcDbEntity
 67
     1
  8
7_ALL_FEATURES
  6
Continuous
 62
     7
100
AcDbCircle
 10
42.4626820161
 20
732.6253960484
 30
0.0
 40
0.5
100
AcDbArc
 50
0.0
 51
90.0
  0
LINE
  5
340
330
1B
100
AcDbEntity
 67
     1
  8
7_ALL_FEATURES
  6
Continuous
 62
     7
100
AcDbLine
 10
40.4626820161
 20
733.1253960484
 30
0.0
 11
42.4626820161
 21
733.1253960484
 31
0.0
  0
ARC
  5
341
330
1B
100
AcDbEntity
 67
     1
  8
7_ALL_FEATURES
  6
Continuous
 62
     7
100
AcDbCircle
 10
40.4626820161
 20
733.6253960484
 30
0.0
 40
0.5
100
AcDbArc
 50
180.0
 51
270.0
  0
LINE
  5
342
330
1B
100
AcDbEntity
 67
     1
  8
7_ALL_FEATURES
  6
Continuous
 62
     7
100
AcDbLine
 10
39.9626820161
 20
744.6253960484
 30
0.0
 11
39.9626820161
 21
733.6253960484
 31
0.0
  0
ARC
  5
343
330
1B
100
AcDbEntity
 67
     1
  8
7_ALL_FEATURES
  6
Continuous
 62
     7
100
AcDbCircle
 10
40.4626820161
 20
744.6253960484
 30
0.0
 40
0.5
100
AcDbArc
 50
90.0
 51
180.0
  0
ARC
  5
344
330
1B
100
AcDbEntity
 67
     1
  8
02___PRT_ALL_AXES
  6
Continuous
 62
     7
100
AcDbCircle
 10
69.9626820161
 20
620.3959083482
 30
0.0
 40
15.5
100
AcDbArc
 50
1.0
 51
179.0
  0
LINE
  5
345
330
1B
100
AcDbEntity
 67
     1
  8
02___PRT_ALL_AXES
  6
Continuous
 62
     7
100
AcDbLine
 10
86.4601689862
 20
620.6838730544
 30
0.0
 11
85.4603212911
 21
620.6664206479
 31
0.0
  0
ARC
  5
346
330
1B
100
AcDbEntity
 67
     1
  8
02___PRT_ALL_AXES
  6
Continuous
 62
     7
100
AcDbCircle
 10
69.9626820161
 20
620.3959083482
 30
0.0
 40
16.5
100
AcDbArc
 50
1.0
 51
179.0
  0
LINE
  5
347
330
1B
100
AcDbEntity
 67
     1
  8
02___PRT_ALL_AXES
  6
Continuous
 62
     7
100
AcDbLine
 10
54.4650427412
 20
620.6664206479
 30
0.0
 11
53.465195046
 21
620.6838730544
 31
0.0
  0
LINE
  5
348
330
1B
100
AcDbEntity
 67
     1
  8
02___PRT_ALL_AXES
  6
Continuous
 62
     7
100
AcDbLine
 10
85.4603212911
 20
620.1253960484
 30
0.0
 11
86.4601689862
 21
620.1079436419
 31
0.0
  0
ARC
  5
349
330
1B
100
AcDbEntity
 67
     1
  8
02___PRT_ALL_AXES
  6
Continuous
 62
     7
100
AcDbCircle
 10
69.9626820161
 20
620.3959083482
 30
0.0
 40
15.5
100
AcDbArc
 50
181.0
 51
358.9999999999999
  0
LINE
  5
34A
330
1B
100
AcDbEntity
 67
     1
  8
02___PRT_ALL_AXES
  6
Continuous
 62
     7
100
AcDbLine
 10
53.465195046
 20
620.1079436419
 30
0.0
 11
54.4650427412
 21
620.1253960484
 31
0.0
  0
ARC
  5
34B
330
1B
100
AcDbEntity
 67
     1
  8
02___PRT_ALL_AXES
  6
Continuous
 62
     7
100
AcDbCircle
 10
69.9626820161
 20
620.3959083482
 30
0.0
 40
16.5
100
AcDbArc
 50
181.0
 51
358.9999999999999
  0
LINE
  5
34C
330
1B
100
AcDbEntity
 67
     1
  8
7_ALL_FEATURES
  6
Continuous
 62
     7
100
AcDbLine
 10
96.9626820161
 20
618.8753960484
 30
0.0
 11
98.4626820161
 21
618.8753960484
 31
0.0
  0
LINE
  5
34D
330
1B
100
AcDbEntity
 67
     1
  8
7_ALL_FEATURES
  6
Continuous
 62
     7
100
AcDbLine
 10
98.4626820161
 20
618.8753960484
 30
0.0
 11
99.0839541727
 21
618.8753960484
 31
0.0
  0
LINE
  5
34E
330
1B
100
AcDbEntity
 67
     1
  8
7_ALL_FEATURES
  6
Continuous
 62
     7
100
AcDbLine
 10
99.0839541727
 20
618.8753960484
 30
0.0
 11
99.9626820161
 21
618.8753960484
 31
0.0
  0
SPLINE
  5
34F
330
1B
100
AcDbEntity
 67
     1
  8
7_ALL_FEATURES
  6
Continuous
 62
     7
100
AcDbSpline
 70
     0
 71
     3
 72
     9
 73
     5
 74
     0
 42
0.000000001
 43
0.0000001
 40
0.0
 40
0.0
 40
0.0
 40
0.0
 40
0.2291976521
 40
1.0
 40
1.0
 40
1.0
 40
1.0
 10
99.0840023597
 20
728.8753960484
 30
0.0
 10
99.0356609623
 20
728.8753960484
 30
0.0
 10
98.8247727574
 20
728.8633631721
 30
0.0
 10
98.617490541
 20
728.8106489404
 30
0.0
 10
98.4645344511
 20
728.7555593902
 30
0.0
  0
ARC
  5
350
330
1B
100
AcDbEntity
 67
     1
  8
7_ALL_FEATURES
  6
Continuous
 62
     7
100
AcDbCircle
 10
99.2946714145
 20
726.4530164949
 30
0.0
 40
2.4476174461
100
AcDbArc
 50
109.825780408
 51
113.8364417194
  0
SPLINE
  5
351
330
1B
100
AcDbEntity
 67
     1
  8
7_ALL_FEATURES
  6
Continuous
 62
     7
100
AcDbSpline
 70
     0
 71
     3
 72
    15
 73
    11
 74
     0
 42
0.000000001
 43
0.0000001
 40
0.0
 40
0.0
 40
0.0
 40
0.0
 40
0.1201589812
 40
0.2453379035
 40
0.3726188035
 40
0.5001056329
 40
0.6275082984
 40
0.7547064437
 40
0.8798533234
 40
1.0
 40
1.0
 40
1.0
 40
1.0
 10
98.3055227403
 20
728.691859067
 30
0.0
 10
98.1736028809
 20
728.6336227301
 30
0.0
 10
97.9136634005
 20
728.4917751692
 30
0.0
 10
97.5651227912
 20
728.2068418826
 30
0.0
 10
97.2883236255
 20
727.8361039422
 30
0.0
 10
97.1670545563
 20
727.3754915816
 30
0.0
 10
97.288319559
 20
726.9150263574
 30
0.0
 10
97.564788903
 20
726.5443618845
 30
0.0
 10
97.9131061482
 20
726.2593846424
 30
0.0
 10
98.172962765
 20
726.117495381
 30
0.0
 10
98.3048545278
 20
726.059231974
 30
0.0
  0
ARC
  5
352
330
1B
100
AcDbEntity
 67
     1
  8
7_ALL_FEATURES
  6
Continuous
 62
     7
100
AcDbCircle
 10
99.2955982027
 20
728.3001207133
 30
0.0
 40
2.4501337456
100
AcDbArc
 50
246.1487781793
 51
250.1713481899
  0
SPLINE
  5
353
330
1B
100
AcDbEntity
 67
     1
  8
7_ALL_FEATURES
  6
Continuous
 62
     7
100
AcDbSpline
 70
     0
 71
     3
 72
     9
 73
     5
 74
     0
 42
0.000000001
 43
0.0000001
 40
0.0
 40
0.0
 40
0.0
 40
0.0
 40
0.2703053213
 40
1.0
 40
1.0
 40
1.0
 40
1.0
 10
98.4644922976
 20
725.9952523123
 30
0.0
 10
98.518119229
 20
725.9759351572
 30
0.0
 10
98.7188397901
 20
725.9117782874
 30
0.0
 10
98.9301297017
 20
725.8753960484
 30
0.0
 10
99.0840023597
 20
725.8753960484
 30
0.0
  0
LINE
  5
354
330
1B
100
AcDbEntity
 67
     1
  8
7_ALL_FEATURES
  6
Continuous
 62
     7
100
AcDbLine
 10
99.9626820161
 20
724.9253960484
 30
0.0
 11
99.9626820161
 21
729.8253960484
 31
0.0
  0
LINE
  5
355
330
1B
100
AcDbEntity
 67
     1
  8
7_ALL_FEATURES
  6
Continuous
 62
     7
100
AcDbLine
 10
96.9626820161
 20
730.8753960484
 30
0.0
 11
98.4626820161
 21
730.8753960484
 31
0.0
  0
LINE
  5
356
330
1B
100
AcDbEntity
 67
     1
  8
7_ALL_FEATURES
  6
Continuous
 62
     7
100
AcDbLine
 10
98.4626820161
 20
730.8753960484
 30
0.0
 11
99.0839541727
 21
730.8753960484
 31
0.0
  0
LINE
  5
357
330
1B
100
AcDbEntity
 67
     1
  8
7_ALL_FEATURES
  6
Continuous
 62
     7
100
AcDbLine
 10
99.0839541727
 20
730.8753960484
 30
0.0
 11
99.9626820161
 21
730.8753960484
 31
0.0
  0
SPLINE
  5
358
330
1B
100
AcDbEntity
 67
     1
  8
7_ALL_FEATURES
  6
Continuous
 62
     7
100
AcDbSpline
 70
     0
 71
     3
 72
    13
 73
     9
 74
     0
 42
0.000000001
 43
0.0000001
 40
0.0
 40
0.0
 40
0.0
 40
0.0
 40
0.0957628996
 40
0.2141149816
 40
0.4998099785
 40
0.7856384736
 40
0.9041087766
 40
1.0
 40
1.0
 40
1.0
 40
1.0
 10
98.3068550502
 20
726.0640522004
 30
0.0
 10
98.3478920898
 20
726.1382980772
 30
0.0
 10
98.4048826522
 20
726.3224823351
 30
0.0
 10
98.4571517046
 20
726.7623441196
 30
0.0
 10
98.4580401761
 20
727.37438722
 30
0.0
 10
98.4572014539
 20
727.9865197279
 30
0.0
 10
98.4051821257
 20
728.4267477152
 30
0.0
 10
98.3483922677
 20
728.6112011094
 30
0.0
 10
98.3074633832
 20
728.6856364168
 30
0.0
  0
LINE
  5
359
330
1B
100
AcDbEntity
 67
     1
  8
7_ALL_FEATURES
  6
Continuous
 62
     7
100
AcDbLine
 10
99.9626820161
 20
723.8753960484
 30
0.0
 11
99.0840293758
 21
723.8753960484
 31
0.0
  0
LINE
  5
35A
330
1B
100
AcDbEntity
 67
     1
  8
7_ALL_FEATURES
  6
Continuous
 62
     7
100
AcDbLine
 10
99.0840293758
 20
723.8753960484
 30
0.0
 11
98.4642505446
 21
723.8753960484
 31
0.0
  0
LINE
  5
35B
330
1B
100
AcDbEntity
 67
     1
  8
7_ALL_FEATURES
  6
Continuous
 62
     7
100
AcDbLine
 10
98.4642505446
 20
723.8753960484
 30
0.0
 11
96.9626820161
 21
723.8753960484
 31
0.0
  0
LINE
  5
35C
330
1B
100
AcDbEntity
 67
     1
  8
7_ALL_FEATURES
  6
Continuous
 62
     7
100
AcDbLine
 10
98.4626820161
 20
723.7753960484
 30
0.0
 11
98.4626820161
 21
723.8753960484
 31
0.0
  0
SPLINE
  5
35D
330
1B
100
AcDbEntity
 67
     1
  8
7_ALL_FEATURES
  6
Continuous
 62
     7
100
AcDbSpline
 70
     0
 71
     3
 72
    17
 73
    13
 74
     0
 42
0.000000001
 43
0.0000001
 40
0.0
 40
0.0
 40
0.0
 40
0.0
 40
0.1116976753
 40
0.1614169109
 40
0.212137418
 40
0.3345426981
 40
0.5001133517
 40
0.6655311251
 40
0.787888168
 40
0.8385986494
 40
0.8883106535
 40
1.0
 40
1.0
 40
1.0
 40
1.0
 10
40.8413616726
 20
728.8753960484
 30
0.0
 10
40.6935213036
 20
728.8753960484
 30
0.0
 10
40.4711018431
 20
728.8375635953
 30
0.0
 10
40.2406334222
 20
728.6695898348
 30
0.0
 10
40.0668041806
 20
728.4252854369
 30
0.0
 10
39.9766381735
 20
727.9734058738
 30
0.0
 10
39.9703723629
 20
727.3751445504
 30
0.0
 10
39.9767129722
 20
726.7769543385
 30
0.0
 10
40.0668542813
 20
726.3253527715
 30
0.0
 10
40.2406860779
 20
726.0811582388
 30
0.0
 10
40.4711357486
 20
725.9132240796
 30
0.0
 10
40.6935323273
 20
725.8753960484
 30
0.0
 10
40.8413616726
 20
725.8753960484
 30
0.0
  0
LINE
  5
35E
330
1B
100
AcDbEntity
 67
     1
  8
7_ALL_FEATURES
  6
Continuous
 62
     9
100
AcDbLine
 10
42.9626820161
 20
611.8753960484
 30
0.0
 11
42.9626820161
 21
618.8753960484
 31
0.0
  0
LINE
  5
35F
330
1B
100
AcDbEntity
 67
     1
  8
7_ALL_FEATURES
  6
Continuous
 62
     9
100
AcDbLine
 10
98.4626820161
 20
723.7753960484
 30
0.0
 11
99.7626820161
 21
723.7753960484
 31
0.0
  0
LINE
  5
360
330
1B
100
AcDbEntity
 67
     1
  8
7_ALL_FEATURES
  6
Continuous
 62
     9
100
AcDbLine
 10
99.7626820161
 20
723.7753960484
 30
0.0
 11
99.9626820161
 21
723.7753960484
 31
0.0
  0
LINE
  5
361
330
1B
100
AcDbEntity
 67
     1
  8
7_ALL_FEATURES
  6
Continuous
 62
     9
100
AcDbLine
 10
98.4626820161
 20
611.7753960484
 30
0.0
 11
99.7626820161
 21
611.7753960484
 31
0.0
  0
LINE
  5
362
330
1B
100
AcDbEntity
 67
     1
  8
7_ALL_FEATURES
  6
Continuous
 62
     9
100
AcDbLine
 10
99.7626820161
 20
611.7753960484
 30
0.0
 11
99.9626820161
 21
611.7753960484
 31
0.0
  0
LINE
  5
363
330
1B
100
AcDbEntity
 67
     1
  8
7_ALL_FEATURES
  6
Continuous
 62
     9
100
AcDbLine
 10
41.4626820161
 20
618.9753960484
 30
0.0
 11
40.1626820161
 21
618.9753960484
 31
0.0
  0
LINE
  5
364
330
1B
100
AcDbEntity
 67
     1
  8
7_ALL_FEATURES
  6
Continuous
 62
     9
100
AcDbLine
 10
40.1626820161
 20
618.9753960484
 30
0.0
 11
39.9626820161
 21
618.9753960484
 31
0.0
  0
LINE
  5
365
330
1B
100
AcDbEntity
 67
     1
  8
7_ALL_FEATURES
  6
Continuous
 62
     9
100
AcDbLine
 10
96.9626820161
 20
618.8753960484
 30
0.0
 11
96.9626820161
 21
611.8753960484
 31
0.0
  0
SPLINE
  5
366
330
1B
100
AcDbEntity
 67
     1
  8
7_ALL_FEATURES
  6
Continuous
 62
     7
100
AcDbSpline
 70
     0
 71
     3
 72
    17
 73
    13
 74
     0
 42
0.000000001
 43
0.0000001
 40
0.0
 40
0.0
 40
0.0
 40
0.0
 40
0.1116976753
 40
0.1614169109
 40
0.212137418
 40
0.3345426981
 40
0.5001133517
 40
0.6655311251
 40
0.787888168
 40
0.8385986494
 40
0.8883106535
 40
1.0
 40
1.0
 40
1.0
 40
1.0
 10
99.0840023597
 20
613.8753960484
 30
0.0
 10
99.2318427287
 20
613.8753960484
 30
0.0
 10
99.4542621891
 20
613.9132285015
 30
0.0
 10
99.68473061
 20
614.0812022619
 30
0.0
 10
99.8585598516
 20
614.3255066599
 30
0.0
 10
99.9487258588
 20
614.777386223
 30
0.0
 10
99.9549916694
 20
615.3756475464
 30
0.0
 10
99.9486510601
 20
615.9738377583
 30
0.0
 10
99.858509751
 20
616.4254393253
 30
0.0
 10
99.6846779543
 20
616.669633858
 30
0.0
 10
99.4542282836
 20
616.8375680171
 30
0.0
 10
99.2318317049
 20
616.8753960484
 30
0.0
 10
99.0840023597
 20
616.8753960484
 30
0.0
  0
LINE
  5
367
330
1B
100
AcDbEntity
 67
     1
  8
7_ALL_FEATURES
  6
Continuous
 62
     9
100
AcDbLine
 10
99.9626820161
 20
730.9753960484
 30
0.0
 11
99.7626820161
 21
730.9753960484
 31
0.0
  0
LINE
  5
368
330
1B
100
AcDbEntity
 67
     1
  8
7_ALL_FEATURES
  6
Continuous
 62
     9
100
AcDbLine
 10
99.7626820161
 20
730.9753960484
 30
0.0
 11
98.4626820161
 21
730.9753960484
 31
0.0
  0
SPLINE
  5
369
330
1B
100
AcDbEntity
 67
     1
  8
7_ALL_FEATURES
  6
Continuous
 62
     7
100
AcDbSpline
 70
     0
 71
     3
 72
    17
 73
    13
 74
     0
 42
0.000000001
 43
0.0000001
 40
0.0
 40
0.0
 40
0.0
 40
0.0
 40
0.1116976753
 40
0.1614169109
 40
0.212137418
 40
0.3345426981
 40
0.5001133517
 40
0.6655311251
 40
0.787888168
 40
0.8385986494
 40
0.8883106535
 40
1.0
 40
1.0
 40
1.0
 40
1.0
 10
40.8413616726
 20
616.8753960484
 30
0.0
 10
40.6935213036
 20
616.8753960484
 30
0.0
 10
40.4711018431
 20
616.8375635953
 30
0.0
 10
40.2406334222
 20
616.6695898348
 30
0.0
 10
40.0668041806
 20
616.4252854369
 30
0.0
 10
39.9766381735
 20
615.9734058738
 30
0.0
 10
39.9703723629
 20
615.3751445504
 30
0.0
 10
39.9767129722
 20
614.7769543385
 30
0.0
 10
40.0668542813
 20
614.3253527715
 30
0.0
 10
40.2406860779
 20
614.0811582388
 30
0.0
 10
40.4711357487
 20
613.9132240796
 30
0.0
 10
40.6935323273
 20
613.8753960484
 30
0.0
 10
40.8413616726
 20
613.8753960484
 30
0.0
  0
LINE
  5
36A
330
1B
100
AcDbEntity
 67
     1
  8
7_ALL_FEATURES
  6
Continuous
 62
     9
100
AcDbLine
 10
96.9626820161
 20
730.8753960484
 30
0.0
 11
96.9626820161
 21
723.8753960484
 31
0.0
  0
LINE
  5
36B
330
1B
100
AcDbEntity
 67
     1
  8
7_ALL_FEATURES
  6
Continuous
 62
     9
100
AcDbLine
 10
99.9626820161
 20
618.9753960484
 30
0.0
 11
99.7626820161
 21
618.9753960484
 31
0.0
  0
LINE
  5
36C
330
1B
100
AcDbEntity
 67
     1
  8
7_ALL_FEATURES
  6
Continuous
 62
     9
100
AcDbLine
 10
99.7626820161
 20
618.9753960484
 30
0.0
 11
98.4626820161
 21
618.9753960484
 31
0.0
  0
LINE
  5
36D
330
1B
100
AcDbEntity
 67
     1
  8
7_ALL_FEATURES
  6
Continuous
 62
     9
100
AcDbLine
 10
39.9626820161
 20
611.7753960484
 30
0.0
 11
40.1626820161
 21
611.7753960484
 31
0.0
  0
LINE
  5
36E
330
1B
100
AcDbEntity
 67
     1
  8
7_ALL_FEATURES
  6
Continuous
 62
     9
100
AcDbLine
 10
40.1626820161
 20
611.7753960484
 30
0.0
 11
41.4626820161
 21
611.7753960484
 31
0.0
  0
LINE
  5
36F
330
1B
100
AcDbEntity
 67
     1
  8
7_ALL_FEATURES
  6
Continuous
 62
     9
100
AcDbLine
 10
39.9626820161
 20
723.7753960484
 30
0.0
 11
40.1626820161
 21
723.7753960484
 31
0.0
  0
LINE
  5
370
330
1B
100
AcDbEntity
 67
     1
  8
7_ALL_FEATURES
  6
Continuous
 62
     9
100
AcDbLine
 10
40.1626820161
 20
723.7753960484
 30
0.0
 11
41.4626820161
 21
723.7753960484
 31
0.0
  0
SPLINE
  5
371
330
1B
100
AcDbEntity
 67
     1
  8
7_ALL_FEATURES
  6
Continuous
 62
     7
100
AcDbSpline
 70
     0
 71
     3
 72
    17
 73
    13
 74
     0
 42
0.000000001
 43
0.0000001
 40
0.0
 40
0.0
 40
0.0
 40
0.0
 40
0.1116976753
 40
0.1614169109
 40
0.212137418
 40
0.3345426981
 40
0.5001133517
 40
0.6655311251
 40
0.787888168
 40
0.8385986494
 40
0.8883106535
 40
1.0
 40
1.0
 40
1.0
 40
1.0
 10
99.0840023597
 20
725.8753960484
 30
0.0
 10
99.2318427287
 20
725.8753960484
 30
0.0
 10
99.4542621892
 20
725.9132285015
 30
0.0
 10
99.68473061
 20
726.0812022619
 30
0.0
 10
99.8585598516
 20
726.3255066599
 30
0.0
 10
99.9487258588
 20
726.777386223
 30
0.0
 10
99.9549916694
 20
727.3756475464
 30
0.0
 10
99.9486510601
 20
727.9738377583
 30
0.0
 10
99.858509751
 20
728.4254393253
 30
0.0
 10
99.6846779543
 20
728.669633858
 30
0.0
 10
99.4542282836
 20
728.8375680171
 30
0.0
 10
99.2318317049
 20
728.8753960484
 30
0.0
 10
99.0840023597
 20
728.8753960484
 30
0.0
  0
LINE
  5
372
330
1B
100
AcDbEntity
 67
     1
  8
7_ALL_FEATURES
  6
Continuous
 62
     9
100
AcDbLine
 10
42.9626820161
 20
723.8753960484
 30
0.0
 11
42.9626820161
 21
730.8753960484
 31
0.0
  0
LINE
  5
373
330
1B
100
AcDbEntity
 67
     1
  8
7_ALL_FEATURES
  6
Continuous
 62
     9
100
AcDbLine
 10
41.4626820161
 20
730.9753960484
 30
0.0
 11
40.1626820161
 21
730.9753960484
 31
0.0
  0
LINE
  5
374
330
1B
100
AcDbEntity
 67
     1
  8
7_ALL_FEATURES
  6
Continuous
 62
     9
100
AcDbLine
 10
40.1626820161
 20
730.9753960484
 30
0.0
 11
39.9626820161
 21
730.9753960484
 31
0.0
  0
LINE
  5
375
330
1B
100
AcDbEntity
 67
     1
  8
03__ASM_ALL_CURVES
  6
Continuous
 62
    40
100
AcDbLine
 10
39.9626820161
 20
595.1253960484
 30
0.0
 11
39.9626820161
 21
596.1253960484
 31
0.0
  0
LINE
  5
376
330
1B
100
AcDbEntity
 67
     1
  8
03__ASM_ALL_CURVES
  6
Continuous
 62
    40
100
AcDbLine
 10
39.9626820161
 20
596.1253960484
 30
0.0
 11
39.9626820161
 21
595.1253960484
 31
0.0
  0
LINE
  5
377
330
1B
100
AcDbEntity
 67
     1
  8
03__ASM_ALL_CURVES
  6
Continuous
 62
    40
100
AcDbLine
 10
39.9626820161
 20
597.1253960484
 30
0.0
 11
39.9626820161
 21
596.1253960484
 31
0.0
  0
LINE
  5
378
330
1B
100
AcDbEntity
 67
     1
  8
03__ASM_ALL_CURVES
  6
Continuous
 62
    40
100
AcDbLine
 10
39.9626820161
 20
609.1253960484
 30
0.0
 11
39.9626820161
 21
597.1253960484
 31
0.0
  0
LINE
  5
379
330
1B
100
AcDbEntity
 67
     1
  8
03__ASM_ALL_CURVES
  6
Continuous
 62
    40
100
AcDbLine
 10
39.9626820161
 20
609.4253960484
 30
0.0
 11
39.9626820161
 21
609.1253960484
 31
0.0
  0
LINE
  5
37A
330
1B
100
AcDbEntity
 67
     1
  8
03__ASM_ALL_CURVES
  6
Continuous
 62
    40
100
AcDbLine
 10
39.9626820161
 20
609.6253960484
 30
0.0
 11
39.9626820161
 21
609.4253960484
 31
0.0
  0
LINE
  5
37B
330
1B
100
AcDbEntity
 67
     1
  8
03__ASM_ALL_CURVES
  6
Continuous
 62
    40
100
AcDbLine
 10
39.9626820161
 20
611.6253960484
 30
0.0
 11
39.9626820161
 21
609.6253960484
 31
0.0
  0
LINE
  5
37C
330
1B
100
AcDbEntity
 67
     1
  8
03__ASM_ALL_CURVES
  6
Continuous
 62
    40
100
AcDbLine
 10
39.9626820161
 20
611.8253960484
 30
0.0
 11
39.9626820161
 21
611.6253960484
 31
0.0
  0
LINE
  5
37D
330
1B
100
AcDbEntity
 67
     1
  8
03__ASM_ALL_CURVES
  6
Continuous
 62
    40
100
AcDbLine
 10
39.9626820161
 20
612.9253960484
 30
0.0
 11
39.9626820161
 21
611.8253960484
 31
0.0
  0
LINE
  5
37E
330
1B
100
AcDbEntity
 67
     1
  8
03__ASM_ALL_CURVES
  6
Continuous
 62
    40
100
AcDbLine
 10
39.9626820161
 20
613.1253960484
 30
0.0
 11
39.9626820161
 21
612.9253960484
 31
0.0
  0
LINE
  5
37F
330
1B
100
AcDbEntity
 67
     1
  8
03__ASM_ALL_CURVES
  6
Continuous
 62
    40
100
AcDbLine
 10
39.9626820161
 20
617.6253960484
 30
0.0
 11
39.9626820161
 21
613.1253960484
 31
0.0
  0
LINE
  5
380
330
1B
100
AcDbEntity
 67
     1
  8
03__ASM_ALL_CURVES
  6
Continuous
 62
    40
100
AcDbLine
 10
39.9626820161
 20
617.8253960484
 30
0.0
 11
39.9626820161
 21
617.6253960484
 31
0.0
  0
LINE
  5
381
330
1B
100
AcDbEntity
 67
     1
  8
03__ASM_ALL_CURVES
  6
Continuous
 62
    40
100
AcDbLine
 10
39.9626820161
 20
618.9253960484
 30
0.0
 11
39.9626820161
 21
617.8253960484
 31
0.0
  0
LINE
  5
382
330
1B
100
AcDbEntity
 67
     1
  8
03__ASM_ALL_CURVES
  6
Continuous
 62
    40
100
AcDbLine
 10
39.9626820161
 20
619.1253960484
 30
0.0
 11
39.9626820161
 21
618.9253960484
 31
0.0
  0
LINE
  5
383
330
1B
100
AcDbEntity
 67
     1
  8
03__ASM_ALL_CURVES
  6
Continuous
 62
    40
100
AcDbLine
 10
39.9626820161
 20
621.1253960484
 30
0.0
 11
39.9626820161
 21
619.1253960484
 31
0.0
  0
LINE
  5
384
330
1B
100
AcDbEntity
 67
     1
  8
03__ASM_ALL_CURVES
  6
Continuous
 62
    40
100
AcDbLine
 10
39.9626820161
 20
621.3253960484
 30
0.0
 11
39.9626820161
 21
621.1253960484
 31
0.0
  0
LINE
  5
385
330
1B
100
AcDbEntity
 67
     1
  8
03__ASM_ALL_CURVES
  6
Continuous
 62
    40
100
AcDbLine
 10
39.9626820161
 20
621.6253960484
 30
0.0
 11
39.9626820161
 21
621.3253960484
 31
0.0
  0
LINE
  5
386
330
1B
100
AcDbEntity
 67
     1
  8
03__ASM_ALL_CURVES
  6
Continuous
 62
    40
100
AcDbLine
 10
39.9626820161
 20
721.1253960484
 30
0.0
 11
39.9626820161
 21
621.6253960484
 31
0.0
  0
LINE
  5
387
330
1B
100
AcDbEntity
 67
     1
  8
03__ASM_ALL_CURVES
  6
Continuous
 62
    40
100
AcDbLine
 10
39.9626820161
 20
721.4253960484
 30
0.0
 11
39.9626820161
 21
721.1253960484
 31
0.0
  0
LINE
  5
388
330
1B
100
AcDbEntity
 67
     1
  8
03__ASM_ALL_CURVES
  6
Continuous
 62
    40
100
AcDbLine
 10
39.9626820161
 20
721.6253960484
 30
0.0
 11
39.9626820161
 21
721.4253960484
 31
0.0
  0
LINE
  5
389
330
1B
100
AcDbEntity
 67
     1
  8
03__ASM_ALL_CURVES
  6
Continuous
 62
    40
100
AcDbLine
 10
39.9626820161
 20
723.6253960484
 30
0.0
 11
39.9626820161
 21
721.6253960484
 31
0.0
  0
LINE
  5
38A
330
1B
100
AcDbEntity
 67
     1
  8
03__ASM_ALL_CURVES
  6
Continuous
 62
    40
100
AcDbLine
 10
39.9626820161
 20
723.8253960484
 30
0.0
 11
39.9626820161
 21
723.6253960484
 31
0.0
  0
LINE
  5
38B
330
1B
100
AcDbEntity
 67
     1
  8
03__ASM_ALL_CURVES
  6
Continuous
 62
    40
100
AcDbLine
 10
39.9626820161
 20
724.9253960484
 30
0.0
 11
39.9626820161
 21
723.8253960484
 31
0.0
  0
LINE
  5
38C
330
1B
100
AcDbEntity
 67
     1
  8
03__ASM_ALL_CURVES
  6
Continuous
 62
    40
100
AcDbLine
 10
39.9626820161
 20
725.1253960484
 30
0.0
 11
39.9626820161
 21
724.9253960484
 31
0.0
  0
LINE
  5
38D
330
1B
100
AcDbEntity
 67
     1
  8
03__ASM_ALL_CURVES
  6
Continuous
 62
    40
100
AcDbLine
 10
39.9626820161
 20
729.6253960484
 30
0.0
 11
39.9626820161
 21
725.1253960484
 31
0.0
  0
LINE
  5
38E
330
1B
100
AcDbEntity
 67
     1
  8
03__ASM_ALL_CURVES
  6
Continuous
 62
    40
100
AcDbLine
 10
39.9626820161
 20
729.8253960484
 30
0.0
 11
39.9626820161
 21
729.6253960484
 31
0.0
  0
LINE
  5
38F
330
1B
100
AcDbEntity
 67
     1
  8
03__ASM_ALL_CURVES
  6
Continuous
 62
    40
100
AcDbLine
 10
39.9626820161
 20
730.9253960484
 30
0.0
 11
39.9626820161
 21
729.8253960484
 31
0.0
  0
LINE
  5
390
330
1B
100
AcDbEntity
 67
     1
  8
03__ASM_ALL_CURVES
  6
Continuous
 62
    40
100
AcDbLine
 10
39.9626820161
 20
731.1253960484
 30
0.0
 11
39.9626820161
 21
730.9253960484
 31
0.0
  0
LINE
  5
391
330
1B
100
AcDbEntity
 67
     1
  8
03__ASM_ALL_CURVES
  6
Continuous
 62
    40
100
AcDbLine
 10
39.9626820161
 20
733.1253960484
 30
0.0
 11
39.9626820161
 21
731.1253960484
 31
0.0
  0
LINE
  5
392
330
1B
100
AcDbEntity
 67
     1
  8
03__ASM_ALL_CURVES
  6
Continuous
 62
    40
100
AcDbLine
 10
39.9626820161
 20
733.3253960484
 30
0.0
 11
39.9626820161
 21
733.1253960484
 31
0.0
  0
LINE
  5
393
330
1B
100
AcDbEntity
 67
     1
  8
03__ASM_ALL_CURVES
  6
Continuous
 62
    40
100
AcDbLine
 10
39.9626820161
 20
733.6253960484
 30
0.0
 11
39.9626820161
 21
733.3253960484
 31
0.0
  0
LINE
  5
394
330
1B
100
AcDbEntity
 67
     1
  8
03__ASM_ALL_CURVES
  6
Continuous
 62
    40
100
AcDbLine
 10
39.9626820161
 20
744.6253960484
 30
0.0
 11
39.9626820161
 21
733.6253960484
 31
0.0
  0
LINE
  5
395
330
1B
100
AcDbEntity
 67
     1
  8
03__ASM_ALL_CURVES
  6
Continuous
 62
    40
100
AcDbLine
 10
39.9626820161
 20
744.9253960484
 30
0.0
 11
39.9626820161
 21
744.6253960484
 31
0.0
  0
LINE
  5
396
330
1B
100
AcDbEntity
 67
     1
  8
03__ASM_ALL_CURVES
  6
Continuous
 62
    40
100
AcDbLine
 10
39.9626820161
 20
745.1253960484
 30
0.0
 11
39.9626820161
 21
744.9253960484
 31
0.0
  0
LINE
  5
397
330
1B
100
AcDbEntity
 67
     1
  8
03__ASM_ALL_CURVES
  6
Continuous
 62
    40
100
AcDbLine
 10
99.9626820161
 20
595.1253960484
 30
0.0
 11
99.9626820161
 21
596.1253960484
 31
0.0
  0
LINE
  5
398
330
1B
100
AcDbEntity
 67
     1
  8
03__ASM_ALL_CURVES
  6
Continuous
 62
    40
100
AcDbLine
 10
39.9626820161
 20
595.1253960484
 30
0.0
 11
40.9626820161
 21
595.1253960484
 31
0.0
  0
LINE
  5
399
330
1B
100
AcDbEntity
 67
     1
  8
02___PRT_ALL_AXES
  6
Continuous
 62
     7
100
AcDbLine
 10
99.7626820161
 20
745.1253960484
 30
0.0
 11
99.4626820161
 21
745.1253960484
 31
0.0
  0
ARC
  5
39A
330
1B
100
AcDbEntity
 67
     1
  8
02___PRT_ALL_AXES
  6
Continuous
 62
     7
100
AcDbCircle
 10
99.7626820161
 20
744.9253960484
 30
0.0
 40
0.2
100
AcDbArc
 50
0.0
 51
90.0
  0
LINE
  5
39B
330
1B
100
AcDbEntity
 67
     1
  8
02___PRT_ALL_AXES
  6
Continuous
 62
     7
100
AcDbLine
 10
99.9626820161
 20
733.3253960484
 30
0.0
 11
99.9626820161
 21
733.6253960484
 31
0.0
  0
LINE
  5
39C
330
1B
100
AcDbEntity
 67
     1
  8
02___PRT_ALL_AXES
  6
Continuous
 62
     7
100
AcDbLine
 10
99.9626820161
 20
744.6253960484
 30
0.0
 11
99.9626820161
 21
744.9253960484
 31
0.0
  0
ARC
  5
39D
330
1B
100
AcDbEntity
 67
     1
  8
02___PRT_ALL_AXES
  6
Continuous
 62
     7
100
AcDbCircle
 10
100.1626820161
 20
733.3253960484
 30
0.0
 40
0.2
100
AcDbArc
 50
180.0
 51
270.0
  0
LINE
  5
39E
330
1B
100
AcDbEntity
 67
     1
  8
02___PRT_ALL_AXES
  6
Continuous
 62
     7
100
AcDbLine
 10
100.7386692816
 20
733.1253960484
 30
0.0
 11
100.1626820161
 21
733.1253960484
 31
0.0
  0
ARC
  5
39F
330
1B
100
AcDbEntity
 67
     1
  8
02___PRT_ALL_AXES
  6
Continuous
 62
     7
100
AcDbCircle
 10
100.7386680161
 20
732.4013820484
 30
0.0
 40
0.7240143391
100
AcDbArc
 50
0.0001001419
 51
89.9998998581
  0
LINE
  5
3A0
330
1B
100
AcDbEntity
 67
     1
  8
02___PRT_ALL_AXES
  6
Continuous
 62
     7
100
AcDbLine
 10
101.4626820161
 20
730.1253960484
 30
0.0
 11
101.4626820161
 21
732.4013833138
 31
0.0
  0
ARC
  5
3A1
330
1B
100
AcDbEntity
 67
     1
  8
02___PRT_ALL_AXES
  6
Continuous
 62
     7
100
AcDbCircle
 10
100.9626820161
 20
730.1253960484
 30
0.0
 40
0.5
100
AcDbArc
 50
270.0
 51
360.0
  0
LINE
  5
3A2
330
1B
100
AcDbEntity
 67
     1
  8
02___PRT_ALL_AXES
  6
Continuous
 62
     7
100
AcDbLine
 10
100.1626820161
 20
729.6253960484
 30
0.0
 11
100.9626820161
 21
729.6253960484
 31
0.0
  0
ARC
  5
3A3
330
1B
100
AcDbEntity
 67
     1
  8
02___PRT_ALL_AXES
  6
Continuous
 62
     7
100
AcDbCircle
 10
100.1626820161
 20
729.8253960484
 30
0.0
 40
0.2
100
AcDbArc
 50
180.0
 51
270.0
  0
LINE
  5
3A4
330
1B
100
AcDbEntity
 67
     1
  8
02___PRT_ALL_AXES
  6
Continuous
 62
     7
100
AcDbLine
 10
99.9626820161
 20
730.9253960484
 30
0.0
 11
99.9626820161
 21
729.8253960484
 31
0.0
  0
ARC
  5
3A5
330
1B
100
AcDbEntity
 67
     1
  8
02___PRT_ALL_AXES
  6
Continuous
 62
     7
100
AcDbCircle
 10
99.7626820161
 20
730.9253960484
 30
0.0
 40
0.2
100
AcDbArc
 50
0.0
 51
90.0
  0
LINE
  5
3A6
330
1B
100
AcDbEntity
 67
     1
  8
02___PRT_ALL_AXES
  6
Continuous
 62
     7
100
AcDbLine
 10
96.9626820161
 20
731.1253960484
 30
0.0
 11
99.7626820161
 21
731.1253960484
 31
0.0
  0
LINE
  5
3A7
330
1B
100
AcDbEntity
 67
     1
  8
02___PRT_ALL_AXES
  6
Continuous
 62
     7
100
AcDbLine
 10
99.7626820161
 20
723.6253960484
 30
0.0
 11
96.9626820161
 21
723.6253960484
 31
0.0
  0
ARC
  5
3A8
330
1B
100
AcDbEntity
 67
     1
  8
02___PRT_ALL_AXES
  6
Continuous
 62
     7
100
AcDbCircle
 10
99.7626820161
 20
723.8253960484
 30
0.0
 40
0.2
100
AcDbArc
 50
270.0
 51
360.0
  0
LINE
  5
3A9
330
1B
100
AcDbEntity
 67
     1
  8
02___PRT_ALL_AXES
  6
Continuous
 62
     7
100
AcDbLine
 10
99.9626820161
 20
724.9253960484
 30
0.0
 11
99.9626820161
 21
723.8253960484
 31
0.0
  0
ARC
  5
3AA
330
1B
100
AcDbEntity
 67
     1
  8
02___PRT_ALL_AXES
  6
Continuous
 62
     7
100
AcDbCircle
 10
100.1626820161
 20
724.9253960484
 30
0.0
 40
0.2
100
AcDbArc
 50
90.0
 51
180.0
  0
LINE
  5
3AB
330
1B
100
AcDbEntity
 67
     1
  8
02___PRT_ALL_AXES
  6
Continuous
 62
     7
100
AcDbLine
 10
100.9626820161
 20
725.1253960484
 30
0.0
 11
100.1626820161
 21
725.1253960484
 31
0.0
  0
ARC
  5
3AC
330
1B
100
AcDbEntity
 67
     1
  8
02___PRT_ALL_AXES
  6
Continuous
 62
     7
100
AcDbCircle
 10
100.9626820161
 20
724.6253960484
 30
0.0
 40
0.5
100
AcDbArc
 50
0.0
 51
90.0
  0
LINE
  5
3AD
330
1B
100
AcDbEntity
 67
     1
  8
02___PRT_ALL_AXES
  6
Continuous
 62
     7
100
AcDbLine
 10
101.4626820161
 20
722.1253960484
 30
0.0
 11
101.4626820161
 21
724.6253960484
 31
0.0
  0
ARC
  5
3AE
330
1B
100
AcDbEntity
 67
     1
  8
02___PRT_ALL_AXES
  6
Continuous
 62
     7
100
AcDbCircle
 10
100.9626820161
 20
722.1253960484
 30
0.0
 40
0.5
100
AcDbArc
 50
270.0
 51
360.0
  0
LINE
  5
3AF
330
1B
100
AcDbEntity
 67
     1
  8
02___PRT_ALL_AXES
  6
Continuous
 62
     7
100
AcDbLine
 10
100.1626820161
 20
721.6253960484
 30
0.0
 11
100.9626820161
 21
721.6253960484
 31
0.0
  0
ARC
  5
3B0
330
1B
100
AcDbEntity
 67
     1
  8
02___PRT_ALL_AXES
  6
Continuous
 62
     7
100
AcDbCircle
 10
100.1626820161
 20
721.4253960484
 30
0.0
 40
0.2
100
AcDbArc
 50
90.0
 51
180.0
  0
LINE
  5
3B1
330
1B
100
AcDbEntity
 67
     1
  8
02___PRT_ALL_AXES
  6
Continuous
 62
     7
100
AcDbLine
 10
99.9626820161
 20
621.3253960484
 30
0.0
 11
99.9626820161
 21
621.6253960484
 31
0.0
  0
LINE
  5
3B2
330
1B
100
AcDbEntity
 67
     1
  8
02___PRT_ALL_AXES
  6
Continuous
 62
     7
100
AcDbLine
 10
99.9626820161
 20
721.1253960484
 30
0.0
 11
99.9626820161
 21
721.4253960484
 31
0.0
  0
ARC
  5
3B3
330
1B
100
AcDbEntity
 67
     1
  8
02___PRT_ALL_AXES
  6
Continuous
 62
     7
100
AcDbCircle
 10
100.1626820161
 20
621.3253960484
 30
0.0
 40
0.2
100
AcDbArc
 50
180.0
 51
270.0
  0
LINE
  5
3B4
330
1B
100
AcDbEntity
 67
     1
  8
02___PRT_ALL_AXES
  6
Continuous
 62
     7
100
AcDbLine
 10
100.9626820161
 20
621.1253960484
 30
0.0
 11
100.1626820161
 21
621.1253960484
 31
0.0
  0
ARC
  5
3B5
330
1B
100
AcDbEntity
 67
     1
  8
02___PRT_ALL_AXES
  6
Continuous
 62
     7
100
AcDbCircle
 10
100.9626820161
 20
620.6253960484
 30
0.0
 40
0.5
100
AcDbArc
 50
0.0
 51
90.0
  0
LINE
  5
3B6
330
1B
100
AcDbEntity
 67
     1
  8
02___PRT_ALL_AXES
  6
Continuous
 62
     7
100
AcDbLine
 10
101.4626820161
 20
618.1253960484
 30
0.0
 11
101.4626820161
 21
620.6253960484
 31
0.0
  0
ARC
  5
3B7
330
1B
100
AcDbEntity
 67
     1
  8
02___PRT_ALL_AXES
  6
Continuous
 62
     7
100
AcDbCircle
 10
100.9626820161
 20
618.1253960484
 30
0.0
 40
0.5
100
AcDbArc
 50
270.0
 51
360.0
  0
LINE
  5
3B8
330
1B
100
AcDbEntity
 67
     1
  8
02___PRT_ALL_AXES
  6
Continuous
 62
     7
100
AcDbLine
 10
100.1626820161
 20
617.6253960484
 30
0.0
 11
100.9626820161
 21
617.6253960484
 31
0.0
  0
ARC
  5
3B9
330
1B
100
AcDbEntity
 67
     1
  8
02___PRT_ALL_AXES
  6
Continuous
 62
     7
100
AcDbCircle
 10
100.1626820161
 20
617.8253960484
 30
0.0
 40
0.2
100
AcDbArc
 50
180.0
 51
270.0
  0
LINE
  5
3BA
330
1B
100
AcDbEntity
 67
     1
  8
02___PRT_ALL_AXES
  6
Continuous
 62
     7
100
AcDbLine
 10
99.9626820161
 20
618.9253960484
 30
0.0
 11
99.9626820161
 21
617.8253960484
 31
0.0
  0
ARC
  5
3BB
330
1B
100
AcDbEntity
 67
     1
  8
02___PRT_ALL_AXES
  6
Continuous
 62
     7
100
AcDbCircle
 10
99.7626820161
 20
618.9253960484
 30
0.0
 40
0.2
100
AcDbArc
 50
0.0
 51
90.0
  0
LINE
  5
3BC
330
1B
100
AcDbEntity
 67
     1
  8
02___PRT_ALL_AXES
  6
Continuous
 62
     7
100
AcDbLine
 10
96.9626820161
 20
619.1253960484
 30
0.0
 11
99.7626820161
 21
619.1253960484
 31
0.0
  0
LINE
  5
3BD
330
1B
100
AcDbEntity
 67
     1
  8
02___PRT_ALL_AXES
  6
Continuous
 62
     7
100
AcDbLine
 10
99.7626820161
 20
611.6253960484
 30
0.0
 11
96.9626820161
 21
611.6253960484
 31
0.0
  0
ARC
  5
3BE
330
1B
100
AcDbEntity
 67
     1
  8
02___PRT_ALL_AXES
  6
Continuous
 62
     7
100
AcDbCircle
 10
99.7626820161
 20
611.8253960484
 30
0.0
 40
0.2
100
AcDbArc
 50
270.0
 51
360.0
  0
LINE
  5
3BF
330
1B
100
AcDbEntity
 67
     1
  8
02___PRT_ALL_AXES
  6
Continuous
 62
     7
100
AcDbLine
 10
99.9626820161
 20
612.9253960484
 30
0.0
 11
99.9626820161
 21
611.8253960484
 31
0.0
  0
ARC
  5
3C0
330
1B
100
AcDbEntity
 67
     1
  8
02___PRT_ALL_AXES
  6
Continuous
 62
     7
100
AcDbCircle
 10
100.1626820161
 20
612.9253960484
 30
0.0
 40
0.2
100
AcDbArc
 50
90.0
 51
180.0
  0
LINE
  5
3C1
330
1B
100
AcDbEntity
 67
     1
  8
02___PRT_ALL_AXES
  6
Continuous
 62
     7
100
AcDbLine
 10
100.9626820161
 20
613.1253960484
 30
0.0
 11
100.1626820161
 21
613.1253960484
 31
0.0
  0
ARC
  5
3C2
330
1B
100
AcDbEntity
 67
     1
  8
02___PRT_ALL_AXES
  6
Continuous
 62
     7
100
AcDbCircle
 10
100.9626820161
 20
612.6253960484
 30
0.0
 40
0.5
100
AcDbArc
 50
0.0
 51
90.0
  0
LINE
  5
3C3
330
1B
100
AcDbEntity
 67
     1
  8
02___PRT_ALL_AXES
  6
Continuous
 62
     7
100
AcDbLine
 10
101.4626820161
 20
610.1253960484
 30
0.0
 11
101.4626820161
 21
612.6253960484
 31
0.0
  0
ARC
  5
3C4
330
1B
100
AcDbEntity
 67
     1
  8
02___PRT_ALL_AXES
  6
Continuous
 62
     7
100
AcDbCircle
 10
100.9626820161
 20
610.1253960484
 30
0.0
 40
0.5
100
AcDbArc
 50
270.0
 51
360.0
  0
LINE
  5
3C5
330
1B
100
AcDbEntity
 67
     1
  8
02___PRT_ALL_AXES
  6
Continuous
 62
     7
100
AcDbLine
 10
100.1626820161
 20
609.6253960484
 30
0.0
 11
100.9626820161
 21
609.6253960484
 31
0.0
  0
ARC
  5
3C6
330
1B
100
AcDbEntity
 67
     1
  8
02___PRT_ALL_AXES
  6
Continuous
 62
     7
100
AcDbCircle
 10
100.1626820161
 20
609.4253960484
 30
0.0
 40
0.2
100
AcDbArc
 50
90.0
 51
180.0
  0
LINE
  5
3C7
330
1B
100
AcDbEntity
 67
     1
  8
02___PRT_ALL_AXES
  6
Continuous
 62
     7
100
AcDbLine
 10
99.9626820161
 20
596.1253960484
 30
0.0
 11
99.9626820161
 21
597.1253960484
 31
0.0
  0
LINE
  5
3C8
330
1B
100
AcDbEntity
 67
     1
  8
02___PRT_ALL_AXES
  6
Continuous
 62
     7
100
AcDbLine
 10
99.9626820161
 20
609.1253960484
 30
0.0
 11
99.9626820161
 21
609.4253960484
 31
0.0
  0
ARC
  5
3C9
330
1B
100
AcDbEntity
 67
     1
  8
02___PRT_ALL_AXES
  6
Continuous
 62
     7
100
AcDbCircle
 10
98.9626820161
 20
596.1253960484
 30
0.0
 40
1.0
100
AcDbArc
 50
270.0
 51
360.0
  0
LINE
  5
3CA
330
1B
100
AcDbEntity
 67
     1
  8
02___PRT_ALL_AXES
  6
Continuous
 62
     7
100
AcDbLine
 10
97.9626820161
 20
595.1253960484
 30
0.0
 11
98.9626820161
 21
595.1253960484
 31
0.0
  0
LINE
  5
3CB
330
1B
100
AcDbEntity
 67
     1
  8
02___PRT_ALL_AXES
  6
Continuous
 62
     7
100
AcDbLine
 10
40.9626820161
 20
595.1253960484
 30
0.0
 11
41.9626820161
 21
595.1253960484
 31
0.0
  0
ARC
  5
3CC
330
1B
100
AcDbEntity
 67
     1
  8
02___PRT_ALL_AXES
  6
Continuous
 62
     7
100
AcDbCircle
 10
40.9626820161
 20
596.1253960484
 30
0.0
 40
1.0
100
AcDbArc
 50
180.0
 51
270.0
  0
LINE
  5
3CD
330
1B
100
AcDbEntity
 67
     1
  8
02___PRT_ALL_AXES
  6
Continuous
 62
     7
100
AcDbLine
 10
39.9626820161
 20
609.4253960484
 30
0.0
 11
39.9626820161
 21
609.1253960484
 31
0.0
  0
LINE
  5
3CE
330
1B
100
AcDbEntity
 67
     1
  8
02___PRT_ALL_AXES
  6
Continuous
 62
     7
100
AcDbLine
 10
39.9626820161
 20
597.1253960484
 30
0.0
 11
39.9626820161
 21
596.1253960484
 31
0.0
  0
ARC
  5
3CF
330
1B
100
AcDbEntity
 67
     1
  8
02___PRT_ALL_AXES
  6
Continuous
 62
     7
100
AcDbCircle
 10
39.7626820161
 20
609.4253960484
 30
0.0
 40
0.2
100
AcDbArc
 50
0.0
 51
90.0
  0
LINE
  5
3D0
330
1B
100
AcDbEntity
 67
     1
  8
02___PRT_ALL_AXES
  6
Continuous
 62
     7
100
AcDbLine
 10
38.9626820161
 20
609.6253960484
 30
0.0
 11
39.7626820161
 21
609.6253960484
 31
0.0
  0
ARC
  5
3D1
330
1B
100
AcDbEntity
 67
     1
  8
02___PRT_ALL_AXES
  6
Continuous
 62
     7
100
AcDbCircle
 10
38.9626820161
 20
610.1253960484
 30
0.0
 40
0.5
100
AcDbArc
 50
180.0
 51
270.0
  0
LINE
  5
3D2
330
1B
100
AcDbEntity
 67
     1
  8
02___PRT_ALL_AXES
  6
Continuous
 62
     7
100
AcDbLine
 10
38.4626820161
 20
612.6253960484
 30
0.0
 11
38.4626820161
 21
610.1253960484
 31
0.0
  0
ARC
  5
3D3
330
1B
100
AcDbEntity
 67
     1
  8
02___PRT_ALL_AXES
  6
Continuous
 62
     7
100
AcDbCircle
 10
38.9626820161
 20
612.6253960484
 30
0.0
 40
0.5
100
AcDbArc
 50
90.0
 51
180.0
  0
LINE
  5
3D4
330
1B
100
AcDbEntity
 67
     1
  8
02___PRT_ALL_AXES
  6
Continuous
 62
     7
100
AcDbLine
 10
39.7626820161
 20
613.1253960484
 30
0.0
 11
38.9626820161
 21
613.1253960484
 31
0.0
  0
ARC
  5
3D5
330
1B
100
AcDbEntity
 67
     1
  8
02___PRT_ALL_AXES
  6
Continuous
 62
     7
100
AcDbCircle
 10
39.7626820161
 20
612.9253960484
 30
0.0
 40
0.2
100
AcDbArc
 50
0.0
 51
90.0
  0
LINE
  5
3D6
330
1B
100
AcDbEntity
 67
     1
  8
02___PRT_ALL_AXES
  6
Continuous
 62
     7
100
AcDbLine
 10
39.9626820161
 20
611.8253960484
 30
0.0
 11
39.9626820161
 21
612.9253960484
 31
0.0
  0
ARC
  5
3D7
330
1B
100
AcDbEntity
 67
     1
  8
02___PRT_ALL_AXES
  6
Continuous
 62
     7
100
AcDbCircle
 10
40.1626820161
 20
611.8253960484
 30
0.0
 40
0.2
100
AcDbArc
 50
180.0
 51
270.0
  0
LINE
  5
3D8
330
1B
100
AcDbEntity
 67
     1
  8
02___PRT_ALL_AXES
  6
Continuous
 62
     7
100
AcDbLine
 10
42.9626820161
 20
611.6253960484
 30
0.0
 11
40.1626820161
 21
611.6253960484
 31
0.0
  0
LINE
  5
3D9
330
1B
100
AcDbEntity
 67
     1
  8
02___PRT_ALL_AXES
  6
Continuous
 62
     7
100
AcDbLine
 10
40.1626820161
 20
619.1253960484
 30
0.0
 11
42.9626820161
 21
619.1253960484
 31
0.0
  0
ARC
  5
3DA
330
1B
100
AcDbEntity
 67
     1
  8
02___PRT_ALL_AXES
  6
Continuous
 62
     7
100
AcDbCircle
 10
40.1626820161
 20
618.9253960484
 30
0.0
 40
0.2
100
AcDbArc
 50
90.0
 51
180.0
  0
LINE
  5
3DB
330
1B
100
AcDbEntity
 67
     1
  8
02___PRT_ALL_AXES
  6
Continuous
 62
     7
100
AcDbLine
 10
39.9626820161
 20
617.8253960484
 30
0.0
 11
39.9626820161
 21
618.9253960484
 31
0.0
  0
ARC
  5
3DC
330
1B
100
AcDbEntity
 67
     1
  8
02___PRT_ALL_AXES
  6
Continuous
 62
     7
100
AcDbCircle
 10
39.7626820161
 20
617.8253960484
 30
0.0
 40
0.2
100
AcDbArc
 50
270.0
 51
360.0
  0
LINE
  5
3DD
330
1B
100
AcDbEntity
 67
     1
  8
02___PRT_ALL_AXES
  6
Continuous
 62
     7
100
AcDbLine
 10
38.9626820161
 20
617.6253960484
 30
0.0
 11
39.7626820161
 21
617.6253960484
 31
0.0
  0
ARC
  5
3DE
330
1B
100
AcDbEntity
 67
     1
  8
02___PRT_ALL_AXES
  6
Continuous
 62
     7
100
AcDbCircle
 10
38.9626820161
 20
618.1253960484
 30
0.0
 40
0.5
100
AcDbArc
 50
180.0
 51
270.0
  0
LINE
  5
3DF
330
1B
100
AcDbEntity
 67
     1
  8
02___PRT_ALL_AXES
  6
Continuous
 62
     7
100
AcDbLine
 10
38.4626820161
 20
620.6253960484
 30
0.0
 11
38.4626820161
 21
618.1253960484
 31
0.0
  0
ARC
  5
3E0
330
1B
100
AcDbEntity
 67
     1
  8
02___PRT_ALL_AXES
  6
Continuous
 62
     7
100
AcDbCircle
 10
38.9626820161
 20
620.6253960484
 30
0.0
 40
0.5
100
AcDbArc
 50
90.0
 51
180.0
  0
LINE
  5
3E1
330
1B
100
AcDbEntity
 67
     1
  8
02___PRT_ALL_AXES
  6
Continuous
 62
     7
100
AcDbLine
 10
39.7626820161
 20
621.1253960484
 30
0.0
 11
38.9626820161
 21
621.1253960484
 31
0.0
  0
ARC
  5
3E2
330
1B
100
AcDbEntity
 67
     1
  8
02___PRT_ALL_AXES
  6
Continuous
 62
     7
100
AcDbCircle
 10
39.7626820161
 20
621.3253960484
 30
0.0
 40
0.2
100
AcDbArc
 50
270.0
 51
360.0
  0
LINE
  5
3E3
330
1B
100
AcDbEntity
 67
     1
  8
02___PRT_ALL_AXES
  6
Continuous
 62
     7
100
AcDbLine
 10
39.9626820161
 20
721.4253960484
 30
0.0
 11
39.9626820161
 21
721.1253960484
 31
0.0
  0
LINE
  5
3E4
330
1B
100
AcDbEntity
 67
     1
  8
02___PRT_ALL_AXES
  6
Continuous
 62
     7
100
AcDbLine
 10
39.9626820161
 20
621.6253960484
 30
0.0
 11
39.9626820161
 21
621.3253960484
 31
0.0
  0
ARC
  5
3E5
330
1B
100
AcDbEntity
 67
     1
  8
02___PRT_ALL_AXES
  6
Continuous
 62
     7
100
AcDbCircle
 10
39.7626820161
 20
721.4253960484
 30
0.0
 40
0.2
100
AcDbArc
 50
0.0
 51
90.0
  0
LINE
  5
3E6
330
1B
100
AcDbEntity
 67
     1
  8
02___PRT_ALL_AXES
  6
Continuous
 62
     7
100
AcDbLine
 10
38.9626820161
 20
721.6253960484
 30
0.0
 11
39.7626820161
 21
721.6253960484
 31
0.0
  0
ARC
  5
3E7
330
1B
100
AcDbEntity
 67
     1
  8
02___PRT_ALL_AXES
  6
Continuous
 62
     7
100
AcDbCircle
 10
38.9626820161
 20
722.1253960484
 30
0.0
 40
0.5
100
AcDbArc
 50
180.0
 51
270.0
  0
LINE
  5
3E8
330
1B
100
AcDbEntity
 67
     1
  8
02___PRT_ALL_AXES
  6
Continuous
 62
     7
100
AcDbLine
 10
38.4626820161
 20
724.6253960484
 30
0.0
 11
38.4626820161
 21
722.1253960484
 31
0.0
  0
ARC
  5
3E9
330
1B
100
AcDbEntity
 67
     1
  8
02___PRT_ALL_AXES
  6
Continuous
 62
     7
100
AcDbCircle
 10
38.9626820161
 20
724.6253960484
 30
0.0
 40
0.5
100
AcDbArc
 50
90.0
 51
180.0
  0
LINE
  5
3EA
330
1B
100
AcDbEntity
 67
     1
  8
02___PRT_ALL_AXES
  6
Continuous
 62
     7
100
AcDbLine
 10
39.7626820161
 20
725.1253960484
 30
0.0
 11
38.9626820161
 21
725.1253960484
 31
0.0
  0
ARC
  5
3EB
330
1B
100
AcDbEntity
 67
     1
  8
02___PRT_ALL_AXES
  6
Continuous
 62
     7
100
AcDbCircle
 10
39.7626820161
 20
724.9253960484
 30
0.0
 40
0.2
100
AcDbArc
 50
0.0
 51
90.0
  0
LINE
  5
3EC
330
1B
100
AcDbEntity
 67
     1
  8
02___PRT_ALL_AXES
  6
Continuous
 62
     7
100
AcDbLine
 10
39.9626820161
 20
723.8253960484
 30
0.0
 11
39.9626820161
 21
724.9253960484
 31
0.0
  0
ARC
  5
3ED
330
1B
100
AcDbEntity
 67
     1
  8
02___PRT_ALL_AXES
  6
Continuous
 62
     7
100
AcDbCircle
 10
40.1626820161
 20
723.8253960484
 30
0.0
 40
0.2
100
AcDbArc
 50
180.0
 51
270.0
  0
LINE
  5
3EE
330
1B
100
AcDbEntity
 67
     1
  8
02___PRT_ALL_AXES
  6
Continuous
 62
     7
100
AcDbLine
 10
42.9626820161
 20
723.6253960484
 30
0.0
 11
40.1626820161
 21
723.6253960484
 31
0.0
  0
LINE
  5
3EF
330
1B
100
AcDbEntity
 67
     1
  8
02___PRT_ALL_AXES
  6
Continuous
 62
     7
100
AcDbLine
 10
40.1626820161
 20
731.1253960484
 30
0.0
 11
42.9626820161
 21
731.1253960484
 31
0.0
  0
ARC
  5
3F0
330
1B
100
AcDbEntity
 67
     1
  8
02___PRT_ALL_AXES
  6
Continuous
 62
     7
100
AcDbCircle
 10
40.1626820161
 20
730.9253960484
 30
0.0
 40
0.2
100
AcDbArc
 50
90.0
 51
180.0
  0
LINE
  5
3F1
330
1B
100
AcDbEntity
 67
     1
  8
02___PRT_ALL_AXES
  6
Continuous
 62
     7
100
AcDbLine
 10
39.9626820161
 20
729.8253960484
 30
0.0
 11
39.9626820161
 21
730.9253960484
 31
0.0
  0
ARC
  5
3F2
330
1B
100
AcDbEntity
 67
     1
  8
02___PRT_ALL_AXES
  6
Continuous
 62
     7
100
AcDbCircle
 10
39.7626820161
 20
729.8253960484
 30
0.0
 40
0.2
100
AcDbArc
 50
270.0
 51
360.0
  0
LINE
  5
3F3
330
1B
100
AcDbEntity
 67
     1
  8
02___PRT_ALL_AXES
  6
Continuous
 62
     7
100
AcDbLine
 10
38.9626820161
 20
729.6253960484
 30
0.0
 11
39.7626820161
 21
729.6253960484
 31
0.0
  0
ARC
  5
3F4
330
1B
100
AcDbEntity
 67
     1
  8
02___PRT_ALL_AXES
  6
Continuous
 62
     7
100
AcDbCircle
 10
38.9626820161
 20
730.1253960484
 30
0.0
 40
0.5
100
AcDbArc
 50
180.0
 51
270.0
  0
LINE
  5
3F5
330
1B
100
AcDbEntity
 67
     1
  8
02___PRT_ALL_AXES
  6
Continuous
 62
     7
100
AcDbLine
 10
38.4626820161
 20
732.4013833138
 30
0.0
 11
38.4626820161
 21
730.1253960484
 31
0.0
  0
ARC
  5
3F6
330
1B
100
AcDbEntity
 67
     1
  8
02___PRT_ALL_AXES
  6
Continuous
 62
     7
100
AcDbCircle
 10
39.1866960161
 20
732.4013820484
 30
0.0
 40
0.7240143391
100
AcDbArc
 50
90.0001001419
 51
179.9998998581
  0
LINE
  5
3F7
330
1B
100
AcDbEntity
 67
     1
  8
02___PRT_ALL_AXES
  6
Continuous
 62
     7
100
AcDbLine
 10
39.7626820161
 20
733.1253960484
 30
0.0
 11
39.1866947507
 21
733.1253960484
 31
0.0
  0
ARC
  5
3F8
330
1B
100
AcDbEntity
 67
     1
  8
02___PRT_ALL_AXES
  6
Continuous
 62
     7
100
AcDbCircle
 10
39.7626820161
 20
733.3253960484
 30
0.0
 40
0.2
100
AcDbArc
 50
270.0
 51
360.0
  0
LINE
  5
3F9
330
1B
100
AcDbEntity
 67
     1
  8
02___PRT_ALL_AXES
  6
Continuous
 62
     7
100
AcDbLine
 10
39.9626820161
 20
744.9253960484
 30
0.0
 11
39.9626820161
 21
744.6253960484
 31
0.0
  0
LINE
  5
3FA
330
1B
100
AcDbEntity
 67
     1
  8
02___PRT_ALL_AXES
  6
Continuous
 62
     7
100
AcDbLine
 10
39.9626820161
 20
733.6253960484
 30
0.0
 11
39.9626820161
 21
733.3253960484
 31
0.0
  0
ARC
  5
3FB
330
1B
100
AcDbEntity
 67
     1
  8
02___PRT_ALL_AXES
  6
Continuous
 62
     7
100
AcDbCircle
 10
40.1626820161
 20
744.9253960484
 30
0.0
 40
0.2
100
AcDbArc
 50
90.0
 51
180.0
  0
LINE
  5
3FC
330
1B
100
AcDbEntity
 67
     1
  8
02___PRT_ALL_AXES
  6
Continuous
 62
     7
100
AcDbLine
 10
40.4626820161
 20
745.1253960484
 30
0.0
 11
40.1626820161
 21
745.1253960484
 31
0.0
  0
LINE
  5
3FD
330
1B
100
AcDbEntity
 67
     1
  8
7_ALL_FEATURES
  6
Continuous
 62
     7
100
AcDbLine
 10
150.6081412527
 20
595.1253960484
 30
0.0
 11
152.1081412527
 21
595.1253960484
 31
0.0
  0
LINE
  5
3FE
330
1B
100
AcDbEntity
 67
     1
  8
7_ALL_FEATURES
  6
Continuous
 62
     7
100
AcDbLine
 10
152.1081412527
 20
609.3182163723
 30
0.0
 11
152.1081412527
 21
609.1253960484
 31
0.0
  0
LINE
  5
3FF
330
1B
100
AcDbEntity
 67
     1
  8
7_ALL_FEATURES
  6
Continuous
 62
     7
100
AcDbLine
 10
152.1081412527
 20
621.6253960484
 30
0.0
 11
152.1081412527
 21
621.1640787814
 31
0.0
  0
LINE
  5
400
330
1B
100
AcDbEntity
 67
     1
  8
7_ALL_FEATURES
  6
Continuous
 62
     7
100
AcDbLine
 10
152.1081412527
 20
721.3182163723
 30
0.0
 11
152.1081412527
 21
721.1253960484
 31
0.0
  0
LINE
  5
401
330
1B
100
AcDbEntity
 67
     1
  8
7_ALL_FEATURES
  6
Continuous
 62
     7
100
AcDbLine
 10
152.1081412527
 20
733.6253960484
 30
0.0
 11
152.1081412527
 21
733.1640787814
 31
0.0
  0
LINE
  5
402
330
1B
100
AcDbEntity
 67
     1
  8
7_ALL_FEATURES
  6
Continuous
 62
     7
100
AcDbLine
 10
152.1081412527
 20
744.8182163723
 30
0.0
 11
152.1081412527
 21
744.6253960484
 31
0.0
  0
LINE
  5
403
330
1B
100
AcDbEntity
 67
     1
  8
7_ALL_FEATURES
  6
Continuous
 62
     7
100
AcDbLine
 10
152.1081412527
 20
597.1253960484
 30
0.0
 11
152.1081412527
 21
609.1253960484
 31
0.0
  0
LINE
  5
404
330
1B
100
AcDbEntity
 67
     1
  8
7_ALL_FEATURES
  6
Continuous
 62
     7
100
AcDbLine
 10
152.1081412527
 20
609.6253960484
 30
0.0
 11
150.6081412527
 21
609.6253960484
 31
0.0
  0
LINE
  5
405
330
1B
100
AcDbEntity
 67
     1
  8
7_ALL_FEATURES
  6
Continuous
 62
     7
100
AcDbLine
 10
150.6081412527
 20
744.6253960484
 30
0.0
 11
150.6081412527
 21
745.1253960484
 31
0.0
  0
LINE
  5
406
330
1B
100
AcDbEntity
 67
     1
  8
7_ALL_FEATURES
  6
Continuous
 62
     7
100
AcDbLine
 10
150.6081412527
 20
733.6253960484
 30
0.0
 11
150.6081412527
 21
744.6253960484
 31
0.0
  0
LINE
  5
407
330
1B
100
AcDbEntity
 67
     1
  8
7_ALL_FEATURES
  6
Continuous
 62
     7
100
AcDbLine
 10
150.6081412527
 20
733.1253960484
 30
0.0
 11
150.6081412527
 21
733.6253960484
 31
0.0
  0
LINE
  5
408
330
1B
100
AcDbEntity
 67
     1
  8
7_ALL_FEATURES
  6
Continuous
 62
     7
100
AcDbLine
 10
150.6081412527
 20
732.6253960484
 30
0.0
 11
150.6081412527
 21
733.1253960484
 31
0.0
  0
LINE
  5
409
330
1B
100
AcDbEntity
 67
     1
  8
7_ALL_FEATURES
  6
Continuous
 62
     7
100
AcDbLine
 10
150.6081412527
 20
730.8753960484
 30
0.0
 11
150.6081412527
 21
732.6253960484
 31
0.0
  0
LINE
  5
40A
330
1B
100
AcDbEntity
 67
     1
  8
7_ALL_FEATURES
  6
Continuous
 62
     7
100
AcDbLine
 10
150.6081412527
 20
722.1253960484
 30
0.0
 11
150.6081412527
 21
723.8753960484
 31
0.0
  0
LINE
  5
40B
330
1B
100
AcDbEntity
 67
     1
  8
7_ALL_FEATURES
  6
Continuous
 62
     7
100
AcDbLine
 10
150.6081412527
 20
721.6253960484
 30
0.0
 11
150.6081412527
 21
722.1253960484
 31
0.0
  0
LINE
  5
40C
330
1B
100
AcDbEntity
 67
     1
  8
7_ALL_FEATURES
  6
Continuous
 62
     7
100
AcDbLine
 10
150.6081412527
 20
721.1253960484
 30
0.0
 11
150.6081412527
 21
721.6253960484
 31
0.0
  0
LINE
  5
40D
330
1B
100
AcDbEntity
 67
     1
  8
7_ALL_FEATURES
  6
Continuous
 62
     7
100
AcDbLine
 10
150.6081412527
 20
621.6253960484
 30
0.0
 11
150.6081412527
 21
721.1253960484
 31
0.0
  0
LINE
  5
40E
330
1B
100
AcDbEntity
 67
     1
  8
7_ALL_FEATURES
  6
Continuous
 62
     7
100
AcDbLine
 10
150.6081412527
 20
621.1253960484
 30
0.0
 11
150.6081412527
 21
621.6253960484
 31
0.0
  0
LINE
  5
40F
330
1B
100
AcDbEntity
 67
     1
  8
7_ALL_FEATURES
  6
Continuous
 62
     7
100
AcDbLine
 10
150.6081412527
 20
620.6253960484
 30
0.0
 11
150.6081412527
 21
621.1253960484
 31
0.0
  0
LINE
  5
410
330
1B
100
AcDbEntity
 67
     1
  8
7_ALL_FEATURES
  6
Continuous
 62
     7
100
AcDbLine
 10
150.6081412527
 20
618.8753960484
 30
0.0
 11
150.6081412527
 21
620.6253960484
 31
0.0
  0
LINE
  5
411
330
1B
100
AcDbEntity
 67
     1
  8
7_ALL_FEATURES
  6
Continuous
 62
     7
100
AcDbLine
 10
150.6081412527
 20
610.1253960484
 30
0.0
 11
150.6081412527
 21
611.8753960484
 31
0.0
  0
LINE
  5
412
330
1B
100
AcDbEntity
 67
     1
  8
7_ALL_FEATURES
  6
Continuous
 62
     7
100
AcDbLine
 10
150.6081412527
 20
609.6253960484
 30
0.0
 11
150.6081412527
 21
610.1253960484
 31
0.0
  0
LINE
  5
413
330
1B
100
AcDbEntity
 67
     1
  8
7_ALL_FEATURES
  6
Continuous
 62
     7
100
AcDbLine
 10
152.1081412527
 20
611.8753960484
 30
0.0
 11
150.6081412527
 21
611.8753960484
 31
0.0
  0
LINE
  5
414
330
1B
100
AcDbEntity
 67
     1
  8
7_ALL_FEATURES
  6
Continuous
 62
     7
100
AcDbLine
 10
150.6081412527
 20
609.1253960484
 30
0.0
 11
150.6081412527
 21
609.6253960484
 31
0.0
  0
LINE
  5
415
330
1B
100
AcDbEntity
 67
     1
  8
7_ALL_FEATURES
  6
Continuous
 62
     7
100
AcDbLine
 10
150.6081412527
 20
597.1253960484
 30
0.0
 11
150.6081412527
 21
609.1253960484
 31
0.0
  0
LINE
  5
416
330
1B
100
AcDbEntity
 67
     1
  8
7_ALL_FEATURES
  6
Continuous
 62
     7
100
AcDbLine
 10
150.6081412527
 20
595.1253960484
 30
0.0
 11
150.6081412527
 21
597.1253960484
 31
0.0
  0
LINE
  5
417
330
1B
100
AcDbEntity
 67
     1
  8
7_ALL_FEATURES
  6
Continuous
 62
     7
100
AcDbLine
 10
150.6081412527
 20
618.8753960484
 30
0.0
 11
150.6081412527
 21
611.8753960484
 31
0.0
  0
SPLINE
  5
418
330
1B
100
AcDbEntity
 67
     1
  8
7_ALL_FEATURES
  6
Continuous
 62
     7
100
AcDbSpline
 70
     0
 71
     3
 72
     9
 73
     5
 74
     0
 42
0.000000001
 43
0.0000001
 40
0.0
 40
0.0
 40
0.0
 40
0.0
 40
0.2291976521
 40
1.0
 40
1.0
 40
1.0
 40
1.0
 10
151.4868209091
 20
613.8753960484
 30
0.0
 10
151.5351623065
 20
613.8753960484
 30
0.0
 10
151.7460505114
 20
613.8874289246
 30
0.0
 10
151.9533327278
 20
613.9401431564
 30
0.0
 10
152.1062888177
 20
613.9952327066
 30
0.0
  0
ARC
  5
419
330
1B
100
AcDbEntity
 67
     1
  8
7_ALL_FEATURES
  6
Continuous
 62
     7
100
AcDbCircle
 10
151.2763699117
 20
616.2972112604
 30
0.0
 40
2.4470125975
100
AcDbArc
 50
289.8254589261999
 51
293.7970679447999
  0
SPLINE
  5
41A
330
1B
100
AcDbEntity
 67
     1
  8
7_ALL_FEATURES
  6
Continuous
 62
     7
100
AcDbSpline
 70
     0
 71
     3
 72
    15
 73
    11
 74
     0
 42
0.000000001
 43
0.0000001
 40
0.0
 40
0.0
 40
0.0
 40
0.0
 40
0.1201433447
 40
0.2453226058
 40
0.3726107011
 40
0.5001051227
 40
0.627515452
 40
0.7547208784
 40
0.8798683929
 40
1.0
 40
1.0
 40
1.0
 40
1.0
 10
152.2637357599
 20
614.0582428965
 30
0.0
 10
152.3958011549
 20
614.1164358583
 30
0.0
 10
152.6560535495
 20
614.2582519745
 30
0.0
 10
153.0050670925
 20
614.5432557972
 30
0.0
 10
153.2823235668
 20
614.9142169245
 30
0.0
 10
153.4038525865
 20
615.3752823564
 30
0.0
 10
153.2823445241
 20
615.8362058084
 30
0.0
 10
153.0054253083
 20
616.2071003325
 30
0.0
 10
152.6566388059
 20
616.4921544855
 30
0.0
 10
152.396469996
 20
616.6340158425
 30
0.0
 10
152.2644328709
 20
616.6922379824
 30
0.0
  0
ARC
  5
41B
330
1B
100
AcDbEntity
 67
     1
  8
7_ALL_FEATURES
  6
Continuous
 62
     7
100
AcDbCircle
 10
151.2754432453
 20
614.4512358362
 30
0.0
 40
2.4495287503
100
AcDbArc
 50
66.1873750983
 51
70.1716704305
  0
SPLINE
  5
41C
330
1B
100
AcDbEntity
 67
     1
  8
7_ALL_FEATURES
  6
Continuous
 62
     7
100
AcDbSpline
 70
     0
 71
     3
 72
     9
 73
     5
 74
     0
 42
0.000000001
 43
0.0000001
 40
0.0
 40
0.0
 40
0.0
 40
0.0
 40
0.2703053213
 40
1.0
 40
1.0
 40
1.0
 40
1.0
 10
152.1063309712
 20
616.7555397844
 30
0.0
 10
152.0527040399
 20
616.7748569396
 30
0.0
 10
151.8519834787
 20
616.8390138094
 30
0.0
 10
151.6406935672
 20
616.8753960484
 30
0.0
 10
151.4868209091
 20
616.8753960484
 30
0.0
  0
SPLINE
  5
41D
330
1B
100
AcDbEntity
 67
     1
  8
7_ALL_FEATURES
  6
Continuous
 62
     7
100
AcDbSpline
 70
     0
 71
     3
 72
    10
 73
     6
 74
     0
 42
0.000000001
 43
0.0000001
 40
0.0
 40
0.0
 40
0.0
 40
0.0
 40
0.2145692543
 40
0.4595548513
 40
1.0
 40
1.0
 40
1.0
 40
1.0
 10
152.2635243143
 20
616.6860004747
 30
0.0
 10
152.2176366709
 20
616.6028046976
 30
0.0
 10
152.1607964978
 20
616.403355041
 30
0.0
 10
152.1142703624
 20
615.9634169227
 30
0.0
 10
152.1131407681
 20
615.6147061212
 30
0.0
 10
152.1131407681
 20
615.3753960484
 30
0.0
  0
SPLINE
  5
41E
330
1B
100
AcDbEntity
 67
     1
  8
7_ALL_FEATURES
  6
Continuous
 62
     7
100
AcDbSpline
 70
     0
 71
     3
 72
    10
 73
     6
 74
     0
 42
0.000000001
 43
0.0000001
 40
0.0
 40
0.0
 40
0.0
 40
0.0
 40
0.5403384332
 40
0.7853379999
 40
1.0
 40
1.0
 40
1.0
 40
1.0
 10
152.1131407681
 20
615.3753960484
 30
0.0
 10
152.1131407681
 20
615.1363590333
 30
0.0
 10
152.1142778414
 20
614.7880260038
 30
0.0
 10
152.1606391359
 20
614.3484824541
 30
0.0
 10
152.2172319541
 20
614.1491559939
 30
0.0
 10
152.2629133242
 20
614.0659022517
 30
0.0
  0
LINE
  5
41F
330
1B
100
AcDbEntity
 67
     1
  8
7_ALL_FEATURES
  6
Continuous
 62
     7
100
AcDbLine
 10
165.6081412527
 20
617.3753960484
 30
0.0
 11
165.6081412527
 21
613.3753960484
 31
0.0
  0
ARC
  5
420
330
1B
100
AcDbEntity
 67
     1
  8
7_ALL_FEATURES
  6
Continuous
 62
     7
100
AcDbCircle
 10
164.1081412527
 20
617.3753960484
 30
0.0
 40
1.5
100
AcDbArc
 50
0.0
 51
9.826689932
  0
ARC
  5
421
330
1B
100
AcDbEntity
 67
     1
  8
7_ALL_FEATURES
  6
Continuous
 62
     7
100
AcDbCircle
 10
164.1081412527
 20
613.3753960484
 30
0.0
 40
1.5
100
AcDbArc
 50
350.173519033
 51
360.0
  0
LINE
  5
422
330
1B
100
AcDbEntity
 67
     1
  8
7_ALL_FEATURES
  6
Continuous
 62
     7
100
AcDbLine
 10
150.6081412527
 20
618.8753960484
 30
0.0
 11
152.1081412527
 21
618.8753960484
 31
0.0
  0
LINE
  5
423
330
1B
100
AcDbEntity
 67
     1
  8
7_ALL_FEATURES
  6
Continuous
 62
     7
100
AcDbLine
 10
152.1081412527
 20
745.1253960484
 30
0.0
 11
150.6081412527
 21
745.1253960484
 31
0.0
  0
LINE
  5
424
330
1B
100
AcDbEntity
 67
     1
  8
7_ALL_FEATURES
  6
Continuous
 62
     7
100
AcDbLine
 10
152.1081412527
 20
733.6253960484
 30
0.0
 11
152.1081412527
 21
744.6253960484
 31
0.0
  0
LINE
  5
425
330
1B
100
AcDbEntity
 67
     1
  8
7_ALL_FEATURES
  6
Continuous
 62
     7
100
AcDbLine
 10
150.6081412527
 20
733.1253960484
 30
0.0
 11
152.1081412527
 21
733.1253960484
 31
0.0
  0
LINE
  5
426
330
1B
100
AcDbEntity
 67
     1
  8
7_ALL_FEATURES
  6
Continuous
 62
     7
100
AcDbLine
 10
150.6081412527
 20
621.1253960484
 30
0.0
 11
152.1081412527
 21
621.1253960484
 31
0.0
  0
LINE
  5
427
330
1B
100
AcDbEntity
 67
     1
  8
7_ALL_FEATURES
  6
Continuous
 62
     7
100
AcDbLine
 10
150.6081412527
 20
730.8753960484
 30
0.0
 11
152.1081412527
 21
730.8753960484
 31
0.0
  0
LINE
  5
428
330
1B
100
AcDbEntity
 67
     1
  8
7_ALL_FEATURES
  6
Continuous
 62
     7
100
AcDbLine
 10
152.1081412527
 20
621.6253960484
 30
0.0
 11
152.1081412527
 21
721.1253960484
 31
0.0
  0
ARC
  5
429
330
1B
100
AcDbEntity
 67
     1
  8
7_ALL_FEATURES
  6
Continuous
 62
     7
100
AcDbCircle
 10
164.1081412527
 20
729.3753960484
 30
0.0
 40
1.5
100
AcDbArc
 50
0.0
 51
9.826689932
  0
ARC
  5
42A
330
1B
100
AcDbEntity
 67
     1
  8
7_ALL_FEATURES
  6
Continuous
 62
     7
100
AcDbCircle
 10
164.1081412527
 20
725.3753960484
 30
0.0
 40
1.5
100
AcDbArc
 50
350.173519033
 51
360.0
  0
LINE
  5
42B
330
1B
100
AcDbEntity
 67
     1
  8
7_ALL_FEATURES
  6
Continuous
 62
     7
100
AcDbLine
 10
152.1081412527
 20
721.6253960484
 30
0.0
 11
150.6081412527
 21
721.6253960484
 31
0.0
  0
LINE
  5
42C
330
1B
100
AcDbEntity
 67
     1
  8
7_ALL_FEATURES
  6
Continuous
 62
     7
100
AcDbLine
 10
152.1081412527
 20
723.8753960484
 30
0.0
 11
150.6081412527
 21
723.8753960484
 31
0.0
  0
LINE
  5
42D
330
1B
100
AcDbEntity
 67
     1
  8
7_ALL_FEATURES
  6
Continuous
 62
     7
100
AcDbLine
 10
150.6081412527
 20
730.8753960484
 30
0.0
 11
150.6081412527
 21
723.8753960484
 31
0.0
  0
SPLINE
  5
42E
330
1B
100
AcDbEntity
 67
     1
  8
7_ALL_FEATURES
  6
Continuous
 62
     7
100
AcDbSpline
 70
     0
 71
     3
 72
     9
 73
     5
 74
     0
 42
0.000000001
 43
0.0000001
 40
0.0
 40
0.0
 40
0.0
 40
0.0
 40
0.2291976521
 40
1.0
 40
1.0
 40
1.0
 40
1.0
 10
151.4868209091
 20
725.8753960484
 30
0.0
 10
151.5351623065
 20
725.8753960484
 30
0.0
 10
151.7460505114
 20
725.8874289246
 30
0.0
 10
151.9533327278
 20
725.9401431564
 30
0.0
 10
152.1062888177
 20
725.9952327066
 30
0.0
  0
ARC
  5
42F
330
1B
100
AcDbEntity
 67
     1
  8
7_ALL_FEATURES
  6
Continuous
 62
     7
100
AcDbCircle
 10
151.2763699119
 20
728.29721126
 30
0.0
 40
2.4470125971
100
AcDbArc
 50
289.8254589259
 51
293.7970679451
  0
SPLINE
  5
430
330
1B
100
AcDbEntity
 67
     1
  8
7_ALL_FEATURES
  6
Continuous
 62
     7
100
AcDbSpline
 70
     0
 71
     3
 72
    15
 73
    11
 74
     0
 42
0.000000001
 43
0.0000001
 40
0.0
 40
0.0
 40
0.0
 40
0.0
 40
0.1201433446
 40
0.2453226055
 40
0.3726107008
 40
0.5001051223
 40
0.6275154516
 40
0.7547208779
 40
0.8798683925
 40
1.0
 40
1.0
 40
1.0
 40
1.0
 10
152.2637357599
 20
726.0582428965
 30
0.0
 10
152.3958011537
 20
726.1164358578
 30
0.0
 10
152.656053546
 20
726.2582519724
 30
0.0
 10
153.0050670865
 20
726.5432557916
 30
0.0
 10
153.2823235605
 20
726.9142169136
 30
0.0
 10
153.4038525857
 20
727.3752823391
 30
0.0
 10
153.2823445334
 20
727.8362057896
 30
0.0
 10
153.0054253252
 20
728.2071003149
 30
0.0
 10
152.6566388286
 20
728.4921544702
 30
0.0
 10
152.396470022
 20
728.6340158292
 30
0.0
 10
152.2644328982
 20
728.6922379704
 30
0.0
  0
ARC
  5
431
330
1B
100
AcDbEntity
 67
     1
  8
7_ALL_FEATURES
  6
Continuous
 62
     7
100
AcDbCircle
 10
151.2754432414
 20
726.4512358261
 30
0.0
 40
2.4495287612
100
AcDbArc
 50
66.1873744125
 51
70.1716704247
  0
SPLINE
  5
432
330
1B
100
AcDbEntity
 67
     1
  8
7_ALL_FEATURES
  6
Continuous
 62
     7
100
AcDbSpline
 70
     0
 71
     3
 72
     9
 73
     5
 74
     0
 42
0.000000001
 43
0.0000001
 40
0.0
 40
0.0
 40
0.0
 40
0.0
 40
0.2703053213
 40
1.0
 40
1.0
 40
1.0
 40
1.0
 10
152.1063309712
 20
728.7555397844
 30
0.0
 10
152.0527040399
 20
728.7748569396
 30
0.0
 10
151.8519834787
 20
728.8390138094
 30
0.0
 10
151.6406935672
 20
728.8753960484
 30
0.0
 10
151.4868209091
 20
728.8753960484
 30
0.0
  0
SPLINE
  5
433
330
1B
100
AcDbEntity
 67
     1
  8
7_ALL_FEATURES
  6
Continuous
 62
     7
100
AcDbSpline
 70
     0
 71
     3
 72
    10
 73
     6
 74
     0
 42
0.000000001
 43
0.0000001
 40
0.0
 40
0.0
 40
0.0
 40
0.0
 40
0.2145692541
 40
0.4595548515
 40
1.0
 40
1.0
 40
1.0
 40
1.0
 10
152.2635243214
 20
728.6860004875
 30
0.0
 10
152.2176366756
 20
728.6028047107
 30
0.0
 10
152.1607964993
 20
728.4033550521
 30
0.0
 10
152.1142703626
 20
727.9634169291
 30
0.0
 10
152.1131407681
 20
727.6147061238
 30
0.0
 10
152.1131407681
 20
727.3753960484
 30
0.0
  0
SPLINE
  5
434
330
1B
100
AcDbEntity
 67
     1
  8
7_ALL_FEATURES
  6
Continuous
 62
     7
100
AcDbSpline
 70
     0
 71
     3
 72
    10
 73
     6
 74
     0
 42
0.000000001
 43
0.0000001
 40
0.0
 40
0.0
 40
0.0
 40
0.0
 40
0.5403384332
 40
0.7853379999
 40
1.0
 40
1.0
 40
1.0
 40
1.0
 10
152.1131407681
 20
727.3753960484
 30
0.0
 10
152.1131407681
 20
727.1363590333
 30
0.0
 10
152.1142778414
 20
726.7880260038
 30
0.0
 10
152.1606391359
 20
726.3484824541
 30
0.0
 10
152.2172319541
 20
726.1491559939
 30
0.0
 10
152.2629133242
 20
726.0659022517
 30
0.0
  0
LINE
  5
435
330
1B
100
AcDbEntity
 67
     1
  8
7_ALL_FEATURES
  6
Continuous
 62
     7
100
AcDbLine
 10
165.6081412527
 20
729.3753960484
 30
0.0
 11
165.6081412527
 21
725.3753960484
 31
0.0
  0
LINE
  5
436
330
1B
100
AcDbEntity
 67
     1
  8
7_ALL_FEATURES
  6
Continuous
 62
     9
100
AcDbLine
 10
150.6081412527
 20
721.1253960484
 30
0.0
 11
152.1081412527
 21
721.1253960484
 31
0.0
  0
LINE
  5
437
330
1B
100
AcDbEntity
 67
     1
  8
7_ALL_FEATURES
  6
Continuous
 62
     9
100
AcDbLine
 10
152.1081412527
 20
610.1253960484
 30
0.0
 11
150.6081412527
 21
610.1253960484
 31
0.0
  0
LINE
  5
438
330
1B
100
AcDbEntity
 67
     1
  8
7_ALL_FEATURES
  6
Continuous
 62
     9
100
AcDbLine
 10
152.1081412527
 20
621.6253960484
 30
0.0
 11
150.6081412527
 21
621.6253960484
 31
0.0
  0
LINE
  5
439
330
1B
100
AcDbEntity
 67
     1
  8
7_ALL_FEATURES
  6
Continuous
 62
     9
100
AcDbLine
 10
150.6081412527
 20
609.1253960484
 30
0.0
 11
152.1081412527
 21
609.1253960484
 31
0.0
  0
LINE
  5
43A
330
1B
100
AcDbEntity
 67
     1
  8
7_ALL_FEATURES
  6
Continuous
 62
     9
100
AcDbLine
 10
152.1081412527
 20
722.1253960484
 30
0.0
 11
150.6081412527
 21
722.1253960484
 31
0.0
  0
SPLINE
  5
43B
330
1B
100
AcDbEntity
 67
     1
  8
7_ALL_FEATURES
  6
Continuous
 62
     7
100
AcDbSpline
 70
     0
 71
     3
 72
    17
 73
    13
 74
     0
 42
0.000000001
 43
0.0000001
 40
0.0
 40
0.0
 40
0.0
 40
0.0
 40
0.1116976753
 40
0.1614169109
 40
0.212137418
 40
0.3345426981
 40
0.5001133517
 40
0.6655311251
 40
0.787888168
 40
0.8385986494
 40
0.8883106535
 40
1.0
 40
1.0
 40
1.0
 40
1.0
 10
151.4868209091
 20
728.8753960484
 30
0.0
 10
151.3389805401
 20
728.8753960484
 30
0.0
 10
151.1165610797
 20
728.8375635953
 30
0.0
 10
150.8860926588
 20
728.6695898348
 30
0.0
 10
150.7122634172
 20
728.4252854369
 30
0.0
 10
150.6220974101
 20
727.9734058738
 30
0.0
 10
150.6158315994
 20
727.3751445504
 30
0.0
 10
150.6221722087
 20
726.7769543385
 30
0.0
 10
150.7123135178
 20
726.3253527715
 30
0.0
 10
150.8861453145
 20
726.0811582388
 30
0.0
 10
151.1165949852
 20
725.9132240796
 30
0.0
 10
151.3389915639
 20
725.8753960484
 30
0.0
 10
151.4868209091
 20
725.8753960484
 30
0.0
  0
LINE
  5
43C
330
1B
100
AcDbEntity
 67
     1
  8
7_ALL_FEATURES
  6
Continuous
 62
     9
100
AcDbLine
 10
153.6081412527
 20
725.1253960484
 30
0.0
 11
153.6081412527
 21
729.6253960484
 31
0.0
  0
LINE
  5
43D
330
1B
100
AcDbEntity
 67
     1
  8
7_ALL_FEATURES
  6
Continuous
 62
     9
100
AcDbLine
 10
150.6081412527
 20
620.6253960484
 30
0.0
 11
152.1081412527
 21
620.6253960484
 31
0.0
  0
LINE
  5
43E
330
1B
100
AcDbEntity
 67
     1
  8
7_ALL_FEATURES
  6
Continuous
 62
     9
100
AcDbLine
 10
152.1081412527
 20
597.1253960484
 30
0.0
 11
150.6081412527
 21
597.1253960484
 31
0.0
  0
LINE
  5
43F
330
1B
100
AcDbEntity
 67
     1
  8
7_ALL_FEATURES
  6
Continuous
 62
     9
100
AcDbLine
 10
150.6081412527
 20
744.6253960484
 30
0.0
 11
152.1081412527
 21
744.6253960484
 31
0.0
  0
LINE
  5
440
330
1B
100
AcDbEntity
 67
     1
  8
7_ALL_FEATURES
  6
Continuous
 62
     9
100
AcDbLine
 10
152.1081412527
 20
733.6253960484
 30
0.0
 11
150.6081412527
 21
733.6253960484
 31
0.0
  0
SPLINE
  5
441
330
1B
100
AcDbEntity
 67
     1
  8
7_ALL_FEATURES
  6
Continuous
 62
     7
100
AcDbSpline
 70
     0
 71
     3
 72
    17
 73
    13
 74
     0
 42
0.000000001
 43
0.0000001
 40
0.0
 40
0.0
 40
0.0
 40
0.0
 40
0.1116976753
 40
0.1614169109
 40
0.212137418
 40
0.3345426981
 40
0.5001133517
 40
0.6655311251
 40
0.787888168
 40
0.8385986494
 40
0.8883106535
 40
1.0
 40
1.0
 40
1.0
 40
1.0
 10
151.4868209091
 20
616.8753960484
 30
0.0
 10
151.3389805401
 20
616.8753960484
 30
0.0
 10
151.1165610797
 20
616.8375635953
 30
0.0
 10
150.8860926588
 20
616.6695898348
 30
0.0
 10
150.7122634172
 20
616.4252854369
 30
0.0
 10
150.6220974101
 20
615.9734058738
 30
0.0
 10
150.6158315994
 20
615.3751445504
 30
0.0
 10
150.6221722087
 20
614.7769543385
 30
0.0
 10
150.7123135178
 20
614.3253527715
 30
0.0
 10
150.8861453145
 20
614.0811582388
 30
0.0
 10
151.1165949852
 20
613.9132240796
 30
0.0
 10
151.3389915639
 20
613.8753960484
 30
0.0
 10
151.4868209091
 20
613.8753960484
 30
0.0
  0
LINE
  5
442
330
1B
100
AcDbEntity
 67
     1
  8
7_ALL_FEATURES
  6
Continuous
 62
     9
100
AcDbLine
 10
153.6081412527
 20
613.1253960484
 30
0.0
 11
153.6081412527
 21
617.6253960484
 31
0.0
  0
LINE
  5
443
330
1B
100
AcDbEntity
 67
     1
  8
7_ALL_FEATURES
  6
Continuous
 62
     9
100
AcDbLine
 10
150.6081412527
 20
732.6253960484
 30
0.0
 11
152.1081412527
 21
732.6253960484
 31
0.0
  0
LINE
  5
444
330
1B
100
AcDbEntity
 67
     1
  8
7_ALL_FEATURES
  6
Continuous
 62
     7
100
AcDbLine
 10
1152.1081412527
 20
730.8753960484
 30
0.0
 11
1153.6081412527
 21
730.8753960484
 31
0.0
  0
LINE
  5
445
330
1B
100
AcDbEntity
 67
     1
  8
7_ALL_FEATURES
  6
Continuous
 62
     7
100
AcDbLine
 10
1152.1081412527
 20
595.1253960484
 30
0.0
 11
1153.6081412527
 21
595.1253960484
 31
0.0
  0
LINE
  5
446
330
1B
100
AcDbEntity
 67
     1
  8
7_ALL_FEATURES
  6
Continuous
 62
     7
100
AcDbLine
 10
1153.6081412527
 20
723.8753960484
 30
0.0
 11
1152.1081412527
 21
723.8753960484
 31
0.0
  0
LINE
  5
447
330
1B
100
AcDbEntity
 67
     1
  8
7_ALL_FEATURES
  6
Continuous
 62
     7
100
AcDbLine
 10
1152.1081412527
 20
733.1253960484
 30
0.0
 11
1153.6081412527
 21
733.1253960484
 31
0.0
  0
LINE
  5
448
330
1B
100
AcDbEntity
 67
     1
  8
7_ALL_FEATURES
  6
Continuous
 62
     7
100
AcDbLine
 10
1152.1081412527
 20
744.6253960484
 30
0.0
 11
1152.1081412527
 21
733.6253960484
 31
0.0
  0
LINE
  5
449
330
1B
100
AcDbEntity
 67
     1
  8
7_ALL_FEATURES
  6
Continuous
 62
     7
100
AcDbLine
 10
1138.6081412527
 20
729.3753960484
 30
0.0
 11
1138.6081412527
 21
725.3753960484
 31
0.0
  0
ARC
  5
44A
330
1B
100
AcDbEntity
 67
     1
  8
7_ALL_FEATURES
  6
Continuous
 62
     7
100
AcDbCircle
 10
1140.1081412527
 20
729.3753960484
 30
0.0
 40
1.5
100
AcDbArc
 50
170.173519033
 51
180.0
  0
ARC
  5
44B
330
1B
100
AcDbEntity
 67
     1
  8
7_ALL_FEATURES
  6
Continuous
 62
     7
100
AcDbCircle
 10
1140.1081412527
 20
725.3753960484
 30
0.0
 40
1.5
100
AcDbArc
 50
180.0
 51
189.826689932
  0
LINE
  5
44C
330
1B
100
AcDbEntity
 67
     1
  8
7_ALL_FEATURES
  6
Continuous
 62
     7
100
AcDbLine
 10
1153.6081412527
 20
745.1253960484
 30
0.0
 11
1152.1081412527
 21
745.1253960484
 31
0.0
  0
LINE
  5
44D
330
1B
100
AcDbEntity
 67
     1
  8
7_ALL_FEATURES
  6
Continuous
 62
     7
100
AcDbLine
 10
1153.6081412527
 20
721.6253960484
 30
0.0
 11
1152.1081412527
 21
721.6253960484
 31
0.0
  0
LINE
  5
44E
330
1B
100
AcDbEntity
 67
     1
  8
7_ALL_FEATURES
  6
Continuous
 62
     7
100
AcDbLine
 10
1152.1081412527
 20
721.1253960484
 30
0.0
 11
1152.1081412527
 21
621.6253960484
 31
0.0
  0
LINE
  5
44F
330
1B
100
AcDbEntity
 67
     1
  8
7_ALL_FEATURES
  6
Continuous
 62
     7
100
AcDbLine
 10
1152.1081412527
 20
621.1253960484
 30
0.0
 11
1153.6081412527
 21
621.1253960484
 31
0.0
  0
LINE
  5
450
330
1B
100
AcDbEntity
 67
     1
  8
7_ALL_FEATURES
  6
Continuous
 62
     7
100
AcDbLine
 10
1152.1081412527
 20
618.8753960484
 30
0.0
 11
1153.6081412527
 21
618.8753960484
 31
0.0
  0
SPLINE
  5
451
330
1B
100
AcDbEntity
 67
     1
  8
7_ALL_FEATURES
  6
Continuous
 62
     7
100
AcDbSpline
 70
     0
 71
     3
 72
     9
 73
     5
 74
     0
 42
0.000000001
 43
0.0000001
 40
0.0
 40
0.0
 40
0.0
 40
0.0
 40
0.2291976521
 40
1.0
 40
1.0
 40
1.0
 40
1.0
 10
1152.7294615963
 20
616.8753960484
 30
0.0
 10
1152.6811201988
 20
616.8753960484
 30
0.0
 10
1152.470231994
 20
616.8633631721
 30
0.0
 10
1152.2629497776
 20
616.8106489404
 30
0.0
 10
1152.1099936877
 20
616.7555593902
 30
0.0
  0
ARC
  5
452
330
1B
100
AcDbEntity
 67
     1
  8
7_ALL_FEATURES
  6
Continuous
 62
     7
100
AcDbCircle
 10
1152.9399125936
 20
614.4535808365
 30
0.0
 40
2.4470125974
100
AcDbArc
 50
109.8254589262
 51
113.7970679449
  0
SPLINE
  5
453
330
1B
100
AcDbEntity
 67
     1
  8
7_ALL_FEATURES
  6
Continuous
 62
     7
100
AcDbSpline
 70
     0
 71
     3
 72
    15
 73
    11
 74
     0
 42
0.000000001
 43
0.0000001
 40
0.0
 40
0.0
 40
0.0
 40
0.0
 40
0.1201433446
 40
0.2453226055
 40
0.3726107008
 40
0.5001051223
 40
0.6275154516
 40
0.7547208779
 40
0.8798683925
 40
1.0
 40
1.0
 40
1.0
 40
1.0
 10
1151.9525467455
 20
616.6925492003
 30
0.0
 10
1151.8204813517
 20
616.634356239
 30
0.0
 10
1151.5602289594
 20
616.4925401243
 30
0.0
 10
1151.2112154188
 20
616.2075363051
 30
0.0
 10
1150.9339589449
 20
615.8365751831
 30
0.0
 10
1150.8124299197
 20
615.3755097576
 30
0.0
 10
1150.933937972
 20
614.9145863072
 30
0.0
 10
1151.2108571802
 20
614.5436917819
 30
0.0
 10
1151.5596436768
 20
614.2586376266
 30
0.0
 10
1151.8198124834
 20
614.1167762675
 30
0.0
 10
1151.9518496072
 20
614.0585541264
 30
0.0
  0
ARC
  5
454
330
1B
100
AcDbEntity
 67
     1
  8
7_ALL_FEATURES
  6
Continuous
 62
     7
100
AcDbCircle
 10
1152.9408392639
 20
616.2995562706
 30
0.0
 40
2.4495287611
100
AcDbArc
 50
246.1873744124
 51
250.1716704248
  0
SPLINE
  5
455
330
1B
100
AcDbEntity
 67
     1
  8
7_ALL_FEATURES
  6
Continuous
 62
     7
100
AcDbSpline
 70
     0
 71
     3
 72
     9
 73
     5
 74
     0
 42
0.000000001
 43
0.0000001
 40
0.0
 40
0.0
 40
0.0
 40
0.0
 40
0.2703053213
 40
1.0
 40
1.0
 40
1.0
 40
1.0
 10
1152.1099515342
 20
613.9952523123
 30
0.0
 10
1152.1635784655
 20
613.9759351572
 30
0.0
 10
1152.3642990267
 20
613.9117782874
 30
0.0
 10
1152.5755889382
 20
613.8753960484
 30
0.0
 10
1152.7294615963
 20
613.8753960484
 30
0.0
  0
LINE
  5
456
330
1B
100
AcDbEntity
 67
     1
  8
7_ALL_FEATURES
  6
Continuous
 62
     7
100
AcDbLine
 10
1153.6081412527
 20
611.8753960484
 30
0.0
 11
1153.6081412527
 21
618.8753960484
 31
0.0
  0
LINE
  5
457
330
1B
100
AcDbEntity
 67
     1
  8
7_ALL_FEATURES
  6
Continuous
 62
     7
100
AcDbLine
 10
1153.6081412527
 20
723.8753960484
 30
0.0
 11
1153.6081412527
 21
730.8753960484
 31
0.0
  0
SPLINE
  5
458
330
1B
100
AcDbEntity
 67
     1
  8
7_ALL_FEATURES
  6
Continuous
 62
     7
100
AcDbSpline
 70
     0
 71
     3
 72
     9
 73
     5
 74
     0
 42
0.000000001
 43
0.0000001
 40
0.0
 40
0.0
 40
0.0
 40
0.0
 40
0.2291976521
 40
1.0
 40
1.0
 40
1.0
 40
1.0
 10
1152.7294615963
 20
728.8753960484
 30
0.0
 10
1152.6811201988
 20
728.8753960484
 30
0.0
 10
1152.470231994
 20
728.8633631721
 30
0.0
 10
1152.2629497776
 20
728.8106489404
 30
0.0
 10
1152.1099936877
 20
728.7555593902
 30
0.0
  0
ARC
  5
459
330
1B
100
AcDbEntity
 67
     1
  8
7_ALL_FEATURES
  6
Continuous
 62
     7
100
AcDbCircle
 10
1152.9399125936
 20
726.4535808366
 30
0.0
 40
2.4470125973
100
AcDbArc
 50
109.825458926
 51
113.797067945
  0
SPLINE
  5
45A
330
1B
100
AcDbEntity
 67
     1
  8
7_ALL_FEATURES
  6
Continuous
 62
     7
100
AcDbSpline
 70
     0
 71
     3
 72
    15
 73
    11
 74
     0
 42
0.000000001
 43
0.0000001
 40
0.0
 40
0.0
 40
0.0
 40
0.0
 40
0.1201433446
 40
0.2453226055
 40
0.3726107008
 40
0.5001051223
 40
0.6275154516
 40
0.7547208779
 40
0.8798683925
 40
1.0
 40
1.0
 40
1.0
 40
1.0
 10
1151.9525467455
 20
728.6925492003
 30
0.0
 10
1151.8204813517
 20
728.634356239
 30
0.0
 10
1151.5602289594
 20
728.4925401243
 30
0.0
 10
1151.2112154188
 20
728.2075363051
 30
0.0
 10
1150.9339589449
 20
727.8365751831
 30
0.0
 10
1150.8124299196
 20
727.3755097576
 30
0.0
 10
1150.933937972
 20
726.9145863072
 30
0.0
 10
1151.2108571802
 20
726.5436917819
 30
0.0
 10
1151.5596436768
 20
726.2586376266
 30
0.0
 10
1151.8198124834
 20
726.1167762675
 30
0.0
 10
1151.9518496072
 20
726.0585541264
 30
0.0
  0
ARC
  5
45B
330
1B
100
AcDbEntity
 67
     1
  8
7_ALL_FEATURES
  6
Continuous
 62
     7
100
AcDbCircle
 10
1152.940839264
 20
728.2995562709
 30
0.0
 40
2.4495287614
100
AcDbArc
 50
246.1873744128
 51
250.1716704246
  0
SPLINE
  5
45C
330
1B
100
AcDbEntity
 67
     1
  8
7_ALL_FEATURES
  6
Continuous
 62
     7
100
AcDbSpline
 70
     0
 71
     3
 72
     9
 73
     5
 74
     0
 42
0.000000001
 43
0.0000001
 40
0.0
 40
0.0
 40
0.0
 40
0.0
 40
0.2703053213
 40
1.0
 40
1.0
 40
1.0
 40
1.0
 10
1152.1099515342
 20
725.9952523123
 30
0.0
 10
1152.1635784655
 20
725.9759351572
 30
0.0
 10
1152.3642990267
 20
725.9117782874
 30
0.0
 10
1152.5755889382
 20
725.8753960484
 30
0.0
 10
1152.7294615963
 20
725.8753960484
 30
0.0
  0
SPLINE
  5
45D
330
1B
100
AcDbEntity
 67
     1
  8
7_ALL_FEATURES
  6
Continuous
 62
     7
100
AcDbSpline
 70
     0
 71
     3
 72
    10
 73
     6
 74
     0
 42
0.000000001
 43
0.0000001
 40
0.0
 40
0.0
 40
0.0
 40
0.0
 40
0.2145692541
 40
0.4595548515
 40
1.0
 40
1.0
 40
1.0
 40
1.0
 10
1151.952758184
 20
726.0647916093
 30
0.0
 10
1151.9986458298
 20
726.147987386
 30
0.0
 10
1152.0554860061
 20
726.3474370447
 30
0.0
 10
1152.1020121427
 20
726.7873751677
 30
0.0
 10
1152.1031417373
 20
727.136085973
 30
0.0
 10
1152.1031417373
 20
727.3753960484
 30
0.0
  0
SPLINE
  5
45E
330
1B
100
AcDbEntity
 67
     1
  8
7_ALL_FEATURES
  6
Continuous
 62
     7
100
AcDbSpline
 70
     0
 71
     3
 72
    10
 73
     6
 74
     0
 42
0.000000001
 43
0.0000001
 40
0.0
 40
0.0
 40
0.0
 40
0.0
 40
0.5403384332
 40
0.7853379999
 40
1.0
 40
1.0
 40
1.0
 40
1.0
 10
1152.1031417373
 20
727.3753960484
 30
0.0
 10
1152.1031417373
 20
727.6144330635
 30
0.0
 10
1152.102004664
 20
727.962766093
 30
0.0
 10
1152.0556433694
 20
728.4023096427
 30
0.0
 10
1151.9990505513
 20
728.6016361029
 30
0.0
 10
1151.9533691812
 20
728.6848898451
 30
0.0
  0
LINE
  5
45F
330
1B
100
AcDbEntity
 67
     1
  8
7_ALL_FEATURES
  6
Continuous
 62
     7
100
AcDbLine
 10
1152.1081412527
 20
733.4325757245
 30
0.0
 11
1152.1081412527
 21
733.6253960484
 31
0.0
  0
LINE
  5
460
330
1B
100
AcDbEntity
 67
     1
  8
7_ALL_FEATURES
  6
Continuous
 62
     7
100
AcDbLine
 10
1152.1081412527
 20
721.1253960484
 30
0.0
 11
1152.1081412527
 21
721.5867133154
 31
0.0
  0
LINE
  5
461
330
1B
100
AcDbEntity
 67
     1
  8
7_ALL_FEATURES
  6
Continuous
 62
     7
100
AcDbLine
 10
1152.1081412527
 20
621.4325757245
 30
0.0
 11
1152.1081412527
 21
621.6253960484
 31
0.0
  0
LINE
  5
462
330
1B
100
AcDbEntity
 67
     1
  8
7_ALL_FEATURES
  6
Continuous
 62
     7
100
AcDbLine
 10
1152.1081412527
 20
609.1253960484
 30
0.0
 11
1152.1081412527
 21
609.5867133154
 31
0.0
  0
LINE
  5
463
330
1B
100
AcDbEntity
 67
     1
  8
7_ALL_FEATURES
  6
Continuous
 62
     7
100
AcDbLine
 10
1152.1081412527
 20
596.5054653372
 30
0.0
 11
1152.1081412527
 21
597.1253960484
 31
0.0
  0
SPLINE
  5
464
330
1B
100
AcDbEntity
 67
     1
  8
7_ALL_FEATURES
  6
Continuous
 62
     7
100
AcDbSpline
 70
     0
 71
     3
 72
    10
 73
     6
 74
     0
 42
0.000000001
 43
0.0000001
 40
0.0
 40
0.0
 40
0.0
 40
0.0
 40
0.5403384332
 40
0.7853379999
 40
1.0
 40
1.0
 40
1.0
 40
1.0
 10
1152.1031417373
 20
615.3753960484
 30
0.0
 10
1152.1031417373
 20
615.6144330635
 30
0.0
 10
1152.102004664
 20
615.962766093
 30
0.0
 10
1152.0556433694
 20
616.4023096427
 30
0.0
 10
1151.9990505513
 20
616.6016361029
 30
0.0
 10
1151.9533691812
 20
616.6848898451
 30
0.0
  0
SPLINE
  5
465
330
1B
100
AcDbEntity
 67
     1
  8
7_ALL_FEATURES
  6
Continuous
 62
     7
100
AcDbSpline
 70
     0
 71
     3
 72
    10
 73
     6
 74
     0
 42
0.000000001
 43
0.0000001
 40
0.0
 40
0.0
 40
0.0
 40
0.0
 40
0.2145692541
 40
0.4595548515
 40
1.0
 40
1.0
 40
1.0
 40
1.0
 10
1151.952758184
 20
614.0647916093
 30
0.0
 10
1151.9986458298
 20
614.147987386
 30
0.0
 10
1152.0554860061
 20
614.3474370447
 30
0.0
 10
1152.1020121427
 20
614.7873751677
 30
0.0
 10
1152.1031417373
 20
615.136085973
 30
0.0
 10
1152.1031417373
 20
615.3753960484
 30
0.0
  0
ARC
  5
466
330
1B
100
AcDbEntity
 67
     1
  8
7_ALL_FEATURES
  6
Continuous
 62
     7
100
AcDbCircle
 10
1140.1081412527
 20
617.3753960484
 30
0.0
 40
1.5
100
AcDbArc
 50
170.173519033
 51
180.0
  0
LINE
  5
467
330
1B
100
AcDbEntity
 67
     1
  8
7_ALL_FEATURES
  6
Continuous
 62
     7
100
AcDbLine
 10
1138.6081412527
 20
617.3753960484
 30
0.0
 11
1138.6081412527
 21
613.3753960484
 31
0.0
  0
ARC
  5
468
330
1B
100
AcDbEntity
 67
     1
  8
7_ALL_FEATURES
  6
Continuous
 62
     7
100
AcDbCircle
 10
1140.1081412527
 20
613.3753960484
 30
0.0
 40
1.5
100
AcDbArc
 50
180.0
 51
189.826689932
  0
LINE
  5
469
330
1B
100
AcDbEntity
 67
     1
  8
7_ALL_FEATURES
  6
Continuous
 62
     7
100
AcDbLine
 10
1152.1081412527
 20
744.6253960484
 30
0.0
 11
1152.1081412527
 21
745.0867133154
 31
0.0
  0
LINE
  5
46A
330
1B
100
AcDbEntity
 67
     1
  8
7_ALL_FEATURES
  6
Continuous
 62
     7
100
AcDbLine
 10
1153.6081412527
 20
611.8753960484
 30
0.0
 11
1152.1081412527
 21
611.8753960484
 31
0.0
  0
LINE
  5
46B
330
1B
100
AcDbEntity
 67
     1
  8
7_ALL_FEATURES
  6
Continuous
 62
     7
100
AcDbLine
 10
1153.6081412527
 20
609.6253960484
 30
0.0
 11
1152.1081412527
 21
609.6253960484
 31
0.0
  0
LINE
  5
46C
330
1B
100
AcDbEntity
 67
     1
  8
7_ALL_FEATURES
  6
Continuous
 62
     7
100
AcDbLine
 10
1152.1081412527
 20
609.1253960484
 30
0.0
 11
1152.1081412527
 21
597.1253960484
 31
0.0
  0
LINE
  5
46D
330
1B
100
AcDbEntity
 67
     1
  8
7_ALL_FEATURES
  6
Continuous
 62
     7
100
AcDbLine
 10
1153.6081412527
 20
597.1253960484
 30
0.0
 11
1153.6081412527
 21
595.1253960484
 31
0.0
  0
LINE
  5
46E
330
1B
100
AcDbEntity
 67
     1
  8
7_ALL_FEATURES
  6
Continuous
 62
     7
100
AcDbLine
 10
1153.6081412527
 20
609.1253960484
 30
0.0
 11
1153.6081412527
 21
597.1253960484
 31
0.0
  0
LINE
  5
46F
330
1B
100
AcDbEntity
 67
     1
  8
7_ALL_FEATURES
  6
Continuous
 62
     7
100
AcDbLine
 10
1153.6081412527
 20
609.6253960484
 30
0.0
 11
1153.6081412527
 21
609.1253960484
 31
0.0
  0
LINE
  5
470
330
1B
100
AcDbEntity
 67
     1
  8
7_ALL_FEATURES
  6
Continuous
 62
     7
100
AcDbLine
 10
1153.6081412527
 20
610.1253960484
 30
0.0
 11
1153.6081412527
 21
609.6253960484
 31
0.0
  0
LINE
  5
471
330
1B
100
AcDbEntity
 67
     1
  8
7_ALL_FEATURES
  6
Continuous
 62
     7
100
AcDbLine
 10
1153.6081412527
 20
611.8753960484
 30
0.0
 11
1153.6081412527
 21
610.1253960484
 31
0.0
  0
LINE
  5
472
330
1B
100
AcDbEntity
 67
     1
  8
7_ALL_FEATURES
  6
Continuous
 62
     7
100
AcDbLine
 10
1153.6081412527
 20
620.6253960484
 30
0.0
 11
1153.6081412527
 21
618.8753960484
 31
0.0
  0
LINE
  5
473
330
1B
100
AcDbEntity
 67
     1
  8
7_ALL_FEATURES
  6
Continuous
 62
     7
100
AcDbLine
 10
1153.6081412527
 20
621.1253960484
 30
0.0
 11
1153.6081412527
 21
620.6253960484
 31
0.0
  0
LINE
  5
474
330
1B
100
AcDbEntity
 67
     1
  8
7_ALL_FEATURES
  6
Continuous
 62
     7
100
AcDbLine
 10
1153.6081412527
 20
621.6253960484
 30
0.0
 11
1153.6081412527
 21
621.1253960484
 31
0.0
  0
LINE
  5
475
330
1B
100
AcDbEntity
 67
     1
  8
7_ALL_FEATURES
  6
Continuous
 62
     7
100
AcDbLine
 10
1153.6081412527
 20
721.1253960484
 30
0.0
 11
1153.6081412527
 21
621.6253960484
 31
0.0
  0
LINE
  5
476
330
1B
100
AcDbEntity
 67
     1
  8
7_ALL_FEATURES
  6
Continuous
 62
     7
100
AcDbLine
 10
1153.6081412527
 20
721.6253960484
 30
0.0
 11
1153.6081412527
 21
721.1253960484
 31
0.0
  0
LINE
  5
477
330
1B
100
AcDbEntity
 67
     1
  8
7_ALL_FEATURES
  6
Continuous
 62
     7
100
AcDbLine
 10
1153.6081412527
 20
722.1253960484
 30
0.0
 11
1153.6081412527
 21
721.6253960484
 31
0.0
  0
LINE
  5
478
330
1B
100
AcDbEntity
 67
     1
  8
7_ALL_FEATURES
  6
Continuous
 62
     7
100
AcDbLine
 10
1153.6081412527
 20
723.8753960484
 30
0.0
 11
1153.6081412527
 21
722.1253960484
 31
0.0
  0
LINE
  5
479
330
1B
100
AcDbEntity
 67
     1
  8
7_ALL_FEATURES
  6
Continuous
 62
     7
100
AcDbLine
 10
1153.6081412527
 20
732.6253960484
 30
0.0
 11
1153.6081412527
 21
730.8753960484
 31
0.0
  0
LINE
  5
47A
330
1B
100
AcDbEntity
 67
     1
  8
7_ALL_FEATURES
  6
Continuous
 62
     7
100
AcDbLine
 10
1153.6081412527
 20
733.1253960484
 30
0.0
 11
1153.6081412527
 21
732.6253960484
 31
0.0
  0
LINE
  5
47B
330
1B
100
AcDbEntity
 67
     1
  8
7_ALL_FEATURES
  6
Continuous
 62
     7
100
AcDbLine
 10
1153.6081412527
 20
733.6253960484
 30
0.0
 11
1153.6081412527
 21
733.1253960484
 31
0.0
  0
LINE
  5
47C
330
1B
100
AcDbEntity
 67
     1
  8
7_ALL_FEATURES
  6
Continuous
 62
     7
100
AcDbLine
 10
1153.6081412527
 20
744.6253960484
 30
0.0
 11
1153.6081412527
 21
733.6253960484
 31
0.0
  0
LINE
  5
47D
330
1B
100
AcDbEntity
 67
     1
  8
7_ALL_FEATURES
  6
Continuous
 62
     7
100
AcDbLine
 10
1153.6081412527
 20
745.1253960484
 30
0.0
 11
1153.6081412527
 21
744.6253960484
 31
0.0
  0
LINE
  5
47E
330
1B
100
AcDbEntity
 67
     1
  8
7_ALL_FEATURES
  6
Continuous
 62
     9
100
AcDbLine
 10
1153.6081412527
 20
610.1253960484
 30
0.0
 11
1152.1081412527
 21
610.1253960484
 31
0.0
  0
SPLINE
  5
47F
330
1B
100
AcDbEntity
 67
     1
  8
7_ALL_FEATURES
  6
Continuous
 62
     7
100
AcDbSpline
 70
     0
 71
     3
 72
    17
 73
    13
 74
     0
 42
0.000000001
 43
0.0000001
 40
0.0
 40
0.0
 40
0.0
 40
0.0
 40
0.1116976753
 40
0.1614169109
 40
0.212137418
 40
0.3345426981
 40
0.5001133517
 40
0.6655311251
 40
0.787888168
 40
0.8385986494
 40
0.8883106535
 40
1.0
 40
1.0
 40
1.0
 40
1.0
 10
1152.7294615963
 20
725.8753960484
 30
0.0
 10
1152.8773019652
 20
725.8753960484
 30
0.0
 10
1153.0997214257
 20
725.9132285015
 30
0.0
 10
1153.3301898466
 20
726.0812022619
 30
0.0
 10
1153.5040190882
 20
726.3255066599
 30
0.0
 10
1153.5941850953
 20
726.777386223
 30
0.0
 10
1153.600450906
 20
727.3756475464
 30
0.0
 10
1153.5941102967
 20
727.9738377583
 30
0.0
 10
1153.5039689876
 20
728.4254393253
 30
0.0
 10
1153.3301371909
 20
728.669633858
 30
0.0
 10
1153.0996875202
 20
728.8375680171
 30
0.0
 10
1152.8772909415
 20
728.8753960484
 30
0.0
 10
1152.7294615963
 20
728.8753960484
 30
0.0
  0
LINE
  5
480
330
1B
100
AcDbEntity
 67
     1
  8
7_ALL_FEATURES
  6
Continuous
 62
     9
100
AcDbLine
 10
1152.1081412527
 20
609.1253960484
 30
0.0
 11
1153.6081412527
 21
609.1253960484
 31
0.0
  0
LINE
  5
481
330
1B
100
AcDbEntity
 67
     1
  8
7_ALL_FEATURES
  6
Continuous
 62
     9
100
AcDbLine
 10
1152.1081412527
 20
620.6253960484
 30
0.0
 11
1153.6081412527
 21
620.6253960484
 31
0.0
  0
LINE
  5
482
330
1B
100
AcDbEntity
 67
     1
  8
7_ALL_FEATURES
  6
Continuous
 62
     9
100
AcDbLine
 10
1153.6081412527
 20
722.1253960484
 30
0.0
 11
1152.1081412527
 21
722.1253960484
 31
0.0
  0
SPLINE
  5
483
330
1B
100
AcDbEntity
 67
     1
  8
7_ALL_FEATURES
  6
Continuous
 62
     7
100
AcDbSpline
 70
     0
 71
     3
 72
    17
 73
    13
 74
     0
 42
0.000000001
 43
0.0000001
 40
0.0
 40
0.0
 40
0.0
 40
0.0
 40
0.1116976753
 40
0.1614169109
 40
0.212137418
 40
0.3345426981
 40
0.5001133517
 40
0.6655311251
 40
0.787888168
 40
0.8385986494
 40
0.8883106535
 40
1.0
 40
1.0
 40
1.0
 40
1.0
 10
1152.7294615963
 20
613.8753960484
 30
0.0
 10
1152.8773019652
 20
613.8753960484
 30
0.0
 10
1153.0997214257
 20
613.9132285015
 30
0.0
 10
1153.3301898466
 20
614.0812022619
 30
0.0
 10
1153.5040190882
 20
614.3255066599
 30
0.0
 10
1153.5941850953
 20
614.777386223
 30
0.0
 10
1153.600450906
 20
615.3756475464
 30
0.0
 10
1153.5941102967
 20
615.9738377583
 30
0.0
 10
1153.5039689876
 20
616.4254393253
 30
0.0
 10
1153.3301371909
 20
616.669633858
 30
0.0
 10
1153.0996875202
 20
616.8375680171
 30
0.0
 10
1152.8772909415
 20
616.8753960484
 30
0.0
 10
1152.7294615963
 20
616.8753960484
 30
0.0
  0
LINE
  5
484
330
1B
100
AcDbEntity
 67
     1
  8
7_ALL_FEATURES
  6
Continuous
 62
     9
100
AcDbLine
 10
1153.6081412527
 20
597.1253960484
 30
0.0
 11
1152.1081412527
 21
597.1253960484
 31
0.0
  0
LINE
  5
485
330
1B
100
AcDbEntity
 67
     1
  8
7_ALL_FEATURES
  6
Continuous
 62
     9
100
AcDbLine
 10
1152.1081412527
 20
732.6253960484
 30
0.0
 11
1153.6081412527
 21
732.6253960484
 31
0.0
  0
LINE
  5
486
330
1B
100
AcDbEntity
 67
     1
  8
7_ALL_FEATURES
  6
Continuous
 62
     9
100
AcDbLine
 10
1150.6081412527
 20
617.6253960484
 30
0.0
 11
1150.6081412527
 21
613.1253960484
 31
0.0
  0
LINE
  5
487
330
1B
100
AcDbEntity
 67
     1
  8
7_ALL_FEATURES
  6
Continuous
 62
     9
100
AcDbLine
 10
1152.1081412527
 20
721.1253960484
 30
0.0
 11
1153.6081412527
 21
721.1253960484
 31
0.0
  0
LINE
  5
488
330
1B
100
AcDbEntity
 67
     1
  8
7_ALL_FEATURES
  6
Continuous
 62
     9
100
AcDbLine
 10
1153.6081412527
 20
733.6253960484
 30
0.0
 11
1152.1081412527
 21
733.6253960484
 31
0.0
  0
LINE
  5
489
330
1B
100
AcDbEntity
 67
     1
  8
7_ALL_FEATURES
  6
Continuous
 62
     9
100
AcDbLine
 10
1152.1081412527
 20
744.6253960484
 30
0.0
 11
1153.6081412527
 21
744.6253960484
 31
0.0
  0
LINE
  5
48A
330
1B
100
AcDbEntity
 67
     1
  8
7_ALL_FEATURES
  6
Continuous
 62
     9
100
AcDbLine
 10
1153.6081412527
 20
621.6253960484
 30
0.0
 11
1152.1081412527
 21
621.6253960484
 31
0.0
  0
LINE
  5
48B
330
1B
100
AcDbEntity
 67
     1
  8
7_ALL_FEATURES
  6
Continuous
 62
     9
100
AcDbLine
 10
1150.6081412527
 20
729.6253960484
 30
0.0
 11
1150.6081412527
 21
725.1253960484
 31
0.0
  0
LINE
  5
48C
330
1B
100
AcDbEntity
 67
     1
  8
03__ASM_ALL_CURVES
  6
Continuous
 62
    40
100
AcDbLine
 10
150.6081412527
 20
744.6253960484
 30
0.0
 11
150.6081412527
 21
745.1253960484
 31
0.0
  0
LINE
  5
48D
330
1B
100
AcDbEntity
 67
     1
  8
03__ASM_ALL_CURVES
  6
Continuous
 62
    40
100
AcDbLine
 10
150.6081412527
 20
733.6253960484
 30
0.0
 11
150.6081412527
 21
744.6253960484
 31
0.0
  0
LINE
  5
48E
330
1B
100
AcDbEntity
 67
     1
  8
03__ASM_ALL_CURVES
  6
Continuous
 62
    40
100
AcDbLine
 10
150.6081412527
 20
733.1253960484
 30
0.0
 11
150.6081412527
 21
733.6253960484
 31
0.0
  0
LINE
  5
48F
330
1B
100
AcDbEntity
 67
     1
  8
03__ASM_ALL_CURVES
  6
Continuous
 62
    40
100
AcDbLine
 10
150.6081412527
 20
730.8753960484
 30
0.0
 11
150.6081412527
 21
733.1253960484
 31
0.0
  0
LINE
  5
490
330
1B
100
AcDbEntity
 67
     1
  8
03__ASM_ALL_CURVES
  6
Continuous
 62
    40
100
AcDbLine
 10
150.6081412527
 20
723.8753960484
 30
0.0
 11
150.6081412527
 21
730.8753960484
 31
0.0
  0
LINE
  5
491
330
1B
100
AcDbEntity
 67
     1
  8
03__ASM_ALL_CURVES
  6
Continuous
 62
    40
100
AcDbLine
 10
150.6081412527
 20
721.6253960484
 30
0.0
 11
150.6081412527
 21
723.8753960484
 31
0.0
  0
LINE
  5
492
330
1B
100
AcDbEntity
 67
     1
  8
03__ASM_ALL_CURVES
  6
Continuous
 62
    40
100
AcDbLine
 10
150.6081412527
 20
721.1253960484
 30
0.0
 11
150.6081412527
 21
721.6253960484
 31
0.0
  0
LINE
  5
493
330
1B
100
AcDbEntity
 67
     1
  8
03__ASM_ALL_CURVES
  6
Continuous
 62
    40
100
AcDbLine
 10
150.6081412527
 20
621.6253960484
 30
0.0
 11
150.6081412527
 21
721.1253960484
 31
0.0
  0
LINE
  5
494
330
1B
100
AcDbEntity
 67
     1
  8
03__ASM_ALL_CURVES
  6
Continuous
 62
    40
100
AcDbLine
 10
150.6081412527
 20
621.1253960484
 30
0.0
 11
150.6081412527
 21
621.6253960484
 31
0.0
  0
LINE
  5
495
330
1B
100
AcDbEntity
 67
     1
  8
03__ASM_ALL_CURVES
  6
Continuous
 62
    40
100
AcDbLine
 10
150.6081412527
 20
618.8753960484
 30
0.0
 11
150.6081412527
 21
621.1253960484
 31
0.0
  0
LINE
  5
496
330
1B
100
AcDbEntity
 67
     1
  8
03__ASM_ALL_CURVES
  6
Continuous
 62
    40
100
AcDbLine
 10
150.6081412527
 20
611.8753960484
 30
0.0
 11
150.6081412527
 21
618.8753960484
 31
0.0
  0
LINE
  5
497
330
1B
100
AcDbEntity
 67
     1
  8
03__ASM_ALL_CURVES
  6
Continuous
 62
    40
100
AcDbLine
 10
150.6081412527
 20
609.6253960484
 30
0.0
 11
150.6081412527
 21
611.8753960484
 31
0.0
  0
LINE
  5
498
330
1B
100
AcDbEntity
 67
     1
  8
03__ASM_ALL_CURVES
  6
Continuous
 62
    40
100
AcDbLine
 10
150.6081412527
 20
609.1253960484
 30
0.0
 11
150.6081412527
 21
609.6253960484
 31
0.0
  0
LINE
  5
499
330
1B
100
AcDbEntity
 67
     1
  8
03__ASM_ALL_CURVES
  6
Continuous
 62
    40
100
AcDbLine
 10
150.6081412527
 20
597.1253960484
 30
0.0
 11
150.6081412527
 21
609.1253960484
 31
0.0
  0
LINE
  5
49A
330
1B
100
AcDbEntity
 67
     1
  8
03__ASM_ALL_CURVES
  6
Continuous
 62
    40
100
AcDbLine
 10
150.6081412527
 20
595.1253960484
 30
0.0
 11
150.6081412527
 21
597.1253960484
 31
0.0
  0
LINE
  5
49B
330
1B
100
AcDbEntity
 67
     1
  8
03__ASM_ALL_CURVES
  6
Continuous
 62
    40
100
AcDbLine
 10
152.1081412527
 20
595.1253960484
 30
0.0
 11
150.6081412527
 21
595.1253960484
 31
0.0
  0
LINE
  5
49C
330
1B
100
AcDbEntity
 67
     1
  8
03__ASM_ALL_CURVES
  6
Continuous
 62
    40
100
AcDbLine
 10
1152.1081412527
 20
595.1253960484
 30
0.0
 11
152.1081412527
 21
595.1253960484
 31
0.0
  0
LINE
  5
49D
330
1B
100
AcDbEntity
 67
     1
  8
03__ASM_ALL_CURVES
  6
Continuous
 62
    40
100
AcDbLine
 10
1153.6081412527
 20
595.1253960484
 30
0.0
 11
1152.1081412527
 21
595.1253960484
 31
0.0
  0
LINE
  5
49E
330
1B
100
AcDbEntity
 67
     1
  8
03__ASM_ALL_CURVES
  6
Continuous
 62
    40
100
AcDbLine
 10
1153.6081412527
 20
597.1253960484
 30
0.0
 11
1153.6081412527
 21
595.1253960484
 31
0.0
  0
LINE
  5
49F
330
1B
100
AcDbEntity
 67
     1
  8
03__ASM_ALL_CURVES
  6
Continuous
 62
    40
100
AcDbLine
 10
1153.6081412527
 20
609.1253960484
 30
0.0
 11
1153.6081412527
 21
597.1253960484
 31
0.0
  0
LINE
  5
4A0
330
1B
100
AcDbEntity
 67
     1
  8
03__ASM_ALL_CURVES
  6
Continuous
 62
    40
100
AcDbLine
 10
1153.6081412527
 20
609.6253960484
 30
0.0
 11
1153.6081412527
 21
609.1253960484
 31
0.0
  0
LINE
  5
4A1
330
1B
100
AcDbEntity
 67
     1
  8
03__ASM_ALL_CURVES
  6
Continuous
 62
    40
100
AcDbLine
 10
1153.6081412527
 20
611.8753960484
 30
0.0
 11
1153.6081412527
 21
609.6253960484
 31
0.0
  0
LINE
  5
4A2
330
1B
100
AcDbEntity
 67
     1
  8
03__ASM_ALL_CURVES
  6
Continuous
 62
    40
100
AcDbLine
 10
1153.6081412527
 20
618.8753960484
 30
0.0
 11
1153.6081412527
 21
611.8753960484
 31
0.0
  0
LINE
  5
4A3
330
1B
100
AcDbEntity
 67
     1
  8
03__ASM_ALL_CURVES
  6
Continuous
 62
    40
100
AcDbLine
 10
1153.6081412527
 20
621.1253960484
 30
0.0
 11
1153.6081412527
 21
618.8753960484
 31
0.0
  0
LINE
  5
4A4
330
1B
100
AcDbEntity
 67
     1
  8
03__ASM_ALL_CURVES
  6
Continuous
 62
    40
100
AcDbLine
 10
1153.6081412527
 20
621.6253960484
 30
0.0
 11
1153.6081412527
 21
621.1253960484
 31
0.0
  0
LINE
  5
4A5
330
1B
100
AcDbEntity
 67
     1
  8
03__ASM_ALL_CURVES
  6
Continuous
 62
    40
100
AcDbLine
 10
1153.6081412527
 20
721.1253960484
 30
0.0
 11
1153.6081412527
 21
621.6253960484
 31
0.0
  0
LINE
  5
4A6
330
1B
100
AcDbEntity
 67
     1
  8
03__ASM_ALL_CURVES
  6
Continuous
 62
    40
100
AcDbLine
 10
1153.6081412527
 20
721.6253960484
 30
0.0
 11
1153.6081412527
 21
721.1253960484
 31
0.0
  0
LINE
  5
4A7
330
1B
100
AcDbEntity
 67
     1
  8
03__ASM_ALL_CURVES
  6
Continuous
 62
    40
100
AcDbLine
 10
1153.6081412527
 20
723.8753960484
 30
0.0
 11
1153.6081412527
 21
721.6253960484
 31
0.0
  0
LINE
  5
4A8
330
1B
100
AcDbEntity
 67
     1
  8
03__ASM_ALL_CURVES
  6
Continuous
 62
    40
100
AcDbLine
 10
1153.6081412527
 20
730.8753960484
 30
0.0
 11
1153.6081412527
 21
723.8753960484
 31
0.0
  0
LINE
  5
4A9
330
1B
100
AcDbEntity
 67
     1
  8
03__ASM_ALL_CURVES
  6
Continuous
 62
    40
100
AcDbLine
 10
1153.6081412527
 20
733.1253960484
 30
0.0
 11
1153.6081412527
 21
730.8753960484
 31
0.0
  0
LINE
  5
4AA
330
1B
100
AcDbEntity
 67
     1
  8
03__ASM_ALL_CURVES
  6
Continuous
 62
    40
100
AcDbLine
 10
1153.6081412527
 20
733.6253960484
 30
0.0
 11
1153.6081412527
 21
733.1253960484
 31
0.0
  0
LINE
  5
4AB
330
1B
100
AcDbEntity
 67
     1
  8
03__ASM_ALL_CURVES
  6
Continuous
 62
    40
100
AcDbLine
 10
1153.6081412527
 20
744.6253960484
 30
0.0
 11
1153.6081412527
 21
733.6253960484
 31
0.0
  0
LINE
  5
4AC
330
1B
100
AcDbEntity
 67
     1
  8
03__ASM_ALL_CURVES
  6
Continuous
 62
    40
100
AcDbLine
 10
1153.6081412527
 20
745.1253960484
 30
0.0
 11
1153.6081412527
 21
744.6253960484
 31
0.0
  0
LINE
  5
4AD
330
1B
100
AcDbEntity
 67
     1
  8
03__ASM_ALL_CURVES
  6
Continuous
 62
    40
100
AcDbLine
 10
1152.1081412527
 20
745.1253960484
 30
0.0
 11
1153.6081412527
 21
745.1253960484
 31
0.0
  0
LINE
  5
4AE
330
1B
100
AcDbEntity
 67
     1
  8
03__ASM_ALL_CURVES
  6
Continuous
 62
    40
100
AcDbLine
 10
152.1081412527
 20
745.1253960484
 30
0.0
 11
1152.1081412527
 21
745.1253960484
 31
0.0
  0
LINE
  5
4AF
330
1B
100
AcDbEntity
 67
     1
  8
03__ASM_ALL_CURVES
  6
Continuous
 62
    40
100
AcDbLine
 10
150.6081412527
 20
745.1253960484
 30
0.0
 11
152.1081412527
 21
745.1253960484
 31
0.0
  0
LINE
  5
4B0
330
1B
100
AcDbEntity
 67
     1
  8
03__ASM_ALL_CURVES
  6
Continuous
 62
    40
100
AcDbLine
 10
150.6081412527
 20
597.1253960484
 30
0.0
 11
150.6081412527
 21
595.1253960484
 31
0.0
  0
LINE
  5
4B1
330
1B
100
AcDbEntity
 67
     1
  8
03__ASM_ALL_CURVES
  6
Continuous
 62
    40
100
AcDbLine
 10
150.6081412527
 20
609.1253960484
 30
0.0
 11
150.6081412527
 21
597.1253960484
 31
0.0
  0
LINE
  5
4B2
330
1B
100
AcDbEntity
 67
     1
  8
03__ASM_ALL_CURVES
  6
Continuous
 62
    40
100
AcDbLine
 10
150.6081412527
 20
609.6253960484
 30
0.0
 11
150.6081412527
 21
609.1253960484
 31
0.0
  0
LINE
  5
4B3
330
1B
100
AcDbEntity
 67
     1
  8
03__ASM_ALL_CURVES
  6
Continuous
 62
    40
100
AcDbLine
 10
150.6081412527
 20
611.8753960484
 30
0.0
 11
150.6081412527
 21
609.6253960484
 31
0.0
  0
LINE
  5
4B4
330
1B
100
AcDbEntity
 67
     1
  8
03__ASM_ALL_CURVES
  6
Continuous
 62
    40
100
AcDbLine
 10
150.6081412527
 20
618.8753960484
 30
0.0
 11
150.6081412527
 21
611.8753960484
 31
0.0
  0
LINE
  5
4B5
330
1B
100
AcDbEntity
 67
     1
  8
03__ASM_ALL_CURVES
  6
Continuous
 62
    40
100
AcDbLine
 10
150.6081412527
 20
621.1253960484
 30
0.0
 11
150.6081412527
 21
618.8753960484
 31
0.0
  0
LINE
  5
4B6
330
1B
100
AcDbEntity
 67
     1
  8
03__ASM_ALL_CURVES
  6
Continuous
 62
    40
100
AcDbLine
 10
150.6081412527
 20
621.6253960484
 30
0.0
 11
150.6081412527
 21
621.1253960484
 31
0.0
  0
LINE
  5
4B7
330
1B
100
AcDbEntity
 67
     1
  8
03__ASM_ALL_CURVES
  6
Continuous
 62
    40
100
AcDbLine
 10
150.6081412527
 20
721.1253960484
 30
0.0
 11
150.6081412527
 21
621.6253960484
 31
0.0
  0
LINE
  5
4B8
330
1B
100
AcDbEntity
 67
     1
  8
03__ASM_ALL_CURVES
  6
Continuous
 62
    40
100
AcDbLine
 10
150.6081412527
 20
721.6253960484
 30
0.0
 11
150.6081412527
 21
721.1253960484
 31
0.0
  0
LINE
  5
4B9
330
1B
100
AcDbEntity
 67
     1
  8
03__ASM_ALL_CURVES
  6
Continuous
 62
    40
100
AcDbLine
 10
150.6081412527
 20
723.8753960484
 30
0.0
 11
150.6081412527
 21
721.6253960484
 31
0.0
  0
LINE
  5
4BA
330
1B
100
AcDbEntity
 67
     1
  8
03__ASM_ALL_CURVES
  6
Continuous
 62
    40
100
AcDbLine
 10
150.6081412527
 20
730.8753960484
 30
0.0
 11
150.6081412527
 21
723.8753960484
 31
0.0
  0
LINE
  5
4BB
330
1B
100
AcDbEntity
 67
     1
  8
03__ASM_ALL_CURVES
  6
Continuous
 62
    40
100
AcDbLine
 10
150.6081412527
 20
733.1253960484
 30
0.0
 11
150.6081412527
 21
730.8753960484
 31
0.0
  0
LINE
  5
4BC
330
1B
100
AcDbEntity
 67
     1
  8
03__ASM_ALL_CURVES
  6
Continuous
 62
    40
100
AcDbLine
 10
150.6081412527
 20
733.6253960484
 30
0.0
 11
150.6081412527
 21
733.1253960484
 31
0.0
  0
LINE
  5
4BD
330
1B
100
AcDbEntity
 67
     1
  8
03__ASM_ALL_CURVES
  6
Continuous
 62
    40
100
AcDbLine
 10
150.6081412527
 20
744.6253960484
 30
0.0
 11
150.6081412527
 21
733.6253960484
 31
0.0
  0
LINE
  5
4BE
330
1B
100
AcDbEntity
 67
     1
  8
03__ASM_ALL_CURVES
  6
Continuous
 62
    40
100
AcDbLine
 10
150.6081412527
 20
745.1253960484
 30
0.0
 11
150.6081412527
 21
744.6253960484
 31
0.0
  0
LINE
  5
4BF
330
1B
100
AcDbEntity
 67
     1
  8
02___PRT_ALL_AXES
  6
Continuous
 62
     7
100
AcDbLine
 10
152.1081412527
 20
745.1253960484
 30
0.0
 11
152.1081412527
 21
744.9253960484
 31
0.0
  0
LINE
  5
4C0
330
1B
100
AcDbEntity
 67
     1
  8
02___PRT_ALL_AXES
  6
Continuous
 62
     7
100
AcDbLine
 10
152.1081412527
 20
744.9253960484
 30
0.0
 11
152.1081412527
 21
744.6253960484
 31
0.0
  0
LINE
  5
4C1
330
1B
100
AcDbEntity
 67
     1
  8
02___PRT_ALL_AXES
  6
Continuous
 62
     7
100
AcDbLine
 10
152.1081412527
 20
744.6253960484
 30
0.0
 11
152.1081412527
 21
744.1253960484
 31
0.0
  0
LINE
  5
4C2
330
1B
100
AcDbEntity
 67
     1
  8
02___PRT_ALL_AXES
  6
Continuous
 62
     7
100
AcDbLine
 10
152.1081412527
 20
744.1253960484
 30
0.0
 11
152.1081412527
 21
743.9914189484
 31
0.0
  0
LINE
  5
4C3
330
1B
100
AcDbEntity
 67
     1
  8
02___PRT_ALL_AXES
  6
Continuous
 62
     7
100
AcDbLine
 10
152.1081412527
 20
743.9914189484
 30
0.0
 11
152.1081412527
 21
743.6406548617
 31
0.0
  0
LINE
  5
4C4
330
1B
100
AcDbEntity
 67
     1
  8
02___PRT_ALL_AXES
  6
Continuous
 62
     7
100
AcDbLine
 10
152.1081412527
 20
743.6406548617
 30
0.0
 11
152.1081412527
 21
743.3253960484
 31
0.0
  0
LINE
  5
4C5
330
1B
100
AcDbEntity
 67
     1
  8
02___PRT_ALL_AXES
  6
Continuous
 62
     7
100
AcDbLine
 10
152.1081412527
 20
743.3253960484
 30
0.0
 11
152.1081412527
 21
733.6253960484
 31
0.0
  0
LINE
  5
4C6
330
1B
100
AcDbEntity
 67
     1
  8
02___PRT_ALL_AXES
  6
Continuous
 62
     7
100
AcDbLine
 10
152.1081412527
 20
733.6253960484
 30
0.0
 11
152.1081412527
 21
733.3253960484
 31
0.0
  0
LINE
  5
4C7
330
1B
100
AcDbEntity
 67
     1
  8
02___PRT_ALL_AXES
  6
Continuous
 62
     7
100
AcDbLine
 10
152.1081412527
 20
733.3253960484
 30
0.0
 11
152.1081412527
 21
733.1253960484
 31
0.0
  0
LINE
  5
4C8
330
1B
100
AcDbEntity
 67
     1
  8
02___PRT_ALL_AXES
  6
Continuous
 62
     7
100
AcDbLine
 10
152.1081412527
 20
733.1253960484
 30
0.0
 11
152.1081412527
 21
733.0283968587
 31
0.0
  0
LINE
  5
4C9
330
1B
100
AcDbEntity
 67
     1
  8
02___PRT_ALL_AXES
  6
Continuous
 62
     7
100
AcDbLine
 10
152.1081412527
 20
733.0283968587
 30
0.0
 11
152.1081412527
 21
732.7633892179
 31
0.0
  0
LINE
  5
4CA
330
1B
100
AcDbEntity
 67
     1
  8
02___PRT_ALL_AXES
  6
Continuous
 62
     7
100
AcDbLine
 10
152.1081412527
 20
732.7633892179
 30
0.0
 11
152.1081412527
 21
732.4013833138
 31
0.0
  0
LINE
  5
4CB
330
1B
100
AcDbEntity
 67
     1
  8
02___PRT_ALL_AXES
  6
Continuous
 62
     7
100
AcDbLine
 10
152.1081412527
 20
732.4013833138
 30
0.0
 11
152.1081412527
 21
731.1253960484
 31
0.0
  0
LINE
  5
4CC
330
1B
100
AcDbEntity
 67
     1
  8
02___PRT_ALL_AXES
  6
Continuous
 62
     7
100
AcDbLine
 10
152.1081412527
 20
731.1253960484
 30
0.0
 11
152.1081412527
 21
730.1253960484
 31
0.0
  0
LINE
  5
4CD
330
1B
100
AcDbEntity
 67
     1
  8
02___PRT_ALL_AXES
  6
Continuous
 62
     7
100
AcDbLine
 10
152.1081412527
 20
730.1253960484
 30
0.0
 11
152.1081412527
 21
729.6253960484
 31
0.0
  0
LINE
  5
4CE
330
1B
100
AcDbEntity
 67
     1
  8
02___PRT_ALL_AXES
  6
Continuous
 62
     7
100
AcDbLine
 10
152.1081412527
 20
725.1253960484
 30
0.0
 11
152.1081412527
 21
724.6253960484
 31
0.0
  0
LINE
  5
4CF
330
1B
100
AcDbEntity
 67
     1
  8
02___PRT_ALL_AXES
  6
Continuous
 62
     7
100
AcDbLine
 10
152.1081412527
 20
724.6253960484
 30
0.0
 11
152.1081412527
 21
723.6253960484
 31
0.0
  0
LINE
  5
4D0
330
1B
100
AcDbEntity
 67
     1
  8
02___PRT_ALL_AXES
  6
Continuous
 62
     7
100
AcDbLine
 10
152.1081412527
 20
723.6253960484
 30
0.0
 11
152.1081412527
 21
722.1253960484
 31
0.0
  0
LINE
  5
4D1
330
1B
100
AcDbEntity
 67
     1
  8
02___PRT_ALL_AXES
  6
Continuous
 62
     7
100
AcDbLine
 10
152.1081412527
 20
722.1253960484
 30
0.0
 11
152.1081412527
 21
721.6253960484
 31
0.0
  0
LINE
  5
4D2
330
1B
100
AcDbEntity
 67
     1
  8
02___PRT_ALL_AXES
  6
Continuous
 62
     7
100
AcDbLine
 10
152.1081412527
 20
721.4253960484
 30
0.0
 11
152.1081412527
 21
721.1253960484
 31
0.0
  0
LINE
  5
4D3
330
1B
100
AcDbEntity
 67
     1
  8
02___PRT_ALL_AXES
  6
Continuous
 62
     7
100
AcDbLine
 10
152.1081412527
 20
721.1253960484
 30
0.0
 11
152.1081412527
 21
686.1253960484
 31
0.0
  0
LINE
  5
4D4
330
1B
100
AcDbEntity
 67
     1
  8
02___PRT_ALL_AXES
  6
Continuous
 62
     7
100
AcDbLine
 10
152.1081412527
 20
686.1253960484
 30
0.0
 11
152.1081412527
 21
684.6253960484
 31
0.0
  0
LINE
  5
4D5
330
1B
100
AcDbEntity
 67
     1
  8
02___PRT_ALL_AXES
  6
Continuous
 62
     7
100
AcDbLine
 10
152.1081412527
 20
684.6253960484
 30
0.0
 11
152.1081412527
 21
621.6253960484
 31
0.0
  0
LINE
  5
4D6
330
1B
100
AcDbEntity
 67
     1
  8
02___PRT_ALL_AXES
  6
Continuous
 62
     7
100
AcDbLine
 10
152.1081412527
 20
621.6253960484
 30
0.0
 11
152.1081412527
 21
621.3253960484
 31
0.0
  0
LINE
  5
4D7
330
1B
100
AcDbEntity
 67
     1
  8
02___PRT_ALL_AXES
  6
Continuous
 62
     7
100
AcDbLine
 10
152.1081412527
 20
621.3253960484
 30
0.0
 11
152.1081412527
 21
621.1253960484
 31
0.0
  0
LINE
  5
4D8
330
1B
100
AcDbEntity
 67
     1
  8
02___PRT_ALL_AXES
  6
Continuous
 62
     7
100
AcDbLine
 10
152.1081412527
 20
621.1253960484
 30
0.0
 11
152.1081412527
 21
621.0584087503
 31
0.0
  0
LINE
  5
4D9
330
1B
100
AcDbEntity
 67
     1
  8
02___PRT_ALL_AXES
  6
Continuous
 62
     7
100
AcDbLine
 10
152.1081412527
 20
621.0584087503
 30
0.0
 11
152.1081412527
 21
620.8753960484
 31
0.0
  0
LINE
  5
4DA
330
1B
100
AcDbEntity
 67
     1
  8
02___PRT_ALL_AXES
  6
Continuous
 62
     7
100
AcDbLine
 10
152.1081412527
 20
620.8753960484
 30
0.0
 11
152.1081412527
 21
620.6253960484
 31
0.0
  0
LINE
  5
4DB
330
1B
100
AcDbEntity
 67
     1
  8
02___PRT_ALL_AXES
  6
Continuous
 62
     7
100
AcDbLine
 10
152.1081412527
 20
620.6253960484
 30
0.0
 11
152.1081412527
 21
619.1253960484
 31
0.0
  0
LINE
  5
4DC
330
1B
100
AcDbEntity
 67
     1
  8
02___PRT_ALL_AXES
  6
Continuous
 62
     7
100
AcDbLine
 10
152.1081412527
 20
619.1253960484
 30
0.0
 11
152.1081412527
 21
618.1253960484
 31
0.0
  0
LINE
  5
4DD
330
1B
100
AcDbEntity
 67
     1
  8
02___PRT_ALL_AXES
  6
Continuous
 62
     7
100
AcDbLine
 10
152.1081412527
 20
618.1253960484
 30
0.0
 11
152.1081412527
 21
617.6253960484
 31
0.0
  0
LINE
  5
4DE
330
1B
100
AcDbEntity
 67
     1
  8
02___PRT_ALL_AXES
  6
Continuous
 62
     7
100
AcDbLine
 10
152.1081412527
 20
613.1253960484
 30
0.0
 11
152.1081412527
 21
612.6253960484
 31
0.0
  0
LINE
  5
4DF
330
1B
100
AcDbEntity
 67
     1
  8
02___PRT_ALL_AXES
  6
Continuous
 62
     7
100
AcDbLine
 10
152.1081412527
 20
612.6253960484
 30
0.0
 11
152.1081412527
 21
611.6253960484
 31
0.0
  0
LINE
  5
4E0
330
1B
100
AcDbEntity
 67
     1
  8
02___PRT_ALL_AXES
  6
Continuous
 62
     7
100
AcDbLine
 10
152.1081412527
 20
611.6253960484
 30
0.0
 11
152.1081412527
 21
610.1253960484
 31
0.0
  0
LINE
  5
4E1
330
1B
100
AcDbEntity
 67
     1
  8
02___PRT_ALL_AXES
  6
Continuous
 62
     7
100
AcDbLine
 10
152.1081412527
 20
610.1253960484
 30
0.0
 11
152.1081412527
 21
609.6253960484
 31
0.0
  0
LINE
  5
4E2
330
1B
100
AcDbEntity
 67
     1
  8
02___PRT_ALL_AXES
  6
Continuous
 62
     7
100
AcDbLine
 10
152.1081412527
 20
609.4253960484
 30
0.0
 11
152.1081412527
 21
609.1253960484
 31
0.0
  0
LINE
  5
4E3
330
1B
100
AcDbEntity
 67
     1
  8
02___PRT_ALL_AXES
  6
Continuous
 62
     7
100
AcDbLine
 10
152.1081412527
 20
609.1253960484
 30
0.0
 11
152.1081412527
 21
597.1253960484
 31
0.0
  0
LINE
  5
4E4
330
1B
100
AcDbEntity
 67
     1
  8
02___PRT_ALL_AXES
  6
Continuous
 62
     7
100
AcDbLine
 10
152.1081412527
 20
597.1253960484
 30
0.0
 11
152.1081412527
 21
596.1253960484
 31
0.0
  0
LINE
  5
4E5
330
1B
100
AcDbEntity
 67
     1
  8
02___PRT_ALL_AXES
  6
Continuous
 62
     7
100
AcDbLine
 10
152.1081412527
 20
596.1253960484
 30
0.0
 11
152.1081412527
 21
595.1253960484
 31
0.0
  0
LINE
  5
4E6
330
1B
100
AcDbEntity
 67
     1
  8
02___PRT_ALL_AXES
  6
Continuous
 62
     7
100
AcDbLine
 10
1152.1081412527
 20
596.1253960484
 30
0.0
 11
1152.1081412527
 21
595.1253960484
 31
0.0
  0
LINE
  5
4E7
330
1B
100
AcDbEntity
 67
     1
  8
02___PRT_ALL_AXES
  6
Continuous
 62
     7
100
AcDbLine
 10
1152.1081412527
 20
609.4253960484
 30
0.0
 11
1152.1081412527
 21
609.1253960484
 31
0.0
  0
LINE
  5
4E8
330
1B
100
AcDbEntity
 67
     1
  8
02___PRT_ALL_AXES
  6
Continuous
 62
     7
100
AcDbLine
 10
1152.1081412527
 20
609.1253960484
 30
0.0
 11
1152.1081412527
 21
597.1253960484
 31
0.0
  0
LINE
  5
4E9
330
1B
100
AcDbEntity
 67
     1
  8
02___PRT_ALL_AXES
  6
Continuous
 62
     7
100
AcDbLine
 10
1152.1081412527
 20
597.1253960484
 30
0.0
 11
1152.1081412527
 21
596.1253960484
 31
0.0
  0
LINE
  5
4EA
330
1B
100
AcDbEntity
 67
     1
  8
02___PRT_ALL_AXES
  6
Continuous
 62
     7
100
AcDbLine
 10
1152.1081412527
 20
610.1253960484
 30
0.0
 11
1152.1081412527
 21
609.6253960484
 31
0.0
  0
LINE
  5
4EB
330
1B
100
AcDbEntity
 67
     1
  8
02___PRT_ALL_AXES
  6
Continuous
 62
     7
100
AcDbLine
 10
1152.1081412527
 20
612.6253960484
 30
0.0
 11
1152.1081412527
 21
611.6253960484
 31
0.0
  0
LINE
  5
4EC
330
1B
100
AcDbEntity
 67
     1
  8
02___PRT_ALL_AXES
  6
Continuous
 62
     7
100
AcDbLine
 10
1152.1081412527
 20
611.6253960484
 30
0.0
 11
1152.1081412527
 21
610.1253960484
 31
0.0
  0
LINE
  5
4ED
330
1B
100
AcDbEntity
 67
     1
  8
02___PRT_ALL_AXES
  6
Continuous
 62
     7
100
AcDbLine
 10
1152.1081412527
 20
613.1253960484
 30
0.0
 11
1152.1081412527
 21
612.6253960484
 31
0.0
  0
LINE
  5
4EE
330
1B
100
AcDbEntity
 67
     1
  8
02___PRT_ALL_AXES
  6
Continuous
 62
     7
100
AcDbLine
 10
1152.1081412527
 20
618.1253960484
 30
0.0
 11
1152.1081412527
 21
617.6253960484
 31
0.0
  0
LINE
  5
4EF
330
1B
100
AcDbEntity
 67
     1
  8
02___PRT_ALL_AXES
  6
Continuous
 62
     7
100
AcDbLine
 10
1152.1081412527
 20
620.6253960484
 30
0.0
 11
1152.1081412527
 21
619.1253960484
 31
0.0
  0
LINE
  5
4F0
330
1B
100
AcDbEntity
 67
     1
  8
02___PRT_ALL_AXES
  6
Continuous
 62
     7
100
AcDbLine
 10
1152.1081412527
 20
619.1253960484
 30
0.0
 11
1152.1081412527
 21
618.1253960484
 31
0.0
  0
LINE
  5
4F1
330
1B
100
AcDbEntity
 67
     1
  8
02___PRT_ALL_AXES
  6
Continuous
 62
     7
100
AcDbLine
 10
1152.1081412527
 20
621.1253960484
 30
0.0
 11
1152.1081412527
 21
621.0584087503
 31
0.0
  0
LINE
  5
4F2
330
1B
100
AcDbEntity
 67
     1
  8
02___PRT_ALL_AXES
  6
Continuous
 62
     7
100
AcDbLine
 10
1152.1081412527
 20
621.0584087503
 30
0.0
 11
1152.1081412527
 21
620.8753960484
 31
0.0
  0
LINE
  5
4F3
330
1B
100
AcDbEntity
 67
     1
  8
02___PRT_ALL_AXES
  6
Continuous
 62
     7
100
AcDbLine
 10
1152.1081412527
 20
620.8753960484
 30
0.0
 11
1152.1081412527
 21
620.6253960484
 31
0.0
  0
LINE
  5
4F4
330
1B
100
AcDbEntity
 67
     1
  8
02___PRT_ALL_AXES
  6
Continuous
 62
     7
100
AcDbLine
 10
1152.1081412527
 20
621.3253960484
 30
0.0
 11
1152.1081412527
 21
621.1253960484
 31
0.0
  0
LINE
  5
4F5
330
1B
100
AcDbEntity
 67
     1
  8
02___PRT_ALL_AXES
  6
Continuous
 62
     7
100
AcDbLine
 10
1152.1081412527
 20
721.4253960484
 30
0.0
 11
1152.1081412527
 21
721.1253960484
 31
0.0
  0
LINE
  5
4F6
330
1B
100
AcDbEntity
 67
     1
  8
02___PRT_ALL_AXES
  6
Continuous
 62
     7
100
AcDbLine
 10
1152.1081412527
 20
721.1253960484
 30
0.0
 11
1152.1081412527
 21
621.6253960484
 31
0.0
  0
LINE
  5
4F7
330
1B
100
AcDbEntity
 67
     1
  8
02___PRT_ALL_AXES
  6
Continuous
 62
     7
100
AcDbLine
 10
1152.1081412527
 20
621.6253960484
 30
0.0
 11
1152.1081412527
 21
621.3253960484
 31
0.0
  0
LINE
  5
4F8
330
1B
100
AcDbEntity
 67
     1
  8
02___PRT_ALL_AXES
  6
Continuous
 62
     7
100
AcDbLine
 10
1152.1081412527
 20
722.1253960484
 30
0.0
 11
1152.1081412527
 21
721.6253960484
 31
0.0
  0
LINE
  5
4F9
330
1B
100
AcDbEntity
 67
     1
  8
02___PRT_ALL_AXES
  6
Continuous
 62
     7
100
AcDbLine
 10
1152.1081412527
 20
724.6253960484
 30
0.0
 11
1152.1081412527
 21
723.6253960484
 31
0.0
  0
LINE
  5
4FA
330
1B
100
AcDbEntity
 67
     1
  8
02___PRT_ALL_AXES
  6
Continuous
 62
     7
100
AcDbLine
 10
1152.1081412527
 20
723.6253960484
 30
0.0
 11
1152.1081412527
 21
722.1253960484
 31
0.0
  0
LINE
  5
4FB
330
1B
100
AcDbEntity
 67
     1
  8
02___PRT_ALL_AXES
  6
Continuous
 62
     7
100
AcDbLine
 10
1152.1081412527
 20
725.1253960484
 30
0.0
 11
1152.1081412527
 21
724.6253960484
 31
0.0
  0
LINE
  5
4FC
330
1B
100
AcDbEntity
 67
     1
  8
02___PRT_ALL_AXES
  6
Continuous
 62
     7
100
AcDbLine
 10
1152.1081412527
 20
730.1253960484
 30
0.0
 11
1152.1081412527
 21
729.6253960484
 31
0.0
  0
LINE
  5
4FD
330
1B
100
AcDbEntity
 67
     1
  8
02___PRT_ALL_AXES
  6
Continuous
 62
     7
100
AcDbLine
 10
1152.1081412527
 20
732.4013833138
 30
0.0
 11
1152.1081412527
 21
731.1253960484
 31
0.0
  0
LINE
  5
4FE
330
1B
100
AcDbEntity
 67
     1
  8
02___PRT_ALL_AXES
  6
Continuous
 62
     7
100
AcDbLine
 10
1152.1081412527
 20
731.1253960484
 30
0.0
 11
1152.1081412527
 21
730.1253960484
 31
0.0
  0
LINE
  5
4FF
330
1B
100
AcDbEntity
 67
     1
  8
02___PRT_ALL_AXES
  6
Continuous
 62
     7
100
AcDbLine
 10
1152.1081412527
 20
733.1253960484
 30
0.0
 11
1152.1081412527
 21
733.0283968587
 31
0.0
  0
LINE
  5
500
330
1B
100
AcDbEntity
 67
     1
  8
02___PRT_ALL_AXES
  6
Continuous
 62
     7
100
AcDbLine
 10
1152.1081412527
 20
733.0283968587
 30
0.0
 11
1152.1081412527
 21
732.7633892179
 31
0.0
  0
LINE
  5
501
330
1B
100
AcDbEntity
 67
     1
  8
02___PRT_ALL_AXES
  6
Continuous
 62
     7
100
AcDbLine
 10
1152.1081412527
 20
732.7633892179
 30
0.0
 11
1152.1081412527
 21
732.4013833138
 31
0.0
  0
LINE
  5
502
330
1B
100
AcDbEntity
 67
     1
  8
02___PRT_ALL_AXES
  6
Continuous
 62
     7
100
AcDbLine
 10
1152.1081412527
 20
733.3253960484
 30
0.0
 11
1152.1081412527
 21
733.1253960484
 31
0.0
  0
LINE
  5
503
330
1B
100
AcDbEntity
 67
     1
  8
02___PRT_ALL_AXES
  6
Continuous
 62
     7
100
AcDbLine
 10
1152.1081412527
 20
744.9253960484
 30
0.0
 11
1152.1081412527
 21
744.6253960484
 31
0.0
  0
LINE
  5
504
330
1B
100
AcDbEntity
 67
     1
  8
02___PRT_ALL_AXES
  6
Continuous
 62
     7
100
AcDbLine
 10
1152.1081412527
 20
744.6253960484
 30
0.0
 11
1152.1081412527
 21
743.9914189484
 31
0.0
  0
LINE
  5
505
330
1B
100
AcDbEntity
 67
     1
  8
02___PRT_ALL_AXES
  6
Continuous
 62
     7
100
AcDbLine
 10
1152.1081412527
 20
743.9914189484
 30
0.0
 11
1152.1081412527
 21
743.6406548617
 31
0.0
  0
LINE
  5
506
330
1B
100
AcDbEntity
 67
     1
  8
02___PRT_ALL_AXES
  6
Continuous
 62
     7
100
AcDbLine
 10
1152.1081412527
 20
743.6406548617
 30
0.0
 11
1152.1081412527
 21
743.3253960484
 31
0.0
  0
LINE
  5
507
330
1B
100
AcDbEntity
 67
     1
  8
02___PRT_ALL_AXES
  6
Continuous
 62
     7
100
AcDbLine
 10
1152.1081412527
 20
743.3253960484
 30
0.0
 11
1152.1081412527
 21
733.6253960484
 31
0.0
  0
LINE
  5
508
330
1B
100
AcDbEntity
 67
     1
  8
02___PRT_ALL_AXES
  6
Continuous
 62
     7
100
AcDbLine
 10
1152.1081412527
 20
733.6253960484
 30
0.0
 11
1152.1081412527
 21
733.3253960484
 31
0.0
  0
LINE
  5
509
330
1B
100
AcDbEntity
 67
     1
  8
02___PRT_ALL_AXES
  6
Continuous
 62
     7
100
AcDbLine
 10
1152.1081412527
 20
745.1253960484
 30
0.0
 11
1152.1081412527
 21
744.9253960484
 31
0.0
  0
LINE
  5
50A
330
1B
100
AcDbEntity
 67
     1
  8
02___PRT_ALL_AXES
  6
Continuous
 62
     7
100
AcDbLine
 10
152.1081412527
 20
745.1253960484
 30
0.0
 11
652.1081412527
 21
745.1253960484
 31
0.0
  0
LINE
  5
50B
330
1B
100
AcDbEntity
 67
     1
  8
02___PRT_ALL_AXES
  6
Continuous
 62
     7
100
AcDbLine
 10
652.1081412527
 20
745.1253960484
 30
0.0
 11
1152.1081412527
 21
745.1253960484
 31
0.0
  0
LINE
  5
50C
330
1B
100
AcDbEntity
 67
     1
  8
02___PRT_ALL_AXES
  6
Continuous
 62
     7
100
AcDbLine
 10
152.1081412527
 20
733.1253960484
 30
0.0
 11
652.1081412527
 21
733.1253960484
 31
0.0
  0
LINE
  5
50D
330
1B
100
AcDbEntity
 67
     1
  8
02___PRT_ALL_AXES
  6
Continuous
 62
     7
100
AcDbLine
 10
652.1081412527
 20
733.1253960484
 30
0.0
 11
1152.1081412527
 21
733.1253960484
 31
0.0
  0
LINE
  5
50E
330
1B
100
AcDbEntity
 67
     1
  8
02___PRT_ALL_AXES
  6
Continuous
 62
     7
100
AcDbLine
 10
152.1081412527
 20
729.6253960484
 30
0.0
 11
165.6081412527
 21
729.6253960484
 31
0.0
  0
LINE
  5
50F
330
1B
100
AcDbEntity
 67
     1
  8
02___PRT_ALL_AXES
  6
Continuous
 62
     7
100
AcDbLine
 10
165.6081412527
 20
729.6253960484
 30
0.0
 11
652.1081412527
 21
729.6253960484
 31
0.0
  0
LINE
  5
510
330
1B
100
AcDbEntity
 67
     1
  8
02___PRT_ALL_AXES
  6
Continuous
 62
     7
100
AcDbLine
 10
652.1081412527
 20
729.6253960484
 30
0.0
 11
1138.6081412527
 21
729.6253960484
 31
0.0
  0
LINE
  5
511
330
1B
100
AcDbEntity
 67
     1
  8
02___PRT_ALL_AXES
  6
Continuous
 62
     7
100
AcDbLine
 10
1138.6081412527
 20
729.6253960484
 30
0.0
 11
1152.1081412527
 21
729.6253960484
 31
0.0
  0
LINE
  5
512
330
1B
100
AcDbEntity
 67
     1
  8
02___PRT_ALL_AXES
  6
Continuous
 62
     7
100
AcDbLine
 10
152.1081412527
 20
725.1253960484
 30
0.0
 11
165.6081412527
 21
725.1253960484
 31
0.0
  0
LINE
  5
513
330
1B
100
AcDbEntity
 67
     1
  8
02___PRT_ALL_AXES
  6
Continuous
 62
     7
100
AcDbLine
 10
165.6081412527
 20
725.1253960484
 30
0.0
 11
652.1081412527
 21
725.1253960484
 31
0.0
  0
LINE
  5
514
330
1B
100
AcDbEntity
 67
     1
  8
02___PRT_ALL_AXES
  6
Continuous
 62
     7
100
AcDbLine
 10
652.1081412527
 20
725.1253960484
 30
0.0
 11
1138.6081412527
 21
725.1253960484
 31
0.0
  0
LINE
  5
515
330
1B
100
AcDbEntity
 67
     1
  8
02___PRT_ALL_AXES
  6
Continuous
 62
     7
100
AcDbLine
 10
1138.6081412527
 20
725.1253960484
 30
0.0
 11
1152.1081412527
 21
725.1253960484
 31
0.0
  0
LINE
  5
516
330
1B
100
AcDbEntity
 67
     1
  8
02___PRT_ALL_AXES
  6
Continuous
 62
     7
100
AcDbLine
 10
152.1081412527
 20
721.6253960484
 30
0.0
 11
652.1081412527
 21
721.6253960484
 31
0.0
  0
LINE
  5
517
330
1B
100
AcDbEntity
 67
     1
  8
02___PRT_ALL_AXES
  6
Continuous
 62
     7
100
AcDbLine
 10
652.1081412527
 20
721.6253960484
 30
0.0
 11
1152.1081412527
 21
721.6253960484
 31
0.0
  0
LINE
  5
518
330
1B
100
AcDbEntity
 67
     1
  8
02___PRT_ALL_AXES
  6
Continuous
 62
     7
100
AcDbLine
 10
152.1081412527
 20
621.1253960484
 30
0.0
 11
652.1081412527
 21
621.1253960484
 31
0.0
  0
LINE
  5
519
330
1B
100
AcDbEntity
 67
     1
  8
02___PRT_ALL_AXES
  6
Continuous
 62
     7
100
AcDbLine
 10
652.1081412527
 20
621.1253960484
 30
0.0
 11
1152.1081412527
 21
621.1253960484
 31
0.0
  0
LINE
  5
51A
330
1B
100
AcDbEntity
 67
     1
  8
02___PRT_ALL_AXES
  6
Continuous
 62
     7
100
AcDbLine
 10
152.1081412527
 20
617.6253960484
 30
0.0
 11
165.6081412527
 21
617.6253960484
 31
0.0
  0
LINE
  5
51B
330
1B
100
AcDbEntity
 67
     1
  8
02___PRT_ALL_AXES
  6
Continuous
 62
     7
100
AcDbLine
 10
165.6081412527
 20
617.6253960484
 30
0.0
 11
652.1081412527
 21
617.6253960484
 31
0.0
  0
LINE
  5
51C
330
1B
100
AcDbEntity
 67
     1
  8
02___PRT_ALL_AXES
  6
Continuous
 62
     7
100
AcDbLine
 10
652.1081412527
 20
617.6253960484
 30
0.0
 11
1138.6081412527
 21
617.6253960484
 31
0.0
  0
LINE
  5
51D
330
1B
100
AcDbEntity
 67
     1
  8
02___PRT_ALL_AXES
  6
Continuous
 62
     7
100
AcDbLine
 10
1138.6081412527
 20
617.6253960484
 30
0.0
 11
1152.1081412527
 21
617.6253960484
 31
0.0
  0
LINE
  5
51E
330
1B
100
AcDbEntity
 67
     1
  8
02___PRT_ALL_AXES
  6
Continuous
 62
     7
100
AcDbLine
 10
152.1081412527
 20
613.1253960484
 30
0.0
 11
165.6081412527
 21
613.1253960484
 31
0.0
  0
LINE
  5
51F
330
1B
100
AcDbEntity
 67
     1
  8
02___PRT_ALL_AXES
  6
Continuous
 62
     7
100
AcDbLine
 10
165.6081412527
 20
613.1253960484
 30
0.0
 11
652.1081412527
 21
613.1253960484
 31
0.0
  0
LINE
  5
520
330
1B
100
AcDbEntity
 67
     1
  8
02___PRT_ALL_AXES
  6
Continuous
 62
     7
100
AcDbLine
 10
652.1081412527
 20
613.1253960484
 30
0.0
 11
1138.6081412527
 21
613.1253960484
 31
0.0
  0
LINE
  5
521
330
1B
100
AcDbEntity
 67
     1
  8
02___PRT_ALL_AXES
  6
Continuous
 62
     7
100
AcDbLine
 10
1138.6081412527
 20
613.1253960484
 30
0.0
 11
1152.1081412527
 21
613.1253960484
 31
0.0
  0
LINE
  5
522
330
1B
100
AcDbEntity
 67
     1
  8
02___PRT_ALL_AXES
  6
Continuous
 62
     7
100
AcDbLine
 10
152.1081412527
 20
609.6253960484
 30
0.0
 11
652.1081412527
 21
609.6253960484
 31
0.0
  0
LINE
  5
523
330
1B
100
AcDbEntity
 67
     1
  8
02___PRT_ALL_AXES
  6
Continuous
 62
     7
100
AcDbLine
 10
652.1081412527
 20
609.6253960484
 30
0.0
 11
1152.1081412527
 21
609.6253960484
 31
0.0
  0
LINE
  5
524
330
1B
100
AcDbEntity
 67
     1
  8
02___PRT_ALL_AXES
  6
Continuous
 62
     7
100
AcDbLine
 10
152.1081412527
 20
595.1253960484
 30
0.0
 11
652.1081412527
 21
595.1253960484
 31
0.0
  0
LINE
  5
525
330
1B
100
AcDbEntity
 67
     1
  8
02___PRT_ALL_AXES
  6
Continuous
 62
     7
100
AcDbLine
 10
652.1081412527
 20
595.1253960484
 30
0.0
 11
1152.1081412527
 21
595.1253960484
 31
0.0
  0
LINE
  5
526
330
1B
100
AcDbEntity
 67
     1
  8
02___PRT_ALL_AXES
  6
Continuous
 62
     9
100
AcDbLine
 10
152.1081412527
 20
596.1253960484
 30
0.0
 11
1152.1081412527
 21
596.1253960484
 31
0.0
  0
LINE
  5
527
330
1B
100
AcDbEntity
 67
     1
  8
02___PRT_ALL_AXES
  6
Continuous
 62
     9
100
AcDbLine
 10
152.1081412527
 20
724.6253960484
 30
0.0
 11
1152.1081412527
 21
724.6253960484
 31
0.0
  0
LINE
  5
528
330
1B
100
AcDbEntity
 67
     1
  8
02___PRT_ALL_AXES
  6
Continuous
 62
     9
100
AcDbLine
 10
152.1081412527
 20
722.1253960484
 30
0.0
 11
1152.1081412527
 21
722.1253960484
 31
0.0
  0
LINE
  5
529
330
1B
100
AcDbEntity
 67
     1
  8
02___PRT_ALL_AXES
  6
Continuous
 62
     9
100
AcDbLine
 10
152.1081412527
 20
721.4253960484
 30
0.0
 11
1152.1081412527
 21
721.4253960484
 31
0.0
  0
LINE
  5
52A
330
1B
100
AcDbEntity
 67
     1
  8
02___PRT_ALL_AXES
  6
Continuous
 62
     9
100
AcDbLine
 10
152.1081412527
 20
621.3253960484
 30
0.0
 11
1152.1081412527
 21
621.3253960484
 31
0.0
  0
LINE
  5
52B
330
1B
100
AcDbEntity
 67
     1
  8
02___PRT_ALL_AXES
  6
Continuous
 62
     9
100
AcDbLine
 10
152.1081412527
 20
744.9253960484
 30
0.0
 11
1152.1081412527
 21
744.9253960484
 31
0.0
  0
LINE
  5
52C
330
1B
100
AcDbEntity
 67
     1
  8
02___PRT_ALL_AXES
  6
Continuous
 62
     9
100
AcDbLine
 10
152.1081412527
 20
733.3253960484
 30
0.0
 11
1152.1081412527
 21
733.3253960484
 31
0.0
  0
LINE
  5
52D
330
1B
100
AcDbEntity
 67
     1
  8
02___PRT_ALL_AXES
  6
Continuous
 62
     9
100
AcDbLine
 10
152.1081412527
 20
620.6253960484
 30
0.0
 11
1152.1081412527
 21
620.6253960484
 31
0.0
  0
LINE
  5
52E
330
1B
100
AcDbEntity
 67
     1
  8
02___PRT_ALL_AXES
  6
Continuous
 62
     9
100
AcDbLine
 10
152.1081412527
 20
618.1253960484
 30
0.0
 11
1152.1081412527
 21
618.1253960484
 31
0.0
  0
LINE
  5
52F
330
1B
100
AcDbEntity
 67
     1
  8
02___PRT_ALL_AXES
  6
Continuous
 62
     9
100
AcDbLine
 10
152.1081412527
 20
732.4013820484
 30
0.0
 11
1152.1081412527
 21
732.4013820484
 31
0.0
  0
LINE
  5
530
330
1B
100
AcDbEntity
 67
     1
  8
02___PRT_ALL_AXES
  6
Continuous
 62
     9
100
AcDbLine
 10
152.1081412527
 20
730.1253960484
 30
0.0
 11
1152.1081412527
 21
730.1253960484
 31
0.0
  0
LINE
  5
531
330
1B
100
AcDbEntity
 67
     1
  8
02___PRT_ALL_AXES
  6
Continuous
 62
     9
100
AcDbLine
 10
152.1081412527
 20
612.6253960484
 30
0.0
 11
1152.1081412527
 21
612.6253960484
 31
0.0
  0
LINE
  5
532
330
1B
100
AcDbEntity
 67
     1
  8
02___PRT_ALL_AXES
  6
Continuous
 62
     9
100
AcDbLine
 10
152.1081412527
 20
610.1253960484
 30
0.0
 11
1152.1081412527
 21
610.1253960484
 31
0.0
  0
LINE
  5
533
330
1B
100
AcDbEntity
 67
     1
  8
02___PRT_ALL_AXES
  6
Continuous
 62
     9
100
AcDbLine
 10
152.1081412527
 20
609.4253960484
 30
0.0
 11
1152.1081412527
 21
609.4253960484
 31
0.0
  0
LINE
  5
534
330
1B
100
AcDbEntity
 67
     1
  8
7_ALL_FEATURES
  6
Continuous
 62
     7
100
AcDbLine
 10
652.1081412527
 20
613.1253960484
 30
0.0
 11
652.1081412527
 21
612.6253960265
 31
0.0
  0
LINE
  5
535
330
1B
100
AcDbEntity
 67
     1
  8
7_ALL_FEATURES
  6
Continuous
 62
     7
100
AcDbLine
 10
652.1081412527
 20
610.1253960484
 30
0.0
 11
652.1081412527
 21
609.6253960484
 31
0.0
  0
LINE
  5
536
330
1B
100
AcDbEntity
 67
     1
  8
7_ALL_FEATURES
  6
Continuous
 62
     7
100
AcDbLine
 10
652.1081412527
 20
596.1253960484
 30
0.0
 11
652.1081412527
 21
595.1253960484
 31
0.0
  0
LINE
  5
537
330
1B
100
AcDbEntity
 67
     1
  8
7_ALL_FEATURES
  6
Continuous
 62
     7
100
AcDbLine
 10
652.1081412527
 20
744.9253960484
 30
0.0
 11
652.1081412527
 21
743.3253960484
 31
0.0
  0
LINE
  5
538
330
1B
100
AcDbEntity
 67
     1
  8
7_ALL_FEATURES
  6
Continuous
 62
     7
100
AcDbLine
 10
652.1081412527
 20
743.3253960484
 30
0.0
 11
652.1081412527
 21
733.3253960484
 31
0.0
  0
LINE
  5
539
330
1B
100
AcDbEntity
 67
     1
  8
7_ALL_FEATURES
  6
Continuous
 62
     7
100
AcDbLine
 10
652.1081412527
 20
732.4013820484
 30
0.0
 11
652.1081412527
 21
731.1253960484
 31
0.0
  0
LINE
  5
53A
330
1B
100
AcDbEntity
 67
     1
  8
7_ALL_FEATURES
  6
Continuous
 62
     7
100
AcDbLine
 10
652.1081412527
 20
731.1253960484
 30
0.0
 11
652.1081412527
 21
730.1253960484
 31
0.0
  0
LINE
  5
53B
330
1B
100
AcDbEntity
 67
     1
  8
7_ALL_FEATURES
  6
Continuous
 62
     7
100
AcDbLine
 10
652.1081412527
 20
729.6253960484
 30
0.0
 11
652.1081412527
 21
725.1253960484
 31
0.0
  0
LINE
  5
53C
330
1B
100
AcDbEntity
 67
     1
  8
7_ALL_FEATURES
  6
Continuous
 62
     7
100
AcDbLine
 10
652.1081412527
 20
724.6253960484
 30
0.0
 11
652.1081412527
 21
723.6253960484
 31
0.0
  0
LINE
  5
53D
330
1B
100
AcDbEntity
 67
     1
  8
7_ALL_FEATURES
  6
Continuous
 62
     7
100
AcDbLine
 10
652.1081412527
 20
723.6253960484
 30
0.0
 11
652.1081412527
 21
722.1253960484
 31
0.0
  0
LINE
  5
53E
330
1B
100
AcDbEntity
 67
     1
  8
7_ALL_FEATURES
  6
Continuous
 62
     7
100
AcDbLine
 10
652.1081412527
 20
721.4253960484
 30
0.0
 11
652.1081412527
 21
621.3253960484
 31
0.0
  0
LINE
  5
53F
330
1B
100
AcDbEntity
 67
     1
  8
7_ALL_FEATURES
  6
Continuous
 62
     7
100
AcDbLine
 10
652.1081412527
 20
620.6253960484
 30
0.0
 11
652.1081412527
 21
619.1253960484
 31
0.0
  0
LINE
  5
540
330
1B
100
AcDbEntity
 67
     1
  8
7_ALL_FEATURES
  6
Continuous
 62
     7
100
AcDbLine
 10
652.1081412527
 20
619.1253960484
 30
0.0
 11
652.1081412527
 21
618.1253960484
 31
0.0
  0
LINE
  5
541
330
1B
100
AcDbEntity
 67
     1
  8
7_ALL_FEATURES
  6
Continuous
 62
     7
100
AcDbLine
 10
652.1081412527
 20
617.6253960484
 30
0.0
 11
652.1081412527
 21
613.1253960484
 31
0.0
  0
LINE
  5
542
330
1B
100
AcDbEntity
 67
     1
  8
7_ALL_FEATURES
  6
Continuous
 62
     7
100
AcDbLine
 10
652.1081412527
 20
612.6253960484
 30
0.0
 11
652.1081412527
 21
611.6253960484
 31
0.0
  0
LINE
  5
543
330
1B
100
AcDbEntity
 67
     1
  8
7_ALL_FEATURES
  6
Continuous
 62
     7
100
AcDbLine
 10
652.1081412527
 20
611.6253960484
 30
0.0
 11
652.1081412527
 21
610.1253960484
 31
0.0
  0
LINE
  5
544
330
1B
100
AcDbEntity
 67
     1
  8
7_ALL_FEATURES
  6
Continuous
 62
     7
100
AcDbLine
 10
652.1081412527
 20
609.4253960484
 30
0.0
 11
652.1081412527
 21
596.1253960484
 31
0.0
  0
LINE
  5
545
330
1B
100
AcDbEntity
 67
     1
  8
7_ALL_FEATURES
  6
Continuous
 62
     7
100
AcDbLine
 10
652.1081412527
 20
725.1253960484
 30
0.0
 11
652.1081412527
 21
724.6253960265
 31
0.0
  0
LINE
  5
546
330
1B
100
AcDbEntity
 67
     1
  8
7_ALL_FEATURES
  6
Continuous
 62
     7
100
AcDbLine
 10
652.1081412527
 20
722.1253960484
 30
0.0
 11
652.1081412527
 21
721.6253960484
 31
0.0
  0
LINE
  5
547
330
1B
100
AcDbEntity
 67
     1
  8
7_ALL_FEATURES
  6
Continuous
 62
     7
100
AcDbLine
 10
652.1081412527
 20
745.1253960484
 30
0.0
 11
652.1081412527
 21
744.9253960396
 31
0.0
  0
LINE
  5
548
330
1B
100
AcDbEntity
 67
     1
  8
7_ALL_FEATURES
  6
Continuous
 62
     7
100
AcDbLine
 10
652.1081412527
 20
621.3253960484
 30
0.0
 11
652.1081412527
 21
621.1253960484
 31
0.0
  0
LINE
  5
549
330
1B
100
AcDbEntity
 67
     1
  8
7_ALL_FEATURES
  6
Continuous
 62
     7
100
AcDbLine
 10
652.1081412527
 20
621.1253960484
 30
0.0
 11
652.1081412527
 21
620.6253960265
 31
0.0
  0
LINE
  5
54A
330
1B
100
AcDbEntity
 67
     1
  8
7_ALL_FEATURES
  6
Continuous
 62
     7
100
AcDbLine
 10
652.1081412527
 20
618.1253960484
 30
0.0
 11
652.1081412527
 21
617.6253960484
 31
0.0
  0
LINE
  5
54B
330
1B
100
AcDbEntity
 67
     1
  8
7_ALL_FEATURES
  6
Continuous
 62
     7
100
AcDbLine
 10
652.1081412527
 20
733.3253960484
 30
0.0
 11
652.1081412527
 21
733.1253960484
 31
0.0
  0
LINE
  5
54C
330
1B
100
AcDbEntity
 67
     1
  8
7_ALL_FEATURES
  6
Continuous
 62
     7
100
AcDbLine
 10
652.1081412527
 20
733.1253963875
 30
0.0
 11
652.1081412527
 21
732.4013820167
 31
0.0
  0
LINE
  5
54D
330
1B
100
AcDbEntity
 67
     1
  8
7_ALL_FEATURES
  6
Continuous
 62
     7
100
AcDbLine
 10
652.1081412527
 20
730.1253960484
 30
0.0
 11
652.1081412527
 21
729.6253960484
 31
0.0
  0
LINE
  5
54E
330
1B
100
AcDbEntity
 67
     1
  8
7_ALL_FEATURES
  6
Continuous
 62
     7
100
AcDbLine
 10
1152.1081412527
 20
337.0280769527
 30
0.0
 11
1153.6081412527
 21
337.0280769527
 31
0.0
  0
LINE
  5
54F
330
1B
100
AcDbEntity
 67
     1
  8
7_ALL_FEATURES
  6
Continuous
 62
     7
100
AcDbLine
 10
1152.1081412527
 20
396.5280769527
 30
0.0
 11
1152.1081412527
 21
396.9893942197
 31
0.0
  0
LINE
  5
550
330
1B
100
AcDbEntity
 67
     1
  8
7_ALL_FEATURES
  6
Continuous
 62
     7
100
AcDbLine
 10
1152.1081412527
 20
337.3352566288
 30
0.0
 11
1152.1081412527
 21
337.5280769527
 31
0.0
  0
LINE
  5
551
330
1B
100
AcDbEntity
 67
     1
  8
7_ALL_FEATURES
  6
Continuous
 62
     7
100
AcDbLine
 10
1153.6081412527
 20
396.5280769527
 30
0.0
 11
1153.6081412527
 21
337.5280769527
 31
0.0
  0
LINE
  5
552
330
1B
100
AcDbEntity
 67
     1
  8
7_ALL_FEATURES
  6
Continuous
 62
     7
100
AcDbLine
 10
1153.6081412527
 20
397.0280769527
 30
0.0
 11
1153.6081412527
 21
396.5280769527
 31
0.0
  0
LINE
  5
553
330
1B
100
AcDbEntity
 67
     1
  8
7_ALL_FEATURES
  6
Continuous
 62
     7
100
AcDbLine
 10
1153.6081412527
 20
337.5280769527
 30
0.0
 11
1153.6081412527
 21
337.0280769527
 31
0.0
  0
LINE
  5
554
330
1B
100
AcDbEntity
 67
     1
  8
7_ALL_FEATURES
  6
Continuous
 62
     7
100
AcDbLine
 10
1152.1081412527
 20
396.5280769527
 30
0.0
 11
1152.1081412527
 21
395.6280769527
 31
0.0
  0
LINE
  5
555
330
1B
100
AcDbEntity
 67
     1
  8
7_ALL_FEATURES
  6
Continuous
 62
     7
100
AcDbLine
 10
1152.1081412527
 20
395.6280769527
 30
0.0
 11
1152.1081412527
 21
395.5280769527
 31
0.0
  0
LINE
  5
556
330
1B
100
AcDbEntity
 67
     1
  8
7_ALL_FEATURES
  6
Continuous
 62
     7
100
AcDbLine
 10
1152.1081412527
 20
395.5280769527
 30
0.0
 11
1152.1081412527
 21
395.5016487401
 31
0.0
  0
LINE
  5
557
330
1B
100
AcDbEntity
 67
     1
  8
7_ALL_FEATURES
  6
Continuous
 62
     7
100
AcDbLine
 10
1152.1081412527
 20
395.5016487401
 30
0.0
 11
1152.1081412527
 21
394.8941073219
 31
0.0
  0
LINE
  5
558
330
1B
100
AcDbEntity
 67
     1
  8
7_ALL_FEATURES
  6
Continuous
 62
     7
100
AcDbLine
 10
1152.1081412527
 20
394.8941073219
 30
0.0
 11
1152.1081412527
 21
394.3941019527
 31
0.0
  0
LINE
  5
559
330
1B
100
AcDbEntity
 67
     1
  8
7_ALL_FEATURES
  6
Continuous
 62
     7
100
AcDbLine
 10
1152.1081412527
 20
394.3941019527
 30
0.0
 11
1152.1081412527
 21
339.6620519526
 31
0.0
  0
LINE
  5
55A
330
1B
100
AcDbEntity
 67
     1
  8
7_ALL_FEATURES
  6
Continuous
 62
     7
100
AcDbLine
 10
1152.1081412527
 20
339.6620519526
 30
0.0
 11
1152.1081412527
 21
339.1620465834
 31
0.0
  0
LINE
  5
55B
330
1B
100
AcDbEntity
 67
     1
  8
7_ALL_FEATURES
  6
Continuous
 62
     7
100
AcDbLine
 10
1152.1081412527
 20
339.1620465834
 30
0.0
 11
1152.1081412527
 21
338.5545051652
 31
0.0
  0
LINE
  5
55C
330
1B
100
AcDbEntity
 67
     1
  8
7_ALL_FEATURES
  6
Continuous
 62
     7
100
AcDbLine
 10
1152.1081412527
 20
338.5545051652
 30
0.0
 11
1152.1081412527
 21
338.5280769527
 31
0.0
  0
LINE
  5
55D
330
1B
100
AcDbEntity
 67
     1
  8
7_ALL_FEATURES
  6
Continuous
 62
     7
100
AcDbLine
 10
1152.1081412527
 20
338.5280769527
 30
0.0
 11
1152.1081412527
 21
338.4280769527
 31
0.0
  0
LINE
  5
55E
330
1B
100
AcDbEntity
 67
     1
  8
7_ALL_FEATURES
  6
Continuous
 62
     7
100
AcDbLine
 10
1152.1081412527
 20
338.4280769527
 30
0.0
 11
1152.1081412527
 21
337.5280769527
 31
0.0
  0
LINE
  5
55F
330
1B
100
AcDbEntity
 67
     1
  8
7_ALL_FEATURES
  6
Continuous
 62
     7
100
AcDbLine
 10
1153.6081412527
 20
397.0280769527
 30
0.0
 11
1152.1081412527
 21
397.0280769527
 31
0.0
  0
LINE
  5
560
330
1B
100
AcDbEntity
 67
     1
  8
7_ALL_FEATURES
  6
Continuous
 62
     9
100
AcDbLine
 10
1152.1081412527
 20
396.5280769527
 30
0.0
 11
1153.6081412527
 21
396.5280769527
 31
0.0
  0
LINE
  5
561
330
1B
100
AcDbEntity
 67
     1
  8
7_ALL_FEATURES
  6
Continuous
 62
     9
100
AcDbLine
 10
1153.6081412527
 20
337.5280769527
 30
0.0
 11
1152.1081412527
 21
337.5280769527
 31
0.0
  0
LINE
  5
562
330
1B
100
AcDbEntity
 67
     1
  8
7_ALL_FEATURES
  6
Continuous
 62
     7
100
AcDbLine
 10
152.1081412527
 20
397.0280769527
 30
0.0
 11
150.6081412527
 21
397.0280769527
 31
0.0
  0
LINE
  5
563
330
1B
100
AcDbEntity
 67
     1
  8
7_ALL_FEATURES
  6
Continuous
 62
     7
100
AcDbLine
 10
152.1081412527
 20
337.5280769527
 30
0.0
 11
152.1081412527
 21
337.0667596856
 31
0.0
  0
LINE
  5
564
330
1B
100
AcDbEntity
 67
     1
  8
7_ALL_FEATURES
  6
Continuous
 62
     7
100
AcDbLine
 10
152.1081412527
 20
396.7208972765
 30
0.0
 11
152.1081412527
 21
396.5280769527
 31
0.0
  0
LINE
  5
565
330
1B
100
AcDbEntity
 67
     1
  8
7_ALL_FEATURES
  6
Continuous
 62
     7
100
AcDbLine
 10
150.6081412527
 20
337.5280769527
 30
0.0
 11
150.6081412527
 21
396.5280769527
 31
0.0
  0
LINE
  5
566
330
1B
100
AcDbEntity
 67
     1
  8
7_ALL_FEATURES
  6
Continuous
 62
     7
100
AcDbLine
 10
150.6081412527
 20
337.0280769527
 30
0.0
 11
150.6081412527
 21
337.5280769527
 31
0.0
  0
LINE
  5
567
330
1B
100
AcDbEntity
 67
     1
  8
7_ALL_FEATURES
  6
Continuous
 62
     7
100
AcDbLine
 10
150.6081412527
 20
396.5280769527
 30
0.0
 11
150.6081412527
 21
397.0280769527
 31
0.0
  0
LINE
  5
568
330
1B
100
AcDbEntity
 67
     1
  8
7_ALL_FEATURES
  6
Continuous
 62
     7
100
AcDbLine
 10
152.1081412527
 20
337.5280769527
 30
0.0
 11
152.1081412527
 21
338.4280769527
 31
0.0
  0
LINE
  5
569
330
1B
100
AcDbEntity
 67
     1
  8
7_ALL_FEATURES
  6
Continuous
 62
     7
100
AcDbLine
 10
152.1081412527
 20
338.4280769527
 30
0.0
 11
152.1081412527
 21
338.5280769527
 31
0.0
  0
LINE
  5
56A
330
1B
100
AcDbEntity
 67
     1
  8
7_ALL_FEATURES
  6
Continuous
 62
     7
100
AcDbLine
 10
152.1081412527
 20
338.5280769527
 30
0.0
 11
152.1081412527
 21
338.5545051652
 31
0.0
  0
LINE
  5
56B
330
1B
100
AcDbEntity
 67
     1
  8
7_ALL_FEATURES
  6
Continuous
 62
     7
100
AcDbLine
 10
152.1081412527
 20
338.5545051652
 30
0.0
 11
152.1081412527
 21
339.1620465834
 31
0.0
  0
LINE
  5
56C
330
1B
100
AcDbEntity
 67
     1
  8
7_ALL_FEATURES
  6
Continuous
 62
     7
100
AcDbLine
 10
152.1081412527
 20
339.1620465834
 30
0.0
 11
152.1081412527
 21
339.6620519526
 31
0.0
  0
LINE
  5
56D
330
1B
100
AcDbEntity
 67
     1
  8
7_ALL_FEATURES
  6
Continuous
 62
     7
100
AcDbLine
 10
152.1081412527
 20
339.6620519526
 30
0.0
 11
152.1081412527
 21
394.3941019527
 31
0.0
  0
LINE
  5
56E
330
1B
100
AcDbEntity
 67
     1
  8
7_ALL_FEATURES
  6
Continuous
 62
     7
100
AcDbLine
 10
152.1081412527
 20
394.3941019527
 30
0.0
 11
152.1081412527
 21
394.8941073219
 31
0.0
  0
LINE
  5
56F
330
1B
100
AcDbEntity
 67
     1
  8
7_ALL_FEATURES
  6
Continuous
 62
     7
100
AcDbLine
 10
152.1081412527
 20
394.8941073219
 30
0.0
 11
152.1081412527
 21
395.5016487401
 31
0.0
  0
LINE
  5
570
330
1B
100
AcDbEntity
 67
     1
  8
7_ALL_FEATURES
  6
Continuous
 62
     7
100
AcDbLine
 10
152.1081412527
 20
395.5016487401
 30
0.0
 11
152.1081412527
 21
395.5280769527
 31
0.0
  0
LINE
  5
571
330
1B
100
AcDbEntity
 67
     1
  8
7_ALL_FEATURES
  6
Continuous
 62
     7
100
AcDbLine
 10
152.1081412527
 20
395.5280769527
 30
0.0
 11
152.1081412527
 21
395.6280769527
 31
0.0
  0
LINE
  5
572
330
1B
100
AcDbEntity
 67
     1
  8
7_ALL_FEATURES
  6
Continuous
 62
     7
100
AcDbLine
 10
152.1081412527
 20
395.6280769527
 30
0.0
 11
152.1081412527
 21
396.5280769527
 31
0.0
  0
LINE
  5
573
330
1B
100
AcDbEntity
 67
     1
  8
7_ALL_FEATURES
  6
Continuous
 62
     7
100
AcDbLine
 10
150.6081412527
 20
337.0280769527
 30
0.0
 11
152.1081412527
 21
337.0280769527
 31
0.0
  0
LINE
  5
574
330
1B
100
AcDbEntity
 67
     1
  8
7_ALL_FEATURES
  6
Continuous
 62
     9
100
AcDbLine
 10
152.1081412527
 20
337.5280769527
 30
0.0
 11
150.6081412527
 21
337.5280769527
 31
0.0
  0
LINE
  5
575
330
1B
100
AcDbEntity
 67
     1
  8
7_ALL_FEATURES
  6
Continuous
 62
     9
100
AcDbLine
 10
150.6081412527
 20
396.5280769527
 30
0.0
 11
152.1081412527
 21
396.5280769527
 31
0.0
  0
LINE
  5
576
330
1B
100
AcDbEntity
 67
     1
  8
03__ASM_ALL_CURVES
  6
Continuous
 62
    40
100
AcDbLine
 10
150.6081412527
 20
337.5280769527
 30
0.0
 11
150.6081412527
 21
337.0280769527
 31
0.0
  0
LINE
  5
577
330
1B
100
AcDbEntity
 67
     1
  8
03__ASM_ALL_CURVES
  6
Continuous
 62
    40
100
AcDbLine
 10
150.6081412527
 20
396.5280769527
 30
0.0
 11
150.6081412527
 21
337.5280769527
 31
0.0
  0
LINE
  5
578
330
1B
100
AcDbEntity
 67
     1
  8
03__ASM_ALL_CURVES
  6
Continuous
 62
    40
100
AcDbLine
 10
150.6081412527
 20
397.0280769527
 30
0.0
 11
150.6081412527
 21
396.5280769527
 31
0.0
  0
LINE
  5
579
330
1B
100
AcDbEntity
 67
     1
  8
03__ASM_ALL_CURVES
  6
Continuous
 62
    40
100
AcDbLine
 10
1152.1081412527
 20
337.0280769527
 30
0.0
 11
1153.6081412527
 21
337.0280769527
 31
0.0
  0
LINE
  5
57A
330
1B
100
AcDbEntity
 67
     1
  8
03__ASM_ALL_CURVES
  6
Continuous
 62
    40
100
AcDbLine
 10
152.1081412527
 20
337.0280769527
 30
0.0
 11
1152.1081412527
 21
337.0280769527
 31
0.0
  0
LINE
  5
57B
330
1B
100
AcDbEntity
 67
     1
  8
03__ASM_ALL_CURVES
  6
Continuous
 62
    40
100
AcDbLine
 10
150.6081412527
 20
337.0280769527
 30
0.0
 11
152.1081412527
 21
337.0280769527
 31
0.0
  0
LINE
  5
57C
330
1B
100
AcDbEntity
 67
     1
  8
02___PRT_ALL_AXES
  6
Continuous
 62
     7
100
AcDbLine
 10
152.1081412527
 20
338.5280769527
 30
0.0
 11
152.1081412527
 21
338.4280769527
 31
0.0
  0
LINE
  5
57D
330
1B
100
AcDbEntity
 67
     1
  8
02___PRT_ALL_AXES
  6
Continuous
 62
     7
100
AcDbLine
 10
152.1081412527
 20
338.4280769527
 30
0.0
 11
152.1081412527
 21
338.2785675708
 31
0.0
  0
LINE
  5
57E
330
1B
100
AcDbEntity
 67
     1
  8
02___PRT_ALL_AXES
  6
Continuous
 62
     7
100
AcDbLine
 10
152.1081412527
 20
338.2785675708
 30
0.0
 11
152.1081412527
 21
337.5280769527
 31
0.0
  0
LINE
  5
57F
330
1B
100
AcDbEntity
 67
     1
  8
02___PRT_ALL_AXES
  6
Continuous
 62
     7
100
AcDbLine
 10
152.1081412527
 20
337.5280769527
 30
0.0
 11
152.1081412527
 21
337.2280769527
 31
0.0
  0
LINE
  5
580
330
1B
100
AcDbEntity
 67
     1
  8
02___PRT_ALL_AXES
  6
Continuous
 62
     7
100
AcDbLine
 10
152.1081412527
 20
337.2280769527
 30
0.0
 11
152.1081412527
 21
337.0280769527
 31
0.0
  0
LINE
  5
581
330
1B
100
AcDbEntity
 67
     1
  8
02___PRT_ALL_AXES
  6
Continuous
 62
     7
100
AcDbLine
 10
152.1081412527
 20
336.8280769527
 30
0.0
 11
152.1081412527
 21
336.2520896872
 31
0.0
  0
LINE
  5
582
330
1B
100
AcDbEntity
 67
     1
  8
02___PRT_ALL_AXES
  6
Continuous
 62
     7
100
AcDbLine
 10
152.1081412527
 20
336.2520896872
 30
0.0
 11
152.1081412527
 21
335.8900837831
 31
0.0
  0
LINE
  5
583
330
1B
100
AcDbEntity
 67
     1
  8
02___PRT_ALL_AXES
  6
Continuous
 62
     7
100
AcDbLine
 10
152.1081412527
 20
335.8900837831
 30
0.0
 11
152.1081412527
 21
335.5280769527
 31
0.0
  0
LINE
  5
584
330
1B
100
AcDbEntity
 67
     1
  8
02___PRT_ALL_AXES
  6
Continuous
 62
     7
100
AcDbLine
 10
152.1081412527
 20
398.5280769527
 30
0.0
 11
152.1081412527
 21
397.8040642181
 31
0.0
  0
LINE
  5
585
330
1B
100
AcDbEntity
 67
     1
  8
02___PRT_ALL_AXES
  6
Continuous
 62
     7
100
AcDbLine
 10
152.1081412527
 20
397.8040642181
 30
0.0
 11
152.1081412527
 21
397.2280769527
 31
0.0
  0
LINE
  5
586
330
1B
100
AcDbEntity
 67
     1
  8
02___PRT_ALL_AXES
  6
Continuous
 62
     7
100
AcDbLine
 10
152.1081412527
 20
397.2280769527
 30
0.0
 11
152.1081412527
 21
397.0280769527
 31
0.0
  0
LINE
  5
587
330
1B
100
AcDbEntity
 67
     1
  8
02___PRT_ALL_AXES
  6
Continuous
 62
     7
100
AcDbLine
 10
152.1081412527
 20
397.0280769527
 30
0.0
 11
152.1081412527
 21
396.8280769527
 31
0.0
  0
LINE
  5
588
330
1B
100
AcDbEntity
 67
     1
  8
02___PRT_ALL_AXES
  6
Continuous
 62
     7
100
AcDbLine
 10
152.1081412527
 20
396.8280769527
 30
0.0
 11
152.1081412527
 21
396.5280769527
 31
0.0
  0
LINE
  5
589
330
1B
100
AcDbEntity
 67
     1
  8
02___PRT_ALL_AXES
  6
Continuous
 62
     7
100
AcDbLine
 10
152.1081412527
 20
396.5280769527
 30
0.0
 11
152.1081412527
 21
395.7775863345
 31
0.0
  0
LINE
  5
58A
330
1B
100
AcDbEntity
 67
     1
  8
02___PRT_ALL_AXES
  6
Continuous
 62
     7
100
AcDbLine
 10
152.1081412527
 20
395.7775863345
 30
0.0
 11
152.1081412527
 21
395.6280769527
 31
0.0
  0
LINE
  5
58B
330
1B
100
AcDbEntity
 67
     1
  8
02___PRT_ALL_AXES
  6
Continuous
 62
     7
100
AcDbLine
 10
152.1081412527
 20
395.6280769527
 30
0.0
 11
152.1081412527
 21
395.5280769527
 31
0.0
  0
LINE
  5
58C
330
1B
100
AcDbEntity
 67
     1
  8
02___PRT_ALL_AXES
  6
Continuous
 62
     7
100
AcDbLine
 10
1152.1081412527
 20
395.6280769527
 30
0.0
 11
1152.1081412527
 21
395.5280769527
 31
0.0
  0
LINE
  5
58D
330
1B
100
AcDbEntity
 67
     1
  8
02___PRT_ALL_AXES
  6
Continuous
 62
     7
100
AcDbLine
 10
1152.1081412527
 20
396.8280769527
 30
0.0
 11
1152.1081412527
 21
396.5280769527
 31
0.0
  0
LINE
  5
58E
330
1B
100
AcDbEntity
 67
     1
  8
02___PRT_ALL_AXES
  6
Continuous
 62
     7
100
AcDbLine
 10
1152.1081412527
 20
396.5280769527
 30
0.0
 11
1152.1081412527
 21
395.7775863345
 31
0.0
  0
LINE
  5
58F
330
1B
100
AcDbEntity
 67
     1
  8
02___PRT_ALL_AXES
  6
Continuous
 62
     7
100
AcDbLine
 10
1152.1081412527
 20
395.7775863345
 30
0.0
 11
1152.1081412527
 21
395.6280769527
 31
0.0
  0
LINE
  5
590
330
1B
100
AcDbEntity
 67
     1
  8
02___PRT_ALL_AXES
  6
Continuous
 62
     7
100
AcDbLine
 10
1152.1081412527
 20
397.0280769527
 30
0.0
 11
1152.1081412527
 21
396.8280769527
 31
0.0
  0
LINE
  5
591
330
1B
100
AcDbEntity
 67
     1
  8
02___PRT_ALL_AXES
  6
Continuous
 62
     7
100
AcDbLine
 10
1152.1081412527
 20
397.2280769527
 30
0.0
 11
1152.1081412527
 21
397.0280769527
 31
0.0
  0
LINE
  5
592
330
1B
100
AcDbEntity
 67
     1
  8
02___PRT_ALL_AXES
  6
Continuous
 62
     7
100
AcDbLine
 10
1152.1081412527
 20
397.8040642181
 30
0.0
 11
1152.1081412527
 21
397.2280769527
 31
0.0
  0
LINE
  5
593
330
1B
100
AcDbEntity
 67
     1
  8
02___PRT_ALL_AXES
  6
Continuous
 62
     7
100
AcDbLine
 10
1152.1081412527
 20
398.5280769527
 30
0.0
 11
1152.1081412527
 21
397.8040642181
 31
0.0
  0
LINE
  5
594
330
1B
100
AcDbEntity
 67
     1
  8
02___PRT_ALL_AXES
  6
Continuous
 62
     7
100
AcDbLine
 10
1152.1081412527
 20
336.2520896872
 30
0.0
 11
1152.1081412527
 21
335.8900837831
 31
0.0
  0
LINE
  5
595
330
1B
100
AcDbEntity
 67
     1
  8
02___PRT_ALL_AXES
  6
Continuous
 62
     7
100
AcDbLine
 10
1152.1081412527
 20
335.8900837831
 30
0.0
 11
1152.1081412527
 21
335.5280769527
 31
0.0
  0
LINE
  5
596
330
1B
100
AcDbEntity
 67
     1
  8
02___PRT_ALL_AXES
  6
Continuous
 62
     7
100
AcDbLine
 10
1152.1081412527
 20
336.8280769527
 30
0.0
 11
1152.1081412527
 21
336.2520896872
 31
0.0
  0
LINE
  5
597
330
1B
100
AcDbEntity
 67
     1
  8
02___PRT_ALL_AXES
  6
Continuous
 62
     7
100
AcDbLine
 10
1152.1081412527
 20
337.2280769527
 30
0.0
 11
1152.1081412527
 21
337.0280769527
 31
0.0
  0
LINE
  5
598
330
1B
100
AcDbEntity
 67
     1
  8
02___PRT_ALL_AXES
  6
Continuous
 62
     7
100
AcDbLine
 10
1152.1081412527
 20
338.4280769527
 30
0.0
 11
1152.1081412527
 21
338.2785675708
 31
0.0
  0
LINE
  5
599
330
1B
100
AcDbEntity
 67
     1
  8
02___PRT_ALL_AXES
  6
Continuous
 62
     7
100
AcDbLine
 10
1152.1081412527
 20
338.2785675708
 30
0.0
 11
1152.1081412527
 21
337.5280769527
 31
0.0
  0
LINE
  5
59A
330
1B
100
AcDbEntity
 67
     1
  8
02___PRT_ALL_AXES
  6
Continuous
 62
     7
100
AcDbLine
 10
1152.1081412527
 20
337.5280769527
 30
0.0
 11
1152.1081412527
 21
337.2280769527
 31
0.0
  0
LINE
  5
59B
330
1B
100
AcDbEntity
 67
     1
  8
02___PRT_ALL_AXES
  6
Continuous
 62
     7
100
AcDbLine
 10
1152.1081412527
 20
338.5280769527
 30
0.0
 11
1152.1081412527
 21
338.4280769527
 31
0.0
  0
LINE
  5
59C
330
1B
100
AcDbEntity
 67
     1
  8
02___PRT_ALL_AXES
  6
Continuous
 62
     7
100
AcDbLine
 10
152.1081412527
 20
338.5280769527
 30
0.0
 11
652.1081412527
 21
338.5280769527
 31
0.0
  0
LINE
  5
59D
330
1B
100
AcDbEntity
 67
     1
  8
02___PRT_ALL_AXES
  6
Continuous
 62
     7
100
AcDbLine
 10
652.1081412527
 20
338.5280769527
 30
0.0
 11
1152.1081412527
 21
338.5280769527
 31
0.0
  0
LINE
  5
59E
330
1B
100
AcDbEntity
 67
     1
  8
02___PRT_ALL_AXES
  6
Continuous
 62
     7
100
AcDbLine
 10
152.1081412527
 20
337.0280769527
 30
0.0
 11
652.1081412527
 21
337.0280769527
 31
0.0
  0
LINE
  5
59F
330
1B
100
AcDbEntity
 67
     1
  8
02___PRT_ALL_AXES
  6
Continuous
 62
     7
100
AcDbLine
 10
652.1081412527
 20
337.0280769527
 30
0.0
 11
1152.1081412527
 21
337.0280769527
 31
0.0
  0
LINE
  5
5A0
330
1B
100
AcDbEntity
 67
     1
  8
02___PRT_ALL_AXES
  6
Continuous
 62
     7
100
AcDbLine
 10
152.1081412527
 20
335.5280769527
 30
0.0
 11
652.1081412527
 21
335.5280769527
 31
0.0
  0
LINE
  5
5A1
330
1B
100
AcDbEntity
 67
     1
  8
02___PRT_ALL_AXES
  6
Continuous
 62
     7
100
AcDbLine
 10
652.1081412527
 20
335.5280769527
 30
0.0
 11
1152.1081412527
 21
335.5280769527
 31
0.0
  0
ARC
  5
5A2
330
1B
100
AcDbEntity
 67
     1
  8
02___PRT_ALL_AXES
  6
Continuous
 62
     7
100
AcDbCircle
 10
172.1081412527
 20
367.0280769527
 30
0.0
 40
5.0
100
AcDbArc
 50
90.0
 51
270.0
  0
ARC
  5
5A3
330
1B
100
AcDbEntity
 67
     1
  8
02___PRT_ALL_AXES
  6
Continuous
 62
     7
100
AcDbCircle
 10
172.1081412527
 20
367.0280769527
 30
0.0
 40
5.0
100
AcDbArc
 50
270.0
 51
90.0
  0
LINE
  5
5A4
330
1B
100
AcDbEntity
 67
     1
  8
02___PRT_ALL_AXES
  6
Continuous
 62
     7
100
AcDbLine
 10
152.1081412527
 20
395.5280769527
 30
0.0
 11
652.1081412527
 21
395.5280769527
 31
0.0
  0
LINE
  5
5A5
330
1B
100
AcDbEntity
 67
     1
  8
02___PRT_ALL_AXES
  6
Continuous
 62
     7
100
AcDbLine
 10
652.1081412527
 20
395.5280769527
 30
0.0
 11
1152.1081412527
 21
395.5280769527
 31
0.0
  0
LINE
  5
5A6
330
1B
100
AcDbEntity
 67
     1
  8
02___PRT_ALL_AXES
  6
Continuous
 62
     7
100
AcDbLine
 10
152.1081412527
 20
397.0280769527
 30
0.0
 11
652.1081412527
 21
397.0280769527
 31
0.0
  0
LINE
  5
5A7
330
1B
100
AcDbEntity
 67
     1
  8
02___PRT_ALL_AXES
  6
Continuous
 62
     7
100
AcDbLine
 10
652.1081412527
 20
397.0280769527
 30
0.0
 11
1152.1081412527
 21
397.0280769527
 31
0.0
  0
LINE
  5
5A8
330
1B
100
AcDbEntity
 67
     1
  8
02___PRT_ALL_AXES
  6
Continuous
 62
     7
100
AcDbLine
 10
152.1081412527
 20
398.5280769527
 30
0.0
 11
652.1081412527
 21
398.5280769527
 31
0.0
  0
LINE
  5
5A9
330
1B
100
AcDbEntity
 67
     1
  8
02___PRT_ALL_AXES
  6
Continuous
 62
     7
100
AcDbLine
 10
652.1081412527
 20
398.5280769527
 30
0.0
 11
1152.1081412527
 21
398.5280769527
 31
0.0
  0
LINE
  5
5AA
330
1B
100
AcDbEntity
 67
     1
  8
02___PRT_ALL_AXES
  6
Continuous
 62
     9
100
AcDbLine
 10
152.1081412527
 20
336.2520909527
 30
0.0
 11
1152.1081412527
 21
336.2520909527
 31
0.0
  0
LINE
  5
5AB
330
1B
100
AcDbEntity
 67
     1
  8
02___PRT_ALL_AXES
  6
Continuous
 62
     9
100
AcDbLine
 10
152.1081412527
 20
394.3941019527
 30
0.0
 11
1152.1081412527
 21
394.3941019527
 31
0.0
  0
LINE
  5
5AC
330
1B
100
AcDbEntity
 67
     1
  8
02___PRT_ALL_AXES
  6
Continuous
 62
     9
100
AcDbLine
 10
152.1081412527
 20
394.8941019527
 30
0.0
 11
1152.1081412527
 21
394.8941019527
 31
0.0
  0
LINE
  5
5AD
330
1B
100
AcDbEntity
 67
     1
  8
02___PRT_ALL_AXES
  6
Continuous
 62
     9
100
AcDbLine
 10
152.1081412527
 20
395.6280769527
 30
0.0
 11
1152.1081412527
 21
395.6280769527
 31
0.0
  0
LINE
  5
5AE
330
1B
100
AcDbEntity
 67
     1
  8
02___PRT_ALL_AXES
  6
Continuous
 62
     9
100
AcDbLine
 10
152.1081412527
 20
396.8280769527
 30
0.0
 11
1152.1081412527
 21
396.8280769527
 31
0.0
  0
LINE
  5
5AF
330
1B
100
AcDbEntity
 67
     1
  8
02___PRT_ALL_AXES
  6
Continuous
 62
     9
100
AcDbLine
 10
152.1081412527
 20
397.2280769527
 30
0.0
 11
1152.1081412527
 21
397.2280769527
 31
0.0
  0
LINE
  5
5B0
330
1B
100
AcDbEntity
 67
     1
  8
02___PRT_ALL_AXES
  6
Continuous
 62
     9
100
AcDbLine
 10
152.1081412527
 20
397.8040629527
 30
0.0
 11
1152.1081412527
 21
397.8040629527
 31
0.0
  0
LINE
  5
5B1
330
1B
100
AcDbEntity
 67
     1
  8
02___PRT_ALL_AXES
  6
Continuous
 62
     9
100
AcDbLine
 10
152.1081412527
 20
339.6620519527
 30
0.0
 11
1152.1081412527
 21
339.6620519527
 31
0.0
  0
LINE
  5
5B2
330
1B
100
AcDbEntity
 67
     1
  8
02___PRT_ALL_AXES
  6
Continuous
 62
     9
100
AcDbLine
 10
152.1081412527
 20
339.1620519527
 30
0.0
 11
1152.1081412527
 21
339.1620519527
 31
0.0
  0
LINE
  5
5B3
330
1B
100
AcDbEntity
 67
     1
  8
02___PRT_ALL_AXES
  6
Continuous
 62
     9
100
AcDbLine
 10
152.1081412527
 20
338.4280769527
 30
0.0
 11
1152.1081412527
 21
338.4280769527
 31
0.0
  0
LINE
  5
5B4
330
1B
100
AcDbEntity
 67
     1
  8
02___PRT_ALL_AXES
  6
Continuous
 62
     9
100
AcDbLine
 10
152.1081412527
 20
337.2280769527
 30
0.0
 11
1152.1081412527
 21
337.2280769527
 31
0.0
  0
LINE
  5
5B5
330
1B
100
AcDbEntity
 67
     1
  8
02___PRT_ALL_AXES
  6
Continuous
 62
     9
100
AcDbLine
 10
152.1081412527
 20
336.8280769527
 30
0.0
 11
1152.1081412527
 21
336.8280769527
 31
0.0
  0
LINE
  5
5B6
330
1B
100
AcDbEntity
 67
     1
  8
7_ALL_FEATURES
  6
Continuous
 62
     7
100
AcDbLine
 10
652.1081412527
 20
396.8280769527
 30
0.0
 11
652.1081412527
 21
397.0280769527
 31
0.0
  0
LINE
  5
5B7
330
1B
100
AcDbEntity
 67
     1
  8
7_ALL_FEATURES
  6
Continuous
 62
     7
100
AcDbLine
 10
652.1081412527
 20
395.5280769527
 30
0.0
 11
652.1081412527
 21
395.628076957
 31
0.0
  0
LINE
  5
5B8
330
1B
100
AcDbEntity
 67
     1
  8
7_ALL_FEATURES
  6
Continuous
 62
     7
100
AcDbLine
 10
652.1081412527
 20
339.1620519527
 30
0.0
 11
652.1081412527
 21
338.8108829222
 31
0.0
  0
LINE
  5
5B9
330
1B
100
AcDbEntity
 67
     1
  8
7_ALL_FEATURES
  6
Continuous
 62
     7
100
AcDbLine
 10
652.1081412527
 20
338.8108829222
 30
0.0
 11
652.1081412527
 21
338.5545089527
 31
0.0
  0
LINE
  5
5BA
330
1B
100
AcDbEntity
 67
     1
  8
7_ALL_FEATURES
  6
Continuous
 62
     7
100
AcDbLine
 10
652.1081412527
 20
338.4280769527
 30
0.0
 11
652.1081412527
 21
337.2280769527
 31
0.0
  0
LINE
  5
5BB
330
1B
100
AcDbEntity
 67
     1
  8
7_ALL_FEATURES
  6
Continuous
 62
     7
100
AcDbLine
 10
652.1081412527
 20
336.8280769527
 30
0.0
 11
652.1081412527
 21
336.2520909527
 31
0.0
  0
LINE
  5
5BC
330
1B
100
AcDbEntity
 67
     1
  8
7_ALL_FEATURES
  6
Continuous
 62
     7
100
AcDbLine
 10
652.1081412527
 20
336.2520909527
 30
0.0
 11
652.1081412527
 21
335.5280766136
 31
0.0
  0
LINE
  5
5BD
330
1B
100
AcDbEntity
 67
     1
  8
7_ALL_FEATURES
  6
Continuous
 62
     7
100
AcDbLine
 10
652.1081412527
 20
394.3941019527
 30
0.0
 11
652.1081412527
 21
394.8941019653
 31
0.0
  0
LINE
  5
5BE
330
1B
100
AcDbEntity
 67
     1
  8
7_ALL_FEATURES
  6
Continuous
 62
     7
100
AcDbLine
 10
652.1081412527
 20
339.6620519527
 30
0.0
 11
652.1081412527
 21
339.16205194
 31
0.0
  0
LINE
  5
5BF
330
1B
100
AcDbEntity
 67
     1
  8
7_ALL_FEATURES
  6
Continuous
 62
     7
100
AcDbLine
 10
652.1081412527
 20
397.2280769527
 30
0.0
 11
652.1081412527
 21
397.8040629527
 31
0.0
  0
LINE
  5
5C0
330
1B
100
AcDbEntity
 67
     1
  8
7_ALL_FEATURES
  6
Continuous
 62
     7
100
AcDbLine
 10
652.1081412527
 20
395.6280769527
 30
0.0
 11
652.1081412527
 21
396.8280769527
 31
0.0
  0
LINE
  5
5C1
330
1B
100
AcDbEntity
 67
     1
  8
7_ALL_FEATURES
  6
Continuous
 62
     7
100
AcDbLine
 10
652.1081412527
 20
394.8941019527
 30
0.0
 11
652.1081412527
 21
395.2452709831
 31
0.0
  0
LINE
  5
5C2
330
1B
100
AcDbEntity
 67
     1
  8
7_ALL_FEATURES
  6
Continuous
 62
     7
100
AcDbLine
 10
652.1081412527
 20
395.2452709831
 30
0.0
 11
652.1081412527
 21
395.5016449527
 31
0.0
  0
LINE
  5
5C3
330
1B
100
AcDbEntity
 67
     1
  8
7_ALL_FEATURES
  6
Continuous
 62
     7
100
AcDbLine
 10
652.1081412527
 20
394.3941019527
 30
0.0
 11
652.1081412527
 21
339.6620519527
 31
0.0
  0
LINE
  5
5C4
330
1B
100
AcDbEntity
 67
     1
  8
7_ALL_FEATURES
  6
Continuous
 62
     7
100
AcDbLine
 10
652.1081412527
 20
338.5280769527
 30
0.0
 11
652.1081412527
 21
338.4280769483
 31
0.0
  0
LINE
  5
5C5
330
1B
100
AcDbEntity
 67
     1
  8
7_ALL_FEATURES
  6
Continuous
 62
     7
100
AcDbLine
 10
652.1081412527
 20
337.2280769527
 30
0.0
 11
652.1081412527
 21
337.0280769527
 31
0.0
  0
LINE
  5
5C6
330
1B
100
AcDbEntity
 67
     1
  8
7_ALL_FEATURES
  6
Continuous
 62
     7
100
AcDbLine
 10
652.1081412527
 20
397.8040629527
 30
0.0
 11
652.1081412527
 21
398.5280772917
 31
0.0
  0
DIMENSION
  5
5C7
330
1B
100
AcDbEntity
 67
     1
  8
0
  6
Continuous
 62
     2
100
AcDbDimension
280
     0
  2
*D1
 10
99.9626820161
 20
579.5452853674
 30
0.0
 11
69.9434837952
 21
579.5452853674
 31
0.0
 70
   160
 71
     5
 42
-1.0
 73
     0
 74
     0
 75
     0
  3
DIMSTYLE_1
100
AcDbAlignedDimension
 13
39.9626820161
 23
594.4893165744
 33
0.0
 14
99.9626820161
 24
594.0100293973
 34
0.0
100
AcDbRotatedDimension
  0
DIMENSION
  5
5C8
330
1B
100
AcDbEntity
 67
     1
  8
0
  6
Continuous
 62
     2
100
AcDbDimension
280
     0
  2
*D2
 10
131.548651317
 20
745.1253960484
 30
0.0
 11
131.548651317
 21
670.254286304
 31
0.0
 70
   160
 71
     5
 42
-1.0
 73
     0
 74
     0
 75
     0
  3
DIMSTYLE_2
100
AcDbAlignedDimension
 13
148.7381532888
 23
595.1253960484
 33
0.0
 14
149.2277941827
 24
745.1253960484
 34
0.0
 50
90.0
100
AcDbRotatedDimension
  0
DIMENSION
  5
5C9
330
1B
100
AcDbEntity
 67
     1
  8
0
  6
Continuous
 62
     2
100
AcDbDimension
280
     0
  2
*D3
 10
1153.6081412527
 20
766.8413225284
 30
0.0
 11
652.2345714111
 21
766.8413225284
 31
0.0
 70
   160
 71
     5
 42
-1.0
 73
     0
 74
     0
 75
     0
  3
DIMSTYLE_3
100
AcDbAlignedDimension
 13
150.6081412527
 23
749.7178223049
 33
0.0
 14
1153.6081412527
 24
749.1187133336
 34
0.0
100
AcDbRotatedDimension
  0
LINE
  5
5CA
330
1B
100
AcDbEntity
 67
     1
  8
0
  6
Continuous
 62
     2
100
AcDbLine
 10
1049.0050640649
 20
70.0054331513
 30
0.0
 11
1179.0050640649
 21
70.0054331513
 31
0.0
  0
LINE
  5
5CB
330
1B
100
AcDbEntity
 67
     1
  8
0
  6
Continuous
 62
     2
100
AcDbLine
 10
1049.0050640649
 20
70.0054331513
 30
0.0
 11
1049.0050640649
 21
10.0054331513
 31
0.0
  0
LINE
  5
5CC
330
1B
100
AcDbEntity
 67
     1
  8
0
  6
Continuous
 62
     2
100
AcDbLine
 10
1079.0050640649
 20
62.0054331513
 30
0.0
 11
1179.0050640649
 21
62.0054331513
 31
0.0
  0
LINE
  5
5CD
330
1B
100
AcDbEntity
 67
     1
  8
0
  6
Continuous
 62
     2
100
AcDbLine
 10
1049.0050640649
 20
54.0054331513
 30
0.0
 11
1179.0050640649
 21
54.0054331513
 31
0.0
  0
LINE
  5
5CE
330
1B
100
AcDbEntity
 67
     1
  8
0
  6
Continuous
 62
     2
100
AcDbLine
 10
1079.0050640649
 20
48.0054331513
 30
0.0
 11
1179.0050640649
 21
48.0054331513
 31
0.0
  0
LINE
  5
5CF
330
1B
100
AcDbEntity
 67
     1
  8
0
  6
Continuous
 62
     2
100
AcDbLine
 10
1079.0050640649
 20
42.0054331513
 30
0.0
 11
1179.0050640649
 21
42.0054331513
 31
0.0
  0
LINE
  5
5D0
330
1B
100
AcDbEntity
 67
     1
  8
0
  6
Continuous
 62
     2
100
AcDbLine
 10
1079.0050640649
 20
36.0054331513
 30
0.0
 11
1179.0050640649
 21
36.0054331513
 31
0.0
  0
LINE
  5
5D1
330
1B
100
AcDbEntity
 67
     1
  8
0
  6
Continuous
 62
     2
100
AcDbLine
 10
1079.0050640649
 20
30.0054331513
 30
0.0
 11
1179.0050640649
 21
30.0054331513
 31
0.0
  0
LINE
  5
5D2
330
1B
100
AcDbEntity
 67
     1
  8
0
  6
Continuous
 62
     2
100
AcDbLine
 10
1049.0050640649
 20
24.0054331513
 30
0.0
 11
1179.0050640649
 21
24.0054331513
 31
0.0
  0
LINE
  5
5D3
330
1B
100
AcDbEntity
 67
     1
  8
0
  6
Continuous
 62
     2
100
AcDbLine
 10
1049.0050640649
 20
18.0054331513
 30
0.0
 11
1179.0050640649
 21
18.0054331513
 31
0.0
  0
LINE
  5
5D4
330
1B
100
AcDbEntity
 67
     1
  8
0
  6
Continuous
 62
     2
100
AcDbLine
 10
1049.0050640649
 20
14.0054331513
 30
0.0
 11
1179.0050640649
 21
14.0054331513
 31
0.0
  0
LINE
  5
5D5
330
1B
100
AcDbEntity
 67
     1
  8
0
  6
Continuous
 62
     2
100
AcDbLine
 10
1049.0050640649
 20
10.0054331513
 30
0.0
 11
1179.0050640649
 21
10.0054331513
 31
0.0
  0
LINE
  5
5D6
330
1B
100
AcDbEntity
 67
     1
  8
0
  6
Continuous
 62
     2
100
AcDbLine
 10
1079.0050640649
 20
70.0054331513
 30
0.0
 11
1079.0050640649
 21
18.0054331513
 31
0.0
  0
LINE
  5
5D7
330
1B
100
AcDbEntity
 67
     1
  8
0
  6
Continuous
 62
     2
100
AcDbLine
 10
1109.0050640649
 20
54.0054331513
 30
0.0
 11
1109.0050640649
 21
48.0054331513
 31
0.0
  0
LINE
  5
5D8
330
1B
100
AcDbEntity
 67
     1
  8
0
  6
Continuous
 62
     2
100
AcDbLine
 10
1129.0050640649
 20
30.0054331513
 30
0.0
 11
1129.0050640649
 21
18.0054331513
 31
0.0
  0
LINE
  5
5D9
330
1B
100
AcDbEntity
 67
     1
  8
0
  6
Continuous
 62
     2
100
AcDbLine
 10
1139.0050640649
 20
48.0054331513
 30
0.0
 11
1139.0050640649
 21
42.0054331513
 31
0.0
  0
LINE
  5
5DA
330
1B
100
AcDbEntity
 67
     1
  8
0
  6
Continuous
 62
     2
100
AcDbLine
 10
1159.0050640649
 20
54.0054331513
 30
0.0
 11
1159.0050640649
 21
48.0054331513
 31
0.0
  0
LINE
  5
5DB
330
1B
100
AcDbEntity
 67
     1
  8
0
  6
Continuous
 62
     2
100
AcDbLine
 10
1169.0050640649
 20
48.0054331513
 30
0.0
 11
1169.0050640649
 21
42.0054331513
 31
0.0
  0
LINE
  5
5DC
330
1B
100
AcDbEntity
 67
     1
  8
0
  6
Continuous
 62
     2
100
AcDbLine
 10
1179.0050640649
 20
70.0054331513
 30
0.0
 11
1179.0050640649
 21
10.0054331513
 31
0.0
  0
INSERT
  5
5DD
330
1B
100
AcDbEntity
 67
     1
  8
0
  6
Continuous
 62
     2
100
AcDbBlockReference
  2
PROIEZIONE_EU_BL0
 10
1064.0050640649
 20
61.6304331513
 30
0.0
  0
MTEXT
  5
5DE
330
1B
100
AcDbEntity
 67
     1
  8
9_SOLID
  6
Continuous
 62
     2
100
AcDbMText
 10
1080.4925640649
 20
68.3804331513
 30
0.0
 40
1.9
 41
142.3642857143
 46
0.0
 71
     1
 72
     1
  1
EN: Chamfer/radii unlisted 0.3x45°. Remove sharp edges.\PGen. tol.: hole H11, shaft h11, lenght Js12. UNI EN 22768 Medium Grande.
  7
TEXTSTYLE_4
 73
     1
 44
1.0
  0
MTEXT
  5
5DF
330
1B
100
AcDbEntity
 67
     1
  8
9_SOLID
  6
Continuous
 62
     2
100
AcDbMText
 10
1080.4925640649
 20
60.3804331513
 30
0.0
 40
1.9
 41
148.2678571429
 46
0.0
 71
     1
 72
     1
  1
IT: Sm./rac. non quotati 0.3x45°. Eliminare spigoli taglienti.\PToll. gen.: foro H11, albero h11, lunghezza Js12. UNI EN 22768 Grado Medio.
  7
TEXTSTYLE_4
 73
     1
 44
1.0
  0
INSERT
  5
5E0
330
1B
100
AcDbEntity
 67
     1
  8
0
  6
Continuous
 62
     2
100
AcDbBlockReference
  2
LOGO2_BL1
 10
1062.8311111097
 20
39.0054331513
 30
0.0
  0
MTEXT
  5
5E1
330
1B
100
AcDbEntity
 67
     1
  8
9_SOLID
  6
Continuous
 62
     2
100
AcDbMText
 10
1080.4925640649
 20
52.2554331513
 30
0.0
 40
3.0
 41
22.7142857143
 46
0.0
 71
     1
 72
     1
  1
Pj: Y90
  7
TEXTSTYLE_4
 73
     1
 44
1.0
  0
MTEXT
  5
5E2
330
1B
100
AcDbEntity
 67
     1
  8
9_SOLID
  6
Continuous
 62
     2
100
AcDbMText
 10
1110.4925640649
 20
52.2554331513
 30
0.0
 40
3.0
 41
38.0357142857
 46
0.0
 71
     1
 72
     1
  1
% Check: %
  7
TEXTSTYLE_4
 73
     1
 44
1.0
  0
MTEXT
  5
5E3
330
1B
100
AcDbEntity
 67
     1
  8
9_SOLID
  6
Continuous
 62
     2
100
AcDbMText
 10
1160.4925640649
 20
52.5054331513
 30
0.0
 40
3.0
 41
19.5
 46
0.0
 71
     1
 72
     1
  1
Rev:00
  7
TEXTSTYLE_4
 73
     1
 44
1.0
  0
MTEXT
  5
5E4
330
1B
100
AcDbEntity
 67
     1
  8
9_SOLID
  6
Continuous
 62
     2
100
AcDbMText
 10
1080.4925640649
 20
46.2554331513
 30
0.0
 40
3.0
 41
19.3928571429
 46
0.0
 71
     1
 72
     1
  1
Code: 
  7
TEXTSTYLE_4
 73
     1
 44
1.0
  0
MTEXT
  5
5E5
330
1B
100
AcDbEntity
 67
     1
  8
9_SOLID
  6
Continuous
 62
     2
100
AcDbMText
 10
1140.4925640649
 20
46.5054331513
 30
0.0
 40
3.0
 41
33.0
 46
0.0
 71
     1
 72
     1
  1
Scale: 3:20
  7
TEXTSTYLE_4
 73
     1
 44
1.0
  0
MTEXT
  5
5E6
330
1B
100
AcDbEntity
 67
     1
  8
9_SOLID
  6
Continuous
 62
     2
100
AcDbMText
 10
1174.0050640649
 20
46.5054331513
 30
0.0
 40
3.0
 41
8.25
 46
0.0
 71
     2
 72
     1
  1
A0
  7
TEXTSTYLE_4
 73
     1
 44
1.0
  0
MTEXT
  5
5E7
330
1B
100
AcDbEntity
 67
     1
  8
9_SOLID
  6
Continuous
 62
     2
100
AcDbMText
 10
1080.4925640649
 20
40.5054331513
 30
0.0
 40
3.0
 41
125.25
 46
0.0
 71
     1
 72
     1
  1
It descr.: CASSAFORMA RIVER2/5 1000mm
  7
TEXTSTYLE_4
 73
     1
 44
1.0
  0
MTEXT
  5
5E8
330
1B
100
AcDbEntity
 67
     1
  8
9_SOLID
  6
Continuous
 62
     2
100
AcDbMText
 10
1080.4925640649
 20
34.5054331513
 30
0.0
 40
3.0
 41
33.9642857143
 46
0.0
 71
     1
 72
     1
  1
En descr.: 
  7
TEXTSTYLE_4
 73
     1
 44
1.0
  0
MTEXT
  5
5E9
330
1B
100
AcDbEntity
 67
     1
  8
9_SOLID
  6
Continuous
 62
     2
100
AcDbMText
 10
1080.4925640649
 20
28.5054331513
 30
0.0
 40
3.0
 41
31.6071428571
 46
0.0
 71
     1
 72
     1
  1
Des.: A.G.
  7
TEXTSTYLE_4
 73
     1
 44
1.0
  0
MTEXT
  5
5EA
330
1B
100
AcDbEntity
 67
     1
  8
9_SOLID
  6
Continuous
 62
     2
100
AcDbMText
 10
1130.4925640649
 20
28.5054331513
 30
0.0
 40
3.0
 41
34.8214285714
 46
0.0
 71
     1
 72
     1
  1
Check: A.P.
  7
TEXTSTYLE_4
 73
     1
 44
1.0
  0
MTEXT
  5
5EB
330
1B
100
AcDbEntity
 67
     1
  8
9_SOLID
  6
Continuous
 62
     2
100
AcDbMText
 10
1050.4925640649
 20
22.5054331513
 30
0.0
 40
3.0
 41
42.5357142857
 46
0.0
 71
     1
 72
     1
  1
Date: 17.12.18
  7
TEXTSTYLE_4
 73
     1
 44
1.0
  0
MTEXT
  5
5EC
330
1B
100
AcDbEntity
 67
     1
  8
9_SOLID
  6
Continuous
 62
     2
100
AcDbMText
 10
1080.4925640649
 20
22.5054331513
 30
0.0
 40
3.0
 41
18.2142857143
 46
0.0
 71
     1
 72
     1
  1
Mat.: 
  7
TEXTSTYLE_4
 73
     1
 44
1.0
  0
MTEXT
  5
5ED
330
1B
100
AcDbEntity
 67
     1
  8
9_SOLID
  6
Continuous
 62
     2
100
AcDbMText
 10
1130.4925640649
 20
22.0054331513
 30
0.0
 40
2.0
 41
42.3571428571
 46
0.0
 71
     1
 72
     1
  1
Disegno per catalogo
  7
TEXTSTYLE_4
 73
     1
 44
1.0
  0
MTEXT
  5
5EE
330
1B
100
AcDbEntity
 67
     1
  8
9_SOLID
  6
Continuous
 62
     2
100
AcDbMText
 10
1050.4925640649
 20
16.9054331513
 30
0.0
 40
1.8
 41
176.2071428571
 46
0.0
 71
     1
 72
     1
  1
It: A norma di legge si diffida da qualsiasi riproduzione senza nostra autorizzazione esplicita.
  7
TEXTSTYLE_4
 73
     1
 44
1.0
  0
MTEXT
  5
5EF
330
1B
100
AcDbEntity
 67
     1
  8
9_SOLID
  6
Continuous
 62
     2
100
AcDbMText
 10
1050.4925640649
 20
12.9054331513
 30
0.0
 40
1.8
 41
158.1428571429
 46
0.0
 71
     1
 72
     1
  1
En: According to the law, beware of any reproduction made without our authorization.
  7
TEXTSTYLE_4
 73
     1
 44
1.0
  0
ENDSEC
  0
SECTION
  2
OBJECTS
  0
DICTIONARY
  5
5F0
330
0
100
AcDbDictionary
281
     1
  3
ACAD_DETAILVIEWSTYLE
350
646
  3
ACAD_GROUP
350
5F1
  3
ACAD_LAYOUT
350
619
  3
ACAD_MATERIAL
350
635
  3
ACAD_MLEADERSTYLE
350
63B
  3
ACAD_MLINESTYLE
350
5F2
  3
ACAD_PLOTSETTINGS
350
5F4
  3
ACAD_PLOTSTYLENAME
350
5F5
  3
ACAD_SCALELIST
350
5F7
  3
ACAD_SECTIONVIEWSTYLE
350
647
  3
ACAD_TABLESTYLE
350
639
  3
ACAD_VISUALSTYLE
350
61C
  3
ACDB_RECOMPOSE_DATA
350
642
  3
AcDbVariableDictionary
350
63E
  3
APPDATA
350
63D
  0
DICTIONARY
  5
646
102
{ACAD_REACTORS
330
5F0
102
}
330
5F0
100
AcDbDictionary
281
     1
  0
DICTIONARY
  5
5F1
102
{ACAD_REACTORS
330
5F0
102
}
330
5F0
100
AcDbDictionary
281
     1
  0
DICTIONARY
  5
619
102
{ACAD_REACTORS
330
5F0
102
}
330
5F0
100
AcDbDictionary
281
     1
  3
Foglio 1
350
61B
  3
Model
350
61A
  0
DICTIONARY
  5
635
102
{ACAD_REACTORS
330
5F0
102
}
330
5F0
100
AcDbDictionary
281
     1
  3
ByBlock
350
637
  3
ByLayer
350
636
  3
Global
350
638
  0
DICTIONARY
  5
63B
102
{ACAD_REACTORS
330
5F0
102
}
330
5F0
100
AcDbDictionary
281
     1
  3
Standard
350
63C
  0
DICTIONARY
  5
5F2
102
{ACAD_REACTORS
330
5F0
102
}
330
5F0
100
AcDbDictionary
281
     1
  3
STANDARD
350
5F3
  0
DICTIONARY
  5
5F4
102
{ACAD_REACTORS
330
5F0
102
}
330
5F0
100
AcDbDictionary
281
     1
  0
ACDBDICTIONARYWDFLT
  5
5F5
102
{ACAD_REACTORS
330
5F0
102
}
330
5F0
100
AcDbDictionary
281
     1
  3
Normal
350
5F6
100
AcDbDictionaryWithDefault
340
5F6
  0
DICTIONARY
  5
5F7
102
{ACAD_REACTORS
330
5F0
102
}
330
5F0
100
AcDbDictionary
281
     1
  3
A0
350
5F8
  3
A1
350
5F9
  3
A2
350
5FA
  3
A3
350
5FB
  3
A4
350
5FC
  3
A5
350
5FD
  3
A6
350
5FE
  3
A7
350
5FF
  3
A8
350
600
  3
A9
350
601
  3
B0
350
602
  3
B1
350
603
  3
B2
350
604
  3
B3
350
605
  3
B4
350
606
  3
B5
350
607
  3
B6
350
608
  3
B7
350
609
  3
B8
350
60A
  3
B9
350
60B
  3
C0
350
60C
  3
C1
350
60D
  3
C2
350
60E
  3
C3
350
60F
  3
C4
350
610
  3
C5
350
611
  3
C6
350
612
  3
C7
350
613
  3
C8
350
614
  3
C9
350
615
  3
D0
350
616
  3
D1
350
617
  3
D2
350
618
  0
DICTIONARY
  5
647
102
{ACAD_REACTORS
330
5F0
102
}
330
5F0
100
AcDbDictionary
281
     1
  0
DICTIONARY
  5
639
102
{ACAD_REACTORS
330
5F0
102
}
330
5F0
100
AcDbDictionary
281
     1
  3
Standard
350
63A
  0
DICTIONARY
  5
61C
102
{ACAD_REACTORS
330
5F0
102
}
330
5F0
100
AcDbDictionary
281
     1
  3
2dWireframe
350
621
  3
Basic
350
624
  3
Brighten
350
628
  3
ColorChange
350
62C
  3
Conceptual
350
626
  3
Dim
350
627
  3
EdgeColorOff
350
62F
  3
Facepattern
350
62B
  3
Flat
350
61D
  3
FlatWithEdges
350
61E
  3
Gouraud
350
61F
  3
GouraudWithEdges
350
620
  3
Hidden
350
623
  3
JitterOff
350
62D
  3
Linepattern
350
62A
  3
OverhangOff
350
62E
  3
Realistic
350
625
  3
Shaded
350
634
  3
Shaded with edges
350
633
  3
Shades of Gray
350
630
  3
Sketchy
350
631
  3
Thicken
350
629
  3
Wireframe
350
622
  3
X-Ray
350
632
  0
XRECORD
  5
642
102
{ACAD_REACTORS
330
5F0
102
}
330
5F0
100
AcDbXrecord
280
     1
 90
        1
330
63A
  0
DICTIONARY
  5
63E
102
{ACAD_REACTORS
330
5F0
102
}
330
5F0
100
AcDbDictionary
281
     1
  3
CANNOSCALE
350
63F
  3
CMLEADERSTYLE
350
644
  3
CTABLESTYLE
350
643
  3
MSLTSCALE
350
645
  0
DICTIONARY
  5
63D
102
{ACAD_REACTORS
330
5F0
102
}
330
5F0
100
AcDbDictionary
281
     1
  0
LAYOUT
  5
61B
102
{ACAD_REACTORS
330
619
102
}
330
619
100
AcDbPlotSettings
  1

  2
none_device
  4
ISO_A3_(420.00_x_297.00_MM)
  6

 40
7.5
 41
20.0
 42
7.5
 43
20.0
 44
420.0
 45
297.0
 46
0.0
 47
0.0
 48
0.0
 49
0.0
140
0.0
141
0.0
142
1.0
143
3.272373540856031
 70
   688
 72
     1
 73
     0
 74
     1
  7

 75
     0
 76
     0
 77
     2
 78
   300
147
0.3055885850178359
148
3.0
149
0.0
100
AcDbLayout
  1
Foglio 1
 70
     1
 71
     1
 10
0.0
 20
0.0
 11
412.5
 21
277.0
 12
0.0
 22
0.0
 32
0.0
 14
-3.0
 24
0.0
 34
0.0
 15
1189.0
 25
841.0
 35
0.0
146
0.0
 13
0.0
 23
0.0
 33
0.0
 16
1.0
 26
0.0
 36
0.0
 17
0.0
 27
1.0
 37
0.0
 76
     0
330
1B
331
2F0
  0
LAYOUT
  5
61A
102
{ACAD_REACTORS
330
619
102
}
330
619
100
AcDbPlotSettings
  1

  2
none_device
  4
Letter_(8.50_x_11.00_Inches)
  6

 40
6.35
 41
6.35
 42
6.35
 43
6.35
 44
215.9
 45
279.4
 46
0.0
 47
0.0
 48
0.0
 49
0.0
140
0.0
141
0.0
142
1.0
143
148.624999994925
 70
  1712
 72
     0
 73
     0
 74
     0
  7

 75
     0
 76
     0
 77
     2
 78
   300
147
0.0067283431457302
148
-0.0000005156208999
149
0.0
100
AcDbLayout
  1
Model
 70
     1
 71
     0
 10
0.0
 20
0.0
 11
1189.0
 21
841.0
 12
0.0
 22
0.0
 32
0.0
 14
0.0
 24
0.0
 34
0.0
 15
1189.0
 25
841.0
 35
0.0
146
0.0
 13
0.0
 23
0.0
 33
0.0
 16
1.0
 26
0.0
 36
0.0
 17
0.0
 27
1.0
 37
0.0
 76
     0
330
1F
331
1F4
  0
MATERIAL
  5
637
102
{ACAD_REACTORS
330
635
102
}
330
635
100
AcDbMaterial
  1
ByBlock
 72
     1
 94
      127
  0
MATERIAL
  5
636
102
{ACAD_REACTORS
330
635
102
}
330
635
100
AcDbMaterial
  1
ByLayer
 72
     1
 94
      127
  0
MATERIAL
  5
638
102
{ACAD_REACTORS
330
635
102
}
330
635
100
AcDbMaterial
  1
Global
 72
     1
 94
      127
  0
MLEADERSTYLE
  5
63C
102
{ACAD_REACTORS
330
63B
102
}
330
63B
100
AcDbMLeaderStyle
179
     2
170
     2
171
     1
172
     0
 90
        2
 40
0.0
 41
0.0
173
     1
 91
-1056964608
340
14
 92
       -2
290
     1
 42
2.0
291
     1
 43
8.0
  3
Standard
341
0
 44
4.0
300

342
11
174
     1
178
     1
175
     1
176
     0
 93
-1056964608
 45
4.0
292
     0
297
     0
 46
4.0
343
0
 94
-1056964608
 47
1.0
 49
1.0
140
1.0
293
     1
141
0.0
294
     1
177
     0
142
1.0
295
     0
296
     0
143
3.75
271
     0
272
     9
273
     9
298
     0
  0
MLINESTYLE
  5
5F3
102
{ACAD_REACTORS
330
5F2
102
}
330
5F2
100
AcDbMlineStyle
  2
STANDARD
 70
     0
  3

 62
   256
 51
90.0
 52
90.0
 71
     2
 49
0.5
 62
   256
  6
BYLAYER
 49
-0.5
 62
   256
  6
BYLAYER
  0
ACDBPLACEHOLDER
  5
5F6
102
{ACAD_REACTORS
330
5F5
102
}
330
5F5
  0
SCALE
  5
5F8
102
{ACAD_REACTORS
330
5F7
102
}
330
5F7
100
AcDbScale
 70
     0
300
1:1
140
1.0
141
1.0
290
     1
  0
SCALE
  5
5F9
102
{ACAD_REACTORS
330
5F7
102
}
330
5F7
100
AcDbScale
 70
     0
300
1:2
140
1.0
141
2.0
290
     0
  0
SCALE
  5
5FA
102
{ACAD_REACTORS
330
5F7
102
}
330
5F7
100
AcDbScale
 70
     0
300
1:4
140
1.0
141
4.0
290
     0
  0
SCALE
  5
5FB
102
{ACAD_REACTORS
330
5F7
102
}
330
5F7
100
AcDbScale
 70
     0
300
1:5
140
1.0
141
5.0
290
     0
  0
SCALE
  5
5FC
102
{ACAD_REACTORS
330
5F7
102
}
330
5F7
100
AcDbScale
 70
     0
300
1:8
140
1.0
141
8.0
290
     0
  0
SCALE
  5
5FD
102
{ACAD_REACTORS
330
5F7
102
}
330
5F7
100
AcDbScale
 70
     0
300
1:10
140
1.0
141
10.0
290
     0
  0
SCALE
  5
5FE
102
{ACAD_REACTORS
330
5F7
102
}
330
5F7
100
AcDbScale
 70
     0
300
1:16
140
1.0
141
16.0
290
     0
  0
SCALE
  5
5FF
102
{ACAD_REACTORS
330
5F7
102
}
330
5F7
100
AcDbScale
 70
     0
300
1:20
140
1.0
141
20.0
290
     0
  0
SCALE
  5
600
102
{ACAD_REACTORS
330
5F7
102
}
330
5F7
100
AcDbScale
 70
     0
300
1:30
140
1.0
141
30.0
290
     0
  0
SCALE
  5
601
102
{ACAD_REACTORS
330
5F7
102
}
330
5F7
100
AcDbScale
 70
     0
300
1:40
140
1.0
141
40.0
290
     0
  0
SCALE
  5
602
102
{ACAD_REACTORS
330
5F7
102
}
330
5F7
100
AcDbScale
 70
     0
300
1:50
140
1.0
141
50.0
290
     0
  0
SCALE
  5
603
102
{ACAD_REACTORS
330
5F7
102
}
330
5F7
100
AcDbScale
 70
     0
300
1:100
140
1.0
141
100.0
290
     0
  0
SCALE
  5
604
102
{ACAD_REACTORS
330
5F7
102
}
330
5F7
100
AcDbScale
 70
     0
300
2:1
140
2.0
141
1.0
290
     0
  0
SCALE
  5
605
102
{ACAD_REACTORS
330
5F7
102
}
330
5F7
100
AcDbScale
 70
     0
300
4:1
140
4.0
141
1.0
290
     0
  0
SCALE
  5
606
102
{ACAD_REACTORS
330
5F7
102
}
330
5F7
100
AcDbScale
 70
     0
300
8:1
140
8.0
141
1.0
290
     0
  0
SCALE
  5
607
102
{ACAD_REACTORS
330
5F7
102
}
330
5F7
100
AcDbScale
 70
     0
300
10:1
140
10.0
141
1.0
290
     0
  0
SCALE
  5
608
102
{ACAD_REACTORS
330
5F7
102
}
330
5F7
100
AcDbScale
 70
     0
300
100:1
140
100.0
141
1.0
290
     0
  0
SCALE
  5
609
102
{ACAD_REACTORS
330
5F7
102
}
330
5F7
100
AcDbScale
 70
     0
300
1/128" = 1'-0"
140
0.0078125
141
12.0
290
     0
  0
SCALE
  5
60A
102
{ACAD_REACTORS
330
5F7
102
}
330
5F7
100
AcDbScale
 70
     0
300
1/64" = 1'-0"
140
0.015625
141
12.0
290
     0
  0
SCALE
  5
60B
102
{ACAD_REACTORS
330
5F7
102
}
330
5F7
100
AcDbScale
 70
     0
300
1/32" = 1'-0"
140
0.03125
141
12.0
290
     0
  0
SCALE
  5
60C
102
{ACAD_REACTORS
330
5F7
102
}
330
5F7
100
AcDbScale
 70
     0
300
1/16" = 1'-0"
140
0.0625
141
12.0
290
     0
  0
SCALE
  5
60D
102
{ACAD_REACTORS
330
5F7
102
}
330
5F7
100
AcDbScale
 70
     0
300
3/32" = 1'-0"
140
0.09375
141
12.0
290
     0
  0
SCALE
  5
60E
102
{ACAD_REACTORS
330
5F7
102
}
330
5F7
100
AcDbScale
 70
     0
300
1/8" = 1'-0"
140
0.125
141
12.0
290
     0
  0
SCALE
  5
60F
102
{ACAD_REACTORS
330
5F7
102
}
330
5F7
100
AcDbScale
 70
     0
300
3/16" = 1'-0"
140
0.1875
141
12.0
290
     0
  0
SCALE
  5
610
102
{ACAD_REACTORS
330
5F7
102
}
330
5F7
100
AcDbScale
 70
     0
300
1/4" = 1'-0"
140
0.25
141
12.0
290
     0
  0
SCALE
  5
611
102
{ACAD_REACTORS
330
5F7
102
}
330
5F7
100
AcDbScale
 70
     0
300
3/8" = 1'-0"
140
0.375
141
12.0
290
     0
  0
SCALE
  5
612
102
{ACAD_REACTORS
330
5F7
102
}
330
5F7
100
AcDbScale
 70
     0
300
1/2" = 1'-0"
140
0.5
141
12.0
290
     0
  0
SCALE
  5
613
102
{ACAD_REACTORS
330
5F7
102
}
330
5F7
100
AcDbScale
 70
     0
300
3/4" = 1'-0"
140
0.75
141
12.0
290
     0
  0
SCALE
  5
614
102
{ACAD_REACTORS
330
5F7
102
}
330
5F7
100
AcDbScale
 70
     0
300
1" = 1'-0"
140
1.0
141
12.0
290
     0
  0
SCALE
  5
615
102
{ACAD_REACTORS
330
5F7
102
}
330
5F7
100
AcDbScale
 70
     0
300
1-1/2" = 1'-0"
140
1.5
141
12.0
290
     0
  0
SCALE
  5
616
102
{ACAD_REACTORS
330
5F7
102
}
330
5F7
100
AcDbScale
 70
     0
300
3" = 1'-0"
140
3.0
141
12.0
290
     0
  0
SCALE
  5
617
102
{ACAD_REACTORS
330
5F7
102
}
330
5F7
100
AcDbScale
 70
     0
300
6" = 1'-0"
140
6.0
141
12.0
290
     0
  0
SCALE
  5
618
102
{ACAD_REACTORS
330
5F7
102
}
330
5F7
100
AcDbScale
 70
     0
300
1'-0" = 1'-0"
140
12.0
141
12.0
290
     0
  0
TABLESTYLE
  5
63A
102
{ACAD_REACTORS
330
639
102
}
102
{ACAD_XDICTIONARY
360
640
102
}
330
639
100
AcDbTableStyle
  3
Standard
 70
     0
 71
     0
 40
0.06
 41
0.06
280
     0
281
     0
  7
STANDARD
140
4.5
170
     2
 62
     0
 63
   257
283
     0
 90
        4
 91
        0
  1

274
    -2
284
     1
 64
     0
275
    -2
285
     1
 65
     0
276
    -2
286
     1
 66
     0
277
    -2
287
     1
 67
     0
278
    -2
288
     1
 68
     0
279
    -2
289
     1
 69
     0
  7
STANDARD
140
6.0
170
     5
 62
     0
 63
   257
283
     0
 90
        4
 91
        0
  1

274
    -2
284
     1
 64
     0
275
    -2
285
     1
 65
     0
276
    -2
286
     1
 66
     0
277
    -2
287
     1
 67
     0
278
    -2
288
     1
 68
     0
279
    -2
289
     1
 69
     0
  7
STANDARD
140
4.5
170
     5
 62
     0
 63
   257
283
     0
 90
        4
 91
        0
  1

274
    -2
284
     1
 64
     0
275
    -2
285
     1
 65
     0
276
    -2
286
     1
 66
     0
277
    -2
287
     1
 67
     0
278
    -2
288
     1
 68
     0
279
    -2
289
     1
 69
     0
  0
VISUALSTYLE
  5
621
102
{ACAD_REACTORS
330
61C
102
}
330
61C
100
AcDbVisualStyle
  2
2dWireframe
 70
     4
177
     3
291
     0
 70
    58
 90
        0
176
     1
 90
        2
176
     1
 90
        0
176
     1
 90
        0
176
     1
 40
0.6
176
     1
 40
30.0
176
     1
 62
     7
420
 16777215
176
     1
 90
        1
176
     1
 90
        4
176
     1
 62
     7
176
     1
 62
   257
176
     1
 90
        1
176
     1
 90
        1
176
     1
 40
1.0
176
     1
 90
        0
176
     1
 62
   257
176
     1
 40
1.0
176
     1
 90
        1
176
     1
 90
        6
176
     1
 90
        2
176
     1
 62
     7
176
     1
 90
        5
176
     1
 90
        0
176
     1
 90
        0
176
     1
290
     0
176
     1
 90
        1
176
     1
 40
0.0
176
     1
 90
        0
176
     1
290
     1
176
     1
290
     1
176
     1
290
     0
176
     1
290
     0
176
     1
290
     0
176
     1
290
     0
176
     1
290
     0
176
     1
290
     0
176
     1
290
     0
176
     1
 90
       50
176
     1
 40
0.0
176
     1
 40
1.0
176
     1
 90
        0
176
     1
 62
    18
420
        0
176
     1
 90
       50
176
     1
 90
        3
176
     1
 62
     5
420
      255
176
     1
290
     0
176
     1
 90
       50
176
     1
 90
       50
176
     1
 90
       50
176
     1
290
     0
176
     1
 90
       50
176
     1
 62
   256
176
     0
 40
1.0
176
     0
 90
        2
176
     1
  1
strokes_ogs.tif
176
     1
290
     0
176
     1
 40
1.0
176
     1
 40
1.0
176
     1
  0
VISUALSTYLE
  5
624
102
{ACAD_REACTORS
330
61C
102
}
330
61C
100
AcDbVisualStyle
  2
Basic
 70
     7
177
     3
291
     1
 70
    58
 90
        1
176
     1
 90
        0
176
     1
 90
        1
176
     1
 90
        0
176
     1
 40
0.6
176
     1
 40
30.0
176
     1
 62
     7
420
 16777215
176
     1
 90
        0
176
     1
 90
        4
176
     1
 62
     7
176
     1
 62
   257
176
     1
 90
        1
176
     1
 90
        1
176
     1
 40
1.0
176
     1
 90
        8
176
     1
 62
     7
176
     1
 40
1.0
176
     1
 90
        1
176
     1
 90
        6
176
     1
 90
        2
176
     1
 62
     7
176
     1
 90
        5
176
     1
 90
        0
176
     1
 90
        0
176
     1
290
     0
176
     1
 90
        1
176
     1
 40
0.0
176
     1
 90
        0
176
     1
290
     0
176
     1
290
     1
176
     1
290
     1
176
     1
290
     0
176
     1
290
     0
176
     1
290
     0
176
     1
290
     0
176
     1
290
     0
176
     1
290
     0
176
     1
 90
       50
176
     1
 40
0.0
176
     1
 40
1.0
176
     1
 90
        0
176
     1
 62
    18
420
        0
176
     1
 90
       50
176
     1
 90
        3
176
     1
 62
     5
420
      255
176
     1
290
     0
176
     1
 90
       50
176
     1
 90
       50
176
     1
 90
       50
176
     1
290
     0
176
     1
 90
       50
176
     1
 62
   256
176
     0
 40
1.0
176
     0
 90
        2
176
     1
  1
strokes_ogs.tif
176
     1
290
     0
176
     1
 40
1.0
176
     1
 40
1.0
176
     1
  0
VISUALSTYLE
  5
628
102
{ACAD_REACTORS
330
61C
102
}
330
61C
100
AcDbVisualStyle
  2
Brighten
 70
    12
177
     3
291
     1
 70
    58
 90
        2
176
     1
 90
        2
176
     1
 90
        0
176
     1
 90
        0
176
     1
 40
0.6
176
     1
 40
30.0
176
     1
 62
     7
420
 16777215
176
     1
 90
        1
176
     1
 90
        4
176
     1
 62
     7
176
     1
 62
   257
176
     1
 90
        1
176
     1
 90
        1
176
     1
 40
1.0
176
     1
 90
        8
176
     1
 62
     7
176
     1
 40
1.0
176
     1
 90
        1
176
     1
 90
        6
176
     1
 90
        2
176
     1
 62
     7
176
     1
 90
        5
176
     1
 90
        0
176
     1
 90
        0
176
     1
290
     0
176
     1
 90
        1
176
     1
 40
50.0
176
     1
 90
        0
176
     1
290
     0
176
     1
290
     1
176
     1
290
     1
176
     1
290
     0
176
     1
290
     0
176
     1
290
     0
176
     1
290
     0
176
     1
290
     0
176
     1
290
     0
176
     1
 90
       50
176
     1
 40
0.0
176
     1
 40
1.0
176
     1
 90
        0
176
     1
 62
    18
420
        0
176
     1
 90
       50
176
     1
 90
        3
176
     1
 62
     5
420
      255
176
     1
290
     0
176
     1
 90
       50
176
     1
 90
       50
176
     1
 90
       50
176
     1
290
     0
176
     1
 90
       50
176
     1
 62
   256
176
     0
 40
1.0
176
     0
 90
        2
176
     1
  1
strokes_ogs.tif
176
     1
290
     0
176
     1
 40
1.0
176
     1
 40
1.0
176
     1
  0
VISUALSTYLE
  5
62C
102
{ACAD_REACTORS
330
61C
102
}
330
61C
100
AcDbVisualStyle
  2
ColorChange
 70
    16
177
     3
291
     1
 70
    58
 90
        2
176
     1
 90
        2
176
     1
 90
        3
176
     1
 90
        0
176
     1
 40
0.6
176
     1
 40
30.0
176
     1
 62
     8
420
  8421504
176
     1
 90
        1
176
     1
 90
        4
176
     1
 62
     7
176
     1
 62
   257
176
     1
 90
        1
176
     1
 90
        1
176
     1
 40
1.0
176
     1
 90
        8
176
     1
 62
     8
420
  8421504
176
     1
 40
1.0
176
     1
 90
        1
176
     1
 90
        6
176
     1
 90
        2
176
     1
 62
     7
176
     1
 90
        5
176
     1
 90
        0
176
     1
 90
        0
176
     1
290
     0
176
     1
 90
        1
176
     1
 40
0.0
176
     1
 90
        0
176
     1
290
     0
176
     1
290
     1
176
     1
290
     1
176
     1
290
     0
176
     1
290
     0
176
     1
290
     0
176
     1
290
     0
176
     1
290
     0
176
     1
290
     0
176
     1
 90
       50
176
     1
 40
0.0
176
     1
 40
1.0
176
     1
 90
        0
176
     1
 62
    18
420
        0
176
     1
 90
       50
176
     1
 90
        3
176
     1
 62
     5
420
      255
176
     1
290
     0
176
     1
 90
       50
176
     1
 90
       50
176
     1
 90
       50
176
     1
290
     0
176
     1
 90
       50
176
     1
 62
   256
176
     0
 40
1.0
176
     0
 90
        2
176
     1
  1
strokes_ogs.tif
176
     1
290
     0
176
     1
 40
1.0
176
     1
 40
1.0
176
     1
  0
VISUALSTYLE
  5
626
102
{ACAD_REACTORS
330
61C
102
}
330
61C
100
AcDbVisualStyle
  2
Conceptual
 70
     9
177
     3
291
     0
 70
    58
 90
        3
176
     1
 90
        2
176
     1
 90
        0
176
     1
 90
        0
176
     1
 40
0.6
176
     1
 40
30.0
176
     1
 62
     7
420
 16777215
176
     1
 90
        2
176
     1
 90
        2
176
     1
 62
     7
176
     1
 62
   257
176
     1
 90
        1
176
     1
 90
        1
176
     1
 40
179.0
176
     1
 90
        8
176
     1
 62
     7
176
     1
 40
1.0
176
     1
 90
        1
176
     1
 90
        6
176
     1
 90
        2
176
     1
 62
     7
176
     1
 90
        3
176
     1
 90
        0
176
     1
 90
        0
176
     1
290
     0
176
     1
 90
        1
176
     1
 40
0.0
176
     1
 90
        0
176
     1
290
     0
176
     1
290
     1
176
     1
290
     1
176
     1
290
     0
176
     1
290
     0
176
     1
290
     0
176
     1
290
     0
176
     1
290
     0
176
     1
290
     0
176
     1
 90
       50
176
     1
 40
0.0
176
     1
 40
1.0
176
     1
 90
        0
176
     1
 62
    18
420
        0
176
     1
 90
       50
176
     1
 90
        3
176
     1
 62
     5
420
      255
176
     1
290
     0
176
     1
 90
       50
176
     1
 90
       50
176
     1
 90
       50
176
     1
290
     0
176
     1
 90
       50
176
     1
 62
   256
176
     0
 40
1.0
176
     0
 90
        2
176
     1
  1
strokes_ogs.tif
176
     1
290
     0
176
     1
 40
1.0
176
     1
 40
1.0
176
     1
  0
VISUALSTYLE
  5
627
102
{ACAD_REACTORS
330
61C
102
}
330
61C
100
AcDbVisualStyle
  2
Dim
 70
    11
177
     3
291
     1
 70
    58
 90
        2
176
     1
 90
        2
176
     1
 90
        0
176
     1
 90
        0
176
     1
 40
0.6
176
     1
 40
30.0
176
     1
 62
     7
420
 16777215
176
     1
 90
        1
176
     1
 90
        4
176
     1
 62
     7
176
     1
 62
   257
176
     1
 90
        1
176
     1
 90
        1
176
     1
 40
1.0
176
     1
 90
        8
176
     1
 62
     7
176
     1
 40
1.0
176
     1
 90
        1
176
     1
 90
        6
176
     1
 90
        2
176
     1
 62
     7
176
     1
 90
        5
176
     1
 90
        0
176
     1
 90
        0
176
     1
290
     0
176
     1
 90
        1
176
     1
 40
-50.0
176
     1
 90
        0
176
     1
290
     0
176
     1
290
     1
176
     1
290
     1
176
     1
290
     0
176
     1
290
     0
176
     1
290
     0
176
     1
290
     0
176
     1
290
     0
176
     1
290
     0
176
     1
 90
       50
176
     1
 40
0.0
176
     1
 40
1.0
176
     1
 90
        0
176
     1
 62
    18
420
        0
176
     1
 90
       50
176
     1
 90
        3
176
     1
 62
     5
420
      255
176
     1
290
     0
176
     1
 90
       50
176
     1
 90
       50
176
     1
 90
       50
176
     1
290
     0
176
     1
 90
       50
176
     1
 62
   256
176
     0
 40
1.0
176
     0
 90
        2
176
     1
  1
strokes_ogs.tif
176
     1
290
     0
176
     1
 40
1.0
176
     1
 40
1.0
176
     1
  0
VISUALSTYLE
  5
62F
102
{ACAD_REACTORS
330
61C
102
}
330
61C
100
AcDbVisualStyle
  2
EdgeColorOff
 70
    22
177
     3
291
     1
 70
    58
 90
        2
176
     0
 90
        2
176
     0
 90
        0
176
     0
 90
        0
176
     0
 40
0.6
176
     0
 40
30.0
176
     0
 62
     7
420
 16777215
176
     0
 90
        1
176
     0
 90
        4
176
     0
 62
     7
176
     0
 62
   257
176
     0
 90
        1
176
     0
 90
        1
176
     0
 40
1.0
176
     0
 90
        8
176
     2
 62
     7
176
     0
 40
1.0
176
     0
 90
        1
176
     0
 90
        6
176
     0
 90
        2
176
     0
 62
     7
176
     0
 90
        5
176
     0
 90
        0
176
     0
 90
        0
176
     0
290
     0
176
     0
 90
        1
176
     0
 40
0.0
176
     0
 90
        0
176
     0
290
     0
176
     0
290
     1
176
     0
290
     1
176
     0
290
     0
176
     0
290
     0
176
     0
290
     0
176
     0
290
     0
176
     0
290
     0
176
     0
290
     0
176
     0
 90
       50
176
     0
 40
0.0
176
     0
 40
1.0
176
     0
 90
        0
176
     0
 62
    18
420
        0
176
     0
 90
       50
176
     0
 90
        3
176
     0
 62
     5
420
      255
176
     0
290
     0
176
     0
 90
       50
176
     0
 90
       50
176
     0
 90
       50
176
     0
290
     0
176
     0
 90
       50
176
     0
 62
   256
176
     0
 40
1.0
176
     0
 90
        2
176
     0
  1
strokes_ogs.tif
176
     0
290
     0
176
     0
 40
1.0
176
     0
 40
1.0
176
     0
  0
VISUALSTYLE
  5
62B
102
{ACAD_REACTORS
330
61C
102
}
330
61C
100
AcDbVisualStyle
  2
Facepattern
 70
    15
177
     3
291
     1
 70
    58
 90
        2
176
     1
 90
        2
176
     1
 90
        0
176
     1
 90
        0
176
     1
 40
0.6
176
     1
 40
30.0
176
     1
 62
     7
420
 16777215
176
     1
 90
        1
176
     1
 90
        4
176
     1
 62
     7
176
     1
 62
   257
176
     1
 90
        1
176
     1
 90
        1
176
     1
 40
1.0
176
     1
 90
        8
176
     1
 62
     7
176
     1
 40
1.0
176
     1
 90
        1
176
     1
 90
        6
176
     1
 90
        2
176
     1
 62
     7
176
     1
 90
        5
176
     1
 90
        0
176
     1
 90
        0
176
     1
290
     0
176
     1
 90
        1
176
     1
 40
0.0
176
     1
 90
        0
176
     1
290
     0
176
     1
290
     1
176
     1
290
     1
176
     1
290
     0
176
     1
290
     0
176
     1
290
     0
176
     1
290
     0
176
     1
290
     0
176
     1
290
     0
176
     1
 90
       50
176
     1
 40
0.0
176
     1
 40
1.0
176
     1
 90
        0
176
     1
 62
    18
420
        0
176
     1
 90
       50
176
     1
 90
        3
176
     1
 62
     5
420
      255
176
     1
290
     0
176
     1
 90
       50
176
     1
 90
       50
176
     1
 90
       50
176
     1
290
     0
176
     1
 90
       50
176
     1
 62
   256
176
     0
 40
1.0
176
     0
 90
        2
176
     1
  1
strokes_ogs.tif
176
     1
290
     0
176
     1
 40
1.0
176
     1
 40
1.0
176
     1
  0
VISUALSTYLE
  5
61D
102
{ACAD_REACTORS
330
61C
102
}
330
61C
100
AcDbVisualStyle
  2
Flat
 70
     0
177
     3
291
     1
 70
    58
 90
        2
176
     1
 90
        1
176
     1
 90
        1
176
     1
 90
        2
176
     1
 40
0.6
176
     1
 40
30.0
176
     1
 62
     7
420
 16777215
176
     1
 90
        0
176
     1
 90
        0
176
     1
 62
     7
176
     1
 62
   257
176
     1
 90
        1
176
     1
 90
        1
176
     1
 40
1.0
176
     1
 90
        8
176
     1
 62
     7
176
     1
 40
1.0
176
     1
 90
        1
176
     1
 90
        6
176
     1
 90
        2
176
     1
 62
     7
176
     1
 90
        5
176
     1
 90
        0
176
     1
 90
        0
176
     1
290
     0
176
     1
 90
       13
176
     1
 40
0.0
176
     1
 90
        0
176
     1
290
     0
176
     1
290
     1
176
     1
290
     1
176
     1
290
     0
176
     1
290
     0
176
     1
290
     0
176
     1
290
     0
176
     1
290
     0
176
     1
290
     0
176
     1
 90
       50
176
     1
 40
0.0
176
     1
 40
1.0
176
     1
 90
        0
176
     1
 62
    18
420
        0
176
     1
 90
       50
176
     1
 90
        3
176
     1
 62
     5
420
      255
176
     1
290
     0
176
     1
 90
       50
176
     1
 90
       50
176
     1
 90
       50
176
     1
290
     0
176
     1
 90
       50
176
     1
 62
   256
176
     0
 40
1.0
176
     0
 90
        2
176
     1
  1
strokes_ogs.tif
176
     1
290
     0
176
     1
 40
1.0
176
     1
 40
1.0
176
     1
  0
VISUALSTYLE
  5
61E
102
{ACAD_REACTORS
330
61C
102
}
330
61C
100
AcDbVisualStyle
  2
FlatWithEdges
 70
     1
177
     3
291
     1
 70
    58
 90
        2
176
     1
 90
        1
176
     1
 90
        1
176
     1
 90
        2
176
     1
 40
0.6
176
     1
 40
30.0
176
     1
 62
     7
420
 16777215
176
     1
 90
        1
176
     1
 90
        0
176
     1
 62
     7
176
     1
 62
   257
176
     1
 90
        1
176
     1
 90
        1
176
     1
 40
1.0
176
     1
 90
        0
176
     1
 62
   257
176
     1
 40
1.0
176
     1
 90
        1
176
     1
 90
        6
176
     1
 90
        2
176
     1
 62
     7
176
     1
 90
        5
176
     1
 90
        0
176
     1
 90
        0
176
     1
290
     0
176
     1
 90
       13
176
     1
 40
0.0
176
     1
 90
        0
176
     1
290
     0
176
     1
290
     1
176
     1
290
     1
176
     1
290
     0
176
     1
290
     0
176
     1
290
     0
176
     1
290
     0
176
     1
290
     0
176
     1
290
     0
176
     1
 90
       50
176
     1
 40
0.0
176
     1
 40
1.0
176
     1
 90
        0
176
     1
 62
    18
420
        0
176
     1
 90
       50
176
     1
 90
        3
176
     1
 62
     5
420
      255
176
     1
290
     0
176
     1
 90
       50
176
     1
 90
       50
176
     1
 90
       50
176
     1
290
     0
176
     1
 90
       50
176
     1
 62
   256
176
     0
 40
1.0
176
     0
 90
        2
176
     1
  1
strokes_ogs.tif
176
     1
290
     0
176
     1
 40
1.0
176
     1
 40
1.0
176
     1
  0
VISUALSTYLE
  5
61F
102
{ACAD_REACTORS
330
61C
102
}
330
61C
100
AcDbVisualStyle
  2
Gouraud
 70
     2
177
     3
291
     1
 70
    58
 90
        2
176
     1
 90
        2
176
     1
 90
        1
176
     1
 90
        2
176
     1
 40
0.6
176
     1
 40
30.0
176
     1
 62
     7
420
 16777215
176
     1
 90
        0
176
     1
 90
        0
176
     1
 62
     7
176
     1
 62
   257
176
     1
 90
        1
176
     1
 90
        1
176
     1
 40
1.0
176
     1
 90
        0
176
     1
 62
     7
176
     1
 40
1.0
176
     1
 90
        1
176
     1
 90
        6
176
     1
 90
        2
176
     1
 62
     7
176
     1
 90
        5
176
     1
 90
        0
176
     1
 90
        0
176
     1
290
     0
176
     1
 90
       13
176
     1
 40
0.0
176
     1
 90
        0
176
     1
290
     0
176
     1
290
     1
176
     1
290
     1
176
     1
290
     0
176
     1
290
     0
176
     1
290
     0
176
     1
290
     0
176
     1
290
     0
176
     1
290
     0
176
     1
 90
       50
176
     1
 40
0.0
176
     1
 40
1.0
176
     1
 90
        0
176
     1
 62
    18
420
        0
176
     1
 90
       50
176
     1
 90
        3
176
     1
 62
     5
420
      255
176
     1
290
     0
176
     1
 90
       50
176
     1
 90
       50
176
     1
 90
       50
176
     1
290
     0
176
     1
 90
       50
176
     1
 62
   256
176
     0
 40
1.0
176
     0
 90
        2
176
     1
  1
strokes_ogs.tif
176
     1
290
     0
176
     1
 40
1.0
176
     1
 40
1.0
176
     1
  0
VISUALSTYLE
  5
620
102
{ACAD_REACTORS
330
61C
102
}
330
61C
100
AcDbVisualStyle
  2
GouraudWithEdges
 70
     3
177
     3
291
     1
 70
    58
 90
        2
176
     1
 90
        2
176
     1
 90
        1
176
     1
 90
        2
176
     1
 40
0.6
176
     1
 40
30.0
176
     1
 62
     7
420
 16777215
176
     1
 90
        1
176
     1
 90
        0
176
     1
 62
     7
176
     1
 62
   257
176
     1
 90
        1
176
     1
 90
        1
176
     1
 40
1.0
176
     1
 90
        0
176
     1
 62
   257
176
     1
 40
1.0
176
     1
 90
        1
176
     1
 90
        6
176
     1
 90
        2
176
     1
 62
     7
176
     1
 90
        5
176
     1
 90
        0
176
     1
 90
        0
176
     1
290
     0
176
     1
 90
       13
176
     1
 40
0.0
176
     1
 90
        0
176
     1
290
     0
176
     1
290
     1
176
     1
290
     1
176
     1
290
     0
176
     1
290
     0
176
     1
290
     0
176
     1
290
     0
176
     1
290
     0
176
     1
290
     0
176
     1
 90
       50
176
     1
 40
0.0
176
     1
 40
1.0
176
     1
 90
        0
176
     1
 62
    18
420
        0
176
     1
 90
       50
176
     1
 90
        3
176
     1
 62
     5
420
      255
176
     1
290
     0
176
     1
 90
       50
176
     1
 90
       50
176
     1
 90
       50
176
     1
290
     0
176
     1
 90
       50
176
     1
 62
   256
176
     0
 40
1.0
176
     0
 90
        2
176
     1
  1
strokes_ogs.tif
176
     1
290
     0
176
     1
 40
1.0
176
     1
 40
1.0
176
     1
  0
VISUALSTYLE
  5
623
102
{ACAD_REACTORS
330
61C
102
}
330
61C
100
AcDbVisualStyle
  2
Hidden
 70
     6
177
     3
291
     0
 70
    58
 90
        1
176
     1
 90
        2
176
     1
 90
        2
176
     1
 90
        0
176
     1
 40
0.6
176
     1
 40
30.0
176
     1
 62
     7
420
 16777215
176
     1
 90
        2
176
     1
 90
        2
176
     1
 62
     7
176
     1
 62
   257
176
     1
 90
        2
176
     1
 90
        1
176
     1
 40
40.0
176
     1
 90
        0
176
     1
 62
   257
176
     1
 40
1.0
176
     1
 90
        1
176
     1
 90
        6
176
     1
 90
        2
176
     1
 62
     7
176
     1
 90
        3
176
     1
 90
        0
176
     1
 90
        0
176
     1
290
     0
176
     1
 90
        1
176
     1
 40
0.0
176
     1
 90
        0
176
     1
290
     0
176
     1
290
     1
176
     1
290
     1
176
     1
290
     0
176
     1
290
     0
176
     1
290
     0
176
     1
290
     0
176
     1
290
     0
176
     1
290
     0
176
     1
 90
       50
176
     1
 40
0.0
176
     1
 40
1.0
176
     1
 90
        0
176
     1
 62
    18
420
        0
176
     1
 90
       50
176
     1
 90
        3
176
     1
 62
     5
420
      255
176
     1
290
     0
176
     1
 90
       50
176
     1
 90
       50
176
     1
 90
       50
176
     1
290
     0
176
     1
 90
       50
176
     1
 62
   256
176
     0
 40
1.0
176
     0
 90
        2
176
     1
  1
strokes_ogs.tif
176
     1
290
     0
176
     1
 40
1.0
176
     1
 40
1.0
176
     1
  0
VISUALSTYLE
  5
62D
102
{ACAD_REACTORS
330
61C
102
}
330
61C
100
AcDbVisualStyle
  2
JitterOff
 70
    20
177
     3
291
     1
 70
    58
 90
        2
176
     0
 90
        2
176
     0
 90
        0
176
     0
 90
        0
176
     0
 40
0.6
176
     0
 40
30.0
176
     0
 62
     7
420
 16777215
176
     0
 90
        1
176
     0
 90
        4
176
     0
 62
     7
176
     0
 62
   257
176
     0
 90
        1
176
     0
 90
        1
176
     0
 40
1.0
176
     0
 90
       10
176
     2
 62
     7
176
     0
 40
1.0
176
     0
 90
        1
176
     0
 90
        6
176
     0
 90
        2
176
     0
 62
     7
176
     0
 90
        5
176
     0
 90
        0
176
     0
 90
        0
176
     0
290
     0
176
     0
 90
        1
176
     0
 40
0.0
176
     0
 90
        0
176
     0
290
     0
176
     0
290
     1
176
     0
290
     1
176
     0
290
     0
176
     0
290
     0
176
     0
290
     0
176
     0
290
     0
176
     0
290
     0
176
     0
290
     0
176
     0
 90
       50
176
     0
 40
0.0
176
     0
 40
1.0
176
     0
 90
        0
176
     0
 62
    18
420
        0
176
     0
 90
       50
176
     0
 90
        3
176
     0
 62
     5
420
      255
176
     0
290
     0
176
     0
 90
       50
176
     0
 90
       50
176
     0
 90
       50
176
     0
290
     0
176
     0
 90
       50
176
     0
 62
   256
176
     0
 40
1.0
176
     0
 90
        2
176
     0
  1
strokes_ogs.tif
176
     0
290
     0
176
     0
 40
1.0
176
     0
 40
1.0
176
     0
  0
VISUALSTYLE
  5
62A
102
{ACAD_REACTORS
330
61C
102
}
330
61C
100
AcDbVisualStyle
  2
Linepattern
 70
    14
177
     3
291
     1
 70
    58
 90
        2
176
     1
 90
        2
176
     1
 90
        0
176
     1
 90
        0
176
     1
 40
0.6
176
     1
 40
30.0
176
     1
 62
     7
420
 16777215
176
     1
 90
        1
176
     1
 90
        4
176
     1
 62
     7
176
     1
 62
   257
176
     1
 90
        7
176
     1
 90
        7
176
     1
 40
1.0
176
     1
 90
        8
176
     1
 62
     7
176
     1
 40
1.0
176
     1
 90
        1
176
     1
 90
        6
176
     1
 90
        2
176
     1
 62
     7
176
     1
 90
        5
176
     1
 90
        0
176
     1
 90
        0
176
     1
290
     0
176
     1
 90
        1
176
     1
 40
0.0
176
     1
 90
        0
176
     1
290
     0
176
     1
290
     1
176
     1
290
     1
176
     1
290
     0
176
     1
290
     0
176
     1
290
     0
176
     1
290
     0
176
     1
290
     0
176
     1
290
     0
176
     1
 90
       50
176
     1
 40
0.0
176
     1
 40
1.0
176
     1
 90
        0
176
     1
 62
    18
420
        0
176
     1
 90
       50
176
     1
 90
        3
176
     1
 62
     5
420
      255
176
     1
290
     0
176
     1
 90
       50
176
     1
 90
       50
176
     1
 90
       50
176
     1
290
     0
176
     1
 90
       50
176
     1
 62
   256
176
     0
 40
1.0
176
     0
 90
        2
176
     1
  1
strokes_ogs.tif
176
     1
290
     0
176
     1
 40
1.0
176
     1
 40
1.0
176
     1
  0
VISUALSTYLE
  5
62E
102
{ACAD_REACTORS
330
61C
102
}
330
61C
100
AcDbVisualStyle
  2
OverhangOff
 70
    21
177
     3
291
     1
 70
    58
 90
        2
176
     0
 90
        2
176
     0
 90
        0
176
     0
 90
        0
176
     0
 40
0.6
176
     0
 40
30.0
176
     0
 62
     7
420
 16777215
176
     0
 90
        1
176
     0
 90
        4
176
     0
 62
     7
176
     0
 62
   257
176
     0
 90
        1
176
     0
 90
        1
176
     0
 40
1.0
176
     0
 90
        9
176
     2
 62
     7
176
     0
 40
1.0
176
     0
 90
        1
176
     0
 90
        6
176
     0
 90
        2
176
     0
 62
     7
176
     0
 90
        5
176
     0
 90
        0
176
     0
 90
        0
176
     0
290
     0
176
     0
 90
        1
176
     0
 40
0.0
176
     0
 90
        0
176
     0
290
     0
176
     0
290
     1
176
     0
290
     1
176
     0
290
     0
176
     0
290
     0
176
     0
290
     0
176
     0
290
     0
176
     0
290
     0
176
     0
290
     0
176
     0
 90
       50
176
     0
 40
0.0
176
     0
 40
1.0
176
     0
 90
        0
176
     0
 62
    18
420
        0
176
     0
 90
       50
176
     0
 90
        3
176
     0
 62
     5
420
      255
176
     0
290
     0
176
     0
 90
       50
176
     0
 90
       50
176
     0
 90
       50
176
     0
290
     0
176
     0
 90
       50
176
     0
 62
   256
176
     0
 40
1.0
176
     0
 90
        2
176
     0
  1
strokes_ogs.tif
176
     0
290
     0
176
     0
 40
1.0
176
     0
 40
1.0
176
     0
  0
VISUALSTYLE
  5
625
102
{ACAD_REACTORS
330
61C
102
}
330
61C
100
AcDbVisualStyle
  2
Realistic
 70
     8
177
     3
291
     0
 70
    58
 90
        2
176
     1
 90
        3
176
     1
 90
        0
176
     1
 90
        2
176
     1
 40
0.6
176
     1
 40
30.0
176
     1
 62
     7
420
 16777215
176
     1
 90
        0
176
     1
 90
        0
176
     1
 62
     7
176
     1
 62
   257
176
     1
 90
        1
176
     1
 90
        1
176
     1
 40
1.0
176
     1
 90
        8
176
     1
 62
   257
176
     1
 40
1.0
176
     1
 90
        1
176
     1
 90
        6
176
     1
 90
        2
176
     1
 62
     7
176
     1
 90
        3
176
     1
 90
        0
176
     1
 90
        0
176
     1
290
     0
176
     1
 90
       13
176
     1
 40
0.0
176
     1
 90
        0
176
     1
290
     0
176
     1
290
     1
176
     1
290
     1
176
     1
290
     0
176
     1
290
     0
176
     1
290
     0
176
     1
290
     0
176
     1
290
     0
176
     1
290
     0
176
     1
 90
       50
176
     1
 40
0.0
176
     1
 40
1.0
176
     1
 90
        0
176
     1
 62
    18
420
        0
176
     1
 90
       50
176
     1
 90
        3
176
     1
 62
     5
420
      255
176
     1
290
     0
176
     1
 90
       50
176
     1
 90
       50
176
     1
 90
       50
176
     1
290
     0
176
     1
 90
       50
176
     1
 62
   256
176
     0
 40
1.0
176
     0
 90
        2
176
     1
  1
strokes_ogs.tif
176
     1
290
     0
176
     1
 40
1.0
176
     1
 40
1.0
176
     1
  0
VISUALSTYLE
  5
634
102
{ACAD_REACTORS
330
61C
102
}
330
61C
100
AcDbVisualStyle
  2
Shaded
 70
    27
177
     3
291
     0
 70
    58
 90
        2
176
     1
 90
        2
176
     1
 90
        1
176
     1
 90
        2
176
     1
 40
0.6
176
     1
 40
30.0
176
     1
 62
     7
420
 16777215
176
     1
 90
        0
176
     1
 90
        4
176
     1
 62
     7
176
     1
 62
   257
176
     1
 90
        1
176
     1
 90
        1
176
     1
 40
1.0
176
     1
 90
        8
176
     1
 62
   257
176
     1
 40
1.0
176
     1
 90
        1
176
     1
 90
        6
176
     1
 90
        2
176
     1
 62
     8
420
  7895160
176
     1
 90
        3
176
     1
 90
        0
176
     1
 90
        0
176
     1
290
     0
176
     1
 90
        5
176
     1
 40
0.0
176
     1
 90
        0
176
     1
290
     0
176
     1
290
     1
176
     1
290
     1
176
     1
290
     0
176
     1
290
     0
176
     1
290
     0
176
     1
290
     0
176
     1
290
     0
176
     1
290
     0
176
     1
 90
       50
176
     1
 40
0.0
176
     1
 40
1.0
176
     1
 90
        0
176
     1
 62
    18
420
        0
176
     1
 90
       50
176
     1
 90
        3
176
     1
 62
     5
420
      255
176
     1
290
     0
176
     1
 90
       50
176
     1
 90
       50
176
     1
 90
       50
176
     1
290
     0
176
     1
 90
       50
176
     1
 62
   256
176
     0
 40
1.0
176
     0
 90
        2
176
     1
  1
strokes_ogs.tif
176
     1
290
     0
176
     1
 40
1.0
176
     1
 40
1.0
176
     1
  0
VISUALSTYLE
  5
633
102
{ACAD_REACTORS
330
61C
102
}
330
61C
100
AcDbVisualStyle
  2
Shaded with edges
 70
    26
177
     3
291
     0
 70
    58
 90
        2
176
     1
 90
        2
176
     1
 90
        1
176
     1
 90
        2
176
     1
 40
0.6
176
     1
 40
30.0
176
     1
 62
     7
420
 16777215
176
     1
 90
        1
176
     1
 90
       10
176
     1
 62
     7
176
     1
 62
   257
176
     1
 90
        2
176
     1
 90
        1
176
     1
 40
1.0
176
     1
 90
        8
176
     1
 62
   257
176
     1
 40
1.0
176
     1
 90
        1
176
     1
 90
        6
176
     1
 90
        2
176
     1
 62
     7
176
     1
 90
        3
176
     1
 90
        0
176
     1
 90
        0
176
     1
290
     0
176
     1
 90
        5
176
     1
 40
0.0
176
     1
 90
        0
176
     1
290
     0
176
     1
290
     1
176
     1
290
     1
176
     1
290
     0
176
     1
290
     0
176
     1
290
     0
176
     1
290
     0
176
     1
290
     0
176
     1
290
     0
176
     1
 90
       50
176
     1
 40
0.0
176
     1
 40
1.0
176
     1
 90
        0
176
     1
 62
    18
420
        0
176
     1
 90
       50
176
     1
 90
        3
176
     1
 62
     5
420
      255
176
     1
290
     0
176
     1
 90
       50
176
     1
 90
       50
176
     1
 90
       50
176
     1
290
     0
176
     1
 90
       50
176
     1
 62
   256
176
     0
 40
1.0
176
     0
 90
        2
176
     1
  1
strokes_ogs.tif
176
     1
290
     0
176
     1
 40
1.0
176
     1
 40
1.0
176
     1
  0
VISUALSTYLE
  5
630
102
{ACAD_REACTORS
330
61C
102
}
330
61C
100
AcDbVisualStyle
  2
Shades of Gray
 70
    23
177
     3
291
     0
 70
    58
 90
        2
176
     1
 90
        2
176
     1
 90
        3
176
     1
 90
        0
176
     1
 40
0.6
176
     1
 40
30.0
176
     1
 62
     7
420
 16777215
176
     1
 90
        2
176
     1
 90
        2
176
     1
 62
     7
176
     1
 62
     7
176
     1
 90
        1
176
     1
 90
        1
176
     1
 40
40.0
176
     1
 90
        8
176
     1
 62
     7
176
     1
 40
1.0
176
     1
 90
        1
176
     1
 90
        6
176
     1
 90
        2
176
     1
 62
     7
176
     1
 90
        3
176
     1
 90
        0
176
     1
 90
        0
176
     1
290
     0
176
     1
 90
        1
176
     1
 40
0.0
176
     1
 90
        0
176
     1
290
     0
176
     1
290
     1
176
     1
290
     1
176
     1
290
     0
176
     1
290
     0
176
     1
290
     0
176
     1
290
     0
176
     1
290
     0
176
     1
290
     0
176
     1
 90
       50
176
     1
 40
0.0
176
     1
 40
1.0
176
     1
 90
        0
176
     1
 62
    18
420
        0
176
     1
 90
       50
176
     1
 90
        3
176
     1
 62
     5
420
      255
176
     1
290
     0
176
     1
 90
       50
176
     1
 90
       50
176
     1
 90
       50
176
     1
290
     0
176
     1
 90
       50
176
     1
 62
   256
176
     0
 40
1.0
176
     0
 90
        2
176
     1
  1
strokes_ogs.tif
176
     1
290
     0
176
     1
 40
1.0
176
     1
 40
1.0
176
     1
  0
VISUALSTYLE
  5
631
102
{ACAD_REACTORS
330
61C
102
}
330
61C
100
AcDbVisualStyle
  2
Sketchy
 70
    24
177
     3
291
     0
 70
    58
 90
        1
176
     1
 90
        2
176
     1
 90
        2
176
     1
 90
        0
176
     1
 40
0.6
176
     1
 40
30.0
176
     1
 62
     7
420
 16777215
176
     1
 90
        2
176
     1
 90
        2
176
     1
 62
     7
176
     1
 62
     7
176
     1
 90
        1
176
     1
 90
        1
176
     1
 40
40.0
176
     1
 90
       11
176
     1
 62
     7
176
     1
 40
1.0
176
     1
 90
        1
176
     1
 90
        6
176
     1
 90
        2
176
     1
 62
     7
176
     1
 90
        6
176
     1
 90
        0
176
     1
 90
        0
176
     1
290
     0
176
     1
 90
        1
176
     1
 40
0.0
176
     1
 90
        0
176
     1
290
     0
176
     1
290
     1
176
     1
290
     1
176
     1
290
     0
176
     1
290
     0
176
     1
290
     0
176
     1
290
     0
176
     1
290
     0
176
     1
290
     0
176
     1
 90
       50
176
     1
 40
0.0
176
     1
 40
1.0
176
     1
 90
        0
176
     1
 62
    18
420
        0
176
     1
 90
       50
176
     1
 90
        3
176
     1
 62
     5
420
      255
176
     1
290
     0
176
     1
 90
       50
176
     1
 90
       50
176
     1
 90
       50
176
     1
290
     0
176
     1
 90
       50
176
     1
 62
   256
176
     0
 40
1.0
176
     0
 90
        2
176
     1
  1
strokes_ogs.tif
176
     1
290
     0
176
     1
 40
1.0
176
     1
 40
1.0
176
     1
  0
VISUALSTYLE
  5
629
102
{ACAD_REACTORS
330
61C
102
}
330
61C
100
AcDbVisualStyle
  2
Thicken
 70
    13
177
     3
291
     1
 70
    58
 90
        2
176
     1
 90
        2
176
     1
 90
        0
176
     1
 90
        0
176
     1
 40
0.6
176
     1
 40
30.0
176
     1
 62
     7
420
 16777215
176
     1
 90
        1
176
     1
 90
        4
176
     1
 62
     7
176
     1
 62
   257
176
     1
 90
        1
176
     1
 90
        1
176
     1
 40
1.0
176
     1
 90
       12
176
     1
 62
     7
176
     1
 40
1.0
176
     1
 90
        1
176
     1
 90
        6
176
     1
 90
        2
176
     1
 62
     7
176
     1
 90
        5
176
     1
 90
        0
176
     1
 90
        0
176
     1
290
     0
176
     1
 90
        1
176
     1
 40
0.0
176
     1
 90
        0
176
     1
290
     0
176
     1
290
     1
176
     1
290
     1
176
     1
290
     0
176
     1
290
     0
176
     1
290
     0
176
     1
290
     0
176
     1
290
     0
176
     1
290
     0
176
     1
 90
       50
176
     1
 40
0.0
176
     1
 40
1.0
176
     1
 90
        0
176
     1
 62
    18
420
        0
176
     1
 90
       50
176
     1
 90
        3
176
     1
 62
     5
420
      255
176
     1
290
     0
176
     1
 90
       50
176
     1
 90
       50
176
     1
 90
       50
176
     1
290
     0
176
     1
 90
       50
176
     1
 62
   256
176
     0
 40
1.0
176
     0
 90
        2
176
     1
  1
strokes_ogs.tif
176
     1
290
     0
176
     1
 40
1.0
176
     1
 40
1.0
176
     1
  0
VISUALSTYLE
  5
622
102
{ACAD_REACTORS
330
61C
102
}
330
61C
100
AcDbVisualStyle
  2
Wireframe
 70
     5
177
     3
291
     0
 70
    58
 90
        0
176
     1
 90
        2
176
     1
 90
        0
176
     1
 90
        0
176
     1
 40
0.6
176
     1
 40
30.0
176
     1
 62
     7
420
 16777215
176
     1
 90
        1
176
     1
 90
        4
176
     1
 62
     7
176
     1
 62
   257
176
     1
 90
        1
176
     1
 90
        1
176
     1
 40
1.0
176
     1
 90
        0
176
     1
 62
   257
176
     1
 40
1.0
176
     1
 90
        1
176
     1
 90
        6
176
     1
 90
        2
176
     1
 62
     7
176
     1
 90
        3
176
     1
 90
        0
176
     1
 90
        0
176
     1
290
     0
176
     1
 90
        1
176
     1
 40
0.0
176
     1
 90
        0
176
     1
290
     0
176
     1
290
     1
176
     1
290
     1
176
     1
290
     0
176
     1
290
     0
176
     1
290
     0
176
     1
290
     0
176
     1
290
     0
176
     1
290
     0
176
     1
 90
       50
176
     1
 40
0.0
176
     1
 40
1.0
176
     1
 90
        0
176
     1
 62
    18
420
        0
176
     1
 90
       50
176
     1
 90
        3
176
     1
 62
     5
420
      255
176
     1
290
     0
176
     1
 90
       50
176
     1
 90
       50
176
     1
 90
       50
176
     1
290
     0
176
     1
 90
       50
176
     1
 62
   256
176
     0
 40
1.0
176
     0
 90
        2
176
     1
  1
strokes_ogs.tif
176
     1
290
     0
176
     1
 40
1.0
176
     1
 40
1.0
176
     1
  0
VISUALSTYLE
  5
632
102
{ACAD_REACTORS
330
61C
102
}
330
61C
100
AcDbVisualStyle
  2
X-Ray
 70
    25
177
     3
291
     0
 70
    58
 90
        2
176
     1
 90
        2
176
     1
 90
        1
176
     1
 90
        1
176
     1
 40
0.5
176
     1
 40
30.0
176
     1
 62
     7
420
 16777215
176
     1
 90
        1
176
     1
 90
        0
176
     1
 62
     7
176
     1
 62
   257
176
     1
 90
        1
176
     1
 90
        1
176
     1
 40
1.0
176
     1
 90
        8
176
     1
 62
     7
176
     1
 40
1.0
176
     1
 90
        1
176
     1
 90
        6
176
     1
 90
        2
176
     1
 62
     7
176
     1
 90
        3
176
     1
 90
        0
176
     1
 90
        0
176
     1
290
     0
176
     1
 90
       13
176
     1
 40
0.0
176
     1
 90
        0
176
     1
290
     0
176
     1
290
     1
176
     1
290
     1
176
     1
290
     0
176
     1
290
     0
176
     1
290
     0
176
     1
290
     0
176
     1
290
     0
176
     1
290
     0
176
     1
 90
       50
176
     1
 40
0.0
176
     1
 40
1.0
176
     1
 90
        0
176
     1
 62
    18
420
        0
176
     1
 90
       50
176
     1
 90
        3
176
     1
 62
     5
420
      255
176
     1
290
     0
176
     1
 90
       50
176
     1
 90
       50
176
     1
 90
       50
176
     1
290
     0
176
     1
 90
       50
176
     1
 62
   256
176
     0
 40
1.0
176
     0
 90
        2
176
     1
  1
strokes_ogs.tif
176
     1
290
     0
176
     1
 40
1.0
176
     1
 40
1.0
176
     1
  0
DICTIONARYVAR
  5
63F
102
{ACAD_REACTORS
330
63E
102
}
330
63E
100
DictionaryVariables
280
     0
  1
1:1
  0
DICTIONARYVAR
  5
644
102
{ACAD_REACTORS
330
63E
102
}
330
63E
100
DictionaryVariables
280
     0
  1
Standard
  0
DICTIONARYVAR
  5
643
102
{ACAD_REACTORS
330
63E
102
}
330
63E
100
DictionaryVariables
280
     0
  1
Standard
  0
DICTIONARYVAR
  5
645
102
{ACAD_REACTORS
330
63E
102
}
330
63E
100
DictionaryVariables
280
     0
  1
0
  0
DICTIONARY
  5
640
330
63A
100
AcDbDictionary
280
     1
281
     1
  3
ACAD_ROUNDTRIP_2008_TABLESTYLE_CELLSTYLEMAP
360
641
  0
CELLSTYLEMAP
  5
641
102
{ACAD_REACTORS
330
640
102
}
330
640
100
AcDbCellStyleMap
 90
        3
300
CELLSTYLE
  1
TABLEFORMAT_BEGIN
 90
        5
170
     1
 91
        0
 92
    32768
 62
   257
 93
        1
300
CONTENTFORMAT
  1
CONTENTFORMAT_BEGIN
 90
        0
 91
        0
 92
        4
 93
        0
300

 40
0.0
140
1.0
 94
        5
 62
     0
340
11
144
6.0
309
CONTENTFORMAT_END
171
     1
301
MARGIN
  1
CELLMARGIN_BEGIN
 40
1.5
 40
1.5
 40
1.5
 40
1.5
 40
1.5
 40
1.5
309
CELLMARGIN_END
 94
        6
 95
        1
302
GRIDFORMAT
  1
GRIDFORMAT_BEGIN
 90
        0
 91
        1
 62
     0
 92
       -2
340
14
 93
        0
 40
0.045
309
GRIDFORMAT_END
 95
        2
302
GRIDFORMAT
  1
GRIDFORMAT_BEGIN
 90
        0
 91
        1
 62
     0
 92
       -2
340
14
 93
        0
 40
0.045
309
GRIDFORMAT_END
 95
        4
302
GRIDFORMAT
  1
GRIDFORMAT_BEGIN
 90
        0
 91
        1
 62
     0
 92
       -2
340
14
 93
        0
 40
0.045
309
GRIDFORMAT_END
 95
        8
302
GRIDFORMAT
  1
GRIDFORMAT_BEGIN
 90
        0
 91
        1
 62
     0
 92
       -2
340
14
 93
        0
 40
0.045
309
GRIDFORMAT_END
 95
       16
302
GRIDFORMAT
  1
GRIDFORMAT_BEGIN
 90
        0
 91
        1
 62
     0
 92
       -2
340
14
 93
        0
 40
0.045
309
GRIDFORMAT_END
 95
       32
302
GRIDFORMAT
  1
GRIDFORMAT_BEGIN
 90
        0
 91
        1
 62
     0
 92
       -2
340
14
 93
        0
 40
0.045
309
GRIDFORMAT_END
309
TABLEFORMAT_END
  1
CELLSTYLE_BEGIN
 90
        1
 91
        1
300
_TITLE
309
CELLSTYLE_END
300
CELLSTYLE
  1
TABLEFORMAT_BEGIN
 90
        5
170
     1
 91
        0
 92
        0
 62
   257
 93
        1
300
CONTENTFORMAT
  1
CONTENTFORMAT_BEGIN
 90
        0
 91
        0
 92
        4
 93
        0
300

 40
0.0
140
1.0
 94
        5
 62
     0
340
11
144
4.5
309
CONTENTFORMAT_END
171
     1
301
MARGIN
  1
CELLMARGIN_BEGIN
 40
1.5
 40
1.5
 40
1.5
 40
1.5
 40
1.5
 40
1.5
309
CELLMARGIN_END
 94
        6
 95
        1
302
GRIDFORMAT
  1
GRIDFORMAT_BEGIN
 90
        0
 91
        1
 62
     0
 92
       -2
340
14
 93
        0
 40
0.045
309
GRIDFORMAT_END
 95
        2
302
GRIDFORMAT
  1
GRIDFORMAT_BEGIN
 90
        0
 91
        1
 62
     0
 92
       -2
340
14
 93
        0
 40
0.045
309
GRIDFORMAT_END
 95
        4
302
GRIDFORMAT
  1
GRIDFORMAT_BEGIN
 90
        0
 91
        1
 62
     0
 92
       -2
340
14
 93
        0
 40
0.045
309
GRIDFORMAT_END
 95
        8
302
GRIDFORMAT
  1
GRIDFORMAT_BEGIN
 90
        0
 91
        1
 62
     0
 92
       -2
340
14
 93
        0
 40
0.045
309
GRIDFORMAT_END
 95
       16
302
GRIDFORMAT
  1
GRIDFORMAT_BEGIN
 90
        0
 91
        1
 62
     0
 92
       -2
340
14
 93
        0
 40
0.045
309
GRIDFORMAT_END
 95
       32
302
GRIDFORMAT
  1
GRIDFORMAT_BEGIN
 90
        0
 91
        1
 62
     0
 92
       -2
340
14
 93
        0
 40
0.045
309
GRIDFORMAT_END
309
TABLEFORMAT_END
  1
CELLSTYLE_BEGIN
 90
        2
 91
        1
300
_HEADER
309
CELLSTYLE_END
300
CELLSTYLE
  1
TABLEFORMAT_BEGIN
 90
        5
170
     1
 91
        0
 92
        0
 62
   257
 93
        1
300
CONTENTFORMAT
  1
CONTENTFORMAT_BEGIN
 90
        0
 91
        0
 92
        4
 93
        0
300

 40
0.0
140
1.0
 94
        2
 62
     0
340
11
144
4.5
309
CONTENTFORMAT_END
171
     1
301
MARGIN
  1
CELLMARGIN_BEGIN
 40
1.5
 40
1.5
 40
1.5
 40
1.5
 40
1.5
 40
1.5
309
CELLMARGIN_END
 94
        6
 95
        1
302
GRIDFORMAT
  1
GRIDFORMAT_BEGIN
 90
        0
 91
        1
 62
     0
 92
       -2
340
14
 93
        0
 40
0.045
309
GRIDFORMAT_END
 95
        2
302
GRIDFORMAT
  1
GRIDFORMAT_BEGIN
 90
        0
 91
        1
 62
     0
 92
       -2
340
14
 93
        0
 40
0.045
309
GRIDFORMAT_END
 95
        4
302
GRIDFORMAT
  1
GRIDFORMAT_BEGIN
 90
        0
 91
        1
 62
     0
 92
       -2
340
14
 93
        0
 40
0.045
309
GRIDFORMAT_END
 95
        8
302
GRIDFORMAT
  1
GRIDFORMAT_BEGIN
 90
        0
 91
        1
 62
     0
 92
       -2
340
14
 93
        0
 40
0.045
309
GRIDFORMAT_END
 95
       16
302
GRIDFORMAT
  1
GRIDFORMAT_BEGIN
 90
        0
 91
        1
 62
     0
 92
       -2
340
14
 93
        0
 40
0.045
309
GRIDFORMAT_END
 95
       32
302
GRIDFORMAT
  1
GRIDFORMAT_BEGIN
 90
        0
 91
        1
 62
     0
 92
       -2
340
14
 93
        0
 40
0.045
309
GRIDFORMAT_END
309
TABLEFORMAT_END
  1
CELLSTYLE_BEGIN
 90
        3
 91
        2
300
_DATA
309
CELLSTYLE_END
  0
ENDSEC
  0
EOF
