  0
SECTION
  2
HEADER
  9
$ACADVER
  1
AC1027
  9
$ACADMAINTVER
 70
   105
  9
$DWGCODEPAGE
  3
ANSI_1252
  9
$REQUIREDVERSIONS
160
                 0
  9
$LASTSAVEDBY
  1
andrea.zolin
  9
$INSBASE
 10
0.0
 20
0.0
 30
0.0
  9
$EXTMIN
 10
0.0
 20
0.0
 30
0.0
  9
$EXTMAX
 10
841.0
 20
594.0
 30
0.0
  9
$LIMMIN
 10
0.0
 20
0.0
  9
$LIMMAX
 10
841.0
 20
594.0
  9
$ORTHOMODE
 70
     0
  9
$REGENMODE
 70
     1
  9
$FILLMODE
 70
     1
  9
$QTEXTMODE
 70
     0
  9
$MIRRTEXT
 70
     1
  9
$LTSCALE
 40
46.255
  9
$ATTMODE
 70
     1
  9
$TEXTSIZE
 40
0.2
  9
$TRACEWID
 40
0.05
  9
$TEXTSTYLE
  7
STANDARD
  9
$CLAYER
  8
0
  9
$CELTYPE
  6
BYLAYER
  9
$CECOLOR
 62
   256
  9
$CELTSCALE
 40
1.0
  9
$DISPSILH
 70
     0
  9
$DIMSCALE
 40
1.0
  9
$DIMASZ
 40
2.5
  9
$DIMEXO
 40
0.75
  9
$DIMDLI
 40
31.958
  9
$DIMRND
 40
0.0
  9
$DIMDLE
 40
0.0
  9
$DIMEXE
 40
0.75
  9
$DIMTP
 40
0.01
  9
$DIMTM
 40
0.01
  9
$DIMTXT
 40
3.0
  9
$DIMCEN
 40
7.569
  9
$DIMTSZ
 40
0.0
  9
$DIMTOL
 70
     1
  9
$DIMLIM
 70
     0
  9
$DIMTIH
 70
     1
  9
$DIMTOH
 70
     1
  9
$DIMSE1
 70
     0
  9
$DIMSE2
 70
     0
  9
$DIMTAD
 70
     0
  9
$DIMZIN
 70
     0
  9
$DIMBLK
  1
CLOSED
  9
$DIMASO
 70
     1
  9
$DIMSHO
 70
     1
  9
$DIMPOST
  1

  9
$DIMAPOST
  1

  9
$DIMALT
 70
     0
  9
$DIMALTD
 70
     2
  9
$DIMALTF
 40
25.4
  9
$DIMLFAC
 40
1.0
  9
$DIMTOFL
 70
     0
  9
$DIMTVP
 40
0.0
  9
$DIMTIX
 70
     0
  9
$DIMSOXD
 70
     0
  9
$DIMSAH
 70
     0
  9
$DIMBLK1
  1

  9
$DIMBLK2
  1

  9
$DIMSTYLE
  2
STANDARD
  9
$DIMCLRD
 70
     0
  9
$DIMCLRE
 70
     0
  9
$DIMCLRT
 70
     0
  9
$DIMTFAC
 40
1.0
  9
$DIMGAP
 40
0.625
  9
$DIMJUST
 70
     0
  9
$DIMSD1
 70
     0
  9
$DIMSD2
 70
     0
  9
$DIMTOLJ
 70
     1
  9
$DIMTZIN
 70
     0
  9
$DIMALTZ
 70
     0
  9
$DIMALTTZ
 70
     0
  9
$DIMUPT
 70
     0
  9
$DIMDEC
 70
     4
  9
$DIMTDEC
 70
     4
  9
$DIMALTU
 70
     2
  9
$DIMALTTD
 70
     2
  9
$DIMTXSTY
  7
STANDARD
  9
$DIMAUNIT
 70
     0
  9
$DIMADEC
 70
     0
  9
$DIMALTRND
 40
0.0
  9
$DIMAZIN
 70
     0
  9
$DIMDSEP
 70
    46
  9
$DIMATFIT
 70
     3
  9
$DIMFRAC
 70
     0
  9
$DIMLDRBLK
  1

  9
$DIMLUNIT
 70
     2
  9
$DIMLWD
 70
    -2
  9
$DIMLWE
 70
    -2
  9
$DIMTMOVE
 70
     2
  9
$DIMFXL
 40
1.0
  9
$DIMFXLON
 70
     0
  9
$DIMJOGANG
 40
0.7853981633974483
  9
$DIMTFILL
 70
     0
  9
$DIMTFILLCLR
 70
     0
  9
$DIMARCSYM
 70
     0
  9
$DIMLTYPE
  6

  9
$DIMLTEX1
  6

  9
$DIMLTEX2
  6

  9
$DIMTXTDIRECTION
 70
     0
  9
$LUNITS
 70
     2
  9
$LUPREC
 70
     4
  9
$SKETCHINC
 40
0.1
  9
$FILLETRAD
 40
0.5
  9
$AUNITS
 70
     0
  9
$AUPREC
 70
     0
  9
$MENU
  1
.
  9
$ELEVATION
 40
0.0
  9
$PELEVATION
 40
0.0
  9
$THICKNESS
 40
0.0
  9
$LIMCHECK
 70
     0
  9
$CHAMFERA
 40
0.0
  9
$CHAMFERB
 40
0.0
  9
$CHAMFERC
 40
0.0
  9
$CHAMFERD
 40
0.0
  9
$SKPOLY
 70
     0
  9
$TDCREATE
 40
2447893.041666667
  9
$TDUCREATE
 40
0.0
  9
$TDUPDATE
 40
2458466.746381065
  9
$TDUUPDATE
 40
2458466.704714398
  9
$TDINDWG
 40
0.0002312153
  9
$TDUSRTIMER
 40
0.0002312153
  9
$USRTIMER
 70
     1
  9
$ANGBASE
 50
0.0
  9
$ANGDIR
 70
     0
  9
$PDMODE
 70
     3
  9
$PDSIZE
 40
0.3125
  9
$PLINEWID
 40
0.0
  9
$SPLFRAME
 70
     0
  9
$SPLINETYPE
 70
     6
  9
$SPLINESEGS
 70
     8
  9
$HANDSEED
  5
4EA
  9
$SURFTAB1
 70
     6
  9
$SURFTAB2
 70
     6
  9
$SURFTYPE
 70
     6
  9
$SURFU
 70
     6
  9
$SURFV
 70
     6
  9
$UCSBASE
  2

  9
$UCSNAME
  2

  9
$UCSORG
 10
0.0
 20
0.0
 30
0.0
  9
$UCSXDIR
 10
1.0
 20
0.0
 30
0.0
  9
$UCSYDIR
 10
0.0
 20
1.0
 30
0.0
  9
$UCSORTHOREF
  2

  9
$UCSORTHOVIEW
 70
     0
  9
$UCSORGTOP
 10
0.0
 20
0.0
 30
0.0
  9
$UCSORGBOTTOM
 10
0.0
 20
0.0
 30
0.0
  9
$UCSORGLEFT
 10
0.0
 20
0.0
 30
0.0
  9
$UCSORGRIGHT
 10
0.0
 20
0.0
 30
0.0
  9
$UCSORGFRONT
 10
0.0
 20
0.0
 30
0.0
  9
$UCSORGBACK
 10
0.0
 20
0.0
 30
0.0
  9
$PUCSBASE
  2

  9
$PUCSNAME
  2

  9
$PUCSORG
 10
0.0
 20
0.0
 30
0.0
  9
$PUCSXDIR
 10
1.0
 20
0.0
 30
0.0
  9
$PUCSYDIR
 10
0.0
 20
1.0
 30
0.0
  9
$PUCSORTHOREF
  2

  9
$PUCSORTHOVIEW
 70
     0
  9
$PUCSORGTOP
 10
0.0
 20
0.0
 30
0.0
  9
$PUCSORGBOTTOM
 10
0.0
 20
0.0
 30
0.0
  9
$PUCSORGLEFT
 10
0.0
 20
0.0
 30
0.0
  9
$PUCSORGRIGHT
 10
0.0
 20
0.0
 30
0.0
  9
$PUCSORGFRONT
 10
0.0
 20
0.0
 30
0.0
  9
$PUCSORGBACK
 10
0.0
 20
0.0
 30
0.0
  9
$USERI1
 70
     0
  9
$USERI2
 70
     0
  9
$USERI3
 70
     0
  9
$USERI4
 70
     0
  9
$USERI5
 70
     0
  9
$USERR1
 40
0.0
  9
$USERR2
 40
0.0
  9
$USERR3
 40
0.0
  9
$USERR4
 40
0.0
  9
$USERR5
 40
0.0
  9
$WORLDVIEW
 70
     1
  9
$SHADEDGE
 70
     3
  9
$SHADEDIF
 70
    70
  9
$TILEMODE
 70
     0
  9
$MAXACTVP
 70
    64
  9
$PINSBASE
 10
0.0
 20
0.0
 30
0.0
  9
$PLIMCHECK
 70
     0
  9
$PEXTMIN
 10
0.0
 20
0.0
 30
0.0
  9
$PEXTMAX
 10
841.0
 20
594.0
 30
0.0
  9
$PLIMMIN
 10
-17.33463035019455
 20
-46.22568093385214
  9
$PLIMMAX
 10
953.4046692607004
 20
640.2256809338521
  9
$UNITMODE
 70
     0
  9
$VISRETAIN
 70
     1
  9
$PLINEGEN
 70
     0
  9
$PSLTSCALE
 70
     1
  9
$TREEDEPTH
 70
  3020
  9
$CMLSTYLE
  2
STANDARD
  9
$CMLJUST
 70
     0
  9
$CMLSCALE
 40
1.0
  9
$PROXYGRAPHICS
 70
     1
  9
$MEASUREMENT
 70
     1
  9
$CELWEIGHT
370
    -1
  9
$ENDCAPS
280
     0
  9
$JOINSTYLE
280
     0
  9
$LWDISPLAY
290
     0
  9
$INSUNITS
 70
     0
  9
$HYPERLINKBASE
  1

  9
$STYLESHEET
  1

  9
$XEDIT
290
     1
  9
$CEPSNTYPE
380
     0
  9
$PSTYLEMODE
290
     1
  9
$FINGERPRINTGUID
  2
{6311A029-7B2D-46D9-8687-A074DAC20BEC}
  9
$VERSIONGUID
  2
{FAEB1C32-E019-11D5-929B-00C0DF256EC4}
  9
$EXTNAMES
290
     1
  9
$PSVPSCALE
 40
0.0
  9
$OLESTARTUP
290
     0
  9
$SORTENTS
280
   127
  9
$INDEXCTL
280
     0
  9
$HIDETEXT
280
     1
  9
$XCLIPFRAME
280
     2
  9
$HALOGAP
280
     0
  9
$OBSCOLOR
 70
   257
  9
$OBSLTYPE
280
     0
  9
$INTERSECTIONDISPLAY
280
     0
  9
$INTERSECTIONCOLOR
 70
   257
  9
$DIMASSOC
280
     2
  9
$PROJECTNAME
  1

  9
$CAMERADISPLAY
290
     0
  9
$LENSLENGTH
 40
50.0
  9
$CAMERAHEIGHT
 40
0.0
  9
$STEPSPERSEC
 40
2.0
  9
$STEPSIZE
 40
6.0
  9
$3DDWFPREC
 40
2.0
  9
$PSOLWIDTH
 40
0.25
  9
$PSOLHEIGHT
 40
4.0
  9
$LOFTANG1
 40
1.570796326794897
  9
$LOFTANG2
 40
1.570796326794897
  9
$LOFTMAG1
 40
0.0
  9
$LOFTMAG2
 40
0.0
  9
$LOFTPARAM
 70
     7
  9
$LOFTNORMALS
280
     1
  9
$LATITUDE
 40
37.795
  9
$LONGITUDE
 40
-122.394
  9
$NORTHDIRECTION
 40
0.0
  9
$TIMEZONE
 70
 -8000
  9
$LIGHTGLYPHDISPLAY
280
     1
  9
$TILEMODELIGHTSYNCH
280
     1
  9
$SOLIDHIST
280
     0
  9
$SHOWHIST
280
     1
  9
$DWFFRAME
280
     2
  9
$DGNFRAME
280
     2
  9
$REALWORLDSCALE
290
     1
  9
$INTERFERECOLOR
 62
   256
  9
$CSHADOW
280
     0
  9
$SHADOWPLANELOCATION
 40
0.0
  0
ENDSEC
  0
SECTION
  2
CLASSES
  0
CLASS
  1
ACDBDICTIONARYWDFLT
  2
AcDbDictionaryWithDefault
  3
ObjectDBX Classes
 90
        0
 91
        4
280
     0
281
     0
  0
CLASS
  1
SCALE
  2
AcDbScale
  3
ObjectDBX Classes
 90
     1153
 91
        4
280
     0
281
     0
  0
CLASS
  1
VISUALSTYLE
  2
AcDbVisualStyle
  3
ObjectDBX Classes
 90
     4095
 91
        4
280
     0
281
     0
  0
CLASS
  1
MATERIAL
  2
AcDbMaterial
  3
ObjectDBX Classes
 90
     1153
 91
        4
280
     0
281
     0
  0
CLASS
  1
TABLESTYLE
  2
AcDbTableStyle
  3
ObjectDBX Classes
 90
     4095
 91
        4
280
     0
281
     0
  0
CLASS
  1
MLEADERSTYLE
  2
AcDbMLeaderStyle
  3
ACDB_MLEADERSTYLE_CLASS
 90
     4095
 91
        4
280
     0
281
     0
  0
CLASS
  1
DICTIONARYVAR
  2
AcDbDictionaryVar
  3
ObjectDBX Classes
 90
        0
 91
        4
280
     0
281
     0
  0
CLASS
  1
CELLSTYLEMAP
  2
AcDbCellStyleMap
  3
ObjectDBX Classes
 90
     1152
 91
        4
280
     0
281
     0
  0
ENDSEC
  0
SECTION
  2
TABLES
  0
TABLE
  2
VPORT
  5
8
330
0
100
AcDbSymbolTable
 70
     1
  0
VPORT
  5
1F4
330
8
100
AcDbSymbolTableRecord
100
AcDbViewportTableRecord
  2
*ACTIVE
 70
     0
 10
0.0
 20
0.0
 11
1.0
 21
1.0
 12
420.5
 22
297.0
 13
0.0
 23
0.0
 14
1.0
 24
1.0
 15
0.0
 25
0.0
 16
0.0
 26
0.0
 36
1.0
 17
0.0
 27
0.0
 37
0.0
 40
594.0
 41
1.4158249158
 42
50.0
 43
0.0
 44
0.0
 50
0.0
 51
0.0
 71
     0
 72
   100
 73
     1
 74
     1
 75
     0
 76
     0
 77
     0
 78
     0
281
     0
 65
     1
110
0.0
120
0.0
130
0.0
111
1.0
121
0.0
131
0.0
112
0.0
122
1.0
132
0.0
 79
     0
146
0.0
348
4C3
 60
     3
 61
     5
292
     1
282
     1
141
0.0
142
0.0
 63
   256
  0
ENDTAB
  0
TABLE
  2
LTYPE
  5
5
330
0
100
AcDbSymbolTable
 70
     6
  0
LTYPE
  5
14
330
5
100
AcDbSymbolTableRecord
100
AcDbLinetypeTableRecord
  2
BYBLOCK
 70
     0
  3

 72
    65
 73
     0
 40
0.0
  0
LTYPE
  5
15
330
5
100
AcDbSymbolTableRecord
100
AcDbLinetypeTableRecord
  2
BYLAYER
 70
     0
  3

 72
    65
 73
     0
 40
0.0
  0
LTYPE
  5
16
330
5
100
AcDbSymbolTableRecord
100
AcDbLinetypeTableRecord
  2
CONTINUOUS
 70
     0
  3
Solid line
 72
    65
 73
     0
 40
0.0
  0
LTYPE
  5
1F5
330
5
100
AcDbSymbolTableRecord
100
AcDbLinetypeTableRecord
  2
CENTER
 70
     0
  3
____ _ ____ _ ____ _ ____ _ ____ _ ____ _ ____
 72
    65
 73
     4
 40
0.6
 49
0.375
 74
     0
 49
-0.075
 74
     0
 49
0.075
 74
     0
 49
-0.075
 74
     0
  0
LTYPE
  5
1F6
330
5
100
AcDbSymbolTableRecord
100
AcDbLinetypeTableRecord
  2
HIDDEN
 70
     0
  3
- - - - - - - - - - - - - - - - - - - -
 72
    65
 73
     2
 40
0.2
 49
0.1
 74
     0
 49
-0.1
 74
     0
  0
LTYPE
  5
1F7
330
5
100
AcDbSymbolTableRecord
100
AcDbLinetypeTableRecord
  2
PHANTOM
 70
     0
  3
_____ _ _ _____ _ _ _____ _ _ _____
 72
    65
 73
     6
 40
0.8
 49
0.45
 74
     0
 49
-0.05
 74
     0
 49
0.1
 74
     0
 49
-0.05
 74
     0
 49
0.1
 74
     0
 49
-0.05
 74
     0
  0
LTYPE
  5
1F8
330
5
100
AcDbSymbolTableRecord
100
AcDbLinetypeTableRecord
  2
DOT
 70
     0
  3
. . . . . . . . . . . . . . . . . . . .
 72
    65
 73
     2
 40
0.2
 49
0.1
 74
     0
 49
-0.1
 74
     0
  0
LTYPE
  5
1F9
330
5
100
AcDbSymbolTableRecord
100
AcDbLinetypeTableRecord
  2
DASHED
 70
     0
  3
- - - - - - - - - - - - - - - - - - - -
 72
    65
 73
     2
 40
0.2
 49
0.1
 74
     0
 49
-0.1
 74
     0
  0
ENDTAB
  0
TABLE
  2
LAYER
  5
2
330
0
100
AcDbSymbolTable
 70
    34
  0
LAYER
  5
10
330
2
100
AcDbSymbolTableRecord
100
AcDbLayerTableRecord
  2
0
 70
     0
 62
     7
  6
CONTINUOUS
370
    -3
390
498
347
4DA
348
0
  0
LAYER
  5
1FA
330
2
100
AcDbSymbolTableRecord
100
AcDbLayerTableRecord
  2
DEFAULT_1
 70
     0
 62
     7
  6
CENTER
370
    -3
390
498
347
4DA
348
0
  0
LAYER
  5
1FB
330
2
100
AcDbSymbolTableRecord
100
AcDbLayerTableRecord
  2
DEFAULT_2
 70
     0
 62
     8
  6
HIDDEN
370
    -3
390
498
347
4DA
348
0
  0
LAYER
  5
1FC
330
2
100
AcDbSymbolTableRecord
100
AcDbLayerTableRecord
  2
DEFAULT_3
 70
     0
 62
     7
  6
PHANTOM
370
    -3
390
498
347
4DA
348
0
  0
LAYER
  5
1FD
330
2
100
AcDbSymbolTableRecord
100
AcDbLayerTableRecord
  2
01_ALL_DTM_PLN
 70
     0
 62
     7
  6
CONTINUOUS
370
    -3
390
498
347
4DA
348
0
  0
LAYER
  5
1FE
330
2
100
AcDbSymbolTableRecord
100
AcDbLayerTableRecord
  2
01__ASM_ALL_DTM_PLN
 70
     0
 62
     7
  6
CONTINUOUS
370
    -3
390
498
347
4DA
348
0
  0
LAYER
  5
1FF
330
2
100
AcDbSymbolTableRecord
100
AcDbLayerTableRecord
  2
01__ASM_DEF_DTM_PLN
 70
     0
 62
     7
  6
CONTINUOUS
370
    -3
390
498
347
4DA
348
0
  0
LAYER
  5
200
330
2
100
AcDbSymbolTableRecord
100
AcDbLayerTableRecord
  2
01___PRT_ALL_DTM_PLN
 70
     0
 62
     7
  6
CONTINUOUS
370
    -3
390
498
347
4DA
348
0
  0
LAYER
  5
201
330
2
100
AcDbSymbolTableRecord
100
AcDbLayerTableRecord
  2
01___PRT_DEF_DTM_PLN
 70
     0
 62
     7
  6
CONTINUOUS
370
    -3
390
498
347
4DA
348
0
  0
LAYER
  5
202
330
2
100
AcDbSymbolTableRecord
100
AcDbLayerTableRecord
  2
02_ALL_AXES
 70
     0
 62
     7
  6
CONTINUOUS
370
    -3
390
498
347
4DA
348
0
  0
LAYER
  5
203
330
2
100
AcDbSymbolTableRecord
100
AcDbLayerTableRecord
  2
02__ASM_ALL_AXES
 70
     0
 62
     7
  6
CONTINUOUS
370
    -3
390
498
347
4DA
348
0
  0
LAYER
  5
204
330
2
100
AcDbSymbolTableRecord
100
AcDbLayerTableRecord
  2
02___PRT_ALL_AXES
 70
     0
 62
     7
  6
CONTINUOUS
370
    -3
390
498
347
4DA
348
0
  0
LAYER
  5
205
330
2
100
AcDbSymbolTableRecord
100
AcDbLayerTableRecord
  2
03_ALL_CURVES
 70
     0
 62
     7
  6
CONTINUOUS
370
    -3
390
498
347
4DA
348
0
  0
LAYER
  5
206
330
2
100
AcDbSymbolTableRecord
100
AcDbLayerTableRecord
  2
03__ASM_ALL_CURVES
 70
     0
 62
     7
  6
CONTINUOUS
370
    -3
390
498
347
4DA
348
0
  0
LAYER
  5
207
330
2
100
AcDbSymbolTableRecord
100
AcDbLayerTableRecord
  2
03___PRT_ALL_CURVES
 70
     0
 62
     7
  6
CONTINUOUS
370
    -3
390
498
347
4DA
348
0
  0
LAYER
  5
208
330
2
100
AcDbSymbolTableRecord
100
AcDbLayerTableRecord
  2
04_ALL_DTM_PNT
 70
     0
 62
     7
  6
CONTINUOUS
370
    -3
390
498
347
4DA
348
0
  0
LAYER
  5
209
330
2
100
AcDbSymbolTableRecord
100
AcDbLayerTableRecord
  2
04__ASM_ALL_DTM_PNT
 70
     0
 62
     7
  6
CONTINUOUS
370
    -3
390
498
347
4DA
348
0
  0
LAYER
  5
20A
330
2
100
AcDbSymbolTableRecord
100
AcDbLayerTableRecord
  2
04___PRT_ALL_DTM_PNT
 70
     0
 62
     7
  6
CONTINUOUS
370
    -3
390
498
347
4DA
348
0
  0
LAYER
  5
20B
330
2
100
AcDbSymbolTableRecord
100
AcDbLayerTableRecord
  2
05_ALL_DTM_CSYS
 70
     0
 62
     7
  6
CONTINUOUS
370
    -3
390
498
347
4DA
348
0
  0
LAYER
  5
20C
330
2
100
AcDbSymbolTableRecord
100
AcDbLayerTableRecord
  2
05__ASM_ALL_DTM_CSYS
 70
     0
 62
     7
  6
CONTINUOUS
370
    -3
390
498
347
4DA
348
0
  0
LAYER
  5
20D
330
2
100
AcDbSymbolTableRecord
100
AcDbLayerTableRecord
  2
05__ASM_DEF_DTM_CSYS
 70
     0
 62
     7
  6
CONTINUOUS
370
    -3
390
498
347
4DA
348
0
  0
LAYER
  5
20E
330
2
100
AcDbSymbolTableRecord
100
AcDbLayerTableRecord
  2
05___PRT_ALL_DTM_CSYS
 70
     0
 62
     7
  6
CONTINUOUS
370
    -3
390
498
347
4DA
348
0
  0
LAYER
  5
20F
330
2
100
AcDbSymbolTableRecord
100
AcDbLayerTableRecord
  2
05___PRT_DEF_DTM_CSYS
 70
     0
 62
     7
  6
CONTINUOUS
370
    -3
390
498
347
4DA
348
0
  0
LAYER
  5
210
330
2
100
AcDbSymbolTableRecord
100
AcDbLayerTableRecord
  2
06_ALL_SURFS
 70
     0
 62
     7
  6
CONTINUOUS
370
    -3
390
498
347
4DA
348
0
  0
LAYER
  5
211
330
2
100
AcDbSymbolTableRecord
100
AcDbLayerTableRecord
  2
06__ASM_ALL_SURFS
 70
     0
 62
     7
  6
CONTINUOUS
370
    -3
390
498
347
4DA
348
0
  0
LAYER
  5
212
330
2
100
AcDbSymbolTableRecord
100
AcDbLayerTableRecord
  2
06___PRT_ALL_SURFS
 70
     0
 62
     7
  6
CONTINUOUS
370
    -3
390
498
347
4DA
348
0
  0
LAYER
  5
213
330
2
100
AcDbSymbolTableRecord
100
AcDbLayerTableRecord
  2
07__ASM_ALL_SKELETONS
 70
     0
 62
     7
  6
CONTINUOUS
370
    -3
390
498
347
4DA
348
0
  0
LAYER
  5
214
330
2
100
AcDbSymbolTableRecord
100
AcDbLayerTableRecord
  2
1_ALL_PLANES
 70
     0
 62
     7
  6
CONTINUOUS
370
    -3
390
498
347
4DA
348
0
  0
LAYER
  5
215
330
2
100
AcDbSymbolTableRecord
100
AcDbLayerTableRecord
  2
3_ALL_AXES
 70
     0
 62
     7
  6
CONTINUOUS
370
    -3
390
498
347
4DA
348
0
  0
LAYER
  5
216
330
2
100
AcDbSymbolTableRecord
100
AcDbLayerTableRecord
  2
5_ALL_CURVES
 70
     0
 62
     7
  6
CONTINUOUS
370
    -3
390
498
347
4DA
348
0
  0
LAYER
  5
217
330
2
100
AcDbSymbolTableRecord
100
AcDbLayerTableRecord
  2
6_ALL_SURFS
 70
     0
 62
     7
  6
CONTINUOUS
370
    -3
390
498
347
4DA
348
0
  0
LAYER
  5
218
330
2
100
AcDbSymbolTableRecord
100
AcDbLayerTableRecord
  2
7_ALL_FEATURES
 70
     0
 62
     7
  6
CONTINUOUS
370
    -3
390
498
347
4DA
348
0
  0
LAYER
  5
219
330
2
100
AcDbSymbolTableRecord
100
AcDbLayerTableRecord
  2
9_SOLID
 70
     0
 62
     7
  6
CONTINUOUS
370
    -3
390
498
347
4DA
348
0
  0
LAYER
  5
21A
330
2
100
AcDbSymbolTableRecord
100
AcDbLayerTableRecord
  2
XXX_SOLIDO
 70
     0
 62
     7
  6
CONTINUOUS
370
    -3
390
498
347
4DA
348
0
  0
ENDTAB
  0
TABLE
  2
STYLE
  5
3
330
0
100
AcDbSymbolTable
 70
     7
  0
STYLE
  5
11
330
3
100
AcDbSymbolTableRecord
100
AcDbTextStyleTableRecord
  2
STANDARD
 70
     0
 40
0.0
 41
1.0
 50
0.0
 71
     0
 42
0.2
  3
arial.ttf
  4

  0
STYLE
  5
21B
330
3
100
AcDbSymbolTableRecord
100
AcDbTextStyleTableRecord
  2
TEXTSTYLE_1
 70
     0
 40
0.0
 41
0.8
 50
0.0
 71
     0
 42
0.2
  3
gdt
  4

  0
STYLE
  5
21C
330
3
100
AcDbSymbolTableRecord
100
AcDbTextStyleTableRecord
  2
TEXTSTYLE_2
 70
     0
 40
0.0
 41
0.9
 50
0.0
 71
     0
 42
0.2
  3
txt
  4

  0
STYLE
  5
21D
330
3
100
AcDbSymbolTableRecord
100
AcDbTextStyleTableRecord
  2
TEXTSTYLE_3
 70
     0
 40
0.0
 41
0.9
 50
0.0
 71
     0
 42
0.2
  3
txt
  4

  0
STYLE
  5
21E
330
3
100
AcDbSymbolTableRecord
100
AcDbTextStyleTableRecord
  2
TEXTSTYLE_4
 70
     0
 40
0.0
 41
0.85
 50
0.0
 71
     0
 42
0.2
  3
gdt
  4

  0
STYLE
  5
21F
330
3
100
AcDbSymbolTableRecord
100
AcDbTextStyleTableRecord
  2
TEXTSTYLE_5
 70
     0
 40
0.0
 41
2.0
 50
0.0
 71
     0
 42
0.2
  3
txt
  4

  0
STYLE
  5
220
330
3
100
AcDbSymbolTableRecord
100
AcDbTextStyleTableRecord
  2
TEXTSTYLE_6
 70
     0
 40
0.0
 41
0.85
 50
0.0
 71
     0
 42
0.2
  3
txt
  4

  0
ENDTAB
  0
TABLE
  2
VIEW
  5
6
330
0
100
AcDbSymbolTable
 70
     0
  0
ENDTAB
  0
TABLE
  2
UCS
  5
7
330
0
100
AcDbSymbolTable
 70
     0
  0
ENDTAB
  0
TABLE
  2
APPID
  5
9
330
0
100
AcDbSymbolTable
 70
     1
  0
APPID
  5
221
330
9
100
AcDbSymbolTableRecord
100
AcDbRegAppTableRecord
  2
ACAD
 70
     0
  0
ENDTAB
  0
TABLE
  2
DIMSTYLE
  5
A
330
0
100
AcDbSymbolTable
 70
     3
100
AcDbDimStyleTable
  0
DIMSTYLE
105
229
330
A
100
AcDbSymbolTableRecord
100
AcDbDimStyleTableRecord
  2
STANDARD
 70
     0
 41
2.5
 42
0.75
 44
0.75
 47
0.01
 48
0.01
 71
     1
 73
     0
 74
     0
 77
     1
 78
     8
 79
     2
140
3.0
147
0.625
171
     1
178
     0
179
     2
271
     2
272
     2
284
     8
340
11
341
222
342
222
343
222
344
222
  0
DIMSTYLE
105
22A
330
A
100
AcDbSymbolTableRecord
100
AcDbDimStyleTableRecord
  2
DIMSTYLE_1
 70
     0
  3
<>
 41
2.5
 42
0.75
 44
0.75
 47
0.5
 48
0.5
 73
     0
 74
     0
 77
     1
 78
     8
 79
     2
140
3.0
147
0.625
171
     1
172
     1
178
     0
179
     2
271
     2
272
     2
284
     8
288
     1
340
11
341
222
342
222
343
222
344
222
  0
DIMSTYLE
105
22B
330
A
100
AcDbSymbolTableRecord
100
AcDbDimStyleTableRecord
  2
DIMSTYLE_2
 70
     0
 41
2.5
 42
0.75
 44
0.75
 47
0.5
 48
0.5
 73
     0
 74
     0
 77
     1
 78
     8
 79
     2
140
3.0
147
0.75
171
     1
178
     0
179
     2
271
     2
272
     2
284
     8
340
11
341
222
342
222
343
222
344
222
  0
ENDTAB
  0
TABLE
  2
BLOCK_RECORD
  5
1
330
0
100
AcDbSymbolTable
 70
     7
  0
BLOCK_RECORD
  5
1F
330
1
100
AcDbSymbolTableRecord
100
AcDbBlockTableRecord
  2
*MODEL_SPACE
340
4BC
 70
     0
280
     1
281
     0
  0
BLOCK_RECORD
  5
1B
330
1
100
AcDbSymbolTableRecord
100
AcDbBlockTableRecord
  2
*PAPER_SPACE
340
4BD
 70
     0
280
     1
281
     0
  0
BLOCK_RECORD
  5
222
330
1
100
AcDbSymbolTableRecord
100
AcDbBlockTableRecord
  2
_CLOSED
340
0
102
{BLKREFS
331
27B
331
283
331
284
331
28C
331
28D
331
295
331
296
102
}
 70
     0
280
     1
281
     0
  0
BLOCK_RECORD
  5
223
330
1
100
AcDbSymbolTableRecord
100
AcDbBlockTableRecord
  2
*D1
340
0
 70
     0
280
     1
281
     0
  0
BLOCK_RECORD
  5
224
330
1
100
AcDbSymbolTableRecord
100
AcDbBlockTableRecord
  2
*D2
340
0
 70
     0
280
     1
281
     0
  0
BLOCK_RECORD
  5
225
330
1
100
AcDbSymbolTableRecord
100
AcDbBlockTableRecord
  2
*D3
340
0
 70
     0
280
     1
281
     0
  0
BLOCK_RECORD
  5
226
330
1
100
AcDbSymbolTableRecord
100
AcDbBlockTableRecord
  2
*D4
340
0
 70
     0
280
     1
281
     0
  0
BLOCK_RECORD
  5
227
330
1
100
AcDbSymbolTableRecord
100
AcDbBlockTableRecord
  2
LOGO2_BL1
340
0
102
{BLKREFS
331
480
102
}
 70
     0
280
     1
281
     0
  0
BLOCK_RECORD
  5
228
330
1
100
AcDbSymbolTableRecord
100
AcDbBlockTableRecord
  2
PROIEZIONE_EU_BL0
340
0
102
{BLKREFS
331
47D
102
}
 70
     0
280
     1
281
     0
  0
ENDTAB
  0
ENDSEC
  0
SECTION
  2
BLOCKS
  0
BLOCK
  5
20
330
1F
100
AcDbEntity
  8
0
100
AcDbBlockBegin
  2
*MODEL_SPACE
 70
     0
 10
0.0
 20
0.0
 30
0.0
  3
*MODEL_SPACE
  1

  0
ENDBLK
  5
21
330
1F
100
AcDbEntity
  8
0
100
AcDbBlockEnd
  0
BLOCK
  5
1C
330
1B
100
AcDbEntity
 67
     1
  8
0
100
AcDbBlockBegin
  2
*PAPER_SPACE
 70
     0
 10
0.0
 20
0.0
 30
0.0
  3
*PAPER_SPACE
  1

  0
ENDBLK
  5
1D
330
1B
100
AcDbEntity
 67
     1
  8
0
100
AcDbBlockEnd
  0
BLOCK
  5
272
330
222
100
AcDbEntity
  8
0
100
AcDbBlockBegin
  2
_CLOSED
 70
     0
 10
0.0
 20
0.0
 30
0.0
  3
_CLOSED
  1

  0
LINE
  5
273
330
222
100
AcDbEntity
  8
0
  6
ByBlock
 62
     0
100
AcDbLine
 10
0.0
 20
0.0
 30
0.0
 11
-1.0
 21
0.2
 31
0.0
  0
LINE
  5
274
330
222
100
AcDbEntity
  8
0
  6
ByBlock
 62
     0
100
AcDbLine
 10
-1.0
 20
0.2
 30
0.0
 11
-1.0
 21
-0.2
 31
0.0
  0
LINE
  5
275
330
222
100
AcDbEntity
  8
0
  6
ByBlock
 62
     0
100
AcDbLine
 10
-1.0
 20
-0.2
 30
0.0
 11
0.0
 21
0.0
 31
0.0
  0
LINE
  5
276
330
222
100
AcDbEntity
  8
0
  6
ByBlock
 62
     0
100
AcDbLine
 10
-1.0
 20
0.0
 30
0.0
 11
0.0
 21
0.0
 31
0.0
  0
ENDBLK
  5
277
330
222
100
AcDbEntity
  8
0
  6
ByBlock
 62
     0
100
AcDbBlockEnd
  0
BLOCK
  5
278
330
223
100
AcDbEntity
  8
0
100
AcDbBlockBegin
  2
*D1
 70
     1
 10
0.0
 20
0.0
 30
0.0
  3
*D1
  1

  0
MTEXT
  5
279
330
223
100
AcDbEntity
  8
0
  6
Continuous
 62
     2
100
AcDbMText
 10
377.4199309034
 20
211.7697945836
 30
0.0
 40
3.0
 41
10.9925650558
 46
0.0
 71
     1
 72
     1
  1
{\Fgdt;n}\Farial.ttf;270
  7
TEXTSTYLE_4
 11
0.9658362447
 21
0.2591531371
 31
0.0
 73
     1
 44
1.0
  0
LINE
  5
27A
330
223
100
AcDbEntity
  8
0
  6
Continuous
 62
     2
100
AcDbLine
 10
368.3964036167
 20
205.4659563942
 30
0.0
 11
389.0087729204
 21
210.9966663848
 31
0.0
  0
INSERT
  5
27B
330
223
100
AcDbEntity
  8
0
  6
Continuous
 62
     2
100
AcDbBlockReference
  2
_CLOSED
 10
368.3964036167
 20
205.4659563942
 30
0.0
 41
2.5
 42
2.5
 43
2.5
 50
195.019818238
  0
ENDBLK
  5
27C
330
223
100
AcDbEntity
  8
0
  6
ByBlock
 62
     0
100
AcDbBlockEnd
  0
BLOCK
  5
27D
330
224
100
AcDbEntity
  8
0
100
AcDbBlockBegin
  2
*D2
 70
     1
 10
0.0
 20
0.0
 30
0.0
  3
*D2
  1

  0
MTEXT
  5
27E
330
224
100
AcDbEntity
  8
0
  6
Continuous
 62
     2
100
AcDbMText
 10
238.0085105847
 20
570.4936249846
 30
0.0
 40
3.0
 41
10.9925650558
 46
0.0
 71
     2
 72
     1
  1
{\Fgdt;n}\Farial.ttf;258
  7
TEXTSTYLE_4
 73
     1
 44
1.0
  0
LINE
  5
27F
330
224
100
AcDbEntity
  8
0
  6
Continuous
 62
     2
100
AcDbLine
 10
109.0085105847
 20
553.3704739919
 30
0.0
 11
109.0085105847
 21
567.4936249846
 31
0.0
  0
LINE
  5
280
330
224
100
AcDbEntity
  8
0
  6
Continuous
 62
     2
100
AcDbLine
 10
367.0085105847
 20
553.3704739919
 30
0.0
 11
367.0085105847
 21
567.4936249846
 31
0.0
  0
LINE
  5
281
330
224
100
AcDbEntity
  8
0
  6
Continuous
 62
     2
100
AcDbLine
 10
109.0085105847
 20
566.7436249846
 30
0.0
 11
238.0085105847
 21
566.7436249846
 31
0.0
  0
LINE
  5
282
330
224
100
AcDbEntity
  8
0
  6
Continuous
 62
     2
100
AcDbLine
 10
367.0085105847
 20
566.7436249846
 30
0.0
 11
238.0085105847
 21
566.7436249846
 31
0.0
  0
INSERT
  5
283
330
224
100
AcDbEntity
  8
0
  6
Continuous
 62
     2
100
AcDbBlockReference
  2
_CLOSED
 10
109.0085105847
 20
566.7436249846
 30
0.0
 41
2.5
 42
2.5
 43
2.5
 50
180.0
  0
INSERT
  5
284
330
224
100
AcDbEntity
  8
0
  6
Continuous
 62
     2
100
AcDbBlockReference
  2
_CLOSED
 10
367.0085105847
 20
566.7436249846
 30
0.0
 41
2.5
 42
2.5
 43
2.5
  0
ENDBLK
  5
285
330
224
100
AcDbEntity
  8
0
  6
ByBlock
 62
     0
100
AcDbBlockEnd
  0
BLOCK
  5
286
330
225
100
AcDbEntity
  8
0
100
AcDbBlockBegin
  2
*D3
 70
     1
 10
0.0
 20
0.0
 30
0.0
  3
*D3
  1

  0
MTEXT
  5
287
330
225
100
AcDbEntity
  8
0
  6
Continuous
 62
     2
100
AcDbMText
 10
385.5193048288
 20
454.1204739919
 30
0.0
 40
3.0
 41
6.9925650558
 46
0.0
 71
     2
 72
     1
  1
201
 11
0.0
 21
1.0
 31
0.0
 73
     1
 44
1.0
  0
LINE
  5
288
330
225
100
AcDbEntity
  8
0
  6
Continuous
 62
     2
100
AcDbLine
 10
375.4800356015
 20
554.6204739919
 30
0.0
 11
390.0193048288
 21
554.6204739919
 31
0.0
  0
LINE
  5
289
330
225
100
AcDbEntity
  8
0
  6
Continuous
 62
     2
100
AcDbLine
 10
372.585155746
 20
353.6204739919
 30
0.0
 11
390.0193048288
 21
353.6204739919
 31
0.0
  0
LINE
  5
28A
330
225
100
AcDbEntity
  8
0
  6
Continuous
 62
     2
100
AcDbLine
 10
389.2693048288
 20
554.6204739919
 30
0.0
 11
389.2693048288
 21
454.1204739919
 31
0.0
  0
LINE
  5
28B
330
225
100
AcDbEntity
  8
0
  6
Continuous
 62
     2
100
AcDbLine
 10
389.2693048288
 20
353.6204739919
 30
0.0
 11
389.2693048288
 21
454.1204739919
 31
0.0
  0
INSERT
  5
28C
330
225
100
AcDbEntity
  8
0
  6
Continuous
 62
     2
100
AcDbBlockReference
  2
_CLOSED
 10
389.2693048288
 20
554.6204739919
 30
0.0
 41
2.5
 42
2.5
 43
2.5
 50
90.0
  0
INSERT
  5
28D
330
225
100
AcDbEntity
  8
0
  6
Continuous
 62
     2
100
AcDbBlockReference
  2
_CLOSED
 10
389.2693048288
 20
353.6204739919
 30
0.0
 41
2.5
 42
2.5
 43
2.5
 50
270.0
  0
ENDBLK
  5
28E
330
225
100
AcDbEntity
  8
0
  6
ByBlock
 62
     0
100
AcDbBlockEnd
  0
BLOCK
  5
28F
330
226
100
AcDbEntity
  8
0
100
AcDbBlockBegin
  2
*D4
 70
     1
 10
0.0
 20
0.0
 30
0.0
  3
*D4
  1

  0
MTEXT
  5
290
330
226
100
AcDbEntity
  8
0
  6
Continuous
 62
     2
100
AcDbMText
 10
238.0085105847
 20
340.0232348117
 30
0.0
 40
3.0
 41
14.4832713755
 46
0.0
 71
     2
 72
     1
  1
{\Fgdt;n}\Farial.ttf;213,5
  7
TEXTSTYLE_4
 73
     1
 44
1.0
  0
LINE
  5
291
330
226
100
AcDbEntity
  8
0
  6
Continuous
 62
     2
100
AcDbLine
 10
131.2585105847
 20
352.8704739919
 30
0.0
 11
131.2585105847
 21
335.5232348117
 31
0.0
  0
LINE
  5
292
330
226
100
AcDbEntity
  8
0
  6
Continuous
 62
     2
100
AcDbLine
 10
344.7585105847
 20
352.8704739919
 30
0.0
 11
344.7585105847
 21
335.5232348117
 31
0.0
  0
LINE
  5
293
330
226
100
AcDbEntity
  8
0
  6
Continuous
 62
     2
100
AcDbLine
 10
131.2585105847
 20
336.2732348117
 30
0.0
 11
238.0085105847
 21
336.2732348117
 31
0.0
  0
LINE
  5
294
330
226
100
AcDbEntity
  8
0
  6
Continuous
 62
     2
100
AcDbLine
 10
344.7585105847
 20
336.2732348117
 30
0.0
 11
238.0085105847
 21
336.2732348117
 31
0.0
  0
INSERT
  5
295
330
226
100
AcDbEntity
  8
0
  6
Continuous
 62
     2
100
AcDbBlockReference
  2
_CLOSED
 10
131.2585105847
 20
336.2732348117
 30
0.0
 41
2.5
 42
2.5
 43
2.5
 50
180.0
  0
INSERT
  5
296
330
226
100
AcDbEntity
  8
0
  6
Continuous
 62
     2
100
AcDbBlockReference
  2
_CLOSED
 10
344.7585105847
 20
336.2732348117
 30
0.0
 41
2.5
 42
2.5
 43
2.5
  0
ENDBLK
  5
297
330
226
100
AcDbEntity
  8
0
  6
ByBlock
 62
     0
100
AcDbBlockEnd
  0
BLOCK
  5
22C
330
227
100
AcDbEntity
  8
0
100
AcDbBlockBegin
  2
LOGO2_BL1
 70
     0
 10
714.8265193419
 20
42.0006472157
 30
0.0
  3
LOGO2_BL1
  1

  0
LINE
  5
22D
330
227
100
AcDbEntity
  8
0
  6
Continuous
 62
     7
100
AcDbLine
 10
706.5694445701
 20
45.1961385546
 30
0.0
 11
705.2651036408
 21
45.1961385546
 31
0.0
  0
LINE
  5
22E
330
227
100
AcDbEntity
  8
0
  6
Continuous
 62
     7
100
AcDbLine
 10
705.2651036408
 20
45.1961385546
 30
0.0
 11
705.2651036408
 21
34.7370724947
 31
0.0
  0
LINE
  5
22F
330
227
100
AcDbEntity
  8
0
  6
Continuous
 62
     7
100
AcDbLine
 10
705.2651036408
 20
34.7370724947
 30
0.0
 11
709.7461585291
 21
34.7370724947
 31
0.0
  0
LINE
  5
230
330
227
100
AcDbEntity
  8
0
  6
Continuous
 62
     7
100
AcDbLine
 10
709.7461585291
 20
34.7370724947
 30
0.0
 11
709.7461585291
 21
35.9299268198
 31
0.0
  0
LINE
  5
231
330
227
100
AcDbEntity
  8
0
  6
Continuous
 62
     7
100
AcDbLine
 10
709.7461585291
 20
35.9299268198
 30
0.0
 11
706.5694445701
 21
35.9299268198
 31
0.0
  0
LINE
  5
232
330
227
100
AcDbEntity
  8
0
  6
Continuous
 62
     7
100
AcDbLine
 10
706.5694445701
 20
35.9299268198
 30
0.0
 11
706.5694445701
 21
45.1961385546
 31
0.0
  0
LINE
  5
233
330
227
100
AcDbEntity
  8
0
  6
Continuous
 62
     7
100
AcDbLine
 10
721.5057707865
 20
45.1961385546
 30
0.0
 11
720.2019532684
 21
45.1961385546
 31
0.0
  0
LINE
  5
234
330
227
100
AcDbEntity
  8
0
  6
Continuous
 62
     7
100
AcDbLine
 10
720.2019532684
 20
45.1961385546
 30
0.0
 11
720.2019532684
 21
34.7370724947
 31
0.0
  0
LINE
  5
235
330
227
100
AcDbEntity
  8
0
  6
Continuous
 62
     7
100
AcDbLine
 10
720.2019532684
 20
34.7370724947
 30
0.0
 11
724.6831390095
 21
34.7370724947
 31
0.0
  0
LINE
  5
236
330
227
100
AcDbEntity
  8
0
  6
Continuous
 62
     7
100
AcDbLine
 10
724.6831390095
 20
34.7370724947
 30
0.0
 11
724.6831390095
 21
35.9299268198
 31
0.0
  0
LINE
  5
237
330
227
100
AcDbEntity
  8
0
  6
Continuous
 62
     7
100
AcDbLine
 10
724.6831390095
 20
35.9299268198
 30
0.0
 11
721.5057707865
 21
35.9299268198
 31
0.0
  0
LINE
  5
238
330
227
100
AcDbEntity
  8
0
  6
Continuous
 62
     7
100
AcDbLine
 10
721.5057707865
 20
35.9299268198
 30
0.0
 11
721.5057707865
 21
45.1961385546
 31
0.0
  0
LWPOLYLINE
  5
239
330
227
100
AcDbEntity
  8
0
  6
Continuous
 62
     7
100
AcDbPolyline
 90
        2
 70
     0
 43
0.2
 10
703.6194985517
 20
31.3935211878
 10
703.6194985517
 20
29.5364579385
  0
LWPOLYLINE
  5
23A
330
227
100
AcDbEntity
  8
0
  6
Continuous
 62
     7
100
AcDbPolyline
 90
        2
 70
     0
 43
0.2
 10
703.6194985517
 20
29.5364579385
 10
704.4152145621
 20
29.5364579385
  0
LWPOLYLINE
  5
23B
330
227
100
AcDbEntity
  8
0
  6
Continuous
 62
     7
100
AcDbPolyline
 90
        2
 70
     0
 43
0.2
 10
704.4152145621
 20
29.5364579385
 10
704.4152145621
 20
29.7484395101
  0
LWPOLYLINE
  5
23C
330
227
100
AcDbEntity
  8
0
  6
Continuous
 62
     7
100
AcDbPolyline
 90
        2
 70
     0
 43
0.2
 10
704.4152145621
 20
29.7484395101
 10
703.8511080466
 20
29.7484395101
  0
LWPOLYLINE
  5
23D
330
227
100
AcDbEntity
  8
0
  6
Continuous
 62
     7
100
AcDbPolyline
 90
        2
 70
     0
 43
0.2
 10
703.8511080466
 20
29.7484395101
 10
703.8511080466
 20
31.3935211878
  0
LWPOLYLINE
  5
23E
330
227
100
AcDbEntity
  8
0
  6
Continuous
 62
     7
100
AcDbPolyline
 90
        2
 70
     0
 43
0.2
 10
703.8511080466
 20
31.3935211878
 10
703.6194985517
 20
31.3935211878
  0
SPLINE
  5
23F
330
227
100
AcDbEntity
  8
0
  6
Continuous
 62
     7
100
AcDbSpline
 70
     3
 71
     3
 72
    35
 73
    31
 74
     0
 42
0.000000001
 43
0.0000001
 40
0.0
 40
0.0
 40
0.0
 40
0.0
 40
1.0
 40
1.0
 40
1.0
 40
2.0
 40
2.0
 40
2.0
 40
3.0
 40
3.0
 40
3.0
 40
4.0
 40
4.0
 40
4.0
 40
5.0
 40
5.0
 40
5.0
 40
6.0
 40
6.0
 40
6.0
 40
7.0
 40
7.0
 40
7.0
 40
8.0
 40
8.0
 40
8.0
 40
9.0
 40
9.0
 40
9.0
 40
10.0
 40
10.0
 40
10.0
 40
10.0
 10
705.8135078176
 20
30.6890095944
 30
0.0
 10
705.8135078176
 20
30.6890095944
 30
0.0
 10
705.8135078176
 20
30.0268943152
 30
0.0
 10
705.8135078176
 20
30.0268943152
 30
0.0
 10
705.8135078176
 20
29.7118007199
 30
0.0
 10
705.9613715065
 20
29.4972020919
 30
0.0
 10
706.3014579908
 20
29.4972020919
 30
0.0
 10
706.6410210638
 20
29.4972020919
 30
0.0
 10
706.7891464582
 20
29.7118007199
 30
0.0
 10
706.7891464582
 20
30.0268943152
 30
0.0
 10
706.7891464582
 20
30.0268943152
 30
0.0
 10
706.7891464582
 20
30.6890095944
 30
0.0
 10
706.7891464582
 20
30.6890095944
 30
0.0
 10
706.7891464582
 20
30.6890095944
 30
0.0
 10
706.5670892194
 20
30.6890095944
 30
0.0
 10
706.5670892194
 20
30.6890095944
 30
0.0
 10
706.5670892194
 20
30.6890095944
 30
0.0
 10
706.5670892194
 20
30.052018057
 30
0.0
 10
706.5670892194
 20
30.052018057
 30
0.0
 10
706.5670892194
 20
29.8662070498
 30
0.0
 10
706.5203747619
 20
29.7034261393
 30
0.0
 10
706.3014579908
 20
29.7034261393
 30
0.0
 10
706.0820178083
 20
29.7034261393
 30
0.0
 10
706.0353033509
 20
29.8662070498
 30
0.0
 10
706.0353033509
 20
30.052018057
 30
0.0
 10
706.0353033509
 20
30.052018057
 30
0.0
 10
706.0353033509
 20
30.6890095944
 30
0.0
 10
706.0353033509
 20
30.6890095944
 30
0.0
 10
706.0353033509
 20
30.6890095944
 30
0.0
 10
705.8135078176
 20
30.6890095944
 30
0.0
 10
705.8135078176
 20
30.6890095944
 30
0.0
  0
SPLINE
  5
240
330
227
100
AcDbEntity
  8
0
  6
Continuous
 62
     7
100
AcDbSpline
 70
     3
 71
     3
 72
    35
 73
    31
 74
     0
 42
0.000000001
 43
0.0000001
 40
0.0
 40
0.0
 40
0.0
 40
0.0
 40
1.0
 40
1.0
 40
1.0
 40
2.0
 40
2.0
 40
2.0
 40
3.0
 40
3.0
 40
3.0
 40
4.0
 40
4.0
 40
4.0
 40
5.0
 40
5.0
 40
5.0
 40
6.0
 40
6.0
 40
6.0
 40
7.0
 40
7.0
 40
7.0
 40
8.0
 40
8.0
 40
8.0
 40
9.0
 40
9.0
 40
9.0
 40
10.0
 40
10.0
 40
10.0
 40
10.0
 10
709.2122790154
 20
30.6476601026
 30
0.0
 10
709.1238225078
 20
30.6989544088
 30
0.0
 10
709.0103731111
 20
30.7240781506
 30
0.0
 10
708.9067376761
 20
30.7240781506
 30
0.0
 10
708.551864823
 20
30.7240781506
 30
0.0
 10
708.2764196327
 20
30.4602788616
 30
0.0
 10
708.2764196327
 20
30.1027889519
 30
0.0
 10
708.2764196327
 20
29.7578609132
 30
0.0
 10
708.5548744379
 20
29.4977255032
 30
0.0
 10
708.8944375109
 20
29.4977255032
 30
0.0
 10
709.0103731111
 20
29.4977255032
 30
0.0
 10
709.111129784
 20
29.5197087773
 30
0.0
 10
709.2122790154
 20
29.5736201399
 30
0.0
 10
709.2122790154
 20
29.5736201399
 30
0.0
 10
709.2122790154
 20
29.8562622354
 30
0.0
 10
709.2122790154
 20
29.8562622354
 30
0.0
 10
709.1284023565
 20
29.7630950261
 30
0.0
 10
709.0248977744
 20
29.7039495506
 30
0.0
 10
708.8967928617
 20
29.7039495506
 30
0.0
 10
708.6630897216
 20
29.7039495506
 30
0.0
 10
708.4978226075
 20
29.8761518643
 30
0.0
 10
708.4978226075
 20
30.1127337664
 30
0.0
 10
708.4978226075
 20
30.324715338
 30
0.0
 10
708.6655759252
 20
30.5168072806
 30
0.0
 10
708.8823990512
 20
30.5168072806
 30
0.0
 10
709.0152146655
 20
30.5168072806
 30
0.0
 10
709.1238225078
 20
30.462895918
 30
0.0
 10
709.2122790154
 20
30.3618775394
 30
0.0
 10
709.2122790154
 20
30.3618775394
 30
0.0
 10
709.2122790154
 20
30.6476601026
 30
0.0
 10
709.2122790154
 20
30.6476601026
 30
0.0
  0
SPLINE
  5
241
330
227
100
AcDbEntity
  8
0
  6
Continuous
 62
     7
100
AcDbSpline
 70
     3
 71
     3
 72
    32
 73
    28
 74
     0
 42
0.000000001
 43
0.0000001
 40
0.0
 40
0.0
 40
0.0
 40
0.0
 40
1.0
 40
1.0
 40
1.0
 40
2.0
 40
2.0
 40
2.0
 40
3.0
 40
3.0
 40
3.0
 40
4.0
 40
4.0
 40
4.0
 40
5.0
 40
5.0
 40
5.0
 40
6.0
 40
6.0
 40
6.0
 40
7.0
 40
7.0
 40
7.0
 40
8.0
 40
8.0
 40
8.0
 40
9.0
 40
9.0
 40
9.0
 40
9.0
 10
711.7441502677
 20
30.0760949763
 30
0.0
 10
711.7441502677
 20
30.0760949763
 30
0.0
 10
711.7441502677
 20
30.11011671
 30
0.0
 10
711.7441502677
 20
30.11011671
 30
0.0
 10
711.7441502677
 20
30.4524276922
 30
0.0
 10
711.5712936899
 20
30.7240781506
 30
0.0
 10
711.2046440827
 20
30.7240781506
 30
0.0
 10
710.8330220683
 20
30.7240781506
 30
0.0
 10
710.6432854765
 20
30.4576618051
 30
0.0
 10
710.6432854765
 20
30.1027889519
 30
0.0
 10
710.6432854765
 20
29.7630950261
 30
0.0
 10
710.8573606932
 20
29.4972020919
 30
0.0
 10
711.2094856371
 20
29.4972020919
 30
0.0
 10
711.4335056683
 20
29.4972020919
 30
0.0
 10
711.6356732783
 20
29.6128759865
 30
0.0
 10
711.7441502677
 20
29.8122956872
 30
0.0
 10
711.7441502677
 20
29.8122956872
 30
0.0
 10
711.556507321
 20
29.9190715899
 30
0.0
 10
711.556507321
 20
29.9190715899
 30
0.0
 10
711.4730232206
 20
29.7803675986
 30
0.0
 10
711.3818188036
 20
29.6945281474
 30
0.0
 10
711.2122335464
 20
29.6945281474
 30
0.0
 10
711.0002519748
 20
29.6945281474
 30
0.0
 10
710.8673055077
 20
29.879292332
 30
0.0
 10
710.8649501569
 20
30.0760949763
 30
0.0
 10
710.8649501569
 20
30.0760949763
 30
0.0
 10
711.7441502677
 20
30.0760949763
 30
0.0
 10
711.7441502677
 20
30.0760949763
 30
0.0
  0
SPLINE
  5
242
330
227
100
AcDbEntity
  8
0
  6
Continuous
 62
     7
100
AcDbSpline
 70
     3
 71
     3
 72
    14
 73
    10
 74
     0
 42
0.000000001
 43
0.0000001
 40
0.0
 40
0.0
 40
0.0
 40
0.0
 40
1.0
 40
1.0
 40
1.0
 40
2.0
 40
2.0
 40
2.0
 40
3.0
 40
3.0
 40
3.0
 40
3.0
 10
710.8769886165
 20
30.2435865884
 30
0.0
 10
710.9045985619
 20
30.4084611441
 30
0.0
 10
711.032441769
 20
30.5314627967
 30
0.0
 10
711.2046440827
 20
30.5314627967
 30
0.0
 10
711.3818188036
 20
30.5314627967
 30
0.0
 10
711.4952682003
 20
30.4157889021
 30
0.0
 10
711.5224855873
 20
30.2435865884
 30
0.0
 10
711.5224855873
 20
30.2435865884
 30
0.0
 10
710.8769886165
 20
30.2435865884
 30
0.0
 10
710.8769886165
 20
30.2435865884
 30
0.0
  0
SPLINE
  5
243
330
227
100
AcDbEntity
  8
0
  6
Continuous
 62
     7
100
AcDbSpline
 70
     3
 71
     3
 72
    20
 73
    16
 74
     0
 42
0.000000001
 43
0.0000001
 40
0.0
 40
0.0
 40
0.0
 40
0.0
 40
1.0
 40
1.0
 40
1.0
 40
2.0
 40
2.0
 40
2.0
 40
3.0
 40
3.0
 40
3.0
 40
4.0
 40
4.0
 40
4.0
 40
5.0
 40
5.0
 40
5.0
 40
5.0
 10
713.7681817179
 20
30.4529511035
 30
0.0
 10
713.7681817179
 20
30.4529511035
 30
0.0
 10
714.1793212845
 20
29.9504762672
 30
0.0
 10
714.1793212845
 20
29.9504762672
 30
0.0
 10
714.0632548314
 20
29.8348023726
 30
0.0
 10
713.9254668099
 20
29.7044729619
 30
0.0
 10
713.7535262018
 20
29.7044729619
 30
0.0
 10
713.5760897752
 20
29.7044729619
 30
0.0
 10
713.4085981631
 20
29.8688241063
 30
0.0
 10
713.4085981631
 20
30.0457371216
 30
0.0
 10
713.4085981631
 20
30.2236969594
 30
0.0
 10
713.6183552367
 20
30.3498390798
 30
0.0
 10
713.7459367381
 20
30.4377721762
 30
0.0
 10
713.7459367381
 20
30.4377721762
 30
0.0
 10
713.7681817179
 20
30.4529511035
 30
0.0
 10
713.7681817179
 20
30.4529511035
 30
0.0
  0
SPLINE
  5
244
330
227
100
AcDbEntity
  8
0
  6
Continuous
 62
     7
100
AcDbSpline
 70
     3
 71
     3
 72
    23
 73
    19
 74
     0
 42
0.000000001
 43
0.0000001
 40
0.0
 40
0.0
 40
0.0
 40
0.0
 40
1.0
 40
1.0
 40
1.0
 40
2.0
 40
2.0
 40
2.0
 40
3.0
 40
3.0
 40
3.0
 40
4.0
 40
4.0
 40
4.0
 40
5.0
 40
5.0
 40
5.0
 40
6.0
 40
6.0
 40
6.0
 40
6.0
 10
713.8175132318
 20
30.7439677796
 30
0.0
 10
713.8175132318
 20
30.7439677796
 30
0.0
 10
713.7558815526
 20
30.8224794728
 30
0.0
 10
713.7558815526
 20
30.8224794728
 30
0.0
 10
713.70197019
 20
30.8910463515
 30
0.0
 10
713.6451800652
 20
30.9601366415
 30
0.0
 10
713.6451800652
 20
31.053827262
 30
0.0
 10
713.6451800652
 20
31.1726416243
 30
0.0
 10
713.7410951837
 20
31.250106495
 30
0.0
 10
713.8520583767
 20
31.250106495
 30
0.0
 10
713.975321735
 20
31.250106495
 30
0.0
 10
714.0686197971
 20
31.1789225598
 30
0.0
 10
714.0686197971
 20
31.0485931491
 30
0.0
 10
714.0686197971
 20
30.9135530369
 30
0.0
 10
713.9405148844
 20
30.8371349888
 30
0.0
 10
713.8469551167
 20
30.7633339972
 30
0.0
 10
713.8469551167
 20
30.7633339972
 30
0.0
 10
713.8175132318
 20
30.7439677796
 30
0.0
 10
713.8175132318
 20
30.7439677796
 30
0.0
  0
SPLINE
  5
245
330
227
100
AcDbEntity
  8
0
  6
Continuous
 62
     7
100
AcDbSpline
 70
     3
 71
     3
 72
    50
 73
    46
 74
     0
 42
0.000000001
 43
0.0000001
 40
0.0
 40
0.0
 40
0.0
 40
0.0
 40
1.0
 40
1.0
 40
1.0
 40
2.0
 40
2.0
 40
2.0
 40
3.0
 40
3.0
 40
3.0
 40
4.0
 40
4.0
 40
4.0
 40
5.0
 40
5.0
 40
5.0
 40
6.0
 40
6.0
 40
6.0
 40
7.0
 40
7.0
 40
7.0
 40
8.0
 40
8.0
 40
8.0
 40
9.0
 40
9.0
 40
9.0
 40
10.0
 40
10.0
 40
10.0
 40
11.0
 40
11.0
 40
11.0
 40
12.0
 40
12.0
 40
12.0
 40
13.0
 40
13.0
 40
13.0
 40
14.0
 40
14.0
 40
14.0
 40
15.0
 40
15.0
 40
15.0
 40
15.0
 10
714.5196694744
 20
29.5369813498
 30
0.0
 10
714.5196694744
 20
29.5369813498
 30
0.0
 10
714.8050594791
 20
29.5369813498
 30
0.0
 10
714.8050594791
 20
29.5369813498
 30
0.0
 10
714.8050594791
 20
29.5369813498
 30
0.0
 10
714.4726933113
 20
29.9478592107
 30
0.0
 10
714.4726933113
 20
29.9478592107
 30
0.0
 10
714.4726933113
 20
29.9478592107
 30
0.0
 10
714.6991995462
 20
30.213752145
 30
0.0
 10
714.6991995462
 20
30.213752145
 30
0.0
 10
714.6991995462
 20
30.213752145
 30
0.0
 10
714.5509432989
 20
30.366588241
 30
0.0
 10
714.5509432989
 20
30.366588241
 30
0.0
 10
714.5509432989
 20
30.366588241
 30
0.0
 10
714.3350361426
 20
30.1153508228
 30
0.0
 10
714.3350361426
 20
30.1153508228
 30
0.0
 10
714.3350361426
 20
30.1153508228
 30
0.0
 10
713.9479734953
 20
30.5832805142
 30
0.0
 10
713.9479734953
 20
30.5832805142
 30
0.0
 10
714.1034266477
 20
30.697384175
 30
0.0
 10
714.2857046287
 20
30.8371349888
 30
0.0
 10
714.2857046287
 20
31.046499504
 30
0.0
 10
714.2857046287
 20
31.2904091641
 30
0.0
 10
714.0836678716
 20
31.433823857
 30
0.0
 10
713.8571616368
 20
31.433823857
 30
0.0
 10
713.612990271
 20
31.433823857
 30
0.0
 10
713.4286186449
 20
31.2830814061
 30
0.0
 10
713.4286186449
 20
31.026609875
 30
0.0
 10
713.4286186449
 20
30.8690630774
 30
0.0
 10
713.5272816726
 20
30.7314059087
 30
0.0
 10
713.6326181943
 20
30.6204427156
 30
0.0
 10
713.6326181943
 20
30.6204427156
 30
0.0
 10
713.5170751525
 20
30.5366969096
 30
0.0
 10
713.5170751525
 20
30.5366969096
 30
0.0
 10
713.3393770203
 20
30.4084611441
 30
0.0
 10
713.1920367427
 20
30.2807487898
 30
0.0
 10
713.1920367427
 20
30.0436434764
 30
0.0
 10
713.1920367427
 20
29.7233157682
 30
0.0
 10
713.450601919
 20
29.4972020919
 30
0.0
 10
713.7609848127
 20
29.4972020919
 30
0.0
 10
713.9799015838
 20
29.4972020919
 30
0.0
 10
714.1770967865
 20
29.6222973897
 30
0.0
 10
714.3173710117
 20
29.7882187679
 30
0.0
 10
714.3173710117
 20
29.7882187679
 30
0.0
 10
714.5196694744
 20
29.5369813498
 30
0.0
 10
714.5196694744
 20
29.5369813498
 30
0.0
  0
LWPOLYLINE
  5
246
330
227
100
AcDbEntity
  8
0
  6
Continuous
 62
     7
100
AcDbPolyline
 90
        2
 70
     0
 43
0.2
 10
716.4551135641
 20
31.3935211878
 10
716.2237657749
 20
31.3935211878
  0
LWPOLYLINE
  5
247
330
227
100
AcDbEntity
  8
0
  6
Continuous
 62
     7
100
AcDbPolyline
 90
        2
 70
     0
 43
0.2
 10
716.2237657749
 20
31.3935211878
 10
716.2237657749
 20
29.5364579385
  0
LWPOLYLINE
  5
248
330
227
100
AcDbEntity
  8
0
  6
Continuous
 62
     7
100
AcDbPolyline
 90
        2
 70
     0
 43
0.2
 10
716.2237657749
 20
29.5364579385
 10
717.0190892268
 20
29.5364579385
  0
LWPOLYLINE
  5
249
330
227
100
AcDbEntity
  8
0
  6
Continuous
 62
     7
100
AcDbPolyline
 90
        2
 70
     0
 43
0.2
 10
717.0190892268
 20
29.5364579385
 10
717.0190892268
 20
29.7484395101
  0
LWPOLYLINE
  5
24A
330
227
100
AcDbEntity
  8
0
  6
Continuous
 62
     7
100
AcDbPolyline
 90
        2
 70
     0
 43
0.2
 10
717.0190892268
 20
29.7484395101
 10
716.4551135641
 20
29.7484395101
  0
LWPOLYLINE
  5
24B
330
227
100
AcDbEntity
  8
0
  6
Continuous
 62
     7
100
AcDbPolyline
 90
        2
 70
     0
 43
0.2
 10
716.4551135641
 20
29.7484395101
 10
716.4551135641
 20
31.3935211878
  0
LWPOLYLINE
  5
24C
330
227
100
AcDbEntity
  8
0
  6
Continuous
 62
     7
100
AcDbPolyline
 90
        2
 70
     0
 43
0.2
 10
718.6981926383
 20
30.6890095944
 10
718.4770513692
 20
30.6890095944
  0
LWPOLYLINE
  5
24D
330
227
100
AcDbEntity
  8
0
  6
Continuous
 62
     7
100
AcDbPolyline
 90
        2
 70
     0
 43
0.2
 10
718.4770513692
 20
30.6890095944
 10
718.4770513692
 20
29.5369813498
  0
LWPOLYLINE
  5
24E
330
227
100
AcDbEntity
  8
0
  6
Continuous
 62
     7
100
AcDbPolyline
 90
        2
 70
     0
 43
0.2
 10
718.4770513692
 20
29.5369813498
 10
718.6981926383
 20
29.5369813498
  0
LWPOLYLINE
  5
24F
330
227
100
AcDbEntity
  8
0
  6
Continuous
 62
     7
100
AcDbPolyline
 90
        2
 70
     0
 43
0.2
 10
718.6981926383
 20
29.5369813498
 10
718.6981926383
 20
30.6890095944
  0
LWPOLYLINE
  5
250
330
227
100
AcDbEntity
  8
0
  6
Continuous
 62
     7
100
AcDbPolyline
 90
        2
 70
     1
 43
0.2
 10
718.4351693611
 20
31.2189635233
 42
1.0
 10
718.740336352
 20
31.2189635233
 42
1.0
  0
SPLINE
  5
251
330
227
100
AcDbEntity
  8
0
  6
Continuous
 62
     7
100
AcDbSpline
 70
     3
 71
     3
 72
    17
 73
    13
 74
     0
 42
0.000000001
 43
0.0000001
 40
0.0
 40
0.0
 40
0.0
 40
0.0
 40
1.0
 40
1.0
 40
1.0
 40
2.0
 40
2.0
 40
2.0
 40
3.0
 40
3.0
 40
3.0
 40
4.0
 40
4.0
 40
4.0
 40
4.0
 10
720.8284765799
 20
29.6945281474
 30
0.0
 10
720.5945117343
 20
29.6945281474
 30
0.0
 10
720.4641823236
 20
29.8965649045
 30
0.0
 10
720.4641823236
 20
30.1127337664
 30
0.0
 10
720.4641823236
 20
30.3273323944
 30
0.0
 10
720.6000075528
 20
30.5262286838
 30
0.0
 10
720.8284765799
 20
30.5262286838
 30
0.0
 10
721.0679372441
 20
30.5262286838
 30
0.0
 10
721.2035007677
 20
30.3372772089
 30
0.0
 10
721.2035007677
 20
30.1127337664
 30
0.0
 10
721.2035007677
 20
29.88662009
 30
0.0
 10
721.0702925949
 20
29.6945281474
 30
0.0
 10
720.8284765799
 20
29.6945281474
 30
0.0
  0
SPLINE
  5
252
330
227
100
AcDbEntity
  8
0
  6
Continuous
 62
     7
100
AcDbSpline
 70
     3
 71
     3
 72
    50
 73
    46
 74
     0
 42
0.000000001
 43
0.0000001
 40
0.0
 40
0.0
 40
0.0
 40
0.0
 40
1.0
 40
1.0
 40
1.0
 40
2.0
 40
2.0
 40
2.0
 40
3.0
 40
3.0
 40
3.0
 40
4.0
 40
4.0
 40
4.0
 40
5.0
 40
5.0
 40
5.0
 40
6.0
 40
6.0
 40
6.0
 40
7.0
 40
7.0
 40
7.0
 40
8.0
 40
8.0
 40
8.0
 40
9.0
 40
9.0
 40
9.0
 40
10.0
 40
10.0
 40
10.0
 40
11.0
 40
11.0
 40
11.0
 40
12.0
 40
12.0
 40
12.0
 40
13.0
 40
13.0
 40
13.0
 40
14.0
 40
14.0
 40
14.0
 40
15.0
 40
15.0
 40
15.0
 40
15.0
 10
721.4126035772
 20
30.6895330056
 30
0.0
 10
721.4126035772
 20
30.6895330056
 30
0.0
 10
721.1909388968
 20
30.6895330056
 30
0.0
 10
721.1909388968
 20
30.6895330056
 30
0.0
 10
721.1909388968
 20
30.6895330056
 30
0.0
 10
721.1909388968
 20
30.4922069501
 30
0.0
 10
721.1909388968
 20
30.4922069501
 30
0.0
 10
721.1909388968
 20
30.4922069501
 30
0.0
 10
721.1862281952
 20
30.4922069501
 30
0.0
 10
721.1862281952
 20
30.4922069501
 30
0.0
 10
721.0948929255
 20
30.6350982317
 30
0.0
 10
720.9569740511
 20
30.7235547394
 30
0.0
 10
720.7842483261
 20
30.7235547394
 30
0.0
 10
720.4518821583
 20
30.7235547394
 30
0.0
 10
720.2427793488
 20
30.435678531
 30
0.0
 10
720.2427793488
 20
30.1200615244
 30
0.0
 10
720.2427793488
 20
29.7903124131
 30
0.0
 10
720.4398436987
 20
29.4972020919
 30
0.0
 10
720.7947165519
 20
29.4972020919
 30
0.0
 10
720.9569740511
 20
29.4972020919
 30
0.0
 10
721.0969865706
 20
29.5856585995
 30
0.0
 10
721.1862281952
 20
29.7165114215
 30
0.0
 10
721.1862281952
 20
29.7165114215
 30
0.0
 10
721.1909388968
 20
29.7165114215
 30
0.0
 10
721.1909388968
 20
29.7165114215
 30
0.0
 10
721.1909388968
 20
29.7165114215
 30
0.0
 10
721.1909388968
 20
29.4972020919
 30
0.0
 10
721.1909388968
 20
29.4972020919
 30
0.0
 10
721.1909388968
 20
29.2606201898
 30
0.0
 10
721.1344104777
 20
29.07376236
 30
0.0
 10
720.8611897854
 20
29.07376236
 30
0.0
 10
720.6588913227
 20
29.07376236
 30
0.0
 10
720.5162617467
 20
29.192053311
 30
0.0
 10
720.5162617467
 20
29.3982773585
 30
0.0
 10
720.5162617467
 20
29.3982773585
 30
0.0
 10
720.2945970663
 20
29.3982773585
 30
0.0
 10
720.2945970663
 20
29.3982773585
 30
0.0
 10
720.2995694736
 20
29.07376236
 30
0.0
 10
720.5306555571
 20
28.8769597157
 30
0.0
 10
720.8509832653
 20
28.8769597157
 30
0.0
 10
721.2990233277
 20
28.8769597157
 30
0.0
 10
721.4126035772
 20
29.1622188676
 30
0.0
 10
721.4126035772
 20
29.5589646238
 30
0.0
 10
721.4126035772
 20
29.5589646238
 30
0.0
 10
721.4126035772
 20
30.6895330056
 30
0.0
 10
721.4126035772
 20
30.6895330056
 30
0.0
  0
SPLINE
  5
253
330
227
100
AcDbEntity
  8
0
  6
Continuous
 62
     7
100
AcDbSpline
 70
     3
 71
     3
 72
    44
 73
    40
 74
     0
 42
0.000000001
 43
0.0000001
 40
0.0
 40
0.0
 40
0.0
 40
0.0
 40
1.0
 40
1.0
 40
1.0
 40
2.0
 40
2.0
 40
2.0
 40
3.0
 40
3.0
 40
3.0
 40
4.0
 40
4.0
 40
4.0
 40
5.0
 40
5.0
 40
5.0
 40
6.0
 40
6.0
 40
6.0
 40
7.0
 40
7.0
 40
7.0
 40
8.0
 40
8.0
 40
8.0
 40
9.0
 40
9.0
 40
9.0
 40
10.0
 40
10.0
 40
10.0
 40
11.0
 40
11.0
 40
11.0
 40
12.0
 40
12.0
 40
12.0
 40
13.0
 40
13.0
 40
13.0
 40
13.0
 10
722.9815289126
 20
31.6745930494
 30
0.0
 10
722.9815289126
 20
31.6745930494
 30
0.0
 10
722.9815289126
 20
29.5364579385
 30
0.0
 10
722.9815289126
 20
29.5364579385
 30
0.0
 10
722.9815289126
 20
29.5364579385
 30
0.0
 10
723.2029318874
 20
29.5364579385
 30
0.0
 10
723.2029318874
 20
29.5364579385
 30
0.0
 10
723.2029318874
 20
29.5364579385
 30
0.0
 10
723.2029318874
 20
30.0661501618
 30
0.0
 10
723.2029318874
 20
30.0661501618
 30
0.0
 10
723.2029318874
 20
30.2760380882
 30
0.0
 10
723.2029318874
 20
30.5267520951
 30
0.0
 10
723.4881910393
 20
30.5267520951
 30
0.0
 10
723.7150898326
 20
30.5267520951
 30
0.0
 10
723.7420455139
 20
30.393805628
 30
0.0
 10
723.7420455139
 20
30.197526395
 30
0.0
 10
723.7420455139
 20
30.197526395
 30
0.0
 10
723.7420455139
 20
29.5364579385
 30
0.0
 10
723.7420455139
 20
29.5364579385
 30
0.0
 10
723.7420455139
 20
29.5364579385
 30
0.0
 10
723.9639718999
 20
29.5364579385
 30
0.0
 10
723.9639718999
 20
29.5364579385
 30
0.0
 10
723.9639718999
 20
29.5364579385
 30
0.0
 10
723.9639718999
 20
30.2236969594
 30
0.0
 10
723.9639718999
 20
30.2236969594
 30
0.0
 10
723.9639718999
 20
30.5042454097
 30
0.0
 10
723.8799643882
 20
30.7240781506
 30
0.0
 10
723.5549259785
 20
30.7240781506
 30
0.0
 10
723.4151751646
 20
30.7240781506
 30
0.0
 10
723.2769945846
 20
30.6576049171
 30
0.0
 10
723.207642589
 20
30.5346032644
 30
0.0
 10
723.207642589
 20
30.5346032644
 30
0.0
 10
723.2029318874
 20
30.5346032644
 30
0.0
 10
723.2029318874
 20
30.5346032644
 30
0.0
 10
723.2029318874
 20
30.5346032644
 30
0.0
 10
723.2029318874
 20
31.6745930494
 30
0.0
 10
723.2029318874
 20
31.6745930494
 30
0.0
 10
723.2029318874
 20
31.6745930494
 30
0.0
 10
722.9815289126
 20
31.6745930494
 30
0.0
 10
722.9815289126
 20
31.6745930494
 30
0.0
  0
LWPOLYLINE
  5
254
330
227
100
AcDbEntity
  8
0
  6
Continuous
 62
     7
100
AcDbPolyline
 90
        2
 70
     0
 43
0.2
 10
725.8037625768
 20
30.4822621356
 10
726.0201931443
 20
30.4822621356
  0
LWPOLYLINE
  5
255
330
227
100
AcDbEntity
  8
0
  6
Continuous
 62
     7
100
AcDbPolyline
 90
        2
 70
     0
 43
0.2
 10
726.0201931443
 20
30.4822621356
 10
726.0201931443
 20
30.6890095944
  0
LWPOLYLINE
  5
256
330
227
100
AcDbEntity
  8
0
  6
Continuous
 62
     7
100
AcDbPolyline
 90
        2
 70
     0
 43
0.2
 10
726.0201931443
 20
30.6890095944
 10
725.8037625768
 20
30.6890095944
  0
LWPOLYLINE
  5
257
330
227
100
AcDbEntity
  8
0
  6
Continuous
 62
     7
100
AcDbPolyline
 90
        2
 70
     0
 43
0.2
 10
725.8037625768
 20
30.6890095944
 10
725.8037625768
 20
31.1297218987
  0
LWPOLYLINE
  5
258
330
227
100
AcDbEntity
  8
0
  6
Continuous
 62
     7
100
AcDbPolyline
 90
        2
 70
     0
 43
0.2
 10
725.8037625768
 20
31.1297218987
 10
725.5820978964
 20
31.1297218987
  0
LWPOLYLINE
  5
259
330
227
100
AcDbEntity
  8
0
  6
Continuous
 62
     7
100
AcDbPolyline
 90
        2
 70
     0
 43
0.2
 10
725.5820978964
 20
31.1297218987
 10
725.5820978964
 20
30.6890095944
  0
LWPOLYLINE
  5
25A
330
227
100
AcDbEntity
  8
0
  6
Continuous
 62
     7
100
AcDbPolyline
 90
        2
 70
     0
 43
0.2
 10
725.5820978964
 20
30.6890095944
 10
725.4614515945
 20
30.6890095944
  0
LWPOLYLINE
  5
25B
330
227
100
AcDbEntity
  8
0
  6
Continuous
 62
     7
100
AcDbPolyline
 90
        2
 70
     0
 43
0.2
 10
725.4614515945
 20
30.6890095944
 10
725.4614515945
 20
30.4822621356
  0
LWPOLYLINE
  5
25C
330
227
100
AcDbEntity
  8
0
  6
Continuous
 62
     7
100
AcDbPolyline
 90
        2
 70
     0
 43
0.2
 10
725.4614515945
 20
30.4822621356
 10
725.5820978964
 20
30.4822621356
  0
LWPOLYLINE
  5
25D
330
227
100
AcDbEntity
  8
0
  6
Continuous
 62
     7
100
AcDbPolyline
 90
        2
 70
     0
 43
0.2
 10
725.5820978964
 20
30.4822621356
 10
725.5820978964
 20
29.5364579385
  0
LWPOLYLINE
  5
25E
330
227
100
AcDbEntity
  8
0
  6
Continuous
 62
     7
100
AcDbPolyline
 90
        2
 70
     0
 43
0.2
 10
725.5820978964
 20
29.5364579385
 10
725.8037625768
 20
29.5364579385
  0
LWPOLYLINE
  5
25F
330
227
100
AcDbEntity
  8
0
  6
Continuous
 62
     7
100
AcDbPolyline
 90
        2
 70
     0
 43
0.2
 10
725.8037625768
 20
29.5364579385
 10
725.8037625768
 20
30.4822621356
  0
SPLINE
  5
260
330
227
100
AcDbEntity
  8
0
  6
Continuous
 62
     7
100
AcDbSpline
 70
     3
 71
     3
 72
    20
 73
    16
 74
     0
 42
0.000000001
 43
0.0000001
 40
0.0
 40
0.0
 40
0.0
 40
0.0
 40
1.0
 40
1.0
 40
1.0
 40
2.0
 40
2.0
 40
2.0
 40
3.0
 40
3.0
 40
3.0
 40
4.0
 40
4.0
 40
4.0
 40
5.0
 40
5.0
 40
5.0
 40
5.0
 10
713.585772884
 20
39.8973843819
 30
0.0
 10
713.585772884
 20
39.8973843819
 30
0.0
 10
715.9021295385
 20
37.0678229596
 30
0.0
 10
715.9021295385
 20
37.0678229596
 30
0.0
 10
715.2504824851
 20
36.4156524949
 30
0.0
 10
714.4736092811
 20
35.6797362242
 30
0.0
 10
713.5024196365
 20
35.6797362242
 30
0.0
 10
712.503881752
 20
35.6797362242
 30
0.0
 10
711.5605637585
 20
36.6093146715
 30
0.0
 10
711.5605637585
 20
37.60850682
 30
0.0
 10
711.5605637585
 20
38.6076989685
 30
0.0
 10
712.7394168316
 20
39.3143042072
 30
0.0
 10
713.4609392919
 20
39.8141619871
 30
0.0
 10
713.4609392919
 20
39.8141619871
 30
0.0
 10
713.585772884
 20
39.8973843819
 30
0.0
 10
713.585772884
 20
39.8973843819
 30
0.0
  0
SPLINE
  5
261
330
227
100
AcDbEntity
  8
0
  6
Continuous
 62
     7
100
AcDbSpline
 70
     3
 71
     3
 72
    23
 73
    19
 74
     0
 42
0.000000001
 43
0.0000001
 40
0.0
 40
0.0
 40
0.0
 40
0.0
 40
1.0
 40
1.0
 40
1.0
 40
2.0
 40
2.0
 40
2.0
 40
3.0
 40
3.0
 40
3.0
 40
4.0
 40
4.0
 40
4.0
 40
5.0
 40
5.0
 40
5.0
 40
6.0
 40
6.0
 40
6.0
 40
6.0
 10
713.8631808666
 20
41.5351383016
 30
0.0
 10
713.8631808666
 20
41.5351383016
 30
0.0
 10
713.516682594
 20
41.9784676624
 30
0.0
 10
713.516682594
 20
41.9784676624
 30
0.0
 10
713.2108795491
 20
42.3665771324
 30
0.0
 10
712.891991222
 20
42.7550791608
 30
0.0
 10
712.891991222
 20
43.2820234749
 30
0.0
 10
712.891991222
 20
43.9481951915
 30
0.0
 10
713.4333293465
 20
44.3919171108
 30
0.0
 10
714.0572356016
 20
44.3919171108
 30
0.0
 10
714.7510172637
 20
44.3919171108
 30
0.0
 10
715.2782232834
 20
43.9896755361
 30
0.0
 10
715.2782232834
 20
43.2546752351
 30
0.0
 10
715.2782232834
 20
42.4914107245
 30
0.0
 10
714.5569625287
 20
42.0612974987
 30
0.0
 10
714.0298873618
 20
41.6455780833
 30
0.0
 10
714.0298873618
 20
41.6455780833
 30
0.0
 10
713.8631808666
 20
41.5351383016
 30
0.0
 10
713.8631808666
 20
41.5351383016
 30
0.0
  0
SPLINE
  5
262
330
227
100
AcDbEntity
  8
0
  6
Continuous
 62
     7
100
AcDbSpline
 70
     3
 71
     3
 72
    50
 73
    46
 74
     0
 42
0.000000001
 43
0.0000001
 40
0.0
 40
0.0
 40
0.0
 40
0.0
 40
1.0
 40
1.0
 40
1.0
 40
2.0
 40
2.0
 40
2.0
 40
3.0
 40
3.0
 40
3.0
 40
4.0
 40
4.0
 40
4.0
 40
5.0
 40
5.0
 40
5.0
 40
6.0
 40
6.0
 40
6.0
 40
7.0
 40
7.0
 40
7.0
 40
8.0
 40
8.0
 40
8.0
 40
9.0
 40
9.0
 40
9.0
 40
10.0
 40
10.0
 40
10.0
 40
11.0
 40
11.0
 40
11.0
 40
12.0
 40
12.0
 40
12.0
 40
13.0
 40
13.0
 40
13.0
 40
14.0
 40
14.0
 40
14.0
 40
15.0
 40
15.0
 40
15.0
 40
15.0
 10
717.8167680295
 20
34.7365490835
 30
0.0
 10
717.8167680295
 20
34.7365490835
 30
0.0
 10
719.4259960341
 20
34.7365490835
 30
0.0
 10
719.4259960341
 20
34.7365490835
 30
0.0
 10
719.4259960341
 20
34.7365490835
 30
0.0
 10
717.5529687405
 20
37.0536908549
 30
0.0
 10
717.5529687405
 20
37.0536908549
 30
0.0
 10
717.5529687405
 20
37.0536908549
 30
0.0
 10
718.8293071659
 20
38.5511705495
 30
0.0
 10
718.8293071659
 20
38.5511705495
 30
0.0
 10
718.8293071659
 20
38.5511705495
 30
0.0
 10
717.9970832182
 20
39.412182118
 30
0.0
 10
717.9970832182
 20
39.412182118
 30
0.0
 10
717.9970832182
 20
39.412182118
 30
0.0
 10
716.7764880949
 20
37.9968779956
 30
0.0
 10
716.7764880949
 20
37.9968779956
 30
0.0
 10
716.7764880949
 20
37.9968779956
 30
0.0
 10
714.5985737261
 20
40.63225383
 30
0.0
 10
714.5985737261
 20
40.63225383
 30
0.0
 10
715.4721471655
 20
41.2702921899
 30
0.0
 10
716.4988184067
 20
42.0612974987
 30
0.0
 10
716.4988184067
 20
43.2401505718
 30
0.0
 10
716.4988184067
 20
44.6138434969
 30
0.0
 10
715.3609222669
 20
45.4183266463
 30
0.0
 10
714.085630664
 20
45.4183266463
 30
0.0
 10
712.7121994446
 20
45.4183266463
 30
0.0
 10
711.6712652458
 20
44.5721014466
 30
0.0
 10
711.6712652458
 20
43.1294490845
 30
0.0
 10
711.6712652458
 20
42.241874393
 30
0.0
 10
712.2266046223
 20
41.465001189
 30
0.0
 10
712.8227700792
 20
40.8405715226
 30
0.0
 10
712.8227700792
 20
40.8405715226
 30
0.0
 10
712.1708613201
 20
40.3689779522
 30
0.0
 10
712.1708613201
 20
40.3689779522
 30
0.0
 10
711.1723234357
 20
39.6477171975
 30
0.0
 10
710.3394452239
 20
38.9264564429
 30
0.0
 10
710.3394452239
 20
37.5948981265
 30
0.0
 10
710.3394452239
 20
35.7912228285
 30
0.0
 10
711.7964913965
 20
34.5146226974
 30
0.0
 10
713.5440308338
 20
34.5146226974
 30
0.0
 10
714.7788889147
 20
34.5146226974
 30
0.0
 10
715.8882591394
 20
35.2227981699
 30
0.0
 10
716.6791335954
 20
36.1513297946
 30
0.0
 10
716.6791335954
 20
36.1513297946
 30
0.0
 10
717.8167680295
 20
34.7365490835
 30
0.0
 10
717.8167680295
 20
34.7365490835
 30
0.0
  0
LINE
  5
263
330
227
100
AcDbEntity
  8
0
  6
Continuous
 62
     7
100
AcDbLine
 10
703.6196294045
 20
32.7104239881
 30
0.0
 11
726.0335401322
 21
32.7104239881
 31
0.0
  0
LINE
  5
264
330
227
100
AcDbEntity
  8
0
  6
Continuous
 62
     7
100
AcDbLine
 10
726.0335401322
 20
32.7104239881
 30
0.0
 11
726.0335401322
 21
55.1243347157
 31
0.0
  0
LINE
  5
265
330
227
100
AcDbEntity
  8
0
  6
Continuous
 62
     7
100
AcDbLine
 10
726.0335401322
 20
55.1243347157
 30
0.0
 11
703.6196294045
 21
55.1243347157
 31
0.0
  0
LINE
  5
266
330
227
100
AcDbEntity
  8
0
  6
Continuous
 62
     7
100
AcDbLine
 10
703.6196294045
 20
55.1243347157
 30
0.0
 11
703.6196294045
 21
32.7104239881
 31
0.0
  0
ENDBLK
  5
267
330
227
100
AcDbEntity
  8
0
  6
ByBlock
 62
     0
100
AcDbBlockEnd
  0
BLOCK
  5
268
330
228
100
AcDbEntity
  8
0
100
AcDbBlockBegin
  2
PROIEZIONE_EU_BL0
 70
     0
 10
716.0004722972
 20
67.6256472157
 30
0.0
  3
PROIEZIONE_EU_BL0
  1

  0
LWPOLYLINE
  5
269
330
228
100
AcDbEntity
  8
DEFAULT_1
  6
CENTER
 62
     7
100
AcDbPolyline
 90
        2
 70
     0
 43
0.25
 10
722.1270929588
 20
72.6253413476
 10
722.1271339412
 20
62.6259530839
  0
LWPOLYLINE
  5
26A
330
228
100
AcDbEntity
  8
DEFAULT_1
  6
CENTER
 62
     7
100
AcDbPolyline
 90
        2
 70
     0
 43
0.25
 10
728.1271227839
 20
67.6259183509
 10
703.8738218104
 20
67.6256476905
  0
LWPOLYLINE
  5
26B
330
228
100
AcDbEntity
  8
0
  6
Continuous
 62
     7
100
AcDbPolyline
 90
        2
 70
     1
 43
0.25
 10
718.579982783
 20
67.6070994615
 42
1.0
 10
725.6863118817
 20
67.6070994615
 42
1.0
  0
LWPOLYLINE
  5
26C
330
228
100
AcDbEntity
  8
0
  6
Continuous
 62
     7
100
AcDbPolyline
 90
        2
 70
     1
 43
0.25
 10
720.1297266114
 20
67.6249975061
 42
1.0
 10
724.1414783615
 20
67.6249975061
 42
1.0
  0
LWPOLYLINE
  5
26D
330
228
100
AcDbEntity
  8
0
  6
Continuous
 62
     7
100
AcDbPolyline
 90
        2
 70
     0
 43
0.25
 10
716.1271205779
 20
71.200850711
 10
716.1271202233
 20
64.1006478027
  0
LWPOLYLINE
  5
26E
330
228
100
AcDbEntity
  8
0
  6
Continuous
 62
     7
100
AcDbPolyline
 90
        2
 70
     0
 43
0.25
 10
716.1271486597
 20
64.1006193663
 10
706.1325913885
 20
65.6207127791
  0
LWPOLYLINE
  5
26F
330
228
100
AcDbEntity
  8
0
  6
Continuous
 62
     7
100
AcDbPolyline
 90
        2
 70
     0
 43
0.25
 10
706.1302814029
 20
65.6200352376
 10
706.1276144988
 20
69.625673849
  0
LWPOLYLINE
  5
270
330
228
100
AcDbEntity
  8
0
  6
Continuous
 62
     7
100
AcDbPolyline
 90
        2
 70
     0
 43
0.25
 10
706.1276062227
 20
69.625665573
 10
716.12734946
 20
71.200822793
  0
ENDBLK
  5
271
330
228
100
AcDbEntity
  8
0
  6
ByBlock
 62
     0
100
AcDbBlockEnd
  0
ENDSEC
  0
SECTION
  2
ENTITIES
  0
LINE
  5
298
330
1B
100
AcDbEntity
 67
     1
  8
0
  6
Continuous
 62
     7
100
AcDbLine
 10
0.0
 20
0.0
 30
0.0
 11
841.0
 21
0.0
 31
0.0
  0
LINE
  5
299
330
1B
100
AcDbEntity
 67
     1
  8
0
  6
Continuous
 62
     7
100
AcDbLine
 10
841.0
 20
0.0
 30
0.0
 11
841.0
 21
594.0
 31
0.0
  0
LINE
  5
29A
330
1B
100
AcDbEntity
 67
     1
  8
0
  6
Continuous
 62
     7
100
AcDbLine
 10
0.0
 20
594.0
 30
0.0
 11
841.0
 21
594.0
 31
0.0
  0
LINE
  5
29B
330
1B
100
AcDbEntity
 67
     1
  8
0
  6
Continuous
 62
     7
100
AcDbLine
 10
0.0
 20
0.0
 30
0.0
 11
0.0
 21
594.0
 31
0.0
  0
LINE
  5
29C
330
1B
100
AcDbEntity
 67
     1
  8
0
  6
Continuous
 62
     7
100
AcDbLine
 10
0.0
 20
587.0
 30
0.0
 11
841.0
 21
587.0
 31
0.0
  0
LINE
  5
29D
330
1B
100
AcDbEntity
 67
     1
  8
0
  6
Continuous
 62
     7
100
AcDbLine
 10
0.0
 20
7.0
 30
0.0
 11
834.0
 21
7.0
 31
0.0
  0
LINE
  5
29E
330
1B
100
AcDbEntity
 67
     1
  8
0
  6
Continuous
 62
     7
100
AcDbLine
 10
7.0
 20
0.0
 30
0.0
 11
7.0
 21
594.0
 31
0.0
  0
LINE
  5
29F
330
1B
100
AcDbEntity
 67
     1
  8
0
  6
Continuous
 62
     7
100
AcDbLine
 10
834.0
 20
7.0
 30
0.0
 11
834.0
 21
594.0
 31
0.0
  0
LINE
  5
2A0
330
1B
100
AcDbEntity
 67
     1
  8
0
  6
Continuous
 62
     7
100
AcDbLine
 10
10.0
 20
584.0
 30
0.0
 11
831.0
 21
584.0
 31
0.0
  0
LINE
  5
2A1
330
1B
100
AcDbEntity
 67
     1
  8
0
  6
Continuous
 62
     7
100
AcDbLine
 10
10.1045326603
 20
9.9564447249
 30
0.0
 11
831.0019373863
 21
10.0005548773
 31
0.0
  0
LINE
  5
2A2
330
1B
100
AcDbEntity
 67
     1
  8
0
  6
Continuous
 62
     7
100
AcDbLine
 10
10.0
 20
10.0
 30
0.0
 11
10.0
 21
584.0
 31
0.0
  0
LINE
  5
2A3
330
1B
100
AcDbEntity
 67
     1
  8
0
  6
Continuous
 62
     7
100
AcDbLine
 10
831.0
 20
10.0
 30
0.0
 11
831.0
 21
584.0
 31
0.0
  0
LINE
  5
2A4
330
1B
100
AcDbEntity
 67
     1
  8
0
  6
Continuous
 62
     7
100
AcDbLine
 10
420.5
 20
594.0
 30
0.0
 11
420.5
 21
584.0
 31
0.0
  0
LINE
  5
2A5
330
1B
100
AcDbEntity
 67
     1
  8
0
  6
Continuous
 62
     7
100
AcDbLine
 10
420.5
 20
0.0
 30
0.0
 11
420.5
 21
10.0
 31
0.0
  0
LINE
  5
2A6
330
1B
100
AcDbEntity
 67
     1
  8
0
  6
Continuous
 62
     7
100
AcDbLine
 10
841.0
 20
297.0
 30
0.0
 11
831.0
 21
297.0
 31
0.0
  0
LINE
  5
2A7
330
1B
100
AcDbEntity
 67
     1
  8
0
  6
Continuous
 62
     7
100
AcDbLine
 10
0.0
 20
297.0
 30
0.0
 11
10.0
 21
297.0
 31
0.0
  0
LINE
  5
2A8
330
1B
100
AcDbEntity
 67
     1
  8
0
  6
Continuous
 62
     7
100
AcDbLine
 10
841.0
 20
420.5
 30
0.0
 11
831.0324714513
 21
420.5
 31
0.0
  0
LINE
  5
2A9
330
1B
100
AcDbEntity
 67
     1
  8
0
  6
Continuous
 62
     7
100
AcDbLine
 10
631.0
 20
0.0
 30
0.0
 11
631.0
 21
10.0
 31
0.0
  0
LINE
  5
2AA
330
1B
100
AcDbEntity
 67
     1
  8
0
  6
Continuous
 62
     7
100
AcDbLine
 10
834.0
 20
7.0
 30
0.0
 11
834.0
 21
0.0
 31
0.0
  0
LINE
  5
2AB
330
1B
100
AcDbEntity
 67
     1
  8
0
  6
Continuous
 62
     7
100
AcDbLine
 10
834.0
 20
7.0
 30
0.0
 11
841.0
 21
7.0
 31
0.0
  0
LINE
  5
2AC
330
1B
100
AcDbEntity
 67
     1
  8
0
  6
Continuous
 62
     7
100
AcDbLine
 10
734.0
 20
7.0
 30
0.0
 11
734.0
 21
0.0
 31
0.0
  0
LINE
  5
2AD
330
1B
100
AcDbEntity
 67
     1
  8
0
  6
Continuous
 62
     7
100
AcDbLine
 10
534.0
 20
7.0
 30
0.0
 11
534.0
 21
0.0
 31
0.0
  0
LINE
  5
2AE
330
1B
100
AcDbEntity
 67
     1
  8
0
  6
Continuous
 62
     7
100
AcDbLine
 10
434.0
 20
7.0
 30
0.0
 11
434.0
 21
0.0
 31
0.0
  0
LINE
  5
2AF
330
1B
100
AcDbEntity
 67
     1
  8
0
  6
Continuous
 62
     7
100
AcDbLine
 10
834.0
 20
107.0
 30
0.0
 11
841.0
 21
107.0
 31
0.0
  0
LINE
  5
2B0
330
1B
100
AcDbEntity
 67
     1
  8
0
  6
Continuous
 62
     7
100
AcDbLine
 10
834.0
 20
207.0
 30
0.0
 11
841.0
 21
207.0
 31
0.0
  0
LINE
  5
2B1
330
1B
100
AcDbEntity
 67
     1
  8
0
  6
Continuous
 62
     7
100
AcDbLine
 10
834.0
 20
307.0
 30
0.0
 11
841.0
 21
307.0
 31
0.0
  0
LINE
  5
2B2
330
1B
100
AcDbEntity
 67
     1
  8
0
  6
Continuous
 62
     7
100
AcDbLine
 10
631.0
 20
584.0
 30
0.0
 11
631.0
 21
594.0
 31
0.0
  0
LINE
  5
2B3
330
1B
100
AcDbEntity
 67
     1
  8
0
  6
Continuous
 62
     7
100
AcDbLine
 10
734.0
 20
594.0
 30
0.0
 11
734.0
 21
587.0
 31
0.0
  0
LINE
  5
2B4
330
1B
100
AcDbEntity
 67
     1
  8
0
  6
Continuous
 62
     7
100
AcDbLine
 10
534.0
 20
594.0
 30
0.0
 11
534.0
 21
587.0
 31
0.0
  0
LINE
  5
2B5
330
1B
100
AcDbEntity
 67
     1
  8
0
  6
Continuous
 62
     7
100
AcDbLine
 10
434.0
 20
594.0
 30
0.0
 11
434.0
 21
587.0
 31
0.0
  0
LINE
  5
2B6
330
1B
100
AcDbEntity
 67
     1
  8
0
  6
Continuous
 62
     7
100
AcDbLine
 10
334.0
 20
594.0
 30
0.0
 11
334.0
 21
587.0
 31
0.0
  0
LINE
  5
2B7
330
1B
100
AcDbEntity
 67
     1
  8
0
  6
Continuous
 62
     7
100
AcDbLine
 10
234.0
 20
594.0
 30
0.0
 11
234.0
 21
587.0
 31
0.0
  0
LINE
  5
2B8
330
1B
100
AcDbEntity
 67
     1
  8
0
  6
Continuous
 62
     7
100
AcDbLine
 10
134.0
 20
594.0
 30
0.0
 11
134.0
 21
587.0
 31
0.0
  0
LINE
  5
2B9
330
1B
100
AcDbEntity
 67
     1
  8
0
  6
Continuous
 62
     7
100
AcDbLine
 10
10.0
 20
420.5
 30
0.0
 11
0.0
 21
420.5
 31
0.0
  0
LINE
  5
2BA
330
1B
100
AcDbEntity
 67
     1
  8
0
  6
Continuous
 62
     7
100
AcDbLine
 10
0.0
 20
107.0
 30
0.0
 11
7.0
 21
107.0
 31
0.0
  0
LINE
  5
2BB
330
1B
100
AcDbEntity
 67
     1
  8
0
  6
Continuous
 62
     7
100
AcDbLine
 10
0.0
 20
207.0
 30
0.0
 11
7.0
 21
207.0
 31
0.0
  0
LINE
  5
2BC
330
1B
100
AcDbEntity
 67
     1
  8
0
  6
Continuous
 62
     7
100
AcDbLine
 10
0.0
 20
307.0
 30
0.0
 11
7.0
 21
307.0
 31
0.0
  0
LINE
  5
2BD
330
1B
100
AcDbEntity
 67
     1
  8
0
  6
Continuous
 62
     7
100
AcDbLine
 10
0.0
 20
507.0
 30
0.0
 11
7.0
 21
507.0
 31
0.0
  0
LINE
  5
2BE
330
1B
100
AcDbEntity
 67
     1
  8
0
  6
Continuous
 62
     7
100
AcDbLine
 10
334.0
 20
7.0
 30
0.0
 11
334.0
 21
0.0
 31
0.0
  0
LINE
  5
2BF
330
1B
100
AcDbEntity
 67
     1
  8
0
  6
Continuous
 62
     7
100
AcDbLine
 10
234.0
 20
7.0
 30
0.0
 11
234.0
 21
0.0
 31
0.0
  0
LINE
  5
2C0
330
1B
100
AcDbEntity
 67
     1
  8
0
  6
Continuous
 62
     7
100
AcDbLine
 10
134.0
 20
7.0
 30
0.0
 11
134.0
 21
0.0
 31
0.0
  0
LINE
  5
2C1
330
1B
100
AcDbEntity
 67
     1
  8
0
  6
Continuous
 62
     7
100
AcDbLine
 10
834.0
 20
507.0
 30
0.0
 11
841.0
 21
507.0
 31
0.0
  0
MTEXT
  5
2C2
330
1B
100
AcDbEntity
 67
     1
  8
0
  6
Continuous
 62
     2
100
AcDbMText
 10
783.154890719
 20
5.35876025
 30
0.0
 40
4.0
 41
3.6
 46
0.0
 71
     1
 72
     1
  1
A
  7
TEXTSTYLE_2
 73
     1
 44
1.0
  0
MTEXT
  5
2C3
330
1B
100
AcDbEntity
 67
     1
  8
0
  6
Continuous
 62
     2
100
AcDbMText
 10
683.154890719
 20
5.35876025
 30
0.0
 40
4.0
 41
3.6
 46
0.0
 71
     1
 72
     1
  1
B
  7
TEXTSTYLE_2
 73
     1
 44
1.0
  0
MTEXT
  5
2C4
330
1B
100
AcDbEntity
 67
     1
  8
0
  6
Continuous
 62
     2
100
AcDbMText
 10
583.154890719
 20
5.35876025
 30
0.0
 40
4.0
 41
3.6
 46
0.0
 71
     1
 72
     1
  1
C
  7
TEXTSTYLE_2
 73
     1
 44
1.0
  0
MTEXT
  5
2C5
330
1B
100
AcDbEntity
 67
     1
  8
0
  6
Continuous
 62
     2
100
AcDbMText
 10
483.154890719
 20
5.35876025
 30
0.0
 40
4.0
 41
3.6
 46
0.0
 71
     1
 72
     1
  1
D
  7
TEXTSTYLE_2
 73
     1
 44
1.0
  0
MTEXT
  5
2C6
330
1B
100
AcDbEntity
 67
     1
  8
0
  6
Continuous
 62
     2
100
AcDbMText
 10
383.154890719
 20
5.35876025
 30
0.0
 40
4.0
 41
3.6
 46
0.0
 71
     1
 72
     1
  1
E
  7
TEXTSTYLE_2
 73
     1
 44
1.0
  0
MTEXT
  5
2C7
330
1B
100
AcDbEntity
 67
     1
  8
0
  6
Continuous
 62
     2
100
AcDbMText
 10
835.6467220993
 20
60.6268709614
 30
0.0
 40
4.0
 41
3.4285714286
 46
0.0
 71
     1
 72
     1
  1
1
  7
TEXTSTYLE_3
 73
     1
 44
1.0
  0
MTEXT
  5
2C8
330
1B
100
AcDbEntity
 67
     1
  8
0
  6
Continuous
 62
     2
100
AcDbMText
 10
835.6467220993
 20
160.6268709614
 30
0.0
 40
4.0
 41
4.7142857143
 46
0.0
 71
     1
 72
     1
  1
2
  7
TEXTSTYLE_3
 73
     1
 44
1.0
  0
MTEXT
  5
2C9
330
1B
100
AcDbEntity
 67
     1
  8
0
  6
Continuous
 62
     2
100
AcDbMText
 10
835.6467220993
 20
260.6268709614
 30
0.0
 40
4.0
 41
4.2857142857
 46
0.0
 71
     1
 72
     1
  1
3
  7
TEXTSTYLE_3
 73
     1
 44
1.0
  0
MTEXT
  5
2CA
330
1B
100
AcDbEntity
 67
     1
  8
0
  6
Continuous
 62
     2
100
AcDbMText
 10
835.6467220993
 20
360.6268709614
 30
0.0
 40
4.0
 41
4.7142857143
 46
0.0
 71
     1
 72
     1
  1
4
  7
TEXTSTYLE_3
 73
     1
 44
1.0
  0
MTEXT
  5
2CB
330
1B
100
AcDbEntity
 67
     1
  8
0
  6
Continuous
 62
     2
100
AcDbMText
 10
835.6467220993
 20
460.6268709614
 30
0.0
 40
4.0
 41
4.2857142857
 46
0.0
 71
     1
 72
     1
  1
5
  7
TEXTSTYLE_3
 73
     1
 44
1.0
  0
MTEXT
  5
2CC
330
1B
100
AcDbEntity
 67
     1
  8
0
  6
Continuous
 62
     2
100
AcDbMText
 10
783.154890719
 20
592.35876025
 30
0.0
 40
4.0
 41
3.6
 46
0.0
 71
     1
 72
     1
  1
A
  7
TEXTSTYLE_2
 73
     1
 44
1.0
  0
MTEXT
  5
2CD
330
1B
100
AcDbEntity
 67
     1
  8
0
  6
Continuous
 62
     2
100
AcDbMText
 10
683.154890719
 20
592.35876025
 30
0.0
 40
4.0
 41
3.6
 46
0.0
 71
     1
 72
     1
  1
B
  7
TEXTSTYLE_2
 73
     1
 44
1.0
  0
MTEXT
  5
2CE
330
1B
100
AcDbEntity
 67
     1
  8
0
  6
Continuous
 62
     2
100
AcDbMText
 10
583.154890719
 20
592.35876025
 30
0.0
 40
4.0
 41
3.6
 46
0.0
 71
     1
 72
     1
  1
C
  7
TEXTSTYLE_2
 73
     1
 44
1.0
  0
MTEXT
  5
2CF
330
1B
100
AcDbEntity
 67
     1
  8
0
  6
Continuous
 62
     2
100
AcDbMText
 10
483.154890719
 20
592.35876025
 30
0.0
 40
4.0
 41
3.6
 46
0.0
 71
     1
 72
     1
  1
D
  7
TEXTSTYLE_2
 73
     1
 44
1.0
  0
MTEXT
  5
2D0
330
1B
100
AcDbEntity
 67
     1
  8
0
  6
Continuous
 62
     2
100
AcDbMText
 10
383.154890719
 20
592.35876025
 30
0.0
 40
4.0
 41
3.6
 46
0.0
 71
     1
 72
     1
  1
E
  7
TEXTSTYLE_2
 73
     1
 44
1.0
  0
MTEXT
  5
2D1
330
1B
100
AcDbEntity
 67
     1
  8
0
  6
Continuous
 62
     2
100
AcDbMText
 10
283.154890719
 20
592.35876025
 30
0.0
 40
4.0
 41
3.6
 46
0.0
 71
     1
 72
     1
  1
F
  7
TEXTSTYLE_2
 73
     1
 44
1.0
  0
MTEXT
  5
2D2
330
1B
100
AcDbEntity
 67
     1
  8
0
  6
Continuous
 62
     2
100
AcDbMText
 10
183.154890719
 20
592.35876025
 30
0.0
 40
4.0
 41
3.6
 46
0.0
 71
     1
 72
     1
  1
G
  7
TEXTSTYLE_2
 73
     1
 44
1.0
  0
MTEXT
  5
2D3
330
1B
100
AcDbEntity
 67
     1
  8
0
  6
Continuous
 62
     2
100
AcDbMText
 10
59.5777362717
 20
592.35876025
 30
0.0
 40
4.0
 41
3.6
 46
0.0
 71
     1
 72
     1
  1
H
  7
TEXTSTYLE_2
 73
     1
 44
1.0
  0
MTEXT
  5
2D4
330
1B
100
AcDbEntity
 67
     1
  8
0
  6
Continuous
 62
     2
100
AcDbMText
 10
1.6467220993
 20
60.6268709614
 30
0.0
 40
4.0
 41
3.4285714286
 46
0.0
 71
     1
 72
     1
  1
1
  7
TEXTSTYLE_3
 73
     1
 44
1.0
  0
MTEXT
  5
2D5
330
1B
100
AcDbEntity
 67
     1
  8
0
  6
Continuous
 62
     2
100
AcDbMText
 10
1.6467220993
 20
160.6268709614
 30
0.0
 40
4.0
 41
4.7142857143
 46
0.0
 71
     1
 72
     1
  1
2
  7
TEXTSTYLE_3
 73
     1
 44
1.0
  0
MTEXT
  5
2D6
330
1B
100
AcDbEntity
 67
     1
  8
0
  6
Continuous
 62
     2
100
AcDbMText
 10
1.6467220993
 20
260.6268709614
 30
0.0
 40
4.0
 41
4.2857142857
 46
0.0
 71
     1
 72
     1
  1
3
  7
TEXTSTYLE_3
 73
     1
 44
1.0
  0
MTEXT
  5
2D7
330
1B
100
AcDbEntity
 67
     1
  8
0
  6
Continuous
 62
     2
100
AcDbMText
 10
1.6467220993
 20
360.6268709614
 30
0.0
 40
4.0
 41
4.7142857143
 46
0.0
 71
     1
 72
     1
  1
4
  7
TEXTSTYLE_3
 73
     1
 44
1.0
  0
MTEXT
  5
2D8
330
1B
100
AcDbEntity
 67
     1
  8
0
  6
Continuous
 62
     2
100
AcDbMText
 10
1.6467220993
 20
460.6268709614
 30
0.0
 40
4.0
 41
4.2857142857
 46
0.0
 71
     1
 72
     1
  1
5
  7
TEXTSTYLE_3
 73
     1
 44
1.0
  0
MTEXT
  5
2D9
330
1B
100
AcDbEntity
 67
     1
  8
0
  6
Continuous
 62
     2
100
AcDbMText
 10
1.6467220993
 20
560.6268709614
 30
0.0
 40
4.0
 41
4.7142857143
 46
0.0
 71
     1
 72
     1
  1
6
  7
TEXTSTYLE_3
 73
     1
 44
1.0
  0
MTEXT
  5
2DA
330
1B
100
AcDbEntity
 67
     1
  8
0
  6
Continuous
 62
     2
100
AcDbMText
 10
283.154890719
 20
5.35876025
 30
0.0
 40
4.0
 41
3.6
 46
0.0
 71
     1
 72
     1
  1
F
  7
TEXTSTYLE_2
 73
     1
 44
1.0
  0
MTEXT
  5
2DB
330
1B
100
AcDbEntity
 67
     1
  8
0
  6
Continuous
 62
     2
100
AcDbMText
 10
183.154890719
 20
5.35876025
 30
0.0
 40
4.0
 41
3.6
 46
0.0
 71
     1
 72
     1
  1
G
  7
TEXTSTYLE_2
 73
     1
 44
1.0
  0
MTEXT
  5
2DC
330
1B
100
AcDbEntity
 67
     1
  8
0
  6
Continuous
 62
     2
100
AcDbMText
 10
59.5777362717
 20
5.35876025
 30
0.0
 40
4.0
 41
3.6
 46
0.0
 71
     1
 72
     1
  1
H
  7
TEXTSTYLE_2
 73
     1
 44
1.0
  0
MTEXT
  5
2DD
330
1B
100
AcDbEntity
 67
     1
  8
0
  6
Continuous
 62
     2
100
AcDbMText
 10
835.6467220993
 20
560.6268709614
 30
0.0
 40
4.0
 41
4.7142857143
 46
0.0
 71
     1
 72
     1
  1
6
  7
TEXTSTYLE_3
 73
     1
 44
1.0
  0
VIEWPORT
  5
2DE
330
1B
100
AcDbEntity
 67
     1
  8
0
100
AcDbViewport
 10
0.0
 20
0.0
 30
0.0
 40
990.1540856031129
 41
700.1803891050583
 68
     1
 69
     1
 12
468.0350194552529
 22
297.0
 13
0.0
 23
0.0
 14
1.0
 24
1.0
 15
0.0
 25
0.0
 16
0.0
 26
0.0
 36
1.0
 17
0.0
 27
0.0
 37
0.0
 42
50.0
 43
0.0
 44
0.0
 45
700.1803891050583
 50
0.0
 51
0.0
 72
   100
 90
   557216
  1

281
     0
 71
     1
 74
     0
110
0.0
120
0.0
130
0.0
111
1.0
121
0.0
131
0.0
112
0.0
122
1.0
132
0.0
 79
     0
146
0.0
170
     0
 61
     5
348
4C3
292
     1
282
     1
141
0.0
142
0.0
 63
   256
  0
ARC
  5
2DF
330
1B
100
AcDbEntity
 67
     1
  8
02___PRT_ALL_AXES
  6
Continuous
 62
     7
100
AcDbCircle
 10
238.0085105847
 20
170.4802828881
 30
0.0
 40
135.0
100
AcDbArc
 50
0.0
 51
180.0
  0
ARC
  5
2E0
330
1B
100
AcDbEntity
 67
     1
  8
02___PRT_ALL_AXES
  6
Continuous
 62
     7
100
AcDbCircle
 10
238.0085105847
 20
170.4802828881
 30
0.0
 40
135.0
100
AcDbArc
 50
180.0
 51
360.0
  0
LINE
  5
2E1
330
1B
100
AcDbEntity
 67
     1
  8
7_ALL_FEATURES
  6
Continuous
 62
     7
100
AcDbLine
 10
353.0085105847
 20
511.1204739919
 30
0.0
 11
349.5085105847
 21
511.1204739919
 31
0.0
  0
LINE
  5
2E2
330
1B
100
AcDbEntity
 67
     1
  8
7_ALL_FEATURES
  6
Continuous
 62
     7
100
AcDbLine
 10
356.5085105847
 20
511.1204739919
 30
0.0
 11
353.0085105847
 21
511.1204739919
 31
0.0
  0
LINE
  5
2E3
330
1B
100
AcDbEntity
 67
     1
  8
7_ALL_FEATURES
  6
Continuous
 62
     7
100
AcDbLine
 10
349.5085105847
 20
527.6204739919
 30
0.0
 11
349.5085105847
 21
511.1204739919
 31
0.0
  0
LINE
  5
2E4
330
1B
100
AcDbEntity
 67
     1
  8
7_ALL_FEATURES
  6
Continuous
 62
     7
100
AcDbLine
 10
356.5085105847
 20
527.6204739919
 30
0.0
 11
356.5085105847
 21
511.1204739919
 31
0.0
  0
LINE
  5
2E5
330
1B
100
AcDbEntity
 67
     1
  8
7_ALL_FEATURES
  6
Continuous
 62
     7
100
AcDbLine
 10
353.0085105847
 20
527.6204739919
 30
0.0
 11
353.0085105847
 21
511.1204739919
 31
0.0
  0
LINE
  5
2E6
330
1B
100
AcDbEntity
 67
     1
  8
7_ALL_FEATURES
  6
Continuous
 62
     7
100
AcDbLine
 10
177.0085105847
 20
527.6204739919
 30
0.0
 11
177.0085105847
 21
511.1204739919
 31
0.0
  0
LINE
  5
2E7
330
1B
100
AcDbEntity
 67
     1
  8
7_ALL_FEATURES
  6
Continuous
 62
     7
100
AcDbLine
 10
180.5085105847
 20
511.1204739919
 30
0.0
 11
177.0085105847
 21
511.1204739919
 31
0.0
  0
LINE
  5
2E8
330
1B
100
AcDbEntity
 67
     1
  8
7_ALL_FEATURES
  6
Continuous
 62
     7
100
AcDbLine
 10
184.0085105847
 20
511.1204739919
 30
0.0
 11
180.5085105847
 21
511.1204739919
 31
0.0
  0
LINE
  5
2E9
330
1B
100
AcDbEntity
 67
     1
  8
7_ALL_FEATURES
  6
Continuous
 62
     7
100
AcDbLine
 10
184.0085105847
 20
527.6204739919
 30
0.0
 11
184.0085105847
 21
511.1204739919
 31
0.0
  0
LINE
  5
2EA
330
1B
100
AcDbEntity
 67
     1
  8
7_ALL_FEATURES
  6
Continuous
 62
     7
100
AcDbLine
 10
180.5085105847
 20
527.6204739919
 30
0.0
 11
180.5085105847
 21
511.1204739919
 31
0.0
  0
LINE
  5
2EB
330
1B
100
AcDbEntity
 67
     1
  8
7_ALL_FEATURES
  6
Continuous
 62
     7
100
AcDbLine
 10
364.0085105847
 20
527.6204739919
 30
0.0
 11
344.7585094584
 21
527.6204739919
 31
0.0
  0
LINE
  5
2EC
330
1B
100
AcDbEntity
 67
     1
  8
7_ALL_FEATURES
  6
Continuous
 62
     7
100
AcDbLine
 10
344.7585094584
 20
527.6204739919
 30
0.0
 11
343.258509561
 21
527.6204739919
 31
0.0
  0
LINE
  5
2ED
330
1B
100
AcDbEntity
 67
     1
  8
7_ALL_FEATURES
  6
Continuous
 62
     7
100
AcDbLine
 10
343.258509561
 20
527.6204739919
 30
0.0
 11
341.6053261604
 21
527.6204739919
 31
0.0
  0
LINE
  5
2EE
330
1B
100
AcDbEntity
 67
     1
  8
7_ALL_FEATURES
  6
Continuous
 62
     7
100
AcDbLine
 10
341.6053261604
 20
527.6204739919
 30
0.0
 11
341.1892349696
 21
527.6204739919
 31
0.0
  0
LINE
  5
2EF
330
1B
100
AcDbEntity
 67
     1
  8
7_ALL_FEATURES
  6
Continuous
 62
     7
100
AcDbLine
 10
341.1892349696
 20
527.6204739919
 30
0.0
 11
340.6029243091
 21
527.6204739919
 31
0.0
  0
LINE
  5
2F0
330
1B
100
AcDbEntity
 67
     1
  8
7_ALL_FEATURES
  6
Continuous
 62
     7
100
AcDbLine
 10
340.6029243091
 20
527.6204739919
 30
0.0
 11
340.4192710027
 21
527.6204739919
 31
0.0
  0
LINE
  5
2F1
330
1B
100
AcDbEntity
 67
     1
  8
7_ALL_FEATURES
  6
Continuous
 62
     7
100
AcDbLine
 10
340.4192710027
 20
527.6204739919
 30
0.0
 11
340.2267785313
 21
527.6204739919
 31
0.0
  0
LINE
  5
2F2
330
1B
100
AcDbEntity
 67
     1
  8
7_ALL_FEATURES
  6
Continuous
 62
     7
100
AcDbLine
 10
340.2267785313
 20
527.6204739919
 30
0.0
 11
340.156195566
 21
527.6204739919
 31
0.0
  0
LINE
  5
2F3
330
1B
100
AcDbEntity
 67
     1
  8
7_ALL_FEATURES
  6
Continuous
 62
     7
100
AcDbLine
 10
340.156195566
 20
527.6204739919
 30
0.0
 11
267.1106275766
 21
527.6204739919
 31
0.0
  0
LINE
  5
2F4
330
1B
100
AcDbEntity
 67
     1
  8
7_ALL_FEATURES
  6
Continuous
 62
     7
100
AcDbLine
 10
267.1106275766
 20
527.6204739919
 30
0.0
 11
265.2492150817
 21
527.6204739919
 31
0.0
  0
LINE
  5
2F5
330
1B
100
AcDbEntity
 67
     1
  8
7_ALL_FEATURES
  6
Continuous
 62
     7
100
AcDbLine
 10
265.2492150817
 20
527.6204739919
 30
0.0
 11
212.2546312154
 21
527.6204739919
 31
0.0
  0
LINE
  5
2F6
330
1B
100
AcDbEntity
 67
     1
  8
7_ALL_FEATURES
  6
Continuous
 62
     7
100
AcDbLine
 10
212.2546312154
 20
527.6204739919
 30
0.0
 11
208.9019099491
 21
527.6204739919
 31
0.0
  0
LINE
  5
2F7
330
1B
100
AcDbEntity
 67
     1
  8
7_ALL_FEATURES
  6
Continuous
 62
     7
100
AcDbLine
 10
208.9019099491
 20
527.6204739919
 30
0.0
 11
208.5136165766
 21
527.6204739919
 31
0.0
  0
LINE
  5
2F8
330
1B
100
AcDbEntity
 67
     1
  8
7_ALL_FEATURES
  6
Continuous
 62
     7
100
AcDbLine
 10
208.5136165766
 20
527.6204739919
 30
0.0
 11
184.1085105847
 21
527.6204739919
 31
0.0
  0
LINE
  5
2F9
330
1B
100
AcDbEntity
 67
     1
  8
7_ALL_FEATURES
  6
Continuous
 62
     7
100
AcDbLine
 10
184.1085105847
 20
527.6204739919
 30
0.0
 11
180.5085105847
 21
527.6204739919
 31
0.0
  0
LINE
  5
2FA
330
1B
100
AcDbEntity
 67
     1
  8
7_ALL_FEATURES
  6
Continuous
 62
     7
100
AcDbLine
 10
180.5085105847
 20
527.6204739919
 30
0.0
 11
176.9085105847
 21
527.6204739919
 31
0.0
  0
LINE
  5
2FB
330
1B
100
AcDbEntity
 67
     1
  8
7_ALL_FEATURES
  6
Continuous
 62
     7
100
AcDbLine
 10
176.9085105847
 20
527.6204739919
 30
0.0
 11
135.8608256034
 21
527.6204739919
 31
0.0
  0
LINE
  5
2FC
330
1B
100
AcDbEntity
 67
     1
  8
7_ALL_FEATURES
  6
Continuous
 62
     7
100
AcDbLine
 10
135.8608256034
 20
527.6204739919
 30
0.0
 11
132.7585127871
 21
527.6204739919
 31
0.0
  0
LINE
  5
2FD
330
1B
100
AcDbEntity
 67
     1
  8
7_ALL_FEATURES
  6
Continuous
 62
     7
100
AcDbLine
 10
132.7585127871
 20
527.6204739919
 30
0.0
 11
131.2585129037
 21
527.6204739919
 31
0.0
  0
LINE
  5
2FE
330
1B
100
AcDbEntity
 67
     1
  8
7_ALL_FEATURES
  6
Continuous
 62
     7
100
AcDbLine
 10
131.2585129037
 20
527.6204739919
 30
0.0
 11
112.0085105847
 21
527.6204739919
 31
0.0
  0
ARC
  5
2FF
330
1B
100
AcDbEntity
 67
     1
  8
7_ALL_FEATURES
  6
Continuous
 62
     7
100
AcDbCircle
 10
364.0085105847
 20
530.6204739919
 30
0.0
 40
3.0
100
AcDbArc
 50
270.0
 51
360.0
  0
ARC
  5
300
330
1B
100
AcDbEntity
 67
     1
  8
7_ALL_FEATURES
  6
Continuous
 62
     7
100
AcDbCircle
 10
112.0085105847
 20
530.6204739919
 30
0.0
 40
3.0
100
AcDbArc
 50
180.0
 51
270.0
  0
SPLINE
  5
301
330
1B
100
AcDbEntity
 67
     1
  8
7_ALL_FEATURES
  6
Continuous
 62
     7
100
AcDbSpline
 70
     0
 71
     3
 72
     9
 73
     5
 74
     0
 42
0.000000001
 43
0.0000001
 40
0.0
 40
0.0
 40
0.0
 40
0.0
 40
0.4971257288
 40
1.0
 40
1.0
 40
1.0
 40
1.0
 10
202.6830473518
 20
552.6204739919
 30
0.0
 10
202.8082791966
 20
552.6204739919
 30
0.0
 10
203.0628213031
 20
552.5678958638
 30
0.0
 10
203.2752551031
 20
552.4188538429
 30
0.0
 10
203.3631017972
 20
552.3275807731
 30
0.0
  0
ELLIPSE
  5
302
330
1B
100
AcDbEntity
 67
     1
  8
7_ALL_FEATURES
  6
Continuous
 62
     7
100
AcDbEllipse
 10
238.0085105847
 20
550.6204739919
 30
0.0
 11
-126.4092198252
 21
126.4092198252
 31
0.0
210
0.0
220
0.0
230
1.0
 40
0.1316524976
 41
1.42650716
 42
1.4383204532
  0
LINE
  5
303
330
1B
100
AcDbEntity
 67
     1
  8
7_ALL_FEATURES
  6
Continuous
 62
     7
100
AcDbLine
 10
367.0085105847
 20
552.6204739919
 30
0.0
 11
367.0085105847
 21
530.6204739919
 31
0.0
  0
LINE
  5
304
330
1B
100
AcDbEntity
 67
     1
  8
7_ALL_FEATURES
  6
Continuous
 62
     7
100
AcDbLine
 10
109.0085105847
 20
530.6204739919
 30
0.0
 11
109.0085105847
 21
552.6204739919
 31
0.0
  0
ELLIPSE
  5
305
330
1B
100
AcDbEntity
 67
     1
  8
7_ALL_FEATURES
  6
Continuous
 62
     7
100
AcDbEllipse
 10
238.0085105847
 20
550.6204739919
 30
0.0
 11
127.8963871172
 21
127.8963871172
 31
0.0
210
0.0
220
0.0
230
1.0
 40
0.1316524976
 41
-4.5947230587
 42
-4.5814892865
  0
SPLINE
  5
306
330
1B
100
AcDbEntity
 67
     1
  8
7_ALL_FEATURES
  6
Continuous
 62
     7
100
AcDbSpline
 70
     0
 71
     3
 72
     9
 73
     5
 74
     0
 42
0.000000001
 43
0.0000001
 40
0.0
 40
0.0
 40
0.0
 40
0.0
 40
0.498033256
 40
1.0
 40
1.0
 40
1.0
 40
1.0
 10
206.9586524386
 20
552.6204739919
 30
0.0
 10
206.8322993782
 20
552.6204739919
 30
0.0
 10
206.575948151
 20
552.5681773536
 30
0.0
 10
206.3613544601
 20
552.4190219086
 30
0.0
 10
206.2727158876
 20
552.3275807731
 30
0.0
  0
SPLINE
  5
307
330
1B
100
AcDbEntity
 67
     1
  8
7_ALL_FEATURES
  6
Continuous
 62
     7
100
AcDbSpline
 70
     0
 71
     3
 72
    12
 73
     8
 74
     0
 42
0.000000001
 43
0.0000001
 40
0.0
 40
0.0
 40
0.0
 40
0.0
 40
0.3549998813
 40
0.6362115212
 40
0.749083652
 40
0.8450315583
 40
1.0
 40
1.0
 40
1.0
 40
1.0
 10
362.1601994313
 20
552.3275807731
 30
0.0
 10
362.1487514515
 20
552.3697305109
 30
0.0
 10
362.1248698519
 20
552.4443990214
 30
0.0
 10
362.0848511914
 20
552.5281197013
 30
0.0
 10
362.0484879859
 20
552.5765981943
 30
0.0
 10
362.0161453266
 20
552.6074898455
 30
0.0
 10
361.9853410209
 20
552.6204739919
 30
0.0
 10
361.9662747762
 20
552.6204739919
 30
0.0
  0
ELLIPSE
  5
308
330
1B
100
AcDbEntity
 67
     1
  8
7_ALL_FEATURES
  6
Continuous
 62
     7
100
AcDbEllipse
 10
238.0085105847
 20
550.6204739919
 30
0.0
 11
-102.3425808976
 21
102.3425808976
 31
0.0
210
0.0
220
0.0
230
1.0
 40
0.767326988
 41
-2.2252947963
 42
-2.2120610241
  0
LINE
  5
309
330
1B
100
AcDbEntity
 67
     1
  8
7_ALL_FEATURES
  6
Continuous
 62
     9
100
AcDbLine
 10
202.9748388313
 20
552.3275807731
 30
0.0
 11
203.3631017972
 21
552.3275807731
 31
0.0
  0
ELLIPSE
  5
30A
330
1B
100
AcDbEntity
 67
     1
  8
7_ALL_FEATURES
  6
Continuous
 62
     7
100
AcDbEllipse
 10
238.0085105847
 20
550.6204739919
 30
0.0
 11
102.3425808976
 21
102.3425808976
 31
0.0
210
0.0
220
0.0
230
1.0
 40
0.767326988
 41
-0.9162978573
 42
-0.9030640851
  0
SPLINE
  5
30B
330
1B
100
AcDbEntity
 67
     1
  8
7_ALL_FEATURES
  6
Continuous
 62
     7
100
AcDbSpline
 70
     0
 71
     3
 72
    11
 73
     7
 74
     0
 42
0.000000001
 43
0.0000001
 40
0.0
 40
0.0
 40
0.0
 40
0.0
 40
0.3412383185
 40
0.4755727566
 40
0.6306216205
 40
1.0
 40
1.0
 40
1.0
 40
1.0
 10
363.215963674
 20
552.6204739919
 30
0.0
 10
363.1759890896
 20
552.6204739919
 30
0.0
 10
363.1322488441
 20
552.5647178528
 30
0.0
 10
363.1001900855
 20
552.5008233792
 30
0.0
 10
363.0710052162
 20
552.4285679053
 30
0.0
 10
363.0542008449
 20
552.3695987803
 30
0.0
 10
363.0438629253
 20
552.3275807731
 30
0.0
  0
LINE
  5
30C
330
1B
100
AcDbEntity
 67
     1
  8
7_ALL_FEATURES
  6
Continuous
 62
     9
100
AcDbLine
 10
367.0085105847
 20
530.6204739919
 30
0.0
 11
365.5085105847
 21
530.6204739919
 31
0.0
  0
LINE
  5
30D
330
1B
100
AcDbEntity
 67
     1
  8
7_ALL_FEATURES
  6
Continuous
 62
     9
100
AcDbLine
 10
365.5085105847
 20
530.6204739919
 30
0.0
 11
110.5085105847
 21
530.6204739919
 31
0.0
  0
LINE
  5
30E
330
1B
100
AcDbEntity
 67
     1
  8
7_ALL_FEATURES
  6
Continuous
 62
     9
100
AcDbLine
 10
110.5085105847
 20
530.6204739919
 30
0.0
 11
109.0085105847
 21
530.6204739919
 31
0.0
  0
SPLINE
  5
30F
330
1B
100
AcDbEntity
 67
     1
  8
7_ALL_FEATURES
  6
Continuous
 62
     7
100
AcDbSpline
 70
     0
 71
     3
 72
     9
 73
     5
 74
     0
 42
0.000000001
 43
0.0000001
 40
0.0
 40
0.0
 40
0.0
 40
0.0
 40
0.502868517
 40
1.0
 40
1.0
 40
1.0
 40
1.0
 10
202.9748388313
 20
552.3275807731
 30
0.0
 10
202.8869875789
 20
552.4188547566
 30
0.0
 10
202.674541177
 20
552.5678974807
 30
0.0
 10
202.4199884815
 20
552.6204739919
 30
0.0
 10
202.2947499784
 20
552.6204739919
 30
0.0
  0
ELLIPSE
  5
310
330
1B
100
AcDbEntity
 67
     1
  8
7_ALL_FEATURES
  6
Continuous
 62
     7
100
AcDbEllipse
 10
238.0085105847
 20
550.6204739919
 30
0.0
 11
-127.8963871172
 21
127.8963871172
 31
0.0
210
0.0
220
0.0
230
1.0
 40
0.1316524976
 41
1.4266628607
 42
1.4398966329
  0
LINE
  5
311
330
1B
100
AcDbEntity
 67
     1
  8
7_ALL_FEATURES
  6
Continuous
 62
     9
100
AcDbLine
 10
362.1601994313
 20
552.3275807731
 30
0.0
 11
363.0438629253
 21
552.3275807731
 31
0.0
  0
LINE
  5
312
330
1B
100
AcDbEntity
 67
     1
  8
02___PRT_ALL_AXES
  6
Continuous
 62
     7
100
AcDbLine
 10
373.0085105847
 20
552.6204739919
 30
0.0
 11
367.0085105847
 21
552.6204739919
 31
0.0
  0
LINE
  5
313
330
1B
100
AcDbEntity
 67
     1
  8
02___PRT_ALL_AXES
  6
Continuous
 62
     7
100
AcDbLine
 10
367.0085105847
 20
552.6204739919
 30
0.0
 11
365.5085105847
 21
552.6204739919
 31
0.0
  0
LINE
  5
314
330
1B
100
AcDbEntity
 67
     1
  8
02___PRT_ALL_AXES
  6
Continuous
 62
     7
100
AcDbLine
 10
365.5085105847
 20
552.6204739919
 30
0.0
 11
363.215963674
 21
552.6204739919
 31
0.0
  0
LINE
  5
315
330
1B
100
AcDbEntity
 67
     1
  8
02___PRT_ALL_AXES
  6
Continuous
 62
     7
100
AcDbLine
 10
363.215963674
 20
552.6204739919
 30
0.0
 11
361.9662747762
 21
552.6204739919
 31
0.0
  0
LINE
  5
316
330
1B
100
AcDbEntity
 67
     1
  8
02___PRT_ALL_AXES
  6
Continuous
 62
     7
100
AcDbLine
 10
361.9662747762
 20
552.6204739919
 30
0.0
 11
361.7668181482
 21
552.6204739919
 31
0.0
  0
LINE
  5
317
330
1B
100
AcDbEntity
 67
     1
  8
02___PRT_ALL_AXES
  6
Continuous
 62
     7
100
AcDbLine
 10
361.7668181482
 20
552.6204739919
 30
0.0
 11
360.5171292504
 21
552.6204739919
 31
0.0
  0
LINE
  5
318
330
1B
100
AcDbEntity
 67
     1
  8
02___PRT_ALL_AXES
  6
Continuous
 62
     7
100
AcDbLine
 10
360.5171292504
 20
552.6204739919
 30
0.0
 11
328.0085105847
 21
552.6204739919
 31
0.0
  0
LINE
  5
319
330
1B
100
AcDbEntity
 67
     1
  8
02___PRT_ALL_AXES
  6
Continuous
 62
     7
100
AcDbLine
 10
328.0085105847
 20
552.6204739919
 30
0.0
 11
326.5085105847
 21
552.6204739919
 31
0.0
  0
LINE
  5
31A
330
1B
100
AcDbEntity
 67
     1
  8
02___PRT_ALL_AXES
  6
Continuous
 62
     7
100
AcDbLine
 10
326.5085105847
 20
552.6204739919
 30
0.0
 11
322.7085105847
 21
552.6204739919
 31
0.0
  0
LINE
  5
31B
330
1B
100
AcDbEntity
 67
     1
  8
02___PRT_ALL_AXES
  6
Continuous
 62
     7
100
AcDbLine
 10
322.7085105847
 20
552.6204739919
 30
0.0
 11
283.2085105847
 21
552.6204739919
 31
0.0
  0
LINE
  5
31C
330
1B
100
AcDbEntity
 67
     1
  8
02___PRT_ALL_AXES
  6
Continuous
 62
     7
100
AcDbLine
 10
283.2085105847
 20
552.6204739919
 30
0.0
 11
279.4085105847
 21
552.6204739919
 31
0.0
  0
LINE
  5
31D
330
1B
100
AcDbEntity
 67
     1
  8
02___PRT_ALL_AXES
  6
Continuous
 62
     7
100
AcDbLine
 10
279.4085105847
 20
552.6204739919
 30
0.0
 11
273.3339738176
 21
552.6204739919
 31
0.0
  0
LINE
  5
31E
330
1B
100
AcDbEntity
 67
     1
  8
02___PRT_ALL_AXES
  6
Continuous
 62
     7
100
AcDbLine
 10
273.3339738176
 20
552.6204739919
 30
0.0
 11
268.6700713574
 21
552.6204739919
 31
0.0
  0
LINE
  5
31F
330
1B
100
AcDbEntity
 67
     1
  8
02___PRT_ALL_AXES
  6
Continuous
 62
     7
100
AcDbLine
 10
268.6700713574
 20
552.6204739919
 30
0.0
 11
207.3469498119
 21
552.6204739919
 31
0.0
  0
LINE
  5
320
330
1B
100
AcDbEntity
 67
     1
  8
02___PRT_ALL_AXES
  6
Continuous
 62
     7
100
AcDbLine
 10
207.3469498119
 20
552.6204739919
 30
0.0
 11
206.9586524386
 21
552.6204739919
 31
0.0
  0
LINE
  5
321
330
1B
100
AcDbEntity
 67
     1
  8
02___PRT_ALL_AXES
  6
Continuous
 62
     7
100
AcDbLine
 10
206.9586524386
 20
552.6204739919
 30
0.0
 11
202.6830473518
 21
552.6204739919
 31
0.0
  0
LINE
  5
322
330
1B
100
AcDbEntity
 67
     1
  8
02___PRT_ALL_AXES
  6
Continuous
 62
     7
100
AcDbLine
 10
202.6830473518
 20
552.6204739919
 30
0.0
 11
202.2947499784
 21
552.6204739919
 31
0.0
  0
LINE
  5
323
330
1B
100
AcDbEntity
 67
     1
  8
02___PRT_ALL_AXES
  6
Continuous
 62
     7
100
AcDbLine
 10
202.2947499784
 20
552.6204739919
 30
0.0
 11
196.6085105847
 21
552.6204739919
 31
0.0
  0
LINE
  5
324
330
1B
100
AcDbEntity
 67
     1
  8
02___PRT_ALL_AXES
  6
Continuous
 62
     7
100
AcDbLine
 10
196.6085105847
 20
552.6204739919
 30
0.0
 11
192.8085105847
 21
552.6204739919
 31
0.0
  0
LINE
  5
325
330
1B
100
AcDbEntity
 67
     1
  8
02___PRT_ALL_AXES
  6
Continuous
 62
     7
100
AcDbLine
 10
192.8085105847
 20
552.6204739919
 30
0.0
 11
153.3085105847
 21
552.6204739919
 31
0.0
  0
LINE
  5
326
330
1B
100
AcDbEntity
 67
     1
  8
02___PRT_ALL_AXES
  6
Continuous
 62
     7
100
AcDbLine
 10
153.3085105847
 20
552.6204739919
 30
0.0
 11
149.5085105847
 21
552.6204739919
 31
0.0
  0
LINE
  5
327
330
1B
100
AcDbEntity
 67
     1
  8
02___PRT_ALL_AXES
  6
Continuous
 62
     7
100
AcDbLine
 10
149.5085105847
 20
552.6204739919
 30
0.0
 11
148.0085105847
 21
552.6204739919
 31
0.0
  0
LINE
  5
328
330
1B
100
AcDbEntity
 67
     1
  8
02___PRT_ALL_AXES
  6
Continuous
 62
     7
100
AcDbLine
 10
148.0085105847
 20
552.6204739919
 30
0.0
 11
110.5085105847
 21
552.6204739919
 31
0.0
  0
LINE
  5
329
330
1B
100
AcDbEntity
 67
     1
  8
02___PRT_ALL_AXES
  6
Continuous
 62
     7
100
AcDbLine
 10
110.5085105847
 20
552.6204739919
 30
0.0
 11
109.0085105847
 21
552.6204739919
 31
0.0
  0
LINE
  5
32A
330
1B
100
AcDbEntity
 67
     1
  8
02___PRT_ALL_AXES
  6
Continuous
 62
     7
100
AcDbLine
 10
109.0085105847
 20
552.6204739919
 30
0.0
 11
103.0085105847
 21
552.6204739919
 31
0.0
  0
LINE
  5
32B
330
1B
100
AcDbEntity
 67
     1
  8
02___PRT_ALL_AXES
  6
Continuous
 62
     7
100
AcDbLine
 10
373.0085105847
 20
554.6204739919
 30
0.0
 11
373.0085105847
 21
552.6204739919
 31
0.0
  0
LINE
  5
32C
330
1B
100
AcDbEntity
 67
     1
  8
02___PRT_ALL_AXES
  6
Continuous
 62
     7
100
AcDbLine
 10
103.0085105847
 20
554.6204739919
 30
0.0
 11
103.0085105847
 21
552.6204739919
 31
0.0
  0
LINE
  5
32D
330
1B
100
AcDbEntity
 67
     1
  8
02___PRT_ALL_AXES
  6
Continuous
 62
     7
100
AcDbLine
 10
373.0085105847
 20
554.6204739919
 30
0.0
 11
103.0085105847
 21
554.6204739919
 31
0.0
  0
SPLINE
  5
32E
330
1B
100
AcDbEntity
 67
     1
  8
02___PRT_ALL_AXES
  6
Continuous
 62
     7
100
AcDbSpline
 70
     0
 71
     3
 72
    17
 73
    13
 74
     0
 42
0.000000001
 43
0.0000001
 40
0.0
 40
0.0
 40
0.0
 40
0.0
 40
0.0261047946
 40
0.0546246598
 40
0.0872724749
 40
0.1251142057
 40
0.2182324717
 40
0.335419584
 40
0.4753280093
 40
0.6352351012
 40
0.8115301798
 40
1.0
 40
1.0
 40
1.0
 40
1.0
 10
341.121092541
 20
526.1204739919
 30
0.0
 10
341.1066743123
 20
526.1204739916
 30
0.0
 10
341.0763427516
 20
526.1255437112
 30
0.0
 10
341.0327051236
 20
526.1472017806
 30
0.0
 10
340.9901369962
 20
526.1820802886
 30
0.0
 10
340.9306478323
 20
526.2505046322
 30
0.0
 10
340.8617886105
 20
526.3701922031
 30
0.0
 10
340.7898869889
 20
526.5500627129
 30
0.0
 10
340.7258562038
 20
526.771639616
 30
0.0
 10
340.6717479719
 20
527.029157047
 30
0.0
 10
340.6293591968
 20
527.3159788257
 30
0.0
 10
340.6103328986
 20
527.5166421066
 30
0.0
 10
340.6029243091
 20
527.6204739919
 30
0.0
  0
LINE
  5
32F
330
1B
100
AcDbEntity
 67
     1
  8
02___PRT_ALL_AXES
  6
Continuous
 62
     7
100
AcDbLine
 10
210.37957752
 20
353.6204739919
 30
0.0
 11
265.2492150817
 21
353.6204739919
 31
0.0
  0
LINE
  5
330
330
1B
100
AcDbEntity
 67
     1
  8
02___PRT_ALL_AXES
  6
Continuous
 62
     7
100
AcDbLine
 10
265.2492150817
 20
353.6204739919
 30
0.0
 11
343.2585040939
 21
353.6204739919
 31
0.0
  0
LINE
  5
331
330
1B
100
AcDbEntity
 67
     1
  8
02___PRT_ALL_AXES
  6
Continuous
 62
     7
100
AcDbLine
 10
343.2585040939
 20
353.6204739919
 30
0.0
 11
344.7585040014
 21
353.6204739919
 31
0.0
  0
LINE
  5
332
330
1B
100
AcDbEntity
 67
     1
  8
02___PRT_ALL_AXES
  6
Continuous
 62
     7
100
AcDbLine
 10
131.2585171679
 20
353.6204739919
 30
0.0
 11
132.7585170754
 21
353.6204739919
 31
0.0
  0
LINE
  5
333
330
1B
100
AcDbEntity
 67
     1
  8
02___PRT_ALL_AXES
  6
Continuous
 62
     7
100
AcDbLine
 10
132.7585170754
 20
353.6204739919
 30
0.0
 11
210.37957752
 21
353.6204739919
 31
0.0
  0
SPLINE
  5
334
330
1B
100
AcDbEntity
 67
     1
  8
02___PRT_ALL_AXES
  6
Continuous
 62
     7
100
AcDbSpline
 70
     0
 71
     3
 72
    19
 73
    15
 74
     0
 42
0.000000001
 43
0.0000001
 40
0.0
 40
0.0
 40
0.0
 40
0.0
 40
0.0630544899
 40
0.126105543
 40
0.1891504474
 40
0.2521838816
 40
0.3780401406
 40
0.503707721
 40
0.5664813635
 40
0.6291277611
 40
0.6916102099
 40
0.7538895212
 40
0.8775467755
 40
1.0
 40
1.0
 40
1.0
 40
1.0
 10
231.4524569414
 20
383.1204739919
 30
0.0
 10
231.4362559582
 20
382.4446155339
 30
0.0
 10
231.3380183103
 20
381.0935872704
 30
0.0
 10
230.9950549108
 20
379.0917470297
 30
0.0
 10
230.4604194325
 20
377.1322699413
 30
0.0
 10
229.50162387
 20
374.6032837764
 30
0.0
 10
227.8584608461
 20
371.6333317193
 30
0.0
 10
225.6905799059
 20
369.026149925
 30
0.0
 10
223.6955208445
 20
367.2138015176
 30
0.0
 10
222.0825096302
 20
366.0017363555
 30
0.0
 10
220.36807561
 20
364.9480291447
 30
0.0
 10
217.9754656803
 20
363.7702465787
 30
0.0
 10
214.8133638448
 20
362.7351765353
 30
0.0
 10
212.1753641341
 20
362.408298193
 30
0.0
 10
210.8628435016
 20
362.3763571593
 30
0.0
  0
LINE
  5
335
330
1B
100
AcDbEntity
 67
     1
  8
02___PRT_ALL_AXES
  6
Continuous
 62
     7
100
AcDbLine
 10
230.9433922945
 20
383.1204739919
 30
0.0
 11
231.4524569414
 21
383.1204739919
 31
0.0
  0
LINE
  5
336
330
1B
100
AcDbEntity
 67
     1
  8
02___PRT_ALL_AXES
  6
Continuous
 62
     7
100
AcDbLine
 10
131.2585105847
 20
353.6204739919
 30
0.0
 11
131.2585105847
 21
527.6204739919
 31
0.0
  0
LINE
  5
337
330
1B
100
AcDbEntity
 67
     1
  8
02___PRT_ALL_AXES
  6
Continuous
 62
     7
100
AcDbLine
 10
344.7585105847
 20
353.6204739919
 30
0.0
 11
344.7585105847
 21
527.6204739919
 31
0.0
  0
SPLINE
  5
338
330
1B
100
AcDbEntity
 67
     1
  8
02___PRT_ALL_AXES
  6
Continuous
 62
     7
100
AcDbSpline
 70
     0
 71
     3
 72
    19
 73
    15
 74
     0
 42
0.000000001
 43
0.0000001
 40
0.0
 40
0.0
 40
0.0
 40
0.0
 40
0.1224532243
 40
0.2461104786
 40
0.3083897899
 40
0.3708722387
 40
0.4335186362
 40
0.4962922787
 40
0.6219598591
 40
0.7478161185
 40
0.8108495524
 40
0.8738944568
 40
0.9369455098
 40
1.0
 40
1.0
 40
1.0
 40
1.0
 10
210.8628435016
 20
404.8645908246
 30
0.0
 10
212.1753641317
 20
404.832649791
 30
0.0
 10
214.8133638395
 20
404.5057714495
 30
0.0
 10
217.9754656726
 20
403.4707014081
 30
0.0
 10
220.3680756024
 20
402.2929188435
 30
0.0
 10
222.0825096227
 20
401.2392116334
 30
0.0
 10
223.6955208374
 20
400.0271464722
 30
0.0
 10
225.6905798995
 20
398.2147980656
 30
0.0
 10
227.8584608432
 20
395.6076162695
 30
0.0
 10
229.5016238678
 20
392.637664212
 30
0.0
 10
230.4604194308
 20
390.1086780471
 30
0.0
 10
230.9950549091
 20
388.1492009621
 30
0.0
 10
231.3380183099
 20
386.147360719
 30
0.0
 10
231.4362559581
 20
384.7963324528
 30
0.0
 10
231.4524569414
 20
384.1204739919
 30
0.0
  0
LINE
  5
339
330
1B
100
AcDbEntity
 67
     1
  8
02___PRT_ALL_AXES
  6
Continuous
 62
     7
100
AcDbLine
 10
230.9433922945
 20
384.1204739919
 30
0.0
 11
231.4524569414
 21
384.1204739919
 31
0.0
  0
SPLINE
  5
33A
330
1B
100
AcDbEntity
 67
     1
  8
02___PRT_ALL_AXES
  6
Continuous
 62
     7
100
AcDbSpline
 70
     0
 71
     3
 72
    21
 73
    17
 74
     0
 42
0.000000001
 43
0.0000001
 40
0.0
 40
0.0
 40
0.0
 40
0.0
 40
0.0248221973
 40
0.0388264945
 40
0.054118932
 40
0.0889731873
 40
0.129926898
 40
0.1770734658
 40
0.2302696066
 40
0.2892264262
 40
0.3535611367
 40
0.4228266983
 40
0.4965293928
 40
0.6550491734
 40
0.8245486305
 40
1.0
 40
1.0
 40
1.0
 40
1.0
 10
340.9905519516
 20
362.3763571593
 30
0.0
 10
340.8013670523
 20
362.3932652845
 30
0.0
 10
340.5096168561
 20
362.4763778153
 30
0.0
 10
340.1404957578
 20
362.664618928
 30
0.0
 10
339.7298996209
 20
362.9355937778
 30
0.0
 10
339.2075200921
 20
363.4021529112
 30
0.0
 10
338.5933312348
 20
364.1172202148
 30
0.0
 10
337.9739187758
 20
365.0052264512
 30
0.0
 10
337.3584341927
 20
366.0585998017
 30
0.0
 10
336.7566615126
 20
367.2685842552
 30
0.0
 10
336.1788529085
 20
368.6248240154
 30
0.0
 10
335.6352428639
 20
370.1158055635
 30
0.0
 10
334.9529528123
 20
372.3203931078
 30
0.0
 10
334.2559423027
 20
375.3191767187
 30
0.0
 10
333.7165176404
 20
379.1382856407
 30
0.0
 10
333.5746116161
 20
381.7780005233
 30
0.0
 10
333.5602362347
 20
383.1204739919
 30
0.0
  0
LINE
  5
33B
330
1B
100
AcDbEntity
 67
     1
  8
02___PRT_ALL_AXES
  6
Continuous
 62
     7
100
AcDbLine
 10
333.5602362347
 20
383.1204739919
 30
0.0
 11
333.7865842693
 21
383.1204739919
 31
0.0
  0
SPLINE
  5
33C
330
1B
100
AcDbEntity
 67
     1
  8
02___PRT_ALL_AXES
  6
Continuous
 62
     7
100
AcDbSpline
 70
     0
 71
     3
 72
    21
 73
    17
 74
     0
 42
0.000000001
 43
0.0000001
 40
0.0
 40
0.0
 40
0.0
 40
0.0
 40
0.1754513693
 40
0.3449508266
 40
0.5034706074
 40
0.5771733019
 40
0.6464388635
 40
0.7107735741
 40
0.7697303937
 40
0.8229265345
 40
0.8700731022
 40
0.9110268126
 40
0.9458810678
 40
0.9611735053
 40
0.9751778026
 40
1.0
 40
1.0
 40
1.0
 40
1.0
 10
333.5602362347
 20
384.1204739919
 30
0.0
 10
333.5746116161
 20
385.4629474594
 30
0.0
 10
333.7165176403
 20
388.1026623419
 30
0.0
 10
334.2559423026
 20
391.921771265
 30
0.0
 10
334.9529528128
 20
394.9205548784
 30
0.0
 10
335.6352428652
 20
397.1251424244
 30
0.0
 10
336.1788529106
 20
398.6161239737
 30
0.0
 10
336.7566615153
 20
399.9723637348
 30
0.0
 10
337.3584341962
 20
401.1823481887
 30
0.0
 10
337.9739187792
 20
402.2357215382
 30
0.0
 10
338.5933312366
 20
403.1237277712
 30
0.0
 10
339.2075200914
 20
403.8387950716
 30
0.0
 10
339.7298996179
 20
404.3053542037
 30
0.0
 10
340.1404957546
 20
404.576329054
 30
0.0
 10
340.5096168538
 20
404.7645701679
 30
0.0
 10
340.8013670513
 20
404.8476826993
 30
0.0
 10
340.9905519516
 20
404.8645908246
 30
0.0
  0
LINE
  5
33D
330
1B
100
AcDbEntity
 67
     1
  8
02___PRT_ALL_AXES
  6
Continuous
 62
     7
100
AcDbLine
 10
333.5602362347
 20
384.1204739919
 30
0.0
 11
333.7865842693
 21
384.1204739919
 31
0.0
  0
LINE
  5
33E
330
1B
100
AcDbEntity
 67
     1
  8
02___PRT_ALL_AXES
  6
Continuous
 62
     7
100
AcDbLine
 10
344.5244558865
 20
383.1204739919
 30
0.0
 11
344.5570003
 21
383.1204739919
 31
0.0
  0
SPLINE
  5
33F
330
1B
100
AcDbEntity
 67
     1
  8
02___PRT_ALL_AXES
  6
Continuous
 62
     7
100
AcDbSpline
 70
     0
 71
     3
 72
    22
 73
    18
 74
     0
 42
0.000000001
 43
0.0000001
 40
0.0
 40
0.0
 40
0.0
 40
0.0
 40
0.0118591896
 40
0.0239044021
 40
0.0499629062
 40
0.064655138
 40
0.08071387
 40
0.1174135982
 40
0.1607227446
 40
0.2108065704
 40
0.2675590921
 40
0.3306983507
 40
0.399817877
 40
0.4744156989
 40
0.63764506
 40
0.8149484435
 40
1.0
 40
1.0
 40
1.0
 40
1.0
 10
341.2493709967
 20
362.876498963
 30
0.0
 10
341.3328152242
 20
362.8844082425
 30
0.0
 10
341.4999560704
 20
362.9165007119
 30
0.0
 10
341.8293969029
 20
363.0487909687
 30
0.0
 10
342.1302371425
 20
363.281983607
 30
0.0
 10
342.3940663939
 20
363.5850604253
 30
0.0
 10
342.6658222058
 20
363.9779630817
 30
0.0
 10
342.9700410952
 20
364.5883263078
 30
0.0
 10
343.2763555504
 20
365.4567129946
 30
0.0
 10
343.5407969239
 20
366.4854982083
 30
0.0
 10
343.7655969438
 20
367.6661967383
 30
0.0
 10
343.9534483683
 20
368.9891901703
 30
0.0
 10
344.1075698548
 20
370.4432916195
 30
0.0
 10
344.2776669064
 20
372.606244911
 30
0.0
 10
344.4158797981
 20
375.5376440974
 30
0.0
 10
344.5024043477
 20
379.2514968174
 30
0.0
 10
344.5223289044
 20
381.812570665
 30
0.0
 10
344.5244558865
 20
383.1204739919
 30
0.0
  0
LINE
  5
340
330
1B
100
AcDbEntity
 67
     1
  8
02___PRT_ALL_AXES
  6
Continuous
 62
     7
100
AcDbLine
 10
341.2493709967
 20
362.3763571593
 30
0.0
 11
341.2493709967
 21
362.876498963
 31
0.0
  0
LINE
  5
341
330
1B
100
AcDbEntity
 67
     1
  8
02___PRT_ALL_AXES
  6
Continuous
 62
     7
100
AcDbLine
 10
341.2493709967
 20
404.3644490208
 30
0.0
 11
341.2493709967
 21
404.8645908246
 31
0.0
  0
SPLINE
  5
342
330
1B
100
AcDbEntity
 67
     1
  8
02___PRT_ALL_AXES
  6
Continuous
 62
     7
100
AcDbSpline
 70
     0
 71
     3
 72
    22
 73
    18
 74
     0
 42
0.000000001
 43
0.0000001
 40
0.0
 40
0.0
 40
0.0
 40
0.0
 40
0.1850515566
 40
0.3623549399
 40
0.5255843009
 40
0.6001821227
 40
0.669301649
 40
0.7324409075
 40
0.7891934292
 40
0.839277255
 40
0.8825864016
 40
0.9192861301
 40
0.9353448622
 40
0.950037094
 40
0.976095598
 40
0.9881408104
 40
1.0
 40
1.0
 40
1.0
 40
1.0
 10
344.5244558865
 20
384.1204739919
 30
0.0
 10
344.5223289044
 20
385.4283773198
 30
0.0
 10
344.5024043476
 20
387.9894511671
 30
0.0
 10
344.4158797981
 20
391.7033038857
 30
0.0
 10
344.2776669066
 20
394.6347030691
 30
0.0
 10
344.1075698553
 20
396.7976563587
 30
0.0
 10
343.9534483691
 20
398.2517578067
 30
0.0
 10
343.765596945
 20
399.5747512379
 30
0.0
 10
343.5407969258
 20
400.7554497674
 30
0.0
 10
343.2763555523
 20
401.7842349824
 30
0.0
 10
342.9700410968
 20
402.6526216732
 30
0.0
 10
342.6658222054
 20
403.2629849033
 30
0.0
 10
342.3940663917
 20
403.6558875616
 30
0.0
 10
342.1302371397
 20
403.9589643794
 30
0.0
 10
341.8293969004
 20
404.1921570162
 30
0.0
 10
341.4999560691
 20
404.3244472727
 30
0.0
 10
341.3328152238
 20
404.3565397414
 30
0.0
 10
341.2493709967
 20
404.3644490208
 30
0.0
  0
LINE
  5
343
330
1B
100
AcDbEntity
 67
     1
  8
02___PRT_ALL_AXES
  6
Continuous
 62
     7
100
AcDbLine
 10
344.5244558865
 20
384.1204739919
 30
0.0
 11
344.5570003
 21
384.1204739919
 31
0.0
  0
SPLINE
  5
344
330
1B
100
AcDbEntity
 67
     1
  8
7_ALL_FEATURES
  6
Continuous
 62
     7
100
AcDbSpline
 70
     0
 71
     3
 72
    15
 73
    11
 74
     0
 42
0.000000001
 43
0.0000001
 40
0.0
 40
0.0
 40
0.0
 40
0.0
 40
0.1264829393
 40
0.2528129359
 40
0.3788563224
 40
0.504465558
 40
0.6294879048
 40
0.7537884488
 40
0.877286741
 40
1.0
 40
1.0
 40
1.0
 40
1.0
 10
220.395884912
 20
383.1204739919
 30
0.0
 10
220.3655060922
 20
382.4927135152
 30
0.0
 10
220.1896417974
 20
381.2405123119
 30
0.0
 10
219.5906915108
 20
379.4453013253
 30
0.0
 10
218.6787437549
 20
377.7913514347
 30
0.0
 10
217.4869011386
 20
376.3347905958
 30
0.0
 10
216.0574268712
 20
375.1238875864
 30
0.0
 10
214.4398513757
 20
374.1992334632
 30
0.0
 10
212.6908437171
 20
373.592421684
 30
0.0
 10
211.4718310352
 20
373.4134290857
 30
0.0
 10
210.8628435016
 20
373.3826763772
 30
0.0
  0
LINE
  5
345
330
1B
100
AcDbEntity
 67
     1
  8
7_ALL_FEATURES
  6
Continuous
 62
     7
100
AcDbLine
 10
220.1479435946
 20
383.1204739919
 30
0.0
 11
220.395884912
 21
383.1204739919
 31
0.0
  0
SPLINE
  5
346
330
1B
100
AcDbEntity
 67
     1
  8
7_ALL_FEATURES
  6
Continuous
 62
     7
100
AcDbSpline
 70
     0
 71
     3
 72
    15
 73
    11
 74
     0
 42
0.000000001
 43
0.0000001
 40
0.0
 40
0.0
 40
0.0
 40
0.0
 40
0.1227132603
 40
0.2462115519
 40
0.370512095
 40
0.4955344434
 40
0.6211436774
 40
0.7471870648
 40
0.873517062
 40
1.0
 40
1.0
 40
1.0
 40
1.0
 10
210.8628435016
 20
393.8582716067
 30
0.0
 10
211.4718310417
 20
393.8275188979
 30
0.0
 10
212.6908437275
 20
393.6485262983
 30
0.0
 10
214.4398513841
 20
393.0417145158
 30
0.0
 10
216.0574268796
 20
392.1170603924
 30
0.0
 10
217.4869011425
 20
390.9061573841
 30
0.0
 10
218.6787437599
 20
389.4495965407
 30
0.0
 10
219.5906915156
 20
387.7956466499
 30
0.0
 10
220.1896417988
 20
386.0004356614
 30
0.0
 10
220.3655060925
 20
384.748234462
 30
0.0
 10
220.395884912
 20
384.1204739919
 30
0.0
  0
LINE
  5
347
330
1B
100
AcDbEntity
 67
     1
  8
7_ALL_FEATURES
  6
Continuous
 62
     7
100
AcDbLine
 10
220.1479435946
 20
384.1204739919
 30
0.0
 11
220.395884912
 21
384.1204739919
 31
0.0
  0
SPLINE
  5
348
330
1B
100
AcDbEntity
 67
     1
  8
7_ALL_FEATURES
  6
Continuous
 62
     7
100
AcDbSpline
 70
     0
 71
     3
 72
    19
 73
    15
 74
     0
 42
0.000000001
 43
0.0000001
 40
0.0
 40
0.0
 40
0.0
 40
0.0
 40
0.0252899417
 40
0.0546992196
 40
0.0894031823
 40
0.1299657026
 40
0.1765704285
 40
0.229163944
 40
0.2875375011
 40
0.3513735924
 40
0.4937410103
 40
0.6524262804
 40
0.822856765
 40
1.0
 40
1.0
 40
1.0
 40
1.0
 10
340.9905519516
 20
373.3826763772
 30
0.0
 10
340.9030792276
 20
373.3988987277
 30
0.0
 10
340.71981966
 20
373.4680106746
 30
0.0
 10
340.4620550213
 20
373.6519700808
 30
0.0
 10
340.2049193147
 20
373.9176325318
 30
0.0
 10
339.9497455969
 20
374.2632654064
 30
0.0
 10
339.6984467121
 20
374.6865774037
 30
0.0
 10
339.4538163544
 20
375.1844910178
 30
0.0
 10
339.2187792406
 20
375.7531127988
 30
0.0
 10
338.9110403852
 20
376.6318881387
 30
0.0
 10
338.5768838353
 20
377.8731148493
 30
0.0
 10
338.2714731586
 20
379.5047360673
 30
0.0
 10
338.0669399701
 20
381.2751978777
 30
0.0
 10
338.006770522
 20
382.4974163013
 30
0.0
 10
337.9960629261
 20
383.1204739919
 30
0.0
  0
LINE
  5
349
330
1B
100
AcDbEntity
 67
     1
  8
7_ALL_FEATURES
  6
Continuous
 62
     7
100
AcDbLine
 10
337.9960629261
 20
383.1204739919
 30
0.0
 11
338.0838542042
 21
383.1204739919
 31
0.0
  0
SPLINE
  5
34A
330
1B
100
AcDbEntity
 67
     1
  8
7_ALL_FEATURES
  6
Continuous
 62
     7
100
AcDbSpline
 70
     0
 71
     3
 72
    19
 73
    15
 74
     0
 42
0.000000001
 43
0.0000001
 40
0.0
 40
0.0
 40
0.0
 40
0.0
 40
0.1771432376
 40
0.3475737243
 40
0.5062589925
 40
0.6486264111
 40
0.7124625007
 40
0.7708360572
 40
0.8234295734
 40
0.8700342986
 40
0.9105968181
 40
0.9453007813
 40
0.9747100589
 40
1.0
 40
1.0
 40
1.0
 40
1.0
 10
337.9960629261
 20
384.1204739919
 30
0.0
 10
338.0067705222
 20
384.7435316916
 30
0.0
 10
338.0669399718
 20
385.965750132
 30
0.0
 10
338.2714731638
 20
387.7362119519
 30
0.0
 10
338.5768838438
 20
389.3678331725
 30
0.0
 10
338.9110403937
 20
390.6090598728
 30
0.0
 10
339.2187792487
 20
391.4878352066
 30
0.0
 10
339.4538163617
 20
392.0564569821
 30
0.0
 10
339.6984467195
 20
392.5543705935
 30
0.0
 10
339.9497456039
 20
392.9776825878
 30
0.0
 10
340.2049193203
 20
393.3233154587
 30
0.0
 10
340.4620550264
 20
393.5889779073
 30
0.0
 10
340.7198196649
 20
393.7729373118
 30
0.0
 10
340.9030792297
 20
393.8420492566
 30
0.0
 10
340.9905519516
 20
393.8582716067
 30
0.0
  0
LINE
  5
34B
330
1B
100
AcDbEntity
 67
     1
  8
7_ALL_FEATURES
  6
Continuous
 62
     7
100
AcDbLine
 10
337.9960629261
 20
384.1204739919
 30
0.0
 11
338.0838542042
 21
384.1204739919
 31
0.0
  0
LINE
  5
34C
330
1B
100
AcDbEntity
 67
     1
  8
7_ALL_FEATURES
  6
Continuous
 62
     7
100
AcDbLine
 10
343.253760581
 20
383.1204739919
 30
0.0
 11
343.2955369313
 21
383.1204739919
 31
0.0
  0
SPLINE
  5
34D
330
1B
100
AcDbEntity
 67
     1
  8
7_ALL_FEATURES
  6
Continuous
 62
     7
100
AcDbSpline
 70
     0
 71
     3
 72
    19
 73
    15
 74
     0
 42
0.000000001
 43
0.0000001
 40
0.0
 40
0.0
 40
0.0
 40
0.0
 40
0.0245212415
 40
0.0523030714
 40
0.0850251034
 40
0.1236000998
 40
0.1684288171
 40
0.2195917252
 40
0.276961655
 40
0.340266912
 40
0.4830580931
 40
0.6440145068
 40
0.8181943668
 40
1.0
 40
1.0
 40
1.0
 40
1.0
 10
341.2493709967
 20
373.6329818142
 30
0.0
 10
341.3296018349
 20
373.6487767361
 30
0.0
 10
341.4950629579
 20
373.7152918376
 30
0.0
 10
341.7163856324
 20
373.8971609199
 30
0.0
 10
341.9219480771
 20
374.158108033
 30
0.0
 10
342.1129924377
 20
374.496138573
 30
0.0
 10
342.289909766
 20
374.9092397266
 30
0.0
 10
342.4523558318
 20
375.3946142997
 30
0.0
 10
342.6000215928
 20
375.9485888781
 30
0.0
 10
342.7841892391
 20
376.8079283569
 30
0.0
 10
342.9677694327
 20
378.0191287225
 30
0.0
 10
343.1226918397
 20
379.6057859257
 30
0.0
 10
343.2206677791
 20
381.3272324017
 30
0.0
 10
343.2486602552
 20
382.5142294192
 30
0.0
 10
343.253760581
 20
383.1204739919
 30
0.0
  0
LINE
  5
34E
330
1B
100
AcDbEntity
 67
     1
  8
7_ALL_FEATURES
  6
Continuous
 62
     7
100
AcDbLine
 10
341.2493709967
 20
373.3826763772
 30
0.0
 11
341.2493709967
 21
373.6329818142
 31
0.0
  0
LINE
  5
34F
330
1B
100
AcDbEntity
 67
     1
  8
7_ALL_FEATURES
  6
Continuous
 62
     7
100
AcDbLine
 10
341.2493709967
 20
393.6079661697
 30
0.0
 11
341.2493709967
 21
393.8582716067
 31
0.0
  0
SPLINE
  5
350
330
1B
100
AcDbEntity
 67
     1
  8
7_ALL_FEATURES
  6
Continuous
 62
     7
100
AcDbSpline
 70
     0
 71
     3
 72
    19
 73
    15
 74
     0
 42
0.000000001
 43
0.0000001
 40
0.0
 40
0.0
 40
0.0
 40
0.0
 40
0.1818056341
 40
0.3559854933
 40
0.5169419078
 40
0.6597330871
 40
0.7230383452
 40
0.7804082753
 40
0.8315711822
 40
0.8763998998
 40
0.9149748968
 40
0.947696928
 40
0.975478758
 40
1.0
 40
1.0
 40
1.0
 40
1.0
 10
343.253760581
 20
384.1204739919
 30
0.0
 10
343.2486602552
 20
384.7267185675
 30
0.0
 10
343.2206677789
 20
385.9137155854
 30
0.0
 10
343.1226918393
 20
387.6351620644
 30
0.0
 10
342.9677694325
 20
389.2218192618
 30
0.0
 10
342.7841892389
 20
390.4330196277
 30
0.0
 10
342.600021593
 20
391.2923591052
 30
0.0
 10
342.4523558319
 20
391.8463336841
 30
0.0
 10
342.2899097668
 20
392.3317082554
 30
0.0
 10
342.112992439
 20
392.7448094082
 30
0.0
 10
341.9219480784
 20
393.0828399489
 30
0.0
 10
341.7163856344
 20
393.3437870622
 30
0.0
 10
341.4950629609
 20
393.5256561444
 30
0.0
 10
341.3296018364
 20
393.5921712475
 30
0.0
 10
341.2493709967
 20
393.6079661697
 30
0.0
  0
LINE
  5
351
330
1B
100
AcDbEntity
 67
     1
  8
7_ALL_FEATURES
  6
Continuous
 62
     7
100
AcDbLine
 10
343.253760581
 20
384.1204739919
 30
0.0
 11
343.2955369313
 21
384.1204739919
 31
0.0
  0
SPLINE
  5
352
330
1B
100
AcDbEntity
 67
     1
  8
02___PRT_ALL_AXES
  6
Continuous
 62
     7
100
AcDbSpline
 70
     0
 71
     3
 72
    11
 73
     7
 74
     0
 42
0.000000001
 43
0.0000001
 40
0.0
 40
0.0
 40
0.0
 40
0.0
 40
0.2535974397
 40
0.5048535332
 40
0.753420443
 40
1.0
 40
1.0
 40
1.0
 40
1.0
 10
212.2546312154
 20
527.6204739919
 30
0.0
 10
212.2017240442
 20
527.409363324
 30
0.0
 10
212.0276283656
 20
527.0029265724
 30
0.0
 10
211.5887140485
 20
526.5128371159
 30
0.0
 10
211.0195561165
 20
526.1942818564
 30
0.0
 10
210.5911940585
 20
526.1204739919
 30
0.0
 10
210.37957752
 20
526.1204739919
 30
0.0
  0
LINE
  5
353
330
1B
100
AcDbEntity
 67
     1
  8
02___PRT_ALL_AXES
  6
Continuous
 62
     7
100
AcDbLine
 10
209.8969176753
 20
362.3763571593
 30
0.0
 11
209.8969176753
 21
362.876498963
 31
0.0
  0
SPLINE
  5
354
330
1B
100
AcDbEntity
 67
     1
  8
02___PRT_ALL_AXES
  6
Continuous
 62
     7
100
AcDbSpline
 70
     0
 71
     3
 72
    15
 73
    11
 74
     0
 42
0.000000001
 43
0.0000001
 40
0.0
 40
0.0
 40
0.0
 40
0.0
 40
0.1287030154
 40
0.2564302553
 40
0.3826319654
 40
0.5072173001
 40
0.6305474072
 40
0.7532957534
 40
0.8762320673
 40
1.0
 40
1.0
 40
1.0
 40
1.0
 10
190.8691098538
 20
383.1204739919
 30
0.0
 10
190.8981097019
 20
381.8050648051
 30
0.0
 10
191.1847540128
 20
379.1834038281
 30
0.0
 10
192.2896988207
 20
375.4105096527
 30
0.0
 10
194.0354396058
 20
371.932530851
 30
0.0
 10
196.3699731024
 20
368.8740467003
 30
0.0
 10
199.223324768
 20
366.3437615782
 30
0.0
 10
202.5069781024
 20
364.4350484188
 30
0.0
 10
206.1094863758
 20
363.2212448463
 30
0.0
 10
208.6320348686
 20
362.9081020813
 30
0.0
 10
209.8969176753
 20
362.876498963
 30
0.0
  0
LINE
  5
355
330
1B
100
AcDbEntity
 67
     1
  8
02___PRT_ALL_AXES
  6
Continuous
 62
     7
100
AcDbLine
 10
190.4119747306
 20
383.1204739919
 30
0.0
 11
190.8082436825
 21
383.1204739919
 31
0.0
  0
LINE
  5
356
330
1B
100
AcDbEntity
 67
     1
  8
02___PRT_ALL_AXES
  6
Continuous
 62
     7
100
AcDbLine
 10
190.8082436825
 20
383.1204739919
 30
0.0
 11
190.8691098538
 21
383.1204739919
 31
0.0
  0
SPLINE
  5
357
330
1B
100
AcDbEntity
 67
     1
  8
02___PRT_ALL_AXES
  6
Continuous
 62
     7
100
AcDbSpline
 70
     0
 71
     3
 72
    15
 73
    11
 74
     0
 42
0.000000001
 43
0.0000001
 40
0.0
 40
0.0
 40
0.0
 40
0.0
 40
0.123767933
 40
0.246704247
 40
0.3694525934
 40
0.4927827006
 40
0.6173680354
 40
0.743569745
 40
0.8712969847
 40
1.0
 40
1.0
 40
1.0
 40
1.0
 10
209.8969176753
 20
404.3644490208
 30
0.0
 10
208.6320348652
 20
404.3328459025
 30
0.0
 10
206.1094863676
 20
404.0197031362
 30
0.0
 10
202.5069780894
 20
402.8058995596
 30
0.0
 10
199.2233247535
 20
400.8971863955
 30
0.0
 10
196.369973088
 20
398.3669012683
 30
0.0
 10
194.0354395965
 20
395.3084171172
 30
0.0
 10
192.2896988168
 20
391.8304383192
 30
0.0
 10
191.1847540122
 20
388.0575441512
 30
0.0
 10
190.8981097019
 20
385.4358831773
 30
0.0
 10
190.8691098538
 20
384.1204739919
 30
0.0
  0
LINE
  5
358
330
1B
100
AcDbEntity
 67
     1
  8
02___PRT_ALL_AXES
  6
Continuous
 62
     7
100
AcDbLine
 10
209.8969176753
 20
404.3644490208
 30
0.0
 11
209.8969176753
 21
404.8645908246
 31
0.0
  0
LINE
  5
359
330
1B
100
AcDbEntity
 67
     1
  8
02___PRT_ALL_AXES
  6
Continuous
 62
     7
100
AcDbLine
 10
190.4119747306
 20
384.1204739919
 30
0.0
 11
190.8082436825
 21
384.1204739919
 31
0.0
  0
LINE
  5
35A
330
1B
100
AcDbEntity
 67
     1
  8
02___PRT_ALL_AXES
  6
Continuous
 62
     7
100
AcDbLine
 10
190.8082436825
 20
384.1204739919
 30
0.0
 11
190.8691098538
 21
384.1204739919
 31
0.0
  0
LINE
  5
35B
330
1B
100
AcDbEntity
 67
     1
  8
7_ALL_FEATURES
  6
Continuous
 62
     7
100
AcDbLine
 10
209.8969176753
 20
373.3826763772
 30
0.0
 11
209.8969176753
 21
373.6329818142
 31
0.0
  0
SPLINE
  5
35C
330
1B
100
AcDbEntity
 67
     1
  8
7_ALL_FEATURES
  6
Continuous
 62
     7
100
AcDbSpline
 70
     0
 71
     3
 72
    16
 73
    12
 74
     0
 42
0.000000001
 43
0.0000001
 40
0.0
 40
0.0
 40
0.0
 40
0.0
 40
0.1277594511
 40
0.1914922908
 40
0.2550183661
 40
0.3811888742
 40
0.5062635584
 40
0.6303416997
 40
0.7537157913
 40
0.876793337
 40
1.0
 40
1.0
 40
1.0
 40
1.0
 10
200.8535903259
 20
383.1204739919
 30
0.0
 10
200.8823867329
 20
382.509593301
 30
0.0
 10
201.0052344865
 20
381.5950959617
 30
0.0
 10
201.3247344684
 20
380.4157483454
 30
0.0
 10
201.7437577353
 20
379.2758175804
 30
0.0
 10
202.4502003808
 20
377.9350920857
 30
0.0
 10
203.5665182043
 20
376.5148012918
 30
0.0
 10
204.9156585429
 20
375.3328166682
 30
0.0
 10
206.4549189927
 20
374.4299755866
 30
0.0
 10
208.1333195813
 20
373.8376032926
 30
0.0
 10
209.3079444395
 20
373.6635458525
 30
0.0
 10
209.8969176753
 20
373.6329818142
 30
0.0
  0
LINE
  5
35D
330
1B
100
AcDbEntity
 67
     1
  8
7_ALL_FEATURES
  6
Continuous
 62
     7
100
AcDbLine
 10
200.6179786712
 20
383.1204739919
 30
0.0
 11
200.8535903259
 21
383.1204739919
 31
0.0
  0
SPLINE
  5
35E
330
1B
100
AcDbEntity
 67
     1
  8
7_ALL_FEATURES
  6
Continuous
 62
     7
100
AcDbSpline
 70
     0
 71
     3
 72
    16
 73
    12
 74
     0
 42
0.000000001
 43
0.0000001
 40
0.0
 40
0.0
 40
0.0
 40
0.0
 40
0.1232066617
 40
0.246284208
 40
0.3696583004
 40
0.4937364402
 40
0.6188111259
 40
0.7449816331
 40
0.8085077094
 40
0.8722405475
 40
1.0
 40
1.0
 40
1.0
 40
1.0
 10
209.8969176753
 20
393.6079661697
 30
0.0
 10
209.3079444458
 20
393.5774021317
 30
0.0
 10
208.1333195914
 20
393.4033446927
 30
0.0
 10
206.4549190007
 20
392.810972402
 30
0.0
 10
204.9156585508
 20
391.9081313206
 30
0.0
 10
203.5665182079
 20
390.7261466959
 30
0.0
 10
202.4502003854
 20
389.3058559064
 30
0.0
 10
201.7437577363
 20
387.9651304053
 30
0.0
 10
201.3247344713
 20
386.8251996474
 30
0.0
 10
201.005234487
 20
385.645852028
 30
0.0
 10
200.8823867332
 20
384.7313546894
 30
0.0
 10
200.8535903259
 20
384.1204739919
 30
0.0
  0
LINE
  5
35F
330
1B
100
AcDbEntity
 67
     1
  8
7_ALL_FEATURES
  6
Continuous
 62
     7
100
AcDbLine
 10
209.8969176753
 20
393.6079661697
 30
0.0
 11
209.8969176753
 21
393.8582716067
 31
0.0
  0
LINE
  5
360
330
1B
100
AcDbEntity
 67
     1
  8
7_ALL_FEATURES
  6
Continuous
 62
     7
100
AcDbLine
 10
200.6179786712
 20
384.1204739919
 30
0.0
 11
200.8535903259
 21
384.1204739919
 31
0.0
  0
LINE
  5
361
330
1B
100
AcDbEntity
 67
     1
  8
7_ALL_FEATURES
  6
Continuous
 62
     7
100
AcDbLine
 10
211.2510763886
 20
393.6079661697
 30
0.0
 11
211.2510763886
 21
393.8238961395
 31
0.0
  0
SPLINE
  5
362
330
1B
100
AcDbEntity
 67
     1
  8
7_ALL_FEATURES
  6
Continuous
 62
     7
100
AcDbSpline
 70
     0
 71
     3
 72
    11
 73
     7
 74
     0
 42
0.000000001
 43
0.0000001
 40
0.0
 40
0.0
 40
0.0
 40
0.0
 40
0.2520367055
 40
0.5027430534
 40
0.7520427022
 40
1.0
 40
1.0
 40
1.0
 40
1.0
 10
216.9254778837
 20
391.3669437747
 30
0.0
 10
216.5250014126
 20
391.7000375424
 30
0.0
 10
215.6723434681
 20
392.3027113454
 30
0.0
 10
214.2714322154
 20
392.9905507874
 30
0.0
 10
212.7867122623
 20
393.443647879
 30
0.0
 10
211.7628563252
 20
393.5814750353
 30
0.0
 10
211.2510763886
 20
393.6079661697
 30
0.0
  0
SPLINE
  5
363
330
1B
100
AcDbEntity
 67
     1
  8
7_ALL_FEATURES
  6
Continuous
 62
     7
100
AcDbSpline
 70
     0
 71
     3
 72
    11
 73
     7
 74
     0
 42
0.000000001
 43
0.0000001
 40
0.0
 40
0.0
 40
0.0
 40
0.0
 40
0.2479572987
 40
0.497256953
 40
0.7479632962
 40
1.0
 40
1.0
 40
1.0
 40
1.0
 10
211.2510763886
 20
373.6329818142
 30
0.0
 10
211.7628550711
 20
373.6594728836
 30
0.0
 10
212.7867085096
 20
373.7972994946
 30
0.0
 10
214.2714250616
 20
374.2503945843
 30
0.0
 10
215.672333515
 20
374.9382309625
 30
0.0
 10
216.5249901503
 20
375.540902113
 30
0.0
 10
216.9254661466
 20
375.8739944467
 30
0.0
  0
LINE
  5
364
330
1B
100
AcDbEntity
 67
     1
  8
7_ALL_FEATURES
  6
Continuous
 62
     7
100
AcDbLine
 10
211.2510763886
 20
373.4170513006
 30
0.0
 11
211.2510763886
 21
373.6329818142
 31
0.0
  0
SPLINE
  5
365
330
1B
100
AcDbEntity
 67
     1
  8
02___PRT_ALL_AXES
  6
Continuous
 62
     7
100
AcDbSpline
 70
     0
 71
     3
 72
    15
 73
    11
 74
     0
 42
0.000000001
 43
0.0000001
 40
0.0
 40
0.0
 40
0.0
 40
0.0
 40
0.1287731251
 40
0.2565600244
 40
0.3828017284
 40
0.5074006949
 40
0.6307147986
 40
0.7534196816
 40
0.8762944993
 40
1.0
 40
1.0
 40
1.0
 40
1.0
 10
190.8082436825
 20
383.1204739919
 30
0.0
 10
190.8368468233
 20
381.7887684514
 30
0.0
 10
191.1223157271
 20
379.1346914705
 30
0.0
 10
192.2247148766
 20
375.3113751185
 30
0.0
 10
193.9679975614
 20
371.7801198498
 30
0.0
 10
196.3017002472
 20
368.6642393453
 30
0.0
 10
199.1581409479
 20
366.0714950032
 30
0.0
 10
202.4517660294
 20
364.0949912518
 30
0.0
 10
206.07443835
 20
362.8088946128
 30
0.0
 10
208.6189836605
 20
362.4460115217
 30
0.0
 10
209.8973350327
 20
362.3896366256
 30
0.0
  0
SPLINE
  5
366
330
1B
100
AcDbEntity
 67
     1
  8
02___PRT_ALL_AXES
  6
Continuous
 62
     7
100
AcDbSpline
 70
     0
 71
     3
 72
    15
 73
    11
 74
     0
 42
0.000000001
 43
0.0000001
 40
0.0
 40
0.0
 40
0.0
 40
0.0
 40
0.1237055009
 40
0.2465803185
 40
0.3692852015
 40
0.4925993052
 40
0.6171982716
 40
0.7434399755
 40
0.8712268749
 40
1.0
 40
1.0
 40
1.0
 40
1.0
 10
209.897335036
 20
404.8513113584
 30
0.0
 10
208.6189836622
 20
404.794936462
 30
0.0
 10
206.0744383501
 20
404.4320533714
 30
0.0
 10
202.4517660285
 20
403.1459567315
 30
0.0
 10
199.1581409478
 20
401.1694529804
 30
0.0
 10
196.3017002479
 20
398.5767086392
 30
0.0
 10
193.9679975629
 20
395.4608281363
 30
0.0
 10
192.2247148771
 20
391.9295728671
 30
0.0
 10
191.1223157273
 20
388.1062565143
 30
0.0
 10
190.8368468233
 20
385.4521795319
 30
0.0
 10
190.8082436825
 20
384.1204739919
 30
0.0
  0
LINE
  5
367
330
1B
100
AcDbEntity
 67
     1
  8
02___PRT_ALL_AXES
  6
Continuous
 62
     7
100
AcDbLine
 10
211.2510763886
 20
404.3644490208
 30
0.0
 11
211.2510763886
 21
404.8430261712
 31
0.0
  0
SPLINE
  5
368
330
1B
100
AcDbEntity
 67
     1
  8
7_ALL_FEATURES
  6
Continuous
 62
     7
100
AcDbSpline
 70
     0
 71
     3
 72
    11
 73
     7
 74
     0
 42
0.000000001
 43
0.0000001
 40
0.0
 40
0.0
 40
0.0
 40
0.0
 40
0.2498422626
 40
0.4994301017
 40
0.7493016907
 40
1.0
 40
1.0
 40
1.0
 40
1.0
 10
209.899205393
 20
373.4100885538
 30
0.0
 10
209.4287490861
 20
373.4531317219
 30
0.0
 10
208.4932346588
 20
373.6097055985
 30
0.0
 10
207.1416452372
 20
374.0515242045
 30
0.0
 10
205.8695831252
 20
374.6905608747
 30
0.0
 10
205.0927676775
 20
375.238412781
 30
0.0
 10
204.72637895
 20
375.5392003625
 30
0.0
  0
SPLINE
  5
369
330
1B
100
AcDbEntity
 67
     1
  8
02___PRT_ALL_AXES
  6
Continuous
 62
     7
100
AcDbSpline
 70
     0
 71
     3
 72
    19
 73
    15
 74
     0
 42
0.000000001
 43
0.0000001
 40
0.0
 40
0.0
 40
0.0
 40
0.0
 40
0.1224568464
 40
0.2461098409
 40
0.3083856696
 40
0.3708646103
 40
0.4335079535
 40
0.4962793301
 40
0.6219455361
 40
0.7478043716
 40
0.8108401156
 40
0.8738878591
 40
0.9369421095
 40
1.0
 40
1.0
 40
1.0
 40
1.0
 10
211.2510763886
 20
404.3644490208
 30
0.0
 10
212.5316483887
 20
404.3325346879
 30
0.0
 10
215.1052020786
 20
404.0123362187
 30
0.0
 10
218.1898410988
 20
403.0013184659
 30
0.0
 10
220.5237000755
 20
401.8515279255
 30
0.0
 10
222.1959958117
 20
400.8230705967
 30
0.0
 10
223.7693559897
 20
399.6402003202
 30
0.0
 10
225.715410045
 20
397.8716474642
 30
0.0
 10
227.8301244947
 20
395.3277080165
 30
0.0
 10
229.4332724852
 20
392.4300973072
 30
0.0
 10
230.3691044917
 20
389.9627770191
 30
0.0
 10
230.8912283415
 20
388.0510817641
 30
0.0
 10
231.2265863664
 20
386.0980343091
 30
0.0
 10
231.3230962116
 20
384.7798976256
 30
0.0
 10
231.3392759786
 20
384.1204739919
 30
0.0
  0
SPLINE
  5
36A
330
1B
100
AcDbEntity
 67
     1
  8
7_ALL_FEATURES
  6
Continuous
 62
     7
100
AcDbSpline
 70
     0
 71
     3
 72
    11
 73
     7
 74
     0
 42
0.000000001
 43
0.0000001
 40
0.0
 40
0.0
 40
0.0
 40
0.0
 40
0.2506983185
 40
0.5005699048
 40
0.7501577442
 40
1.0
 40
1.0
 40
1.0
 40
1.0
 10
204.7263688657
 20
391.701739343
 30
0.0
 10
205.0927580415
 20
392.0025281147
 30
0.0
 10
205.8695746421
 20
392.5503822107
 30
0.0
 10
207.1416391488
 20
393.1894214467
 30
0.0
 10
208.49323144
 20
393.631241761
 30
0.0
 10
209.4287479861
 20
393.78781616
 30
0.0
 10
209.8992053562
 20
393.8308594269
 30
0.0
  0
SPLINE
  5
36B
330
1B
100
AcDbEntity
 67
     1
  8
02___PRT_ALL_AXES
  6
Continuous
 62
     7
100
AcDbSpline
 70
     0
 71
     3
 72
    19
 73
    15
 74
     0
 42
0.000000001
 43
0.0000001
 40
0.0
 40
0.0
 40
0.0
 40
0.0
 40
0.0630578906
 40
0.1261121409
 40
0.1891598843
 40
0.2521956283
 40
0.3780544637
 40
0.5037206697
 40
0.5664920463
 40
0.6291353894
 40
0.6916143302
 40
0.7538901588
 40
0.8775431533
 40
1.0
 40
1.0
 40
1.0
 40
1.0
 10
231.3392759786
 20
383.1204739919
 30
0.0
 10
231.3230962116
 20
382.4610503567
 30
0.0
 10
231.2265863658
 20
381.1429136733
 30
0.0
 10
230.8912283414
 20
379.1898662198
 30
0.0
 10
230.3691044926
 20
377.2781709678
 30
0.0
 10
229.4332724873
 20
374.8108506814
 30
0.0
 10
227.8301244981
 20
371.9132399724
 30
0.0
 10
225.7154100497
 20
369.3693005246
 30
0.0
 10
223.7693559952
 20
367.6007476683
 30
0.0
 10
222.1959958177
 20
366.4178773912
 30
0.0
 10
220.5237000818
 20
365.389420062
 30
0.0
 10
218.1898411055
 20
364.2396295204
 30
0.0
 10
215.1052020833
 20
363.228611766
 30
0.0
 10
212.531648391
 20
362.908413296
 30
0.0
 10
211.2510763886
 20
362.876498963
 30
0.0
  0
SPLINE
  5
36C
330
1B
100
AcDbEntity
 67
     1
  8
02___PRT_ALL_AXES
  6
Continuous
 62
     7
100
AcDbSpline
 70
     0
 71
     3
 72
    11
 73
     7
 74
     0
 42
0.000000001
 43
0.0000001
 40
0.0
 40
0.0
 40
0.0
 40
0.0
 40
0.2534247167
 40
0.5045688671
 40
0.7532204734
 40
1.0
 40
1.0
 40
1.0
 40
1.0
 10
208.9019099491
 20
527.6204739919
 30
0.0
 10
208.9462898496
 20
527.4416462459
 30
0.0
 10
209.0832748041
 20
527.0956220217
 30
0.0
 10
209.4192531257
 20
526.6545920155
 30
0.0
 10
209.8600083463
 20
526.3258993707
 30
0.0
 10
210.203347503
 20
526.1988815576
 30
0.0
 10
210.3788264733
 20
526.1614780326
 30
0.0
  0
ARC
  5
36D
330
1B
100
AcDbEntity
 67
     1
  8
02___PRT_ALL_AXES
  6
Continuous
 62
     7
100
AcDbCircle
 10
210.7681311584
 20
527.9879045206
 30
0.0
 40
1.8674559844
100
AcDbArc
 50
257.9674158201
 51
258.1873341858
  0
ARC
  5
36E
330
1B
100
AcDbEntity
 67
     1
  8
02___PRT_ALL_AXES
  6
Continuous
 62
     7
100
AcDbCircle
 10
210.7681068397
 20
527.9879142846
 30
0.0
 40
1.8674605635
100
AcDbArc
 50
258.1881258358
 51
264.0249358589
  0
LINE
  5
36F
330
1B
100
AcDbEntity
 67
     1
  8
02___PRT_ALL_AXES
  6
Continuous
 62
     7
100
AcDbLine
 10
211.2510763886
 20
362.3979220253
 30
0.0
 11
211.2510763886
 21
362.876498963
 31
0.0
  0
LINE
  5
370
330
1B
100
AcDbEntity
 67
     1
  8
02___PRT_ALL_AXES
  6
Continuous
 62
     7
100
AcDbLine
 10
211.2510763886
 20
404.3644490208
 30
0.0
 11
210.8628435016
 21
404.3644490208
 31
0.0
  0
SPLINE
  5
371
330
1B
100
AcDbEntity
 67
     1
  8
02___PRT_ALL_AXES
  6
Continuous
 62
     7
100
AcDbSpline
 70
     0
 71
     3
 72
    11
 73
     7
 74
     0
 42
0.000000001
 43
0.0000001
 40
0.0
 40
0.0
 40
0.0
 40
0.0
 40
0.2467939356
 40
0.4950785207
 40
0.7461379396
 40
1.0
 40
1.0
 40
1.0
 40
1.0
 10
210.37957752
 20
526.1204739919
 30
0.0
 10
210.1682946376
 20
526.1204739919
 30
0.0
 10
209.7409565816
 20
526.1940068293
 30
0.0
 10
209.173861457
 20
526.5128756356
 30
0.0
 10
208.7380940528
 20
527.0034750657
 30
0.0
 10
208.565968103
 20
527.4095394623
 30
0.0
 10
208.5136165766
 20
527.6204739919
 30
0.0
  0
SPLINE
  5
372
330
1B
100
AcDbEntity
 67
     1
  8
7_ALL_FEATURES
  6
Continuous
 62
     7
100
AcDbSpline
 70
     0
 71
     3
 72
    19
 73
    15
 74
     0
 42
0.000000001
 43
0.0000001
 40
0.0
 40
0.0
 40
0.0
 40
0.0
 40
0.1819105166
 40
0.3561992878
 40
0.5172412903
 40
0.6600726427
 40
0.7233758215
 40
0.780727214
 40
0.8318547467
 40
0.8766320868
 40
0.9151426521
 40
0.9477940056
 40
0.9755124808
 40
1.0
 40
1.0
 40
1.0
 40
1.0
 10
343.2955369313
 20
383.1204739919
 30
0.0
 10
343.2904974086
 20
382.4979397619
 30
0.0
 10
343.2623663801
 20
381.2790141829
 30
0.0
 10
343.1633153166
 20
379.5112329959
 30
0.0
 10
343.0062374702
 20
377.8819015505
 30
0.0
 10
342.8196298041
 20
376.638183336
 30
0.0
 10
342.632004428
 20
375.7559015591
 30
0.0
 10
342.4814009964
 20
375.1873187794
 30
0.0
 10
342.3155297918
 20
374.6892874999
 30
0.0
 10
342.1346768851
 20
374.265585384
 30
0.0
 10
341.939163056
 20
373.919084022
 30
0.0
 10
341.7285465752
 20
373.6518469061
 30
0.0
 10
341.5014793106
 20
373.4659473862
 30
0.0
 10
341.3316708593
 20
373.3984824936
 30
0.0
 10
341.2493709967
 20
373.3826763772
 30
0.0
  0
LINE
  5
373
330
1B
100
AcDbEntity
 67
     1
  8
02___PRT_ALL_AXES
  6
Continuous
 62
     7
100
AcDbLine
 10
211.2510763886
 20
362.876498963
 30
0.0
 11
210.8628435016
 21
362.876498963
 31
0.0
  0
ARC
  5
374
330
1B
100
AcDbEntity
 67
     1
  8
02___PRT_ALL_AXES
  6
Continuous
 62
     7
100
AcDbCircle
 10
210.3778376011
 20
382.331823334
 30
0.0
 40
19.4613688394
100
AcDbArc
 50
271.428042841
 51
272.5679942779
  0
SPLINE
  5
375
330
1B
100
AcDbEntity
 67
     1
  8
02___PRT_ALL_AXES
  6
Continuous
 62
     7
100
AcDbSpline
 70
     0
 71
     3
 72
    19
 73
    15
 74
     0
 42
0.000000001
 43
0.0000001
 40
0.0
 40
0.0
 40
0.0
 40
0.0
 40
0.1225406785
 40
0.2462383317
 40
0.3085205875
 40
0.3709983482
 40
0.4336346131
 40
0.4963947294
 40
0.6220349596
 40
0.7478653837
 40
0.81088541
 40
0.8739177838
 40
0.9369569643
 40
1.0
 40
1.0
 40
1.0
 40
1.0
 10
211.2498032763
 20
362.8899984977
 30
0.0
 10
212.5144016247
 20
362.9467076961
 30
0.0
 10
215.050404121
 20
363.3097752297
 30
0.0
 10
218.0814172244
 20
364.3559831039
 30
0.0
 10
220.3707316928
 20
365.5232458699
 30
0.0
 10
222.0092276971
 20
366.5594813983
 30
0.0
 10
223.5493667805
 20
367.7450476192
 30
0.0
 10
225.4527818111
 20
369.510787876
 30
0.0
 10
227.5188099907
 20
372.0399098351
 30
0.0
 10
229.0833858583
 20
374.9101971743
 30
0.0
 10
229.9963847306
 20
377.3502222884
 30
0.0
 10
230.5057336536
 20
379.2392102341
 30
0.0
 10
230.8330237369
 20
381.1680254876
 30
0.0
 10
230.9274298806
 20
382.4694227266
 30
0.0
 10
230.9433922945
 20
383.1204739919
 30
0.0
  0
SPLINE
  5
376
330
1B
100
AcDbEntity
 67
     1
  8
02___PRT_ALL_AXES
  6
Continuous
 62
     7
100
AcDbSpline
 70
     0
 71
     3
 72
    22
 73
    18
 74
     0
 42
0.000000001
 43
0.0000001
 40
0.0
 40
0.0
 40
0.0
 40
0.0
 40
0.0118569311
 40
0.0238868842
 40
0.0498884134
 40
0.0645466329
 40
0.0805709297
 40
0.1172066158
 40
0.1604640353
 40
0.2105108518
 40
0.2672412748
 40
0.3303727453
 40
0.3994980149
 40
0.4741143366
 40
0.6374155779
 40
0.8148267234
 40
1.0
 40
1.0
 40
1.0
 40
1.0
 10
341.2493709967
 20
404.8645908246
 30
0.0
 10
341.334848251
 20
404.8566795859
 30
0.0
 10
341.5060090158
 20
404.8241957753
 30
0.0
 10
341.843180113
 20
404.6893650879
 30
0.0
 10
342.1507647629
 20
404.4508722996
 30
0.0
 10
342.4199429621
 20
404.1406776666
 30
0.0
 10
342.6968787004
 20
403.7383717374
 30
0.0
 10
343.0061371223
 20
403.1131588049
 30
0.0
 10
343.3164695198
 20
402.2235928697
 30
0.0
 10
343.5833754899
 20
401.1695735792
 30
0.0
 10
343.809289988
 20
399.959803275
 30
0.0
 10
343.9971316725
 20
398.6041366999
 30
0.0
 10
344.1503677036
 20
397.1140329457
 30
0.0
 10
344.3184022307
 20
394.8972467889
 30
0.0
 10
344.4531505756
 20
391.8927543532
 30
0.0
 10
344.5361804183
 20
388.0861905377
 30
0.0
 10
344.5550229246
 20
385.4611020621
 30
0.0
 10
344.5570003
 20
384.1204739919
 30
0.0
  0
LINE
  5
377
330
1B
100
AcDbEntity
 67
     1
  8
02___PRT_ALL_AXES
  6
Continuous
 62
     7
100
AcDbLine
 10
210.8628435016
 20
404.3644490208
 30
0.0
 11
210.8628435016
 21
404.8645908246
 31
0.0
  0
SPLINE
  5
378
330
1B
100
AcDbEntity
 67
     1
  8
7_ALL_FEATURES
  6
Continuous
 62
     7
100
AcDbSpline
 70
     0
 71
     3
 72
    19
 73
    15
 74
     0
 42
0.000000001
 43
0.0000001
 40
0.0
 40
0.0
 40
0.0
 40
0.0
 40
0.0244875198
 40
0.0522059952
 40
0.0848573483
 40
0.1233679144
 40
0.1681452552
 40
0.2192727872
 40
0.2766241804
 40
0.3399273608
 40
0.4827587126
 40
0.6438007171
 40
0.8180894861
 40
1.0
 40
1.0
 40
1.0
 40
1.0
 10
341.2493709967
 20
393.8582716067
 30
0.0
 10
341.3316708612
 20
393.8424654899
 30
0.0
 10
341.501479315
 20
393.7750005951
 30
0.0
 10
341.7285465797
 20
393.5891010736
 30
0.0
 10
341.9391630605
 20
393.3218639551
 30
0.0
 10
342.1346768904
 20
392.9753625893
 30
0.0
 10
342.3155297972
 20
392.5516604706
 30
0.0
 10
342.4814010012
 20
392.0536291883
 30
0.0
 10
342.6320044331
 20
391.485046403
 30
0.0
 10
342.8196298091
 20
390.60276462
 30
0.0
 10
343.0062374748
 20
389.3590463949
 30
0.0
 10
343.1633153192
 20
387.7297149522
 30
0.0
 10
343.2623663809
 20
385.961933775
 30
0.0
 10
343.2904974086
 20
384.7430082128
 30
0.0
 10
343.2955369313
 20
384.1204739919
 30
0.0
  0
LINE
  5
379
330
1B
100
AcDbEntity
 67
     1
  8
02___PRT_ALL_AXES
  6
Continuous
 62
     7
100
AcDbLine
 10
340.9905519516
 20
362.3763571593
 30
0.0
 11
340.9905519516
 21
362.876498963
 31
0.0
  0
SPLINE
  5
37A
330
1B
100
AcDbEntity
 67
     1
  8
7_ALL_FEATURES
  6
Continuous
 62
     7
100
AcDbSpline
 70
     0
 71
     3
 72
    16
 73
    12
 74
     0
 42
0.000000001
 43
0.0000001
 40
0.0
 40
0.0
 40
0.0
 40
0.0
 40
0.1232168131
 40
0.2462889127
 40
0.369647897
 40
0.4937096484
 40
0.6187746894
 40
0.7449472125
 40
0.8084790365
 40
0.8722201234
 40
1.0
 40
1.0
 40
1.0
 40
1.0
 10
209.8969176753
 20
373.3826763772
 30
0.0
 10
209.2922097122
 20
373.4132897215
 30
0.0
 10
208.08612932
 20
373.5906399326
 30
0.0
 10
206.3627045083
 20
374.1974828364
 30
0.0
 10
204.7823642731
 20
375.1237141997
 30
0.0
 10
203.3975762345
 20
376.3370718445
 30
0.0
 10
202.2522431387
 20
377.7954876313
 30
0.0
 10
201.5279721425
 20
379.1723399928
 30
0.0
 10
201.0987867539
 20
380.3429952022
 30
0.0
 10
200.7719090741
 20
381.5541497598
 30
0.0
 10
200.6468046369
 20
382.4932309398
 30
0.0
 10
200.6179786712
 20
383.1204739919
 30
0.0
  0
SPLINE
  5
37B
330
1B
100
AcDbEntity
 67
     1
  8
02___PRT_ALL_AXES
  6
Continuous
 62
     7
100
AcDbSpline
 70
     0
 71
     3
 72
    21
 73
    17
 74
     0
 42
0.000000001
 43
0.0000001
 40
0.0
 40
0.0
 40
0.0
 40
0.0
 40
0.1755530397
 40
0.3451266533
 40
0.5036825474
 40
0.5773860885
 40
0.6466407561
 40
0.7109535201
 40
0.76987909
 40
0.823037579
 40
0.8701441435
 40
0.9110605883
 40
0.9458863207
 40
0.9611698837
 40
0.9751699503
 40
1.0
 40
1.0
 40
1.0
 40
1.0
 10
333.7865842693
 20
383.1204739919
 30
0.0
 10
333.8007949566
 20
381.8108028054
 30
0.0
 10
333.9383077777
 20
379.2358001162
 30
0.0
 10
334.4596628127
 20
375.5100068846
 30
0.0
 10
335.1333352955
 20
372.5840363433
 30
0.0
 10
335.7931836614
 20
370.432703052
 30
0.0
 10
336.319101301
 20
368.977763142
 30
0.0
 10
336.8783963395
 20
367.6542230175
 30
0.0
 10
337.4612452627
 20
366.4733214809
 30
0.0
 10
338.057799354
 20
365.4451564731
 30
0.0
 10
338.6586574719
 20
364.5782545043
 30
0.0
 10
339.2550227081
 20
363.879978427
 30
0.0
 10
339.7627893886
 20
363.4241642849
 30
0.0
 10
340.1622677021
 20
363.1592333152
 30
0.0
 10
340.5217453936
 20
362.9749588935
 30
0.0
 10
340.8060735567
 20
362.8933839682
 30
0.0
 10
340.9905519516
 20
362.876498963
 30
0.0
  0
SPLINE
  5
37C
330
1B
100
AcDbEntity
 67
     1
  8
02___PRT_ALL_AXES
  6
Continuous
 62
     7
100
AcDbSpline
 70
     0
 71
     3
 72
    19
 73
    15
 74
     0
 42
0.000000001
 43
0.0000001
 40
0.0
 40
0.0
 40
0.0
 40
0.0
 40
0.0630430359
 40
0.1260822163
 40
0.1891145901
 40
0.2521346166
 40
0.3779650411
 40
0.5036052713
 40
0.5663653875
 40
0.6290016523
 40
0.691479413
 40
0.7537616687
 40
0.8774593219
 40
1.0
 40
1.0
 40
1.0
 40
1.0
 10
230.9433922945
 20
384.1204739919
 30
0.0
 10
230.9274298805
 20
384.7715252588
 30
0.0
 10
230.8330237368
 20
386.0729224982
 30
0.0
 10
230.5057336532
 20
388.0017377508
 30
0.0
 10
229.9963847308
 20
389.8907256952
 30
0.0
 10
229.0833858571
 20
392.3307508131
 30
0.0
 10
227.5188099872
 20
395.2010381545
 30
0.0
 10
225.4527818062
 20
397.7301601132
 30
0.0
 10
223.5493667782
 20
399.4959003662
 30
0.0
 10
222.0092276979
 20
400.6814665851
 30
0.0
 10
220.3707316968
 20
401.7177021114
 30
0.0
 10
218.0814172332
 20
402.8849648761
 30
0.0
 10
215.0504041383
 20
403.931172749
 30
0.0
 10
212.5144016496
 20
404.2942402853
 30
0.0
 10
211.2498033058
 20
404.3509494849
 30
0.0
  0
ARC
  5
37D
330
1B
100
AcDbEntity
 67
     1
  8
02___PRT_ALL_AXES
  6
Continuous
 62
     7
100
AcDbCircle
 10
210.377837593
 20
384.9091242795
 30
0.0
 40
19.4613692099
100
AcDbArc
 50
87.4320056602
 51
88.5719571623
  0
SPLINE
  5
37E
330
1B
100
AcDbEntity
 67
     1
  8
02___PRT_ALL_AXES
  6
Continuous
 62
     7
100
AcDbSpline
 70
     0
 71
     3
 72
    21
 73
    17
 74
     0
 42
0.000000001
 43
0.0000001
 40
0.0
 40
0.0
 40
0.0
 40
0.0
 40
0.0248300498
 40
0.0388301165
 40
0.0541136795
 40
0.0889394119
 40
0.1298558563
 40
0.1769624205
 40
0.2301209095
 40
0.2890464795
 40
0.3533592436
 40
0.4226139113
 40
0.4963174524
 40
0.6548733467
 40
0.8244469604
 40
1.0
 40
1.0
 40
1.0
 40
1.0
 10
340.9905519516
 20
404.3644490208
 30
0.0
 10
340.8060735556
 20
404.3475640155
 30
0.0
 10
340.5217453912
 20
404.2659890897
 30
0.0
 10
340.1622676987
 20
404.0817146667
 30
0.0
 10
339.7627893855
 20
403.8167836965
 30
0.0
 10
339.2550227074
 20
403.3609695558
 30
0.0
 10
338.6586574744
 20
402.6626934824
 30
0.0
 10
338.0577993582
 20
401.7957915175
 30
0.0
 10
337.4612452671
 20
400.7676265112
 30
0.0
 10
336.878396343
 20
399.5867249741
 30
0.0
 10
336.3191013037
 20
398.2631848488
 30
0.0
 10
335.7931836633
 20
396.8082449376
 30
0.0
 10
335.1333352964
 20
394.6569116444
 30
0.0
 10
334.4596628127
 20
391.7309411002
 30
0.0
 10
333.9383077777
 20
388.005147867
 30
0.0
 10
333.8007949566
 20
385.4301451775
 30
0.0
 10
333.7865842693
 20
384.1204739919
 30
0.0
  0
ARC
  5
37F
330
1B
100
AcDbEntity
 67
     1
  8
7_ALL_FEATURES
  6
Continuous
 62
     7
100
AcDbCircle
 10
210.3775051079
 20
383.0055717048
 30
0.0
 40
9.3851475542
100
AcDbArc
 50
272.9642848662999
 51
275.3244086534
  0
SPLINE
  5
380
330
1B
100
AcDbEntity
 67
     1
  8
7_ALL_FEATURES
  6
Continuous
 62
     7
100
AcDbSpline
 70
     0
 71
     3
 72
    15
 73
    11
 74
     0
 42
0.000000001
 43
0.0000001
 40
0.0
 40
0.0
 40
0.0
 40
0.0
 40
0.1228015599
 40
0.2463680235
 40
0.370703107
 40
0.4957250568
 40
0.6213059518
 40
0.7473028318
 40
0.8735767047
 40
1.0
 40
1.0
 40
1.0
 40
1.0
 10
211.2483977081
 20
373.6609186512
 30
0.0
 10
211.8244029772
 20
373.7145920384
 30
0.0
 10
212.9727185475
 20
373.9298212005
 30
0.0
 10
214.6108688532
 20
374.5606633036
 30
0.0
 10
216.1191496527
 20
375.4798422477
 30
0.0
 10
217.4476557665
 20
376.6578222074
 30
0.0
 10
218.5529030622
 20
378.0573742021
 30
0.0
 10
219.3978725836
 20
379.6346986038
 30
0.0
 10
219.9536423162
 20
381.3392410474
 30
0.0
 10
220.1184551872
 20
382.5256424373
 30
0.0
 10
220.1479435946
 20
383.1204739919
 30
0.0
  0
SPLINE
  5
381
330
1B
100
AcDbEntity
 67
     1
  8
7_ALL_FEATURES
  6
Continuous
 62
     7
100
AcDbSpline
 70
     0
 71
     3
 72
    16
 73
    12
 74
     0
 42
0.000000001
 43
0.0000001
 40
0.0
 40
0.0
 40
0.0
 40
0.0
 40
0.127779878
 40
0.1915209634
 40
0.2550527883
 40
0.3812253105
 40
0.5062903529
 40
0.6303521029
 40
0.7537110881
 40
0.8767831882
 40
1.0
 40
1.0
 40
1.0
 40
1.0
 10
200.6179786712
 20
384.1204739919
 30
0.0
 10
200.6468046372
 20
384.7477170507
 30
0.0
 10
200.7719090747
 20
385.6867982301
 30
0.0
 10
201.0987867568
 20
386.8979527909
 30
0.0
 10
201.5279721436
 20
388.0686079931
 30
0.0
 10
202.2522431434
 20
389.445460361
 30
0.0
 10
203.3975762383
 20
390.9038761434
 30
0.0
 10
204.7823642812
 20
392.1172337892
 30
0.0
 10
206.3627045166
 20
393.0434651523
 30
0.0
 10
208.0861293303
 20
393.6503080527
 30
0.0
 10
209.2922097186
 20
393.8276582627
 30
0.0
 10
209.8969176753
 20
393.8582716067
 30
0.0
  0
LINE
  5
382
330
1B
100
AcDbEntity
 67
     1
  8
7_ALL_FEATURES
  6
Continuous
 62
     7
100
AcDbLine
 10
210.8628435016
 20
373.3826763772
 30
0.0
 11
210.8628435016
 21
373.6329818142
 31
0.0
  0
LINE
  5
383
330
1B
100
AcDbEntity
 67
     1
  8
02___PRT_ALL_AXES
  6
Continuous
 62
     7
100
AcDbLine
 10
340.9905519516
 20
404.3644490208
 30
0.0
 11
340.9905519516
 21
404.8645908246
 31
0.0
  0
LINE
  5
384
330
1B
100
AcDbEntity
 67
     1
  8
7_ALL_FEATURES
  6
Continuous
 62
     7
100
AcDbLine
 10
340.5081441989
 20
393.6079661697
 30
0.0
 11
340.9905519516
 21
393.6079661697
 31
0.0
  0
LINE
  5
385
330
1B
100
AcDbEntity
 67
     1
  8
7_ALL_FEATURES
  6
Continuous
 62
     7
100
AcDbLine
 10
340.5081430446
 20
373.6329818142
 30
0.0
 11
340.9905519516
 21
373.6329818142
 31
0.0
  0
LINE
  5
386
330
1B
100
AcDbEntity
 67
     1
  8
7_ALL_FEATURES
  6
Continuous
 62
     7
100
AcDbLine
 10
210.8628435016
 20
393.6079661697
 30
0.0
 11
210.8628435016
 21
393.8582716067
 31
0.0
  0
SPLINE
  5
387
330
1B
100
AcDbEntity
 67
     1
  8
02___PRT_ALL_AXES
  6
Continuous
 62
     7
100
AcDbSpline
 70
     0
 71
     3
 72
    17
 73
    13
 74
     0
 42
0.000000001
 43
0.0000001
 40
0.0
 40
0.0
 40
0.0
 40
0.0
 40
0.1895172777
 40
0.3665557413
 40
0.5268262057
 40
0.6666843139
 40
0.7834290035
 40
0.8758154235
 40
0.913259199
 40
0.9455596292
 40
0.9738693463
 40
1.0
 40
1.0
 40
1.0
 40
1.0
 10
341.6053261604
 20
527.6204739919
 30
0.0
 10
341.5988602124
 20
527.516689708
 30
0.0
 10
341.5822343448
 20
527.3161786555
 30
0.0
 10
341.5448310198
 20
527.0294198115
 30
0.0
 10
341.4964887527
 20
526.7719545484
 30
0.0
 10
341.4383990876
 20
526.5504028552
 30
0.0
 10
341.3719911664
 20
526.3705253629
 30
0.0
 10
341.3070569851
 20
526.2506315377
 30
0.0
 10
341.2498553128
 20
526.1820848556
 30
0.0
 10
341.2084567122
 20
526.1471528741
 30
0.0
 10
341.165477393
 20
526.1254758444
 30
0.0
 10
341.1354300693
 20
526.1204739922
 30
0.0
 10
341.121092541
 20
526.1204739919
 30
0.0
  0
SPLINE
  5
388
330
1B
100
AcDbEntity
 67
     1
  8
7_ALL_FEATURES
  6
Continuous
 62
     7
100
AcDbSpline
 70
     0
 71
     3
 72
    15
 73
    11
 74
     0
 42
0.000000001
 43
0.0000001
 40
0.0
 40
0.0
 40
0.0
 40
0.0
 40
0.1264232938
 40
0.2526971677
 40
0.3786940482
 40
0.504274942
 40
0.6292968936
 40
0.7536319754
 40
0.8771984396
 40
1.0
 40
1.0
 40
1.0
 40
1.0
 10
220.1479435946
 20
384.1204739919
 30
0.0
 10
220.1184551874
 20
384.7153055424
 30
0.0
 10
219.9536423159
 20
385.9017069349
 30
0.0
 10
219.3978725823
 20
387.606249387
 30
0.0
 10
218.5529030531
 20
389.1835737951
 30
0.0
 10
217.4476557476
 20
390.5831257983
 30
0.0
 10
216.1191496274
 20
391.7611057556
 30
0.0
 10
214.6108688146
 20
392.680284699
 30
0.0
 10
212.9727185013
 20
393.3111267977
 30
0.0
 10
211.8244029194
 20
393.5263559543
 30
0.0
 10
211.2483976452
 20
393.5800293384
 30
0.0
  0
ARC
  5
389
330
1B
100
AcDbEntity
 67
     1
  8
7_ALL_FEATURES
  6
Continuous
 62
     7
100
AcDbCircle
 10
210.3775051126
 20
384.2353764017
 30
0.0
 40
9.3851474314
100
AcDbArc
 50
84.67559169110001
 51
87.0357151233
  0
LINE
  5
38A
330
1B
100
AcDbEntity
 67
     1
  8
7_ALL_FEATURES
  6
Continuous
 62
     7
100
AcDbLine
 10
210.8628435016
 20
393.6079661697
 30
0.0
 11
211.2510763886
 21
393.6079661697
 31
0.0
  0
LINE
  5
38B
330
1B
100
AcDbEntity
 67
     1
  8
7_ALL_FEATURES
  6
Continuous
 62
     7
100
AcDbLine
 10
210.8628435016
 20
373.6329818142
 30
0.0
 11
211.2510763886
 21
373.6329818142
 31
0.0
  0
SPLINE
  5
38C
330
1B
100
AcDbEntity
 67
     1
  8
02___PRT_ALL_AXES
  6
Continuous
 62
     7
100
AcDbSpline
 70
     0
 71
     3
 72
    15
 73
    11
 74
     0
 42
0.000000001
 43
0.0000001
 40
0.0
 40
0.0
 40
0.0
 40
0.0
 40
0.1237980192
 40
0.246729774
 40
0.3694477405
 40
0.4927389273
 40
0.6172964017
 40
0.743495955
 40
0.8712503822
 40
1.0
 40
1.0
 40
1.0
 40
1.0
 10
209.8969176753
 20
362.3763571593
 30
0.0
 10
208.6006006086
 20
362.4079831534
 30
0.0
 10
206.0155517283
 20
362.7275295502
 30
0.0
 10
202.3241343045
 20
363.9702738576
 30
0.0
 10
198.9604872169
 20
365.9258116175
 30
0.0
 10
196.0386589665
 20
368.51876173
 30
0.0
 10
193.6489850537
 20
371.6533067259
 30
0.0
 10
191.8627905474
 20
375.2180174712
 30
0.0
 10
190.7331146285
 20
379.0851648963
 30
0.0
 10
190.440958124
 20
381.77221795
 30
0.0
 10
190.4119747306
 20
383.1204739919
 30
0.0
  0
LINE
  5
38D
330
1B
100
AcDbEntity
 67
     1
  8
02___PRT_ALL_AXES
  6
Continuous
 62
     7
100
AcDbLine
 10
210.8628435016
 20
362.3763571593
 30
0.0
 11
210.8628435016
 21
362.876498963
 31
0.0
  0
LINE
  5
38E
330
1B
100
AcDbEntity
 67
     1
  8
7_ALL_FEATURES
  6
Continuous
 62
     7
100
AcDbLine
 10
340.9905519516
 20
373.3826763772
 30
0.0
 11
340.9905519516
 21
373.6329818142
 31
0.0
  0
LINE
  5
38F
330
1B
100
AcDbEntity
 67
     1
  8
02___PRT_ALL_AXES
  6
Continuous
 62
     7
100
AcDbLine
 10
339.8394454601
 20
404.3644490208
 30
0.0
 11
340.9905519516
 21
404.3644490208
 31
0.0
  0
SPLINE
  5
390
330
1B
100
AcDbEntity
 67
     1
  8
7_ALL_FEATURES
  6
Continuous
 62
     7
100
AcDbSpline
 70
     0
 71
     3
 72
    19
 73
    15
 74
     0
 42
0.000000001
 43
0.0000001
 40
0.0
 40
0.0
 40
0.0
 40
0.0
 40
0.1771527074
 40
0.3475682351
 40
0.5062246879
 40
0.6485605274
 40
0.7123834154
 40
0.7707477808
 40
0.8233378126
 40
0.8699463432
 40
0.9105211176
 40
0.9452459205
 40
0.9746825424
 40
1.0
 40
1.0
 40
1.0
 40
1.0
 10
338.0838542042
 20
383.1204739919
 30
0.0
 10
338.0944730856
 20
382.5137270151
 30
0.0
 10
338.153124699
 20
381.3235990672
 30
0.0
 10
338.3515137697
 20
379.5996144273
 30
0.0
 10
338.6474464436
 20
378.0107880986
 30
0.0
 10
338.9712216407
 20
376.8019545529
 30
0.0
 10
339.2695131861
 20
375.9459425453
 30
0.0
 10
339.497416147
 20
375.3919308306
 30
0.0
 10
339.7347254446
 20
374.9066672391
 30
0.0
 10
339.9786315317
 20
374.4939340402
 30
0.0
 10
340.2264477849
 20
374.156722583
 30
0.0
 10
340.4763349712
 20
373.8972598331
 30
0.0
 10
340.7270050959
 20
373.7172327539
 30
0.0
 10
340.9053524018
 20
373.649178588
 30
0.0
 10
340.9905519516
 20
373.6329818142
 30
0.0
  0
LINE
  5
391
330
1B
100
AcDbEntity
 67
     1
  8
02___PRT_ALL_AXES
  6
Continuous
 62
     7
100
AcDbLine
 10
339.8394462225
 20
362.876498963
 30
0.0
 11
340.9905519516
 21
362.876498963
 31
0.0
  0
SPLINE
  5
392
330
1B
100
AcDbEntity
 67
     1
  8
02___PRT_ALL_AXES
  6
Continuous
 62
     7
100
AcDbSpline
 70
     0
 71
     3
 72
    22
 73
    18
 74
     0
 42
0.000000001
 43
0.0000001
 40
0.0
 40
0.0
 40
0.0
 40
0.0
 40
0.1851732765
 40
0.362584422
 40
0.5258856635
 40
0.6005019853
 40
0.6696272549
 40
0.7327587255
 40
0.7894891485
 40
0.839535965
 40
0.8827933843
 40
0.9194290701
 40
0.9354533669
 40
0.9501115864
 40
0.9761131157
 40
0.9881430688
 40
1.0
 40
1.0
 40
1.0
 40
1.0
 10
344.5570003
 20
383.1204739919
 30
0.0
 10
344.5550229246
 20
381.7798459229
 30
0.0
 10
344.5361804184
 20
379.1547574474
 30
0.0
 10
344.4531505757
 20
375.3481936309
 30
0.0
 10
344.3184022306
 20
372.3437011927
 30
0.0
 10
344.1503677033
 20
370.1269150341
 30
0.0
 10
343.9971316719
 20
368.6368112788
 30
0.0
 10
343.8092899871
 20
367.2811447028
 30
0.0
 10
343.5833754885
 20
366.0713743982
 30
0.0
 10
343.3164695183
 20
365.0173551087
 30
0.0
 10
343.0061371211
 20
364.1277891768
 30
0.0
 10
342.6968787008
 20
363.5025762476
 30
0.0
 10
342.4199429642
 20
363.1002703202
 30
0.0
 10
342.1507647657
 20
362.7900756867
 30
0.0
 10
341.8431801155
 20
362.5515828969
 30
0.0
 10
341.506009017
 20
362.4167522093
 30
0.0
 10
341.3348482514
 20
362.384268398
 30
0.0
 10
341.2493709967
 20
362.3763571593
 30
0.0
  0
SPLINE
  5
393
330
1B
100
AcDbEntity
 67
     1
  8
7_ALL_FEATURES
  6
Continuous
 62
     7
100
AcDbSpline
 70
     0
 71
     3
 72
    19
 73
    15
 74
     0
 42
0.000000001
 43
0.0000001
 40
0.0
 40
0.0
 40
0.0
 40
0.0
 40
0.0253174572
 40
0.0547540789
 40
0.0894788827
 40
0.1300536565
 40
0.1766621867
 40
0.2292522198
 40
0.2876165849
 40
0.3514394717
 40
0.4937753131
 40
0.6524317651
 40
0.8228472935
 40
1.0
 40
1.0
 40
1.0
 40
1.0
 10
340.9905519516
 20
393.6079661697
 30
0.0
 10
340.9053524034
 20
393.5917693962
 30
0.0
 10
340.7270050992
 20
393.5237152319
 30
0.0
 10
340.4763349734
 20
393.3436881526
 30
0.0
 10
340.2264477864
 20
393.0842254026
 30
0.0
 10
339.9786315334
 20
392.7470139461
 30
0.0
 10
339.7347254455
 20
392.3342807464
 30
0.0
 10
339.4974161469
 20
391.8490171531
 30
0.0
 10
339.2695131862
 20
391.2950054387
 30
0.0
 10
338.9712216402
 20
390.4389934297
 30
0.0
 10
338.6474464431
 20
389.2301598843
 30
0.0
 10
338.3515137688
 20
387.6413335494
 30
0.0
 10
338.1531246981
 20
385.9173489129
 30
0.0
 10
338.0944730855
 20
384.7272209656
 30
0.0
 10
338.0838542042
 20
384.1204739919
 30
0.0
  0
SPLINE
  5
394
330
1B
100
AcDbEntity
 67
     1
  8
02___PRT_ALL_AXES
  6
Continuous
 62
     7
100
AcDbSpline
 70
     0
 71
     3
 72
    15
 73
    11
 74
     0
 42
0.000000001
 43
0.0000001
 40
0.0
 40
0.0
 40
0.0
 40
0.0
 40
0.1287496175
 40
0.2565040451
 40
0.382703598
 40
0.5072610724
 40
0.6305522592
 40
0.7532702258
 40
0.8762019806
 40
1.0
 40
1.0
 40
1.0
 40
1.0
 10
190.4119747306
 20
384.1204739919
 30
0.0
 10
190.4409581239
 20
385.4687300313
 30
0.0
 10
190.7331146281
 20
388.1557830853
 30
0.0
 10
191.8627905453
 20
392.022930508
 30
0.0
 10
193.6489850511
 20
395.587641253
 30
0.0
 10
196.0386589604
 20
398.7221862474
 30
0.0
 10
198.9604872098
 20
401.3151363613
 30
0.0
 10
202.324134297
 20
403.2706741231
 30
0.0
 10
206.0155517231
 20
404.5134184328
 30
0.0
 10
208.6006006062
 20
404.8329648305
 30
0.0
 10
209.8969176753
 20
404.8645908246
 30
0.0
  0
LINE
  5
395
330
1B
100
AcDbEntity
 67
     1
  8
7_ALL_FEATURES
  6
Continuous
 62
     7
100
AcDbLine
 10
340.9905519516
 20
393.6079661697
 30
0.0
 11
340.9905519516
 21
393.8582716067
 31
0.0
  0
LINE
  5
396
330
1B
100
AcDbEntity
 67
     1
  8
7_ALL_FEATURES
  6
Continuous
 62
     7
100
AcDbLine
 10
717.7577571362
 20
511.1204739919
 30
0.0
 11
715.737031194
 21
511.1204739919
 31
0.0
  0
LINE
  5
397
330
1B
100
AcDbEntity
 67
     1
  8
7_ALL_FEATURES
  6
Continuous
 62
     7
100
AcDbLine
 10
721.7992090205
 20
511.1204739919
 30
0.0
 11
717.7577571362
 21
511.1204739919
 31
0.0
  0
LINE
  5
398
330
1B
100
AcDbEntity
 67
     1
  8
7_ALL_FEATURES
  6
Continuous
 62
     7
100
AcDbLine
 10
723.8199349627
 20
511.1204739919
 30
0.0
 11
721.7992090205
 21
511.1204739919
 31
0.0
  0
LINE
  5
399
330
1B
100
AcDbEntity
 67
     1
  8
7_ALL_FEATURES
  6
Continuous
 62
     7
100
AcDbLine
 10
715.737031194
 20
527.6204739919
 30
0.0
 11
715.737031194
 21
511.1204739919
 31
0.0
  0
LINE
  5
39A
330
1B
100
AcDbEntity
 67
     1
  8
7_ALL_FEATURES
  6
Continuous
 62
     7
100
AcDbLine
 10
723.8199349627
 20
527.6204739919
 30
0.0
 11
723.8199349627
 21
511.1204739919
 31
0.0
  0
LINE
  5
39B
330
1B
100
AcDbEntity
 67
     1
  8
7_ALL_FEATURES
  6
Continuous
 62
     7
100
AcDbLine
 10
717.7577571362
 20
527.6204739919
 30
0.0
 11
717.7577571362
 21
511.1204739919
 31
0.0
  0
LINE
  5
39C
330
1B
100
AcDbEntity
 67
     1
  8
7_ALL_FEATURES
  6
Continuous
 62
     7
100
AcDbLine
 10
721.7992090205
 20
527.6204739919
 30
0.0
 11
721.7992090205
 21
511.1204739919
 31
0.0
  0
LINE
  5
39D
330
1B
100
AcDbEntity
 67
     1
  8
7_ALL_FEATURES
  6
Continuous
 62
     7
100
AcDbLine
 10
524.6340920923
 20
511.1204739919
 30
0.0
 11
522.6133661501
 21
511.1204739919
 31
0.0
  0
LINE
  5
39E
330
1B
100
AcDbEntity
 67
     1
  8
7_ALL_FEATURES
  6
Continuous
 62
     7
100
AcDbLine
 10
516.5511883236
 20
527.6204739919
 30
0.0
 11
516.5511883236
 21
511.1204739919
 31
0.0
  0
LINE
  5
39F
330
1B
100
AcDbEntity
 67
     1
  8
7_ALL_FEATURES
  6
Continuous
 62
     7
100
AcDbLine
 10
518.5719142658
 20
511.1204739919
 30
0.0
 11
516.5511883236
 21
511.1204739919
 31
0.0
  0
LINE
  5
3A0
330
1B
100
AcDbEntity
 67
     1
  8
7_ALL_FEATURES
  6
Continuous
 62
     7
100
AcDbLine
 10
522.6133661501
 20
511.1204739919
 30
0.0
 11
518.5719142658
 21
511.1204739919
 31
0.0
  0
LINE
  5
3A1
330
1B
100
AcDbEntity
 67
     1
  8
7_ALL_FEATURES
  6
Continuous
 62
     7
100
AcDbLine
 10
524.6340920923
 20
527.6204739919
 30
0.0
 11
524.6340920923
 21
511.1204739919
 31
0.0
  0
LINE
  5
3A2
330
1B
100
AcDbEntity
 67
     1
  8
7_ALL_FEATURES
  6
Continuous
 62
     7
100
AcDbLine
 10
522.6133661501
 20
527.6204739919
 30
0.0
 11
522.6133661501
 21
511.1204739919
 31
0.0
  0
LINE
  5
3A3
330
1B
100
AcDbEntity
 67
     1
  8
7_ALL_FEATURES
  6
Continuous
 62
     7
100
AcDbLine
 10
518.5719142658
 20
527.6204739919
 30
0.0
 11
518.5719142658
 21
511.1204739919
 31
0.0
  0
LINE
  5
3A4
330
1B
100
AcDbEntity
 67
     1
  8
7_ALL_FEATURES
  6
Continuous
 62
     7
100
AcDbLine
 10
746.1855542585
 20
527.6204739919
 30
0.0
 11
726.9355593221
 21
527.6204739919
 31
0.0
  0
LINE
  5
3A5
330
1B
100
AcDbEntity
 67
     1
  8
7_ALL_FEATURES
  6
Continuous
 62
     7
100
AcDbLine
 10
726.9355593221
 20
527.6204739919
 30
0.0
 11
725.4355594387
 21
527.6204739919
 31
0.0
  0
LINE
  5
3A6
330
1B
100
AcDbEntity
 67
     1
  8
7_ALL_FEATURES
  6
Continuous
 62
     7
100
AcDbLine
 10
725.4355594387
 20
527.6204739919
 30
0.0
 11
723.9354050165
 21
527.6204739919
 31
0.0
  0
LINE
  5
3A7
330
1B
100
AcDbEntity
 67
     1
  8
7_ALL_FEATURES
  6
Continuous
 62
     7
100
AcDbLine
 10
723.9354050165
 20
527.6204739919
 30
0.0
 11
723.7823772189
 21
527.6204739919
 31
0.0
  0
LINE
  5
3A8
330
1B
100
AcDbEntity
 67
     1
  8
7_ALL_FEATURES
  6
Continuous
 62
     7
100
AcDbLine
 10
723.7823772189
 20
527.6204739919
 30
0.0
 11
723.3662860233
 21
527.6204739919
 31
0.0
  0
LINE
  5
3A9
330
1B
100
AcDbEntity
 67
     1
  8
7_ALL_FEATURES
  6
Continuous
 62
     7
100
AcDbLine
 10
723.3662860233
 20
527.6204739919
 30
0.0
 11
722.7799753675
 21
527.6204739919
 31
0.0
  0
LINE
  5
3AA
330
1B
100
AcDbEntity
 67
     1
  8
7_ALL_FEATURES
  6
Continuous
 62
     7
100
AcDbLine
 10
722.7799753675
 20
527.6204739919
 30
0.0
 11
722.5963220612
 21
527.6204739919
 31
0.0
  0
LINE
  5
3AB
330
1B
100
AcDbEntity
 67
     1
  8
7_ALL_FEATURES
  6
Continuous
 62
     7
100
AcDbLine
 10
722.5963220612
 20
527.6204739919
 30
0.0
 11
722.4038295898
 21
527.6204739919
 31
0.0
  0
LINE
  5
3AC
330
1B
100
AcDbEntity
 67
     1
  8
7_ALL_FEATURES
  6
Continuous
 62
     7
100
AcDbLine
 10
722.4038295898
 20
527.6204739919
 30
0.0
 11
722.3332466245
 21
527.6204739919
 31
0.0
  0
LINE
  5
3AD
330
1B
100
AcDbEntity
 67
     1
  8
7_ALL_FEATURES
  6
Continuous
 62
     7
100
AcDbLine
 10
722.3332466245
 20
527.6204739919
 30
0.0
 11
721.8569440474
 21
527.6204739919
 31
0.0
  0
LINE
  5
3AE
330
1B
100
AcDbEntity
 67
     1
  8
7_ALL_FEATURES
  6
Continuous
 62
     7
100
AcDbLine
 10
721.8569440474
 20
527.6204739919
 30
0.0
 11
717.7000221093
 21
527.6204739919
 31
0.0
  0
LINE
  5
3AF
330
1B
100
AcDbEntity
 67
     1
  8
7_ALL_FEATURES
  6
Continuous
 62
     7
100
AcDbLine
 10
717.7000221093
 20
527.6204739919
 30
0.0
 11
715.6215611402
 21
527.6204739919
 31
0.0
  0
LINE
  5
3B0
330
1B
100
AcDbEntity
 67
     1
  8
7_ALL_FEATURES
  6
Continuous
 62
     7
100
AcDbLine
 10
715.6215611402
 20
527.6204739919
 30
0.0
 11
649.6329188473
 21
527.6204739919
 31
0.0
  0
LINE
  5
3B1
330
1B
100
AcDbEntity
 67
     1
  8
7_ALL_FEATURES
  6
Continuous
 62
     7
100
AcDbLine
 10
649.6329188473
 20
527.6204739919
 30
0.0
 11
649.2921622788
 21
527.6204739919
 31
0.0
  0
LINE
  5
3B2
330
1B
100
AcDbEntity
 67
     1
  8
7_ALL_FEATURES
  6
Continuous
 62
     7
100
AcDbLine
 10
649.2921622788
 20
527.6204739919
 30
0.0
 11
620.1855616431
 21
527.6204739919
 31
0.0
  0
ARC
  5
3B3
330
1B
100
AcDbEntity
 67
     1
  8
7_ALL_FEATURES
  6
Continuous
 62
     7
100
AcDbCircle
 10
746.1855616431
 20
530.6204739919
 30
0.0
 40
3.0
100
AcDbArc
 50
270.0
 51
360.0
  0
LINE
  5
3B4
330
1B
100
AcDbEntity
 67
     1
  8
7_ALL_FEATURES
  6
Continuous
 62
     7
100
AcDbLine
 10
620.1855616431
 20
527.6204739919
 30
0.0
 11
649.2921622788
 21
527.6204739919
 31
0.0
  0
LINE
  5
3B5
330
1B
100
AcDbEntity
 67
     1
  8
7_ALL_FEATURES
  6
Continuous
 62
     7
100
AcDbLine
 10
649.2921622788
 20
527.6204739919
 30
0.0
 11
649.6329188473
 21
527.6204739919
 31
0.0
  0
LINE
  5
3B6
330
1B
100
AcDbEntity
 67
     1
  8
7_ALL_FEATURES
  6
Continuous
 62
     7
100
AcDbLine
 10
649.6329188473
 20
527.6204739919
 30
0.0
 11
715.6215611402
 21
527.6204739919
 31
0.0
  0
LINE
  5
3B7
330
1B
100
AcDbEntity
 67
     1
  8
7_ALL_FEATURES
  6
Continuous
 62
     7
100
AcDbLine
 10
715.6215611402
 20
527.6204739919
 30
0.0
 11
717.7000221093
 21
527.6204739919
 31
0.0
  0
LINE
  5
3B8
330
1B
100
AcDbEntity
 67
     1
  8
7_ALL_FEATURES
  6
Continuous
 62
     7
100
AcDbLine
 10
717.7000221093
 20
527.6204739919
 30
0.0
 11
721.8569440474
 21
527.6204739919
 31
0.0
  0
LINE
  5
3B9
330
1B
100
AcDbEntity
 67
     1
  8
7_ALL_FEATURES
  6
Continuous
 62
     7
100
AcDbLine
 10
721.8569440474
 20
527.6204739919
 30
0.0
 11
722.3332466245
 21
527.6204739919
 31
0.0
  0
LINE
  5
3BA
330
1B
100
AcDbEntity
 67
     1
  8
7_ALL_FEATURES
  6
Continuous
 62
     7
100
AcDbLine
 10
722.3332466245
 20
527.6204739919
 30
0.0
 11
722.4038295898
 21
527.6204739919
 31
0.0
  0
LINE
  5
3BB
330
1B
100
AcDbEntity
 67
     1
  8
7_ALL_FEATURES
  6
Continuous
 62
     7
100
AcDbLine
 10
722.4038295898
 20
527.6204739919
 30
0.0
 11
722.5963220612
 21
527.6204739919
 31
0.0
  0
LINE
  5
3BC
330
1B
100
AcDbEntity
 67
     1
  8
7_ALL_FEATURES
  6
Continuous
 62
     7
100
AcDbLine
 10
722.5963220612
 20
527.6204739919
 30
0.0
 11
722.7799753675
 21
527.6204739919
 31
0.0
  0
LINE
  5
3BD
330
1B
100
AcDbEntity
 67
     1
  8
7_ALL_FEATURES
  6
Continuous
 62
     7
100
AcDbLine
 10
722.7799753675
 20
527.6204739919
 30
0.0
 11
723.3662860233
 21
527.6204739919
 31
0.0
  0
LINE
  5
3BE
330
1B
100
AcDbEntity
 67
     1
  8
7_ALL_FEATURES
  6
Continuous
 62
     7
100
AcDbLine
 10
723.3662860233
 20
527.6204739919
 30
0.0
 11
723.7823772189
 21
527.6204739919
 31
0.0
  0
LINE
  5
3BF
330
1B
100
AcDbEntity
 67
     1
  8
7_ALL_FEATURES
  6
Continuous
 62
     7
100
AcDbLine
 10
723.7823772189
 20
527.6204739919
 30
0.0
 11
723.9354050165
 21
527.6204739919
 31
0.0
  0
LINE
  5
3C0
330
1B
100
AcDbEntity
 67
     1
  8
7_ALL_FEATURES
  6
Continuous
 62
     7
100
AcDbLine
 10
723.9354050165
 20
527.6204739919
 30
0.0
 11
725.4355594387
 21
527.6204739919
 31
0.0
  0
LINE
  5
3C1
330
1B
100
AcDbEntity
 67
     1
  8
7_ALL_FEATURES
  6
Continuous
 62
     7
100
AcDbLine
 10
725.4355594387
 20
527.6204739919
 30
0.0
 11
726.9355593221
 21
527.6204739919
 31
0.0
  0
LINE
  5
3C2
330
1B
100
AcDbEntity
 67
     1
  8
7_ALL_FEATURES
  6
Continuous
 62
     7
100
AcDbLine
 10
726.9355593221
 20
527.6204739919
 30
0.0
 11
746.1855616431
 21
527.6204739919
 31
0.0
  0
ARC
  5
3C3
330
1B
100
AcDbEntity
 67
     1
  8
7_ALL_FEATURES
  6
Continuous
 62
     7
100
AcDbCircle
 10
494.1855616431
 20
530.6204739919
 30
0.0
 40
3.0
100
AcDbArc
 50
180.0
 51
270.0
  0
LINE
  5
3C4
330
1B
100
AcDbEntity
 67
     1
  8
7_ALL_FEATURES
  6
Continuous
 62
     7
100
AcDbLine
 10
620.1855616431
 20
527.6204739919
 30
0.0
 11
594.4316822739
 21
527.6204739919
 31
0.0
  0
LINE
  5
3C5
330
1B
100
AcDbEntity
 67
     1
  8
7_ALL_FEATURES
  6
Continuous
 62
     7
100
AcDbLine
 10
594.4316822739
 20
527.6204739919
 30
0.0
 11
591.0789610075
 21
527.6204739919
 31
0.0
  0
LINE
  5
3C6
330
1B
100
AcDbEntity
 67
     1
  8
7_ALL_FEATURES
  6
Continuous
 62
     7
100
AcDbLine
 10
591.0789610075
 20
527.6204739919
 30
0.0
 11
590.690667635
 21
527.6204739919
 31
0.0
  0
LINE
  5
3C7
330
1B
100
AcDbEntity
 67
     1
  8
7_ALL_FEATURES
  6
Continuous
 62
     7
100
AcDbLine
 10
590.690667635
 20
527.6204739919
 30
0.0
 11
524.7495621461
 21
527.6204739919
 31
0.0
  0
LINE
  5
3C8
330
1B
100
AcDbEntity
 67
     1
  8
7_ALL_FEATURES
  6
Continuous
 62
     7
100
AcDbLine
 10
524.7495621461
 20
527.6204739919
 30
0.0
 11
522.671101177
 21
527.6204739919
 31
0.0
  0
LINE
  5
3C9
330
1B
100
AcDbEntity
 67
     1
  8
7_ALL_FEATURES
  6
Continuous
 62
     7
100
AcDbLine
 10
522.671101177
 20
527.6204739919
 30
0.0
 11
518.5218684262
 21
527.6204739919
 31
0.0
  0
LINE
  5
3CA
330
1B
100
AcDbEntity
 67
     1
  8
7_ALL_FEATURES
  6
Continuous
 62
     7
100
AcDbLine
 10
518.5218684262
 20
527.6204739919
 30
0.0
 11
518.5141792389
 21
527.6204739919
 31
0.0
  0
LINE
  5
3CB
330
1B
100
AcDbEntity
 67
     1
  8
7_ALL_FEATURES
  6
Continuous
 62
     7
100
AcDbLine
 10
518.5141792389
 20
527.6204739919
 30
0.0
 11
518.0390011797
 21
527.6204739919
 31
0.0
  0
LINE
  5
3CC
330
1B
100
AcDbEntity
 67
     1
  8
7_ALL_FEATURES
  6
Continuous
 62
     7
100
AcDbLine
 10
518.0390011797
 20
527.6204739919
 30
0.0
 11
516.4357182698
 21
527.6204739919
 31
0.0
  0
LINE
  5
3CD
330
1B
100
AcDbEntity
 67
     1
  8
7_ALL_FEATURES
  6
Continuous
 62
     7
100
AcDbLine
 10
516.4357182698
 20
527.6204739919
 30
0.0
 11
514.9355675453
 21
527.6204739919
 31
0.0
  0
LINE
  5
3CE
330
1B
100
AcDbEntity
 67
     1
  8
7_ALL_FEATURES
  6
Continuous
 62
     7
100
AcDbLine
 10
514.9355675453
 20
527.6204739919
 30
0.0
 11
513.4355676416
 21
527.6204739919
 31
0.0
  0
LINE
  5
3CF
330
1B
100
AcDbEntity
 67
     1
  8
7_ALL_FEATURES
  6
Continuous
 62
     7
100
AcDbLine
 10
513.4355676416
 20
527.6204739919
 30
0.0
 11
494.1855690278
 21
527.6204739919
 31
0.0
  0
LINE
  5
3D0
330
1B
100
AcDbEntity
 67
     1
  8
7_ALL_FEATURES
  6
Continuous
 62
     7
100
AcDbLine
 10
494.1855616431
 20
527.6204739919
 30
0.0
 11
513.4355676416
 21
527.6204739919
 31
0.0
  0
LINE
  5
3D1
330
1B
100
AcDbEntity
 67
     1
  8
7_ALL_FEATURES
  6
Continuous
 62
     7
100
AcDbLine
 10
513.4355676416
 20
527.6204739919
 30
0.0
 11
514.9355675453
 21
527.6204739919
 31
0.0
  0
LINE
  5
3D2
330
1B
100
AcDbEntity
 67
     1
  8
7_ALL_FEATURES
  6
Continuous
 62
     7
100
AcDbLine
 10
514.9355675453
 20
527.6204739919
 30
0.0
 11
516.4357182698
 21
527.6204739919
 31
0.0
  0
LINE
  5
3D3
330
1B
100
AcDbEntity
 67
     1
  8
7_ALL_FEATURES
  6
Continuous
 62
     7
100
AcDbLine
 10
516.4357182698
 20
527.6204739919
 30
0.0
 11
518.0390011797
 21
527.6204739919
 31
0.0
  0
LINE
  5
3D4
330
1B
100
AcDbEntity
 67
     1
  8
7_ALL_FEATURES
  6
Continuous
 62
     7
100
AcDbLine
 10
518.0390011797
 20
527.6204739919
 30
0.0
 11
518.5141792389
 21
527.6204739919
 31
0.0
  0
LINE
  5
3D5
330
1B
100
AcDbEntity
 67
     1
  8
7_ALL_FEATURES
  6
Continuous
 62
     7
100
AcDbLine
 10
518.5141792389
 20
527.6204739919
 30
0.0
 11
518.5218684262
 21
527.6204739919
 31
0.0
  0
LINE
  5
3D6
330
1B
100
AcDbEntity
 67
     1
  8
7_ALL_FEATURES
  6
Continuous
 62
     7
100
AcDbLine
 10
518.5218684262
 20
527.6204739919
 30
0.0
 11
522.671101177
 21
527.6204739919
 31
0.0
  0
LINE
  5
3D7
330
1B
100
AcDbEntity
 67
     1
  8
7_ALL_FEATURES
  6
Continuous
 62
     7
100
AcDbLine
 10
522.671101177
 20
527.6204739919
 30
0.0
 11
524.7495621461
 21
527.6204739919
 31
0.0
  0
LINE
  5
3D8
330
1B
100
AcDbEntity
 67
     1
  8
7_ALL_FEATURES
  6
Continuous
 62
     7
100
AcDbLine
 10
524.7495621461
 20
527.6204739919
 30
0.0
 11
590.690667635
 21
527.6204739919
 31
0.0
  0
LINE
  5
3D9
330
1B
100
AcDbEntity
 67
     1
  8
7_ALL_FEATURES
  6
Continuous
 62
     7
100
AcDbLine
 10
590.690667635
 20
527.6204739919
 30
0.0
 11
591.0789610075
 21
527.6204739919
 31
0.0
  0
LINE
  5
3DA
330
1B
100
AcDbEntity
 67
     1
  8
7_ALL_FEATURES
  6
Continuous
 62
     7
100
AcDbLine
 10
591.0789610075
 20
527.6204739919
 30
0.0
 11
594.4316822739
 21
527.6204739919
 31
0.0
  0
LINE
  5
3DB
330
1B
100
AcDbEntity
 67
     1
  8
7_ALL_FEATURES
  6
Continuous
 62
     7
100
AcDbLine
 10
594.4316822739
 20
527.6204739919
 30
0.0
 11
620.1855616431
 21
527.6204739919
 31
0.0
  0
LINE
  5
3DC
330
1B
100
AcDbEntity
 67
     1
  8
02___PRT_ALL_AXES
  6
Continuous
 62
     7
100
AcDbLine
 10
749.1855616431
 20
530.6204739919
 30
0.0
 11
749.1855616431
 21
552.6204739919
 31
0.0
  0
LINE
  5
3DD
330
1B
100
AcDbEntity
 67
     1
  8
02___PRT_ALL_AXES
  6
Continuous
 62
     7
100
AcDbLine
 10
491.1855616431
 20
530.6204739919
 30
0.0
 11
491.1855616431
 21
552.6204739919
 31
0.0
  0
SPLINE
  5
3DE
330
1B
100
AcDbEntity
 67
     1
  8
7_ALL_FEATURES
  6
Continuous
 62
     7
100
AcDbSpline
 70
     0
 71
     3
 72
    12
 73
     8
 74
     0
 42
0.000000001
 43
0.0000001
 40
0.0
 40
0.0
 40
0.0
 40
0.0
 40
0.3549998813
 40
0.6362115212
 40
0.749083652
 40
0.8450315583
 40
1.0
 40
1.0
 40
1.0
 40
1.0
 10
744.3372504898
 20
552.3275807731
 30
0.0
 10
744.32580251
 20
552.3697305109
 30
0.0
 10
744.3019209104
 20
552.4443990214
 30
0.0
 10
744.2619022499
 20
552.5281197013
 30
0.0
 10
744.2255390444
 20
552.5765981943
 30
0.0
 10
744.193196385
 20
552.6074898455
 30
0.0
 10
744.1623920794
 20
552.6204739919
 30
0.0
 10
744.1433258347
 20
552.6204739919
 30
0.0
  0
ELLIPSE
  5
3DF
330
1B
100
AcDbEntity
 67
     1
  8
7_ALL_FEATURES
  6
Continuous
 62
     7
100
AcDbEllipse
 10
620.1855616431
 20
550.6204739919
 30
0.0
 11
-102.3425808976
 21
102.3425808976
 31
0.0
210
0.0
220
0.0
230
1.0
 40
0.767326988
 41
-2.2252947963
 42
-2.2120610241
  0
LINE
  5
3E0
330
1B
100
AcDbEntity
 67
     1
  8
7_ALL_FEATURES
  6
Continuous
 62
     9
100
AcDbLine
 10
744.3372504898
 20
552.3275807731
 30
0.0
 11
745.2209139838
 21
552.3275807731
 31
0.0
  0
LINE
  5
3E1
330
1B
100
AcDbEntity
 67
     1
  8
7_ALL_FEATURES
  6
Continuous
 62
     9
100
AcDbLine
 10
620.1855616431
 20
530.6204739919
 30
0.0
 11
491.1855616431
 21
530.6204739919
 31
0.0
  0
LINE
  5
3E2
330
1B
100
AcDbEntity
 67
     1
  8
7_ALL_FEATURES
  6
Continuous
 62
     9
100
AcDbLine
 10
749.1855616431
 20
530.6204739919
 30
0.0
 11
620.1855616431
 21
530.6204739919
 31
0.0
  0
ELLIPSE
  5
3E3
330
1B
100
AcDbEntity
 67
     1
  8
7_ALL_FEATURES
  6
Continuous
 62
     7
100
AcDbEllipse
 10
620.1855616431
 20
550.6204739919
 30
0.0
 11
102.3425808976
 21
102.3425808976
 31
0.0
210
0.0
220
0.0
230
1.0
 40
0.767326988
 41
-0.9162978573
 42
-0.9030640851
  0
SPLINE
  5
3E4
330
1B
100
AcDbEntity
 67
     1
  8
7_ALL_FEATURES
  6
Continuous
 62
     7
100
AcDbSpline
 70
     0
 71
     3
 72
    11
 73
     7
 74
     0
 42
0.000000001
 43
0.0000001
 40
0.0
 40
0.0
 40
0.0
 40
0.0
 40
0.3412383185
 40
0.4755727566
 40
0.6306216205
 40
1.0
 40
1.0
 40
1.0
 40
1.0
 10
745.3930147324
 20
552.6204739919
 30
0.0
 10
745.3530401481
 20
552.6204739919
 30
0.0
 10
745.3092999025
 20
552.5647178528
 30
0.0
 10
745.277241144
 20
552.5008233792
 30
0.0
 10
745.2480562747
 20
552.4285679053
 30
0.0
 10
745.2312519034
 20
552.3695987803
 30
0.0
 10
745.2209139838
 20
552.3275807731
 30
0.0
  0
LINE
  5
3E5
330
1B
100
AcDbEntity
 67
     1
  8
02___PRT_ALL_AXES
  6
Continuous
 62
     7
100
AcDbLine
 10
755.1855616431
 20
554.6204739919
 30
0.0
 11
620.1855616431
 21
554.6204739919
 31
0.0
  0
LINE
  5
3E6
330
1B
100
AcDbEntity
 67
     1
  8
02___PRT_ALL_AXES
  6
Continuous
 62
     7
100
AcDbLine
 10
755.1855616431
 20
552.6204739919
 30
0.0
 11
749.1855616431
 21
552.6204739919
 31
0.0
  0
LINE
  5
3E7
330
1B
100
AcDbEntity
 67
     1
  8
02___PRT_ALL_AXES
  6
Continuous
 62
     7
100
AcDbLine
 10
749.1855616431
 20
552.6204739919
 30
0.0
 11
747.6855591846
 21
552.6204739919
 31
0.0
  0
LINE
  5
3E8
330
1B
100
AcDbEntity
 67
     1
  8
02___PRT_ALL_AXES
  6
Continuous
 62
     7
100
AcDbLine
 10
747.6855591846
 20
552.6204739919
 30
0.0
 11
745.3930147324
 21
552.6204739919
 31
0.0
  0
LINE
  5
3E9
330
1B
100
AcDbEntity
 67
     1
  8
02___PRT_ALL_AXES
  6
Continuous
 62
     7
100
AcDbLine
 10
745.3930147324
 20
552.6204739919
 30
0.0
 11
744.1433258347
 21
552.6204739919
 31
0.0
  0
LINE
  5
3EA
330
1B
100
AcDbEntity
 67
     1
  8
02___PRT_ALL_AXES
  6
Continuous
 62
     7
100
AcDbLine
 10
744.1433258347
 20
552.6204739919
 30
0.0
 11
743.9438692066
 21
552.6204739919
 31
0.0
  0
LINE
  5
3EB
330
1B
100
AcDbEntity
 67
     1
  8
02___PRT_ALL_AXES
  6
Continuous
 62
     7
100
AcDbLine
 10
743.9438692066
 20
552.6204739919
 30
0.0
 11
742.6941803089
 21
552.6204739919
 31
0.0
  0
LINE
  5
3EC
330
1B
100
AcDbEntity
 67
     1
  8
02___PRT_ALL_AXES
  6
Continuous
 62
     7
100
AcDbLine
 10
742.6941803089
 20
552.6204739919
 30
0.0
 11
710.1855616431
 21
552.6204739919
 31
0.0
  0
LINE
  5
3ED
330
1B
100
AcDbEntity
 67
     1
  8
02___PRT_ALL_AXES
  6
Continuous
 62
     7
100
AcDbLine
 10
710.1855616431
 20
552.6204739919
 30
0.0
 11
697.109649407
 21
552.6204739919
 31
0.0
  0
LINE
  5
3EE
330
1B
100
AcDbEntity
 67
     1
  8
02___PRT_ALL_AXES
  6
Continuous
 62
     7
100
AcDbLine
 10
697.109649407
 20
552.6204739919
 30
0.0
 11
697.0833616109
 21
552.6204739919
 31
0.0
  0
LINE
  5
3EF
330
1B
100
AcDbEntity
 67
     1
  8
02___PRT_ALL_AXES
  6
Continuous
 62
     7
100
AcDbLine
 10
697.0833616109
 20
552.6204739919
 30
0.0
 11
693.2833616109
 21
552.6204739919
 31
0.0
  0
LINE
  5
3F0
330
1B
100
AcDbEntity
 67
     1
  8
02___PRT_ALL_AXES
  6
Continuous
 62
     7
100
AcDbLine
 10
693.2833616109
 20
552.6204739919
 30
0.0
 11
655.511024876
 21
552.6204739919
 31
0.0
  0
LINE
  5
3F1
330
1B
100
AcDbEntity
 67
     1
  8
02___PRT_ALL_AXES
  6
Continuous
 62
     7
100
AcDbLine
 10
655.511024876
 20
552.6204739919
 30
0.0
 11
622.0855616431
 21
552.6204739919
 31
0.0
  0
LINE
  5
3F2
330
1B
100
AcDbEntity
 67
     1
  8
02___PRT_ALL_AXES
  6
Continuous
 62
     7
100
AcDbLine
 10
622.0855616431
 20
552.6204739919
 30
0.0
 11
620.1855616431
 21
552.6204739919
 31
0.0
  0
LINE
  5
3F3
330
1B
100
AcDbEntity
 67
     1
  8
02___PRT_ALL_AXES
  6
Continuous
 62
     7
100
AcDbLine
 10
755.1855616431
 20
552.6204739919
 30
0.0
 11
755.1855616431
 21
554.6204739919
 31
0.0
  0
LINE
  5
3F4
330
1B
100
AcDbEntity
 67
     1
  8
02___PRT_ALL_AXES
  6
Continuous
 62
     7
100
AcDbLine
 10
485.1855616431
 20
554.6204739919
 30
0.0
 11
620.1855616431
 21
554.6204739919
 31
0.0
  0
LINE
  5
3F5
330
1B
100
AcDbEntity
 67
     1
  8
02___PRT_ALL_AXES
  6
Continuous
 62
     7
100
AcDbLine
 10
485.1855616431
 20
552.6204739919
 30
0.0
 11
491.1855638524
 21
552.6204739919
 31
0.0
  0
LINE
  5
3F6
330
1B
100
AcDbEntity
 67
     1
  8
02___PRT_ALL_AXES
  6
Continuous
 62
     7
100
AcDbLine
 10
491.1855638524
 20
552.6204739919
 30
0.0
 11
492.685563723
 21
552.6204739919
 31
0.0
  0
LINE
  5
3F7
330
1B
100
AcDbEntity
 67
     1
  8
02___PRT_ALL_AXES
  6
Continuous
 62
     7
100
AcDbLine
 10
492.685563723
 20
552.6204739919
 30
0.0
 11
496.4272540797
 21
552.6204739919
 31
0.0
  0
LINE
  5
3F8
330
1B
100
AcDbEntity
 67
     1
  8
02___PRT_ALL_AXES
  6
Continuous
 62
     7
100
AcDbLine
 10
496.4272540797
 20
552.6204739919
 30
0.0
 11
530.1855616431
 21
552.6204739919
 31
0.0
  0
LINE
  5
3F9
330
1B
100
AcDbEntity
 67
     1
  8
02___PRT_ALL_AXES
  6
Continuous
 62
     7
100
AcDbLine
 10
530.1855616431
 20
552.6204739919
 30
0.0
 11
543.2614738793
 21
552.6204739919
 31
0.0
  0
LINE
  5
3FA
330
1B
100
AcDbEntity
 67
     1
  8
02___PRT_ALL_AXES
  6
Continuous
 62
     7
100
AcDbLine
 10
543.2614738793
 20
552.6204739919
 30
0.0
 11
543.2877616754
 21
552.6204739919
 31
0.0
  0
LINE
  5
3FB
330
1B
100
AcDbEntity
 67
     1
  8
02___PRT_ALL_AXES
  6
Continuous
 62
     7
100
AcDbLine
 10
543.2877616754
 20
552.6204739919
 30
0.0
 11
547.0877616754
 21
552.6204739919
 31
0.0
  0
LINE
  5
3FC
330
1B
100
AcDbEntity
 67
     1
  8
02___PRT_ALL_AXES
  6
Continuous
 62
     7
100
AcDbLine
 10
547.0877616754
 20
552.6204739919
 30
0.0
 11
618.2855616431
 21
552.6204739919
 31
0.0
  0
LINE
  5
3FD
330
1B
100
AcDbEntity
 67
     1
  8
02___PRT_ALL_AXES
  6
Continuous
 62
     7
100
AcDbLine
 10
618.2855616431
 20
552.6204739919
 30
0.0
 11
620.1855616431
 21
552.6204739919
 31
0.0
  0
LINE
  5
3FE
330
1B
100
AcDbEntity
 67
     1
  8
02___PRT_ALL_AXES
  6
Continuous
 62
     7
100
AcDbLine
 10
485.1855616431
 20
552.6204739919
 30
0.0
 11
485.1855616431
 21
554.6204739919
 31
0.0
  0
LINE
  5
3FF
330
1B
100
AcDbEntity
 67
     1
  8
02___PRT_ALL_AXES
  6
Continuous
 62
     7
100
AcDbLine
 10
723.2981435995
 20
353.6204739919
 30
0.0
 11
725.4355551524
 21
353.6204739919
 31
0.0
  0
LINE
  5
400
330
1B
100
AcDbEntity
 67
     1
  8
02___PRT_ALL_AXES
  6
Continuous
 62
     7
100
AcDbLine
 10
725.4355551524
 20
353.6204739919
 30
0.0
 11
726.9355550599
 21
353.6204739919
 31
0.0
  0
LINE
  5
401
330
1B
100
AcDbEntity
 67
     1
  8
02___PRT_ALL_AXES
  6
Continuous
 62
     7
100
AcDbLine
 10
513.4355682264
 20
353.6204739919
 30
0.0
 11
514.9355681339
 21
353.6204739919
 31
0.0
  0
LINE
  5
402
330
1B
100
AcDbEntity
 67
     1
  8
02___PRT_ALL_AXES
  6
Continuous
 62
     7
100
AcDbLine
 10
514.9355681339
 20
353.6204739919
 30
0.0
 11
518.5218684262
 21
353.6204739919
 31
0.0
  0
LINE
  5
403
330
1B
100
AcDbEntity
 67
     1
  8
02___PRT_ALL_AXES
  6
Continuous
 62
     7
100
AcDbLine
 10
518.5218684262
 20
353.6204739919
 30
0.0
 11
723.2981435995
 21
353.6204739919
 31
0.0
  0
LINE
  5
404
330
1B
100
AcDbEntity
 67
     1
  8
02___PRT_ALL_AXES
  6
Continuous
 62
     7
100
AcDbLine
 10
513.4355616431
 20
353.6204739919
 30
0.0
 11
513.4355616431
 21
527.6204739919
 31
0.0
  0
LINE
  5
405
330
1B
100
AcDbEntity
 67
     1
  8
02___PRT_ALL_AXES
  6
Continuous
 62
     7
100
AcDbLine
 10
726.701506945
 20
383.1204739919
 30
0.0
 11
726.7340513585
 21
383.1204739919
 31
0.0
  0
SPLINE
  5
406
330
1B
100
AcDbEntity
 67
     1
  8
02___PRT_ALL_AXES
  6
Continuous
 62
     7
100
AcDbSpline
 70
     0
 71
     3
 72
    22
 73
    18
 74
     0
 42
0.000000001
 43
0.0000001
 40
0.0
 40
0.0
 40
0.0
 40
0.0
 40
0.0118591898
 40
0.0239044029
 40
0.0499629081
 40
0.0646551405
 40
0.0807138715
 40
0.1174135781
 40
0.1607227088
 40
0.2108065322
 40
0.2675590514
 40
0.3306983079
 40
0.3998178327
 40
0.4744156541
 40
0.6376450512
 40
0.8149484372
 40
1.0
 40
1.0
 40
1.0
 40
1.0
 10
723.4264220552
 20
362.876498963
 30
0.0
 10
723.5098662842
 20
362.8844082427
 30
0.0
 10
723.6770071356
 20
362.9165007145
 30
0.0
 10
724.0064479798
 20
363.0487909779
 30
0.0
 10
724.3072882299
 20
363.2819836308
 30
0.0
 10
724.5711174769
 20
363.5850604594
 30
0.0
 10
724.8428731959
 20
363.9779629902
 30
0.0
 10
725.1470919943
 20
364.5883259544
 30
0.0
 10
725.4534064232
 20
365.4567123538
 30
0.0
 10
725.7178477996
 20
366.4854974168
 30
0.0
 10
725.942647869
 20
367.6661958863
 30
0.0
 10
726.1304993146
 20
368.9891892723
 30
0.0
 10
726.2846208298
 20
370.4432906895
 30
0.0
 10
726.4547179282
 20
372.6062442192
 30
0.0
 10
726.5929308469
 20
375.5376436737
 30
0.0
 10
726.6794554041
 20
379.2514967103
 30
0.0
 10
726.6993799628
 20
381.8125706201
 30
0.0
 10
726.701506945
 20
383.1204739919
 30
0.0
  0
LINE
  5
407
330
1B
100
AcDbEntity
 67
     1
  8
02___PRT_ALL_AXES
  6
Continuous
 62
     7
100
AcDbLine
 10
723.4264220552
 20
362.3763571593
 30
0.0
 11
723.4264220552
 21
362.876498963
 31
0.0
  0
LINE
  5
408
330
1B
100
AcDbEntity
 67
     1
  8
02___PRT_ALL_AXES
  6
Continuous
 62
     7
100
AcDbLine
 10
726.9355616431
 20
353.6204739919
 30
0.0
 11
726.9355616431
 21
527.6204739919
 31
0.0
  0
LINE
  5
409
330
1B
100
AcDbEntity
 67
     1
  8
02___PRT_ALL_AXES
  6
Continuous
 62
     7
100
AcDbLine
 10
723.4264220552
 20
404.3644490208
 30
0.0
 11
723.4264220552
 21
404.8645908246
 31
0.0
  0
SPLINE
  5
40A
330
1B
100
AcDbEntity
 67
     1
  8
02___PRT_ALL_AXES
  6
Continuous
 62
     7
100
AcDbSpline
 70
     0
 71
     3
 72
    22
 73
    18
 74
     0
 42
0.000000001
 43
0.0000001
 40
0.0
 40
0.0
 40
0.0
 40
0.0
 40
0.1850515631
 40
0.3623549492
 40
0.5255843468
 40
0.6001821682
 40
0.6693016929
 40
0.7324409492
 40
0.7891934683
 40
0.8392772915
 40
0.8825864222
 40
0.9192861287
 40
0.9353448597
 40
0.9500370921
 40
0.9760955972
 40
0.9881408102
 40
1.0
 40
1.0
 40
1.0
 40
1.0
 10
726.701506945
 20
384.1204739919
 30
0.0
 10
726.6993799628
 20
385.4283773653
 30
0.0
 10
726.6794554041
 20
387.9894512779
 30
0.0
 10
726.5929308466
 20
391.7033043212
 30
0.0
 10
726.4547179273
 20
394.6347037801
 30
0.0
 10
726.2846208281
 20
396.7976573123
 30
0.0
 10
726.1304993127
 20
398.251758727
 30
0.0
 10
725.9426478669
 20
399.5747521104
 30
0.0
 10
725.7178477971
 20
400.7554505774
 30
0.0
 10
725.4534064209
 20
401.7842356382
 30
0.0
 10
725.1470919916
 20
402.6526220354
 30
0.0
 10
724.8428731935
 20
403.262984998
 30
0.0
 10
724.5711174746
 20
403.6558875277
 30
0.0
 10
724.3072882274
 20
403.9589643553
 30
0.0
 10
724.0064479776
 20
404.1921570069
 30
0.0
 10
723.6770071344
 20
404.3244472701
 30
0.0
 10
723.5098662838
 20
404.3565397412
 30
0.0
 10
723.4264220552
 20
404.3644490208
 30
0.0
  0
LINE
  5
40B
330
1B
100
AcDbEntity
 67
     1
  8
02___PRT_ALL_AXES
  6
Continuous
 62
     7
100
AcDbLine
 10
726.701506945
 20
384.1204739919
 30
0.0
 11
726.7340513585
 21
384.1204739919
 31
0.0
  0
LINE
  5
40C
330
1B
100
AcDbEntity
 67
     1
  8
7_ALL_FEATURES
  6
Continuous
 62
     7
100
AcDbLine
 10
725.4308116395
 20
383.1204739919
 30
0.0
 11
725.4725879898
 21
383.1204739919
 31
0.0
  0
SPLINE
  5
40D
330
1B
100
AcDbEntity
 67
     1
  8
7_ALL_FEATURES
  6
Continuous
 62
     7
100
AcDbSpline
 70
     0
 71
     3
 72
    19
 73
    15
 74
     0
 42
0.000000001
 43
0.0000001
 40
0.0
 40
0.0
 40
0.0
 40
0.0
 40
0.0245212348
 40
0.0523030559
 40
0.0850250753
 40
0.1236000562
 40
0.1684287546
 40
0.2195916398
 40
0.2769615438
 40
0.3402667743
 40
0.4830578926
 40
0.6440142381
 40
0.8181941359
 40
1.0
 40
1.0
 40
1.0
 40
1.0
 10
723.4264220552
 20
373.6329818142
 30
0.0
 10
723.5066528715
 20
373.6487767318
 30
0.0
 10
723.6721139461
 20
373.7152918063
 30
0.0
 10
723.8934365707
 20
373.897160798
 30
0.0
 10
724.098998974
 20
374.158107787
 30
0.0
 10
724.2900432941
 20
374.49613817
 30
0.0
 10
724.4669605883
 20
374.90923913
 30
0.0
 10
724.629406641
 20
375.3946134697
 30
0.0
 10
724.7770723966
 20
375.9485877904
 30
0.0
 10
724.9612400265
 20
376.8079268807
 30
0.0
 10
725.144820239
 20
378.019126712
 30
0.0
 10
725.2997427232
 20
379.605783596
 30
0.0
 10
725.3977187872
 20
381.3272307354
 30
0.0
 10
725.4257113072
 20
382.5142286491
 30
0.0
 10
725.4308116395
 20
383.1204739919
 30
0.0
  0
LINE
  5
40E
330
1B
100
AcDbEntity
 67
     1
  8
7_ALL_FEATURES
  6
Continuous
 62
     7
100
AcDbLine
 10
723.4264220552
 20
373.3826763772
 30
0.0
 11
723.4264220552
 21
373.6329818142
 31
0.0
  0
LINE
  5
40F
330
1B
100
AcDbEntity
 67
     1
  8
7_ALL_FEATURES
  6
Continuous
 62
     7
100
AcDbLine
 10
723.4264220552
 20
393.6079661697
 30
0.0
 11
723.4264220552
 21
393.8582716067
 31
0.0
  0
SPLINE
  5
410
330
1B
100
AcDbEntity
 67
     1
  8
7_ALL_FEATURES
  6
Continuous
 62
     7
100
AcDbSpline
 70
     0
 71
     3
 72
    19
 73
    15
 74
     0
 42
0.000000001
 43
0.0000001
 40
0.0
 40
0.0
 40
0.0
 40
0.0
 40
0.1818058622
 40
0.3559857608
 40
0.5169421075
 40
0.6597332243
 40
0.723038456
 40
0.7804083604
 40
0.8315712444
 40
0.8763999433
 40
0.9149749248
 40
0.9476969435
 40
0.9754787647
 40
1.0
 40
1.0
 40
1.0
 40
1.0
 10
725.4308116395
 20
384.1204739919
 30
0.0
 10
725.4257113072
 20
384.7267193284
 30
0.0
 10
725.3977187875
 20
385.9137172386
 30
0.0
 10
725.2997427241
 20
387.6351643787
 30
0.0
 10
725.1448202399
 20
389.2218212643
 30
0.0
 10
724.9612400273
 20
390.4330210983
 30
0.0
 10
724.7770723978
 20
391.2923601886
 30
0.0
 10
724.6294066421
 20
391.8463345108
 30
0.0
 10
724.46696059
 20
392.3317088496
 30
0.0
 10
724.2900432962
 20
392.7448098097
 30
0.0
 10
724.0989989759
 20
393.082840194
 30
0.0
 10
723.8934365733
 20
393.3437871837
 30
0.0
 10
723.6721139493
 20
393.5256561756
 30
0.0
 10
723.5066528731
 20
393.5921712517
 30
0.0
 10
723.4264220552
 20
393.6079661697
 30
0.0
  0
LINE
  5
411
330
1B
100
AcDbEntity
 67
     1
  8
7_ALL_FEATURES
  6
Continuous
 62
     7
100
AcDbLine
 10
725.4308116395
 20
384.1204739919
 30
0.0
 11
725.4725879898
 21
384.1204739919
 31
0.0
  0
SPLINE
  5
412
330
1B
100
AcDbEntity
 67
     1
  8
02___PRT_ALL_AXES
  6
Continuous
 62
     7
100
AcDbSpline
 70
     0
 71
     3
 72
    21
 73
    17
 74
     0
 42
0.000000001
 43
0.0000001
 40
0.0
 40
0.0
 40
0.0
 40
0.0
 40
0.0248221985
 40
0.0388264965
 40
0.054118935
 40
0.0889731906
 40
0.1299268811
 40
0.1770734401
 40
0.2302695815
 40
0.2892264017
 40
0.3535611131
 40
0.4228266762
 40
0.4965293727
 40
0.6550491606
 40
0.8245486228
 40
1.0
 40
1.0
 40
1.0
 40
1.0
 10
723.1676030101
 20
362.3763571593
 30
0.0
 10
722.9784181013
 20
362.3932652854
 30
0.0
 10
722.6866678906
 20
362.4763778232
 30
0.0
 10
722.3175467751
 20
362.6646189515
 30
0.0
 10
721.9069506293
 20
362.9355938162
 30
0.0
 10
721.384571217
 20
363.4021528616
 30
0.0
 10
720.7703824819
 20
364.117219978
 30
0.0
 10
720.1509701147
 20
365.005226014
 30
0.0
 10
719.5354855247
 20
366.0585992936
 30
0.0
 10
718.9337128036
 20
367.2685837449
 30
0.0
 10
718.355904163
 20
368.6248235147
 30
0.0
 10
717.8122940834
 20
370.1158050863
 30
0.0
 10
717.1300039734
 20
372.3203926993
 30
0.0
 10
716.4329934135
 20
375.3191764121
 30
0.0
 10
715.8935687084
 20
379.1382854833
 30
0.0
 10
715.7516626752
 20
381.778000464
 30
0.0
 10
715.7372872932
 20
383.1204739919
 30
0.0
  0
LINE
  5
413
330
1B
100
AcDbEntity
 67
     1
  8
02___PRT_ALL_AXES
  6
Continuous
 62
     7
100
AcDbLine
 10
715.7372872932
 20
383.1204739919
 30
0.0
 11
715.9636353278
 21
383.1204739919
 31
0.0
  0
SPLINE
  5
414
330
1B
100
AcDbEntity
 67
     1
  8
02___PRT_ALL_AXES
  6
Continuous
 62
     7
100
AcDbSpline
 70
     0
 71
     3
 72
    21
 73
    17
 74
     0
 42
0.000000001
 43
0.0000001
 40
0.0
 40
0.0
 40
0.0
 40
0.0
 40
0.1754513769
 40
0.3449508395
 40
0.5034706269
 40
0.5771733235
 40
0.6464388865
 40
0.710773598
 40
0.7697304183
 40
0.8229265597
 40
0.8700731188
 40
0.9110268093
 40
0.9458810649
 40
0.9611735034
 40
0.9751778014
 40
1.0
 40
1.0
 40
1.0
 40
1.0
 10
715.7372872932
 20
384.1204739919
 30
0.0
 10
715.7516626752
 20
385.4629475173
 30
0.0
 10
715.8935687083
 20
388.1026624983
 30
0.0
 10
716.4329934125
 20
391.9217715671
 30
0.0
 10
717.1300039724
 20
394.92055528
 30
0.0
 10
717.812294081
 20
397.1251428904
 30
0.0
 10
718.3559041604
 20
398.6161244625
 30
0.0
 10
718.9337128008
 20
399.9723642331
 30
0.0
 10
719.535485522
 20
401.1823486852
 30
0.0
 10
720.150970112
 20
402.2357219656
 30
0.0
 10
720.7703824793
 20
403.1237280025
 30
0.0
 10
721.3845712146
 20
403.8387951198
 30
0.0
 10
721.906950627
 20
404.305354166
 30
0.0
 10
722.3175467729
 20
404.5763290311
 30
0.0
 10
722.6866678889
 20
404.7645701602
 30
0.0
 10
722.9784181005
 20
404.8476826984
 30
0.0
 10
723.1676030101
 20
404.8645908246
 30
0.0
  0
LINE
  5
415
330
1B
100
AcDbEntity
 67
     1
  8
02___PRT_ALL_AXES
  6
Continuous
 62
     7
100
AcDbLine
 10
715.7372872932
 20
384.1204739919
 30
0.0
 11
715.9636353278
 21
384.1204739919
 31
0.0
  0
SPLINE
  5
416
330
1B
100
AcDbEntity
 67
     1
  8
02___PRT_ALL_AXES
  6
Continuous
 62
     7
100
AcDbSpline
 70
     0
 71
     3
 72
    19
 73
    15
 74
     0
 42
0.000000001
 43
0.0000001
 40
0.0
 40
0.0
 40
0.0
 40
0.0
 40
0.0630544872
 40
0.1261055376
 40
0.1891504394
 40
0.2521838717
 40
0.3780401244
 40
0.5037076993
 40
0.5664813392
 40
0.6291277334
 40
0.6916101785
 40
0.7538894978
 40
0.8775467814
 40
1.0
 40
1.0
 40
1.0
 40
1.0
 10
613.6295079999
 20
383.1204739919
 30
0.0
 10
613.6133070174
 20
382.4446155632
 30
0.0
 10
613.5150693777
 20
381.0935873568
 30
0.0
 10
613.1721060014
 20
379.0917472002
 30
0.0
 10
612.6374705705
 20
377.1322701789
 30
0.0
 10
611.678675076
 20
374.6032841134
 30
0.0
 10
610.0355121862
 20
371.6333321551
 30
0.0
 10
607.8676314236
 20
369.0261504167
 30
0.0
 10
605.8725725103
 20
367.2138020301
 30
0.0
 10
604.2595614338
 20
366.0017368572
 30
0.0
 10
602.5451274453
 20
364.9480295748
 30
0.0
 10
600.1525172407
 20
363.7702467512
 30
0.0
 10
596.9904150884
 20
362.7351765511
 30
0.0
 10
594.3524151291
 20
362.4082981914
 30
0.0
 10
593.0398945601
 20
362.3763571593
 30
0.0
  0
LINE
  5
417
330
1B
100
AcDbEntity
 67
     1
  8
02___PRT_ALL_AXES
  6
Continuous
 62
     7
100
AcDbLine
 10
613.1204433529
 20
383.1204739919
 30
0.0
 11
613.6295079999
 21
383.1204739919
 31
0.0
  0
LINE
  5
418
330
1B
100
AcDbEntity
 67
     1
  8
02___PRT_ALL_AXES
  6
Continuous
 62
     7
100
AcDbLine
 10
613.1204433529
 20
384.1204739919
 30
0.0
 11
613.6295079999
 21
384.1204739919
 31
0.0
  0
SPLINE
  5
419
330
1B
100
AcDbEntity
 67
     1
  8
02___PRT_ALL_AXES
  6
Continuous
 62
     7
100
AcDbSpline
 70
     0
 71
     3
 72
    19
 73
    15
 74
     0
 42
0.000000001
 43
0.0000001
 40
0.0
 40
0.0
 40
0.0
 40
0.0
 40
0.122453219
 40
0.2461105019
 40
0.3083898211
 40
0.3708722662
 40
0.4335186605
 40
0.4962923005
 40
0.6219598755
 40
0.7478161283
 40
0.8108495607
 40
0.8738944625
 40
0.936945513
 40
1.0
 40
1.0
 40
1.0
 40
1.0
 10
593.0398945601
 20
404.8645908246
 30
0.0
 10
594.3524151331
 20
404.8326497924
 30
0.0
 10
596.9904150898
 20
404.5057714323
 30
0.0
 10
600.1525172374
 20
403.4707012332
 30
0.0
 10
602.5451274356
 20
402.2929184146
 30
0.0
 10
604.2595614242
 20
401.2392111331
 30
0.0
 10
605.872572503
 20
400.02714596
 30
0.0
 10
607.867631419
 20
398.2147975722
 30
0.0
 10
610.0355121844
 20
395.6076158319
 30
0.0
 10
611.6786750759
 20
392.637663871
 30
0.0
 10
612.6374705711
 20
390.1086778032
 30
0.0
 10
613.1721060023
 20
388.1492007799
 30
0.0
 10
613.5150693779
 20
386.1473606237
 30
0.0
 10
613.6133070174
 20
384.7963324186
 30
0.0
 10
613.6295079999
 20
384.1204739919
 30
0.0
  0
LINE
  5
41A
330
1B
100
AcDbEntity
 67
     1
  8
02___PRT_ALL_AXES
  6
Continuous
 62
     7
100
AcDbLine
 10
592.0739687338
 20
362.3763571593
 30
0.0
 11
592.0739687338
 21
362.876498963
 31
0.0
  0
SPLINE
  5
41B
330
1B
100
AcDbEntity
 67
     1
  8
02___PRT_ALL_AXES
  6
Continuous
 62
     7
100
AcDbSpline
 70
     0
 71
     3
 72
    15
 73
    11
 74
     0
 42
0.000000001
 43
0.0000001
 40
0.0
 40
0.0
 40
0.0
 40
0.0
 40
0.1287030108
 40
0.2564302482
 40
0.382631928
 40
0.507217259
 40
0.6305473622
 40
0.7532957222
 40
0.8762320711
 40
1.0
 40
1.0
 40
1.0
 40
1.0
 10
573.0461609123
 20
383.1204739919
 30
0.0
 10
573.0751607594
 20
381.8050648519
 30
0.0
 10
573.3618050581
 20
379.1834039492
 30
0.0
 10
574.4667497111
 20
375.4105101275
 30
0.0
 10
576.2124902296
 20
371.9325316245
 30
0.0
 10
578.5470232998
 20
368.8740476418
 30
0.0
 10
581.4003748313
 20
366.3437622744
 30
0.0
 10
584.6840284583
 20
364.43504869
 30
0.0
 10
588.2865371545
 20
363.2212448752
 30
0.0
 10
590.8090859659
 20
362.9081020803
 30
0.0
 10
592.0739687338
 20
362.876498963
 30
0.0
  0
LINE
  5
41C
330
1B
100
AcDbEntity
 67
     1
  8
02___PRT_ALL_AXES
  6
Continuous
 62
     7
100
AcDbLine
 10
572.5890257891
 20
383.1204739919
 30
0.0
 11
572.985294741
 21
383.1204739919
 31
0.0
  0
LINE
  5
41D
330
1B
100
AcDbEntity
 67
     1
  8
02___PRT_ALL_AXES
  6
Continuous
 62
     7
100
AcDbLine
 10
572.985294741
 20
383.1204739919
 30
0.0
 11
573.0461609123
 21
383.1204739919
 31
0.0
  0
LINE
  5
41E
330
1B
100
AcDbEntity
 67
     1
  8
02___PRT_ALL_AXES
  6
Continuous
 62
     7
100
AcDbLine
 10
572.5890257891
 20
384.1204739919
 30
0.0
 11
572.985294741
 21
384.1204739919
 31
0.0
  0
LINE
  5
41F
330
1B
100
AcDbEntity
 67
     1
  8
02___PRT_ALL_AXES
  6
Continuous
 62
     7
100
AcDbLine
 10
572.985294741
 20
384.1204739919
 30
0.0
 11
573.0461609123
 21
384.1204739919
 31
0.0
  0
SPLINE
  5
420
330
1B
100
AcDbEntity
 67
     1
  8
02___PRT_ALL_AXES
  6
Continuous
 62
     7
100
AcDbSpline
 70
     0
 71
     3
 72
    15
 73
    11
 74
     0
 42
0.000000001
 43
0.0000001
 40
0.0
 40
0.0
 40
0.0
 40
0.0
 40
0.1237679285
 40
0.2467042781
 40
0.3694526382
 40
0.4927827413
 40
0.6173680722
 40
0.7435697518
 40
0.8712969891
 40
1.0
 40
1.0
 40
1.0
 40
1.0
 10
592.0739687338
 20
404.3644490208
 30
0.0
 10
590.80908597
 20
404.3328459037
 30
0.0
 10
588.2865371558
 20
404.0197031091
 30
0.0
 10
584.6840284545
 20
402.8058992933
 30
0.0
 10
581.4003748224
 20
400.8971857031
 30
0.0
 10
578.5470232934
 20
398.3669003347
 30
0.0
 10
576.212490227
 20
395.3084163547
 30
0.0
 10
574.4667497109
 20
391.8304378553
 30
0.0
 10
573.3618050583
 20
388.0575440354
 30
0.0
 10
573.0751607594
 20
385.4358831329
 30
0.0
 10
573.0461609123
 20
384.1204739919
 30
0.0
  0
LINE
  5
421
330
1B
100
AcDbEntity
 67
     1
  8
02___PRT_ALL_AXES
  6
Continuous
 62
     7
100
AcDbLine
 10
592.0739687338
 20
404.3644490208
 30
0.0
 11
592.0739687338
 21
404.8645908246
 31
0.0
  0
SPLINE
  5
422
330
1B
100
AcDbEntity
 67
     1
  8
7_ALL_FEATURES
  6
Continuous
 62
     7
100
AcDbSpline
 70
     0
 71
     3
 72
    19
 73
    15
 74
     0
 42
0.000000001
 43
0.0000001
 40
0.0
 40
0.0
 40
0.0
 40
0.0
 40
0.025289937
 40
0.0546992084
 40
0.0894031619
 40
0.1299656715
 40
0.1765703846
 40
0.2291638846
 40
0.2875374249
 40
0.351373499
 40
0.4937408751
 40
0.6524260998
 40
0.8228566761
 40
1.0
 40
1.0
 40
1.0
 40
1.0
 10
723.1676030101
 20
373.3826763772
 30
0.0
 10
723.0801303023
 20
373.3988987247
 30
0.0
 10
722.8968707716
 20
373.4680106522
 30
0.0
 10
722.6391061781
 20
373.6519699969
 30
0.0
 10
722.3819705169
 20
373.9176323626
 30
0.0
 10
722.1267968433
 20
374.2632651263
 30
0.0
 10
721.8754980002
 20
374.6865769883
 30
0.0
 10
721.6308676744
 20
375.1844904408
 30
0.0
 10
721.3958305836
 20
375.7531120429
 30
0.0
 10
721.0880917641
 20
376.6318871128
 30
0.0
 10
720.7539352186
 20
377.8731134431
 30
0.0
 10
720.4485244176
 20
379.5047346545
 30
0.0
 10
720.2439910984
 20
381.2751969305
 30
0.0
 10
720.1838215859
 20
382.4974159886
 30
0.0
 10
720.1731139846
 20
383.1204739919
 30
0.0
  0
LINE
  5
423
330
1B
100
AcDbEntity
 67
     1
  8
7_ALL_FEATURES
  6
Continuous
 62
     7
100
AcDbLine
 10
720.1731139846
 20
383.1204739919
 30
0.0
 11
720.2609052627
 21
383.1204739919
 31
0.0
  0
SPLINE
  5
424
330
1B
100
AcDbEntity
 67
     1
  8
7_ALL_FEATURES
  6
Continuous
 62
     7
100
AcDbSpline
 70
     0
 71
     3
 72
    19
 73
    15
 74
     0
 42
0.000000001
 43
0.0000001
 40
0.0
 40
0.0
 40
0.0
 40
0.0
 40
0.1771433258
 40
0.3475739012
 40
0.5062591247
 40
0.6486265025
 40
0.7124625753
 40
0.7708361153
 40
0.8234296165
 40
0.870034329
 40
0.910596838
 40
0.9453007922
 40
0.9747100635
 40
1.0
 40
1.0
 40
1.0
 40
1.0
 10
720.1731139846
 20
384.1204739919
 30
0.0
 10
720.183821586
 20
384.7435320018
 30
0.0
 10
720.2439910987
 20
385.9657510635
 30
0.0
 10
720.4485244194
 20
387.7362133387
 30
0.0
 10
720.7539352201
 20
389.3678345487
 30
0.0
 10
721.0880917656
 20
390.6090608762
 30
0.0
 10
721.3958305856
 20
391.487835946
 30
0.0
 10
721.630867676
 20
392.0564575466
 30
0.0
 10
721.8754980026
 20
392.5543709999
 30
0.0
 10
722.1267968463
 20
392.9776828618
 30
0.0
 10
722.3819705193
 20
393.3233156242
 30
0.0
 10
722.6391061809
 20
393.5889779893
 30
0.0
 10
722.8968707752
 20
393.7729373337
 30
0.0
 10
723.080130304
 20
393.8420492595
 30
0.0
 10
723.1676030101
 20
393.8582716067
 30
0.0
  0
LINE
  5
425
330
1B
100
AcDbEntity
 67
     1
  8
7_ALL_FEATURES
  6
Continuous
 62
     7
100
AcDbLine
 10
720.1731139846
 20
384.1204739919
 30
0.0
 11
720.2609052627
 21
384.1204739919
 31
0.0
  0
LINE
  5
426
330
1B
100
AcDbEntity
 67
     1
  8
7_ALL_FEATURES
  6
Continuous
 62
     7
100
AcDbLine
 10
592.0739687338
 20
373.3826763772
 30
0.0
 11
592.0739687338
 21
373.6329818142
 31
0.0
  0
SPLINE
  5
427
330
1B
100
AcDbEntity
 67
     1
  8
7_ALL_FEATURES
  6
Continuous
 62
     7
100
AcDbSpline
 70
     0
 71
     3
 72
    16
 73
    12
 74
     0
 42
0.000000001
 43
0.0000001
 40
0.0
 40
0.0
 40
0.0
 40
0.0
 40
0.1277592885
 40
0.1914920796
 40
0.2550181664
 40
0.381188711
 40
0.5062634302
 40
0.6303416035
 40
0.7537157273
 40
0.8767933057
 40
1.0
 40
1.0
 40
1.0
 40
1.0
 10
583.0306413844
 20
383.1204739919
 30
0.0
 10
583.0594377547
 20
382.5095940783
 30
0.0
 10
583.1822852617
 20
381.5950977501
 30
0.0
 10
583.501784674
 20
380.4157509709
 30
0.0
 10
583.9208076514
 20
379.2758201024
 30
0.0
 10
584.6272501197
 20
377.9350940613
 30
0.0
 10
585.7435679535
 20
376.5148026333
 30
0.0
 10
587.0927084539
 20
375.3328174643
 30
0.0
 10
588.6319691969
 20
374.4299759481
 30
0.0
 10
590.3103701859
 20
373.8376033806
 30
0.0
 10
591.4849953483
 20
373.6635458603
 30
0.0
 10
592.0739687338
 20
373.6329818142
 30
0.0
  0
LINE
  5
428
330
1B
100
AcDbEntity
 67
     1
  8
7_ALL_FEATURES
  6
Continuous
 62
     7
100
AcDbLine
 10
582.7950297297
 20
383.1204739919
 30
0.0
 11
583.0306413844
 21
383.1204739919
 31
0.0
  0
SPLINE
  5
429
330
1B
100
AcDbEntity
 67
     1
  8
7_ALL_FEATURES
  6
Continuous
 62
     7
100
AcDbSpline
 70
     0
 71
     3
 72
    16
 73
    12
 74
     0
 42
0.000000001
 43
0.0000001
 40
0.0
 40
0.0
 40
0.0
 40
0.0
 40
0.1232066931
 40
0.2462842723
 40
0.3696583971
 40
0.493736569
 40
0.6188112898
 40
0.7449818337
 40
0.8085079222
 40
0.8722407122
 40
1.0
 40
1.0
 40
1.0
 40
1.0
 10
592.0739687338
 20
393.6079661697
 30
0.0
 10
591.4849953539
 20
393.5774021239
 30
0.0
 10
590.3103701941
 20
393.4033446043
 30
0.0
 10
588.6319692013
 20
392.810972039
 30
0.0
 10
587.0927084569
 20
391.9081305211
 30
0.0
 10
585.7435679515
 20
390.7261453488
 30
0.0
 10
584.6272501186
 20
389.3058539222
 30
0.0
 10
583.9208076458
 20
387.9651278696
 30
0.0
 10
583.5017846701
 20
386.8251970011
 30
0.0
 10
583.1822852589
 20
385.6458502224
 30
0.0
 10
583.0594377546
 20
384.7313539023
 30
0.0
 10
583.0306413844
 20
384.1204739919
 30
0.0
  0
LINE
  5
42A
330
1B
100
AcDbEntity
 67
     1
  8
7_ALL_FEATURES
  6
Continuous
 62
     7
100
AcDbLine
 10
592.0739687338
 20
393.6079661697
 30
0.0
 11
592.0739687338
 21
393.8582716067
 31
0.0
  0
LINE
  5
42B
330
1B
100
AcDbEntity
 67
     1
  8
7_ALL_FEATURES
  6
Continuous
 62
     7
100
AcDbLine
 10
582.7950297297
 20
384.1204739919
 30
0.0
 11
583.0306413844
 21
384.1204739919
 31
0.0
  0
SPLINE
  5
42C
330
1B
100
AcDbEntity
 67
     1
  8
7_ALL_FEATURES
  6
Continuous
 62
     7
100
AcDbSpline
 70
     0
 71
     3
 72
    15
 73
    11
 74
     0
 42
0.000000001
 43
0.0000001
 40
0.0
 40
0.0
 40
0.0
 40
0.0
 40
0.1264828773
 40
0.2528128035
 40
0.3788562146
 40
0.5044654734
 40
0.6294878409
 40
0.7537884063
 40
0.8772867205
 40
1.0
 40
1.0
 40
1.0
 40
1.0
 10
602.5729359705
 20
383.1204739919
 30
0.0
 10
602.5425571655
 20
382.4927138229
 30
0.0
 10
602.3666930441
 20
381.2405132705
 30
0.0
 10
601.7677431541
 20
379.4453027312
 30
0.0
 10
600.8557957455
 20
377.7913527737
 30
0.0
 10
599.6639531135
 20
376.3347914995
 30
0.0
 10
598.2344787252
 20
375.123888123
 30
0.0
 10
596.6169030237
 20
374.1992337075
 30
0.0
 10
594.8678950871
 20
373.5924217439
 30
0.0
 10
593.6488821956
 20
373.4134290908
 30
0.0
 10
593.0398945601
 20
373.3826763772
 30
0.0
  0
LINE
  5
42D
330
1B
100
AcDbEntity
 67
     1
  8
7_ALL_FEATURES
  6
Continuous
 62
     7
100
AcDbLine
 10
602.324994653
 20
383.1204739919
 30
0.0
 11
602.5729359705
 21
383.1204739919
 31
0.0
  0
SPLINE
  5
42E
330
1B
100
AcDbEntity
 67
     1
  8
7_ALL_FEATURES
  6
Continuous
 62
     7
100
AcDbSpline
 70
     0
 71
     3
 72
    15
 73
    11
 74
     0
 42
0.000000001
 43
0.0000001
 40
0.0
 40
0.0
 40
0.0
 40
0.0
 40
0.1227132813
 40
0.2462115954
 40
0.3705121604
 40
0.4955345299
 40
0.6211437877
 40
0.7471872001
 40
0.8735171246
 40
1.0
 40
1.0
 40
1.0
 40
1.0
 10
593.0398945601
 20
393.8582716067
 30
0.0
 10
593.6488822045
 20
393.8275188926
 30
0.0
 10
594.8678951047
 20
393.6485262371
 30
0.0
 10
596.6169030456
 20
393.0417142659
 30
0.0
 10
598.2344787519
 20
392.1170598434
 30
0.0
 10
599.6639531386
 20
390.9061564595
 30
0.0
 10
600.8557957716
 20
389.4495951713
 30
0.0
 10
601.7677431699
 20
387.7956452161
 30
0.0
 10
602.3666930492
 20
386.0004346859
 30
0.0
 10
602.542557166
 20
384.7482341516
 30
0.0
 10
602.5729359705
 20
384.1204739919
 30
0.0
  0
LINE
  5
42F
330
1B
100
AcDbEntity
 67
     1
  8
7_ALL_FEATURES
  6
Continuous
 62
     7
100
AcDbLine
 10
602.324994653
 20
384.1204739919
 30
0.0
 11
602.5729359705
 21
384.1204739919
 31
0.0
  0
SPLINE
  5
430
330
1B
100
AcDbEntity
 67
     1
  8
02___PRT_ALL_AXES
  6
Continuous
 62
     7
100
AcDbSpline
 70
     0
 71
     3
 72
    11
 73
     7
 74
     0
 42
0.000000001
 43
0.0000001
 40
0.0
 40
0.0
 40
0.0
 40
0.0
 40
0.2535974452
 40
0.5048536035
 40
0.7534205838
 40
1.0
 40
1.0
 40
1.0
 40
1.0
 10
594.4316822739
 20
527.6204739919
 30
0.0
 10
594.378775104
 20
527.4093633293
 30
0.0
 10
594.2046795983
 20
527.0029264911
 30
0.0
 10
593.7657652708
 20
526.5128368056
 30
0.0
 10
593.196606948
 20
526.1942822132
 30
0.0
 10
592.7682449986
 20
526.1204746232
 30
0.0
 10
592.5566285909
 20
526.1204746215
 30
0.0
  0
LINE
  5
431
330
1B
100
AcDbEntity
 67
     1
  8
02___PRT_ALL_AXES
  6
Continuous
 62
     7
100
AcDbLine
 10
593.428127447
 20
362.3979202896
 30
0.0
 11
593.428127447
 21
362.876498963
 31
0.0
  0
SPLINE
  5
432
330
1B
100
AcDbEntity
 67
     1
  8
02___PRT_ALL_AXES
  6
Continuous
 62
     7
100
AcDbSpline
 70
     0
 71
     3
 72
    19
 73
    15
 74
     0
 42
0.000000001
 43
0.0000001
 40
0.0
 40
0.0
 40
0.0
 40
0.0
 40
0.0630578845
 40
0.1261121385
 40
0.1891598839
 40
0.2521956279
 40
0.3780544635
 40
0.5037206696
 40
0.5664920462
 40
0.6291353894
 40
0.6916143302
 40
0.7538901589
 40
0.8775431535
 40
1.0
 40
1.0
 40
1.0
 40
1.0
 10
613.5163270371
 20
383.1204739919
 30
0.0
 10
613.5001472716
 20
382.46105042
 30
0.0
 10
613.4036374404
 20
381.142913761
 30
0.0
 10
613.0682794209
 20
379.1898663092
 30
0.0
 10
612.5461555627
 20
377.2781709981
 30
0.0
 10
611.6103235497
 20
374.8108506903
 30
0.0
 10
610.0071755612
 20
371.9132399787
 30
0.0
 10
607.8924611114
 20
369.3693005279
 30
0.0
 10
605.9464070556
 20
367.6007476699
 30
0.0
 10
604.3730468771
 20
366.4178773918
 30
0.0
 10
602.7007511401
 20
365.3894200618
 30
0.0
 10
600.3668921621
 20
364.2396295196
 30
0.0
 10
597.2822531398
 20
363.2286117656
 30
0.0
 10
594.7086994481
 20
362.908413296
 30
0.0
 10
593.428127447
 20
362.876498963
 30
0.0
  0
SPLINE
  5
433
330
1B
100
AcDbEntity
 67
     1
  8
02___PRT_ALL_AXES
  6
Continuous
 62
     7
100
AcDbSpline
 70
     0
 71
     3
 72
    19
 73
    15
 74
     0
 42
0.000000001
 43
0.0000001
 40
0.0
 40
0.0
 40
0.0
 40
0.0
 40
0.1224568468
 40
0.2461098414
 40
0.3083856701
 40
0.3708646109
 40
0.4335079541
 40
0.4962793308
 40
0.6219455369
 40
0.7478043724
 40
0.8108401164
 40
0.8738878617
 40
0.9369421153
 40
1.0
 40
1.0
 40
1.0
 40
1.0
 10
593.428127447
 20
404.3644490208
 30
0.0
 10
594.7086994507
 20
404.3325346878
 30
0.0
 10
597.2822531453
 20
404.0123362173
 30
0.0
 10
600.3668921702
 20
403.0013184612
 30
0.0
 10
602.7007511482
 20
401.8515279175
 30
0.0
 10
604.3730468852
 20
400.8230705866
 30
0.0
 10
605.9464070634
 20
399.6402003075
 30
0.0
 10
607.8924611186
 20
397.8716474484
 30
0.0
 10
610.0071755671
 20
395.3277079966
 30
0.0
 10
611.6103235538
 20
392.4300972844
 30
0.0
 10
612.5461555652
 20
389.9627769779
 30
0.0
 10
613.0682794215
 20
388.0510816712
 30
0.0
 10
613.4036374398
 20
386.0980342226
 30
0.0
 10
613.5001472716
 20
384.7798975653
 30
0.0
 10
613.5163270371
 20
384.1204739919
 30
0.0
  0
LINE
  5
434
330
1B
100
AcDbEntity
 67
     1
  8
02___PRT_ALL_AXES
  6
Continuous
 62
     7
100
AcDbLine
 10
593.428127447
 20
404.3644490208
 30
0.0
 11
593.428127447
 21
404.8430274402
 31
0.0
  0
SPLINE
  5
435
330
1B
100
AcDbEntity
 67
     1
  8
02___PRT_ALL_AXES
  6
Continuous
 62
     7
100
AcDbSpline
 70
     0
 71
     3
 72
    15
 73
    11
 74
     0
 42
0.000000001
 43
0.0000001
 40
0.0
 40
0.0
 40
0.0
 40
0.0
 40
0.1287732234
 40
0.2565601126
 40
0.3828018011
 40
0.5074007525
 40
0.6307148418
 40
0.7534197108
 40
0.8762945144
 40
1.0
 40
1.0
 40
1.0
 40
1.0
 10
572.985294741
 20
383.1204739919
 30
0.0
 10
573.0138979035
 20
381.788767438
 30
0.0
 10
573.2993670665
 20
379.1346895396
 30
0.0
 10
574.4017669118
 20
375.3113726152
 30
0.0
 10
576.1450498129
 20
371.7801179364
 30
0.0
 10
578.478752515
 20
368.6642380461
 30
0.0
 10
581.3351930731
 20
366.0714942413
 30
0.0
 10
584.628817875
 20
364.0949909103
 30
0.0
 10
588.2514898026
 20
362.8088945527
 30
0.0
 10
590.7960348045
 20
362.4460115149
 30
0.0
 10
592.0743860178
 20
362.3896366276
 30
0.0
  0
SPLINE
  5
436
330
1B
100
AcDbEntity
 67
     1
  8
02___PRT_ALL_AXES
  6
Continuous
 62
     7
100
AcDbSpline
 70
     0
 71
     3
 72
    15
 73
    11
 74
     0
 42
0.000000001
 43
0.0000001
 40
0.0
 40
0.0
 40
0.0
 40
0.0
 40
0.1237054856
 40
0.2465802894
 40
0.3692851586
 40
0.492599248
 40
0.6171981996
 40
0.7434398883
 40
0.8712267775
 40
1.0
 40
1.0
 40
1.0
 40
1.0
 10
592.0743860152
 20
404.8513113563
 30
0.0
 10
590.7960348021
 20
404.7949364691
 30
0.0
 10
588.2514897989
 20
404.4320534302
 30
0.0
 10
584.6288178689
 20
403.145957071
 30
0.0
 10
581.3351930636
 20
401.1694537359
 30
0.0
 10
578.4787525034
 20
398.5767099254
 30
0.0
 10
576.1450498007
 20
395.460830028
 30
0.0
 10
574.4017669021
 20
391.9295753435
 30
0.0
 10
573.2993670636
 20
388.106258425
 30
0.0
 10
573.0138979033
 20
385.4521805364
 30
0.0
 10
572.985294741
 20
384.1204739919
 30
0.0
  0
SPLINE
  5
437
330
1B
100
AcDbEntity
 67
     1
  8
7_ALL_FEATURES
  6
Continuous
 62
     7
100
AcDbSpline
 70
     0
 71
     3
 72
    11
 73
     7
 74
     0
 42
0.000000001
 43
0.0000001
 40
0.0
 40
0.0
 40
0.0
 40
0.0
 40
0.2506988954
 40
0.5005705231
 40
0.750158081
 40
1.0
 40
1.0
 40
1.0
 40
1.0
 10
586.9024172132
 20
375.540031933
 30
0.0
 10
587.2688506794
 20
375.2391249947
 30
0.0
 10
588.0457822941
 20
374.691052699
 30
0.0
 10
589.3180852874
 20
374.0517583526
 30
0.0
 10
590.6699644134
 20
373.6097676544
 30
0.0
 10
591.6056924084
 20
373.4531415789
 30
0.0
 10
592.0762564515
 20
373.4100885538
 30
0.0
  0
SPLINE
  5
438
330
1B
100
AcDbEntity
 67
     1
  8
7_ALL_FEATURES
  6
Continuous
 62
     7
100
AcDbSpline
 70
     0
 71
     3
 72
    11
 73
     7
 74
     0
 42
0.000000001
 43
0.0000001
 40
0.0
 40
0.0
 40
0.0
 40
0.0
 40
0.2498419108
 40
0.4994294676
 40
0.7493010927
 40
1.0
 40
1.0
 40
1.0
 40
1.0
 10
592.0762564147
 20
393.8308594269
 30
0.0
 10
591.6056908274
 20
393.7878062589
 30
0.0
 10
590.6699597599
 20
393.6311794279
 30
0.0
 10
589.3180764708
 20
393.1891862526
 30
0.0
 10
588.0457700078
 20
392.5498881892
 30
0.0
 10
587.2688367218
 20
392.0018127193
 30
0.0
 10
586.9024026079
 20
391.7009040576
 30
0.0
  0
LINE
  5
439
330
1B
100
AcDbEntity
 67
     1
  8
7_ALL_FEATURES
  6
Continuous
 62
     7
100
AcDbLine
 10
593.428127447
 20
373.4170567284
 30
0.0
 11
593.428127447
 21
373.6329818142
 31
0.0
  0
SPLINE
  5
43A
330
1B
100
AcDbEntity
 67
     1
  8
7_ALL_FEATURES
  6
Continuous
 62
     7
100
AcDbSpline
 70
     0
 71
     3
 72
    11
 73
     7
 74
     0
 42
0.000000001
 43
0.0000001
 40
0.0
 40
0.0
 40
0.0
 40
0.0
 40
0.2520370238
 40
0.5027435176
 40
0.7520430719
 40
1.0
 40
1.0
 40
1.0
 40
1.0
 10
599.1034100729
 20
375.8747371696
 30
0.0
 10
598.7028976753
 20
375.5415354699
 30
0.0
 10
597.8501413766
 20
374.9386626625
 30
0.0
 10
596.4490194513
 20
374.2505928868
 30
0.0
 10
594.9640444465
 20
373.7973458603
 30
0.0
 10
593.9400009259
 20
373.6594777905
 30
0.0
 10
593.428127447
 20
373.6329818142
 30
0.0
  0
SPLINE
  5
43B
330
1B
100
AcDbEntity
 67
     1
  8
7_ALL_FEATURES
  6
Continuous
 62
     7
100
AcDbSpline
 70
     0
 71
     3
 72
    11
 73
     7
 74
     0
 42
0.000000001
 43
0.0000001
 40
0.0
 40
0.0
 40
0.0
 40
0.0
 40
0.2479569186
 40
0.4972564652
 40
0.7479629671
 40
1.0
 40
1.0
 40
1.0
 40
1.0
 10
593.428127447
 20
393.6079661697
 30
0.0
 10
593.9400043693
 20
393.5814700151
 30
0.0
 10
594.9640547781
 20
393.4436004424
 30
0.0
 10
596.4490391524
 20
392.9903479046
 30
0.0
 10
597.8501688063
 20
392.3022696741
 30
0.0
 10
598.702928715
 20
391.6993895565
 30
0.0
 10
599.1034424276
 20
391.3661838968
 30
0.0
  0
LINE
  5
43C
330
1B
100
AcDbEntity
 67
     1
  8
7_ALL_FEATURES
  6
Continuous
 62
     7
100
AcDbLine
 10
593.428127447
 20
393.6079661697
 30
0.0
 11
593.428127447
 21
393.8238905788
 31
0.0
  0
SPLINE
  5
43D
330
1B
100
AcDbEntity
 67
     1
  8
02___PRT_ALL_AXES
  6
Continuous
 62
     7
100
AcDbSpline
 70
     0
 71
     3
 72
    11
 73
     7
 74
     0
 42
0.000000001
 43
0.0000001
 40
0.0
 40
0.0
 40
0.0
 40
0.0
 40
0.2534375134
 40
0.5045817933
 40
0.7532244828
 40
1.0
 40
1.0
 40
1.0
 40
1.0
 10
591.0789610075
 20
527.6204739919
 30
0.0
 10
591.1235380193
 20
527.4408519911
 30
0.0
 10
591.2613523004
 20
527.093336329
 30
0.0
 10
591.5996655862
 20
526.6509420167
 30
0.0
 10
592.0434427383
 20
526.3221702431
 30
0.0
 10
592.3889061606
 20
526.1961403635
 30
0.0
 10
592.5653449008
 20
526.1594862891
 30
0.0
  0
ARC
  5
43E
330
1B
100
AcDbEntity
 67
     1
  8
02___PRT_ALL_AXES
  6
Continuous
 62
     7
100
AcDbCircle
 10
592.9451840126
 20
527.9880859534
 30
0.0
 40
1.867633391
100
AcDbArc
 50
258.2653230374
 51
264.0171843089
  0
SPLINE
  5
43F
330
1B
100
AcDbEntity
 67
     1
  8
02___PRT_ALL_AXES
  6
Continuous
 62
     7
100
AcDbSpline
 70
     0
 71
     3
 72
    21
 73
    17
 74
     0
 42
0.000000001
 43
0.0000001
 40
0.0
 40
0.0
 40
0.0
 40
0.0
 40
0.0248300507
 40
0.0388301179
 40
0.0541136816
 40
0.0889394136
 40
0.1298558341
 40
0.1769623818
 40
0.2301208692
 40
0.2890464373
 40
0.3533591999
 40
0.4226138667
 40
0.496317408
 40
0.6548733379
 40
0.8244469544
 40
1.0
 40
1.0
 40
1.0
 40
1.0
 10
723.1676030101
 20
404.3644490208
 30
0.0
 10
722.9831246076
 20
404.3475640149
 30
0.0
 10
722.6987964333
 20
404.2659890841
 30
0.0
 10
722.3393187286
 20
404.0817146503
 30
0.0
 10
721.9398404133
 20
403.8167836724
 30
0.0
 10
721.432073872
 20
403.3609696451
 30
0.0
 10
720.8357088105
 20
402.6626938301
 30
0.0
 10
720.234850824
 20
401.7957921574
 30
0.0
 10
719.6382967541
 20
400.7676273108
 30
0.0
 10
719.0554477915
 20
399.5867258334
 30
0.0
 10
718.4961527155
 20
398.2631857567
 30
0.0
 10
717.9702350379
 20
396.8082458765
 30
0.0
 10
717.310386523
 20
394.6569123563
 30
0.0
 10
716.6367139502
 20
391.7309415345
 30
0.0
 10
716.1153588395
 20
388.0051479781
 30
0.0
 10
715.9778460156
 20
385.4301452223
 30
0.0
 10
715.9636353278
 20
384.1204739919
 30
0.0
  0
LINE
  5
440
330
1B
100
AcDbEntity
 67
     1
  8
02___PRT_ALL_AXES
  6
Continuous
 62
     7
100
AcDbLine
 10
723.1676030101
 20
404.3644490208
 30
0.0
 11
723.1676030101
 21
404.8645908246
 31
0.0
  0
SPLINE
  5
441
330
1B
100
AcDbEntity
 67
     1
  8
02___PRT_ALL_AXES
  6
Continuous
 62
     7
100
AcDbSpline
 70
     0
 71
     3
 72
    11
 73
     7
 74
     0
 42
0.000000001
 43
0.0000001
 40
0.0
 40
0.0
 40
0.0
 40
0.0
 40
0.2467938321
 40
0.4950784695
 40
0.7461379474
 40
1.0
 40
1.0
 40
1.0
 40
1.0
 10
592.5566285909
 20
526.1204746215
 30
0.0
 10
592.3453458052
 20
526.1204746198
 30
0.0
 10
591.9180078381
 20
526.1940072037
 30
0.0
 10
591.3509123111
 20
526.512875355
 30
0.0
 10
590.9151449288
 20
527.003475008
 30
0.0
 10
590.7430191579
 20
527.4095394768
 30
0.0
 10
590.690667635
 20
527.6204739919
 30
0.0
  0
LINE
  5
442
330
1B
100
AcDbEntity
 67
     1
  8
02___PRT_ALL_AXES
  6
Continuous
 62
     7
100
AcDbLine
 10
593.0398945601
 20
362.876498963
 30
0.0
 11
593.428127447
 21
362.876498963
 31
0.0
  0
ARC
  5
443
330
1B
100
AcDbEntity
 67
     1
  8
02___PRT_ALL_AXES
  6
Continuous
 62
     7
100
AcDbCircle
 10
592.5548886263
 20
382.3318248209
 30
0.0
 40
19.4613703267
100
AcDbArc
 50
271.42804283
 51
272.5679946386999
  0
SPLINE
  5
444
330
1B
100
AcDbEntity
 67
     1
  8
02___PRT_ALL_AXES
  6
Continuous
 62
     7
100
AcDbSpline
 70
     0
 71
     3
 72
    19
 73
    15
 74
     0
 42
0.000000001
 43
0.0000001
 40
0.0
 40
0.0
 40
0.0
 40
0.0
 40
0.1225406735
 40
0.2462383708
 40
0.3085206351
 40
0.3709983938
 40
0.4336346563
 40
0.4963947707
 40
0.6220349966
 40
0.7478653887
 40
0.8108854133
 40
0.8739177881
 40
0.9369569662
 40
1.0
 40
1.0
 40
1.0
 40
1.0
 10
593.4268544906
 20
362.8899985043
 30
0.0
 10
594.6914527812
 20
362.9467077083
 30
0.0
 10
597.2274556656
 20
363.3097752992
 30
0.0
 10
600.2584691871
 20
364.3559834679
 30
0.0
 10
602.5477840461
 20
365.5232465911
 30
0.0
 10
604.1862799905
 20
366.5594822758
 30
0.0
 10
605.7264189447
 20
367.7450485409
 30
0.0
 10
607.6298337659
 20
369.510788873
 30
0.0
 10
609.6958615317
 20
372.0399106323
 30
0.0
 10
611.2604371185
 20
374.9101976445
 30
0.0
 10
612.1734358367
 20
377.3502224422
 30
0.0
 10
612.6827847355
 20
379.239210349
 30
0.0
 10
613.0100748026
 20
381.1680255605
 30
0.0
 10
613.1044809396
 20
382.4694227487
 30
0.0
 10
613.1204433529
 20
383.1204739919
 30
0.0
  0
LINE
  5
445
330
1B
100
AcDbEntity
 67
     1
  8
02___PRT_ALL_AXES
  6
Continuous
 62
     7
100
AcDbLine
 10
593.0398945601
 20
362.3763571593
 30
0.0
 11
593.0398945601
 21
362.876498963
 31
0.0
  0
SPLINE
  5
446
330
1B
100
AcDbEntity
 67
     1
  8
02___PRT_ALL_AXES
  6
Continuous
 62
     7
100
AcDbSpline
 70
     0
 71
     3
 72
    19
 73
    15
 74
     0
 42
0.000000001
 43
0.0000001
 40
0.0
 40
0.0
 40
0.0
 40
0.0
 40
0.0630430337
 40
0.1260822118
 40
0.1891145867
 40
0.2521346113
 40
0.3779650036
 40
0.5036052296
 40
0.5663653441
 40
0.6290016067
 40
0.6914793655
 40
0.7537616296
 40
0.8774593261
 40
1.0
 40
1.0
 40
1.0
 40
1.0
 10
613.1204433529
 20
384.1204739919
 30
0.0
 10
613.1044809396
 20
384.7715252338
 30
0.0
 10
613.0100748026
 20
386.0729224224
 30
0.0
 10
612.6827847355
 20
388.0017376357
 30
0.0
 10
612.1734358351
 20
389.8907255468
 30
0.0
 10
611.2604371142
 20
392.3307503494
 30
0.0
 10
609.6958615222
 20
395.2010373667
 30
0.0
 10
607.6298337491
 20
397.7301591296
 30
0.0
 10
605.7264189211
 20
399.495899463
 30
0.0
 10
604.1862799614
 20
400.6814657287
 30
0.0
 10
602.5477840138
 20
401.7177014111
 30
0.0
 10
600.2584691586
 20
402.8849645272
 30
0.0
 10
597.2274556388
 20
403.9311726913
 30
0.0
 10
594.6914527549
 20
404.2942402782
 30
0.0
 10
593.4268544589
 20
404.3509494809
 30
0.0
  0
ARC
  5
447
330
1B
100
AcDbEntity
 67
     1
  8
02___PRT_ALL_AXES
  6
Continuous
 62
     7
100
AcDbCircle
 10
592.5548886348
 20
384.9091235505
 30
0.0
 40
19.4613699391
100
AcDbArc
 50
87.43200542829999
 51
88.5719571665
  0
LINE
  5
448
330
1B
100
AcDbEntity
 67
     1
  8
7_ALL_FEATURES
  6
Continuous
 62
     7
100
AcDbLine
 10
593.428127447
 20
393.6079661697
 30
0.0
 11
593.0398945601
 21
393.6079661697
 31
0.0
  0
LINE
  5
449
330
1B
100
AcDbEntity
 67
     1
  8
02___PRT_ALL_AXES
  6
Continuous
 62
     7
100
AcDbLine
 10
593.0398945601
 20
404.3644490208
 30
0.0
 11
593.0398945601
 21
404.8645908246
 31
0.0
  0
SPLINE
  5
44A
330
1B
100
AcDbEntity
 67
     1
  8
02___PRT_ALL_AXES
  6
Continuous
 62
     7
100
AcDbSpline
 70
     0
 71
     3
 72
    15
 73
    11
 74
     0
 42
0.000000001
 43
0.0000001
 40
0.0
 40
0.0
 40
0.0
 40
0.0
 40
0.1237980138
 40
0.2467297971
 40
0.3694477677
 40
0.4927389489
 40
0.6172964181
 40
0.7434959648
 40
0.8712503881
 40
1.0
 40
1.0
 40
1.0
 40
1.0
 10
592.0739687338
 20
362.3763571593
 30
0.0
 10
590.7776517232
 20
362.407983152
 30
0.0
 10
588.1926026022
 20
362.7275295658
 30
0.0
 10
584.5011849148
 20
363.9702740313
 30
0.0
 10
581.1375376535
 20
365.9258120592
 30
0.0
 10
578.215709565
 20
368.5187622457
 30
0.0
 10
575.8260358555
 20
371.6533071623
 30
0.0
 10
574.0398414921
 20
375.2180177909
 30
0.0
 10
572.9101656647
 20
379.0851650611
 30
0.0
 10
572.6180091811
 20
381.7722180112
 30
0.0
 10
572.5890257891
 20
383.1204739919
 30
0.0
  0
LINE
  5
44B
330
1B
100
AcDbEntity
 67
     1
  8
02___PRT_ALL_AXES
  6
Continuous
 62
     7
100
AcDbLine
 10
722.0164865086
 20
404.3644490208
 30
0.0
 11
723.1676030101
 21
404.3644490208
 31
0.0
  0
LINE
  5
44C
330
1B
100
AcDbEntity
 67
     1
  8
02___PRT_ALL_AXES
  6
Continuous
 62
     7
100
AcDbLine
 10
722.0164869738
 20
362.876498963
 30
0.0
 11
723.1676030101
 21
362.876498963
 31
0.0
  0
SPLINE
  5
44D
330
1B
100
AcDbEntity
 67
     1
  8
02___PRT_ALL_AXES
  6
Continuous
 62
     7
100
AcDbSpline
 70
     0
 71
     3
 72
    15
 73
    11
 74
     0
 42
0.000000001
 43
0.0000001
 40
0.0
 40
0.0
 40
0.0
 40
0.0
 40
0.1287496121
 40
0.2565040352
 40
0.3827035817
 40
0.5072610509
 40
0.6305522319
 40
0.7532702027
 40
0.8762019866
 40
1.0
 40
1.0
 40
1.0
 40
1.0
 10
572.5890257891
 20
384.1204739919
 30
0.0
 10
572.6180091811
 20
385.4687299739
 30
0.0
 10
572.9101656649
 20
388.155782924
 30
0.0
 10
574.0398414923
 20
392.022930193
 30
0.0
 10
575.8260358539
 20
395.5876408185
 30
0.0
 10
578.2157095602
 20
398.7221857326
 30
0.0
 10
581.1375376462
 20
401.3151359195
 30
0.0
 10
584.5011849121
 20
403.2706739523
 30
0.0
 10
588.1926026036
 20
404.5134184185
 30
0.0
 10
590.7776517272
 20
404.832964832
 30
0.0
 10
592.0739687338
 20
404.8645908246
 30
0.0
  0
SPLINE
  5
44E
330
1B
100
AcDbEntity
 67
     1
  8
7_ALL_FEATURES
  6
Continuous
 62
     7
100
AcDbSpline
 70
     0
 71
     3
 72
    19
 73
    15
 74
     0
 42
0.000000001
 43
0.0000001
 40
0.0
 40
0.0
 40
0.0
 40
0.0
 40
0.1819106044
 40
0.3561994652
 40
0.5172414216
 40
0.6600727322
 40
0.7233758939
 40
0.7807272698
 40
0.8318547876
 40
0.8766321153
 40
0.9151426704
 40
0.9477940157
 40
0.9755124851
 40
1.0
 40
1.0
 40
1.0
 40
1.0
 10
725.4725879898
 20
383.1204739919
 30
0.0
 10
725.4675484646
 20
382.4979394613
 30
0.0
 10
725.4394174137
 20
381.2790132748
 30
0.0
 10
725.3403662793
 20
379.5112316408
 30
0.0
 10
725.1832883606
 20
377.8819001963
 30
0.0
 10
724.9966806825
 20
376.6381823471
 30
0.0
 10
724.8090553175
 20
375.7559008319
 30
0.0
 10
724.6584518888
 20
375.1873182231
 30
0.0
 10
724.4925806923
 20
374.6892870994
 30
0.0
 10
724.3117278083
 20
374.2655851137
 30
0.0
 10
724.1162140064
 20
373.9190838574
 30
0.0
 10
723.9055975535
 20
373.6518468249
 30
0.0
 10
723.6785303223
 20
373.4659473656
 30
0.0
 10
723.5087219033
 20
373.3984824908
 30
0.0
 10
723.4264220552
 20
373.3826763772
 30
0.0
  0
LINE
  5
44F
330
1B
100
AcDbEntity
 67
     1
  8
7_ALL_FEATURES
  6
Continuous
 62
     7
100
AcDbLine
 10
723.1676030101
 20
373.3826763772
 30
0.0
 11
723.1676030101
 21
373.6329818142
 31
0.0
  0
SPLINE
  5
450
330
1B
100
AcDbEntity
 67
     1
  8
7_ALL_FEATURES
  6
Continuous
 62
     7
100
AcDbSpline
 70
     0
 71
     3
 72
    19
 73
    15
 74
     0
 42
0.000000001
 43
0.0000001
 40
0.0
 40
0.0
 40
0.0
 40
0.0
 40
0.1771529304
 40
0.3475684964
 40
0.5062248848
 40
0.6485606646
 40
0.712383527
 40
0.7707478674
 40
0.8233378767
 40
0.8699463885
 40
0.9105211473
 40
0.945245937
 40
0.9746825493
 40
1.0
 40
1.0
 40
1.0
 40
1.0
 10
720.2609052627
 20
383.1204739919
 30
0.0
 10
720.2715241574
 20
382.5137262513
 30
0.0
 10
720.3301758753
 20
381.323597409
 30
0.0
 10
720.5285651702
 20
379.5996121148
 30
0.0
 10
720.8244979592
 20
378.0107861064
 30
0.0
 10
721.1482731529
 20
376.8019530922
 30
0.0
 10
721.4465646484
 20
375.9459414674
 30
0.0
 10
721.6744675759
 20
375.3919300095
 30
0.0
 10
721.911776828
 20
374.9066666488
 30
0.0
 10
722.1556828562
 20
374.4939336418
 30
0.0
 10
722.4034990472
 20
374.1567223417
 30
0.0
 10
722.6533861696
 20
373.897259713
 30
0.0
 10
722.9040562303
 20
373.7172327216
 30
0.0
 10
723.0824034836
 20
373.6491785836
 30
0.0
 10
723.1676030101
 20
373.6329818142
 30
0.0
  0
SPLINE
  5
451
330
1B
100
AcDbEntity
 67
     1
  8
7_ALL_FEATURES
  6
Continuous
 62
     7
100
AcDbSpline
 70
     0
 71
     3
 72
    19
 73
    15
 74
     0
 42
0.000000001
 43
0.0000001
 40
0.0
 40
0.0
 40
0.0
 40
0.0
 40
0.0253174502
 40
0.0547540624
 40
0.0894788528
 40
0.130053611
 40
0.1766621223
 40
0.2292521328
 40
0.2876164728
 40
0.3514393339
 40
0.4937751153
 40
0.6524315026
 40
0.8228470677
 40
1.0
 40
1.0
 40
1.0
 40
1.0
 10
723.1676030101
 20
393.6079661697
 30
0.0
 10
723.0824034853
 20
393.5917694006
 30
0.0
 10
722.9040562339
 20
393.5237152643
 30
0.0
 10
722.6533861724
 20
393.3436882731
 30
0.0
 10
722.4034990496
 20
393.0842256449
 30
0.0
 10
722.155682859
 20
392.7470143462
 30
0.0
 10
721.9117768304
 20
392.3342813393
 30
0.0
 10
721.6744675775
 20
391.8490179778
 30
0.0
 10
721.4465646503
 20
391.2950065213
 30
0.0
 10
721.1482731543
 20
390.4389948966
 30
0.0
 10
720.8244979607
 20
389.2301618851
 30
0.0
 10
720.5285651719
 20
387.6413358781
 30
0.0
 10
720.3301758756
 20
385.9173505848
 30
0.0
 10
720.2715241575
 20
384.7272217389
 30
0.0
 10
720.2609052627
 20
384.1204739919
 30
0.0
  0
LINE
  5
452
330
1B
100
AcDbEntity
 67
     1
  8
7_ALL_FEATURES
  6
Continuous
 62
     7
100
AcDbLine
 10
723.1676030101
 20
393.6079661697
 30
0.0
 11
723.1676030101
 21
393.8582716067
 31
0.0
  0
SPLINE
  5
453
330
1B
100
AcDbEntity
 67
     1
  8
7_ALL_FEATURES
  6
Continuous
 62
     7
100
AcDbSpline
 70
     0
 71
     3
 72
    19
 73
    15
 74
     0
 42
0.000000001
 43
0.0000001
 40
0.0
 40
0.0
 40
0.0
 40
0.0
 40
0.0244875153
 40
0.0522059849
 40
0.0848573295
 40
0.1233678853
 40
0.1681452134
 40
0.2192727301
 40
0.2766241064
 40
0.3399272693
 40
0.4827585783
 40
0.6438005358
 40
0.8180893975
 40
1.0
 40
1.0
 40
1.0
 40
1.0
 10
723.4264220552
 20
393.8582716067
 30
0.0
 10
723.5087219049
 20
393.8424654927
 30
0.0
 10
723.6785303256
 20
393.7750006162
 30
0.0
 10
723.9055975561
 20
393.5891011567
 30
0.0
 10
724.1162140084
 20
393.3218641235
 30
0.0
 10
724.3117278105
 20
392.9753628659
 30
0.0
 10
724.4925806941
 20
392.5516608801
 30
0.0
 10
724.6584518898
 20
392.0536297573
 30
0.0
 10
724.8090553187
 20
391.4850471469
 30
0.0
 10
724.9966806833
 20
390.6027656317
 30
0.0
 10
725.1832883614
 20
389.3590477798
 30
0.0
 10
725.3403662802
 20
387.7297163337
 30
0.0
 10
725.439417414
 20
385.961934699
 30
0.0
 10
725.4675484646
 20
384.743008516
 30
0.0
 10
725.4725879898
 20
384.1204739919
 30
0.0
  0
LINE
  5
454
330
1B
100
AcDbEntity
 67
     1
  8
7_ALL_FEATURES
  6
Continuous
 62
     7
100
AcDbLine
 10
593.428127447
 20
373.6329818142
 30
0.0
 11
593.0398945601
 21
373.6329818142
 31
0.0
  0
SPLINE
  5
455
330
1B
100
AcDbEntity
 67
     1
  8
02___PRT_ALL_AXES
  6
Continuous
 62
     7
100
AcDbSpline
 70
     0
 71
     3
 72
    22
 73
    18
 74
     0
 42
0.000000001
 43
0.0000001
 40
0.0
 40
0.0
 40
0.0
 40
0.0
 40
0.0118569314
 40
0.0238868853
 40
0.049888416
 40
0.0645466363
 40
0.0805709326
 40
0.1172066005
 40
0.1604640116
 40
0.210510828
 40
0.2672412511
 40
0.3303727221
 40
0.3994979927
 40
0.4741143163
 40
0.6374155645
 40
0.8148267152
 40
1.0
 40
1.0
 40
1.0
 40
1.0
 10
723.4264220552
 20
404.8645908246
 30
0.0
 10
723.5118993116
 20
404.8566795857
 30
0.0
 10
723.683060084
 20
404.8241957715
 30
0.0
 10
724.0202311978
 20
404.689365075
 30
0.0
 10
724.3278158622
 20
404.450872266
 30
0.0
 10
724.596994059
 20
404.1406776143
 30
0.0
 10
724.8739297155
 20
403.7383717868
 30
0.0
 10
725.1831880749
 20
403.1131590471
 30
0.0
 10
725.4935204516
 20
402.2235933077
 30
0.0
 10
725.7604264344
 20
401.1695740828
 30
0.0
 10
725.9863409698
 20
399.9598037819
 30
0.0
 10
726.1741826708
 20
398.6041371965
 30
0.0
 10
726.3274187214
 20
397.11403342
 30
0.0
 10
726.4954532671
 20
394.8972471931
 30
0.0
 10
726.6302016254
 20
391.8927546565
 30
0.0
 10
726.7132314748
 20
388.0861906938
 30
0.0
 10
726.732073983
 20
385.4611021209
 30
0.0
 10
726.7340513585
 20
384.1204739919
 30
0.0
  0
SPLINE
  5
456
330
1B
100
AcDbEntity
 67
     1
  8
7_ALL_FEATURES
  6
Continuous
 62
     7
100
AcDbSpline
 70
     0
 71
     3
 72
    16
 73
    12
 74
     0
 42
0.000000001
 43
0.0000001
 40
0.0
 40
0.0
 40
0.0
 40
0.0
 40
0.1232168345
 40
0.2462889566
 40
0.3696479629
 40
0.4937097359
 40
0.6187748014
 40
0.7449473506
 40
0.8084791758
 40
0.8722201883
 40
1.0
 40
1.0
 40
1.0
 40
1.0
 10
592.0739687338
 20
373.3826763772
 30
0.0
 10
591.4692606659
 20
373.4132897268
 30
0.0
 10
590.2631800594
 20
373.5906399941
 30
0.0
 10
588.5397549659
 20
374.19748309
 30
0.0
 10
586.9594145261
 20
375.1237147586
 30
0.0
 10
585.5746263733
 20
376.3370727872
 30
0.0
 10
584.4292932654
 20
377.7954890247
 30
0.0
 10
583.7050224113
 20
379.1723417512
 30
0.0
 10
583.2758372936
 20
380.3429968125
 30
0.0
 10
582.9489599765
 20
381.5541507617
 30
0.0
 10
582.8238556808
 20
382.4932312582
 30
0.0
 10
582.7950297297
 20
383.1204739919
 30
0.0
  0
LINE
  5
457
330
1B
100
AcDbEntity
 67
     1
  8
7_ALL_FEATURES
  6
Continuous
 62
     7
100
AcDbLine
 10
723.1676030101
 20
393.6079661697
 30
0.0
 11
722.6851962059
 21
393.6079661697
 31
0.0
  0
SPLINE
  5
458
330
1B
100
AcDbEntity
 67
     1
  8
02___PRT_ALL_AXES
  6
Continuous
 62
     7
100
AcDbSpline
 70
     0
 71
     3
 72
    22
 73
    18
 74
     0
 42
0.000000001
 43
0.0000001
 40
0.0
 40
0.0
 40
0.0
 40
0.0
 40
0.1851732844
 40
0.3625844355
 40
0.5258856834
 40
0.6005020069
 40
0.6696272776
 40
0.7327587486
 40
0.7894891717
 40
0.8395359882
 40
0.8827933993
 40
0.9194290673
 40
0.9354533635
 40
0.9501115839
 40
0.9761131146
 40
0.9881430685
 40
1.0
 40
1.0
 40
1.0
 40
1.0
 10
726.7340513585
 20
383.1204739919
 30
0.0
 10
726.732073983
 20
381.7798458655
 30
0.0
 10
726.7132314749
 20
379.1547572922
 30
0.0
 10
726.6302016255
 20
375.348193332
 30
0.0
 10
726.4954532673
 20
372.3437007952
 30
0.0
 10
726.327418722
 20
370.1269145709
 30
0.0
 10
726.1741826716
 20
368.636810794
 30
0.0
 10
725.9863409707
 20
367.2811442079
 30
0.0
 10
725.7604264356
 20
366.0713739062
 30
0.0
 10
725.4935204528
 20
365.0173546805
 30
0.0
 10
725.1831880764
 20
364.1277889401
 30
0.0
 10
724.873929717
 20
363.5025761997
 30
0.0
 10
724.5969940606
 20
363.1002703717
 30
0.0
 10
724.327815864
 20
362.7900757195
 30
0.0
 10
724.0202311995
 20
362.5515829095
 30
0.0
 10
723.6830600849
 20
362.416752213
 30
0.0
 10
723.511899312
 20
362.3842683982
 30
0.0
 10
723.4264220552
 20
362.3763571593
 30
0.0
  0
LINE
  5
459
330
1B
100
AcDbEntity
 67
     1
  8
02___PRT_ALL_AXES
  6
Continuous
 62
     7
100
AcDbLine
 10
723.1676030101
 20
362.3763571593
 30
0.0
 11
723.1676030101
 21
362.876498963
 31
0.0
  0
SPLINE
  5
45A
330
1B
100
AcDbEntity
 67
     1
  8
02___PRT_ALL_AXES
  6
Continuous
 62
     7
100
AcDbSpline
 70
     0
 71
     3
 72
    21
 73
    17
 74
     0
 42
0.000000001
 43
0.0000001
 40
0.0
 40
0.0
 40
0.0
 40
0.0
 40
0.1755530458
 40
0.3451266624
 40
0.5036825929
 40
0.5773861341
 40
0.6466408008
 40
0.7109535633
 40
0.7698791314
 40
0.8230376186
 40
0.8701441663
 40
0.9110605867
 40
0.9458863186
 40
0.9611698823
 40
0.9751699494
 40
1.0
 40
1.0
 40
1.0
 40
1.0
 10
715.9636353278
 20
383.1204739919
 30
0.0
 10
715.9778460156
 20
381.81080276
 30
0.0
 10
716.1153588398
 20
379.2358000014
 30
0.0
 10
716.636713952
 20
375.5100064381
 30
0.0
 10
717.3103865268
 20
372.5840356118
 30
0.0
 10
717.970235044
 20
370.4327020895
 30
0.0
 10
718.4961527216
 20
368.9777622117
 30
0.0
 10
719.0554477974
 20
367.6542221376
 30
0.0
 10
719.6382967598
 20
366.4733206626
 30
0.0
 10
720.2348508291
 20
365.4451558184
 30
0.0
 10
720.8357088151
 20
364.5782541479
 30
0.0
 10
721.4320738759
 20
363.8799783348
 30
0.0
 10
721.9398404167
 20
363.424164309
 30
0.0
 10
722.3393187315
 20
363.1592333318
 30
0.0
 10
722.6987964353
 20
362.9749588992
 30
0.0
 10
722.9831246086
 20
362.8933839689
 30
0.0
 10
723.1676030101
 20
362.876498963
 30
0.0
  0
SPLINE
  5
45B
330
1B
100
AcDbEntity
 67
     1
  8
7_ALL_FEATURES
  6
Continuous
 62
     7
100
AcDbSpline
 70
     0
 71
     3
 72
    16
 73
    12
 74
     0
 42
0.000000001
 43
0.0000001
 40
0.0
 40
0.0
 40
0.0
 40
0.0
 40
0.1277798136
 40
0.1915208264
 40
0.255052653
 40
0.3812252009
 40
0.5062902674
 40
0.6303520383
 40
0.7537110451
 40
0.8767831673
 40
1.0
 40
1.0
 40
1.0
 40
1.0
 10
582.7950297297
 20
384.1204739919
 30
0.0
 10
582.8238556812
 20
384.7477167349
 30
0.0
 10
582.9489599799
 20
385.6867972418
 30
0.0
 10
583.2758373046
 20
386.8979512075
 30
0.0
 10
583.7050224278
 20
388.0686062691
 30
0.0
 10
584.42929329
 20
389.4454589975
 30
0.0
 10
585.5746263972
 20
390.9038752213
 30
0.0
 10
586.9594145518
 20
392.1172332425
 30
0.0
 10
588.5397549873
 20
393.0434649043
 30
0.0
 10
590.2631800767
 20
393.6503079925
 30
0.0
 10
591.4692606747
 20
393.8276582575
 30
0.0
 10
592.0739687338
 20
393.8582716067
 30
0.0
  0
LINE
  5
45C
330
1B
100
AcDbEntity
 67
     1
  8
7_ALL_FEATURES
  6
Continuous
 62
     7
100
AcDbLine
 10
723.1676030101
 20
373.6329818142
 30
0.0
 11
722.685195084
 21
373.6329818142
 31
0.0
  0
LINE
  5
45D
330
1B
100
AcDbEntity
 67
     1
  8
02___PRT_ALL_AXES
  6
Continuous
 62
     7
100
AcDbLine
 10
593.0398945601
 20
404.3644490208
 30
0.0
 11
593.428127447
 21
404.3644490208
 31
0.0
  0
ARC
  5
45E
330
1B
100
AcDbEntity
 67
     1
  8
7_ALL_FEATURES
  6
Continuous
 62
     7
100
AcDbCircle
 10
592.5545562382
 20
383.0055693474
 30
0.0
 40
9.3851451962
100
AcDbArc
 50
272.9642851729
 51
275.3244036651001
  0
SPLINE
  5
45F
330
1B
100
AcDbEntity
 67
     1
  8
7_ALL_FEATURES
  6
Continuous
 62
     7
100
AcDbSpline
 70
     0
 71
     3
 72
    15
 73
    11
 74
     0
 42
0.000000001
 43
0.0000001
 40
0.0
 40
0.0
 40
0.0
 40
0.0
 40
0.1228015957
 40
0.2463680929
 40
0.3707032093
 40
0.4957251919
 40
0.6213061226
 40
0.7473030386
 40
0.8735768667
 40
1.0
 40
1.0
 40
1.0
 40
1.0
 10
593.425447806
 20
373.6609185658
 30
0.0
 10
594.0014532872
 20
373.714591919
 30
0.0
 10
595.1497692786
 20
373.9298210706
 30
0.0
 10
596.7879201634
 20
374.5606633778
 30
0.0
 10
598.2962013996
 20
375.479842745
 30
0.0
 10
599.6247078745
 20
376.6578232172
 30
0.0
 10
600.7299552525
 20
378.0573759389
 30
0.0
 10
601.5749245926
 20
379.6347007251
 30
0.0
 10
602.1306936666
 20
381.3392426628
 30
0.0
 10
602.2955062814
 20
382.525643159
 30
0.0
 10
602.324994653
 20
383.1204739919
 30
0.0
  0
LINE
  5
460
330
1B
100
AcDbEntity
 67
     1
  8
7_ALL_FEATURES
  6
Continuous
 62
     7
100
AcDbLine
 10
593.0398945601
 20
373.3826763772
 30
0.0
 11
593.0398945601
 21
373.6329818142
 31
0.0
  0
LINE
  5
461
330
1B
100
AcDbEntity
 67
     1
  8
7_ALL_FEATURES
  6
Continuous
 62
     7
100
AcDbLine
 10
593.0398945601
 20
393.6079661697
 30
0.0
 11
593.0398945601
 21
393.8582716067
 31
0.0
  0
SPLINE
  5
462
330
1B
100
AcDbEntity
 67
     1
  8
7_ALL_FEATURES
  6
Continuous
 62
     7
100
AcDbSpline
 70
     0
 71
     3
 72
    15
 73
    11
 74
     0
 42
0.000000001
 43
0.0000001
 40
0.0
 40
0.0
 40
0.0
 40
0.0
 40
0.1264231338
 40
0.2526969618
 40
0.3786938781
 40
0.5042748074
 40
0.6292967917
 40
0.7536319063
 40
0.877198404
 40
1.0
 40
1.0
 40
1.0
 40
1.0
 10
602.324994653
 20
384.1204739919
 30
0.0
 10
602.2955062812
 20
384.71530483
 30
0.0
 10
602.1306936632
 20
385.9017053326
 30
0.0
 10
601.5749245846
 20
387.60624728
 30
0.0
 10
600.7299552388
 20
389.1835720653
 30
0.0
 10
599.6247078515
 20
390.5831247925
 30
0.0
 10
598.2962013716
 20
391.7611052604
 30
0.0
 10
596.7879201237
 20
392.6802846252
 30
0.0
 10
595.1497692334
 20
393.3111269272
 30
0.0
 10
594.001453232
 20
393.5263560733
 30
0.0
 10
593.4254477465
 20
393.5800294235
 30
0.0
  0
ARC
  5
463
330
1B
100
AcDbEntity
 67
     1
  8
7_ALL_FEATURES
  6
Continuous
 62
     7
100
AcDbCircle
 10
592.5545562426
 20
384.2353787513
 30
0.0
 40
9.3851450813
100
AcDbArc
 50
84.67559666149998
 51
87.0357148178
  0
DIMENSION
  5
464
330
1B
100
AcDbEntity
 67
     1
  8
0
  6
Continuous
 62
     2
100
AcDbDimension
280
     0
  2
*D1
 10
368.3964036167
 20
205.4659563942
 30
0.0
 11
383.1171694855
 21
211.7454190759
 31
0.0
 70
   163
  1
%%c<>
 71
     5
 42
-1.0
 73
     0
 74
     0
 75
     0
  3
DIMSTYLE_1
100
AcDbDiametricDimension
 15
107.6206175527
 25
135.494609382
 35
0.0
 40
0.0
  0
DIMENSION
  5
465
330
1B
100
AcDbEntity
 67
     1
  8
0
  6
Continuous
 62
     2
100
AcDbDimension
280
     0
  2
*D2
 10
367.0085105847
 20
566.7436249846
 30
0.0
 11
238.0085105847
 21
566.7436249846
 31
0.0
 70
   160
  1
%%c<>
 71
     5
 42
-1.0
 73
     0
 74
     0
 75
     0
  3
DIMSTYLE_2
100
AcDbAlignedDimension
 13
109.0085105847
 23
552.6204739919
 33
0.0
 14
367.0085105847
 24
552.6204739919
 34
0.0
100
AcDbRotatedDimension
  0
DIMENSION
  5
466
330
1B
100
AcDbEntity
 67
     1
  8
0
  6
Continuous
 62
     2
100
AcDbDimension
280
     0
  2
*D3
 10
389.2693048288
 20
353.6204739919
 30
0.0
 11
389.2693048288
 21
453.7921157612
 31
0.0
 70
   160
 71
     5
 42
-1.0
 73
     0
 74
     0
 75
     0
  3
DIMSTYLE_2
100
AcDbAlignedDimension
 13
374.7300356015
 23
554.6204739919
 33
0.0
 14
371.835155746
 24
353.6204739919
 34
0.0
 50
270.0
100
AcDbRotatedDimension
  0
DIMENSION
  5
467
330
1B
100
AcDbEntity
 67
     1
  8
0
  6
Continuous
 62
     2
100
AcDbDimension
280
     0
  2
*D4
 10
344.7585105847
 20
336.2732348117
 30
0.0
 11
238.0085105847
 21
336.2732348117
 31
0.0
 70
   160
  1
%%c<>
 71
     5
 42
-1.0
 73
     0
 74
     0
 75
     0
  3
DIMSTYLE_2
100
AcDbAlignedDimension
 13
131.2585105847
 23
353.6204739919
 33
0.0
 14
344.7585105847
 24
353.6204739919
 34
0.0
100
AcDbRotatedDimension
  0
LINE
  5
468
330
1B
100
AcDbEntity
 67
     1
  8
0
  6
Continuous
 62
     2
100
AcDbLine
 10
701.0004722972
 20
76.0006472157
 30
0.0
 11
831.0004722972
 21
76.0006472157
 31
0.0
  0
LINE
  5
469
330
1B
100
AcDbEntity
 67
     1
  8
0
  6
Continuous
 62
     2
100
AcDbLine
 10
701.0004722972
 20
76.0006472157
 30
0.0
 11
701.0004722972
 21
10.0006472157
 31
0.0
  0
LINE
  5
46A
330
1B
100
AcDbEntity
 67
     1
  8
0
  6
Continuous
 62
     2
100
AcDbLine
 10
731.0004722972
 20
68.0006472157
 30
0.0
 11
831.0004722972
 21
68.0006472157
 31
0.0
  0
LINE
  5
46B
330
1B
100
AcDbEntity
 67
     1
  8
0
  6
Continuous
 62
     2
100
AcDbLine
 10
701.0004722972
 20
60.0006472157
 30
0.0
 11
831.0004722972
 21
60.0006472157
 31
0.0
  0
LINE
  5
46C
330
1B
100
AcDbEntity
 67
     1
  8
0
  6
Continuous
 62
     2
100
AcDbLine
 10
731.0004722972
 20
54.0006472157
 30
0.0
 11
831.0004722972
 21
54.0006472157
 31
0.0
  0
LINE
  5
46D
330
1B
100
AcDbEntity
 67
     1
  8
0
  6
Continuous
 62
     2
100
AcDbLine
 10
731.0004722972
 20
48.0006472157
 30
0.0
 11
831.0004722972
 21
48.0006472157
 31
0.0
  0
LINE
  5
46E
330
1B
100
AcDbEntity
 67
     1
  8
0
  6
Continuous
 62
     2
100
AcDbLine
 10
731.0004722972
 20
42.0006472157
 30
0.0
 11
831.0004722972
 21
42.0006472157
 31
0.0
  0
LINE
  5
46F
330
1B
100
AcDbEntity
 67
     1
  8
0
  6
Continuous
 62
     2
100
AcDbLine
 10
731.0004722972
 20
36.0006472157
 30
0.0
 11
831.0004722972
 21
36.0006472157
 31
0.0
  0
LINE
  5
470
330
1B
100
AcDbEntity
 67
     1
  8
0
  6
Continuous
 62
     2
100
AcDbLine
 10
731.0004722972
 20
30.0006472157
 30
0.0
 11
831.0004722972
 21
30.0006472157
 31
0.0
  0
LINE
  5
471
330
1B
100
AcDbEntity
 67
     1
  8
0
  6
Continuous
 62
     2
100
AcDbLine
 10
701.0004722972
 20
24.0006472157
 30
0.0
 11
831.0004722972
 21
24.0006472157
 31
0.0
  0
LINE
  5
472
330
1B
100
AcDbEntity
 67
     1
  8
0
  6
Continuous
 62
     2
100
AcDbLine
 10
701.0004722972
 20
18.0006472157
 30
0.0
 11
831.0004722972
 21
18.0006472157
 31
0.0
  0
LINE
  5
473
330
1B
100
AcDbEntity
 67
     1
  8
0
  6
Continuous
 62
     2
100
AcDbLine
 10
701.0004722972
 20
14.0006472157
 30
0.0
 11
831.0004722972
 21
14.0006472157
 31
0.0
  0
LINE
  5
474
330
1B
100
AcDbEntity
 67
     1
  8
0
  6
Continuous
 62
     2
100
AcDbLine
 10
701.0004722972
 20
10.0006472157
 30
0.0
 11
831.0004722972
 21
10.0006472157
 31
0.0
  0
LINE
  5
475
330
1B
100
AcDbEntity
 67
     1
  8
0
  6
Continuous
 62
     2
100
AcDbLine
 10
731.0004722972
 20
76.0006472157
 30
0.0
 11
731.0004722972
 21
18.0006472157
 31
0.0
  0
LINE
  5
476
330
1B
100
AcDbEntity
 67
     1
  8
0
  6
Continuous
 62
     2
100
AcDbLine
 10
751.0004722972
 20
60.0006472157
 30
0.0
 11
751.0004722972
 21
54.0006472157
 31
0.0
  0
LINE
  5
477
330
1B
100
AcDbEntity
 67
     1
  8
0
  6
Continuous
 62
     2
100
AcDbLine
 10
781.0004722972
 20
30.0006472157
 30
0.0
 11
781.0004722972
 21
18.0006472157
 31
0.0
  0
LINE
  5
478
330
1B
100
AcDbEntity
 67
     1
  8
0
  6
Continuous
 62
     2
100
AcDbLine
 10
791.0004722972
 20
60.0006472157
 30
0.0
 11
791.0004722972
 21
54.0006472157
 31
0.0
  0
LINE
  5
479
330
1B
100
AcDbEntity
 67
     1
  8
0
  6
Continuous
 62
     2
100
AcDbLine
 10
791.0004722972
 20
48.0006472157
 30
0.0
 11
791.0004722972
 21
42.0006472157
 31
0.0
  0
LINE
  5
47A
330
1B
100
AcDbEntity
 67
     1
  8
0
  6
Continuous
 62
     2
100
AcDbLine
 10
811.0004722972
 20
60.0006472157
 30
0.0
 11
811.0004722972
 21
54.0006472157
 31
0.0
  0
LINE
  5
47B
330
1B
100
AcDbEntity
 67
     1
  8
0
  6
Continuous
 62
     2
100
AcDbLine
 10
821.0004722972
 20
48.0006472157
 30
0.0
 11
821.0004722972
 21
42.0006472157
 31
0.0
  0
LINE
  5
47C
330
1B
100
AcDbEntity
 67
     1
  8
0
  6
Continuous
 62
     2
100
AcDbLine
 10
831.0004722972
 20
76.0006472157
 30
0.0
 11
831.0004722972
 21
10.0006472157
 31
0.0
  0
INSERT
  5
47D
330
1B
100
AcDbEntity
 67
     1
  8
0
  6
Continuous
 62
     2
100
AcDbBlockReference
  2
PROIEZIONE_EU_BL0
 10
716.0004722972
 20
67.6256472157
 30
0.0
  0
MTEXT
  5
47E
330
1B
100
AcDbEntity
 67
     1
  8
9_SOLID
  6
Continuous
 62
     2
100
AcDbMText
 10
732.4879722972
 20
74.3756472157
 30
0.0
 40
1.9
 41
142.3642857143
 46
0.0
 71
     1
 72
     1
  1
EN: Chamfer/radii unlisted 0.3x45°. Remove sharp edges.\PGen. tol.: hole H11, shaft h11, lenght Js12. UNI EN 22768 Medium Grande.
  7
TEXTSTYLE_6
 73
     1
 44
1.0
  0
MTEXT
  5
47F
330
1B
100
AcDbEntity
 67
     1
  8
9_SOLID
  6
Continuous
 62
     2
100
AcDbMText
 10
732.4879722972
 20
66.3756472157
 30
0.0
 40
1.9
 41
148.2678571429
 46
0.0
 71
     1
 72
     1
  1
IT: Sm./rac. non quotati 0.3x45°. Eliminare spigoli taglienti.\PToll. gen.: foro H11, albero h11, lunghezza Js12. UNI EN 22768 Grado Medio.
  7
TEXTSTYLE_6
 73
     1
 44
1.0
  0
INSERT
  5
480
330
1B
100
AcDbEntity
 67
     1
  8
0
  6
Continuous
 62
     2
100
AcDbBlockReference
  2
LOGO2_BL1
 10
714.8265193419
 20
42.0006472157
 30
0.0
  0
MTEXT
  5
481
330
1B
100
AcDbEntity
 67
     1
  8
9_SOLID
  6
Continuous
 62
     2
100
AcDbMText
 10
732.4879722972
 20
58.2506472157
 30
0.0
 40
3.0
 41
22.0714285714
 46
0.0
 71
     1
 72
     1
  1
Pj: 256
  7
TEXTSTYLE_6
 73
     1
 44
1.0
  0
MTEXT
  5
482
330
1B
100
AcDbEntity
 67
     1
  8
9_SOLID
  6
Continuous
 62
     2
100
AcDbMText
 10
752.4879722972
 20
58.2506472157
 30
0.0
 40
3.0
 41
38.0357142857
 46
0.0
 71
     1
 72
     1
  1
% Check: %
  7
TEXTSTYLE_6
 73
     1
 44
1.0
  0
MTEXT
  5
483
330
1B
100
AcDbEntity
 67
     1
  8
9_SOLID
  6
Continuous
 62
     2
100
AcDbMText
 10
792.4879722972
 20
58.2506472157
 30
0.0
 40
3.0
 41
19.5
 46
0.0
 71
     1
 72
     1
  1
Rev:00
  7
TEXTSTYLE_6
 73
     1
 44
1.0
  0
MTEXT
  5
484
330
1B
100
AcDbEntity
 67
     1
  8
9_SOLID
  6
Continuous
 62
     2
100
AcDbMText
 10
812.4879722972
 20
58.5006472157
 30
0.0
 40
3.0
 41
19.7142857143
 46
0.0
 71
     1
 72
     1
  1
Ver: A
  7
TEXTSTYLE_6
 73
     1
 44
1.0
  0
MTEXT
  5
485
330
1B
100
AcDbEntity
 67
     1
  8
9_SOLID
  6
Continuous
 62
     2
100
AcDbMText
 10
732.4879722972
 20
52.2506472157
 30
0.0
 40
3.0
 41
73.0714285714
 46
0.0
 71
     1
 72
     1
  1
Neutral code: 256_C_331
  7
TEXTSTYLE_6
 73
     1
 44
1.0
  0
MTEXT
  5
486
330
1B
100
AcDbEntity
 67
     1
  8
9_SOLID
  6
Continuous
 62
     2
100
AcDbMText
 10
732.4879722972
 20
46.2506472157
 30
0.0
 40
3.0
 41
19.3928571429
 46
0.0
 71
     1
 72
     1
  1
Code: 
  7
TEXTSTYLE_6
 73
     1
 44
1.0
  0
MTEXT
  5
487
330
1B
100
AcDbEntity
 67
     1
  8
9_SOLID
  6
Continuous
 62
     2
100
AcDbMText
 10
792.4879722972
 20
46.5006472157
 30
0.0
 40
3.0
 41
27.0
 46
0.0
 71
     1
 72
     1
  1
Scale: 1:1
  7
TEXTSTYLE_6
 73
     1
 44
1.0
  0
MTEXT
  5
488
330
1B
100
AcDbEntity
 67
     1
  8
9_SOLID
  6
Continuous
 62
     2
100
AcDbMText
 10
826.0004722972
 20
46.5006472157
 30
0.0
 40
3.0
 41
6.4285714286
 46
0.0
 71
     2
 72
     1
  1
A1
  7
TEXTSTYLE_6
 73
     1
 44
1.0
  0
MTEXT
  5
489
330
1B
100
AcDbEntity
 67
     1
  8
9_SOLID
  6
Continuous
 62
     2
100
AcDbMText
 10
732.4879722972
 20
40.5006472157
 30
0.0
 40
3.0
 41
55.7142857143
 46
0.0
 71
     1
 72
     1
  1
It descr.: WC5610
  7
TEXTSTYLE_6
 73
     1
 44
1.0
  0
MTEXT
  5
48A
330
1B
100
AcDbEntity
 67
     1
  8
9_SOLID
  6
Continuous
 62
     2
100
AcDbMText
 10
732.4879722972
 20
34.5006472157
 30
0.0
 40
3.0
 41
33.9642857143
 46
0.0
 71
     1
 72
     1
  1
En descr.: 
  7
TEXTSTYLE_6
 73
     1
 44
1.0
  0
MTEXT
  5
48B
330
1B
100
AcDbEntity
 67
     1
  8
9_SOLID
  6
Continuous
 62
     2
100
AcDbMText
 10
732.4879722972
 20
28.5006472157
 30
0.0
 40
3.0
 41
28.7142857143
 46
0.0
 71
     1
 72
     1
  1
Des.: A.F
  7
TEXTSTYLE_6
 73
     1
 44
1.0
  0
MTEXT
  5
48C
330
1B
100
AcDbEntity
 67
     1
  8
9_SOLID
  6
Continuous
 62
     2
100
AcDbMText
 10
782.4879722972
 20
28.5006472157
 30
0.0
 40
3.0
 41
34.8214285714
 46
0.0
 71
     1
 72
     1
  1
Check: A.P.
  7
TEXTSTYLE_6
 73
     1
 44
1.0
  0
MTEXT
  5
48D
330
1B
100
AcDbEntity
 67
     1
  8
9_SOLID
  6
Continuous
 62
     2
100
AcDbMText
 10
702.4879722972
 20
22.5006472157
 30
0.0
 40
3.0
 41
43.5
 46
0.0
 71
     1
 72
     1
  1
Date: 04.12.18
  7
TEXTSTYLE_6
 73
     1
 44
1.0
  0
MTEXT
  5
48E
330
1B
100
AcDbEntity
 67
     1
  8
9_SOLID
  6
Continuous
 62
     2
100
AcDbMText
 10
732.4879722972
 20
22.5006472157
 30
0.0
 40
3.0
 41
18.2142857143
 46
0.0
 71
     1
 72
     1
  1
Mat.: 
  7
TEXTSTYLE_6
 73
     1
 44
1.0
  0
MTEXT
  5
48F
330
1B
100
AcDbEntity
 67
     1
  8
9_SOLID
  6
Continuous
 62
     2
100
AcDbMText
 10
782.4879722972
 20
22.0006472157
 30
0.0
 40
2.0
 41
42.3571428571
 46
0.0
 71
     1
 72
     1
  1
Disegno per catalogo
  7
TEXTSTYLE_6
 73
     1
 44
1.0
  0
MTEXT
  5
490
330
1B
100
AcDbEntity
 67
     1
  8
9_SOLID
  6
Continuous
 62
     2
100
AcDbMText
 10
702.4879722972
 20
16.9006472157
 30
0.0
 40
1.8
 41
175.6928571429
 46
0.0
 71
     1
 72
     1
  1
It: A norma di legge si diffida da qualsiasi riproduzione senza nostra autorizzazione esplicita.
  7
TEXTSTYLE_6
 73
     1
 44
1.0
  0
MTEXT
  5
491
330
1B
100
AcDbEntity
 67
     1
  8
9_SOLID
  6
Continuous
 62
     2
100
AcDbMText
 10
702.4879722972
 20
12.9006472157
 30
0.0
 40
1.8
 41
157.6285714286
 46
0.0
 71
     1
 72
     1
  1
En: According to the law, beware of any reproduction made without our authorization.
  7
TEXTSTYLE_6
 73
     1
 44
1.0
  0
ENDSEC
  0
SECTION
  2
OBJECTS
  0
DICTIONARY
  5
492
330
0
100
AcDbDictionary
281
     1
  3
ACAD_DETAILVIEWSTYLE
350
4E8
  3
ACAD_GROUP
350
493
  3
ACAD_LAYOUT
350
4BB
  3
ACAD_MATERIAL
350
4D7
  3
ACAD_MLEADERSTYLE
350
4DD
  3
ACAD_MLINESTYLE
350
494
  3
ACAD_PLOTSETTINGS
350
496
  3
ACAD_PLOTSTYLENAME
350
497
  3
ACAD_SCALELIST
350
499
  3
ACAD_SECTIONVIEWSTYLE
350
4E9
  3
ACAD_TABLESTYLE
350
4DB
  3
ACAD_VISUALSTYLE
350
4BE
  3
ACDB_RECOMPOSE_DATA
350
4E4
  3
AcDbVariableDictionary
350
4E0
  3
APPDATA
350
4DF
  0
DICTIONARY
  5
4E8
102
{ACAD_REACTORS
330
492
102
}
330
492
100
AcDbDictionary
281
     1
  0
DICTIONARY
  5
493
102
{ACAD_REACTORS
330
492
102
}
330
492
100
AcDbDictionary
281
     1
  0
DICTIONARY
  5
4BB
102
{ACAD_REACTORS
330
492
102
}
330
492
100
AcDbDictionary
281
     1
  3
Foglio 1
350
4BD
  3
Model
350
4BC
  0
DICTIONARY
  5
4D7
102
{ACAD_REACTORS
330
492
102
}
330
492
100
AcDbDictionary
281
     1
  3
ByBlock
350
4D9
  3
ByLayer
350
4D8
  3
Global
350
4DA
  0
DICTIONARY
  5
4DD
102
{ACAD_REACTORS
330
492
102
}
330
492
100
AcDbDictionary
281
     1
  3
Standard
350
4DE
  0
DICTIONARY
  5
494
102
{ACAD_REACTORS
330
492
102
}
330
492
100
AcDbDictionary
281
     1
  3
STANDARD
350
495
  0
DICTIONARY
  5
496
102
{ACAD_REACTORS
330
492
102
}
330
492
100
AcDbDictionary
281
     1
  0
ACDBDICTIONARYWDFLT
  5
497
102
{ACAD_REACTORS
330
492
102
}
330
492
100
AcDbDictionary
281
     1
  3
Normal
350
498
100
AcDbDictionaryWithDefault
340
498
  0
DICTIONARY
  5
499
102
{ACAD_REACTORS
330
492
102
}
330
492
100
AcDbDictionary
281
     1
  3
A0
350
49A
  3
A1
350
49B
  3
A2
350
49C
  3
A3
350
49D
  3
A4
350
49E
  3
A5
350
49F
  3
A6
350
4A0
  3
A7
350
4A1
  3
A8
350
4A2
  3
A9
350
4A3
  3
B0
350
4A4
  3
B1
350
4A5
  3
B2
350
4A6
  3
B3
350
4A7
  3
B4
350
4A8
  3
B5
350
4A9
  3
B6
350
4AA
  3
B7
350
4AB
  3
B8
350
4AC
  3
B9
350
4AD
  3
C0
350
4AE
  3
C1
350
4AF
  3
C2
350
4B0
  3
C3
350
4B1
  3
C4
350
4B2
  3
C5
350
4B3
  3
C6
350
4B4
  3
C7
350
4B5
  3
C8
350
4B6
  3
C9
350
4B7
  3
D0
350
4B8
  3
D1
350
4B9
  3
D2
350
4BA
  0
DICTIONARY
  5
4E9
102
{ACAD_REACTORS
330
492
102
}
330
492
100
AcDbDictionary
281
     1
  0
DICTIONARY
  5
4DB
102
{ACAD_REACTORS
330
492
102
}
330
492
100
AcDbDictionary
281
     1
  3
Standard
350
4DC
  0
DICTIONARY
  5
4BE
102
{ACAD_REACTORS
330
492
102
}
330
492
100
AcDbDictionary
281
     1
  3
2dWireframe
350
4C3
  3
Basic
350
4C6
  3
Brighten
350
4CA
  3
ColorChange
350
4CE
  3
Conceptual
350
4C8
  3
Dim
350
4C9
  3
EdgeColorOff
350
4D1
  3
Facepattern
350
4CD
  3
Flat
350
4BF
  3
FlatWithEdges
350
4C0
  3
Gouraud
350
4C1
  3
GouraudWithEdges
350
4C2
  3
Hidden
350
4C5
  3
JitterOff
350
4CF
  3
Linepattern
350
4CC
  3
OverhangOff
350
4D0
  3
Realistic
350
4C7
  3
Shaded
350
4D6
  3
Shaded with edges
350
4D5
  3
Shades of Gray
350
4D2
  3
Sketchy
350
4D3
  3
Thicken
350
4CB
  3
Wireframe
350
4C4
  3
X-Ray
350
4D4
  0
XRECORD
  5
4E4
102
{ACAD_REACTORS
330
492
102
}
330
492
100
AcDbXrecord
280
     1
 90
        1
330
4DC
  0
DICTIONARY
  5
4E0
102
{ACAD_REACTORS
330
492
102
}
330
492
100
AcDbDictionary
281
     1
  3
CANNOSCALE
350
4E1
  3
CMLEADERSTYLE
350
4E6
  3
CTABLESTYLE
350
4E5
  3
MSLTSCALE
350
4E7
  0
DICTIONARY
  5
4DF
102
{ACAD_REACTORS
330
492
102
}
330
492
100
AcDbDictionary
281
     1
  0
LAYOUT
  5
4BD
102
{ACAD_REACTORS
330
4BB
102
}
330
4BB
100
AcDbPlotSettings
  1

  2
none_device
  4
ISO_A3_(420.00_x_297.00_MM)
  6

 40
7.5
 41
20.0
 42
7.5
 43
20.0
 44
420.0
 45
297.0
 46
0.0
 47
0.0
 48
0.0
 49
0.0
140
0.0
141
0.0
142
1.0
143
2.311284046692607
 70
   688
 72
     1
 73
     0
 74
     1
  7

 75
     0
 76
     0
 77
     2
 78
   300
147
0.4326599326599327
148
0.0
149
0.0
100
AcDbLayout
  1
Foglio 1
 70
     1
 71
     1
 10
0.0
 20
0.0
 11
412.5
 21
277.0
 12
0.0
 22
0.0
 32
0.0
 14
0.0
 24
0.0
 34
0.0
 15
841.0
 25
594.0
 35
0.0
146
0.0
 13
0.0
 23
0.0
 33
0.0
 16
1.0
 26
0.0
 36
0.0
 17
0.0
 27
1.0
 37
0.0
 76
     0
330
1B
331
2DE
  0
LAYOUT
  5
4BC
102
{ACAD_REACTORS
330
4BB
102
}
330
4BB
100
AcDbPlotSettings
  1

  2
none_device
  4
Letter_(8.50_x_11.00_Inches)
  6

 40
6.35
 41
6.35
 42
6.35
 43
6.35
 44
215.9
 45
279.4
 46
0.0
 47
0.0
 48
0.0
 49
0.0
140
0.0
141
0.0
142
1.0
143
105.12499999815
 70
  1712
 72
     0
 73
     0
 74
     0
  7

 75
     0
 76
     0
 77
     2
 78
   300
147
0.0095124851369094
148
-0.0000001879597448
149
0.0
100
AcDbLayout
  1
Model
 70
     1
 71
     0
 10
0.0
 20
0.0
 11
841.0
 21
594.0
 12
0.0
 22
0.0
 32
0.0
 14
0.0
 24
0.0
 34
0.0
 15
841.0
 25
594.0
 35
0.0
146
0.0
 13
0.0
 23
0.0
 33
0.0
 16
1.0
 26
0.0
 36
0.0
 17
0.0
 27
1.0
 37
0.0
 76
     0
330
1F
331
1F4
  0
MATERIAL
  5
4D9
102
{ACAD_REACTORS
330
4D7
102
}
330
4D7
100
AcDbMaterial
  1
ByBlock
 72
     1
 94
      127
  0
MATERIAL
  5
4D8
102
{ACAD_REACTORS
330
4D7
102
}
330
4D7
100
AcDbMaterial
  1
ByLayer
 72
     1
 94
      127
  0
MATERIAL
  5
4DA
102
{ACAD_REACTORS
330
4D7
102
}
330
4D7
100
AcDbMaterial
  1
Global
 72
     1
 94
      127
  0
MLEADERSTYLE
  5
4DE
102
{ACAD_REACTORS
330
4DD
102
}
330
4DD
100
AcDbMLeaderStyle
179
     2
170
     2
171
     1
172
     0
 90
        2
 40
0.0
 41
0.0
173
     1
 91
-1056964608
340
14
 92
       -2
290
     1
 42
2.0
291
     1
 43
8.0
  3
Standard
341
0
 44
4.0
300

342
11
174
     1
178
     1
175
     1
176
     0
 93
-1056964608
 45
4.0
292
     0
297
     0
 46
4.0
343
0
 94
-1056964608
 47
1.0
 49
1.0
140
1.0
293
     1
141
0.0
294
     1
177
     0
142
1.0
295
     0
296
     0
143
3.75
271
     0
272
     9
273
     9
298
     0
  0
MLINESTYLE
  5
495
102
{ACAD_REACTORS
330
494
102
}
330
494
100
AcDbMlineStyle
  2
STANDARD
 70
     0
  3

 62
   256
 51
90.0
 52
90.0
 71
     2
 49
0.5
 62
   256
  6
BYLAYER
 49
-0.5
 62
   256
  6
BYLAYER
  0
ACDBPLACEHOLDER
  5
498
102
{ACAD_REACTORS
330
497
102
}
330
497
  0
SCALE
  5
49A
102
{ACAD_REACTORS
330
499
102
}
330
499
100
AcDbScale
 70
     0
300
1:1
140
1.0
141
1.0
290
     1
  0
SCALE
  5
49B
102
{ACAD_REACTORS
330
499
102
}
330
499
100
AcDbScale
 70
     0
300
1:2
140
1.0
141
2.0
290
     0
  0
SCALE
  5
49C
102
{ACAD_REACTORS
330
499
102
}
330
499
100
AcDbScale
 70
     0
300
1:4
140
1.0
141
4.0
290
     0
  0
SCALE
  5
49D
102
{ACAD_REACTORS
330
499
102
}
330
499
100
AcDbScale
 70
     0
300
1:5
140
1.0
141
5.0
290
     0
  0
SCALE
  5
49E
102
{ACAD_REACTORS
330
499
102
}
330
499
100
AcDbScale
 70
     0
300
1:8
140
1.0
141
8.0
290
     0
  0
SCALE
  5
49F
102
{ACAD_REACTORS
330
499
102
}
330
499
100
AcDbScale
 70
     0
300
1:10
140
1.0
141
10.0
290
     0
  0
SCALE
  5
4A0
102
{ACAD_REACTORS
330
499
102
}
330
499
100
AcDbScale
 70
     0
300
1:16
140
1.0
141
16.0
290
     0
  0
SCALE
  5
4A1
102
{ACAD_REACTORS
330
499
102
}
330
499
100
AcDbScale
 70
     0
300
1:20
140
1.0
141
20.0
290
     0
  0
SCALE
  5
4A2
102
{ACAD_REACTORS
330
499
102
}
330
499
100
AcDbScale
 70
     0
300
1:30
140
1.0
141
30.0
290
     0
  0
SCALE
  5
4A3
102
{ACAD_REACTORS
330
499
102
}
330
499
100
AcDbScale
 70
     0
300
1:40
140
1.0
141
40.0
290
     0
  0
SCALE
  5
4A4
102
{ACAD_REACTORS
330
499
102
}
330
499
100
AcDbScale
 70
     0
300
1:50
140
1.0
141
50.0
290
     0
  0
SCALE
  5
4A5
102
{ACAD_REACTORS
330
499
102
}
330
499
100
AcDbScale
 70
     0
300
1:100
140
1.0
141
100.0
290
     0
  0
SCALE
  5
4A6
102
{ACAD_REACTORS
330
499
102
}
330
499
100
AcDbScale
 70
     0
300
2:1
140
2.0
141
1.0
290
     0
  0
SCALE
  5
4A7
102
{ACAD_REACTORS
330
499
102
}
330
499
100
AcDbScale
 70
     0
300
4:1
140
4.0
141
1.0
290
     0
  0
SCALE
  5
4A8
102
{ACAD_REACTORS
330
499
102
}
330
499
100
AcDbScale
 70
     0
300
8:1
140
8.0
141
1.0
290
     0
  0
SCALE
  5
4A9
102
{ACAD_REACTORS
330
499
102
}
330
499
100
AcDbScale
 70
     0
300
10:1
140
10.0
141
1.0
290
     0
  0
SCALE
  5
4AA
102
{ACAD_REACTORS
330
499
102
}
330
499
100
AcDbScale
 70
     0
300
100:1
140
100.0
141
1.0
290
     0
  0
SCALE
  5
4AB
102
{ACAD_REACTORS
330
499
102
}
330
499
100
AcDbScale
 70
     0
300
1/128" = 1'-0"
140
0.0078125
141
12.0
290
     0
  0
SCALE
  5
4AC
102
{ACAD_REACTORS
330
499
102
}
330
499
100
AcDbScale
 70
     0
300
1/64" = 1'-0"
140
0.015625
141
12.0
290
     0
  0
SCALE
  5
4AD
102
{ACAD_REACTORS
330
499
102
}
330
499
100
AcDbScale
 70
     0
300
1/32" = 1'-0"
140
0.03125
141
12.0
290
     0
  0
SCALE
  5
4AE
102
{ACAD_REACTORS
330
499
102
}
330
499
100
AcDbScale
 70
     0
300
1/16" = 1'-0"
140
0.0625
141
12.0
290
     0
  0
SCALE
  5
4AF
102
{ACAD_REACTORS
330
499
102
}
330
499
100
AcDbScale
 70
     0
300
3/32" = 1'-0"
140
0.09375
141
12.0
290
     0
  0
SCALE
  5
4B0
102
{ACAD_REACTORS
330
499
102
}
330
499
100
AcDbScale
 70
     0
300
1/8" = 1'-0"
140
0.125
141
12.0
290
     0
  0
SCALE
  5
4B1
102
{ACAD_REACTORS
330
499
102
}
330
499
100
AcDbScale
 70
     0
300
3/16" = 1'-0"
140
0.1875
141
12.0
290
     0
  0
SCALE
  5
4B2
102
{ACAD_REACTORS
330
499
102
}
330
499
100
AcDbScale
 70
     0
300
1/4" = 1'-0"
140
0.25
141
12.0
290
     0
  0
SCALE
  5
4B3
102
{ACAD_REACTORS
330
499
102
}
330
499
100
AcDbScale
 70
     0
300
3/8" = 1'-0"
140
0.375
141
12.0
290
     0
  0
SCALE
  5
4B4
102
{ACAD_REACTORS
330
499
102
}
330
499
100
AcDbScale
 70
     0
300
1/2" = 1'-0"
140
0.5
141
12.0
290
     0
  0
SCALE
  5
4B5
102
{ACAD_REACTORS
330
499
102
}
330
499
100
AcDbScale
 70
     0
300
3/4" = 1'-0"
140
0.75
141
12.0
290
     0
  0
SCALE
  5
4B6
102
{ACAD_REACTORS
330
499
102
}
330
499
100
AcDbScale
 70
     0
300
1" = 1'-0"
140
1.0
141
12.0
290
     0
  0
SCALE
  5
4B7
102
{ACAD_REACTORS
330
499
102
}
330
499
100
AcDbScale
 70
     0
300
1-1/2" = 1'-0"
140
1.5
141
12.0
290
     0
  0
SCALE
  5
4B8
102
{ACAD_REACTORS
330
499
102
}
330
499
100
AcDbScale
 70
     0
300
3" = 1'-0"
140
3.0
141
12.0
290
     0
  0
SCALE
  5
4B9
102
{ACAD_REACTORS
330
499
102
}
330
499
100
AcDbScale
 70
     0
300
6" = 1'-0"
140
6.0
141
12.0
290
     0
  0
SCALE
  5
4BA
102
{ACAD_REACTORS
330
499
102
}
330
499
100
AcDbScale
 70
     0
300
1'-0" = 1'-0"
140
12.0
141
12.0
290
     0
  0
TABLESTYLE
  5
4DC
102
{ACAD_REACTORS
330
4DB
102
}
102
{ACAD_XDICTIONARY
360
4E2
102
}
330
4DB
100
AcDbTableStyle
  3
Standard
 70
     0
 71
     0
 40
0.06
 41
0.06
280
     0
281
     0
  7
STANDARD
140
4.5
170
     2
 62
     0
 63
   257
283
     0
 90
        4
 91
        0
  1

274
    -2
284
     1
 64
     0
275
    -2
285
     1
 65
     0
276
    -2
286
     1
 66
     0
277
    -2
287
     1
 67
     0
278
    -2
288
     1
 68
     0
279
    -2
289
     1
 69
     0
  7
STANDARD
140
6.0
170
     5
 62
     0
 63
   257
283
     0
 90
        4
 91
        0
  1

274
    -2
284
     1
 64
     0
275
    -2
285
     1
 65
     0
276
    -2
286
     1
 66
     0
277
    -2
287
     1
 67
     0
278
    -2
288
     1
 68
     0
279
    -2
289
     1
 69
     0
  7
STANDARD
140
4.5
170
     5
 62
     0
 63
   257
283
     0
 90
        4
 91
        0
  1

274
    -2
284
     1
 64
     0
275
    -2
285
     1
 65
     0
276
    -2
286
     1
 66
     0
277
    -2
287
     1
 67
     0
278
    -2
288
     1
 68
     0
279
    -2
289
     1
 69
     0
  0
VISUALSTYLE
  5
4C3
102
{ACAD_REACTORS
330
4BE
102
}
330
4BE
100
AcDbVisualStyle
  2
2dWireframe
 70
     4
177
     3
291
     0
 70
    58
 90
        0
176
     1
 90
        2
176
     1
 90
        0
176
     1
 90
        0
176
     1
 40
0.6
176
     1
 40
30.0
176
     1
 62
     7
420
 16777215
176
     1
 90
        1
176
     1
 90
        4
176
     1
 62
     7
176
     1
 62
   257
176
     1
 90
        1
176
     1
 90
        1
176
     1
 40
1.0
176
     1
 90
        0
176
     1
 62
   257
176
     1
 40
1.0
176
     1
 90
        1
176
     1
 90
        6
176
     1
 90
        2
176
     1
 62
     7
176
     1
 90
        5
176
     1
 90
        0
176
     1
 90
        0
176
     1
290
     0
176
     1
 90
        1
176
     1
 40
0.0
176
     1
 90
        0
176
     1
290
     1
176
     1
290
     1
176
     1
290
     0
176
     1
290
     0
176
     1
290
     0
176
     1
290
     0
176
     1
290
     0
176
     1
290
     0
176
     1
290
     0
176
     1
 90
       50
176
     1
 40
0.0
176
     1
 40
1.0
176
     1
 90
        0
176
     1
 62
    18
420
        0
176
     1
 90
       50
176
     1
 90
        3
176
     1
 62
     5
420
      255
176
     1
290
     0
176
     1
 90
       50
176
     1
 90
       50
176
     1
 90
       50
176
     1
290
     0
176
     1
 90
       50
176
     1
 62
   256
176
     0
 40
1.0
176
     0
 90
        2
176
     1
  1
strokes_ogs.tif
176
     1
290
     0
176
     1
 40
1.0
176
     1
 40
1.0
176
     1
  0
VISUALSTYLE
  5
4C6
102
{ACAD_REACTORS
330
4BE
102
}
330
4BE
100
AcDbVisualStyle
  2
Basic
 70
     7
177
     3
291
     1
 70
    58
 90
        1
176
     1
 90
        0
176
     1
 90
        1
176
     1
 90
        0
176
     1
 40
0.6
176
     1
 40
30.0
176
     1
 62
     7
420
 16777215
176
     1
 90
        0
176
     1
 90
        4
176
     1
 62
     7
176
     1
 62
   257
176
     1
 90
        1
176
     1
 90
        1
176
     1
 40
1.0
176
     1
 90
        8
176
     1
 62
     7
176
     1
 40
1.0
176
     1
 90
        1
176
     1
 90
        6
176
     1
 90
        2
176
     1
 62
     7
176
     1
 90
        5
176
     1
 90
        0
176
     1
 90
        0
176
     1
290
     0
176
     1
 90
        1
176
     1
 40
0.0
176
     1
 90
        0
176
     1
290
     0
176
     1
290
     1
176
     1
290
     1
176
     1
290
     0
176
     1
290
     0
176
     1
290
     0
176
     1
290
     0
176
     1
290
     0
176
     1
290
     0
176
     1
 90
       50
176
     1
 40
0.0
176
     1
 40
1.0
176
     1
 90
        0
176
     1
 62
    18
420
        0
176
     1
 90
       50
176
     1
 90
        3
176
     1
 62
     5
420
      255
176
     1
290
     0
176
     1
 90
       50
176
     1
 90
       50
176
     1
 90
       50
176
     1
290
     0
176
     1
 90
       50
176
     1
 62
   256
176
     0
 40
1.0
176
     0
 90
        2
176
     1
  1
strokes_ogs.tif
176
     1
290
     0
176
     1
 40
1.0
176
     1
 40
1.0
176
     1
  0
VISUALSTYLE
  5
4CA
102
{ACAD_REACTORS
330
4BE
102
}
330
4BE
100
AcDbVisualStyle
  2
Brighten
 70
    12
177
     3
291
     1
 70
    58
 90
        2
176
     1
 90
        2
176
     1
 90
        0
176
     1
 90
        0
176
     1
 40
0.6
176
     1
 40
30.0
176
     1
 62
     7
420
 16777215
176
     1
 90
        1
176
     1
 90
        4
176
     1
 62
     7
176
     1
 62
   257
176
     1
 90
        1
176
     1
 90
        1
176
     1
 40
1.0
176
     1
 90
        8
176
     1
 62
     7
176
     1
 40
1.0
176
     1
 90
        1
176
     1
 90
        6
176
     1
 90
        2
176
     1
 62
     7
176
     1
 90
        5
176
     1
 90
        0
176
     1
 90
        0
176
     1
290
     0
176
     1
 90
        1
176
     1
 40
50.0
176
     1
 90
        0
176
     1
290
     0
176
     1
290
     1
176
     1
290
     1
176
     1
290
     0
176
     1
290
     0
176
     1
290
     0
176
     1
290
     0
176
     1
290
     0
176
     1
290
     0
176
     1
 90
       50
176
     1
 40
0.0
176
     1
 40
1.0
176
     1
 90
        0
176
     1
 62
    18
420
        0
176
     1
 90
       50
176
     1
 90
        3
176
     1
 62
     5
420
      255
176
     1
290
     0
176
     1
 90
       50
176
     1
 90
       50
176
     1
 90
       50
176
     1
290
     0
176
     1
 90
       50
176
     1
 62
   256
176
     0
 40
1.0
176
     0
 90
        2
176
     1
  1
strokes_ogs.tif
176
     1
290
     0
176
     1
 40
1.0
176
     1
 40
1.0
176
     1
  0
VISUALSTYLE
  5
4CE
102
{ACAD_REACTORS
330
4BE
102
}
330
4BE
100
AcDbVisualStyle
  2
ColorChange
 70
    16
177
     3
291
     1
 70
    58
 90
        2
176
     1
 90
        2
176
     1
 90
        3
176
     1
 90
        0
176
     1
 40
0.6
176
     1
 40
30.0
176
     1
 62
     8
420
  8421504
176
     1
 90
        1
176
     1
 90
        4
176
     1
 62
     7
176
     1
 62
   257
176
     1
 90
        1
176
     1
 90
        1
176
     1
 40
1.0
176
     1
 90
        8
176
     1
 62
     8
420
  8421504
176
     1
 40
1.0
176
     1
 90
        1
176
     1
 90
        6
176
     1
 90
        2
176
     1
 62
     7
176
     1
 90
        5
176
     1
 90
        0
176
     1
 90
        0
176
     1
290
     0
176
     1
 90
        1
176
     1
 40
0.0
176
     1
 90
        0
176
     1
290
     0
176
     1
290
     1
176
     1
290
     1
176
     1
290
     0
176
     1
290
     0
176
     1
290
     0
176
     1
290
     0
176
     1
290
     0
176
     1
290
     0
176
     1
 90
       50
176
     1
 40
0.0
176
     1
 40
1.0
176
     1
 90
        0
176
     1
 62
    18
420
        0
176
     1
 90
       50
176
     1
 90
        3
176
     1
 62
     5
420
      255
176
     1
290
     0
176
     1
 90
       50
176
     1
 90
       50
176
     1
 90
       50
176
     1
290
     0
176
     1
 90
       50
176
     1
 62
   256
176
     0
 40
1.0
176
     0
 90
        2
176
     1
  1
strokes_ogs.tif
176
     1
290
     0
176
     1
 40
1.0
176
     1
 40
1.0
176
     1
  0
VISUALSTYLE
  5
4C8
102
{ACAD_REACTORS
330
4BE
102
}
330
4BE
100
AcDbVisualStyle
  2
Conceptual
 70
     9
177
     3
291
     0
 70
    58
 90
        3
176
     1
 90
        2
176
     1
 90
        0
176
     1
 90
        0
176
     1
 40
0.6
176
     1
 40
30.0
176
     1
 62
     7
420
 16777215
176
     1
 90
        2
176
     1
 90
        2
176
     1
 62
     7
176
     1
 62
   257
176
     1
 90
        1
176
     1
 90
        1
176
     1
 40
179.0
176
     1
 90
        8
176
     1
 62
     7
176
     1
 40
1.0
176
     1
 90
        1
176
     1
 90
        6
176
     1
 90
        2
176
     1
 62
     7
176
     1
 90
        3
176
     1
 90
        0
176
     1
 90
        0
176
     1
290
     0
176
     1
 90
        1
176
     1
 40
0.0
176
     1
 90
        0
176
     1
290
     0
176
     1
290
     1
176
     1
290
     1
176
     1
290
     0
176
     1
290
     0
176
     1
290
     0
176
     1
290
     0
176
     1
290
     0
176
     1
290
     0
176
     1
 90
       50
176
     1
 40
0.0
176
     1
 40
1.0
176
     1
 90
        0
176
     1
 62
    18
420
        0
176
     1
 90
       50
176
     1
 90
        3
176
     1
 62
     5
420
      255
176
     1
290
     0
176
     1
 90
       50
176
     1
 90
       50
176
     1
 90
       50
176
     1
290
     0
176
     1
 90
       50
176
     1
 62
   256
176
     0
 40
1.0
176
     0
 90
        2
176
     1
  1
strokes_ogs.tif
176
     1
290
     0
176
     1
 40
1.0
176
     1
 40
1.0
176
     1
  0
VISUALSTYLE
  5
4C9
102
{ACAD_REACTORS
330
4BE
102
}
330
4BE
100
AcDbVisualStyle
  2
Dim
 70
    11
177
     3
291
     1
 70
    58
 90
        2
176
     1
 90
        2
176
     1
 90
        0
176
     1
 90
        0
176
     1
 40
0.6
176
     1
 40
30.0
176
     1
 62
     7
420
 16777215
176
     1
 90
        1
176
     1
 90
        4
176
     1
 62
     7
176
     1
 62
   257
176
     1
 90
        1
176
     1
 90
        1
176
     1
 40
1.0
176
     1
 90
        8
176
     1
 62
     7
176
     1
 40
1.0
176
     1
 90
        1
176
     1
 90
        6
176
     1
 90
        2
176
     1
 62
     7
176
     1
 90
        5
176
     1
 90
        0
176
     1
 90
        0
176
     1
290
     0
176
     1
 90
        1
176
     1
 40
-50.0
176
     1
 90
        0
176
     1
290
     0
176
     1
290
     1
176
     1
290
     1
176
     1
290
     0
176
     1
290
     0
176
     1
290
     0
176
     1
290
     0
176
     1
290
     0
176
     1
290
     0
176
     1
 90
       50
176
     1
 40
0.0
176
     1
 40
1.0
176
     1
 90
        0
176
     1
 62
    18
420
        0
176
     1
 90
       50
176
     1
 90
        3
176
     1
 62
     5
420
      255
176
     1
290
     0
176
     1
 90
       50
176
     1
 90
       50
176
     1
 90
       50
176
     1
290
     0
176
     1
 90
       50
176
     1
 62
   256
176
     0
 40
1.0
176
     0
 90
        2
176
     1
  1
strokes_ogs.tif
176
     1
290
     0
176
     1
 40
1.0
176
     1
 40
1.0
176
     1
  0
VISUALSTYLE
  5
4D1
102
{ACAD_REACTORS
330
4BE
102
}
330
4BE
100
AcDbVisualStyle
  2
EdgeColorOff
 70
    22
177
     3
291
     1
 70
    58
 90
        2
176
     0
 90
        2
176
     0
 90
        0
176
     0
 90
        0
176
     0
 40
0.6
176
     0
 40
30.0
176
     0
 62
     7
420
 16777215
176
     0
 90
        1
176
     0
 90
        4
176
     0
 62
     7
176
     0
 62
   257
176
     0
 90
        1
176
     0
 90
        1
176
     0
 40
1.0
176
     0
 90
        8
176
     2
 62
     7
176
     0
 40
1.0
176
     0
 90
        1
176
     0
 90
        6
176
     0
 90
        2
176
     0
 62
     7
176
     0
 90
        5
176
     0
 90
        0
176
     0
 90
        0
176
     0
290
     0
176
     0
 90
        1
176
     0
 40
0.0
176
     0
 90
        0
176
     0
290
     0
176
     0
290
     1
176
     0
290
     1
176
     0
290
     0
176
     0
290
     0
176
     0
290
     0
176
     0
290
     0
176
     0
290
     0
176
     0
290
     0
176
     0
 90
       50
176
     0
 40
0.0
176
     0
 40
1.0
176
     0
 90
        0
176
     0
 62
    18
420
        0
176
     0
 90
       50
176
     0
 90
        3
176
     0
 62
     5
420
      255
176
     0
290
     0
176
     0
 90
       50
176
     0
 90
       50
176
     0
 90
       50
176
     0
290
     0
176
     0
 90
       50
176
     0
 62
   256
176
     0
 40
1.0
176
     0
 90
        2
176
     0
  1
strokes_ogs.tif
176
     0
290
     0
176
     0
 40
1.0
176
     0
 40
1.0
176
     0
  0
VISUALSTYLE
  5
4CD
102
{ACAD_REACTORS
330
4BE
102
}
330
4BE
100
AcDbVisualStyle
  2
Facepattern
 70
    15
177
     3
291
     1
 70
    58
 90
        2
176
     1
 90
        2
176
     1
 90
        0
176
     1
 90
        0
176
     1
 40
0.6
176
     1
 40
30.0
176
     1
 62
     7
420
 16777215
176
     1
 90
        1
176
     1
 90
        4
176
     1
 62
     7
176
     1
 62
   257
176
     1
 90
        1
176
     1
 90
        1
176
     1
 40
1.0
176
     1
 90
        8
176
     1
 62
     7
176
     1
 40
1.0
176
     1
 90
        1
176
     1
 90
        6
176
     1
 90
        2
176
     1
 62
     7
176
     1
 90
        5
176
     1
 90
        0
176
     1
 90
        0
176
     1
290
     0
176
     1
 90
        1
176
     1
 40
0.0
176
     1
 90
        0
176
     1
290
     0
176
     1
290
     1
176
     1
290
     1
176
     1
290
     0
176
     1
290
     0
176
     1
290
     0
176
     1
290
     0
176
     1
290
     0
176
     1
290
     0
176
     1
 90
       50
176
     1
 40
0.0
176
     1
 40
1.0
176
     1
 90
        0
176
     1
 62
    18
420
        0
176
     1
 90
       50
176
     1
 90
        3
176
     1
 62
     5
420
      255
176
     1
290
     0
176
     1
 90
       50
176
     1
 90
       50
176
     1
 90
       50
176
     1
290
     0
176
     1
 90
       50
176
     1
 62
   256
176
     0
 40
1.0
176
     0
 90
        2
176
     1
  1
strokes_ogs.tif
176
     1
290
     0
176
     1
 40
1.0
176
     1
 40
1.0
176
     1
  0
VISUALSTYLE
  5
4BF
102
{ACAD_REACTORS
330
4BE
102
}
330
4BE
100
AcDbVisualStyle
  2
Flat
 70
     0
177
     3
291
     1
 70
    58
 90
        2
176
     1
 90
        1
176
     1
 90
        1
176
     1
 90
        2
176
     1
 40
0.6
176
     1
 40
30.0
176
     1
 62
     7
420
 16777215
176
     1
 90
        0
176
     1
 90
        0
176
     1
 62
     7
176
     1
 62
   257
176
     1
 90
        1
176
     1
 90
        1
176
     1
 40
1.0
176
     1
 90
        8
176
     1
 62
     7
176
     1
 40
1.0
176
     1
 90
        1
176
     1
 90
        6
176
     1
 90
        2
176
     1
 62
     7
176
     1
 90
        5
176
     1
 90
        0
176
     1
 90
        0
176
     1
290
     0
176
     1
 90
       13
176
     1
 40
0.0
176
     1
 90
        0
176
     1
290
     0
176
     1
290
     1
176
     1
290
     1
176
     1
290
     0
176
     1
290
     0
176
     1
290
     0
176
     1
290
     0
176
     1
290
     0
176
     1
290
     0
176
     1
 90
       50
176
     1
 40
0.0
176
     1
 40
1.0
176
     1
 90
        0
176
     1
 62
    18
420
        0
176
     1
 90
       50
176
     1
 90
        3
176
     1
 62
     5
420
      255
176
     1
290
     0
176
     1
 90
       50
176
     1
 90
       50
176
     1
 90
       50
176
     1
290
     0
176
     1
 90
       50
176
     1
 62
   256
176
     0
 40
1.0
176
     0
 90
        2
176
     1
  1
strokes_ogs.tif
176
     1
290
     0
176
     1
 40
1.0
176
     1
 40
1.0
176
     1
  0
VISUALSTYLE
  5
4C0
102
{ACAD_REACTORS
330
4BE
102
}
330
4BE
100
AcDbVisualStyle
  2
FlatWithEdges
 70
     1
177
     3
291
     1
 70
    58
 90
        2
176
     1
 90
        1
176
     1
 90
        1
176
     1
 90
        2
176
     1
 40
0.6
176
     1
 40
30.0
176
     1
 62
     7
420
 16777215
176
     1
 90
        1
176
     1
 90
        0
176
     1
 62
     7
176
     1
 62
   257
176
     1
 90
        1
176
     1
 90
        1
176
     1
 40
1.0
176
     1
 90
        0
176
     1
 62
   257
176
     1
 40
1.0
176
     1
 90
        1
176
     1
 90
        6
176
     1
 90
        2
176
     1
 62
     7
176
     1
 90
        5
176
     1
 90
        0
176
     1
 90
        0
176
     1
290
     0
176
     1
 90
       13
176
     1
 40
0.0
176
     1
 90
        0
176
     1
290
     0
176
     1
290
     1
176
     1
290
     1
176
     1
290
     0
176
     1
290
     0
176
     1
290
     0
176
     1
290
     0
176
     1
290
     0
176
     1
290
     0
176
     1
 90
       50
176
     1
 40
0.0
176
     1
 40
1.0
176
     1
 90
        0
176
     1
 62
    18
420
        0
176
     1
 90
       50
176
     1
 90
        3
176
     1
 62
     5
420
      255
176
     1
290
     0
176
     1
 90
       50
176
     1
 90
       50
176
     1
 90
       50
176
     1
290
     0
176
     1
 90
       50
176
     1
 62
   256
176
     0
 40
1.0
176
     0
 90
        2
176
     1
  1
strokes_ogs.tif
176
     1
290
     0
176
     1
 40
1.0
176
     1
 40
1.0
176
     1
  0
VISUALSTYLE
  5
4C1
102
{ACAD_REACTORS
330
4BE
102
}
330
4BE
100
AcDbVisualStyle
  2
Gouraud
 70
     2
177
     3
291
     1
 70
    58
 90
        2
176
     1
 90
        2
176
     1
 90
        1
176
     1
 90
        2
176
     1
 40
0.6
176
     1
 40
30.0
176
     1
 62
     7
420
 16777215
176
     1
 90
        0
176
     1
 90
        0
176
     1
 62
     7
176
     1
 62
   257
176
     1
 90
        1
176
     1
 90
        1
176
     1
 40
1.0
176
     1
 90
        0
176
     1
 62
     7
176
     1
 40
1.0
176
     1
 90
        1
176
     1
 90
        6
176
     1
 90
        2
176
     1
 62
     7
176
     1
 90
        5
176
     1
 90
        0
176
     1
 90
        0
176
     1
290
     0
176
     1
 90
       13
176
     1
 40
0.0
176
     1
 90
        0
176
     1
290
     0
176
     1
290
     1
176
     1
290
     1
176
     1
290
     0
176
     1
290
     0
176
     1
290
     0
176
     1
290
     0
176
     1
290
     0
176
     1
290
     0
176
     1
 90
       50
176
     1
 40
0.0
176
     1
 40
1.0
176
     1
 90
        0
176
     1
 62
    18
420
        0
176
     1
 90
       50
176
     1
 90
        3
176
     1
 62
     5
420
      255
176
     1
290
     0
176
     1
 90
       50
176
     1
 90
       50
176
     1
 90
       50
176
     1
290
     0
176
     1
 90
       50
176
     1
 62
   256
176
     0
 40
1.0
176
     0
 90
        2
176
     1
  1
strokes_ogs.tif
176
     1
290
     0
176
     1
 40
1.0
176
     1
 40
1.0
176
     1
  0
VISUALSTYLE
  5
4C2
102
{ACAD_REACTORS
330
4BE
102
}
330
4BE
100
AcDbVisualStyle
  2
GouraudWithEdges
 70
     3
177
     3
291
     1
 70
    58
 90
        2
176
     1
 90
        2
176
     1
 90
        1
176
     1
 90
        2
176
     1
 40
0.6
176
     1
 40
30.0
176
     1
 62
     7
420
 16777215
176
     1
 90
        1
176
     1
 90
        0
176
     1
 62
     7
176
     1
 62
   257
176
     1
 90
        1
176
     1
 90
        1
176
     1
 40
1.0
176
     1
 90
        0
176
     1
 62
   257
176
     1
 40
1.0
176
     1
 90
        1
176
     1
 90
        6
176
     1
 90
        2
176
     1
 62
     7
176
     1
 90
        5
176
     1
 90
        0
176
     1
 90
        0
176
     1
290
     0
176
     1
 90
       13
176
     1
 40
0.0
176
     1
 90
        0
176
     1
290
     0
176
     1
290
     1
176
     1
290
     1
176
     1
290
     0
176
     1
290
     0
176
     1
290
     0
176
     1
290
     0
176
     1
290
     0
176
     1
290
     0
176
     1
 90
       50
176
     1
 40
0.0
176
     1
 40
1.0
176
     1
 90
        0
176
     1
 62
    18
420
        0
176
     1
 90
       50
176
     1
 90
        3
176
     1
 62
     5
420
      255
176
     1
290
     0
176
     1
 90
       50
176
     1
 90
       50
176
     1
 90
       50
176
     1
290
     0
176
     1
 90
       50
176
     1
 62
   256
176
     0
 40
1.0
176
     0
 90
        2
176
     1
  1
strokes_ogs.tif
176
     1
290
     0
176
     1
 40
1.0
176
     1
 40
1.0
176
     1
  0
VISUALSTYLE
  5
4C5
102
{ACAD_REACTORS
330
4BE
102
}
330
4BE
100
AcDbVisualStyle
  2
Hidden
 70
     6
177
     3
291
     0
 70
    58
 90
        1
176
     1
 90
        2
176
     1
 90
        2
176
     1
 90
        0
176
     1
 40
0.6
176
     1
 40
30.0
176
     1
 62
     7
420
 16777215
176
     1
 90
        2
176
     1
 90
        2
176
     1
 62
     7
176
     1
 62
   257
176
     1
 90
        2
176
     1
 90
        1
176
     1
 40
40.0
176
     1
 90
        0
176
     1
 62
   257
176
     1
 40
1.0
176
     1
 90
        1
176
     1
 90
        6
176
     1
 90
        2
176
     1
 62
     7
176
     1
 90
        3
176
     1
 90
        0
176
     1
 90
        0
176
     1
290
     0
176
     1
 90
        1
176
     1
 40
0.0
176
     1
 90
        0
176
     1
290
     0
176
     1
290
     1
176
     1
290
     1
176
     1
290
     0
176
     1
290
     0
176
     1
290
     0
176
     1
290
     0
176
     1
290
     0
176
     1
290
     0
176
     1
 90
       50
176
     1
 40
0.0
176
     1
 40
1.0
176
     1
 90
        0
176
     1
 62
    18
420
        0
176
     1
 90
       50
176
     1
 90
        3
176
     1
 62
     5
420
      255
176
     1
290
     0
176
     1
 90
       50
176
     1
 90
       50
176
     1
 90
       50
176
     1
290
     0
176
     1
 90
       50
176
     1
 62
   256
176
     0
 40
1.0
176
     0
 90
        2
176
     1
  1
strokes_ogs.tif
176
     1
290
     0
176
     1
 40
1.0
176
     1
 40
1.0
176
     1
  0
VISUALSTYLE
  5
4CF
102
{ACAD_REACTORS
330
4BE
102
}
330
4BE
100
AcDbVisualStyle
  2
JitterOff
 70
    20
177
     3
291
     1
 70
    58
 90
        2
176
     0
 90
        2
176
     0
 90
        0
176
     0
 90
        0
176
     0
 40
0.6
176
     0
 40
30.0
176
     0
 62
     7
420
 16777215
176
     0
 90
        1
176
     0
 90
        4
176
     0
 62
     7
176
     0
 62
   257
176
     0
 90
        1
176
     0
 90
        1
176
     0
 40
1.0
176
     0
 90
       10
176
     2
 62
     7
176
     0
 40
1.0
176
     0
 90
        1
176
     0
 90
        6
176
     0
 90
        2
176
     0
 62
     7
176
     0
 90
        5
176
     0
 90
        0
176
     0
 90
        0
176
     0
290
     0
176
     0
 90
        1
176
     0
 40
0.0
176
     0
 90
        0
176
     0
290
     0
176
     0
290
     1
176
     0
290
     1
176
     0
290
     0
176
     0
290
     0
176
     0
290
     0
176
     0
290
     0
176
     0
290
     0
176
     0
290
     0
176
     0
 90
       50
176
     0
 40
0.0
176
     0
 40
1.0
176
     0
 90
        0
176
     0
 62
    18
420
        0
176
     0
 90
       50
176
     0
 90
        3
176
     0
 62
     5
420
      255
176
     0
290
     0
176
     0
 90
       50
176
     0
 90
       50
176
     0
 90
       50
176
     0
290
     0
176
     0
 90
       50
176
     0
 62
   256
176
     0
 40
1.0
176
     0
 90
        2
176
     0
  1
strokes_ogs.tif
176
     0
290
     0
176
     0
 40
1.0
176
     0
 40
1.0
176
     0
  0
VISUALSTYLE
  5
4CC
102
{ACAD_REACTORS
330
4BE
102
}
330
4BE
100
AcDbVisualStyle
  2
Linepattern
 70
    14
177
     3
291
     1
 70
    58
 90
        2
176
     1
 90
        2
176
     1
 90
        0
176
     1
 90
        0
176
     1
 40
0.6
176
     1
 40
30.0
176
     1
 62
     7
420
 16777215
176
     1
 90
        1
176
     1
 90
        4
176
     1
 62
     7
176
     1
 62
   257
176
     1
 90
        7
176
     1
 90
        7
176
     1
 40
1.0
176
     1
 90
        8
176
     1
 62
     7
176
     1
 40
1.0
176
     1
 90
        1
176
     1
 90
        6
176
     1
 90
        2
176
     1
 62
     7
176
     1
 90
        5
176
     1
 90
        0
176
     1
 90
        0
176
     1
290
     0
176
     1
 90
        1
176
     1
 40
0.0
176
     1
 90
        0
176
     1
290
     0
176
     1
290
     1
176
     1
290
     1
176
     1
290
     0
176
     1
290
     0
176
     1
290
     0
176
     1
290
     0
176
     1
290
     0
176
     1
290
     0
176
     1
 90
       50
176
     1
 40
0.0
176
     1
 40
1.0
176
     1
 90
        0
176
     1
 62
    18
420
        0
176
     1
 90
       50
176
     1
 90
        3
176
     1
 62
     5
420
      255
176
     1
290
     0
176
     1
 90
       50
176
     1
 90
       50
176
     1
 90
       50
176
     1
290
     0
176
     1
 90
       50
176
     1
 62
   256
176
     0
 40
1.0
176
     0
 90
        2
176
     1
  1
strokes_ogs.tif
176
     1
290
     0
176
     1
 40
1.0
176
     1
 40
1.0
176
     1
  0
VISUALSTYLE
  5
4D0
102
{ACAD_REACTORS
330
4BE
102
}
330
4BE
100
AcDbVisualStyle
  2
OverhangOff
 70
    21
177
     3
291
     1
 70
    58
 90
        2
176
     0
 90
        2
176
     0
 90
        0
176
     0
 90
        0
176
     0
 40
0.6
176
     0
 40
30.0
176
     0
 62
     7
420
 16777215
176
     0
 90
        1
176
     0
 90
        4
176
     0
 62
     7
176
     0
 62
   257
176
     0
 90
        1
176
     0
 90
        1
176
     0
 40
1.0
176
     0
 90
        9
176
     2
 62
     7
176
     0
 40
1.0
176
     0
 90
        1
176
     0
 90
        6
176
     0
 90
        2
176
     0
 62
     7
176
     0
 90
        5
176
     0
 90
        0
176
     0
 90
        0
176
     0
290
     0
176
     0
 90
        1
176
     0
 40
0.0
176
     0
 90
        0
176
     0
290
     0
176
     0
290
     1
176
     0
290
     1
176
     0
290
     0
176
     0
290
     0
176
     0
290
     0
176
     0
290
     0
176
     0
290
     0
176
     0
290
     0
176
     0
 90
       50
176
     0
 40
0.0
176
     0
 40
1.0
176
     0
 90
        0
176
     0
 62
    18
420
        0
176
     0
 90
       50
176
     0
 90
        3
176
     0
 62
     5
420
      255
176
     0
290
     0
176
     0
 90
       50
176
     0
 90
       50
176
     0
 90
       50
176
     0
290
     0
176
     0
 90
       50
176
     0
 62
   256
176
     0
 40
1.0
176
     0
 90
        2
176
     0
  1
strokes_ogs.tif
176
     0
290
     0
176
     0
 40
1.0
176
     0
 40
1.0
176
     0
  0
VISUALSTYLE
  5
4C7
102
{ACAD_REACTORS
330
4BE
102
}
330
4BE
100
AcDbVisualStyle
  2
Realistic
 70
     8
177
     3
291
     0
 70
    58
 90
        2
176
     1
 90
        3
176
     1
 90
        0
176
     1
 90
        2
176
     1
 40
0.6
176
     1
 40
30.0
176
     1
 62
     7
420
 16777215
176
     1
 90
        0
176
     1
 90
        0
176
     1
 62
     7
176
     1
 62
   257
176
     1
 90
        1
176
     1
 90
        1
176
     1
 40
1.0
176
     1
 90
        8
176
     1
 62
   257
176
     1
 40
1.0
176
     1
 90
        1
176
     1
 90
        6
176
     1
 90
        2
176
     1
 62
     7
176
     1
 90
        3
176
     1
 90
        0
176
     1
 90
        0
176
     1
290
     0
176
     1
 90
       13
176
     1
 40
0.0
176
     1
 90
        0
176
     1
290
     0
176
     1
290
     1
176
     1
290
     1
176
     1
290
     0
176
     1
290
     0
176
     1
290
     0
176
     1
290
     0
176
     1
290
     0
176
     1
290
     0
176
     1
 90
       50
176
     1
 40
0.0
176
     1
 40
1.0
176
     1
 90
        0
176
     1
 62
    18
420
        0
176
     1
 90
       50
176
     1
 90
        3
176
     1
 62
     5
420
      255
176
     1
290
     0
176
     1
 90
       50
176
     1
 90
       50
176
     1
 90
       50
176
     1
290
     0
176
     1
 90
       50
176
     1
 62
   256
176
     0
 40
1.0
176
     0
 90
        2
176
     1
  1
strokes_ogs.tif
176
     1
290
     0
176
     1
 40
1.0
176
     1
 40
1.0
176
     1
  0
VISUALSTYLE
  5
4D6
102
{ACAD_REACTORS
330
4BE
102
}
330
4BE
100
AcDbVisualStyle
  2
Shaded
 70
    27
177
     3
291
     0
 70
    58
 90
        2
176
     1
 90
        2
176
     1
 90
        1
176
     1
 90
        2
176
     1
 40
0.6
176
     1
 40
30.0
176
     1
 62
     7
420
 16777215
176
     1
 90
        0
176
     1
 90
        4
176
     1
 62
     7
176
     1
 62
   257
176
     1
 90
        1
176
     1
 90
        1
176
     1
 40
1.0
176
     1
 90
        8
176
     1
 62
   257
176
     1
 40
1.0
176
     1
 90
        1
176
     1
 90
        6
176
     1
 90
        2
176
     1
 62
     8
420
  7895160
176
     1
 90
        3
176
     1
 90
        0
176
     1
 90
        0
176
     1
290
     0
176
     1
 90
        5
176
     1
 40
0.0
176
     1
 90
        0
176
     1
290
     0
176
     1
290
     1
176
     1
290
     1
176
     1
290
     0
176
     1
290
     0
176
     1
290
     0
176
     1
290
     0
176
     1
290
     0
176
     1
290
     0
176
     1
 90
       50
176
     1
 40
0.0
176
     1
 40
1.0
176
     1
 90
        0
176
     1
 62
    18
420
        0
176
     1
 90
       50
176
     1
 90
        3
176
     1
 62
     5
420
      255
176
     1
290
     0
176
     1
 90
       50
176
     1
 90
       50
176
     1
 90
       50
176
     1
290
     0
176
     1
 90
       50
176
     1
 62
   256
176
     0
 40
1.0
176
     0
 90
        2
176
     1
  1
strokes_ogs.tif
176
     1
290
     0
176
     1
 40
1.0
176
     1
 40
1.0
176
     1
  0
VISUALSTYLE
  5
4D5
102
{ACAD_REACTORS
330
4BE
102
}
330
4BE
100
AcDbVisualStyle
  2
Shaded with edges
 70
    26
177
     3
291
     0
 70
    58
 90
        2
176
     1
 90
        2
176
     1
 90
        1
176
     1
 90
        2
176
     1
 40
0.6
176
     1
 40
30.0
176
     1
 62
     7
420
 16777215
176
     1
 90
        1
176
     1
 90
       10
176
     1
 62
     7
176
     1
 62
   257
176
     1
 90
        2
176
     1
 90
        1
176
     1
 40
1.0
176
     1
 90
        8
176
     1
 62
   257
176
     1
 40
1.0
176
     1
 90
        1
176
     1
 90
        6
176
     1
 90
        2
176
     1
 62
     7
176
     1
 90
        3
176
     1
 90
        0
176
     1
 90
        0
176
     1
290
     0
176
     1
 90
        5
176
     1
 40
0.0
176
     1
 90
        0
176
     1
290
     0
176
     1
290
     1
176
     1
290
     1
176
     1
290
     0
176
     1
290
     0
176
     1
290
     0
176
     1
290
     0
176
     1
290
     0
176
     1
290
     0
176
     1
 90
       50
176
     1
 40
0.0
176
     1
 40
1.0
176
     1
 90
        0
176
     1
 62
    18
420
        0
176
     1
 90
       50
176
     1
 90
        3
176
     1
 62
     5
420
      255
176
     1
290
     0
176
     1
 90
       50
176
     1
 90
       50
176
     1
 90
       50
176
     1
290
     0
176
     1
 90
       50
176
     1
 62
   256
176
     0
 40
1.0
176
     0
 90
        2
176
     1
  1
strokes_ogs.tif
176
     1
290
     0
176
     1
 40
1.0
176
     1
 40
1.0
176
     1
  0
VISUALSTYLE
  5
4D2
102
{ACAD_REACTORS
330
4BE
102
}
330
4BE
100
AcDbVisualStyle
  2
Shades of Gray
 70
    23
177
     3
291
     0
 70
    58
 90
        2
176
     1
 90
        2
176
     1
 90
        3
176
     1
 90
        0
176
     1
 40
0.6
176
     1
 40
30.0
176
     1
 62
     7
420
 16777215
176
     1
 90
        2
176
     1
 90
        2
176
     1
 62
     7
176
     1
 62
     7
176
     1
 90
        1
176
     1
 90
        1
176
     1
 40
40.0
176
     1
 90
        8
176
     1
 62
     7
176
     1
 40
1.0
176
     1
 90
        1
176
     1
 90
        6
176
     1
 90
        2
176
     1
 62
     7
176
     1
 90
        3
176
     1
 90
        0
176
     1
 90
        0
176
     1
290
     0
176
     1
 90
        1
176
     1
 40
0.0
176
     1
 90
        0
176
     1
290
     0
176
     1
290
     1
176
     1
290
     1
176
     1
290
     0
176
     1
290
     0
176
     1
290
     0
176
     1
290
     0
176
     1
290
     0
176
     1
290
     0
176
     1
 90
       50
176
     1
 40
0.0
176
     1
 40
1.0
176
     1
 90
        0
176
     1
 62
    18
420
        0
176
     1
 90
       50
176
     1
 90
        3
176
     1
 62
     5
420
      255
176
     1
290
     0
176
     1
 90
       50
176
     1
 90
       50
176
     1
 90
       50
176
     1
290
     0
176
     1
 90
       50
176
     1
 62
   256
176
     0
 40
1.0
176
     0
 90
        2
176
     1
  1
strokes_ogs.tif
176
     1
290
     0
176
     1
 40
1.0
176
     1
 40
1.0
176
     1
  0
VISUALSTYLE
  5
4D3
102
{ACAD_REACTORS
330
4BE
102
}
330
4BE
100
AcDbVisualStyle
  2
Sketchy
 70
    24
177
     3
291
     0
 70
    58
 90
        1
176
     1
 90
        2
176
     1
 90
        2
176
     1
 90
        0
176
     1
 40
0.6
176
     1
 40
30.0
176
     1
 62
     7
420
 16777215
176
     1
 90
        2
176
     1
 90
        2
176
     1
 62
     7
176
     1
 62
     7
176
     1
 90
        1
176
     1
 90
        1
176
     1
 40
40.0
176
     1
 90
       11
176
     1
 62
     7
176
     1
 40
1.0
176
     1
 90
        1
176
     1
 90
        6
176
     1
 90
        2
176
     1
 62
     7
176
     1
 90
        6
176
     1
 90
        0
176
     1
 90
        0
176
     1
290
     0
176
     1
 90
        1
176
     1
 40
0.0
176
     1
 90
        0
176
     1
290
     0
176
     1
290
     1
176
     1
290
     1
176
     1
290
     0
176
     1
290
     0
176
     1
290
     0
176
     1
290
     0
176
     1
290
     0
176
     1
290
     0
176
     1
 90
       50
176
     1
 40
0.0
176
     1
 40
1.0
176
     1
 90
        0
176
     1
 62
    18
420
        0
176
     1
 90
       50
176
     1
 90
        3
176
     1
 62
     5
420
      255
176
     1
290
     0
176
     1
 90
       50
176
     1
 90
       50
176
     1
 90
       50
176
     1
290
     0
176
     1
 90
       50
176
     1
 62
   256
176
     0
 40
1.0
176
     0
 90
        2
176
     1
  1
strokes_ogs.tif
176
     1
290
     0
176
     1
 40
1.0
176
     1
 40
1.0
176
     1
  0
VISUALSTYLE
  5
4CB
102
{ACAD_REACTORS
330
4BE
102
}
330
4BE
100
AcDbVisualStyle
  2
Thicken
 70
    13
177
     3
291
     1
 70
    58
 90
        2
176
     1
 90
        2
176
     1
 90
        0
176
     1
 90
        0
176
     1
 40
0.6
176
     1
 40
30.0
176
     1
 62
     7
420
 16777215
176
     1
 90
        1
176
     1
 90
        4
176
     1
 62
     7
176
     1
 62
   257
176
     1
 90
        1
176
     1
 90
        1
176
     1
 40
1.0
176
     1
 90
       12
176
     1
 62
     7
176
     1
 40
1.0
176
     1
 90
        1
176
     1
 90
        6
176
     1
 90
        2
176
     1
 62
     7
176
     1
 90
        5
176
     1
 90
        0
176
     1
 90
        0
176
     1
290
     0
176
     1
 90
        1
176
     1
 40
0.0
176
     1
 90
        0
176
     1
290
     0
176
     1
290
     1
176
     1
290
     1
176
     1
290
     0
176
     1
290
     0
176
     1
290
     0
176
     1
290
     0
176
     1
290
     0
176
     1
290
     0
176
     1
 90
       50
176
     1
 40
0.0
176
     1
 40
1.0
176
     1
 90
        0
176
     1
 62
    18
420
        0
176
     1
 90
       50
176
     1
 90
        3
176
     1
 62
     5
420
      255
176
     1
290
     0
176
     1
 90
       50
176
     1
 90
       50
176
     1
 90
       50
176
     1
290
     0
176
     1
 90
       50
176
     1
 62
   256
176
     0
 40
1.0
176
     0
 90
        2
176
     1
  1
strokes_ogs.tif
176
     1
290
     0
176
     1
 40
1.0
176
     1
 40
1.0
176
     1
  0
VISUALSTYLE
  5
4C4
102
{ACAD_REACTORS
330
4BE
102
}
330
4BE
100
AcDbVisualStyle
  2
Wireframe
 70
     5
177
     3
291
     0
 70
    58
 90
        0
176
     1
 90
        2
176
     1
 90
        0
176
     1
 90
        0
176
     1
 40
0.6
176
     1
 40
30.0
176
     1
 62
     7
420
 16777215
176
     1
 90
        1
176
     1
 90
        4
176
     1
 62
     7
176
     1
 62
   257
176
     1
 90
        1
176
     1
 90
        1
176
     1
 40
1.0
176
     1
 90
        0
176
     1
 62
   257
176
     1
 40
1.0
176
     1
 90
        1
176
     1
 90
        6
176
     1
 90
        2
176
     1
 62
     7
176
     1
 90
        3
176
     1
 90
        0
176
     1
 90
        0
176
     1
290
     0
176
     1
 90
        1
176
     1
 40
0.0
176
     1
 90
        0
176
     1
290
     0
176
     1
290
     1
176
     1
290
     1
176
     1
290
     0
176
     1
290
     0
176
     1
290
     0
176
     1
290
     0
176
     1
290
     0
176
     1
290
     0
176
     1
 90
       50
176
     1
 40
0.0
176
     1
 40
1.0
176
     1
 90
        0
176
     1
 62
    18
420
        0
176
     1
 90
       50
176
     1
 90
        3
176
     1
 62
     5
420
      255
176
     1
290
     0
176
     1
 90
       50
176
     1
 90
       50
176
     1
 90
       50
176
     1
290
     0
176
     1
 90
       50
176
     1
 62
   256
176
     0
 40
1.0
176
     0
 90
        2
176
     1
  1
strokes_ogs.tif
176
     1
290
     0
176
     1
 40
1.0
176
     1
 40
1.0
176
     1
  0
VISUALSTYLE
  5
4D4
102
{ACAD_REACTORS
330
4BE
102
}
330
4BE
100
AcDbVisualStyle
  2
X-Ray
 70
    25
177
     3
291
     0
 70
    58
 90
        2
176
     1
 90
        2
176
     1
 90
        1
176
     1
 90
        1
176
     1
 40
0.5
176
     1
 40
30.0
176
     1
 62
     7
420
 16777215
176
     1
 90
        1
176
     1
 90
        0
176
     1
 62
     7
176
     1
 62
   257
176
     1
 90
        1
176
     1
 90
        1
176
     1
 40
1.0
176
     1
 90
        8
176
     1
 62
     7
176
     1
 40
1.0
176
     1
 90
        1
176
     1
 90
        6
176
     1
 90
        2
176
     1
 62
     7
176
     1
 90
        3
176
     1
 90
        0
176
     1
 90
        0
176
     1
290
     0
176
     1
 90
       13
176
     1
 40
0.0
176
     1
 90
        0
176
     1
290
     0
176
     1
290
     1
176
     1
290
     1
176
     1
290
     0
176
     1
290
     0
176
     1
290
     0
176
     1
290
     0
176
     1
290
     0
176
     1
290
     0
176
     1
 90
       50
176
     1
 40
0.0
176
     1
 40
1.0
176
     1
 90
        0
176
     1
 62
    18
420
        0
176
     1
 90
       50
176
     1
 90
        3
176
     1
 62
     5
420
      255
176
     1
290
     0
176
     1
 90
       50
176
     1
 90
       50
176
     1
 90
       50
176
     1
290
     0
176
     1
 90
       50
176
     1
 62
   256
176
     0
 40
1.0
176
     0
 90
        2
176
     1
  1
strokes_ogs.tif
176
     1
290
     0
176
     1
 40
1.0
176
     1
 40
1.0
176
     1
  0
DICTIONARYVAR
  5
4E1
102
{ACAD_REACTORS
330
4E0
102
}
330
4E0
100
DictionaryVariables
280
     0
  1
1:1
  0
DICTIONARYVAR
  5
4E6
102
{ACAD_REACTORS
330
4E0
102
}
330
4E0
100
DictionaryVariables
280
     0
  1
Standard
  0
DICTIONARYVAR
  5
4E5
102
{ACAD_REACTORS
330
4E0
102
}
330
4E0
100
DictionaryVariables
280
     0
  1
Standard
  0
DICTIONARYVAR
  5
4E7
102
{ACAD_REACTORS
330
4E0
102
}
330
4E0
100
DictionaryVariables
280
     0
  1
0
  0
DICTIONARY
  5
4E2
330
4DC
100
AcDbDictionary
280
     1
281
     1
  3
ACAD_ROUNDTRIP_2008_TABLESTYLE_CELLSTYLEMAP
360
4E3
  0
CELLSTYLEMAP
  5
4E3
102
{ACAD_REACTORS
330
4E2
102
}
330
4E2
100
AcDbCellStyleMap
 90
        3
300
CELLSTYLE
  1
TABLEFORMAT_BEGIN
 90
        5
170
     1
 91
        0
 92
    32768
 62
   257
 93
        1
300
CONTENTFORMAT
  1
CONTENTFORMAT_BEGIN
 90
        0
 91
        0
 92
        4
 93
        0
300

 40
0.0
140
1.0
 94
        5
 62
     0
340
11
144
6.0
309
CONTENTFORMAT_END
171
     1
301
MARGIN
  1
CELLMARGIN_BEGIN
 40
1.5
 40
1.5
 40
1.5
 40
1.5
 40
1.5
 40
1.5
309
CELLMARGIN_END
 94
        6
 95
        1
302
GRIDFORMAT
  1
GRIDFORMAT_BEGIN
 90
        0
 91
        1
 62
     0
 92
       -2
340
14
 93
        0
 40
0.045
309
GRIDFORMAT_END
 95
        2
302
GRIDFORMAT
  1
GRIDFORMAT_BEGIN
 90
        0
 91
        1
 62
     0
 92
       -2
340
14
 93
        0
 40
0.045
309
GRIDFORMAT_END
 95
        4
302
GRIDFORMAT
  1
GRIDFORMAT_BEGIN
 90
        0
 91
        1
 62
     0
 92
       -2
340
14
 93
        0
 40
0.045
309
GRIDFORMAT_END
 95
        8
302
GRIDFORMAT
  1
GRIDFORMAT_BEGIN
 90
        0
 91
        1
 62
     0
 92
       -2
340
14
 93
        0
 40
0.045
309
GRIDFORMAT_END
 95
       16
302
GRIDFORMAT
  1
GRIDFORMAT_BEGIN
 90
        0
 91
        1
 62
     0
 92
       -2
340
14
 93
        0
 40
0.045
309
GRIDFORMAT_END
 95
       32
302
GRIDFORMAT
  1
GRIDFORMAT_BEGIN
 90
        0
 91
        1
 62
     0
 92
       -2
340
14
 93
        0
 40
0.045
309
GRIDFORMAT_END
309
TABLEFORMAT_END
  1
CELLSTYLE_BEGIN
 90
        1
 91
        1
300
_TITLE
309
CELLSTYLE_END
300
CELLSTYLE
  1
TABLEFORMAT_BEGIN
 90
        5
170
     1
 91
        0
 92
        0
 62
   257
 93
        1
300
CONTENTFORMAT
  1
CONTENTFORMAT_BEGIN
 90
        0
 91
        0
 92
        4
 93
        0
300

 40
0.0
140
1.0
 94
        5
 62
     0
340
11
144
4.5
309
CONTENTFORMAT_END
171
     1
301
MARGIN
  1
CELLMARGIN_BEGIN
 40
1.5
 40
1.5
 40
1.5
 40
1.5
 40
1.5
 40
1.5
309
CELLMARGIN_END
 94
        6
 95
        1
302
GRIDFORMAT
  1
GRIDFORMAT_BEGIN
 90
        0
 91
        1
 62
     0
 92
       -2
340
14
 93
        0
 40
0.045
309
GRIDFORMAT_END
 95
        2
302
GRIDFORMAT
  1
GRIDFORMAT_BEGIN
 90
        0
 91
        1
 62
     0
 92
       -2
340
14
 93
        0
 40
0.045
309
GRIDFORMAT_END
 95
        4
302
GRIDFORMAT
  1
GRIDFORMAT_BEGIN
 90
        0
 91
        1
 62
     0
 92
       -2
340
14
 93
        0
 40
0.045
309
GRIDFORMAT_END
 95
        8
302
GRIDFORMAT
  1
GRIDFORMAT_BEGIN
 90
        0
 91
        1
 62
     0
 92
       -2
340
14
 93
        0
 40
0.045
309
GRIDFORMAT_END
 95
       16
302
GRIDFORMAT
  1
GRIDFORMAT_BEGIN
 90
        0
 91
        1
 62
     0
 92
       -2
340
14
 93
        0
 40
0.045
309
GRIDFORMAT_END
 95
       32
302
GRIDFORMAT
  1
GRIDFORMAT_BEGIN
 90
        0
 91
        1
 62
     0
 92
       -2
340
14
 93
        0
 40
0.045
309
GRIDFORMAT_END
309
TABLEFORMAT_END
  1
CELLSTYLE_BEGIN
 90
        2
 91
        1
300
_HEADER
309
CELLSTYLE_END
300
CELLSTYLE
  1
TABLEFORMAT_BEGIN
 90
        5
170
     1
 91
        0
 92
        0
 62
   257
 93
        1
300
CONTENTFORMAT
  1
CONTENTFORMAT_BEGIN
 90
        0
 91
        0
 92
        4
 93
        0
300

 40
0.0
140
1.0
 94
        2
 62
     0
340
11
144
4.5
309
CONTENTFORMAT_END
171
     1
301
MARGIN
  1
CELLMARGIN_BEGIN
 40
1.5
 40
1.5
 40
1.5
 40
1.5
 40
1.5
 40
1.5
309
CELLMARGIN_END
 94
        6
 95
        1
302
GRIDFORMAT
  1
GRIDFORMAT_BEGIN
 90
        0
 91
        1
 62
     0
 92
       -2
340
14
 93
        0
 40
0.045
309
GRIDFORMAT_END
 95
        2
302
GRIDFORMAT
  1
GRIDFORMAT_BEGIN
 90
        0
 91
        1
 62
     0
 92
       -2
340
14
 93
        0
 40
0.045
309
GRIDFORMAT_END
 95
        4
302
GRIDFORMAT
  1
GRIDFORMAT_BEGIN
 90
        0
 91
        1
 62
     0
 92
       -2
340
14
 93
        0
 40
0.045
309
GRIDFORMAT_END
 95
        8
302
GRIDFORMAT
  1
GRIDFORMAT_BEGIN
 90
        0
 91
        1
 62
     0
 92
       -2
340
14
 93
        0
 40
0.045
309
GRIDFORMAT_END
 95
       16
302
GRIDFORMAT
  1
GRIDFORMAT_BEGIN
 90
        0
 91
        1
 62
     0
 92
       -2
340
14
 93
        0
 40
0.045
309
GRIDFORMAT_END
 95
       32
302
GRIDFORMAT
  1
GRIDFORMAT_BEGIN
 90
        0
 91
        1
 62
     0
 92
       -2
340
14
 93
        0
 40
0.045
309
GRIDFORMAT_END
309
TABLEFORMAT_END
  1
CELLSTYLE_BEGIN
 90
        3
 91
        2
300
_DATA
309
CELLSTYLE_END
  0
ENDSEC
  0
EOF
