  0
SECTION
  2
HEADER
  9
$ACADVER
  1
AC1027
  9
$ACADMAINTVER
 70
   105
  9
$DWGCODEPAGE
  3
ANSI_1252
  9
$REQUIREDVERSIONS
160
                 0
  9
$LASTSAVEDBY
  1
andrea.zolin
  9
$INSBASE
 10
0.0
 20
0.0
 30
0.0
  9
$EXTMIN
 10
0.0
 20
0.0
 30
0.0
  9
$EXTMAX
 10
297.0
 20
420.0
 30
0.0
  9
$LIMMIN
 10
0.0
 20
0.0
  9
$LIMMAX
 10
297.0
 20
420.0
  9
$ORTHOMODE
 70
     0
  9
$REGENMODE
 70
     1
  9
$FILLMODE
 70
     1
  9
$QTEXTMODE
 70
     0
  9
$MIRRTEXT
 70
     1
  9
$LTSCALE
 40
27.3777777778
  9
$ATTMODE
 70
     1
  9
$TEXTSIZE
 40
0.2
  9
$TRACEWID
 40
0.05
  9
$TEXTSTYLE
  7
STANDARD
  9
$CLAYER
  8
0
  9
$CELTYPE
  6
BYLAYER
  9
$CECOLOR
 62
   256
  9
$CELTSCALE
 40
1.0
  9
$DISPSILH
 70
     0
  9
$DIMSCALE
 40
1.0
  9
$DIMASZ
 40
2.5
  9
$DIMEXO
 40
0.75
  9
$DIMDLI
 40
18.9155555556
  9
$DIMRND
 40
0.0
  9
$DIMDLE
 40
0.0
  9
$DIMEXE
 40
0.75
  9
$DIMTP
 40
0.01
  9
$DIMTM
 40
0.01
  9
$DIMTXT
 40
3.0
  9
$DIMCEN
 40
4.48
  9
$DIMTSZ
 40
0.0
  9
$DIMTOL
 70
     1
  9
$DIMLIM
 70
     0
  9
$DIMTIH
 70
     1
  9
$DIMTOH
 70
     1
  9
$DIMSE1
 70
     0
  9
$DIMSE2
 70
     0
  9
$DIMTAD
 70
     0
  9
$DIMZIN
 70
     0
  9
$DIMBLK
  1
CLOSED
  9
$DIMASO
 70
     1
  9
$DIMSHO
 70
     1
  9
$DIMPOST
  1

  9
$DIMAPOST
  1

  9
$DIMALT
 70
     0
  9
$DIMALTD
 70
     2
  9
$DIMALTF
 40
25.4
  9
$DIMLFAC
 40
1.0
  9
$DIMTOFL
 70
     0
  9
$DIMTVP
 40
0.0
  9
$DIMTIX
 70
     0
  9
$DIMSOXD
 70
     0
  9
$DIMSAH
 70
     0
  9
$DIMBLK1
  1

  9
$DIMBLK2
  1

  9
$DIMSTYLE
  2
STANDARD
  9
$DIMCLRD
 70
     0
  9
$DIMCLRE
 70
     0
  9
$DIMCLRT
 70
     0
  9
$DIMTFAC
 40
1.0
  9
$DIMGAP
 40
0.625
  9
$DIMJUST
 70
     0
  9
$DIMSD1
 70
     0
  9
$DIMSD2
 70
     0
  9
$DIMTOLJ
 70
     1
  9
$DIMTZIN
 70
     0
  9
$DIMALTZ
 70
     0
  9
$DIMALTTZ
 70
     0
  9
$DIMUPT
 70
     0
  9
$DIMDEC
 70
     4
  9
$DIMTDEC
 70
     4
  9
$DIMALTU
 70
     2
  9
$DIMALTTD
 70
     2
  9
$DIMTXSTY
  7
STANDARD
  9
$DIMAUNIT
 70
     0
  9
$DIMADEC
 70
     0
  9
$DIMALTRND
 40
0.0
  9
$DIMAZIN
 70
     0
  9
$DIMDSEP
 70
    46
  9
$DIMATFIT
 70
     3
  9
$DIMFRAC
 70
     0
  9
$DIMLDRBLK
  1

  9
$DIMLUNIT
 70
     2
  9
$DIMLWD
 70
    -2
  9
$DIMLWE
 70
    -2
  9
$DIMTMOVE
 70
     2
  9
$DIMFXL
 40
1.0
  9
$DIMFXLON
 70
     0
  9
$DIMJOGANG
 40
0.7853981633974483
  9
$DIMTFILL
 70
     0
  9
$DIMTFILLCLR
 70
     0
  9
$DIMARCSYM
 70
     0
  9
$DIMLTYPE
  6

  9
$DIMLTEX1
  6

  9
$DIMLTEX2
  6

  9
$DIMTXTDIRECTION
 70
     0
  9
$LUNITS
 70
     2
  9
$LUPREC
 70
     4
  9
$SKETCHINC
 40
0.1
  9
$FILLETRAD
 40
0.5
  9
$AUNITS
 70
     0
  9
$AUPREC
 70
     0
  9
$MENU
  1
.
  9
$ELEVATION
 40
0.0
  9
$PELEVATION
 40
0.0
  9
$THICKNESS
 40
0.0
  9
$LIMCHECK
 70
     0
  9
$CHAMFERA
 40
0.0
  9
$CHAMFERB
 40
0.0
  9
$CHAMFERC
 40
0.0
  9
$CHAMFERD
 40
0.0
  9
$SKPOLY
 70
     0
  9
$TDCREATE
 40
2447893.041666667
  9
$TDUCREATE
 40
0.0
  9
$TDUPDATE
 40
2458474.381409375
  9
$TDUUPDATE
 40
2458474.339742708
  9
$TDINDWG
 40
0.0001965625
  9
$TDUSRTIMER
 40
0.0001965625
  9
$USRTIMER
 70
     1
  9
$ANGBASE
 50
0.0
  9
$ANGDIR
 70
     0
  9
$PDMODE
 70
     3
  9
$PDSIZE
 40
0.3125
  9
$PLINEWID
 40
0.0
  9
$SPLFRAME
 70
     0
  9
$SPLINETYPE
 70
     6
  9
$SPLINESEGS
 70
     8
  9
$HANDSEED
  5
4C6
  9
$SURFTAB1
 70
     6
  9
$SURFTAB2
 70
     6
  9
$SURFTYPE
 70
     6
  9
$SURFU
 70
     6
  9
$SURFV
 70
     6
  9
$UCSBASE
  2

  9
$UCSNAME
  2

  9
$UCSORG
 10
0.0
 20
0.0
 30
0.0
  9
$UCSXDIR
 10
1.0
 20
0.0
 30
0.0
  9
$UCSYDIR
 10
0.0
 20
1.0
 30
0.0
  9
$UCSORTHOREF
  2

  9
$UCSORTHOVIEW
 70
     0
  9
$UCSORGTOP
 10
0.0
 20
0.0
 30
0.0
  9
$UCSORGBOTTOM
 10
0.0
 20
0.0
 30
0.0
  9
$UCSORGLEFT
 10
0.0
 20
0.0
 30
0.0
  9
$UCSORGRIGHT
 10
0.0
 20
0.0
 30
0.0
  9
$UCSORGFRONT
 10
0.0
 20
0.0
 30
0.0
  9
$UCSORGBACK
 10
0.0
 20
0.0
 30
0.0
  9
$PUCSBASE
  2

  9
$PUCSNAME
  2

  9
$PUCSORG
 10
0.0
 20
0.0
 30
0.0
  9
$PUCSXDIR
 10
1.0
 20
0.0
 30
0.0
  9
$PUCSYDIR
 10
0.0
 20
1.0
 30
0.0
  9
$PUCSORTHOREF
  2

  9
$PUCSORTHOVIEW
 70
     0
  9
$PUCSORGTOP
 10
0.0
 20
0.0
 30
0.0
  9
$PUCSORGBOTTOM
 10
0.0
 20
0.0
 30
0.0
  9
$PUCSORGLEFT
 10
0.0
 20
0.0
 30
0.0
  9
$PUCSORGRIGHT
 10
0.0
 20
0.0
 30
0.0
  9
$PUCSORGFRONT
 10
0.0
 20
0.0
 30
0.0
  9
$PUCSORGBACK
 10
0.0
 20
0.0
 30
0.0
  9
$USERI1
 70
     0
  9
$USERI2
 70
     0
  9
$USERI3
 70
     0
  9
$USERI4
 70
     0
  9
$USERI5
 70
     0
  9
$USERR1
 40
0.0
  9
$USERR2
 40
0.0
  9
$USERR3
 40
0.0
  9
$USERR4
 40
0.0
  9
$USERR5
 40
0.0
  9
$WORLDVIEW
 70
     1
  9
$SHADEDGE
 70
     3
  9
$SHADEDIF
 70
    70
  9
$TILEMODE
 70
     0
  9
$MAXACTVP
 70
    64
  9
$PINSBASE
 10
0.0
 20
0.0
 30
0.0
  9
$PLIMCHECK
 70
     0
  9
$PEXTMIN
 10
0.0
 20
0.0
 30
0.0
  9
$PEXTMAX
 10
297.0196248590667
 20
420.0
 30
0.0
  9
$PLIMMIN
 10
-12.2568093385214
 20
-32.68482490272373
  9
$PLIMMAX
 10
674.1245136186769
 20
452.6848249027237
  9
$UNITMODE
 70
     0
  9
$VISRETAIN
 70
     1
  9
$PLINEGEN
 70
     0
  9
$PSLTSCALE
 70
     1
  9
$TREEDEPTH
 70
  3020
  9
$CMLSTYLE
  2
STANDARD
  9
$CMLJUST
 70
     0
  9
$CMLSCALE
 40
1.0
  9
$PROXYGRAPHICS
 70
     1
  9
$MEASUREMENT
 70
     1
  9
$CELWEIGHT
370
    -1
  9
$ENDCAPS
280
     0
  9
$JOINSTYLE
280
     0
  9
$LWDISPLAY
290
     0
  9
$INSUNITS
 70
     0
  9
$HYPERLINKBASE
  1

  9
$STYLESHEET
  1

  9
$XEDIT
290
     1
  9
$CEPSNTYPE
380
     0
  9
$PSTYLEMODE
290
     1
  9
$FINGERPRINTGUID
  2
{EE0C6EAE-A57B-4893-A4B3-6EBD08E74A64}
  9
$VERSIONGUID
  2
{FAEB1C32-E019-11D5-929B-00C0DF256EC4}
  9
$EXTNAMES
290
     1
  9
$PSVPSCALE
 40
0.0
  9
$OLESTARTUP
290
     0
  9
$SORTENTS
280
   127
  9
$INDEXCTL
280
     0
  9
$HIDETEXT
280
     1
  9
$XCLIPFRAME
280
     2
  9
$HALOGAP
280
     0
  9
$OBSCOLOR
 70
   257
  9
$OBSLTYPE
280
     0
  9
$INTERSECTIONDISPLAY
280
     0
  9
$INTERSECTIONCOLOR
 70
   257
  9
$DIMASSOC
280
     2
  9
$PROJECTNAME
  1

  9
$CAMERADISPLAY
290
     0
  9
$LENSLENGTH
 40
50.0
  9
$CAMERAHEIGHT
 40
0.0
  9
$STEPSPERSEC
 40
2.0
  9
$STEPSIZE
 40
6.0
  9
$3DDWFPREC
 40
2.0
  9
$PSOLWIDTH
 40
0.25
  9
$PSOLHEIGHT
 40
4.0
  9
$LOFTANG1
 40
1.570796326794897
  9
$LOFTANG2
 40
1.570796326794897
  9
$LOFTMAG1
 40
0.0
  9
$LOFTMAG2
 40
0.0
  9
$LOFTPARAM
 70
     7
  9
$LOFTNORMALS
280
     1
  9
$LATITUDE
 40
37.795
  9
$LONGITUDE
 40
-122.394
  9
$NORTHDIRECTION
 40
0.0
  9
$TIMEZONE
 70
 -8000
  9
$LIGHTGLYPHDISPLAY
280
     1
  9
$TILEMODELIGHTSYNCH
280
     1
  9
$SOLIDHIST
280
     0
  9
$SHOWHIST
280
     1
  9
$DWFFRAME
280
     2
  9
$DGNFRAME
280
     2
  9
$REALWORLDSCALE
290
     1
  9
$INTERFERECOLOR
 62
   256
  9
$CSHADOW
280
     0
  9
$SHADOWPLANELOCATION
 40
0.0
  0
ENDSEC
  0
SECTION
  2
CLASSES
  0
CLASS
  1
ACDBDICTIONARYWDFLT
  2
AcDbDictionaryWithDefault
  3
ObjectDBX Classes
 90
        0
 91
        4
280
     0
281
     0
  0
CLASS
  1
SCALE
  2
AcDbScale
  3
ObjectDBX Classes
 90
     1153
 91
        4
280
     0
281
     0
  0
CLASS
  1
VISUALSTYLE
  2
AcDbVisualStyle
  3
ObjectDBX Classes
 90
     4095
 91
        4
280
     0
281
     0
  0
CLASS
  1
MATERIAL
  2
AcDbMaterial
  3
ObjectDBX Classes
 90
     1153
 91
        4
280
     0
281
     0
  0
CLASS
  1
TABLESTYLE
  2
AcDbTableStyle
  3
ObjectDBX Classes
 90
     4095
 91
        4
280
     0
281
     0
  0
CLASS
  1
MLEADERSTYLE
  2
AcDbMLeaderStyle
  3
ACDB_MLEADERSTYLE_CLASS
 90
     4095
 91
        4
280
     0
281
     0
  0
CLASS
  1
DICTIONARYVAR
  2
AcDbDictionaryVar
  3
ObjectDBX Classes
 90
        0
 91
        4
280
     0
281
     0
  0
CLASS
  1
CELLSTYLEMAP
  2
AcDbCellStyleMap
  3
ObjectDBX Classes
 90
     1152
 91
        4
280
     0
281
     0
  0
ENDSEC
  0
SECTION
  2
TABLES
  0
TABLE
  2
VPORT
  5
8
330
0
100
AcDbSymbolTable
 70
     1
  0
VPORT
  5
1F4
330
8
100
AcDbSymbolTableRecord
100
AcDbViewportTableRecord
  2
*ACTIVE
 70
     0
 10
0.0
 20
0.0
 11
1.0
 21
1.0
 12
148.5
 22
210.0
 13
0.0
 23
0.0
 14
1.0
 24
1.0
 15
0.0
 25
0.0
 16
0.0
 26
0.0
 36
1.0
 17
0.0
 27
0.0
 37
0.0
 40
420.0
 41
0.7071428571
 42
50.0
 43
0.0
 44
0.0
 50
0.0
 51
0.0
 71
     0
 72
   100
 73
     1
 74
     1
 75
     0
 76
     0
 77
     0
 78
     0
281
     0
 65
     1
110
0.0
120
0.0
130
0.0
111
1.0
121
0.0
131
0.0
112
0.0
122
1.0
132
0.0
 79
     0
146
0.0
348
49F
 60
     3
 61
     5
292
     1
282
     1
141
0.0
142
0.0
 63
   256
  0
ENDTAB
  0
TABLE
  2
LTYPE
  5
5
330
0
100
AcDbSymbolTable
 70
     6
  0
LTYPE
  5
14
330
5
100
AcDbSymbolTableRecord
100
AcDbLinetypeTableRecord
  2
BYBLOCK
 70
     0
  3

 72
    65
 73
     0
 40
0.0
  0
LTYPE
  5
15
330
5
100
AcDbSymbolTableRecord
100
AcDbLinetypeTableRecord
  2
BYLAYER
 70
     0
  3

 72
    65
 73
     0
 40
0.0
  0
LTYPE
  5
16
330
5
100
AcDbSymbolTableRecord
100
AcDbLinetypeTableRecord
  2
CONTINUOUS
 70
     0
  3
Solid line
 72
    65
 73
     0
 40
0.0
  0
LTYPE
  5
1F5
330
5
100
AcDbSymbolTableRecord
100
AcDbLinetypeTableRecord
  2
CENTER
 70
     0
  3
____ _ ____ _ ____ _ ____ _ ____ _ ____ _ ____
 72
    65
 73
     4
 40
0.6
 49
0.375
 74
     0
 49
-0.075
 74
     0
 49
0.075
 74
     0
 49
-0.075
 74
     0
  0
LTYPE
  5
1F6
330
5
100
AcDbSymbolTableRecord
100
AcDbLinetypeTableRecord
  2
HIDDEN
 70
     0
  3
- - - - - - - - - - - - - - - - - - - -
 72
    65
 73
     2
 40
0.2
 49
0.1
 74
     0
 49
-0.1
 74
     0
  0
LTYPE
  5
1F7
330
5
100
AcDbSymbolTableRecord
100
AcDbLinetypeTableRecord
  2
PHANTOM
 70
     0
  3
_____ _ _ _____ _ _ _____ _ _ _____
 72
    65
 73
     6
 40
0.8
 49
0.45
 74
     0
 49
-0.05
 74
     0
 49
0.1
 74
     0
 49
-0.05
 74
     0
 49
0.1
 74
     0
 49
-0.05
 74
     0
  0
LTYPE
  5
1F8
330
5
100
AcDbSymbolTableRecord
100
AcDbLinetypeTableRecord
  2
DOT
 70
     0
  3
. . . . . . . . . . . . . . . . . . . .
 72
    65
 73
     2
 40
0.2
 49
0.1
 74
     0
 49
-0.1
 74
     0
  0
LTYPE
  5
1F9
330
5
100
AcDbSymbolTableRecord
100
AcDbLinetypeTableRecord
  2
DASHED
 70
     0
  3
- - - - - - - - - - - - - - - - - - - -
 72
    65
 73
     2
 40
0.2
 49
0.1
 74
     0
 49
-0.1
 74
     0
  0
ENDTAB
  0
TABLE
  2
LAYER
  5
2
330
0
100
AcDbSymbolTable
 70
    35
  0
LAYER
  5
10
330
2
100
AcDbSymbolTableRecord
100
AcDbLayerTableRecord
  2
0
 70
     0
 62
     7
  6
CONTINUOUS
370
    -3
390
474
347
4B6
348
0
  0
LAYER
  5
1FA
330
2
100
AcDbSymbolTableRecord
100
AcDbLayerTableRecord
  2
DEFAULT_1
 70
     0
 62
     7
  6
CENTER
370
    -3
390
474
347
4B6
348
0
  0
LAYER
  5
1FB
330
2
100
AcDbSymbolTableRecord
100
AcDbLayerTableRecord
  2
DEFAULT_2
 70
     0
 62
     8
  6
HIDDEN
370
    -3
390
474
347
4B6
348
0
  0
LAYER
  5
1FC
330
2
100
AcDbSymbolTableRecord
100
AcDbLayerTableRecord
  2
DEFAULT_3
 70
     0
 62
     7
  6
PHANTOM
370
    -3
390
474
347
4B6
348
0
  0
LAYER
  5
1FD
330
2
100
AcDbSymbolTableRecord
100
AcDbLayerTableRecord
  2
01_ALL_DTM_PLN
 70
     0
 62
     7
  6
CONTINUOUS
370
    -3
390
474
347
4B6
348
0
  0
LAYER
  5
1FE
330
2
100
AcDbSymbolTableRecord
100
AcDbLayerTableRecord
  2
01__ASM_ALL_DTM_PLN
 70
     0
 62
     7
  6
CONTINUOUS
370
    -3
390
474
347
4B6
348
0
  0
LAYER
  5
1FF
330
2
100
AcDbSymbolTableRecord
100
AcDbLayerTableRecord
  2
01__ASM_DEF_DTM_PLN
 70
     0
 62
     7
  6
CONTINUOUS
370
    -3
390
474
347
4B6
348
0
  0
LAYER
  5
200
330
2
100
AcDbSymbolTableRecord
100
AcDbLayerTableRecord
  2
01___PRT_ALL_DTM_PLN
 70
     0
 62
     7
  6
CONTINUOUS
370
    -3
390
474
347
4B6
348
0
  0
LAYER
  5
201
330
2
100
AcDbSymbolTableRecord
100
AcDbLayerTableRecord
  2
01___PRT_DEF_DTM_PLN
 70
     0
 62
     7
  6
CONTINUOUS
370
    -3
390
474
347
4B6
348
0
  0
LAYER
  5
202
330
2
100
AcDbSymbolTableRecord
100
AcDbLayerTableRecord
  2
02_ALL_AXES
 70
     0
 62
     7
  6
CONTINUOUS
370
    -3
390
474
347
4B6
348
0
  0
LAYER
  5
203
330
2
100
AcDbSymbolTableRecord
100
AcDbLayerTableRecord
  2
02__ASM_ALL_AXES
 70
     0
 62
     7
  6
CONTINUOUS
370
    -3
390
474
347
4B6
348
0
  0
LAYER
  5
204
330
2
100
AcDbSymbolTableRecord
100
AcDbLayerTableRecord
  2
02___PRT_ALL_AXES
 70
     0
 62
     7
  6
CONTINUOUS
370
    -3
390
474
347
4B6
348
0
  0
LAYER
  5
205
330
2
100
AcDbSymbolTableRecord
100
AcDbLayerTableRecord
  2
03_ALL_CURVES
 70
     0
 62
     7
  6
CONTINUOUS
370
    -3
390
474
347
4B6
348
0
  0
LAYER
  5
206
330
2
100
AcDbSymbolTableRecord
100
AcDbLayerTableRecord
  2
03__ASM_ALL_CURVES
 70
     0
 62
     7
  6
CONTINUOUS
370
    -3
390
474
347
4B6
348
0
  0
LAYER
  5
207
330
2
100
AcDbSymbolTableRecord
100
AcDbLayerTableRecord
  2
03___PRT_ALL_CURVES
 70
     0
 62
     7
  6
CONTINUOUS
370
    -3
390
474
347
4B6
348
0
  0
LAYER
  5
208
330
2
100
AcDbSymbolTableRecord
100
AcDbLayerTableRecord
  2
04_ALL_DTM_PNT
 70
     0
 62
     7
  6
CONTINUOUS
370
    -3
390
474
347
4B6
348
0
  0
LAYER
  5
209
330
2
100
AcDbSymbolTableRecord
100
AcDbLayerTableRecord
  2
04__ASM_ALL_DTM_PNT
 70
     0
 62
     7
  6
CONTINUOUS
370
    -3
390
474
347
4B6
348
0
  0
LAYER
  5
20A
330
2
100
AcDbSymbolTableRecord
100
AcDbLayerTableRecord
  2
04___PRT_ALL_DTM_PNT
 70
     0
 62
     7
  6
CONTINUOUS
370
    -3
390
474
347
4B6
348
0
  0
LAYER
  5
20B
330
2
100
AcDbSymbolTableRecord
100
AcDbLayerTableRecord
  2
05_ALL_DTM_CSYS
 70
     0
 62
     7
  6
CONTINUOUS
370
    -3
390
474
347
4B6
348
0
  0
LAYER
  5
20C
330
2
100
AcDbSymbolTableRecord
100
AcDbLayerTableRecord
  2
05__ASM_ALL_DTM_CSYS
 70
     0
 62
     7
  6
CONTINUOUS
370
    -3
390
474
347
4B6
348
0
  0
LAYER
  5
20D
330
2
100
AcDbSymbolTableRecord
100
AcDbLayerTableRecord
  2
05__ASM_DEF_DTM_CSYS
 70
     0
 62
     7
  6
CONTINUOUS
370
    -3
390
474
347
4B6
348
0
  0
LAYER
  5
20E
330
2
100
AcDbSymbolTableRecord
100
AcDbLayerTableRecord
  2
05___PRT_ALL_DTM_CSYS
 70
     0
 62
     7
  6
CONTINUOUS
370
    -3
390
474
347
4B6
348
0
  0
LAYER
  5
20F
330
2
100
AcDbSymbolTableRecord
100
AcDbLayerTableRecord
  2
05___PRT_DEF_DTM_CSYS
 70
     0
 62
     7
  6
CONTINUOUS
370
    -3
390
474
347
4B6
348
0
  0
LAYER
  5
210
330
2
100
AcDbSymbolTableRecord
100
AcDbLayerTableRecord
  2
06_ALL_SURFS
 70
     0
 62
     7
  6
CONTINUOUS
370
    -3
390
474
347
4B6
348
0
  0
LAYER
  5
211
330
2
100
AcDbSymbolTableRecord
100
AcDbLayerTableRecord
  2
06__ASM_ALL_SURFS
 70
     0
 62
     7
  6
CONTINUOUS
370
    -3
390
474
347
4B6
348
0
  0
LAYER
  5
212
330
2
100
AcDbSymbolTableRecord
100
AcDbLayerTableRecord
  2
06___PRT_ALL_SURFS
 70
     0
 62
     7
  6
CONTINUOUS
370
    -3
390
474
347
4B6
348
0
  0
LAYER
  5
213
330
2
100
AcDbSymbolTableRecord
100
AcDbLayerTableRecord
  2
07__ASM_ALL_SKELETONS
 70
     0
 62
     7
  6
CONTINUOUS
370
    -3
390
474
347
4B6
348
0
  0
LAYER
  5
214
330
2
100
AcDbSymbolTableRecord
100
AcDbLayerTableRecord
  2
1_ALL_PLANES
 70
     0
 62
     7
  6
CONTINUOUS
370
    -3
390
474
347
4B6
348
0
  0
LAYER
  5
215
330
2
100
AcDbSymbolTableRecord
100
AcDbLayerTableRecord
  2
3_ALL_AXES
 70
     0
 62
     7
  6
CONTINUOUS
370
    -3
390
474
347
4B6
348
0
  0
LAYER
  5
216
330
2
100
AcDbSymbolTableRecord
100
AcDbLayerTableRecord
  2
7_ALL_FEATURES
 70
     0
 62
     7
  6
CONTINUOUS
370
    -3
390
474
347
4B6
348
0
  0
LAYER
  5
217
330
2
100
AcDbSymbolTableRecord
100
AcDbLayerTableRecord
  2
9_SOLID
 70
     0
 62
     7
  6
CONTINUOUS
370
    -3
390
474
347
4B6
348
0
  0
LAYER
  5
218
330
2
100
AcDbSymbolTableRecord
100
AcDbLayerTableRecord
  2
INTFCLR_3
 70
     0
 62
     7
  6
CONTINUOUS
370
    -3
390
474
347
4B6
348
0
  0
LAYER
  5
219
330
2
100
AcDbSymbolTableRecord
100
AcDbLayerTableRecord
  2
INTF_1
 70
     0
 62
     7
  6
CONTINUOUS
370
    -3
390
474
347
4B6
348
0
  0
LAYER
  5
21A
330
2
100
AcDbSymbolTableRecord
100
AcDbLayerTableRecord
  2
INTF_GREEN
 70
     0
 62
     7
  6
CONTINUOUS
370
    -3
390
474
347
4B6
348
0
  0
LAYER
  5
21B
330
2
100
AcDbSymbolTableRecord
100
AcDbLayerTableRecord
  2
XSEC_DATUMS
 70
     0
 62
     7
  6
CONTINUOUS
370
    -3
390
474
347
4B6
348
0
  0
ENDTAB
  0
TABLE
  2
STYLE
  5
3
330
0
100
AcDbSymbolTable
 70
     5
  0
STYLE
  5
11
330
3
100
AcDbSymbolTableRecord
100
AcDbTextStyleTableRecord
  2
STANDARD
 70
     0
 40
0.0
 41
1.0
 50
0.0
 71
     0
 42
0.2
  3
arial.ttf
  4

  0
STYLE
  5
21C
330
3
100
AcDbSymbolTableRecord
100
AcDbTextStyleTableRecord
  2
TEXTSTYLE_1
 70
     0
 40
0.0
 41
0.8
 50
0.0
 71
     0
 42
0.2
  3
gdt
  4

  0
STYLE
  5
21D
330
3
100
AcDbSymbolTableRecord
100
AcDbTextStyleTableRecord
  2
TEXTSTYLE_2
 70
     0
 40
0.0
 41
0.85
 50
0.0
 71
     0
 42
0.2
  3
gdt
  4

  0
STYLE
  5
21E
330
3
100
AcDbSymbolTableRecord
100
AcDbTextStyleTableRecord
  2
TEXTSTYLE_3
 70
     0
 40
0.0
 41
2.0
 50
0.0
 71
     0
 42
0.2
  3
txt
  4

  0
STYLE
  5
21F
330
3
100
AcDbSymbolTableRecord
100
AcDbTextStyleTableRecord
  2
TEXTSTYLE_4
 70
     0
 40
0.0
 41
0.85
 50
0.0
 71
     0
 42
0.2
  3
txt
  4

  0
ENDTAB
  0
TABLE
  2
VIEW
  5
6
330
0
100
AcDbSymbolTable
 70
     0
  0
ENDTAB
  0
TABLE
  2
UCS
  5
7
330
0
100
AcDbSymbolTable
 70
     0
  0
ENDTAB
  0
TABLE
  2
APPID
  5
9
330
0
100
AcDbSymbolTable
 70
     1
  0
APPID
  5
220
330
9
100
AcDbSymbolTableRecord
100
AcDbRegAppTableRecord
  2
ACAD
 70
     0
  0
ENDTAB
  0
TABLE
  2
DIMSTYLE
  5
A
330
0
100
AcDbSymbolTable
 70
     5
100
AcDbDimStyleTable
  0
DIMSTYLE
105
229
330
A
100
AcDbSymbolTableRecord
100
AcDbDimStyleTableRecord
  2
STANDARD
 70
     0
 41
2.5
 42
0.75
 44
0.75
 47
0.01
 48
0.01
 71
     1
 73
     0
 74
     0
 77
     1
 78
     8
 79
     2
140
3.0
147
0.625
171
     1
178
     0
179
     2
271
     2
272
     2
284
     8
340
11
341
221
342
221
343
221
344
221
  0
DIMSTYLE
105
22A
330
A
100
AcDbSymbolTableRecord
100
AcDbDimStyleTableRecord
  2
DIMSTYLE_1
 70
     0
  3
<>
 41
2.5
 42
0.75
 44
0.75
 47
0.3
 48
0.3
 73
     0
 74
     0
 77
     1
 78
     8
 79
     2
140
3.0
147
0.625
171
     1
172
     1
178
     0
179
     2
271
     2
272
     2
284
     8
288
     1
340
11
341
221
342
221
343
221
344
221
  0
DIMSTYLE
105
22B
330
A
100
AcDbSymbolTableRecord
100
AcDbDimStyleTableRecord
  2
DIMSTYLE_2
 70
     0
 41
2.5
 42
0.75
 44
0.75
 47
0.2
 48
0.2
 73
     0
 74
     0
 77
     1
 78
     8
 79
     2
140
3.0
147
0.75
171
     1
178
     0
179
     2
271
     2
272
     2
284
     8
340
11
341
221
342
221
343
221
344
221
  0
DIMSTYLE
105
22C
330
A
100
AcDbSymbolTableRecord
100
AcDbDimStyleTableRecord
  2
DIMSTYLE_3
 70
     0
 41
2.5
 42
0.75
 44
0.75
 47
0.3
 48
0.3
 73
     0
 74
     0
 77
     1
 78
     8
 79
     2
140
3.0
147
0.75
171
     1
178
     0
179
     2
271
     2
272
     2
284
     8
340
11
341
221
342
221
343
221
344
221
  0
DIMSTYLE
105
22D
330
A
100
AcDbSymbolTableRecord
100
AcDbDimStyleTableRecord
  2
DIMSTYLE_4
 70
     0
 41
2.5
 42
0.75
 44
0.75
 47
0.5
 48
0.5
 73
     0
 74
     0
 77
     1
 78
     8
 79
     2
140
3.0
147
0.75
171
     1
178
     0
179
     2
271
     2
272
     2
284
     8
340
11
341
221
342
221
343
221
344
221
  0
ENDTAB
  0
TABLE
  2
BLOCK_RECORD
  5
1
330
0
100
AcDbSymbolTable
 70
     8
  0
BLOCK_RECORD
  5
1F
330
1
100
AcDbSymbolTableRecord
100
AcDbBlockTableRecord
  2
*MODEL_SPACE
340
498
 70
     0
280
     1
281
     0
  0
BLOCK_RECORD
  5
1B
330
1
100
AcDbSymbolTableRecord
100
AcDbBlockTableRecord
  2
*PAPER_SPACE
340
499
 70
     0
280
     1
281
     0
  0
BLOCK_RECORD
  5
221
330
1
100
AcDbSymbolTableRecord
100
AcDbBlockTableRecord
  2
_CLOSED
340
0
102
{BLKREFS
331
27D
331
285
331
286
331
28E
331
28F
331
297
331
298
331
2A0
331
2A1
102
}
 70
     0
280
     1
281
     0
  0
BLOCK_RECORD
  5
222
330
1
100
AcDbSymbolTableRecord
100
AcDbBlockTableRecord
  2
*D1
340
0
 70
     0
280
     1
281
     0
  0
BLOCK_RECORD
  5
223
330
1
100
AcDbSymbolTableRecord
100
AcDbBlockTableRecord
  2
*D2
340
0
 70
     0
280
     1
281
     0
  0
BLOCK_RECORD
  5
224
330
1
100
AcDbSymbolTableRecord
100
AcDbBlockTableRecord
  2
*D3
340
0
 70
     0
280
     1
281
     0
  0
BLOCK_RECORD
  5
225
330
1
100
AcDbSymbolTableRecord
100
AcDbBlockTableRecord
  2
*D4
340
0
 70
     0
280
     1
281
     0
  0
BLOCK_RECORD
  5
226
330
1
100
AcDbSymbolTableRecord
100
AcDbBlockTableRecord
  2
*D5
340
0
 70
     0
280
     1
281
     0
  0
BLOCK_RECORD
  5
227
330
1
100
AcDbSymbolTableRecord
100
AcDbBlockTableRecord
  2
LOGO2_BL1
340
0
102
{BLKREFS
331
45C
102
}
 70
     0
280
     1
281
     0
  0
BLOCK_RECORD
  5
228
330
1
100
AcDbSymbolTableRecord
100
AcDbBlockTableRecord
  2
PROIEZIONE_EU_BL0
340
0
102
{BLKREFS
331
459
102
}
 70
     0
280
     1
281
     0
  0
ENDTAB
  0
ENDSEC
  0
SECTION
  2
BLOCKS
  0
BLOCK
  5
20
330
1F
100
AcDbEntity
  8
0
100
AcDbBlockBegin
  2
*MODEL_SPACE
 70
     0
 10
0.0
 20
0.0
 30
0.0
  3
*MODEL_SPACE
  1

  0
ENDBLK
  5
21
330
1F
100
AcDbEntity
  8
0
100
AcDbBlockEnd
  0
BLOCK
  5
1C
330
1B
100
AcDbEntity
 67
     1
  8
0
100
AcDbBlockBegin
  2
*PAPER_SPACE
 70
     0
 10
0.0
 20
0.0
 30
0.0
  3
*PAPER_SPACE
  1

  0
ENDBLK
  5
1D
330
1B
100
AcDbEntity
 67
     1
  8
0
100
AcDbBlockEnd
  0
BLOCK
  5
274
330
221
100
AcDbEntity
  8
0
100
AcDbBlockBegin
  2
_CLOSED
 70
     0
 10
0.0
 20
0.0
 30
0.0
  3
_CLOSED
  1

  0
LINE
  5
275
330
221
100
AcDbEntity
  8
0
  6
ByBlock
 62
     0
100
AcDbLine
 10
0.0
 20
0.0
 30
0.0
 11
-1.0
 21
0.2
 31
0.0
  0
LINE
  5
276
330
221
100
AcDbEntity
  8
0
  6
ByBlock
 62
     0
100
AcDbLine
 10
-1.0
 20
0.2
 30
0.0
 11
-1.0
 21
-0.2
 31
0.0
  0
LINE
  5
277
330
221
100
AcDbEntity
  8
0
  6
ByBlock
 62
     0
100
AcDbLine
 10
-1.0
 20
-0.2
 30
0.0
 11
0.0
 21
0.0
 31
0.0
  0
LINE
  5
278
330
221
100
AcDbEntity
  8
0
  6
ByBlock
 62
     0
100
AcDbLine
 10
-1.0
 20
0.0
 30
0.0
 11
0.0
 21
0.0
 31
0.0
  0
ENDBLK
  5
279
330
221
100
AcDbEntity
  8
0
  6
ByBlock
 62
     0
100
AcDbBlockEnd
  0
BLOCK
  5
27A
330
222
100
AcDbEntity
  8
0
100
AcDbBlockBegin
  2
*D1
 70
     1
 10
0.0
 20
0.0
 30
0.0
  3
*D1
  1

  0
MTEXT
  5
27B
330
222
100
AcDbEntity
  8
0
  6
Continuous
 62
     2
100
AcDbMText
 10
110.6670487322
 20
133.6995408634
 30
0.0
 40
3.0
 41
12.1524163569
 46
0.0
 71
     1
 72
     1
  1
{\Fgdt;n}\Farial.ttf;72,4
  7
TEXTSTYLE_2
 11
0.6935609817
 21
0.7203979211
 31
0.0
 73
     1
 44
1.0
  0
LINE
  5
27C
330
222
100
AcDbEntity
  8
0
  6
Continuous
 62
     2
100
AcDbLine
 10
107.7682148893
 20
125.2816597715
 30
0.0
 11
121.7969827546
 21
139.8532626615
 31
0.0
  0
INSERT
  5
27D
330
222
100
AcDbEntity
  8
0
  6
Continuous
 62
     2
100
AcDbBlockReference
  2
_CLOSED
 10
107.7682148893
 20
125.2816597715
 30
0.0
 41
2.5
 42
2.5
 43
2.5
 50
226.0873433151
  0
ENDBLK
  5
27E
330
222
100
AcDbEntity
  8
0
  6
ByBlock
 62
     0
100
AcDbBlockEnd
  0
BLOCK
  5
27F
330
223
100
AcDbEntity
  8
0
100
AcDbBlockBegin
  2
*D2
 70
     1
 10
0.0
 20
0.0
 30
0.0
  3
*D2
  1

  0
MTEXT
  5
280
330
223
100
AcDbEntity
  8
0
  6
Continuous
 62
     2
100
AcDbMText
 10
134.9853683097
 20
188.9567998174
 30
0.0
 40
3.0
 41
4.6617100372
 46
0.0
 71
     2
 72
     1
  1
29
 11
0.0
 21
1.0
 31
0.0
 73
     1
 44
1.0
  0
LINE
  5
281
330
223
100
AcDbEntity
  8
0
  6
Continuous
 62
     2
100
AcDbLine
 10
127.6213245784
 20
174.4567998174
 30
0.0
 11
139.4853683097
 21
174.4567998174
 31
0.0
  0
LINE
  5
282
330
223
100
AcDbEntity
  8
0
  6
Continuous
 62
     2
100
AcDbLine
 10
127.6213245784
 20
203.4567998174
 30
0.0
 11
139.4853683097
 21
203.4567998174
 31
0.0
  0
LINE
  5
283
330
223
100
AcDbEntity
  8
0
  6
Continuous
 62
     2
100
AcDbLine
 10
138.7353683097
 20
174.4567998174
 30
0.0
 11
138.7353683097
 21
188.9567998174
 31
0.0
  0
LINE
  5
284
330
223
100
AcDbEntity
  8
0
  6
Continuous
 62
     2
100
AcDbLine
 10
138.7353683097
 20
203.4567998174
 30
0.0
 11
138.7353683097
 21
188.9567998174
 31
0.0
  0
INSERT
  5
285
330
223
100
AcDbEntity
  8
0
  6
Continuous
 62
     2
100
AcDbBlockReference
  2
_CLOSED
 10
138.7353683097
 20
174.4567998174
 30
0.0
 41
2.5
 42
2.5
 43
2.5
 50
270.0
  0
INSERT
  5
286
330
223
100
AcDbEntity
  8
0
  6
Continuous
 62
     2
100
AcDbBlockReference
  2
_CLOSED
 10
138.7353683097
 20
203.4567998174
 30
0.0
 41
2.5
 42
2.5
 43
2.5
 50
90.0
  0
ENDBLK
  5
287
330
223
100
AcDbEntity
  8
0
  6
ByBlock
 62
     0
100
AcDbBlockEnd
  0
BLOCK
  5
288
330
224
100
AcDbEntity
  8
0
100
AcDbBlockBegin
  2
*D3
 70
     1
 10
0.0
 20
0.0
 30
0.0
  3
*D3
  1

  0
MTEXT
  5
289
330
224
100
AcDbEntity
  8
0
  6
Continuous
 62
     2
100
AcDbMText
 10
134.9853683097
 20
263.456799793
 30
0.0
 40
3.0
 41
6.9925650558
 46
0.0
 71
     2
 72
     1
  1
120
 11
0.0
 21
1.0
 31
0.0
 73
     1
 44
1.0
  0
LINE
  5
28A
330
224
100
AcDbEntity
  8
0
  6
Continuous
 62
     2
100
AcDbLine
 10
127.6213245784
 20
203.4567998174
 30
0.0
 11
139.4853683097
 21
203.4567998174
 31
0.0
  0
LINE
  5
28B
330
224
100
AcDbEntity
  8
0
  6
Continuous
 62
     2
100
AcDbLine
 10
127.6213245784
 20
323.4567997685
 30
0.0
 11
139.4853683097
 21
323.4567997685
 31
0.0
  0
LINE
  5
28C
330
224
100
AcDbEntity
  8
0
  6
Continuous
 62
     2
100
AcDbLine
 10
138.7353683097
 20
203.4567998174
 30
0.0
 11
138.7353683097
 21
263.456799793
 31
0.0
  0
LINE
  5
28D
330
224
100
AcDbEntity
  8
0
  6
Continuous
 62
     2
100
AcDbLine
 10
138.7353683097
 20
323.4567997685
 30
0.0
 11
138.7353683097
 21
263.456799793
 31
0.0
  0
INSERT
  5
28E
330
224
100
AcDbEntity
  8
0
  6
Continuous
 62
     2
100
AcDbBlockReference
  2
_CLOSED
 10
138.7353683097
 20
203.4567998174
 30
0.0
 41
2.5
 42
2.5
 43
2.5
 50
270.0
  0
INSERT
  5
28F
330
224
100
AcDbEntity
  8
0
  6
Continuous
 62
     2
100
AcDbBlockReference
  2
_CLOSED
 10
138.7353683097
 20
323.4567997685
 30
0.0
 41
2.5
 42
2.5
 43
2.5
 50
90.0
  0
ENDBLK
  5
290
330
224
100
AcDbEntity
  8
0
  6
ByBlock
 62
     0
100
AcDbBlockEnd
  0
BLOCK
  5
291
330
225
100
AcDbEntity
  8
0
100
AcDbBlockBegin
  2
*D4
 70
     1
 10
0.0
 20
0.0
 30
0.0
  3
*D4
  1

  0
MTEXT
  5
292
330
225
100
AcDbEntity
  8
0
  6
Continuous
 62
     2
100
AcDbMText
 10
134.9853683097
 20
333.456799793
 30
0.0
 40
3.0
 41
4.6617100372
 46
0.0
 71
     2
 72
     1
  1
20
 11
0.0
 21
1.0
 31
0.0
 73
     1
 44
1.0
  0
LINE
  5
293
330
225
100
AcDbEntity
  8
0
  6
Continuous
 62
     2
100
AcDbLine
 10
127.6213245784
 20
323.4567997685
 30
0.0
 11
139.4853683097
 21
323.4567997685
 31
0.0
  0
LINE
  5
294
330
225
100
AcDbEntity
  8
0
  6
Continuous
 62
     2
100
AcDbLine
 10
125.7201098618
 20
343.4567998174
 30
0.0
 11
139.4853683097
 21
343.4567998174
 31
0.0
  0
LINE
  5
295
330
225
100
AcDbEntity
  8
0
  6
Continuous
 62
     2
100
AcDbLine
 10
138.7353683097
 20
323.4567997685
 30
0.0
 11
138.7353683097
 21
333.456799793
 31
0.0
  0
LINE
  5
296
330
225
100
AcDbEntity
  8
0
  6
Continuous
 62
     2
100
AcDbLine
 10
138.7353683097
 20
343.4567998174
 30
0.0
 11
138.7353683097
 21
333.456799793
 31
0.0
  0
INSERT
  5
297
330
225
100
AcDbEntity
  8
0
  6
Continuous
 62
     2
100
AcDbBlockReference
  2
_CLOSED
 10
138.7353683097
 20
323.4567997685
 30
0.0
 41
2.5
 42
2.5
 43
2.5
 50
270.0
  0
INSERT
  5
298
330
225
100
AcDbEntity
  8
0
  6
Continuous
 62
     2
100
AcDbBlockReference
  2
_CLOSED
 10
138.7353683097
 20
343.4567998174
 30
0.0
 41
2.5
 42
2.5
 43
2.5
 50
90.0
  0
ENDBLK
  5
299
330
225
100
AcDbEntity
  8
0
  6
ByBlock
 62
     0
100
AcDbBlockEnd
  0
BLOCK
  5
29A
330
226
100
AcDbEntity
  8
0
100
AcDbBlockBegin
  2
*D5
 70
     1
 10
0.0
 20
0.0
 30
0.0
  3
*D5
  1

  0
MTEXT
  5
29B
330
226
100
AcDbEntity
  8
0
  6
Continuous
 62
     2
100
AcDbMText
 10
29.2192933969
 20
258.9567998174
 30
0.0
 40
3.0
 41
6.9925650558
 46
0.0
 71
     2
 72
     1
  1
169
 11
0.0
 21
1.0
 31
0.0
 73
     1
 44
1.0
  0
LINE
  5
29C
330
226
100
AcDbEntity
  8
0
  6
Continuous
 62
     2
100
AcDbLine
 10
51.3705650133
 20
343.4567998174
 30
0.0
 11
32.2192933969
 21
343.4567998174
 31
0.0
  0
LINE
  5
29D
330
226
100
AcDbEntity
  8
0
  6
Continuous
 62
     2
100
AcDbLine
 10
49.8960011056
 20
174.4567998174
 30
0.0
 11
32.2192933969
 21
174.4567998174
 31
0.0
  0
LINE
  5
29E
330
226
100
AcDbEntity
  8
0
  6
Continuous
 62
     2
100
AcDbLine
 10
32.9692933969
 20
343.4567998174
 30
0.0
 11
32.9692933969
 21
258.9567998174
 31
0.0
  0
LINE
  5
29F
330
226
100
AcDbEntity
  8
0
  6
Continuous
 62
     2
100
AcDbLine
 10
32.9692933969
 20
174.4567998174
 30
0.0
 11
32.9692933969
 21
258.9567998174
 31
0.0
  0
INSERT
  5
2A0
330
226
100
AcDbEntity
  8
0
  6
Continuous
 62
     2
100
AcDbBlockReference
  2
_CLOSED
 10
32.9692933969
 20
343.4567998174
 30
0.0
 41
2.5
 42
2.5
 43
2.5
 50
90.0
  0
INSERT
  5
2A1
330
226
100
AcDbEntity
  8
0
  6
Continuous
 62
     2
100
AcDbBlockReference
  2
_CLOSED
 10
32.9692933969
 20
174.4567998174
 30
0.0
 41
2.5
 42
2.5
 43
2.5
 50
270.0
  0
ENDBLK
  5
2A2
330
226
100
AcDbEntity
  8
0
  6
ByBlock
 62
     0
100
AcDbBlockEnd
  0
BLOCK
  5
22E
330
227
100
AcDbEntity
  8
0
100
AcDbBlockBegin
  2
LOGO2_BL1
 70
     0
 10
173.3065052371
 20
39.3350717903
 30
0.0
  3
LOGO2_BL1
  1

  0
LINE
  5
22F
330
227
100
AcDbEntity
  8
0
  6
Continuous
 62
     7
100
AcDbLine
 10
165.0494304653
 20
42.5305631291
 30
0.0
 11
163.745089536
 21
42.5305631291
 31
0.0
  0
LINE
  5
230
330
227
100
AcDbEntity
  8
0
  6
Continuous
 62
     7
100
AcDbLine
 10
163.745089536
 20
42.5305631291
 30
0.0
 11
163.745089536
 21
32.0714970693
 31
0.0
  0
LINE
  5
231
330
227
100
AcDbEntity
  8
0
  6
Continuous
 62
     7
100
AcDbLine
 10
163.745089536
 20
32.0714970693
 30
0.0
 11
168.2261444242
 21
32.0714970693
 31
0.0
  0
LINE
  5
232
330
227
100
AcDbEntity
  8
0
  6
Continuous
 62
     7
100
AcDbLine
 10
168.2261444242
 20
32.0714970693
 30
0.0
 11
168.2261444242
 21
33.2643513943
 31
0.0
  0
LINE
  5
233
330
227
100
AcDbEntity
  8
0
  6
Continuous
 62
     7
100
AcDbLine
 10
168.2261444242
 20
33.2643513943
 30
0.0
 11
165.0494304653
 21
33.2643513943
 31
0.0
  0
LINE
  5
234
330
227
100
AcDbEntity
  8
0
  6
Continuous
 62
     7
100
AcDbLine
 10
165.0494304653
 20
33.2643513943
 30
0.0
 11
165.0494304653
 21
42.5305631291
 31
0.0
  0
LINE
  5
235
330
227
100
AcDbEntity
  8
0
  6
Continuous
 62
     7
100
AcDbLine
 10
179.9857566816
 20
42.5305631291
 30
0.0
 11
178.6819391636
 21
42.5305631291
 31
0.0
  0
LINE
  5
236
330
227
100
AcDbEntity
  8
0
  6
Continuous
 62
     7
100
AcDbLine
 10
178.6819391636
 20
42.5305631291
 30
0.0
 11
178.6819391636
 21
32.0714970693
 31
0.0
  0
LINE
  5
237
330
227
100
AcDbEntity
  8
0
  6
Continuous
 62
     7
100
AcDbLine
 10
178.6819391636
 20
32.0714970693
 30
0.0
 11
183.1631249047
 21
32.0714970693
 31
0.0
  0
LINE
  5
238
330
227
100
AcDbEntity
  8
0
  6
Continuous
 62
     7
100
AcDbLine
 10
183.1631249047
 20
32.0714970693
 30
0.0
 11
183.1631249047
 21
33.2643513943
 31
0.0
  0
LINE
  5
239
330
227
100
AcDbEntity
  8
0
  6
Continuous
 62
     7
100
AcDbLine
 10
183.1631249047
 20
33.2643513943
 30
0.0
 11
179.9857566816
 21
33.2643513943
 31
0.0
  0
LINE
  5
23A
330
227
100
AcDbEntity
  8
0
  6
Continuous
 62
     7
100
AcDbLine
 10
179.9857566816
 20
33.2643513943
 30
0.0
 11
179.9857566816
 21
42.5305631291
 31
0.0
  0
LWPOLYLINE
  5
23B
330
227
100
AcDbEntity
  8
0
  6
Continuous
 62
     7
100
AcDbPolyline
 90
        2
 70
     0
 43
0.2
 10
162.0994844469
 20
28.7279457623
 10
162.0994844469
 20
26.870882513
  0
LWPOLYLINE
  5
23C
330
227
100
AcDbEntity
  8
0
  6
Continuous
 62
     7
100
AcDbPolyline
 90
        2
 70
     0
 43
0.2
 10
162.0994844469
 20
26.870882513
 10
162.8952004573
 20
26.870882513
  0
LWPOLYLINE
  5
23D
330
227
100
AcDbEntity
  8
0
  6
Continuous
 62
     7
100
AcDbPolyline
 90
        2
 70
     0
 43
0.2
 10
162.8952004573
 20
26.870882513
 10
162.8952004573
 20
27.0828640846
  0
LWPOLYLINE
  5
23E
330
227
100
AcDbEntity
  8
0
  6
Continuous
 62
     7
100
AcDbPolyline
 90
        2
 70
     0
 43
0.2
 10
162.8952004573
 20
27.0828640846
 10
162.3310939418
 20
27.0828640846
  0
LWPOLYLINE
  5
23F
330
227
100
AcDbEntity
  8
0
  6
Continuous
 62
     7
100
AcDbPolyline
 90
        2
 70
     0
 43
0.2
 10
162.3310939418
 20
27.0828640846
 10
162.3310939418
 20
28.7279457623
  0
LWPOLYLINE
  5
240
330
227
100
AcDbEntity
  8
0
  6
Continuous
 62
     7
100
AcDbPolyline
 90
        2
 70
     0
 43
0.2
 10
162.3310939418
 20
28.7279457623
 10
162.0994844469
 20
28.7279457623
  0
SPLINE
  5
241
330
227
100
AcDbEntity
  8
0
  6
Continuous
 62
     7
100
AcDbSpline
 70
     3
 71
     3
 72
    35
 73
    31
 74
     0
 42
0.000000001
 43
0.0000001
 40
0.0
 40
0.0
 40
0.0
 40
0.0
 40
1.0
 40
1.0
 40
1.0
 40
2.0
 40
2.0
 40
2.0
 40
3.0
 40
3.0
 40
3.0
 40
4.0
 40
4.0
 40
4.0
 40
5.0
 40
5.0
 40
5.0
 40
6.0
 40
6.0
 40
6.0
 40
7.0
 40
7.0
 40
7.0
 40
8.0
 40
8.0
 40
8.0
 40
9.0
 40
9.0
 40
9.0
 40
10.0
 40
10.0
 40
10.0
 40
10.0
 10
164.2934937128
 20
28.0234341689
 30
0.0
 10
164.2934937128
 20
28.0234341689
 30
0.0
 10
164.2934937128
 20
27.3613188897
 30
0.0
 10
164.2934937128
 20
27.3613188897
 30
0.0
 10
164.2934937128
 20
27.0462252944
 30
0.0
 10
164.4413574017
 20
26.8316266664
 30
0.0
 10
164.7814438859
 20
26.8316266664
 30
0.0
 10
165.121006959
 20
26.8316266664
 30
0.0
 10
165.2691323534
 20
27.0462252944
 30
0.0
 10
165.2691323534
 20
27.3613188897
 30
0.0
 10
165.2691323534
 20
27.3613188897
 30
0.0
 10
165.2691323534
 20
28.0234341689
 30
0.0
 10
165.2691323534
 20
28.0234341689
 30
0.0
 10
165.2691323534
 20
28.0234341689
 30
0.0
 10
165.0470751145
 20
28.0234341689
 30
0.0
 10
165.0470751145
 20
28.0234341689
 30
0.0
 10
165.0470751145
 20
28.0234341689
 30
0.0
 10
165.0470751145
 20
27.3864426315
 30
0.0
 10
165.0470751145
 20
27.3864426315
 30
0.0
 10
165.0470751145
 20
27.2006316243
 30
0.0
 10
165.0003606571
 20
27.0378507138
 30
0.0
 10
164.7814438859
 20
27.0378507138
 30
0.0
 10
164.5620037035
 20
27.0378507138
 30
0.0
 10
164.5152892461
 20
27.2006316243
 30
0.0
 10
164.5152892461
 20
27.3864426315
 30
0.0
 10
164.5152892461
 20
27.3864426315
 30
0.0
 10
164.5152892461
 20
28.0234341689
 30
0.0
 10
164.5152892461
 20
28.0234341689
 30
0.0
 10
164.5152892461
 20
28.0234341689
 30
0.0
 10
164.2934937128
 20
28.0234341689
 30
0.0
 10
164.2934937128
 20
28.0234341689
 30
0.0
  0
SPLINE
  5
242
330
227
100
AcDbEntity
  8
0
  6
Continuous
 62
     7
100
AcDbSpline
 70
     3
 71
     3
 72
    35
 73
    31
 74
     0
 42
0.000000001
 43
0.0000001
 40
0.0
 40
0.0
 40
0.0
 40
0.0
 40
1.0
 40
1.0
 40
1.0
 40
2.0
 40
2.0
 40
2.0
 40
3.0
 40
3.0
 40
3.0
 40
4.0
 40
4.0
 40
4.0
 40
5.0
 40
5.0
 40
5.0
 40
6.0
 40
6.0
 40
6.0
 40
7.0
 40
7.0
 40
7.0
 40
8.0
 40
8.0
 40
8.0
 40
9.0
 40
9.0
 40
9.0
 40
10.0
 40
10.0
 40
10.0
 40
10.0
 10
167.6922649106
 20
27.9820846771
 30
0.0
 10
167.603808403
 20
28.0333789833
 30
0.0
 10
167.4903590063
 20
28.0585027252
 30
0.0
 10
167.3867235713
 20
28.0585027252
 30
0.0
 10
167.0318507181
 20
28.0585027252
 30
0.0
 10
166.7564055279
 20
27.7947034361
 30
0.0
 10
166.7564055279
 20
27.4372135265
 30
0.0
 10
166.7564055279
 20
27.0922854878
 30
0.0
 10
167.034860333
 20
26.8321500777
 30
0.0
 10
167.3744234061
 20
26.8321500777
 30
0.0
 10
167.4903590063
 20
26.8321500777
 30
0.0
 10
167.5911156792
 20
26.8541333518
 30
0.0
 10
167.6922649106
 20
26.9080447144
 30
0.0
 10
167.6922649106
 20
26.9080447144
 30
0.0
 10
167.6922649106
 20
27.1906868099
 30
0.0
 10
167.6922649106
 20
27.1906868099
 30
0.0
 10
167.6083882517
 20
27.0975196006
 30
0.0
 10
167.5048836696
 20
27.0383741251
 30
0.0
 10
167.3767787568
 20
27.0383741251
 30
0.0
 10
167.1430756168
 20
27.0383741251
 30
0.0
 10
166.9778085027
 20
27.2105764388
 30
0.0
 10
166.9778085027
 20
27.4471583409
 30
0.0
 10
166.9778085027
 20
27.6591399125
 30
0.0
 10
167.1455618204
 20
27.8512318552
 30
0.0
 10
167.3623849464
 20
27.8512318552
 30
0.0
 10
167.4952005607
 20
27.8512318552
 30
0.0
 10
167.603808403
 20
27.7973204925
 30
0.0
 10
167.6922649106
 20
27.696302114
 30
0.0
 10
167.6922649106
 20
27.696302114
 30
0.0
 10
167.6922649106
 20
27.9820846771
 30
0.0
 10
167.6922649106
 20
27.9820846771
 30
0.0
  0
SPLINE
  5
243
330
227
100
AcDbEntity
  8
0
  6
Continuous
 62
     7
100
AcDbSpline
 70
     3
 71
     3
 72
    32
 73
    28
 74
     0
 42
0.000000001
 43
0.0000001
 40
0.0
 40
0.0
 40
0.0
 40
0.0
 40
1.0
 40
1.0
 40
1.0
 40
2.0
 40
2.0
 40
2.0
 40
3.0
 40
3.0
 40
3.0
 40
4.0
 40
4.0
 40
4.0
 40
5.0
 40
5.0
 40
5.0
 40
6.0
 40
6.0
 40
6.0
 40
7.0
 40
7.0
 40
7.0
 40
8.0
 40
8.0
 40
8.0
 40
9.0
 40
9.0
 40
9.0
 40
9.0
 10
170.2241361629
 20
27.4105195508
 30
0.0
 10
170.2241361629
 20
27.4105195508
 30
0.0
 10
170.2241361629
 20
27.4445412845
 30
0.0
 10
170.2241361629
 20
27.4445412845
 30
0.0
 10
170.2241361629
 20
27.7868522668
 30
0.0
 10
170.051279585
 20
28.0585027252
 30
0.0
 10
169.6846299779
 20
28.0585027252
 30
0.0
 10
169.3130079635
 20
28.0585027252
 30
0.0
 10
169.1232713716
 20
27.7920863796
 30
0.0
 10
169.1232713716
 20
27.4372135265
 30
0.0
 10
169.1232713716
 20
27.0975196006
 30
0.0
 10
169.3373465884
 20
26.8316266664
 30
0.0
 10
169.6894715323
 20
26.8316266664
 30
0.0
 10
169.9134915635
 20
26.8316266664
 30
0.0
 10
170.1156591735
 20
26.947300561
 30
0.0
 10
170.2241361629
 20
27.1467202617
 30
0.0
 10
170.2241361629
 20
27.1467202617
 30
0.0
 10
170.0364932162
 20
27.2534961644
 30
0.0
 10
170.0364932162
 20
27.2534961644
 30
0.0
 10
169.9530091157
 20
27.1147921731
 30
0.0
 10
169.8618046988
 20
27.0289527219
 30
0.0
 10
169.6922194416
 20
27.0289527219
 30
0.0
 10
169.48023787
 20
27.0289527219
 30
0.0
 10
169.3472914029
 20
27.2137169065
 30
0.0
 10
169.3449360521
 20
27.4105195508
 30
0.0
 10
169.3449360521
 20
27.4105195508
 30
0.0
 10
170.2241361629
 20
27.4105195508
 30
0.0
 10
170.2241361629
 20
27.4105195508
 30
0.0
  0
SPLINE
  5
244
330
227
100
AcDbEntity
  8
0
  6
Continuous
 62
     7
100
AcDbSpline
 70
     3
 71
     3
 72
    14
 73
    10
 74
     0
 42
0.000000001
 43
0.0000001
 40
0.0
 40
0.0
 40
0.0
 40
0.0
 40
1.0
 40
1.0
 40
1.0
 40
2.0
 40
2.0
 40
2.0
 40
3.0
 40
3.0
 40
3.0
 40
3.0
 10
169.3569745117
 20
27.5780111629
 30
0.0
 10
169.3845844571
 20
27.7428857186
 30
0.0
 10
169.5124276642
 20
27.8658873712
 30
0.0
 10
169.6846299779
 20
27.8658873712
 30
0.0
 10
169.8618046988
 20
27.8658873712
 30
0.0
 10
169.9752540955
 20
27.7502134766
 30
0.0
 10
170.0024714824
 20
27.5780111629
 30
0.0
 10
170.0024714824
 20
27.5780111629
 30
0.0
 10
169.3569745117
 20
27.5780111629
 30
0.0
 10
169.3569745117
 20
27.5780111629
 30
0.0
  0
SPLINE
  5
245
330
227
100
AcDbEntity
  8
0
  6
Continuous
 62
     7
100
AcDbSpline
 70
     3
 71
     3
 72
    20
 73
    16
 74
     0
 42
0.000000001
 43
0.0000001
 40
0.0
 40
0.0
 40
0.0
 40
0.0
 40
1.0
 40
1.0
 40
1.0
 40
2.0
 40
2.0
 40
2.0
 40
3.0
 40
3.0
 40
3.0
 40
4.0
 40
4.0
 40
4.0
 40
5.0
 40
5.0
 40
5.0
 40
5.0
 10
172.2481676131
 20
27.787375678
 30
0.0
 10
172.2481676131
 20
27.787375678
 30
0.0
 10
172.6593071797
 20
27.2849008417
 30
0.0
 10
172.6593071797
 20
27.2849008417
 30
0.0
 10
172.5432407266
 20
27.1692269471
 30
0.0
 10
172.4054527051
 20
27.0388975364
 30
0.0
 10
172.233512097
 20
27.0388975364
 30
0.0
 10
172.0560756704
 20
27.0388975364
 30
0.0
 10
171.8885840583
 20
27.2032486808
 30
0.0
 10
171.8885840583
 20
27.3801616961
 30
0.0
 10
171.8885840583
 20
27.558121534
 30
0.0
 10
172.0983411319
 20
27.6842636543
 30
0.0
 10
172.2259226333
 20
27.7721967507
 30
0.0
 10
172.2259226333
 20
27.7721967507
 30
0.0
 10
172.2481676131
 20
27.787375678
 30
0.0
 10
172.2481676131
 20
27.787375678
 30
0.0
  0
SPLINE
  5
246
330
227
100
AcDbEntity
  8
0
  6
Continuous
 62
     7
100
AcDbSpline
 70
     3
 71
     3
 72
    23
 73
    19
 74
     0
 42
0.000000001
 43
0.0000001
 40
0.0
 40
0.0
 40
0.0
 40
0.0
 40
1.0
 40
1.0
 40
1.0
 40
2.0
 40
2.0
 40
2.0
 40
3.0
 40
3.0
 40
3.0
 40
4.0
 40
4.0
 40
4.0
 40
5.0
 40
5.0
 40
5.0
 40
6.0
 40
6.0
 40
6.0
 40
6.0
 10
172.2974991269
 20
28.0783923541
 30
0.0
 10
172.2974991269
 20
28.0783923541
 30
0.0
 10
172.2358674478
 20
28.1569040473
 30
0.0
 10
172.2358674478
 20
28.1569040473
 30
0.0
 10
172.1819560851
 20
28.225470926
 30
0.0
 10
172.1251659604
 20
28.294561216
 30
0.0
 10
172.1251659604
 20
28.3882518365
 30
0.0
 10
172.1251659604
 20
28.5070661989
 30
0.0
 10
172.2210810789
 20
28.5845310695
 30
0.0
 10
172.3320442719
 20
28.5845310695
 30
0.0
 10
172.4553076302
 20
28.5845310695
 30
0.0
 10
172.5486056923
 20
28.5133471343
 30
0.0
 10
172.5486056923
 20
28.3830177236
 30
0.0
 10
172.5486056923
 20
28.2479776114
 30
0.0
 10
172.4205007796
 20
28.1715595633
 30
0.0
 10
172.3269410119
 20
28.0977585718
 30
0.0
 10
172.3269410119
 20
28.0977585718
 30
0.0
 10
172.2974991269
 20
28.0783923541
 30
0.0
 10
172.2974991269
 20
28.0783923541
 30
0.0
  0
SPLINE
  5
247
330
227
100
AcDbEntity
  8
0
  6
Continuous
 62
     7
100
AcDbSpline
 70
     3
 71
     3
 72
    50
 73
    46
 74
     0
 42
0.000000001
 43
0.0000001
 40
0.0
 40
0.0
 40
0.0
 40
0.0
 40
1.0
 40
1.0
 40
1.0
 40
2.0
 40
2.0
 40
2.0
 40
3.0
 40
3.0
 40
3.0
 40
4.0
 40
4.0
 40
4.0
 40
5.0
 40
5.0
 40
5.0
 40
6.0
 40
6.0
 40
6.0
 40
7.0
 40
7.0
 40
7.0
 40
8.0
 40
8.0
 40
8.0
 40
9.0
 40
9.0
 40
9.0
 40
10.0
 40
10.0
 40
10.0
 40
11.0
 40
11.0
 40
11.0
 40
12.0
 40
12.0
 40
12.0
 40
13.0
 40
13.0
 40
13.0
 40
14.0
 40
14.0
 40
14.0
 40
15.0
 40
15.0
 40
15.0
 40
15.0
 10
172.9996553696
 20
26.8714059243
 30
0.0
 10
172.9996553696
 20
26.8714059243
 30
0.0
 10
173.2850453743
 20
26.8714059243
 30
0.0
 10
173.2850453743
 20
26.8714059243
 30
0.0
 10
173.2850453743
 20
26.8714059243
 30
0.0
 10
172.9526792065
 20
27.2822837852
 30
0.0
 10
172.9526792065
 20
27.2822837852
 30
0.0
 10
172.9526792065
 20
27.2822837852
 30
0.0
 10
173.1791854414
 20
27.5481767195
 30
0.0
 10
173.1791854414
 20
27.5481767195
 30
0.0
 10
173.1791854414
 20
27.5481767195
 30
0.0
 10
173.0309291941
 20
27.7010128155
 30
0.0
 10
173.0309291941
 20
27.7010128155
 30
0.0
 10
173.0309291941
 20
27.7010128155
 30
0.0
 10
172.8150220378
 20
27.4497753974
 30
0.0
 10
172.8150220378
 20
27.4497753974
 30
0.0
 10
172.8150220378
 20
27.4497753974
 30
0.0
 10
172.4279593904
 20
27.9177050887
 30
0.0
 10
172.4279593904
 20
27.9177050887
 30
0.0
 10
172.5834125429
 20
28.0318087495
 30
0.0
 10
172.7656905239
 20
28.1715595633
 30
0.0
 10
172.7656905239
 20
28.3809240785
 30
0.0
 10
172.7656905239
 20
28.6248337386
 30
0.0
 10
172.5636537668
 20
28.7682484315
 30
0.0
 10
172.337147532
 20
28.7682484315
 30
0.0
 10
172.0929761662
 20
28.7682484315
 30
0.0
 10
171.9086045401
 20
28.6175059806
 30
0.0
 10
171.9086045401
 20
28.3610344496
 30
0.0
 10
171.9086045401
 20
28.2034876519
 30
0.0
 10
172.0072675678
 20
28.0658304832
 30
0.0
 10
172.1126040895
 20
27.9548672902
 30
0.0
 10
172.1126040895
 20
27.9548672902
 30
0.0
 10
171.9970610477
 20
27.8711214841
 30
0.0
 10
171.9970610477
 20
27.8711214841
 30
0.0
 10
171.8193629155
 20
27.7428857186
 30
0.0
 10
171.6720226379
 20
27.6151733643
 30
0.0
 10
171.6720226379
 20
27.3780680509
 30
0.0
 10
171.6720226379
 20
27.0577403428
 30
0.0
 10
171.9305878141
 20
26.8316266664
 30
0.0
 10
172.2409707078
 20
26.8316266664
 30
0.0
 10
172.459887479
 20
26.8316266664
 30
0.0
 10
172.6570826817
 20
26.9567219642
 30
0.0
 10
172.7973569069
 20
27.1226433424
 30
0.0
 10
172.7973569069
 20
27.1226433424
 30
0.0
 10
172.9996553696
 20
26.8714059243
 30
0.0
 10
172.9996553696
 20
26.8714059243
 30
0.0
  0
LWPOLYLINE
  5
248
330
227
100
AcDbEntity
  8
0
  6
Continuous
 62
     7
100
AcDbPolyline
 90
        2
 70
     0
 43
0.2
 10
174.9350994593
 20
28.7279457623
 10
174.7037516701
 20
28.7279457623
  0
LWPOLYLINE
  5
249
330
227
100
AcDbEntity
  8
0
  6
Continuous
 62
     7
100
AcDbPolyline
 90
        2
 70
     0
 43
0.2
 10
174.7037516701
 20
28.7279457623
 10
174.7037516701
 20
26.870882513
  0
LWPOLYLINE
  5
24A
330
227
100
AcDbEntity
  8
0
  6
Continuous
 62
     7
100
AcDbPolyline
 90
        2
 70
     0
 43
0.2
 10
174.7037516701
 20
26.870882513
 10
175.499075122
 20
26.870882513
  0
LWPOLYLINE
  5
24B
330
227
100
AcDbEntity
  8
0
  6
Continuous
 62
     7
100
AcDbPolyline
 90
        2
 70
     0
 43
0.2
 10
175.499075122
 20
26.870882513
 10
175.499075122
 20
27.0828640846
  0
LWPOLYLINE
  5
24C
330
227
100
AcDbEntity
  8
0
  6
Continuous
 62
     7
100
AcDbPolyline
 90
        2
 70
     0
 43
0.2
 10
175.499075122
 20
27.0828640846
 10
174.9350994593
 20
27.0828640846
  0
LWPOLYLINE
  5
24D
330
227
100
AcDbEntity
  8
0
  6
Continuous
 62
     7
100
AcDbPolyline
 90
        2
 70
     0
 43
0.2
 10
174.9350994593
 20
27.0828640846
 10
174.9350994593
 20
28.7279457623
  0
LWPOLYLINE
  5
24E
330
227
100
AcDbEntity
  8
0
  6
Continuous
 62
     7
100
AcDbPolyline
 90
        2
 70
     0
 43
0.2
 10
177.1781785335
 20
28.0234341689
 10
176.9570372644
 20
28.0234341689
  0
LWPOLYLINE
  5
24F
330
227
100
AcDbEntity
  8
0
  6
Continuous
 62
     7
100
AcDbPolyline
 90
        2
 70
     0
 43
0.2
 10
176.9570372644
 20
28.0234341689
 10
176.9570372644
 20
26.8714059243
  0
LWPOLYLINE
  5
250
330
227
100
AcDbEntity
  8
0
  6
Continuous
 62
     7
100
AcDbPolyline
 90
        2
 70
     0
 43
0.2
 10
176.9570372644
 20
26.8714059243
 10
177.1781785335
 20
26.8714059243
  0
LWPOLYLINE
  5
251
330
227
100
AcDbEntity
  8
0
  6
Continuous
 62
     7
100
AcDbPolyline
 90
        2
 70
     0
 43
0.2
 10
177.1781785335
 20
26.8714059243
 10
177.1781785335
 20
28.0234341689
  0
LWPOLYLINE
  5
252
330
227
100
AcDbEntity
  8
0
  6
Continuous
 62
     7
100
AcDbPolyline
 90
        2
 70
     1
 43
0.2
 10
176.9151552563
 20
28.5533880978
 42
1.0
 10
177.2203222472
 20
28.5533880978
 42
1.0
  0
SPLINE
  5
253
330
227
100
AcDbEntity
  8
0
  6
Continuous
 62
     7
100
AcDbSpline
 70
     3
 71
     3
 72
    17
 73
    13
 74
     0
 42
0.000000001
 43
0.0000001
 40
0.0
 40
0.0
 40
0.0
 40
0.0
 40
1.0
 40
1.0
 40
1.0
 40
2.0
 40
2.0
 40
2.0
 40
3.0
 40
3.0
 40
3.0
 40
4.0
 40
4.0
 40
4.0
 40
4.0
 10
179.3084624751
 20
27.0289527219
 30
0.0
 10
179.0744976295
 20
27.0289527219
 30
0.0
 10
178.9441682188
 20
27.230989479
 30
0.0
 10
178.9441682188
 20
27.4471583409
 30
0.0
 10
178.9441682188
 20
27.661756969
 30
0.0
 10
179.079993448
 20
27.8606532583
 30
0.0
 10
179.3084624751
 20
27.8606532583
 30
0.0
 10
179.5479231393
 20
27.8606532583
 30
0.0
 10
179.6834866629
 20
27.6717017834
 30
0.0
 10
179.6834866629
 20
27.4471583409
 30
0.0
 10
179.6834866629
 20
27.2210446646
 30
0.0
 10
179.5502784901
 20
27.0289527219
 30
0.0
 10
179.3084624751
 20
27.0289527219
 30
0.0
  0
SPLINE
  5
254
330
227
100
AcDbEntity
  8
0
  6
Continuous
 62
     7
100
AcDbSpline
 70
     3
 71
     3
 72
    50
 73
    46
 74
     0
 42
0.000000001
 43
0.0000001
 40
0.0
 40
0.0
 40
0.0
 40
0.0
 40
1.0
 40
1.0
 40
1.0
 40
2.0
 40
2.0
 40
2.0
 40
3.0
 40
3.0
 40
3.0
 40
4.0
 40
4.0
 40
4.0
 40
5.0
 40
5.0
 40
5.0
 40
6.0
 40
6.0
 40
6.0
 40
7.0
 40
7.0
 40
7.0
 40
8.0
 40
8.0
 40
8.0
 40
9.0
 40
9.0
 40
9.0
 40
10.0
 40
10.0
 40
10.0
 40
11.0
 40
11.0
 40
11.0
 40
12.0
 40
12.0
 40
12.0
 40
13.0
 40
13.0
 40
13.0
 40
14.0
 40
14.0
 40
14.0
 40
15.0
 40
15.0
 40
15.0
 40
15.0
 10
179.8925894724
 20
28.0239575802
 30
0.0
 10
179.8925894724
 20
28.0239575802
 30
0.0
 10
179.670924792
 20
28.0239575802
 30
0.0
 10
179.670924792
 20
28.0239575802
 30
0.0
 10
179.670924792
 20
28.0239575802
 30
0.0
 10
179.670924792
 20
27.8266315246
 30
0.0
 10
179.670924792
 20
27.8266315246
 30
0.0
 10
179.670924792
 20
27.8266315246
 30
0.0
 10
179.6662140904
 20
27.8266315246
 30
0.0
 10
179.6662140904
 20
27.8266315246
 30
0.0
 10
179.5748788207
 20
27.9695228062
 30
0.0
 10
179.4369599463
 20
28.0579793139
 30
0.0
 10
179.2642342213
 20
28.0579793139
 30
0.0
 10
178.9318680535
 20
28.0579793139
 30
0.0
 10
178.722765244
 20
27.7701031055
 30
0.0
 10
178.722765244
 20
27.454486099
 30
0.0
 10
178.722765244
 20
27.1247369876
 30
0.0
 10
178.9198295939
 20
26.8316266664
 30
0.0
 10
179.2747024471
 20
26.8316266664
 30
0.0
 10
179.4369599463
 20
26.8316266664
 30
0.0
 10
179.5769724658
 20
26.920083174
 30
0.0
 10
179.6662140904
 20
27.050935996
 30
0.0
 10
179.6662140904
 20
27.050935996
 30
0.0
 10
179.670924792
 20
27.050935996
 30
0.0
 10
179.670924792
 20
27.050935996
 30
0.0
 10
179.670924792
 20
27.050935996
 30
0.0
 10
179.670924792
 20
26.8316266664
 30
0.0
 10
179.670924792
 20
26.8316266664
 30
0.0
 10
179.670924792
 20
26.5950447643
 30
0.0
 10
179.6143963729
 20
26.4081869345
 30
0.0
 10
179.3411756806
 20
26.4081869345
 30
0.0
 10
179.1388772179
 20
26.4081869345
 30
0.0
 10
178.9962476419
 20
26.5264778856
 30
0.0
 10
178.9962476419
 20
26.732701933
 30
0.0
 10
178.9962476419
 20
26.732701933
 30
0.0
 10
178.7745829615
 20
26.732701933
 30
0.0
 10
178.7745829615
 20
26.732701933
 30
0.0
 10
178.7795553687
 20
26.4081869345
 30
0.0
 10
179.0106414523
 20
26.2113842903
 30
0.0
 10
179.3309691605
 20
26.2113842903
 30
0.0
 10
179.7790092229
 20
26.2113842903
 30
0.0
 10
179.8925894724
 20
26.4966434422
 30
0.0
 10
179.8925894724
 20
26.8933891984
 30
0.0
 10
179.8925894724
 20
26.8933891984
 30
0.0
 10
179.8925894724
 20
28.0239575802
 30
0.0
 10
179.8925894724
 20
28.0239575802
 30
0.0
  0
SPLINE
  5
255
330
227
100
AcDbEntity
  8
0
  6
Continuous
 62
     7
100
AcDbSpline
 70
     3
 71
     3
 72
    44
 73
    40
 74
     0
 42
0.000000001
 43
0.0000001
 40
0.0
 40
0.0
 40
0.0
 40
0.0
 40
1.0
 40
1.0
 40
1.0
 40
2.0
 40
2.0
 40
2.0
 40
3.0
 40
3.0
 40
3.0
 40
4.0
 40
4.0
 40
4.0
 40
5.0
 40
5.0
 40
5.0
 40
6.0
 40
6.0
 40
6.0
 40
7.0
 40
7.0
 40
7.0
 40
8.0
 40
8.0
 40
8.0
 40
9.0
 40
9.0
 40
9.0
 40
10.0
 40
10.0
 40
10.0
 40
11.0
 40
11.0
 40
11.0
 40
12.0
 40
12.0
 40
12.0
 40
13.0
 40
13.0
 40
13.0
 40
13.0
 10
181.4615148078
 20
29.0090176239
 30
0.0
 10
181.4615148078
 20
29.0090176239
 30
0.0
 10
181.4615148078
 20
26.870882513
 30
0.0
 10
181.4615148078
 20
26.870882513
 30
0.0
 10
181.4615148078
 20
26.870882513
 30
0.0
 10
181.6829177826
 20
26.870882513
 30
0.0
 10
181.6829177826
 20
26.870882513
 30
0.0
 10
181.6829177826
 20
26.870882513
 30
0.0
 10
181.6829177826
 20
27.4005747363
 30
0.0
 10
181.6829177826
 20
27.4005747363
 30
0.0
 10
181.6829177826
 20
27.6104626627
 30
0.0
 10
181.6829177826
 20
27.8611766696
 30
0.0
 10
181.9681769344
 20
27.8611766696
 30
0.0
 10
182.1950757277
 20
27.8611766696
 30
0.0
 10
182.2220314091
 20
27.7282302025
 30
0.0
 10
182.2220314091
 20
27.5319509696
 30
0.0
 10
182.2220314091
 20
27.5319509696
 30
0.0
 10
182.2220314091
 20
26.870882513
 30
0.0
 10
182.2220314091
 20
26.870882513
 30
0.0
 10
182.2220314091
 20
26.870882513
 30
0.0
 10
182.4439577951
 20
26.870882513
 30
0.0
 10
182.4439577951
 20
26.870882513
 30
0.0
 10
182.4439577951
 20
26.870882513
 30
0.0
 10
182.4439577951
 20
27.558121534
 30
0.0
 10
182.4439577951
 20
27.558121534
 30
0.0
 10
182.4439577951
 20
27.8386699843
 30
0.0
 10
182.3599502834
 20
28.0585027252
 30
0.0
 10
182.0349118737
 20
28.0585027252
 30
0.0
 10
181.8951610598
 20
28.0585027252
 30
0.0
 10
181.7569804798
 20
27.9920294916
 30
0.0
 10
181.6876284841
 20
27.869027839
 30
0.0
 10
181.6876284841
 20
27.869027839
 30
0.0
 10
181.6829177826
 20
27.869027839
 30
0.0
 10
181.6829177826
 20
27.869027839
 30
0.0
 10
181.6829177826
 20
27.869027839
 30
0.0
 10
181.6829177826
 20
29.0090176239
 30
0.0
 10
181.6829177826
 20
29.0090176239
 30
0.0
 10
181.6829177826
 20
29.0090176239
 30
0.0
 10
181.4615148078
 20
29.0090176239
 30
0.0
 10
181.4615148078
 20
29.0090176239
 30
0.0
  0
LWPOLYLINE
  5
256
330
227
100
AcDbEntity
  8
0
  6
Continuous
 62
     7
100
AcDbPolyline
 90
        2
 70
     0
 43
0.2
 10
184.283748472
 20
27.8166867102
 10
184.5001790395
 20
27.8166867102
  0
LWPOLYLINE
  5
257
330
227
100
AcDbEntity
  8
0
  6
Continuous
 62
     7
100
AcDbPolyline
 90
        2
 70
     0
 43
0.2
 10
184.5001790395
 20
27.8166867102
 10
184.5001790395
 20
28.0234341689
  0
LWPOLYLINE
  5
258
330
227
100
AcDbEntity
  8
0
  6
Continuous
 62
     7
100
AcDbPolyline
 90
        2
 70
     0
 43
0.2
 10
184.5001790395
 20
28.0234341689
 10
184.283748472
 20
28.0234341689
  0
LWPOLYLINE
  5
259
330
227
100
AcDbEntity
  8
0
  6
Continuous
 62
     7
100
AcDbPolyline
 90
        2
 70
     0
 43
0.2
 10
184.283748472
 20
28.0234341689
 10
184.283748472
 20
28.4641464733
  0
LWPOLYLINE
  5
25A
330
227
100
AcDbEntity
  8
0
  6
Continuous
 62
     7
100
AcDbPolyline
 90
        2
 70
     0
 43
0.2
 10
184.283748472
 20
28.4641464733
 10
184.0620837916
 20
28.4641464733
  0
LWPOLYLINE
  5
25B
330
227
100
AcDbEntity
  8
0
  6
Continuous
 62
     7
100
AcDbPolyline
 90
        2
 70
     0
 43
0.2
 10
184.0620837916
 20
28.4641464733
 10
184.0620837916
 20
28.0234341689
  0
LWPOLYLINE
  5
25C
330
227
100
AcDbEntity
  8
0
  6
Continuous
 62
     7
100
AcDbPolyline
 90
        2
 70
     0
 43
0.2
 10
184.0620837916
 20
28.0234341689
 10
183.9414374897
 20
28.0234341689
  0
LWPOLYLINE
  5
25D
330
227
100
AcDbEntity
  8
0
  6
Continuous
 62
     7
100
AcDbPolyline
 90
        2
 70
     0
 43
0.2
 10
183.9414374897
 20
28.0234341689
 10
183.9414374897
 20
27.8166867102
  0
LWPOLYLINE
  5
25E
330
227
100
AcDbEntity
  8
0
  6
Continuous
 62
     7
100
AcDbPolyline
 90
        2
 70
     0
 43
0.2
 10
183.9414374897
 20
27.8166867102
 10
184.0620837916
 20
27.8166867102
  0
LWPOLYLINE
  5
25F
330
227
100
AcDbEntity
  8
0
  6
Continuous
 62
     7
100
AcDbPolyline
 90
        2
 70
     0
 43
0.2
 10
184.0620837916
 20
27.8166867102
 10
184.0620837916
 20
26.870882513
  0
LWPOLYLINE
  5
260
330
227
100
AcDbEntity
  8
0
  6
Continuous
 62
     7
100
AcDbPolyline
 90
        2
 70
     0
 43
0.2
 10
184.0620837916
 20
26.870882513
 10
184.283748472
 20
26.870882513
  0
LWPOLYLINE
  5
261
330
227
100
AcDbEntity
  8
0
  6
Continuous
 62
     7
100
AcDbPolyline
 90
        2
 70
     0
 43
0.2
 10
184.283748472
 20
26.870882513
 10
184.283748472
 20
27.8166867102
  0
SPLINE
  5
262
330
227
100
AcDbEntity
  8
0
  6
Continuous
 62
     7
100
AcDbSpline
 70
     3
 71
     3
 72
    20
 73
    16
 74
     0
 42
0.000000001
 43
0.0000001
 40
0.0
 40
0.0
 40
0.0
 40
0.0
 40
1.0
 40
1.0
 40
1.0
 40
2.0
 40
2.0
 40
2.0
 40
3.0
 40
3.0
 40
3.0
 40
4.0
 40
4.0
 40
4.0
 40
5.0
 40
5.0
 40
5.0
 40
5.0
 10
172.0657587792
 20
37.2318089564
 30
0.0
 10
172.0657587792
 20
37.2318089564
 30
0.0
 10
174.3821154337
 20
34.4022475341
 30
0.0
 10
174.3821154337
 20
34.4022475341
 30
0.0
 10
173.7304683803
 20
33.7500770695
 30
0.0
 10
172.9535951763
 20
33.0141607987
 30
0.0
 10
171.9824055316
 20
33.0141607987
 30
0.0
 10
170.9838676472
 20
33.0141607987
 30
0.0
 10
170.0405496536
 20
33.943739246
 30
0.0
 10
170.0405496536
 20
34.9429313945
 30
0.0
 10
170.0405496536
 20
35.9421235431
 30
0.0
 10
171.2194027267
 20
36.6487287817
 30
0.0
 10
171.9409251871
 20
37.1485865616
 30
0.0
 10
171.9409251871
 20
37.1485865616
 30
0.0
 10
172.0657587792
 20
37.2318089564
 30
0.0
 10
172.0657587792
 20
37.2318089564
 30
0.0
  0
SPLINE
  5
263
330
227
100
AcDbEntity
  8
0
  6
Continuous
 62
     7
100
AcDbSpline
 70
     3
 71
     3
 72
    23
 73
    19
 74
     0
 42
0.000000001
 43
0.0000001
 40
0.0
 40
0.0
 40
0.0
 40
0.0
 40
1.0
 40
1.0
 40
1.0
 40
2.0
 40
2.0
 40
2.0
 40
3.0
 40
3.0
 40
3.0
 40
4.0
 40
4.0
 40
4.0
 40
5.0
 40
5.0
 40
5.0
 40
6.0
 40
6.0
 40
6.0
 40
6.0
 10
172.3431667618
 20
38.8695628761
 30
0.0
 10
172.3431667618
 20
38.8695628761
 30
0.0
 10
171.9966684892
 20
39.3128922369
 30
0.0
 10
171.9966684892
 20
39.3128922369
 30
0.0
 10
171.6908654443
 20
39.7010017069
 30
0.0
 10
171.3719771172
 20
40.0895037353
 30
0.0
 10
171.3719771172
 20
40.6164480494
 30
0.0
 10
171.3719771172
 20
41.282619766
 30
0.0
 10
171.9133152416
 20
41.7263416853
 30
0.0
 10
172.5372214968
 20
41.7263416853
 30
0.0
 10
173.2310031589
 20
41.7263416853
 30
0.0
 10
173.7582091786
 20
41.3241001106
 30
0.0
 10
173.7582091786
 20
40.5890998096
 30
0.0
 10
173.7582091786
 20
39.8258352991
 30
0.0
 10
173.0369484239
 20
39.3957220732
 30
0.0
 10
172.509873257
 20
38.9800026579
 30
0.0
 10
172.509873257
 20
38.9800026579
 30
0.0
 10
172.3431667618
 20
38.8695628761
 30
0.0
 10
172.3431667618
 20
38.8695628761
 30
0.0
  0
SPLINE
  5
264
330
227
100
AcDbEntity
  8
0
  6
Continuous
 62
     7
100
AcDbSpline
 70
     3
 71
     3
 72
    50
 73
    46
 74
     0
 42
0.000000001
 43
0.0000001
 40
0.0
 40
0.0
 40
0.0
 40
0.0
 40
1.0
 40
1.0
 40
1.0
 40
2.0
 40
2.0
 40
2.0
 40
3.0
 40
3.0
 40
3.0
 40
4.0
 40
4.0
 40
4.0
 40
5.0
 40
5.0
 40
5.0
 40
6.0
 40
6.0
 40
6.0
 40
7.0
 40
7.0
 40
7.0
 40
8.0
 40
8.0
 40
8.0
 40
9.0
 40
9.0
 40
9.0
 40
10.0
 40
10.0
 40
10.0
 40
11.0
 40
11.0
 40
11.0
 40
12.0
 40
12.0
 40
12.0
 40
13.0
 40
13.0
 40
13.0
 40
14.0
 40
14.0
 40
14.0
 40
15.0
 40
15.0
 40
15.0
 40
15.0
 10
176.2967539247
 20
32.070973658
 30
0.0
 10
176.2967539247
 20
32.070973658
 30
0.0
 10
177.9059819293
 20
32.070973658
 30
0.0
 10
177.9059819293
 20
32.070973658
 30
0.0
 10
177.9059819293
 20
32.070973658
 30
0.0
 10
176.0329546356
 20
34.3881154294
 30
0.0
 10
176.0329546356
 20
34.3881154294
 30
0.0
 10
176.0329546356
 20
34.3881154294
 30
0.0
 10
177.3092930611
 20
35.885595124
 30
0.0
 10
177.3092930611
 20
35.885595124
 30
0.0
 10
177.3092930611
 20
35.885595124
 30
0.0
 10
176.4770691134
 20
36.7466066925
 30
0.0
 10
176.4770691134
 20
36.7466066925
 30
0.0
 10
176.4770691134
 20
36.7466066925
 30
0.0
 10
175.2564739901
 20
35.3313025701
 30
0.0
 10
175.2564739901
 20
35.3313025701
 30
0.0
 10
175.2564739901
 20
35.3313025701
 30
0.0
 10
173.0785596213
 20
37.9666784045
 30
0.0
 10
173.0785596213
 20
37.9666784045
 30
0.0
 10
173.9521330607
 20
38.6047167645
 30
0.0
 10
174.9788043019
 20
39.3957220732
 30
0.0
 10
174.9788043019
 20
40.5745751464
 30
0.0
 10
174.9788043019
 20
41.9482680714
 30
0.0
 10
173.840908162
 20
42.7527512208
 30
0.0
 10
172.5656165591
 20
42.7527512208
 30
0.0
 10
171.1921853398
 20
42.7527512208
 30
0.0
 10
170.151251141
 20
41.9065260212
 30
0.0
 10
170.151251141
 20
40.463873659
 30
0.0
 10
170.151251141
 20
39.5762989676
 30
0.0
 10
170.7065905175
 20
38.7994257635
 30
0.0
 10
171.3027559743
 20
38.1749960971
 30
0.0
 10
171.3027559743
 20
38.1749960971
 30
0.0
 10
170.6508472153
 20
37.7034025267
 30
0.0
 10
170.6508472153
 20
37.7034025267
 30
0.0
 10
169.6523093309
 20
36.9821417721
 30
0.0
 10
168.819431119
 20
36.2608810174
 30
0.0
 10
168.819431119
 20
34.929322701
 30
0.0
 10
168.819431119
 20
33.125647403
 30
0.0
 10
170.2764772916
 20
31.8490472719
 30
0.0
 10
172.024016729
 20
31.8490472719
 30
0.0
 10
173.2588748099
 20
31.8490472719
 30
0.0
 10
174.3682450346
 20
32.5572227444
 30
0.0
 10
175.1591194905
 20
33.4857543691
 30
0.0
 10
175.1591194905
 20
33.4857543691
 30
0.0
 10
176.2967539247
 20
32.070973658
 30
0.0
 10
176.2967539247
 20
32.070973658
 30
0.0
  0
LINE
  5
265
330
227
100
AcDbEntity
  8
0
  6
Continuous
 62
     7
100
AcDbLine
 10
162.0996152997
 20
30.0448485626
 30
0.0
 11
184.5135260274
 21
30.0448485626
 31
0.0
  0
LINE
  5
266
330
227
100
AcDbEntity
  8
0
  6
Continuous
 62
     7
100
AcDbLine
 10
184.5135260274
 20
30.0448485626
 30
0.0
 11
184.5135260274
 21
52.4587592903
 31
0.0
  0
LINE
  5
267
330
227
100
AcDbEntity
  8
0
  6
Continuous
 62
     7
100
AcDbLine
 10
184.5135260274
 20
52.4587592903
 30
0.0
 11
162.0996152997
 21
52.4587592903
 31
0.0
  0
LINE
  5
268
330
227
100
AcDbEntity
  8
0
  6
Continuous
 62
     7
100
AcDbLine
 10
162.0996152997
 20
52.4587592903
 30
0.0
 11
162.0996152997
 21
30.0448485626
 31
0.0
  0
ENDBLK
  5
269
330
227
100
AcDbEntity
  8
0
  6
ByBlock
 62
     0
100
AcDbBlockEnd
  0
BLOCK
  5
26A
330
228
100
AcDbEntity
  8
0
100
AcDbBlockBegin
  2
PROIEZIONE_EU_BL0
 70
     0
 10
174.4804581924
 20
64.9600717903
 30
0.0
  3
PROIEZIONE_EU_BL0
  1

  0
LWPOLYLINE
  5
26B
330
228
100
AcDbEntity
  8
DEFAULT_1
  6
CENTER
 62
     7
100
AcDbPolyline
 90
        2
 70
     0
 43
0.25
 10
180.607078854
 20
69.9597659222
 10
180.6071198364
 20
59.9603776584
  0
LWPOLYLINE
  5
26C
330
228
100
AcDbEntity
  8
DEFAULT_1
  6
CENTER
 62
     7
100
AcDbPolyline
 90
        2
 70
     0
 43
0.25
 10
186.6071086791
 20
64.9603429254
 10
162.3538077056
 20
64.960072265
  0
LWPOLYLINE
  5
26D
330
228
100
AcDbEntity
  8
0
  6
Continuous
 62
     7
100
AcDbPolyline
 90
        2
 70
     1
 43
0.25
 10
177.0599686782
 20
64.9415240361
 42
1.0
 10
184.1662977768
 20
64.9415240361
 42
1.0
  0
LWPOLYLINE
  5
26E
330
228
100
AcDbEntity
  8
0
  6
Continuous
 62
     7
100
AcDbPolyline
 90
        2
 70
     1
 43
0.25
 10
178.6097125066
 20
64.9594220807
 42
1.0
 10
182.6214642567
 20
64.9594220807
 42
1.0
  0
LWPOLYLINE
  5
26F
330
228
100
AcDbEntity
  8
0
  6
Continuous
 62
     7
100
AcDbPolyline
 90
        2
 70
     0
 43
0.25
 10
174.6071064731
 20
68.5352752855
 10
174.6071061185
 20
61.4350723772
  0
LWPOLYLINE
  5
270
330
228
100
AcDbEntity
  8
0
  6
Continuous
 62
     7
100
AcDbPolyline
 90
        2
 70
     0
 43
0.25
 10
174.6071345549
 20
61.4350439408
 10
164.6125772837
 20
62.9551373537
  0
LWPOLYLINE
  5
271
330
228
100
AcDbEntity
  8
0
  6
Continuous
 62
     7
100
AcDbPolyline
 90
        2
 70
     0
 43
0.25
 10
164.6102672981
 20
62.9544598121
 10
164.607600394
 20
66.9600984235
  0
LWPOLYLINE
  5
272
330
228
100
AcDbEntity
  8
0
  6
Continuous
 62
     7
100
AcDbPolyline
 90
        2
 70
     0
 43
0.25
 10
164.6075921179
 20
66.9600901475
 10
174.6073353552
 20
68.5352473676
  0
ENDBLK
  5
273
330
228
100
AcDbEntity
  8
0
  6
ByBlock
 62
     0
100
AcDbBlockEnd
  0
ENDSEC
  0
SECTION
  2
ENTITIES
  0
LINE
  5
2A3
330
1B
100
AcDbEntity
 67
     1
  8
0
  6
Continuous
 62
     7
100
AcDbLine
 10
0.0
 20
0.0
 30
0.0
 11
297.0
 21
0.0
 31
0.0
  0
LINE
  5
2A4
330
1B
100
AcDbEntity
 67
     1
  8
0
  6
Continuous
 62
     7
100
AcDbLine
 10
297.0
 20
0.0
 30
0.0
 11
297.0
 21
420.0
 31
0.0
  0
LINE
  5
2A5
330
1B
100
AcDbEntity
 67
     1
  8
0
  6
Continuous
 62
     7
100
AcDbLine
 10
0.0
 20
420.0
 30
0.0
 11
297.0
 21
420.0
 31
0.0
  0
LINE
  5
2A6
330
1B
100
AcDbEntity
 67
     1
  8
0
  6
Continuous
 62
     7
100
AcDbLine
 10
0.0
 20
0.0
 30
0.0
 11
0.0
 21
420.0
 31
0.0
  0
VIEWPORT
  5
2A7
330
1B
100
AcDbEntity
 67
     1
  8
0
100
AcDbViewport
 10
0.0
 20
0.0
 30
0.0
 40
700.1089494163423
 41
495.0770428015564
 68
     1
 69
     1
 12
330.9338521400778
 22
210.0
 13
0.0
 23
0.0
 14
1.0
 24
1.0
 15
0.0
 25
0.0
 16
0.0
 26
0.0
 36
1.0
 17
0.0
 27
0.0
 37
0.0
 42
50.0
 43
0.0
 44
0.0
 45
495.0770428015564
 50
0.0
 51
0.0
 72
   100
 90
   557216
  1

281
     0
 71
     1
 74
     0
110
0.0
120
0.0
130
0.0
111
1.0
121
0.0
131
0.0
112
0.0
122
1.0
132
0.0
 79
     0
146
0.0
170
     0
 61
     5
348
49F
292
     1
282
     1
141
0.0
142
0.0
 63
   256
  0
LINE
  5
2A8
330
1B
100
AcDbEntity
 67
     1
  8
02___PRT_ALL_AXES
  6
Continuous
 62
     7
100
AcDbLine
 10
69.0361327615
 20
174.4567998174
 30
0.0
 11
73.6616304163
 21
174.4567998174
 31
0.0
  0
LINE
  5
2A9
330
1B
100
AcDbEntity
 67
     1
  8
02___PRT_ALL_AXES
  6
Continuous
 62
     7
100
AcDbLine
 10
73.6616304163
 20
174.4567998174
 30
0.0
 11
82.6614731089
 21
174.4567998174
 31
0.0
  0
LINE
  5
2AA
330
1B
100
AcDbEntity
 67
     1
  8
02___PRT_ALL_AXES
  6
Continuous
 62
     7
100
AcDbLine
 10
69.0359731089
 20
174.4567998174
 30
0.0
 11
69.0359731089
 21
176.9567998174
 31
0.0
  0
LINE
  5
2AB
330
1B
100
AcDbEntity
 67
     1
  8
02___PRT_ALL_AXES
  6
Continuous
 62
     7
100
AcDbLine
 10
69.0359731089
 20
176.9567998174
 30
0.0
 11
69.589955622
 21
178.4567998174
 31
0.0
  0
LINE
  5
2AC
330
1B
100
AcDbEntity
 67
     1
  8
02___PRT_ALL_AXES
  6
Continuous
 62
     7
100
AcDbLine
 10
82.6614731089
 20
174.4567998174
 30
0.0
 11
91.6613158014
 21
174.4567998174
 31
0.0
  0
LINE
  5
2AD
330
1B
100
AcDbEntity
 67
     1
  8
02___PRT_ALL_AXES
  6
Continuous
 62
     7
100
AcDbLine
 10
91.6613158014
 20
174.4567998174
 30
0.0
 11
96.2868134562
 21
174.4567998174
 31
0.0
  0
LINE
  5
2AE
330
1B
100
AcDbEntity
 67
     1
  8
02___PRT_ALL_AXES
  6
Continuous
 62
     7
100
AcDbLine
 10
74.0894731089
 20
197.6567998174
 30
0.0
 11
74.0894731089
 21
197.9567998174
 31
0.0
  0
LINE
  5
2AF
330
1B
100
AcDbEntity
 67
     1
  8
02___PRT_ALL_AXES
  6
Continuous
 62
     7
100
AcDbLine
 10
96.6090177632
 20
197.6567998174
 30
0.0
 11
94.6459338704
 21
197.6567998174
 31
0.0
  0
LINE
  5
2B0
330
1B
100
AcDbEntity
 67
     1
  8
02___PRT_ALL_AXES
  6
Continuous
 62
     7
100
AcDbLine
 10
96.6090177632
 20
178.4567998174
 30
0.0
 11
94.6459338704
 21
178.4567998174
 31
0.0
  0
LINE
  5
2B1
330
1B
100
AcDbEntity
 67
     1
  8
02___PRT_ALL_AXES
  6
Continuous
 62
     7
100
AcDbLine
 10
97.6333234163
 20
203.4567998174
 30
0.0
 11
97.6333234163
 21
197.9567998174
 31
0.0
  0
LINE
  5
2B2
330
1B
100
AcDbEntity
 67
     1
  8
02___PRT_ALL_AXES
  6
Continuous
 62
     7
100
AcDbLine
 10
97.6333234163
 20
197.9567998174
 30
0.0
 11
93.6216282172
 21
197.9567998174
 31
0.0
  0
LINE
  5
2B3
330
1B
100
AcDbEntity
 67
     1
  8
02___PRT_ALL_AXES
  6
Continuous
 62
     7
100
AcDbLine
 10
91.8474787836
 20
197.6567998174
 30
0.0
 11
88.4473177416
 21
197.6567998174
 31
0.0
  0
LINE
  5
2B4
330
1B
100
AcDbEntity
 67
     1
  8
02___PRT_ALL_AXES
  6
Continuous
 62
     7
100
AcDbLine
 10
91.8474787836
 20
178.4567998174
 30
0.0
 11
88.4473177416
 21
178.4567998174
 31
0.0
  0
LINE
  5
2B5
330
1B
100
AcDbEntity
 67
     1
  8
02___PRT_ALL_AXES
  6
Continuous
 62
     7
100
AcDbLine
 10
93.6216282172
 20
197.9567998174
 30
0.0
 11
86.6731683079
 21
197.9567998174
 31
0.0
  0
LINE
  5
2B6
330
1B
100
AcDbEntity
 67
     1
  8
02___PRT_ALL_AXES
  6
Continuous
 62
     7
100
AcDbLine
 10
84.6245570017
 20
197.6567998174
 30
0.0
 11
80.698389216
 21
197.6567998174
 31
0.0
  0
LINE
  5
2B7
330
1B
100
AcDbEntity
 67
     1
  8
02___PRT_ALL_AXES
  6
Continuous
 62
     7
100
AcDbLine
 10
84.6245570017
 20
178.4567998174
 30
0.0
 11
80.698389216
 21
178.4567998174
 31
0.0
  0
LINE
  5
2B8
330
1B
100
AcDbEntity
 67
     1
  8
02___PRT_ALL_AXES
  6
Continuous
 62
     7
100
AcDbLine
 10
86.6731683079
 20
197.9567998174
 30
0.0
 11
78.6497779098
 21
197.9567998174
 31
0.0
  0
LINE
  5
2B9
330
1B
100
AcDbEntity
 67
     1
  8
02___PRT_ALL_AXES
  6
Continuous
 62
     7
100
AcDbLine
 10
76.8756284761
 20
197.6567998174
 30
0.0
 11
73.4754674341
 21
197.6567998174
 31
0.0
  0
LINE
  5
2BA
330
1B
100
AcDbEntity
 67
     1
  8
02___PRT_ALL_AXES
  6
Continuous
 62
     7
100
AcDbLine
 10
76.8756284761
 20
178.4567998174
 30
0.0
 11
73.4754674341
 21
178.4567998174
 31
0.0
  0
LINE
  5
2BB
330
1B
100
AcDbEntity
 67
     1
  8
02___PRT_ALL_AXES
  6
Continuous
 62
     7
100
AcDbLine
 10
78.6497779098
 20
197.9567998174
 30
0.0
 11
71.7013180005
 21
197.9567998174
 31
0.0
  0
LINE
  5
2BC
330
1B
100
AcDbEntity
 67
     1
  8
02___PRT_ALL_AXES
  6
Continuous
 62
     7
100
AcDbLine
 10
71.7013180005
 20
197.9567998174
 30
0.0
 11
67.6896228014
 21
197.9567998174
 31
0.0
  0
LINE
  5
2BD
330
1B
100
AcDbEntity
 67
     1
  8
02___PRT_ALL_AXES
  6
Continuous
 62
     7
100
AcDbLine
 10
70.6770123473
 20
197.6567998174
 30
0.0
 11
68.7139284545
 21
197.6567998174
 31
0.0
  0
LINE
  5
2BE
330
1B
100
AcDbEntity
 67
     1
  8
02___PRT_ALL_AXES
  6
Continuous
 62
     7
100
AcDbLine
 10
70.6770123473
 20
178.4567998174
 30
0.0
 11
68.7139284545
 21
178.4567998174
 31
0.0
  0
LINE
  5
2BF
330
1B
100
AcDbEntity
 67
     1
  8
02___PRT_ALL_AXES
  6
Continuous
 62
     7
100
AcDbLine
 10
67.6896228014
 20
203.4567998174
 30
0.0
 11
67.6896228014
 21
197.9567998174
 31
0.0
  0
LINE
  5
2C0
330
1B
100
AcDbEntity
 67
     1
  8
02___PRT_ALL_AXES
  6
Continuous
 62
     7
100
AcDbLine
 10
96.2869731089
 20
174.4567998174
 30
0.0
 11
96.2869731089
 21
176.9567998174
 31
0.0
  0
LINE
  5
2C1
330
1B
100
AcDbEntity
 67
     1
  8
02___PRT_ALL_AXES
  6
Continuous
 62
     7
100
AcDbLine
 10
67.6896228014
 20
178.4567998174
 30
0.0
 11
67.6896228014
 21
197.6567998174
 31
0.0
  0
LINE
  5
2C2
330
1B
100
AcDbEntity
 67
     1
  8
02___PRT_ALL_AXES
  6
Continuous
 62
     7
100
AcDbLine
 10
96.2869731089
 20
176.9567998174
 30
0.0
 11
95.7329905957
 21
178.4567998174
 31
0.0
  0
LINE
  5
2C3
330
1B
100
AcDbEntity
 67
     1
  8
02___PRT_ALL_AXES
  6
Continuous
 62
     7
100
AcDbLine
 10
91.2334731089
 20
197.6567998174
 30
0.0
 11
91.2334731089
 21
197.9567998174
 31
0.0
  0
LINE
  5
2C4
330
1B
100
AcDbEntity
 67
     1
  8
02___PRT_ALL_AXES
  6
Continuous
 62
     7
100
AcDbLine
 10
80.698389216
 20
197.6567998174
 30
0.0
 11
76.8756284761
 21
197.6567998174
 31
0.0
  0
LINE
  5
2C5
330
1B
100
AcDbEntity
 67
     1
  8
02___PRT_ALL_AXES
  6
Continuous
 62
     7
100
AcDbLine
 10
73.4754674341
 20
197.6567998174
 30
0.0
 11
70.6770123473
 21
197.6567998174
 31
0.0
  0
LINE
  5
2C6
330
1B
100
AcDbEntity
 67
     1
  8
02___PRT_ALL_AXES
  6
Continuous
 62
     7
100
AcDbLine
 10
68.7139284545
 20
197.6567998174
 30
0.0
 11
67.6896228014
 21
197.6567998174
 31
0.0
  0
LINE
  5
2C7
330
1B
100
AcDbEntity
 67
     1
  8
02___PRT_ALL_AXES
  6
Continuous
 62
     7
100
AcDbLine
 10
68.7139284545
 20
178.4567998174
 30
0.0
 11
67.6896228014
 21
178.4567998174
 31
0.0
  0
LINE
  5
2C8
330
1B
100
AcDbEntity
 67
     1
  8
02___PRT_ALL_AXES
  6
Continuous
 62
     7
100
AcDbLine
 10
96.6090177632
 20
178.4567998174
 30
0.0
 11
97.6333234163
 21
178.4567998174
 31
0.0
  0
LINE
  5
2C9
330
1B
100
AcDbEntity
 67
     1
  8
02___PRT_ALL_AXES
  6
Continuous
 62
     7
100
AcDbLine
 10
91.8474787836
 20
178.4567998174
 30
0.0
 11
94.6459338704
 21
178.4567998174
 31
0.0
  0
LINE
  5
2CA
330
1B
100
AcDbEntity
 67
     1
  8
02___PRT_ALL_AXES
  6
Continuous
 62
     7
100
AcDbLine
 10
84.6245570017
 20
178.4567998174
 30
0.0
 11
88.4473177416
 21
178.4567998174
 31
0.0
  0
LINE
  5
2CB
330
1B
100
AcDbEntity
 67
     1
  8
02___PRT_ALL_AXES
  6
Continuous
 62
     7
100
AcDbLine
 10
80.698389216
 20
178.4567998174
 30
0.0
 11
76.8756284761
 21
178.4567998174
 31
0.0
  0
LINE
  5
2CC
330
1B
100
AcDbEntity
 67
     1
  8
02___PRT_ALL_AXES
  6
Continuous
 62
     7
100
AcDbLine
 10
73.4754674341
 20
178.4567998174
 30
0.0
 11
70.6770123473
 21
178.4567998174
 31
0.0
  0
LINE
  5
2CD
330
1B
100
AcDbEntity
 67
     1
  8
02___PRT_ALL_AXES
  6
Continuous
 62
     7
100
AcDbLine
 10
84.6245570017
 20
197.6567998174
 30
0.0
 11
88.4473177416
 21
197.6567998174
 31
0.0
  0
LINE
  5
2CE
330
1B
100
AcDbEntity
 67
     1
  8
02___PRT_ALL_AXES
  6
Continuous
 62
     7
100
AcDbLine
 10
91.8474787836
 20
197.6567998174
 30
0.0
 11
94.6459338704
 21
197.6567998174
 31
0.0
  0
LINE
  5
2CF
330
1B
100
AcDbEntity
 67
     1
  8
02___PRT_ALL_AXES
  6
Continuous
 62
     7
100
AcDbLine
 10
96.6090177632
 20
197.6567998174
 30
0.0
 11
97.6333234163
 21
197.6567998174
 31
0.0
  0
LINE
  5
2D0
330
1B
100
AcDbEntity
 67
     1
  8
02___PRT_ALL_AXES
  6
Continuous
 62
     7
100
AcDbLine
 10
97.6333234163
 20
178.4567998174
 30
0.0
 11
97.6333234163
 21
197.6567998174
 31
0.0
  0
LINE
  5
2D1
330
1B
100
AcDbEntity
 67
     1
  8
02___PRT_ALL_AXES
  6
Continuous
 62
     7
100
AcDbLine
 10
82.6614731089
 20
176.9567998174
 30
0.0
 11
69.0359731089
 21
176.9567998174
 31
0.0
  0
LINE
  5
2D2
330
1B
100
AcDbEntity
 67
     1
  8
02___PRT_ALL_AXES
  6
Continuous
 62
     7
100
AcDbLine
 10
94.6459338704
 20
178.4567998174
 30
0.0
 11
94.6459338704
 21
197.6567998174
 31
0.0
  0
LINE
  5
2D3
330
1B
100
AcDbEntity
 67
     1
  8
02___PRT_ALL_AXES
  6
Continuous
 62
     7
100
AcDbLine
 10
86.6731683079
 20
203.4567998174
 30
0.0
 11
86.6731683079
 21
197.9567998174
 31
0.0
  0
LINE
  5
2D4
330
1B
100
AcDbEntity
 67
     1
  8
02___PRT_ALL_AXES
  6
Continuous
 62
     7
100
AcDbLine
 10
70.6770123473
 20
178.4567998174
 30
0.0
 11
70.6770123473
 21
197.6567998174
 31
0.0
  0
LINE
  5
2D5
330
1B
100
AcDbEntity
 67
     1
  8
02___PRT_ALL_AXES
  6
Continuous
 62
     7
100
AcDbLine
 10
82.6614731089
 20
176.9567998174
 30
0.0
 11
96.2869731089
 21
176.9567998174
 31
0.0
  0
LINE
  5
2D6
330
1B
100
AcDbEntity
 67
     1
  8
02___PRT_ALL_AXES
  6
Continuous
 62
     7
100
AcDbLine
 10
93.6216282172
 20
203.4567998174
 30
0.0
 11
93.6216282172
 21
197.9567998174
 31
0.0
  0
LINE
  5
2D7
330
1B
100
AcDbEntity
 67
     1
  8
02___PRT_ALL_AXES
  6
Continuous
 62
     7
100
AcDbLine
 10
68.7139284545
 20
178.4567998174
 30
0.0
 11
68.7139284545
 21
197.6567998174
 31
0.0
  0
LINE
  5
2D8
330
1B
100
AcDbEntity
 67
     1
  8
02___PRT_ALL_AXES
  6
Continuous
 62
     7
100
AcDbLine
 10
91.8474787836
 20
178.4567998174
 30
0.0
 11
91.8474787836
 21
197.6567998174
 31
0.0
  0
LINE
  5
2D9
330
1B
100
AcDbEntity
 67
     1
  8
02___PRT_ALL_AXES
  6
Continuous
 62
     7
100
AcDbLine
 10
76.8756284761
 20
178.4567998174
 30
0.0
 11
76.8756284761
 21
197.6567998174
 31
0.0
  0
LINE
  5
2DA
330
1B
100
AcDbEntity
 67
     1
  8
02___PRT_ALL_AXES
  6
Continuous
 62
     7
100
AcDbLine
 10
96.6090177632
 20
178.4567998174
 30
0.0
 11
96.6090177632
 21
197.6567998174
 31
0.0
  0
LINE
  5
2DB
330
1B
100
AcDbEntity
 67
     1
  8
02___PRT_ALL_AXES
  6
Continuous
 62
     7
100
AcDbLine
 10
73.4754674341
 20
178.4567998174
 30
0.0
 11
73.4754674341
 21
197.6567998174
 31
0.0
  0
LINE
  5
2DC
330
1B
100
AcDbEntity
 67
     1
  8
02___PRT_ALL_AXES
  6
Continuous
 62
     7
100
AcDbLine
 10
84.6245570017
 20
178.4567998174
 30
0.0
 11
84.6245570017
 21
197.6567998174
 31
0.0
  0
LINE
  5
2DD
330
1B
100
AcDbEntity
 67
     1
  8
02___PRT_ALL_AXES
  6
Continuous
 62
     7
100
AcDbLine
 10
78.6497779098
 20
203.4567998174
 30
0.0
 11
78.6497779098
 21
197.9567998174
 31
0.0
  0
LINE
  5
2DE
330
1B
100
AcDbEntity
 67
     1
  8
02___PRT_ALL_AXES
  6
Continuous
 62
     7
100
AcDbLine
 10
88.4473177416
 20
178.4567998174
 30
0.0
 11
88.4473177416
 21
197.6567998174
 31
0.0
  0
LINE
  5
2DF
330
1B
100
AcDbEntity
 67
     1
  8
02___PRT_ALL_AXES
  6
Continuous
 62
     7
100
AcDbLine
 10
80.698389216
 20
178.4567998174
 30
0.0
 11
80.698389216
 21
197.6567998174
 31
0.0
  0
LINE
  5
2E0
330
1B
100
AcDbEntity
 67
     1
  8
02___PRT_ALL_AXES
  6
Continuous
 62
     7
100
AcDbLine
 10
71.7013180005
 20
203.4567998174
 30
0.0
 11
71.7013180005
 21
197.9567998174
 31
0.0
  0
LINE
  5
2E1
330
1B
100
AcDbEntity
 67
     1
  8
7_ALL_FEATURES
  6
Continuous
 62
     7
100
AcDbLine
 10
66.6614731089
 20
343.4567998174
 30
0.0
 11
66.6614731089
 21
325.4567998174
 31
0.0
  0
LINE
  5
2E2
330
1B
100
AcDbEntity
 67
     1
  8
02___PRT_ALL_AXES
  6
Continuous
 62
     7
100
AcDbLine
 10
98.6614731089
 20
343.4567998174
 30
0.0
 11
97.5722591302
 21
343.4567998174
 31
0.0
  0
LINE
  5
2E3
330
1B
100
AcDbEntity
 67
     1
  8
02___PRT_ALL_AXES
  6
Continuous
 62
     7
100
AcDbLine
 10
97.5722591302
 20
343.4567998174
 30
0.0
 11
67.7506870875
 21
343.4567998174
 31
0.0
  0
LINE
  5
2E4
330
1B
100
AcDbEntity
 67
     1
  8
02___PRT_ALL_AXES
  6
Continuous
 62
     7
100
AcDbLine
 10
67.7506870875
 20
343.4567998174
 30
0.0
 11
66.6614731089
 21
343.4567998174
 31
0.0
  0
LINE
  5
2E5
330
1B
100
AcDbEntity
 67
     1
  8
7_ALL_FEATURES
  6
Continuous
 62
     7
100
AcDbLine
 10
98.6614731089
 20
343.4567998174
 30
0.0
 11
98.6614731089
 21
325.4567998174
 31
0.0
  0
ARC
  5
2E6
330
1B
100
AcDbEntity
 67
     1
  8
7_ALL_FEATURES
  6
Continuous
 62
     7
100
AcDbCircle
 10
100.6614731089
 20
325.4567998174
 30
0.0
 40
2.0
100
AcDbArc
 50
180.0
 51
270.0
  0
ARC
  5
2E7
330
1B
100
AcDbEntity
 67
     1
  8
7_ALL_FEATURES
  6
Continuous
 62
     7
100
AcDbCircle
 10
64.6614731089
 20
325.4567998174
 30
0.0
 40
2.0
100
AcDbArc
 50
270.0
 51
360.0
  0
LINE
  5
2E8
330
1B
100
AcDbEntity
 67
     1
  8
7_ALL_FEATURES
  6
Continuous
 62
     9
100
AcDbLine
 10
66.6614731089
 20
325.4567998174
 30
0.0
 11
98.6614731089
 21
325.4567998174
 31
0.0
  0
LINE
  5
2E9
330
1B
100
AcDbEntity
 67
     1
  8
7_ALL_FEATURES
  6
Continuous
 62
     7
100
AcDbLine
 10
105.64447233
 20
207.3040542649
 30
0.0
 11
105.7473925902
 21
213.200352025
 31
0.0
  0
LINE
  5
2EA
330
1B
100
AcDbEntity
 67
     1
  8
7_ALL_FEATURES
  6
Continuous
 62
     7
100
AcDbLine
 10
107.719455572
 20
226.4567998174
 30
0.0
 11
107.588082973
 21
218.9303739363
 31
0.0
  0
LINE
  5
2EB
330
1B
100
AcDbEntity
 67
     1
  8
7_ALL_FEATURES
  6
Continuous
 62
     7
100
AcDbLine
 10
105.7475477228
 20
213.2092395661
 30
0.0
 11
105.8391407205
 21
218.4565988916
 31
0.0
  0
LINE
  5
2EC
330
1B
100
AcDbEntity
 67
     1
  8
7_ALL_FEATURES
  6
Continuous
 62
     7
100
AcDbLine
 10
105.7473925902
 20
213.200352025
 30
0.0
 11
105.7475477228
 21
213.2092395661
 31
0.0
  0
LINE
  5
2ED
330
1B
100
AcDbEntity
 67
     1
  8
7_ALL_FEATURES
  6
Continuous
 62
     7
100
AcDbLine
 10
105.6394648989
 20
207.0171787298
 30
0.0
 11
105.64447233
 21
207.3040542649
 31
0.0
  0
LWPOLYLINE
  5
2EE
330
1B
100
AcDbEntity
 67
     1
  8
7_ALL_FEATURES
  6
Continuous
 62
     7
100
AcDbPolyline
 90
       10
 70
     0
 43
0.0
 10
105.6381376175
 20
207.0172064877
 10
105.6423667084
 20
207.2714212531
 10
105.651957563
 20
207.8493223907
 10
105.6632855957
 20
208.5345930825
 10
105.6749588939
 20
209.2443691673
 10
105.6869967439
 20
209.9803425151
 10
105.6994211037
 20
210.7439234947
 10
105.7122598001
 20
211.5359554107
 10
105.7263718821
 20
212.4065718892
 10
105.7393193708
 20
213.2004938936
  0
LINE
  5
2EF
330
1B
100
AcDbEntity
 67
     1
  8
7_ALL_FEATURES
  6
Continuous
 62
     7
100
AcDbLine
 10
105.6168728617
 20
205.7228817878
 30
0.0
 11
105.6394648989
 21
207.0171787298
 31
0.0
  0
ARC
  5
2F0
330
1B
100
AcDbEntity
 67
     1
  8
7_ALL_FEATURES
  6
Continuous
 62
     7
100
AcDbCircle
 10
107.0887817895
 20
218.956799816
 30
0.0
 40
0.5
100
AcDbArc
 50
270.0000000018
 51
356.9704022001
  0
LINE
  5
2F1
330
1B
100
AcDbEntity
 67
     1
  8
7_ALL_FEATURES
  6
Continuous
 62
     7
100
AcDbLine
 10
106.7577189025
 20
218.4567998174
 30
0.0
 11
107.0887684902
 21
218.4567998174
 31
0.0
  0
LINE
  5
2F2
330
1B
100
AcDbEntity
 67
     1
  8
7_ALL_FEATURES
  6
Continuous
 62
     7
100
AcDbLine
 10
107.0887817831
 20
218.456799816
 30
0.0
 11
106.7577189026
 21
218.4567998163
 31
0.0
  0
LWPOLYLINE
  5
2F3
330
1B
100
AcDbEntity
 67
     1
  8
7_ALL_FEATURES
  6
Continuous
 62
     7
100
AcDbPolyline
 90
        4
 70
     0
 43
0.0
 10
97.9142723356
 20
291.4567998174
 10
98.0464070768
 20
296.6161350753
 10
98.182005698
 20
301.9452696317
 10
98.31020334
 20
306.9567998174
  0
LWPOLYLINE
  5
2F4
330
1B
100
AcDbEntity
 67
     1
  8
7_ALL_FEATURES
  6
Continuous
 62
     7
100
AcDbPolyline
 90
        4
 70
     0
 43
0.0
 10
67.0127732746
 20
306.9567998174
 10
67.1410486118
 20
301.9455844422
 10
67.2768072237
 20
296.6164499294
 10
67.4090416654
 20
291.4567998174
  0
LINE
  5
2F5
330
1B
100
AcDbEntity
 67
     1
  8
7_ALL_FEATURES
  6
Continuous
 62
     7
100
AcDbLine
 10
58.2341777275
 20
218.4567998174
 30
0.0
 11
58.5604762027
 21
218.4567998174
 31
0.0
  0
LINE
  5
2F6
330
1B
100
AcDbEntity
 67
     1
  8
7_ALL_FEATURES
  6
Continuous
 62
     7
100
AcDbLine
 10
58.5604762027
 20
218.4567998174
 30
0.0
 11
58.5652273578
 21
218.4567998174
 31
0.0
  0
LINE
  5
2F7
330
1B
100
AcDbEntity
 67
     1
  8
7_ALL_FEATURES
  6
Continuous
 62
     7
100
AcDbLine
 10
58.5652273578
 20
218.4567998174
 30
0.0
 11
59.4838019899
 21
218.4567998174
 31
0.0
  0
LINE
  5
2F8
330
1B
100
AcDbEntity
 67
     1
  8
7_ALL_FEATURES
  6
Continuous
 62
     7
100
AcDbLine
 10
59.4838019899
 20
218.4567998174
 30
0.0
 11
59.5442271566
 21
218.4567998174
 31
0.0
  0
LINE
  5
2F9
330
1B
100
AcDbEntity
 67
     1
  8
7_ALL_FEATURES
  6
Continuous
 62
     7
100
AcDbLine
 10
57.6034906457
 20
226.4567998174
 30
0.0
 11
57.7348632452
 21
218.930373909
 31
0.0
  0
ARC
  5
2FA
330
1B
100
AcDbEntity
 67
     1
  8
7_ALL_FEATURES
  6
Continuous
 62
     7
100
AcDbCircle
 10
58.2341644281
 20
218.9567998178
 30
0.0
 40
0.5
100
AcDbArc
 50
183.0295976483
 51
270.0000000019
  0
LINE
  5
2FB
330
1B
100
AcDbEntity
 67
     1
  8
7_ALL_FEATURES
  6
Continuous
 62
     7
100
AcDbLine
 10
58.2977724646
 20
218.4567998179
 30
0.0
 11
58.2341777275
 21
218.4567998179
 31
0.0
  0
LINE
  5
2FC
330
1B
100
AcDbEntity
 67
     1
  8
7_ALL_FEATURES
  6
Continuous
 62
     7
100
AcDbLine
 10
59.5442271565
 20
218.4567998175
 30
0.0
 11
59.4838019899
 21
218.4567998175
 31
0.0
  0
LINE
  5
2FD
330
1B
100
AcDbEntity
 67
     1
  8
7_ALL_FEATURES
  6
Continuous
 62
     7
100
AcDbLine
 10
59.4838019899
 20
218.4567998175
 30
0.0
 11
58.2977724646
 21
218.4567998179
 31
0.0
  0
LINE
  5
2FE
330
1B
100
AcDbEntity
 67
     1
  8
7_ALL_FEATURES
  6
Continuous
 62
     7
100
AcDbLine
 10
105.8391442277
 20
218.4567998174
 30
0.0
 11
105.8385054441
 21
218.4202039272
 31
0.0
  0
LINE
  5
2FF
330
1B
100
AcDbEntity
 67
     1
  8
7_ALL_FEATURES
  6
Continuous
 62
     7
100
AcDbLine
 10
105.8391407205
 20
218.4565988916
 30
0.0
 11
105.8391442277
 21
218.4567998174
 31
0.0
  0
ARC
  5
300
330
1B
100
AcDbEntity
 67
     1
  8
7_ALL_FEATURES
  6
Continuous
 62
     7
100
AcDbCircle
 10
105.0859696223
 20
203.9567998174
 30
0.0
 40
0.5
100
AcDbArc
 50
270.0000000046
 51
292.2124263469
  0
ARC
  5
301
330
1B
100
AcDbEntity
 67
     1
  8
7_ALL_FEATURES
  6
Continuous
 62
     7
100
AcDbCircle
 10
105.0859955515
 20
203.9568052279
 30
0.0
 40
0.4999999774
100
AcDbArc
 50
269.9970287638
 51
358.9993282101
  0
LINE
  5
302
330
1B
100
AcDbEntity
 67
     1
  8
7_ALL_FEATURES
  6
Continuous
 62
     7
100
AcDbLine
 10
61.5726025686
 20
203.4567998174
 30
0.0
 11
60.2369765954
 21
203.4567998174
 31
0.0
  0
LINE
  5
303
330
1B
100
AcDbEntity
 67
     1
  8
7_ALL_FEATURES
  6
Continuous
 62
     7
100
AcDbLine
 10
103.7502725211
 20
203.4567998174
 30
0.0
 11
93.6216282172
 21
203.4567998174
 31
0.0
  0
LINE
  5
304
330
1B
100
AcDbEntity
 67
     1
  8
7_ALL_FEATURES
  6
Continuous
 62
     7
100
AcDbLine
 10
93.6216282172
 20
203.4567998174
 30
0.0
 11
93.5833036935
 21
203.4567998174
 31
0.0
  0
LINE
  5
305
330
1B
100
AcDbEntity
 67
     1
  8
7_ALL_FEATURES
  6
Continuous
 62
     7
100
AcDbLine
 10
93.5833036935
 20
203.4567998174
 30
0.0
 11
86.6731683079
 21
203.4567998174
 31
0.0
  0
LINE
  5
306
330
1B
100
AcDbEntity
 67
     1
  8
7_ALL_FEATURES
  6
Continuous
 62
     7
100
AcDbLine
 10
86.6731683079
 20
203.4567998174
 30
0.0
 11
78.8396741549
 21
203.4567998174
 31
0.0
  0
LINE
  5
307
330
1B
100
AcDbEntity
 67
     1
  8
7_ALL_FEATURES
  6
Continuous
 62
     7
100
AcDbLine
 10
78.8396741549
 20
203.4567998174
 30
0.0
 11
78.6497779098
 21
203.4567998174
 31
0.0
  0
LINE
  5
308
330
1B
100
AcDbEntity
 67
     1
  8
7_ALL_FEATURES
  6
Continuous
 62
     7
100
AcDbLine
 10
78.6497779098
 20
203.4567998174
 30
0.0
 11
71.7013180005
 21
203.4567998174
 31
0.0
  0
LINE
  5
309
330
1B
100
AcDbEntity
 67
     1
  8
7_ALL_FEATURES
  6
Continuous
 62
     7
100
AcDbLine
 10
71.7013180005
 20
203.4567998174
 30
0.0
 11
71.6543579824
 21
203.4567998174
 31
0.0
  0
LINE
  5
30A
330
1B
100
AcDbEntity
 67
     1
  8
7_ALL_FEATURES
  6
Continuous
 62
     7
100
AcDbLine
 10
71.6543579824
 20
203.4567998174
 30
0.0
 11
61.5726025686
 21
203.4567998174
 31
0.0
  0
LINE
  5
30B
330
1B
100
AcDbEntity
 67
     1
  8
7_ALL_FEATURES
  6
Continuous
 62
     7
100
AcDbLine
 10
105.0859696223
 20
203.4567998174
 30
0.0
 11
103.7502725211
 21
203.4567998174
 31
0.0
  0
LINE
  5
30C
330
1B
100
AcDbEntity
 67
     1
  8
7_ALL_FEATURES
  6
Continuous
 62
     7
100
AcDbLine
 10
59.6883625524
 20
206.7375330411
 30
0.0
 11
59.7370527478
 21
203.9480736142
 31
0.0
  0
LINE
  5
30D
330
1B
100
AcDbEntity
 67
     1
  8
7_ALL_FEATURES
  6
Continuous
 62
     7
100
AcDbLine
 10
59.6878894457
 20
206.7646373062
 30
0.0
 11
59.6883625524
 21
206.7375330411
 31
0.0
  0
LWPOLYLINE
  5
30E
330
1B
100
AcDbEntity
 67
     1
  8
7_ALL_FEATURES
  6
Continuous
 62
     7
100
AcDbPolyline
 90
        5
 70
     0
 43
0.0
 10
59.5278708364
 20
215.9321029542
 10
59.563456334
 20
213.8833979636
 10
59.6020552687
 20
211.6589537011
 10
59.6438726893
 20
209.2726565351
 10
59.6878894481
 20
206.7646371697
  0
ARC
  5
30F
330
1B
100
AcDbEntity
 67
     1
  8
7_ALL_FEATURES
  6
Continuous
 62
     7
100
AcDbCircle
 10
60.2369765954
 20
203.9567998174
 30
0.0
 40
0.5
100
AcDbArc
 50
248.4138411246
 51
269.999999997
  0
ARC
  5
310
330
1B
100
AcDbEntity
 67
     1
  8
7_ALL_FEATURES
  6
Continuous
 62
     7
100
AcDbCircle
 10
60.2369506663
 20
203.9568052251
 30
0.0
 40
0.4999999778
100
AcDbArc
 50
181.0006714756
 51
270.0029712203
  0
LINE
  5
311
330
1B
100
AcDbEntity
 67
     1
  8
7_ALL_FEATURES
  6
Continuous
 62
     7
100
AcDbLine
 10
59.4838019899
 20
218.4567998174
 30
0.0
 11
59.4844446458
 21
218.4199820851
 31
0.0
  0
LINE
  5
312
330
1B
100
AcDbEntity
 67
     1
  8
7_ALL_FEATURES
  6
Continuous
 62
     7
100
AcDbLine
 10
59.5278707175
 20
215.9321041066
 30
0.0
 11
59.6878894457
 21
206.7646373062
 31
0.0
  0
LWPOLYLINE
  5
313
330
1B
100
AcDbEntity
 67
     1
  8
7_ALL_FEATURES
  6
Continuous
 62
     7
100
AcDbPolyline
 90
        4
 70
     0
 43
0.0
 10
59.4844446457
 20
218.4199820911
 10
59.4940182271
 20
217.8708880686
 10
59.5101921286
 20
216.9447740248
 10
59.5271633584
 20
215.972628682
  0
LINE
  5
314
330
1B
100
AcDbEntity
 67
     1
  8
7_ALL_FEATURES
  6
Continuous
 62
     7
100
AcDbLine
 10
59.5271633584
 20
215.972628682
 30
0.0
 11
59.5278708364
 21
215.9321029542
 31
0.0
  0
LINE
  5
315
330
1B
100
AcDbEntity
 67
     1
  8
7_ALL_FEATURES
  6
Continuous
 62
     7
100
AcDbLine
 10
59.4844446458
 20
218.4199820851
 30
0.0
 11
59.5271633584
 21
215.972628682
 31
0.0
  0
LINE
  5
316
330
1B
100
AcDbEntity
 67
     1
  8
7_ALL_FEATURES
  6
Continuous
 62
     7
100
AcDbLine
 10
59.5271633584
 20
215.972628682
 30
0.0
 11
59.5278707175
 21
215.9321041066
 31
0.0
  0
LINE
  5
317
330
1B
100
AcDbEntity
 67
     1
  8
7_ALL_FEATURES
  6
Continuous
 62
     7
100
AcDbLine
 10
105.6350257179
 20
206.7628582197
 30
0.0
 11
105.6394893224
 21
207.0171783012
 31
0.0
  0
LINE
  5
318
330
1B
100
AcDbEntity
 67
     1
  8
7_ALL_FEATURES
  6
Continuous
 62
     7
100
AcDbLine
 10
105.6394893224
 20
207.0171783012
 30
0.0
 11
105.6445243034
 21
207.3040533527
 31
0.0
  0
LWPOLYLINE
  5
319
330
1B
100
AcDbEntity
 67
     1
  8
7_ALL_FEATURES
  6
Continuous
 62
     7
100
AcDbPolyline
 90
        4
 70
     0
 43
0.0
 10
105.6445243034
 20
207.3040533527
 10
105.6790710966
 20
209.2724049941
 10
105.7209126513
 20
211.6599687475
 10
105.7476403999
 20
213.2003477251
  0
LWPOLYLINE
  5
31A
330
1B
100
AcDbEntity
 67
     1
  8
7_ALL_FEATURES
  6
Continuous
 62
     7
100
AcDbPolyline
 90
        3
 70
     0
 43
0.0
 10
105.7476403999
 20
213.2003477251
 10
105.7595297398
 20
213.8855565467
 10
105.7951347792
 20
215.935509097
  0
LINE
  5
31B
330
1B
100
AcDbEntity
 67
     1
  8
7_ALL_FEATURES
  6
Continuous
 62
     7
100
AcDbLine
 10
105.6350257202
 20
206.7628583561
 30
0.0
 11
105.6345561826
 21
206.735958565
 31
0.0
  0
LINE
  5
31C
330
1B
100
AcDbEntity
 67
     1
  8
7_ALL_FEATURES
  6
Continuous
 62
     7
100
AcDbLine
 10
105.7951347792
 20
215.935509097
 30
0.0
 11
105.7962052505
 21
215.9968274617
 31
0.0
  0
LWPOLYLINE
  5
31D
330
1B
100
AcDbEntity
 67
     1
  8
7_ALL_FEATURES
  6
Continuous
 62
     7
100
AcDbPolyline
 90
        4
 70
     0
 43
0.0
 10
105.7962052505
 20
215.9968274617
 10
105.8127918859
 20
216.9469373551
 10
105.828945901
 20
217.8719150397
 10
105.8385054442
 20
218.4202039332
  0
LINE
  5
31E
330
1B
100
AcDbEntity
 67
     1
  8
7_ALL_FEATURES
  6
Continuous
 62
     7
100
AcDbLine
 10
105.6345561826
 20
206.735958565
 30
0.0
 11
105.6168728617
 21
205.7228817878
 31
0.0
  0
LINE
  5
31F
330
1B
100
AcDbEntity
 67
     1
  8
7_ALL_FEATURES
  6
Continuous
 62
     7
100
AcDbLine
 10
105.6168728617
 20
205.7228817878
 30
0.0
 11
105.5858934698
 21
203.9480736142
 31
0.0
  0
LINE
  5
320
330
1B
100
AcDbEntity
 67
     1
  8
7_ALL_FEATURES
  6
Continuous
 62
     7
100
AcDbLine
 10
105.7951349661
 20
215.935510909
 30
0.0
 11
105.7473925902
 21
213.200352025
 31
0.0
  0
LINE
  5
321
330
1B
100
AcDbEntity
 67
     1
  8
7_ALL_FEATURES
  6
Continuous
 62
     7
100
AcDbLine
 10
105.7473925902
 20
213.200352025
 30
0.0
 11
105.64447233
 21
207.3040542649
 31
0.0
  0
LINE
  5
322
330
1B
100
AcDbEntity
 67
     1
  8
7_ALL_FEATURES
  6
Continuous
 62
     7
100
AcDbLine
 10
105.64447233
 20
207.3040542649
 30
0.0
 11
105.6394648989
 21
207.0171787298
 31
0.0
  0
LINE
  5
323
330
1B
100
AcDbEntity
 67
     1
  8
7_ALL_FEATURES
  6
Continuous
 62
     7
100
AcDbLine
 10
105.6394648989
 20
207.0171787298
 30
0.0
 11
105.6350257202
 21
206.7628583561
 31
0.0
  0
LINE
  5
324
330
1B
100
AcDbEntity
 67
     1
  8
7_ALL_FEATURES
  6
Continuous
 62
     7
100
AcDbLine
 10
105.5858934698
 20
203.9480736142
 30
0.0
 11
105.6168728617
 21
205.7228817878
 31
0.0
  0
LINE
  5
325
330
1B
100
AcDbEntity
 67
     1
  8
7_ALL_FEATURES
  6
Continuous
 62
     7
100
AcDbLine
 10
105.7974171051
 20
218.4567998174
 30
0.0
 11
105.8391407205
 21
218.4567998174
 31
0.0
  0
LINE
  5
326
330
1B
100
AcDbEntity
 67
     1
  8
7_ALL_FEATURES
  6
Continuous
 62
     7
100
AcDbLine
 10
105.8391407205
 20
218.4567998174
 30
0.0
 11
106.7577189025
 21
218.4567998174
 31
0.0
  0
LINE
  5
327
330
1B
100
AcDbEntity
 67
     1
  8
7_ALL_FEATURES
  6
Continuous
 62
     7
100
AcDbLine
 10
57.5071572818
 20
248.3739058356
 30
0.0
 11
63.2215614975
 21
226.4567998174
 31
0.0
  0
LINE
  5
328
330
1B
100
AcDbEntity
 67
     1
  8
7_ALL_FEATURES
  6
Continuous
 62
     7
100
AcDbLine
 10
63.2215614975
 20
226.4567998174
 30
0.0
 11
63.9286682787
 21
226.4567998173
 31
0.0
  0
LINE
  5
329
330
1B
100
AcDbEntity
 67
     1
  8
7_ALL_FEATURES
  6
Continuous
 62
     7
100
AcDbLine
 10
81.9701995748
 20
248.374575901
 30
0.0
 11
82.1614731088
 21
226.4567998174
 31
0.0
  0
LINE
  5
32A
330
1B
100
AcDbEntity
 67
     1
  8
7_ALL_FEATURES
  6
Continuous
 62
     7
100
AcDbLine
 10
82.1614731088
 20
226.4567998174
 30
0.0
 11
83.1614731088
 21
226.4567998173
 31
0.0
  0
LINE
  5
32B
330
1B
100
AcDbEntity
 67
     1
  8
7_ALL_FEATURES
  6
Continuous
 62
     7
100
AcDbLine
 10
83.1614731088
 20
226.4567998173
 30
0.0
 11
83.3527466429
 21
248.374575901
 31
0.0
  0
LINE
  5
32C
330
1B
100
AcDbEntity
 67
     1
  8
7_ALL_FEATURES
  6
Continuous
 62
     7
100
AcDbLine
 10
101.394277939
 20
226.4567998174
 30
0.0
 11
102.1013847202
 21
226.4567998173
 31
0.0
  0
LINE
  5
32D
330
1B
100
AcDbEntity
 67
     1
  8
7_ALL_FEATURES
  6
Continuous
 62
     7
100
AcDbLine
 10
102.1013847202
 20
226.4567998173
 30
0.0
 11
107.8159904482
 21
248.374575901
 31
0.0
  0
LINE
  5
32E
330
1B
100
AcDbEntity
 67
     1
  8
7_ALL_FEATURES
  6
Continuous
 62
     7
100
AcDbLine
 10
57.6081641413
 20
226.4567998174
 30
0.0
 11
55.669286457
 21
226.4567998174
 31
0.0
  0
LINE
  5
32F
330
1B
100
AcDbEntity
 67
     1
  8
7_ALL_FEATURES
  6
Continuous
 62
     7
100
AcDbLine
 10
117.5440052956
 20
248.3744263025
 30
0.0
 11
109.6536597609
 21
226.4567998174
 31
0.0
  0
LINE
  5
330
330
1B
100
AcDbEntity
 67
     1
  8
7_ALL_FEATURES
  6
Continuous
 62
     7
100
AcDbLine
 10
118.8612813682
 20
323.4567998174
 30
0.0
 11
118.7646577595
 21
323.4567998174
 31
0.0
  0
LINE
  5
331
330
1B
100
AcDbEntity
 67
     1
  8
7_ALL_FEATURES
  6
Continuous
 62
     7
100
AcDbLine
 10
46.4624625535
 20
323.4567998174
 30
0.0
 11
47.9114731089
 21
323.4567998174
 31
0.0
  0
LINE
  5
332
330
1B
100
AcDbEntity
 67
     1
  8
7_ALL_FEATURES
  6
Continuous
 62
     7
100
AcDbLine
 10
47.9114731089
 20
323.4567998174
 30
0.0
 11
47.9626500434
 21
323.4567998174
 31
0.0
  0
LINE
  5
333
330
1B
100
AcDbEntity
 67
     1
  8
7_ALL_FEATURES
  6
Continuous
 62
     7
100
AcDbLine
 10
47.9626500434
 20
323.4567998174
 30
0.0
 11
48.1475480257
 21
323.4567998174
 31
0.0
  0
LINE
  5
334
330
1B
100
AcDbEntity
 67
     1
  8
7_ALL_FEATURES
  6
Continuous
 62
     7
100
AcDbLine
 10
48.1475480257
 20
323.4567998174
 30
0.0
 11
64.6614731089
 21
323.4567998174
 31
0.0
  0
LINE
  5
335
330
1B
100
AcDbEntity
 67
     1
  8
7_ALL_FEATURES
  6
Continuous
 62
     7
100
AcDbLine
 10
64.6614731089
 20
323.4567998174
 30
0.0
 11
100.6614731089
 21
323.4567998174
 31
0.0
  0
LINE
  5
336
330
1B
100
AcDbEntity
 67
     1
  8
7_ALL_FEATURES
  6
Continuous
 62
     7
100
AcDbLine
 10
100.6614731089
 20
323.4567998174
 30
0.0
 11
117.2684883836
 21
323.4567998174
 31
0.0
  0
LINE
  5
337
330
1B
100
AcDbEntity
 67
     1
  8
7_ALL_FEATURES
  6
Continuous
 62
     7
100
AcDbLine
 10
117.2684883836
 20
323.4567998174
 30
0.0
 11
117.3612446198
 21
323.4567998174
 31
0.0
  0
LINE
  5
338
330
1B
100
AcDbEntity
 67
     1
  8
7_ALL_FEATURES
  6
Continuous
 62
     7
100
AcDbLine
 10
117.3612446198
 20
323.4567998174
 30
0.0
 11
117.4114731089
 21
323.4567998174
 31
0.0
  0
LINE
  5
339
330
1B
100
AcDbEntity
 67
     1
  8
7_ALL_FEATURES
  6
Continuous
 62
     7
100
AcDbLine
 10
117.4114731089
 20
323.4567998174
 30
0.0
 11
118.7646577595
 21
323.4567998174
 31
0.0
  0
LINE
  5
33A
330
1B
100
AcDbEntity
 67
     1
  8
7_ALL_FEATURES
  6
Continuous
 62
     7
100
AcDbLine
 10
46.4617120353
 20
323.4568039878
 30
0.0
 11
46.7497249404
 21
306.9564467678
 31
0.0
  0
LINE
  5
33B
330
1B
100
AcDbEntity
 67
     1
  8
7_ALL_FEATURES
  6
Continuous
 62
     7
100
AcDbLine
 10
46.7699512714
 20
306.9567998174
 30
0.0
 11
56.2253777985
 21
306.9567998174
 31
0.0
  0
LINE
  5
33C
330
1B
100
AcDbEntity
 67
     1
  8
7_ALL_FEATURES
  6
Continuous
 62
     7
100
AcDbLine
 10
56.2253777985
 20
306.9567998174
 30
0.0
 11
56.4317956696
 21
306.9567998174
 31
0.0
  0
SPLINE
  5
33D
330
1B
100
AcDbEntity
 67
     1
  8
7_ALL_FEATURES
  6
Continuous
 62
     7
100
AcDbSpline
 70
     0
 71
     3
 72
     8
 73
     4
 74
     0
 42
0.000000001
 43
0.0000001
 40
0.0
 40
0.0
 40
0.0
 40
0.0
 40
1.0
 40
1.0
 40
1.0
 40
1.0
 10
56.4317956698
 20
306.9567998174
 30
0.0
 10
56.7894156144
 20
287.429153254
 30
0.0
 10
57.1479495983
 20
267.9015234197
 30
0.0
 10
57.5071304771
 20
248.3739055048
 30
0.0
  0
LINE
  5
33E
330
1B
100
AcDbEntity
 67
     1
  8
7_ALL_FEATURES
  6
Continuous
 62
     7
100
AcDbLine
 10
58.1324056622
 20
306.9567998174
 30
0.0
 11
67.0127732746
 21
306.9567998174
 31
0.0
  0
LINE
  5
33F
330
1B
100
AcDbEntity
 67
     1
  8
7_ALL_FEATURES
  6
Continuous
 62
     7
100
AcDbLine
 10
67.0127732746
 20
306.9567998174
 30
0.0
 11
70.2898055979
 21
306.9567998174
 31
0.0
  0
LINE
  5
340
330
1B
100
AcDbEntity
 67
     1
  8
7_ALL_FEATURES
  6
Continuous
 62
     7
100
AcDbLine
 10
81.5942267024
 20
291.4567998177
 30
0.0
 11
81.9701995747
 21
248.374575901
 31
0.0
  0
LINE
  5
341
330
1B
100
AcDbEntity
 67
     1
  8
7_ALL_FEATURES
  6
Continuous
 62
     7
100
AcDbLine
 10
83.352746643
 20
248.374575901
 30
0.0
 11
83.7287195152
 21
291.4567998177
 31
0.0
  0
LINE
  5
342
330
1B
100
AcDbEntity
 67
     1
  8
7_ALL_FEATURES
  6
Continuous
 62
     7
100
AcDbLine
 10
109.6536597609
 20
226.4567998174
 30
0.0
 11
107.7147820763
 21
226.4567998174
 31
0.0
  0
SPLINE
  5
343
330
1B
100
AcDbEntity
 67
     1
  8
7_ALL_FEATURES
  6
Continuous
 62
     7
100
AcDbSpline
 70
     0
 71
     3
 72
     8
 73
     4
 74
     0
 42
0.000000001
 43
0.0000001
 40
0.0
 40
0.0
 40
0.0
 40
0.0
 40
1.0
 40
1.0
 40
1.0
 40
1.0
 10
107.8159904482
 20
248.374575901
 30
0.0
 10
108.1751670879
 20
267.9019693594
 30
0.0
 10
108.5335347139
 20
287.4293777128
 30
0.0
 10
108.8911505479
 20
306.9567998174
 30
0.0
  0
LINE
  5
344
330
1B
100
AcDbEntity
 67
     1
  8
7_ALL_FEATURES
  6
Continuous
 62
     7
100
AcDbLine
 10
108.891150548
 20
306.9567998174
 30
0.0
 11
109.0975684192
 21
306.9567998174
 31
0.0
  0
LINE
  5
345
330
1B
100
AcDbEntity
 67
     1
  8
7_ALL_FEATURES
  6
Continuous
 62
     7
100
AcDbLine
 10
109.0975684192
 20
306.9567998174
 30
0.0
 11
118.552994961
 21
306.9567998174
 31
0.0
  0
LINE
  5
346
330
1B
100
AcDbEntity
 67
     1
  8
7_ALL_FEATURES
  6
Continuous
 62
     7
100
AcDbLine
 10
101.394277939
 20
226.4567998174
 30
0.0
 11
100.0228915498
 21
226.4567998174
 31
0.0
  0
LINE
  5
347
330
1B
100
AcDbEntity
 67
     1
  8
7_ALL_FEATURES
  6
Continuous
 62
     7
100
AcDbLine
 10
118.8612341869
 20
323.4568039878
 30
0.0
 11
118.5732212818
 21
306.956446768
 31
0.0
  0
LINE
  5
348
330
1B
100
AcDbEntity
 67
     1
  8
7_ALL_FEATURES
  6
Continuous
 62
     7
100
AcDbLine
 10
95.0327893639
 20
306.9567998174
 30
0.0
 11
98.31020334
 21
306.9567998174
 31
0.0
  0
LINE
  5
349
330
1B
100
AcDbEntity
 67
     1
  8
7_ALL_FEATURES
  6
Continuous
 62
     7
100
AcDbLine
 10
98.31020334
 20
306.9567998174
 30
0.0
 11
98.4319676584
 21
306.9567998174
 31
0.0
  0
LINE
  5
34A
330
1B
100
AcDbEntity
 67
     1
  8
7_ALL_FEATURES
  6
Continuous
 62
     7
100
AcDbLine
 10
98.4319676584
 20
306.9567998174
 30
0.0
 11
104.7077692846
 21
306.9567998174
 31
0.0
  0
LINE
  5
34B
330
1B
100
AcDbEntity
 67
     1
  8
7_ALL_FEATURES
  6
Continuous
 62
     7
100
AcDbLine
 10
104.7077692846
 20
306.9567998174
 30
0.0
 11
107.1902218602
 21
306.9567998174
 31
0.0
  0
LINE
  5
34C
330
1B
100
AcDbEntity
 67
     1
  8
7_ALL_FEATURES
  6
Continuous
 62
     7
100
AcDbLine
 10
55.6692864568
 20
226.4567998173
 30
0.0
 11
47.7789409219
 21
248.3744263032
 31
0.0
  0
LINE
  5
34D
330
1B
100
AcDbEntity
 67
     1
  8
7_ALL_FEATURES
  6
Continuous
 62
     7
100
AcDbLine
 10
65.3000546679
 20
226.4567998174
 30
0.0
 11
63.9286682789
 21
226.4567998174
 31
0.0
  0
LINE
  5
34E
330
1B
100
AcDbEntity
 67
     1
  8
7_ALL_FEATURES
  6
Continuous
 62
     7
100
AcDbLine
 10
94.5743923045
 20
291.4567998174
 30
0.0
 11
83.728719549
 21
291.4567998174
 31
0.0
  0
LINE
  5
34F
330
1B
100
AcDbEntity
 67
     1
  8
7_ALL_FEATURES
  6
Continuous
 62
     7
100
AcDbLine
 10
94.5743923045
 20
291.4567998174
 30
0.0
 11
97.9141446889
 21
291.4567998174
 31
0.0
  0
LINE
  5
350
330
1B
100
AcDbEntity
 67
     1
  8
7_ALL_FEATURES
  6
Continuous
 62
     7
100
AcDbLine
 10
81.5942266731
 20
291.4567998174
 30
0.0
 11
70.748544544
 21
291.4567998174
 31
0.0
  0
LINE
  5
351
330
1B
100
AcDbEntity
 67
     1
  8
7_ALL_FEATURES
  6
Continuous
 62
     7
100
AcDbLine
 10
70.748544544
 20
291.4567998174
 30
0.0
 11
67.4091660752
 21
291.4567998174
 31
0.0
  0
LINE
  5
352
330
1B
100
AcDbEntity
 67
     1
  8
7_ALL_FEATURES
  6
Continuous
 62
     9
100
AcDbLine
 10
70.2901503175
 20
306.9567892431
 30
0.0
 11
70.7345313673
 21
291.4567529768
 31
0.0
  0
LWPOLYLINE
  5
353
330
1B
100
AcDbEntity
 67
     1
  8
7_ALL_FEATURES
  6
Continuous
 62
     9
100
AcDbPolyline
 90
        4
 70
     0
 43
0.0
 10
70.2901503175
 20
306.9567892431
 10
70.4390314417
 20
301.7877804267
 10
70.5874706653
 20
296.6211572067
 10
70.7354293063
 20
291.4567998174
  0
SPLINE
  5
354
330
1B
100
AcDbEntity
 67
     1
  8
7_ALL_FEATURES
  6
Continuous
 62
     7
100
AcDbSpline
 70
     0
 71
     3
 72
    15
 73
    11
 74
     0
 42
0.000000001
 43
0.0000001
 40
0.0
 40
0.0
 40
0.0
 40
0.0
 40
0.0524072872
 40
0.1275949807
 40
0.2232665222
 40
0.339277414
 40
0.4779438583
 40
0.6400293762
 40
0.815956925
 40
1.0
 40
1.0
 40
1.0
 40
1.0
 10
59.5442271566
 20
218.4567998175
 30
0.0
 10
59.5686793938
 20
218.4567998175
 30
0.0
 10
59.6271861293
 20
218.4730398439
 30
0.0
 10
59.7239837513
 20
218.5100345434
 30
0.0
 10
59.8494723198
 20
218.5571912992
 30
0.0
 10
60.0016598541
 20
218.616732823
 30
0.0
 10
60.1782581732
 20
218.6986841702
 30
0.0
 10
60.3725909222
 20
218.8068911846
 30
0.0
 10
60.5955017925
 20
218.9067883921
 30
0.0
 10
60.7636743171
 20
218.9383763155
 30
0.0
 10
60.8495428497
 20
218.9390241691
 30
0.0
  0
ARC
  5
355
330
1B
100
AcDbEntity
 67
     1
  8
7_ALL_FEATURES
  6
Continuous
 62
     7
100
AcDbCircle
 10
85.0741361938
 20
153.0292034803
 30
0.0
 40
95.3958828492
100
AcDbArc
 50
91.4492236641
 51
91.8645863703
  0
ARC
  5
356
330
1B
100
AcDbEntity
 67
     1
  8
7_ALL_FEATURES
  6
Continuous
 62
     7
100
AcDbCircle
 10
78.6234966345
 20
96.8428150593
 30
0.0
 40
151.6055419483
100
AcDbArc
 50
88.2124002369
 51
88.4737592535
  0
SPLINE
  5
357
330
1B
100
AcDbEntity
 67
     1
  8
7_ALL_FEATURES
  6
Continuous
 62
     9
100
AcDbSpline
 70
     0
 71
     3
 72
    18
 73
    14
 74
     0
 42
0.000000001
 43
0.0000001
 40
0.0
 40
0.0
 40
0.0
 40
0.0
 40
0.0042966539
 40
0.0166530287
 40
0.0370131417
 40
0.0652785823
 40
0.1013620339
 40
0.1452291543
 40
0.2562284044
 40
0.3979749903
 40
0.5696573198
 40
0.7704462405
 40
1.0
 40
1.0
 40
1.0
 40
1.0
 10
59.7370527478
 20
203.9480736142
 30
0.0
 10
59.7371033704
 20
203.9460666099
 30
0.0
 10
59.7490882981
 20
203.9474241068
 30
0.0
 10
59.7623466174
 20
203.9441387548
 30
0.0
 10
59.7930737277
 20
203.9443944188
 30
0.0
 10
59.8316635481
 20
203.9430079305
 30
0.0
 10
59.8826012733
 20
203.942550016
 30
0.0
 10
59.9716434373
 20
203.9417583279
 30
0.0
 10
60.1103546171
 20
203.941572888
 30
0.0
 10
60.3086212277
 20
203.9420139524
 30
0.0
 10
60.5489082105
 20
203.9432747265
 30
0.0
 10
60.8301953305
 20
203.9453027822
 30
0.0
 10
61.0312699878
 20
203.9470719258
 30
0.0
 10
61.1385259146
 20
203.948079269
 30
0.0
  0
SPLINE
  5
358
330
1B
100
AcDbEntity
 67
     1
  8
7_ALL_FEATURES
  6
Continuous
 62
     7
100
AcDbSpline
 70
     0
 71
     3
 72
    10
 73
     6
 74
     0
 42
0.000000001
 43
0.0000001
 40
0.0
 40
0.0
 40
0.0
 40
0.0
 40
0.2361044507
 40
0.4817277631
 40
1.0
 40
1.0
 40
1.0
 40
1.0
 10
103.7502725095
 20
203.4568033483
 30
0.0
 10
103.8065826992
 20
203.4570459486
 30
0.0
 10
103.9227993741
 20
203.4844298631
 30
0.0
 10
104.1159294592
 20
203.6333663604
 30
0.0
 10
104.1829857767
 20
203.824480438
 30
0.0
 10
104.1848730632
 20
203.9480735206
 30
0.0
  0
LINE
  5
359
330
1B
100
AcDbEntity
 67
     1
  8
7_ALL_FEATURES
  6
Continuous
 62
     9
100
AcDbLine
 10
94.5884088313
 20
291.4567532801
 30
0.0
 11
95.0327959047
 21
306.9567892431
 31
0.0
  0
LWPOLYLINE
  5
35A
330
1B
100
AcDbEntity
 67
     1
  8
7_ALL_FEATURES
  6
Continuous
 62
     9
100
AcDbPolyline
 90
        4
 70
     0
 43
0.0
 10
94.5875167071
 20
291.4567998174
 10
94.7354755384
 20
296.6211571657
 10
94.8839147549
 20
301.7877798378
 10
95.0327959047
 20
306.9567892431
  0
SPLINE
  5
35B
330
1B
100
AcDbEntity
 67
     1
  8
7_ALL_FEATURES
  6
Continuous
 62
     7
100
AcDbSpline
 70
     0
 71
     3
 72
     8
 73
     4
 74
     0
 42
0.000000001
 43
0.0000001
 40
0.0
 40
0.0
 40
0.0
 40
0.0
 40
1.0
 40
1.0
 40
1.0
 40
1.0
 10
107.1903680444
 20
306.9568063226
 30
0.0
 10
107.073753617
 20
287.4293919036
 30
0.0
 10
106.9565584004
 20
267.9019809298
 30
0.0
 10
106.8383820409
 20
248.374575901
 30
0.0
  0
SPLINE
  5
35C
330
1B
100
AcDbEntity
 67
     1
  8
7_ALL_FEATURES
  6
Continuous
 62
     7
100
AcDbSpline
 70
     0
 71
     3
 72
     9
 73
     5
 74
     0
 42
0.000000001
 43
0.0000001
 40
0.0
 40
0.0
 40
0.0
 40
0.0
 40
0.5022843267
 40
1.0
 40
1.0
 40
1.0
 40
1.0
 10
106.8383820409
 20
248.374575901
 30
0.0
 10
106.9208888634
 20
248.3811886284
 30
0.0
 10
107.085505635
 20
248.3895349992
 30
0.0
 10
107.2502601793
 20
248.3945416284
 30
0.0
 10
107.3322787011
 20
248.3945721251
 30
0.0
  0
LINE
  5
35D
330
1B
100
AcDbEntity
 67
     1
  8
7_ALL_FEATURES
  6
Continuous
 62
     7
100
AcDbLine
 10
63.9286682787
 20
226.4567998173
 30
0.0
 11
58.4847038059
 21
248.3739058357
 31
0.0
  0
SPLINE
  5
35E
330
1B
100
AcDbEntity
 67
     1
  8
7_ALL_FEATURES
  6
Continuous
 62
     7
100
AcDbSpline
 70
     0
 71
     3
 72
     9
 73
     5
 74
     0
 42
0.000000001
 43
0.0000001
 40
0.0
 40
0.0
 40
0.0
 40
0.0
 40
0.5020242775
 40
1.0
 40
1.0
 40
1.0
 40
1.0
 10
107.3322787011
 20
248.3945721251
 30
0.0
 10
107.4133050115
 20
248.3946022528
 30
0.0
 10
107.574667774
 20
248.3895695214
 30
0.0
 10
107.7358966782
 20
248.3812683044
 30
0.0
 10
107.8159904482
 20
248.374575901
 30
0.0
  0
SPLINE
  5
35F
330
1B
100
AcDbEntity
 67
     1
  8
7_ALL_FEATURES
  6
Continuous
 62
     7
100
AcDbSpline
 70
     0
 71
     3
 72
     8
 73
     4
 74
     0
 42
0.000000001
 43
0.0000001
 40
0.0
 40
0.0
 40
0.0
 40
0.0
 40
1.0
 40
1.0
 40
1.0
 40
1.0
 10
100.0230580331
 20
226.4568073869
 30
0.0
 10
100.1854226542
 20
253.2901264852
 30
0.0
 10
100.3458947352
 20
280.1234571137
 30
0.0
 10
100.5043101683
 20
306.9567998174
 30
0.0
  0
SPLINE
  5
360
330
1B
100
AcDbEntity
 67
     1
  8
7_ALL_FEATURES
  6
Continuous
 62
     7
100
AcDbSpline
 70
     0
 71
     3
 72
     8
 73
     4
 74
     0
 42
0.000000001
 43
0.0000001
 40
0.0
 40
0.0
 40
0.0
 40
0.0
 40
1.0
 40
1.0
 40
1.0
 40
1.0
 10
56.2253777985
 20
306.9568169543
 30
0.0
 10
56.5588404164
 20
287.4275634344
 30
0.0
 10
56.8942550297
 20
267.8983432471
 30
0.0
 10
57.2303458075
 20
248.36913478
 30
0.0
  0
LINE
  5
361
330
1B
100
AcDbEntity
 67
     1
  8
7_ALL_FEATURES
  6
Continuous
 62
     7
100
AcDbLine
 10
57.2303458075
 20
248.36913478
 30
0.0
 11
57.6081637219
 21
226.4568241223
 31
0.0
  0
LINE
  5
362
330
1B
100
AcDbEntity
 67
     1
  8
7_ALL_FEATURES
  6
Continuous
 62
     7
100
AcDbLine
 10
57.2304880803
 20
248.3691372283
 30
0.0
 11
57.6081637219
 21
226.4568241223
 31
0.0
  0
SPLINE
  5
363
330
1B
100
AcDbEntity
 67
     1
  8
7_ALL_FEATURES
  6
Continuous
 62
     9
100
AcDbSpline
 70
     0
 71
     3
 72
    18
 73
    14
 74
     0
 42
0.000000001
 43
0.0000001
 40
0.0
 40
0.0
 40
0.0
 40
0.0
 40
0.2295669703
 40
0.4303619061
 40
0.6020254051
 40
0.7437879713
 40
0.8547623004
 40
0.8986326071
 40
0.9347261487
 40
0.9629897629
 40
0.9833470265
 40
0.9957023072
 40
1.0
 40
1.0
 40
1.0
 40
1.0
 10
104.184602269
 20
203.9480789374
 30
0.0
 10
104.2918506772
 20
203.9470776924
 30
0.0
 10
104.4929086094
 20
203.9453167
 30
0.0
 10
104.7741598736
 20
203.9432901977
 30
0.0
 10
105.0144174897
 20
203.9420251472
 30
0.0
 10
105.2126457312
 20
203.94157344
 30
0.0
 10
105.3513363311
 20
203.9417519215
 30
0.0
 10
105.4403618524
 20
203.9425378241
 30
0.0
 10
105.4912981706
 20
203.9429938879
 30
0.0
 10
105.5298865527
 20
203.9443769036
 30
0.0
 10
105.560604426
 20
203.9441300696
 30
0.0
 10
105.5738638466
 20
203.9474059627
 30
0.0
 10
105.5858429361
 20
203.9460663795
 30
0.0
 10
105.5858934698
 20
203.9480736142
 30
0.0
  0
SPLINE
  5
364
330
1B
100
AcDbEntity
 67
     1
  8
7_ALL_FEATURES
  6
Continuous
 62
     7
100
AcDbSpline
 70
     0
 71
     3
 72
     8
 73
     4
 74
     0
 42
0.000000001
 43
0.0000001
 40
0.0
 40
0.0
 40
0.0
 40
0.0
 40
1.0
 40
1.0
 40
1.0
 40
1.0
 10
118.553326362
 20
306.9568312204
 30
0.0
 10
118.2180252378
 20
287.4295805329
 30
0.0
 10
117.8815742536
 20
267.9023495613
 30
0.0
 10
117.5440688302
 20
248.3751368482
 30
0.0
  0
SPLINE
  5
365
330
1B
100
AcDbEntity
 67
     1
  8
7_ALL_FEATURES
  6
Continuous
 62
     7
100
AcDbSpline
 70
     0
 71
     3
 72
    10
 73
     6
 74
     0
 42
0.000000001
 43
0.0000001
 40
0.0
 40
0.0
 40
0.0
 40
0.0
 40
0.2361241729
 40
0.4817716567
 40
1.0
 40
1.0
 40
1.0
 40
1.0
 10
61.5726025818
 20
203.4568036651
 30
0.0
 10
61.5162980243
 20
203.4570567418
 30
0.0
 10
61.4000976682
 20
203.4844595653
 30
0.0
 10
61.2070190466
 20
203.6333707135
 30
0.0
 10
61.1399747703
 20
203.8245113787
 30
0.0
 10
61.1382551172
 20
203.9480738523
 30
0.0
  0
LINE
  5
366
330
1B
100
AcDbEntity
 67
     1
  8
7_ALL_FEATURES
  6
Continuous
 62
     7
100
AcDbLine
 10
107.7147824958
 20
226.4568241223
 30
0.0
 11
108.0926119617
 21
248.3698081187
 31
0.0
  0
LINE
  5
367
330
1B
100
AcDbEntity
 67
     1
  8
7_ALL_FEATURES
  6
Continuous
 62
     7
100
AcDbLine
 10
107.7147824958
 20
226.4568241223
 30
0.0
 11
108.0924698019
 21
248.369810565
 31
0.0
  0
SPLINE
  5
368
330
1B
100
AcDbEntity
 67
     1
  8
7_ALL_FEATURES
  6
Continuous
 62
     7
100
AcDbSpline
 70
     0
 71
     3
 72
     8
 73
     4
 74
     0
 42
0.000000001
 43
0.0000001
 40
0.0
 40
0.0
 40
0.0
 40
0.0
 40
1.0
 40
1.0
 40
1.0
 40
1.0
 10
108.0926119617
 20
248.3698081187
 30
0.0
 10
108.4286988359
 20
267.8987921404
 30
0.0
 10
108.7641096337
 20
287.4277878809
 30
0.0
 10
109.0975684192
 20
306.9568169543
 30
0.0
  0
SPLINE
  5
369
330
1B
100
AcDbEntity
 67
     1
  8
7_ALL_FEATURES
  6
Continuous
 62
     9
100
AcDbSpline
 70
     0
 71
     3
 72
     9
 73
     5
 74
     0
 42
0.000000001
 43
0.0000001
 40
0.0
 40
0.0
 40
0.0
 40
0.0
 40
0.2499460667
 40
1.0
 40
1.0
 40
1.0
 40
1.0
 10
104.1846022647
 20
203.9480789375
 30
0.0
 10
104.2086996721
 20
205.1970541412
 30
0.0
 10
104.3043118274
 20
210.1940482165
 30
0.0
 10
104.3989797286
 20
215.1910613052
 30
0.0
 10
104.4732536151
 20
218.9390265849
 30
0.0
  0
LINE
  5
36A
330
1B
100
AcDbEntity
 67
     1
  8
7_ALL_FEATURES
  6
Continuous
 62
     7
100
AcDbLine
 10
61.1385259133
 20
203.948079269
 30
0.0
 11
104.1846022647
 21
203.9480789375
 31
0.0
  0
SPLINE
  5
36B
330
1B
100
AcDbEntity
 67
     1
  8
7_ALL_FEATURES
  6
Continuous
 62
     9
100
AcDbSpline
 70
     0
 71
     3
 72
     9
 73
     5
 74
     0
 42
0.000000001
 43
0.0000001
 40
0.0
 40
0.0
 40
0.0
 40
0.0
 40
0.2499458665
 40
1.0
 40
1.0
 40
1.0
 40
1.0
 10
60.8496084465
 20
218.9390267223
 30
0.0
 10
60.8742906006
 20
217.6900635136
 30
0.0
 10
60.9717912501
 20
212.6931039588
 30
0.0
 10
61.0662128499
 20
207.696085169
 30
0.0
 10
61.1385259133
 20
203.948079269
 30
0.0
  0
LINE
  5
36C
330
1B
100
AcDbEntity
 67
     1
  8
7_ALL_FEATURES
  6
Continuous
 62
     7
100
AcDbLine
 10
106.8383820409
 20
248.374575901
 30
0.0
 11
101.394277939
 21
226.4567998174
 31
0.0
  0
SPLINE
  5
36D
330
1B
100
AcDbEntity
 67
     1
  8
7_ALL_FEATURES
  6
Continuous
 62
     7
100
AcDbSpline
 70
     0
 71
     3
 72
     8
 73
     4
 74
     0
 42
0.000000001
 43
0.0000001
 40
0.0
 40
0.0
 40
0.0
 40
0.0
 40
1.0
 40
1.0
 40
1.0
 40
1.0
 10
47.7788773874
 20
248.3751368559
 30
0.0
 10
47.441371964
 20
267.9023495664
 30
0.0
 10
47.1049209799
 20
287.4295805355
 30
0.0
 10
46.7696198558
 20
306.9568312204
 30
0.0
  0
SPLINE
  5
36E
330
1B
100
AcDbEntity
 67
     1
  8
7_ALL_FEATURES
  6
Continuous
 62
     7
100
AcDbSpline
 70
     0
 71
     3
 72
     8
 73
     4
 74
     0
 42
0.000000001
 43
0.0000001
 40
0.0
 40
0.0
 40
0.0
 40
0.0
 40
1.0
 40
1.0
 40
1.0
 40
1.0
 10
64.8186360501
 20
306.9567998174
 30
0.0
 10
64.9770514832
 20
280.1234571137
 30
0.0
 10
65.1375235635
 20
253.2901264852
 30
0.0
 10
65.2998881846
 20
226.4568073869
 30
0.0
  0
SPLINE
  5
36F
330
1B
100
AcDbEntity
 67
     1
  8
7_ALL_FEATURES
  6
Continuous
 62
     7
100
AcDbSpline
 70
     0
 71
     3
 72
    15
 73
    11
 74
     0
 42
0.000000001
 43
0.0000001
 40
0.0
 40
0.0
 40
0.0
 40
0.0
 40
0.1822951436
 40
0.3565061767
 40
0.5158557812
 40
0.6506939904
 40
0.7650657502
 40
0.8653839517
 40
0.9486096776
 40
1.0
 40
1.0
 40
1.0
 40
1.0
 10
104.4733192186
 20
218.9390240413
 30
0.0
 10
104.5594511191
 20
218.9383987708
 30
0.0
 10
104.7281048978
 20
218.9068389943
 30
0.0
 10
104.9514012648
 20
218.8073394478
 30
0.0
 10
105.1445061346
 20
218.6991809936
 30
0.0
 10
105.3187111508
 20
218.6155675569
 30
0.0
 10
105.4722256703
 20
218.554502517
 30
0.0
 10
105.6054925976
 20
218.5087720494
 30
0.0
 10
105.7116531136
 20
218.4770573662
 30
0.0
 10
105.7732790269
 20
218.4598452666
 30
0.0
 10
105.7974066255
 20
218.4571126715
 30
0.0
  0
SPLINE
  5
370
330
1B
100
AcDbEntity
 67
     1
  8
7_ALL_FEATURES
  6
Continuous
 62
     7
100
AcDbSpline
 70
     0
 71
     3
 72
     9
 73
     5
 74
     0
 42
0.000000001
 43
0.0000001
 40
0.0
 40
0.0
 40
0.0
 40
0.0
 40
0.2481009294
 40
1.0
 40
1.0
 40
1.0
 40
1.0
 10
57.5071572818
 20
248.3739058356
 30
0.0
 10
57.5470609949
 20
248.37723991
 30
0.0
 10
57.707981262
 20
248.3897427903
 30
0.0
 10
57.8694894587
 20
248.3938975426
 30
0.0
 10
57.9908437465
 20
248.393897497
 30
0.0
  0
SPLINE
  5
371
330
1B
100
AcDbEntity
 67
     1
  8
7_ALL_FEATURES
  6
Continuous
 62
     7
100
AcDbSpline
 70
     0
 71
     3
 72
    20
 73
    16
 74
     0
 42
0.000000001
 43
0.0000001
 40
0.0
 40
0.0
 40
0.0
 40
0.0
 40
0.2303501267
 40
0.4319743704
 40
0.6039037275
 40
0.7454973231
 40
0.8047469054
 40
0.8562206967
 40
0.8998660792
 40
0.9356325531
 40
0.963482845
 40
0.9834143723
 40
0.9954583177
 40
0.9985819971
 40
1.0
 40
1.0
 40
1.0
 40
1.0
 10
60.8497455605
 20
218.939029571
 30
0.0
 10
60.6104011123
 20
218.9411308941
 30
0.0
 10
60.1615581735
 20
218.9448859207
 30
0.0
 10
59.5340584536
 20
218.9485168899
 30
0.0
 10
58.9987730249
 20
218.9485705306
 30
0.0
 10
58.6114340744
 20
218.9477604911
 30
0.0
 10
58.3492492258
 20
218.9484583111
 30
0.0
 10
58.1888627277
 20
218.949092783
 30
0.0
 10
58.0528179256
 20
218.9492631145
 30
0.0
 10
57.9414826691
 20
218.9485577091
 30
0.0
 10
57.8543813124
 20
218.9462084834
 30
0.0
 10
57.7929985376
 20
218.9430148331
 30
0.0
 10
57.7555154604
 20
218.9385142326
 30
0.0
 10
57.73989169
 20
218.9349330908
 30
0.0
 10
57.7348375307
 20
218.931847112
 30
0.0
 10
57.7348632452
 20
218.930373909
 30
0.0
  0
SPLINE
  5
372
330
1B
100
AcDbEntity
 67
     1
  8
7_ALL_FEATURES
  6
Continuous
 62
     7
100
AcDbSpline
 70
     0
 71
     3
 72
     9
 73
     5
 74
     0
 42
0.000000001
 43
0.0000001
 40
0.0
 40
0.0
 40
0.0
 40
0.0
 40
0.2478289454
 40
1.0
 40
1.0
 40
1.0
 40
1.0
 10
57.9908437465
 20
248.393897497
 30
0.0
 10
58.0316819932
 20
248.3938974816
 30
0.0
 10
58.1964720961
 20
248.3930362596
 30
0.0
 10
58.3611541922
 20
248.3838075778
 30
0.0
 10
58.4847038059
 20
248.3739058357
 30
0.0
  0
SPLINE
  5
373
330
1B
100
AcDbEntity
 67
     1
  8
7_ALL_FEATURES
  6
Continuous
 62
     7
100
AcDbSpline
 70
     0
 71
     3
 72
     8
 73
     4
 74
     0
 42
0.000000001
 43
0.0000001
 40
0.0
 40
0.0
 40
0.0
 40
0.0
 40
1.0
 40
1.0
 40
1.0
 40
1.0
 10
58.4847306106
 20
248.3739055049
 30
0.0
 10
58.3665527971
 20
267.9015325011
 30
0.0
 10
58.249022073
 20
287.4291634342
 30
0.0
 10
58.1324056619
 20
306.9567998174
 30
0.0
  0
SPLINE
  5
374
330
1B
100
AcDbEntity
 67
     1
  8
7_ALL_FEATURES
  6
Continuous
 62
     7
100
AcDbSpline
 70
     0
 71
     3
 72
    22
 73
    18
 74
     0
 42
0.000000001
 43
0.0000001
 40
0.0
 40
0.0
 40
0.0
 40
0.0
 40
0.2304689565
 40
0.4322005275
 40
0.6042501606
 40
0.7459584664
 40
0.8052516086
 40
0.8567611
 40
0.9004385793
 40
0.9362355818
 40
0.9641090997
 40
0.97506763
 40
0.9840380761
 40
0.9910184879
 40
0.9960069142
 40
0.9990014028
 40
1.0
 40
1.0
 40
1.0
 40
1.0
 10
104.4731165107
 20
218.9390294432
 30
0.0
 10
104.7124200533
 20
218.939029444
 30
0.0
 10
105.1611862485
 20
218.9363309968
 30
0.0
 10
105.7885655357
 20
218.9296953769
 30
0.0
 10
106.3238215613
 20
218.9287786406
 30
0.0
 10
106.7111694941
 20
218.9302803806
 30
0.0
 10
106.9733604538
 20
218.9306958159
 30
0.0
 10
107.133760746
 20
218.9306974511
 30
0.0
 10
107.2697702658
 20
218.9305405111
 30
0.0
 10
107.3812203713
 20
218.9303894554
 30
0.0
 10
107.4587393698
 20
218.9302679061
 30
0.0
 10
107.5083296821
 20
218.930353222
 30
0.0
 10
107.5363641704
 20
218.9301742974
 30
0.0
 10
107.5578644037
 20
218.9306778494
 30
0.0
 10
107.5739484266
 20
218.9295946786
 30
0.0
 10
107.5823142032
 20
218.9315429788
 30
0.0
 10
107.5874544448
 20
218.9295492756
 30
0.0
 10
107.588082973
 20
218.9303739363
 30
0.0
  0
ARC
  5
375
330
1B
100
AcDbEntity
 67
     1
  8
02___PRT_ALL_AXES
  6
Continuous
 62
     7
100
AcDbCircle
 10
82.6614731089
 20
99.2034272048
 30
0.0
 40
10.0
100
AcDbArc
 50
270.0
 51
90.0
  0
ARC
  5
376
330
1B
100
AcDbEntity
 67
     1
  8
02___PRT_ALL_AXES
  6
Continuous
 62
     7
100
AcDbCircle
 10
82.6614731089
 20
99.2034272048
 30
0.0
 40
10.0
100
AcDbArc
 50
90.0
 51
270.0
  0
ARC
  5
377
330
1B
100
AcDbEntity
 67
     1
  8
7_ALL_FEATURES
  6
Continuous
 62
     7
100
AcDbCircle
 10
82.6614731089
 20
99.2034272048
 30
0.0
 40
6.5
100
AcDbArc
 50
0.0
 51
180.0
  0
ARC
  5
378
330
1B
100
AcDbEntity
 67
     1
  8
7_ALL_FEATURES
  6
Continuous
 62
     7
100
AcDbCircle
 10
82.6614731089
 20
99.2034272048
 30
0.0
 40
6.5
100
AcDbArc
 50
180.0
 51
360.0
  0
ARC
  5
379
330
1B
100
AcDbEntity
 67
     1
  8
02___PRT_ALL_AXES
  6
Continuous
 62
     7
100
AcDbCircle
 10
82.6614731089
 20
99.203427205
 30
0.0
 40
16.0
100
AcDbArc
 50
0.0
 51
180.0
  0
ARC
  5
37A
330
1B
100
AcDbEntity
 67
     1
  8
7_ALL_FEATURES
  6
Continuous
 62
     7
100
AcDbCircle
 10
82.6614731089
 20
99.203427205
 30
0.0
 40
34.75
100
AcDbArc
 50
180.0
 51
360.0
  0
ARC
  5
37B
330
1B
100
AcDbEntity
 67
     1
  8
7_ALL_FEATURES
  6
Continuous
 62
     7
100
AcDbCircle
 10
82.6614731089
 20
99.203427205
 30
0.0
 40
34.75
100
AcDbArc
 50
0.0
 51
180.0
  0
ARC
  5
37C
330
1B
100
AcDbEntity
 67
     1
  8
7_ALL_FEATURES
  6
Continuous
 62
     7
100
AcDbCircle
 10
82.6614731089
 20
99.203427205
 30
0.0
 40
13.15
100
AcDbArc
 50
0.0
 51
180.0
  0
ARC
  5
37D
330
1B
100
AcDbEntity
 67
     1
  8
02___PRT_ALL_AXES
  6
Continuous
 62
     7
100
AcDbCircle
 10
82.6614731089
 20
99.203427205
 30
0.0
 40
16.0
100
AcDbArc
 50
180.0
 51
360.0
  0
ARC
  5
37E
330
1B
100
AcDbEntity
 67
     1
  8
7_ALL_FEATURES
  6
Continuous
 62
     7
100
AcDbCircle
 10
82.6614731089
 20
99.203427205
 30
0.0
 40
13.15
100
AcDbArc
 50
180.0
 51
360.0
  0
ARC
  5
37F
330
1B
100
AcDbEntity
 67
     1
  8
7_ALL_FEATURES
  6
Continuous
 62
     9
100
AcDbCircle
 10
82.6614731089
 20
99.203427205
 30
0.0
 40
18.0
100
AcDbArc
 50
180.0
 51
360.0
  0
ARC
  5
380
330
1B
100
AcDbEntity
 67
     1
  8
7_ALL_FEATURES
  6
Continuous
 62
     9
100
AcDbCircle
 10
82.6614731089
 20
99.203427205
 30
0.0
 40
18.0
100
AcDbArc
 50
0.0
 51
180.0
  0
ARC
  5
381
330
1B
100
AcDbEntity
 67
     1
  8
7_ALL_FEATURES
  6
Continuous
 62
     9
100
AcDbCircle
 10
82.6614731089
 20
99.203427205
 30
0.0
 40
14.9107860213
100
AcDbArc
 50
180.0
 51
360.0
  0
ARC
  5
382
330
1B
100
AcDbEntity
 67
     1
  8
7_ALL_FEATURES
  6
Continuous
 62
     9
100
AcDbCircle
 10
82.6614731089
 20
99.203427205
 30
0.0
 40
14.9107860213
100
AcDbArc
 50
0.0
 51
180.0
  0
ARC
  5
383
330
1B
100
AcDbEntity
 67
     1
  8
7_ALL_FEATURES
  6
Continuous
 62
     9
100
AcDbCircle
 10
82.6614731089
 20
99.203427205
 30
0.0
 40
13.1986596563
100
AcDbArc
 50
180.0
 51
360.0
  0
ARC
  5
384
330
1B
100
AcDbEntity
 67
     1
  8
7_ALL_FEATURES
  6
Continuous
 62
     9
100
AcDbCircle
 10
82.6614731089
 20
99.203427205
 30
0.0
 40
14.6137056007
100
AcDbArc
 50
0.0
 51
180.0
  0
ARC
  5
385
330
1B
100
AcDbEntity
 67
     1
  8
7_ALL_FEATURES
  6
Continuous
 62
     9
100
AcDbCircle
 10
82.6614731089
 20
99.203427205
 30
0.0
 40
13.1986596563
100
AcDbArc
 50
0.0
 51
180.0
  0
ARC
  5
386
330
1B
100
AcDbEntity
 67
     1
  8
7_ALL_FEATURES
  6
Continuous
 62
     9
100
AcDbCircle
 10
82.6614731089
 20
99.203427205
 30
0.0
 40
14.6137056007
100
AcDbArc
 50
180.0
 51
360.0
  0
ARC
  5
387
330
1B
100
AcDbEntity
 67
     1
  8
7_ALL_FEATURES
  6
Continuous
 62
     7
100
AcDbCircle
 10
82.6614731111
 20
99.2034272055
 30
0.0
 40
36.1997610882
100
AcDbArc
 50
355.7942269419
 51
0.0040910589
  0
ARC
  5
388
330
1B
100
AcDbEntity
 67
     1
  8
7_ALL_FEATURES
  6
Continuous
 62
     7
100
AcDbCircle
 10
82.6614731111
 20
99.2034272018
 30
0.0
 40
36.199761003
100
AcDbArc
 50
0.0040910646
 51
179.9999988286
  0
ARC
  5
389
330
1B
100
AcDbEntity
 67
     1
  8
7_ALL_FEATURES
  6
Continuous
 62
     7
100
AcDbCircle
 10
82.6614731111
 20
99.2034272055
 30
0.0
 40
36.1997610021
100
AcDbArc
 50
179.9999988344
 51
355.7942269419
  0
ARC
  5
38A
330
1B
100
AcDbEntity
 67
     1
  8
7_ALL_FEATURES
  6
Continuous
 62
     7
100
AcDbCircle
 10
82.6614731089
 20
99.203427202
 30
0.0
 40
34.6997715299
100
AcDbArc
 50
1.6537728044
 51
4.2068707903
  0
ARC
  5
38B
330
1B
100
AcDbEntity
 67
     1
  8
7_ALL_FEATURES
  6
Continuous
 62
     7
100
AcDbCircle
 10
82.6614731089
 20
99.203427202
 30
0.0
 40
34.6997715299
100
AcDbArc
 50
0.0000000563
 51
1.6537728044
  0
ARC
  5
38C
330
1B
100
AcDbEntity
 67
     1
  8
7_ALL_FEATURES
  6
Continuous
 62
     7
100
AcDbCircle
 10
82.6614731089
 20
99.2034272054
 30
0.0
 40
34.6995424155
100
AcDbArc
 50
342.9421991538001
 51
360.0
  0
ARC
  5
38D
330
1B
100
AcDbEntity
 67
     1
  8
7_ALL_FEATURES
  6
Continuous
 62
     7
100
AcDbCircle
 10
82.6614731089
 20
99.2034272054
 30
0.0
 40
34.6995424155
100
AcDbArc
 50
197.0502776673
 51
342.9421991538001
  0
ARC
  5
38E
330
1B
100
AcDbEntity
 67
     1
  8
7_ALL_FEATURES
  6
Continuous
 62
     7
100
AcDbCircle
 10
82.6614731089
 20
99.2034272054
 30
0.0
 40
34.6995424155
100
AcDbArc
 50
180.0000011714
 51
197.0502776673
  0
ARC
  5
38F
330
1B
100
AcDbEntity
 67
     1
  8
7_ALL_FEATURES
  6
Continuous
 62
     7
100
AcDbCircle
 10
82.6614731089
 20
99.203427202
 30
0.0
 40
34.6997714383
100
AcDbArc
 50
162.6076891658
 51
180.0000011657
  0
ARC
  5
390
330
1B
100
AcDbEntity
 67
     1
  8
7_ALL_FEATURES
  6
Continuous
 62
     7
100
AcDbCircle
 10
82.6614731089
 20
99.203427202
 30
0.0
 40
34.6997714383
100
AcDbArc
 50
4.8512122287
 51
162.6076891658
  0
ARC
  5
391
330
1B
100
AcDbEntity
 67
     1
  8
7_ALL_FEATURES
  6
Continuous
 62
     7
100
AcDbCircle
 10
82.6614731089
 20
99.203427202
 30
0.0
 40
34.6997714383
100
AcDbArc
 50
4.2068707903
 51
4.8512122287
  0
LINE
  5
392
330
1B
100
AcDbEntity
 67
     1
  8
02___PRT_ALL_AXES
  6
Continuous
 62
     7
100
AcDbLine
 10
194.8615816634
 20
174.4567998174
 30
0.0
 11
199.4870816634
 21
174.4567998174
 31
0.0
  0
LINE
  5
393
330
1B
100
AcDbEntity
 67
     1
  8
02___PRT_ALL_AXES
  6
Continuous
 62
     7
100
AcDbLine
 10
199.4870816634
 20
174.4567998174
 30
0.0
 11
217.4870816634
 21
174.4567998174
 31
0.0
  0
LINE
  5
394
330
1B
100
AcDbEntity
 67
     1
  8
02___PRT_ALL_AXES
  6
Continuous
 62
     7
100
AcDbLine
 10
217.4870816634
 20
174.4567998174
 30
0.0
 11
222.1125816634
 21
174.4567998174
 31
0.0
  0
LINE
  5
395
330
1B
100
AcDbEntity
 67
     1
  8
02___PRT_ALL_AXES
  6
Continuous
 62
     7
100
AcDbLine
 10
222.1125816634
 20
176.9567998174
 30
0.0
 11
222.1125816634
 21
174.4567998174
 31
0.0
  0
LINE
  5
396
330
1B
100
AcDbEntity
 67
     1
  8
02___PRT_ALL_AXES
  6
Continuous
 62
     7
100
AcDbLine
 10
194.8615816634
 20
176.9567998174
 30
0.0
 11
194.8615816634
 21
174.4567998174
 31
0.0
  0
LINE
  5
397
330
1B
100
AcDbEntity
 67
     1
  8
02___PRT_ALL_AXES
  6
Continuous
 62
     7
100
AcDbLine
 10
195.4155641766
 20
178.4567998174
 30
0.0
 11
194.8615816634
 21
176.9567998174
 31
0.0
  0
LINE
  5
398
330
1B
100
AcDbEntity
 67
     1
  8
02___PRT_ALL_AXES
  6
Continuous
 62
     7
100
AcDbLine
 10
221.5585991502
 20
178.4567998174
 30
0.0
 11
222.1125816634
 21
176.9567998174
 31
0.0
  0
LINE
  5
399
330
1B
100
AcDbEntity
 67
     1
  8
02___PRT_ALL_AXES
  6
Continuous
 62
     7
100
AcDbLine
 10
194.5395370091
 20
197.6567998174
 30
0.0
 11
193.5152313559
 21
197.6567998174
 31
0.0
  0
LINE
  5
39A
330
1B
100
AcDbEntity
 67
     1
  8
02___PRT_ALL_AXES
  6
Continuous
 62
     7
100
AcDbLine
 10
199.3010759887
 20
197.6567998174
 30
0.0
 11
196.5026209019
 21
197.6567998174
 31
0.0
  0
LINE
  5
39B
330
1B
100
AcDbEntity
 67
     1
  8
02___PRT_ALL_AXES
  6
Continuous
 62
     7
100
AcDbLine
 10
223.4589319709
 20
197.6567998174
 30
0.0
 11
222.4346263178
 21
197.6567998174
 31
0.0
  0
LINE
  5
39C
330
1B
100
AcDbEntity
 67
     1
  8
02___PRT_ALL_AXES
  6
Continuous
 62
     7
100
AcDbLine
 10
206.5239977706
 20
197.6567998174
 30
0.0
 11
202.7012370307
 21
197.6567998174
 31
0.0
  0
LINE
  5
39D
330
1B
100
AcDbEntity
 67
     1
  8
02___PRT_ALL_AXES
  6
Continuous
 62
     7
100
AcDbLine
 10
220.4715424249
 20
197.6567998174
 30
0.0
 11
217.6730873381
 21
197.6567998174
 31
0.0
  0
LINE
  5
39E
330
1B
100
AcDbEntity
 67
     1
  8
02___PRT_ALL_AXES
  6
Continuous
 62
     7
100
AcDbLine
 10
214.2729262962
 20
197.6567998174
 30
0.0
 11
210.4501655563
 21
197.6567998174
 31
0.0
  0
LINE
  5
39F
330
1B
100
AcDbEntity
 67
     1
  8
02___PRT_ALL_AXES
  6
Continuous
 62
     7
100
AcDbLine
 10
199.9150816634
 20
197.9567998174
 30
0.0
 11
199.9150816634
 21
197.6567998174
 31
0.0
  0
LINE
  5
3A0
330
1B
100
AcDbEntity
 67
     1
  8
02___PRT_ALL_AXES
  6
Continuous
 62
     7
100
AcDbLine
 10
217.0590816634
 20
197.9567998174
 30
0.0
 11
217.0590816634
 21
197.6567998174
 31
0.0
  0
LINE
  5
3A1
330
1B
100
AcDbEntity
 67
     1
  8
02___PRT_ALL_AXES
  6
Continuous
 62
     7
100
AcDbLine
 10
214.2729262962
 20
178.4567998174
 30
0.0
 11
210.4501655563
 21
178.4567998174
 31
0.0
  0
LINE
  5
3A2
330
1B
100
AcDbEntity
 67
     1
  8
02___PRT_ALL_AXES
  6
Continuous
 62
     7
100
AcDbLine
 10
206.5239977706
 20
178.4567998174
 30
0.0
 11
202.7012370307
 21
178.4567998174
 31
0.0
  0
LINE
  5
3A3
330
1B
100
AcDbEntity
 67
     1
  8
02___PRT_ALL_AXES
  6
Continuous
 62
     7
100
AcDbLine
 10
223.4589319709
 20
178.4567998174
 30
0.0
 11
223.4589319709
 21
197.6567998174
 31
0.0
  0
LINE
  5
3A4
330
1B
100
AcDbEntity
 67
     1
  8
02___PRT_ALL_AXES
  6
Continuous
 62
     7
100
AcDbLine
 10
199.3010759887
 20
178.4567998174
 30
0.0
 11
196.5026209019
 21
178.4567998174
 31
0.0
  0
LINE
  5
3A5
330
1B
100
AcDbEntity
 67
     1
  8
02___PRT_ALL_AXES
  6
Continuous
 62
     7
100
AcDbLine
 10
194.5395370091
 20
178.4567998174
 30
0.0
 11
193.5152313559
 21
178.4567998174
 31
0.0
  0
LINE
  5
3A6
330
1B
100
AcDbEntity
 67
     1
  8
02___PRT_ALL_AXES
  6
Continuous
 62
     7
100
AcDbLine
 10
223.4589319709
 20
178.4567998174
 30
0.0
 11
222.4346263178
 21
178.4567998174
 31
0.0
  0
LINE
  5
3A7
330
1B
100
AcDbEntity
 67
     1
  8
02___PRT_ALL_AXES
  6
Continuous
 62
     7
100
AcDbLine
 10
222.4346263178
 20
197.6567998174
 30
0.0
 11
220.4715424249
 21
197.6567998174
 31
0.0
  0
LINE
  5
3A8
330
1B
100
AcDbEntity
 67
     1
  8
02___PRT_ALL_AXES
  6
Continuous
 62
     7
100
AcDbLine
 10
222.4346263178
 20
178.4567998174
 30
0.0
 11
220.4715424249
 21
178.4567998174
 31
0.0
  0
LINE
  5
3A9
330
1B
100
AcDbEntity
 67
     1
  8
02___PRT_ALL_AXES
  6
Continuous
 62
     7
100
AcDbLine
 10
220.2906775216
 20
203.4567998174
 30
0.0
 11
219.4472367718
 21
203.4567998174
 31
0.0
  0
LINE
  5
3AA
330
1B
100
AcDbEntity
 67
     1
  8
02___PRT_ALL_AXES
  6
Continuous
 62
     7
100
AcDbLine
 10
223.4589319709
 20
203.4567998174
 30
0.0
 11
223.4589319709
 21
197.9567998174
 31
0.0
  0
LINE
  5
3AB
330
1B
100
AcDbEntity
 67
     1
  8
02___PRT_ALL_AXES
  6
Continuous
 62
     7
100
AcDbLine
 10
223.4589319709
 20
197.9567998174
 30
0.0
 11
219.4472367718
 21
197.9567998174
 31
0.0
  0
LINE
  5
3AC
330
1B
100
AcDbEntity
 67
     1
  8
02___PRT_ALL_AXES
  6
Continuous
 62
     7
100
AcDbLine
 10
219.4472367718
 20
197.9567998174
 30
0.0
 11
212.4987768625
 21
197.9567998174
 31
0.0
  0
LINE
  5
3AD
330
1B
100
AcDbEntity
 67
     1
  8
02___PRT_ALL_AXES
  6
Continuous
 62
     7
100
AcDbLine
 10
217.6730873381
 20
197.6567998174
 30
0.0
 11
214.2729262962
 21
197.6567998174
 31
0.0
  0
LINE
  5
3AE
330
1B
100
AcDbEntity
 67
     1
  8
02___PRT_ALL_AXES
  6
Continuous
 62
     7
100
AcDbLine
 10
217.6730873381
 20
178.4567998174
 30
0.0
 11
214.2729262962
 21
178.4567998174
 31
0.0
  0
LINE
  5
3AF
330
1B
100
AcDbEntity
 67
     1
  8
02___PRT_ALL_AXES
  6
Continuous
 62
     7
100
AcDbLine
 10
212.4987768625
 20
197.9567998174
 30
0.0
 11
204.4753864643
 21
197.9567998174
 31
0.0
  0
LINE
  5
3B0
330
1B
100
AcDbEntity
 67
     1
  8
02___PRT_ALL_AXES
  6
Continuous
 62
     7
100
AcDbLine
 10
210.4501655563
 20
197.6567998174
 30
0.0
 11
206.5239977706
 21
197.6567998174
 31
0.0
  0
LINE
  5
3B1
330
1B
100
AcDbEntity
 67
     1
  8
02___PRT_ALL_AXES
  6
Continuous
 62
     7
100
AcDbLine
 10
210.4501655563
 20
178.4567998174
 30
0.0
 11
206.5239977706
 21
178.4567998174
 31
0.0
  0
LINE
  5
3B2
330
1B
100
AcDbEntity
 67
     1
  8
02___PRT_ALL_AXES
  6
Continuous
 62
     7
100
AcDbLine
 10
202.7012370307
 20
197.6567998174
 30
0.0
 11
199.3010759887
 21
197.6567998174
 31
0.0
  0
LINE
  5
3B3
330
1B
100
AcDbEntity
 67
     1
  8
02___PRT_ALL_AXES
  6
Continuous
 62
     7
100
AcDbLine
 10
202.7012370307
 20
178.4567998174
 30
0.0
 11
199.3010759887
 21
178.4567998174
 31
0.0
  0
LINE
  5
3B4
330
1B
100
AcDbEntity
 67
     1
  8
02___PRT_ALL_AXES
  6
Continuous
 62
     7
100
AcDbLine
 10
204.4753864643
 20
197.9567998174
 30
0.0
 11
197.526926555
 21
197.9567998174
 31
0.0
  0
LINE
  5
3B5
330
1B
100
AcDbEntity
 67
     1
  8
02___PRT_ALL_AXES
  6
Continuous
 62
     7
100
AcDbLine
 10
196.5026209019
 20
197.6567998174
 30
0.0
 11
194.5395370091
 21
197.6567998174
 31
0.0
  0
LINE
  5
3B6
330
1B
100
AcDbEntity
 67
     1
  8
02___PRT_ALL_AXES
  6
Continuous
 62
     7
100
AcDbLine
 10
196.5026209019
 20
178.4567998174
 30
0.0
 11
194.5395370091
 21
178.4567998174
 31
0.0
  0
LINE
  5
3B7
330
1B
100
AcDbEntity
 67
     1
  8
02___PRT_ALL_AXES
  6
Continuous
 62
     7
100
AcDbLine
 10
197.526926555
 20
203.4567998174
 30
0.0
 11
196.6835253167
 21
203.4567998174
 31
0.0
  0
LINE
  5
3B8
330
1B
100
AcDbEntity
 67
     1
  8
02___PRT_ALL_AXES
  6
Continuous
 62
     7
100
AcDbLine
 10
197.526926555
 20
197.9567998174
 30
0.0
 11
193.5152313559
 21
197.9567998174
 31
0.0
  0
LINE
  5
3B9
330
1B
100
AcDbEntity
 67
     1
  8
02___PRT_ALL_AXES
  6
Continuous
 62
     7
100
AcDbLine
 10
220.4715424249
 20
178.4567998174
 30
0.0
 11
217.6730873381
 21
178.4567998174
 31
0.0
  0
LINE
  5
3BA
330
1B
100
AcDbEntity
 67
     1
  8
02___PRT_ALL_AXES
  6
Continuous
 62
     7
100
AcDbLine
 10
193.5152313559
 20
178.4567998174
 30
0.0
 11
193.5152313559
 21
197.6567998174
 31
0.0
  0
LINE
  5
3BB
330
1B
100
AcDbEntity
 67
     1
  8
02___PRT_ALL_AXES
  6
Continuous
 62
     7
100
AcDbLine
 10
193.5152313559
 20
203.4567998174
 30
0.0
 11
193.5152313559
 21
197.9567998174
 31
0.0
  0
LINE
  5
3BC
330
1B
100
AcDbEntity
 67
     1
  8
02___PRT_ALL_AXES
  6
Continuous
 62
     7
100
AcDbLine
 10
202.7012370307
 20
178.4567998174
 30
0.0
 11
202.7012370307
 21
197.6567998174
 31
0.0
  0
LINE
  5
3BD
330
1B
100
AcDbEntity
 67
     1
  8
02___PRT_ALL_AXES
  6
Continuous
 62
     7
100
AcDbLine
 10
217.6730873381
 20
178.4567998174
 30
0.0
 11
217.6730873381
 21
197.6567998174
 31
0.0
  0
LINE
  5
3BE
330
1B
100
AcDbEntity
 67
     1
  8
02___PRT_ALL_AXES
  6
Continuous
 62
     7
100
AcDbLine
 10
199.3010759887
 20
178.4567998174
 30
0.0
 11
199.3010759887
 21
197.6567998174
 31
0.0
  0
LINE
  5
3BF
330
1B
100
AcDbEntity
 67
     1
  8
02___PRT_ALL_AXES
  6
Continuous
 62
     7
100
AcDbLine
 10
204.4753864643
 20
203.4567998174
 30
0.0
 11
204.4753864643
 21
197.9567998174
 31
0.0
  0
LINE
  5
3C0
330
1B
100
AcDbEntity
 67
     1
  8
02___PRT_ALL_AXES
  6
Continuous
 62
     7
100
AcDbLine
 10
214.2729262962
 20
178.4567998174
 30
0.0
 11
214.2729262962
 21
197.6567998174
 31
0.0
  0
LINE
  5
3C1
330
1B
100
AcDbEntity
 67
     1
  8
02___PRT_ALL_AXES
  6
Continuous
 62
     7
100
AcDbLine
 10
212.4987768625
 20
203.4567998174
 30
0.0
 11
212.4987768625
 21
197.9567998174
 31
0.0
  0
LINE
  5
3C2
330
1B
100
AcDbEntity
 67
     1
  8
02___PRT_ALL_AXES
  6
Continuous
 62
     7
100
AcDbLine
 10
196.5026209019
 20
178.4567998174
 30
0.0
 11
196.5026209019
 21
197.6567998174
 31
0.0
  0
LINE
  5
3C3
330
1B
100
AcDbEntity
 67
     1
  8
02___PRT_ALL_AXES
  6
Continuous
 62
     7
100
AcDbLine
 10
222.4346263178
 20
178.4567998174
 30
0.0
 11
222.4346263178
 21
197.6567998174
 31
0.0
  0
LINE
  5
3C4
330
1B
100
AcDbEntity
 67
     1
  8
02___PRT_ALL_AXES
  6
Continuous
 62
     7
100
AcDbLine
 10
194.5395370091
 20
178.4567998174
 30
0.0
 11
194.5395370091
 21
197.6567998174
 31
0.0
  0
LINE
  5
3C5
330
1B
100
AcDbEntity
 67
     1
  8
02___PRT_ALL_AXES
  6
Continuous
 62
     7
100
AcDbLine
 10
222.1125816634
 20
176.9567998174
 30
0.0
 11
194.8615816634
 21
176.9567998174
 31
0.0
  0
LINE
  5
3C6
330
1B
100
AcDbEntity
 67
     1
  8
02___PRT_ALL_AXES
  6
Continuous
 62
     7
100
AcDbLine
 10
197.526926555
 20
203.4567998174
 30
0.0
 11
197.526926555
 21
197.9567998174
 31
0.0
  0
LINE
  5
3C7
330
1B
100
AcDbEntity
 67
     1
  8
02___PRT_ALL_AXES
  6
Continuous
 62
     7
100
AcDbLine
 10
219.4472367718
 20
203.4567998174
 30
0.0
 11
219.4472367718
 21
197.9567998174
 31
0.0
  0
LINE
  5
3C8
330
1B
100
AcDbEntity
 67
     1
  8
02___PRT_ALL_AXES
  6
Continuous
 62
     7
100
AcDbLine
 10
210.4501655563
 20
178.4567998174
 30
0.0
 11
210.4501655563
 21
197.6567998174
 31
0.0
  0
LINE
  5
3C9
330
1B
100
AcDbEntity
 67
     1
  8
02___PRT_ALL_AXES
  6
Continuous
 62
     7
100
AcDbLine
 10
220.4715424249
 20
178.4567998174
 30
0.0
 11
220.4715424249
 21
197.6567998174
 31
0.0
  0
LINE
  5
3CA
330
1B
100
AcDbEntity
 67
     1
  8
02___PRT_ALL_AXES
  6
Continuous
 62
     7
100
AcDbLine
 10
206.5239977706
 20
178.4567998174
 30
0.0
 11
206.5239977706
 21
197.6567998174
 31
0.0
  0
ARC
  5
3CB
330
1B
100
AcDbEntity
 67
     1
  8
7_ALL_FEATURES
  6
Continuous
 62
     7
100
AcDbCircle
 10
190.4870816633
 20
325.4567998174
 30
0.0
 40
2.0
100
AcDbArc
 50
270.0
 51
360.0
  0
LINE
  5
3CC
330
1B
100
AcDbEntity
 67
     1
  8
02___PRT_ALL_AXES
  6
Continuous
 62
     7
100
AcDbLine
 10
192.4870816633
 20
325.4567998174
 30
0.0
 11
192.4870816633
 21
343.4567998174
 31
0.0
  0
LINE
  5
3CD
330
1B
100
AcDbEntity
 67
     1
  8
02___PRT_ALL_AXES
  6
Continuous
 62
     7
100
AcDbLine
 10
192.4872691384
 20
343.4567998174
 30
0.0
 11
193.5762956419
 21
343.4567998174
 31
0.0
  0
LINE
  5
3CE
330
1B
100
AcDbEntity
 67
     1
  8
02___PRT_ALL_AXES
  6
Continuous
 62
     7
100
AcDbLine
 10
193.5762956419
 20
343.4567998174
 30
0.0
 11
193.593101685
 21
343.4567998174
 31
0.0
  0
LINE
  5
3CF
330
1B
100
AcDbEntity
 67
     1
  8
02___PRT_ALL_AXES
  6
Continuous
 62
     7
100
AcDbLine
 10
193.593101685
 20
343.4567998174
 30
0.0
 11
208.4870816633
 21
343.4567998174
 31
0.0
  0
ARC
  5
3D0
330
1B
100
AcDbEntity
 67
     1
  8
7_ALL_FEATURES
  6
Continuous
 62
     7
100
AcDbCircle
 10
226.4870816633
 20
325.4567998174
 30
0.0
 40
2.0
100
AcDbArc
 50
180.0
 51
270.0
  0
LINE
  5
3D1
330
1B
100
AcDbEntity
 67
     1
  8
02___PRT_ALL_AXES
  6
Continuous
 62
     7
100
AcDbLine
 10
224.4870816633
 20
325.4567998174
 30
0.0
 11
224.4870816633
 21
343.4567998174
 31
0.0
  0
LINE
  5
3D2
330
1B
100
AcDbEntity
 67
     1
  8
02___PRT_ALL_AXES
  6
Continuous
 62
     7
100
AcDbLine
 10
224.4868941882
 20
343.4567998174
 30
0.0
 11
223.397606859
 21
343.4567998174
 31
0.0
  0
LINE
  5
3D3
330
1B
100
AcDbEntity
 67
     1
  8
02___PRT_ALL_AXES
  6
Continuous
 62
     7
100
AcDbLine
 10
223.397606859
 20
343.4567998174
 30
0.0
 11
223.3810616416
 21
343.4567998174
 31
0.0
  0
LINE
  5
3D4
330
1B
100
AcDbEntity
 67
     1
  8
02___PRT_ALL_AXES
  6
Continuous
 62
     7
100
AcDbLine
 10
223.3810616416
 20
343.4567998174
 30
0.0
 11
208.4870816633
 21
343.4567998174
 31
0.0
  0
LINE
  5
3D5
330
1B
100
AcDbEntity
 67
     1
  8
7_ALL_FEATURES
  6
Continuous
 62
     9
100
AcDbLine
 10
208.4870816633
 20
325.4567998174
 30
0.0
 11
224.4870816633
 21
325.4567998174
 31
0.0
  0
LINE
  5
3D6
330
1B
100
AcDbEntity
 67
     1
  8
7_ALL_FEATURES
  6
Continuous
 62
     9
100
AcDbLine
 10
192.4870816633
 20
325.4567998174
 30
0.0
 11
208.4870816633
 21
325.4567998174
 31
0.0
  0
LINE
  5
3D7
330
1B
100
AcDbEntity
 67
     1
  8
7_ALL_FEATURES
  6
Continuous
 62
     7
100
AcDbLine
 10
244.6868426658
 20
323.4567998174
 30
0.0
 11
244.1282794795
 21
291.4565250367
 31
0.0
  0
LINE
  5
3D8
330
1B
100
AcDbEntity
 67
     1
  8
7_ALL_FEATURES
  6
Continuous
 62
     7
100
AcDbLine
 10
172.2887197449
 20
323.4567998174
 30
0.0
 11
173.7373647237
 21
323.4567998174
 31
0.0
  0
LINE
  5
3D9
330
1B
100
AcDbEntity
 67
     1
  8
7_ALL_FEATURES
  6
Continuous
 62
     7
100
AcDbLine
 10
173.7373647237
 20
323.4567998174
 30
0.0
 11
173.7887595892
 21
323.4567998174
 31
0.0
  0
LINE
  5
3DA
330
1B
100
AcDbEntity
 67
     1
  8
7_ALL_FEATURES
  6
Continuous
 62
     7
100
AcDbLine
 10
173.7887595892
 20
323.4567998174
 30
0.0
 11
190.4870816633
 21
323.4567998174
 31
0.0
  0
LINE
  5
3DB
330
1B
100
AcDbEntity
 67
     1
  8
7_ALL_FEATURES
  6
Continuous
 62
     7
100
AcDbLine
 10
190.4870816633
 20
323.4567998174
 30
0.0
 11
205.941528907
 21
323.4567998174
 31
0.0
  0
LINE
  5
3DC
330
1B
100
AcDbEntity
 67
     1
  8
7_ALL_FEATURES
  6
Continuous
 62
     7
100
AcDbLine
 10
205.941528907
 20
323.4567998174
 30
0.0
 11
208.4870809263
 21
323.4567998174
 31
0.0
  0
LINE
  5
3DD
330
1B
100
AcDbEntity
 67
     1
  8
7_ALL_FEATURES
  6
Continuous
 62
     7
100
AcDbLine
 10
172.2873206634
 20
323.4567998174
 30
0.0
 11
172.8458838497
 21
291.4565250367
 31
0.0
  0
LINE
  5
3DE
330
1B
100
AcDbEntity
 67
     1
  8
7_ALL_FEATURES
  6
Continuous
 62
     7
100
AcDbLine
 10
233.5450641265
 20
226.4567998174
 30
0.0
 11
233.152177737
 21
203.9480703545
 31
0.0
  0
LINE
  5
3DF
330
1B
100
AcDbEntity
 67
     1
  8
7_ALL_FEATURES
  6
Continuous
 62
     7
100
AcDbLine
 10
204.4790460467
 20
218.4567998174
 30
0.0
 11
215.227940736
 21
218.4567998174
 31
0.0
  0
LINE
  5
3E0
330
1B
100
AcDbEntity
 67
     1
  8
7_ALL_FEATURES
  6
Continuous
 62
     7
100
AcDbLine
 10
215.227940736
 20
218.4567998174
 30
0.0
 11
216.3792517696
 21
218.4567998174
 31
0.0
  0
LINE
  5
3E1
330
1B
100
AcDbEntity
 67
     1
  8
7_ALL_FEATURES
  6
Continuous
 62
     7
100
AcDbLine
 10
201.8119510365
 20
203.4567998174
 30
0.0
 11
196.6835253167
 21
203.4567998174
 31
0.0
  0
LINE
  5
3E2
330
1B
100
AcDbEntity
 67
     1
  8
7_ALL_FEATURES
  6
Continuous
 62
     7
100
AcDbLine
 10
215.1622122926
 20
203.4567998174
 30
0.0
 11
201.8119510365
 21
203.4567998174
 31
0.0
  0
LINE
  5
3E3
330
1B
100
AcDbEntity
 67
     1
  8
7_ALL_FEATURES
  6
Continuous
 62
     7
100
AcDbLine
 10
220.2906775216
 20
203.4567998174
 30
0.0
 11
215.1622122926
 21
203.4567998174
 31
0.0
  0
ARC
  5
3E4
330
1B
100
AcDbEntity
 67
     1
  8
7_ALL_FEATURES
  6
Continuous
 62
     7
100
AcDbCircle
 10
184.3215989578
 20
203.9567998153
 30
0.0
 40
0.5
100
AcDbArc
 50
181.0009944655
 51
270.0
  0
LINE
  5
3E5
330
1B
100
AcDbEntity
 67
     1
  8
7_ALL_FEATURES
  6
Continuous
 62
     7
100
AcDbLine
 10
184.5984095679
 20
203.4567998157
 30
0.0
 11
184.401968225
 21
203.4567998151
 31
0.0
  0
LINE
  5
3E6
330
1B
100
AcDbEntity
 67
     1
  8
7_ALL_FEATURES
  6
Continuous
 62
     7
100
AcDbLine
 10
196.6835253167
 20
203.4567998174
 30
0.0
 11
193.5152313559
 21
203.4567998174
 31
0.0
  0
LINE
  5
3E7
330
1B
100
AcDbEntity
 67
     1
  8
7_ALL_FEATURES
  6
Continuous
 62
     7
100
AcDbLine
 10
193.5152313559
 20
203.4567998174
 30
0.0
 11
184.6090405215
 21
203.4567998174
 31
0.0
  0
LINE
  5
3E8
330
1B
100
AcDbEntity
 67
     1
  8
7_ALL_FEATURES
  6
Continuous
 62
     7
100
AcDbLine
 10
184.6090405215
 20
203.4567998174
 30
0.0
 11
184.3216001008
 21
203.4567998174
 31
0.0
  0
LINE
  5
3E9
330
1B
100
AcDbEntity
 67
     1
  8
7_ALL_FEATURES
  6
Continuous
 62
     7
100
AcDbLine
 10
196.6844433528
 20
203.45679982
 30
0.0
 11
193.5152313559
 21
203.4567998191
 31
0.0
  0
LINE
  5
3EA
330
1B
100
AcDbEntity
 67
     1
  8
7_ALL_FEATURES
  6
Continuous
 62
     7
100
AcDbLine
 10
193.5152313559
 20
203.4567998191
 30
0.0
 11
184.5984095679
 21
203.4567998157
 31
0.0
  0
LINE
  5
3EB
330
1B
100
AcDbEntity
 67
     1
  8
7_ALL_FEATURES
  6
Continuous
 62
     7
100
AcDbLine
 10
232.6525632282
 20
203.4567998174
 30
0.0
 11
223.4589319709
 21
203.4567998174
 31
0.0
  0
LINE
  5
3EC
330
1B
100
AcDbEntity
 67
     1
  8
7_ALL_FEATURES
  6
Continuous
 62
     7
100
AcDbLine
 10
223.4589319709
 20
203.4567998174
 30
0.0
 11
220.2906775216
 21
203.4567998174
 31
0.0
  0
ARC
  5
3ED
330
1B
100
AcDbEntity
 67
     1
  8
7_ALL_FEATURES
  6
Continuous
 62
     7
100
AcDbCircle
 10
232.6525643713
 20
203.9567998173
 30
0.0
 40
0.5
100
AcDbArc
 50
270.0
 51
358.9990052993
  0
LINE
  5
3EE
330
1B
100
AcDbEntity
 67
     1
  8
7_ALL_FEATURES
  6
Continuous
 62
     7
100
AcDbLine
 10
200.5949115601
 20
218.4567998174
 30
0.0
 11
201.7462225927
 21
218.4567998174
 31
0.0
  0
LINE
  5
3EF
330
1B
100
AcDbEntity
 67
     1
  8
7_ALL_FEATURES
  6
Continuous
 62
     7
100
AcDbLine
 10
201.7462225927
 20
218.4567998174
 30
0.0
 11
204.4790460467
 21
218.4567998174
 31
0.0
  0
LINE
  5
3F0
330
1B
100
AcDbEntity
 67
     1
  8
7_ALL_FEATURES
  6
Continuous
 62
     7
100
AcDbLine
 10
232.5721951043
 20
203.4567998176
 30
0.0
 11
223.4589319709
 21
203.4567998193
 31
0.0
  0
LINE
  5
3F1
330
1B
100
AcDbEntity
 67
     1
  8
7_ALL_FEATURES
  6
Continuous
 62
     7
100
AcDbLine
 10
223.4589319709
 20
203.4567998193
 30
0.0
 11
220.2897197466
 21
203.4567998196
 31
0.0
  0
LINE
  5
3F2
330
1B
100
AcDbEntity
 67
     1
  8
7_ALL_FEATURES
  6
Continuous
 62
     7
100
AcDbLine
 10
183.4290992026
 20
226.4567998174
 30
0.0
 11
183.8219855921
 21
203.9480703545
 31
0.0
  0
LINE
  5
3F3
330
1B
100
AcDbEntity
 67
     1
  8
7_ALL_FEATURES
  6
Continuous
 62
     7
100
AcDbLine
 10
183.3325643252
 20
248.374575901
 30
0.0
 11
189.0471700532
 21
226.4567998174
 31
0.0
  0
LINE
  5
3F4
330
1B
100
AcDbEntity
 67
     1
  8
7_ALL_FEATURES
  6
Continuous
 62
     7
100
AcDbLine
 10
189.0471700532
 20
226.4567998174
 30
0.0
 11
189.7542768344
 21
226.4567998173
 31
0.0
  0
LINE
  5
3F5
330
1B
100
AcDbEntity
 67
     1
  8
7_ALL_FEATURES
  6
Continuous
 62
     7
100
AcDbLine
 10
227.2198864947
 20
226.4567998174
 30
0.0
 11
227.9269932759
 21
226.4567998173
 31
0.0
  0
LINE
  5
3F6
330
1B
100
AcDbEntity
 67
     1
  8
7_ALL_FEATURES
  6
Continuous
 62
     7
100
AcDbLine
 10
227.9269932759
 20
226.4567998173
 30
0.0
 11
233.6413974916
 21
248.3739058357
 31
0.0
  0
LINE
  5
3F7
330
1B
100
AcDbEntity
 67
     1
  8
7_ALL_FEATURES
  6
Continuous
 62
     7
100
AcDbLine
 10
243.3696677067
 20
248.374575901
 30
0.0
 11
235.4792683167
 21
226.4567998174
 31
0.0
  0
LINE
  5
3F8
330
1B
100
AcDbEntity
 67
     1
  8
7_ALL_FEATURES
  6
Continuous
 62
     7
100
AcDbLine
 10
191.1251520641
 20
226.4567998174
 30
0.0
 11
189.7542768346
 21
226.4567998174
 31
0.0
  0
LINE
  5
3F9
330
1B
100
AcDbEntity
 67
     1
  8
7_ALL_FEATURES
  6
Continuous
 62
     7
100
AcDbLine
 10
174.7735137727
 20
306.9567998174
 30
0.0
 11
180.1389790105
 21
306.9567998174
 31
0.0
  0
LINE
  5
3FA
330
1B
100
AcDbEntity
 67
     1
  8
7_ALL_FEATURES
  6
Continuous
 62
     7
100
AcDbLine
 10
180.1389790105
 20
306.9567998174
 30
0.0
 11
182.2574373447
 21
306.9567998174
 31
0.0
  0
LINE
  5
3FB
330
1B
100
AcDbEntity
 67
     1
  8
7_ALL_FEATURES
  6
Continuous
 62
     7
100
AcDbLine
 10
182.5416323622
 20
291.4567998174
 30
0.0
 11
182.111030137
 21
291.4567998174
 31
0.0
  0
LINE
  5
3FC
330
1B
100
AcDbEntity
 67
     1
  8
7_ALL_FEATURES
  6
Continuous
 62
     7
100
AcDbLine
 10
174.8907583081
 20
291.4567998174
 30
0.0
 11
172.8616261294
 21
291.4567998174
 31
0.0
  0
LINE
  5
3FD
330
1B
100
AcDbEntity
 67
     1
  8
7_ALL_FEATURES
  6
Continuous
 62
     7
100
AcDbLine
 10
182.111030137
 20
291.4567998174
 30
0.0
 11
174.8907583081
 21
291.4567998174
 31
0.0
  0
LINE
  5
3FE
330
1B
100
AcDbEntity
 67
     1
  8
7_ALL_FEATURES
  6
Continuous
 62
     7
100
AcDbLine
 10
183.4340862239
 20
226.4567998174
 30
0.0
 11
181.4948950129
 21
226.4567998174
 31
0.0
  0
LINE
  5
3FF
330
1B
100
AcDbEntity
 67
     1
  8
7_ALL_FEATURES
  6
Continuous
 62
     7
100
AcDbLine
 10
207.2845685333
 20
306.9568312204
 30
0.0
 11
207.7958032351
 21
248.3751368549
 31
0.0
  0
LINE
  5
400
330
1B
100
AcDbEntity
 67
     1
  8
7_ALL_FEATURES
  6
Continuous
 62
     7
100
AcDbLine
 10
183.958014217
 20
306.9567998174
 30
0.0
 11
207.2814308516
 21
306.9567998174
 31
0.0
  0
SPLINE
  5
401
330
1B
100
AcDbEntity
 67
     1
  8
7_ALL_FEATURES
  6
Continuous
 62
     7
100
AcDbSpline
 70
     0
 71
     3
 72
     8
 73
     4
 74
     0
 42
0.000000001
 43
0.0000001
 40
0.0
 40
0.0
 40
0.0
 40
0.0
 40
1.0
 40
1.0
 40
1.0
 40
1.0
 10
182.2575766595
 20
306.9568063226
 30
0.0
 10
182.6151918559
 20
287.4293830927
 30
0.0
 10
182.9733876663
 20
267.9019704726
 30
0.0
 10
183.3325643251
 20
248.374575901
 30
0.0
  0
LINE
  5
402
330
1B
100
AcDbEntity
 67
     1
  8
7_ALL_FEATURES
  6
Continuous
 62
     7
100
AcDbLine
 10
181.4948950125
 20
226.4567998173
 30
0.0
 11
173.6044956224
 21
248.374575901
 31
0.0
  0
LINE
  5
403
330
1B
100
AcDbEntity
 67
     1
  8
7_ALL_FEATURES
  6
Continuous
 62
     7
100
AcDbLine
 10
208.4870809263
 20
323.4567998174
 30
0.0
 11
226.4867668708
 21
323.4567998174
 31
0.0
  0
LINE
  5
404
330
1B
100
AcDbEntity
 67
     1
  8
7_ALL_FEATURES
  6
Continuous
 62
     7
100
AcDbLine
 10
226.4867668708
 20
323.4567998174
 30
0.0
 11
243.1852829792
 21
323.4567998174
 31
0.0
  0
LINE
  5
405
330
1B
100
AcDbEntity
 67
     1
  8
7_ALL_FEATURES
  6
Continuous
 62
     7
100
AcDbLine
 10
243.1852829792
 20
323.4567998174
 30
0.0
 11
243.2367986028
 21
323.4567998174
 31
0.0
  0
LINE
  5
406
330
1B
100
AcDbEntity
 67
     1
  8
7_ALL_FEATURES
  6
Continuous
 62
     7
100
AcDbLine
 10
243.2367986028
 20
323.4567998174
 30
0.0
 11
244.6855695662
 21
323.4567998174
 31
0.0
  0
LINE
  5
407
330
1B
100
AcDbEntity
 67
     1
  8
7_ALL_FEATURES
  6
Continuous
 62
     7
100
AcDbLine
 10
209.1783600941
 20
248.3751368559
 30
0.0
 11
209.6895947957
 21
306.9568312204
 31
0.0
  0
LINE
  5
408
330
1B
100
AcDbEntity
 67
     1
  8
7_ALL_FEATURES
  6
Continuous
 62
     7
100
AcDbLine
 10
209.6927324775
 20
306.9567998174
 30
0.0
 11
233.016149112
 21
306.9567998174
 31
0.0
  0
LINE
  5
409
330
1B
100
AcDbEntity
 67
     1
  8
7_ALL_FEATURES
  6
Continuous
 62
     7
100
AcDbLine
 10
235.4792683167
 20
226.4567998174
 30
0.0
 11
233.5403906321
 21
226.4567998174
 31
0.0
  0
SPLINE
  5
40A
330
1B
100
AcDbEntity
 67
     1
  8
7_ALL_FEATURES
  6
Continuous
 62
     7
100
AcDbSpline
 70
     0
 71
     3
 72
     8
 73
     4
 74
     0
 42
0.000000001
 43
0.0000001
 40
0.0
 40
0.0
 40
0.0
 40
0.0
 40
1.0
 40
1.0
 40
1.0
 40
1.0
 10
233.6414242963
 20
248.3739055049
 30
0.0
 10
234.0006051739
 20
267.9015234197
 30
0.0
 10
234.3591391584
 20
287.429153254
 30
0.0
 10
234.716759103
 20
306.9567998174
 30
0.0
  0
LINE
  5
40B
330
1B
100
AcDbEntity
 67
     1
  8
7_ALL_FEATURES
  6
Continuous
 62
     7
100
AcDbLine
 10
242.0836501831
 20
291.4567998174
 30
0.0
 11
234.863133191
 21
291.4567998174
 31
0.0
  0
LINE
  5
40C
330
1B
100
AcDbEntity
 67
     1
  8
7_ALL_FEATURES
  6
Continuous
 62
     7
100
AcDbLine
 10
244.1125372001
 20
291.4567998174
 30
0.0
 11
242.0836501831
 21
291.4567998174
 31
0.0
  0
LINE
  5
40D
330
1B
100
AcDbEntity
 67
     1
  8
7_ALL_FEATURES
  6
Continuous
 62
     7
100
AcDbLine
 10
234.7167591032
 20
306.9567998174
 30
0.0
 11
235.0078273201
 21
306.9567998174
 31
0.0
  0
LINE
  5
40E
330
1B
100
AcDbEntity
 67
     1
  8
7_ALL_FEATURES
  6
Continuous
 62
     7
100
AcDbLine
 10
235.0078273201
 20
306.9567998174
 30
0.0
 11
242.2006464412
 21
306.9567998174
 31
0.0
  0
LINE
  5
40F
330
1B
100
AcDbEntity
 67
     1
  8
7_ALL_FEATURES
  6
Continuous
 62
     7
100
AcDbLine
 10
234.863133191
 20
291.4567998174
 30
0.0
 11
234.4325666204
 21
291.4567998174
 31
0.0
  0
LINE
  5
410
330
1B
100
AcDbEntity
 67
     1
  8
7_ALL_FEATURES
  6
Continuous
 62
     7
100
AcDbLine
 10
227.2198864947
 20
226.4567998174
 30
0.0
 11
225.849011265
 21
226.4567998174
 31
0.0
  0
LINE
  5
411
330
1B
100
AcDbEntity
 67
     1
  8
7_ALL_FEATURES
  6
Continuous
 62
     7
100
AcDbLine
 10
207.7925140615
 20
248.3744263035
 30
0.0
 11
207.9870816646
 21
226.4567998174
 31
0.0
  0
LINE
  5
412
330
1B
100
AcDbEntity
 67
     1
  8
7_ALL_FEATURES
  6
Continuous
 62
     7
100
AcDbLine
 10
207.9870816646
 20
226.4567998174
 30
0.0
 11
208.9870816646
 21
226.4567998173
 31
0.0
  0
LINE
  5
413
330
1B
100
AcDbEntity
 67
     1
  8
7_ALL_FEATURES
  6
Continuous
 62
     7
100
AcDbLine
 10
208.9870816646
 20
226.4567998173
 30
0.0
 11
209.1816492677
 21
248.3744263032
 31
0.0
  0
LINE
  5
414
330
1B
100
AcDbEntity
 67
     1
  8
7_ALL_FEATURES
  6
Continuous
 62
     9
100
AcDbLine
 10
215.227940736
 20
218.4567998174
 30
0.0
 11
215.1622122912
 21
203.9480736142
 31
0.0
  0
LINE
  5
415
330
1B
100
AcDbEntity
 67
     1
  8
7_ALL_FEATURES
  6
Continuous
 62
     7
100
AcDbLine
 10
220.5340612024
 20
203.948079269
 30
0.0
 11
233.152177737
 21
203.9480703545
 31
0.0
  0
SPLINE
  5
416
330
1B
100
AcDbEntity
 67
     1
  8
7_ALL_FEATURES
  6
Continuous
 62
     9
100
AcDbSpline
 70
     0
 71
     3
 72
     9
 73
     5
 74
     0
 42
0.000000001
 43
0.0000001
 40
0.0
 40
0.0
 40
0.0
 40
0.0
 40
0.2499446624
 40
1.0
 40
1.0
 40
1.0
 40
1.0
 10
220.5533065554
 20
218.9390267223
 30
0.0
 10
220.5510180645
 20
217.6900586692
 30
0.0
 10
220.5432128729
 20
212.6930778635
 30
0.0
 10
220.538810122
 20
207.6960927939
 30
0.0
 10
220.5340612024
 20
203.948079269
 30
0.0
  0
SPLINE
  5
417
330
1B
100
AcDbEntity
 67
     1
  8
7_ALL_FEATURES
  6
Continuous
 62
     7
100
AcDbSpline
 70
     0
 71
     3
 72
     8
 73
     4
 74
     0
 42
0.000000001
 43
0.0000001
 40
0.0
 40
0.0
 40
0.0
 40
0.0
 40
1.0
 40
1.0
 40
1.0
 40
1.0
 10
182.3162790481
 20
291.4567996383
 30
0.0
 10
182.5620693279
 20
277.0944596474
 30
0.0
 10
182.8086274376
 20
262.7321327735
 30
0.0
 10
183.0560032008
 20
248.3698200034
 30
0.0
  0
SPLINE
  5
418
330
1B
100
AcDbEntity
 67
     1
  8
7_ALL_FEATURES
  6
Continuous
 62
     7
100
AcDbSpline
 70
     0
 71
     3
 72
     8
 73
     4
 74
     0
 42
0.000000001
 43
0.0000001
 40
0.0
 40
0.0
 40
0.0
 40
0.0
 40
1.0
 40
1.0
 40
1.0
 40
1.0
 10
183.0560032008
 20
248.3698200034
 30
0.0
 10
183.1818128365
 20
241.0654773511
 30
0.0
 10
183.3078367553
 20
233.7611383861
 30
0.0
 10
183.4340862239
 20
226.4568033228
 30
0.0
  0
SPLINE
  5
419
330
1B
100
AcDbEntity
 67
     1
  8
7_ALL_FEATURES
  6
Continuous
 62
     7
100
AcDbSpline
 70
     0
 71
     3
 72
    11
 73
     7
 74
     0
 42
0.000000001
 43
0.0000001
 40
0.0
 40
0.0
 40
0.0
 40
0.0
 40
0.1692336849
 40
0.3934992001
 40
0.6783244442
 40
1.0
 40
1.0
 40
1.0
 40
1.0
 10
220.2906775142
 20
203.4568036651
 30
0.0
 10
220.3238765798
 20
203.4570702183
 30
0.0
 10
220.3996371039
 20
203.4943708023
 30
0.0
 10
220.4724418557
 20
203.6091313926
 30
0.0
 10
220.5216891357
 20
203.7656424905
 30
0.0
 10
220.5335267067
 20
203.8849715157
 30
0.0
 10
220.5342127744
 20
203.9480738523
 30
0.0
  0
SPLINE
  5
41A
330
1B
100
AcDbEntity
 67
     1
  8
7_ALL_FEATURES
  6
Continuous
 62
     7
100
AcDbSpline
 70
     0
 71
     3
 72
     9
 73
     5
 74
     0
 42
0.000000001
 43
0.0000001
 40
0.0
 40
0.0
 40
0.0
 40
0.0
 40
0.4999778188
 40
1.0
 40
1.0
 40
1.0
 40
1.0
 10
207.7925140615
 20
248.3744263035
 30
0.0
 10
207.908130743
 20
248.3811789412
 30
0.0
 10
208.1396506741
 20
248.3894715362
 30
0.0
 10
208.37126086
 20
248.3945721559
 30
0.0
 10
208.4870848449
 20
248.3945721251
 30
0.0
  0
LINE
  5
41B
330
1B
100
AcDbEntity
 67
     1
  8
7_ALL_FEATURES
  6
Continuous
 62
     9
100
AcDbLine
 10
215.1622122912
 20
203.9480736142
 30
0.0
 11
201.8119510379
 21
203.9480736142
 31
0.0
  0
SPLINE
  5
41C
330
1B
100
AcDbEntity
 67
     1
  8
7_ALL_FEATURES
  6
Continuous
 62
     7
100
AcDbSpline
 70
     0
 71
     3
 72
     8
 73
     4
 74
     0
 42
0.000000001
 43
0.0000001
 40
0.0
 40
0.0
 40
0.0
 40
0.0
 40
1.0
 40
1.0
 40
1.0
 40
1.0
 10
184.3101727325
 20
248.374575901
 30
0.0
 10
184.1919963828
 20
267.9019791071
 30
0.0
 10
184.0746292917
 20
287.4293872251
 30
0.0
 10
183.958014217
 20
306.9567998174
 30
0.0
  0
SPLINE
  5
41D
330
1B
100
AcDbEntity
 67
     1
  8
7_ALL_FEATURES
  6
Continuous
 62
     7
100
AcDbSpline
 70
     0
 71
     3
 72
     9
 73
     5
 74
     0
 42
0.000000001
 43
0.0000001
 40
0.0
 40
0.0
 40
0.0
 40
0.0
 40
0.497718724
 40
1.0
 40
1.0
 40
1.0
 40
1.0
 10
183.8162805701
 20
248.3945721251
 30
0.0
 10
183.8982988209
 20
248.3946026274
 30
0.0
 10
184.0630514861
 20
248.389494022
 30
0.0
 10
184.2276671891
 20
248.3811885221
 30
0.0
 10
184.3101727324
 20
248.374575901
 30
0.0
  0
SPLINE
  5
41E
330
1B
100
AcDbEntity
 67
     1
  8
7_ALL_FEATURES
  6
Continuous
 62
     7
100
AcDbSpline
 70
     0
 71
     3
 72
     9
 73
     5
 74
     0
 42
0.000000001
 43
0.0000001
 40
0.0
 40
0.0
 40
0.0
 40
0.0
 40
0.4979734743
 40
1.0
 40
1.0
 40
1.0
 40
1.0
 10
183.3325643252
 20
248.374575901
 30
0.0
 10
183.4126585063
 20
248.3812683427
 30
0.0
 10
183.5738884567
 20
248.3896097342
 30
0.0
 10
183.7352531147
 20
248.3945419912
 30
0.0
 10
183.8162805701
 20
248.3945721251
 30
0.0
  0
LINE
  5
41F
330
1B
100
AcDbEntity
 67
     1
  8
7_ALL_FEATURES
  6
Continuous
 62
     9
100
AcDbLine
 10
182.111030137
 20
291.4567998174
 30
0.0
 11
181.9663360089
 21
306.9567998174
 31
0.0
  0
LWPOLYLINE
  5
420
330
1B
100
AcDbEntity
 67
     1
  8
7_ALL_FEATURES
  6
Continuous
 62
     9
100
AcDbPolyline
 90
        4
 70
     0
 43
0.0
 10
182.1110301372
 20
291.4567998174
 10
182.0625927878
 20
296.6099607013
 10
182.014361643
 20
301.7766202855
 10
181.9663360089
 20
306.9567998174
  0
LINE
  5
421
330
1B
100
AcDbEntity
 67
     1
  8
7_ALL_FEATURES
  6
Continuous
 62
     9
100
AcDbLine
 10
201.8119510379
 20
203.9480736142
 30
0.0
 11
201.7462225927
 21
218.4566092006
 31
0.0
  0
ARC
  5
422
330
1B
100
AcDbEntity
 67
     1
  8
7_ALL_FEATURES
  6
Continuous
 62
     9
100
AcDbCircle
 10
199.126726562
 20
746.2457545228
 30
0.0
 40
542.3043289052
100
AcDbArc
 50
269.7161847417
 51
270.2837016966
  0
SPLINE
  5
423
330
1B
100
AcDbEntity
 67
     1
  8
7_ALL_FEATURES
  6
Continuous
 62
     7
100
AcDbSpline
 70
     0
 71
     3
 72
    11
 73
     7
 74
     0
 42
0.000000001
 43
0.0000001
 40
0.0
 40
0.0
 40
0.0
 40
0.0
 40
0.2357171
 40
0.4836089862
 40
0.7397305618
 40
1.0
 40
1.0
 40
1.0
 40
1.0
 10
196.4207805249
 20
218.9390294418
 30
0.0
 10
197.3688593977
 20
218.9390294446
 30
0.0
 10
199.3139657917
 20
218.9261394617
 30
0.0
 10
202.2892478891
 20
218.93158113
 30
0.0
 10
205.3632714133
 20
218.9300180068
 30
0.0
 10
207.4402507153
 20
218.9303739076
 30
0.0
 10
208.4870816646
 20
218.930373909
 30
0.0
  0
SPLINE
  5
424
330
1B
100
AcDbEntity
 67
     1
  8
7_ALL_FEATURES
  6
Continuous
 62
     7
100
AcDbSpline
 70
     0
 71
     3
 72
    11
 73
     7
 74
     0
 42
0.000000001
 43
0.0000001
 40
0.0
 40
0.0
 40
0.0
 40
0.0
 40
0.2357112377
 40
0.4836049589
 40
0.739726611
 40
1.0
 40
1.0
 40
1.0
 40
1.0
 10
220.5532307035
 20
218.939029571
 30
0.0
 10
219.6051945377
 20
218.9436347772
 30
0.0
 10
217.6601052679
 20
218.950483649
 30
0.0
 10
214.6848722395
 20
218.9464167207
 30
0.0
 10
211.6108416211
 20
218.9523234327
 30
0.0
 10
209.5338828274
 20
218.9391641862
 30
0.0
 10
208.4870816646
 20
218.930373909
 30
0.0
  0
SPLINE
  5
425
330
1B
100
AcDbEntity
 67
     1
  8
7_ALL_FEATURES
  6
Continuous
 62
     7
100
AcDbSpline
 70
     0
 71
     3
 72
    13
 73
     9
 74
     0
 42
0.000000001
 43
0.0000001
 40
0.0
 40
0.0
 40
0.0
 40
0.0
 40
0.2600407898
 40
0.3883205153
 40
0.5149511896
 40
0.639928432
 40
0.7632757577
 40
1.0
 40
1.0
 40
1.0
 40
1.0
 10
216.3792517696
 20
218.4567998175
 30
0.0
 10
216.7439553214
 20
218.4567998174
 30
0.0
 10
217.2883726696
 20
218.4887150709
 30
0.0
 10
218.0077498438
 20
218.5518937693
 30
0.0
 10
218.5373460941
 20
218.6102264759
 30
0.0
 10
219.0576913958
 20
218.6902323383
 30
0.0
 10
219.7211075667
 20
218.8356823513
 30
0.0
 10
220.2213433104
 20
218.9376389268
 30
0.0
 10
220.5533428422
 20
218.9390241691
 30
0.0
  0
SPLINE
  5
426
330
1B
100
AcDbEntity
 67
     1
  8
7_ALL_FEATURES
  6
Continuous
 62
     7
100
AcDbSpline
 70
     0
 71
     3
 72
    13
 73
     9
 74
     0
 42
0.000000001
 43
0.0000001
 40
0.0
 40
0.0
 40
0.0
 40
0.0
 40
0.2368574163
 40
0.3603563208
 40
0.485569519
 40
0.6123113641
 40
0.7403493594
 40
1.0
 40
1.0
 40
1.0
 40
1.0
 10
196.420668386
 20
218.9390240398
 30
0.0
 10
196.7528671077
 20
218.937690338
 30
0.0
 10
197.2535487806
 20
218.8357773788
 30
0.0
 10
197.9176621628
 20
218.6900172448
 30
0.0
 10
198.4386470813
 20
218.6094422881
 30
0.0
 10
198.9683910237
 20
218.5509066912
 30
0.0
 10
199.6872957434
 20
218.4896687282
 30
0.0
 10
200.2307607998
 20
218.4604452168
 30
0.0
 10
200.5949154843
 20
218.4571327348
 30
0.0
  0
SPLINE
  5
427
330
1B
100
AcDbEntity
 67
     1
  8
7_ALL_FEATURES
  6
Continuous
 62
     9
100
AcDbSpline
 70
     0
 71
     3
 72
     9
 73
     5
 74
     0
 42
0.000000001
 43
0.0000001
 40
0.0
 40
0.0
 40
0.0
 40
0.0
 40
0.2499464267
 40
1.0
 40
1.0
 40
1.0
 40
1.0
 10
196.4404272312
 20
203.9480789375
 30
0.0
 10
196.438844715
 20
205.1970569514
 30
0.0
 10
196.4330748747
 20
210.1940404053
 30
0.0
 10
196.4276861834
 20
215.191025215
 30
0.0
 10
196.420704677
 20
218.9390265835
 30
0.0
  0
SPLINE
  5
428
330
1B
100
AcDbEntity
 67
     1
  8
7_ALL_FEATURES
  6
Continuous
 62
     7
100
AcDbSpline
 70
     0
 71
     3
 72
     8
 73
     4
 74
     0
 42
0.000000001
 43
0.0000001
 40
0.0
 40
0.0
 40
0.0
 40
0.0
 40
1.0
 40
1.0
 40
1.0
 40
1.0
 10
225.8486766157
 20
226.4567993556
 30
0.0
 10
226.0110457521
 20
253.2901210837
 30
0.0
 10
226.1715032744
 20
280.1234544567
 30
0.0
 10
226.3299187234
 20
306.9567998174
 30
0.0
  0
LINE
  5
429
330
1B
100
AcDbEntity
 67
     1
  8
7_ALL_FEATURES
  6
Continuous
 62
     7
100
AcDbLine
 10
183.8219855921
 20
203.9480703545
 30
0.0
 11
196.4404272312
 21
203.9480789375
 31
0.0
  0
SPLINE
  5
42A
330
1B
100
AcDbEntity
 67
     1
  8
7_ALL_FEATURES
  6
Continuous
 62
     7
100
AcDbSpline
 70
     0
 71
     3
 72
     8
 73
     4
 74
     0
 42
0.000000001
 43
0.0000001
 40
0.0
 40
0.0
 40
0.0
 40
0.0
 40
1.0
 40
1.0
 40
1.0
 40
1.0
 10
190.6442446057
 20
306.9567998174
 30
0.0
 10
190.8026600547
 20
280.1234544567
 30
0.0
 10
190.963117577
 20
253.2901210837
 30
0.0
 10
191.1254867134
 20
226.4567993556
 30
0.0
  0
SPLINE
  5
42B
330
1B
100
AcDbEntity
 67
     1
  8
7_ALL_FEATURES
  6
Continuous
 62
     7
100
AcDbSpline
 70
     0
 71
     3
 72
     8
 73
     4
 74
     0
 42
0.000000001
 43
0.0000001
 40
0.0
 40
0.0
 40
0.0
 40
0.0
 40
1.0
 40
1.0
 40
1.0
 40
1.0
 10
233.5403906321
 20
226.4567998174
 30
0.0
 10
233.6666360024
 20
233.7609098388
 30
0.0
 10
233.7924387781
 20
241.0650275081
 30
0.0
 10
233.9181419703
 20
248.3691468805
 30
0.0
  0
SPLINE
  5
42C
330
1B
100
AcDbEntity
 67
     1
  8
7_ALL_FEATURES
  6
Continuous
 62
     7
100
AcDbSpline
 70
     0
 71
     3
 72
     8
 73
     4
 74
     0
 42
0.000000001
 43
0.0000001
 40
0.0
 40
0.0
 40
0.0
 40
0.0
 40
1.0
 40
1.0
 40
1.0
 40
1.0
 10
233.9181419703
 20
248.3691468805
 30
0.0
 10
234.165319947
 20
262.7316894404
 30
0.0
 10
234.4124134281
 20
277.0942334962
 30
0.0
 10
234.6582068484
 20
291.4567998174
 30
0.0
  0
SPLINE
  5
42D
330
1B
100
AcDbEntity
 67
     1
  8
7_ALL_FEATURES
  6
Continuous
 62
     7
100
AcDbSpline
 70
     0
 71
     3
 72
    11
 73
     7
 74
     0
 42
0.000000001
 43
0.0000001
 40
0.0
 40
0.0
 40
0.0
 40
0.0
 40
0.3214434963
 40
0.606425418
 40
0.8308280309
 40
1.0
 40
1.0
 40
1.0
 40
1.0
 10
196.440263071
 20
203.9480730662
 30
0.0
 10
196.4407961544
 20
203.8850137038
 30
0.0
 10
196.4523938401
 20
203.7656527208
 30
0.0
 10
196.5017112675
 20
203.609139457
 30
0.0
 10
196.5745404756
 20
203.4943306393
 30
0.0
 10
196.6503376946
 20
203.4570605637
 30
0.0
 10
196.6835253328
 20
203.4568086865
 30
0.0
  0
LINE
  5
42E
330
1B
100
AcDbEntity
 67
     1
  8
7_ALL_FEATURES
  6
Continuous
 62
     9
100
AcDbLine
 10
201.8119510365
 20
203.4567998174
 30
0.0
 11
201.8119510379
 21
203.9480736142
 31
0.0
  0
SPLINE
  5
42F
330
1B
100
AcDbEntity
 67
     1
  8
7_ALL_FEATURES
  6
Continuous
 62
     7
100
AcDbSpline
 70
     0
 71
     3
 72
     9
 73
     5
 74
     0
 42
0.000000001
 43
0.0000001
 40
0.0
 40
0.0
 40
0.0
 40
0.0
 40
0.5000221811
 40
1.0
 40
1.0
 40
1.0
 40
1.0
 10
208.4870848449
 20
248.3945721251
 30
0.0
 10
208.6029077698
 20
248.3945720942
 30
0.0
 10
208.8345158331
 20
248.3894714134
 30
0.0
 10
209.0660336442
 20
248.3811788792
 30
0.0
 10
209.1816492677
 20
248.3744263032
 30
0.0
  0
LINE
  5
430
330
1B
100
AcDbEntity
 67
     1
  8
7_ALL_FEATURES
  6
Continuous
 62
     7
100
AcDbLine
 10
189.7542768344
 20
226.4567998173
 30
0.0
 11
184.3101727324
 21
248.374575901
 31
0.0
  0
SPLINE
  5
431
330
1B
100
AcDbEntity
 67
     1
  8
7_ALL_FEATURES
  6
Continuous
 62
     7
100
AcDbSpline
 70
     0
 71
     3
 72
     8
 73
     4
 74
     0
 42
0.000000001
 43
0.0000001
 40
0.0
 40
0.0
 40
0.0
 40
0.0
 40
1.0
 40
1.0
 40
1.0
 40
1.0
 10
233.0161491121
 20
306.9567998174
 30
0.0
 10
232.8995327009
 20
287.4291634342
 30
0.0
 10
232.7820019775
 20
267.9015325011
 30
0.0
 10
232.6638241627
 20
248.3739055048
 30
0.0
  0
LINE
  5
432
330
1B
100
AcDbEntity
 67
     1
  8
7_ALL_FEATURES
  6
Continuous
 62
     7
100
AcDbLine
 10
232.6638509674
 20
248.3739058356
 30
0.0
 11
227.2198864947
 21
226.4567998174
 31
0.0
  0
SPLINE
  5
433
330
1B
100
AcDbEntity
 67
     1
  8
7_ALL_FEATURES
  6
Continuous
 62
     7
100
AcDbSpline
 70
     0
 71
     3
 72
     9
 73
     5
 74
     0
 42
0.000000001
 43
0.0000001
 40
0.0
 40
0.0
 40
0.0
 40
0.0
 40
0.2522687471
 40
1.0
 40
1.0
 40
1.0
 40
1.0
 10
232.6638509674
 20
248.3739058356
 30
0.0
 10
232.7052881447
 20
248.3772267689
 30
0.0
 10
232.8696186678
 20
248.3895321584
 30
0.0
 10
233.0345008228
 20
248.3938975433
 30
0.0
 10
233.1577155244
 20
248.393897497
 30
0.0
  0
SPLINE
  5
434
330
1B
100
AcDbEntity
 67
     1
  8
7_ALL_FEATURES
  6
Continuous
 62
     7
100
AcDbSpline
 70
     0
 71
     3
 72
     9
 73
     5
 74
     0
 42
0.000000001
 43
0.0000001
 40
0.0
 40
0.0
 40
0.0
 40
0.0
 40
0.2520426337
 40
1.0
 40
1.0
 40
1.0
 40
1.0
 10
233.1577155244
 20
248.393897497
 30
0.0
 10
233.1983941152
 20
248.3938974817
 30
0.0
 10
233.3597946405
 20
248.3930770631
 30
0.0
 10
233.5210995842
 20
248.3839570907
 30
0.0
 10
233.6413974916
 20
248.3739058357
 30
0.0
  0
LINE
  5
435
330
1B
100
AcDbEntity
 67
     1
  8
7_ALL_FEATURES
  6
Continuous
 62
     9
100
AcDbLine
 10
242.2006465642
 20
306.9567892431
 30
0.0
 11
242.0762864543
 21
291.4567529768
 31
0.0
  0
LWPOLYLINE
  5
436
330
1B
100
AcDbEntity
 67
     1
  8
7_ALL_FEATURES
  6
Continuous
 62
     9
100
AcDbPolyline
 90
        4
 70
     0
 43
0.0
 10
242.2006465642
 20
306.9567892431
 10
242.1589376453
 20
301.7877804267
 10
242.1166455466
 20
296.6211572067
 10
242.0737576351
 20
291.4567998174
  0
LINE
  5
437
330
1B
100
AcDbEntity
 67
     1
  8
7_ALL_FEATURES
  6
Continuous
 62
     9
100
AcDbLine
 10
215.1622122912
 20
203.9480736142
 30
0.0
 11
215.1622122926
 21
203.4567998174
 31
0.0
  0
SPLINE
  5
438
330
1B
100
AcDbEntity
 67
     1
  8
7_ALL_FEATURES
  6
Continuous
 62
     7
100
AcDbSpline
 70
     0
 71
     3
 72
     8
 73
     4
 74
     0
 42
0.000000001
 43
0.0000001
 40
0.0
 40
0.0
 40
0.0
 40
0.0
 40
1.0
 40
1.0
 40
1.0
 40
1.0
 10
244.1123017848
 20
291.4567998177
 30
0.0
 10
243.8652775739
 20
277.0960495497
 30
0.0
 10
243.6178991642
 20
262.7353053519
 30
0.0
 10
243.3696677067
 20
248.374575901
 30
0.0
  0
LINE
  5
439
330
1B
100
AcDbEntity
 67
     1
  8
7_ALL_FEATURES
  6
Continuous
 62
     9
100
AcDbLine
 10
235.0078273201
 20
306.9567998174
 30
0.0
 11
234.863133191
 21
291.4567998174
 31
0.0
  0
LWPOLYLINE
  5
43A
330
1B
100
AcDbEntity
 67
     1
  8
7_ALL_FEATURES
  6
Continuous
 62
     9
100
AcDbPolyline
 90
        4
 70
     0
 43
0.0
 10
235.0078273201
 20
306.9567998174
 10
234.9598016859
 20
301.7766202875
 10
234.9115705407
 20
296.6099607048
 10
234.8631331909
 20
291.4567998174
  0
LINE
  5
43B
330
1B
100
AcDbEntity
 67
     1
  8
7_ALL_FEATURES
  6
Continuous
 62
     9
100
AcDbLine
 10
174.898120635
 20
291.456753366
 30
0.0
 11
174.7735167649
 21
306.9567892431
 31
0.0
  0
LWPOLYLINE
  5
43C
330
1B
100
AcDbEntity
 67
     1
  8
7_ALL_FEATURES
  6
Continuous
 62
     9
100
AcDbPolyline
 90
        4
 70
     0
 43
0.0
 10
174.9006283716
 20
291.4567998174
 10
174.8575177011
 20
296.6211670829
 10
174.8152256483
 20
301.7877847987
 10
174.7735167649
 20
306.9567892431
  0
SPLINE
  5
43D
330
1B
100
AcDbEntity
 67
     1
  8
7_ALL_FEATURES
  6
Continuous
 62
     7
100
AcDbSpline
 70
     0
 71
     3
 72
     8
 73
     4
 74
     0
 42
0.000000001
 43
0.0000001
 40
0.0
 40
0.0
 40
0.0
 40
0.0
 40
1.0
 40
1.0
 40
1.0
 40
1.0
 10
173.6044956224
 20
248.374575901
 30
0.0
 10
173.3562641649
 20
262.7353053519
 30
0.0
 10
173.1088857552
 20
277.0960495497
 30
0.0
 10
172.8618615444
 20
291.4567998177
 30
0.0
  0
ARC
  5
43E
330
1B
100
AcDbEntity
 67
     1
  8
7_ALL_FEATURES
  6
Continuous
 62
     9
100
AcDbCircle
 10
217.8475261696
 20
783.9775049144
 30
0.0
 40
580.0356472537
100
AcDbArc
 50
269.7347444037
 51
270.2653762232
  0
DIMENSION
  5
43F
330
1B
100
AcDbEntity
 67
     1
  8
0
  6
Continuous
 62
     2
100
AcDbDimension
280
     0
  2
*D1
 10
107.7682148893
 20
125.2816597715
 30
0.0
 11
115.961866523
 21
137.0364871306
 31
0.0
 70
   163
  1
%%c<>
 71
     5
 42
-1.0
 73
     0
 74
     0
 75
     0
  3
DIMSTYLE_1
100
AcDbDiametricDimension
 15
57.5547313329
 25
73.1251946322
 35
0.0
 40
0.0
  0
DIMENSION
  5
440
330
1B
100
AcDbEntity
 67
     1
  8
0
  6
Continuous
 62
     2
100
AcDbDimension
280
     0
  2
*D2
 10
138.7353683097
 20
203.4567998174
 30
0.0
 11
138.7353683097
 21
188.920870543
 31
0.0
 70
   160
 71
     5
 42
-1.0
 73
     0
 74
     0
 75
     0
  3
DIMSTYLE_2
100
AcDbAlignedDimension
 13
126.8713245784
 23
174.4567998174
 33
0.0
 14
126.8713245784
 24
203.4567998174
 34
0.0
 50
90.0
100
AcDbRotatedDimension
  0
DIMENSION
  5
441
330
1B
100
AcDbEntity
 67
     1
  8
0
  6
Continuous
 62
     2
100
AcDbDimension
280
     0
  2
*D3
 10
138.7353683097
 20
323.4567997685
 30
0.0
 11
138.7353683097
 21
263.5856936603
 31
0.0
 70
   160
 71
     5
 42
-1.0
 73
     0
 74
     0
 75
     0
  3
DIMSTYLE_3
100
AcDbAlignedDimension
 13
126.8713245784
 23
203.4567998174
 33
0.0
 14
126.8713245784
 24
323.4567997685
 34
0.0
 50
90.0
100
AcDbRotatedDimension
  0
DIMENSION
  5
442
330
1B
100
AcDbEntity
 67
     1
  8
0
  6
Continuous
 62
     2
100
AcDbDimension
280
     0
  2
*D4
 10
138.7353683097
 20
343.4567998174
 30
0.0
 11
138.7353683097
 21
333.4208705185
 31
0.0
 70
   160
 71
     5
 42
-1.0
 73
     0
 74
     0
 75
     0
  3
DIMSTYLE_2
100
AcDbAlignedDimension
 13
126.8713245784
 23
323.4567997685
 33
0.0
 14
124.9701098618
 24
343.4567998174
 34
0.0
 50
90.0
100
AcDbRotatedDimension
  0
DIMENSION
  5
443
330
1B
100
AcDbEntity
 67
     1
  8
0
  6
Continuous
 62
     2
100
AcDbDimension
280
     0
  2
*D5
 10
32.9692933969
 20
174.4567998174
 30
0.0
 11
32.9692933969
 21
259.0856878683
 31
0.0
 70
   160
 71
     5
 42
-1.0
 73
     0
 74
     0
 75
     0
  3
DIMSTYLE_4
100
AcDbAlignedDimension
 13
52.1205650133
 23
343.4567998174
 33
0.0
 14
50.6460011056
 24
174.4567998174
 34
0.0
 50
270.0
100
AcDbRotatedDimension
  0
LINE
  5
444
330
1B
100
AcDbEntity
 67
     1
  8
0
  6
Continuous
 62
     2
100
AcDbLine
 10
159.4804581924
 20
73.3350717903
 30
0.0
 11
289.4804581924
 21
73.3350717903
 31
0.0
  0
LINE
  5
445
330
1B
100
AcDbEntity
 67
     1
  8
0
  6
Continuous
 62
     2
100
AcDbLine
 10
159.4804581924
 20
73.3350717903
 30
0.0
 11
159.4804581924
 21
7.3350717903
 31
0.0
  0
LINE
  5
446
330
1B
100
AcDbEntity
 67
     1
  8
0
  6
Continuous
 62
     2
100
AcDbLine
 10
189.4804581924
 20
65.3350717903
 30
0.0
 11
289.4804581924
 21
65.3350717903
 31
0.0
  0
LINE
  5
447
330
1B
100
AcDbEntity
 67
     1
  8
0
  6
Continuous
 62
     2
100
AcDbLine
 10
159.4804581924
 20
57.3350717903
 30
0.0
 11
289.4804581924
 21
57.3350717903
 31
0.0
  0
LINE
  5
448
330
1B
100
AcDbEntity
 67
     1
  8
0
  6
Continuous
 62
     2
100
AcDbLine
 10
189.4804581924
 20
51.3350717903
 30
0.0
 11
289.4804581924
 21
51.3350717903
 31
0.0
  0
LINE
  5
449
330
1B
100
AcDbEntity
 67
     1
  8
0
  6
Continuous
 62
     2
100
AcDbLine
 10
189.4804581924
 20
45.3350717903
 30
0.0
 11
289.4804581924
 21
45.3350717903
 31
0.0
  0
LINE
  5
44A
330
1B
100
AcDbEntity
 67
     1
  8
0
  6
Continuous
 62
     2
100
AcDbLine
 10
189.4804581924
 20
39.3350717903
 30
0.0
 11
289.4804581924
 21
39.3350717903
 31
0.0
  0
LINE
  5
44B
330
1B
100
AcDbEntity
 67
     1
  8
0
  6
Continuous
 62
     2
100
AcDbLine
 10
189.4804581924
 20
33.3350717903
 30
0.0
 11
289.4804581924
 21
33.3350717903
 31
0.0
  0
LINE
  5
44C
330
1B
100
AcDbEntity
 67
     1
  8
0
  6
Continuous
 62
     2
100
AcDbLine
 10
189.4804581924
 20
27.3350717903
 30
0.0
 11
289.4804581924
 21
27.3350717903
 31
0.0
  0
LINE
  5
44D
330
1B
100
AcDbEntity
 67
     1
  8
0
  6
Continuous
 62
     2
100
AcDbLine
 10
159.4804581924
 20
21.3350717903
 30
0.0
 11
289.4804581924
 21
21.3350717903
 31
0.0
  0
LINE
  5
44E
330
1B
100
AcDbEntity
 67
     1
  8
0
  6
Continuous
 62
     2
100
AcDbLine
 10
159.4804581924
 20
15.3350717903
 30
0.0
 11
289.4804581924
 21
15.3350717903
 31
0.0
  0
LINE
  5
44F
330
1B
100
AcDbEntity
 67
     1
  8
0
  6
Continuous
 62
     2
100
AcDbLine
 10
159.4804581924
 20
11.3350717903
 30
0.0
 11
289.4804581924
 21
11.3350717903
 31
0.0
  0
LINE
  5
450
330
1B
100
AcDbEntity
 67
     1
  8
0
  6
Continuous
 62
     2
100
AcDbLine
 10
159.4804581924
 20
7.3350717903
 30
0.0
 11
289.4804581924
 21
7.3350717903
 31
0.0
  0
LINE
  5
451
330
1B
100
AcDbEntity
 67
     1
  8
0
  6
Continuous
 62
     2
100
AcDbLine
 10
189.4804581924
 20
73.3350717903
 30
0.0
 11
189.4804581924
 21
15.3350717903
 31
0.0
  0
LINE
  5
452
330
1B
100
AcDbEntity
 67
     1
  8
0
  6
Continuous
 62
     2
100
AcDbLine
 10
209.4804581924
 20
57.3350717903
 30
0.0
 11
209.4804581924
 21
51.3350717903
 31
0.0
  0
LINE
  5
453
330
1B
100
AcDbEntity
 67
     1
  8
0
  6
Continuous
 62
     2
100
AcDbLine
 10
239.4804581924
 20
27.3350717903
 30
0.0
 11
239.4804581924
 21
15.3350717903
 31
0.0
  0
LINE
  5
454
330
1B
100
AcDbEntity
 67
     1
  8
0
  6
Continuous
 62
     2
100
AcDbLine
 10
249.4804581924
 20
57.3350717903
 30
0.0
 11
249.4804581924
 21
51.3350717903
 31
0.0
  0
LINE
  5
455
330
1B
100
AcDbEntity
 67
     1
  8
0
  6
Continuous
 62
     2
100
AcDbLine
 10
249.4804581924
 20
45.3350717903
 30
0.0
 11
249.4804581924
 21
39.3350717903
 31
0.0
  0
LINE
  5
456
330
1B
100
AcDbEntity
 67
     1
  8
0
  6
Continuous
 62
     2
100
AcDbLine
 10
269.4804581924
 20
57.3350717903
 30
0.0
 11
269.4804581924
 21
51.3350717903
 31
0.0
  0
LINE
  5
457
330
1B
100
AcDbEntity
 67
     1
  8
0
  6
Continuous
 62
     2
100
AcDbLine
 10
279.4804581924
 20
45.3350717903
 30
0.0
 11
279.4804581924
 21
39.3350717903
 31
0.0
  0
LINE
  5
458
330
1B
100
AcDbEntity
 67
     1
  8
0
  6
Continuous
 62
     2
100
AcDbLine
 10
289.4804581924
 20
73.3350717903
 30
0.0
 11
289.4804581924
 21
7.3350717903
 31
0.0
  0
INSERT
  5
459
330
1B
100
AcDbEntity
 67
     1
  8
0
  6
Continuous
 62
     2
100
AcDbBlockReference
  2
PROIEZIONE_EU_BL0
 10
174.4804581924
 20
64.9600717903
 30
0.0
  0
MTEXT
  5
45A
330
1B
100
AcDbEntity
 67
     1
  8
9_SOLID
  6
Continuous
 62
     2
100
AcDbMText
 10
190.9679581924
 20
71.7100717903
 30
0.0
 40
1.9
 41
142.3642857143
 46
0.0
 71
     1
 72
     1
  1
EN: Chamfer/radii unlisted 0.3x45°. Remove sharp edges.\PGen. tol.: hole H11, shaft h11, lenght Js12. UNI EN 22768 Medium Grande.
  7
TEXTSTYLE_4
 73
     1
 44
1.0
  0
MTEXT
  5
45B
330
1B
100
AcDbEntity
 67
     1
  8
9_SOLID
  6
Continuous
 62
     2
100
AcDbMText
 10
190.9679581924
 20
63.7100717903
 30
0.0
 40
1.9
 41
148.2678571429
 46
0.0
 71
     1
 72
     1
  1
IT: Sm./rac. non quotati 0.3x45°. Eliminare spigoli taglienti.\PToll. gen.: foro H11, albero h11, lunghezza Js12. UNI EN 22768 Grado Medio.
  7
TEXTSTYLE_4
 73
     1
 44
1.0
  0
INSERT
  5
45C
330
1B
100
AcDbEntity
 67
     1
  8
0
  6
Continuous
 62
     2
100
AcDbBlockReference
  2
LOGO2_BL1
 10
173.3065052371
 20
39.3350717903
 30
0.0
  0
MTEXT
  5
45D
330
1B
100
AcDbEntity
 67
     1
  8
9_SOLID
  6
Continuous
 62
     2
100
AcDbMText
 10
190.9679581924
 20
55.5850717903
 30
0.0
 40
3.0
 41
24.2142857143
 46
0.0
 71
     1
 72
     1
  1
Pj: CW1
  7
TEXTSTYLE_4
 73
     1
 44
1.0
  0
MTEXT
  5
45E
330
1B
100
AcDbEntity
 67
     1
  8
0
  6
Continuous
 62
     2
100
AcDbMText
 10
210.9679581924
 20
55.5850717903
 30
0.0
 40
3.0
 41
41.5714285714
 46
0.0
 71
     1
 72
     1
  1
% Check:  %
  7
TEXTSTYLE_4
 73
     1
 44
1.0
  0
MTEXT
  5
45F
330
1B
100
AcDbEntity
 67
     1
  8
9_SOLID
  6
Continuous
 62
     2
100
AcDbMText
 10
250.9679581924
 20
55.5850717903
 30
0.0
 40
3.0
 41
19.5
 46
0.0
 71
     1
 72
     1
  1
Rev:00
  7
TEXTSTYLE_4
 73
     1
 44
1.0
  0
MTEXT
  5
460
330
1B
100
AcDbEntity
 67
     1
  8
9_SOLID
  6
Continuous
 62
     2
100
AcDbMText
 10
270.9679581924
 20
55.8350717903
 30
0.0
 40
3.0
 41
19.7142857143
 46
0.0
 71
     1
 72
     1
  1
Ver: A
  7
TEXTSTYLE_4
 73
     1
 44
1.0
  0
MTEXT
  5
461
330
1B
100
AcDbEntity
 67
     1
  8
9_SOLID
  6
Continuous
 62
     2
100
AcDbMText
 10
190.9679581924
 20
49.5850717903
 30
0.0
 40
3.0
 41
42.9642857143
 46
0.0
 71
     1
 72
     1
  1
Neutral code: 
  7
TEXTSTYLE_4
 73
     1
 44
1.0
  0
MTEXT
  5
462
330
1B
100
AcDbEntity
 67
     1
  8
0
  6
Continuous
 62
     2
100
AcDbMText
 10
190.9679581924
 20
43.5850717903
 30
0.0
 40
3.0
 41
22.9285714286
 46
0.0
 71
     1
 72
     1
  1
Code:  
  7
TEXTSTYLE_4
 73
     1
 44
1.0
  0
MTEXT
  5
463
330
1B
100
AcDbEntity
 67
     1
  8
9_SOLID
  6
Continuous
 62
     2
100
AcDbMText
 10
250.9679581924
 20
43.8350717903
 30
0.0
 40
3.0
 41
27.8571428571
 46
0.0
 71
     1
 72
     1
  1
Scale: 1:1
  7
TEXTSTYLE_4
 73
     1
 44
1.0
  0
MTEXT
  5
464
330
1B
100
AcDbEntity
 67
     1
  8
9_SOLID
  6
Continuous
 62
     2
100
AcDbMText
 10
284.4804581924
 20
43.8350717903
 30
0.0
 40
3.0
 41
7.9285714286
 46
0.0
 71
     2
 72
     1
  1
A3
  7
TEXTSTYLE_4
 73
     1
 44
1.0
  0
MTEXT
  5
465
330
1B
100
AcDbEntity
 67
     1
  8
9_SOLID
  6
Continuous
 62
     2
100
AcDbMText
 10
190.9679581924
 20
37.7100717903
 30
0.0
 40
2.75
 41
147.4883928571
 46
0.0
 71
     1
 72
     1
  1
It descr.: CASSAFORMA Ø72X170 BRIGHT1.0 316L PVC
  7
TEXTSTYLE_4
 73
     1
 44
1.0
  0
MTEXT
  5
466
330
1B
100
AcDbEntity
 67
     1
  8
0
  6
Continuous
 62
     2
100
AcDbMText
 10
190.9679581924
 20
31.8350717903
 30
0.0
 40
3.0
 41
37.5
 46
0.0
 71
     1
 72
     1
  1
En descr.:  
  7
TEXTSTYLE_4
 73
     1
 44
1.0
  0
MTEXT
  5
467
330
1B
100
AcDbEntity
 67
     1
  8
9_SOLID
  6
Continuous
 62
     2
100
AcDbMText
 10
190.9679581924
 20
25.8350717903
 30
0.0
 40
3.0
 41
31.2857142857
 46
0.0
 71
     1
 72
     1
  1
Des.: S.Z.
  7
TEXTSTYLE_4
 73
     1
 44
1.0
  0
MTEXT
  5
468
330
1B
100
AcDbEntity
 67
     1
  8
9_SOLID
  6
Continuous
 62
     2
100
AcDbMText
 10
240.9679581924
 20
25.8350717903
 30
0.0
 40
3.0
 41
34.8214285714
 46
0.0
 71
     1
 72
     1
  1
Check: A.P.
  7
TEXTSTYLE_4
 73
     1
 44
1.0
  0
MTEXT
  5
469
330
1B
100
AcDbEntity
 67
     1
  8
9_SOLID
  6
Continuous
 62
     2
100
AcDbMText
 10
160.9679581924
 20
19.8350717903
 30
0.0
 40
3.0
 41
43.5
 46
0.0
 71
     1
 72
     1
  1
Date: 20.12.18
  7
TEXTSTYLE_4
 73
     1
 44
1.0
  0
MTEXT
  5
46A
330
1B
100
AcDbEntity
 67
     1
  8
0
  6
Continuous
 62
     2
100
AcDbMText
 10
190.9679581924
 20
19.8350717903
 30
0.0
 40
3.0
 41
21.75
 46
0.0
 71
     1
 72
     1
  1
Mat.:  
  7
TEXTSTYLE_4
 73
     1
 44
1.0
  0
MTEXT
  5
46B
330
1B
100
AcDbEntity
 67
     1
  8
9_SOLID
  6
Continuous
 62
     2
100
AcDbMText
 10
240.9679581924
 20
19.3350717903
 30
0.0
 40
2.0
 41
42.3571428571
 46
0.0
 71
     1
 72
     1
  1
Disegno per catalogo
  7
TEXTSTYLE_4
 73
     1
 44
1.0
  0
MTEXT
  5
46C
330
1B
100
AcDbEntity
 67
     1
  8
9_SOLID
  6
Continuous
 62
     2
100
AcDbMText
 10
160.9679581924
 20
14.2350717903
 30
0.0
 40
1.8
 41
176.2071428571
 46
0.0
 71
     1
 72
     1
  1
It: A norma di legge si diffida da qualsiasi riproduzione senza nostra autorizzazione esplicita.
  7
TEXTSTYLE_4
 73
     1
 44
1.0
  0
MTEXT
  5
46D
330
1B
100
AcDbEntity
 67
     1
  8
9_SOLID
  6
Continuous
 62
     2
100
AcDbMText
 10
160.9679581924
 20
10.2350717903
 30
0.0
 40
1.8
 41
158.1428571429
 46
0.0
 71
     1
 72
     1
  1
En: According to the law, beware of any reproduction made without our authorization.
  7
TEXTSTYLE_4
 73
     1
 44
1.0
  0
ENDSEC
  0
SECTION
  2
OBJECTS
  0
DICTIONARY
  5
46E
330
0
100
AcDbDictionary
281
     1
  3
ACAD_DETAILVIEWSTYLE
350
4C4
  3
ACAD_GROUP
350
46F
  3
ACAD_LAYOUT
350
497
  3
ACAD_MATERIAL
350
4B3
  3
ACAD_MLEADERSTYLE
350
4B9
  3
ACAD_MLINESTYLE
350
470
  3
ACAD_PLOTSETTINGS
350
472
  3
ACAD_PLOTSTYLENAME
350
473
  3
ACAD_SCALELIST
350
475
  3
ACAD_SECTIONVIEWSTYLE
350
4C5
  3
ACAD_TABLESTYLE
350
4B7
  3
ACAD_VISUALSTYLE
350
49A
  3
ACDB_RECOMPOSE_DATA
350
4C0
  3
AcDbVariableDictionary
350
4BC
  3
APPDATA
350
4BB
  0
DICTIONARY
  5
4C4
102
{ACAD_REACTORS
330
46E
102
}
330
46E
100
AcDbDictionary
281
     1
  0
DICTIONARY
  5
46F
102
{ACAD_REACTORS
330
46E
102
}
330
46E
100
AcDbDictionary
281
     1
  0
DICTIONARY
  5
497
102
{ACAD_REACTORS
330
46E
102
}
330
46E
100
AcDbDictionary
281
     1
  3
Foglio 1
350
499
  3
Model
350
498
  0
DICTIONARY
  5
4B3
102
{ACAD_REACTORS
330
46E
102
}
330
46E
100
AcDbDictionary
281
     1
  3
ByBlock
350
4B5
  3
ByLayer
350
4B4
  3
Global
350
4B6
  0
DICTIONARY
  5
4B9
102
{ACAD_REACTORS
330
46E
102
}
330
46E
100
AcDbDictionary
281
     1
  3
Standard
350
4BA
  0
DICTIONARY
  5
470
102
{ACAD_REACTORS
330
46E
102
}
330
46E
100
AcDbDictionary
281
     1
  3
STANDARD
350
471
  0
DICTIONARY
  5
472
102
{ACAD_REACTORS
330
46E
102
}
330
46E
100
AcDbDictionary
281
     1
  0
ACDBDICTIONARYWDFLT
  5
473
102
{ACAD_REACTORS
330
46E
102
}
330
46E
100
AcDbDictionary
281
     1
  3
Normal
350
474
100
AcDbDictionaryWithDefault
340
474
  0
DICTIONARY
  5
475
102
{ACAD_REACTORS
330
46E
102
}
330
46E
100
AcDbDictionary
281
     1
  3
A0
350
476
  3
A1
350
477
  3
A2
350
478
  3
A3
350
479
  3
A4
350
47A
  3
A5
350
47B
  3
A6
350
47C
  3
A7
350
47D
  3
A8
350
47E
  3
A9
350
47F
  3
B0
350
480
  3
B1
350
481
  3
B2
350
482
  3
B3
350
483
  3
B4
350
484
  3
B5
350
485
  3
B6
350
486
  3
B7
350
487
  3
B8
350
488
  3
B9
350
489
  3
C0
350
48A
  3
C1
350
48B
  3
C2
350
48C
  3
C3
350
48D
  3
C4
350
48E
  3
C5
350
48F
  3
C6
350
490
  3
C7
350
491
  3
C8
350
492
  3
C9
350
493
  3
D0
350
494
  3
D1
350
495
  3
D2
350
496
  0
DICTIONARY
  5
4C5
102
{ACAD_REACTORS
330
46E
102
}
330
46E
100
AcDbDictionary
281
     1
  0
DICTIONARY
  5
4B7
102
{ACAD_REACTORS
330
46E
102
}
330
46E
100
AcDbDictionary
281
     1
  3
Standard
350
4B8
  0
DICTIONARY
  5
49A
102
{ACAD_REACTORS
330
46E
102
}
330
46E
100
AcDbDictionary
281
     1
  3
2dWireframe
350
49F
  3
Basic
350
4A2
  3
Brighten
350
4A6
  3
ColorChange
350
4AA
  3
Conceptual
350
4A4
  3
Dim
350
4A5
  3
EdgeColorOff
350
4AD
  3
Facepattern
350
4A9
  3
Flat
350
49B
  3
FlatWithEdges
350
49C
  3
Gouraud
350
49D
  3
GouraudWithEdges
350
49E
  3
Hidden
350
4A1
  3
JitterOff
350
4AB
  3
Linepattern
350
4A8
  3
OverhangOff
350
4AC
  3
Realistic
350
4A3
  3
Shaded
350
4B2
  3
Shaded with edges
350
4B1
  3
Shades of Gray
350
4AE
  3
Sketchy
350
4AF
  3
Thicken
350
4A7
  3
Wireframe
350
4A0
  3
X-Ray
350
4B0
  0
XRECORD
  5
4C0
102
{ACAD_REACTORS
330
46E
102
}
330
46E
100
AcDbXrecord
280
     1
 90
        1
330
4B8
  0
DICTIONARY
  5
4BC
102
{ACAD_REACTORS
330
46E
102
}
330
46E
100
AcDbDictionary
281
     1
  3
CANNOSCALE
350
4BD
  3
CMLEADERSTYLE
350
4C2
  3
CTABLESTYLE
350
4C1
  3
MSLTSCALE
350
4C3
  0
DICTIONARY
  5
4BB
102
{ACAD_REACTORS
330
46E
102
}
330
46E
100
AcDbDictionary
281
     1
  0
LAYOUT
  5
499
102
{ACAD_REACTORS
330
497
102
}
330
497
100
AcDbPlotSettings
  1

  2
none_device
  4
ISO_A3_(420.00_x_297.00_MM)
  6

 40
7.5
 41
20.0
 42
7.5
 43
20.0
 44
420.0
 45
297.0
 46
0.0
 47
0.0
 48
0.0
 49
0.0
140
0.0
141
0.0
142
1.0
143
1.634241245136187
 70
   688
 72
     1
 73
     0
 74
     1
  7

 75
     0
 76
     0
 77
     2
 78
   300
147
0.611904761904762
148
0.0
149
0.0
100
AcDbLayout
  1
Foglio 1
 70
     1
 71
     1
 10
0.0
 20
0.0
 11
412.5
 21
277.0
 12
0.0
 22
0.0
 32
0.0
 14
0.0
 24
0.0
 34
0.0
 15
297.0196248590667
 25
420.0
 35
0.0
146
0.0
 13
0.0
 23
0.0
 33
0.0
 16
1.0
 26
0.0
 36
0.0
 17
0.0
 27
1.0
 37
0.0
 76
     0
330
1B
331
2A7
  0
LAYOUT
  5
498
102
{ACAD_REACTORS
330
497
102
}
330
497
100
AcDbPlotSettings
  1

  2
none_device
  4
Letter_(8.50_x_11.00_Inches)
  6

 40
6.35
 41
6.35
 42
6.35
 43
6.35
 44
215.9
 45
279.4
 46
0.0
 47
0.0
 48
0.0
 49
0.0
140
0.0
141
0.0
142
1.0
143
40.00000000000001
 70
  1712
 72
     0
 73
     0
 74
     0
  7

 75
     0
 76
     0
 77
     2
 78
   300
147
0.025
148
-0.0000002285997482
149
0.0
100
AcDbLayout
  1
Model
 70
     1
 71
     0
 10
0.0
 20
0.0
 11
297.0
 21
420.0
 12
0.0
 22
0.0
 32
0.0
 14
0.0
 24
0.0
 34
0.0
 15
297.0
 25
420.0
 35
0.0
146
0.0
 13
0.0
 23
0.0
 33
0.0
 16
1.0
 26
0.0
 36
0.0
 17
0.0
 27
1.0
 37
0.0
 76
     0
330
1F
331
1F4
  0
MATERIAL
  5
4B5
102
{ACAD_REACTORS
330
4B3
102
}
330
4B3
100
AcDbMaterial
  1
ByBlock
 72
     1
 94
      127
  0
MATERIAL
  5
4B4
102
{ACAD_REACTORS
330
4B3
102
}
330
4B3
100
AcDbMaterial
  1
ByLayer
 72
     1
 94
      127
  0
MATERIAL
  5
4B6
102
{ACAD_REACTORS
330
4B3
102
}
330
4B3
100
AcDbMaterial
  1
Global
 72
     1
 94
      127
  0
MLEADERSTYLE
  5
4BA
102
{ACAD_REACTORS
330
4B9
102
}
330
4B9
100
AcDbMLeaderStyle
179
     2
170
     2
171
     1
172
     0
 90
        2
 40
0.0
 41
0.0
173
     1
 91
-1056964608
340
14
 92
       -2
290
     1
 42
2.0
291
     1
 43
8.0
  3
Standard
341
0
 44
4.0
300

342
11
174
     1
178
     1
175
     1
176
     0
 93
-1056964608
 45
4.0
292
     0
297
     0
 46
4.0
343
0
 94
-1056964608
 47
1.0
 49
1.0
140
1.0
293
     1
141
0.0
294
     1
177
     0
142
1.0
295
     0
296
     0
143
3.75
271
     0
272
     9
273
     9
298
     0
  0
MLINESTYLE
  5
471
102
{ACAD_REACTORS
330
470
102
}
330
470
100
AcDbMlineStyle
  2
STANDARD
 70
     0
  3

 62
   256
 51
90.0
 52
90.0
 71
     2
 49
0.5
 62
   256
  6
BYLAYER
 49
-0.5
 62
   256
  6
BYLAYER
  0
ACDBPLACEHOLDER
  5
474
102
{ACAD_REACTORS
330
473
102
}
330
473
  0
SCALE
  5
476
102
{ACAD_REACTORS
330
475
102
}
330
475
100
AcDbScale
 70
     0
300
1:1
140
1.0
141
1.0
290
     1
  0
SCALE
  5
477
102
{ACAD_REACTORS
330
475
102
}
330
475
100
AcDbScale
 70
     0
300
1:2
140
1.0
141
2.0
290
     0
  0
SCALE
  5
478
102
{ACAD_REACTORS
330
475
102
}
330
475
100
AcDbScale
 70
     0
300
1:4
140
1.0
141
4.0
290
     0
  0
SCALE
  5
479
102
{ACAD_REACTORS
330
475
102
}
330
475
100
AcDbScale
 70
     0
300
1:5
140
1.0
141
5.0
290
     0
  0
SCALE
  5
47A
102
{ACAD_REACTORS
330
475
102
}
330
475
100
AcDbScale
 70
     0
300
1:8
140
1.0
141
8.0
290
     0
  0
SCALE
  5
47B
102
{ACAD_REACTORS
330
475
102
}
330
475
100
AcDbScale
 70
     0
300
1:10
140
1.0
141
10.0
290
     0
  0
SCALE
  5
47C
102
{ACAD_REACTORS
330
475
102
}
330
475
100
AcDbScale
 70
     0
300
1:16
140
1.0
141
16.0
290
     0
  0
SCALE
  5
47D
102
{ACAD_REACTORS
330
475
102
}
330
475
100
AcDbScale
 70
     0
300
1:20
140
1.0
141
20.0
290
     0
  0
SCALE
  5
47E
102
{ACAD_REACTORS
330
475
102
}
330
475
100
AcDbScale
 70
     0
300
1:30
140
1.0
141
30.0
290
     0
  0
SCALE
  5
47F
102
{ACAD_REACTORS
330
475
102
}
330
475
100
AcDbScale
 70
     0
300
1:40
140
1.0
141
40.0
290
     0
  0
SCALE
  5
480
102
{ACAD_REACTORS
330
475
102
}
330
475
100
AcDbScale
 70
     0
300
1:50
140
1.0
141
50.0
290
     0
  0
SCALE
  5
481
102
{ACAD_REACTORS
330
475
102
}
330
475
100
AcDbScale
 70
     0
300
1:100
140
1.0
141
100.0
290
     0
  0
SCALE
  5
482
102
{ACAD_REACTORS
330
475
102
}
330
475
100
AcDbScale
 70
     0
300
2:1
140
2.0
141
1.0
290
     0
  0
SCALE
  5
483
102
{ACAD_REACTORS
330
475
102
}
330
475
100
AcDbScale
 70
     0
300
4:1
140
4.0
141
1.0
290
     0
  0
SCALE
  5
484
102
{ACAD_REACTORS
330
475
102
}
330
475
100
AcDbScale
 70
     0
300
8:1
140
8.0
141
1.0
290
     0
  0
SCALE
  5
485
102
{ACAD_REACTORS
330
475
102
}
330
475
100
AcDbScale
 70
     0
300
10:1
140
10.0
141
1.0
290
     0
  0
SCALE
  5
486
102
{ACAD_REACTORS
330
475
102
}
330
475
100
AcDbScale
 70
     0
300
100:1
140
100.0
141
1.0
290
     0
  0
SCALE
  5
487
102
{ACAD_REACTORS
330
475
102
}
330
475
100
AcDbScale
 70
     0
300
1/128" = 1'-0"
140
0.0078125
141
12.0
290
     0
  0
SCALE
  5
488
102
{ACAD_REACTORS
330
475
102
}
330
475
100
AcDbScale
 70
     0
300
1/64" = 1'-0"
140
0.015625
141
12.0
290
     0
  0
SCALE
  5
489
102
{ACAD_REACTORS
330
475
102
}
330
475
100
AcDbScale
 70
     0
300
1/32" = 1'-0"
140
0.03125
141
12.0
290
     0
  0
SCALE
  5
48A
102
{ACAD_REACTORS
330
475
102
}
330
475
100
AcDbScale
 70
     0
300
1/16" = 1'-0"
140
0.0625
141
12.0
290
     0
  0
SCALE
  5
48B
102
{ACAD_REACTORS
330
475
102
}
330
475
100
AcDbScale
 70
     0
300
3/32" = 1'-0"
140
0.09375
141
12.0
290
     0
  0
SCALE
  5
48C
102
{ACAD_REACTORS
330
475
102
}
330
475
100
AcDbScale
 70
     0
300
1/8" = 1'-0"
140
0.125
141
12.0
290
     0
  0
SCALE
  5
48D
102
{ACAD_REACTORS
330
475
102
}
330
475
100
AcDbScale
 70
     0
300
3/16" = 1'-0"
140
0.1875
141
12.0
290
     0
  0
SCALE
  5
48E
102
{ACAD_REACTORS
330
475
102
}
330
475
100
AcDbScale
 70
     0
300
1/4" = 1'-0"
140
0.25
141
12.0
290
     0
  0
SCALE
  5
48F
102
{ACAD_REACTORS
330
475
102
}
330
475
100
AcDbScale
 70
     0
300
3/8" = 1'-0"
140
0.375
141
12.0
290
     0
  0
SCALE
  5
490
102
{ACAD_REACTORS
330
475
102
}
330
475
100
AcDbScale
 70
     0
300
1/2" = 1'-0"
140
0.5
141
12.0
290
     0
  0
SCALE
  5
491
102
{ACAD_REACTORS
330
475
102
}
330
475
100
AcDbScale
 70
     0
300
3/4" = 1'-0"
140
0.75
141
12.0
290
     0
  0
SCALE
  5
492
102
{ACAD_REACTORS
330
475
102
}
330
475
100
AcDbScale
 70
     0
300
1" = 1'-0"
140
1.0
141
12.0
290
     0
  0
SCALE
  5
493
102
{ACAD_REACTORS
330
475
102
}
330
475
100
AcDbScale
 70
     0
300
1-1/2" = 1'-0"
140
1.5
141
12.0
290
     0
  0
SCALE
  5
494
102
{ACAD_REACTORS
330
475
102
}
330
475
100
AcDbScale
 70
     0
300
3" = 1'-0"
140
3.0
141
12.0
290
     0
  0
SCALE
  5
495
102
{ACAD_REACTORS
330
475
102
}
330
475
100
AcDbScale
 70
     0
300
6" = 1'-0"
140
6.0
141
12.0
290
     0
  0
SCALE
  5
496
102
{ACAD_REACTORS
330
475
102
}
330
475
100
AcDbScale
 70
     0
300
1'-0" = 1'-0"
140
12.0
141
12.0
290
     0
  0
TABLESTYLE
  5
4B8
102
{ACAD_REACTORS
330
4B7
102
}
102
{ACAD_XDICTIONARY
360
4BE
102
}
330
4B7
100
AcDbTableStyle
  3
Standard
 70
     0
 71
     0
 40
0.06
 41
0.06
280
     0
281
     0
  7
STANDARD
140
4.5
170
     2
 62
     0
 63
   257
283
     0
 90
        4
 91
        0
  1

274
    -2
284
     1
 64
     0
275
    -2
285
     1
 65
     0
276
    -2
286
     1
 66
     0
277
    -2
287
     1
 67
     0
278
    -2
288
     1
 68
     0
279
    -2
289
     1
 69
     0
  7
STANDARD
140
6.0
170
     5
 62
     0
 63
   257
283
     0
 90
        4
 91
        0
  1

274
    -2
284
     1
 64
     0
275
    -2
285
     1
 65
     0
276
    -2
286
     1
 66
     0
277
    -2
287
     1
 67
     0
278
    -2
288
     1
 68
     0
279
    -2
289
     1
 69
     0
  7
STANDARD
140
4.5
170
     5
 62
     0
 63
   257
283
     0
 90
        4
 91
        0
  1

274
    -2
284
     1
 64
     0
275
    -2
285
     1
 65
     0
276
    -2
286
     1
 66
     0
277
    -2
287
     1
 67
     0
278
    -2
288
     1
 68
     0
279
    -2
289
     1
 69
     0
  0
VISUALSTYLE
  5
49F
102
{ACAD_REACTORS
330
49A
102
}
330
49A
100
AcDbVisualStyle
  2
2dWireframe
 70
     4
177
     3
291
     0
 70
    58
 90
        0
176
     1
 90
        2
176
     1
 90
        0
176
     1
 90
        0
176
     1
 40
0.6
176
     1
 40
30.0
176
     1
 62
     7
420
 16777215
176
     1
 90
        1
176
     1
 90
        4
176
     1
 62
     7
176
     1
 62
   257
176
     1
 90
        1
176
     1
 90
        1
176
     1
 40
1.0
176
     1
 90
        0
176
     1
 62
   257
176
     1
 40
1.0
176
     1
 90
        1
176
     1
 90
        6
176
     1
 90
        2
176
     1
 62
     7
176
     1
 90
        5
176
     1
 90
        0
176
     1
 90
        0
176
     1
290
     0
176
     1
 90
        1
176
     1
 40
0.0
176
     1
 90
        0
176
     1
290
     1
176
     1
290
     1
176
     1
290
     0
176
     1
290
     0
176
     1
290
     0
176
     1
290
     0
176
     1
290
     0
176
     1
290
     0
176
     1
290
     0
176
     1
 90
       50
176
     1
 40
0.0
176
     1
 40
1.0
176
     1
 90
        0
176
     1
 62
    18
420
        0
176
     1
 90
       50
176
     1
 90
        3
176
     1
 62
     5
420
      255
176
     1
290
     0
176
     1
 90
       50
176
     1
 90
       50
176
     1
 90
       50
176
     1
290
     0
176
     1
 90
       50
176
     1
 62
   256
176
     0
 40
1.0
176
     0
 90
        2
176
     1
  1
strokes_ogs.tif
176
     1
290
     0
176
     1
 40
1.0
176
     1
 40
1.0
176
     1
  0
VISUALSTYLE
  5
4A2
102
{ACAD_REACTORS
330
49A
102
}
330
49A
100
AcDbVisualStyle
  2
Basic
 70
     7
177
     3
291
     1
 70
    58
 90
        1
176
     1
 90
        0
176
     1
 90
        1
176
     1
 90
        0
176
     1
 40
0.6
176
     1
 40
30.0
176
     1
 62
     7
420
 16777215
176
     1
 90
        0
176
     1
 90
        4
176
     1
 62
     7
176
     1
 62
   257
176
     1
 90
        1
176
     1
 90
        1
176
     1
 40
1.0
176
     1
 90
        8
176
     1
 62
     7
176
     1
 40
1.0
176
     1
 90
        1
176
     1
 90
        6
176
     1
 90
        2
176
     1
 62
     7
176
     1
 90
        5
176
     1
 90
        0
176
     1
 90
        0
176
     1
290
     0
176
     1
 90
        1
176
     1
 40
0.0
176
     1
 90
        0
176
     1
290
     0
176
     1
290
     1
176
     1
290
     1
176
     1
290
     0
176
     1
290
     0
176
     1
290
     0
176
     1
290
     0
176
     1
290
     0
176
     1
290
     0
176
     1
 90
       50
176
     1
 40
0.0
176
     1
 40
1.0
176
     1
 90
        0
176
     1
 62
    18
420
        0
176
     1
 90
       50
176
     1
 90
        3
176
     1
 62
     5
420
      255
176
     1
290
     0
176
     1
 90
       50
176
     1
 90
       50
176
     1
 90
       50
176
     1
290
     0
176
     1
 90
       50
176
     1
 62
   256
176
     0
 40
1.0
176
     0
 90
        2
176
     1
  1
strokes_ogs.tif
176
     1
290
     0
176
     1
 40
1.0
176
     1
 40
1.0
176
     1
  0
VISUALSTYLE
  5
4A6
102
{ACAD_REACTORS
330
49A
102
}
330
49A
100
AcDbVisualStyle
  2
Brighten
 70
    12
177
     3
291
     1
 70
    58
 90
        2
176
     1
 90
        2
176
     1
 90
        0
176
     1
 90
        0
176
     1
 40
0.6
176
     1
 40
30.0
176
     1
 62
     7
420
 16777215
176
     1
 90
        1
176
     1
 90
        4
176
     1
 62
     7
176
     1
 62
   257
176
     1
 90
        1
176
     1
 90
        1
176
     1
 40
1.0
176
     1
 90
        8
176
     1
 62
     7
176
     1
 40
1.0
176
     1
 90
        1
176
     1
 90
        6
176
     1
 90
        2
176
     1
 62
     7
176
     1
 90
        5
176
     1
 90
        0
176
     1
 90
        0
176
     1
290
     0
176
     1
 90
        1
176
     1
 40
50.0
176
     1
 90
        0
176
     1
290
     0
176
     1
290
     1
176
     1
290
     1
176
     1
290
     0
176
     1
290
     0
176
     1
290
     0
176
     1
290
     0
176
     1
290
     0
176
     1
290
     0
176
     1
 90
       50
176
     1
 40
0.0
176
     1
 40
1.0
176
     1
 90
        0
176
     1
 62
    18
420
        0
176
     1
 90
       50
176
     1
 90
        3
176
     1
 62
     5
420
      255
176
     1
290
     0
176
     1
 90
       50
176
     1
 90
       50
176
     1
 90
       50
176
     1
290
     0
176
     1
 90
       50
176
     1
 62
   256
176
     0
 40
1.0
176
     0
 90
        2
176
     1
  1
strokes_ogs.tif
176
     1
290
     0
176
     1
 40
1.0
176
     1
 40
1.0
176
     1
  0
VISUALSTYLE
  5
4AA
102
{ACAD_REACTORS
330
49A
102
}
330
49A
100
AcDbVisualStyle
  2
ColorChange
 70
    16
177
     3
291
     1
 70
    58
 90
        2
176
     1
 90
        2
176
     1
 90
        3
176
     1
 90
        0
176
     1
 40
0.6
176
     1
 40
30.0
176
     1
 62
     8
420
  8421504
176
     1
 90
        1
176
     1
 90
        4
176
     1
 62
     7
176
     1
 62
   257
176
     1
 90
        1
176
     1
 90
        1
176
     1
 40
1.0
176
     1
 90
        8
176
     1
 62
     8
420
  8421504
176
     1
 40
1.0
176
     1
 90
        1
176
     1
 90
        6
176
     1
 90
        2
176
     1
 62
     7
176
     1
 90
        5
176
     1
 90
        0
176
     1
 90
        0
176
     1
290
     0
176
     1
 90
        1
176
     1
 40
0.0
176
     1
 90
        0
176
     1
290
     0
176
     1
290
     1
176
     1
290
     1
176
     1
290
     0
176
     1
290
     0
176
     1
290
     0
176
     1
290
     0
176
     1
290
     0
176
     1
290
     0
176
     1
 90
       50
176
     1
 40
0.0
176
     1
 40
1.0
176
     1
 90
        0
176
     1
 62
    18
420
        0
176
     1
 90
       50
176
     1
 90
        3
176
     1
 62
     5
420
      255
176
     1
290
     0
176
     1
 90
       50
176
     1
 90
       50
176
     1
 90
       50
176
     1
290
     0
176
     1
 90
       50
176
     1
 62
   256
176
     0
 40
1.0
176
     0
 90
        2
176
     1
  1
strokes_ogs.tif
176
     1
290
     0
176
     1
 40
1.0
176
     1
 40
1.0
176
     1
  0
VISUALSTYLE
  5
4A4
102
{ACAD_REACTORS
330
49A
102
}
330
49A
100
AcDbVisualStyle
  2
Conceptual
 70
     9
177
     3
291
     0
 70
    58
 90
        3
176
     1
 90
        2
176
     1
 90
        0
176
     1
 90
        0
176
     1
 40
0.6
176
     1
 40
30.0
176
     1
 62
     7
420
 16777215
176
     1
 90
        2
176
     1
 90
        2
176
     1
 62
     7
176
     1
 62
   257
176
     1
 90
        1
176
     1
 90
        1
176
     1
 40
179.0
176
     1
 90
        8
176
     1
 62
     7
176
     1
 40
1.0
176
     1
 90
        1
176
     1
 90
        6
176
     1
 90
        2
176
     1
 62
     7
176
     1
 90
        3
176
     1
 90
        0
176
     1
 90
        0
176
     1
290
     0
176
     1
 90
        1
176
     1
 40
0.0
176
     1
 90
        0
176
     1
290
     0
176
     1
290
     1
176
     1
290
     1
176
     1
290
     0
176
     1
290
     0
176
     1
290
     0
176
     1
290
     0
176
     1
290
     0
176
     1
290
     0
176
     1
 90
       50
176
     1
 40
0.0
176
     1
 40
1.0
176
     1
 90
        0
176
     1
 62
    18
420
        0
176
     1
 90
       50
176
     1
 90
        3
176
     1
 62
     5
420
      255
176
     1
290
     0
176
     1
 90
       50
176
     1
 90
       50
176
     1
 90
       50
176
     1
290
     0
176
     1
 90
       50
176
     1
 62
   256
176
     0
 40
1.0
176
     0
 90
        2
176
     1
  1
strokes_ogs.tif
176
     1
290
     0
176
     1
 40
1.0
176
     1
 40
1.0
176
     1
  0
VISUALSTYLE
  5
4A5
102
{ACAD_REACTORS
330
49A
102
}
330
49A
100
AcDbVisualStyle
  2
Dim
 70
    11
177
     3
291
     1
 70
    58
 90
        2
176
     1
 90
        2
176
     1
 90
        0
176
     1
 90
        0
176
     1
 40
0.6
176
     1
 40
30.0
176
     1
 62
     7
420
 16777215
176
     1
 90
        1
176
     1
 90
        4
176
     1
 62
     7
176
     1
 62
   257
176
     1
 90
        1
176
     1
 90
        1
176
     1
 40
1.0
176
     1
 90
        8
176
     1
 62
     7
176
     1
 40
1.0
176
     1
 90
        1
176
     1
 90
        6
176
     1
 90
        2
176
     1
 62
     7
176
     1
 90
        5
176
     1
 90
        0
176
     1
 90
        0
176
     1
290
     0
176
     1
 90
        1
176
     1
 40
-50.0
176
     1
 90
        0
176
     1
290
     0
176
     1
290
     1
176
     1
290
     1
176
     1
290
     0
176
     1
290
     0
176
     1
290
     0
176
     1
290
     0
176
     1
290
     0
176
     1
290
     0
176
     1
 90
       50
176
     1
 40
0.0
176
     1
 40
1.0
176
     1
 90
        0
176
     1
 62
    18
420
        0
176
     1
 90
       50
176
     1
 90
        3
176
     1
 62
     5
420
      255
176
     1
290
     0
176
     1
 90
       50
176
     1
 90
       50
176
     1
 90
       50
176
     1
290
     0
176
     1
 90
       50
176
     1
 62
   256
176
     0
 40
1.0
176
     0
 90
        2
176
     1
  1
strokes_ogs.tif
176
     1
290
     0
176
     1
 40
1.0
176
     1
 40
1.0
176
     1
  0
VISUALSTYLE
  5
4AD
102
{ACAD_REACTORS
330
49A
102
}
330
49A
100
AcDbVisualStyle
  2
EdgeColorOff
 70
    22
177
     3
291
     1
 70
    58
 90
        2
176
     0
 90
        2
176
     0
 90
        0
176
     0
 90
        0
176
     0
 40
0.6
176
     0
 40
30.0
176
     0
 62
     7
420
 16777215
176
     0
 90
        1
176
     0
 90
        4
176
     0
 62
     7
176
     0
 62
   257
176
     0
 90
        1
176
     0
 90
        1
176
     0
 40
1.0
176
     0
 90
        8
176
     2
 62
     7
176
     0
 40
1.0
176
     0
 90
        1
176
     0
 90
        6
176
     0
 90
        2
176
     0
 62
     7
176
     0
 90
        5
176
     0
 90
        0
176
     0
 90
        0
176
     0
290
     0
176
     0
 90
        1
176
     0
 40
0.0
176
     0
 90
        0
176
     0
290
     0
176
     0
290
     1
176
     0
290
     1
176
     0
290
     0
176
     0
290
     0
176
     0
290
     0
176
     0
290
     0
176
     0
290
     0
176
     0
290
     0
176
     0
 90
       50
176
     0
 40
0.0
176
     0
 40
1.0
176
     0
 90
        0
176
     0
 62
    18
420
        0
176
     0
 90
       50
176
     0
 90
        3
176
     0
 62
     5
420
      255
176
     0
290
     0
176
     0
 90
       50
176
     0
 90
       50
176
     0
 90
       50
176
     0
290
     0
176
     0
 90
       50
176
     0
 62
   256
176
     0
 40
1.0
176
     0
 90
        2
176
     0
  1
strokes_ogs.tif
176
     0
290
     0
176
     0
 40
1.0
176
     0
 40
1.0
176
     0
  0
VISUALSTYLE
  5
4A9
102
{ACAD_REACTORS
330
49A
102
}
330
49A
100
AcDbVisualStyle
  2
Facepattern
 70
    15
177
     3
291
     1
 70
    58
 90
        2
176
     1
 90
        2
176
     1
 90
        0
176
     1
 90
        0
176
     1
 40
0.6
176
     1
 40
30.0
176
     1
 62
     7
420
 16777215
176
     1
 90
        1
176
     1
 90
        4
176
     1
 62
     7
176
     1
 62
   257
176
     1
 90
        1
176
     1
 90
        1
176
     1
 40
1.0
176
     1
 90
        8
176
     1
 62
     7
176
     1
 40
1.0
176
     1
 90
        1
176
     1
 90
        6
176
     1
 90
        2
176
     1
 62
     7
176
     1
 90
        5
176
     1
 90
        0
176
     1
 90
        0
176
     1
290
     0
176
     1
 90
        1
176
     1
 40
0.0
176
     1
 90
        0
176
     1
290
     0
176
     1
290
     1
176
     1
290
     1
176
     1
290
     0
176
     1
290
     0
176
     1
290
     0
176
     1
290
     0
176
     1
290
     0
176
     1
290
     0
176
     1
 90
       50
176
     1
 40
0.0
176
     1
 40
1.0
176
     1
 90
        0
176
     1
 62
    18
420
        0
176
     1
 90
       50
176
     1
 90
        3
176
     1
 62
     5
420
      255
176
     1
290
     0
176
     1
 90
       50
176
     1
 90
       50
176
     1
 90
       50
176
     1
290
     0
176
     1
 90
       50
176
     1
 62
   256
176
     0
 40
1.0
176
     0
 90
        2
176
     1
  1
strokes_ogs.tif
176
     1
290
     0
176
     1
 40
1.0
176
     1
 40
1.0
176
     1
  0
VISUALSTYLE
  5
49B
102
{ACAD_REACTORS
330
49A
102
}
330
49A
100
AcDbVisualStyle
  2
Flat
 70
     0
177
     3
291
     1
 70
    58
 90
        2
176
     1
 90
        1
176
     1
 90
        1
176
     1
 90
        2
176
     1
 40
0.6
176
     1
 40
30.0
176
     1
 62
     7
420
 16777215
176
     1
 90
        0
176
     1
 90
        0
176
     1
 62
     7
176
     1
 62
   257
176
     1
 90
        1
176
     1
 90
        1
176
     1
 40
1.0
176
     1
 90
        8
176
     1
 62
     7
176
     1
 40
1.0
176
     1
 90
        1
176
     1
 90
        6
176
     1
 90
        2
176
     1
 62
     7
176
     1
 90
        5
176
     1
 90
        0
176
     1
 90
        0
176
     1
290
     0
176
     1
 90
       13
176
     1
 40
0.0
176
     1
 90
        0
176
     1
290
     0
176
     1
290
     1
176
     1
290
     1
176
     1
290
     0
176
     1
290
     0
176
     1
290
     0
176
     1
290
     0
176
     1
290
     0
176
     1
290
     0
176
     1
 90
       50
176
     1
 40
0.0
176
     1
 40
1.0
176
     1
 90
        0
176
     1
 62
    18
420
        0
176
     1
 90
       50
176
     1
 90
        3
176
     1
 62
     5
420
      255
176
     1
290
     0
176
     1
 90
       50
176
     1
 90
       50
176
     1
 90
       50
176
     1
290
     0
176
     1
 90
       50
176
     1
 62
   256
176
     0
 40
1.0
176
     0
 90
        2
176
     1
  1
strokes_ogs.tif
176
     1
290
     0
176
     1
 40
1.0
176
     1
 40
1.0
176
     1
  0
VISUALSTYLE
  5
49C
102
{ACAD_REACTORS
330
49A
102
}
330
49A
100
AcDbVisualStyle
  2
FlatWithEdges
 70
     1
177
     3
291
     1
 70
    58
 90
        2
176
     1
 90
        1
176
     1
 90
        1
176
     1
 90
        2
176
     1
 40
0.6
176
     1
 40
30.0
176
     1
 62
     7
420
 16777215
176
     1
 90
        1
176
     1
 90
        0
176
     1
 62
     7
176
     1
 62
   257
176
     1
 90
        1
176
     1
 90
        1
176
     1
 40
1.0
176
     1
 90
        0
176
     1
 62
   257
176
     1
 40
1.0
176
     1
 90
        1
176
     1
 90
        6
176
     1
 90
        2
176
     1
 62
     7
176
     1
 90
        5
176
     1
 90
        0
176
     1
 90
        0
176
     1
290
     0
176
     1
 90
       13
176
     1
 40
0.0
176
     1
 90
        0
176
     1
290
     0
176
     1
290
     1
176
     1
290
     1
176
     1
290
     0
176
     1
290
     0
176
     1
290
     0
176
     1
290
     0
176
     1
290
     0
176
     1
290
     0
176
     1
 90
       50
176
     1
 40
0.0
176
     1
 40
1.0
176
     1
 90
        0
176
     1
 62
    18
420
        0
176
     1
 90
       50
176
     1
 90
        3
176
     1
 62
     5
420
      255
176
     1
290
     0
176
     1
 90
       50
176
     1
 90
       50
176
     1
 90
       50
176
     1
290
     0
176
     1
 90
       50
176
     1
 62
   256
176
     0
 40
1.0
176
     0
 90
        2
176
     1
  1
strokes_ogs.tif
176
     1
290
     0
176
     1
 40
1.0
176
     1
 40
1.0
176
     1
  0
VISUALSTYLE
  5
49D
102
{ACAD_REACTORS
330
49A
102
}
330
49A
100
AcDbVisualStyle
  2
Gouraud
 70
     2
177
     3
291
     1
 70
    58
 90
        2
176
     1
 90
        2
176
     1
 90
        1
176
     1
 90
        2
176
     1
 40
0.6
176
     1
 40
30.0
176
     1
 62
     7
420
 16777215
176
     1
 90
        0
176
     1
 90
        0
176
     1
 62
     7
176
     1
 62
   257
176
     1
 90
        1
176
     1
 90
        1
176
     1
 40
1.0
176
     1
 90
        0
176
     1
 62
     7
176
     1
 40
1.0
176
     1
 90
        1
176
     1
 90
        6
176
     1
 90
        2
176
     1
 62
     7
176
     1
 90
        5
176
     1
 90
        0
176
     1
 90
        0
176
     1
290
     0
176
     1
 90
       13
176
     1
 40
0.0
176
     1
 90
        0
176
     1
290
     0
176
     1
290
     1
176
     1
290
     1
176
     1
290
     0
176
     1
290
     0
176
     1
290
     0
176
     1
290
     0
176
     1
290
     0
176
     1
290
     0
176
     1
 90
       50
176
     1
 40
0.0
176
     1
 40
1.0
176
     1
 90
        0
176
     1
 62
    18
420
        0
176
     1
 90
       50
176
     1
 90
        3
176
     1
 62
     5
420
      255
176
     1
290
     0
176
     1
 90
       50
176
     1
 90
       50
176
     1
 90
       50
176
     1
290
     0
176
     1
 90
       50
176
     1
 62
   256
176
     0
 40
1.0
176
     0
 90
        2
176
     1
  1
strokes_ogs.tif
176
     1
290
     0
176
     1
 40
1.0
176
     1
 40
1.0
176
     1
  0
VISUALSTYLE
  5
49E
102
{ACAD_REACTORS
330
49A
102
}
330
49A
100
AcDbVisualStyle
  2
GouraudWithEdges
 70
     3
177
     3
291
     1
 70
    58
 90
        2
176
     1
 90
        2
176
     1
 90
        1
176
     1
 90
        2
176
     1
 40
0.6
176
     1
 40
30.0
176
     1
 62
     7
420
 16777215
176
     1
 90
        1
176
     1
 90
        0
176
     1
 62
     7
176
     1
 62
   257
176
     1
 90
        1
176
     1
 90
        1
176
     1
 40
1.0
176
     1
 90
        0
176
     1
 62
   257
176
     1
 40
1.0
176
     1
 90
        1
176
     1
 90
        6
176
     1
 90
        2
176
     1
 62
     7
176
     1
 90
        5
176
     1
 90
        0
176
     1
 90
        0
176
     1
290
     0
176
     1
 90
       13
176
     1
 40
0.0
176
     1
 90
        0
176
     1
290
     0
176
     1
290
     1
176
     1
290
     1
176
     1
290
     0
176
     1
290
     0
176
     1
290
     0
176
     1
290
     0
176
     1
290
     0
176
     1
290
     0
176
     1
 90
       50
176
     1
 40
0.0
176
     1
 40
1.0
176
     1
 90
        0
176
     1
 62
    18
420
        0
176
     1
 90
       50
176
     1
 90
        3
176
     1
 62
     5
420
      255
176
     1
290
     0
176
     1
 90
       50
176
     1
 90
       50
176
     1
 90
       50
176
     1
290
     0
176
     1
 90
       50
176
     1
 62
   256
176
     0
 40
1.0
176
     0
 90
        2
176
     1
  1
strokes_ogs.tif
176
     1
290
     0
176
     1
 40
1.0
176
     1
 40
1.0
176
     1
  0
VISUALSTYLE
  5
4A1
102
{ACAD_REACTORS
330
49A
102
}
330
49A
100
AcDbVisualStyle
  2
Hidden
 70
     6
177
     3
291
     0
 70
    58
 90
        1
176
     1
 90
        2
176
     1
 90
        2
176
     1
 90
        0
176
     1
 40
0.6
176
     1
 40
30.0
176
     1
 62
     7
420
 16777215
176
     1
 90
        2
176
     1
 90
        2
176
     1
 62
     7
176
     1
 62
   257
176
     1
 90
        2
176
     1
 90
        1
176
     1
 40
40.0
176
     1
 90
        0
176
     1
 62
   257
176
     1
 40
1.0
176
     1
 90
        1
176
     1
 90
        6
176
     1
 90
        2
176
     1
 62
     7
176
     1
 90
        3
176
     1
 90
        0
176
     1
 90
        0
176
     1
290
     0
176
     1
 90
        1
176
     1
 40
0.0
176
     1
 90
        0
176
     1
290
     0
176
     1
290
     1
176
     1
290
     1
176
     1
290
     0
176
     1
290
     0
176
     1
290
     0
176
     1
290
     0
176
     1
290
     0
176
     1
290
     0
176
     1
 90
       50
176
     1
 40
0.0
176
     1
 40
1.0
176
     1
 90
        0
176
     1
 62
    18
420
        0
176
     1
 90
       50
176
     1
 90
        3
176
     1
 62
     5
420
      255
176
     1
290
     0
176
     1
 90
       50
176
     1
 90
       50
176
     1
 90
       50
176
     1
290
     0
176
     1
 90
       50
176
     1
 62
   256
176
     0
 40
1.0
176
     0
 90
        2
176
     1
  1
strokes_ogs.tif
176
     1
290
     0
176
     1
 40
1.0
176
     1
 40
1.0
176
     1
  0
VISUALSTYLE
  5
4AB
102
{ACAD_REACTORS
330
49A
102
}
330
49A
100
AcDbVisualStyle
  2
JitterOff
 70
    20
177
     3
291
     1
 70
    58
 90
        2
176
     0
 90
        2
176
     0
 90
        0
176
     0
 90
        0
176
     0
 40
0.6
176
     0
 40
30.0
176
     0
 62
     7
420
 16777215
176
     0
 90
        1
176
     0
 90
        4
176
     0
 62
     7
176
     0
 62
   257
176
     0
 90
        1
176
     0
 90
        1
176
     0
 40
1.0
176
     0
 90
       10
176
     2
 62
     7
176
     0
 40
1.0
176
     0
 90
        1
176
     0
 90
        6
176
     0
 90
        2
176
     0
 62
     7
176
     0
 90
        5
176
     0
 90
        0
176
     0
 90
        0
176
     0
290
     0
176
     0
 90
        1
176
     0
 40
0.0
176
     0
 90
        0
176
     0
290
     0
176
     0
290
     1
176
     0
290
     1
176
     0
290
     0
176
     0
290
     0
176
     0
290
     0
176
     0
290
     0
176
     0
290
     0
176
     0
290
     0
176
     0
 90
       50
176
     0
 40
0.0
176
     0
 40
1.0
176
     0
 90
        0
176
     0
 62
    18
420
        0
176
     0
 90
       50
176
     0
 90
        3
176
     0
 62
     5
420
      255
176
     0
290
     0
176
     0
 90
       50
176
     0
 90
       50
176
     0
 90
       50
176
     0
290
     0
176
     0
 90
       50
176
     0
 62
   256
176
     0
 40
1.0
176
     0
 90
        2
176
     0
  1
strokes_ogs.tif
176
     0
290
     0
176
     0
 40
1.0
176
     0
 40
1.0
176
     0
  0
VISUALSTYLE
  5
4A8
102
{ACAD_REACTORS
330
49A
102
}
330
49A
100
AcDbVisualStyle
  2
Linepattern
 70
    14
177
     3
291
     1
 70
    58
 90
        2
176
     1
 90
        2
176
     1
 90
        0
176
     1
 90
        0
176
     1
 40
0.6
176
     1
 40
30.0
176
     1
 62
     7
420
 16777215
176
     1
 90
        1
176
     1
 90
        4
176
     1
 62
     7
176
     1
 62
   257
176
     1
 90
        7
176
     1
 90
        7
176
     1
 40
1.0
176
     1
 90
        8
176
     1
 62
     7
176
     1
 40
1.0
176
     1
 90
        1
176
     1
 90
        6
176
     1
 90
        2
176
     1
 62
     7
176
     1
 90
        5
176
     1
 90
        0
176
     1
 90
        0
176
     1
290
     0
176
     1
 90
        1
176
     1
 40
0.0
176
     1
 90
        0
176
     1
290
     0
176
     1
290
     1
176
     1
290
     1
176
     1
290
     0
176
     1
290
     0
176
     1
290
     0
176
     1
290
     0
176
     1
290
     0
176
     1
290
     0
176
     1
 90
       50
176
     1
 40
0.0
176
     1
 40
1.0
176
     1
 90
        0
176
     1
 62
    18
420
        0
176
     1
 90
       50
176
     1
 90
        3
176
     1
 62
     5
420
      255
176
     1
290
     0
176
     1
 90
       50
176
     1
 90
       50
176
     1
 90
       50
176
     1
290
     0
176
     1
 90
       50
176
     1
 62
   256
176
     0
 40
1.0
176
     0
 90
        2
176
     1
  1
strokes_ogs.tif
176
     1
290
     0
176
     1
 40
1.0
176
     1
 40
1.0
176
     1
  0
VISUALSTYLE
  5
4AC
102
{ACAD_REACTORS
330
49A
102
}
330
49A
100
AcDbVisualStyle
  2
OverhangOff
 70
    21
177
     3
291
     1
 70
    58
 90
        2
176
     0
 90
        2
176
     0
 90
        0
176
     0
 90
        0
176
     0
 40
0.6
176
     0
 40
30.0
176
     0
 62
     7
420
 16777215
176
     0
 90
        1
176
     0
 90
        4
176
     0
 62
     7
176
     0
 62
   257
176
     0
 90
        1
176
     0
 90
        1
176
     0
 40
1.0
176
     0
 90
        9
176
     2
 62
     7
176
     0
 40
1.0
176
     0
 90
        1
176
     0
 90
        6
176
     0
 90
        2
176
     0
 62
     7
176
     0
 90
        5
176
     0
 90
        0
176
     0
 90
        0
176
     0
290
     0
176
     0
 90
        1
176
     0
 40
0.0
176
     0
 90
        0
176
     0
290
     0
176
     0
290
     1
176
     0
290
     1
176
     0
290
     0
176
     0
290
     0
176
     0
290
     0
176
     0
290
     0
176
     0
290
     0
176
     0
290
     0
176
     0
 90
       50
176
     0
 40
0.0
176
     0
 40
1.0
176
     0
 90
        0
176
     0
 62
    18
420
        0
176
     0
 90
       50
176
     0
 90
        3
176
     0
 62
     5
420
      255
176
     0
290
     0
176
     0
 90
       50
176
     0
 90
       50
176
     0
 90
       50
176
     0
290
     0
176
     0
 90
       50
176
     0
 62
   256
176
     0
 40
1.0
176
     0
 90
        2
176
     0
  1
strokes_ogs.tif
176
     0
290
     0
176
     0
 40
1.0
176
     0
 40
1.0
176
     0
  0
VISUALSTYLE
  5
4A3
102
{ACAD_REACTORS
330
49A
102
}
330
49A
100
AcDbVisualStyle
  2
Realistic
 70
     8
177
     3
291
     0
 70
    58
 90
        2
176
     1
 90
        3
176
     1
 90
        0
176
     1
 90
        2
176
     1
 40
0.6
176
     1
 40
30.0
176
     1
 62
     7
420
 16777215
176
     1
 90
        0
176
     1
 90
        0
176
     1
 62
     7
176
     1
 62
   257
176
     1
 90
        1
176
     1
 90
        1
176
     1
 40
1.0
176
     1
 90
        8
176
     1
 62
   257
176
     1
 40
1.0
176
     1
 90
        1
176
     1
 90
        6
176
     1
 90
        2
176
     1
 62
     7
176
     1
 90
        3
176
     1
 90
        0
176
     1
 90
        0
176
     1
290
     0
176
     1
 90
       13
176
     1
 40
0.0
176
     1
 90
        0
176
     1
290
     0
176
     1
290
     1
176
     1
290
     1
176
     1
290
     0
176
     1
290
     0
176
     1
290
     0
176
     1
290
     0
176
     1
290
     0
176
     1
290
     0
176
     1
 90
       50
176
     1
 40
0.0
176
     1
 40
1.0
176
     1
 90
        0
176
     1
 62
    18
420
        0
176
     1
 90
       50
176
     1
 90
        3
176
     1
 62
     5
420
      255
176
     1
290
     0
176
     1
 90
       50
176
     1
 90
       50
176
     1
 90
       50
176
     1
290
     0
176
     1
 90
       50
176
     1
 62
   256
176
     0
 40
1.0
176
     0
 90
        2
176
     1
  1
strokes_ogs.tif
176
     1
290
     0
176
     1
 40
1.0
176
     1
 40
1.0
176
     1
  0
VISUALSTYLE
  5
4B2
102
{ACAD_REACTORS
330
49A
102
}
330
49A
100
AcDbVisualStyle
  2
Shaded
 70
    27
177
     3
291
     0
 70
    58
 90
        2
176
     1
 90
        2
176
     1
 90
        1
176
     1
 90
        2
176
     1
 40
0.6
176
     1
 40
30.0
176
     1
 62
     7
420
 16777215
176
     1
 90
        0
176
     1
 90
        4
176
     1
 62
     7
176
     1
 62
   257
176
     1
 90
        1
176
     1
 90
        1
176
     1
 40
1.0
176
     1
 90
        8
176
     1
 62
   257
176
     1
 40
1.0
176
     1
 90
        1
176
     1
 90
        6
176
     1
 90
        2
176
     1
 62
     8
420
  7895160
176
     1
 90
        3
176
     1
 90
        0
176
     1
 90
        0
176
     1
290
     0
176
     1
 90
        5
176
     1
 40
0.0
176
     1
 90
        0
176
     1
290
     0
176
     1
290
     1
176
     1
290
     1
176
     1
290
     0
176
     1
290
     0
176
     1
290
     0
176
     1
290
     0
176
     1
290
     0
176
     1
290
     0
176
     1
 90
       50
176
     1
 40
0.0
176
     1
 40
1.0
176
     1
 90
        0
176
     1
 62
    18
420
        0
176
     1
 90
       50
176
     1
 90
        3
176
     1
 62
     5
420
      255
176
     1
290
     0
176
     1
 90
       50
176
     1
 90
       50
176
     1
 90
       50
176
     1
290
     0
176
     1
 90
       50
176
     1
 62
   256
176
     0
 40
1.0
176
     0
 90
        2
176
     1
  1
strokes_ogs.tif
176
     1
290
     0
176
     1
 40
1.0
176
     1
 40
1.0
176
     1
  0
VISUALSTYLE
  5
4B1
102
{ACAD_REACTORS
330
49A
102
}
330
49A
100
AcDbVisualStyle
  2
Shaded with edges
 70
    26
177
     3
291
     0
 70
    58
 90
        2
176
     1
 90
        2
176
     1
 90
        1
176
     1
 90
        2
176
     1
 40
0.6
176
     1
 40
30.0
176
     1
 62
     7
420
 16777215
176
     1
 90
        1
176
     1
 90
       10
176
     1
 62
     7
176
     1
 62
   257
176
     1
 90
        2
176
     1
 90
        1
176
     1
 40
1.0
176
     1
 90
        8
176
     1
 62
   257
176
     1
 40
1.0
176
     1
 90
        1
176
     1
 90
        6
176
     1
 90
        2
176
     1
 62
     7
176
     1
 90
        3
176
     1
 90
        0
176
     1
 90
        0
176
     1
290
     0
176
     1
 90
        5
176
     1
 40
0.0
176
     1
 90
        0
176
     1
290
     0
176
     1
290
     1
176
     1
290
     1
176
     1
290
     0
176
     1
290
     0
176
     1
290
     0
176
     1
290
     0
176
     1
290
     0
176
     1
290
     0
176
     1
 90
       50
176
     1
 40
0.0
176
     1
 40
1.0
176
     1
 90
        0
176
     1
 62
    18
420
        0
176
     1
 90
       50
176
     1
 90
        3
176
     1
 62
     5
420
      255
176
     1
290
     0
176
     1
 90
       50
176
     1
 90
       50
176
     1
 90
       50
176
     1
290
     0
176
     1
 90
       50
176
     1
 62
   256
176
     0
 40
1.0
176
     0
 90
        2
176
     1
  1
strokes_ogs.tif
176
     1
290
     0
176
     1
 40
1.0
176
     1
 40
1.0
176
     1
  0
VISUALSTYLE
  5
4AE
102
{ACAD_REACTORS
330
49A
102
}
330
49A
100
AcDbVisualStyle
  2
Shades of Gray
 70
    23
177
     3
291
     0
 70
    58
 90
        2
176
     1
 90
        2
176
     1
 90
        3
176
     1
 90
        0
176
     1
 40
0.6
176
     1
 40
30.0
176
     1
 62
     7
420
 16777215
176
     1
 90
        2
176
     1
 90
        2
176
     1
 62
     7
176
     1
 62
     7
176
     1
 90
        1
176
     1
 90
        1
176
     1
 40
40.0
176
     1
 90
        8
176
     1
 62
     7
176
     1
 40
1.0
176
     1
 90
        1
176
     1
 90
        6
176
     1
 90
        2
176
     1
 62
     7
176
     1
 90
        3
176
     1
 90
        0
176
     1
 90
        0
176
     1
290
     0
176
     1
 90
        1
176
     1
 40
0.0
176
     1
 90
        0
176
     1
290
     0
176
     1
290
     1
176
     1
290
     1
176
     1
290
     0
176
     1
290
     0
176
     1
290
     0
176
     1
290
     0
176
     1
290
     0
176
     1
290
     0
176
     1
 90
       50
176
     1
 40
0.0
176
     1
 40
1.0
176
     1
 90
        0
176
     1
 62
    18
420
        0
176
     1
 90
       50
176
     1
 90
        3
176
     1
 62
     5
420
      255
176
     1
290
     0
176
     1
 90
       50
176
     1
 90
       50
176
     1
 90
       50
176
     1
290
     0
176
     1
 90
       50
176
     1
 62
   256
176
     0
 40
1.0
176
     0
 90
        2
176
     1
  1
strokes_ogs.tif
176
     1
290
     0
176
     1
 40
1.0
176
     1
 40
1.0
176
     1
  0
VISUALSTYLE
  5
4AF
102
{ACAD_REACTORS
330
49A
102
}
330
49A
100
AcDbVisualStyle
  2
Sketchy
 70
    24
177
     3
291
     0
 70
    58
 90
        1
176
     1
 90
        2
176
     1
 90
        2
176
     1
 90
        0
176
     1
 40
0.6
176
     1
 40
30.0
176
     1
 62
     7
420
 16777215
176
     1
 90
        2
176
     1
 90
        2
176
     1
 62
     7
176
     1
 62
     7
176
     1
 90
        1
176
     1
 90
        1
176
     1
 40
40.0
176
     1
 90
       11
176
     1
 62
     7
176
     1
 40
1.0
176
     1
 90
        1
176
     1
 90
        6
176
     1
 90
        2
176
     1
 62
     7
176
     1
 90
        6
176
     1
 90
        0
176
     1
 90
        0
176
     1
290
     0
176
     1
 90
        1
176
     1
 40
0.0
176
     1
 90
        0
176
     1
290
     0
176
     1
290
     1
176
     1
290
     1
176
     1
290
     0
176
     1
290
     0
176
     1
290
     0
176
     1
290
     0
176
     1
290
     0
176
     1
290
     0
176
     1
 90
       50
176
     1
 40
0.0
176
     1
 40
1.0
176
     1
 90
        0
176
     1
 62
    18
420
        0
176
     1
 90
       50
176
     1
 90
        3
176
     1
 62
     5
420
      255
176
     1
290
     0
176
     1
 90
       50
176
     1
 90
       50
176
     1
 90
       50
176
     1
290
     0
176
     1
 90
       50
176
     1
 62
   256
176
     0
 40
1.0
176
     0
 90
        2
176
     1
  1
strokes_ogs.tif
176
     1
290
     0
176
     1
 40
1.0
176
     1
 40
1.0
176
     1
  0
VISUALSTYLE
  5
4A7
102
{ACAD_REACTORS
330
49A
102
}
330
49A
100
AcDbVisualStyle
  2
Thicken
 70
    13
177
     3
291
     1
 70
    58
 90
        2
176
     1
 90
        2
176
     1
 90
        0
176
     1
 90
        0
176
     1
 40
0.6
176
     1
 40
30.0
176
     1
 62
     7
420
 16777215
176
     1
 90
        1
176
     1
 90
        4
176
     1
 62
     7
176
     1
 62
   257
176
     1
 90
        1
176
     1
 90
        1
176
     1
 40
1.0
176
     1
 90
       12
176
     1
 62
     7
176
     1
 40
1.0
176
     1
 90
        1
176
     1
 90
        6
176
     1
 90
        2
176
     1
 62
     7
176
     1
 90
        5
176
     1
 90
        0
176
     1
 90
        0
176
     1
290
     0
176
     1
 90
        1
176
     1
 40
0.0
176
     1
 90
        0
176
     1
290
     0
176
     1
290
     1
176
     1
290
     1
176
     1
290
     0
176
     1
290
     0
176
     1
290
     0
176
     1
290
     0
176
     1
290
     0
176
     1
290
     0
176
     1
 90
       50
176
     1
 40
0.0
176
     1
 40
1.0
176
     1
 90
        0
176
     1
 62
    18
420
        0
176
     1
 90
       50
176
     1
 90
        3
176
     1
 62
     5
420
      255
176
     1
290
     0
176
     1
 90
       50
176
     1
 90
       50
176
     1
 90
       50
176
     1
290
     0
176
     1
 90
       50
176
     1
 62
   256
176
     0
 40
1.0
176
     0
 90
        2
176
     1
  1
strokes_ogs.tif
176
     1
290
     0
176
     1
 40
1.0
176
     1
 40
1.0
176
     1
  0
VISUALSTYLE
  5
4A0
102
{ACAD_REACTORS
330
49A
102
}
330
49A
100
AcDbVisualStyle
  2
Wireframe
 70
     5
177
     3
291
     0
 70
    58
 90
        0
176
     1
 90
        2
176
     1
 90
        0
176
     1
 90
        0
176
     1
 40
0.6
176
     1
 40
30.0
176
     1
 62
     7
420
 16777215
176
     1
 90
        1
176
     1
 90
        4
176
     1
 62
     7
176
     1
 62
   257
176
     1
 90
        1
176
     1
 90
        1
176
     1
 40
1.0
176
     1
 90
        0
176
     1
 62
   257
176
     1
 40
1.0
176
     1
 90
        1
176
     1
 90
        6
176
     1
 90
        2
176
     1
 62
     7
176
     1
 90
        3
176
     1
 90
        0
176
     1
 90
        0
176
     1
290
     0
176
     1
 90
        1
176
     1
 40
0.0
176
     1
 90
        0
176
     1
290
     0
176
     1
290
     1
176
     1
290
     1
176
     1
290
     0
176
     1
290
     0
176
     1
290
     0
176
     1
290
     0
176
     1
290
     0
176
     1
290
     0
176
     1
 90
       50
176
     1
 40
0.0
176
     1
 40
1.0
176
     1
 90
        0
176
     1
 62
    18
420
        0
176
     1
 90
       50
176
     1
 90
        3
176
     1
 62
     5
420
      255
176
     1
290
     0
176
     1
 90
       50
176
     1
 90
       50
176
     1
 90
       50
176
     1
290
     0
176
     1
 90
       50
176
     1
 62
   256
176
     0
 40
1.0
176
     0
 90
        2
176
     1
  1
strokes_ogs.tif
176
     1
290
     0
176
     1
 40
1.0
176
     1
 40
1.0
176
     1
  0
VISUALSTYLE
  5
4B0
102
{ACAD_REACTORS
330
49A
102
}
330
49A
100
AcDbVisualStyle
  2
X-Ray
 70
    25
177
     3
291
     0
 70
    58
 90
        2
176
     1
 90
        2
176
     1
 90
        1
176
     1
 90
        1
176
     1
 40
0.5
176
     1
 40
30.0
176
     1
 62
     7
420
 16777215
176
     1
 90
        1
176
     1
 90
        0
176
     1
 62
     7
176
     1
 62
   257
176
     1
 90
        1
176
     1
 90
        1
176
     1
 40
1.0
176
     1
 90
        8
176
     1
 62
     7
176
     1
 40
1.0
176
     1
 90
        1
176
     1
 90
        6
176
     1
 90
        2
176
     1
 62
     7
176
     1
 90
        3
176
     1
 90
        0
176
     1
 90
        0
176
     1
290
     0
176
     1
 90
       13
176
     1
 40
0.0
176
     1
 90
        0
176
     1
290
     0
176
     1
290
     1
176
     1
290
     1
176
     1
290
     0
176
     1
290
     0
176
     1
290
     0
176
     1
290
     0
176
     1
290
     0
176
     1
290
     0
176
     1
 90
       50
176
     1
 40
0.0
176
     1
 40
1.0
176
     1
 90
        0
176
     1
 62
    18
420
        0
176
     1
 90
       50
176
     1
 90
        3
176
     1
 62
     5
420
      255
176
     1
290
     0
176
     1
 90
       50
176
     1
 90
       50
176
     1
 90
       50
176
     1
290
     0
176
     1
 90
       50
176
     1
 62
   256
176
     0
 40
1.0
176
     0
 90
        2
176
     1
  1
strokes_ogs.tif
176
     1
290
     0
176
     1
 40
1.0
176
     1
 40
1.0
176
     1
  0
DICTIONARYVAR
  5
4BD
102
{ACAD_REACTORS
330
4BC
102
}
330
4BC
100
DictionaryVariables
280
     0
  1
1:1
  0
DICTIONARYVAR
  5
4C2
102
{ACAD_REACTORS
330
4BC
102
}
330
4BC
100
DictionaryVariables
280
     0
  1
Standard
  0
DICTIONARYVAR
  5
4C1
102
{ACAD_REACTORS
330
4BC
102
}
330
4BC
100
DictionaryVariables
280
     0
  1
Standard
  0
DICTIONARYVAR
  5
4C3
102
{ACAD_REACTORS
330
4BC
102
}
330
4BC
100
DictionaryVariables
280
     0
  1
0
  0
DICTIONARY
  5
4BE
330
4B8
100
AcDbDictionary
280
     1
281
     1
  3
ACAD_ROUNDTRIP_2008_TABLESTYLE_CELLSTYLEMAP
360
4BF
  0
CELLSTYLEMAP
  5
4BF
102
{ACAD_REACTORS
330
4BE
102
}
330
4BE
100
AcDbCellStyleMap
 90
        3
300
CELLSTYLE
  1
TABLEFORMAT_BEGIN
 90
        5
170
     1
 91
        0
 92
    32768
 62
   257
 93
        1
300
CONTENTFORMAT
  1
CONTENTFORMAT_BEGIN
 90
        0
 91
        0
 92
        4
 93
        0
300

 40
0.0
140
1.0
 94
        5
 62
     0
340
11
144
6.0
309
CONTENTFORMAT_END
171
     1
301
MARGIN
  1
CELLMARGIN_BEGIN
 40
1.5
 40
1.5
 40
1.5
 40
1.5
 40
1.5
 40
1.5
309
CELLMARGIN_END
 94
        6
 95
        1
302
GRIDFORMAT
  1
GRIDFORMAT_BEGIN
 90
        0
 91
        1
 62
     0
 92
       -2
340
14
 93
        0
 40
0.045
309
GRIDFORMAT_END
 95
        2
302
GRIDFORMAT
  1
GRIDFORMAT_BEGIN
 90
        0
 91
        1
 62
     0
 92
       -2
340
14
 93
        0
 40
0.045
309
GRIDFORMAT_END
 95
        4
302
GRIDFORMAT
  1
GRIDFORMAT_BEGIN
 90
        0
 91
        1
 62
     0
 92
       -2
340
14
 93
        0
 40
0.045
309
GRIDFORMAT_END
 95
        8
302
GRIDFORMAT
  1
GRIDFORMAT_BEGIN
 90
        0
 91
        1
 62
     0
 92
       -2
340
14
 93
        0
 40
0.045
309
GRIDFORMAT_END
 95
       16
302
GRIDFORMAT
  1
GRIDFORMAT_BEGIN
 90
        0
 91
        1
 62
     0
 92
       -2
340
14
 93
        0
 40
0.045
309
GRIDFORMAT_END
 95
       32
302
GRIDFORMAT
  1
GRIDFORMAT_BEGIN
 90
        0
 91
        1
 62
     0
 92
       -2
340
14
 93
        0
 40
0.045
309
GRIDFORMAT_END
309
TABLEFORMAT_END
  1
CELLSTYLE_BEGIN
 90
        1
 91
        1
300
_TITLE
309
CELLSTYLE_END
300
CELLSTYLE
  1
TABLEFORMAT_BEGIN
 90
        5
170
     1
 91
        0
 92
        0
 62
   257
 93
        1
300
CONTENTFORMAT
  1
CONTENTFORMAT_BEGIN
 90
        0
 91
        0
 92
        4
 93
        0
300

 40
0.0
140
1.0
 94
        5
 62
     0
340
11
144
4.5
309
CONTENTFORMAT_END
171
     1
301
MARGIN
  1
CELLMARGIN_BEGIN
 40
1.5
 40
1.5
 40
1.5
 40
1.5
 40
1.5
 40
1.5
309
CELLMARGIN_END
 94
        6
 95
        1
302
GRIDFORMAT
  1
GRIDFORMAT_BEGIN
 90
        0
 91
        1
 62
     0
 92
       -2
340
14
 93
        0
 40
0.045
309
GRIDFORMAT_END
 95
        2
302
GRIDFORMAT
  1
GRIDFORMAT_BEGIN
 90
        0
 91
        1
 62
     0
 92
       -2
340
14
 93
        0
 40
0.045
309
GRIDFORMAT_END
 95
        4
302
GRIDFORMAT
  1
GRIDFORMAT_BEGIN
 90
        0
 91
        1
 62
     0
 92
       -2
340
14
 93
        0
 40
0.045
309
GRIDFORMAT_END
 95
        8
302
GRIDFORMAT
  1
GRIDFORMAT_BEGIN
 90
        0
 91
        1
 62
     0
 92
       -2
340
14
 93
        0
 40
0.045
309
GRIDFORMAT_END
 95
       16
302
GRIDFORMAT
  1
GRIDFORMAT_BEGIN
 90
        0
 91
        1
 62
     0
 92
       -2
340
14
 93
        0
 40
0.045
309
GRIDFORMAT_END
 95
       32
302
GRIDFORMAT
  1
GRIDFORMAT_BEGIN
 90
        0
 91
        1
 62
     0
 92
       -2
340
14
 93
        0
 40
0.045
309
GRIDFORMAT_END
309
TABLEFORMAT_END
  1
CELLSTYLE_BEGIN
 90
        2
 91
        1
300
_HEADER
309
CELLSTYLE_END
300
CELLSTYLE
  1
TABLEFORMAT_BEGIN
 90
        5
170
     1
 91
        0
 92
        0
 62
   257
 93
        1
300
CONTENTFORMAT
  1
CONTENTFORMAT_BEGIN
 90
        0
 91
        0
 92
        4
 93
        0
300

 40
0.0
140
1.0
 94
        2
 62
     0
340
11
144
4.5
309
CONTENTFORMAT_END
171
     1
301
MARGIN
  1
CELLMARGIN_BEGIN
 40
1.5
 40
1.5
 40
1.5
 40
1.5
 40
1.5
 40
1.5
309
CELLMARGIN_END
 94
        6
 95
        1
302
GRIDFORMAT
  1
GRIDFORMAT_BEGIN
 90
        0
 91
        1
 62
     0
 92
       -2
340
14
 93
        0
 40
0.045
309
GRIDFORMAT_END
 95
        2
302
GRIDFORMAT
  1
GRIDFORMAT_BEGIN
 90
        0
 91
        1
 62
     0
 92
       -2
340
14
 93
        0
 40
0.045
309
GRIDFORMAT_END
 95
        4
302
GRIDFORMAT
  1
GRIDFORMAT_BEGIN
 90
        0
 91
        1
 62
     0
 92
       -2
340
14
 93
        0
 40
0.045
309
GRIDFORMAT_END
 95
        8
302
GRIDFORMAT
  1
GRIDFORMAT_BEGIN
 90
        0
 91
        1
 62
     0
 92
       -2
340
14
 93
        0
 40
0.045
309
GRIDFORMAT_END
 95
       16
302
GRIDFORMAT
  1
GRIDFORMAT_BEGIN
 90
        0
 91
        1
 62
     0
 92
       -2
340
14
 93
        0
 40
0.045
309
GRIDFORMAT_END
 95
       32
302
GRIDFORMAT
  1
GRIDFORMAT_BEGIN
 90
        0
 91
        1
 62
     0
 92
       -2
340
14
 93
        0
 40
0.045
309
GRIDFORMAT_END
309
TABLEFORMAT_END
  1
CELLSTYLE_BEGIN
 90
        3
 91
        2
300
_DATA
309
CELLSTYLE_END
  0
ENDSEC
  0
EOF
