  0
SECTION
  2
HEADER
  9
$ACADVER
  1
AC1027
  9
$ACADMAINTVER
 70
   105
  9
$DWGCODEPAGE
  3
ANSI_1252
  9
$REQUIREDVERSIONS
160
                 0
  9
$LASTSAVEDBY
  1
andrea.zolin
  9
$INSBASE
 10
0.0
 20
0.0
 30
0.0
  9
$EXTMIN
 10
0.0
 20
0.0
 30
0.0
  9
$EXTMAX
 10
594.0
 20
420.0
 30
0.0
  9
$LIMMIN
 10
0.0
 20
0.0
  9
$LIMMAX
 10
594.0
 20
420.0
  9
$ORTHOMODE
 70
     0
  9
$REGENMODE
 70
     1
  9
$FILLMODE
 70
     1
  9
$QTEXTMODE
 70
     0
  9
$MIRRTEXT
 70
     1
  9
$LTSCALE
 40
32.67
  9
$ATTMODE
 70
     1
  9
$TEXTSIZE
 40
0.2
  9
$TRACEWID
 40
0.05
  9
$TEXTSTYLE
  7
STANDARD
  9
$CLAYER
  8
0
  9
$CELTYPE
  6
BYLAYER
  9
$CECOLOR
 62
   256
  9
$CELTSCALE
 40
1.0
  9
$DISPSILH
 70
     0
  9
$DIMSCALE
 40
1.0
  9
$DIMASZ
 40
2.5
  9
$DIMEXO
 40
0.75
  9
$DIMDLI
 40
22.572
  9
$DIMRND
 40
0.0
  9
$DIMDLE
 40
0.0
  9
$DIMEXE
 40
0.75
  9
$DIMTP
 40
0.01
  9
$DIMTM
 40
0.01
  9
$DIMTXT
 40
3.0
  9
$DIMCEN
 40
5.346
  9
$DIMTSZ
 40
0.0
  9
$DIMTOL
 70
     1
  9
$DIMLIM
 70
     0
  9
$DIMTIH
 70
     1
  9
$DIMTOH
 70
     1
  9
$DIMSE1
 70
     0
  9
$DIMSE2
 70
     0
  9
$DIMTAD
 70
     0
  9
$DIMZIN
 70
     0
  9
$DIMBLK
  1
CLOSED
  9
$DIMASO
 70
     1
  9
$DIMSHO
 70
     1
  9
$DIMPOST
  1

  9
$DIMAPOST
  1

  9
$DIMALT
 70
     0
  9
$DIMALTD
 70
     2
  9
$DIMALTF
 40
25.4
  9
$DIMLFAC
 40
1.0
  9
$DIMTOFL
 70
     0
  9
$DIMTVP
 40
0.0
  9
$DIMTIX
 70
     0
  9
$DIMSOXD
 70
     0
  9
$DIMSAH
 70
     0
  9
$DIMBLK1
  1

  9
$DIMBLK2
  1

  9
$DIMSTYLE
  2
STANDARD
  9
$DIMCLRD
 70
     0
  9
$DIMCLRE
 70
     0
  9
$DIMCLRT
 70
     0
  9
$DIMTFAC
 40
1.0
  9
$DIMGAP
 40
0.625
  9
$DIMJUST
 70
     0
  9
$DIMSD1
 70
     0
  9
$DIMSD2
 70
     0
  9
$DIMTOLJ
 70
     1
  9
$DIMTZIN
 70
     0
  9
$DIMALTZ
 70
     0
  9
$DIMALTTZ
 70
     0
  9
$DIMUPT
 70
     0
  9
$DIMDEC
 70
     4
  9
$DIMTDEC
 70
     4
  9
$DIMALTU
 70
     2
  9
$DIMALTTD
 70
     2
  9
$DIMTXSTY
  7
STANDARD
  9
$DIMAUNIT
 70
     0
  9
$DIMADEC
 70
     0
  9
$DIMALTRND
 40
0.0
  9
$DIMAZIN
 70
     0
  9
$DIMDSEP
 70
    46
  9
$DIMATFIT
 70
     3
  9
$DIMFRAC
 70
     0
  9
$DIMLDRBLK
  1

  9
$DIMLUNIT
 70
     2
  9
$DIMLWD
 70
    -2
  9
$DIMLWE
 70
    -2
  9
$DIMTMOVE
 70
     2
  9
$DIMFXL
 40
1.0
  9
$DIMFXLON
 70
     0
  9
$DIMJOGANG
 40
0.7853981633974483
  9
$DIMTFILL
 70
     0
  9
$DIMTFILLCLR
 70
     0
  9
$DIMARCSYM
 70
     0
  9
$DIMLTYPE
  6

  9
$DIMLTEX1
  6

  9
$DIMLTEX2
  6

  9
$DIMTXTDIRECTION
 70
     0
  9
$LUNITS
 70
     2
  9
$LUPREC
 70
     4
  9
$SKETCHINC
 40
0.1
  9
$FILLETRAD
 40
0.5
  9
$AUNITS
 70
     0
  9
$AUPREC
 70
     0
  9
$MENU
  1
.
  9
$ELEVATION
 40
0.0
  9
$PELEVATION
 40
0.0
  9
$THICKNESS
 40
0.0
  9
$LIMCHECK
 70
     0
  9
$CHAMFERA
 40
0.0
  9
$CHAMFERB
 40
0.0
  9
$CHAMFERC
 40
0.0
  9
$CHAMFERD
 40
0.0
  9
$SKPOLY
 70
     0
  9
$TDCREATE
 40
2447893.041666667
  9
$TDUCREATE
 40
0.0
  9
$TDUPDATE
 40
2458474.379837998
  9
$TDUUPDATE
 40
2458474.338171331
  9
$TDINDWG
 40
0.0004598958
  9
$TDUSRTIMER
 40
0.0004598958
  9
$USRTIMER
 70
     1
  9
$ANGBASE
 50
0.0
  9
$ANGDIR
 70
     0
  9
$PDMODE
 70
     3
  9
$PDSIZE
 40
0.3125
  9
$PLINEWID
 40
0.0
  9
$SPLFRAME
 70
     0
  9
$SPLINETYPE
 70
     6
  9
$SPLINESEGS
 70
     8
  9
$HANDSEED
  5
5AA
  9
$SURFTAB1
 70
     6
  9
$SURFTAB2
 70
     6
  9
$SURFTYPE
 70
     6
  9
$SURFU
 70
     6
  9
$SURFV
 70
     6
  9
$UCSBASE
  2

  9
$UCSNAME
  2

  9
$UCSORG
 10
0.0
 20
0.0
 30
0.0
  9
$UCSXDIR
 10
1.0
 20
0.0
 30
0.0
  9
$UCSYDIR
 10
0.0
 20
1.0
 30
0.0
  9
$UCSORTHOREF
  2

  9
$UCSORTHOVIEW
 70
     0
  9
$UCSORGTOP
 10
0.0
 20
0.0
 30
0.0
  9
$UCSORGBOTTOM
 10
0.0
 20
0.0
 30
0.0
  9
$UCSORGLEFT
 10
0.0
 20
0.0
 30
0.0
  9
$UCSORGRIGHT
 10
0.0
 20
0.0
 30
0.0
  9
$UCSORGFRONT
 10
0.0
 20
0.0
 30
0.0
  9
$UCSORGBACK
 10
0.0
 20
0.0
 30
0.0
  9
$PUCSBASE
  2

  9
$PUCSNAME
  2

  9
$PUCSORG
 10
0.0
 20
0.0
 30
0.0
  9
$PUCSXDIR
 10
1.0
 20
0.0
 30
0.0
  9
$PUCSYDIR
 10
0.0
 20
1.0
 30
0.0
  9
$PUCSORTHOREF
  2

  9
$PUCSORTHOVIEW
 70
     0
  9
$PUCSORGTOP
 10
0.0
 20
0.0
 30
0.0
  9
$PUCSORGBOTTOM
 10
0.0
 20
0.0
 30
0.0
  9
$PUCSORGLEFT
 10
0.0
 20
0.0
 30
0.0
  9
$PUCSORGRIGHT
 10
0.0
 20
0.0
 30
0.0
  9
$PUCSORGFRONT
 10
0.0
 20
0.0
 30
0.0
  9
$PUCSORGBACK
 10
0.0
 20
0.0
 30
0.0
  9
$USERI1
 70
     0
  9
$USERI2
 70
     0
  9
$USERI3
 70
     0
  9
$USERI4
 70
     0
  9
$USERI5
 70
     0
  9
$USERR1
 40
0.0
  9
$USERR2
 40
0.0
  9
$USERR3
 40
0.0
  9
$USERR4
 40
0.0
  9
$USERR5
 40
0.0
  9
$WORLDVIEW
 70
     1
  9
$SHADEDGE
 70
     3
  9
$SHADEDIF
 70
    70
  9
$TILEMODE
 70
     0
  9
$MAXACTVP
 70
    64
  9
$PINSBASE
 10
0.0
 20
0.0
 30
0.0
  9
$PLIMCHECK
 70
     0
  9
$PEXTMIN
 10
0.0
 20
0.0
 30
0.0
  9
$PEXTMAX
 10
594.0
 20
420.0
 30
0.0
  9
$PLIMMIN
 10
-12.2568093385214
 20
-32.68482490272373
  9
$PLIMMAX
 10
674.1245136186769
 20
452.6848249027237
  9
$UNITMODE
 70
     0
  9
$VISRETAIN
 70
     1
  9
$PLINEGEN
 70
     0
  9
$PSLTSCALE
 70
     1
  9
$TREEDEPTH
 70
  3020
  9
$CMLSTYLE
  2
STANDARD
  9
$CMLJUST
 70
     0
  9
$CMLSCALE
 40
1.0
  9
$PROXYGRAPHICS
 70
     1
  9
$MEASUREMENT
 70
     1
  9
$CELWEIGHT
370
    -1
  9
$ENDCAPS
280
     0
  9
$JOINSTYLE
280
     0
  9
$LWDISPLAY
290
     0
  9
$INSUNITS
 70
     0
  9
$HYPERLINKBASE
  1

  9
$STYLESHEET
  1

  9
$XEDIT
290
     1
  9
$CEPSNTYPE
380
     0
  9
$PSTYLEMODE
290
     1
  9
$FINGERPRINTGUID
  2
{D5D44A3E-5F58-41FC-A4D4-625927E6FC9E}
  9
$VERSIONGUID
  2
{FAEB1C32-E019-11D5-929B-00C0DF256EC4}
  9
$EXTNAMES
290
     1
  9
$PSVPSCALE
 40
0.0
  9
$OLESTARTUP
290
     0
  9
$SORTENTS
280
   127
  9
$INDEXCTL
280
     0
  9
$HIDETEXT
280
     1
  9
$XCLIPFRAME
280
     2
  9
$HALOGAP
280
     0
  9
$OBSCOLOR
 70
   257
  9
$OBSLTYPE
280
     0
  9
$INTERSECTIONDISPLAY
280
     0
  9
$INTERSECTIONCOLOR
 70
   257
  9
$DIMASSOC
280
     2
  9
$PROJECTNAME
  1

  9
$CAMERADISPLAY
290
     0
  9
$LENSLENGTH
 40
50.0
  9
$CAMERAHEIGHT
 40
0.0
  9
$STEPSPERSEC
 40
2.0
  9
$STEPSIZE
 40
6.0
  9
$3DDWFPREC
 40
2.0
  9
$PSOLWIDTH
 40
0.25
  9
$PSOLHEIGHT
 40
4.0
  9
$LOFTANG1
 40
1.570796326794897
  9
$LOFTANG2
 40
1.570796326794897
  9
$LOFTMAG1
 40
0.0
  9
$LOFTMAG2
 40
0.0
  9
$LOFTPARAM
 70
     7
  9
$LOFTNORMALS
280
     1
  9
$LATITUDE
 40
37.795
  9
$LONGITUDE
 40
-122.394
  9
$NORTHDIRECTION
 40
0.0
  9
$TIMEZONE
 70
 -8000
  9
$LIGHTGLYPHDISPLAY
280
     1
  9
$TILEMODELIGHTSYNCH
280
     1
  9
$SOLIDHIST
280
     0
  9
$SHOWHIST
280
     1
  9
$DWFFRAME
280
     2
  9
$DGNFRAME
280
     2
  9
$REALWORLDSCALE
290
     1
  9
$INTERFERECOLOR
 62
   256
  9
$CSHADOW
280
     0
  9
$SHADOWPLANELOCATION
 40
0.0
  0
ENDSEC
  0
SECTION
  2
CLASSES
  0
CLASS
  1
ACDBDICTIONARYWDFLT
  2
AcDbDictionaryWithDefault
  3
ObjectDBX Classes
 90
        0
 91
        4
280
     0
281
     0
  0
CLASS
  1
SCALE
  2
AcDbScale
  3
ObjectDBX Classes
 90
     1153
 91
        4
280
     0
281
     0
  0
CLASS
  1
VISUALSTYLE
  2
AcDbVisualStyle
  3
ObjectDBX Classes
 90
     4095
 91
        4
280
     0
281
     0
  0
CLASS
  1
MATERIAL
  2
AcDbMaterial
  3
ObjectDBX Classes
 90
     1153
 91
        4
280
     0
281
     0
  0
CLASS
  1
TABLESTYLE
  2
AcDbTableStyle
  3
ObjectDBX Classes
 90
     4095
 91
        4
280
     0
281
     0
  0
CLASS
  1
MLEADERSTYLE
  2
AcDbMLeaderStyle
  3
ACDB_MLEADERSTYLE_CLASS
 90
     4095
 91
        4
280
     0
281
     0
  0
CLASS
  1
DICTIONARYVAR
  2
AcDbDictionaryVar
  3
ObjectDBX Classes
 90
        0
 91
        4
280
     0
281
     0
  0
CLASS
  1
CELLSTYLEMAP
  2
AcDbCellStyleMap
  3
ObjectDBX Classes
 90
     1152
 91
        4
280
     0
281
     0
  0
ENDSEC
  0
SECTION
  2
TABLES
  0
TABLE
  2
VPORT
  5
8
330
0
100
AcDbSymbolTable
 70
     1
  0
VPORT
  5
1F4
330
8
100
AcDbSymbolTableRecord
100
AcDbViewportTableRecord
  2
*ACTIVE
 70
     0
 10
0.0
 20
0.0
 11
1.0
 21
1.0
 12
297.0
 22
210.0
 13
0.0
 23
0.0
 14
1.0
 24
1.0
 15
0.0
 25
0.0
 16
0.0
 26
0.0
 36
1.0
 17
0.0
 27
0.0
 37
0.0
 40
420.0
 41
1.4142857143
 42
50.0
 43
0.0
 44
0.0
 50
0.0
 51
0.0
 71
     0
 72
   100
 73
     1
 74
     1
 75
     0
 76
     0
 77
     0
 78
     0
281
     0
 65
     1
110
0.0
120
0.0
130
0.0
111
1.0
121
0.0
131
0.0
112
0.0
122
1.0
132
0.0
 79
     0
146
0.0
348
583
 60
     3
 61
     5
292
     1
282
     1
141
0.0
142
0.0
 63
   256
  0
ENDTAB
  0
TABLE
  2
LTYPE
  5
5
330
0
100
AcDbSymbolTable
 70
     6
  0
LTYPE
  5
14
330
5
100
AcDbSymbolTableRecord
100
AcDbLinetypeTableRecord
  2
BYBLOCK
 70
     0
  3

 72
    65
 73
     0
 40
0.0
  0
LTYPE
  5
15
330
5
100
AcDbSymbolTableRecord
100
AcDbLinetypeTableRecord
  2
BYLAYER
 70
     0
  3

 72
    65
 73
     0
 40
0.0
  0
LTYPE
  5
16
330
5
100
AcDbSymbolTableRecord
100
AcDbLinetypeTableRecord
  2
CONTINUOUS
 70
     0
  3
Solid line
 72
    65
 73
     0
 40
0.0
  0
LTYPE
  5
1F5
330
5
100
AcDbSymbolTableRecord
100
AcDbLinetypeTableRecord
  2
CENTER
 70
     0
  3
____ _ ____ _ ____ _ ____ _ ____ _ ____ _ ____
 72
    65
 73
     4
 40
0.6
 49
0.375
 74
     0
 49
-0.075
 74
     0
 49
0.075
 74
     0
 49
-0.075
 74
     0
  0
LTYPE
  5
1F6
330
5
100
AcDbSymbolTableRecord
100
AcDbLinetypeTableRecord
  2
HIDDEN
 70
     0
  3
- - - - - - - - - - - - - - - - - - - -
 72
    65
 73
     2
 40
0.2
 49
0.1
 74
     0
 49
-0.1
 74
     0
  0
LTYPE
  5
1F7
330
5
100
AcDbSymbolTableRecord
100
AcDbLinetypeTableRecord
  2
PHANTOM
 70
     0
  3
_____ _ _ _____ _ _ _____ _ _ _____
 72
    65
 73
     6
 40
0.8
 49
0.45
 74
     0
 49
-0.05
 74
     0
 49
0.1
 74
     0
 49
-0.05
 74
     0
 49
0.1
 74
     0
 49
-0.05
 74
     0
  0
LTYPE
  5
1F8
330
5
100
AcDbSymbolTableRecord
100
AcDbLinetypeTableRecord
  2
DOT
 70
     0
  3
. . . . . . . . . . . . . . . . . . . .
 72
    65
 73
     2
 40
0.2
 49
0.1
 74
     0
 49
-0.1
 74
     0
  0
LTYPE
  5
1F9
330
5
100
AcDbSymbolTableRecord
100
AcDbLinetypeTableRecord
  2
DASHED
 70
     0
  3
- - - - - - - - - - - - - - - - - - - -
 72
    65
 73
     2
 40
0.2
 49
0.1
 74
     0
 49
-0.1
 74
     0
  0
ENDTAB
  0
TABLE
  2
LAYER
  5
2
330
0
100
AcDbSymbolTable
 70
    35
  0
LAYER
  5
10
330
2
100
AcDbSymbolTableRecord
100
AcDbLayerTableRecord
  2
0
 70
     0
 62
     7
  6
CONTINUOUS
370
    -3
390
558
347
59A
348
0
  0
LAYER
  5
1FA
330
2
100
AcDbSymbolTableRecord
100
AcDbLayerTableRecord
  2
DEFAULT_1
 70
     0
 62
     7
  6
CENTER
370
    -3
390
558
347
59A
348
0
  0
LAYER
  5
1FB
330
2
100
AcDbSymbolTableRecord
100
AcDbLayerTableRecord
  2
DEFAULT_2
 70
     0
 62
     8
  6
HIDDEN
370
    -3
390
558
347
59A
348
0
  0
LAYER
  5
1FC
330
2
100
AcDbSymbolTableRecord
100
AcDbLayerTableRecord
  2
DEFAULT_3
 70
     0
 62
     7
  6
PHANTOM
370
    -3
390
558
347
59A
348
0
  0
LAYER
  5
1FD
330
2
100
AcDbSymbolTableRecord
100
AcDbLayerTableRecord
  2
01_ALL_DTM_PLN
 70
     0
 62
     7
  6
CONTINUOUS
370
    -3
390
558
347
59A
348
0
  0
LAYER
  5
1FE
330
2
100
AcDbSymbolTableRecord
100
AcDbLayerTableRecord
  2
01__ASM_ALL_DTM_PLN
 70
     0
 62
     7
  6
CONTINUOUS
370
    -3
390
558
347
59A
348
0
  0
LAYER
  5
1FF
330
2
100
AcDbSymbolTableRecord
100
AcDbLayerTableRecord
  2
01__ASM_DEF_DTM_PLN
 70
     0
 62
     7
  6
CONTINUOUS
370
    -3
390
558
347
59A
348
0
  0
LAYER
  5
200
330
2
100
AcDbSymbolTableRecord
100
AcDbLayerTableRecord
  2
01___PRT_ALL_DTM_PLN
 70
     0
 62
     7
  6
CONTINUOUS
370
    -3
390
558
347
59A
348
0
  0
LAYER
  5
201
330
2
100
AcDbSymbolTableRecord
100
AcDbLayerTableRecord
  2
01___PRT_DEF_DTM_PLN
 70
     0
 62
     7
  6
CONTINUOUS
370
    -3
390
558
347
59A
348
0
  0
LAYER
  5
202
330
2
100
AcDbSymbolTableRecord
100
AcDbLayerTableRecord
  2
02_ALL_AXES
 70
     0
 62
     7
  6
CONTINUOUS
370
    -3
390
558
347
59A
348
0
  0
LAYER
  5
203
330
2
100
AcDbSymbolTableRecord
100
AcDbLayerTableRecord
  2
02__ASM_ALL_AXES
 70
     0
 62
     7
  6
CONTINUOUS
370
    -3
390
558
347
59A
348
0
  0
LAYER
  5
204
330
2
100
AcDbSymbolTableRecord
100
AcDbLayerTableRecord
  2
02___PRT_ALL_AXES
 70
     0
 62
     7
  6
CONTINUOUS
370
    -3
390
558
347
59A
348
0
  0
LAYER
  5
205
330
2
100
AcDbSymbolTableRecord
100
AcDbLayerTableRecord
  2
03_ALL_CURVES
 70
     0
 62
     7
  6
CONTINUOUS
370
    -3
390
558
347
59A
348
0
  0
LAYER
  5
206
330
2
100
AcDbSymbolTableRecord
100
AcDbLayerTableRecord
  2
03__ASM_ALL_CURVES
 70
     0
 62
     7
  6
CONTINUOUS
370
    -3
390
558
347
59A
348
0
  0
LAYER
  5
207
330
2
100
AcDbSymbolTableRecord
100
AcDbLayerTableRecord
  2
03___PRT_ALL_CURVES
 70
     0
 62
     7
  6
CONTINUOUS
370
    -3
390
558
347
59A
348
0
  0
LAYER
  5
208
330
2
100
AcDbSymbolTableRecord
100
AcDbLayerTableRecord
  2
04_ALL_DTM_PNT
 70
     0
 62
     7
  6
CONTINUOUS
370
    -3
390
558
347
59A
348
0
  0
LAYER
  5
209
330
2
100
AcDbSymbolTableRecord
100
AcDbLayerTableRecord
  2
04__ASM_ALL_DTM_PNT
 70
     0
 62
     7
  6
CONTINUOUS
370
    -3
390
558
347
59A
348
0
  0
LAYER
  5
20A
330
2
100
AcDbSymbolTableRecord
100
AcDbLayerTableRecord
  2
04___PRT_ALL_DTM_PNT
 70
     0
 62
     7
  6
CONTINUOUS
370
    -3
390
558
347
59A
348
0
  0
LAYER
  5
20B
330
2
100
AcDbSymbolTableRecord
100
AcDbLayerTableRecord
  2
05_ALL_DTM_CSYS
 70
     0
 62
     7
  6
CONTINUOUS
370
    -3
390
558
347
59A
348
0
  0
LAYER
  5
20C
330
2
100
AcDbSymbolTableRecord
100
AcDbLayerTableRecord
  2
05__ASM_ALL_DTM_CSYS
 70
     0
 62
     7
  6
CONTINUOUS
370
    -3
390
558
347
59A
348
0
  0
LAYER
  5
20D
330
2
100
AcDbSymbolTableRecord
100
AcDbLayerTableRecord
  2
05__ASM_DEF_DTM_CSYS
 70
     0
 62
     7
  6
CONTINUOUS
370
    -3
390
558
347
59A
348
0
  0
LAYER
  5
20E
330
2
100
AcDbSymbolTableRecord
100
AcDbLayerTableRecord
  2
05___PRT_ALL_DTM_CSYS
 70
     0
 62
     7
  6
CONTINUOUS
370
    -3
390
558
347
59A
348
0
  0
LAYER
  5
20F
330
2
100
AcDbSymbolTableRecord
100
AcDbLayerTableRecord
  2
05___PRT_DEF_DTM_CSYS
 70
     0
 62
     7
  6
CONTINUOUS
370
    -3
390
558
347
59A
348
0
  0
LAYER
  5
210
330
2
100
AcDbSymbolTableRecord
100
AcDbLayerTableRecord
  2
06_ALL_SURFS
 70
     0
 62
     7
  6
CONTINUOUS
370
    -3
390
558
347
59A
348
0
  0
LAYER
  5
211
330
2
100
AcDbSymbolTableRecord
100
AcDbLayerTableRecord
  2
06__ASM_ALL_SURFS
 70
     0
 62
     7
  6
CONTINUOUS
370
    -3
390
558
347
59A
348
0
  0
LAYER
  5
212
330
2
100
AcDbSymbolTableRecord
100
AcDbLayerTableRecord
  2
06___PRT_ALL_SURFS
 70
     0
 62
     7
  6
CONTINUOUS
370
    -3
390
558
347
59A
348
0
  0
LAYER
  5
213
330
2
100
AcDbSymbolTableRecord
100
AcDbLayerTableRecord
  2
07__ASM_ALL_SKELETONS
 70
     0
 62
     7
  6
CONTINUOUS
370
    -3
390
558
347
59A
348
0
  0
LAYER
  5
214
330
2
100
AcDbSymbolTableRecord
100
AcDbLayerTableRecord
  2
1_ALL_PLANES
 70
     0
 62
     7
  6
CONTINUOUS
370
    -3
390
558
347
59A
348
0
  0
LAYER
  5
215
330
2
100
AcDbSymbolTableRecord
100
AcDbLayerTableRecord
  2
2_ALL_CSYS
 70
     0
 62
     7
  6
CONTINUOUS
370
    -3
390
558
347
59A
348
0
  0
LAYER
  5
216
330
2
100
AcDbSymbolTableRecord
100
AcDbLayerTableRecord
  2
3_ALL_AXES
 70
     0
 62
     7
  6
CONTINUOUS
370
    -3
390
558
347
59A
348
0
  0
LAYER
  5
217
330
2
100
AcDbSymbolTableRecord
100
AcDbLayerTableRecord
  2
4_ALL_POINTS
 70
     0
 62
     7
  6
CONTINUOUS
370
    -3
390
558
347
59A
348
0
  0
LAYER
  5
218
330
2
100
AcDbSymbolTableRecord
100
AcDbLayerTableRecord
  2
5_ALL_CURVES
 70
     0
 62
     7
  6
CONTINUOUS
370
    -3
390
558
347
59A
348
0
  0
LAYER
  5
219
330
2
100
AcDbSymbolTableRecord
100
AcDbLayerTableRecord
  2
6_ALL_SURFS
 70
     0
 62
     7
  6
CONTINUOUS
370
    -3
390
558
347
59A
348
0
  0
LAYER
  5
21A
330
2
100
AcDbSymbolTableRecord
100
AcDbLayerTableRecord
  2
7_ALL_FEATURES
 70
     0
 62
     7
  6
CONTINUOUS
370
    -3
390
558
347
59A
348
0
  0
LAYER
  5
21B
330
2
100
AcDbSymbolTableRecord
100
AcDbLayerTableRecord
  2
9_SOLID
 70
     0
 62
     7
  6
CONTINUOUS
370
    -3
390
558
347
59A
348
0
  0
ENDTAB
  0
TABLE
  2
STYLE
  5
3
330
0
100
AcDbSymbolTable
 70
     5
  0
STYLE
  5
11
330
3
100
AcDbSymbolTableRecord
100
AcDbTextStyleTableRecord
  2
STANDARD
 70
     0
 40
0.0
 41
1.0
 50
0.0
 71
     0
 42
0.2
  3
arial.ttf
  4

  0
STYLE
  5
21C
330
3
100
AcDbSymbolTableRecord
100
AcDbTextStyleTableRecord
  2
TEXTSTYLE_1
 70
     0
 40
0.0
 41
0.8
 50
0.0
 71
     0
 42
0.2
  3
gdt
  4

  0
STYLE
  5
21D
330
3
100
AcDbSymbolTableRecord
100
AcDbTextStyleTableRecord
  2
TEXTSTYLE_2
 70
     0
 40
0.0
 41
0.85
 50
0.0
 71
     0
 42
0.2
  3
gdt
  4

  0
STYLE
  5
21E
330
3
100
AcDbSymbolTableRecord
100
AcDbTextStyleTableRecord
  2
TEXTSTYLE_3
 70
     0
 40
0.0
 41
2.0
 50
0.0
 71
     0
 42
0.2
  3
txt
  4

  0
STYLE
  5
21F
330
3
100
AcDbSymbolTableRecord
100
AcDbTextStyleTableRecord
  2
TEXTSTYLE_4
 70
     0
 40
0.0
 41
0.85
 50
0.0
 71
     0
 42
0.2
  3
txt
  4

  0
ENDTAB
  0
TABLE
  2
VIEW
  5
6
330
0
100
AcDbSymbolTable
 70
     0
  0
ENDTAB
  0
TABLE
  2
UCS
  5
7
330
0
100
AcDbSymbolTable
 70
     0
  0
ENDTAB
  0
TABLE
  2
APPID
  5
9
330
0
100
AcDbSymbolTable
 70
     1
  0
APPID
  5
220
330
9
100
AcDbSymbolTableRecord
100
AcDbRegAppTableRecord
  2
ACAD
 70
     0
  0
ENDTAB
  0
TABLE
  2
DIMSTYLE
  5
A
330
0
100
AcDbSymbolTable
 70
     5
100
AcDbDimStyleTable
  0
DIMSTYLE
105
229
330
A
100
AcDbSymbolTableRecord
100
AcDbDimStyleTableRecord
  2
STANDARD
 70
     0
 41
2.5
 42
0.75
 44
0.75
 47
0.01
 48
0.01
 71
     1
 73
     0
 74
     0
 77
     1
 78
     8
 79
     2
140
3.0
147
0.625
171
     1
178
     0
179
     2
271
     2
272
     2
284
     8
340
11
341
221
342
221
343
221
344
221
  0
DIMSTYLE
105
22A
330
A
100
AcDbSymbolTableRecord
100
AcDbDimStyleTableRecord
  2
DIMSTYLE_1
 70
     0
  3
<>
 41
2.5
 42
0.75
 44
0.75
 47
0.5
 48
0.5
 73
     0
 74
     0
 77
     1
 78
     8
 79
     2
140
3.0
147
0.625
171
     1
172
     1
178
     0
179
     2
271
     2
272
     2
284
     8
288
     1
340
11
341
221
342
221
343
221
344
221
  0
DIMSTYLE
105
22B
330
A
100
AcDbSymbolTableRecord
100
AcDbDimStyleTableRecord
  2
DIMSTYLE_2
 70
     0
 41
2.5
 42
0.75
 44
0.75
 47
0.3
 48
0.3
 73
     0
 74
     0
 77
     1
 78
     8
 79
     2
140
3.0
147
0.75
171
     1
178
     0
179
     2
271
     2
272
     2
284
     8
340
11
341
221
342
221
343
221
344
221
  0
DIMSTYLE
105
22C
330
A
100
AcDbSymbolTableRecord
100
AcDbDimStyleTableRecord
  2
DIMSTYLE_3
 70
     0
 41
2.5
 42
0.75
 44
0.75
 47
0.2
 48
0.2
 73
     0
 74
     0
 77
     1
 78
     8
 79
     2
140
3.0
147
0.75
171
     1
178
     0
179
     2
271
     2
272
     2
284
     8
340
11
341
221
342
221
343
221
344
221
  0
DIMSTYLE
105
22D
330
A
100
AcDbSymbolTableRecord
100
AcDbDimStyleTableRecord
  2
DIMSTYLE_4
 70
     0
 41
2.5
 42
0.75
 44
0.75
 47
0.5
 48
0.5
 73
     0
 74
     0
 77
     1
 78
     8
 79
     2
140
3.0
147
0.75
171
     1
178
     0
179
     2
271
     2
272
     2
284
     8
340
11
341
221
342
221
343
221
344
221
  0
ENDTAB
  0
TABLE
  2
BLOCK_RECORD
  5
1
330
0
100
AcDbSymbolTable
 70
     8
  0
BLOCK_RECORD
  5
1F
330
1
100
AcDbSymbolTableRecord
100
AcDbBlockTableRecord
  2
*MODEL_SPACE
340
57C
 70
     0
280
     1
281
     0
  0
BLOCK_RECORD
  5
1B
330
1
100
AcDbSymbolTableRecord
100
AcDbBlockTableRecord
  2
*PAPER_SPACE
340
57D
 70
     0
280
     1
281
     0
  0
BLOCK_RECORD
  5
221
330
1
100
AcDbSymbolTableRecord
100
AcDbBlockTableRecord
  2
_CLOSED
340
0
102
{BLKREFS
331
27D
331
285
331
286
331
28E
331
28F
331
299
331
29A
331
2A2
331
2A3
102
}
 70
     0
280
     1
281
     0
  0
BLOCK_RECORD
  5
222
330
1
100
AcDbSymbolTableRecord
100
AcDbBlockTableRecord
  2
*D1
340
0
 70
     0
280
     1
281
     0
  0
BLOCK_RECORD
  5
223
330
1
100
AcDbSymbolTableRecord
100
AcDbBlockTableRecord
  2
*D2
340
0
 70
     0
280
     1
281
     0
  0
BLOCK_RECORD
  5
224
330
1
100
AcDbSymbolTableRecord
100
AcDbBlockTableRecord
  2
*D3
340
0
 70
     0
280
     1
281
     0
  0
BLOCK_RECORD
  5
225
330
1
100
AcDbSymbolTableRecord
100
AcDbBlockTableRecord
  2
*D4
340
0
 70
     0
280
     1
281
     0
  0
BLOCK_RECORD
  5
226
330
1
100
AcDbSymbolTableRecord
100
AcDbBlockTableRecord
  2
*D5
340
0
 70
     0
280
     1
281
     0
  0
BLOCK_RECORD
  5
227
330
1
100
AcDbSymbolTableRecord
100
AcDbBlockTableRecord
  2
LOGO2_BL1
340
0
102
{BLKREFS
331
540
102
}
 70
     0
280
     1
281
     0
  0
BLOCK_RECORD
  5
228
330
1
100
AcDbSymbolTableRecord
100
AcDbBlockTableRecord
  2
PROIEZIONE_EU_BL0
340
0
102
{BLKREFS
331
53D
102
}
 70
     0
280
     1
281
     0
  0
ENDTAB
  0
ENDSEC
  0
SECTION
  2
BLOCKS
  0
BLOCK
  5
20
330
1F
100
AcDbEntity
  8
0
100
AcDbBlockBegin
  2
*MODEL_SPACE
 70
     0
 10
0.0
 20
0.0
 30
0.0
  3
*MODEL_SPACE
  1

  0
ENDBLK
  5
21
330
1F
100
AcDbEntity
  8
0
100
AcDbBlockEnd
  0
BLOCK
  5
1C
330
1B
100
AcDbEntity
 67
     1
  8
0
100
AcDbBlockBegin
  2
*PAPER_SPACE
 70
     0
 10
0.0
 20
0.0
 30
0.0
  3
*PAPER_SPACE
  1

  0
ENDBLK
  5
1D
330
1B
100
AcDbEntity
 67
     1
  8
0
100
AcDbBlockEnd
  0
BLOCK
  5
274
330
221
100
AcDbEntity
  8
0
100
AcDbBlockBegin
  2
_CLOSED
 70
     0
 10
0.0
 20
0.0
 30
0.0
  3
_CLOSED
  1

  0
LINE
  5
275
330
221
100
AcDbEntity
  8
0
  6
ByBlock
 62
     0
100
AcDbLine
 10
0.0
 20
0.0
 30
0.0
 11
-1.0
 21
0.2
 31
0.0
  0
LINE
  5
276
330
221
100
AcDbEntity
  8
0
  6
ByBlock
 62
     0
100
AcDbLine
 10
-1.0
 20
0.2
 30
0.0
 11
-1.0
 21
-0.2
 31
0.0
  0
LINE
  5
277
330
221
100
AcDbEntity
  8
0
  6
ByBlock
 62
     0
100
AcDbLine
 10
-1.0
 20
-0.2
 30
0.0
 11
0.0
 21
0.0
 31
0.0
  0
LINE
  5
278
330
221
100
AcDbEntity
  8
0
  6
ByBlock
 62
     0
100
AcDbLine
 10
-1.0
 20
0.0
 30
0.0
 11
0.0
 21
0.0
 31
0.0
  0
ENDBLK
  5
279
330
221
100
AcDbEntity
  8
0
  6
ByBlock
 62
     0
100
AcDbBlockEnd
  0
BLOCK
  5
27A
330
222
100
AcDbEntity
  8
0
100
AcDbBlockBegin
  2
*D1
 70
     1
 10
0.0
 20
0.0
 30
0.0
  3
*D1
  1

  0
MTEXT
  5
27B
330
222
100
AcDbEntity
  8
0
  6
Continuous
 62
     2
100
AcDbMText
 10
231.8866311618
 20
170.5824677519
 30
0.0
 40
3.0
 41
10.9925650558
 46
0.0
 71
     1
 72
     1
  1
{\Fgdt;n}\Farial.ttf;130
  7
TEXTSTYLE_2
 11
0.8017091482000001
 21
0.5977143478
 31
0.0
 73
     1
 44
1.0
  0
LINE
  5
27C
330
222
100
AcDbEntity
  8
0
  6
Continuous
 62
     2
100
AcDbLine
 10
223.5320194673
 20
159.6761792312
 30
0.0
 11
242.9408999341
 21
174.1464722993
 31
0.0
  0
INSERT
  5
27D
330
222
100
AcDbEntity
  8
0
  6
Continuous
 62
     2
100
AcDbBlockReference
  2
_CLOSED
 10
223.5320194673
 20
159.6761792312
 30
0.0
 41
2.5
 42
2.5
 43
2.5
 50
216.7063746573
  0
ENDBLK
  5
27E
330
222
100
AcDbEntity
  8
0
  6
ByBlock
 62
     0
100
AcDbBlockEnd
  0
BLOCK
  5
27F
330
223
100
AcDbEntity
  8
0
100
AcDbBlockBegin
  2
*D2
 70
     1
 10
0.0
 20
0.0
 30
0.0
  3
*D2
  1

  0
MTEXT
  5
280
330
223
100
AcDbEntity
  8
0
  6
Continuous
 62
     2
100
AcDbMText
 10
83.9409114274
 20
264.6670337574
 30
0.0
 40
3.0
 41
4.6617100372
 46
0.0
 71
     2
 72
     1
  1
34
 11
0.0
 21
1.0
 31
0.0
 73
     1
 44
1.0
  0
LINE
  5
281
330
223
100
AcDbEntity
  8
0
  6
Continuous
 62
     2
100
AcDbLine
 10
105.5229814101
 20
282.0072635135
 30
0.0
 11
86.9409114274
 21
282.0072635135
 31
0.0
  0
LINE
  5
282
330
223
100
AcDbEntity
  8
0
  6
Continuous
 62
     2
100
AcDbLine
 10
105.5229814101
 20
248.0072635135
 30
0.0
 11
86.9409114274
 21
248.0072635135
 31
0.0
  0
LINE
  5
283
330
223
100
AcDbEntity
  8
0
  6
Continuous
 62
     2
100
AcDbLine
 10
87.6909114274
 20
282.0072635135
 30
0.0
 11
87.6909114274
 21
265.0072635135
 31
0.0
  0
LINE
  5
284
330
223
100
AcDbEntity
  8
0
  6
Continuous
 62
     2
100
AcDbLine
 10
87.6909114274
 20
248.0072635135
 30
0.0
 11
87.6909114274
 21
265.0072635135
 31
0.0
  0
INSERT
  5
285
330
223
100
AcDbEntity
  8
0
  6
Continuous
 62
     2
100
AcDbBlockReference
  2
_CLOSED
 10
87.6909114274
 20
282.0072635135
 30
0.0
 41
2.5
 42
2.5
 43
2.5
 50
90.0
  0
INSERT
  5
286
330
223
100
AcDbEntity
  8
0
  6
Continuous
 62
     2
100
AcDbBlockReference
  2
_CLOSED
 10
87.6909114274
 20
248.0072635135
 30
0.0
 41
2.5
 42
2.5
 43
2.5
 50
270.0
  0
ENDBLK
  5
287
330
223
100
AcDbEntity
  8
0
  6
ByBlock
 62
     0
100
AcDbBlockEnd
  0
BLOCK
  5
288
330
224
100
AcDbEntity
  8
0
100
AcDbBlockBegin
  2
*D3
 70
     1
 10
0.0
 20
0.0
 30
0.0
  3
*D3
  1

  0
MTEXT
  5
289
330
224
100
AcDbEntity
  8
0
  6
Continuous
 62
     2
100
AcDbMText
 10
83.9409114274
 20
329.6670337574
 30
0.0
 40
3.0
 41
4.6617100372
 46
0.0
 71
     2
 72
     1
  1
96
 11
0.0
 21
1.0
 31
0.0
 73
     1
 44
1.0
  0
LINE
  5
28A
330
224
100
AcDbEntity
  8
0
  6
Continuous
 62
     2
100
AcDbLine
 10
105.5229814101
 20
282.0072635135
 30
0.0
 11
86.9409114274
 21
282.0072635135
 31
0.0
  0
LINE
  5
28B
330
224
100
AcDbEntity
  8
0
  6
Continuous
 62
     2
100
AcDbLine
 10
105.5229814101
 20
378.0072635135
 30
0.0
 11
86.9409114274
 21
378.0072635135
 31
0.0
  0
LINE
  5
28C
330
224
100
AcDbEntity
  8
0
  6
Continuous
 62
     2
100
AcDbLine
 10
87.6909114274
 20
282.0072635135
 30
0.0
 11
87.6909114274
 21
330.0072635135
 31
0.0
  0
LINE
  5
28D
330
224
100
AcDbEntity
  8
0
  6
Continuous
 62
     2
100
AcDbLine
 10
87.6909114274
 20
378.0072635135
 30
0.0
 11
87.6909114274
 21
330.0072635135
 31
0.0
  0
INSERT
  5
28E
330
224
100
AcDbEntity
  8
0
  6
Continuous
 62
     2
100
AcDbBlockReference
  2
_CLOSED
 10
87.6909114274
 20
282.0072635135
 30
0.0
 41
2.5
 42
2.5
 43
2.5
 50
270.0
  0
INSERT
  5
28F
330
224
100
AcDbEntity
  8
0
  6
Continuous
 62
     2
100
AcDbBlockReference
  2
_CLOSED
 10
87.6909114274
 20
378.0072635135
 30
0.0
 41
2.5
 42
2.5
 43
2.5
 50
90.0
  0
ENDBLK
  5
290
330
224
100
AcDbEntity
  8
0
  6
ByBlock
 62
     0
100
AcDbBlockEnd
  0
BLOCK
  5
291
330
225
100
AcDbEntity
  8
0
100
AcDbBlockBegin
  2
*D4
 70
     1
 10
0.0
 20
0.0
 30
0.0
  3
*D4
  1

  0
MTEXT
  5
292
330
225
100
AcDbEntity
  8
0
  6
Continuous
 62
     2
100
AcDbMText
 10
83.9409114274
 20
381.1072635135
 30
0.0
 40
3.0
 41
5.8215613383
 46
0.0
 71
     2
 72
     1
  1
6,2
 11
0.0
 21
1.0
 31
0.0
 73
     1
 44
1.0
  0
LINE
  5
293
330
225
100
AcDbEntity
  8
0
  6
Continuous
 62
     2
100
AcDbLine
 10
105.5229814101
 20
378.0072635135
 30
0.0
 11
86.9409114274
 21
378.0072635135
 31
0.0
  0
LINE
  5
294
330
225
100
AcDbEntity
  8
0
  6
Continuous
 62
     2
100
AcDbLine
 10
107.2031131192
 20
384.2072635135
 30
0.0
 11
86.9409114274
 21
384.2072635135
 31
0.0
  0
LINE
  5
295
330
225
100
AcDbEntity
  8
0
  6
Continuous
 62
     2
100
AcDbLine
 10
87.6909114274
 20
378.0072635135
 30
0.0
 11
87.6909114274
 21
377.0072635135
 31
0.0
  0
LINE
  5
296
330
225
100
AcDbEntity
  8
0
  6
Continuous
 62
     2
100
AcDbLine
 10
87.6909114274
 20
377.0072635135
 30
0.0
 11
87.6909114274
 21
381.1072635135
 31
0.0
  0
LINE
  5
297
330
225
100
AcDbEntity
  8
0
  6
Continuous
 62
     2
100
AcDbLine
 10
87.6909114274
 20
384.2072635135
 30
0.0
 11
87.6909114274
 21
385.2072635135
 31
0.0
  0
LINE
  5
298
330
225
100
AcDbEntity
  8
0
  6
Continuous
 62
     2
100
AcDbLine
 10
87.6909114274
 20
385.2072635135
 30
0.0
 11
87.6909114274
 21
381.1072635135
 31
0.0
  0
INSERT
  5
299
330
225
100
AcDbEntity
  8
0
  6
Continuous
 62
     2
100
AcDbBlockReference
  2
_CLOSED
 10
87.6909114274
 20
378.0072635135
 30
0.0
 41
2.5
 42
2.5
 43
2.5
 50
90.0
  0
INSERT
  5
29A
330
225
100
AcDbEntity
  8
0
  6
Continuous
 62
     2
100
AcDbBlockReference
  2
_CLOSED
 10
87.6909114274
 20
384.2072635135
 30
0.0
 41
2.5
 42
2.5
 43
2.5
 50
270.0
  0
ENDBLK
  5
29B
330
225
100
AcDbEntity
  8
0
  6
ByBlock
 62
     0
100
AcDbBlockEnd
  0
BLOCK
  5
29C
330
226
100
AcDbEntity
  8
0
100
AcDbBlockBegin
  2
*D5
 70
     1
 10
0.0
 20
0.0
 30
0.0
  3
*D5
  1

  0
MTEXT
  5
29D
330
226
100
AcDbEntity
  8
0
  6
Continuous
 62
     2
100
AcDbMText
 10
251.0323517366
 20
313.3072635135
 30
0.0
 40
3.0
 41
10.4832713755
 46
0.0
 71
     2
 72
     1
  1
130,6
 11
0.0
 21
1.0
 31
0.0
 73
     1
 44
1.0
  0
LINE
  5
29E
330
226
100
AcDbEntity
  8
0
  6
Continuous
 62
     2
100
AcDbLine
 10
249.7627757559
 20
248.0072635135
 30
0.0
 11
255.5323517366
 21
248.0072635135
 31
0.0
  0
LINE
  5
29F
330
226
100
AcDbEntity
  8
0
  6
Continuous
 62
     2
100
AcDbLine
 10
241.9658631402
 20
378.6072635135
 30
0.0
 11
255.5323517366
 21
378.6072635135
 31
0.0
  0
LINE
  5
2A0
330
226
100
AcDbEntity
  8
0
  6
Continuous
 62
     2
100
AcDbLine
 10
254.7823517366
 20
248.0072635135
 30
0.0
 11
254.7823517366
 21
313.3072635135
 31
0.0
  0
LINE
  5
2A1
330
226
100
AcDbEntity
  8
0
  6
Continuous
 62
     2
100
AcDbLine
 10
254.7823517366
 20
378.6072635135
 30
0.0
 11
254.7823517366
 21
313.3072635135
 31
0.0
  0
INSERT
  5
2A2
330
226
100
AcDbEntity
  8
0
  6
Continuous
 62
     2
100
AcDbBlockReference
  2
_CLOSED
 10
254.7823517366
 20
248.0072635135
 30
0.0
 41
2.5
 42
2.5
 43
2.5
 50
270.0
  0
INSERT
  5
2A3
330
226
100
AcDbEntity
  8
0
  6
Continuous
 62
     2
100
AcDbBlockReference
  2
_CLOSED
 10
254.7823517366
 20
378.6072635135
 30
0.0
 41
2.5
 42
2.5
 43
2.5
 50
90.0
  0
ENDBLK
  5
2A4
330
226
100
AcDbEntity
  8
0
  6
ByBlock
 62
     0
100
AcDbBlockEnd
  0
BLOCK
  5
22E
330
227
100
AcDbEntity
  8
0
100
AcDbBlockBegin
  2
LOGO2_BL1
 70
     0
 10
466.8259811881
 20
40.1411094536
 30
0.0
  3
LOGO2_BL1
  1

  0
LINE
  5
22F
330
227
100
AcDbEntity
  8
0
  6
Continuous
 62
     7
100
AcDbLine
 10
458.5689064163
 20
43.3366007925
 30
0.0
 11
457.2645654869
 21
43.3366007925
 31
0.0
  0
LINE
  5
230
330
227
100
AcDbEntity
  8
0
  6
Continuous
 62
     7
100
AcDbLine
 10
457.2645654869
 20
43.3366007925
 30
0.0
 11
457.2645654869
 21
32.8775347326
 31
0.0
  0
LINE
  5
231
330
227
100
AcDbEntity
  8
0
  6
Continuous
 62
     7
100
AcDbLine
 10
457.2645654869
 20
32.8775347326
 30
0.0
 11
461.7456203752
 21
32.8775347326
 31
0.0
  0
LINE
  5
232
330
227
100
AcDbEntity
  8
0
  6
Continuous
 62
     7
100
AcDbLine
 10
461.7456203752
 20
32.8775347326
 30
0.0
 11
461.7456203752
 21
34.0703890577
 31
0.0
  0
LINE
  5
233
330
227
100
AcDbEntity
  8
0
  6
Continuous
 62
     7
100
AcDbLine
 10
461.7456203752
 20
34.0703890577
 30
0.0
 11
458.5689064163
 21
34.0703890577
 31
0.0
  0
LINE
  5
234
330
227
100
AcDbEntity
  8
0
  6
Continuous
 62
     7
100
AcDbLine
 10
458.5689064163
 20
34.0703890577
 30
0.0
 11
458.5689064163
 21
43.3366007925
 31
0.0
  0
LINE
  5
235
330
227
100
AcDbEntity
  8
0
  6
Continuous
 62
     7
100
AcDbLine
 10
473.5052326326
 20
43.3366007925
 30
0.0
 11
472.2014151145
 21
43.3366007925
 31
0.0
  0
LINE
  5
236
330
227
100
AcDbEntity
  8
0
  6
Continuous
 62
     7
100
AcDbLine
 10
472.2014151145
 20
43.3366007925
 30
0.0
 11
472.2014151145
 21
32.8775347326
 31
0.0
  0
LINE
  5
237
330
227
100
AcDbEntity
  8
0
  6
Continuous
 62
     7
100
AcDbLine
 10
472.2014151145
 20
32.8775347326
 30
0.0
 11
476.6826008556
 21
32.8775347326
 31
0.0
  0
LINE
  5
238
330
227
100
AcDbEntity
  8
0
  6
Continuous
 62
     7
100
AcDbLine
 10
476.6826008556
 20
32.8775347326
 30
0.0
 11
476.6826008556
 21
34.0703890577
 31
0.0
  0
LINE
  5
239
330
227
100
AcDbEntity
  8
0
  6
Continuous
 62
     7
100
AcDbLine
 10
476.6826008556
 20
34.0703890577
 30
0.0
 11
473.5052326326
 21
34.0703890577
 31
0.0
  0
LINE
  5
23A
330
227
100
AcDbEntity
  8
0
  6
Continuous
 62
     7
100
AcDbLine
 10
473.5052326326
 20
34.0703890577
 30
0.0
 11
473.5052326326
 21
43.3366007925
 31
0.0
  0
LWPOLYLINE
  5
23B
330
227
100
AcDbEntity
  8
0
  6
Continuous
 62
     7
100
AcDbPolyline
 90
        2
 70
     0
 43
0.2
 10
455.6189603978
 20
29.5339834257
 10
455.6189603978
 20
27.6769201763
  0
LWPOLYLINE
  5
23C
330
227
100
AcDbEntity
  8
0
  6
Continuous
 62
     7
100
AcDbPolyline
 90
        2
 70
     0
 43
0.2
 10
455.6189603978
 20
27.6769201763
 10
456.4146764082
 20
27.6769201763
  0
LWPOLYLINE
  5
23D
330
227
100
AcDbEntity
  8
0
  6
Continuous
 62
     7
100
AcDbPolyline
 90
        2
 70
     0
 43
0.2
 10
456.4146764082
 20
27.6769201763
 10
456.4146764082
 20
27.8889017479
  0
LWPOLYLINE
  5
23E
330
227
100
AcDbEntity
  8
0
  6
Continuous
 62
     7
100
AcDbPolyline
 90
        2
 70
     0
 43
0.2
 10
456.4146764082
 20
27.8889017479
 10
455.8505698927
 20
27.8889017479
  0
LWPOLYLINE
  5
23F
330
227
100
AcDbEntity
  8
0
  6
Continuous
 62
     7
100
AcDbPolyline
 90
        2
 70
     0
 43
0.2
 10
455.8505698927
 20
27.8889017479
 10
455.8505698927
 20
29.5339834257
  0
LWPOLYLINE
  5
240
330
227
100
AcDbEntity
  8
0
  6
Continuous
 62
     7
100
AcDbPolyline
 90
        2
 70
     0
 43
0.2
 10
455.8505698927
 20
29.5339834257
 10
455.6189603978
 20
29.5339834257
  0
SPLINE
  5
241
330
227
100
AcDbEntity
  8
0
  6
Continuous
 62
     7
100
AcDbSpline
 70
     3
 71
     3
 72
    35
 73
    31
 74
     0
 42
0.000000001
 43
0.0000001
 40
0.0
 40
0.0
 40
0.0
 40
0.0
 40
1.0
 40
1.0
 40
1.0
 40
2.0
 40
2.0
 40
2.0
 40
3.0
 40
3.0
 40
3.0
 40
4.0
 40
4.0
 40
4.0
 40
5.0
 40
5.0
 40
5.0
 40
6.0
 40
6.0
 40
6.0
 40
7.0
 40
7.0
 40
7.0
 40
8.0
 40
8.0
 40
8.0
 40
9.0
 40
9.0
 40
9.0
 40
10.0
 40
10.0
 40
10.0
 40
10.0
 10
457.8129696638
 20
28.8294718322
 30
0.0
 10
457.8129696638
 20
28.8294718322
 30
0.0
 10
457.8129696638
 20
28.1673565531
 30
0.0
 10
457.8129696638
 20
28.1673565531
 30
0.0
 10
457.8129696638
 20
27.8522629578
 30
0.0
 10
457.9608333526
 20
27.6376643297
 30
0.0
 10
458.3009198369
 20
27.6376643297
 30
0.0
 10
458.6404829099
 20
27.6376643297
 30
0.0
 10
458.7886083044
 20
27.8522629578
 30
0.0
 10
458.7886083044
 20
28.1673565531
 30
0.0
 10
458.7886083044
 20
28.1673565531
 30
0.0
 10
458.7886083044
 20
28.8294718322
 30
0.0
 10
458.7886083044
 20
28.8294718322
 30
0.0
 10
458.7886083044
 20
28.8294718322
 30
0.0
 10
458.5665510655
 20
28.8294718322
 30
0.0
 10
458.5665510655
 20
28.8294718322
 30
0.0
 10
458.5665510655
 20
28.8294718322
 30
0.0
 10
458.5665510655
 20
28.1924802949
 30
0.0
 10
458.5665510655
 20
28.1924802949
 30
0.0
 10
458.5665510655
 20
28.0066692877
 30
0.0
 10
458.519836608
 20
27.8438883771
 30
0.0
 10
458.3009198369
 20
27.8438883771
 30
0.0
 10
458.0814796544
 20
27.8438883771
 30
0.0
 10
458.034765197
 20
28.0066692877
 30
0.0
 10
458.034765197
 20
28.1924802949
 30
0.0
 10
458.034765197
 20
28.1924802949
 30
0.0
 10
458.034765197
 20
28.8294718322
 30
0.0
 10
458.034765197
 20
28.8294718322
 30
0.0
 10
458.034765197
 20
28.8294718322
 30
0.0
 10
457.8129696638
 20
28.8294718322
 30
0.0
 10
457.8129696638
 20
28.8294718322
 30
0.0
  0
SPLINE
  5
242
330
227
100
AcDbEntity
  8
0
  6
Continuous
 62
     7
100
AcDbSpline
 70
     3
 71
     3
 72
    35
 73
    31
 74
     0
 42
0.000000001
 43
0.0000001
 40
0.0
 40
0.0
 40
0.0
 40
0.0
 40
1.0
 40
1.0
 40
1.0
 40
2.0
 40
2.0
 40
2.0
 40
3.0
 40
3.0
 40
3.0
 40
4.0
 40
4.0
 40
4.0
 40
5.0
 40
5.0
 40
5.0
 40
6.0
 40
6.0
 40
6.0
 40
7.0
 40
7.0
 40
7.0
 40
8.0
 40
8.0
 40
8.0
 40
9.0
 40
9.0
 40
9.0
 40
10.0
 40
10.0
 40
10.0
 40
10.0
 10
461.2117408616
 20
28.7881223405
 30
0.0
 10
461.1232843539
 20
28.8394166467
 30
0.0
 10
461.0098349573
 20
28.8645403885
 30
0.0
 10
460.9061995223
 20
28.8645403885
 30
0.0
 10
460.5513266691
 20
28.8645403885
 30
0.0
 10
460.2758814788
 20
28.6007410994
 30
0.0
 10
460.2758814788
 20
28.2432511898
 30
0.0
 10
460.2758814788
 20
27.8983231511
 30
0.0
 10
460.554336284
 20
27.638187741
 30
0.0
 10
460.893899357
 20
27.638187741
 30
0.0
 10
461.0098349573
 20
27.638187741
 30
0.0
 10
461.1105916302
 20
27.6601710151
 30
0.0
 10
461.2117408616
 20
27.7140823778
 30
0.0
 10
461.2117408616
 20
27.7140823778
 30
0.0
 10
461.2117408616
 20
27.9967244732
 30
0.0
 10
461.2117408616
 20
27.9967244732
 30
0.0
 10
461.1278642027
 20
27.903557264
 30
0.0
 10
461.0243596205
 20
27.8444117884
 30
0.0
 10
460.8962547078
 20
27.8444117884
 30
0.0
 10
460.6625515678
 20
27.8444117884
 30
0.0
 10
460.4972844536
 20
28.0166141021
 30
0.0
 10
460.4972844536
 20
28.2531960043
 30
0.0
 10
460.4972844536
 20
28.4651775759
 30
0.0
 10
460.6650377714
 20
28.6572695185
 30
0.0
 10
460.8818608974
 20
28.6572695185
 30
0.0
 10
461.0146765117
 20
28.6572695185
 30
0.0
 10
461.1232843539
 20
28.6033581558
 30
0.0
 10
461.2117408616
 20
28.5023397773
 30
0.0
 10
461.2117408616
 20
28.5023397773
 30
0.0
 10
461.2117408616
 20
28.7881223405
 30
0.0
 10
461.2117408616
 20
28.7881223405
 30
0.0
  0
SPLINE
  5
243
330
227
100
AcDbEntity
  8
0
  6
Continuous
 62
     7
100
AcDbSpline
 70
     3
 71
     3
 72
    32
 73
    28
 74
     0
 42
0.000000001
 43
0.0000001
 40
0.0
 40
0.0
 40
0.0
 40
0.0
 40
1.0
 40
1.0
 40
1.0
 40
2.0
 40
2.0
 40
2.0
 40
3.0
 40
3.0
 40
3.0
 40
4.0
 40
4.0
 40
4.0
 40
5.0
 40
5.0
 40
5.0
 40
6.0
 40
6.0
 40
6.0
 40
7.0
 40
7.0
 40
7.0
 40
8.0
 40
8.0
 40
8.0
 40
9.0
 40
9.0
 40
9.0
 40
9.0
 10
463.7436121138
 20
28.2165572141
 30
0.0
 10
463.7436121138
 20
28.2165572141
 30
0.0
 10
463.7436121138
 20
28.2505789478
 30
0.0
 10
463.7436121138
 20
28.2505789478
 30
0.0
 10
463.7436121138
 20
28.5928899301
 30
0.0
 10
463.570755536
 20
28.8645403885
 30
0.0
 10
463.2041059288
 20
28.8645403885
 30
0.0
 10
462.8324839144
 20
28.8645403885
 30
0.0
 10
462.6427473226
 20
28.598124043
 30
0.0
 10
462.6427473226
 20
28.2432511898
 30
0.0
 10
462.6427473226
 20
27.903557264
 30
0.0
 10
462.8568225393
 20
27.6376643297
 30
0.0
 10
463.2089474832
 20
27.6376643297
 30
0.0
 10
463.4329675145
 20
27.6376643297
 30
0.0
 10
463.6351351244
 20
27.7533382243
 30
0.0
 10
463.7436121138
 20
27.952757925
 30
0.0
 10
463.7436121138
 20
27.952757925
 30
0.0
 10
463.5559691671
 20
28.0595338278
 30
0.0
 10
463.5559691671
 20
28.0595338278
 30
0.0
 10
463.4724850667
 20
27.9208298365
 30
0.0
 10
463.3812806498
 20
27.8349903853
 30
0.0
 10
463.2116953925
 20
27.8349903853
 30
0.0
 10
462.9997138209
 20
27.8349903853
 30
0.0
 10
462.8667673538
 20
28.0197545699
 30
0.0
 10
462.864412003
 20
28.2165572141
 30
0.0
 10
462.864412003
 20
28.2165572141
 30
0.0
 10
463.7436121138
 20
28.2165572141
 30
0.0
 10
463.7436121138
 20
28.2165572141
 30
0.0
  0
SPLINE
  5
244
330
227
100
AcDbEntity
  8
0
  6
Continuous
 62
     7
100
AcDbSpline
 70
     3
 71
     3
 72
    14
 73
    10
 74
     0
 42
0.000000001
 43
0.0000001
 40
0.0
 40
0.0
 40
0.0
 40
0.0
 40
1.0
 40
1.0
 40
1.0
 40
2.0
 40
2.0
 40
2.0
 40
3.0
 40
3.0
 40
3.0
 40
3.0
 10
462.8764504626
 20
28.3840488262
 30
0.0
 10
462.9040604081
 20
28.5489233819
 30
0.0
 10
463.0319036151
 20
28.6719250346
 30
0.0
 10
463.2041059288
 20
28.6719250346
 30
0.0
 10
463.3812806498
 20
28.6719250346
 30
0.0
 10
463.4947300464
 20
28.5562511399
 30
0.0
 10
463.5219474334
 20
28.3840488262
 30
0.0
 10
463.5219474334
 20
28.3840488262
 30
0.0
 10
462.8764504626
 20
28.3840488262
 30
0.0
 10
462.8764504626
 20
28.3840488262
 30
0.0
  0
SPLINE
  5
245
330
227
100
AcDbEntity
  8
0
  6
Continuous
 62
     7
100
AcDbSpline
 70
     3
 71
     3
 72
    20
 73
    16
 74
     0
 42
0.000000001
 43
0.0000001
 40
0.0
 40
0.0
 40
0.0
 40
0.0
 40
1.0
 40
1.0
 40
1.0
 40
2.0
 40
2.0
 40
2.0
 40
3.0
 40
3.0
 40
3.0
 40
4.0
 40
4.0
 40
4.0
 40
5.0
 40
5.0
 40
5.0
 40
5.0
 10
465.767643564
 20
28.5934133414
 30
0.0
 10
465.767643564
 20
28.5934133414
 30
0.0
 10
466.1787831306
 20
28.090938505
 30
0.0
 10
466.1787831306
 20
28.090938505
 30
0.0
 10
466.0627166775
 20
27.9752646104
 30
0.0
 10
465.924928656
 20
27.8449351997
 30
0.0
 10
465.7529880479
 20
27.8449351997
 30
0.0
 10
465.5755516213
 20
27.8449351997
 30
0.0
 10
465.4080600092
 20
28.0092863441
 30
0.0
 10
465.4080600092
 20
28.1861993594
 30
0.0
 10
465.4080600092
 20
28.3641591973
 30
0.0
 10
465.6178170828
 20
28.4903013177
 30
0.0
 10
465.7453985843
 20
28.578234414
 30
0.0
 10
465.7453985843
 20
28.578234414
 30
0.0
 10
465.767643564
 20
28.5934133414
 30
0.0
 10
465.767643564
 20
28.5934133414
 30
0.0
  0
SPLINE
  5
246
330
227
100
AcDbEntity
  8
0
  6
Continuous
 62
     7
100
AcDbSpline
 70
     3
 71
     3
 72
    23
 73
    19
 74
     0
 42
0.000000001
 43
0.0000001
 40
0.0
 40
0.0
 40
0.0
 40
0.0
 40
1.0
 40
1.0
 40
1.0
 40
2.0
 40
2.0
 40
2.0
 40
3.0
 40
3.0
 40
3.0
 40
4.0
 40
4.0
 40
4.0
 40
5.0
 40
5.0
 40
5.0
 40
6.0
 40
6.0
 40
6.0
 40
6.0
 10
465.8169750779
 20
28.8844300174
 30
0.0
 10
465.8169750779
 20
28.8844300174
 30
0.0
 10
465.7553433987
 20
28.9629417106
 30
0.0
 10
465.7553433987
 20
28.9629417106
 30
0.0
 10
465.7014320361
 20
29.0315085893
 30
0.0
 10
465.6446419113
 20
29.1005988793
 30
0.0
 10
465.6446419113
 20
29.1942894999
 30
0.0
 10
465.6446419113
 20
29.3131038622
 30
0.0
 10
465.7405570298
 20
29.3905687328
 30
0.0
 10
465.8515202229
 20
29.3905687328
 30
0.0
 10
465.9747835812
 20
29.3905687328
 30
0.0
 10
466.0680816432
 20
29.3193847977
 30
0.0
 10
466.0680816432
 20
29.189055387
 30
0.0
 10
466.0680816432
 20
29.0540152747
 30
0.0
 10
465.9399767305
 20
28.9775972267
 30
0.0
 10
465.8464169628
 20
28.9037962351
 30
0.0
 10
465.8464169628
 20
28.9037962351
 30
0.0
 10
465.8169750779
 20
28.8844300174
 30
0.0
 10
465.8169750779
 20
28.8844300174
 30
0.0
  0
SPLINE
  5
247
330
227
100
AcDbEntity
  8
0
  6
Continuous
 62
     7
100
AcDbSpline
 70
     3
 71
     3
 72
    50
 73
    46
 74
     0
 42
0.000000001
 43
0.0000001
 40
0.0
 40
0.0
 40
0.0
 40
0.0
 40
1.0
 40
1.0
 40
1.0
 40
2.0
 40
2.0
 40
2.0
 40
3.0
 40
3.0
 40
3.0
 40
4.0
 40
4.0
 40
4.0
 40
5.0
 40
5.0
 40
5.0
 40
6.0
 40
6.0
 40
6.0
 40
7.0
 40
7.0
 40
7.0
 40
8.0
 40
8.0
 40
8.0
 40
9.0
 40
9.0
 40
9.0
 40
10.0
 40
10.0
 40
10.0
 40
11.0
 40
11.0
 40
11.0
 40
12.0
 40
12.0
 40
12.0
 40
13.0
 40
13.0
 40
13.0
 40
14.0
 40
14.0
 40
14.0
 40
15.0
 40
15.0
 40
15.0
 40
15.0
 10
466.5191313206
 20
27.6774435876
 30
0.0
 10
466.5191313206
 20
27.6774435876
 30
0.0
 10
466.8045213253
 20
27.6774435876
 30
0.0
 10
466.8045213253
 20
27.6774435876
 30
0.0
 10
466.8045213253
 20
27.6774435876
 30
0.0
 10
466.4721551575
 20
28.0883214486
 30
0.0
 10
466.4721551575
 20
28.0883214486
 30
0.0
 10
466.4721551575
 20
28.0883214486
 30
0.0
 10
466.6986613923
 20
28.3542143828
 30
0.0
 10
466.6986613923
 20
28.3542143828
 30
0.0
 10
466.6986613923
 20
28.3542143828
 30
0.0
 10
466.550405145
 20
28.5070504789
 30
0.0
 10
466.550405145
 20
28.5070504789
 30
0.0
 10
466.550405145
 20
28.5070504789
 30
0.0
 10
466.3344979888
 20
28.2558130607
 30
0.0
 10
466.3344979888
 20
28.2558130607
 30
0.0
 10
466.3344979888
 20
28.2558130607
 30
0.0
 10
465.9474353414
 20
28.7237427521
 30
0.0
 10
465.9474353414
 20
28.7237427521
 30
0.0
 10
466.1028884939
 20
28.8378464128
 30
0.0
 10
466.2851664749
 20
28.9775972267
 30
0.0
 10
466.2851664749
 20
29.1869617418
 30
0.0
 10
466.2851664749
 20
29.430871402
 30
0.0
 10
466.0831297178
 20
29.5742860948
 30
0.0
 10
465.8566234829
 20
29.5742860948
 30
0.0
 10
465.6124521171
 20
29.5742860948
 30
0.0
 10
465.428080491
 20
29.4235436439
 30
0.0
 10
465.428080491
 20
29.1670721129
 30
0.0
 10
465.428080491
 20
29.0095253152
 30
0.0
 10
465.5267435188
 20
28.8718681465
 30
0.0
 10
465.6320800404
 20
28.7609049535
 30
0.0
 10
465.6320800404
 20
28.7609049535
 30
0.0
 10
465.5165369986
 20
28.6771591474
 30
0.0
 10
465.5165369986
 20
28.6771591474
 30
0.0
 10
465.3388388664
 20
28.5489233819
 30
0.0
 10
465.1914985889
 20
28.4212110277
 30
0.0
 10
465.1914985889
 20
28.1841057143
 30
0.0
 10
465.1914985889
 20
27.8637780061
 30
0.0
 10
465.4500637651
 20
27.6376643297
 30
0.0
 10
465.7604466588
 20
27.6376643297
 30
0.0
 10
465.9793634299
 20
27.6376643297
 30
0.0
 10
466.1765586326
 20
27.7627596275
 30
0.0
 10
466.3168328578
 20
27.9286810058
 30
0.0
 10
466.3168328578
 20
27.9286810058
 30
0.0
 10
466.5191313206
 20
27.6774435876
 30
0.0
 10
466.5191313206
 20
27.6774435876
 30
0.0
  0
LWPOLYLINE
  5
248
330
227
100
AcDbEntity
  8
0
  6
Continuous
 62
     7
100
AcDbPolyline
 90
        2
 70
     0
 43
0.2
 10
468.4545754103
 20
29.5339834257
 10
468.223227621
 20
29.5339834257
  0
LWPOLYLINE
  5
249
330
227
100
AcDbEntity
  8
0
  6
Continuous
 62
     7
100
AcDbPolyline
 90
        2
 70
     0
 43
0.2
 10
468.223227621
 20
29.5339834257
 10
468.223227621
 20
27.6769201763
  0
LWPOLYLINE
  5
24A
330
227
100
AcDbEntity
  8
0
  6
Continuous
 62
     7
100
AcDbPolyline
 90
        2
 70
     0
 43
0.2
 10
468.223227621
 20
27.6769201763
 10
469.018551073
 20
27.6769201763
  0
LWPOLYLINE
  5
24B
330
227
100
AcDbEntity
  8
0
  6
Continuous
 62
     7
100
AcDbPolyline
 90
        2
 70
     0
 43
0.2
 10
469.018551073
 20
27.6769201763
 10
469.018551073
 20
27.8889017479
  0
LWPOLYLINE
  5
24C
330
227
100
AcDbEntity
  8
0
  6
Continuous
 62
     7
100
AcDbPolyline
 90
        2
 70
     0
 43
0.2
 10
469.018551073
 20
27.8889017479
 10
468.4545754103
 20
27.8889017479
  0
LWPOLYLINE
  5
24D
330
227
100
AcDbEntity
  8
0
  6
Continuous
 62
     7
100
AcDbPolyline
 90
        2
 70
     0
 43
0.2
 10
468.4545754103
 20
27.8889017479
 10
468.4545754103
 20
29.5339834257
  0
LWPOLYLINE
  5
24E
330
227
100
AcDbEntity
  8
0
  6
Continuous
 62
     7
100
AcDbPolyline
 90
        2
 70
     0
 43
0.2
 10
470.6976544844
 20
28.8294718322
 10
470.4765132153
 20
28.8294718322
  0
LWPOLYLINE
  5
24F
330
227
100
AcDbEntity
  8
0
  6
Continuous
 62
     7
100
AcDbPolyline
 90
        2
 70
     0
 43
0.2
 10
470.4765132153
 20
28.8294718322
 10
470.4765132153
 20
27.6774435876
  0
LWPOLYLINE
  5
250
330
227
100
AcDbEntity
  8
0
  6
Continuous
 62
     7
100
AcDbPolyline
 90
        2
 70
     0
 43
0.2
 10
470.4765132153
 20
27.6774435876
 10
470.6976544844
 20
27.6774435876
  0
LWPOLYLINE
  5
251
330
227
100
AcDbEntity
  8
0
  6
Continuous
 62
     7
100
AcDbPolyline
 90
        2
 70
     0
 43
0.2
 10
470.6976544844
 20
27.6774435876
 10
470.6976544844
 20
28.8294718322
  0
LWPOLYLINE
  5
252
330
227
100
AcDbEntity
  8
0
  6
Continuous
 62
     7
100
AcDbPolyline
 90
        2
 70
     1
 43
0.2
 10
470.4346312072
 20
29.3594257612
 42
1.0
 10
470.7397981982
 20
29.3594257612
 42
1.0
  0
SPLINE
  5
253
330
227
100
AcDbEntity
  8
0
  6
Continuous
 62
     7
100
AcDbSpline
 70
     3
 71
     3
 72
    17
 73
    13
 74
     0
 42
0.000000001
 43
0.0000001
 40
0.0
 40
0.0
 40
0.0
 40
0.0
 40
1.0
 40
1.0
 40
1.0
 40
2.0
 40
2.0
 40
2.0
 40
3.0
 40
3.0
 40
3.0
 40
4.0
 40
4.0
 40
4.0
 40
4.0
 10
472.8279384261
 20
27.8349903853
 30
0.0
 10
472.5939735804
 20
27.8349903853
 30
0.0
 10
472.4636441697
 20
28.0370271424
 30
0.0
 10
472.4636441697
 20
28.2531960043
 30
0.0
 10
472.4636441697
 20
28.4677946323
 30
0.0
 10
472.5994693989
 20
28.6666909217
 30
0.0
 10
472.8279384261
 20
28.6666909217
 30
0.0
 10
473.0673990903
 20
28.6666909217
 30
0.0
 10
473.2029626138
 20
28.4777394468
 30
0.0
 10
473.2029626138
 20
28.2531960043
 30
0.0
 10
473.2029626138
 20
28.0270823279
 30
0.0
 10
473.0697544411
 20
27.8349903853
 30
0.0
 10
472.8279384261
 20
27.8349903853
 30
0.0
  0
SPLINE
  5
254
330
227
100
AcDbEntity
  8
0
  6
Continuous
 62
     7
100
AcDbSpline
 70
     3
 71
     3
 72
    50
 73
    46
 74
     0
 42
0.000000001
 43
0.0000001
 40
0.0
 40
0.0
 40
0.0
 40
0.0
 40
1.0
 40
1.0
 40
1.0
 40
2.0
 40
2.0
 40
2.0
 40
3.0
 40
3.0
 40
3.0
 40
4.0
 40
4.0
 40
4.0
 40
5.0
 40
5.0
 40
5.0
 40
6.0
 40
6.0
 40
6.0
 40
7.0
 40
7.0
 40
7.0
 40
8.0
 40
8.0
 40
8.0
 40
9.0
 40
9.0
 40
9.0
 40
10.0
 40
10.0
 40
10.0
 40
11.0
 40
11.0
 40
11.0
 40
12.0
 40
12.0
 40
12.0
 40
13.0
 40
13.0
 40
13.0
 40
14.0
 40
14.0
 40
14.0
 40
15.0
 40
15.0
 40
15.0
 40
15.0
 10
473.4120654233
 20
28.8299952435
 30
0.0
 10
473.4120654233
 20
28.8299952435
 30
0.0
 10
473.1904007429
 20
28.8299952435
 30
0.0
 10
473.1904007429
 20
28.8299952435
 30
0.0
 10
473.1904007429
 20
28.8299952435
 30
0.0
 10
473.1904007429
 20
28.632669188
 30
0.0
 10
473.1904007429
 20
28.632669188
 30
0.0
 10
473.1904007429
 20
28.632669188
 30
0.0
 10
473.1856900413
 20
28.632669188
 30
0.0
 10
473.1856900413
 20
28.632669188
 30
0.0
 10
473.0943547716
 20
28.7755604696
 30
0.0
 10
472.9564358972
 20
28.8640169772
 30
0.0
 10
472.7837101723
 20
28.8640169772
 30
0.0
 10
472.4513440045
 20
28.8640169772
 30
0.0
 10
472.2422411949
 20
28.5761407689
 30
0.0
 10
472.2422411949
 20
28.2605237623
 30
0.0
 10
472.2422411949
 20
27.9307746509
 30
0.0
 10
472.4393055448
 20
27.6376643297
 30
0.0
 10
472.794178398
 20
27.6376643297
 30
0.0
 10
472.9564358972
 20
27.6376643297
 30
0.0
 10
473.0964484168
 20
27.7261208374
 30
0.0
 10
473.1856900413
 20
27.8569736593
 30
0.0
 10
473.1856900413
 20
27.8569736593
 30
0.0
 10
473.1904007429
 20
27.8569736593
 30
0.0
 10
473.1904007429
 20
27.8569736593
 30
0.0
 10
473.1904007429
 20
27.8569736593
 30
0.0
 10
473.1904007429
 20
27.6376643297
 30
0.0
 10
473.1904007429
 20
27.6376643297
 30
0.0
 10
473.1904007429
 20
27.4010824276
 30
0.0
 10
473.1338723238
 20
27.2142245978
 30
0.0
 10
472.8606516316
 20
27.2142245978
 30
0.0
 10
472.6583531688
 20
27.2142245978
 30
0.0
 10
472.5157235929
 20
27.3325155489
 30
0.0
 10
472.5157235929
 20
27.5387395963
 30
0.0
 10
472.5157235929
 20
27.5387395963
 30
0.0
 10
472.2940589124
 20
27.5387395963
 30
0.0
 10
472.2940589124
 20
27.5387395963
 30
0.0
 10
472.2990313197
 20
27.2142245978
 30
0.0
 10
472.5301174033
 20
27.0174219536
 30
0.0
 10
472.8504451115
 20
27.0174219536
 30
0.0
 10
473.2984851739
 20
27.0174219536
 30
0.0
 10
473.4120654233
 20
27.3026811055
 30
0.0
 10
473.4120654233
 20
27.6994268617
 30
0.0
 10
473.4120654233
 20
27.6994268617
 30
0.0
 10
473.4120654233
 20
28.8299952435
 30
0.0
 10
473.4120654233
 20
28.8299952435
 30
0.0
  0
SPLINE
  5
255
330
227
100
AcDbEntity
  8
0
  6
Continuous
 62
     7
100
AcDbSpline
 70
     3
 71
     3
 72
    44
 73
    40
 74
     0
 42
0.000000001
 43
0.0000001
 40
0.0
 40
0.0
 40
0.0
 40
0.0
 40
1.0
 40
1.0
 40
1.0
 40
2.0
 40
2.0
 40
2.0
 40
3.0
 40
3.0
 40
3.0
 40
4.0
 40
4.0
 40
4.0
 40
5.0
 40
5.0
 40
5.0
 40
6.0
 40
6.0
 40
6.0
 40
7.0
 40
7.0
 40
7.0
 40
8.0
 40
8.0
 40
8.0
 40
9.0
 40
9.0
 40
9.0
 40
10.0
 40
10.0
 40
10.0
 40
11.0
 40
11.0
 40
11.0
 40
12.0
 40
12.0
 40
12.0
 40
13.0
 40
13.0
 40
13.0
 40
13.0
 10
474.9809907587
 20
29.8150552873
 30
0.0
 10
474.9809907587
 20
29.8150552873
 30
0.0
 10
474.9809907587
 20
27.6769201763
 30
0.0
 10
474.9809907587
 20
27.6769201763
 30
0.0
 10
474.9809907587
 20
27.6769201763
 30
0.0
 10
475.2023937335
 20
27.6769201763
 30
0.0
 10
475.2023937335
 20
27.6769201763
 30
0.0
 10
475.2023937335
 20
27.6769201763
 30
0.0
 10
475.2023937335
 20
28.2066123996
 30
0.0
 10
475.2023937335
 20
28.2066123996
 30
0.0
 10
475.2023937335
 20
28.4165003261
 30
0.0
 10
475.2023937335
 20
28.667214333
 30
0.0
 10
475.4876528854
 20
28.667214333
 30
0.0
 10
475.7145516787
 20
28.667214333
 30
0.0
 10
475.74150736
 20
28.5342678659
 30
0.0
 10
475.74150736
 20
28.3379886329
 30
0.0
 10
475.74150736
 20
28.3379886329
 30
0.0
 10
475.74150736
 20
27.6769201763
 30
0.0
 10
475.74150736
 20
27.6769201763
 30
0.0
 10
475.74150736
 20
27.6769201763
 30
0.0
 10
475.9634337461
 20
27.6769201763
 30
0.0
 10
475.9634337461
 20
27.6769201763
 30
0.0
 10
475.9634337461
 20
27.6769201763
 30
0.0
 10
475.9634337461
 20
28.3641591973
 30
0.0
 10
475.9634337461
 20
28.3641591973
 30
0.0
 10
475.9634337461
 20
28.6447076476
 30
0.0
 10
475.8794262344
 20
28.8645403885
 30
0.0
 10
475.5543878246
 20
28.8645403885
 30
0.0
 10
475.4146370107
 20
28.8645403885
 30
0.0
 10
475.2764564307
 20
28.7980671549
 30
0.0
 10
475.2071044351
 20
28.6750655023
 30
0.0
 10
475.2071044351
 20
28.6750655023
 30
0.0
 10
475.2023937335
 20
28.6750655023
 30
0.0
 10
475.2023937335
 20
28.6750655023
 30
0.0
 10
475.2023937335
 20
28.6750655023
 30
0.0
 10
475.2023937335
 20
29.8150552873
 30
0.0
 10
475.2023937335
 20
29.8150552873
 30
0.0
 10
475.2023937335
 20
29.8150552873
 30
0.0
 10
474.9809907587
 20
29.8150552873
 30
0.0
 10
474.9809907587
 20
29.8150552873
 30
0.0
  0
LWPOLYLINE
  5
256
330
227
100
AcDbEntity
  8
0
  6
Continuous
 62
     7
100
AcDbPolyline
 90
        2
 70
     0
 43
0.2
 10
477.8032244229
 20
28.6227243735
 10
478.0196549905
 20
28.6227243735
  0
LWPOLYLINE
  5
257
330
227
100
AcDbEntity
  8
0
  6
Continuous
 62
     7
100
AcDbPolyline
 90
        2
 70
     0
 43
0.2
 10
478.0196549905
 20
28.6227243735
 10
478.0196549905
 20
28.8294718322
  0
LWPOLYLINE
  5
258
330
227
100
AcDbEntity
  8
0
  6
Continuous
 62
     7
100
AcDbPolyline
 90
        2
 70
     0
 43
0.2
 10
478.0196549905
 20
28.8294718322
 10
477.8032244229
 20
28.8294718322
  0
LWPOLYLINE
  5
259
330
227
100
AcDbEntity
  8
0
  6
Continuous
 62
     7
100
AcDbPolyline
 90
        2
 70
     0
 43
0.2
 10
477.8032244229
 20
28.8294718322
 10
477.8032244229
 20
29.2701841366
  0
LWPOLYLINE
  5
25A
330
227
100
AcDbEntity
  8
0
  6
Continuous
 62
     7
100
AcDbPolyline
 90
        2
 70
     0
 43
0.2
 10
477.8032244229
 20
29.2701841366
 10
477.5815597425
 20
29.2701841366
  0
LWPOLYLINE
  5
25B
330
227
100
AcDbEntity
  8
0
  6
Continuous
 62
     7
100
AcDbPolyline
 90
        2
 70
     0
 43
0.2
 10
477.5815597425
 20
29.2701841366
 10
477.5815597425
 20
28.8294718322
  0
LWPOLYLINE
  5
25C
330
227
100
AcDbEntity
  8
0
  6
Continuous
 62
     7
100
AcDbPolyline
 90
        2
 70
     0
 43
0.2
 10
477.5815597425
 20
28.8294718322
 10
477.4609134407
 20
28.8294718322
  0
LWPOLYLINE
  5
25D
330
227
100
AcDbEntity
  8
0
  6
Continuous
 62
     7
100
AcDbPolyline
 90
        2
 70
     0
 43
0.2
 10
477.4609134407
 20
28.8294718322
 10
477.4609134407
 20
28.6227243735
  0
LWPOLYLINE
  5
25E
330
227
100
AcDbEntity
  8
0
  6
Continuous
 62
     7
100
AcDbPolyline
 90
        2
 70
     0
 43
0.2
 10
477.4609134407
 20
28.6227243735
 10
477.5815597425
 20
28.6227243735
  0
LWPOLYLINE
  5
25F
330
227
100
AcDbEntity
  8
0
  6
Continuous
 62
     7
100
AcDbPolyline
 90
        2
 70
     0
 43
0.2
 10
477.5815597425
 20
28.6227243735
 10
477.5815597425
 20
27.6769201763
  0
LWPOLYLINE
  5
260
330
227
100
AcDbEntity
  8
0
  6
Continuous
 62
     7
100
AcDbPolyline
 90
        2
 70
     0
 43
0.2
 10
477.5815597425
 20
27.6769201763
 10
477.8032244229
 20
27.6769201763
  0
LWPOLYLINE
  5
261
330
227
100
AcDbEntity
  8
0
  6
Continuous
 62
     7
100
AcDbPolyline
 90
        2
 70
     0
 43
0.2
 10
477.8032244229
 20
27.6769201763
 10
477.8032244229
 20
28.6227243735
  0
SPLINE
  5
262
330
227
100
AcDbEntity
  8
0
  6
Continuous
 62
     7
100
AcDbSpline
 70
     3
 71
     3
 72
    20
 73
    16
 74
     0
 42
0.000000001
 43
0.0000001
 40
0.0
 40
0.0
 40
0.0
 40
0.0
 40
1.0
 40
1.0
 40
1.0
 40
2.0
 40
2.0
 40
2.0
 40
3.0
 40
3.0
 40
3.0
 40
4.0
 40
4.0
 40
4.0
 40
5.0
 40
5.0
 40
5.0
 40
5.0
 10
465.5852347302
 20
38.0378466197
 30
0.0
 10
465.5852347302
 20
38.0378466197
 30
0.0
 10
467.9015913846
 20
35.2082851975
 30
0.0
 10
467.9015913846
 20
35.2082851975
 30
0.0
 10
467.2499443312
 20
34.5561147328
 30
0.0
 10
466.4730711272
 20
33.8201984621
 30
0.0
 10
465.5018814826
 20
33.8201984621
 30
0.0
 10
464.5033435981
 20
33.8201984621
 30
0.0
 10
463.5600256046
 20
34.7497769093
 30
0.0
 10
463.5600256046
 20
35.7489690579
 30
0.0
 10
463.5600256046
 20
36.7481612064
 30
0.0
 10
464.7388786777
 20
37.454766445
 30
0.0
 10
465.460401138
 20
37.9546242249
 30
0.0
 10
465.460401138
 20
37.9546242249
 30
0.0
 10
465.5852347302
 20
38.0378466197
 30
0.0
 10
465.5852347302
 20
38.0378466197
 30
0.0
  0
SPLINE
  5
263
330
227
100
AcDbEntity
  8
0
  6
Continuous
 62
     7
100
AcDbSpline
 70
     3
 71
     3
 72
    23
 73
    19
 74
     0
 42
0.000000001
 43
0.0000001
 40
0.0
 40
0.0
 40
0.0
 40
0.0
 40
1.0
 40
1.0
 40
1.0
 40
2.0
 40
2.0
 40
2.0
 40
3.0
 40
3.0
 40
3.0
 40
4.0
 40
4.0
 40
4.0
 40
5.0
 40
5.0
 40
5.0
 40
6.0
 40
6.0
 40
6.0
 40
6.0
 10
465.8626427127
 20
39.6756005395
 30
0.0
 10
465.8626427127
 20
39.6756005395
 30
0.0
 10
465.5161444402
 20
40.1189299003
 30
0.0
 10
465.5161444402
 20
40.1189299003
 30
0.0
 10
465.2103413952
 20
40.5070393702
 30
0.0
 10
464.8914530681
 20
40.8955413987
 30
0.0
 10
464.8914530681
 20
41.4224857127
 30
0.0
 10
464.8914530681
 20
42.0886574294
 30
0.0
 10
465.4327911926
 20
42.5323793486
 30
0.0
 10
466.0566974477
 20
42.5323793486
 30
0.0
 10
466.7504791098
 20
42.5323793486
 30
0.0
 10
467.2776851295
 20
42.1301377739
 30
0.0
 10
467.2776851295
 20
41.3951374729
 30
0.0
 10
467.2776851295
 20
40.6318729624
 30
0.0
 10
466.5564243748
 20
40.2017597366
 30
0.0
 10
466.0293492079
 20
39.7860403212
 30
0.0
 10
466.0293492079
 20
39.7860403212
 30
0.0
 10
465.8626427127
 20
39.6756005395
 30
0.0
 10
465.8626427127
 20
39.6756005395
 30
0.0
  0
SPLINE
  5
264
330
227
100
AcDbEntity
  8
0
  6
Continuous
 62
     7
100
AcDbSpline
 70
     3
 71
     3
 72
    50
 73
    46
 74
     0
 42
0.000000001
 43
0.0000001
 40
0.0
 40
0.0
 40
0.0
 40
0.0
 40
1.0
 40
1.0
 40
1.0
 40
2.0
 40
2.0
 40
2.0
 40
3.0
 40
3.0
 40
3.0
 40
4.0
 40
4.0
 40
4.0
 40
5.0
 40
5.0
 40
5.0
 40
6.0
 40
6.0
 40
6.0
 40
7.0
 40
7.0
 40
7.0
 40
8.0
 40
8.0
 40
8.0
 40
9.0
 40
9.0
 40
9.0
 40
10.0
 40
10.0
 40
10.0
 40
11.0
 40
11.0
 40
11.0
 40
12.0
 40
12.0
 40
12.0
 40
13.0
 40
13.0
 40
13.0
 40
14.0
 40
14.0
 40
14.0
 40
15.0
 40
15.0
 40
15.0
 40
15.0
 10
469.8162298757
 20
32.8770113213
 30
0.0
 10
469.8162298757
 20
32.8770113213
 30
0.0
 10
471.4254578802
 20
32.8770113213
 30
0.0
 10
471.4254578802
 20
32.8770113213
 30
0.0
 10
471.4254578802
 20
32.8770113213
 30
0.0
 10
469.5524305866
 20
35.1941530927
 30
0.0
 10
469.5524305866
 20
35.1941530927
 30
0.0
 10
469.5524305866
 20
35.1941530927
 30
0.0
 10
470.8287690121
 20
36.6916327873
 30
0.0
 10
470.8287690121
 20
36.6916327873
 30
0.0
 10
470.8287690121
 20
36.6916327873
 30
0.0
 10
469.9965450643
 20
37.5526443559
 30
0.0
 10
469.9965450643
 20
37.5526443559
 30
0.0
 10
469.9965450643
 20
37.5526443559
 30
0.0
 10
468.775949941
 20
36.1373402335
 30
0.0
 10
468.775949941
 20
36.1373402335
 30
0.0
 10
468.775949941
 20
36.1373402335
 30
0.0
 10
466.5980355722
 20
38.7727160679
 30
0.0
 10
466.5980355722
 20
38.7727160679
 30
0.0
 10
467.4716090117
 20
39.4107544278
 30
0.0
 10
468.4982802528
 20
40.2017597366
 30
0.0
 10
468.4982802528
 20
41.3806128097
 30
0.0
 10
468.4982802528
 20
42.7543057347
 30
0.0
 10
467.360384113
 20
43.5587888842
 30
0.0
 10
466.0850925101
 20
43.5587888842
 30
0.0
 10
464.7116612907
 20
43.5587888842
 30
0.0
 10
463.670727092
 20
42.7125636845
 30
0.0
 10
463.670727092
 20
41.2699113223
 30
0.0
 10
463.670727092
 20
40.3823366309
 30
0.0
 10
464.2260664684
 20
39.6054634269
 30
0.0
 10
464.8222319253
 20
38.9810337604
 30
0.0
 10
464.8222319253
 20
38.9810337604
 30
0.0
 10
464.1703231662
 20
38.5094401901
 30
0.0
 10
464.1703231662
 20
38.5094401901
 30
0.0
 10
463.1717852818
 20
37.7881794354
 30
0.0
 10
462.33890707
 20
37.0669186807
 30
0.0
 10
462.33890707
 20
35.7353603644
 30
0.0
 10
462.33890707
 20
33.9316850664
 30
0.0
 10
463.7959532426
 20
32.6550849353
 30
0.0
 10
465.54349268
 20
32.6550849353
 30
0.0
 10
466.7783507609
 20
32.6550849353
 30
0.0
 10
467.8877209855
 20
33.3632604077
 30
0.0
 10
468.6785954415
 20
34.2917920324
 30
0.0
 10
468.6785954415
 20
34.2917920324
 30
0.0
 10
469.8162298757
 20
32.8770113213
 30
0.0
 10
469.8162298757
 20
32.8770113213
 30
0.0
  0
LINE
  5
265
330
227
100
AcDbEntity
  8
0
  6
Continuous
 62
     7
100
AcDbLine
 10
455.6190912507
 20
30.850886226
 30
0.0
 11
478.0330019783
 21
30.850886226
 31
0.0
  0
LINE
  5
266
330
227
100
AcDbEntity
  8
0
  6
Continuous
 62
     7
100
AcDbLine
 10
478.0330019783
 20
30.850886226
 30
0.0
 11
478.0330019783
 21
53.2647969536
 31
0.0
  0
LINE
  5
267
330
227
100
AcDbEntity
  8
0
  6
Continuous
 62
     7
100
AcDbLine
 10
478.0330019783
 20
53.2647969536
 30
0.0
 11
455.6190912507
 21
53.2647969536
 31
0.0
  0
LINE
  5
268
330
227
100
AcDbEntity
  8
0
  6
Continuous
 62
     7
100
AcDbLine
 10
455.6190912507
 20
53.2647969536
 30
0.0
 11
455.6190912507
 21
30.850886226
 31
0.0
  0
ENDBLK
  5
269
330
227
100
AcDbEntity
  8
0
  6
ByBlock
 62
     0
100
AcDbBlockEnd
  0
BLOCK
  5
26A
330
228
100
AcDbEntity
  8
0
100
AcDbBlockBegin
  2
PROIEZIONE_EU_BL0
 70
     0
 10
467.9999341433
 20
65.7661094536
 30
0.0
  3
PROIEZIONE_EU_BL0
  1

  0
LWPOLYLINE
  5
26B
330
228
100
AcDbEntity
  8
DEFAULT_1
  6
CENTER
 62
     7
100
AcDbPolyline
 90
        2
 70
     0
 43
0.25
 10
474.126554805
 20
70.7658035855
 10
474.1265957873
 20
60.7664153217
  0
LWPOLYLINE
  5
26C
330
228
100
AcDbEntity
  8
DEFAULT_1
  6
CENTER
 62
     7
100
AcDbPolyline
 90
        2
 70
     0
 43
0.25
 10
480.12658463
 20
65.7663805887
 10
455.8732836566
 20
65.7661099283
  0
LWPOLYLINE
  5
26D
330
228
100
AcDbEntity
  8
0
  6
Continuous
 62
     7
100
AcDbPolyline
 90
        2
 70
     1
 43
0.25
 10
470.5794446292
 20
65.7475616994
 42
1.0
 10
477.6857737278
 20
65.7475616994
 42
1.0
  0
LWPOLYLINE
  5
26E
330
228
100
AcDbEntity
  8
0
  6
Continuous
 62
     7
100
AcDbPolyline
 90
        2
 70
     1
 43
0.25
 10
472.1291884575
 20
65.765459744
 42
1.0
 10
476.1409402076
 20
65.765459744
 42
1.0
  0
LWPOLYLINE
  5
26F
330
228
100
AcDbEntity
  8
0
  6
Continuous
 62
     7
100
AcDbPolyline
 90
        2
 70
     0
 43
0.25
 10
468.126582424
 20
69.3413129488
 10
468.1265820694
 20
62.2411100405
  0
LWPOLYLINE
  5
270
330
228
100
AcDbEntity
  8
0
  6
Continuous
 62
     7
100
AcDbPolyline
 90
        2
 70
     0
 43
0.25
 10
468.1266105058
 20
62.2410816041
 10
458.1320532347
 20
63.761175017
  0
LWPOLYLINE
  5
271
330
228
100
AcDbEntity
  8
0
  6
Continuous
 62
     7
100
AcDbPolyline
 90
        2
 70
     0
 43
0.25
 10
458.129743249
 20
63.7604974754
 10
458.127076345
 20
67.7661360869
  0
LWPOLYLINE
  5
272
330
228
100
AcDbEntity
  8
0
  6
Continuous
 62
     7
100
AcDbPolyline
 90
        2
 70
     0
 43
0.25
 10
458.1270680689
 20
67.7661278108
 10
468.1268113062
 20
69.3412850309
  0
ENDBLK
  5
273
330
228
100
AcDbEntity
  8
0
  6
ByBlock
 62
     0
100
AcDbBlockEnd
  0
ENDSEC
  0
SECTION
  2
ENTITIES
  0
LINE
  5
2A5
330
1B
100
AcDbEntity
 67
     1
  8
0
  6
Continuous
 62
     7
100
AcDbLine
 10
0.0
 20
0.0
 30
0.0
 11
594.0
 21
0.0
 31
0.0
  0
LINE
  5
2A6
330
1B
100
AcDbEntity
 67
     1
  8
0
  6
Continuous
 62
     7
100
AcDbLine
 10
594.0
 20
0.0
 30
0.0
 11
594.0
 21
420.0
 31
0.0
  0
LINE
  5
2A7
330
1B
100
AcDbEntity
 67
     1
  8
0
  6
Continuous
 62
     7
100
AcDbLine
 10
0.0
 20
420.0
 30
0.0
 11
594.0
 21
420.0
 31
0.0
  0
LINE
  5
2A8
330
1B
100
AcDbEntity
 67
     1
  8
0
  6
Continuous
 62
     7
100
AcDbLine
 10
0.0
 20
0.0
 30
0.0
 11
0.0
 21
420.0
 31
0.0
  0
VIEWPORT
  5
2A9
330
1B
100
AcDbEntity
 67
     1
  8
0
100
AcDbViewport
 10
0.0
 20
0.0
 30
0.0
 40
700.1089494163423
 41
495.0770428015564
 68
     1
 69
     1
 12
330.9338521400778
 22
210.0
 13
0.0
 23
0.0
 14
1.0
 24
1.0
 15
0.0
 25
0.0
 16
0.0
 26
0.0
 36
1.0
 17
0.0
 27
0.0
 37
0.0
 42
50.0
 43
0.0
 44
0.0
 45
495.0770428015564
 50
0.0
 51
0.0
 72
   100
 90
   557216
  1

281
     0
 71
     1
 74
     0
110
0.0
120
0.0
130
0.0
111
1.0
121
0.0
131
0.0
112
0.0
122
1.0
132
0.0
 79
     0
146
0.0
170
     0
 61
     5
348
583
292
     1
282
     1
141
0.0
142
0.0
 63
   256
  0
ARC
  5
2AA
330
1B
100
AcDbEntity
 67
     1
  8
7_ALL_FEATURES
  6
Continuous
 62
     7
100
AcDbCircle
 10
401.0701383401
 20
379.3072635135
 30
0.0
 40
0.1
100
AcDbArc
 50
270.0
 51
360.0
  0
LINE
  5
2AB
330
1B
100
AcDbEntity
 67
     1
  8
7_ALL_FEATURES
  6
Continuous
 62
     7
100
AcDbLine
 10
392.6701383401
 20
384.1072635135
 30
0.0
 11
392.6701383401
 21
379.3072635135
 31
0.0
  0
LINE
  5
2AC
330
1B
100
AcDbEntity
 67
     1
  8
7_ALL_FEATURES
  6
Continuous
 62
     7
100
AcDbLine
 10
401.1701383401
 20
384.1072635135
 30
0.0
 11
401.1701383401
 21
379.3072635135
 31
0.0
  0
ARC
  5
2AD
330
1B
100
AcDbEntity
 67
     1
  8
7_ALL_FEATURES
  6
Continuous
 62
     7
100
AcDbCircle
 10
392.7701383401
 20
379.3072635135
 30
0.0
 40
0.1
100
AcDbArc
 50
180.0
 51
270.0
  0
ARC
  5
2AE
330
1B
100
AcDbEntity
 67
     1
  8
7_ALL_FEATURES
  6
Continuous
 62
     7
100
AcDbCircle
 10
401.0701383401
 20
384.1072635135
 30
0.0
 40
0.1
100
AcDbArc
 50
0.0
 51
90.0
  0
LINE
  5
2AF
330
1B
100
AcDbEntity
 67
     1
  8
7_ALL_FEATURES
  6
Continuous
 62
     7
100
AcDbLine
 10
401.0701383401
 20
384.2072635135
 30
0.0
 11
399.2295394169
 21
384.2072635135
 31
0.0
  0
LINE
  5
2B0
330
1B
100
AcDbEntity
 67
     1
  8
7_ALL_FEATURES
  6
Continuous
 62
     7
100
AcDbLine
 10
399.2295394169
 20
384.2072635135
 30
0.0
 11
398.0748388785
 21
384.2072635135
 31
0.0
  0
LINE
  5
2B1
330
1B
100
AcDbEntity
 67
     1
  8
7_ALL_FEATURES
  6
Continuous
 62
     7
100
AcDbLine
 10
398.0748388785
 20
384.2072635135
 30
0.0
 11
395.7654378018
 21
384.2072635135
 31
0.0
  0
LINE
  5
2B2
330
1B
100
AcDbEntity
 67
     1
  8
7_ALL_FEATURES
  6
Continuous
 62
     7
100
AcDbLine
 10
395.7654378018
 20
384.2072635135
 30
0.0
 11
394.6107372634
 21
384.2072635135
 31
0.0
  0
LINE
  5
2B3
330
1B
100
AcDbEntity
 67
     1
  8
7_ALL_FEATURES
  6
Continuous
 62
     7
100
AcDbLine
 10
394.6107372634
 20
384.2072635135
 30
0.0
 11
392.7701383401
 21
384.2072635135
 31
0.0
  0
ARC
  5
2B4
330
1B
100
AcDbEntity
 67
     1
  8
7_ALL_FEATURES
  6
Continuous
 62
     7
100
AcDbCircle
 10
392.7701383401
 20
384.1072635135
 30
0.0
 40
0.1
100
AcDbArc
 50
90.0
 51
180.0
  0
LINE
  5
2B5
330
1B
100
AcDbEntity
 67
     1
  8
7_ALL_FEATURES
  6
Continuous
 62
     9
100
AcDbLine
 10
401.1701383401
 20
379.3072635135
 30
0.0
 11
392.6701383401
 21
379.3072635135
 31
0.0
  0
LINE
  5
2B6
330
1B
100
AcDbEntity
 67
     1
  8
7_ALL_FEATURES
  6
Continuous
 62
     9
100
AcDbLine
 10
401.1701383401
 20
384.1072635135
 30
0.0
 11
392.6701383401
 21
384.1072635135
 31
0.0
  0
ARC
  5
2B7
330
1B
100
AcDbEntity
 67
     1
  8
7_ALL_FEATURES
  6
Continuous
 62
     7
100
AcDbCircle
 10
491.8960356463
 20
379.3072635135
 30
0.0
 40
0.1
100
AcDbArc
 50
270.0
 51
360.0
  0
LINE
  5
2B8
330
1B
100
AcDbEntity
 67
     1
  8
7_ALL_FEATURES
  6
Continuous
 62
     7
100
AcDbLine
 10
483.4960356463
 20
384.1072635135
 30
0.0
 11
483.4960356463
 21
379.3072635135
 31
0.0
  0
LINE
  5
2B9
330
1B
100
AcDbEntity
 67
     1
  8
7_ALL_FEATURES
  6
Continuous
 62
     7
100
AcDbLine
 10
491.9960356463
 20
384.1072635135
 30
0.0
 11
491.9960356463
 21
379.3072635135
 31
0.0
  0
ARC
  5
2BA
330
1B
100
AcDbEntity
 67
     1
  8
7_ALL_FEATURES
  6
Continuous
 62
     7
100
AcDbCircle
 10
483.5960356463
 20
379.3072635135
 30
0.0
 40
0.1
100
AcDbArc
 50
180.0
 51
270.0
  0
ARC
  5
2BB
330
1B
100
AcDbEntity
 67
     1
  8
7_ALL_FEATURES
  6
Continuous
 62
     7
100
AcDbCircle
 10
491.8960356463
 20
384.1072635135
 30
0.0
 40
0.1
100
AcDbArc
 50
0.0
 51
90.0
  0
LINE
  5
2BC
330
1B
100
AcDbEntity
 67
     1
  8
7_ALL_FEATURES
  6
Continuous
 62
     7
100
AcDbLine
 10
491.8960356463
 20
384.2072635135
 30
0.0
 11
490.0554367231
 21
384.2072635135
 31
0.0
  0
LINE
  5
2BD
330
1B
100
AcDbEntity
 67
     1
  8
7_ALL_FEATURES
  6
Continuous
 62
     7
100
AcDbLine
 10
490.0554367231
 20
384.2072635135
 30
0.0
 11
488.9007361847
 21
384.2072635135
 31
0.0
  0
LINE
  5
2BE
330
1B
100
AcDbEntity
 67
     1
  8
7_ALL_FEATURES
  6
Continuous
 62
     7
100
AcDbLine
 10
488.9007361847
 20
384.2072635135
 30
0.0
 11
486.591335108
 21
384.2072635135
 31
0.0
  0
LINE
  5
2BF
330
1B
100
AcDbEntity
 67
     1
  8
7_ALL_FEATURES
  6
Continuous
 62
     7
100
AcDbLine
 10
486.591335108
 20
384.2072635135
 30
0.0
 11
485.4366345696
 21
384.2072635135
 31
0.0
  0
LINE
  5
2C0
330
1B
100
AcDbEntity
 67
     1
  8
7_ALL_FEATURES
  6
Continuous
 62
     7
100
AcDbLine
 10
485.4366345696
 20
384.2072635135
 30
0.0
 11
483.5960356463
 21
384.2072635135
 31
0.0
  0
ARC
  5
2C1
330
1B
100
AcDbEntity
 67
     1
  8
7_ALL_FEATURES
  6
Continuous
 62
     7
100
AcDbCircle
 10
483.5960356463
 20
384.1072635135
 30
0.0
 40
0.1
100
AcDbArc
 50
90.0
 51
180.0
  0
LINE
  5
2C2
330
1B
100
AcDbEntity
 67
     1
  8
7_ALL_FEATURES
  6
Continuous
 62
     9
100
AcDbLine
 10
491.9960356463
 20
379.3072635135
 30
0.0
 11
483.4960356463
 21
379.3072635135
 31
0.0
  0
LINE
  5
2C3
330
1B
100
AcDbEntity
 67
     1
  8
7_ALL_FEATURES
  6
Continuous
 62
     9
100
AcDbLine
 10
491.9960356463
 20
384.1072635135
 30
0.0
 11
483.4960356463
 21
384.1072635135
 31
0.0
  0
LINE
  5
2C4
330
1B
100
AcDbEntity
 67
     1
  8
02___PRT_ALL_AXES
  6
Continuous
 62
     7
100
AcDbLine
 10
387.3330869932
 20
378.6072635135
 30
0.0
 11
392.6579118489
 21
378.6072635135
 31
0.0
  0
LINE
  5
2C5
330
1B
100
AcDbEntity
 67
     1
  8
02___PRT_ALL_AXES
  6
Continuous
 62
     7
100
AcDbLine
 10
392.6579118489
 20
378.6072635135
 30
0.0
 11
392.7797992586
 21
378.6072635135
 31
0.0
  0
LINE
  5
2C6
330
1B
100
AcDbEntity
 67
     1
  8
02___PRT_ALL_AXES
  6
Continuous
 62
     7
100
AcDbLine
 10
392.7797992586
 20
378.6072635135
 30
0.0
 11
394.1468147406
 21
378.6072635135
 31
0.0
  0
LINE
  5
2C7
330
1B
100
AcDbEntity
 67
     1
  8
02___PRT_ALL_AXES
  6
Continuous
 62
     7
100
AcDbLine
 10
394.1468147406
 20
378.6072635135
 30
0.0
 11
394.282928085
 21
378.6072635135
 31
0.0
  0
LINE
  5
2C8
330
1B
100
AcDbEntity
 67
     1
  8
02___PRT_ALL_AXES
  6
Continuous
 62
     7
100
AcDbLine
 10
394.282928085
 20
378.6072635135
 30
0.0
 11
399.0816529625
 21
378.6072635135
 31
0.0
  0
LINE
  5
2C9
330
1B
100
AcDbEntity
 67
     1
  8
02___PRT_ALL_AXES
  6
Continuous
 62
     7
100
AcDbLine
 10
399.0816529625
 20
378.6072635135
 30
0.0
 11
400.0328768535
 21
378.6072635135
 31
0.0
  0
LINE
  5
2CA
330
1B
100
AcDbEntity
 67
     1
  8
02___PRT_ALL_AXES
  6
Continuous
 62
     7
100
AcDbLine
 10
400.0328768535
 20
378.6072635135
 30
0.0
 11
401.6578930896
 21
378.6072635135
 31
0.0
  0
LINE
  5
2CB
330
1B
100
AcDbEntity
 67
     1
  8
02___PRT_ALL_AXES
  6
Continuous
 62
     7
100
AcDbLine
 10
401.6578930896
 20
378.6072635135
 30
0.0
 11
409.913314328
 21
378.6072635135
 31
0.0
  0
LINE
  5
2CC
330
1B
100
AcDbEntity
 67
     1
  8
02___PRT_ALL_AXES
  6
Continuous
 62
     7
100
AcDbLine
 10
409.913314328
 20
378.6072635135
 30
0.0
 11
411.5383450044
 21
378.6072635135
 31
0.0
  0
LINE
  5
2CD
330
1B
100
AcDbEntity
 67
     1
  8
02___PRT_ALL_AXES
  6
Continuous
 62
     7
100
AcDbLine
 10
411.5383450044
 20
378.6072635135
 30
0.0
 11
413.9429094246
 21
378.6072635135
 31
0.0
  0
LINE
  5
2CE
330
1B
100
AcDbEntity
 67
     1
  8
02___PRT_ALL_AXES
  6
Continuous
 62
     7
100
AcDbLine
 10
413.9429094246
 20
378.6072635135
 30
0.0
 11
414.7138068412
 21
378.6072635135
 31
0.0
  0
LINE
  5
2CF
330
1B
100
AcDbEntity
 67
     1
  8
02___PRT_ALL_AXES
  6
Continuous
 62
     7
100
AcDbLine
 10
414.7138068412
 20
378.6072635135
 30
0.0
 11
414.8330869932
 21
378.6072635135
 31
0.0
  0
LINE
  5
2D0
330
1B
100
AcDbEntity
 67
     1
  8
02___PRT_ALL_AXES
  6
Continuous
 62
     7
100
AcDbLine
 10
414.8330869932
 20
378.6072635135
 30
0.0
 11
417.2882300143
 21
378.6072635135
 31
0.0
  0
LINE
  5
2D1
330
1B
100
AcDbEntity
 67
     1
  8
02___PRT_ALL_AXES
  6
Continuous
 62
     7
100
AcDbLine
 10
417.2882300143
 20
378.6072635135
 30
0.0
 11
418.9132606907
 21
378.6072635135
 31
0.0
  0
LINE
  5
2D2
330
1B
100
AcDbEntity
 67
     1
  8
02___PRT_ALL_AXES
  6
Continuous
 62
     7
100
AcDbLine
 10
418.9132606907
 20
378.6072635135
 30
0.0
 11
437.8331216059
 21
378.6072635135
 31
0.0
  0
LINE
  5
2D3
330
1B
100
AcDbEntity
 67
     1
  8
02___PRT_ALL_AXES
  6
Continuous
 62
     7
100
AcDbLine
 10
437.8331216059
 20
378.6072635135
 30
0.0
 11
439.3330869932
 21
378.6072635135
 31
0.0
  0
LINE
  5
2D4
330
1B
100
AcDbEntity
 67
     1
  8
02___PRT_ALL_AXES
  6
Continuous
 62
     7
100
AcDbLine
 10
439.3330869932
 20
378.6072635135
 30
0.0
 11
439.4580869932
 21
378.6072635135
 31
0.0
  0
LINE
  5
2D5
330
1B
100
AcDbEntity
 67
     1
  8
02___PRT_ALL_AXES
  6
Continuous
 62
     7
100
AcDbLine
 10
439.4580869932
 20
378.6072635135
 30
0.0
 11
440.8955869932
 21
378.6072635135
 31
0.0
  0
LINE
  5
2D6
330
1B
100
AcDbEntity
 67
     1
  8
02___PRT_ALL_AXES
  6
Continuous
 62
     7
100
AcDbLine
 10
440.8955869932
 20
378.6072635135
 30
0.0
 11
444.5830869932
 21
378.6072635135
 31
0.0
  0
LINE
  5
2D7
330
1B
100
AcDbEntity
 67
     1
  8
02___PRT_ALL_AXES
  6
Continuous
 62
     7
100
AcDbLine
 10
444.5830869932
 20
378.6072635135
 30
0.0
 11
445.2080869932
 21
378.6072635135
 31
0.0
  0
LINE
  5
2D8
330
1B
100
AcDbEntity
 67
     1
  8
02___PRT_ALL_AXES
  6
Continuous
 62
     7
100
AcDbLine
 10
445.2080869932
 20
378.6072635135
 30
0.0
 11
445.3330869932
 21
378.6072635135
 31
0.0
  0
LINE
  5
2D9
330
1B
100
AcDbEntity
 67
     1
  8
02___PRT_ALL_AXES
  6
Continuous
 62
     7
100
AcDbLine
 10
445.3330869932
 20
378.6072635135
 30
0.0
 11
446.8330523805
 21
378.6072635135
 31
0.0
  0
LINE
  5
2DA
330
1B
100
AcDbEntity
 67
     1
  8
02___PRT_ALL_AXES
  6
Continuous
 62
     7
100
AcDbLine
 10
446.8330523805
 20
378.6072635135
 30
0.0
 11
465.7528891996
 21
378.6072635135
 31
0.0
  0
LINE
  5
2DB
330
1B
100
AcDbEntity
 67
     1
  8
02___PRT_ALL_AXES
  6
Continuous
 62
     7
100
AcDbLine
 10
465.7528891996
 20
378.6072635135
 30
0.0
 11
467.3779439722
 21
378.6072635135
 31
0.0
  0
LINE
  5
2DC
330
1B
100
AcDbEntity
 67
     1
  8
02___PRT_ALL_AXES
  6
Continuous
 62
     7
100
AcDbLine
 10
467.3779439722
 20
378.6072635135
 30
0.0
 11
467.6264432864
 21
378.6072635135
 31
0.0
  0
LINE
  5
2DD
330
1B
100
AcDbEntity
 67
     1
  8
02___PRT_ALL_AXES
  6
Continuous
 62
     7
100
AcDbLine
 10
467.6264432864
 20
378.6072635135
 30
0.0
 11
473.127828982
 21
378.6072635135
 31
0.0
  0
LINE
  5
2DE
330
1B
100
AcDbEntity
 67
     1
  8
02___PRT_ALL_AXES
  6
Continuous
 62
     7
100
AcDbLine
 10
473.127828982
 20
378.6072635135
 30
0.0
 11
474.3638410365
 21
378.6072635135
 31
0.0
  0
LINE
  5
2DF
330
1B
100
AcDbEntity
 67
     1
  8
02___PRT_ALL_AXES
  6
Continuous
 62
     7
100
AcDbLine
 10
474.3638410365
 20
378.6072635135
 30
0.0
 11
474.7528837546
 21
378.6072635135
 31
0.0
  0
LINE
  5
2E0
330
1B
100
AcDbEntity
 67
     1
  8
02___PRT_ALL_AXES
  6
Continuous
 62
     7
100
AcDbLine
 10
474.7528837546
 20
378.6072635135
 30
0.0
 11
483.0083149118
 21
378.6072635135
 31
0.0
  0
LINE
  5
2E1
330
1B
100
AcDbEntity
 67
     1
  8
02___PRT_ALL_AXES
  6
Continuous
 62
     7
100
AcDbLine
 10
483.0083149118
 20
378.6072635135
 30
0.0
 11
483.106607314
 21
378.6072635135
 31
0.0
  0
LINE
  5
2E2
330
1B
100
AcDbEntity
 67
     1
  8
02___PRT_ALL_AXES
  6
Continuous
 62
     7
100
AcDbLine
 10
483.106607314
 20
378.6072635135
 30
0.0
 11
484.633297133
 21
378.6072635135
 31
0.0
  0
LINE
  5
2E3
330
1B
100
AcDbEntity
 67
     1
  8
02___PRT_ALL_AXES
  6
Continuous
 62
     7
100
AcDbLine
 10
484.633297133
 20
378.6072635135
 30
0.0
 11
490.3204458694
 21
378.6072635135
 31
0.0
  0
LINE
  5
2E4
330
1B
100
AcDbEntity
 67
     1
  8
02___PRT_ALL_AXES
  6
Continuous
 62
     7
100
AcDbLine
 10
490.3204458694
 20
378.6072635135
 30
0.0
 11
490.3832459015
 21
378.6072635135
 31
0.0
  0
LINE
  5
2E5
330
1B
100
AcDbEntity
 67
     1
  8
02___PRT_ALL_AXES
  6
Continuous
 62
     7
100
AcDbLine
 10
490.3832459015
 20
378.6072635135
 30
0.0
 11
491.8863747279
 21
378.6072635135
 31
0.0
  0
LINE
  5
2E6
330
1B
100
AcDbEntity
 67
     1
  8
02___PRT_ALL_AXES
  6
Continuous
 62
     7
100
AcDbLine
 10
491.8863747279
 20
378.6072635135
 30
0.0
 11
492.0082281227
 21
378.6072635135
 31
0.0
  0
LINE
  5
2E7
330
1B
100
AcDbEntity
 67
     1
  8
02___PRT_ALL_AXES
  6
Continuous
 62
     7
100
AcDbLine
 10
492.0082281227
 20
378.6072635135
 30
0.0
 11
497.3330869932
 21
378.6072635135
 31
0.0
  0
LINE
  5
2E8
330
1B
100
AcDbEntity
 67
     1
  8
02___PRT_ALL_AXES
  6
Continuous
 62
     7
100
AcDbLine
 10
497.3330869932
 20
378.6072635135
 30
0.0
 11
497.3330869932
 21
379.2072635135
 31
0.0
  0
LINE
  5
2E9
330
1B
100
AcDbEntity
 67
     1
  8
02___PRT_ALL_AXES
  6
Continuous
 62
     7
100
AcDbLine
 10
387.3330869932
 20
378.6072635135
 30
0.0
 11
387.3330869932
 21
379.2072635135
 31
0.0
  0
LINE
  5
2EA
330
1B
100
AcDbEntity
 67
     1
  8
02___PRT_ALL_AXES
  6
Continuous
 62
     7
100
AcDbLine
 10
387.3330869932
 20
379.2072635135
 30
0.0
 11
438.0830869932
 21
379.2072635135
 31
0.0
  0
LINE
  5
2EB
330
1B
100
AcDbEntity
 67
     1
  8
02___PRT_ALL_AXES
  6
Continuous
 62
     7
100
AcDbLine
 10
438.0830869932
 20
379.2072635135
 30
0.0
 11
438.1830869932
 21
379.2072635135
 31
0.0
  0
LINE
  5
2EC
330
1B
100
AcDbEntity
 67
     1
  8
02___PRT_ALL_AXES
  6
Continuous
 62
     7
100
AcDbLine
 10
438.1830869932
 20
379.2072635135
 30
0.0
 11
438.222931846
 21
379.2072635135
 31
0.0
  0
LINE
  5
2ED
330
1B
100
AcDbEntity
 67
     1
  8
02___PRT_ALL_AXES
  6
Continuous
 62
     7
100
AcDbLine
 10
438.222931846
 20
379.2072635135
 30
0.0
 11
439.3330869932
 21
379.2072635135
 31
0.0
  0
LINE
  5
2EE
330
1B
100
AcDbEntity
 67
     1
  8
02___PRT_ALL_AXES
  6
Continuous
 62
     7
100
AcDbLine
 10
439.3330869932
 20
379.2072635135
 30
0.0
 11
439.7330869932
 21
379.2072635135
 31
0.0
  0
LINE
  5
2EF
330
1B
100
AcDbEntity
 67
     1
  8
02___PRT_ALL_AXES
  6
Continuous
 62
     7
100
AcDbLine
 10
439.7330869932
 20
379.2072635135
 30
0.0
 11
439.8330869932
 21
379.2072635135
 31
0.0
  0
LINE
  5
2F0
330
1B
100
AcDbEntity
 67
     1
  8
02___PRT_ALL_AXES
  6
Continuous
 62
     7
100
AcDbLine
 10
439.8330869932
 20
379.2072635135
 30
0.0
 11
444.8330869932
 21
379.2072635135
 31
0.0
  0
LINE
  5
2F1
330
1B
100
AcDbEntity
 67
     1
  8
02___PRT_ALL_AXES
  6
Continuous
 62
     7
100
AcDbLine
 10
444.8330869932
 20
379.2072635135
 30
0.0
 11
444.9330869932
 21
379.2072635135
 31
0.0
  0
LINE
  5
2F2
330
1B
100
AcDbEntity
 67
     1
  8
02___PRT_ALL_AXES
  6
Continuous
 62
     7
100
AcDbLine
 10
444.9330869932
 20
379.2072635135
 30
0.0
 11
445.3330869932
 21
379.2072635135
 31
0.0
  0
LINE
  5
2F3
330
1B
100
AcDbEntity
 67
     1
  8
02___PRT_ALL_AXES
  6
Continuous
 62
     7
100
AcDbLine
 10
445.3330869932
 20
379.2072635135
 30
0.0
 11
446.4432421405
 21
379.2072635135
 31
0.0
  0
LINE
  5
2F4
330
1B
100
AcDbEntity
 67
     1
  8
02___PRT_ALL_AXES
  6
Continuous
 62
     7
100
AcDbLine
 10
446.4432421405
 20
379.2072635135
 30
0.0
 11
446.4830869932
 21
379.2072635135
 31
0.0
  0
LINE
  5
2F5
330
1B
100
AcDbEntity
 67
     1
  8
02___PRT_ALL_AXES
  6
Continuous
 62
     7
100
AcDbLine
 10
446.4830869932
 20
379.2072635135
 30
0.0
 11
446.5830869932
 21
379.2072635135
 31
0.0
  0
LINE
  5
2F6
330
1B
100
AcDbEntity
 67
     1
  8
02___PRT_ALL_AXES
  6
Continuous
 62
     7
100
AcDbLine
 10
446.5830869932
 20
379.2072635135
 30
0.0
 11
497.3330869932
 21
379.2072635135
 31
0.0
  0
ARC
  5
2F7
330
1B
100
AcDbEntity
 67
     1
  8
7_ALL_FEATURES
  6
Continuous
 62
     7
100
AcDbCircle
 10
446.4830869932
 20
379.3072635135
 30
0.0
 40
0.1
100
AcDbArc
 50
270.0
 51
360.0
  0
LINE
  5
2F8
330
1B
100
AcDbEntity
 67
     1
  8
7_ALL_FEATURES
  6
Continuous
 62
     7
100
AcDbLine
 10
438.0830869932
 20
384.1072635135
 30
0.0
 11
438.0830869932
 21
379.3072635135
 31
0.0
  0
LINE
  5
2F9
330
1B
100
AcDbEntity
 67
     1
  8
7_ALL_FEATURES
  6
Continuous
 62
     7
100
AcDbLine
 10
446.5830869932
 20
384.1072635135
 30
0.0
 11
446.5830869932
 21
379.3072635135
 31
0.0
  0
ARC
  5
2FA
330
1B
100
AcDbEntity
 67
     1
  8
7_ALL_FEATURES
  6
Continuous
 62
     7
100
AcDbCircle
 10
438.1830869932
 20
379.3072635135
 30
0.0
 40
0.1
100
AcDbArc
 50
180.0
 51
270.0
  0
ARC
  5
2FB
330
1B
100
AcDbEntity
 67
     1
  8
7_ALL_FEATURES
  6
Continuous
 62
     7
100
AcDbCircle
 10
446.4830869932
 20
384.1072635135
 30
0.0
 40
0.1
100
AcDbArc
 50
0.0
 51
90.0
  0
LINE
  5
2FC
330
1B
100
AcDbEntity
 67
     1
  8
7_ALL_FEATURES
  6
Continuous
 62
     7
100
AcDbLine
 10
446.4830869932
 20
384.2072635135
 30
0.0
 11
444.64248807
 21
384.2072635135
 31
0.0
  0
LINE
  5
2FD
330
1B
100
AcDbEntity
 67
     1
  8
7_ALL_FEATURES
  6
Continuous
 62
     7
100
AcDbLine
 10
444.64248807
 20
384.2072635135
 30
0.0
 11
443.4877875316
 21
384.2072635135
 31
0.0
  0
LINE
  5
2FE
330
1B
100
AcDbEntity
 67
     1
  8
7_ALL_FEATURES
  6
Continuous
 62
     7
100
AcDbLine
 10
443.4877875316
 20
384.2072635135
 30
0.0
 11
441.1783864549
 21
384.2072635135
 31
0.0
  0
LINE
  5
2FF
330
1B
100
AcDbEntity
 67
     1
  8
7_ALL_FEATURES
  6
Continuous
 62
     7
100
AcDbLine
 10
441.1783864549
 20
384.2072635135
 30
0.0
 11
440.0236859165
 21
384.2072635135
 31
0.0
  0
LINE
  5
300
330
1B
100
AcDbEntity
 67
     1
  8
7_ALL_FEATURES
  6
Continuous
 62
     7
100
AcDbLine
 10
440.0236859165
 20
384.2072635135
 30
0.0
 11
438.1830869932
 21
384.2072635135
 31
0.0
  0
ARC
  5
301
330
1B
100
AcDbEntity
 67
     1
  8
7_ALL_FEATURES
  6
Continuous
 62
     7
100
AcDbCircle
 10
438.1830869932
 20
384.1072635135
 30
0.0
 40
0.1
100
AcDbArc
 50
90.0
 51
180.0
  0
LINE
  5
302
330
1B
100
AcDbEntity
 67
     1
  8
7_ALL_FEATURES
  6
Continuous
 62
     9
100
AcDbLine
 10
446.5830869932
 20
379.3072635135
 30
0.0
 11
438.0830869932
 21
379.3072635135
 31
0.0
  0
LINE
  5
303
330
1B
100
AcDbEntity
 67
     1
  8
7_ALL_FEATURES
  6
Continuous
 62
     9
100
AcDbLine
 10
446.5830869932
 20
384.1072635135
 30
0.0
 11
438.0830869932
 21
384.1072635135
 31
0.0
  0
LINE
  5
304
330
1B
100
AcDbEntity
 67
     1
  8
7_ALL_FEATURES
  6
Continuous
 62
     7
100
AcDbLine
 10
483.0082715173
 20
378.6072635135
 30
0.0
 11
483.0082715173
 21
378.0072635135
 31
0.0
  0
LINE
  5
305
330
1B
100
AcDbEntity
 67
     1
  8
7_ALL_FEATURES
  6
Continuous
 62
     7
100
AcDbLine
 10
492.0082715173
 20
378.6072635135
 30
0.0
 11
492.0082715173
 21
378.0072635135
 31
0.0
  0
LINE
  5
306
330
1B
100
AcDbEntity
 67
     1
  8
7_ALL_FEATURES
  6
Continuous
 62
     7
100
AcDbLine
 10
401.6579024692
 20
378.6072635135
 30
0.0
 11
401.6579024692
 21
378.0072635135
 31
0.0
  0
LINE
  5
307
330
1B
100
AcDbEntity
 67
     1
  8
7_ALL_FEATURES
  6
Continuous
 62
     7
100
AcDbLine
 10
392.6579024692
 20
378.6072635135
 30
0.0
 11
392.6579024692
 21
378.0072635135
 31
0.0
  0
LINE
  5
308
330
1B
100
AcDbEntity
 67
     1
  8
7_ALL_FEATURES
  6
Continuous
 62
     7
100
AcDbLine
 10
418.9132875094
 20
378.6072635135
 30
0.0
 11
418.9132875094
 21
378.0072635135
 31
0.0
  0
LINE
  5
309
330
1B
100
AcDbEntity
 67
     1
  8
7_ALL_FEATURES
  6
Continuous
 62
     7
100
AcDbLine
 10
409.9132875094
 20
378.6072635135
 30
0.0
 11
409.9132875094
 21
378.0072635135
 31
0.0
  0
LINE
  5
30A
330
1B
100
AcDbEntity
 67
     1
  8
7_ALL_FEATURES
  6
Continuous
 62
     7
100
AcDbLine
 10
474.7528864771
 20
378.6072635135
 30
0.0
 11
474.7528864771
 21
378.0072635135
 31
0.0
  0
LINE
  5
30B
330
1B
100
AcDbEntity
 67
     1
  8
7_ALL_FEATURES
  6
Continuous
 62
     7
100
AcDbLine
 10
465.7528864771
 20
378.6072635135
 30
0.0
 11
465.7528864771
 21
378.0072635135
 31
0.0
  0
LINE
  5
30C
330
1B
100
AcDbEntity
 67
     1
  8
7_ALL_FEATURES
  6
Continuous
 62
     7
100
AcDbLine
 10
446.8330869932
 20
378.6072635135
 30
0.0
 11
446.8330869932
 21
378.0072635135
 31
0.0
  0
LINE
  5
30D
330
1B
100
AcDbEntity
 67
     1
  8
7_ALL_FEATURES
  6
Continuous
 62
     7
100
AcDbLine
 10
437.8330869932
 20
378.6072635135
 30
0.0
 11
437.8330869932
 21
378.0072635135
 31
0.0
  0
LINE
  5
30E
330
1B
100
AcDbEntity
 67
     1
  8
02___PRT_ALL_AXES
  6
Continuous
 62
     7
100
AcDbLine
 10
502.3330869932
 20
375.0072635135
 30
0.0
 11
502.3330869932
 21
378.0072635135
 31
0.0
  0
LINE
  5
30F
330
1B
100
AcDbEntity
 67
     1
  8
02___PRT_ALL_AXES
  6
Continuous
 62
     7
100
AcDbLine
 10
382.3330869932
 20
375.0072635135
 30
0.0
 11
382.3330869932
 21
378.0072635135
 31
0.0
  0
LINE
  5
310
330
1B
100
AcDbEntity
 67
     1
  8
02___PRT_ALL_AXES
  6
Continuous
 62
     7
100
AcDbLine
 10
382.3330869932
 20
378.0072635135
 30
0.0
 11
392.6579118489
 21
378.0072635135
 31
0.0
  0
LINE
  5
311
330
1B
100
AcDbEntity
 67
     1
  8
02___PRT_ALL_AXES
  6
Continuous
 62
     7
100
AcDbLine
 10
392.6579118489
 20
378.0072635135
 30
0.0
 11
393.2047660051
 21
378.0072635135
 31
0.0
  0
LINE
  5
312
330
1B
100
AcDbEntity
 67
     1
  8
02___PRT_ALL_AXES
  6
Continuous
 62
     7
100
AcDbLine
 10
393.2047660051
 20
378.0072635135
 30
0.0
 11
394.1468147406
 21
378.0072635135
 31
0.0
  0
LINE
  5
313
330
1B
100
AcDbEntity
 67
     1
  8
02___PRT_ALL_AXES
  6
Continuous
 62
     7
100
AcDbLine
 10
394.1468147406
 20
378.0072635135
 30
0.0
 11
395.909025155
 21
378.0072635135
 31
0.0
  0
LINE
  5
314
330
1B
100
AcDbEntity
 67
     1
  8
02___PRT_ALL_AXES
  6
Continuous
 62
     7
100
AcDbLine
 10
395.909025155
 20
378.0072635135
 30
0.0
 11
399.8621616192
 21
378.0072635135
 31
0.0
  0
LINE
  5
315
330
1B
100
AcDbEntity
 67
     1
  8
02___PRT_ALL_AXES
  6
Continuous
 62
     7
100
AcDbLine
 10
399.8621616192
 20
378.0072635135
 30
0.0
 11
401.1110389334
 21
378.0072635135
 31
0.0
  0
LINE
  5
316
330
1B
100
AcDbEntity
 67
     1
  8
02___PRT_ALL_AXES
  6
Continuous
 62
     7
100
AcDbLine
 10
401.1110389334
 20
378.0072635135
 30
0.0
 11
401.6578930896
 21
378.0072635135
 31
0.0
  0
LINE
  5
317
330
1B
100
AcDbEntity
 67
     1
  8
02___PRT_ALL_AXES
  6
Continuous
 62
     7
100
AcDbLine
 10
401.6578930896
 20
378.0072635135
 30
0.0
 11
404.8330869932
 21
378.0072635135
 31
0.0
  0
LINE
  5
318
330
1B
100
AcDbEntity
 67
     1
  8
02___PRT_ALL_AXES
  6
Continuous
 62
     7
100
AcDbLine
 10
404.8330869932
 20
378.0072635135
 30
0.0
 11
409.8946379459
 21
378.0072635135
 31
0.0
  0
LINE
  5
319
330
1B
100
AcDbEntity
 67
     1
  8
02___PRT_ALL_AXES
  6
Continuous
 62
     7
100
AcDbLine
 10
409.8946379459
 20
378.0072635135
 30
0.0
 11
409.913314328
 21
378.0072635135
 31
0.0
  0
LINE
  5
31A
330
1B
100
AcDbEntity
 67
     1
  8
02___PRT_ALL_AXES
  6
Continuous
 62
     7
100
AcDbLine
 10
409.913314328
 20
378.0072635135
 30
0.0
 11
410.7212374981
 21
378.0072635135
 31
0.0
  0
LINE
  5
31B
330
1B
100
AcDbEntity
 67
     1
  8
02___PRT_ALL_AXES
  6
Continuous
 62
     7
100
AcDbLine
 10
410.7212374981
 20
378.0072635135
 30
0.0
 11
411.143684253
 21
378.0072635135
 31
0.0
  0
LINE
  5
31C
330
1B
100
AcDbEntity
 67
     1
  8
02___PRT_ALL_AXES
  6
Continuous
 62
     7
100
AcDbLine
 10
411.143684253
 20
378.0072635135
 30
0.0
 11
413.9429094246
 21
378.0072635135
 31
0.0
  0
LINE
  5
31D
330
1B
100
AcDbEntity
 67
     1
  8
02___PRT_ALL_AXES
  6
Continuous
 62
     7
100
AcDbLine
 10
413.9429094246
 20
378.0072635135
 30
0.0
 11
414.8357342642
 21
378.0072635135
 31
0.0
  0
LINE
  5
31E
330
1B
100
AcDbEntity
 67
     1
  8
02___PRT_ALL_AXES
  6
Continuous
 62
     7
100
AcDbLine
 10
414.8357342642
 20
378.0072635135
 30
0.0
 11
418.1053375206
 21
378.0072635135
 31
0.0
  0
LINE
  5
31F
330
1B
100
AcDbEntity
 67
     1
  8
02___PRT_ALL_AXES
  6
Continuous
 62
     7
100
AcDbLine
 10
418.1053375206
 20
378.0072635135
 30
0.0
 11
418.9132606907
 21
378.0072635135
 31
0.0
  0
LINE
  5
320
330
1B
100
AcDbEntity
 67
     1
  8
02___PRT_ALL_AXES
  6
Continuous
 62
     7
100
AcDbLine
 10
418.9132606907
 20
378.0072635135
 30
0.0
 11
437.8331216059
 21
378.0072635135
 31
0.0
  0
LINE
  5
321
330
1B
100
AcDbEntity
 67
     1
  8
02___PRT_ALL_AXES
  6
Continuous
 62
     7
100
AcDbLine
 10
437.8331216059
 20
378.0072635135
 30
0.0
 11
438.2916351089
 21
378.0072635135
 31
0.0
  0
LINE
  5
322
330
1B
100
AcDbEntity
 67
     1
  8
02___PRT_ALL_AXES
  6
Continuous
 62
     7
100
AcDbLine
 10
438.2916351089
 20
378.0072635135
 30
0.0
 11
440.3123610511
 21
378.0072635135
 31
0.0
  0
LINE
  5
323
330
1B
100
AcDbEntity
 67
     1
  8
02___PRT_ALL_AXES
  6
Continuous
 62
     7
100
AcDbLine
 10
440.3123610511
 20
378.0072635135
 30
0.0
 11
444.3538129354
 21
378.0072635135
 31
0.0
  0
LINE
  5
324
330
1B
100
AcDbEntity
 67
     1
  8
02___PRT_ALL_AXES
  6
Continuous
 62
     7
100
AcDbLine
 10
444.3538129354
 20
378.0072635135
 30
0.0
 11
444.5830869932
 21
378.0072635135
 31
0.0
  0
LINE
  5
325
330
1B
100
AcDbEntity
 67
     1
  8
02___PRT_ALL_AXES
  6
Continuous
 62
     7
100
AcDbLine
 10
444.5830869932
 20
378.0072635135
 30
0.0
 11
446.3745388776
 21
378.0072635135
 31
0.0
  0
LINE
  5
326
330
1B
100
AcDbEntity
 67
     1
  8
02___PRT_ALL_AXES
  6
Continuous
 62
     7
100
AcDbLine
 10
446.3745388776
 20
378.0072635135
 30
0.0
 11
446.8330523805
 21
378.0072635135
 31
0.0
  0
LINE
  5
327
330
1B
100
AcDbEntity
 67
     1
  8
02___PRT_ALL_AXES
  6
Continuous
 62
     7
100
AcDbLine
 10
446.8330523805
 20
378.0072635135
 30
0.0
 11
465.7528891996
 21
378.0072635135
 31
0.0
  0
LINE
  5
328
330
1B
100
AcDbEntity
 67
     1
  8
02___PRT_ALL_AXES
  6
Continuous
 62
     7
100
AcDbLine
 10
465.7528891996
 20
378.0072635135
 30
0.0
 11
466.5608364659
 21
378.0072635135
 31
0.0
  0
LINE
  5
329
330
1B
100
AcDbEntity
 67
     1
  8
02___PRT_ALL_AXES
  6
Continuous
 62
     7
100
AcDbLine
 10
466.5608364659
 20
378.0072635135
 30
0.0
 11
469.8304397223
 21
378.0072635135
 31
0.0
  0
LINE
  5
32A
330
1B
100
AcDbEntity
 67
     1
  8
02___PRT_ALL_AXES
  6
Continuous
 62
     7
100
AcDbLine
 10
469.8304397223
 20
378.0072635135
 30
0.0
 11
473.5224897335
 21
378.0072635135
 31
0.0
  0
LINE
  5
32B
330
1B
100
AcDbEntity
 67
     1
  8
02___PRT_ALL_AXES
  6
Continuous
 62
     7
100
AcDbLine
 10
473.5224897335
 20
378.0072635135
 30
0.0
 11
473.9449364883
 21
378.0072635135
 31
0.0
  0
LINE
  5
32C
330
1B
100
AcDbEntity
 67
     1
  8
02___PRT_ALL_AXES
  6
Continuous
 62
     7
100
AcDbLine
 10
473.9449364883
 20
378.0072635135
 30
0.0
 11
474.3638410365
 21
378.0072635135
 31
0.0
  0
LINE
  5
32D
330
1B
100
AcDbEntity
 67
     1
  8
02___PRT_ALL_AXES
  6
Continuous
 62
     7
100
AcDbLine
 10
474.3638410365
 20
378.0072635135
 30
0.0
 11
474.7528837546
 21
378.0072635135
 31
0.0
  0
LINE
  5
32E
330
1B
100
AcDbEntity
 67
     1
  8
02___PRT_ALL_AXES
  6
Continuous
 62
     7
100
AcDbLine
 10
474.7528837546
 20
378.0072635135
 30
0.0
 11
474.7715360406
 21
378.0072635135
 31
0.0
  0
LINE
  5
32F
330
1B
100
AcDbEntity
 67
     1
  8
02___PRT_ALL_AXES
  6
Continuous
 62
     7
100
AcDbLine
 10
474.7715360406
 20
378.0072635135
 30
0.0
 11
479.8330869932
 21
378.0072635135
 31
0.0
  0
LINE
  5
330
330
1B
100
AcDbEntity
 67
     1
  8
02___PRT_ALL_AXES
  6
Continuous
 62
     7
100
AcDbLine
 10
479.8330869932
 20
378.0072635135
 30
0.0
 11
483.0082715173
 21
378.0072635135
 31
0.0
  0
LINE
  5
331
330
1B
100
AcDbEntity
 67
     1
  8
02___PRT_ALL_AXES
  6
Continuous
 62
     7
100
AcDbLine
 10
483.0082715173
 20
378.0072635135
 30
0.0
 11
483.106607314
 21
378.0072635135
 31
0.0
  0
LINE
  5
332
330
1B
100
AcDbEntity
 67
     1
  8
02___PRT_ALL_AXES
  6
Continuous
 62
     7
100
AcDbLine
 10
483.106607314
 20
378.0072635135
 30
0.0
 11
483.5551350531
 21
378.0072635135
 31
0.0
  0
LINE
  5
333
330
1B
100
AcDbEntity
 67
     1
  8
02___PRT_ALL_AXES
  6
Continuous
 62
     7
100
AcDbLine
 10
483.5551350531
 20
378.0072635135
 30
0.0
 11
484.8040123673
 21
378.0072635135
 31
0.0
  0
LINE
  5
334
330
1B
100
AcDbEntity
 67
     1
  8
02___PRT_ALL_AXES
  6
Continuous
 62
     7
100
AcDbLine
 10
484.8040123673
 20
378.0072635135
 30
0.0
 11
488.7571488315
 21
378.0072635135
 31
0.0
  0
LINE
  5
335
330
1B
100
AcDbEntity
 67
     1
  8
02___PRT_ALL_AXES
  6
Continuous
 62
     7
100
AcDbLine
 10
488.7571488315
 20
378.0072635135
 30
0.0
 11
491.4614079814
 21
378.0072635135
 31
0.0
  0
LINE
  5
336
330
1B
100
AcDbEntity
 67
     1
  8
02___PRT_ALL_AXES
  6
Continuous
 62
     7
100
AcDbLine
 10
491.4614079814
 20
378.0072635135
 30
0.0
 11
492.0082281227
 21
378.0072635135
 31
0.0
  0
LINE
  5
337
330
1B
100
AcDbEntity
 67
     1
  8
02___PRT_ALL_AXES
  6
Continuous
 62
     7
100
AcDbLine
 10
492.0082281227
 20
378.0072635135
 30
0.0
 11
502.3330869932
 21
378.0072635135
 31
0.0
  0
LINE
  5
338
330
1B
100
AcDbEntity
 67
     1
  8
02___PRT_ALL_AXES
  6
Continuous
 62
     7
100
AcDbLine
 10
377.3330869932
 20
282.0072635135
 30
0.0
 11
460.3330869932
 21
282.0072635135
 31
0.0
  0
LINE
  5
339
330
1B
100
AcDbEntity
 67
     1
  8
02___PRT_ALL_AXES
  6
Continuous
 62
     7
100
AcDbLine
 10
460.3330869932
 20
282.0072635135
 30
0.0
 11
460.6457031879
 21
282.0072635135
 31
0.0
  0
LINE
  5
33A
330
1B
100
AcDbEntity
 67
     1
  8
02___PRT_ALL_AXES
  6
Continuous
 62
     7
100
AcDbLine
 10
460.6457031879
 20
282.0072635135
 30
0.0
 11
462.3330869932
 21
282.0072635135
 31
0.0
  0
LINE
  5
33B
330
1B
100
AcDbEntity
 67
     1
  8
02___PRT_ALL_AXES
  6
Continuous
 62
     7
100
AcDbLine
 10
462.3330869932
 20
282.0072635135
 30
0.0
 11
462.7330869932
 21
282.0072635135
 31
0.0
  0
LINE
  5
33C
330
1B
100
AcDbEntity
 67
     1
  8
02___PRT_ALL_AXES
  6
Continuous
 62
     7
100
AcDbLine
 10
462.7330869932
 20
282.0072635135
 30
0.0
 11
462.8330869932
 21
282.0072635135
 31
0.0
  0
LINE
  5
33D
330
1B
100
AcDbEntity
 67
     1
  8
02___PRT_ALL_AXES
  6
Continuous
 62
     7
100
AcDbLine
 10
462.8330869932
 20
282.0072635135
 30
0.0
 11
491.8330869932
 21
282.0072635135
 31
0.0
  0
LINE
  5
33E
330
1B
100
AcDbEntity
 67
     1
  8
02___PRT_ALL_AXES
  6
Continuous
 62
     7
100
AcDbLine
 10
491.8330869932
 20
282.0072635135
 30
0.0
 11
491.9330869932
 21
282.0072635135
 31
0.0
  0
LINE
  5
33F
330
1B
100
AcDbEntity
 67
     1
  8
02___PRT_ALL_AXES
  6
Continuous
 62
     7
100
AcDbLine
 10
491.9330869932
 20
282.0072635135
 30
0.0
 11
492.3330869932
 21
282.0072635135
 31
0.0
  0
LINE
  5
340
330
1B
100
AcDbEntity
 67
     1
  8
02___PRT_ALL_AXES
  6
Continuous
 62
     7
100
AcDbLine
 10
492.3330869932
 20
282.0072635135
 30
0.0
 11
494.3330869932
 21
282.0072635135
 31
0.0
  0
LINE
  5
341
330
1B
100
AcDbEntity
 67
     1
  8
02___PRT_ALL_AXES
  6
Continuous
 62
     7
100
AcDbLine
 10
494.3330869932
 20
282.0072635135
 30
0.0
 11
507.3330869932
 21
282.0072635135
 31
0.0
  0
LINE
  5
342
330
1B
100
AcDbEntity
 67
     1
  8
02___PRT_ALL_AXES
  6
Continuous
 62
     7
100
AcDbLine
 10
507.3330869932
 20
282.0072635135
 30
0.0
 11
507.3330869932
 21
285.0072635135
 31
0.0
  0
LINE
  5
343
330
1B
100
AcDbEntity
 67
     1
  8
02___PRT_ALL_AXES
  6
Continuous
 62
     7
100
AcDbLine
 10
377.3330869932
 20
282.0072635135
 30
0.0
 11
377.3330869932
 21
285.0072635135
 31
0.0
  0
LINE
  5
344
330
1B
100
AcDbEntity
 67
     1
  8
02___PRT_ALL_AXES
  6
Continuous
 62
     7
100
AcDbLine
 10
377.3330869932
 20
285.0072635135
 30
0.0
 11
382.1826614212
 21
285.0072635135
 31
0.0
  0
LINE
  5
345
330
1B
100
AcDbEntity
 67
     1
  8
02___PRT_ALL_AXES
  6
Continuous
 62
     7
100
AcDbLine
 10
382.1826614212
 20
285.0072635135
 30
0.0
 11
385.1830869932
 21
285.0072635135
 31
0.0
  0
LINE
  5
346
330
1B
100
AcDbEntity
 67
     1
  8
02___PRT_ALL_AXES
  6
Continuous
 62
     7
100
AcDbLine
 10
385.1830869932
 20
285.0072635135
 30
0.0
 11
386.6830869932
 21
285.0072635135
 31
0.0
  0
LINE
  5
347
330
1B
100
AcDbEntity
 67
     1
  8
02___PRT_ALL_AXES
  6
Continuous
 62
     7
100
AcDbLine
 10
386.6830869932
 20
285.0072635135
 30
0.0
 11
462.7330869932
 21
285.0072635135
 31
0.0
  0
LINE
  5
348
330
1B
100
AcDbEntity
 67
     1
  8
02___PRT_ALL_AXES
  6
Continuous
 62
     7
100
AcDbLine
 10
462.7330869932
 20
285.0072635135
 30
0.0
 11
491.9330869932
 21
285.0072635135
 31
0.0
  0
LINE
  5
349
330
1B
100
AcDbEntity
 67
     1
  8
02___PRT_ALL_AXES
  6
Continuous
 62
     7
100
AcDbLine
 10
491.9330869932
 20
285.0072635135
 30
0.0
 11
497.9830869932
 21
285.0072635135
 31
0.0
  0
LINE
  5
34A
330
1B
100
AcDbEntity
 67
     1
  8
02___PRT_ALL_AXES
  6
Continuous
 62
     7
100
AcDbLine
 10
497.9830869932
 20
285.0072635135
 30
0.0
 11
499.4830869932
 21
285.0072635135
 31
0.0
  0
LINE
  5
34B
330
1B
100
AcDbEntity
 67
     1
  8
02___PRT_ALL_AXES
  6
Continuous
 62
     7
100
AcDbLine
 10
499.4830869932
 20
285.0072635135
 30
0.0
 11
502.4835125652
 21
285.0072635135
 31
0.0
  0
LINE
  5
34C
330
1B
100
AcDbEntity
 67
     1
  8
02___PRT_ALL_AXES
  6
Continuous
 62
     7
100
AcDbLine
 10
502.4835125652
 20
285.0072635135
 30
0.0
 11
507.3330869932
 21
285.0072635135
 31
0.0
  0
LINE
  5
34D
330
1B
100
AcDbEntity
 67
     1
  8
02___PRT_ALL_AXES
  6
Continuous
 62
     7
100
AcDbLine
 10
492.3330869932
 20
277.0072635135
 30
0.0
 11
492.3049373007
 21
277.0072635135
 31
0.0
  0
LINE
  5
34E
330
1B
100
AcDbEntity
 67
     1
  8
02___PRT_ALL_AXES
  6
Continuous
 62
     7
100
AcDbLine
 10
490.6041824428
 20
277.0072635135
 30
0.0
 11
490.1595876952
 21
277.0072635135
 31
0.0
  0
LINE
  5
34F
330
1B
100
AcDbEntity
 67
     1
  8
02___PRT_ALL_AXES
  6
Continuous
 62
     7
100
AcDbLine
 10
485.4865233348
 20
277.0072635135
 30
0.0
 11
484.7431633266
 21
277.0072635135
 31
0.0
  0
LINE
  5
350
330
1B
100
AcDbEntity
 67
     1
  8
02___PRT_ALL_AXES
  6
Continuous
 62
     7
100
AcDbLine
 10
481.3447821923
 20
277.0072635135
 30
0.0
 11
473.3213917942
 21
277.0072635135
 31
0.0
  0
LINE
  5
351
330
1B
100
AcDbEntity
 67
     1
  8
02___PRT_ALL_AXES
  6
Continuous
 62
     7
100
AcDbLine
 10
469.9230106599
 20
277.0072635135
 30
0.0
 11
469.1796506517
 21
277.0072635135
 31
0.0
  0
LINE
  5
352
330
1B
100
AcDbEntity
 67
     1
  8
02___PRT_ALL_AXES
  6
Continuous
 62
     7
100
AcDbLine
 10
464.5065862913
 20
277.0072635135
 30
0.0
 11
464.0619915437
 21
277.0072635135
 31
0.0
  0
LINE
  5
353
330
1B
100
AcDbEntity
 67
     1
  8
02___PRT_ALL_AXES
  6
Continuous
 62
     7
100
AcDbLine
 10
462.3612366858
 20
277.0072635135
 30
0.0
 11
462.3330869932
 21
277.0072635135
 31
0.0
  0
LINE
  5
354
330
1B
100
AcDbEntity
 67
     1
  8
02___PRT_ALL_AXES
  6
Continuous
 62
     7
100
AcDbLine
 10
492.3330869932
 20
277.0072635135
 30
0.0
 11
492.3330869932
 21
280.0072635135
 31
0.0
  0
LINE
  5
355
330
1B
100
AcDbEntity
 67
     1
  8
02___PRT_ALL_AXES
  6
Continuous
 62
     7
100
AcDbLine
 10
462.3330869932
 20
277.0072635135
 30
0.0
 11
462.3330869932
 21
280.0072635135
 31
0.0
  0
LINE
  5
356
330
1B
100
AcDbEntity
 67
     1
  8
02___PRT_ALL_AXES
  6
Continuous
 62
     7
100
AcDbLine
 10
490.9585869932
 20
248.0072635135
 30
0.0
 11
490.9585869932
 21
250.5072635135
 31
0.0
  0
LINE
  5
357
330
1B
100
AcDbEntity
 67
     1
  8
02___PRT_ALL_AXES
  6
Continuous
 62
     7
100
AcDbLine
 10
490.9585869932
 20
250.5072635135
 30
0.0
 11
490.4046044801
 21
252.0072635135
 31
0.0
  0
LINE
  5
358
330
1B
100
AcDbEntity
 67
     1
  8
02___PRT_ALL_AXES
  6
Continuous
 62
     7
100
AcDbLine
 10
485.9050869932
 20
271.2072635135
 30
0.0
 11
485.9050869932
 21
271.5072635135
 31
0.0
  0
LINE
  5
359
330
1B
100
AcDbEntity
 67
     1
  8
02___PRT_ALL_AXES
  6
Continuous
 62
     7
100
AcDbLine
 10
477.3330869932
 20
248.0072635135
 30
0.0
 11
486.3329296858
 21
248.0072635135
 31
0.0
  0
LINE
  5
35A
330
1B
100
AcDbEntity
 67
     1
  8
02___PRT_ALL_AXES
  6
Continuous
 62
     7
100
AcDbLine
 10
486.3329296858
 20
248.0072635135
 30
0.0
 11
490.9584273406
 21
248.0072635135
 31
0.0
  0
LINE
  5
35B
330
1B
100
AcDbEntity
 67
     1
  8
02___PRT_ALL_AXES
  6
Continuous
 62
     7
100
AcDbLine
 10
463.7077466459
 20
248.0072635135
 30
0.0
 11
468.3332443007
 21
248.0072635135
 31
0.0
  0
LINE
  5
35C
330
1B
100
AcDbEntity
 67
     1
  8
02___PRT_ALL_AXES
  6
Continuous
 62
     7
100
AcDbLine
 10
468.3332443007
 20
248.0072635135
 30
0.0
 11
477.3330869932
 21
248.0072635135
 31
0.0
  0
LINE
  5
35D
330
1B
100
AcDbEntity
 67
     1
  8
02___PRT_ALL_AXES
  6
Continuous
 62
     7
100
AcDbLine
 10
463.7075869932
 20
248.0072635135
 30
0.0
 11
463.7075869932
 21
250.5072635135
 31
0.0
  0
LINE
  5
35E
330
1B
100
AcDbEntity
 67
     1
  8
02___PRT_ALL_AXES
  6
Continuous
 62
     7
100
AcDbLine
 10
463.7075869932
 20
250.5072635135
 30
0.0
 11
464.2615695064
 21
252.0072635135
 31
0.0
  0
LINE
  5
35F
330
1B
100
AcDbEntity
 67
     1
  8
02___PRT_ALL_AXES
  6
Continuous
 62
     7
100
AcDbLine
 10
468.7610869932
 20
271.2072635135
 30
0.0
 11
468.7610869932
 21
271.5072635135
 31
0.0
  0
LINE
  5
360
330
1B
100
AcDbEntity
 67
     1
  8
02___PRT_ALL_AXES
  6
Continuous
 62
     7
100
AcDbLine
 10
483.118931626
 20
271.2072635135
 30
0.0
 11
479.2961708861
 21
271.2072635135
 31
0.0
  0
LINE
  5
361
330
1B
100
AcDbEntity
 67
     1
  8
02___PRT_ALL_AXES
  6
Continuous
 62
     7
100
AcDbLine
 10
489.3175477548
 20
271.2072635135
 30
0.0
 11
486.519092668
 21
271.2072635135
 31
0.0
  0
LINE
  5
362
330
1B
100
AcDbEntity
 67
     1
  8
02___PRT_ALL_AXES
  6
Continuous
 62
     7
100
AcDbLine
 10
492.3049373007
 20
271.2072635135
 30
0.0
 11
491.2806316476
 21
271.2072635135
 31
0.0
  0
LINE
  5
363
330
1B
100
AcDbEntity
 67
     1
  8
02___PRT_ALL_AXES
  6
Continuous
 62
     7
100
AcDbLine
 10
492.3049373007
 20
252.0072635135
 30
0.0
 11
491.2806316476
 21
252.0072635135
 31
0.0
  0
LINE
  5
364
330
1B
100
AcDbEntity
 67
     1
  8
02___PRT_ALL_AXES
  6
Continuous
 62
     7
100
AcDbLine
 10
489.3175477548
 20
252.0072635135
 30
0.0
 11
486.519092668
 21
252.0072635135
 31
0.0
  0
LINE
  5
365
330
1B
100
AcDbEntity
 67
     1
  8
02___PRT_ALL_AXES
  6
Continuous
 62
     7
100
AcDbLine
 10
483.118931626
 20
252.0072635135
 30
0.0
 11
479.2961708861
 21
252.0072635135
 31
0.0
  0
LINE
  5
366
330
1B
100
AcDbEntity
 67
     1
  8
02___PRT_ALL_AXES
  6
Continuous
 62
     7
100
AcDbLine
 10
471.5472423605
 20
252.0072635135
 30
0.0
 11
475.3700031004
 21
252.0072635135
 31
0.0
  0
LINE
  5
367
330
1B
100
AcDbEntity
 67
     1
  8
02___PRT_ALL_AXES
  6
Continuous
 62
     7
100
AcDbLine
 10
465.3486262317
 20
252.0072635135
 30
0.0
 11
468.1470813185
 21
252.0072635135
 31
0.0
  0
LINE
  5
368
330
1B
100
AcDbEntity
 67
     1
  8
02___PRT_ALL_AXES
  6
Continuous
 62
     7
100
AcDbLine
 10
462.3612366858
 20
252.0072635135
 30
0.0
 11
463.3855423389
 21
252.0072635135
 31
0.0
  0
LINE
  5
369
330
1B
100
AcDbEntity
 67
     1
  8
02___PRT_ALL_AXES
  6
Continuous
 62
     7
100
AcDbLine
 10
465.3486262317
 20
271.2072635135
 30
0.0
 11
468.1470813185
 21
271.2072635135
 31
0.0
  0
LINE
  5
36A
330
1B
100
AcDbEntity
 67
     1
  8
02___PRT_ALL_AXES
  6
Continuous
 62
     7
100
AcDbLine
 10
471.5472423605
 20
271.2072635135
 30
0.0
 11
475.3700031004
 21
271.2072635135
 31
0.0
  0
LINE
  5
36B
330
1B
100
AcDbEntity
 67
     1
  8
02___PRT_ALL_AXES
  6
Continuous
 62
     7
100
AcDbLine
 10
462.3612366858
 20
271.2072635135
 30
0.0
 11
463.3855423389
 21
271.2072635135
 31
0.0
  0
LINE
  5
36C
330
1B
100
AcDbEntity
 67
     1
  8
02___PRT_ALL_AXES
  6
Continuous
 62
     7
100
AcDbLine
 10
462.3612366858
 20
277.0072635135
 30
0.0
 11
462.3612366858
 21
271.5072635135
 31
0.0
  0
LINE
  5
36D
330
1B
100
AcDbEntity
 67
     1
  8
02___PRT_ALL_AXES
  6
Continuous
 62
     7
100
AcDbLine
 10
462.3612366858
 20
252.0072635135
 30
0.0
 11
462.3612366858
 21
271.2072635135
 31
0.0
  0
LINE
  5
36E
330
1B
100
AcDbEntity
 67
     1
  8
02___PRT_ALL_AXES
  6
Continuous
 62
     7
100
AcDbLine
 10
466.3729318849
 20
271.5072635135
 30
0.0
 11
462.3612366858
 21
271.5072635135
 31
0.0
  0
LINE
  5
36F
330
1B
100
AcDbEntity
 67
     1
  8
02___PRT_ALL_AXES
  6
Continuous
 62
     7
100
AcDbLine
 10
466.3729318849
 20
277.0072635135
 30
0.0
 11
464.5065862913
 21
277.0072635135
 31
0.0
  0
LINE
  5
370
330
1B
100
AcDbEntity
 67
     1
  8
02___PRT_ALL_AXES
  6
Continuous
 62
     7
100
AcDbLine
 10
464.0619915437
 20
277.0072635135
 30
0.0
 11
462.3612366858
 21
277.0072635135
 31
0.0
  0
LINE
  5
371
330
1B
100
AcDbEntity
 67
     1
  8
02___PRT_ALL_AXES
  6
Continuous
 62
     7
100
AcDbLine
 10
465.3486262317
 20
252.0072635135
 30
0.0
 11
463.3855423389
 21
252.0072635135
 31
0.0
  0
LINE
  5
372
330
1B
100
AcDbEntity
 67
     1
  8
02___PRT_ALL_AXES
  6
Continuous
 62
     7
100
AcDbLine
 10
465.3486262317
 20
271.2072635135
 30
0.0
 11
463.3855423389
 21
271.2072635135
 31
0.0
  0
LINE
  5
373
330
1B
100
AcDbEntity
 67
     1
  8
02___PRT_ALL_AXES
  6
Continuous
 62
     7
100
AcDbLine
 10
492.3049373007
 20
252.0072635135
 30
0.0
 11
492.3049373007
 21
271.2072635135
 31
0.0
  0
LINE
  5
374
330
1B
100
AcDbEntity
 67
     1
  8
02___PRT_ALL_AXES
  6
Continuous
 62
     7
100
AcDbLine
 10
491.2806316476
 20
271.2072635135
 30
0.0
 11
489.3175477548
 21
271.2072635135
 31
0.0
  0
LINE
  5
375
330
1B
100
AcDbEntity
 67
     1
  8
02___PRT_ALL_AXES
  6
Continuous
 62
     7
100
AcDbLine
 10
491.2806316476
 20
252.0072635135
 30
0.0
 11
489.3175477548
 21
252.0072635135
 31
0.0
  0
LINE
  5
376
330
1B
100
AcDbEntity
 67
     1
  8
02___PRT_ALL_AXES
  6
Continuous
 62
     7
100
AcDbLine
 10
492.3049373007
 20
277.0072635135
 30
0.0
 11
490.6041824428
 21
277.0072635135
 31
0.0
  0
LINE
  5
377
330
1B
100
AcDbEntity
 67
     1
  8
02___PRT_ALL_AXES
  6
Continuous
 62
     7
100
AcDbLine
 10
490.1595876952
 20
277.0072635135
 30
0.0
 11
488.2932421016
 21
277.0072635135
 31
0.0
  0
LINE
  5
378
330
1B
100
AcDbEntity
 67
     1
  8
02___PRT_ALL_AXES
  6
Continuous
 62
     7
100
AcDbLine
 10
492.3049373007
 20
277.0072635135
 30
0.0
 11
492.3049373007
 21
271.5072635135
 31
0.0
  0
LINE
  5
379
330
1B
100
AcDbEntity
 67
     1
  8
02___PRT_ALL_AXES
  6
Continuous
 62
     7
100
AcDbLine
 10
492.3049373007
 20
271.5072635135
 30
0.0
 11
488.2932421016
 21
271.5072635135
 31
0.0
  0
LINE
  5
37A
330
1B
100
AcDbEntity
 67
     1
  8
02___PRT_ALL_AXES
  6
Continuous
 62
     7
100
AcDbLine
 10
486.519092668
 20
271.2072635135
 30
0.0
 11
483.118931626
 21
271.2072635135
 31
0.0
  0
LINE
  5
37B
330
1B
100
AcDbEntity
 67
     1
  8
02___PRT_ALL_AXES
  6
Continuous
 62
     7
100
AcDbLine
 10
486.519092668
 20
252.0072635135
 30
0.0
 11
483.118931626
 21
252.0072635135
 31
0.0
  0
LINE
  5
37C
330
1B
100
AcDbEntity
 67
     1
  8
02___PRT_ALL_AXES
  6
Continuous
 62
     7
100
AcDbLine
 10
488.2932421016
 20
277.0072635135
 30
0.0
 11
485.4865233348
 21
277.0072635135
 31
0.0
  0
LINE
  5
37D
330
1B
100
AcDbEntity
 67
     1
  8
02___PRT_ALL_AXES
  6
Continuous
 62
     7
100
AcDbLine
 10
484.7431633266
 20
277.0072635135
 30
0.0
 11
481.3447821923
 21
277.0072635135
 31
0.0
  0
LINE
  5
37E
330
1B
100
AcDbEntity
 67
     1
  8
02___PRT_ALL_AXES
  6
Continuous
 62
     7
100
AcDbLine
 10
488.2932421016
 20
271.5072635135
 30
0.0
 11
481.3447821923
 21
271.5072635135
 31
0.0
  0
LINE
  5
37F
330
1B
100
AcDbEntity
 67
     1
  8
02___PRT_ALL_AXES
  6
Continuous
 62
     7
100
AcDbLine
 10
479.2961708861
 20
271.2072635135
 30
0.0
 11
475.3700031004
 21
271.2072635135
 31
0.0
  0
LINE
  5
380
330
1B
100
AcDbEntity
 67
     1
  8
02___PRT_ALL_AXES
  6
Continuous
 62
     7
100
AcDbLine
 10
479.2961708861
 20
252.0072635135
 30
0.0
 11
475.3700031004
 21
252.0072635135
 31
0.0
  0
LINE
  5
381
330
1B
100
AcDbEntity
 67
     1
  8
02___PRT_ALL_AXES
  6
Continuous
 62
     7
100
AcDbLine
 10
481.3447821923
 20
277.0072635135
 30
0.0
 11
473.3213917942
 21
277.0072635135
 31
0.0
  0
LINE
  5
382
330
1B
100
AcDbEntity
 67
     1
  8
02___PRT_ALL_AXES
  6
Continuous
 62
     7
100
AcDbLine
 10
481.3447821923
 20
271.5072635135
 30
0.0
 11
473.3213917942
 21
271.5072635135
 31
0.0
  0
LINE
  5
383
330
1B
100
AcDbEntity
 67
     1
  8
02___PRT_ALL_AXES
  6
Continuous
 62
     7
100
AcDbLine
 10
471.5472423605
 20
271.2072635135
 30
0.0
 11
468.1470813185
 21
271.2072635135
 31
0.0
  0
LINE
  5
384
330
1B
100
AcDbEntity
 67
     1
  8
02___PRT_ALL_AXES
  6
Continuous
 62
     7
100
AcDbLine
 10
471.5472423605
 20
252.0072635135
 30
0.0
 11
468.1470813185
 21
252.0072635135
 31
0.0
  0
LINE
  5
385
330
1B
100
AcDbEntity
 67
     1
  8
02___PRT_ALL_AXES
  6
Continuous
 62
     7
100
AcDbLine
 10
473.3213917942
 20
277.0072635135
 30
0.0
 11
469.9230106599
 21
277.0072635135
 31
0.0
  0
LINE
  5
386
330
1B
100
AcDbEntity
 67
     1
  8
02___PRT_ALL_AXES
  6
Continuous
 62
     7
100
AcDbLine
 10
469.1796506517
 20
277.0072635135
 30
0.0
 11
466.3729318849
 21
277.0072635135
 31
0.0
  0
LINE
  5
387
330
1B
100
AcDbEntity
 67
     1
  8
02___PRT_ALL_AXES
  6
Continuous
 62
     7
100
AcDbLine
 10
473.3213917942
 20
271.5072635135
 30
0.0
 11
466.3729318849
 21
271.5072635135
 31
0.0
  0
LINE
  5
388
330
1B
100
AcDbEntity
 67
     1
  8
02___PRT_ALL_AXES
  6
Continuous
 62
     7
100
AcDbLine
 10
489.3175477548
 20
252.0072635135
 30
0.0
 11
489.3175477548
 21
271.2072635135
 31
0.0
  0
LINE
  5
389
330
1B
100
AcDbEntity
 67
     1
  8
02___PRT_ALL_AXES
  6
Continuous
 62
     7
100
AcDbLine
 10
486.519092668
 20
252.0072635135
 30
0.0
 11
486.519092668
 21
271.2072635135
 31
0.0
  0
LINE
  5
38A
330
1B
100
AcDbEntity
 67
     1
  8
02___PRT_ALL_AXES
  6
Continuous
 62
     7
100
AcDbLine
 10
483.118931626
 20
252.0072635135
 30
0.0
 11
483.118931626
 21
271.2072635135
 31
0.0
  0
LINE
  5
38B
330
1B
100
AcDbEntity
 67
     1
  8
02___PRT_ALL_AXES
  6
Continuous
 62
     7
100
AcDbLine
 10
488.2932421016
 20
277.0072635135
 30
0.0
 11
488.2932421016
 21
271.5072635135
 31
0.0
  0
LINE
  5
38C
330
1B
100
AcDbEntity
 67
     1
  8
02___PRT_ALL_AXES
  6
Continuous
 62
     7
100
AcDbLine
 10
466.3729318849
 20
277.0072635135
 30
0.0
 11
466.3729318849
 21
271.5072635135
 31
0.0
  0
LINE
  5
38D
330
1B
100
AcDbEntity
 67
     1
  8
02___PRT_ALL_AXES
  6
Continuous
 62
     7
100
AcDbLine
 10
479.2961708861
 20
252.0072635135
 30
0.0
 11
479.2961708861
 21
271.2072635135
 31
0.0
  0
LINE
  5
38E
330
1B
100
AcDbEntity
 67
     1
  8
02___PRT_ALL_AXES
  6
Continuous
 62
     7
100
AcDbLine
 10
463.3855423389
 20
252.0072635135
 30
0.0
 11
463.3855423389
 21
271.2072635135
 31
0.0
  0
LINE
  5
38F
330
1B
100
AcDbEntity
 67
     1
  8
02___PRT_ALL_AXES
  6
Continuous
 62
     7
100
AcDbLine
 10
475.3700031004
 20
252.0072635135
 30
0.0
 11
475.3700031004
 21
271.2072635135
 31
0.0
  0
LINE
  5
390
330
1B
100
AcDbEntity
 67
     1
  8
02___PRT_ALL_AXES
  6
Continuous
 62
     7
100
AcDbLine
 10
481.3447821923
 20
277.0072635135
 30
0.0
 11
481.3447821923
 21
271.5072635135
 31
0.0
  0
LINE
  5
391
330
1B
100
AcDbEntity
 67
     1
  8
02___PRT_ALL_AXES
  6
Continuous
 62
     7
100
AcDbLine
 10
465.3486262317
 20
252.0072635135
 30
0.0
 11
465.3486262317
 21
271.2072635135
 31
0.0
  0
LINE
  5
392
330
1B
100
AcDbEntity
 67
     1
  8
02___PRT_ALL_AXES
  6
Continuous
 62
     7
100
AcDbLine
 10
490.9585869932
 20
250.5072635135
 30
0.0
 11
477.3330869932
 21
250.5072635135
 31
0.0
  0
LINE
  5
393
330
1B
100
AcDbEntity
 67
     1
  8
02___PRT_ALL_AXES
  6
Continuous
 62
     7
100
AcDbLine
 10
471.5472423605
 20
252.0072635135
 30
0.0
 11
471.5472423605
 21
271.2072635135
 31
0.0
  0
LINE
  5
394
330
1B
100
AcDbEntity
 67
     1
  8
02___PRT_ALL_AXES
  6
Continuous
 62
     7
100
AcDbLine
 10
463.7075869932
 20
250.5072635135
 30
0.0
 11
477.3330869932
 21
250.5072635135
 31
0.0
  0
LINE
  5
395
330
1B
100
AcDbEntity
 67
     1
  8
02___PRT_ALL_AXES
  6
Continuous
 62
     7
100
AcDbLine
 10
468.1470813185
 20
252.0072635135
 30
0.0
 11
468.1470813185
 21
271.2072635135
 31
0.0
  0
LINE
  5
396
330
1B
100
AcDbEntity
 67
     1
  8
02___PRT_ALL_AXES
  6
Continuous
 62
     7
100
AcDbLine
 10
473.3213917942
 20
277.0072635135
 30
0.0
 11
473.3213917942
 21
271.5072635135
 31
0.0
  0
LINE
  5
397
330
1B
100
AcDbEntity
 67
     1
  8
02___PRT_ALL_AXES
  6
Continuous
 62
     7
100
AcDbLine
 10
491.2806316476
 20
252.0072635135
 30
0.0
 11
491.2806316476
 21
271.2072635135
 31
0.0
  0
LINE
  5
398
330
1B
100
AcDbEntity
 67
     1
  8
02___PRT_ALL_AXES
  6
Continuous
 62
     7
100
AcDbLine
 10
385.1830869932
 20
372.0068591699
 30
0.0
 11
385.1830869932
 21
288.0076678571
 31
0.0
  0
LINE
  5
399
330
1B
100
AcDbEntity
 67
     1
  8
02___PRT_ALL_AXES
  6
Continuous
 62
     7
100
AcDbLine
 10
499.4830869932
 20
372.0068591699
 30
0.0
 11
499.4830869932
 21
288.0076678571
 31
0.0
  0
LINE
  5
39A
330
1B
100
AcDbEntity
 67
     1
  8
7_ALL_FEATURES
  6
Continuous
 62
     6
100
AcDbLine
 10
462.3330869932
 20
280.0072635135
 30
0.0
 11
460.3330869932
 21
282.0072635135
 31
0.0
  0
LINE
  5
39B
330
1B
100
AcDbEntity
 67
     1
  8
7_ALL_FEATURES
  6
Continuous
 62
     2
100
AcDbLine
 10
462.3330869932
 20
280.0072635135
 30
0.0
 11
492.3330869932
 21
280.0072635135
 31
0.0
  0
LINE
  5
39C
330
1B
100
AcDbEntity
 67
     1
  8
7_ALL_FEATURES
  6
Continuous
 62
     6
100
AcDbLine
 10
492.3330869932
 20
280.0072635135
 30
0.0
 11
494.3330869932
 21
282.0072635135
 31
0.0
  0
LINE
  5
39D
330
1B
100
AcDbEntity
 67
     1
  8
7_ALL_FEATURES
  6
Continuous
 62
     2
100
AcDbLine
 10
502.4835125652
 20
375.0072635135
 30
0.0
 11
502.2098704928
 21
375.0072635135
 31
0.0
  0
LINE
  5
39E
330
1B
100
AcDbEntity
 67
     1
  8
7_ALL_FEATURES
  6
Continuous
 62
     2
100
AcDbLine
 10
502.2098704928
 20
375.0072635135
 30
0.0
 11
499.4830869932
 21
375.0072635135
 31
0.0
  0
LINE
  5
39F
330
1B
100
AcDbEntity
 67
     1
  8
7_ALL_FEATURES
  6
Continuous
 62
     2
100
AcDbLine
 10
499.4830869932
 20
375.0072635135
 30
0.0
 11
499.1753778049
 21
375.0072635135
 31
0.0
  0
LINE
  5
3A0
330
1B
100
AcDbEntity
 67
     1
  8
7_ALL_FEATURES
  6
Continuous
 62
     2
100
AcDbLine
 10
499.1753778049
 20
375.0072635135
 30
0.0
 11
497.9830869932
 21
375.0072635135
 31
0.0
  0
LINE
  5
3A1
330
1B
100
AcDbEntity
 67
     1
  8
7_ALL_FEATURES
  6
Continuous
 62
     2
100
AcDbLine
 10
497.9830869932
 20
375.0072635135
 30
0.0
 11
491.4614079814
 21
375.0072635135
 31
0.0
  0
LINE
  5
3A2
330
1B
100
AcDbEntity
 67
     1
  8
7_ALL_FEATURES
  6
Continuous
 62
     2
100
AcDbLine
 10
491.4614079814
 20
375.0072635135
 30
0.0
 11
491.3308756812
 21
375.0072635135
 31
0.0
  0
LINE
  5
3A3
330
1B
100
AcDbEntity
 67
     1
  8
7_ALL_FEATURES
  6
Continuous
 62
     2
100
AcDbLine
 10
491.3308756812
 20
375.0072635135
 30
0.0
 11
488.7571488315
 21
375.0072635135
 31
0.0
  0
LINE
  5
3A4
330
1B
100
AcDbEntity
 67
     1
  8
7_ALL_FEATURES
  6
Continuous
 62
     2
100
AcDbLine
 10
488.7571488315
 20
375.0072635135
 30
0.0
 11
484.8040123673
 21
375.0072635135
 31
0.0
  0
LINE
  5
3A5
330
1B
100
AcDbEntity
 67
     1
  8
7_ALL_FEATURES
  6
Continuous
 62
     2
100
AcDbLine
 10
484.8040123673
 20
375.0072635135
 30
0.0
 11
483.8399758499
 21
375.0072635135
 31
0.0
  0
LINE
  5
3A6
330
1B
100
AcDbEntity
 67
     1
  8
7_ALL_FEATURES
  6
Continuous
 62
     2
100
AcDbLine
 10
483.8399758499
 20
375.0072635135
 30
0.0
 11
483.5551350531
 21
375.0072635135
 31
0.0
  0
LINE
  5
3A7
330
1B
100
AcDbEntity
 67
     1
  8
7_ALL_FEATURES
  6
Continuous
 62
     2
100
AcDbLine
 10
483.5551350531
 20
375.0072635135
 30
0.0
 11
479.8330869932
 21
375.0072635135
 31
0.0
  0
LINE
  5
3A8
330
1B
100
AcDbEntity
 67
     1
  8
7_ALL_FEATURES
  6
Continuous
 62
     2
100
AcDbLine
 10
479.8330869932
 20
375.0072635135
 30
0.0
 11
479.5167949156
 21
375.0072635135
 31
0.0
  0
LINE
  5
3A9
330
1B
100
AcDbEntity
 67
     1
  8
7_ALL_FEATURES
  6
Continuous
 62
     2
100
AcDbLine
 10
479.5167949156
 20
375.0072635135
 30
0.0
 11
473.9449364883
 21
375.0072635135
 31
0.0
  0
LINE
  5
3AA
330
1B
100
AcDbEntity
 67
     1
  8
7_ALL_FEATURES
  6
Continuous
 62
     2
100
AcDbLine
 10
473.9449364883
 20
375.0072635135
 30
0.0
 11
473.5224897335
 21
375.0072635135
 31
0.0
  0
LINE
  5
3AB
330
1B
100
AcDbEntity
 67
     1
  8
7_ALL_FEATURES
  6
Continuous
 62
     2
100
AcDbLine
 10
473.5224897335
 20
375.0072635135
 30
0.0
 11
469.8937494154
 21
375.0072635135
 31
0.0
  0
LINE
  5
3AC
330
1B
100
AcDbEntity
 67
     1
  8
7_ALL_FEATURES
  6
Continuous
 62
     2
100
AcDbLine
 10
469.8937494154
 20
375.0072635135
 30
0.0
 11
469.8304397223
 21
375.0072635135
 31
0.0
  0
LINE
  5
3AD
330
1B
100
AcDbEntity
 67
     1
  8
7_ALL_FEATURES
  6
Continuous
 62
     2
100
AcDbLine
 10
469.8304397223
 20
375.0072635135
 30
0.0
 11
466.5608364659
 21
375.0072635135
 31
0.0
  0
LINE
  5
3AE
330
1B
100
AcDbEntity
 67
     1
  8
7_ALL_FEATURES
  6
Continuous
 62
     2
100
AcDbLine
 10
466.5608364659
 20
375.0072635135
 30
0.0
 11
446.3745388776
 21
375.0072635135
 31
0.0
  0
LINE
  5
3AF
330
1B
100
AcDbEntity
 67
     1
  8
7_ALL_FEATURES
  6
Continuous
 62
     2
100
AcDbLine
 10
446.3745388776
 20
375.0072635135
 30
0.0
 11
444.3538129354
 21
375.0072635135
 31
0.0
  0
LINE
  5
3B0
330
1B
100
AcDbEntity
 67
     1
  8
7_ALL_FEATURES
  6
Continuous
 62
     2
100
AcDbLine
 10
444.3538129354
 20
375.0072635135
 30
0.0
 11
440.3123610511
 21
375.0072635135
 31
0.0
  0
LINE
  5
3B1
330
1B
100
AcDbEntity
 67
     1
  8
7_ALL_FEATURES
  6
Continuous
 62
     2
100
AcDbLine
 10
440.3123610511
 20
375.0072635135
 30
0.0
 11
438.2916351089
 21
375.0072635135
 31
0.0
  0
LINE
  5
3B2
330
1B
100
AcDbEntity
 67
     1
  8
7_ALL_FEATURES
  6
Continuous
 62
     2
100
AcDbLine
 10
438.2916351089
 20
375.0072635135
 30
0.0
 11
418.1053375206
 21
375.0072635135
 31
0.0
  0
LINE
  5
3B3
330
1B
100
AcDbEntity
 67
     1
  8
7_ALL_FEATURES
  6
Continuous
 62
     2
100
AcDbLine
 10
418.1053375206
 20
375.0072635135
 30
0.0
 11
414.8357342642
 21
375.0072635135
 31
0.0
  0
LINE
  5
3B4
330
1B
100
AcDbEntity
 67
     1
  8
7_ALL_FEATURES
  6
Continuous
 62
     2
100
AcDbLine
 10
414.8357342642
 20
375.0072635135
 30
0.0
 11
414.7724245711
 21
375.0072635135
 31
0.0
  0
LINE
  5
3B5
330
1B
100
AcDbEntity
 67
     1
  8
7_ALL_FEATURES
  6
Continuous
 62
     2
100
AcDbLine
 10
414.7724245711
 20
375.0072635135
 30
0.0
 11
411.143684253
 21
375.0072635135
 31
0.0
  0
LINE
  5
3B6
330
1B
100
AcDbEntity
 67
     1
  8
7_ALL_FEATURES
  6
Continuous
 62
     2
100
AcDbLine
 10
411.143684253
 20
375.0072635135
 30
0.0
 11
410.7212374981
 21
375.0072635135
 31
0.0
  0
LINE
  5
3B7
330
1B
100
AcDbEntity
 67
     1
  8
7_ALL_FEATURES
  6
Continuous
 62
     2
100
AcDbLine
 10
410.7212374981
 20
375.0072635135
 30
0.0
 11
405.1493790709
 21
375.0072635135
 31
0.0
  0
LINE
  5
3B8
330
1B
100
AcDbEntity
 67
     1
  8
7_ALL_FEATURES
  6
Continuous
 62
     2
100
AcDbLine
 10
405.1493790709
 20
375.0072635135
 30
0.0
 11
404.8330869932
 21
375.0072635135
 31
0.0
  0
LINE
  5
3B9
330
1B
100
AcDbEntity
 67
     1
  8
7_ALL_FEATURES
  6
Continuous
 62
     2
100
AcDbLine
 10
404.8330869932
 20
375.0072635135
 30
0.0
 11
401.1110389334
 21
375.0072635135
 31
0.0
  0
LINE
  5
3BA
330
1B
100
AcDbEntity
 67
     1
  8
7_ALL_FEATURES
  6
Continuous
 62
     2
100
AcDbLine
 10
401.1110389334
 20
375.0072635135
 30
0.0
 11
400.8261981366
 21
375.0072635135
 31
0.0
  0
LINE
  5
3BB
330
1B
100
AcDbEntity
 67
     1
  8
7_ALL_FEATURES
  6
Continuous
 62
     2
100
AcDbLine
 10
400.8261981366
 20
375.0072635135
 30
0.0
 11
399.8621616192
 21
375.0072635135
 31
0.0
  0
LINE
  5
3BC
330
1B
100
AcDbEntity
 67
     1
  8
7_ALL_FEATURES
  6
Continuous
 62
     2
100
AcDbLine
 10
399.8621616192
 20
375.0072635135
 30
0.0
 11
395.909025155
 21
375.0072635135
 31
0.0
  0
LINE
  5
3BD
330
1B
100
AcDbEntity
 67
     1
  8
7_ALL_FEATURES
  6
Continuous
 62
     2
100
AcDbLine
 10
395.909025155
 20
375.0072635135
 30
0.0
 11
393.3352983053
 21
375.0072635135
 31
0.0
  0
LINE
  5
3BE
330
1B
100
AcDbEntity
 67
     1
  8
7_ALL_FEATURES
  6
Continuous
 62
     2
100
AcDbLine
 10
393.3352983053
 20
375.0072635135
 30
0.0
 11
393.2047660051
 21
375.0072635135
 31
0.0
  0
LINE
  5
3BF
330
1B
100
AcDbEntity
 67
     1
  8
7_ALL_FEATURES
  6
Continuous
 62
     2
100
AcDbLine
 10
393.2047660051
 20
375.0072635135
 30
0.0
 11
386.6830869932
 21
375.0072635135
 31
0.0
  0
LINE
  5
3C0
330
1B
100
AcDbEntity
 67
     1
  8
7_ALL_FEATURES
  6
Continuous
 62
     2
100
AcDbLine
 10
386.6830869932
 20
375.0072635135
 30
0.0
 11
385.4907961816
 21
375.0072635135
 31
0.0
  0
LINE
  5
3C1
330
1B
100
AcDbEntity
 67
     1
  8
7_ALL_FEATURES
  6
Continuous
 62
     2
100
AcDbLine
 10
385.4907961816
 20
375.0072635135
 30
0.0
 11
385.1830869932
 21
375.0072635135
 31
0.0
  0
LINE
  5
3C2
330
1B
100
AcDbEntity
 67
     1
  8
7_ALL_FEATURES
  6
Continuous
 62
     2
100
AcDbLine
 10
385.1830869932
 20
375.0072635135
 30
0.0
 11
382.4563034937
 21
375.0072635135
 31
0.0
  0
LINE
  5
3C3
330
1B
100
AcDbEntity
 67
     1
  8
7_ALL_FEATURES
  6
Continuous
 62
     2
100
AcDbLine
 10
382.4563034937
 20
375.0072635135
 30
0.0
 11
382.1826614212
 21
375.0072635135
 31
0.0
  0
LINE
  5
3C4
330
1B
100
AcDbEntity
 67
     1
  8
7_ALL_FEATURES
  6
Continuous
 62
     2
100
AcDbLine
 10
499.4830869932
 20
372.0068591699
 30
0.0
 11
385.1830869932
 21
372.0068591699
 31
0.0
  0
LINE
  5
3C5
330
1B
100
AcDbEntity
 67
     1
  8
7_ALL_FEATURES
  6
Continuous
 62
     6
100
AcDbLine
 10
382.1826614212
 20
375.0072635135
 30
0.0
 11
382.2578747394
 21
374.9320507275
 31
0.0
  0
LINE
  5
3C6
330
1B
100
AcDbEntity
 67
     1
  8
7_ALL_FEATURES
  6
Continuous
 62
     6
100
AcDbLine
 10
382.2578747394
 20
374.9320507275
 30
0.0
 11
385.1830869932
 21
372.0068591699
 31
0.0
  0
LINE
  5
3C7
330
1B
100
AcDbEntity
 67
     1
  8
7_ALL_FEATURES
  6
Continuous
 62
     6
100
AcDbLine
 10
502.4835125652
 20
375.0072635135
 30
0.0
 11
502.4082992471
 21
374.9320507275
 31
0.0
  0
LINE
  5
3C8
330
1B
100
AcDbEntity
 67
     1
  8
7_ALL_FEATURES
  6
Continuous
 62
     6
100
AcDbLine
 10
502.4082992471
 20
374.9320507275
 30
0.0
 11
499.4830869932
 21
372.0068591699
 31
0.0
  0
LINE
  5
3C9
330
1B
100
AcDbEntity
 67
     1
  8
7_ALL_FEATURES
  6
Continuous
 62
     2
100
AcDbLine
 10
385.1830869932
 20
288.0076678571
 30
0.0
 11
499.4830869932
 21
288.0076678571
 31
0.0
  0
LINE
  5
3CA
330
1B
100
AcDbEntity
 67
     1
  8
7_ALL_FEATURES
  6
Continuous
 62
     6
100
AcDbLine
 10
502.4835125652
 20
285.0072635135
 30
0.0
 11
499.4830869932
 21
288.0076678571
 31
0.0
  0
LINE
  5
3CB
330
1B
100
AcDbEntity
 67
     1
  8
7_ALL_FEATURES
  6
Continuous
 62
     6
100
AcDbLine
 10
382.1826614212
 20
285.0072635135
 30
0.0
 11
385.1830869932
 21
288.0076678571
 31
0.0
  0
ARC
  5
3CC
330
1B
100
AcDbEntity
 67
     1
  8
7_ALL_FEATURES
  6
Continuous
 62
     7
100
AcDbCircle
 10
119.5209248311
 20
379.3072635135
 30
0.0
 40
0.1
100
AcDbArc
 50
180.0
 51
270.0
  0
ARC
  5
3CD
330
1B
100
AcDbEntity
 67
     1
  8
7_ALL_FEATURES
  6
Continuous
 62
     7
100
AcDbCircle
 10
127.8209248311
 20
379.3072635135
 30
0.0
 40
0.1
100
AcDbArc
 50
270.0
 51
360.0
  0
ARC
  5
3CE
330
1B
100
AcDbEntity
 67
     1
  8
7_ALL_FEATURES
  6
Continuous
 62
     7
100
AcDbCircle
 10
119.5209248311
 20
384.1072635135
 30
0.0
 40
0.1
100
AcDbArc
 50
90.0
 51
180.0
  0
LINE
  5
3CF
330
1B
100
AcDbEntity
 67
     1
  8
7_ALL_FEATURES
  6
Continuous
 62
     7
100
AcDbLine
 10
123.6709248311
 20
384.2072635135
 30
0.0
 11
119.5209716012
 21
384.2072635135
 31
0.0
  0
LINE
  5
3D0
330
1B
100
AcDbEntity
 67
     1
  8
7_ALL_FEATURES
  6
Continuous
 62
     7
100
AcDbLine
 10
119.5209248311
 20
384.2072635135
 30
0.0
 11
123.6709248311
 21
384.2072635135
 31
0.0
  0
LINE
  5
3D1
330
1B
100
AcDbEntity
 67
     1
  8
7_ALL_FEATURES
  6
Continuous
 62
     7
100
AcDbLine
 10
127.8208780609
 20
384.2072635135
 30
0.0
 11
123.6709248311
 21
384.2072635135
 31
0.0
  0
ARC
  5
3D2
330
1B
100
AcDbEntity
 67
     1
  8
7_ALL_FEATURES
  6
Continuous
 62
     7
100
AcDbCircle
 10
127.8209248311
 20
384.1072635135
 30
0.0
 40
0.1
100
AcDbArc
 50
0.0
 51
90.0
  0
LINE
  5
3D3
330
1B
100
AcDbEntity
 67
     1
  8
7_ALL_FEATURES
  6
Continuous
 62
     7
100
AcDbLine
 10
123.6709248311
 20
384.2072635135
 30
0.0
 11
127.8209248311
 21
384.2072635135
 31
0.0
  0
LINE
  5
3D4
330
1B
100
AcDbEntity
 67
     1
  8
3_ALL_AXES
  6
Continuous
 62
     7
100
AcDbLine
 10
119.4209248311
 20
379.3072635135
 30
0.0
 11
119.4209248311
 21
384.1072635135
 31
0.0
  0
LINE
  5
3D5
330
1B
100
AcDbEntity
 67
     1
  8
3_ALL_AXES
  6
Continuous
 62
     7
100
AcDbLine
 10
127.9209248311
 20
379.3072635135
 30
0.0
 11
127.9209248311
 21
384.1072635135
 31
0.0
  0
LINE
  5
3D6
330
1B
100
AcDbEntity
 67
     1
  8
7_ALL_FEATURES
  6
Continuous
 62
     9
100
AcDbLine
 10
123.6709248311
 20
384.1072635135
 30
0.0
 11
119.4209248311
 21
384.1072635135
 31
0.0
  0
LINE
  5
3D7
330
1B
100
AcDbEntity
 67
     1
  8
7_ALL_FEATURES
  6
Continuous
 62
     9
100
AcDbLine
 10
127.9209248311
 20
384.1072635135
 30
0.0
 11
123.6709248311
 21
384.1072635135
 31
0.0
  0
LINE
  5
3D8
330
1B
100
AcDbEntity
 67
     1
  8
7_ALL_FEATURES
  6
Continuous
 62
     9
100
AcDbLine
 10
127.9209248311
 20
379.3072635135
 30
0.0
 11
123.6709248311
 21
379.3072635135
 31
0.0
  0
LINE
  5
3D9
330
1B
100
AcDbEntity
 67
     1
  8
7_ALL_FEATURES
  6
Continuous
 62
     9
100
AcDbLine
 10
123.6709248311
 20
379.3072635135
 30
0.0
 11
119.4209248311
 21
379.3072635135
 31
0.0
  0
LINE
  5
3DA
330
1B
100
AcDbEntity
 67
     1
  8
02___PRT_ALL_AXES
  6
Continuous
 62
     7
100
AcDbLine
 10
171.4209248311
 20
378.6072635135
 30
0.0
 11
181.5992414436
 21
378.6072635135
 31
0.0
  0
LINE
  5
3DB
330
1B
100
AcDbEntity
 67
     1
  8
02___PRT_ALL_AXES
  6
Continuous
 62
     7
100
AcDbLine
 10
181.5992414436
 20
378.6072635135
 30
0.0
 11
183.1764863125
 21
378.6072635135
 31
0.0
  0
LINE
  5
3DC
330
1B
100
AcDbEntity
 67
     1
  8
02___PRT_ALL_AXES
  6
Continuous
 62
     7
100
AcDbLine
 10
183.1764863125
 20
378.6072635135
 30
0.0
 11
183.2242576796
 21
378.6072635135
 31
0.0
  0
LINE
  5
3DD
330
1B
100
AcDbEntity
 67
     1
  8
02___PRT_ALL_AXES
  6
Continuous
 62
     7
100
AcDbLine
 10
183.2242576796
 20
378.6072635135
 30
0.0
 11
183.9626906906
 21
378.6072635135
 31
0.0
  0
LINE
  5
3DE
330
1B
100
AcDbEntity
 67
     1
  8
02___PRT_ALL_AXES
  6
Continuous
 62
     7
100
AcDbLine
 10
183.9626906906
 20
378.6072635135
 30
0.0
 11
186.1764863125
 21
378.6072635135
 31
0.0
  0
LINE
  5
3DF
330
1B
100
AcDbEntity
 67
     1
  8
02___PRT_ALL_AXES
  6
Continuous
 62
     7
100
AcDbLine
 10
186.1764863125
 20
378.6072635135
 30
0.0
 11
188.9742064482
 21
378.6072635135
 31
0.0
  0
LINE
  5
3E0
330
1B
100
AcDbEntity
 67
     1
  8
02___PRT_ALL_AXES
  6
Continuous
 62
     7
100
AcDbLine
 10
188.9742064482
 20
378.6072635135
 30
0.0
 11
189.1764863125
 21
378.6072635135
 31
0.0
  0
LINE
  5
3E1
330
1B
100
AcDbEntity
 67
     1
  8
02___PRT_ALL_AXES
  6
Continuous
 62
     7
100
AcDbLine
 10
189.1764863125
 20
378.6072635135
 30
0.0
 11
189.4433837785
 21
378.6072635135
 31
0.0
  0
LINE
  5
3E2
330
1B
100
AcDbEntity
 67
     1
  8
02___PRT_ALL_AXES
  6
Continuous
 62
     7
100
AcDbLine
 10
189.4433837785
 20
378.6072635135
 30
0.0
 11
190.5992226842
 21
378.6072635135
 31
0.0
  0
LINE
  5
3E3
330
1B
100
AcDbEntity
 67
     1
  8
02___PRT_ALL_AXES
  6
Continuous
 62
     7
100
AcDbLine
 10
190.5992226842
 20
378.6072635135
 30
0.0
 11
205.3492475516
 21
378.6072635135
 31
0.0
  0
LINE
  5
3E4
330
1B
100
AcDbEntity
 67
     1
  8
02___PRT_ALL_AXES
  6
Continuous
 62
     7
100
AcDbLine
 10
205.3492475516
 20
378.6072635135
 30
0.0
 11
206.9742769635
 21
378.6072635135
 31
0.0
  0
LINE
  5
3E5
330
1B
100
AcDbEntity
 67
     1
  8
02___PRT_ALL_AXES
  6
Continuous
 62
     7
100
AcDbLine
 10
206.9742769635
 20
378.6072635135
 30
0.0
 11
206.9899816147
 21
378.6072635135
 31
0.0
  0
LINE
  5
3E6
330
1B
100
AcDbEntity
 67
     1
  8
02___PRT_ALL_AXES
  6
Continuous
 62
     7
100
AcDbLine
 10
206.9899816147
 20
378.6072635135
 30
0.0
 11
212.7241871643
 21
378.6072635135
 31
0.0
  0
LINE
  5
3E7
330
1B
100
AcDbEntity
 67
     1
  8
02___PRT_ALL_AXES
  6
Continuous
 62
     7
100
AcDbLine
 10
212.7241871643
 20
378.6072635135
 30
0.0
 11
214.324580593
 21
378.6072635135
 31
0.0
  0
LINE
  5
3E8
330
1B
100
AcDbEntity
 67
     1
  8
02___PRT_ALL_AXES
  6
Continuous
 62
     7
100
AcDbLine
 10
214.324580593
 20
378.6072635135
 30
0.0
 11
214.3492165762
 21
378.6072635135
 31
0.0
  0
LINE
  5
3E9
330
1B
100
AcDbEntity
 67
     1
  8
02___PRT_ALL_AXES
  6
Continuous
 62
     7
100
AcDbLine
 10
214.3492165762
 20
378.6072635135
 30
0.0
 11
214.4209594438
 21
378.6072635135
 31
0.0
  0
LINE
  5
3EA
330
1B
100
AcDbEntity
 67
     1
  8
02___PRT_ALL_AXES
  6
Continuous
 62
     7
100
AcDbLine
 10
214.4209594438
 20
378.6072635135
 30
0.0
 11
215.0238105141
 21
378.6072635135
 31
0.0
  0
LINE
  5
3EB
330
1B
100
AcDbEntity
 67
     1
  8
02___PRT_ALL_AXES
  6
Continuous
 62
     7
100
AcDbLine
 10
215.0238105141
 20
378.6072635135
 30
0.0
 11
216.0459248311
 21
378.6072635135
 31
0.0
  0
LINE
  5
3EC
330
1B
100
AcDbEntity
 67
     1
  8
02___PRT_ALL_AXES
  6
Continuous
 62
     7
100
AcDbLine
 10
216.0459248311
 20
378.6072635135
 30
0.0
 11
221.410747867
 21
378.6072635135
 31
0.0
  0
LINE
  5
3ED
330
1B
100
AcDbEntity
 67
     1
  8
02___PRT_ALL_AXES
  6
Continuous
 62
     7
100
AcDbLine
 10
221.410747867
 20
378.6072635135
 30
0.0
 11
221.7959248311
 21
378.6072635135
 31
0.0
  0
LINE
  5
3EE
330
1B
100
AcDbEntity
 67
     1
  8
02___PRT_ALL_AXES
  6
Continuous
 62
     7
100
AcDbLine
 10
221.7959248311
 20
378.6072635135
 30
0.0
 11
223.4208902184
 21
378.6072635135
 31
0.0
  0
LINE
  5
3EF
330
1B
100
AcDbEntity
 67
     1
  8
02___PRT_ALL_AXES
  6
Continuous
 62
     7
100
AcDbLine
 10
223.4208902184
 20
378.6072635135
 30
0.0
 11
226.4202803854
 21
378.6072635135
 31
0.0
  0
LINE
  5
3F0
330
1B
100
AcDbEntity
 67
     1
  8
02___PRT_ALL_AXES
  6
Continuous
 62
     7
100
AcDbLine
 10
171.4209248311
 20
379.2072635135
 30
0.0
 11
181.9264863125
 21
379.2072635135
 31
0.0
  0
LINE
  5
3F1
330
1B
100
AcDbEntity
 67
     1
  8
02___PRT_ALL_AXES
  6
Continuous
 62
     7
100
AcDbLine
 10
181.9264863125
 20
379.2072635135
 30
0.0
 11
182.0264863125
 21
379.2072635135
 31
0.0
  0
LINE
  5
3F2
330
1B
100
AcDbEntity
 67
     1
  8
02___PRT_ALL_AXES
  6
Continuous
 62
     7
100
AcDbLine
 10
182.0264863125
 20
379.2072635135
 30
0.0
 11
183.1764863125
 21
379.2072635135
 31
0.0
  0
LINE
  5
3F3
330
1B
100
AcDbEntity
 67
     1
  8
02___PRT_ALL_AXES
  6
Continuous
 62
     7
100
AcDbLine
 10
183.1764863125
 20
379.2072635135
 30
0.0
 11
183.5764863125
 21
379.2072635135
 31
0.0
  0
LINE
  5
3F4
330
1B
100
AcDbEntity
 67
     1
  8
02___PRT_ALL_AXES
  6
Continuous
 62
     7
100
AcDbLine
 10
183.5764863125
 20
379.2072635135
 30
0.0
 11
183.6764863125
 21
379.2072635135
 31
0.0
  0
LINE
  5
3F5
330
1B
100
AcDbEntity
 67
     1
  8
02___PRT_ALL_AXES
  6
Continuous
 62
     7
100
AcDbLine
 10
183.6764863125
 20
379.2072635135
 30
0.0
 11
186.1764863125
 21
379.2072635135
 31
0.0
  0
LINE
  5
3F6
330
1B
100
AcDbEntity
 67
     1
  8
02___PRT_ALL_AXES
  6
Continuous
 62
     7
100
AcDbLine
 10
186.1764863125
 20
379.2072635135
 30
0.0
 11
188.6764863125
 21
379.2072635135
 31
0.0
  0
LINE
  5
3F7
330
1B
100
AcDbEntity
 67
     1
  8
02___PRT_ALL_AXES
  6
Continuous
 62
     7
100
AcDbLine
 10
188.6764863125
 20
379.2072635135
 30
0.0
 11
188.7764448941
 21
379.2072635135
 31
0.0
  0
LINE
  5
3F8
330
1B
100
AcDbEntity
 67
     1
  8
02___PRT_ALL_AXES
  6
Continuous
 62
     7
100
AcDbLine
 10
188.7764448941
 20
379.2072635135
 30
0.0
 11
189.1764863125
 21
379.2072635135
 31
0.0
  0
LINE
  5
3F9
330
1B
100
AcDbEntity
 67
     1
  8
02___PRT_ALL_AXES
  6
Continuous
 62
     7
100
AcDbLine
 10
189.1764863125
 20
379.2072635135
 30
0.0
 11
190.3264395564
 21
379.2072635135
 31
0.0
  0
LINE
  5
3FA
330
1B
100
AcDbEntity
 67
     1
  8
02___PRT_ALL_AXES
  6
Continuous
 62
     7
100
AcDbLine
 10
190.3264395564
 20
379.2072635135
 30
0.0
 11
190.4264863125
 21
379.2072635135
 31
0.0
  0
LINE
  5
3FB
330
1B
100
AcDbEntity
 67
     1
  8
02___PRT_ALL_AXES
  6
Continuous
 62
     7
100
AcDbLine
 10
190.4264863125
 20
379.2072635135
 30
0.0
 11
226.4202803854
 21
379.2072635135
 31
0.0
  0
LINE
  5
3FC
330
1B
100
AcDbEntity
 67
     1
  8
02___PRT_ALL_AXES
  6
Continuous
 62
     7
100
AcDbLine
 10
226.4209248311
 20
378.6072635135
 30
0.0
 11
226.4209248311
 21
379.2072635135
 31
0.0
  0
LINE
  5
3FD
330
1B
100
AcDbEntity
 67
     1
  8
02___PRT_ALL_AXES
  6
Continuous
 62
     7
100
AcDbLine
 10
116.4215692767
 20
379.2072635135
 30
0.0
 11
119.4209248311
 21
379.2072635135
 31
0.0
  0
LINE
  5
3FE
330
1B
100
AcDbEntity
 67
     1
  8
02___PRT_ALL_AXES
  6
Continuous
 62
     7
100
AcDbLine
 10
119.4209248311
 20
379.2072635135
 30
0.0
 11
119.5209248311
 21
379.2072635135
 31
0.0
  0
LINE
  5
3FF
330
1B
100
AcDbEntity
 67
     1
  8
02___PRT_ALL_AXES
  6
Continuous
 62
     7
100
AcDbLine
 10
119.5209248311
 20
379.2072635135
 30
0.0
 11
120.6709248311
 21
379.2072635135
 31
0.0
  0
LINE
  5
400
330
1B
100
AcDbEntity
 67
     1
  8
02___PRT_ALL_AXES
  6
Continuous
 62
     7
100
AcDbLine
 10
120.6709248311
 20
379.2072635135
 30
0.0
 11
121.0709662495
 21
379.2072635135
 31
0.0
  0
LINE
  5
401
330
1B
100
AcDbEntity
 67
     1
  8
02___PRT_ALL_AXES
  6
Continuous
 62
     7
100
AcDbLine
 10
121.0709662495
 20
379.2072635135
 30
0.0
 11
123.6709248311
 21
379.2072635135
 31
0.0
  0
LINE
  5
402
330
1B
100
AcDbEntity
 67
     1
  8
02___PRT_ALL_AXES
  6
Continuous
 62
     7
100
AcDbLine
 10
123.6709248311
 20
379.2072635135
 30
0.0
 11
123.7895276229
 21
379.2072635135
 31
0.0
  0
LINE
  5
403
330
1B
100
AcDbEntity
 67
     1
  8
02___PRT_ALL_AXES
  6
Continuous
 62
     7
100
AcDbLine
 10
123.7895276229
 20
379.2072635135
 30
0.0
 11
126.2708834127
 21
379.2072635135
 31
0.0
  0
LINE
  5
404
330
1B
100
AcDbEntity
 67
     1
  8
02___PRT_ALL_AXES
  6
Continuous
 62
     7
100
AcDbLine
 10
126.2708834127
 20
379.2072635135
 30
0.0
 11
126.6709248311
 21
379.2072635135
 31
0.0
  0
LINE
  5
405
330
1B
100
AcDbEntity
 67
     1
  8
02___PRT_ALL_AXES
  6
Continuous
 62
     7
100
AcDbLine
 10
126.6709248311
 20
379.2072635135
 30
0.0
 11
127.820878075
 21
379.2072635135
 31
0.0
  0
LINE
  5
406
330
1B
100
AcDbEntity
 67
     1
  8
02___PRT_ALL_AXES
  6
Continuous
 62
     7
100
AcDbLine
 10
127.820878075
 20
379.2072635135
 30
0.0
 11
127.9209248311
 21
379.2072635135
 31
0.0
  0
LINE
  5
407
330
1B
100
AcDbEntity
 67
     1
  8
02___PRT_ALL_AXES
  6
Continuous
 62
     7
100
AcDbLine
 10
127.9209248311
 20
379.2072635135
 30
0.0
 11
171.4209248311
 21
379.2072635135
 31
0.0
  0
LINE
  5
408
330
1B
100
AcDbEntity
 67
     1
  8
02___PRT_ALL_AXES
  6
Continuous
 62
     7
100
AcDbLine
 10
116.4209248311
 20
378.6072635135
 30
0.0
 11
116.4209248311
 21
379.2072635135
 31
0.0
  0
LINE
  5
409
330
1B
100
AcDbEntity
 67
     1
  8
02___PRT_ALL_AXES
  6
Continuous
 62
     7
100
AcDbLine
 10
116.4215692767
 20
378.6072635135
 30
0.0
 11
119.4209594438
 21
378.6072635135
 31
0.0
  0
LINE
  5
40A
330
1B
100
AcDbEntity
 67
     1
  8
02___PRT_ALL_AXES
  6
Continuous
 62
     7
100
AcDbLine
 10
119.4209594438
 20
378.6072635135
 30
0.0
 11
120.0238105141
 21
378.6072635135
 31
0.0
  0
LINE
  5
40B
330
1B
100
AcDbEntity
 67
     1
  8
02___PRT_ALL_AXES
  6
Continuous
 62
     7
100
AcDbLine
 10
120.0238105141
 20
378.6072635135
 30
0.0
 11
120.2228686556
 21
378.6072635135
 31
0.0
  0
LINE
  5
40C
330
1B
100
AcDbEntity
 67
     1
  8
02___PRT_ALL_AXES
  6
Continuous
 62
     7
100
AcDbLine
 10
120.2228686556
 20
378.6072635135
 30
0.0
 11
120.6709248311
 21
378.6072635135
 31
0.0
  0
LINE
  5
40D
330
1B
100
AcDbEntity
 67
     1
  8
02___PRT_ALL_AXES
  6
Continuous
 62
     7
100
AcDbLine
 10
120.6709248311
 20
378.6072635135
 30
0.0
 11
121.0459248311
 21
378.6072635135
 31
0.0
  0
LINE
  5
40E
330
1B
100
AcDbEntity
 67
     1
  8
02___PRT_ALL_AXES
  6
Continuous
 62
     7
100
AcDbLine
 10
121.0459248311
 20
378.6072635135
 30
0.0
 11
123.6709248311
 21
378.6072635135
 31
0.0
  0
LINE
  5
40F
330
1B
100
AcDbEntity
 67
     1
  8
02___PRT_ALL_AXES
  6
Continuous
 62
     7
100
AcDbLine
 10
123.6709248311
 20
378.6072635135
 30
0.0
 11
123.7895276229
 21
378.6072635135
 31
0.0
  0
LINE
  5
410
330
1B
100
AcDbEntity
 67
     1
  8
02___PRT_ALL_AXES
  6
Continuous
 62
     7
100
AcDbLine
 10
123.7895276229
 20
378.6072635135
 30
0.0
 11
126.410747867
 21
378.6072635135
 31
0.0
  0
LINE
  5
411
330
1B
100
AcDbEntity
 67
     1
  8
02___PRT_ALL_AXES
  6
Continuous
 62
     7
100
AcDbLine
 10
126.410747867
 20
378.6072635135
 30
0.0
 11
126.6709248311
 21
378.6072635135
 31
0.0
  0
LINE
  5
412
330
1B
100
AcDbEntity
 67
     1
  8
02___PRT_ALL_AXES
  6
Continuous
 62
     7
100
AcDbLine
 10
126.6709248311
 20
378.6072635135
 30
0.0
 11
126.7959248311
 21
378.6072635135
 31
0.0
  0
LINE
  5
413
330
1B
100
AcDbEntity
 67
     1
  8
02___PRT_ALL_AXES
  6
Continuous
 62
     7
100
AcDbLine
 10
126.7959248311
 20
378.6072635135
 30
0.0
 11
128.4201932953
 21
378.6072635135
 31
0.0
  0
LINE
  5
414
330
1B
100
AcDbEntity
 67
     1
  8
02___PRT_ALL_AXES
  6
Continuous
 62
     7
100
AcDbLine
 10
128.4201932953
 20
378.6072635135
 30
0.0
 11
128.4926203208
 21
378.6072635135
 31
0.0
  0
LINE
  5
415
330
1B
100
AcDbEntity
 67
     1
  8
02___PRT_ALL_AXES
  6
Continuous
 62
     7
100
AcDbLine
 10
128.4926203208
 20
378.6072635135
 30
0.0
 11
130.1176750934
 21
378.6072635135
 31
0.0
  0
LINE
  5
416
330
1B
100
AcDbEntity
 67
     1
  8
02___PRT_ALL_AXES
  6
Continuous
 62
     7
100
AcDbLine
 10
130.1176750934
 20
378.6072635135
 30
0.0
 11
131.1623027044
 21
378.6072635135
 31
0.0
  0
LINE
  5
417
330
1B
100
AcDbEntity
 67
     1
  8
02___PRT_ALL_AXES
  6
Continuous
 62
     7
100
AcDbLine
 10
131.1623027044
 20
378.6072635135
 30
0.0
 11
134.0114242537
 21
378.6072635135
 31
0.0
  0
LINE
  5
418
330
1B
100
AcDbEntity
 67
     1
  8
02___PRT_ALL_AXES
  6
Continuous
 62
     7
100
AcDbLine
 10
134.0114242537
 20
378.6072635135
 30
0.0
 11
134.1619854471
 21
378.6072635135
 31
0.0
  0
LINE
  5
419
330
1B
100
AcDbEntity
 67
     1
  8
02___PRT_ALL_AXES
  6
Continuous
 62
     7
100
AcDbLine
 10
134.1619854471
 20
378.6072635135
 30
0.0
 11
135.8675601032
 21
378.6072635135
 31
0.0
  0
LINE
  5
41A
330
1B
100
AcDbEntity
 67
     1
  8
02___PRT_ALL_AXES
  6
Continuous
 62
     7
100
AcDbLine
 10
135.8675601032
 20
378.6072635135
 30
0.0
 11
137.4926148758
 21
378.6072635135
 31
0.0
  0
LINE
  5
41B
330
1B
100
AcDbEntity
 67
     1
  8
02___PRT_ALL_AXES
  6
Continuous
 62
     7
100
AcDbLine
 10
137.4926148758
 20
378.6072635135
 30
0.0
 11
152.2426609928
 21
378.6072635135
 31
0.0
  0
LINE
  5
41C
330
1B
100
AcDbEntity
 67
     1
  8
02___PRT_ALL_AXES
  6
Continuous
 62
     7
100
AcDbLine
 10
152.2426609928
 20
378.6072635135
 30
0.0
 11
153.867643214
 21
378.6072635135
 31
0.0
  0
LINE
  5
41D
330
1B
100
AcDbEntity
 67
     1
  8
02___PRT_ALL_AXES
  6
Continuous
 62
     7
100
AcDbLine
 10
153.867643214
 20
378.6072635135
 30
0.0
 11
156.1448714872
 21
378.6072635135
 31
0.0
  0
LINE
  5
41E
330
1B
100
AcDbEntity
 67
     1
  8
02___PRT_ALL_AXES
  6
Continuous
 62
     7
100
AcDbLine
 10
156.1448714872
 20
378.6072635135
 30
0.0
 11
157.678220207
 21
378.6072635135
 31
0.0
  0
LINE
  5
41F
330
1B
100
AcDbEntity
 67
     1
  8
02___PRT_ALL_AXES
  6
Continuous
 62
     7
100
AcDbLine
 10
157.678220207
 20
378.6072635135
 30
0.0
 11
159.6175919825
 21
378.6072635135
 31
0.0
  0
LINE
  5
420
330
1B
100
AcDbEntity
 67
     1
  8
02___PRT_ALL_AXES
  6
Continuous
 62
     7
100
AcDbLine
 10
159.6175919825
 20
378.6072635135
 30
0.0
 11
161.2425742037
 21
378.6072635135
 31
0.0
  0
LINE
  5
421
330
1B
100
AcDbEntity
 67
     1
  8
02___PRT_ALL_AXES
  6
Continuous
 62
     7
100
AcDbLine
 10
161.2425742037
 20
378.6072635135
 30
0.0
 11
171.4209248311
 21
378.6072635135
 31
0.0
  0
LINE
  5
422
330
1B
100
AcDbEntity
 67
     1
  8
7_ALL_FEATURES
  6
Continuous
 62
     7
100
AcDbLine
 10
214.4209248311
 20
378.6072635135
 30
0.0
 11
214.4209248311
 21
378.0072635135
 31
0.0
  0
LINE
  5
423
330
1B
100
AcDbEntity
 67
     1
  8
7_ALL_FEATURES
  6
Continuous
 62
     7
100
AcDbLine
 10
223.4209248311
 20
378.6072635135
 30
0.0
 11
223.4209248311
 21
378.0072635135
 31
0.0
  0
LINE
  5
424
330
1B
100
AcDbEntity
 67
     1
  8
7_ALL_FEATURES
  6
Continuous
 62
     7
100
AcDbLine
 10
128.4209248311
 20
378.6072635135
 30
0.0
 11
128.4209248311
 21
378.0072635135
 31
0.0
  0
LINE
  5
425
330
1B
100
AcDbEntity
 67
     1
  8
7_ALL_FEATURES
  6
Continuous
 62
     7
100
AcDbLine
 10
119.4209248311
 20
378.6072635135
 30
0.0
 11
119.4209248311
 21
378.0072635135
 31
0.0
  0
ARC
  5
426
330
1B
100
AcDbEntity
 67
     1
  8
7_ALL_FEATURES
  6
Continuous
 62
     7
100
AcDbCircle
 10
182.0264863125
 20
379.3072635135
 30
0.0
 40
0.1
100
AcDbArc
 50
180.0
 51
270.0
  0
ARC
  5
427
330
1B
100
AcDbEntity
 67
     1
  8
7_ALL_FEATURES
  6
Continuous
 62
     7
100
AcDbCircle
 10
190.3264863125
 20
379.3072635135
 30
0.0
 40
0.1
100
AcDbArc
 50
270.0
 51
360.0
  0
ARC
  5
428
330
1B
100
AcDbEntity
 67
     1
  8
7_ALL_FEATURES
  6
Continuous
 62
     7
100
AcDbCircle
 10
182.0264863125
 20
384.1072635135
 30
0.0
 40
0.1
100
AcDbArc
 50
90.0
 51
180.0
  0
LINE
  5
429
330
1B
100
AcDbEntity
 67
     1
  8
7_ALL_FEATURES
  6
Continuous
 62
     7
100
AcDbLine
 10
186.1764863125
 20
384.2072635135
 30
0.0
 11
182.0265330826
 21
384.2072635135
 31
0.0
  0
LINE
  5
42A
330
1B
100
AcDbEntity
 67
     1
  8
7_ALL_FEATURES
  6
Continuous
 62
     7
100
AcDbLine
 10
182.0264863125
 20
384.2072635135
 30
0.0
 11
186.1764863125
 21
384.2072635135
 31
0.0
  0
LINE
  5
42B
330
1B
100
AcDbEntity
 67
     1
  8
7_ALL_FEATURES
  6
Continuous
 62
     7
100
AcDbLine
 10
190.3264395424
 20
384.2072635135
 30
0.0
 11
186.1764863125
 21
384.2072635135
 31
0.0
  0
ARC
  5
42C
330
1B
100
AcDbEntity
 67
     1
  8
7_ALL_FEATURES
  6
Continuous
 62
     7
100
AcDbCircle
 10
190.3264863125
 20
384.1072635135
 30
0.0
 40
0.1
100
AcDbArc
 50
0.0
 51
90.0
  0
LINE
  5
42D
330
1B
100
AcDbEntity
 67
     1
  8
7_ALL_FEATURES
  6
Continuous
 62
     7
100
AcDbLine
 10
186.1764863125
 20
384.2072635135
 30
0.0
 11
190.3264863125
 21
384.2072635135
 31
0.0
  0
LINE
  5
42E
330
1B
100
AcDbEntity
 67
     1
  8
3_ALL_AXES
  6
Continuous
 62
     7
100
AcDbLine
 10
181.9264863125
 20
379.3072635135
 30
0.0
 11
181.9264863125
 21
384.1072635135
 31
0.0
  0
LINE
  5
42F
330
1B
100
AcDbEntity
 67
     1
  8
3_ALL_AXES
  6
Continuous
 62
     7
100
AcDbLine
 10
190.4264863125
 20
379.3072635135
 30
0.0
 11
190.4264863125
 21
384.1072635135
 31
0.0
  0
LINE
  5
430
330
1B
100
AcDbEntity
 67
     1
  8
7_ALL_FEATURES
  6
Continuous
 62
     9
100
AcDbLine
 10
186.1764863125
 20
384.1072635135
 30
0.0
 11
181.9264863125
 21
384.1072635135
 31
0.0
  0
LINE
  5
431
330
1B
100
AcDbEntity
 67
     1
  8
7_ALL_FEATURES
  6
Continuous
 62
     9
100
AcDbLine
 10
190.4264863125
 20
384.1072635135
 30
0.0
 11
186.1764863125
 21
384.1072635135
 31
0.0
  0
LINE
  5
432
330
1B
100
AcDbEntity
 67
     1
  8
7_ALL_FEATURES
  6
Continuous
 62
     9
100
AcDbLine
 10
190.4264863125
 20
379.3072635135
 30
0.0
 11
186.1764863125
 21
379.3072635135
 31
0.0
  0
LINE
  5
433
330
1B
100
AcDbEntity
 67
     1
  8
7_ALL_FEATURES
  6
Continuous
 62
     9
100
AcDbLine
 10
186.1764863125
 20
379.3072635135
 30
0.0
 11
181.9264863125
 21
379.3072635135
 31
0.0
  0
LINE
  5
434
330
1B
100
AcDbEntity
 67
     1
  8
7_ALL_FEATURES
  6
Continuous
 62
     7
100
AcDbLine
 10
214.3492320639
 20
378.6072635135
 30
0.0
 11
214.3492320639
 21
378.0072635135
 31
0.0
  0
LINE
  5
435
330
1B
100
AcDbEntity
 67
     1
  8
7_ALL_FEATURES
  6
Continuous
 62
     7
100
AcDbLine
 10
205.3492320639
 20
378.6072635135
 30
0.0
 11
205.3492320639
 21
378.0072635135
 31
0.0
  0
LINE
  5
436
330
1B
100
AcDbEntity
 67
     1
  8
7_ALL_FEATURES
  6
Continuous
 62
     7
100
AcDbLine
 10
137.4926175983
 20
378.6072635135
 30
0.0
 11
137.4926175983
 21
378.0072635135
 31
0.0
  0
LINE
  5
437
330
1B
100
AcDbEntity
 67
     1
  8
7_ALL_FEATURES
  6
Continuous
 62
     7
100
AcDbLine
 10
128.4926175983
 20
378.6072635135
 30
0.0
 11
128.4926175983
 21
378.0072635135
 31
0.0
  0
LINE
  5
438
330
1B
100
AcDbEntity
 67
     1
  8
7_ALL_FEATURES
  6
Continuous
 62
     7
100
AcDbLine
 10
161.2426175983
 20
378.6072635135
 30
0.0
 11
161.2426175983
 21
378.0072635135
 31
0.0
  0
LINE
  5
439
330
1B
100
AcDbEntity
 67
     1
  8
7_ALL_FEATURES
  6
Continuous
 62
     7
100
AcDbLine
 10
152.2426175983
 20
378.6072635135
 30
0.0
 11
152.2426175983
 21
378.0072635135
 31
0.0
  0
LINE
  5
43A
330
1B
100
AcDbEntity
 67
     1
  8
7_ALL_FEATURES
  6
Continuous
 62
     7
100
AcDbLine
 10
190.5992320639
 20
378.6072635135
 30
0.0
 11
190.5992320639
 21
378.0072635135
 31
0.0
  0
LINE
  5
43B
330
1B
100
AcDbEntity
 67
     1
  8
7_ALL_FEATURES
  6
Continuous
 62
     7
100
AcDbLine
 10
181.5992320639
 20
378.6072635135
 30
0.0
 11
181.5992320639
 21
378.0072635135
 31
0.0
  0
LINE
  5
43C
330
1B
100
AcDbEntity
 67
     1
  8
02___PRT_ALL_AXES
  6
Continuous
 62
     7
100
AcDbLine
 10
231.4209248311
 20
375.0072635135
 30
0.0
 11
231.4209248311
 21
378.0072635135
 31
0.0
  0
LINE
  5
43D
330
1B
100
AcDbEntity
 67
     1
  8
02___PRT_ALL_AXES
  6
Continuous
 62
     7
100
AcDbLine
 10
111.4209248311
 20
378.0072635135
 30
0.0
 11
119.4209594438
 21
378.0072635135
 31
0.0
  0
LINE
  5
43E
330
1B
100
AcDbEntity
 67
     1
  8
02___PRT_ALL_AXES
  6
Continuous
 62
     7
100
AcDbLine
 10
119.4209594438
 20
378.0072635135
 30
0.0
 11
120.0238105141
 21
378.0072635135
 31
0.0
  0
LINE
  5
43F
330
1B
100
AcDbEntity
 67
     1
  8
02___PRT_ALL_AXES
  6
Continuous
 62
     7
100
AcDbLine
 10
120.0238105141
 20
378.0072635135
 30
0.0
 11
128.4208902184
 21
378.0072635135
 31
0.0
  0
LINE
  5
440
330
1B
100
AcDbEntity
 67
     1
  8
02___PRT_ALL_AXES
  6
Continuous
 62
     7
100
AcDbLine
 10
128.4208902184
 20
378.0072635135
 30
0.0
 11
128.4926203208
 21
378.0072635135
 31
0.0
  0
LINE
  5
441
330
1B
100
AcDbEntity
 67
     1
  8
02___PRT_ALL_AXES
  6
Continuous
 62
     7
100
AcDbLine
 10
128.4926203208
 20
378.0072635135
 30
0.0
 11
128.9733052102
 21
378.0072635135
 31
0.0
  0
LINE
  5
442
330
1B
100
AcDbEntity
 67
     1
  8
02___PRT_ALL_AXES
  6
Continuous
 62
     7
100
AcDbLine
 10
128.9733052102
 20
378.0072635135
 30
0.0
 11
130.6171117828
 21
378.0072635135
 31
0.0
  0
LINE
  5
443
330
1B
100
AcDbEntity
 67
     1
  8
02___PRT_ALL_AXES
  6
Continuous
 62
     7
100
AcDbLine
 10
130.6171117828
 20
378.0072635135
 30
0.0
 11
131.1623027044
 21
378.0072635135
 31
0.0
  0
LINE
  5
444
330
1B
100
AcDbEntity
 67
     1
  8
02___PRT_ALL_AXES
  6
Continuous
 62
     7
100
AcDbLine
 10
131.1623027044
 20
378.0072635135
 30
0.0
 11
133.9209248311
 21
378.0072635135
 31
0.0
  0
LINE
  5
445
330
1B
100
AcDbEntity
 67
     1
  8
02___PRT_ALL_AXES
  6
Continuous
 62
     7
100
AcDbLine
 10
133.9209248311
 20
378.0072635135
 30
0.0
 11
134.6364241709
 21
378.0072635135
 31
0.0
  0
LINE
  5
446
330
1B
100
AcDbEntity
 67
     1
  8
02___PRT_ALL_AXES
  6
Continuous
 62
     7
100
AcDbLine
 10
134.6364241709
 20
378.0072635135
 30
0.0
 11
137.0119299863
 21
378.0072635135
 31
0.0
  0
LINE
  5
447
330
1B
100
AcDbEntity
 67
     1
  8
02___PRT_ALL_AXES
  6
Continuous
 62
     7
100
AcDbLine
 10
137.0119299863
 20
378.0072635135
 30
0.0
 11
137.4926148758
 21
378.0072635135
 31
0.0
  0
LINE
  5
448
330
1B
100
AcDbEntity
 67
     1
  8
02___PRT_ALL_AXES
  6
Continuous
 62
     7
100
AcDbLine
 10
137.4926148758
 20
378.0072635135
 30
0.0
 11
152.2426609928
 21
378.0072635135
 31
0.0
  0
LINE
  5
449
330
1B
100
AcDbEntity
 67
     1
  8
02___PRT_ALL_AXES
  6
Continuous
 62
     7
100
AcDbLine
 10
152.2426609928
 20
378.0072635135
 30
0.0
 11
152.8989684484
 21
378.0072635135
 31
0.0
  0
LINE
  5
44A
330
1B
100
AcDbEntity
 67
     1
  8
02___PRT_ALL_AXES
  6
Continuous
 62
     7
100
AcDbLine
 10
152.8989684484
 20
378.0072635135
 30
0.0
 11
155.9023525036
 21
378.0072635135
 31
0.0
  0
LINE
  5
44B
330
1B
100
AcDbEntity
 67
     1
  8
02___PRT_ALL_AXES
  6
Continuous
 62
     7
100
AcDbLine
 10
155.9023525036
 20
378.0072635135
 30
0.0
 11
157.678220207
 21
378.0072635135
 31
0.0
  0
LINE
  5
44C
330
1B
100
AcDbEntity
 67
     1
  8
02___PRT_ALL_AXES
  6
Continuous
 62
     7
100
AcDbLine
 10
157.678220207
 20
378.0072635135
 30
0.0
 11
159.7460016535
 21
378.0072635135
 31
0.0
  0
LINE
  5
44D
330
1B
100
AcDbEntity
 67
     1
  8
02___PRT_ALL_AXES
  6
Continuous
 62
     7
100
AcDbLine
 10
159.7460016535
 20
378.0072635135
 30
0.0
 11
160.5862667482
 21
378.0072635135
 31
0.0
  0
LINE
  5
44E
330
1B
100
AcDbEntity
 67
     1
  8
02___PRT_ALL_AXES
  6
Continuous
 62
     7
100
AcDbLine
 10
160.5862667482
 20
378.0072635135
 30
0.0
 11
161.2425742037
 21
378.0072635135
 31
0.0
  0
LINE
  5
44F
330
1B
100
AcDbEntity
 67
     1
  8
02___PRT_ALL_AXES
  6
Continuous
 62
     7
100
AcDbLine
 10
161.2425742037
 20
378.0072635135
 30
0.0
 11
171.4209248311
 21
378.0072635135
 31
0.0
  0
LINE
  5
450
330
1B
100
AcDbEntity
 67
     1
  8
02___PRT_ALL_AXES
  6
Continuous
 62
     7
100
AcDbLine
 10
111.4209248311
 20
375.0072635135
 30
0.0
 11
111.4209248311
 21
378.0072635135
 31
0.0
  0
LINE
  5
451
330
1B
100
AcDbEntity
 67
     1
  8
02___PRT_ALL_AXES
  6
Continuous
 62
     7
100
AcDbLine
 10
171.4209248311
 20
378.0072635135
 30
0.0
 11
181.5992414436
 21
378.0072635135
 31
0.0
  0
LINE
  5
452
330
1B
100
AcDbEntity
 67
     1
  8
02___PRT_ALL_AXES
  6
Continuous
 62
     7
100
AcDbLine
 10
181.5992414436
 20
378.0072635135
 30
0.0
 11
182.255582914
 21
378.0072635135
 31
0.0
  0
LINE
  5
453
330
1B
100
AcDbEntity
 67
     1
  8
02___PRT_ALL_AXES
  6
Continuous
 62
     7
100
AcDbLine
 10
182.255582914
 20
378.0072635135
 30
0.0
 11
183.0958480086
 21
378.0072635135
 31
0.0
  0
LINE
  5
454
330
1B
100
AcDbEntity
 67
     1
  8
02___PRT_ALL_AXES
  6
Continuous
 62
     7
100
AcDbLine
 10
183.0958480086
 20
378.0072635135
 30
0.0
 11
186.9394971585
 21
378.0072635135
 31
0.0
  0
LINE
  5
455
330
1B
100
AcDbEntity
 67
     1
  8
02___PRT_ALL_AXES
  6
Continuous
 62
     7
100
AcDbLine
 10
186.9394971585
 20
378.0072635135
 30
0.0
 11
189.4433837785
 21
378.0072635135
 31
0.0
  0
LINE
  5
456
330
1B
100
AcDbEntity
 67
     1
  8
02___PRT_ALL_AXES
  6
Continuous
 62
     7
100
AcDbLine
 10
189.4433837785
 20
378.0072635135
 30
0.0
 11
189.9428812138
 21
378.0072635135
 31
0.0
  0
LINE
  5
457
330
1B
100
AcDbEntity
 67
     1
  8
02___PRT_ALL_AXES
  6
Continuous
 62
     7
100
AcDbLine
 10
189.9428812138
 20
378.0072635135
 30
0.0
 11
190.5992226842
 21
378.0072635135
 31
0.0
  0
LINE
  5
458
330
1B
100
AcDbEntity
 67
     1
  8
02___PRT_ALL_AXES
  6
Continuous
 62
     7
100
AcDbLine
 10
190.5992226842
 20
378.0072635135
 30
0.0
 11
205.3492475516
 21
378.0072635135
 31
0.0
  0
LINE
  5
459
330
1B
100
AcDbEntity
 67
     1
  8
02___PRT_ALL_AXES
  6
Continuous
 62
     7
100
AcDbLine
 10
205.3492475516
 20
378.0072635135
 30
0.0
 11
205.8299196759
 21
378.0072635135
 31
0.0
  0
LINE
  5
45A
330
1B
100
AcDbEntity
 67
     1
  8
02___PRT_ALL_AXES
  6
Continuous
 62
     7
100
AcDbLine
 10
205.8299196759
 20
378.0072635135
 30
0.0
 11
208.2054254913
 21
378.0072635135
 31
0.0
  0
LINE
  5
45B
330
1B
100
AcDbEntity
 67
     1
  8
02___PRT_ALL_AXES
  6
Continuous
 62
     7
100
AcDbLine
 10
208.2054254913
 20
378.0072635135
 30
0.0
 11
208.9209248311
 21
378.0072635135
 31
0.0
  0
LINE
  5
45C
330
1B
100
AcDbEntity
 67
     1
  8
02___PRT_ALL_AXES
  6
Continuous
 62
     7
100
AcDbLine
 10
208.9209248311
 20
378.0072635135
 30
0.0
 11
212.2247378793
 21
378.0072635135
 31
0.0
  0
LINE
  5
45D
330
1B
100
AcDbEntity
 67
     1
  8
02___PRT_ALL_AXES
  6
Continuous
 62
     7
100
AcDbLine
 10
212.2247378793
 20
378.0072635135
 30
0.0
 11
213.8685444519
 21
378.0072635135
 31
0.0
  0
LINE
  5
45E
330
1B
100
AcDbEntity
 67
     1
  8
02___PRT_ALL_AXES
  6
Continuous
 62
     7
100
AcDbLine
 10
213.8685444519
 20
378.0072635135
 30
0.0
 11
214.324580593
 21
378.0072635135
 31
0.0
  0
LINE
  5
45F
330
1B
100
AcDbEntity
 67
     1
  8
02___PRT_ALL_AXES
  6
Continuous
 62
     7
100
AcDbLine
 10
214.324580593
 20
378.0072635135
 30
0.0
 11
214.3492165762
 21
378.0072635135
 31
0.0
  0
LINE
  5
460
330
1B
100
AcDbEntity
 67
     1
  8
02___PRT_ALL_AXES
  6
Continuous
 62
     7
100
AcDbLine
 10
214.3492165762
 20
378.0072635135
 30
0.0
 11
214.4209248311
 21
378.0072635135
 31
0.0
  0
LINE
  5
461
330
1B
100
AcDbEntity
 67
     1
  8
02___PRT_ALL_AXES
  6
Continuous
 62
     7
100
AcDbLine
 10
214.4209248311
 20
378.0072635135
 30
0.0
 11
215.0238105141
 21
378.0072635135
 31
0.0
  0
LINE
  5
462
330
1B
100
AcDbEntity
 67
     1
  8
02___PRT_ALL_AXES
  6
Continuous
 62
     7
100
AcDbLine
 10
215.0238105141
 20
378.0072635135
 30
0.0
 11
223.4208902184
 21
378.0072635135
 31
0.0
  0
LINE
  5
463
330
1B
100
AcDbEntity
 67
     1
  8
02___PRT_ALL_AXES
  6
Continuous
 62
     7
100
AcDbLine
 10
223.4208902184
 20
378.0072635135
 30
0.0
 11
231.4209248311
 21
378.0072635135
 31
0.0
  0
LINE
  5
464
330
1B
100
AcDbEntity
 67
     1
  8
02___PRT_ALL_AXES
  6
Continuous
 62
     7
100
AcDbLine
 10
171.4209248311
 20
282.0072635135
 30
0.0
 11
185.9209248311
 21
282.0072635135
 31
0.0
  0
LINE
  5
465
330
1B
100
AcDbEntity
 67
     1
  8
02___PRT_ALL_AXES
  6
Continuous
 62
     7
100
AcDbLine
 10
185.9209248311
 20
282.0072635135
 30
0.0
 11
186.0209248311
 21
282.0072635135
 31
0.0
  0
LINE
  5
466
330
1B
100
AcDbEntity
 67
     1
  8
02___PRT_ALL_AXES
  6
Continuous
 62
     7
100
AcDbLine
 10
186.0209248311
 20
282.0072635135
 30
0.0
 11
186.4208372782
 21
282.0072635135
 31
0.0
  0
LINE
  5
467
330
1B
100
AcDbEntity
 67
     1
  8
02___PRT_ALL_AXES
  6
Continuous
 62
     7
100
AcDbLine
 10
186.4208372782
 20
282.0072635135
 30
0.0
 11
188.4209248311
 21
282.0072635135
 31
0.0
  0
LINE
  5
468
330
1B
100
AcDbEntity
 67
     1
  8
02___PRT_ALL_AXES
  6
Continuous
 62
     7
100
AcDbLine
 10
188.4209248311
 20
282.0072635135
 30
0.0
 11
236.4209248311
 21
282.0072635135
 31
0.0
  0
LINE
  5
469
330
1B
100
AcDbEntity
 67
     1
  8
02___PRT_ALL_AXES
  6
Continuous
 62
     7
100
AcDbLine
 10
236.4209248311
 20
282.0072635135
 30
0.0
 11
236.4209248311
 21
285.0072635135
 31
0.0
  0
LINE
  5
46A
330
1B
100
AcDbEntity
 67
     1
  8
02___PRT_ALL_AXES
  6
Continuous
 62
     7
100
AcDbLine
 10
171.4209248311
 20
285.0072635135
 30
0.0
 11
186.0209248311
 21
285.0072635135
 31
0.0
  0
LINE
  5
46B
330
1B
100
AcDbEntity
 67
     1
  8
02___PRT_ALL_AXES
  6
Continuous
 62
     7
100
AcDbLine
 10
186.0209248311
 20
285.0072635135
 30
0.0
 11
227.0709248311
 21
285.0072635135
 31
0.0
  0
LINE
  5
46C
330
1B
100
AcDbEntity
 67
     1
  8
02___PRT_ALL_AXES
  6
Continuous
 62
     7
100
AcDbLine
 10
227.0709248311
 20
285.0072635135
 30
0.0
 11
228.5709248311
 21
285.0072635135
 31
0.0
  0
LINE
  5
46D
330
1B
100
AcDbEntity
 67
     1
  8
02___PRT_ALL_AXES
  6
Continuous
 62
     7
100
AcDbLine
 10
228.5709248311
 20
285.0072635135
 30
0.0
 11
231.5708593849
 21
285.0072635135
 31
0.0
  0
LINE
  5
46E
330
1B
100
AcDbEntity
 67
     1
  8
02___PRT_ALL_AXES
  6
Continuous
 62
     7
100
AcDbLine
 10
231.5708593849
 20
285.0072635135
 30
0.0
 11
236.4209248311
 21
285.0072635135
 31
0.0
  0
LINE
  5
46F
330
1B
100
AcDbEntity
 67
     1
  8
02___PRT_ALL_AXES
  6
Continuous
 62
     7
100
AcDbLine
 10
106.4209248311
 20
285.0072635135
 30
0.0
 11
111.2709902773
 21
285.0072635135
 31
0.0
  0
LINE
  5
470
330
1B
100
AcDbEntity
 67
     1
  8
02___PRT_ALL_AXES
  6
Continuous
 62
     7
100
AcDbLine
 10
111.2709902773
 20
285.0072635135
 30
0.0
 11
114.2709248311
 21
285.0072635135
 31
0.0
  0
LINE
  5
471
330
1B
100
AcDbEntity
 67
     1
  8
02___PRT_ALL_AXES
  6
Continuous
 62
     7
100
AcDbLine
 10
114.2709248311
 20
285.0072635135
 30
0.0
 11
115.7709248311
 21
285.0072635135
 31
0.0
  0
LINE
  5
472
330
1B
100
AcDbEntity
 67
     1
  8
02___PRT_ALL_AXES
  6
Continuous
 62
     7
100
AcDbLine
 10
115.7709248311
 20
285.0072635135
 30
0.0
 11
156.8209248311
 21
285.0072635135
 31
0.0
  0
LINE
  5
473
330
1B
100
AcDbEntity
 67
     1
  8
02___PRT_ALL_AXES
  6
Continuous
 62
     7
100
AcDbLine
 10
156.8209248311
 20
285.0072635135
 30
0.0
 11
171.4209248311
 21
285.0072635135
 31
0.0
  0
LINE
  5
474
330
1B
100
AcDbEntity
 67
     1
  8
02___PRT_ALL_AXES
  6
Continuous
 62
     7
100
AcDbLine
 10
106.4209248311
 20
282.0072635135
 30
0.0
 11
106.4209248311
 21
285.0072635135
 31
0.0
  0
LINE
  5
475
330
1B
100
AcDbEntity
 67
     1
  8
02___PRT_ALL_AXES
  6
Continuous
 62
     7
100
AcDbLine
 10
106.4209248311
 20
282.0072635135
 30
0.0
 11
154.4209248311
 21
282.0072635135
 31
0.0
  0
LINE
  5
476
330
1B
100
AcDbEntity
 67
     1
  8
02___PRT_ALL_AXES
  6
Continuous
 62
     7
100
AcDbLine
 10
154.4209248311
 20
282.0072635135
 30
0.0
 11
156.421012384
 21
282.0072635135
 31
0.0
  0
LINE
  5
477
330
1B
100
AcDbEntity
 67
     1
  8
02___PRT_ALL_AXES
  6
Continuous
 62
     7
100
AcDbLine
 10
156.421012384
 20
282.0072635135
 30
0.0
 11
156.8209248311
 21
282.0072635135
 31
0.0
  0
LINE
  5
478
330
1B
100
AcDbEntity
 67
     1
  8
02___PRT_ALL_AXES
  6
Continuous
 62
     7
100
AcDbLine
 10
156.8209248311
 20
282.0072635135
 30
0.0
 11
156.9209248311
 21
282.0072635135
 31
0.0
  0
LINE
  5
479
330
1B
100
AcDbEntity
 67
     1
  8
02___PRT_ALL_AXES
  6
Continuous
 62
     7
100
AcDbLine
 10
156.9209248311
 20
282.0072635135
 30
0.0
 11
171.4209248311
 21
282.0072635135
 31
0.0
  0
LINE
  5
47A
330
1B
100
AcDbEntity
 67
     1
  8
02___PRT_ALL_AXES
  6
Continuous
 62
     7
100
AcDbLine
 10
171.4209248311
 20
277.0072635135
 30
0.0
 11
170.973498281
 21
277.0072635135
 31
0.0
  0
LINE
  5
47B
330
1B
100
AcDbEntity
 67
     1
  8
02___PRT_ALL_AXES
  6
Continuous
 62
     7
100
AcDbLine
 10
164.4634358068
 20
277.0072635135
 30
0.0
 11
163.6933751151
 21
277.0072635135
 31
0.0
  0
LINE
  5
47C
330
1B
100
AcDbEntity
 67
     1
  8
02___PRT_ALL_AXES
  6
Continuous
 62
     7
100
AcDbLine
 10
158.8403098871
 20
277.0072635135
 30
0.0
 11
158.4111307863
 21
277.0072635135
 31
0.0
  0
LINE
  5
47D
330
1B
100
AcDbEntity
 67
     1
  8
02___PRT_ALL_AXES
  6
Continuous
 62
     7
100
AcDbLine
 10
156.4505239047
 20
277.0072635135
 30
0.0
 11
156.421012384
 21
277.0072635135
 31
0.0
  0
LINE
  5
47E
330
1B
100
AcDbEntity
 67
     1
  8
02___PRT_ALL_AXES
  6
Continuous
 62
     7
100
AcDbLine
 10
171.4209248311
 20
277.0072635135
 30
0.0
 11
171.8683513812
 21
277.0072635135
 31
0.0
  0
LINE
  5
47F
330
1B
100
AcDbEntity
 67
     1
  8
02___PRT_ALL_AXES
  6
Continuous
 62
     7
100
AcDbLine
 10
178.3784138553
 20
277.0072635135
 30
0.0
 11
179.148474547
 21
277.0072635135
 31
0.0
  0
LINE
  5
480
330
1B
100
AcDbEntity
 67
     1
  8
02___PRT_ALL_AXES
  6
Continuous
 62
     7
100
AcDbLine
 10
184.0015397751
 20
277.0072635135
 30
0.0
 11
184.4307188759
 21
277.0072635135
 31
0.0
  0
LINE
  5
481
330
1B
100
AcDbEntity
 67
     1
  8
02___PRT_ALL_AXES
  6
Continuous
 62
     7
100
AcDbLine
 10
186.3927751386
 20
277.0072635135
 30
0.0
 11
186.4208372782
 21
277.0072635135
 31
0.0
  0
LINE
  5
482
330
1B
100
AcDbEntity
 67
     1
  8
02___PRT_ALL_AXES
  6
Continuous
 62
     7
100
AcDbLine
 10
156.4209248311
 20
280.0072635135
 30
0.0
 11
156.4209248311
 21
277.0072635135
 31
0.0
  0
LINE
  5
483
330
1B
100
AcDbEntity
 67
     1
  8
02___PRT_ALL_AXES
  6
Continuous
 62
     7
100
AcDbLine
 10
186.4209248311
 20
280.0072635135
 30
0.0
 11
186.4209248311
 21
277.0072635135
 31
0.0
  0
LINE
  5
484
330
1B
100
AcDbEntity
 67
     1
  8
02___PRT_ALL_AXES
  6
Continuous
 62
     7
100
AcDbLine
 10
157.7954248311
 20
248.0072635135
 30
0.0
 11
162.4209248311
 21
248.0072635135
 31
0.0
  0
LINE
  5
485
330
1B
100
AcDbEntity
 67
     1
  8
02___PRT_ALL_AXES
  6
Continuous
 62
     7
100
AcDbLine
 10
162.4209248311
 20
248.0072635135
 30
0.0
 11
180.4209248311
 21
248.0072635135
 31
0.0
  0
LINE
  5
486
330
1B
100
AcDbEntity
 67
     1
  8
02___PRT_ALL_AXES
  6
Continuous
 62
     7
100
AcDbLine
 10
180.4209248311
 20
248.0072635135
 30
0.0
 11
185.0464248311
 21
248.0072635135
 31
0.0
  0
LINE
  5
487
330
1B
100
AcDbEntity
 67
     1
  8
02___PRT_ALL_AXES
  6
Continuous
 62
     7
100
AcDbLine
 10
185.0464248311
 20
250.5072635135
 30
0.0
 11
185.0464248311
 21
248.0072635135
 31
0.0
  0
LINE
  5
488
330
1B
100
AcDbEntity
 67
     1
  8
02___PRT_ALL_AXES
  6
Continuous
 62
     7
100
AcDbLine
 10
157.7954248311
 20
250.5072635135
 30
0.0
 11
157.7954248311
 21
248.0072635135
 31
0.0
  0
LINE
  5
489
330
1B
100
AcDbEntity
 67
     1
  8
02___PRT_ALL_AXES
  6
Continuous
 62
     7
100
AcDbLine
 10
158.3494073443
 20
252.0072635135
 30
0.0
 11
157.7954248311
 21
250.5072635135
 31
0.0
  0
LINE
  5
48A
330
1B
100
AcDbEntity
 67
     1
  8
02___PRT_ALL_AXES
  6
Continuous
 62
     7
100
AcDbLine
 10
184.4924423179
 20
252.0072635135
 30
0.0
 11
185.0464248311
 21
250.5072635135
 31
0.0
  0
LINE
  5
48B
330
1B
100
AcDbEntity
 67
     1
  8
02___PRT_ALL_AXES
  6
Continuous
 62
     7
100
AcDbLine
 10
157.4733801767
 20
271.2072635135
 30
0.0
 11
156.4490745236
 21
271.2072635135
 31
0.0
  0
LINE
  5
48C
330
1B
100
AcDbEntity
 67
     1
  8
02___PRT_ALL_AXES
  6
Continuous
 62
     7
100
AcDbLine
 10
162.2349191564
 20
271.2072635135
 30
0.0
 11
159.4364640696
 21
271.2072635135
 31
0.0
  0
LINE
  5
48D
330
1B
100
AcDbEntity
 67
     1
  8
02___PRT_ALL_AXES
  6
Continuous
 62
     7
100
AcDbLine
 10
186.3927751386
 20
271.2072635135
 30
0.0
 11
185.3684694854
 21
271.2072635135
 31
0.0
  0
LINE
  5
48E
330
1B
100
AcDbEntity
 67
     1
  8
02___PRT_ALL_AXES
  6
Continuous
 62
     7
100
AcDbLine
 10
169.4578409382
 20
271.2072635135
 30
0.0
 11
165.6350801983
 21
271.2072635135
 31
0.0
  0
LINE
  5
48F
330
1B
100
AcDbEntity
 67
     1
  8
02___PRT_ALL_AXES
  6
Continuous
 62
     7
100
AcDbLine
 10
183.4053855926
 20
271.2072635135
 30
0.0
 11
180.6069305058
 21
271.2072635135
 31
0.0
  0
LINE
  5
490
330
1B
100
AcDbEntity
 67
     1
  8
02___PRT_ALL_AXES
  6
Continuous
 62
     7
100
AcDbLine
 10
177.2067694638
 20
271.2072635135
 30
0.0
 11
173.3840087239
 21
271.2072635135
 31
0.0
  0
LINE
  5
491
330
1B
100
AcDbEntity
 67
     1
  8
02___PRT_ALL_AXES
  6
Continuous
 62
     7
100
AcDbLine
 10
162.8489248311
 20
271.5072635135
 30
0.0
 11
162.8489248311
 21
271.2072635135
 31
0.0
  0
LINE
  5
492
330
1B
100
AcDbEntity
 67
     1
  8
02___PRT_ALL_AXES
  6
Continuous
 62
     7
100
AcDbLine
 10
179.9929248311
 20
271.5072635135
 30
0.0
 11
179.9929248311
 21
271.2072635135
 31
0.0
  0
LINE
  5
493
330
1B
100
AcDbEntity
 67
     1
  8
02___PRT_ALL_AXES
  6
Continuous
 62
     7
100
AcDbLine
 10
177.2067694638
 20
252.0072635135
 30
0.0
 11
173.3840087239
 21
252.0072635135
 31
0.0
  0
LINE
  5
494
330
1B
100
AcDbEntity
 67
     1
  8
02___PRT_ALL_AXES
  6
Continuous
 62
     7
100
AcDbLine
 10
169.4578409382
 20
252.0072635135
 30
0.0
 11
165.6350801983
 21
252.0072635135
 31
0.0
  0
LINE
  5
495
330
1B
100
AcDbEntity
 67
     1
  8
02___PRT_ALL_AXES
  6
Continuous
 62
     7
100
AcDbLine
 10
186.3927751386
 20
252.0072635135
 30
0.0
 11
186.3927751386
 21
271.2072635135
 31
0.0
  0
LINE
  5
496
330
1B
100
AcDbEntity
 67
     1
  8
02___PRT_ALL_AXES
  6
Continuous
 62
     7
100
AcDbLine
 10
162.2349191564
 20
252.0072635135
 30
0.0
 11
159.4364640696
 21
252.0072635135
 31
0.0
  0
LINE
  5
497
330
1B
100
AcDbEntity
 67
     1
  8
02___PRT_ALL_AXES
  6
Continuous
 62
     7
100
AcDbLine
 10
157.4733801767
 20
252.0072635135
 30
0.0
 11
156.4490745236
 21
252.0072635135
 31
0.0
  0
LINE
  5
498
330
1B
100
AcDbEntity
 67
     1
  8
02___PRT_ALL_AXES
  6
Continuous
 62
     7
100
AcDbLine
 10
186.3927751386
 20
252.0072635135
 30
0.0
 11
185.3684694854
 21
252.0072635135
 31
0.0
  0
LINE
  5
499
330
1B
100
AcDbEntity
 67
     1
  8
02___PRT_ALL_AXES
  6
Continuous
 62
     7
100
AcDbLine
 10
185.3684694854
 20
271.2072635135
 30
0.0
 11
183.4053855926
 21
271.2072635135
 31
0.0
  0
LINE
  5
49A
330
1B
100
AcDbEntity
 67
     1
  8
02___PRT_ALL_AXES
  6
Continuous
 62
     7
100
AcDbLine
 10
185.3684694854
 20
252.0072635135
 30
0.0
 11
183.4053855926
 21
252.0072635135
 31
0.0
  0
LINE
  5
49B
330
1B
100
AcDbEntity
 67
     1
  8
02___PRT_ALL_AXES
  6
Continuous
 62
     7
100
AcDbLine
 10
186.3927751386
 20
277.0072635135
 30
0.0
 11
184.4307188759
 21
277.0072635135
 31
0.0
  0
LINE
  5
49C
330
1B
100
AcDbEntity
 67
     1
  8
02___PRT_ALL_AXES
  6
Continuous
 62
     7
100
AcDbLine
 10
184.0015397751
 20
277.0072635135
 30
0.0
 11
182.3810799395
 21
277.0072635135
 31
0.0
  0
LINE
  5
49D
330
1B
100
AcDbEntity
 67
     1
  8
02___PRT_ALL_AXES
  6
Continuous
 62
     7
100
AcDbLine
 10
186.3927751386
 20
277.0072635135
 30
0.0
 11
186.3927751386
 21
271.5072635135
 31
0.0
  0
LINE
  5
49E
330
1B
100
AcDbEntity
 67
     1
  8
02___PRT_ALL_AXES
  6
Continuous
 62
     7
100
AcDbLine
 10
186.3927751386
 20
271.5072635135
 30
0.0
 11
182.3810799395
 21
271.5072635135
 31
0.0
  0
LINE
  5
49F
330
1B
100
AcDbEntity
 67
     1
  8
02___PRT_ALL_AXES
  6
Continuous
 62
     7
100
AcDbLine
 10
182.3810799395
 20
277.0072635135
 30
0.0
 11
179.148474547
 21
277.0072635135
 31
0.0
  0
LINE
  5
4A0
330
1B
100
AcDbEntity
 67
     1
  8
02___PRT_ALL_AXES
  6
Continuous
 62
     7
100
AcDbLine
 10
178.3784138553
 20
277.0072635135
 30
0.0
 11
175.4326200302
 21
277.0072635135
 31
0.0
  0
LINE
  5
4A1
330
1B
100
AcDbEntity
 67
     1
  8
02___PRT_ALL_AXES
  6
Continuous
 62
     7
100
AcDbLine
 10
182.3810799395
 20
271.5072635135
 30
0.0
 11
175.4326200302
 21
271.5072635135
 31
0.0
  0
LINE
  5
4A2
330
1B
100
AcDbEntity
 67
     1
  8
02___PRT_ALL_AXES
  6
Continuous
 62
     7
100
AcDbLine
 10
180.6069305058
 20
271.2072635135
 30
0.0
 11
177.2067694638
 21
271.2072635135
 31
0.0
  0
LINE
  5
4A3
330
1B
100
AcDbEntity
 67
     1
  8
02___PRT_ALL_AXES
  6
Continuous
 62
     7
100
AcDbLine
 10
180.6069305058
 20
252.0072635135
 30
0.0
 11
177.2067694638
 21
252.0072635135
 31
0.0
  0
LINE
  5
4A4
330
1B
100
AcDbEntity
 67
     1
  8
02___PRT_ALL_AXES
  6
Continuous
 62
     7
100
AcDbLine
 10
175.4326200302
 20
271.5072635135
 30
0.0
 11
167.409229632
 21
271.5072635135
 31
0.0
  0
LINE
  5
4A5
330
1B
100
AcDbEntity
 67
     1
  8
02___PRT_ALL_AXES
  6
Continuous
 62
     7
100
AcDbLine
 10
175.4326200302
 20
277.0072635135
 30
0.0
 11
171.8683513812
 21
277.0072635135
 31
0.0
  0
LINE
  5
4A6
330
1B
100
AcDbEntity
 67
     1
  8
02___PRT_ALL_AXES
  6
Continuous
 62
     7
100
AcDbLine
 10
170.973498281
 20
277.0072635135
 30
0.0
 11
167.409229632
 21
277.0072635135
 31
0.0
  0
LINE
  5
4A7
330
1B
100
AcDbEntity
 67
     1
  8
02___PRT_ALL_AXES
  6
Continuous
 62
     7
100
AcDbLine
 10
173.3840087239
 20
271.2072635135
 30
0.0
 11
169.4578409382
 21
271.2072635135
 31
0.0
  0
LINE
  5
4A8
330
1B
100
AcDbEntity
 67
     1
  8
02___PRT_ALL_AXES
  6
Continuous
 62
     7
100
AcDbLine
 10
173.3840087239
 20
252.0072635135
 30
0.0
 11
169.4578409382
 21
252.0072635135
 31
0.0
  0
LINE
  5
4A9
330
1B
100
AcDbEntity
 67
     1
  8
02___PRT_ALL_AXES
  6
Continuous
 62
     7
100
AcDbLine
 10
165.6350801983
 20
271.2072635135
 30
0.0
 11
162.2349191564
 21
271.2072635135
 31
0.0
  0
LINE
  5
4AA
330
1B
100
AcDbEntity
 67
     1
  8
02___PRT_ALL_AXES
  6
Continuous
 62
     7
100
AcDbLine
 10
165.6350801983
 20
252.0072635135
 30
0.0
 11
162.2349191564
 21
252.0072635135
 31
0.0
  0
LINE
  5
4AB
330
1B
100
AcDbEntity
 67
     1
  8
02___PRT_ALL_AXES
  6
Continuous
 62
     7
100
AcDbLine
 10
167.409229632
 20
277.0072635135
 30
0.0
 11
164.4634358068
 21
277.0072635135
 31
0.0
  0
LINE
  5
4AC
330
1B
100
AcDbEntity
 67
     1
  8
02___PRT_ALL_AXES
  6
Continuous
 62
     7
100
AcDbLine
 10
163.6933751151
 20
277.0072635135
 30
0.0
 11
160.4607697227
 21
277.0072635135
 31
0.0
  0
LINE
  5
4AD
330
1B
100
AcDbEntity
 67
     1
  8
02___PRT_ALL_AXES
  6
Continuous
 62
     7
100
AcDbLine
 10
167.409229632
 20
271.5072635135
 30
0.0
 11
160.4607697227
 21
271.5072635135
 31
0.0
  0
LINE
  5
4AE
330
1B
100
AcDbEntity
 67
     1
  8
02___PRT_ALL_AXES
  6
Continuous
 62
     7
100
AcDbLine
 10
159.4364640696
 20
271.2072635135
 30
0.0
 11
157.4733801767
 21
271.2072635135
 31
0.0
  0
LINE
  5
4AF
330
1B
100
AcDbEntity
 67
     1
  8
02___PRT_ALL_AXES
  6
Continuous
 62
     7
100
AcDbLine
 10
159.4364640696
 20
252.0072635135
 30
0.0
 11
157.4733801767
 21
252.0072635135
 31
0.0
  0
LINE
  5
4B0
330
1B
100
AcDbEntity
 67
     1
  8
02___PRT_ALL_AXES
  6
Continuous
 62
     7
100
AcDbLine
 10
160.4607697227
 20
277.0072635135
 30
0.0
 11
158.8403098871
 21
277.0072635135
 31
0.0
  0
LINE
  5
4B1
330
1B
100
AcDbEntity
 67
     1
  8
02___PRT_ALL_AXES
  6
Continuous
 62
     7
100
AcDbLine
 10
158.4111307863
 20
277.0072635135
 30
0.0
 11
156.4490745236
 21
277.0072635135
 31
0.0
  0
LINE
  5
4B2
330
1B
100
AcDbEntity
 67
     1
  8
02___PRT_ALL_AXES
  6
Continuous
 62
     7
100
AcDbLine
 10
160.4607697227
 20
271.5072635135
 30
0.0
 11
156.4490745236
 21
271.5072635135
 31
0.0
  0
LINE
  5
4B3
330
1B
100
AcDbEntity
 67
     1
  8
02___PRT_ALL_AXES
  6
Continuous
 62
     7
100
AcDbLine
 10
183.4053855926
 20
252.0072635135
 30
0.0
 11
180.6069305058
 21
252.0072635135
 31
0.0
  0
LINE
  5
4B4
330
1B
100
AcDbEntity
 67
     1
  8
02___PRT_ALL_AXES
  6
Continuous
 62
     7
100
AcDbLine
 10
156.4490745236
 20
252.0072635135
 30
0.0
 11
156.4490745236
 21
271.2072635135
 31
0.0
  0
LINE
  5
4B5
330
1B
100
AcDbEntity
 67
     1
  8
02___PRT_ALL_AXES
  6
Continuous
 62
     7
100
AcDbLine
 10
156.4490745236
 20
277.0072635135
 30
0.0
 11
156.4490745236
 21
271.5072635135
 31
0.0
  0
LINE
  5
4B6
330
1B
100
AcDbEntity
 67
     1
  8
02___PRT_ALL_AXES
  6
Continuous
 62
     7
100
AcDbLine
 10
165.6350801983
 20
252.0072635135
 30
0.0
 11
165.6350801983
 21
271.2072635135
 31
0.0
  0
LINE
  5
4B7
330
1B
100
AcDbEntity
 67
     1
  8
02___PRT_ALL_AXES
  6
Continuous
 62
     7
100
AcDbLine
 10
180.6069305058
 20
252.0072635135
 30
0.0
 11
180.6069305058
 21
271.2072635135
 31
0.0
  0
LINE
  5
4B8
330
1B
100
AcDbEntity
 67
     1
  8
02___PRT_ALL_AXES
  6
Continuous
 62
     7
100
AcDbLine
 10
162.2349191564
 20
252.0072635135
 30
0.0
 11
162.2349191564
 21
271.2072635135
 31
0.0
  0
LINE
  5
4B9
330
1B
100
AcDbEntity
 67
     1
  8
02___PRT_ALL_AXES
  6
Continuous
 62
     7
100
AcDbLine
 10
167.409229632
 20
277.0072635135
 30
0.0
 11
167.409229632
 21
271.5072635135
 31
0.0
  0
LINE
  5
4BA
330
1B
100
AcDbEntity
 67
     1
  8
02___PRT_ALL_AXES
  6
Continuous
 62
     7
100
AcDbLine
 10
177.2067694638
 20
252.0072635135
 30
0.0
 11
177.2067694638
 21
271.2072635135
 31
0.0
  0
LINE
  5
4BB
330
1B
100
AcDbEntity
 67
     1
  8
02___PRT_ALL_AXES
  6
Continuous
 62
     7
100
AcDbLine
 10
175.4326200302
 20
277.0072635135
 30
0.0
 11
175.4326200302
 21
271.5072635135
 31
0.0
  0
LINE
  5
4BC
330
1B
100
AcDbEntity
 67
     1
  8
02___PRT_ALL_AXES
  6
Continuous
 62
     7
100
AcDbLine
 10
159.4364640696
 20
252.0072635135
 30
0.0
 11
159.4364640696
 21
271.2072635135
 31
0.0
  0
LINE
  5
4BD
330
1B
100
AcDbEntity
 67
     1
  8
02___PRT_ALL_AXES
  6
Continuous
 62
     7
100
AcDbLine
 10
185.3684694854
 20
252.0072635135
 30
0.0
 11
185.3684694854
 21
271.2072635135
 31
0.0
  0
LINE
  5
4BE
330
1B
100
AcDbEntity
 67
     1
  8
02___PRT_ALL_AXES
  6
Continuous
 62
     7
100
AcDbLine
 10
157.4733801767
 20
252.0072635135
 30
0.0
 11
157.4733801767
 21
271.2072635135
 31
0.0
  0
LINE
  5
4BF
330
1B
100
AcDbEntity
 67
     1
  8
02___PRT_ALL_AXES
  6
Continuous
 62
     7
100
AcDbLine
 10
185.0464248311
 20
250.5072635135
 30
0.0
 11
157.7954248311
 21
250.5072635135
 31
0.0
  0
LINE
  5
4C0
330
1B
100
AcDbEntity
 67
     1
  8
02___PRT_ALL_AXES
  6
Continuous
 62
     7
100
AcDbLine
 10
160.4607697227
 20
277.0072635135
 30
0.0
 11
160.4607697227
 21
271.5072635135
 31
0.0
  0
LINE
  5
4C1
330
1B
100
AcDbEntity
 67
     1
  8
02___PRT_ALL_AXES
  6
Continuous
 62
     7
100
AcDbLine
 10
182.3810799395
 20
277.0072635135
 30
0.0
 11
182.3810799395
 21
271.5072635135
 31
0.0
  0
LINE
  5
4C2
330
1B
100
AcDbEntity
 67
     1
  8
02___PRT_ALL_AXES
  6
Continuous
 62
     7
100
AcDbLine
 10
173.3840087239
 20
252.0072635135
 30
0.0
 11
173.3840087239
 21
271.2072635135
 31
0.0
  0
LINE
  5
4C3
330
1B
100
AcDbEntity
 67
     1
  8
02___PRT_ALL_AXES
  6
Continuous
 62
     7
100
AcDbLine
 10
183.4053855926
 20
252.0072635135
 30
0.0
 11
183.4053855926
 21
271.2072635135
 31
0.0
  0
LINE
  5
4C4
330
1B
100
AcDbEntity
 67
     1
  8
02___PRT_ALL_AXES
  6
Continuous
 62
     7
100
AcDbLine
 10
169.4578409382
 20
252.0072635135
 30
0.0
 11
169.4578409382
 21
271.2072635135
 31
0.0
  0
LINE
  5
4C5
330
1B
100
AcDbEntity
 67
     1
  8
02___PRT_ALL_AXES
  6
Continuous
 62
     7
100
AcDbLine
 10
114.2709248311
 20
372.0073256957
 30
0.0
 11
114.2709248311
 21
288.0072013314
 31
0.0
  0
LINE
  5
4C6
330
1B
100
AcDbEntity
 67
     1
  8
02___PRT_ALL_AXES
  6
Continuous
 62
     7
100
AcDbLine
 10
228.5709248311
 20
372.0073256957
 30
0.0
 11
228.5709248311
 21
288.0072013314
 31
0.0
  0
LINE
  5
4C7
330
1B
100
AcDbEntity
 67
     1
  8
7_ALL_FEATURES
  6
Continuous
 62
     2
100
AcDbLine
 10
171.4209248311
 20
280.0072635135
 30
0.0
 11
186.4209248311
 21
280.0072635135
 31
0.0
  0
LINE
  5
4C8
330
1B
100
AcDbEntity
 67
     1
  8
7_ALL_FEATURES
  6
Continuous
 62
     2
100
AcDbLine
 10
171.4209310077
 20
375.0072635135
 30
0.0
 11
160.5862667482
 21
375.0072635135
 31
0.0
  0
LINE
  5
4C9
330
1B
100
AcDbEntity
 67
     1
  8
7_ALL_FEATURES
  6
Continuous
 62
     2
100
AcDbLine
 10
160.5862667482
 20
375.0072635135
 30
0.0
 11
160.039388035
 21
375.0072635135
 31
0.0
  0
LINE
  5
4CA
330
1B
100
AcDbEntity
 67
     1
  8
7_ALL_FEATURES
  6
Continuous
 62
     2
100
AcDbLine
 10
160.039388035
 20
375.0072635135
 30
0.0
 11
159.7460016535
 21
375.0072635135
 31
0.0
  0
LINE
  5
4CB
330
1B
100
AcDbEntity
 67
     1
  8
7_ALL_FEATURES
  6
Continuous
 62
     2
100
AcDbLine
 10
159.7460016535
 20
375.0072635135
 30
0.0
 11
155.9023525036
 21
375.0072635135
 31
0.0
  0
LINE
  5
4CC
330
1B
100
AcDbEntity
 67
     1
  8
7_ALL_FEATURES
  6
Continuous
 62
     2
100
AcDbLine
 10
155.9023525036
 20
375.0072635135
 30
0.0
 11
152.8989684484
 21
375.0072635135
 31
0.0
  0
LINE
  5
4CD
330
1B
100
AcDbEntity
 67
     1
  8
7_ALL_FEATURES
  6
Continuous
 62
     2
100
AcDbLine
 10
152.8989684484
 20
375.0072635135
 30
0.0
 11
137.0119299863
 21
375.0072635135
 31
0.0
  0
LINE
  5
4CE
330
1B
100
AcDbEntity
 67
     1
  8
7_ALL_FEATURES
  6
Continuous
 62
     2
100
AcDbLine
 10
137.0119299863
 20
375.0072635135
 30
0.0
 11
134.6364241709
 21
375.0072635135
 31
0.0
  0
LINE
  5
4CF
330
1B
100
AcDbEntity
 67
     1
  8
7_ALL_FEATURES
  6
Continuous
 62
     2
100
AcDbLine
 10
134.6364241709
 20
375.0072635135
 30
0.0
 11
134.2372037769
 21
375.0072635135
 31
0.0
  0
LINE
  5
4D0
330
1B
100
AcDbEntity
 67
     1
  8
7_ALL_FEATURES
  6
Continuous
 62
     2
100
AcDbLine
 10
134.2372037769
 20
375.0072635135
 30
0.0
 11
133.9209248311
 21
375.0072635135
 31
0.0
  0
LINE
  5
4D1
330
1B
100
AcDbEntity
 67
     1
  8
7_ALL_FEATURES
  6
Continuous
 62
     2
100
AcDbLine
 10
133.9209248311
 20
375.0072635135
 30
0.0
 11
130.6171117828
 21
375.0072635135
 31
0.0
  0
LINE
  5
4D2
330
1B
100
AcDbEntity
 67
     1
  8
7_ALL_FEATURES
  6
Continuous
 62
     2
100
AcDbLine
 10
130.6171117828
 20
375.0072635135
 30
0.0
 11
128.9733052102
 21
375.0072635135
 31
0.0
  0
LINE
  5
4D3
330
1B
100
AcDbEntity
 67
     1
  8
7_ALL_FEATURES
  6
Continuous
 62
     2
100
AcDbLine
 10
128.9733052102
 20
375.0072635135
 30
0.0
 11
115.7709248311
 21
375.0072635135
 31
0.0
  0
LINE
  5
4D4
330
1B
100
AcDbEntity
 67
     1
  8
7_ALL_FEATURES
  6
Continuous
 62
     2
100
AcDbLine
 10
115.7709248311
 20
375.0072635135
 30
0.0
 11
114.5785364127
 21
375.0072635135
 31
0.0
  0
LINE
  5
4D5
330
1B
100
AcDbEntity
 67
     1
  8
7_ALL_FEATURES
  6
Continuous
 62
     2
100
AcDbLine
 10
114.5785364127
 20
375.0072635135
 30
0.0
 11
114.2709248311
 21
375.0072635135
 31
0.0
  0
LINE
  5
4D6
330
1B
100
AcDbEntity
 67
     1
  8
7_ALL_FEATURES
  6
Continuous
 62
     2
100
AcDbLine
 10
114.2709248311
 20
375.0072635135
 30
0.0
 11
111.5434854762
 21
375.0072635135
 31
0.0
  0
LINE
  5
4D7
330
1B
100
AcDbEntity
 67
     1
  8
7_ALL_FEATURES
  6
Continuous
 62
     2
100
AcDbLine
 10
111.5434854762
 20
375.0072635135
 30
0.0
 11
111.2709902773
 21
375.0072635135
 31
0.0
  0
LINE
  5
4D8
330
1B
100
AcDbEntity
 67
     1
  8
7_ALL_FEATURES
  6
Continuous
 62
     2
100
AcDbLine
 10
171.4209248307
 20
372.0068591699
 30
0.0
 11
114.2709248311
 21
372.0073256957
 31
0.0
  0
LINE
  5
4D9
330
1B
100
AcDbEntity
 67
     1
  8
7_ALL_FEATURES
  6
Continuous
 62
     2
100
AcDbLine
 10
171.4209248314
 20
288.0076678571
 30
0.0
 11
228.5709248311
 21
288.0072013314
 31
0.0
  0
LINE
  5
4DA
330
1B
100
AcDbEntity
 67
     1
  8
7_ALL_FEATURES
  6
Continuous
 62
     6
100
AcDbLine
 10
186.4209248311
 20
280.0072635135
 30
0.0
 11
188.4209248311
 21
282.0072635135
 31
0.0
  0
LINE
  5
4DB
330
1B
100
AcDbEntity
 67
     1
  8
7_ALL_FEATURES
  6
Continuous
 62
     6
100
AcDbLine
 10
154.4209248311
 20
282.0072635135
 30
0.0
 11
156.4209248311
 21
280.0072635135
 31
0.0
  0
LINE
  5
4DC
330
1B
100
AcDbEntity
 67
     1
  8
7_ALL_FEATURES
  6
Continuous
 62
     2
100
AcDbLine
 10
156.4209248311
 20
280.0072635135
 30
0.0
 11
171.4209248311
 21
280.0072635135
 31
0.0
  0
LINE
  5
4DD
330
1B
100
AcDbEntity
 67
     1
  8
7_ALL_FEATURES
  6
Continuous
 62
     6
100
AcDbLine
 10
111.2709902773
 20
375.0072635135
 30
0.0
 11
111.3459574726
 21
374.9322962366
 31
0.0
  0
LINE
  5
4DE
330
1B
100
AcDbEntity
 67
     1
  8
7_ALL_FEATURES
  6
Continuous
 62
     6
100
AcDbLine
 10
111.3459574726
 20
374.9322962366
 30
0.0
 11
114.2709248311
 21
372.0073256957
 31
0.0
  0
LINE
  5
4DF
330
1B
100
AcDbEntity
 67
     1
  8
7_ALL_FEATURES
  6
Continuous
 62
     6
100
AcDbLine
 10
228.5709248311
 20
372.0073256957
 30
0.0
 11
231.4958921895
 21
374.9322962366
 31
0.0
  0
LINE
  5
4E0
330
1B
100
AcDbEntity
 67
     1
  8
7_ALL_FEATURES
  6
Continuous
 62
     6
100
AcDbLine
 10
231.4958921895
 20
374.9322962366
 30
0.0
 11
231.5708593849
 21
375.0072635135
 31
0.0
  0
LINE
  5
4E1
330
1B
100
AcDbEntity
 67
     1
  8
7_ALL_FEATURES
  6
Continuous
 62
     2
100
AcDbLine
 10
228.5709248311
 20
372.0073256957
 30
0.0
 11
171.4209248314
 21
372.0068591699
 31
0.0
  0
LINE
  5
4E2
330
1B
100
AcDbEntity
 67
     1
  8
7_ALL_FEATURES
  6
Continuous
 62
     2
100
AcDbLine
 10
231.5708593849
 20
375.0072635135
 30
0.0
 11
231.298364186
 21
375.0072635135
 31
0.0
  0
LINE
  5
4E3
330
1B
100
AcDbEntity
 67
     1
  8
7_ALL_FEATURES
  6
Continuous
 62
     2
100
AcDbLine
 10
231.298364186
 20
375.0072635135
 30
0.0
 11
228.5709248311
 21
375.0072635135
 31
0.0
  0
LINE
  5
4E4
330
1B
100
AcDbEntity
 67
     1
  8
7_ALL_FEATURES
  6
Continuous
 62
     2
100
AcDbLine
 10
228.5709248311
 20
375.0072635135
 30
0.0
 11
228.2633132495
 21
375.0072635135
 31
0.0
  0
LINE
  5
4E5
330
1B
100
AcDbEntity
 67
     1
  8
7_ALL_FEATURES
  6
Continuous
 62
     2
100
AcDbLine
 10
228.2633132495
 20
375.0072635135
 30
0.0
 11
227.0709248311
 21
375.0072635135
 31
0.0
  0
LINE
  5
4E6
330
1B
100
AcDbEntity
 67
     1
  8
7_ALL_FEATURES
  6
Continuous
 62
     2
100
AcDbLine
 10
227.0709248311
 20
375.0072635135
 30
0.0
 11
213.8685444519
 21
375.0072635135
 31
0.0
  0
LINE
  5
4E7
330
1B
100
AcDbEntity
 67
     1
  8
7_ALL_FEATURES
  6
Continuous
 62
     2
100
AcDbLine
 10
213.8685444519
 20
375.0072635135
 30
0.0
 11
212.2247378793
 21
375.0072635135
 31
0.0
  0
LINE
  5
4E8
330
1B
100
AcDbEntity
 67
     1
  8
7_ALL_FEATURES
  6
Continuous
 62
     2
100
AcDbLine
 10
212.2247378793
 20
375.0072635135
 30
0.0
 11
208.9209248311
 21
375.0072635135
 31
0.0
  0
LINE
  5
4E9
330
1B
100
AcDbEntity
 67
     1
  8
7_ALL_FEATURES
  6
Continuous
 62
     2
100
AcDbLine
 10
208.9209248311
 20
375.0072635135
 30
0.0
 11
208.6046458853
 21
375.0072635135
 31
0.0
  0
LINE
  5
4EA
330
1B
100
AcDbEntity
 67
     1
  8
7_ALL_FEATURES
  6
Continuous
 62
     2
100
AcDbLine
 10
208.6046458853
 20
375.0072635135
 30
0.0
 11
208.2054254913
 21
375.0072635135
 31
0.0
  0
LINE
  5
4EB
330
1B
100
AcDbEntity
 67
     1
  8
7_ALL_FEATURES
  6
Continuous
 62
     2
100
AcDbLine
 10
208.2054254913
 20
375.0072635135
 30
0.0
 11
205.8299196759
 21
375.0072635135
 31
0.0
  0
LINE
  5
4EC
330
1B
100
AcDbEntity
 67
     1
  8
7_ALL_FEATURES
  6
Continuous
 62
     2
100
AcDbLine
 10
205.8299196759
 20
375.0072635135
 30
0.0
 11
189.9428812138
 21
375.0072635135
 31
0.0
  0
LINE
  5
4ED
330
1B
100
AcDbEntity
 67
     1
  8
7_ALL_FEATURES
  6
Continuous
 62
     2
100
AcDbLine
 10
189.9428812138
 20
375.0072635135
 30
0.0
 11
186.9394971585
 21
375.0072635135
 31
0.0
  0
LINE
  5
4EE
330
1B
100
AcDbEntity
 67
     1
  8
7_ALL_FEATURES
  6
Continuous
 62
     2
100
AcDbLine
 10
186.9394971585
 20
375.0072635135
 30
0.0
 11
183.0958480086
 21
375.0072635135
 31
0.0
  0
LINE
  5
4EF
330
1B
100
AcDbEntity
 67
     1
  8
7_ALL_FEATURES
  6
Continuous
 62
     2
100
AcDbLine
 10
183.0958480086
 20
375.0072635135
 30
0.0
 11
182.8024616271
 21
375.0072635135
 31
0.0
  0
LINE
  5
4F0
330
1B
100
AcDbEntity
 67
     1
  8
7_ALL_FEATURES
  6
Continuous
 62
     2
100
AcDbLine
 10
182.8024616271
 20
375.0072635135
 30
0.0
 11
182.255582914
 21
375.0072635135
 31
0.0
  0
LINE
  5
4F1
330
1B
100
AcDbEntity
 67
     1
  8
7_ALL_FEATURES
  6
Continuous
 62
     2
100
AcDbLine
 10
182.255582914
 20
375.0072635135
 30
0.0
 11
171.4209186545
 21
375.0072635135
 31
0.0
  0
LINE
  5
4F2
330
1B
100
AcDbEntity
 67
     1
  8
7_ALL_FEATURES
  6
Continuous
 62
     6
100
AcDbLine
 10
114.2709248311
 20
288.0072013314
 30
0.0
 11
111.2709902773
 21
285.0072635135
 31
0.0
  0
LINE
  5
4F3
330
1B
100
AcDbEntity
 67
     1
  8
7_ALL_FEATURES
  6
Continuous
 62
     2
100
AcDbLine
 10
114.2709248311
 20
288.0072013314
 30
0.0
 11
171.4209248307
 21
288.0076678571
 31
0.0
  0
LINE
  5
4F4
330
1B
100
AcDbEntity
 67
     1
  8
7_ALL_FEATURES
  6
Continuous
 62
     6
100
AcDbLine
 10
231.5708593849
 20
285.0072635135
 30
0.0
 11
228.5709248311
 21
288.0072013314
 31
0.0
  0
LINE
  5
4F5
330
1B
100
AcDbEntity
 67
     1
  8
7_ALL_FEATURES
  6
Continuous
 62
     9
100
AcDbLine
 10
171.4209248311
 20
280.0072635135
 30
0.0
 11
171.4209248311
 21
282.0072635135
 31
0.0
  0
LINE
  5
4F6
330
1B
100
AcDbEntity
 67
     1
  8
7_ALL_FEATURES
  6
Continuous
 62
     9
100
AcDbLine
 10
171.4209310077
 20
285.0072635135
 30
0.0
 11
171.4209248307
 21
288.0076678571
 31
0.0
  0
LINE
  5
4F7
330
1B
100
AcDbEntity
 67
     1
  8
7_ALL_FEATURES
  6
Continuous
 62
     9
100
AcDbLine
 10
171.4209186545
 20
375.0072635135
 30
0.0
 11
171.4209248314
 21
372.0068591699
 31
0.0
  0
LINE
  5
4F8
330
1B
100
AcDbEntity
 67
     1
  8
7_ALL_FEATURES
  6
Continuous
 62
     7
100
AcDbLine
 10
184.1764863125
 20
165.0829947363
 30
0.0
 11
186.1764863125
 21
163.928294198
 31
0.0
  0
LINE
  5
4F9
330
1B
100
AcDbEntity
 67
     1
  8
7_ALL_FEATURES
  6
Continuous
 62
     7
100
AcDbLine
 10
186.1764863125
 20
163.928294198
 30
0.0
 11
188.1764863125
 21
165.0829947363
 31
0.0
  0
LINE
  5
4FA
330
1B
100
AcDbEntity
 67
     1
  8
7_ALL_FEATURES
  6
Continuous
 62
     7
100
AcDbLine
 10
188.1764863125
 20
165.0829947363
 30
0.0
 11
188.1764863125
 21
167.3923958131
 31
0.0
  0
LINE
  5
4FB
330
1B
100
AcDbEntity
 67
     1
  8
7_ALL_FEATURES
  6
Continuous
 62
     7
100
AcDbLine
 10
188.1764863125
 20
167.3923958131
 30
0.0
 11
186.1764863125
 21
168.5470963515
 31
0.0
  0
LINE
  5
4FC
330
1B
100
AcDbEntity
 67
     1
  8
7_ALL_FEATURES
  6
Continuous
 62
     7
100
AcDbLine
 10
186.1764863125
 20
168.5470963515
 30
0.0
 11
184.1764863125
 21
167.3923958131
 31
0.0
  0
LINE
  5
4FD
330
1B
100
AcDbEntity
 67
     1
  8
7_ALL_FEATURES
  6
Continuous
 62
     7
100
AcDbLine
 10
184.1764863125
 20
167.3923958131
 30
0.0
 11
184.1764863125
 21
165.0829947363
 31
0.0
  0
ARC
  5
4FE
330
1B
100
AcDbEntity
 67
     1
  8
7_ALL_FEATURES
  6
Continuous
 62
     7
100
AcDbCircle
 10
186.1764863125
 20
166.2376952747
 30
0.0
 40
4.25
100
AcDbArc
 50
90.0
 51
270.0
  0
ARC
  5
4FF
330
1B
100
AcDbEntity
 67
     1
  8
7_ALL_FEATURES
  6
Continuous
 62
     7
100
AcDbCircle
 10
186.1764863125
 20
166.2376952747
 30
0.0
 40
4.25
100
AcDbArc
 50
90.0
 51
270.0
  0
ARC
  5
500
330
1B
100
AcDbEntity
 67
     1
  8
7_ALL_FEATURES
  6
Continuous
 62
     7
100
AcDbCircle
 10
186.1764863125
 20
166.2376952747
 30
0.0
 40
4.25
100
AcDbArc
 50
270.0
 51
90.0
  0
ARC
  5
501
330
1B
100
AcDbEntity
 67
     1
  8
7_ALL_FEATURES
  6
Continuous
 62
     9
100
AcDbCircle
 10
186.1764863125
 20
166.2376952747
 30
0.0
 40
4.1500000037
100
AcDbArc
 50
270.0
 51
90.0
  0
ARC
  5
502
330
1B
100
AcDbEntity
 67
     1
  8
7_ALL_FEATURES
  6
Continuous
 62
     9
100
AcDbCircle
 10
186.1764863125
 20
166.2376952747
 30
0.0
 40
4.1500000037
100
AcDbArc
 50
90.0
 51
270.0
  0
LINE
  5
503
330
1B
100
AcDbEntity
 67
     1
  8
7_ALL_FEATURES
  6
Continuous
 62
     7
100
AcDbLine
 10
121.6709248311
 20
119.6700460832
 30
0.0
 11
123.6709248311
 21
118.5153455449
 31
0.0
  0
LINE
  5
504
330
1B
100
AcDbEntity
 67
     1
  8
7_ALL_FEATURES
  6
Continuous
 62
     7
100
AcDbLine
 10
123.6709248311
 20
118.5153455449
 30
0.0
 11
125.6709248311
 21
119.6700460832
 31
0.0
  0
LINE
  5
505
330
1B
100
AcDbEntity
 67
     1
  8
7_ALL_FEATURES
  6
Continuous
 62
     7
100
AcDbLine
 10
125.6709248311
 20
119.6700460832
 30
0.0
 11
125.6709248311
 21
121.97944716
 31
0.0
  0
LINE
  5
506
330
1B
100
AcDbEntity
 67
     1
  8
7_ALL_FEATURES
  6
Continuous
 62
     7
100
AcDbLine
 10
125.6709248311
 20
121.97944716
 30
0.0
 11
123.6709248311
 21
123.1341476984
 31
0.0
  0
LINE
  5
507
330
1B
100
AcDbEntity
 67
     1
  8
7_ALL_FEATURES
  6
Continuous
 62
     7
100
AcDbLine
 10
123.6709248311
 20
123.1341476984
 30
0.0
 11
121.6709248311
 21
121.97944716
 31
0.0
  0
LINE
  5
508
330
1B
100
AcDbEntity
 67
     1
  8
7_ALL_FEATURES
  6
Continuous
 62
     7
100
AcDbLine
 10
121.6709248311
 20
121.97944716
 30
0.0
 11
121.6709248311
 21
119.6700460832
 31
0.0
  0
ARC
  5
509
330
1B
100
AcDbEntity
 67
     1
  8
7_ALL_FEATURES
  6
Continuous
 62
     7
100
AcDbCircle
 10
123.6709248311
 20
120.8247466216
 30
0.0
 40
4.25
100
AcDbArc
 50
90.0
 51
270.0
  0
ARC
  5
50A
330
1B
100
AcDbEntity
 67
     1
  8
7_ALL_FEATURES
  6
Continuous
 62
     7
100
AcDbCircle
 10
123.6709248311
 20
120.8247466216
 30
0.0
 40
4.25
100
AcDbArc
 50
90.0
 51
270.0
  0
ARC
  5
50B
330
1B
100
AcDbEntity
 67
     1
  8
7_ALL_FEATURES
  6
Continuous
 62
     7
100
AcDbCircle
 10
123.6709248311
 20
120.8247466216
 30
0.0
 40
4.25
100
AcDbArc
 50
270.0
 51
90.0
  0
ARC
  5
50C
330
1B
100
AcDbEntity
 67
     1
  8
7_ALL_FEATURES
  6
Continuous
 62
     9
100
AcDbCircle
 10
123.6709248311
 20
120.8247466216
 30
0.0
 40
4.1500000037
100
AcDbArc
 50
270.0
 51
90.0
  0
ARC
  5
50D
330
1B
100
AcDbEntity
 67
     1
  8
7_ALL_FEATURES
  6
Continuous
 62
     9
100
AcDbCircle
 10
123.6709248311
 20
120.8247466216
 30
0.0
 40
4.1500000037
100
AcDbArc
 50
90.0
 51
270.0
  0
LINE
  5
50E
330
1B
100
AcDbEntity
 67
     1
  8
7_ALL_FEATURES
  6
Continuous
 62
     7
100
AcDbLine
 10
184.1764863125
 20
74.2570974301
 30
0.0
 11
186.1764863125
 21
73.1023968918
 31
0.0
  0
LINE
  5
50F
330
1B
100
AcDbEntity
 67
     1
  8
7_ALL_FEATURES
  6
Continuous
 62
     7
100
AcDbLine
 10
186.1764863125
 20
73.1023968918
 30
0.0
 11
188.1764863125
 21
74.2570974301
 31
0.0
  0
LINE
  5
510
330
1B
100
AcDbEntity
 67
     1
  8
7_ALL_FEATURES
  6
Continuous
 62
     7
100
AcDbLine
 10
188.1764863125
 20
74.2570974301
 30
0.0
 11
188.1764863125
 21
76.5664985069
 31
0.0
  0
LINE
  5
511
330
1B
100
AcDbEntity
 67
     1
  8
7_ALL_FEATURES
  6
Continuous
 62
     7
100
AcDbLine
 10
188.1764863125
 20
76.5664985069
 30
0.0
 11
186.1764863125
 21
77.7211990453
 31
0.0
  0
LINE
  5
512
330
1B
100
AcDbEntity
 67
     1
  8
7_ALL_FEATURES
  6
Continuous
 62
     7
100
AcDbLine
 10
186.1764863125
 20
77.7211990453
 30
0.0
 11
184.1764863125
 21
76.5664985069
 31
0.0
  0
LINE
  5
513
330
1B
100
AcDbEntity
 67
     1
  8
7_ALL_FEATURES
  6
Continuous
 62
     7
100
AcDbLine
 10
184.1764863125
 20
76.5664985069
 30
0.0
 11
184.1764863125
 21
74.2570974301
 31
0.0
  0
ARC
  5
514
330
1B
100
AcDbEntity
 67
     1
  8
7_ALL_FEATURES
  6
Continuous
 62
     7
100
AcDbCircle
 10
186.1764863125
 20
75.4117979685
 30
0.0
 40
4.25
100
AcDbArc
 50
90.0
 51
270.0
  0
ARC
  5
515
330
1B
100
AcDbEntity
 67
     1
  8
7_ALL_FEATURES
  6
Continuous
 62
     7
100
AcDbCircle
 10
186.1764863125
 20
75.4117979685
 30
0.0
 40
4.25
100
AcDbArc
 50
90.0
 51
270.0
  0
ARC
  5
516
330
1B
100
AcDbEntity
 67
     1
  8
7_ALL_FEATURES
  6
Continuous
 62
     7
100
AcDbCircle
 10
186.1764863125
 20
75.4117979685
 30
0.0
 40
4.25
100
AcDbArc
 50
270.0
 51
90.0
  0
ARC
  5
517
330
1B
100
AcDbEntity
 67
     1
  8
7_ALL_FEATURES
  6
Continuous
 62
     9
100
AcDbCircle
 10
186.1764863125
 20
75.4117979685
 30
0.0
 40
4.1500000037
100
AcDbArc
 50
270.0
 51
90.0
  0
ARC
  5
518
330
1B
100
AcDbEntity
 67
     1
  8
7_ALL_FEATURES
  6
Continuous
 62
     9
100
AcDbCircle
 10
186.1764863125
 20
75.4117979685
 30
0.0
 40
4.1500000037
100
AcDbArc
 50
90.0
 51
270.0
  0
ARC
  5
519
330
1B
100
AcDbEntity
 67
     1
  8
02___PRT_ALL_AXES
  6
Continuous
 62
     7
100
AcDbCircle
 10
171.4209248311
 20
120.8247466216
 30
0.0
 40
65.0
100
AcDbArc
 50
270.0
 51
90.0
  0
ARC
  5
51A
330
1B
100
AcDbEntity
 67
     1
  8
02___PRT_ALL_AXES
  6
Continuous
 62
     7
100
AcDbCircle
 10
171.4209248311
 20
120.8247466216
 30
0.0
 40
65.0
100
AcDbArc
 50
90.0
 51
270.0
  0
ARC
  5
51B
330
1B
100
AcDbEntity
 67
     1
  8
02___PRT_ALL_AXES
  6
Continuous
 62
     7
100
AcDbCircle
 10
171.4209248311
 20
120.8247466216
 30
0.0
 40
55.0
100
AcDbArc
 50
270.0
 51
90.0
  0
ARC
  5
51C
330
1B
100
AcDbEntity
 67
     1
  8
02___PRT_ALL_AXES
  6
Continuous
 62
     7
100
AcDbCircle
 10
171.4209248311
 20
120.8247466216
 30
0.0
 40
55.0
100
AcDbArc
 50
90.0
 51
270.0
  0
ARC
  5
51D
330
1B
100
AcDbEntity
 67
     1
  8
02___PRT_ALL_AXES
  6
Continuous
 62
     7
100
AcDbCircle
 10
171.4209248311
 20
120.8247466216
 30
0.0
 40
60.0
100
AcDbArc
 50
270.0
 51
90.0
  0
ARC
  5
51E
330
1B
100
AcDbEntity
 67
     1
  8
02___PRT_ALL_AXES
  6
Continuous
 62
     7
100
AcDbCircle
 10
171.4209248311
 20
120.8247466216
 30
0.0
 40
60.0
100
AcDbArc
 50
90.0
 51
270.0
  0
SPLINE
  5
51F
330
1B
100
AcDbEntity
 67
     1
  8
7_ALL_FEATURES
  6
Continuous
 62
     2
100
AcDbSpline
 70
     0
 71
     3
 72
    27
 73
    23
 74
     0
 42
0.000000001
 43
0.0000001
 40
0.0
 40
0.0
 40
0.0
 40
0.0
 40
0.0624961923
 40
0.0937592489
 40
0.1250460734
 40
0.1875238149
 40
0.2500042936
 40
0.2812820123
 40
0.3125597262
 40
0.3750398238
 40
0.4375199005
 40
0.5
 40
0.5624800995
 40
0.6249601762
 40
0.6874402738
 40
0.7187179877
 40
0.7499957064
 40
0.8124761851
 40
0.8749539266
 40
0.9062407511
 40
0.9375038077
 40
1.0
 40
1.0
 40
1.0
 40
1.0
 10
171.4209310077
 20
60.6743210496
 30
0.0
 10
167.4894987083
 20
60.6743238991
 30
0.0
 10
161.5700815526
 20
61.2576486145
 30
0.0
 10
153.9314039583
 20
63.1733476094
 30
0.0
 10
146.5146439312
 20
65.8253023835
 30
0.0
 10
137.7868184008
 20
70.4896700024
 30
0.0
 10
130.1383054002
 20
76.768467296
 30
0.0
 10
124.8493635729
 20
82.6053854716
 30
0.0
 10
120.156757029
 20
88.9313628367
 30
0.0
 10
115.4903550548
 20
97.6594226711
 30
0.0
 10
112.0466126887
 20
109.0143466138
 30
0.0
 10
110.8831790009
 20
120.8247466216
 30
0.0
 10
112.0466126887
 20
132.6351466294
 30
0.0
 10
115.4903550548
 20
143.9900705722
 30
0.0
 10
120.156757029
 20
152.7181304065
 30
0.0
 10
124.8493635729
 20
159.0441077716
 30
0.0
 10
130.1383054002
 20
164.8810259472
 30
0.0
 10
137.7868184008
 20
171.1598232409
 30
0.0
 10
146.5146439312
 20
175.8241908598
 30
0.0
 10
153.9314039583
 20
178.4761456338
 30
0.0
 10
161.5700815526
 20
180.3918446287
 30
0.0
 10
167.4894987083
 20
180.9751693441
 30
0.0
 10
171.4209310077
 20
180.9751721936
 30
0.0
  0
SPLINE
  5
520
330
1B
100
AcDbEntity
 67
     1
  8
7_ALL_FEATURES
  6
Continuous
 62
     2
100
AcDbSpline
 70
     0
 71
     3
 72
    27
 73
    23
 74
     0
 42
0.000000001
 43
0.0000001
 40
0.0
 40
0.0
 40
0.0
 40
0.0
 40
0.0624961923
 40
0.0937592489
 40
0.1250460734
 40
0.1875238149
 40
0.2500042936
 40
0.2812820123
 40
0.3125597262
 40
0.3750398238
 40
0.4375199005
 40
0.5
 40
0.5624800995
 40
0.6249601762
 40
0.6874402738
 40
0.7187179877
 40
0.7499957064
 40
0.8124761851
 40
0.8749539266
 40
0.9062407511
 40
0.9375038077
 40
1.0
 40
1.0
 40
1.0
 40
1.0
 10
171.4209186545
 20
180.9751721936
 30
0.0
 10
175.3523509539
 20
180.9751693441
 30
0.0
 10
181.2717681096
 20
180.3918446287
 30
0.0
 10
188.9104457039
 20
178.4761456338
 30
0.0
 10
196.327205731
 20
175.8241908598
 30
0.0
 10
205.0550312614
 20
171.1598232409
 30
0.0
 10
212.7035442619
 20
164.8810259472
 30
0.0
 10
217.9924860892
 20
159.0441077716
 30
0.0
 10
222.6850926331
 20
152.7181304065
 30
0.0
 10
227.3514946073
 20
143.9900705722
 30
0.0
 10
230.7952369735
 20
132.6351466294
 30
0.0
 10
231.9586706613
 20
120.8247466216
 30
0.0
 10
230.7952369735
 20
109.0143466138
 30
0.0
 10
227.3514946073
 20
97.6594226711
 30
0.0
 10
222.6850926331
 20
88.9313628367
 30
0.0
 10
217.9924860892
 20
82.6053854716
 30
0.0
 10
212.7035442619
 20
76.768467296
 30
0.0
 10
205.0550312614
 20
70.4896700024
 30
0.0
 10
196.327205731
 20
65.8253023835
 30
0.0
 10
188.9104457039
 20
63.1733476094
 30
0.0
 10
181.2717681096
 20
61.2576486145
 30
0.0
 10
175.3523509539
 20
60.6743238991
 30
0.0
 10
171.4209186545
 20
60.6743210496
 30
0.0
  0
LINE
  5
521
330
1B
100
AcDbEntity
 67
     1
  8
7_ALL_FEATURES
  6
Continuous
 62
     9
100
AcDbLine
 10
171.4209310077
 20
180.9751721936
 30
0.0
 11
171.420930698
 21
180.8247466216
 31
0.0
  0
LINE
  5
522
330
1B
100
AcDbEntity
 67
     1
  8
7_ALL_FEATURES
  6
Continuous
 62
     9
100
AcDbLine
 10
171.4209186545
 20
60.6743210496
 30
0.0
 11
171.4209189642
 21
60.8247466216
 31
0.0
  0
DIMENSION
  5
523
330
1B
100
AcDbEntity
 67
     1
  8
0
  6
Continuous
 62
     2
100
AcDbDimension
280
     0
  2
*D1
 10
223.5320194673
 20
159.6761792312
 30
0.0
 11
237.1896226675
 21
172.6651109562
 31
0.0
 70
   163
  1
%%c<>
 71
     5
 42
-1.0
 73
     0
 74
     0
 75
     0
  3
DIMSTYLE_1
100
AcDbDiametricDimension
 15
119.3098301949
 25
81.973314012
 35
0.0
 40
0.0
  0
DIMENSION
  5
524
330
1B
100
AcDbEntity
 67
     1
  8
0
  6
Continuous
 62
     2
100
AcDbDimension
280
     0
  2
*D2
 10
87.6909114274
 20
248.0072635135
 30
0.0
 11
87.6909114274
 21
264.6645640186
 31
0.0
 70
   160
 71
     5
 42
-1.0
 73
     0
 74
     0
 75
     0
  3
DIMSTYLE_2
100
AcDbAlignedDimension
 13
106.2729814101
 23
282.0072635135
 33
0.0
 14
106.2729814101
 24
248.0072635135
 34
0.0
 50
270.0
100
AcDbRotatedDimension
  0
DIMENSION
  5
525
330
1B
100
AcDbEntity
 67
     1
  8
0
  6
Continuous
 62
     2
100
AcDbDimension
280
     0
  2
*D3
 10
87.6909114274
 20
378.0072635135
 30
0.0
 11
87.6909114274
 21
329.6589898304
 31
0.0
 70
   160
 71
     5
 42
-1.0
 73
     0
 74
     0
 75
     0
  3
DIMSTYLE_2
100
AcDbAlignedDimension
 13
106.2729814101
 23
282.0072635135
 33
0.0
 14
106.2729814101
 24
378.0072635135
 34
0.0
 50
90.0
100
AcDbRotatedDimension
  0
DIMENSION
  5
526
330
1B
100
AcDbEntity
 67
     1
  8
0
  6
Continuous
 62
     2
100
AcDbDimension
280
     0
  2
*D4
 10
87.6909114274
 20
384.2072635135
 30
0.0
 11
87.6909114274
 21
381.0723803007
 31
0.0
 70
   160
 71
     5
 42
-1.0
 73
     0
 74
     0
 75
     0
  3
DIMSTYLE_3
100
AcDbAlignedDimension
 13
106.2729814101
 23
378.0072635135
 33
0.0
 14
107.9531131192
 24
384.2072635135
 34
0.0
 50
90.0
100
AcDbRotatedDimension
  0
DIMENSION
  5
527
330
1B
100
AcDbEntity
 67
     1
  8
0
  6
Continuous
 62
     2
100
AcDbDimension
280
     0
  2
*D5
 10
254.7823517366
 20
378.6072635135
 30
0.0
 11
254.7823517366
 21
313.4347329373
 31
0.0
 70
   160
 71
     5
 42
-1.0
 73
     0
 74
     0
 75
     0
  3
DIMSTYLE_4
100
AcDbAlignedDimension
 13
249.0127757559
 23
248.0072635135
 33
0.0
 14
241.2158631402
 24
378.6072635135
 34
0.0
 50
90.0
100
AcDbRotatedDimension
  0
LINE
  5
528
330
1B
100
AcDbEntity
 67
     1
  8
0
  6
Continuous
 62
     2
100
AcDbLine
 10
452.9999341433
 20
74.1411094536
 30
0.0
 11
582.9999341433
 21
74.1411094536
 31
0.0
  0
LINE
  5
529
330
1B
100
AcDbEntity
 67
     1
  8
0
  6
Continuous
 62
     2
100
AcDbLine
 10
452.9999341433
 20
74.1411094536
 30
0.0
 11
452.9999341433
 21
8.1411094536
 31
0.0
  0
LINE
  5
52A
330
1B
100
AcDbEntity
 67
     1
  8
0
  6
Continuous
 62
     2
100
AcDbLine
 10
482.9999341433
 20
66.1411094536
 30
0.0
 11
582.9999341433
 21
66.1411094536
 31
0.0
  0
LINE
  5
52B
330
1B
100
AcDbEntity
 67
     1
  8
0
  6
Continuous
 62
     2
100
AcDbLine
 10
452.9999341433
 20
58.1411094536
 30
0.0
 11
582.9999341433
 21
58.1411094536
 31
0.0
  0
LINE
  5
52C
330
1B
100
AcDbEntity
 67
     1
  8
0
  6
Continuous
 62
     2
100
AcDbLine
 10
482.9999341433
 20
52.1411094536
 30
0.0
 11
582.9999341433
 21
52.1411094536
 31
0.0
  0
LINE
  5
52D
330
1B
100
AcDbEntity
 67
     1
  8
0
  6
Continuous
 62
     2
100
AcDbLine
 10
482.9999341433
 20
46.1411094536
 30
0.0
 11
582.9999341433
 21
46.1411094536
 31
0.0
  0
LINE
  5
52E
330
1B
100
AcDbEntity
 67
     1
  8
0
  6
Continuous
 62
     2
100
AcDbLine
 10
482.9999341433
 20
40.1411094536
 30
0.0
 11
582.9999341433
 21
40.1411094536
 31
0.0
  0
LINE
  5
52F
330
1B
100
AcDbEntity
 67
     1
  8
0
  6
Continuous
 62
     2
100
AcDbLine
 10
482.9999341433
 20
34.1411094536
 30
0.0
 11
582.9999341433
 21
34.1411094536
 31
0.0
  0
LINE
  5
530
330
1B
100
AcDbEntity
 67
     1
  8
0
  6
Continuous
 62
     2
100
AcDbLine
 10
482.9999341433
 20
28.1411094536
 30
0.0
 11
582.9999341433
 21
28.1411094536
 31
0.0
  0
LINE
  5
531
330
1B
100
AcDbEntity
 67
     1
  8
0
  6
Continuous
 62
     2
100
AcDbLine
 10
452.9999341433
 20
22.1411094536
 30
0.0
 11
582.9999341433
 21
22.1411094536
 31
0.0
  0
LINE
  5
532
330
1B
100
AcDbEntity
 67
     1
  8
0
  6
Continuous
 62
     2
100
AcDbLine
 10
452.9999341433
 20
16.1411094536
 30
0.0
 11
582.9999341433
 21
16.1411094536
 31
0.0
  0
LINE
  5
533
330
1B
100
AcDbEntity
 67
     1
  8
0
  6
Continuous
 62
     2
100
AcDbLine
 10
452.9999341433
 20
12.1411094536
 30
0.0
 11
582.9999341433
 21
12.1411094536
 31
0.0
  0
LINE
  5
534
330
1B
100
AcDbEntity
 67
     1
  8
0
  6
Continuous
 62
     2
100
AcDbLine
 10
452.9999341433
 20
8.1411094536
 30
0.0
 11
582.9999341433
 21
8.1411094536
 31
0.0
  0
LINE
  5
535
330
1B
100
AcDbEntity
 67
     1
  8
0
  6
Continuous
 62
     2
100
AcDbLine
 10
482.9999341433
 20
74.1411094536
 30
0.0
 11
482.9999341433
 21
16.1411094536
 31
0.0
  0
LINE
  5
536
330
1B
100
AcDbEntity
 67
     1
  8
0
  6
Continuous
 62
     2
100
AcDbLine
 10
502.9999341433
 20
58.1411094536
 30
0.0
 11
502.9999341433
 21
52.1411094536
 31
0.0
  0
LINE
  5
537
330
1B
100
AcDbEntity
 67
     1
  8
0
  6
Continuous
 62
     2
100
AcDbLine
 10
532.9999341433
 20
28.1411094536
 30
0.0
 11
532.9999341433
 21
16.1411094536
 31
0.0
  0
LINE
  5
538
330
1B
100
AcDbEntity
 67
     1
  8
0
  6
Continuous
 62
     2
100
AcDbLine
 10
542.9999341433
 20
58.1411094536
 30
0.0
 11
542.9999341433
 21
52.1411094536
 31
0.0
  0
LINE
  5
539
330
1B
100
AcDbEntity
 67
     1
  8
0
  6
Continuous
 62
     2
100
AcDbLine
 10
542.9999341433
 20
46.1411094536
 30
0.0
 11
542.9999341433
 21
40.1411094536
 31
0.0
  0
LINE
  5
53A
330
1B
100
AcDbEntity
 67
     1
  8
0
  6
Continuous
 62
     2
100
AcDbLine
 10
562.9999341433
 20
58.1411094536
 30
0.0
 11
562.9999341433
 21
52.1411094536
 31
0.0
  0
LINE
  5
53B
330
1B
100
AcDbEntity
 67
     1
  8
0
  6
Continuous
 62
     2
100
AcDbLine
 10
572.9999341433
 20
46.1411094536
 30
0.0
 11
572.9999341433
 21
40.1411094536
 31
0.0
  0
LINE
  5
53C
330
1B
100
AcDbEntity
 67
     1
  8
0
  6
Continuous
 62
     2
100
AcDbLine
 10
582.9999341433
 20
74.1411094536
 30
0.0
 11
582.9999341433
 21
8.1411094536
 31
0.0
  0
INSERT
  5
53D
330
1B
100
AcDbEntity
 67
     1
  8
0
  6
Continuous
 62
     2
100
AcDbBlockReference
  2
PROIEZIONE_EU_BL0
 10
467.9999341433
 20
65.7661094536
 30
0.0
  0
MTEXT
  5
53E
330
1B
100
AcDbEntity
 67
     1
  8
9_SOLID
  6
Continuous
 62
     2
100
AcDbMText
 10
484.4874341433
 20
72.5161094536
 30
0.0
 40
1.9
 41
142.3642857143
 46
0.0
 71
     1
 72
     1
  1
EN: Chamfer/radii unlisted 0.3x45°. Remove sharp edges.\PGen. tol.: hole H11, shaft h11, lenght Js12. UNI EN 22768 Medium Grande.
  7
TEXTSTYLE_4
 73
     1
 44
1.0
  0
MTEXT
  5
53F
330
1B
100
AcDbEntity
 67
     1
  8
9_SOLID
  6
Continuous
 62
     2
100
AcDbMText
 10
484.4874341433
 20
64.5161094536
 30
0.0
 40
1.9
 41
148.2678571429
 46
0.0
 71
     1
 72
     1
  1
IT: Sm./rac. non quotati 0.3x45°. Eliminare spigoli taglienti.\PToll. gen.: foro H11, albero h11, lunghezza Js12. UNI EN 22768 Grado Medio.
  7
TEXTSTYLE_4
 73
     1
 44
1.0
  0
INSERT
  5
540
330
1B
100
AcDbEntity
 67
     1
  8
0
  6
Continuous
 62
     2
100
AcDbBlockReference
  2
LOGO2_BL1
 10
466.8259811881
 20
40.1411094536
 30
0.0
  0
MTEXT
  5
541
330
1B
100
AcDbEntity
 67
     1
  8
9_SOLID
  6
Continuous
 62
     2
100
AcDbMText
 10
484.4874341433
 20
56.3911094536
 30
0.0
 40
3.0
 41
25.1785714286
 46
0.0
 71
     1
 72
     1
  1
Pj: CW2
  7
TEXTSTYLE_4
 73
     1
 44
1.0
  0
MTEXT
  5
542
330
1B
100
AcDbEntity
 67
     1
  8
9_SOLID
  6
Continuous
 62
     2
100
AcDbMText
 10
504.4874341433
 20
56.3911094536
 30
0.0
 40
3.0
 41
38.0357142857
 46
0.0
 71
     1
 72
     1
  1
% Check: %
  7
TEXTSTYLE_4
 73
     1
 44
1.0
  0
MTEXT
  5
543
330
1B
100
AcDbEntity
 67
     1
  8
9_SOLID
  6
Continuous
 62
     2
100
AcDbMText
 10
544.4874341433
 20
56.3911094536
 30
0.0
 40
3.0
 41
19.5
 46
0.0
 71
     1
 72
     1
  1
Rev:00
  7
TEXTSTYLE_4
 73
     1
 44
1.0
  0
MTEXT
  5
544
330
1B
100
AcDbEntity
 67
     1
  8
9_SOLID
  6
Continuous
 62
     2
100
AcDbMText
 10
564.4874341433
 20
56.6411094536
 30
0.0
 40
3.0
 41
19.7142857143
 46
0.0
 71
     1
 72
     1
  1
Ver: A
  7
TEXTSTYLE_4
 73
     1
 44
1.0
  0
MTEXT
  5
545
330
1B
100
AcDbEntity
 67
     1
  8
9_SOLID
  6
Continuous
 62
     2
100
AcDbMText
 10
484.4874341433
 20
50.3911094536
 30
0.0
 40
3.0
 41
66.6428571429
 46
0.0
 71
     1
 72
     1
  1
Neutral code: WC5002
  7
TEXTSTYLE_4
 73
     1
 44
1.0
  0
MTEXT
  5
546
330
1B
100
AcDbEntity
 67
     1
  8
9_SOLID
  6
Continuous
 62
     2
100
AcDbMText
 10
484.4874341433
 20
44.3911094536
 30
0.0
 40
3.0
 41
43.0714285714
 46
0.0
 71
     1
 72
     1
  1
Code: WC5002
  7
TEXTSTYLE_4
 73
     1
 44
1.0
  0
MTEXT
  5
547
330
1B
100
AcDbEntity
 67
     1
  8
9_SOLID
  6
Continuous
 62
     2
100
AcDbMText
 10
544.4874341433
 20
44.6411094536
 30
0.0
 40
3.0
 41
27.8571428571
 46
0.0
 71
     1
 72
     1
  1
Scale: 1:1
  7
TEXTSTYLE_4
 73
     1
 44
1.0
  0
MTEXT
  5
548
330
1B
100
AcDbEntity
 67
     1
  8
9_SOLID
  6
Continuous
 62
     2
100
AcDbMText
 10
577.9999341433
 20
44.6411094536
 30
0.0
 40
3.0
 41
8.25
 46
0.0
 71
     2
 72
     1
  1
A2
  7
TEXTSTYLE_4
 73
     1
 44
1.0
  0
MTEXT
  5
549
330
1B
100
AcDbEntity
 67
     1
  8
9_SOLID
  6
Continuous
 62
     2
100
AcDbMText
 10
484.4874341433
 20
38.4661094536
 30
0.0
 40
2.65
 41
145.15375
 46
0.0
 71
     1
 72
     1
  1
It descr.: CASSAFORMA Ø130X96 BRIGHT2.0 316L INOX
  7
TEXTSTYLE_4
 73
     1
 44
1.0
  0
MTEXT
  5
54A
330
1B
100
AcDbEntity
 67
     1
  8
9_SOLID
  6
Continuous
 62
     2
100
AcDbMText
 10
484.4874341433
 20
32.6411094536
 30
0.0
 40
3.0
 41
33.9642857143
 46
0.0
 71
     1
 72
     1
  1
En descr.: 
  7
TEXTSTYLE_4
 73
     1
 44
1.0
  0
MTEXT
  5
54B
330
1B
100
AcDbEntity
 67
     1
  8
9_SOLID
  6
Continuous
 62
     2
100
AcDbMText
 10
484.4874341433
 20
26.6411094536
 30
0.0
 40
3.0
 41
19.0714285714
 46
0.0
 71
     1
 72
     1
  1
Des.: 
  7
TEXTSTYLE_4
 73
     1
 44
1.0
  0
MTEXT
  5
54C
330
1B
100
AcDbEntity
 67
     1
  8
9_SOLID
  6
Continuous
 62
     2
100
AcDbMText
 10
534.4874341433
 20
26.6411094536
 30
0.0
 40
3.0
 41
22.2857142857
 46
0.0
 71
     1
 72
     1
  1
Check: 
  7
TEXTSTYLE_4
 73
     1
 44
1.0
  0
MTEXT
  5
54D
330
1B
100
AcDbEntity
 67
     1
  8
9_SOLID
  6
Continuous
 62
     2
100
AcDbMText
 10
454.4874341433
 20
20.6411094536
 30
0.0
 40
3.0
 41
43.5
 46
0.0
 71
     1
 72
     1
  1
Date: 20.12.18
  7
TEXTSTYLE_4
 73
     1
 44
1.0
  0
MTEXT
  5
54E
330
1B
100
AcDbEntity
 67
     1
  8
9_SOLID
  6
Continuous
 62
     2
100
AcDbMText
 10
484.4874341433
 20
20.6411094536
 30
0.0
 40
3.0
 41
18.2142857143
 46
0.0
 71
     1
 72
     1
  1
Mat.: 
  7
TEXTSTYLE_4
 73
     1
 44
1.0
  0
MTEXT
  5
54F
330
1B
100
AcDbEntity
 67
     1
  8
9_SOLID
  6
Continuous
 62
     2
100
AcDbMText
 10
534.4874341433
 20
20.1411094536
 30
0.0
 40
2.0
 41
42.3571428571
 46
0.0
 71
     1
 72
     1
  1
Disegno per catalogo
  7
TEXTSTYLE_4
 73
     1
 44
1.0
  0
MTEXT
  5
550
330
1B
100
AcDbEntity
 67
     1
  8
9_SOLID
  6
Continuous
 62
     2
100
AcDbMText
 10
454.4874341433
 20
15.0411094536
 30
0.0
 40
1.8
 41
176.2071428571
 46
0.0
 71
     1
 72
     1
  1
It: A norma di legge si diffida da qualsiasi riproduzione senza nostra autorizzazione esplicita.
  7
TEXTSTYLE_4
 73
     1
 44
1.0
  0
MTEXT
  5
551
330
1B
100
AcDbEntity
 67
     1
  8
9_SOLID
  6
Continuous
 62
     2
100
AcDbMText
 10
454.4874341433
 20
11.0411094536
 30
0.0
 40
1.8
 41
158.1428571429
 46
0.0
 71
     1
 72
     1
  1
En: According to the law, beware of any reproduction made without our authorization.
  7
TEXTSTYLE_4
 73
     1
 44
1.0
  0
ENDSEC
  0
SECTION
  2
OBJECTS
  0
DICTIONARY
  5
552
330
0
100
AcDbDictionary
281
     1
  3
ACAD_DETAILVIEWSTYLE
350
5A8
  3
ACAD_GROUP
350
553
  3
ACAD_LAYOUT
350
57B
  3
ACAD_MATERIAL
350
597
  3
ACAD_MLEADERSTYLE
350
59D
  3
ACAD_MLINESTYLE
350
554
  3
ACAD_PLOTSETTINGS
350
556
  3
ACAD_PLOTSTYLENAME
350
557
  3
ACAD_SCALELIST
350
559
  3
ACAD_SECTIONVIEWSTYLE
350
5A9
  3
ACAD_TABLESTYLE
350
59B
  3
ACAD_VISUALSTYLE
350
57E
  3
ACDB_RECOMPOSE_DATA
350
5A4
  3
AcDbVariableDictionary
350
5A0
  3
APPDATA
350
59F
  0
DICTIONARY
  5
5A8
102
{ACAD_REACTORS
330
552
102
}
330
552
100
AcDbDictionary
281
     1
  0
DICTIONARY
  5
553
102
{ACAD_REACTORS
330
552
102
}
330
552
100
AcDbDictionary
281
     1
  0
DICTIONARY
  5
57B
102
{ACAD_REACTORS
330
552
102
}
330
552
100
AcDbDictionary
281
     1
  3
Foglio 1
350
57D
  3
Model
350
57C
  0
DICTIONARY
  5
597
102
{ACAD_REACTORS
330
552
102
}
330
552
100
AcDbDictionary
281
     1
  3
ByBlock
350
599
  3
ByLayer
350
598
  3
Global
350
59A
  0
DICTIONARY
  5
59D
102
{ACAD_REACTORS
330
552
102
}
330
552
100
AcDbDictionary
281
     1
  3
Standard
350
59E
  0
DICTIONARY
  5
554
102
{ACAD_REACTORS
330
552
102
}
330
552
100
AcDbDictionary
281
     1
  3
STANDARD
350
555
  0
DICTIONARY
  5
556
102
{ACAD_REACTORS
330
552
102
}
330
552
100
AcDbDictionary
281
     1
  0
ACDBDICTIONARYWDFLT
  5
557
102
{ACAD_REACTORS
330
552
102
}
330
552
100
AcDbDictionary
281
     1
  3
Normal
350
558
100
AcDbDictionaryWithDefault
340
558
  0
DICTIONARY
  5
559
102
{ACAD_REACTORS
330
552
102
}
330
552
100
AcDbDictionary
281
     1
  3
A0
350
55A
  3
A1
350
55B
  3
A2
350
55C
  3
A3
350
55D
  3
A4
350
55E
  3
A5
350
55F
  3
A6
350
560
  3
A7
350
561
  3
A8
350
562
  3
A9
350
563
  3
B0
350
564
  3
B1
350
565
  3
B2
350
566
  3
B3
350
567
  3
B4
350
568
  3
B5
350
569
  3
B6
350
56A
  3
B7
350
56B
  3
B8
350
56C
  3
B9
350
56D
  3
C0
350
56E
  3
C1
350
56F
  3
C2
350
570
  3
C3
350
571
  3
C4
350
572
  3
C5
350
573
  3
C6
350
574
  3
C7
350
575
  3
C8
350
576
  3
C9
350
577
  3
D0
350
578
  3
D1
350
579
  3
D2
350
57A
  0
DICTIONARY
  5
5A9
102
{ACAD_REACTORS
330
552
102
}
330
552
100
AcDbDictionary
281
     1
  0
DICTIONARY
  5
59B
102
{ACAD_REACTORS
330
552
102
}
330
552
100
AcDbDictionary
281
     1
  3
Standard
350
59C
  0
DICTIONARY
  5
57E
102
{ACAD_REACTORS
330
552
102
}
330
552
100
AcDbDictionary
281
     1
  3
2dWireframe
350
583
  3
Basic
350
586
  3
Brighten
350
58A
  3
ColorChange
350
58E
  3
Conceptual
350
588
  3
Dim
350
589
  3
EdgeColorOff
350
591
  3
Facepattern
350
58D
  3
Flat
350
57F
  3
FlatWithEdges
350
580
  3
Gouraud
350
581
  3
GouraudWithEdges
350
582
  3
Hidden
350
585
  3
JitterOff
350
58F
  3
Linepattern
350
58C
  3
OverhangOff
350
590
  3
Realistic
350
587
  3
Shaded
350
596
  3
Shaded with edges
350
595
  3
Shades of Gray
350
592
  3
Sketchy
350
593
  3
Thicken
350
58B
  3
Wireframe
350
584
  3
X-Ray
350
594
  0
XRECORD
  5
5A4
102
{ACAD_REACTORS
330
552
102
}
330
552
100
AcDbXrecord
280
     1
 90
        1
330
59C
  0
DICTIONARY
  5
5A0
102
{ACAD_REACTORS
330
552
102
}
330
552
100
AcDbDictionary
281
     1
  3
CANNOSCALE
350
5A1
  3
CMLEADERSTYLE
350
5A6
  3
CTABLESTYLE
350
5A5
  3
MSLTSCALE
350
5A7
  0
DICTIONARY
  5
59F
102
{ACAD_REACTORS
330
552
102
}
330
552
100
AcDbDictionary
281
     1
  0
LAYOUT
  5
57D
102
{ACAD_REACTORS
330
57B
102
}
330
57B
100
AcDbPlotSettings
  1

  2
none_device
  4
ISO_A3_(420.00_x_297.00_MM)
  6

 40
7.5
 41
20.0
 42
7.5
 43
20.0
 44
420.0
 45
297.0
 46
0.0
 47
0.0
 48
0.0
 49
0.0
140
0.0
141
0.0
142
1.0
143
1.634241245136187
 70
   688
 72
     1
 73
     0
 74
     1
  7

 75
     0
 76
     0
 77
     2
 78
   300
147
0.611904761904762
148
0.0
149
0.0
100
AcDbLayout
  1
Foglio 1
 70
     1
 71
     1
 10
0.0
 20
0.0
 11
412.5
 21
277.0
 12
0.0
 22
0.0
 32
0.0
 14
0.0
 24
0.0
 34
0.0
 15
594.0
 25
420.0
 35
0.0
146
0.0
 13
0.0
 23
0.0
 33
0.0
 16
1.0
 26
0.0
 36
0.0
 17
0.0
 27
1.0
 37
0.0
 76
     0
330
1B
331
2A9
  0
LAYOUT
  5
57C
102
{ACAD_REACTORS
330
57B
102
}
330
57B
100
AcDbPlotSettings
  1

  2
none_device
  4
Letter_(8.50_x_11.00_Inches)
  6

 40
6.35
 41
6.35
 42
6.35
 43
6.35
 44
215.9
 45
279.4
 46
0.0
 47
0.0
 48
0.0
 49
0.0
140
0.0
141
0.0
142
1.0
143
74.25000000075
 70
  1712
 72
     0
 73
     0
 74
     0
  7

 75
     0
 76
     0
 77
     2
 78
   300
147
0.0134680134678774
148
0.000000076200638
149
0.0
100
AcDbLayout
  1
Model
 70
     1
 71
     0
 10
0.0
 20
0.0
 11
594.0
 21
420.0
 12
0.0
 22
0.0
 32
0.0
 14
0.0
 24
0.0
 34
0.0
 15
594.0
 25
420.0
 35
0.0
146
0.0
 13
0.0
 23
0.0
 33
0.0
 16
1.0
 26
0.0
 36
0.0
 17
0.0
 27
1.0
 37
0.0
 76
     0
330
1F
331
1F4
  0
MATERIAL
  5
599
102
{ACAD_REACTORS
330
597
102
}
330
597
100
AcDbMaterial
  1
ByBlock
 72
     1
 94
      127
  0
MATERIAL
  5
598
102
{ACAD_REACTORS
330
597
102
}
330
597
100
AcDbMaterial
  1
ByLayer
 72
     1
 94
      127
  0
MATERIAL
  5
59A
102
{ACAD_REACTORS
330
597
102
}
330
597
100
AcDbMaterial
  1
Global
 72
     1
 94
      127
  0
MLEADERSTYLE
  5
59E
102
{ACAD_REACTORS
330
59D
102
}
330
59D
100
AcDbMLeaderStyle
179
     2
170
     2
171
     1
172
     0
 90
        2
 40
0.0
 41
0.0
173
     1
 91
-1056964608
340
14
 92
       -2
290
     1
 42
2.0
291
     1
 43
8.0
  3
Standard
341
0
 44
4.0
300

342
11
174
     1
178
     1
175
     1
176
     0
 93
-1056964608
 45
4.0
292
     0
297
     0
 46
4.0
343
0
 94
-1056964608
 47
1.0
 49
1.0
140
1.0
293
     1
141
0.0
294
     1
177
     0
142
1.0
295
     0
296
     0
143
3.75
271
     0
272
     9
273
     9
298
     0
  0
MLINESTYLE
  5
555
102
{ACAD_REACTORS
330
554
102
}
330
554
100
AcDbMlineStyle
  2
STANDARD
 70
     0
  3

 62
   256
 51
90.0
 52
90.0
 71
     2
 49
0.5
 62
   256
  6
BYLAYER
 49
-0.5
 62
   256
  6
BYLAYER
  0
ACDBPLACEHOLDER
  5
558
102
{ACAD_REACTORS
330
557
102
}
330
557
  0
SCALE
  5
55A
102
{ACAD_REACTORS
330
559
102
}
330
559
100
AcDbScale
 70
     0
300
1:1
140
1.0
141
1.0
290
     1
  0
SCALE
  5
55B
102
{ACAD_REACTORS
330
559
102
}
330
559
100
AcDbScale
 70
     0
300
1:2
140
1.0
141
2.0
290
     0
  0
SCALE
  5
55C
102
{ACAD_REACTORS
330
559
102
}
330
559
100
AcDbScale
 70
     0
300
1:4
140
1.0
141
4.0
290
     0
  0
SCALE
  5
55D
102
{ACAD_REACTORS
330
559
102
}
330
559
100
AcDbScale
 70
     0
300
1:5
140
1.0
141
5.0
290
     0
  0
SCALE
  5
55E
102
{ACAD_REACTORS
330
559
102
}
330
559
100
AcDbScale
 70
     0
300
1:8
140
1.0
141
8.0
290
     0
  0
SCALE
  5
55F
102
{ACAD_REACTORS
330
559
102
}
330
559
100
AcDbScale
 70
     0
300
1:10
140
1.0
141
10.0
290
     0
  0
SCALE
  5
560
102
{ACAD_REACTORS
330
559
102
}
330
559
100
AcDbScale
 70
     0
300
1:16
140
1.0
141
16.0
290
     0
  0
SCALE
  5
561
102
{ACAD_REACTORS
330
559
102
}
330
559
100
AcDbScale
 70
     0
300
1:20
140
1.0
141
20.0
290
     0
  0
SCALE
  5
562
102
{ACAD_REACTORS
330
559
102
}
330
559
100
AcDbScale
 70
     0
300
1:30
140
1.0
141
30.0
290
     0
  0
SCALE
  5
563
102
{ACAD_REACTORS
330
559
102
}
330
559
100
AcDbScale
 70
     0
300
1:40
140
1.0
141
40.0
290
     0
  0
SCALE
  5
564
102
{ACAD_REACTORS
330
559
102
}
330
559
100
AcDbScale
 70
     0
300
1:50
140
1.0
141
50.0
290
     0
  0
SCALE
  5
565
102
{ACAD_REACTORS
330
559
102
}
330
559
100
AcDbScale
 70
     0
300
1:100
140
1.0
141
100.0
290
     0
  0
SCALE
  5
566
102
{ACAD_REACTORS
330
559
102
}
330
559
100
AcDbScale
 70
     0
300
2:1
140
2.0
141
1.0
290
     0
  0
SCALE
  5
567
102
{ACAD_REACTORS
330
559
102
}
330
559
100
AcDbScale
 70
     0
300
4:1
140
4.0
141
1.0
290
     0
  0
SCALE
  5
568
102
{ACAD_REACTORS
330
559
102
}
330
559
100
AcDbScale
 70
     0
300
8:1
140
8.0
141
1.0
290
     0
  0
SCALE
  5
569
102
{ACAD_REACTORS
330
559
102
}
330
559
100
AcDbScale
 70
     0
300
10:1
140
10.0
141
1.0
290
     0
  0
SCALE
  5
56A
102
{ACAD_REACTORS
330
559
102
}
330
559
100
AcDbScale
 70
     0
300
100:1
140
100.0
141
1.0
290
     0
  0
SCALE
  5
56B
102
{ACAD_REACTORS
330
559
102
}
330
559
100
AcDbScale
 70
     0
300
1/128" = 1'-0"
140
0.0078125
141
12.0
290
     0
  0
SCALE
  5
56C
102
{ACAD_REACTORS
330
559
102
}
330
559
100
AcDbScale
 70
     0
300
1/64" = 1'-0"
140
0.015625
141
12.0
290
     0
  0
SCALE
  5
56D
102
{ACAD_REACTORS
330
559
102
}
330
559
100
AcDbScale
 70
     0
300
1/32" = 1'-0"
140
0.03125
141
12.0
290
     0
  0
SCALE
  5
56E
102
{ACAD_REACTORS
330
559
102
}
330
559
100
AcDbScale
 70
     0
300
1/16" = 1'-0"
140
0.0625
141
12.0
290
     0
  0
SCALE
  5
56F
102
{ACAD_REACTORS
330
559
102
}
330
559
100
AcDbScale
 70
     0
300
3/32" = 1'-0"
140
0.09375
141
12.0
290
     0
  0
SCALE
  5
570
102
{ACAD_REACTORS
330
559
102
}
330
559
100
AcDbScale
 70
     0
300
1/8" = 1'-0"
140
0.125
141
12.0
290
     0
  0
SCALE
  5
571
102
{ACAD_REACTORS
330
559
102
}
330
559
100
AcDbScale
 70
     0
300
3/16" = 1'-0"
140
0.1875
141
12.0
290
     0
  0
SCALE
  5
572
102
{ACAD_REACTORS
330
559
102
}
330
559
100
AcDbScale
 70
     0
300
1/4" = 1'-0"
140
0.25
141
12.0
290
     0
  0
SCALE
  5
573
102
{ACAD_REACTORS
330
559
102
}
330
559
100
AcDbScale
 70
     0
300
3/8" = 1'-0"
140
0.375
141
12.0
290
     0
  0
SCALE
  5
574
102
{ACAD_REACTORS
330
559
102
}
330
559
100
AcDbScale
 70
     0
300
1/2" = 1'-0"
140
0.5
141
12.0
290
     0
  0
SCALE
  5
575
102
{ACAD_REACTORS
330
559
102
}
330
559
100
AcDbScale
 70
     0
300
3/4" = 1'-0"
140
0.75
141
12.0
290
     0
  0
SCALE
  5
576
102
{ACAD_REACTORS
330
559
102
}
330
559
100
AcDbScale
 70
     0
300
1" = 1'-0"
140
1.0
141
12.0
290
     0
  0
SCALE
  5
577
102
{ACAD_REACTORS
330
559
102
}
330
559
100
AcDbScale
 70
     0
300
1-1/2" = 1'-0"
140
1.5
141
12.0
290
     0
  0
SCALE
  5
578
102
{ACAD_REACTORS
330
559
102
}
330
559
100
AcDbScale
 70
     0
300
3" = 1'-0"
140
3.0
141
12.0
290
     0
  0
SCALE
  5
579
102
{ACAD_REACTORS
330
559
102
}
330
559
100
AcDbScale
 70
     0
300
6" = 1'-0"
140
6.0
141
12.0
290
     0
  0
SCALE
  5
57A
102
{ACAD_REACTORS
330
559
102
}
330
559
100
AcDbScale
 70
     0
300
1'-0" = 1'-0"
140
12.0
141
12.0
290
     0
  0
TABLESTYLE
  5
59C
102
{ACAD_REACTORS
330
59B
102
}
102
{ACAD_XDICTIONARY
360
5A2
102
}
330
59B
100
AcDbTableStyle
  3
Standard
 70
     0
 71
     0
 40
0.06
 41
0.06
280
     0
281
     0
  7
STANDARD
140
4.5
170
     2
 62
     0
 63
   257
283
     0
 90
        4
 91
        0
  1

274
    -2
284
     1
 64
     0
275
    -2
285
     1
 65
     0
276
    -2
286
     1
 66
     0
277
    -2
287
     1
 67
     0
278
    -2
288
     1
 68
     0
279
    -2
289
     1
 69
     0
  7
STANDARD
140
6.0
170
     5
 62
     0
 63
   257
283
     0
 90
        4
 91
        0
  1

274
    -2
284
     1
 64
     0
275
    -2
285
     1
 65
     0
276
    -2
286
     1
 66
     0
277
    -2
287
     1
 67
     0
278
    -2
288
     1
 68
     0
279
    -2
289
     1
 69
     0
  7
STANDARD
140
4.5
170
     5
 62
     0
 63
   257
283
     0
 90
        4
 91
        0
  1

274
    -2
284
     1
 64
     0
275
    -2
285
     1
 65
     0
276
    -2
286
     1
 66
     0
277
    -2
287
     1
 67
     0
278
    -2
288
     1
 68
     0
279
    -2
289
     1
 69
     0
  0
VISUALSTYLE
  5
583
102
{ACAD_REACTORS
330
57E
102
}
330
57E
100
AcDbVisualStyle
  2
2dWireframe
 70
     4
177
     3
291
     0
 70
    58
 90
        0
176
     1
 90
        2
176
     1
 90
        0
176
     1
 90
        0
176
     1
 40
0.6
176
     1
 40
30.0
176
     1
 62
     7
420
 16777215
176
     1
 90
        1
176
     1
 90
        4
176
     1
 62
     7
176
     1
 62
   257
176
     1
 90
        1
176
     1
 90
        1
176
     1
 40
1.0
176
     1
 90
        0
176
     1
 62
   257
176
     1
 40
1.0
176
     1
 90
        1
176
     1
 90
        6
176
     1
 90
        2
176
     1
 62
     7
176
     1
 90
        5
176
     1
 90
        0
176
     1
 90
        0
176
     1
290
     0
176
     1
 90
        1
176
     1
 40
0.0
176
     1
 90
        0
176
     1
290
     1
176
     1
290
     1
176
     1
290
     0
176
     1
290
     0
176
     1
290
     0
176
     1
290
     0
176
     1
290
     0
176
     1
290
     0
176
     1
290
     0
176
     1
 90
       50
176
     1
 40
0.0
176
     1
 40
1.0
176
     1
 90
        0
176
     1
 62
    18
420
        0
176
     1
 90
       50
176
     1
 90
        3
176
     1
 62
     5
420
      255
176
     1
290
     0
176
     1
 90
       50
176
     1
 90
       50
176
     1
 90
       50
176
     1
290
     0
176
     1
 90
       50
176
     1
 62
   256
176
     0
 40
1.0
176
     0
 90
        2
176
     1
  1
strokes_ogs.tif
176
     1
290
     0
176
     1
 40
1.0
176
     1
 40
1.0
176
     1
  0
VISUALSTYLE
  5
586
102
{ACAD_REACTORS
330
57E
102
}
330
57E
100
AcDbVisualStyle
  2
Basic
 70
     7
177
     3
291
     1
 70
    58
 90
        1
176
     1
 90
        0
176
     1
 90
        1
176
     1
 90
        0
176
     1
 40
0.6
176
     1
 40
30.0
176
     1
 62
     7
420
 16777215
176
     1
 90
        0
176
     1
 90
        4
176
     1
 62
     7
176
     1
 62
   257
176
     1
 90
        1
176
     1
 90
        1
176
     1
 40
1.0
176
     1
 90
        8
176
     1
 62
     7
176
     1
 40
1.0
176
     1
 90
        1
176
     1
 90
        6
176
     1
 90
        2
176
     1
 62
     7
176
     1
 90
        5
176
     1
 90
        0
176
     1
 90
        0
176
     1
290
     0
176
     1
 90
        1
176
     1
 40
0.0
176
     1
 90
        0
176
     1
290
     0
176
     1
290
     1
176
     1
290
     1
176
     1
290
     0
176
     1
290
     0
176
     1
290
     0
176
     1
290
     0
176
     1
290
     0
176
     1
290
     0
176
     1
 90
       50
176
     1
 40
0.0
176
     1
 40
1.0
176
     1
 90
        0
176
     1
 62
    18
420
        0
176
     1
 90
       50
176
     1
 90
        3
176
     1
 62
     5
420
      255
176
     1
290
     0
176
     1
 90
       50
176
     1
 90
       50
176
     1
 90
       50
176
     1
290
     0
176
     1
 90
       50
176
     1
 62
   256
176
     0
 40
1.0
176
     0
 90
        2
176
     1
  1
strokes_ogs.tif
176
     1
290
     0
176
     1
 40
1.0
176
     1
 40
1.0
176
     1
  0
VISUALSTYLE
  5
58A
102
{ACAD_REACTORS
330
57E
102
}
330
57E
100
AcDbVisualStyle
  2
Brighten
 70
    12
177
     3
291
     1
 70
    58
 90
        2
176
     1
 90
        2
176
     1
 90
        0
176
     1
 90
        0
176
     1
 40
0.6
176
     1
 40
30.0
176
     1
 62
     7
420
 16777215
176
     1
 90
        1
176
     1
 90
        4
176
     1
 62
     7
176
     1
 62
   257
176
     1
 90
        1
176
     1
 90
        1
176
     1
 40
1.0
176
     1
 90
        8
176
     1
 62
     7
176
     1
 40
1.0
176
     1
 90
        1
176
     1
 90
        6
176
     1
 90
        2
176
     1
 62
     7
176
     1
 90
        5
176
     1
 90
        0
176
     1
 90
        0
176
     1
290
     0
176
     1
 90
        1
176
     1
 40
50.0
176
     1
 90
        0
176
     1
290
     0
176
     1
290
     1
176
     1
290
     1
176
     1
290
     0
176
     1
290
     0
176
     1
290
     0
176
     1
290
     0
176
     1
290
     0
176
     1
290
     0
176
     1
 90
       50
176
     1
 40
0.0
176
     1
 40
1.0
176
     1
 90
        0
176
     1
 62
    18
420
        0
176
     1
 90
       50
176
     1
 90
        3
176
     1
 62
     5
420
      255
176
     1
290
     0
176
     1
 90
       50
176
     1
 90
       50
176
     1
 90
       50
176
     1
290
     0
176
     1
 90
       50
176
     1
 62
   256
176
     0
 40
1.0
176
     0
 90
        2
176
     1
  1
strokes_ogs.tif
176
     1
290
     0
176
     1
 40
1.0
176
     1
 40
1.0
176
     1
  0
VISUALSTYLE
  5
58E
102
{ACAD_REACTORS
330
57E
102
}
330
57E
100
AcDbVisualStyle
  2
ColorChange
 70
    16
177
     3
291
     1
 70
    58
 90
        2
176
     1
 90
        2
176
     1
 90
        3
176
     1
 90
        0
176
     1
 40
0.6
176
     1
 40
30.0
176
     1
 62
     8
420
  8421504
176
     1
 90
        1
176
     1
 90
        4
176
     1
 62
     7
176
     1
 62
   257
176
     1
 90
        1
176
     1
 90
        1
176
     1
 40
1.0
176
     1
 90
        8
176
     1
 62
     8
420
  8421504
176
     1
 40
1.0
176
     1
 90
        1
176
     1
 90
        6
176
     1
 90
        2
176
     1
 62
     7
176
     1
 90
        5
176
     1
 90
        0
176
     1
 90
        0
176
     1
290
     0
176
     1
 90
        1
176
     1
 40
0.0
176
     1
 90
        0
176
     1
290
     0
176
     1
290
     1
176
     1
290
     1
176
     1
290
     0
176
     1
290
     0
176
     1
290
     0
176
     1
290
     0
176
     1
290
     0
176
     1
290
     0
176
     1
 90
       50
176
     1
 40
0.0
176
     1
 40
1.0
176
     1
 90
        0
176
     1
 62
    18
420
        0
176
     1
 90
       50
176
     1
 90
        3
176
     1
 62
     5
420
      255
176
     1
290
     0
176
     1
 90
       50
176
     1
 90
       50
176
     1
 90
       50
176
     1
290
     0
176
     1
 90
       50
176
     1
 62
   256
176
     0
 40
1.0
176
     0
 90
        2
176
     1
  1
strokes_ogs.tif
176
     1
290
     0
176
     1
 40
1.0
176
     1
 40
1.0
176
     1
  0
VISUALSTYLE
  5
588
102
{ACAD_REACTORS
330
57E
102
}
330
57E
100
AcDbVisualStyle
  2
Conceptual
 70
     9
177
     3
291
     0
 70
    58
 90
        3
176
     1
 90
        2
176
     1
 90
        0
176
     1
 90
        0
176
     1
 40
0.6
176
     1
 40
30.0
176
     1
 62
     7
420
 16777215
176
     1
 90
        2
176
     1
 90
        2
176
     1
 62
     7
176
     1
 62
   257
176
     1
 90
        1
176
     1
 90
        1
176
     1
 40
179.0
176
     1
 90
        8
176
     1
 62
     7
176
     1
 40
1.0
176
     1
 90
        1
176
     1
 90
        6
176
     1
 90
        2
176
     1
 62
     7
176
     1
 90
        3
176
     1
 90
        0
176
     1
 90
        0
176
     1
290
     0
176
     1
 90
        1
176
     1
 40
0.0
176
     1
 90
        0
176
     1
290
     0
176
     1
290
     1
176
     1
290
     1
176
     1
290
     0
176
     1
290
     0
176
     1
290
     0
176
     1
290
     0
176
     1
290
     0
176
     1
290
     0
176
     1
 90
       50
176
     1
 40
0.0
176
     1
 40
1.0
176
     1
 90
        0
176
     1
 62
    18
420
        0
176
     1
 90
       50
176
     1
 90
        3
176
     1
 62
     5
420
      255
176
     1
290
     0
176
     1
 90
       50
176
     1
 90
       50
176
     1
 90
       50
176
     1
290
     0
176
     1
 90
       50
176
     1
 62
   256
176
     0
 40
1.0
176
     0
 90
        2
176
     1
  1
strokes_ogs.tif
176
     1
290
     0
176
     1
 40
1.0
176
     1
 40
1.0
176
     1
  0
VISUALSTYLE
  5
589
102
{ACAD_REACTORS
330
57E
102
}
330
57E
100
AcDbVisualStyle
  2
Dim
 70
    11
177
     3
291
     1
 70
    58
 90
        2
176
     1
 90
        2
176
     1
 90
        0
176
     1
 90
        0
176
     1
 40
0.6
176
     1
 40
30.0
176
     1
 62
     7
420
 16777215
176
     1
 90
        1
176
     1
 90
        4
176
     1
 62
     7
176
     1
 62
   257
176
     1
 90
        1
176
     1
 90
        1
176
     1
 40
1.0
176
     1
 90
        8
176
     1
 62
     7
176
     1
 40
1.0
176
     1
 90
        1
176
     1
 90
        6
176
     1
 90
        2
176
     1
 62
     7
176
     1
 90
        5
176
     1
 90
        0
176
     1
 90
        0
176
     1
290
     0
176
     1
 90
        1
176
     1
 40
-50.0
176
     1
 90
        0
176
     1
290
     0
176
     1
290
     1
176
     1
290
     1
176
     1
290
     0
176
     1
290
     0
176
     1
290
     0
176
     1
290
     0
176
     1
290
     0
176
     1
290
     0
176
     1
 90
       50
176
     1
 40
0.0
176
     1
 40
1.0
176
     1
 90
        0
176
     1
 62
    18
420
        0
176
     1
 90
       50
176
     1
 90
        3
176
     1
 62
     5
420
      255
176
     1
290
     0
176
     1
 90
       50
176
     1
 90
       50
176
     1
 90
       50
176
     1
290
     0
176
     1
 90
       50
176
     1
 62
   256
176
     0
 40
1.0
176
     0
 90
        2
176
     1
  1
strokes_ogs.tif
176
     1
290
     0
176
     1
 40
1.0
176
     1
 40
1.0
176
     1
  0
VISUALSTYLE
  5
591
102
{ACAD_REACTORS
330
57E
102
}
330
57E
100
AcDbVisualStyle
  2
EdgeColorOff
 70
    22
177
     3
291
     1
 70
    58
 90
        2
176
     0
 90
        2
176
     0
 90
        0
176
     0
 90
        0
176
     0
 40
0.6
176
     0
 40
30.0
176
     0
 62
     7
420
 16777215
176
     0
 90
        1
176
     0
 90
        4
176
     0
 62
     7
176
     0
 62
   257
176
     0
 90
        1
176
     0
 90
        1
176
     0
 40
1.0
176
     0
 90
        8
176
     2
 62
     7
176
     0
 40
1.0
176
     0
 90
        1
176
     0
 90
        6
176
     0
 90
        2
176
     0
 62
     7
176
     0
 90
        5
176
     0
 90
        0
176
     0
 90
        0
176
     0
290
     0
176
     0
 90
        1
176
     0
 40
0.0
176
     0
 90
        0
176
     0
290
     0
176
     0
290
     1
176
     0
290
     1
176
     0
290
     0
176
     0
290
     0
176
     0
290
     0
176
     0
290
     0
176
     0
290
     0
176
     0
290
     0
176
     0
 90
       50
176
     0
 40
0.0
176
     0
 40
1.0
176
     0
 90
        0
176
     0
 62
    18
420
        0
176
     0
 90
       50
176
     0
 90
        3
176
     0
 62
     5
420
      255
176
     0
290
     0
176
     0
 90
       50
176
     0
 90
       50
176
     0
 90
       50
176
     0
290
     0
176
     0
 90
       50
176
     0
 62
   256
176
     0
 40
1.0
176
     0
 90
        2
176
     0
  1
strokes_ogs.tif
176
     0
290
     0
176
     0
 40
1.0
176
     0
 40
1.0
176
     0
  0
VISUALSTYLE
  5
58D
102
{ACAD_REACTORS
330
57E
102
}
330
57E
100
AcDbVisualStyle
  2
Facepattern
 70
    15
177
     3
291
     1
 70
    58
 90
        2
176
     1
 90
        2
176
     1
 90
        0
176
     1
 90
        0
176
     1
 40
0.6
176
     1
 40
30.0
176
     1
 62
     7
420
 16777215
176
     1
 90
        1
176
     1
 90
        4
176
     1
 62
     7
176
     1
 62
   257
176
     1
 90
        1
176
     1
 90
        1
176
     1
 40
1.0
176
     1
 90
        8
176
     1
 62
     7
176
     1
 40
1.0
176
     1
 90
        1
176
     1
 90
        6
176
     1
 90
        2
176
     1
 62
     7
176
     1
 90
        5
176
     1
 90
        0
176
     1
 90
        0
176
     1
290
     0
176
     1
 90
        1
176
     1
 40
0.0
176
     1
 90
        0
176
     1
290
     0
176
     1
290
     1
176
     1
290
     1
176
     1
290
     0
176
     1
290
     0
176
     1
290
     0
176
     1
290
     0
176
     1
290
     0
176
     1
290
     0
176
     1
 90
       50
176
     1
 40
0.0
176
     1
 40
1.0
176
     1
 90
        0
176
     1
 62
    18
420
        0
176
     1
 90
       50
176
     1
 90
        3
176
     1
 62
     5
420
      255
176
     1
290
     0
176
     1
 90
       50
176
     1
 90
       50
176
     1
 90
       50
176
     1
290
     0
176
     1
 90
       50
176
     1
 62
   256
176
     0
 40
1.0
176
     0
 90
        2
176
     1
  1
strokes_ogs.tif
176
     1
290
     0
176
     1
 40
1.0
176
     1
 40
1.0
176
     1
  0
VISUALSTYLE
  5
57F
102
{ACAD_REACTORS
330
57E
102
}
330
57E
100
AcDbVisualStyle
  2
Flat
 70
     0
177
     3
291
     1
 70
    58
 90
        2
176
     1
 90
        1
176
     1
 90
        1
176
     1
 90
        2
176
     1
 40
0.6
176
     1
 40
30.0
176
     1
 62
     7
420
 16777215
176
     1
 90
        0
176
     1
 90
        0
176
     1
 62
     7
176
     1
 62
   257
176
     1
 90
        1
176
     1
 90
        1
176
     1
 40
1.0
176
     1
 90
        8
176
     1
 62
     7
176
     1
 40
1.0
176
     1
 90
        1
176
     1
 90
        6
176
     1
 90
        2
176
     1
 62
     7
176
     1
 90
        5
176
     1
 90
        0
176
     1
 90
        0
176
     1
290
     0
176
     1
 90
       13
176
     1
 40
0.0
176
     1
 90
        0
176
     1
290
     0
176
     1
290
     1
176
     1
290
     1
176
     1
290
     0
176
     1
290
     0
176
     1
290
     0
176
     1
290
     0
176
     1
290
     0
176
     1
290
     0
176
     1
 90
       50
176
     1
 40
0.0
176
     1
 40
1.0
176
     1
 90
        0
176
     1
 62
    18
420
        0
176
     1
 90
       50
176
     1
 90
        3
176
     1
 62
     5
420
      255
176
     1
290
     0
176
     1
 90
       50
176
     1
 90
       50
176
     1
 90
       50
176
     1
290
     0
176
     1
 90
       50
176
     1
 62
   256
176
     0
 40
1.0
176
     0
 90
        2
176
     1
  1
strokes_ogs.tif
176
     1
290
     0
176
     1
 40
1.0
176
     1
 40
1.0
176
     1
  0
VISUALSTYLE
  5
580
102
{ACAD_REACTORS
330
57E
102
}
330
57E
100
AcDbVisualStyle
  2
FlatWithEdges
 70
     1
177
     3
291
     1
 70
    58
 90
        2
176
     1
 90
        1
176
     1
 90
        1
176
     1
 90
        2
176
     1
 40
0.6
176
     1
 40
30.0
176
     1
 62
     7
420
 16777215
176
     1
 90
        1
176
     1
 90
        0
176
     1
 62
     7
176
     1
 62
   257
176
     1
 90
        1
176
     1
 90
        1
176
     1
 40
1.0
176
     1
 90
        0
176
     1
 62
   257
176
     1
 40
1.0
176
     1
 90
        1
176
     1
 90
        6
176
     1
 90
        2
176
     1
 62
     7
176
     1
 90
        5
176
     1
 90
        0
176
     1
 90
        0
176
     1
290
     0
176
     1
 90
       13
176
     1
 40
0.0
176
     1
 90
        0
176
     1
290
     0
176
     1
290
     1
176
     1
290
     1
176
     1
290
     0
176
     1
290
     0
176
     1
290
     0
176
     1
290
     0
176
     1
290
     0
176
     1
290
     0
176
     1
 90
       50
176
     1
 40
0.0
176
     1
 40
1.0
176
     1
 90
        0
176
     1
 62
    18
420
        0
176
     1
 90
       50
176
     1
 90
        3
176
     1
 62
     5
420
      255
176
     1
290
     0
176
     1
 90
       50
176
     1
 90
       50
176
     1
 90
       50
176
     1
290
     0
176
     1
 90
       50
176
     1
 62
   256
176
     0
 40
1.0
176
     0
 90
        2
176
     1
  1
strokes_ogs.tif
176
     1
290
     0
176
     1
 40
1.0
176
     1
 40
1.0
176
     1
  0
VISUALSTYLE
  5
581
102
{ACAD_REACTORS
330
57E
102
}
330
57E
100
AcDbVisualStyle
  2
Gouraud
 70
     2
177
     3
291
     1
 70
    58
 90
        2
176
     1
 90
        2
176
     1
 90
        1
176
     1
 90
        2
176
     1
 40
0.6
176
     1
 40
30.0
176
     1
 62
     7
420
 16777215
176
     1
 90
        0
176
     1
 90
        0
176
     1
 62
     7
176
     1
 62
   257
176
     1
 90
        1
176
     1
 90
        1
176
     1
 40
1.0
176
     1
 90
        0
176
     1
 62
     7
176
     1
 40
1.0
176
     1
 90
        1
176
     1
 90
        6
176
     1
 90
        2
176
     1
 62
     7
176
     1
 90
        5
176
     1
 90
        0
176
     1
 90
        0
176
     1
290
     0
176
     1
 90
       13
176
     1
 40
0.0
176
     1
 90
        0
176
     1
290
     0
176
     1
290
     1
176
     1
290
     1
176
     1
290
     0
176
     1
290
     0
176
     1
290
     0
176
     1
290
     0
176
     1
290
     0
176
     1
290
     0
176
     1
 90
       50
176
     1
 40
0.0
176
     1
 40
1.0
176
     1
 90
        0
176
     1
 62
    18
420
        0
176
     1
 90
       50
176
     1
 90
        3
176
     1
 62
     5
420
      255
176
     1
290
     0
176
     1
 90
       50
176
     1
 90
       50
176
     1
 90
       50
176
     1
290
     0
176
     1
 90
       50
176
     1
 62
   256
176
     0
 40
1.0
176
     0
 90
        2
176
     1
  1
strokes_ogs.tif
176
     1
290
     0
176
     1
 40
1.0
176
     1
 40
1.0
176
     1
  0
VISUALSTYLE
  5
582
102
{ACAD_REACTORS
330
57E
102
}
330
57E
100
AcDbVisualStyle
  2
GouraudWithEdges
 70
     3
177
     3
291
     1
 70
    58
 90
        2
176
     1
 90
        2
176
     1
 90
        1
176
     1
 90
        2
176
     1
 40
0.6
176
     1
 40
30.0
176
     1
 62
     7
420
 16777215
176
     1
 90
        1
176
     1
 90
        0
176
     1
 62
     7
176
     1
 62
   257
176
     1
 90
        1
176
     1
 90
        1
176
     1
 40
1.0
176
     1
 90
        0
176
     1
 62
   257
176
     1
 40
1.0
176
     1
 90
        1
176
     1
 90
        6
176
     1
 90
        2
176
     1
 62
     7
176
     1
 90
        5
176
     1
 90
        0
176
     1
 90
        0
176
     1
290
     0
176
     1
 90
       13
176
     1
 40
0.0
176
     1
 90
        0
176
     1
290
     0
176
     1
290
     1
176
     1
290
     1
176
     1
290
     0
176
     1
290
     0
176
     1
290
     0
176
     1
290
     0
176
     1
290
     0
176
     1
290
     0
176
     1
 90
       50
176
     1
 40
0.0
176
     1
 40
1.0
176
     1
 90
        0
176
     1
 62
    18
420
        0
176
     1
 90
       50
176
     1
 90
        3
176
     1
 62
     5
420
      255
176
     1
290
     0
176
     1
 90
       50
176
     1
 90
       50
176
     1
 90
       50
176
     1
290
     0
176
     1
 90
       50
176
     1
 62
   256
176
     0
 40
1.0
176
     0
 90
        2
176
     1
  1
strokes_ogs.tif
176
     1
290
     0
176
     1
 40
1.0
176
     1
 40
1.0
176
     1
  0
VISUALSTYLE
  5
585
102
{ACAD_REACTORS
330
57E
102
}
330
57E
100
AcDbVisualStyle
  2
Hidden
 70
     6
177
     3
291
     0
 70
    58
 90
        1
176
     1
 90
        2
176
     1
 90
        2
176
     1
 90
        0
176
     1
 40
0.6
176
     1
 40
30.0
176
     1
 62
     7
420
 16777215
176
     1
 90
        2
176
     1
 90
        2
176
     1
 62
     7
176
     1
 62
   257
176
     1
 90
        2
176
     1
 90
        1
176
     1
 40
40.0
176
     1
 90
        0
176
     1
 62
   257
176
     1
 40
1.0
176
     1
 90
        1
176
     1
 90
        6
176
     1
 90
        2
176
     1
 62
     7
176
     1
 90
        3
176
     1
 90
        0
176
     1
 90
        0
176
     1
290
     0
176
     1
 90
        1
176
     1
 40
0.0
176
     1
 90
        0
176
     1
290
     0
176
     1
290
     1
176
     1
290
     1
176
     1
290
     0
176
     1
290
     0
176
     1
290
     0
176
     1
290
     0
176
     1
290
     0
176
     1
290
     0
176
     1
 90
       50
176
     1
 40
0.0
176
     1
 40
1.0
176
     1
 90
        0
176
     1
 62
    18
420
        0
176
     1
 90
       50
176
     1
 90
        3
176
     1
 62
     5
420
      255
176
     1
290
     0
176
     1
 90
       50
176
     1
 90
       50
176
     1
 90
       50
176
     1
290
     0
176
     1
 90
       50
176
     1
 62
   256
176
     0
 40
1.0
176
     0
 90
        2
176
     1
  1
strokes_ogs.tif
176
     1
290
     0
176
     1
 40
1.0
176
     1
 40
1.0
176
     1
  0
VISUALSTYLE
  5
58F
102
{ACAD_REACTORS
330
57E
102
}
330
57E
100
AcDbVisualStyle
  2
JitterOff
 70
    20
177
     3
291
     1
 70
    58
 90
        2
176
     0
 90
        2
176
     0
 90
        0
176
     0
 90
        0
176
     0
 40
0.6
176
     0
 40
30.0
176
     0
 62
     7
420
 16777215
176
     0
 90
        1
176
     0
 90
        4
176
     0
 62
     7
176
     0
 62
   257
176
     0
 90
        1
176
     0
 90
        1
176
     0
 40
1.0
176
     0
 90
       10
176
     2
 62
     7
176
     0
 40
1.0
176
     0
 90
        1
176
     0
 90
        6
176
     0
 90
        2
176
     0
 62
     7
176
     0
 90
        5
176
     0
 90
        0
176
     0
 90
        0
176
     0
290
     0
176
     0
 90
        1
176
     0
 40
0.0
176
     0
 90
        0
176
     0
290
     0
176
     0
290
     1
176
     0
290
     1
176
     0
290
     0
176
     0
290
     0
176
     0
290
     0
176
     0
290
     0
176
     0
290
     0
176
     0
290
     0
176
     0
 90
       50
176
     0
 40
0.0
176
     0
 40
1.0
176
     0
 90
        0
176
     0
 62
    18
420
        0
176
     0
 90
       50
176
     0
 90
        3
176
     0
 62
     5
420
      255
176
     0
290
     0
176
     0
 90
       50
176
     0
 90
       50
176
     0
 90
       50
176
     0
290
     0
176
     0
 90
       50
176
     0
 62
   256
176
     0
 40
1.0
176
     0
 90
        2
176
     0
  1
strokes_ogs.tif
176
     0
290
     0
176
     0
 40
1.0
176
     0
 40
1.0
176
     0
  0
VISUALSTYLE
  5
58C
102
{ACAD_REACTORS
330
57E
102
}
330
57E
100
AcDbVisualStyle
  2
Linepattern
 70
    14
177
     3
291
     1
 70
    58
 90
        2
176
     1
 90
        2
176
     1
 90
        0
176
     1
 90
        0
176
     1
 40
0.6
176
     1
 40
30.0
176
     1
 62
     7
420
 16777215
176
     1
 90
        1
176
     1
 90
        4
176
     1
 62
     7
176
     1
 62
   257
176
     1
 90
        7
176
     1
 90
        7
176
     1
 40
1.0
176
     1
 90
        8
176
     1
 62
     7
176
     1
 40
1.0
176
     1
 90
        1
176
     1
 90
        6
176
     1
 90
        2
176
     1
 62
     7
176
     1
 90
        5
176
     1
 90
        0
176
     1
 90
        0
176
     1
290
     0
176
     1
 90
        1
176
     1
 40
0.0
176
     1
 90
        0
176
     1
290
     0
176
     1
290
     1
176
     1
290
     1
176
     1
290
     0
176
     1
290
     0
176
     1
290
     0
176
     1
290
     0
176
     1
290
     0
176
     1
290
     0
176
     1
 90
       50
176
     1
 40
0.0
176
     1
 40
1.0
176
     1
 90
        0
176
     1
 62
    18
420
        0
176
     1
 90
       50
176
     1
 90
        3
176
     1
 62
     5
420
      255
176
     1
290
     0
176
     1
 90
       50
176
     1
 90
       50
176
     1
 90
       50
176
     1
290
     0
176
     1
 90
       50
176
     1
 62
   256
176
     0
 40
1.0
176
     0
 90
        2
176
     1
  1
strokes_ogs.tif
176
     1
290
     0
176
     1
 40
1.0
176
     1
 40
1.0
176
     1
  0
VISUALSTYLE
  5
590
102
{ACAD_REACTORS
330
57E
102
}
330
57E
100
AcDbVisualStyle
  2
OverhangOff
 70
    21
177
     3
291
     1
 70
    58
 90
        2
176
     0
 90
        2
176
     0
 90
        0
176
     0
 90
        0
176
     0
 40
0.6
176
     0
 40
30.0
176
     0
 62
     7
420
 16777215
176
     0
 90
        1
176
     0
 90
        4
176
     0
 62
     7
176
     0
 62
   257
176
     0
 90
        1
176
     0
 90
        1
176
     0
 40
1.0
176
     0
 90
        9
176
     2
 62
     7
176
     0
 40
1.0
176
     0
 90
        1
176
     0
 90
        6
176
     0
 90
        2
176
     0
 62
     7
176
     0
 90
        5
176
     0
 90
        0
176
     0
 90
        0
176
     0
290
     0
176
     0
 90
        1
176
     0
 40
0.0
176
     0
 90
        0
176
     0
290
     0
176
     0
290
     1
176
     0
290
     1
176
     0
290
     0
176
     0
290
     0
176
     0
290
     0
176
     0
290
     0
176
     0
290
     0
176
     0
290
     0
176
     0
 90
       50
176
     0
 40
0.0
176
     0
 40
1.0
176
     0
 90
        0
176
     0
 62
    18
420
        0
176
     0
 90
       50
176
     0
 90
        3
176
     0
 62
     5
420
      255
176
     0
290
     0
176
     0
 90
       50
176
     0
 90
       50
176
     0
 90
       50
176
     0
290
     0
176
     0
 90
       50
176
     0
 62
   256
176
     0
 40
1.0
176
     0
 90
        2
176
     0
  1
strokes_ogs.tif
176
     0
290
     0
176
     0
 40
1.0
176
     0
 40
1.0
176
     0
  0
VISUALSTYLE
  5
587
102
{ACAD_REACTORS
330
57E
102
}
330
57E
100
AcDbVisualStyle
  2
Realistic
 70
     8
177
     3
291
     0
 70
    58
 90
        2
176
     1
 90
        3
176
     1
 90
        0
176
     1
 90
        2
176
     1
 40
0.6
176
     1
 40
30.0
176
     1
 62
     7
420
 16777215
176
     1
 90
        0
176
     1
 90
        0
176
     1
 62
     7
176
     1
 62
   257
176
     1
 90
        1
176
     1
 90
        1
176
     1
 40
1.0
176
     1
 90
        8
176
     1
 62
   257
176
     1
 40
1.0
176
     1
 90
        1
176
     1
 90
        6
176
     1
 90
        2
176
     1
 62
     7
176
     1
 90
        3
176
     1
 90
        0
176
     1
 90
        0
176
     1
290
     0
176
     1
 90
       13
176
     1
 40
0.0
176
     1
 90
        0
176
     1
290
     0
176
     1
290
     1
176
     1
290
     1
176
     1
290
     0
176
     1
290
     0
176
     1
290
     0
176
     1
290
     0
176
     1
290
     0
176
     1
290
     0
176
     1
 90
       50
176
     1
 40
0.0
176
     1
 40
1.0
176
     1
 90
        0
176
     1
 62
    18
420
        0
176
     1
 90
       50
176
     1
 90
        3
176
     1
 62
     5
420
      255
176
     1
290
     0
176
     1
 90
       50
176
     1
 90
       50
176
     1
 90
       50
176
     1
290
     0
176
     1
 90
       50
176
     1
 62
   256
176
     0
 40
1.0
176
     0
 90
        2
176
     1
  1
strokes_ogs.tif
176
     1
290
     0
176
     1
 40
1.0
176
     1
 40
1.0
176
     1
  0
VISUALSTYLE
  5
596
102
{ACAD_REACTORS
330
57E
102
}
330
57E
100
AcDbVisualStyle
  2
Shaded
 70
    27
177
     3
291
     0
 70
    58
 90
        2
176
     1
 90
        2
176
     1
 90
        1
176
     1
 90
        2
176
     1
 40
0.6
176
     1
 40
30.0
176
     1
 62
     7
420
 16777215
176
     1
 90
        0
176
     1
 90
        4
176
     1
 62
     7
176
     1
 62
   257
176
     1
 90
        1
176
     1
 90
        1
176
     1
 40
1.0
176
     1
 90
        8
176
     1
 62
   257
176
     1
 40
1.0
176
     1
 90
        1
176
     1
 90
        6
176
     1
 90
        2
176
     1
 62
     8
420
  7895160
176
     1
 90
        3
176
     1
 90
        0
176
     1
 90
        0
176
     1
290
     0
176
     1
 90
        5
176
     1
 40
0.0
176
     1
 90
        0
176
     1
290
     0
176
     1
290
     1
176
     1
290
     1
176
     1
290
     0
176
     1
290
     0
176
     1
290
     0
176
     1
290
     0
176
     1
290
     0
176
     1
290
     0
176
     1
 90
       50
176
     1
 40
0.0
176
     1
 40
1.0
176
     1
 90
        0
176
     1
 62
    18
420
        0
176
     1
 90
       50
176
     1
 90
        3
176
     1
 62
     5
420
      255
176
     1
290
     0
176
     1
 90
       50
176
     1
 90
       50
176
     1
 90
       50
176
     1
290
     0
176
     1
 90
       50
176
     1
 62
   256
176
     0
 40
1.0
176
     0
 90
        2
176
     1
  1
strokes_ogs.tif
176
     1
290
     0
176
     1
 40
1.0
176
     1
 40
1.0
176
     1
  0
VISUALSTYLE
  5
595
102
{ACAD_REACTORS
330
57E
102
}
330
57E
100
AcDbVisualStyle
  2
Shaded with edges
 70
    26
177
     3
291
     0
 70
    58
 90
        2
176
     1
 90
        2
176
     1
 90
        1
176
     1
 90
        2
176
     1
 40
0.6
176
     1
 40
30.0
176
     1
 62
     7
420
 16777215
176
     1
 90
        1
176
     1
 90
       10
176
     1
 62
     7
176
     1
 62
   257
176
     1
 90
        2
176
     1
 90
        1
176
     1
 40
1.0
176
     1
 90
        8
176
     1
 62
   257
176
     1
 40
1.0
176
     1
 90
        1
176
     1
 90
        6
176
     1
 90
        2
176
     1
 62
     7
176
     1
 90
        3
176
     1
 90
        0
176
     1
 90
        0
176
     1
290
     0
176
     1
 90
        5
176
     1
 40
0.0
176
     1
 90
        0
176
     1
290
     0
176
     1
290
     1
176
     1
290
     1
176
     1
290
     0
176
     1
290
     0
176
     1
290
     0
176
     1
290
     0
176
     1
290
     0
176
     1
290
     0
176
     1
 90
       50
176
     1
 40
0.0
176
     1
 40
1.0
176
     1
 90
        0
176
     1
 62
    18
420
        0
176
     1
 90
       50
176
     1
 90
        3
176
     1
 62
     5
420
      255
176
     1
290
     0
176
     1
 90
       50
176
     1
 90
       50
176
     1
 90
       50
176
     1
290
     0
176
     1
 90
       50
176
     1
 62
   256
176
     0
 40
1.0
176
     0
 90
        2
176
     1
  1
strokes_ogs.tif
176
     1
290
     0
176
     1
 40
1.0
176
     1
 40
1.0
176
     1
  0
VISUALSTYLE
  5
592
102
{ACAD_REACTORS
330
57E
102
}
330
57E
100
AcDbVisualStyle
  2
Shades of Gray
 70
    23
177
     3
291
     0
 70
    58
 90
        2
176
     1
 90
        2
176
     1
 90
        3
176
     1
 90
        0
176
     1
 40
0.6
176
     1
 40
30.0
176
     1
 62
     7
420
 16777215
176
     1
 90
        2
176
     1
 90
        2
176
     1
 62
     7
176
     1
 62
     7
176
     1
 90
        1
176
     1
 90
        1
176
     1
 40
40.0
176
     1
 90
        8
176
     1
 62
     7
176
     1
 40
1.0
176
     1
 90
        1
176
     1
 90
        6
176
     1
 90
        2
176
     1
 62
     7
176
     1
 90
        3
176
     1
 90
        0
176
     1
 90
        0
176
     1
290
     0
176
     1
 90
        1
176
     1
 40
0.0
176
     1
 90
        0
176
     1
290
     0
176
     1
290
     1
176
     1
290
     1
176
     1
290
     0
176
     1
290
     0
176
     1
290
     0
176
     1
290
     0
176
     1
290
     0
176
     1
290
     0
176
     1
 90
       50
176
     1
 40
0.0
176
     1
 40
1.0
176
     1
 90
        0
176
     1
 62
    18
420
        0
176
     1
 90
       50
176
     1
 90
        3
176
     1
 62
     5
420
      255
176
     1
290
     0
176
     1
 90
       50
176
     1
 90
       50
176
     1
 90
       50
176
     1
290
     0
176
     1
 90
       50
176
     1
 62
   256
176
     0
 40
1.0
176
     0
 90
        2
176
     1
  1
strokes_ogs.tif
176
     1
290
     0
176
     1
 40
1.0
176
     1
 40
1.0
176
     1
  0
VISUALSTYLE
  5
593
102
{ACAD_REACTORS
330
57E
102
}
330
57E
100
AcDbVisualStyle
  2
Sketchy
 70
    24
177
     3
291
     0
 70
    58
 90
        1
176
     1
 90
        2
176
     1
 90
        2
176
     1
 90
        0
176
     1
 40
0.6
176
     1
 40
30.0
176
     1
 62
     7
420
 16777215
176
     1
 90
        2
176
     1
 90
        2
176
     1
 62
     7
176
     1
 62
     7
176
     1
 90
        1
176
     1
 90
        1
176
     1
 40
40.0
176
     1
 90
       11
176
     1
 62
     7
176
     1
 40
1.0
176
     1
 90
        1
176
     1
 90
        6
176
     1
 90
        2
176
     1
 62
     7
176
     1
 90
        6
176
     1
 90
        0
176
     1
 90
        0
176
     1
290
     0
176
     1
 90
        1
176
     1
 40
0.0
176
     1
 90
        0
176
     1
290
     0
176
     1
290
     1
176
     1
290
     1
176
     1
290
     0
176
     1
290
     0
176
     1
290
     0
176
     1
290
     0
176
     1
290
     0
176
     1
290
     0
176
     1
 90
       50
176
     1
 40
0.0
176
     1
 40
1.0
176
     1
 90
        0
176
     1
 62
    18
420
        0
176
     1
 90
       50
176
     1
 90
        3
176
     1
 62
     5
420
      255
176
     1
290
     0
176
     1
 90
       50
176
     1
 90
       50
176
     1
 90
       50
176
     1
290
     0
176
     1
 90
       50
176
     1
 62
   256
176
     0
 40
1.0
176
     0
 90
        2
176
     1
  1
strokes_ogs.tif
176
     1
290
     0
176
     1
 40
1.0
176
     1
 40
1.0
176
     1
  0
VISUALSTYLE
  5
58B
102
{ACAD_REACTORS
330
57E
102
}
330
57E
100
AcDbVisualStyle
  2
Thicken
 70
    13
177
     3
291
     1
 70
    58
 90
        2
176
     1
 90
        2
176
     1
 90
        0
176
     1
 90
        0
176
     1
 40
0.6
176
     1
 40
30.0
176
     1
 62
     7
420
 16777215
176
     1
 90
        1
176
     1
 90
        4
176
     1
 62
     7
176
     1
 62
   257
176
     1
 90
        1
176
     1
 90
        1
176
     1
 40
1.0
176
     1
 90
       12
176
     1
 62
     7
176
     1
 40
1.0
176
     1
 90
        1
176
     1
 90
        6
176
     1
 90
        2
176
     1
 62
     7
176
     1
 90
        5
176
     1
 90
        0
176
     1
 90
        0
176
     1
290
     0
176
     1
 90
        1
176
     1
 40
0.0
176
     1
 90
        0
176
     1
290
     0
176
     1
290
     1
176
     1
290
     1
176
     1
290
     0
176
     1
290
     0
176
     1
290
     0
176
     1
290
     0
176
     1
290
     0
176
     1
290
     0
176
     1
 90
       50
176
     1
 40
0.0
176
     1
 40
1.0
176
     1
 90
        0
176
     1
 62
    18
420
        0
176
     1
 90
       50
176
     1
 90
        3
176
     1
 62
     5
420
      255
176
     1
290
     0
176
     1
 90
       50
176
     1
 90
       50
176
     1
 90
       50
176
     1
290
     0
176
     1
 90
       50
176
     1
 62
   256
176
     0
 40
1.0
176
     0
 90
        2
176
     1
  1
strokes_ogs.tif
176
     1
290
     0
176
     1
 40
1.0
176
     1
 40
1.0
176
     1
  0
VISUALSTYLE
  5
584
102
{ACAD_REACTORS
330
57E
102
}
330
57E
100
AcDbVisualStyle
  2
Wireframe
 70
     5
177
     3
291
     0
 70
    58
 90
        0
176
     1
 90
        2
176
     1
 90
        0
176
     1
 90
        0
176
     1
 40
0.6
176
     1
 40
30.0
176
     1
 62
     7
420
 16777215
176
     1
 90
        1
176
     1
 90
        4
176
     1
 62
     7
176
     1
 62
   257
176
     1
 90
        1
176
     1
 90
        1
176
     1
 40
1.0
176
     1
 90
        0
176
     1
 62
   257
176
     1
 40
1.0
176
     1
 90
        1
176
     1
 90
        6
176
     1
 90
        2
176
     1
 62
     7
176
     1
 90
        3
176
     1
 90
        0
176
     1
 90
        0
176
     1
290
     0
176
     1
 90
        1
176
     1
 40
0.0
176
     1
 90
        0
176
     1
290
     0
176
     1
290
     1
176
     1
290
     1
176
     1
290
     0
176
     1
290
     0
176
     1
290
     0
176
     1
290
     0
176
     1
290
     0
176
     1
290
     0
176
     1
 90
       50
176
     1
 40
0.0
176
     1
 40
1.0
176
     1
 90
        0
176
     1
 62
    18
420
        0
176
     1
 90
       50
176
     1
 90
        3
176
     1
 62
     5
420
      255
176
     1
290
     0
176
     1
 90
       50
176
     1
 90
       50
176
     1
 90
       50
176
     1
290
     0
176
     1
 90
       50
176
     1
 62
   256
176
     0
 40
1.0
176
     0
 90
        2
176
     1
  1
strokes_ogs.tif
176
     1
290
     0
176
     1
 40
1.0
176
     1
 40
1.0
176
     1
  0
VISUALSTYLE
  5
594
102
{ACAD_REACTORS
330
57E
102
}
330
57E
100
AcDbVisualStyle
  2
X-Ray
 70
    25
177
     3
291
     0
 70
    58
 90
        2
176
     1
 90
        2
176
     1
 90
        1
176
     1
 90
        1
176
     1
 40
0.5
176
     1
 40
30.0
176
     1
 62
     7
420
 16777215
176
     1
 90
        1
176
     1
 90
        0
176
     1
 62
     7
176
     1
 62
   257
176
     1
 90
        1
176
     1
 90
        1
176
     1
 40
1.0
176
     1
 90
        8
176
     1
 62
     7
176
     1
 40
1.0
176
     1
 90
        1
176
     1
 90
        6
176
     1
 90
        2
176
     1
 62
     7
176
     1
 90
        3
176
     1
 90
        0
176
     1
 90
        0
176
     1
290
     0
176
     1
 90
       13
176
     1
 40
0.0
176
     1
 90
        0
176
     1
290
     0
176
     1
290
     1
176
     1
290
     1
176
     1
290
     0
176
     1
290
     0
176
     1
290
     0
176
     1
290
     0
176
     1
290
     0
176
     1
290
     0
176
     1
 90
       50
176
     1
 40
0.0
176
     1
 40
1.0
176
     1
 90
        0
176
     1
 62
    18
420
        0
176
     1
 90
       50
176
     1
 90
        3
176
     1
 62
     5
420
      255
176
     1
290
     0
176
     1
 90
       50
176
     1
 90
       50
176
     1
 90
       50
176
     1
290
     0
176
     1
 90
       50
176
     1
 62
   256
176
     0
 40
1.0
176
     0
 90
        2
176
     1
  1
strokes_ogs.tif
176
     1
290
     0
176
     1
 40
1.0
176
     1
 40
1.0
176
     1
  0
DICTIONARYVAR
  5
5A1
102
{ACAD_REACTORS
330
5A0
102
}
330
5A0
100
DictionaryVariables
280
     0
  1
1:1
  0
DICTIONARYVAR
  5
5A6
102
{ACAD_REACTORS
330
5A0
102
}
330
5A0
100
DictionaryVariables
280
     0
  1
Standard
  0
DICTIONARYVAR
  5
5A5
102
{ACAD_REACTORS
330
5A0
102
}
330
5A0
100
DictionaryVariables
280
     0
  1
Standard
  0
DICTIONARYVAR
  5
5A7
102
{ACAD_REACTORS
330
5A0
102
}
330
5A0
100
DictionaryVariables
280
     0
  1
0
  0
DICTIONARY
  5
5A2
330
59C
100
AcDbDictionary
280
     1
281
     1
  3
ACAD_ROUNDTRIP_2008_TABLESTYLE_CELLSTYLEMAP
360
5A3
  0
CELLSTYLEMAP
  5
5A3
102
{ACAD_REACTORS
330
5A2
102
}
330
5A2
100
AcDbCellStyleMap
 90
        3
300
CELLSTYLE
  1
TABLEFORMAT_BEGIN
 90
        5
170
     1
 91
        0
 92
    32768
 62
   257
 93
        1
300
CONTENTFORMAT
  1
CONTENTFORMAT_BEGIN
 90
        0
 91
        0
 92
        4
 93
        0
300

 40
0.0
140
1.0
 94
        5
 62
     0
340
11
144
6.0
309
CONTENTFORMAT_END
171
     1
301
MARGIN
  1
CELLMARGIN_BEGIN
 40
1.5
 40
1.5
 40
1.5
 40
1.5
 40
1.5
 40
1.5
309
CELLMARGIN_END
 94
        6
 95
        1
302
GRIDFORMAT
  1
GRIDFORMAT_BEGIN
 90
        0
 91
        1
 62
     0
 92
       -2
340
14
 93
        0
 40
0.045
309
GRIDFORMAT_END
 95
        2
302
GRIDFORMAT
  1
GRIDFORMAT_BEGIN
 90
        0
 91
        1
 62
     0
 92
       -2
340
14
 93
        0
 40
0.045
309
GRIDFORMAT_END
 95
        4
302
GRIDFORMAT
  1
GRIDFORMAT_BEGIN
 90
        0
 91
        1
 62
     0
 92
       -2
340
14
 93
        0
 40
0.045
309
GRIDFORMAT_END
 95
        8
302
GRIDFORMAT
  1
GRIDFORMAT_BEGIN
 90
        0
 91
        1
 62
     0
 92
       -2
340
14
 93
        0
 40
0.045
309
GRIDFORMAT_END
 95
       16
302
GRIDFORMAT
  1
GRIDFORMAT_BEGIN
 90
        0
 91
        1
 62
     0
 92
       -2
340
14
 93
        0
 40
0.045
309
GRIDFORMAT_END
 95
       32
302
GRIDFORMAT
  1
GRIDFORMAT_BEGIN
 90
        0
 91
        1
 62
     0
 92
       -2
340
14
 93
        0
 40
0.045
309
GRIDFORMAT_END
309
TABLEFORMAT_END
  1
CELLSTYLE_BEGIN
 90
        1
 91
        1
300
_TITLE
309
CELLSTYLE_END
300
CELLSTYLE
  1
TABLEFORMAT_BEGIN
 90
        5
170
     1
 91
        0
 92
        0
 62
   257
 93
        1
300
CONTENTFORMAT
  1
CONTENTFORMAT_BEGIN
 90
        0
 91
        0
 92
        4
 93
        0
300

 40
0.0
140
1.0
 94
        5
 62
     0
340
11
144
4.5
309
CONTENTFORMAT_END
171
     1
301
MARGIN
  1
CELLMARGIN_BEGIN
 40
1.5
 40
1.5
 40
1.5
 40
1.5
 40
1.5
 40
1.5
309
CELLMARGIN_END
 94
        6
 95
        1
302
GRIDFORMAT
  1
GRIDFORMAT_BEGIN
 90
        0
 91
        1
 62
     0
 92
       -2
340
14
 93
        0
 40
0.045
309
GRIDFORMAT_END
 95
        2
302
GRIDFORMAT
  1
GRIDFORMAT_BEGIN
 90
        0
 91
        1
 62
     0
 92
       -2
340
14
 93
        0
 40
0.045
309
GRIDFORMAT_END
 95
        4
302
GRIDFORMAT
  1
GRIDFORMAT_BEGIN
 90
        0
 91
        1
 62
     0
 92
       -2
340
14
 93
        0
 40
0.045
309
GRIDFORMAT_END
 95
        8
302
GRIDFORMAT
  1
GRIDFORMAT_BEGIN
 90
        0
 91
        1
 62
     0
 92
       -2
340
14
 93
        0
 40
0.045
309
GRIDFORMAT_END
 95
       16
302
GRIDFORMAT
  1
GRIDFORMAT_BEGIN
 90
        0
 91
        1
 62
     0
 92
       -2
340
14
 93
        0
 40
0.045
309
GRIDFORMAT_END
 95
       32
302
GRIDFORMAT
  1
GRIDFORMAT_BEGIN
 90
        0
 91
        1
 62
     0
 92
       -2
340
14
 93
        0
 40
0.045
309
GRIDFORMAT_END
309
TABLEFORMAT_END
  1
CELLSTYLE_BEGIN
 90
        2
 91
        1
300
_HEADER
309
CELLSTYLE_END
300
CELLSTYLE
  1
TABLEFORMAT_BEGIN
 90
        5
170
     1
 91
        0
 92
        0
 62
   257
 93
        1
300
CONTENTFORMAT
  1
CONTENTFORMAT_BEGIN
 90
        0
 91
        0
 92
        4
 93
        0
300

 40
0.0
140
1.0
 94
        2
 62
     0
340
11
144
4.5
309
CONTENTFORMAT_END
171
     1
301
MARGIN
  1
CELLMARGIN_BEGIN
 40
1.5
 40
1.5
 40
1.5
 40
1.5
 40
1.5
 40
1.5
309
CELLMARGIN_END
 94
        6
 95
        1
302
GRIDFORMAT
  1
GRIDFORMAT_BEGIN
 90
        0
 91
        1
 62
     0
 92
       -2
340
14
 93
        0
 40
0.045
309
GRIDFORMAT_END
 95
        2
302
GRIDFORMAT
  1
GRIDFORMAT_BEGIN
 90
        0
 91
        1
 62
     0
 92
       -2
340
14
 93
        0
 40
0.045
309
GRIDFORMAT_END
 95
        4
302
GRIDFORMAT
  1
GRIDFORMAT_BEGIN
 90
        0
 91
        1
 62
     0
 92
       -2
340
14
 93
        0
 40
0.045
309
GRIDFORMAT_END
 95
        8
302
GRIDFORMAT
  1
GRIDFORMAT_BEGIN
 90
        0
 91
        1
 62
     0
 92
       -2
340
14
 93
        0
 40
0.045
309
GRIDFORMAT_END
 95
       16
302
GRIDFORMAT
  1
GRIDFORMAT_BEGIN
 90
        0
 91
        1
 62
     0
 92
       -2
340
14
 93
        0
 40
0.045
309
GRIDFORMAT_END
 95
       32
302
GRIDFORMAT
  1
GRIDFORMAT_BEGIN
 90
        0
 91
        1
 62
     0
 92
       -2
340
14
 93
        0
 40
0.045
309
GRIDFORMAT_END
309
TABLEFORMAT_END
  1
CELLSTYLE_BEGIN
 90
        3
 91
        2
300
_DATA
309
CELLSTYLE_END
  0
ENDSEC
  0
EOF
