  0
SECTION
  2
HEADER
  9
$ACADVER
  1
AC1027
  9
$ACADMAINTVER
 70
   105
  9
$DWGCODEPAGE
  3
ANSI_1252
  9
$REQUIREDVERSIONS
160
                 0
  9
$LASTSAVEDBY
  1
andrea.zolin
  9
$INSBASE
 10
0.0
 20
0.0
 30
0.0
  9
$EXTMIN
 10
0.0
 20
0.0
 30
0.0
  9
$EXTMAX
 10
594.0
 20
420.0
 30
0.0
  9
$LIMMIN
 10
0.0
 20
0.0
  9
$LIMMAX
 10
594.0
 20
420.0
  9
$ORTHOMODE
 70
     0
  9
$REGENMODE
 70
     1
  9
$FILLMODE
 70
     1
  9
$QTEXTMODE
 70
     0
  9
$MIRRTEXT
 70
     1
  9
$LTSCALE
 40
32.67
  9
$ATTMODE
 70
     1
  9
$TEXTSIZE
 40
0.2
  9
$TRACEWID
 40
0.05
  9
$TEXTSTYLE
  7
STANDARD
  9
$CLAYER
  8
0
  9
$CELTYPE
  6
BYLAYER
  9
$CECOLOR
 62
   256
  9
$CELTSCALE
 40
1.0
  9
$DISPSILH
 70
     0
  9
$DIMSCALE
 40
1.0
  9
$DIMASZ
 40
2.5
  9
$DIMEXO
 40
0.75
  9
$DIMDLI
 40
22.572
  9
$DIMRND
 40
0.0
  9
$DIMDLE
 40
0.0
  9
$DIMEXE
 40
0.75
  9
$DIMTP
 40
0.01
  9
$DIMTM
 40
0.01
  9
$DIMTXT
 40
3.0
  9
$DIMCEN
 40
5.346
  9
$DIMTSZ
 40
0.0
  9
$DIMTOL
 70
     1
  9
$DIMLIM
 70
     0
  9
$DIMTIH
 70
     1
  9
$DIMTOH
 70
     1
  9
$DIMSE1
 70
     0
  9
$DIMSE2
 70
     0
  9
$DIMTAD
 70
     0
  9
$DIMZIN
 70
     0
  9
$DIMBLK
  1
CLOSED
  9
$DIMASO
 70
     1
  9
$DIMSHO
 70
     1
  9
$DIMPOST
  1

  9
$DIMAPOST
  1

  9
$DIMALT
 70
     0
  9
$DIMALTD
 70
     2
  9
$DIMALTF
 40
25.4
  9
$DIMLFAC
 40
1.0
  9
$DIMTOFL
 70
     0
  9
$DIMTVP
 40
0.0
  9
$DIMTIX
 70
     0
  9
$DIMSOXD
 70
     0
  9
$DIMSAH
 70
     0
  9
$DIMBLK1
  1

  9
$DIMBLK2
  1

  9
$DIMSTYLE
  2
STANDARD
  9
$DIMCLRD
 70
     0
  9
$DIMCLRE
 70
     0
  9
$DIMCLRT
 70
     0
  9
$DIMTFAC
 40
1.0
  9
$DIMGAP
 40
0.625
  9
$DIMJUST
 70
     0
  9
$DIMSD1
 70
     0
  9
$DIMSD2
 70
     0
  9
$DIMTOLJ
 70
     1
  9
$DIMTZIN
 70
     0
  9
$DIMALTZ
 70
     0
  9
$DIMALTTZ
 70
     0
  9
$DIMUPT
 70
     0
  9
$DIMDEC
 70
     4
  9
$DIMTDEC
 70
     4
  9
$DIMALTU
 70
     2
  9
$DIMALTTD
 70
     2
  9
$DIMTXSTY
  7
STANDARD
  9
$DIMAUNIT
 70
     0
  9
$DIMADEC
 70
     0
  9
$DIMALTRND
 40
0.0
  9
$DIMAZIN
 70
     0
  9
$DIMDSEP
 70
    46
  9
$DIMATFIT
 70
     3
  9
$DIMFRAC
 70
     0
  9
$DIMLDRBLK
  1

  9
$DIMLUNIT
 70
     2
  9
$DIMLWD
 70
    -2
  9
$DIMLWE
 70
    -2
  9
$DIMTMOVE
 70
     2
  9
$DIMFXL
 40
1.0
  9
$DIMFXLON
 70
     0
  9
$DIMJOGANG
 40
0.7853981633974483
  9
$DIMTFILL
 70
     0
  9
$DIMTFILLCLR
 70
     0
  9
$DIMARCSYM
 70
     0
  9
$DIMLTYPE
  6

  9
$DIMLTEX1
  6

  9
$DIMLTEX2
  6

  9
$DIMTXTDIRECTION
 70
     0
  9
$LUNITS
 70
     2
  9
$LUPREC
 70
     4
  9
$SKETCHINC
 40
0.1
  9
$FILLETRAD
 40
0.5
  9
$AUNITS
 70
     0
  9
$AUPREC
 70
     0
  9
$MENU
  1
.
  9
$ELEVATION
 40
0.0
  9
$PELEVATION
 40
0.0
  9
$THICKNESS
 40
0.0
  9
$LIMCHECK
 70
     0
  9
$CHAMFERA
 40
0.0
  9
$CHAMFERB
 40
0.0
  9
$CHAMFERC
 40
0.0
  9
$CHAMFERD
 40
0.0
  9
$SKPOLY
 70
     0
  9
$TDCREATE
 40
2447893.041666667
  9
$TDUCREATE
 40
0.0
  9
$TDUPDATE
 40
2458473.6979025
  9
$TDUUPDATE
 40
2458473.656235833
  9
$TDINDWG
 40
0.0002835995
  9
$TDUSRTIMER
 40
0.0002835995
  9
$USRTIMER
 70
     1
  9
$ANGBASE
 50
0.0
  9
$ANGDIR
 70
     0
  9
$PDMODE
 70
     3
  9
$PDSIZE
 40
0.3125
  9
$PLINEWID
 40
0.0
  9
$SPLFRAME
 70
     0
  9
$SPLINETYPE
 70
     6
  9
$SPLINESEGS
 70
     8
  9
$HANDSEED
  5
4BD
  9
$SURFTAB1
 70
     6
  9
$SURFTAB2
 70
     6
  9
$SURFTYPE
 70
     6
  9
$SURFU
 70
     6
  9
$SURFV
 70
     6
  9
$UCSBASE
  2

  9
$UCSNAME
  2

  9
$UCSORG
 10
0.0
 20
0.0
 30
0.0
  9
$UCSXDIR
 10
1.0
 20
0.0
 30
0.0
  9
$UCSYDIR
 10
0.0
 20
1.0
 30
0.0
  9
$UCSORTHOREF
  2

  9
$UCSORTHOVIEW
 70
     0
  9
$UCSORGTOP
 10
0.0
 20
0.0
 30
0.0
  9
$UCSORGBOTTOM
 10
0.0
 20
0.0
 30
0.0
  9
$UCSORGLEFT
 10
0.0
 20
0.0
 30
0.0
  9
$UCSORGRIGHT
 10
0.0
 20
0.0
 30
0.0
  9
$UCSORGFRONT
 10
0.0
 20
0.0
 30
0.0
  9
$UCSORGBACK
 10
0.0
 20
0.0
 30
0.0
  9
$PUCSBASE
  2

  9
$PUCSNAME
  2

  9
$PUCSORG
 10
0.0
 20
0.0
 30
0.0
  9
$PUCSXDIR
 10
1.0
 20
0.0
 30
0.0
  9
$PUCSYDIR
 10
0.0
 20
1.0
 30
0.0
  9
$PUCSORTHOREF
  2

  9
$PUCSORTHOVIEW
 70
     0
  9
$PUCSORGTOP
 10
0.0
 20
0.0
 30
0.0
  9
$PUCSORGBOTTOM
 10
0.0
 20
0.0
 30
0.0
  9
$PUCSORGLEFT
 10
0.0
 20
0.0
 30
0.0
  9
$PUCSORGRIGHT
 10
0.0
 20
0.0
 30
0.0
  9
$PUCSORGFRONT
 10
0.0
 20
0.0
 30
0.0
  9
$PUCSORGBACK
 10
0.0
 20
0.0
 30
0.0
  9
$USERI1
 70
     0
  9
$USERI2
 70
     0
  9
$USERI3
 70
     0
  9
$USERI4
 70
     0
  9
$USERI5
 70
     0
  9
$USERR1
 40
0.0
  9
$USERR2
 40
0.0
  9
$USERR3
 40
0.0
  9
$USERR4
 40
0.0
  9
$USERR5
 40
0.0
  9
$WORLDVIEW
 70
     1
  9
$SHADEDGE
 70
     3
  9
$SHADEDIF
 70
    70
  9
$TILEMODE
 70
     0
  9
$MAXACTVP
 70
    64
  9
$PINSBASE
 10
0.0
 20
0.0
 30
0.0
  9
$PLIMCHECK
 70
     0
  9
$PEXTMIN
 10
0.0
 20
0.0
 30
0.0
  9
$PEXTMAX
 10
595.4942074427667
 20
420.0
 30
0.0
  9
$PLIMMIN
 10
-12.2568093385214
 20
-32.68482490272373
  9
$PLIMMAX
 10
674.1245136186769
 20
452.6848249027237
  9
$UNITMODE
 70
     0
  9
$VISRETAIN
 70
     1
  9
$PLINEGEN
 70
     0
  9
$PSLTSCALE
 70
     1
  9
$TREEDEPTH
 70
  3020
  9
$CMLSTYLE
  2
STANDARD
  9
$CMLJUST
 70
     0
  9
$CMLSCALE
 40
1.0
  9
$PROXYGRAPHICS
 70
     1
  9
$MEASUREMENT
 70
     1
  9
$CELWEIGHT
370
    -1
  9
$ENDCAPS
280
     0
  9
$JOINSTYLE
280
     0
  9
$LWDISPLAY
290
     0
  9
$INSUNITS
 70
     0
  9
$HYPERLINKBASE
  1

  9
$STYLESHEET
  1

  9
$XEDIT
290
     1
  9
$CEPSNTYPE
380
     0
  9
$PSTYLEMODE
290
     1
  9
$FINGERPRINTGUID
  2
{5ED6691A-9E66-4D32-BDE1-824A8F81743C}
  9
$VERSIONGUID
  2
{FAEB1C32-E019-11D5-929B-00C0DF256EC4}
  9
$EXTNAMES
290
     1
  9
$PSVPSCALE
 40
0.0
  9
$OLESTARTUP
290
     0
  9
$SORTENTS
280
   127
  9
$INDEXCTL
280
     0
  9
$HIDETEXT
280
     1
  9
$XCLIPFRAME
280
     2
  9
$HALOGAP
280
     0
  9
$OBSCOLOR
 70
   257
  9
$OBSLTYPE
280
     0
  9
$INTERSECTIONDISPLAY
280
     0
  9
$INTERSECTIONCOLOR
 70
   257
  9
$DIMASSOC
280
     2
  9
$PROJECTNAME
  1

  9
$CAMERADISPLAY
290
     0
  9
$LENSLENGTH
 40
50.0
  9
$CAMERAHEIGHT
 40
0.0
  9
$STEPSPERSEC
 40
2.0
  9
$STEPSIZE
 40
6.0
  9
$3DDWFPREC
 40
2.0
  9
$PSOLWIDTH
 40
0.25
  9
$PSOLHEIGHT
 40
4.0
  9
$LOFTANG1
 40
1.570796326794897
  9
$LOFTANG2
 40
1.570796326794897
  9
$LOFTMAG1
 40
0.0
  9
$LOFTMAG2
 40
0.0
  9
$LOFTPARAM
 70
     7
  9
$LOFTNORMALS
280
     1
  9
$LATITUDE
 40
37.795
  9
$LONGITUDE
 40
-122.394
  9
$NORTHDIRECTION
 40
0.0
  9
$TIMEZONE
 70
 -8000
  9
$LIGHTGLYPHDISPLAY
280
     1
  9
$TILEMODELIGHTSYNCH
280
     1
  9
$SOLIDHIST
280
     0
  9
$SHOWHIST
280
     1
  9
$DWFFRAME
280
     2
  9
$DGNFRAME
280
     2
  9
$REALWORLDSCALE
290
     1
  9
$INTERFERECOLOR
 62
   256
  9
$CSHADOW
280
     0
  9
$SHADOWPLANELOCATION
 40
0.0
  0
ENDSEC
  0
SECTION
  2
CLASSES
  0
CLASS
  1
ACDBDICTIONARYWDFLT
  2
AcDbDictionaryWithDefault
  3
ObjectDBX Classes
 90
        0
 91
        4
280
     0
281
     0
  0
CLASS
  1
SCALE
  2
AcDbScale
  3
ObjectDBX Classes
 90
     1153
 91
        4
280
     0
281
     0
  0
CLASS
  1
VISUALSTYLE
  2
AcDbVisualStyle
  3
ObjectDBX Classes
 90
     4095
 91
        4
280
     0
281
     0
  0
CLASS
  1
MATERIAL
  2
AcDbMaterial
  3
ObjectDBX Classes
 90
     1153
 91
        4
280
     0
281
     0
  0
CLASS
  1
TABLESTYLE
  2
AcDbTableStyle
  3
ObjectDBX Classes
 90
     4095
 91
        4
280
     0
281
     0
  0
CLASS
  1
MLEADERSTYLE
  2
AcDbMLeaderStyle
  3
ACDB_MLEADERSTYLE_CLASS
 90
     4095
 91
        4
280
     0
281
     0
  0
CLASS
  1
DICTIONARYVAR
  2
AcDbDictionaryVar
  3
ObjectDBX Classes
 90
        0
 91
        4
280
     0
281
     0
  0
CLASS
  1
CELLSTYLEMAP
  2
AcDbCellStyleMap
  3
ObjectDBX Classes
 90
     1152
 91
        4
280
     0
281
     0
  0
ENDSEC
  0
SECTION
  2
TABLES
  0
TABLE
  2
VPORT
  5
8
330
0
100
AcDbSymbolTable
 70
     1
  0
VPORT
  5
1F4
330
8
100
AcDbSymbolTableRecord
100
AcDbViewportTableRecord
  2
*ACTIVE
 70
     0
 10
0.0
 20
0.0
 11
1.0
 21
1.0
 12
297.0
 22
210.0
 13
0.0
 23
0.0
 14
1.0
 24
1.0
 15
0.0
 25
0.0
 16
0.0
 26
0.0
 36
1.0
 17
0.0
 27
0.0
 37
0.0
 40
420.0
 41
1.4142857143
 42
50.0
 43
0.0
 44
0.0
 50
0.0
 51
0.0
 71
     0
 72
   100
 73
     1
 74
     1
 75
     0
 76
     0
 77
     0
 78
     0
281
     0
 65
     1
110
0.0
120
0.0
130
0.0
111
1.0
121
0.0
131
0.0
112
0.0
122
1.0
132
0.0
 79
     0
146
0.0
348
496
 60
     3
 61
     5
292
     1
282
     1
141
0.0
142
0.0
 63
   256
  0
ENDTAB
  0
TABLE
  2
LTYPE
  5
5
330
0
100
AcDbSymbolTable
 70
     6
  0
LTYPE
  5
14
330
5
100
AcDbSymbolTableRecord
100
AcDbLinetypeTableRecord
  2
BYBLOCK
 70
     0
  3

 72
    65
 73
     0
 40
0.0
  0
LTYPE
  5
15
330
5
100
AcDbSymbolTableRecord
100
AcDbLinetypeTableRecord
  2
BYLAYER
 70
     0
  3

 72
    65
 73
     0
 40
0.0
  0
LTYPE
  5
16
330
5
100
AcDbSymbolTableRecord
100
AcDbLinetypeTableRecord
  2
CONTINUOUS
 70
     0
  3
Solid line
 72
    65
 73
     0
 40
0.0
  0
LTYPE
  5
1F5
330
5
100
AcDbSymbolTableRecord
100
AcDbLinetypeTableRecord
  2
CENTER
 70
     0
  3
____ _ ____ _ ____ _ ____ _ ____ _ ____ _ ____
 72
    65
 73
     4
 40
0.6
 49
0.375
 74
     0
 49
-0.075
 74
     0
 49
0.075
 74
     0
 49
-0.075
 74
     0
  0
LTYPE
  5
1F6
330
5
100
AcDbSymbolTableRecord
100
AcDbLinetypeTableRecord
  2
HIDDEN
 70
     0
  3
- - - - - - - - - - - - - - - - - - - -
 72
    65
 73
     2
 40
0.2
 49
0.1
 74
     0
 49
-0.1
 74
     0
  0
LTYPE
  5
1F7
330
5
100
AcDbSymbolTableRecord
100
AcDbLinetypeTableRecord
  2
PHANTOM
 70
     0
  3
_____ _ _ _____ _ _ _____ _ _ _____
 72
    65
 73
     6
 40
0.8
 49
0.45
 74
     0
 49
-0.05
 74
     0
 49
0.1
 74
     0
 49
-0.05
 74
     0
 49
0.1
 74
     0
 49
-0.05
 74
     0
  0
LTYPE
  5
1F8
330
5
100
AcDbSymbolTableRecord
100
AcDbLinetypeTableRecord
  2
DOT
 70
     0
  3
. . . . . . . . . . . . . . . . . . . .
 72
    65
 73
     2
 40
0.2
 49
0.1
 74
     0
 49
-0.1
 74
     0
  0
LTYPE
  5
1F9
330
5
100
AcDbSymbolTableRecord
100
AcDbLinetypeTableRecord
  2
DASHED
 70
     0
  3
- - - - - - - - - - - - - - - - - - - -
 72
    65
 73
     2
 40
0.2
 49
0.1
 74
     0
 49
-0.1
 74
     0
  0
ENDTAB
  0
TABLE
  2
LAYER
  5
2
330
0
100
AcDbSymbolTable
 70
    19
  0
LAYER
  5
10
330
2
100
AcDbSymbolTableRecord
100
AcDbLayerTableRecord
  2
0
 70
     0
 62
     7
  6
CONTINUOUS
370
    -3
390
46B
347
4AD
348
0
  0
LAYER
  5
1FA
330
2
100
AcDbSymbolTableRecord
100
AcDbLayerTableRecord
  2
DEFAULT_1
 70
     0
 62
     7
  6
CENTER
370
    -3
390
46B
347
4AD
348
0
  0
LAYER
  5
1FB
330
2
100
AcDbSymbolTableRecord
100
AcDbLayerTableRecord
  2
DEFAULT_2
 70
     0
 62
     8
  6
HIDDEN
370
    -3
390
46B
347
4AD
348
0
  0
LAYER
  5
1FC
330
2
100
AcDbSymbolTableRecord
100
AcDbLayerTableRecord
  2
DEFAULT_3
 70
     0
 62
     7
  6
PHANTOM
370
    -3
390
46B
347
4AD
348
0
  0
LAYER
  5
1FD
330
2
100
AcDbSymbolTableRecord
100
AcDbLayerTableRecord
  2
01___PRT_ALL_DTM_PLN
 70
     0
 62
     7
  6
CONTINUOUS
370
    -3
390
46B
347
4AD
348
0
  0
LAYER
  5
1FE
330
2
100
AcDbSymbolTableRecord
100
AcDbLayerTableRecord
  2
01___PRT_DEF_DTM_PLN
 70
     0
 62
     7
  6
CONTINUOUS
370
    -3
390
46B
347
4AD
348
0
  0
LAYER
  5
1FF
330
2
100
AcDbSymbolTableRecord
100
AcDbLayerTableRecord
  2
02___PRT_ALL_AXES
 70
     0
 62
     7
  6
CONTINUOUS
370
    -3
390
46B
347
4AD
348
0
  0
LAYER
  5
200
330
2
100
AcDbSymbolTableRecord
100
AcDbLayerTableRecord
  2
03___PRT_ALL_CURVES
 70
     0
 62
     7
  6
CONTINUOUS
370
    -3
390
46B
347
4AD
348
0
  0
LAYER
  5
201
330
2
100
AcDbSymbolTableRecord
100
AcDbLayerTableRecord
  2
04___PRT_ALL_DTM_PNT
 70
     0
 62
     7
  6
CONTINUOUS
370
    -3
390
46B
347
4AD
348
0
  0
LAYER
  5
202
330
2
100
AcDbSymbolTableRecord
100
AcDbLayerTableRecord
  2
05___PRT_ALL_DTM_CSYS
 70
     0
 62
     7
  6
CONTINUOUS
370
    -3
390
46B
347
4AD
348
0
  0
LAYER
  5
203
330
2
100
AcDbSymbolTableRecord
100
AcDbLayerTableRecord
  2
05___PRT_DEF_DTM_CSYS
 70
     0
 62
     7
  6
CONTINUOUS
370
    -3
390
46B
347
4AD
348
0
  0
LAYER
  5
204
330
2
100
AcDbSymbolTableRecord
100
AcDbLayerTableRecord
  2
06___PRT_ALL_SURFS
 70
     0
 62
     7
  6
CONTINUOUS
370
    -3
390
46B
347
4AD
348
0
  0
LAYER
  5
205
330
2
100
AcDbSymbolTableRecord
100
AcDbLayerTableRecord
  2
1_ALL_PLANES
 70
     0
 62
     7
  6
CONTINUOUS
370
    -3
390
46B
347
4AD
348
0
  0
LAYER
  5
206
330
2
100
AcDbSymbolTableRecord
100
AcDbLayerTableRecord
  2
3_ALL_AXES
 70
     0
 62
     7
  6
CONTINUOUS
370
    -3
390
46B
347
4AD
348
0
  0
LAYER
  5
207
330
2
100
AcDbSymbolTableRecord
100
AcDbLayerTableRecord
  2
5_ALL_CURVES
 70
     0
 62
     7
  6
CONTINUOUS
370
    -3
390
46B
347
4AD
348
0
  0
LAYER
  5
208
330
2
100
AcDbSymbolTableRecord
100
AcDbLayerTableRecord
  2
6_ALL_SURFS
 70
     0
 62
     7
  6
CONTINUOUS
370
    -3
390
46B
347
4AD
348
0
  0
LAYER
  5
209
330
2
100
AcDbSymbolTableRecord
100
AcDbLayerTableRecord
  2
7_ALL_FEATURES
 70
     0
 62
     7
  6
CONTINUOUS
370
    -3
390
46B
347
4AD
348
0
  0
LAYER
  5
20A
330
2
100
AcDbSymbolTableRecord
100
AcDbLayerTableRecord
  2
9_SOLID
 70
     0
 62
     7
  6
CONTINUOUS
370
    -3
390
46B
347
4AD
348
0
  0
LAYER
  5
20B
330
2
100
AcDbSymbolTableRecord
100
AcDbLayerTableRecord
  2
XXX_SOLIDO
 70
     0
 62
     7
  6
CONTINUOUS
370
    -3
390
46B
347
4AD
348
0
  0
ENDTAB
  0
TABLE
  2
STYLE
  5
3
330
0
100
AcDbSymbolTable
 70
     5
  0
STYLE
  5
11
330
3
100
AcDbSymbolTableRecord
100
AcDbTextStyleTableRecord
  2
STANDARD
 70
     0
 40
0.0
 41
1.0
 50
0.0
 71
     0
 42
0.2
  3
arial.ttf
  4

  0
STYLE
  5
20C
330
3
100
AcDbSymbolTableRecord
100
AcDbTextStyleTableRecord
  2
TEXTSTYLE_1
 70
     0
 40
0.0
 41
0.8
 50
0.0
 71
     0
 42
0.2
  3
gdt
  4

  0
STYLE
  5
20D
330
3
100
AcDbSymbolTableRecord
100
AcDbTextStyleTableRecord
  2
TEXTSTYLE_2
 70
     0
 40
0.0
 41
0.85
 50
0.0
 71
     0
 42
0.2
  3
gdt
  4

  0
STYLE
  5
20E
330
3
100
AcDbSymbolTableRecord
100
AcDbTextStyleTableRecord
  2
TEXTSTYLE_3
 70
     0
 40
0.0
 41
2.0
 50
0.0
 71
     0
 42
0.2
  3
txt
  4

  0
STYLE
  5
20F
330
3
100
AcDbSymbolTableRecord
100
AcDbTextStyleTableRecord
  2
TEXTSTYLE_4
 70
     0
 40
0.0
 41
0.85
 50
0.0
 71
     0
 42
0.2
  3
txt
  4

  0
ENDTAB
  0
TABLE
  2
VIEW
  5
6
330
0
100
AcDbSymbolTable
 70
     0
  0
ENDTAB
  0
TABLE
  2
UCS
  5
7
330
0
100
AcDbSymbolTable
 70
     0
  0
ENDTAB
  0
TABLE
  2
APPID
  5
9
330
0
100
AcDbSymbolTable
 70
     1
  0
APPID
  5
210
330
9
100
AcDbSymbolTableRecord
100
AcDbRegAppTableRecord
  2
ACAD
 70
     0
  0
ENDTAB
  0
TABLE
  2
DIMSTYLE
  5
A
330
0
100
AcDbSymbolTable
 70
     3
100
AcDbDimStyleTable
  0
DIMSTYLE
105
217
330
A
100
AcDbSymbolTableRecord
100
AcDbDimStyleTableRecord
  2
STANDARD
 70
     0
 41
2.5
 42
0.75
 44
0.75
 47
0.01
 48
0.01
 71
     1
 73
     0
 74
     0
 77
     1
 78
     8
 79
     2
140
3.0
147
0.625
171
     1
178
     0
179
     2
271
     2
272
     2
284
     8
340
11
341
211
342
211
343
211
344
211
  0
DIMSTYLE
105
218
330
A
100
AcDbSymbolTableRecord
100
AcDbDimStyleTableRecord
  2
DIMSTYLE_1
 70
     0
  3
<>
 41
2.5
 42
0.75
 44
0.75
 47
0.5
 48
0.5
 73
     0
 74
     0
 77
     1
 78
     8
 79
     2
140
3.0
147
0.625
171
     1
172
     1
178
     0
179
     2
271
     2
272
     2
284
     8
288
     1
340
11
341
211
342
211
343
211
344
211
  0
DIMSTYLE
105
219
330
A
100
AcDbSymbolTableRecord
100
AcDbDimStyleTableRecord
  2
DIMSTYLE_2
 70
     0
 41
2.5
 42
0.75
 44
0.75
 47
0.5
 48
0.5
 73
     0
 74
     0
 77
     1
 78
     8
 79
     2
140
3.0
147
0.75
171
     1
178
     0
179
     2
271
     2
272
     2
284
     8
340
11
341
211
342
211
343
211
344
211
  0
ENDTAB
  0
TABLE
  2
BLOCK_RECORD
  5
1
330
0
100
AcDbSymbolTable
 70
     6
  0
BLOCK_RECORD
  5
1F
330
1
100
AcDbSymbolTableRecord
100
AcDbBlockTableRecord
  2
*MODEL_SPACE
340
48F
 70
     0
280
     1
281
     0
  0
BLOCK_RECORD
  5
1B
330
1
100
AcDbSymbolTableRecord
100
AcDbBlockTableRecord
  2
*PAPER_SPACE
340
490
 70
     0
280
     1
281
     0
  0
BLOCK_RECORD
  5
211
330
1
100
AcDbSymbolTableRecord
100
AcDbBlockTableRecord
  2
_CLOSED
340
0
102
{BLKREFS
331
269
331
271
331
272
331
27A
331
27B
102
}
 70
     0
280
     1
281
     0
  0
BLOCK_RECORD
  5
212
330
1
100
AcDbSymbolTableRecord
100
AcDbBlockTableRecord
  2
*D1
340
0
 70
     0
280
     1
281
     0
  0
BLOCK_RECORD
  5
213
330
1
100
AcDbSymbolTableRecord
100
AcDbBlockTableRecord
  2
*D2
340
0
 70
     0
280
     1
281
     0
  0
BLOCK_RECORD
  5
214
330
1
100
AcDbSymbolTableRecord
100
AcDbBlockTableRecord
  2
*D3
340
0
 70
     0
280
     1
281
     0
  0
BLOCK_RECORD
  5
215
330
1
100
AcDbSymbolTableRecord
100
AcDbBlockTableRecord
  2
LOGO2_BL1
340
0
102
{BLKREFS
331
453
102
}
 70
     0
280
     1
281
     0
  0
BLOCK_RECORD
  5
216
330
1
100
AcDbSymbolTableRecord
100
AcDbBlockTableRecord
  2
PROIEZIONE_EU_BL0
340
0
102
{BLKREFS
331
450
102
}
 70
     0
280
     1
281
     0
  0
ENDTAB
  0
ENDSEC
  0
SECTION
  2
BLOCKS
  0
BLOCK
  5
20
330
1F
100
AcDbEntity
  8
0
100
AcDbBlockBegin
  2
*MODEL_SPACE
 70
     0
 10
0.0
 20
0.0
 30
0.0
  3
*MODEL_SPACE
  1

  0
ENDBLK
  5
21
330
1F
100
AcDbEntity
  8
0
100
AcDbBlockEnd
  0
BLOCK
  5
1C
330
1B
100
AcDbEntity
 67
     1
  8
0
100
AcDbBlockBegin
  2
*PAPER_SPACE
 70
     0
 10
0.0
 20
0.0
 30
0.0
  3
*PAPER_SPACE
  1

  0
ENDBLK
  5
1D
330
1B
100
AcDbEntity
 67
     1
  8
0
100
AcDbBlockEnd
  0
BLOCK
  5
260
330
211
100
AcDbEntity
  8
0
100
AcDbBlockBegin
  2
_CLOSED
 70
     0
 10
0.0
 20
0.0
 30
0.0
  3
_CLOSED
  1

  0
LINE
  5
261
330
211
100
AcDbEntity
  8
0
  6
ByBlock
 62
     0
100
AcDbLine
 10
0.0
 20
0.0
 30
0.0
 11
-1.0
 21
0.2
 31
0.0
  0
LINE
  5
262
330
211
100
AcDbEntity
  8
0
  6
ByBlock
 62
     0
100
AcDbLine
 10
-1.0
 20
0.2
 30
0.0
 11
-1.0
 21
-0.2
 31
0.0
  0
LINE
  5
263
330
211
100
AcDbEntity
  8
0
  6
ByBlock
 62
     0
100
AcDbLine
 10
-1.0
 20
-0.2
 30
0.0
 11
0.0
 21
0.0
 31
0.0
  0
LINE
  5
264
330
211
100
AcDbEntity
  8
0
  6
ByBlock
 62
     0
100
AcDbLine
 10
-1.0
 20
0.0
 30
0.0
 11
0.0
 21
0.0
 31
0.0
  0
ENDBLK
  5
265
330
211
100
AcDbEntity
  8
0
  6
ByBlock
 62
     0
100
AcDbBlockEnd
  0
BLOCK
  5
266
330
212
100
AcDbEntity
  8
0
100
AcDbBlockBegin
  2
*D1
 70
     1
 10
0.0
 20
0.0
 30
0.0
  3
*D1
  1

  0
MTEXT
  5
267
330
212
100
AcDbEntity
  8
0
  6
Continuous
 62
     2
100
AcDbMText
 10
169.3873905724
 20
129.5362319382
 30
0.0
 40
3.0
 41
10.9925650558
 46
0.0
 71
     1
 72
     1
  1
{\Fgdt;n}\Farial.ttf;129
  7
TEXTSTYLE_2
 11
0.8457693869
 21
0.5335486334
 31
0.0
 73
     1
 44
1.0
  0
LINE
  5
268
330
212
100
AcDbEntity
  8
0
  6
Continuous
 62
     2
100
AcDbLine
 10
159.7267985023
 20
119.008071621
 30
0.0
 11
180.6853729552
 21
132.2296648002
 31
0.0
  0
INSERT
  5
269
330
212
100
AcDbEntity
  8
0
  6
Continuous
 62
     2
100
AcDbBlockReference
  2
_CLOSED
 10
159.7267985023
 20
119.008071621
 30
0.0
 41
2.5
 42
2.5
 43
2.5
 50
212.2455367459
  0
ENDBLK
  5
26A
330
212
100
AcDbEntity
  8
0
  6
ByBlock
 62
     0
100
AcDbBlockEnd
  0
BLOCK
  5
26B
330
213
100
AcDbEntity
  8
0
100
AcDbBlockBegin
  2
*D2
 70
     1
 10
0.0
 20
0.0
 30
0.0
  3
*D2
  1

  0
MTEXT
  5
26C
330
213
100
AcDbEntity
  8
0
  6
Continuous
 62
     2
100
AcDbMText
 10
184.6816629513
 20
291.7308085007
 30
0.0
 40
3.0
 41
6.9925650558
 46
0.0
 71
     2
 72
     1
  1
200
 11
0.0
 21
1.0
 31
0.0
 73
     1
 44
1.0
  0
LINE
  5
26D
330
213
100
AcDbEntity
  8
0
  6
Continuous
 62
     2
100
AcDbLine
 10
180.8826941155
 20
191.7308085007
 30
0.0
 11
189.1816629513
 21
191.7308085007
 31
0.0
  0
LINE
  5
26E
330
213
100
AcDbEntity
  8
0
  6
Continuous
 62
     2
100
AcDbLine
 10
180.8826941155
 20
391.7308085007
 30
0.0
 11
189.1816629513
 21
391.7308085007
 31
0.0
  0
LINE
  5
26F
330
213
100
AcDbEntity
  8
0
  6
Continuous
 62
     2
100
AcDbLine
 10
188.4316629513
 20
191.7308085007
 30
0.0
 11
188.4316629513
 21
291.7308085007
 31
0.0
  0
LINE
  5
270
330
213
100
AcDbEntity
  8
0
  6
Continuous
 62
     2
100
AcDbLine
 10
188.4316629513
 20
391.7308085007
 30
0.0
 11
188.4316629513
 21
291.7308085007
 31
0.0
  0
INSERT
  5
271
330
213
100
AcDbEntity
  8
0
  6
Continuous
 62
     2
100
AcDbBlockReference
  2
_CLOSED
 10
188.4316629513
 20
191.7308085007
 30
0.0
 41
2.5
 42
2.5
 43
2.5
 50
270.0
  0
INSERT
  5
272
330
213
100
AcDbEntity
  8
0
  6
Continuous
 62
     2
100
AcDbBlockReference
  2
_CLOSED
 10
188.4316629513
 20
391.7308085007
 30
0.0
 41
2.5
 42
2.5
 43
2.5
 50
90.0
  0
ENDBLK
  5
273
330
213
100
AcDbEntity
  8
0
  6
ByBlock
 62
     0
100
AcDbBlockEnd
  0
BLOCK
  5
274
330
214
100
AcDbEntity
  8
0
100
AcDbBlockBegin
  2
*D3
 70
     1
 10
0.0
 20
0.0
 30
0.0
  3
*D3
  1

  0
MTEXT
  5
275
330
214
100
AcDbEntity
  8
0
  6
Continuous
 62
     2
100
AcDbMText
 10
196.0491283262
 20
292.3058085007
 30
0.0
 40
3.0
 41
12.8141263941
 46
0.0
 71
     2
 72
     1
  1
201,15
 11
0.0
 21
1.0
 31
0.0
 73
     1
 44
1.0
  0
LINE
  5
276
330
214
100
AcDbEntity
  8
0
  6
Continuous
 62
     2
100
AcDbLine
 10
180.8826941155
 20
191.7308085007
 30
0.0
 11
200.5491283262
 21
191.7308085007
 31
0.0
  0
LINE
  5
277
330
214
100
AcDbEntity
  8
0
  6
Continuous
 62
     2
100
AcDbLine
 10
179.8926417975
 20
392.8808085007
 30
0.0
 11
200.5491283262
 21
392.8808085007
 31
0.0
  0
LINE
  5
278
330
214
100
AcDbEntity
  8
0
  6
Continuous
 62
     2
100
AcDbLine
 10
199.7991283262
 20
191.7308085007
 30
0.0
 11
199.7991283262
 21
292.3058085007
 31
0.0
  0
LINE
  5
279
330
214
100
AcDbEntity
  8
0
  6
Continuous
 62
     2
100
AcDbLine
 10
199.7991283262
 20
392.8808085007
 30
0.0
 11
199.7991283262
 21
292.3058085007
 31
0.0
  0
INSERT
  5
27A
330
214
100
AcDbEntity
  8
0
  6
Continuous
 62
     2
100
AcDbBlockReference
  2
_CLOSED
 10
199.7991283262
 20
191.7308085007
 30
0.0
 41
2.5
 42
2.5
 43
2.5
 50
270.0
  0
INSERT
  5
27B
330
214
100
AcDbEntity
  8
0
  6
Continuous
 62
     2
100
AcDbBlockReference
  2
_CLOSED
 10
199.7991283262
 20
392.8808085007
 30
0.0
 41
2.5
 42
2.5
 43
2.5
 50
90.0
  0
ENDBLK
  5
27C
330
214
100
AcDbEntity
  8
0
  6
ByBlock
 62
     0
100
AcDbBlockEnd
  0
BLOCK
  5
21A
330
215
100
AcDbEntity
  8
0
100
AcDbBlockBegin
  2
LOGO2_BL1
 70
     0
 10
471.7810878209
 20
38.7231088301
 30
0.0
  3
LOGO2_BL1
  1

  0
LINE
  5
21B
330
215
100
AcDbEntity
  8
0
  6
Continuous
 62
     7
100
AcDbLine
 10
463.5240130491
 20
41.918600169
 30
0.0
 11
462.2196721197
 21
41.918600169
 31
0.0
  0
LINE
  5
21C
330
215
100
AcDbEntity
  8
0
  6
Continuous
 62
     7
100
AcDbLine
 10
462.2196721197
 20
41.918600169
 30
0.0
 11
462.2196721197
 21
31.4595341091
 31
0.0
  0
LINE
  5
21D
330
215
100
AcDbEntity
  8
0
  6
Continuous
 62
     7
100
AcDbLine
 10
462.2196721197
 20
31.4595341091
 30
0.0
 11
466.700727008
 21
31.4595341091
 31
0.0
  0
LINE
  5
21E
330
215
100
AcDbEntity
  8
0
  6
Continuous
 62
     7
100
AcDbLine
 10
466.700727008
 20
31.4595341091
 30
0.0
 11
466.700727008
 21
32.6523884342
 31
0.0
  0
LINE
  5
21F
330
215
100
AcDbEntity
  8
0
  6
Continuous
 62
     7
100
AcDbLine
 10
466.700727008
 20
32.6523884342
 30
0.0
 11
463.5240130491
 21
32.6523884342
 31
0.0
  0
LINE
  5
220
330
215
100
AcDbEntity
  8
0
  6
Continuous
 62
     7
100
AcDbLine
 10
463.5240130491
 20
32.6523884342
 30
0.0
 11
463.5240130491
 21
41.918600169
 31
0.0
  0
LINE
  5
221
330
215
100
AcDbEntity
  8
0
  6
Continuous
 62
     7
100
AcDbLine
 10
478.4603392654
 20
41.918600169
 30
0.0
 11
477.1565217473
 21
41.918600169
 31
0.0
  0
LINE
  5
222
330
215
100
AcDbEntity
  8
0
  6
Continuous
 62
     7
100
AcDbLine
 10
477.1565217473
 20
41.918600169
 30
0.0
 11
477.1565217473
 21
31.4595341091
 31
0.0
  0
LINE
  5
223
330
215
100
AcDbEntity
  8
0
  6
Continuous
 62
     7
100
AcDbLine
 10
477.1565217473
 20
31.4595341091
 30
0.0
 11
481.6377074884
 21
31.4595341091
 31
0.0
  0
LINE
  5
224
330
215
100
AcDbEntity
  8
0
  6
Continuous
 62
     7
100
AcDbLine
 10
481.6377074884
 20
31.4595341091
 30
0.0
 11
481.6377074884
 21
32.6523884342
 31
0.0
  0
LINE
  5
225
330
215
100
AcDbEntity
  8
0
  6
Continuous
 62
     7
100
AcDbLine
 10
481.6377074884
 20
32.6523884342
 30
0.0
 11
478.4603392654
 21
32.6523884342
 31
0.0
  0
LINE
  5
226
330
215
100
AcDbEntity
  8
0
  6
Continuous
 62
     7
100
AcDbLine
 10
478.4603392654
 20
32.6523884342
 30
0.0
 11
478.4603392654
 21
41.918600169
 31
0.0
  0
LWPOLYLINE
  5
227
330
215
100
AcDbEntity
  8
0
  6
Continuous
 62
     7
100
AcDbPolyline
 90
        2
 70
     0
 43
0.2
 10
460.5740670307
 20
28.1159828022
 10
460.5740670307
 20
26.2589195528
  0
LWPOLYLINE
  5
228
330
215
100
AcDbEntity
  8
0
  6
Continuous
 62
     7
100
AcDbPolyline
 90
        2
 70
     0
 43
0.2
 10
460.5740670307
 20
26.2589195528
 10
461.3697830411
 20
26.2589195528
  0
LWPOLYLINE
  5
229
330
215
100
AcDbEntity
  8
0
  6
Continuous
 62
     7
100
AcDbPolyline
 90
        2
 70
     0
 43
0.2
 10
461.3697830411
 20
26.2589195528
 10
461.3697830411
 20
26.4709011244
  0
LWPOLYLINE
  5
22A
330
215
100
AcDbEntity
  8
0
  6
Continuous
 62
     7
100
AcDbPolyline
 90
        2
 70
     0
 43
0.2
 10
461.3697830411
 20
26.4709011244
 10
460.8056765256
 20
26.4709011244
  0
LWPOLYLINE
  5
22B
330
215
100
AcDbEntity
  8
0
  6
Continuous
 62
     7
100
AcDbPolyline
 90
        2
 70
     0
 43
0.2
 10
460.8056765256
 20
26.4709011244
 10
460.8056765256
 20
28.1159828022
  0
LWPOLYLINE
  5
22C
330
215
100
AcDbEntity
  8
0
  6
Continuous
 62
     7
100
AcDbPolyline
 90
        2
 70
     0
 43
0.2
 10
460.8056765256
 20
28.1159828022
 10
460.5740670307
 20
28.1159828022
  0
SPLINE
  5
22D
330
215
100
AcDbEntity
  8
0
  6
Continuous
 62
     7
100
AcDbSpline
 70
     3
 71
     3
 72
    35
 73
    31
 74
     0
 42
0.000000001
 43
0.0000001
 40
0.0
 40
0.0
 40
0.0
 40
0.0
 40
1.0
 40
1.0
 40
1.0
 40
2.0
 40
2.0
 40
2.0
 40
3.0
 40
3.0
 40
3.0
 40
4.0
 40
4.0
 40
4.0
 40
5.0
 40
5.0
 40
5.0
 40
6.0
 40
6.0
 40
6.0
 40
7.0
 40
7.0
 40
7.0
 40
8.0
 40
8.0
 40
8.0
 40
9.0
 40
9.0
 40
9.0
 40
10.0
 40
10.0
 40
10.0
 40
10.0
 10
462.7680762966
 20
27.4114712087
 30
0.0
 10
462.7680762966
 20
27.4114712087
 30
0.0
 10
462.7680762966
 20
26.7493559296
 30
0.0
 10
462.7680762966
 20
26.7493559296
 30
0.0
 10
462.7680762966
 20
26.4342623343
 30
0.0
 10
462.9159399854
 20
26.2196637062
 30
0.0
 10
463.2560264697
 20
26.2196637062
 30
0.0
 10
463.5955895427
 20
26.2196637062
 30
0.0
 10
463.7437149372
 20
26.4342623343
 30
0.0
 10
463.7437149372
 20
26.7493559296
 30
0.0
 10
463.7437149372
 20
26.7493559296
 30
0.0
 10
463.7437149372
 20
27.4114712087
 30
0.0
 10
463.7437149372
 20
27.4114712087
 30
0.0
 10
463.7437149372
 20
27.4114712087
 30
0.0
 10
463.5216576983
 20
27.4114712087
 30
0.0
 10
463.5216576983
 20
27.4114712087
 30
0.0
 10
463.5216576983
 20
27.4114712087
 30
0.0
 10
463.5216576983
 20
26.7744796714
 30
0.0
 10
463.5216576983
 20
26.7744796714
 30
0.0
 10
463.5216576983
 20
26.5886686642
 30
0.0
 10
463.4749432409
 20
26.4258877537
 30
0.0
 10
463.2560264697
 20
26.4258877537
 30
0.0
 10
463.0365862873
 20
26.4258877537
 30
0.0
 10
462.9898718298
 20
26.5886686642
 30
0.0
 10
462.9898718298
 20
26.7744796714
 30
0.0
 10
462.9898718298
 20
26.7744796714
 30
0.0
 10
462.9898718298
 20
27.4114712087
 30
0.0
 10
462.9898718298
 20
27.4114712087
 30
0.0
 10
462.9898718298
 20
27.4114712087
 30
0.0
 10
462.7680762966
 20
27.4114712087
 30
0.0
 10
462.7680762966
 20
27.4114712087
 30
0.0
  0
SPLINE
  5
22E
330
215
100
AcDbEntity
  8
0
  6
Continuous
 62
     7
100
AcDbSpline
 70
     3
 71
     3
 72
    35
 73
    31
 74
     0
 42
0.000000001
 43
0.0000001
 40
0.0
 40
0.0
 40
0.0
 40
0.0
 40
1.0
 40
1.0
 40
1.0
 40
2.0
 40
2.0
 40
2.0
 40
3.0
 40
3.0
 40
3.0
 40
4.0
 40
4.0
 40
4.0
 40
5.0
 40
5.0
 40
5.0
 40
6.0
 40
6.0
 40
6.0
 40
7.0
 40
7.0
 40
7.0
 40
8.0
 40
8.0
 40
8.0
 40
9.0
 40
9.0
 40
9.0
 40
10.0
 40
10.0
 40
10.0
 40
10.0
 10
466.1668474944
 20
27.370121717
 30
0.0
 10
466.0783909867
 20
27.4214160232
 30
0.0
 10
465.9649415901
 20
27.446539765
 30
0.0
 10
465.8613061551
 20
27.446539765
 30
0.0
 10
465.5064333019
 20
27.446539765
 30
0.0
 10
465.2309881117
 20
27.1827404759
 30
0.0
 10
465.2309881117
 20
26.8252505663
 30
0.0
 10
465.2309881117
 20
26.4803225276
 30
0.0
 10
465.5094429168
 20
26.2201871175
 30
0.0
 10
465.8490059898
 20
26.2201871175
 30
0.0
 10
465.9649415901
 20
26.2201871175
 30
0.0
 10
466.065698263
 20
26.2421703916
 30
0.0
 10
466.1668474944
 20
26.2960817543
 30
0.0
 10
466.1668474944
 20
26.2960817543
 30
0.0
 10
466.1668474944
 20
26.5787238497
 30
0.0
 10
466.1668474944
 20
26.5787238497
 30
0.0
 10
466.0829708355
 20
26.4855566405
 30
0.0
 10
465.9794662533
 20
26.426411165
 30
0.0
 10
465.8513613406
 20
26.426411165
 30
0.0
 10
465.6176582006
 20
26.426411165
 30
0.0
 10
465.4523910865
 20
26.5986134787
 30
0.0
 10
465.4523910865
 20
26.8351953808
 30
0.0
 10
465.4523910865
 20
27.0471769524
 30
0.0
 10
465.6201444042
 20
27.239268895
 30
0.0
 10
465.8369675302
 20
27.239268895
 30
0.0
 10
465.9697831445
 20
27.239268895
 30
0.0
 10
466.0783909867
 20
27.1853575324
 30
0.0
 10
466.1668474944
 20
27.0843391538
 30
0.0
 10
466.1668474944
 20
27.0843391538
 30
0.0
 10
466.1668474944
 20
27.370121717
 30
0.0
 10
466.1668474944
 20
27.370121717
 30
0.0
  0
SPLINE
  5
22F
330
215
100
AcDbEntity
  8
0
  6
Continuous
 62
     7
100
AcDbSpline
 70
     3
 71
     3
 72
    32
 73
    28
 74
     0
 42
0.000000001
 43
0.0000001
 40
0.0
 40
0.0
 40
0.0
 40
0.0
 40
1.0
 40
1.0
 40
1.0
 40
2.0
 40
2.0
 40
2.0
 40
3.0
 40
3.0
 40
3.0
 40
4.0
 40
4.0
 40
4.0
 40
5.0
 40
5.0
 40
5.0
 40
6.0
 40
6.0
 40
6.0
 40
7.0
 40
7.0
 40
7.0
 40
8.0
 40
8.0
 40
8.0
 40
9.0
 40
9.0
 40
9.0
 40
9.0
 10
468.6987187466
 20
26.7985565906
 30
0.0
 10
468.6987187466
 20
26.7985565906
 30
0.0
 10
468.6987187466
 20
26.8325783243
 30
0.0
 10
468.6987187466
 20
26.8325783243
 30
0.0
 10
468.6987187466
 20
27.1748893066
 30
0.0
 10
468.5258621688
 20
27.446539765
 30
0.0
 10
468.1592125617
 20
27.446539765
 30
0.0
 10
467.7875905473
 20
27.446539765
 30
0.0
 10
467.5978539554
 20
27.1801234195
 30
0.0
 10
467.5978539554
 20
26.8252505663
 30
0.0
 10
467.5978539554
 20
26.4855566405
 30
0.0
 10
467.8119291722
 20
26.2196637062
 30
0.0
 10
468.1640541161
 20
26.2196637062
 30
0.0
 10
468.3880741473
 20
26.2196637062
 30
0.0
 10
468.5902417572
 20
26.3353376009
 30
0.0
 10
468.6987187466
 20
26.5347573015
 30
0.0
 10
468.6987187466
 20
26.5347573015
 30
0.0
 10
468.5110757999
 20
26.6415332043
 30
0.0
 10
468.5110757999
 20
26.6415332043
 30
0.0
 10
468.4275916995
 20
26.502829213
 30
0.0
 10
468.3363872826
 20
26.4169897618
 30
0.0
 10
468.1668020253
 20
26.4169897618
 30
0.0
 10
467.9548204538
 20
26.4169897618
 30
0.0
 10
467.8218739866
 20
26.6017539464
 30
0.0
 10
467.8195186358
 20
26.7985565906
 30
0.0
 10
467.8195186358
 20
26.7985565906
 30
0.0
 10
468.6987187466
 20
26.7985565906
 30
0.0
 10
468.6987187466
 20
26.7985565906
 30
0.0
  0
SPLINE
  5
230
330
215
100
AcDbEntity
  8
0
  6
Continuous
 62
     7
100
AcDbSpline
 70
     3
 71
     3
 72
    14
 73
    10
 74
     0
 42
0.000000001
 43
0.0000001
 40
0.0
 40
0.0
 40
0.0
 40
0.0
 40
1.0
 40
1.0
 40
1.0
 40
2.0
 40
2.0
 40
2.0
 40
3.0
 40
3.0
 40
3.0
 40
3.0
 10
467.8315570955
 20
26.9660482028
 30
0.0
 10
467.8591670409
 20
27.1309227584
 30
0.0
 10
467.987010248
 20
27.2539244111
 30
0.0
 10
468.1592125617
 20
27.2539244111
 30
0.0
 10
468.3363872826
 20
27.2539244111
 30
0.0
 10
468.4498366793
 20
27.1382505165
 30
0.0
 10
468.4770540662
 20
26.9660482028
 30
0.0
 10
468.4770540662
 20
26.9660482028
 30
0.0
 10
467.8315570955
 20
26.9660482028
 30
0.0
 10
467.8315570955
 20
26.9660482028
 30
0.0
  0
SPLINE
  5
231
330
215
100
AcDbEntity
  8
0
  6
Continuous
 62
     7
100
AcDbSpline
 70
     3
 71
     3
 72
    20
 73
    16
 74
     0
 42
0.000000001
 43
0.0000001
 40
0.0
 40
0.0
 40
0.0
 40
0.0
 40
1.0
 40
1.0
 40
1.0
 40
2.0
 40
2.0
 40
2.0
 40
3.0
 40
3.0
 40
3.0
 40
4.0
 40
4.0
 40
4.0
 40
5.0
 40
5.0
 40
5.0
 40
5.0
 10
470.7227501968
 20
27.1754127179
 30
0.0
 10
470.7227501968
 20
27.1754127179
 30
0.0
 10
471.1338897635
 20
26.6729378815
 30
0.0
 10
471.1338897635
 20
26.6729378815
 30
0.0
 10
471.0178233104
 20
26.5572639869
 30
0.0
 10
470.8800352888
 20
26.4269345762
 30
0.0
 10
470.7080946808
 20
26.4269345762
 30
0.0
 10
470.5306582542
 20
26.4269345762
 30
0.0
 10
470.3631666421
 20
26.5912857206
 30
0.0
 10
470.3631666421
 20
26.7681987359
 30
0.0
 10
470.3631666421
 20
26.9461585738
 30
0.0
 10
470.5729237157
 20
27.0723006942
 30
0.0
 10
470.7005052171
 20
27.1602337906
 30
0.0
 10
470.7005052171
 20
27.1602337906
 30
0.0
 10
470.7227501968
 20
27.1754127179
 30
0.0
 10
470.7227501968
 20
27.1754127179
 30
0.0
  0
SPLINE
  5
232
330
215
100
AcDbEntity
  8
0
  6
Continuous
 62
     7
100
AcDbSpline
 70
     3
 71
     3
 72
    23
 73
    19
 74
     0
 42
0.000000001
 43
0.0000001
 40
0.0
 40
0.0
 40
0.0
 40
0.0
 40
1.0
 40
1.0
 40
1.0
 40
2.0
 40
2.0
 40
2.0
 40
3.0
 40
3.0
 40
3.0
 40
4.0
 40
4.0
 40
4.0
 40
5.0
 40
5.0
 40
5.0
 40
6.0
 40
6.0
 40
6.0
 40
6.0
 10
470.7720817107
 20
27.466429394
 30
0.0
 10
470.7720817107
 20
27.466429394
 30
0.0
 10
470.7104500316
 20
27.5449410871
 30
0.0
 10
470.7104500316
 20
27.5449410871
 30
0.0
 10
470.6565386689
 20
27.6135079658
 30
0.0
 10
470.5997485442
 20
27.6825982558
 30
0.0
 10
470.5997485442
 20
27.7762888764
 30
0.0
 10
470.5997485442
 20
27.8951032387
 30
0.0
 10
470.6956636627
 20
27.9725681093
 30
0.0
 10
470.8066268557
 20
27.9725681093
 30
0.0
 10
470.929890214
 20
27.9725681093
 30
0.0
 10
471.0231882761
 20
27.9013841742
 30
0.0
 10
471.0231882761
 20
27.7710547635
 30
0.0
 10
471.0231882761
 20
27.6360146512
 30
0.0
 10
470.8950833634
 20
27.5595966032
 30
0.0
 10
470.8015235957
 20
27.4857956116
 30
0.0
 10
470.8015235957
 20
27.4857956116
 30
0.0
 10
470.7720817107
 20
27.466429394
 30
0.0
 10
470.7720817107
 20
27.466429394
 30
0.0
  0
SPLINE
  5
233
330
215
100
AcDbEntity
  8
0
  6
Continuous
 62
     7
100
AcDbSpline
 70
     3
 71
     3
 72
    50
 73
    46
 74
     0
 42
0.000000001
 43
0.0000001
 40
0.0
 40
0.0
 40
0.0
 40
0.0
 40
1.0
 40
1.0
 40
1.0
 40
2.0
 40
2.0
 40
2.0
 40
3.0
 40
3.0
 40
3.0
 40
4.0
 40
4.0
 40
4.0
 40
5.0
 40
5.0
 40
5.0
 40
6.0
 40
6.0
 40
6.0
 40
7.0
 40
7.0
 40
7.0
 40
8.0
 40
8.0
 40
8.0
 40
9.0
 40
9.0
 40
9.0
 40
10.0
 40
10.0
 40
10.0
 40
11.0
 40
11.0
 40
11.0
 40
12.0
 40
12.0
 40
12.0
 40
13.0
 40
13.0
 40
13.0
 40
14.0
 40
14.0
 40
14.0
 40
15.0
 40
15.0
 40
15.0
 40
15.0
 10
471.4742379534
 20
26.2594429641
 30
0.0
 10
471.4742379534
 20
26.2594429641
 30
0.0
 10
471.7596279581
 20
26.2594429641
 30
0.0
 10
471.7596279581
 20
26.2594429641
 30
0.0
 10
471.7596279581
 20
26.2594429641
 30
0.0
 10
471.4272617903
 20
26.6703208251
 30
0.0
 10
471.4272617903
 20
26.6703208251
 30
0.0
 10
471.4272617903
 20
26.6703208251
 30
0.0
 10
471.6537680251
 20
26.9362137593
 30
0.0
 10
471.6537680251
 20
26.9362137593
 30
0.0
 10
471.6537680251
 20
26.9362137593
 30
0.0
 10
471.5055117778
 20
27.0890498554
 30
0.0
 10
471.5055117778
 20
27.0890498554
 30
0.0
 10
471.5055117778
 20
27.0890498554
 30
0.0
 10
471.2896046216
 20
26.8378124372
 30
0.0
 10
471.2896046216
 20
26.8378124372
 30
0.0
 10
471.2896046216
 20
26.8378124372
 30
0.0
 10
470.9025419742
 20
27.3057421286
 30
0.0
 10
470.9025419742
 20
27.3057421286
 30
0.0
 10
471.0579951267
 20
27.4198457893
 30
0.0
 10
471.2402731077
 20
27.5595966032
 30
0.0
 10
471.2402731077
 20
27.7689611183
 30
0.0
 10
471.2402731077
 20
28.0128707785
 30
0.0
 10
471.0382363506
 20
28.1562854714
 30
0.0
 10
470.8117301158
 20
28.1562854714
 30
0.0
 10
470.56755875
 20
28.1562854714
 30
0.0
 10
470.3831871238
 20
28.0055430205
 30
0.0
 10
470.3831871238
 20
27.7490714894
 30
0.0
 10
470.3831871238
 20
27.5915246918
 30
0.0
 10
470.4818501516
 20
27.453867523
 30
0.0
 10
470.5871866733
 20
27.34290433
 30
0.0
 10
470.5871866733
 20
27.34290433
 30
0.0
 10
470.4716436315
 20
27.259158524
 30
0.0
 10
470.4716436315
 20
27.259158524
 30
0.0
 10
470.2939454993
 20
27.1309227584
 30
0.0
 10
470.1466052217
 20
27.0032104042
 30
0.0
 10
470.1466052217
 20
26.7661050908
 30
0.0
 10
470.1466052217
 20
26.4457773826
 30
0.0
 10
470.4051703979
 20
26.2196637062
 30
0.0
 10
470.7155532916
 20
26.2196637062
 30
0.0
 10
470.9344700628
 20
26.2196637062
 30
0.0
 10
471.1316652655
 20
26.3447590041
 30
0.0
 10
471.2719394906
 20
26.5106803823
 30
0.0
 10
471.2719394906
 20
26.5106803823
 30
0.0
 10
471.4742379534
 20
26.2594429641
 30
0.0
 10
471.4742379534
 20
26.2594429641
 30
0.0
  0
LWPOLYLINE
  5
234
330
215
100
AcDbEntity
  8
0
  6
Continuous
 62
     7
100
AcDbPolyline
 90
        2
 70
     0
 43
0.2
 10
473.4096820431
 20
28.1159828022
 10
473.1783342539
 20
28.1159828022
  0
LWPOLYLINE
  5
235
330
215
100
AcDbEntity
  8
0
  6
Continuous
 62
     7
100
AcDbPolyline
 90
        2
 70
     0
 43
0.2
 10
473.1783342539
 20
28.1159828022
 10
473.1783342539
 20
26.2589195528
  0
LWPOLYLINE
  5
236
330
215
100
AcDbEntity
  8
0
  6
Continuous
 62
     7
100
AcDbPolyline
 90
        2
 70
     0
 43
0.2
 10
473.1783342539
 20
26.2589195528
 10
473.9736577058
 20
26.2589195528
  0
LWPOLYLINE
  5
237
330
215
100
AcDbEntity
  8
0
  6
Continuous
 62
     7
100
AcDbPolyline
 90
        2
 70
     0
 43
0.2
 10
473.9736577058
 20
26.2589195528
 10
473.9736577058
 20
26.4709011244
  0
LWPOLYLINE
  5
238
330
215
100
AcDbEntity
  8
0
  6
Continuous
 62
     7
100
AcDbPolyline
 90
        2
 70
     0
 43
0.2
 10
473.9736577058
 20
26.4709011244
 10
473.4096820431
 20
26.4709011244
  0
LWPOLYLINE
  5
239
330
215
100
AcDbEntity
  8
0
  6
Continuous
 62
     7
100
AcDbPolyline
 90
        2
 70
     0
 43
0.2
 10
473.4096820431
 20
26.4709011244
 10
473.4096820431
 20
28.1159828022
  0
LWPOLYLINE
  5
23A
330
215
100
AcDbEntity
  8
0
  6
Continuous
 62
     7
100
AcDbPolyline
 90
        2
 70
     0
 43
0.2
 10
475.6527611173
 20
27.4114712087
 10
475.4316198482
 20
27.4114712087
  0
LWPOLYLINE
  5
23B
330
215
100
AcDbEntity
  8
0
  6
Continuous
 62
     7
100
AcDbPolyline
 90
        2
 70
     0
 43
0.2
 10
475.4316198482
 20
27.4114712087
 10
475.4316198482
 20
26.2594429641
  0
LWPOLYLINE
  5
23C
330
215
100
AcDbEntity
  8
0
  6
Continuous
 62
     7
100
AcDbPolyline
 90
        2
 70
     0
 43
0.2
 10
475.4316198482
 20
26.2594429641
 10
475.6527611173
 20
26.2594429641
  0
LWPOLYLINE
  5
23D
330
215
100
AcDbEntity
  8
0
  6
Continuous
 62
     7
100
AcDbPolyline
 90
        2
 70
     0
 43
0.2
 10
475.6527611173
 20
26.2594429641
 10
475.6527611173
 20
27.4114712087
  0
LWPOLYLINE
  5
23E
330
215
100
AcDbEntity
  8
0
  6
Continuous
 62
     7
100
AcDbPolyline
 90
        2
 70
     1
 43
0.2
 10
475.3897378401
 20
27.9414251377
 42
1.0
 10
475.694904831
 20
27.9414251377
 42
1.0
  0
SPLINE
  5
23F
330
215
100
AcDbEntity
  8
0
  6
Continuous
 62
     7
100
AcDbSpline
 70
     3
 71
     3
 72
    17
 73
    13
 74
     0
 42
0.000000001
 43
0.0000001
 40
0.0
 40
0.0
 40
0.0
 40
0.0
 40
1.0
 40
1.0
 40
1.0
 40
2.0
 40
2.0
 40
2.0
 40
3.0
 40
3.0
 40
3.0
 40
4.0
 40
4.0
 40
4.0
 40
4.0
 10
477.7830450589
 20
26.4169897618
 30
0.0
 10
477.5490802132
 20
26.4169897618
 30
0.0
 10
477.4187508026
 20
26.6190265189
 30
0.0
 10
477.4187508026
 20
26.8351953808
 30
0.0
 10
477.4187508026
 20
27.0497940088
 30
0.0
 10
477.5545760318
 20
27.2486902982
 30
0.0
 10
477.7830450589
 20
27.2486902982
 30
0.0
 10
478.0225057231
 20
27.2486902982
 30
0.0
 10
478.1580692467
 20
27.0597388233
 30
0.0
 10
478.1580692467
 20
26.8351953808
 30
0.0
 10
478.1580692467
 20
26.6090817044
 30
0.0
 10
478.0248610739
 20
26.4169897618
 30
0.0
 10
477.7830450589
 20
26.4169897618
 30
0.0
  0
SPLINE
  5
240
330
215
100
AcDbEntity
  8
0
  6
Continuous
 62
     7
100
AcDbSpline
 70
     3
 71
     3
 72
    50
 73
    46
 74
     0
 42
0.000000001
 43
0.0000001
 40
0.0
 40
0.0
 40
0.0
 40
0.0
 40
1.0
 40
1.0
 40
1.0
 40
2.0
 40
2.0
 40
2.0
 40
3.0
 40
3.0
 40
3.0
 40
4.0
 40
4.0
 40
4.0
 40
5.0
 40
5.0
 40
5.0
 40
6.0
 40
6.0
 40
6.0
 40
7.0
 40
7.0
 40
7.0
 40
8.0
 40
8.0
 40
8.0
 40
9.0
 40
9.0
 40
9.0
 40
10.0
 40
10.0
 40
10.0
 40
11.0
 40
11.0
 40
11.0
 40
12.0
 40
12.0
 40
12.0
 40
13.0
 40
13.0
 40
13.0
 40
14.0
 40
14.0
 40
14.0
 40
15.0
 40
15.0
 40
15.0
 40
15.0
 10
478.3671720562
 20
27.41199462
 30
0.0
 10
478.3671720562
 20
27.41199462
 30
0.0
 10
478.1455073758
 20
27.41199462
 30
0.0
 10
478.1455073758
 20
27.41199462
 30
0.0
 10
478.1455073758
 20
27.41199462
 30
0.0
 10
478.1455073758
 20
27.2146685645
 30
0.0
 10
478.1455073758
 20
27.2146685645
 30
0.0
 10
478.1455073758
 20
27.2146685645
 30
0.0
 10
478.1407966742
 20
27.2146685645
 30
0.0
 10
478.1407966742
 20
27.2146685645
 30
0.0
 10
478.0494614044
 20
27.3575598461
 30
0.0
 10
477.9115425301
 20
27.4460163537
 30
0.0
 10
477.7388168051
 20
27.4460163537
 30
0.0
 10
477.4064506373
 20
27.4460163537
 30
0.0
 10
477.1973478278
 20
27.1581401454
 30
0.0
 10
477.1973478278
 20
26.8425231388
 30
0.0
 10
477.1973478278
 20
26.5127740275
 30
0.0
 10
477.3944121777
 20
26.2196637062
 30
0.0
 10
477.7492850309
 20
26.2196637062
 30
0.0
 10
477.9115425301
 20
26.2196637062
 30
0.0
 10
478.0515550496
 20
26.3081202139
 30
0.0
 10
478.1407966742
 20
26.4389730359
 30
0.0
 10
478.1407966742
 20
26.4389730359
 30
0.0
 10
478.1455073758
 20
26.4389730359
 30
0.0
 10
478.1455073758
 20
26.4389730359
 30
0.0
 10
478.1455073758
 20
26.4389730359
 30
0.0
 10
478.1455073758
 20
26.2196637062
 30
0.0
 10
478.1455073758
 20
26.2196637062
 30
0.0
 10
478.1455073758
 20
25.9830818041
 30
0.0
 10
478.0889789567
 20
25.7962239744
 30
0.0
 10
477.8157582644
 20
25.7962239744
 30
0.0
 10
477.6134598016
 20
25.7962239744
 30
0.0
 10
477.4708302257
 20
25.9145149254
 30
0.0
 10
477.4708302257
 20
26.1207389728
 30
0.0
 10
477.4708302257
 20
26.1207389728
 30
0.0
 10
477.2491655453
 20
26.1207389728
 30
0.0
 10
477.2491655453
 20
26.1207389728
 30
0.0
 10
477.2541379525
 20
25.7962239744
 30
0.0
 10
477.4852240361
 20
25.5994213301
 30
0.0
 10
477.8055517443
 20
25.5994213301
 30
0.0
 10
478.2535918067
 20
25.5994213301
 30
0.0
 10
478.3671720562
 20
25.884680482
 30
0.0
 10
478.3671720562
 20
26.2814262382
 30
0.0
 10
478.3671720562
 20
26.2814262382
 30
0.0
 10
478.3671720562
 20
27.41199462
 30
0.0
 10
478.3671720562
 20
27.41199462
 30
0.0
  0
SPLINE
  5
241
330
215
100
AcDbEntity
  8
0
  6
Continuous
 62
     7
100
AcDbSpline
 70
     3
 71
     3
 72
    44
 73
    40
 74
     0
 42
0.000000001
 43
0.0000001
 40
0.0
 40
0.0
 40
0.0
 40
0.0
 40
1.0
 40
1.0
 40
1.0
 40
2.0
 40
2.0
 40
2.0
 40
3.0
 40
3.0
 40
3.0
 40
4.0
 40
4.0
 40
4.0
 40
5.0
 40
5.0
 40
5.0
 40
6.0
 40
6.0
 40
6.0
 40
7.0
 40
7.0
 40
7.0
 40
8.0
 40
8.0
 40
8.0
 40
9.0
 40
9.0
 40
9.0
 40
10.0
 40
10.0
 40
10.0
 40
11.0
 40
11.0
 40
11.0
 40
12.0
 40
12.0
 40
12.0
 40
13.0
 40
13.0
 40
13.0
 40
13.0
 10
479.9360973916
 20
28.3970546638
 30
0.0
 10
479.9360973916
 20
28.3970546638
 30
0.0
 10
479.9360973916
 20
26.2589195528
 30
0.0
 10
479.9360973916
 20
26.2589195528
 30
0.0
 10
479.9360973916
 20
26.2589195528
 30
0.0
 10
480.1575003663
 20
26.2589195528
 30
0.0
 10
480.1575003663
 20
26.2589195528
 30
0.0
 10
480.1575003663
 20
26.2589195528
 30
0.0
 10
480.1575003663
 20
26.7886117762
 30
0.0
 10
480.1575003663
 20
26.7886117762
 30
0.0
 10
480.1575003663
 20
26.9984997026
 30
0.0
 10
480.1575003663
 20
27.2492137095
 30
0.0
 10
480.4427595182
 20
27.2492137095
 30
0.0
 10
480.6696583115
 20
27.2492137095
 30
0.0
 10
480.6966139928
 20
27.1162672424
 30
0.0
 10
480.6966139928
 20
26.9199880094
 30
0.0
 10
480.6966139928
 20
26.9199880094
 30
0.0
 10
480.6966139928
 20
26.2589195528
 30
0.0
 10
480.6966139928
 20
26.2589195528
 30
0.0
 10
480.6966139928
 20
26.2589195528
 30
0.0
 10
480.9185403789
 20
26.2589195528
 30
0.0
 10
480.9185403789
 20
26.2589195528
 30
0.0
 10
480.9185403789
 20
26.2589195528
 30
0.0
 10
480.9185403789
 20
26.9461585738
 30
0.0
 10
480.9185403789
 20
26.9461585738
 30
0.0
 10
480.9185403789
 20
27.2267070241
 30
0.0
 10
480.8345328672
 20
27.446539765
 30
0.0
 10
480.5094944574
 20
27.446539765
 30
0.0
 10
480.3697436436
 20
27.446539765
 30
0.0
 10
480.2315630636
 20
27.3800665315
 30
0.0
 10
480.1622110679
 20
27.2570648788
 30
0.0
 10
480.1622110679
 20
27.2570648788
 30
0.0
 10
480.1575003663
 20
27.2570648788
 30
0.0
 10
480.1575003663
 20
27.2570648788
 30
0.0
 10
480.1575003663
 20
27.2570648788
 30
0.0
 10
480.1575003663
 20
28.3970546638
 30
0.0
 10
480.1575003663
 20
28.3970546638
 30
0.0
 10
480.1575003663
 20
28.3970546638
 30
0.0
 10
479.9360973916
 20
28.3970546638
 30
0.0
 10
479.9360973916
 20
28.3970546638
 30
0.0
  0
LWPOLYLINE
  5
242
330
215
100
AcDbEntity
  8
0
  6
Continuous
 62
     7
100
AcDbPolyline
 90
        2
 70
     0
 43
0.2
 10
482.7583310558
 20
27.20472375
 10
482.9747616233
 20
27.20472375
  0
LWPOLYLINE
  5
243
330
215
100
AcDbEntity
  8
0
  6
Continuous
 62
     7
100
AcDbPolyline
 90
        2
 70
     0
 43
0.2
 10
482.9747616233
 20
27.20472375
 10
482.9747616233
 20
27.4114712087
  0
LWPOLYLINE
  5
244
330
215
100
AcDbEntity
  8
0
  6
Continuous
 62
     7
100
AcDbPolyline
 90
        2
 70
     0
 43
0.2
 10
482.9747616233
 20
27.4114712087
 10
482.7583310558
 20
27.4114712087
  0
LWPOLYLINE
  5
245
330
215
100
AcDbEntity
  8
0
  6
Continuous
 62
     7
100
AcDbPolyline
 90
        2
 70
     0
 43
0.2
 10
482.7583310558
 20
27.4114712087
 10
482.7583310558
 20
27.8521835131
  0
LWPOLYLINE
  5
246
330
215
100
AcDbEntity
  8
0
  6
Continuous
 62
     7
100
AcDbPolyline
 90
        2
 70
     0
 43
0.2
 10
482.7583310558
 20
27.8521835131
 10
482.5366663754
 20
27.8521835131
  0
LWPOLYLINE
  5
247
330
215
100
AcDbEntity
  8
0
  6
Continuous
 62
     7
100
AcDbPolyline
 90
        2
 70
     0
 43
0.2
 10
482.5366663754
 20
27.8521835131
 10
482.5366663754
 20
27.4114712087
  0
LWPOLYLINE
  5
248
330
215
100
AcDbEntity
  8
0
  6
Continuous
 62
     7
100
AcDbPolyline
 90
        2
 70
     0
 43
0.2
 10
482.5366663754
 20
27.4114712087
 10
482.4160200735
 20
27.4114712087
  0
LWPOLYLINE
  5
249
330
215
100
AcDbEntity
  8
0
  6
Continuous
 62
     7
100
AcDbPolyline
 90
        2
 70
     0
 43
0.2
 10
482.4160200735
 20
27.4114712087
 10
482.4160200735
 20
27.20472375
  0
LWPOLYLINE
  5
24A
330
215
100
AcDbEntity
  8
0
  6
Continuous
 62
     7
100
AcDbPolyline
 90
        2
 70
     0
 43
0.2
 10
482.4160200735
 20
27.20472375
 10
482.5366663754
 20
27.20472375
  0
LWPOLYLINE
  5
24B
330
215
100
AcDbEntity
  8
0
  6
Continuous
 62
     7
100
AcDbPolyline
 90
        2
 70
     0
 43
0.2
 10
482.5366663754
 20
27.20472375
 10
482.5366663754
 20
26.2589195528
  0
LWPOLYLINE
  5
24C
330
215
100
AcDbEntity
  8
0
  6
Continuous
 62
     7
100
AcDbPolyline
 90
        2
 70
     0
 43
0.2
 10
482.5366663754
 20
26.2589195528
 10
482.7583310558
 20
26.2589195528
  0
LWPOLYLINE
  5
24D
330
215
100
AcDbEntity
  8
0
  6
Continuous
 62
     7
100
AcDbPolyline
 90
        2
 70
     0
 43
0.2
 10
482.7583310558
 20
26.2589195528
 10
482.7583310558
 20
27.20472375
  0
SPLINE
  5
24E
330
215
100
AcDbEntity
  8
0
  6
Continuous
 62
     7
100
AcDbSpline
 70
     3
 71
     3
 72
    20
 73
    16
 74
     0
 42
0.000000001
 43
0.0000001
 40
0.0
 40
0.0
 40
0.0
 40
0.0
 40
1.0
 40
1.0
 40
1.0
 40
2.0
 40
2.0
 40
2.0
 40
3.0
 40
3.0
 40
3.0
 40
4.0
 40
4.0
 40
4.0
 40
5.0
 40
5.0
 40
5.0
 40
5.0
 10
470.540341363
 20
36.6198459962
 30
0.0
 10
470.540341363
 20
36.6198459962
 30
0.0
 10
472.8566980175
 20
33.790284574
 30
0.0
 10
472.8566980175
 20
33.790284574
 30
0.0
 10
472.2050509641
 20
33.1381141093
 30
0.0
 10
471.4281777601
 20
32.4021978386
 30
0.0
 10
470.4569881154
 20
32.4021978386
 30
0.0
 10
469.458450231
 20
32.4021978386
 30
0.0
 10
468.5151322374
 20
33.3317762858
 30
0.0
 10
468.5151322374
 20
34.3309684344
 30
0.0
 10
468.5151322374
 20
35.3301605829
 30
0.0
 10
469.6939853105
 20
36.0367658215
 30
0.0
 10
470.4155077709
 20
36.5366236015
 30
0.0
 10
470.4155077709
 20
36.5366236015
 30
0.0
 10
470.540341363
 20
36.6198459962
 30
0.0
 10
470.540341363
 20
36.6198459962
 30
0.0
  0
SPLINE
  5
24F
330
215
100
AcDbEntity
  8
0
  6
Continuous
 62
     7
100
AcDbSpline
 70
     3
 71
     3
 72
    23
 73
    19
 74
     0
 42
0.000000001
 43
0.0000001
 40
0.0
 40
0.0
 40
0.0
 40
0.0
 40
1.0
 40
1.0
 40
1.0
 40
2.0
 40
2.0
 40
2.0
 40
3.0
 40
3.0
 40
3.0
 40
4.0
 40
4.0
 40
4.0
 40
5.0
 40
5.0
 40
5.0
 40
6.0
 40
6.0
 40
6.0
 40
6.0
 10
470.8177493456
 20
38.257599916
 30
0.0
 10
470.8177493456
 20
38.257599916
 30
0.0
 10
470.471251073
 20
38.7009292768
 30
0.0
 10
470.471251073
 20
38.7009292768
 30
0.0
 10
470.1654480281
 20
39.0890387468
 30
0.0
 10
469.8465597009
 20
39.4775407752
 30
0.0
 10
469.8465597009
 20
40.0044850892
 30
0.0
 10
469.8465597009
 20
40.6706568059
 30
0.0
 10
470.3878978254
 20
41.1143787252
 30
0.0
 10
471.0118040806
 20
41.1143787252
 30
0.0
 10
471.7055857426
 20
41.1143787252
 30
0.0
 10
472.2327917623
 20
40.7121371504
 30
0.0
 10
472.2327917623
 20
39.9771368494
 30
0.0
 10
472.2327917623
 20
39.2138723389
 30
0.0
 10
471.5115310077
 20
38.7837591131
 30
0.0
 10
470.9844558408
 20
38.3680396977
 30
0.0
 10
470.9844558408
 20
38.3680396977
 30
0.0
 10
470.8177493456
 20
38.257599916
 30
0.0
 10
470.8177493456
 20
38.257599916
 30
0.0
  0
SPLINE
  5
250
330
215
100
AcDbEntity
  8
0
  6
Continuous
 62
     7
100
AcDbSpline
 70
     3
 71
     3
 72
    50
 73
    46
 74
     0
 42
0.000000001
 43
0.0000001
 40
0.0
 40
0.0
 40
0.0
 40
0.0
 40
1.0
 40
1.0
 40
1.0
 40
2.0
 40
2.0
 40
2.0
 40
3.0
 40
3.0
 40
3.0
 40
4.0
 40
4.0
 40
4.0
 40
5.0
 40
5.0
 40
5.0
 40
6.0
 40
6.0
 40
6.0
 40
7.0
 40
7.0
 40
7.0
 40
8.0
 40
8.0
 40
8.0
 40
9.0
 40
9.0
 40
9.0
 40
10.0
 40
10.0
 40
10.0
 40
11.0
 40
11.0
 40
11.0
 40
12.0
 40
12.0
 40
12.0
 40
13.0
 40
13.0
 40
13.0
 40
14.0
 40
14.0
 40
14.0
 40
15.0
 40
15.0
 40
15.0
 40
15.0
 10
474.7713365085
 20
31.4590106978
 30
0.0
 10
474.7713365085
 20
31.4590106978
 30
0.0
 10
476.3805645131
 20
31.4590106978
 30
0.0
 10
476.3805645131
 20
31.4590106978
 30
0.0
 10
476.3805645131
 20
31.4590106978
 30
0.0
 10
474.5075372194
 20
33.7761524692
 30
0.0
 10
474.5075372194
 20
33.7761524692
 30
0.0
 10
474.5075372194
 20
33.7761524692
 30
0.0
 10
475.7838756449
 20
35.2736321638
 30
0.0
 10
475.7838756449
 20
35.2736321638
 30
0.0
 10
475.7838756449
 20
35.2736321638
 30
0.0
 10
474.9516516972
 20
36.1346437324
 30
0.0
 10
474.9516516972
 20
36.1346437324
 30
0.0
 10
474.9516516972
 20
36.1346437324
 30
0.0
 10
473.7310565739
 20
34.71933961
 30
0.0
 10
473.7310565739
 20
34.71933961
 30
0.0
 10
473.7310565739
 20
34.71933961
 30
0.0
 10
471.553142205
 20
37.3547154444
 30
0.0
 10
471.553142205
 20
37.3547154444
 30
0.0
 10
472.4267156445
 20
37.9927538043
 30
0.0
 10
473.4533868857
 20
38.7837591131
 30
0.0
 10
473.4533868857
 20
39.9626121862
 30
0.0
 10
473.4533868857
 20
41.3363051112
 30
0.0
 10
472.3154907458
 20
42.1407882607
 30
0.0
 10
471.0401991429
 20
42.1407882607
 30
0.0
 10
469.6667679236
 20
42.1407882607
 30
0.0
 10
468.6258337248
 20
41.294563061
 30
0.0
 10
468.6258337248
 20
39.8519106988
 30
0.0
 10
468.6258337248
 20
38.9643360074
 30
0.0
 10
469.1811731012
 20
38.1874628034
 30
0.0
 10
469.7773385581
 20
37.563033137
 30
0.0
 10
469.7773385581
 20
37.563033137
 30
0.0
 10
469.1254297991
 20
37.0914395666
 30
0.0
 10
469.1254297991
 20
37.0914395666
 30
0.0
 10
468.1268919146
 20
36.3701788119
 30
0.0
 10
467.2940137028
 20
35.6489180572
 30
0.0
 10
467.2940137028
 20
34.3173597409
 30
0.0
 10
467.2940137028
 20
32.5136844429
 30
0.0
 10
468.7510598754
 20
31.2370843118
 30
0.0
 10
470.4985993128
 20
31.2370843118
 30
0.0
 10
471.7334573937
 20
31.2370843118
 30
0.0
 10
472.8428276184
 20
31.9452597843
 30
0.0
 10
473.6337020743
 20
32.8737914089
 30
0.0
 10
473.6337020743
 20
32.8737914089
 30
0.0
 10
474.7713365085
 20
31.4590106978
 30
0.0
 10
474.7713365085
 20
31.4590106978
 30
0.0
  0
LINE
  5
251
330
215
100
AcDbEntity
  8
0
  6
Continuous
 62
     7
100
AcDbLine
 10
460.5741978835
 20
29.4328856025
 30
0.0
 11
482.9881086111
 21
29.4328856025
 31
0.0
  0
LINE
  5
252
330
215
100
AcDbEntity
  8
0
  6
Continuous
 62
     7
100
AcDbLine
 10
482.9881086111
 20
29.4328856025
 30
0.0
 11
482.9881086111
 21
51.8467963301
 31
0.0
  0
LINE
  5
253
330
215
100
AcDbEntity
  8
0
  6
Continuous
 62
     7
100
AcDbLine
 10
482.9881086111
 20
51.8467963301
 30
0.0
 11
460.5741978835
 21
51.8467963301
 31
0.0
  0
LINE
  5
254
330
215
100
AcDbEntity
  8
0
  6
Continuous
 62
     7
100
AcDbLine
 10
460.5741978835
 20
51.8467963301
 30
0.0
 11
460.5741978835
 21
29.4328856025
 31
0.0
  0
ENDBLK
  5
255
330
215
100
AcDbEntity
  8
0
  6
ByBlock
 62
     0
100
AcDbBlockEnd
  0
BLOCK
  5
256
330
216
100
AcDbEntity
  8
0
100
AcDbBlockBegin
  2
PROIEZIONE_EU_BL0
 70
     0
 10
472.9550407761
 20
64.3481088301
 30
0.0
  3
PROIEZIONE_EU_BL0
  1

  0
LWPOLYLINE
  5
257
330
216
100
AcDbEntity
  8
DEFAULT_1
  6
CENTER
 62
     7
100
AcDbPolyline
 90
        2
 70
     0
 43
0.25
 10
479.0816614378
 20
69.347802962
 10
479.0817024202
 20
59.3484146982
  0
LWPOLYLINE
  5
258
330
216
100
AcDbEntity
  8
DEFAULT_1
  6
CENTER
 62
     7
100
AcDbPolyline
 90
        2
 70
     0
 43
0.25
 10
485.0816912629
 20
64.3483799652
 10
460.8283902894
 20
64.3481093048
  0
LWPOLYLINE
  5
259
330
216
100
AcDbEntity
  8
0
  6
Continuous
 62
     7
100
AcDbPolyline
 90
        2
 70
     1
 43
0.25
 10
475.534551262
 20
64.3295610759
 42
1.0
 10
482.6408803606
 20
64.3295610759
 42
1.0
  0
LWPOLYLINE
  5
25A
330
216
100
AcDbEntity
  8
0
  6
Continuous
 62
     7
100
AcDbPolyline
 90
        2
 70
     1
 43
0.25
 10
477.0842950904
 20
64.3474591205
 42
1.0
 10
481.0960468404
 20
64.3474591205
 42
1.0
  0
LWPOLYLINE
  5
25B
330
216
100
AcDbEntity
  8
0
  6
Continuous
 62
     7
100
AcDbPolyline
 90
        2
 70
     0
 43
0.25
 10
473.0816890569
 20
67.9233123253
 10
473.0816887023
 20
60.823109417
  0
LWPOLYLINE
  5
25C
330
216
100
AcDbEntity
  8
0
  6
Continuous
 62
     7
100
AcDbPolyline
 90
        2
 70
     0
 43
0.25
 10
473.0817171387
 20
60.8230809807
 10
463.0871598675
 20
62.3431743935
  0
LWPOLYLINE
  5
25D
330
216
100
AcDbEntity
  8
0
  6
Continuous
 62
     7
100
AcDbPolyline
 90
        2
 70
     0
 43
0.25
 10
463.0848498819
 20
62.3424968519
 10
463.0821829778
 20
66.3481354634
  0
LWPOLYLINE
  5
25E
330
216
100
AcDbEntity
  8
0
  6
Continuous
 62
     7
100
AcDbPolyline
 90
        2
 70
     0
 43
0.25
 10
463.0821747017
 20
66.3481271873
 10
473.081917939
 20
67.9232844074
  0
ENDBLK
  5
25F
330
216
100
AcDbEntity
  8
0
  6
ByBlock
 62
     0
100
AcDbBlockEnd
  0
ENDSEC
  0
SECTION
  2
ENTITIES
  0
LINE
  5
27D
330
1B
100
AcDbEntity
 67
     1
  8
0
  6
Continuous
 62
     7
100
AcDbLine
 10
0.0
 20
0.0
 30
0.0
 11
594.0
 21
0.0
 31
0.0
  0
LINE
  5
27E
330
1B
100
AcDbEntity
 67
     1
  8
0
  6
Continuous
 62
     7
100
AcDbLine
 10
594.0
 20
0.0
 30
0.0
 11
594.0
 21
420.0
 31
0.0
  0
LINE
  5
27F
330
1B
100
AcDbEntity
 67
     1
  8
0
  6
Continuous
 62
     7
100
AcDbLine
 10
0.0
 20
420.0
 30
0.0
 11
594.0
 21
420.0
 31
0.0
  0
LINE
  5
280
330
1B
100
AcDbEntity
 67
     1
  8
0
  6
Continuous
 62
     7
100
AcDbLine
 10
0.0
 20
0.0
 30
0.0
 11
0.0
 21
420.0
 31
0.0
  0
VIEWPORT
  5
281
330
1B
100
AcDbEntity
 67
     1
  8
0
100
AcDbViewport
 10
0.0
 20
0.0
 30
0.0
 40
700.1089494163423
 41
495.0770428015564
 68
     1
 69
     1
 12
330.9338521400778
 22
210.0
 13
0.0
 23
0.0
 14
1.0
 24
1.0
 15
0.0
 25
0.0
 16
0.0
 26
0.0
 36
1.0
 17
0.0
 27
0.0
 37
0.0
 42
50.0
 43
0.0
 44
0.0
 45
495.0770428015564
 50
0.0
 51
0.0
 72
   100
 90
   557216
  1

281
     0
 71
     1
 74
     0
110
0.0
120
0.0
130
0.0
111
1.0
121
0.0
131
0.0
112
0.0
122
1.0
132
0.0
 79
     0
146
0.0
170
     0
 61
     5
348
496
292
     1
282
     1
141
0.0
142
0.0
 63
   256
  0
ARC
  5
282
330
1B
100
AcDbEntity
 67
     1
  8
02___PRT_ALL_AXES
  6
Continuous
 62
     7
100
AcDbCircle
 10
105.1746730475
 20
84.5941847676
 30
0.0
 40
61.85
100
AcDbArc
 50
105.0
 51
285.0
  0
ARC
  5
283
330
1B
100
AcDbEntity
 67
     1
  8
02___PRT_ALL_AXES
  6
Continuous
 62
     7
100
AcDbCircle
 10
105.1746730475
 20
84.5941847676
 30
0.0
 40
61.85
100
AcDbArc
 50
285.0
 51
105.0
  0
ARC
  5
284
330
1B
100
AcDbEntity
 67
     1
  8
02___PRT_ALL_AXES
  6
Continuous
 62
     7
100
AcDbCircle
 10
105.1746730475
 20
84.5941847676
 30
0.0
 40
64.3
100
AcDbArc
 50
105.0
 51
285.0
  0
ARC
  5
285
330
1B
100
AcDbEntity
 67
     1
  8
02___PRT_ALL_AXES
  6
Continuous
 62
     7
100
AcDbCircle
 10
105.1746730475
 20
84.5941847676
 30
0.0
 40
64.3
100
AcDbArc
 50
285.0
 51
105.0
  0
ARC
  5
286
330
1B
100
AcDbEntity
 67
     1
  8
3_ALL_AXES
  6
Continuous
 62
     7
100
AcDbCircle
 10
105.1746730475
 20
148.5941847676
 30
0.0
 40
2.5
100
AcDbArc
 50
10.4425772335
 51
169.5574227665
  0
ARC
  5
287
330
1B
100
AcDbEntity
 67
     1
  8
3_ALL_AXES
  6
Continuous
 62
     7
100
AcDbCircle
 10
105.1746730475
 20
84.5941847676
 30
0.0
 40
64.5
100
AcDbArc
 50
15.0
 51
87.8154865724
  0
ARC
  5
288
330
1B
100
AcDbEntity
 67
     1
  8
3_ALL_AXES
  6
Continuous
 62
     7
100
AcDbCircle
 10
105.1746730475
 20
84.5941847676
 30
0.0
 40
64.5
100
AcDbArc
 50
105.003209087
 51
195.0
  0
ARC
  5
289
330
1B
100
AcDbEntity
 67
     1
  8
3_ALL_AXES
  6
Continuous
 62
     7
100
AcDbCircle
 10
105.1746730475
 20
84.5941847676
 30
0.0
 40
64.5
100
AcDbArc
 50
92.1845134276
 51
105.003209087
  0
ARC
  5
28A
330
1B
100
AcDbEntity
 67
     1
  8
3_ALL_AXES
  6
Continuous
 62
     7
100
AcDbCircle
 10
105.1746730475
 20
84.5941847676
 30
0.0
 40
64.5
100
AcDbArc
 50
195.0
 51
284.9907145882
  0
ARC
  5
28B
330
1B
100
AcDbEntity
 67
     1
  8
3_ALL_AXES
  6
Continuous
 62
     7
100
AcDbCircle
 10
105.1746730475
 20
84.5941847676
 30
0.0
 40
64.5
100
AcDbArc
 50
284.9907145882
 51
15.0
  0
LINE
  5
28C
330
1B
100
AcDbEntity
 67
     1
  8
02___PRT_ALL_AXES
  6
Continuous
 62
     7
100
AcDbLine
 10
40.8746730475
 20
392.8808085007
 30
0.0
 11
43.3246732723
 21
392.8808085007
 31
0.0
  0
LINE
  5
28D
330
1B
100
AcDbEntity
 67
     1
  8
02___PRT_ALL_AXES
  6
Continuous
 62
     7
100
AcDbLine
 10
43.3246732723
 20
392.8808085007
 30
0.0
 11
89.1667151079
 21
392.8808085007
 31
0.0
  0
LINE
  5
28E
330
1B
100
AcDbEntity
 67
     1
  8
02___PRT_ALL_AXES
  6
Continuous
 62
     7
100
AcDbLine
 10
89.1667151079
 20
392.8808085007
 30
0.0
 11
121.8167376476
 21
392.8808085007
 31
0.0
  0
LINE
  5
28F
330
1B
100
AcDbEntity
 67
     1
  8
02___PRT_ALL_AXES
  6
Continuous
 62
     7
100
AcDbLine
 10
40.8746730475
 20
392.8808085007
 30
0.0
 11
40.8746730475
 21
391.7308085007
 31
0.0
  0
LINE
  5
290
330
1B
100
AcDbEntity
 67
     1
  8
02___PRT_ALL_AXES
  6
Continuous
 62
     7
100
AcDbLine
 10
169.4746730475
 20
392.8808085007
 30
0.0
 11
167.0246728227
 21
392.8808085007
 31
0.0
  0
LINE
  5
291
330
1B
100
AcDbEntity
 67
     1
  8
02___PRT_ALL_AXES
  6
Continuous
 62
     7
100
AcDbLine
 10
167.0246728227
 20
392.8808085007
 30
0.0
 11
121.8167376476
 21
392.8808085007
 31
0.0
  0
LINE
  5
292
330
1B
100
AcDbEntity
 67
     1
  8
02___PRT_ALL_AXES
  6
Continuous
 62
     7
100
AcDbLine
 10
169.4746730475
 20
392.8808085007
 30
0.0
 11
169.4746730475
 21
391.7308085007
 31
0.0
  0
LINE
  5
293
330
1B
100
AcDbEntity
 67
     1
  8
3_ALL_AXES
  6
Continuous
 62
     7
100
AcDbLine
 10
51.6746730475
 20
236.7308085007
 30
0.0
 11
52.1916633387
 21
236.7308085007
 31
0.0
  0
LINE
  5
294
330
1B
100
AcDbEntity
 67
     1
  8
3_ALL_AXES
  6
Continuous
 62
     7
100
AcDbLine
 10
51.6746730475
 20
221.7308085007
 30
0.0
 11
52.1916633387
 21
221.7308085007
 31
0.0
  0
LINE
  5
295
330
1B
100
AcDbEntity
 67
     1
  8
3_ALL_AXES
  6
Continuous
 62
     7
100
AcDbLine
 10
51.6746730475
 20
221.7308085007
 30
0.0
 11
51.6746730475
 21
236.7308085007
 31
0.0
  0
LINE
  5
296
330
1B
100
AcDbEntity
 67
     1
  8
3_ALL_AXES
  6
Continuous
 62
     7
100
AcDbLine
 10
52.1916633387
 20
236.7308085007
 30
0.0
 11
52.3521490386
 21
236.7308085007
 31
0.0
  0
LINE
  5
297
330
1B
100
AcDbEntity
 67
     1
  8
3_ALL_AXES
  6
Continuous
 62
     7
100
AcDbLine
 10
52.3521490386
 20
236.7308085007
 30
0.0
 11
54.1746730475
 21
236.7308085007
 31
0.0
  0
LINE
  5
298
330
1B
100
AcDbEntity
 67
     1
  8
3_ALL_AXES
  6
Continuous
 62
     7
100
AcDbLine
 10
54.1746730475
 20
236.7308085007
 30
0.0
 11
54.5148858444
 21
236.7308085007
 31
0.0
  0
LINE
  5
299
330
1B
100
AcDbEntity
 67
     1
  8
3_ALL_AXES
  6
Continuous
 62
     7
100
AcDbLine
 10
54.5148858444
 20
236.7308085007
 30
0.0
 11
156.1746730475
 21
236.7308085007
 31
0.0
  0
LINE
  5
29A
330
1B
100
AcDbEntity
 67
     1
  8
3_ALL_AXES
  6
Continuous
 62
     7
100
AcDbLine
 10
156.1746730475
 20
236.7308085007
 30
0.0
 11
157.8239224736
 21
236.7308085007
 31
0.0
  0
LINE
  5
29B
330
1B
100
AcDbEntity
 67
     1
  8
3_ALL_AXES
  6
Continuous
 62
     7
100
AcDbLine
 10
157.8239224736
 20
236.7308085007
 30
0.0
 11
158.1745466973
 21
236.7308085007
 31
0.0
  0
SPLINE
  5
29C
330
1B
100
AcDbEntity
 67
     1
  8
3_ALL_AXES
  6
Continuous
 62
     7
100
AcDbSpline
 70
     0
 71
     3
 72
    22
 73
    18
 74
     0
 42
0.000000001
 43
0.0000001
 40
0.0
 40
0.0
 40
0.0
 40
0.0
 40
0.0012447918
 40
0.0049688631
 40
0.011156768
 40
0.0197925709
 40
0.0308472071
 40
0.0442776387
 40
0.0780889704
 40
0.1208027359
 40
0.1719099723
 40
0.2308393283
 40
0.2969786638
 40
0.4482424628
 40
0.6201062029
 40
0.8063277945
 40
1.0
 40
1.0
 40
1.0
 40
1.0
 10
52.1746730475
 20
221.7308085007
 30
0.0
 10
52.1746730475
 20
221.7366859245
 30
0.0
 10
52.1843466424
 20
221.6859086784
 30
0.0
 10
52.1942293039
 20
221.6620433705
 30
0.0
 10
52.2184254013
 20
221.5619414466
 30
0.0
 10
52.248337171
 20
221.4504686589
 30
0.0
 10
52.2877770308
 20
221.296444521
 30
0.0
 10
52.3556317837
 20
221.0309555747
 30
0.0
 10
52.4584913725
 20
220.6180392688
 30
0.0
 10
52.5990636516
 20
220.0323731626
 30
0.0
 10
52.7596347064
 20
219.3291065699
 30
0.0
 10
52.9341191206
 20
218.5157874414
 30
0.0
 10
53.1883523435
 20
217.2359997651
 30
0.0
 10
53.4976848615
 20
215.4237728105
 30
0.0
 10
53.8028748555
 20
213.0374272654
 30
0.0
 10
54.0089395327
 20
210.4393398435
 30
0.0
 10
54.0571613709
 20
208.6452535129
 30
0.0
 10
54.0571613709
 20
207.7308085007
 30
0.0
  0
SPLINE
  5
29D
330
1B
100
AcDbEntity
 67
     1
  8
3_ALL_AXES
  6
Continuous
 62
     7
100
AcDbSpline
 70
     0
 71
     3
 72
    11
 73
     7
 74
     0
 42
0.000000001
 43
0.0000001
 40
0.0
 40
0.0
 40
0.0
 40
0.0
 40
0.0780996673
 40
0.2970172457
 40
0.6201558973
 40
1.0
 40
1.0
 40
1.0
 40
1.0
 10
158.174627709
 20
221.7307538682
 30
0.0
 10
158.080474929
 20
221.3743210781
 30
0.0
 10
157.7343021216
 20
220.0155580815
 30
0.0
 10
157.1090920705
 20
217.1542350596
 30
0.0
 10
156.4681718346
 20
212.8450232365
 30
0.0
 10
156.292184724
 20
209.5238753376
 30
0.0
 10
156.292184724
 20
207.7308085007
 30
0.0
  0
LINE
  5
29E
330
1B
100
AcDbEntity
 67
     1
  8
3_ALL_AXES
  6
Continuous
 62
     7
100
AcDbLine
 10
158.1746730475
 20
221.7308085007
 30
0.0
 11
158.1746730475
 21
236.7308085007
 31
0.0
  0
LINE
  5
29F
330
1B
100
AcDbEntity
 67
     1
  8
7_ALL_FEATURES
  6
Continuous
 62
     7
100
AcDbLine
 10
156.292184724
 20
191.7308085007
 30
0.0
 11
152.9244486887
 21
191.7308085007
 31
0.0
  0
LINE
  5
2A0
330
1B
100
AcDbEntity
 67
     1
  8
7_ALL_FEATURES
  6
Continuous
 62
     7
100
AcDbLine
 10
152.9244486887
 20
191.7308085007
 30
0.0
 11
150.8262064281
 21
191.7308085007
 31
0.0
  0
LINE
  5
2A1
330
1B
100
AcDbEntity
 67
     1
  8
7_ALL_FEATURES
  6
Continuous
 62
     7
100
AcDbLine
 10
150.8262064281
 20
191.7308085007
 30
0.0
 11
119.9467893427
 21
191.7308085007
 31
0.0
  0
LINE
  5
2A2
330
1B
100
AcDbEntity
 67
     1
  8
7_ALL_FEATURES
  6
Continuous
 62
     7
100
AcDbLine
 10
119.9467893427
 20
191.7308085007
 30
0.0
 11
107.7793957125
 21
191.7308085007
 31
0.0
  0
LINE
  5
2A3
330
1B
100
AcDbEntity
 67
     1
  8
7_ALL_FEATURES
  6
Continuous
 62
     7
100
AcDbLine
 10
107.7793957125
 20
191.7308085007
 30
0.0
 11
102.5699503825
 21
191.7308085007
 31
0.0
  0
LINE
  5
2A4
330
1B
100
AcDbEntity
 67
     1
  8
7_ALL_FEATURES
  6
Continuous
 62
     7
100
AcDbLine
 10
102.5699503825
 20
191.7308085007
 30
0.0
 11
90.4025567523
 21
191.7308085007
 31
0.0
  0
LINE
  5
2A5
330
1B
100
AcDbEntity
 67
     1
  8
7_ALL_FEATURES
  6
Continuous
 62
     7
100
AcDbLine
 10
90.4025567523
 20
191.7308085007
 30
0.0
 11
59.5231396669
 21
191.7308085007
 31
0.0
  0
LINE
  5
2A6
330
1B
100
AcDbEntity
 67
     1
  8
7_ALL_FEATURES
  6
Continuous
 62
     7
100
AcDbLine
 10
59.5231396669
 20
191.7308085007
 30
0.0
 11
57.4248974063
 21
191.7308085007
 31
0.0
  0
LINE
  5
2A7
330
1B
100
AcDbEntity
 67
     1
  8
7_ALL_FEATURES
  6
Continuous
 62
     7
100
AcDbLine
 10
57.4248974063
 20
191.7308085007
 30
0.0
 11
54.0571613709
 21
191.7308085007
 31
0.0
  0
LINE
  5
2A8
330
1B
100
AcDbEntity
 67
     1
  8
7_ALL_FEATURES
  6
Continuous
 62
     7
100
AcDbLine
 10
156.292184724
 20
191.7308085007
 30
0.0
 11
156.292184724
 21
207.7308085007
 31
0.0
  0
LINE
  5
2A9
330
1B
100
AcDbEntity
 67
     1
  8
7_ALL_FEATURES
  6
Continuous
 62
     7
100
AcDbLine
 10
54.0571613709
 20
207.7308085007
 30
0.0
 11
54.0571613709
 21
191.7308085007
 31
0.0
  0
LINE
  5
2AA
330
1B
100
AcDbEntity
 67
     1
  8
3_ALL_AXES
  6
Continuous
 62
     7
100
AcDbLine
 10
52.1916633387
 20
221.7308085007
 30
0.0
 11
52.1916633387
 21
236.7308085007
 31
0.0
  0
LINE
  5
2AB
330
1B
100
AcDbEntity
 67
     1
  8
3_ALL_AXES
  6
Continuous
 62
     7
100
AcDbLine
 10
158.1745134054
 20
286.7308085007
 30
0.0
 11
156.1746730475
 21
286.7308085007
 31
0.0
  0
LINE
  5
2AC
330
1B
100
AcDbEntity
 67
     1
  8
3_ALL_AXES
  6
Continuous
 62
     7
100
AcDbLine
 10
156.1746730475
 20
286.7308085007
 30
0.0
 11
54.1746730475
 21
286.7308085007
 31
0.0
  0
LINE
  5
2AD
330
1B
100
AcDbEntity
 67
     1
  8
3_ALL_AXES
  6
Continuous
 62
     7
100
AcDbLine
 10
54.1746730475
 20
286.7308085007
 30
0.0
 11
52.1748081734
 21
286.7308085007
 31
0.0
  0
LINE
  5
2AE
330
1B
100
AcDbEntity
 67
     1
  8
3_ALL_AXES
  6
Continuous
 62
     7
100
AcDbLine
 10
158.1746730475
 20
286.7308085007
 30
0.0
 11
158.1746730475
 21
336.7308085007
 31
0.0
  0
LINE
  5
2AF
330
1B
100
AcDbEntity
 67
     1
  8
3_ALL_AXES
  6
Continuous
 62
     7
100
AcDbLine
 10
52.1748081734
 20
336.7308085007
 30
0.0
 11
52.5787413908
 21
336.7308085007
 31
0.0
  0
LINE
  5
2B0
330
1B
100
AcDbEntity
 67
     1
  8
3_ALL_AXES
  6
Continuous
 62
     7
100
AcDbLine
 10
52.5787413908
 20
336.7308085007
 30
0.0
 11
54.1747962518
 21
336.7308085007
 31
0.0
  0
LINE
  5
2B1
330
1B
100
AcDbEntity
 67
     1
  8
3_ALL_AXES
  6
Continuous
 62
     7
100
AcDbLine
 10
54.1747962518
 20
336.7308085007
 30
0.0
 11
154.139792655
 21
336.7308085007
 31
0.0
  0
LINE
  5
2B2
330
1B
100
AcDbEntity
 67
     1
  8
3_ALL_AXES
  6
Continuous
 62
     7
100
AcDbLine
 10
154.139792655
 20
336.7308085007
 30
0.0
 11
154.4368901882
 21
336.7308085007
 31
0.0
  0
LINE
  5
2B3
330
1B
100
AcDbEntity
 67
     1
  8
3_ALL_AXES
  6
Continuous
 62
     7
100
AcDbLine
 10
154.4368901882
 20
336.7308085007
 30
0.0
 11
156.1745498432
 21
336.7308085007
 31
0.0
  0
LINE
  5
2B4
330
1B
100
AcDbEntity
 67
     1
  8
3_ALL_AXES
  6
Continuous
 62
     7
100
AcDbLine
 10
156.1745498432
 20
336.7308085007
 30
0.0
 11
157.7742942008
 21
336.7308085007
 31
0.0
  0
LINE
  5
2B5
330
1B
100
AcDbEntity
 67
     1
  8
3_ALL_AXES
  6
Continuous
 62
     7
100
AcDbLine
 10
157.7742942008
 20
336.7308085007
 30
0.0
 11
158.1745134054
 21
336.7308085007
 31
0.0
  0
LINE
  5
2B6
330
1B
100
AcDbEntity
 67
     1
  8
3_ALL_AXES
  6
Continuous
 62
     7
100
AcDbLine
 10
52.1746730475
 20
286.7308085007
 30
0.0
 11
52.1746730475
 21
336.7308085007
 31
0.0
  0
LINE
  5
2B7
330
1B
100
AcDbEntity
 67
     1
  8
3_ALL_AXES
  6
Continuous
 62
     7
100
AcDbLine
 10
158.1745134054
 20
236.7308085007
 30
0.0
 11
157.8239224736
 21
236.7308085007
 31
0.0
  0
LINE
  5
2B8
330
1B
100
AcDbEntity
 67
     1
  8
3_ALL_AXES
  6
Continuous
 62
     7
100
AcDbLine
 10
157.8239224736
 20
236.7308085007
 30
0.0
 11
156.1746730475
 21
236.7308085007
 31
0.0
  0
LINE
  5
2B9
330
1B
100
AcDbEntity
 67
     1
  8
3_ALL_AXES
  6
Continuous
 62
     7
100
AcDbLine
 10
156.1746730475
 20
236.7308085007
 30
0.0
 11
54.1746730475
 21
236.7308085007
 31
0.0
  0
LINE
  5
2BA
330
1B
100
AcDbEntity
 67
     1
  8
3_ALL_AXES
  6
Continuous
 62
     7
100
AcDbLine
 10
54.1746730475
 20
236.7308085007
 30
0.0
 11
52.3521490386
 21
236.7308085007
 31
0.0
  0
LINE
  5
2BB
330
1B
100
AcDbEntity
 67
     1
  8
3_ALL_AXES
  6
Continuous
 62
     7
100
AcDbLine
 10
52.3521490386
 20
236.7308085007
 30
0.0
 11
52.1748081734
 21
236.7308085007
 31
0.0
  0
LINE
  5
2BC
330
1B
100
AcDbEntity
 67
     1
  8
3_ALL_AXES
  6
Continuous
 62
     7
100
AcDbLine
 10
158.1746730475
 20
236.7308085007
 30
0.0
 11
158.1746730475
 21
286.7308085007
 31
0.0
  0
LINE
  5
2BD
330
1B
100
AcDbEntity
 67
     1
  8
3_ALL_AXES
  6
Continuous
 62
     7
100
AcDbLine
 10
52.1748081734
 20
286.7308085007
 30
0.0
 11
52.5315716265
 21
286.7308085007
 31
0.0
  0
LINE
  5
2BE
330
1B
100
AcDbEntity
 67
     1
  8
3_ALL_AXES
  6
Continuous
 62
     7
100
AcDbLine
 10
52.5315716265
 20
286.7308085007
 30
0.0
 11
54.1746730475
 21
286.7308085007
 31
0.0
  0
LINE
  5
2BF
330
1B
100
AcDbEntity
 67
     1
  8
3_ALL_AXES
  6
Continuous
 62
     7
100
AcDbLine
 10
54.1746730475
 20
286.7308085007
 30
0.0
 11
156.1746730475
 21
286.7308085007
 31
0.0
  0
LINE
  5
2C0
330
1B
100
AcDbEntity
 67
     1
  8
3_ALL_AXES
  6
Continuous
 62
     7
100
AcDbLine
 10
156.1746730475
 20
286.7308085007
 30
0.0
 11
157.8209908304
 21
286.7308085007
 31
0.0
  0
LINE
  5
2C1
330
1B
100
AcDbEntity
 67
     1
  8
3_ALL_AXES
  6
Continuous
 62
     7
100
AcDbLine
 10
157.8209908304
 20
286.7308085007
 30
0.0
 11
158.1745134054
 21
286.7308085007
 31
0.0
  0
LINE
  5
2C2
330
1B
100
AcDbEntity
 67
     1
  8
3_ALL_AXES
  6
Continuous
 62
     7
100
AcDbLine
 10
52.1746730475
 20
236.7308085007
 30
0.0
 11
52.1746730475
 21
286.7308085007
 31
0.0
  0
LINE
  5
2C3
330
1B
100
AcDbEntity
 67
     1
  8
3_ALL_AXES
  6
Continuous
 62
     7
100
AcDbLine
 10
42.8724572518
 20
391.7308085007
 30
0.0
 11
121.8167376476
 21
391.7308085007
 31
0.0
  0
LINE
  5
2C4
330
1B
100
AcDbEntity
 67
     1
  8
3_ALL_AXES
  6
Continuous
 62
     7
100
AcDbLine
 10
121.8167376476
 20
391.7308085007
 30
0.0
 11
121.8685014566
 21
391.7308085007
 31
0.0
  0
LINE
  5
2C5
330
1B
100
AcDbEntity
 67
     1
  8
3_ALL_AXES
  6
Continuous
 62
     7
100
AcDbLine
 10
121.8685014566
 20
391.7308085007
 30
0.0
 11
165.3906105565
 21
391.7308085007
 31
0.0
  0
LINE
  5
2C6
330
1B
100
AcDbEntity
 67
     1
  8
3_ALL_AXES
  6
Continuous
 62
     7
100
AcDbLine
 10
165.3906105565
 20
391.7308085007
 30
0.0
 11
165.5450371905
 21
391.7308085007
 31
0.0
  0
LINE
  5
2C7
330
1B
100
AcDbEntity
 67
     1
  8
3_ALL_AXES
  6
Continuous
 62
     7
100
AcDbLine
 10
165.5450371905
 20
391.7308085007
 30
0.0
 11
167.4768888431
 21
391.7308085007
 31
0.0
  0
LINE
  5
2C8
330
1B
100
AcDbEntity
 67
     1
  8
3_ALL_AXES
  6
Continuous
 62
     7
100
AcDbLine
 10
167.4768888431
 20
391.7308085007
 30
0.0
 11
167.674497049
 21
391.7308085007
 31
0.0
  0
LINE
  5
2C9
330
1B
100
AcDbEntity
 67
     1
  8
3_ALL_AXES
  6
Continuous
 62
     7
100
AcDbLine
 10
167.674497049
 20
391.7308085007
 30
0.0
 11
169.4746730475
 21
391.7308085007
 31
0.0
  0
LINE
  5
2CA
330
1B
100
AcDbEntity
 67
     1
  8
3_ALL_AXES
  6
Continuous
 62
     7
100
AcDbLine
 10
169.4746730475
 20
391.7308085007
 30
0.0
 11
169.6744914171
 21
391.7308085007
 31
0.0
  0
LINE
  5
2CB
330
1B
100
AcDbEntity
 67
     1
  8
7_ALL_FEATURES
  6
Continuous
 62
     7
100
AcDbLine
 10
162.4799189905
 20
366.7308085007
 30
0.0
 11
163.0376518631
 21
366.7308085007
 31
0.0
  0
LINE
  5
2CC
330
1B
100
AcDbEntity
 67
     1
  8
7_ALL_FEATURES
  6
Continuous
 62
     7
100
AcDbLine
 10
163.0376518631
 20
366.7308085007
 30
0.0
 11
165.639771536
 21
366.7308085007
 31
0.0
  0
LINE
  5
2CD
330
1B
100
AcDbEntity
 67
     1
  8
7_ALL_FEATURES
  6
Continuous
 62
     7
100
AcDbLine
 10
165.639771536
 20
366.7308085007
 30
0.0
 11
166.4162286713
 21
366.7308085007
 31
0.0
  0
LINE
  5
2CE
330
1B
100
AcDbEntity
 67
     1
  8
7_ALL_FEATURES
  6
Continuous
 62
     7
100
AcDbLine
 10
166.4162286713
 20
366.7308085007
 30
0.0
 11
169.6746381002
 21
366.7308085007
 31
0.0
  0
LINE
  5
2CF
330
1B
100
AcDbEntity
 67
     1
  8
7_ALL_FEATURES
  6
Continuous
 62
     7
100
AcDbLine
 10
47.3116942318
 20
356.7308085007
 30
0.0
 11
47.3116942318
 21
366.7308085007
 31
0.0
  0
LINE
  5
2D0
330
1B
100
AcDbEntity
 67
     1
  8
7_ALL_FEATURES
  6
Continuous
 62
     7
100
AcDbLine
 10
163.0372288586
 20
356.7308085007
 30
0.0
 11
162.4799189905
 21
356.7308085007
 31
0.0
  0
LINE
  5
2D1
330
1B
100
AcDbEntity
 67
     1
  8
7_ALL_FEATURES
  6
Continuous
 62
     7
100
AcDbLine
 10
163.0376518631
 20
356.7308085007
 30
0.0
 11
163.0376518631
 21
366.7308085007
 31
0.0
  0
LINE
  5
2D2
330
1B
100
AcDbEntity
 67
     1
  8
7_ALL_FEATURES
  6
Continuous
 62
     7
100
AcDbLine
 10
42.8724572518
 20
366.7308085007
 30
0.0
 11
40.6747987666
 21
366.7308085007
 31
0.0
  0
LINE
  5
2D3
330
1B
100
AcDbEntity
 67
     1
  8
7_ALL_FEATURES
  6
Continuous
 62
     7
100
AcDbLine
 10
42.8724572518
 20
366.7308085007
 30
0.0
 11
44.7095745589
 21
366.7308085007
 31
0.0
  0
LINE
  5
2D4
330
1B
100
AcDbEntity
 67
     1
  8
7_ALL_FEATURES
  6
Continuous
 62
     7
100
AcDbLine
 10
44.7095745589
 20
366.7308085007
 30
0.0
 11
47.3116942318
 21
366.7308085007
 31
0.0
  0
LINE
  5
2D5
330
1B
100
AcDbEntity
 67
     1
  8
7_ALL_FEATURES
  6
Continuous
 62
     7
100
AcDbLine
 10
47.3116942318
 20
366.7308085007
 30
0.0
 11
47.8694271044
 21
366.7308085007
 31
0.0
  0
ARC
  5
2D6
330
1B
100
AcDbEntity
 67
     1
  8
6_ALL_SURFS
  6
Continuous
 62
     7
100
AcDbCircle
 10
56.4675131169
 20
348.2308085007
 30
0.0
 40
2.0
100
AcDbArc
 50
181.0
 51
270.0
  0
LINE
  5
2D7
330
1B
100
AcDbEntity
 67
     1
  8
6_ALL_SURFS
  6
Continuous
 62
     7
100
AcDbLine
 10
57.1504991016
 20
346.2308085007
 30
0.0
 11
56.4678652053
 21
346.2308085007
 31
0.0
  0
LINE
  5
2D8
330
1B
100
AcDbEntity
 67
     1
  8
6_ALL_SURFS
  6
Continuous
 62
     7
100
AcDbLine
 10
56.4893463727
 20
346.2308085007
 30
0.0
 11
57.1504991016
 21
346.2308085007
 31
0.0
  0
LINE
  5
2D9
330
1B
100
AcDbEntity
 67
     1
  8
6_ALL_SURFS
  6
Continuous
 62
     7
100
AcDbLine
 10
56.8182004101
 20
346.2308085007
 30
0.0
 11
56.4893463727
 21
346.2308085007
 31
0.0
  0
LINE
  5
2DA
330
1B
100
AcDbEntity
 67
     1
  8
6_ALL_SURFS
  6
Continuous
 62
     7
100
AcDbLine
 10
72.4210159837
 20
346.2308085007
 30
0.0
 11
71.9932623791
 21
346.2308085007
 31
0.0
  0
LINE
  5
2DB
330
1B
100
AcDbEntity
 67
     1
  8
6_ALL_SURFS
  6
Continuous
 62
     7
100
AcDbLine
 10
71.9932623791
 20
346.2308085007
 30
0.0
 11
71.4321857618
 21
346.2308085007
 31
0.0
  0
LINE
  5
2DC
330
1B
100
AcDbEntity
 67
     1
  8
6_ALL_SURFS
  6
Continuous
 62
     7
100
AcDbLine
 10
71.4321857618
 20
346.2308085007
 30
0.0
 11
67.2764314364
 21
346.2308085007
 31
0.0
  0
ARC
  5
2DD
330
1B
100
AcDbEntity
 67
     1
  8
6_ALL_SURFS
  6
Continuous
 62
     7
100
AcDbCircle
 10
72.421181146
 20
348.2308085007
 30
0.0
 40
2.0
100
AcDbArc
 50
270.0
 51
358.9999999999999
  0
LINE
  5
2DE
330
1B
100
AcDbEntity
 67
     1
  8
6_ALL_SURFS
  6
Continuous
 62
     7
100
AcDbLine
 10
72.3880770979
 20
346.2308085007
 30
0.0
 11
72.2482138187
 21
346.2308085007
 31
0.0
  0
LINE
  5
2DF
330
1B
100
AcDbEntity
 67
     1
  8
6_ALL_SURFS
  6
Continuous
 62
     7
100
AcDbLine
 10
67.2764314364
 20
346.2308085007
 30
0.0
 11
72.3880770979
 21
346.2308085007
 31
0.0
  0
LINE
  5
2E0
330
1B
100
AcDbEntity
 67
     1
  8
6_ALL_SURFS
  6
Continuous
 62
     7
100
AcDbLine
 10
54.4678177265
 20
348.1959036878
 30
0.0
 11
54.3188404089
 21
356.7308085007
 31
0.0
  0
LINE
  5
2E1
330
1B
100
AcDbEntity
 67
     1
  8
6_ALL_SURFS
  6
Continuous
 62
     7
100
AcDbLine
 10
74.4208765363
 20
348.1959036878
 30
0.0
 11
74.7444045033
 21
366.7308085007
 31
0.0
  0
ARC
  5
2E2
330
1B
100
AcDbEntity
 67
     1
  8
6_ALL_SURFS
  6
Continuous
 62
     7
100
AcDbCircle
 10
137.9281649489
 20
348.2308085007
 30
0.0
 40
2.0
100
AcDbArc
 50
181.0
 51
270.0
  0
LINE
  5
2E3
330
1B
100
AcDbEntity
 67
     1
  8
6_ALL_SURFS
  6
Continuous
 62
     7
100
AcDbLine
 10
143.0729146586
 20
346.2308085007
 30
0.0
 11
138.9171534227
 21
346.2308085007
 31
0.0
  0
LINE
  5
2E4
330
1B
100
AcDbEntity
 67
     1
  8
6_ALL_SURFS
  6
Continuous
 62
     7
100
AcDbLine
 10
138.9171534227
 20
346.2308085007
 30
0.0
 11
137.928330059
 21
346.2308085007
 31
0.0
  0
LINE
  5
2E5
330
1B
100
AcDbEntity
 67
     1
  8
7_ALL_FEATURES
  6
Continuous
 62
     7
100
AcDbLine
 10
50.8847902661
 20
366.7308085007
 30
0.0
 11
54.2608620382
 21
366.7308085007
 31
0.0
  0
LINE
  5
2E6
330
1B
100
AcDbEntity
 67
     1
  8
7_ALL_FEATURES
  6
Continuous
 62
     7
100
AcDbLine
 10
54.2608620382
 20
366.7308085007
 30
0.0
 11
54.6347835946
 21
366.7308085007
 31
0.0
  0
LINE
  5
2E7
330
1B
100
AcDbEntity
 67
     1
  8
7_ALL_FEATURES
  6
Continuous
 62
     7
100
AcDbLine
 10
54.6347835946
 20
366.7308085007
 30
0.0
 11
55.3267534133
 21
366.7308085007
 31
0.0
  0
LINE
  5
2E8
330
1B
100
AcDbEntity
 67
     1
  8
7_ALL_FEATURES
  6
Continuous
 62
     7
100
AcDbLine
 10
55.3267534133
 20
366.7308085007
 30
0.0
 11
65.8372238654
 21
366.7308085007
 31
0.0
  0
LINE
  5
2E9
330
1B
100
AcDbEntity
 67
     1
  8
7_ALL_FEATURES
  6
Continuous
 62
     7
100
AcDbLine
 10
65.8372238654
 20
366.7308085007
 30
0.0
 11
74.2402611849
 21
366.7308085007
 31
0.0
  0
LINE
  5
2EA
330
1B
100
AcDbEntity
 67
     1
  8
7_ALL_FEATURES
  6
Continuous
 62
     7
100
AcDbLine
 10
74.2402611849
 20
366.7308085007
 30
0.0
 11
74.7444045033
 21
366.7308085007
 31
0.0
  0
LINE
  5
2EB
330
1B
100
AcDbEntity
 67
     1
  8
7_ALL_FEATURES
  6
Continuous
 62
     7
100
AcDbLine
 10
74.7444045033
 20
366.7308085007
 30
0.0
 11
87.4201844666
 21
366.7308085007
 31
0.0
  0
LINE
  5
2EC
330
1B
100
AcDbEntity
 67
     1
  8
7_ALL_FEATURES
  6
Continuous
 62
     7
100
AcDbLine
 10
87.4201844666
 20
366.7308085007
 30
0.0
 11
90.3179619454
 21
366.7308085007
 31
0.0
  0
LINE
  5
2ED
330
1B
100
AcDbEntity
 67
     1
  8
7_ALL_FEATURES
  6
Continuous
 62
     7
100
AcDbLine
 10
90.3179619454
 20
366.7308085007
 30
0.0
 11
92.9116472975
 21
366.7308085007
 31
0.0
  0
LINE
  5
2EE
330
1B
100
AcDbEntity
 67
     1
  8
7_ALL_FEATURES
  6
Continuous
 62
     7
100
AcDbLine
 10
92.9116472975
 20
366.7308085007
 30
0.0
 11
117.4376987974
 21
366.7308085007
 31
0.0
  0
LINE
  5
2EF
330
1B
100
AcDbEntity
 67
     1
  8
7_ALL_FEATURES
  6
Continuous
 62
     7
100
AcDbLine
 10
117.4376987974
 20
366.7308085007
 30
0.0
 11
120.0313841495
 21
366.7308085007
 31
0.0
  0
LINE
  5
2F0
330
1B
100
AcDbEntity
 67
     1
  8
7_ALL_FEATURES
  6
Continuous
 62
     7
100
AcDbLine
 10
120.0313841495
 20
366.7308085007
 30
0.0
 11
122.9291616284
 21
366.7308085007
 31
0.0
  0
LINE
  5
2F1
330
1B
100
AcDbEntity
 67
     1
  8
7_ALL_FEATURES
  6
Continuous
 62
     7
100
AcDbLine
 10
122.9291616284
 20
366.7308085007
 30
0.0
 11
135.6049415917
 21
366.7308085007
 31
0.0
  0
LINE
  5
2F2
330
1B
100
AcDbEntity
 67
     1
  8
7_ALL_FEATURES
  6
Continuous
 62
     7
100
AcDbLine
 10
135.6049415917
 20
366.7308085007
 30
0.0
 11
136.10908491
 21
366.7308085007
 31
0.0
  0
LINE
  5
2F3
330
1B
100
AcDbEntity
 67
     1
  8
7_ALL_FEATURES
  6
Continuous
 62
     7
100
AcDbLine
 10
136.10908491
 20
366.7308085007
 30
0.0
 11
144.5121222295
 21
366.7308085007
 31
0.0
  0
LINE
  5
2F4
330
1B
100
AcDbEntity
 67
     1
  8
7_ALL_FEATURES
  6
Continuous
 62
     7
100
AcDbLine
 10
144.5121222295
 20
366.7308085007
 30
0.0
 11
155.0225926816
 21
366.7308085007
 31
0.0
  0
LINE
  5
2F5
330
1B
100
AcDbEntity
 67
     1
  8
7_ALL_FEATURES
  6
Continuous
 62
     7
100
AcDbLine
 10
155.0225926816
 20
366.7308085007
 30
0.0
 11
155.7145625003
 21
366.7308085007
 31
0.0
  0
LINE
  5
2F6
330
1B
100
AcDbEntity
 67
     1
  8
7_ALL_FEATURES
  6
Continuous
 62
     7
100
AcDbLine
 10
155.7145625003
 20
366.7308085007
 30
0.0
 11
156.0884840567
 21
366.7308085007
 31
0.0
  0
LINE
  5
2F7
330
1B
100
AcDbEntity
 67
     1
  8
7_ALL_FEATURES
  6
Continuous
 62
     7
100
AcDbLine
 10
156.0884840567
 20
366.7308085007
 30
0.0
 11
159.4645558288
 21
366.7308085007
 31
0.0
  0
LINE
  5
2F8
330
1B
100
AcDbEntity
 67
     1
  8
6_ALL_SURFS
  6
Continuous
 62
     7
100
AcDbLine
 10
137.9499982055
 20
346.2308085007
 30
0.0
 11
143.0729146586
 21
346.2308085007
 31
0.0
  0
LINE
  5
2F9
330
1B
100
AcDbEntity
 67
     1
  8
6_ALL_SURFS
  6
Continuous
 62
     7
100
AcDbLine
 10
153.8814797743
 20
346.2308085007
 30
0.0
 11
153.6495422379
 21
346.2308085007
 31
0.0
  0
LINE
  5
2FA
330
1B
100
AcDbEntity
 67
     1
  8
6_ALL_SURFS
  6
Continuous
 62
     7
100
AcDbLine
 10
153.6495422379
 20
346.2308085007
 30
0.0
 11
153.1988469933
 21
346.2308085007
 31
0.0
  0
ARC
  5
2FB
330
1B
100
AcDbEntity
 67
     1
  8
6_ALL_SURFS
  6
Continuous
 62
     7
100
AcDbCircle
 10
153.8818329781
 20
348.2308085007
 30
0.0
 40
2.0
100
AcDbArc
 50
270.0
 51
358.9999999999999
  0
LINE
  5
2FC
330
1B
100
AcDbEntity
 67
     1
  8
6_ALL_SURFS
  6
Continuous
 62
     7
100
AcDbLine
 10
153.8487289294
 20
346.2308085007
 30
0.0
 11
153.8254367247
 21
346.2308085007
 31
0.0
  0
LINE
  5
2FD
330
1B
100
AcDbEntity
 67
     1
  8
6_ALL_SURFS
  6
Continuous
 62
     7
100
AcDbLine
 10
153.1988469933
 20
346.2308085007
 30
0.0
 11
153.6522730305
 21
346.2308085007
 31
0.0
  0
LINE
  5
2FE
330
1B
100
AcDbEntity
 67
     1
  8
6_ALL_SURFS
  6
Continuous
 62
     7
100
AcDbLine
 10
153.6522730305
 20
346.2308085007
 30
0.0
 11
153.8487289294
 21
346.2308085007
 31
0.0
  0
LINE
  5
2FF
330
1B
100
AcDbEntity
 67
     1
  8
6_ALL_SURFS
  6
Continuous
 62
     7
100
AcDbLine
 10
135.9284695586
 20
348.1959036878
 30
0.0
 11
135.6049415917
 21
366.7308085007
 31
0.0
  0
LINE
  5
300
330
1B
100
AcDbEntity
 67
     1
  8
6_ALL_SURFS
  6
Continuous
 62
     7
100
AcDbLine
 10
155.8815283684
 20
348.1959036878
 30
0.0
 11
156.0305056861
 21
356.7308085007
 31
0.0
  0
LINE
  5
301
330
1B
100
AcDbEntity
 67
     1
  8
3_ALL_AXES
  6
Continuous
 62
     7
100
AcDbLine
 10
40.6746730475
 20
366.7308085007
 30
0.0
 11
40.6746730475
 21
391.7308085007
 31
0.0
  0
LINE
  5
302
330
1B
100
AcDbEntity
 67
     1
  8
3_ALL_AXES
  6
Continuous
 62
     7
100
AcDbLine
 10
158.1744541412
 20
336.7308085007
 30
0.0
 11
157.7742942008
 21
336.7308085007
 31
0.0
  0
LINE
  5
303
330
1B
100
AcDbEntity
 67
     1
  8
3_ALL_AXES
  6
Continuous
 62
     7
100
AcDbLine
 10
157.7742942008
 20
336.7308085007
 30
0.0
 11
156.1745498432
 21
336.7308085007
 31
0.0
  0
LINE
  5
304
330
1B
100
AcDbEntity
 67
     1
  8
3_ALL_AXES
  6
Continuous
 62
     7
100
AcDbLine
 10
156.1745498432
 20
336.7308085007
 30
0.0
 11
156.1430617371
 21
336.7308085007
 31
0.0
  0
LINE
  5
305
330
1B
100
AcDbEntity
 67
     1
  8
3_ALL_AXES
  6
Continuous
 62
     7
100
AcDbLine
 10
156.1430617371
 20
336.7308085007
 30
0.0
 11
154.4368901882
 21
336.7308085007
 31
0.0
  0
LINE
  5
306
330
1B
100
AcDbEntity
 67
     1
  8
3_ALL_AXES
  6
Continuous
 62
     7
100
AcDbLine
 10
154.4368901882
 20
336.7308085007
 30
0.0
 11
54.2145968817
 21
336.7308085007
 31
0.0
  0
LINE
  5
307
330
1B
100
AcDbEntity
 67
     1
  8
3_ALL_AXES
  6
Continuous
 62
     7
100
AcDbLine
 10
54.2145968817
 20
336.7308085007
 30
0.0
 11
54.1747962518
 21
336.7308085007
 31
0.0
  0
LINE
  5
308
330
1B
100
AcDbEntity
 67
     1
  8
3_ALL_AXES
  6
Continuous
 62
     7
100
AcDbLine
 10
54.1747962518
 20
336.7308085007
 30
0.0
 11
52.5787413908
 21
336.7308085007
 31
0.0
  0
LINE
  5
309
330
1B
100
AcDbEntity
 67
     1
  8
3_ALL_AXES
  6
Continuous
 62
     7
100
AcDbLine
 10
52.5787413908
 20
336.7308085007
 30
0.0
 11
52.1748845305
 21
336.7308085007
 31
0.0
  0
LINE
  5
30A
330
1B
100
AcDbEntity
 67
     1
  8
3_ALL_AXES
  6
Continuous
 62
     7
100
AcDbLine
 10
158.1746730475
 20
336.7308085007
 30
0.0
 11
158.1746730475
 21
345.4000929334
 31
0.0
  0
LINE
  5
30B
330
1B
100
AcDbEntity
 67
     1
  8
3_ALL_AXES
  6
Continuous
 62
     7
100
AcDbLine
 10
52.1746730475
 20
336.7308085007
 30
0.0
 11
52.1746730475
 21
345.4000929334
 31
0.0
  0
LINE
  5
30C
330
1B
100
AcDbEntity
 67
     1
  8
3_ALL_AXES
  6
Continuous
 62
     7
100
AcDbLine
 10
169.6746730475
 20
366.7308085007
 30
0.0
 11
169.6746730475
 21
391.7308085007
 31
0.0
  0
LINE
  5
30D
330
1B
100
AcDbEntity
 67
     1
  8
7_ALL_FEATURES
  6
Continuous
 62
     7
100
AcDbLine
 10
162.4799189905
 20
356.7308085007
 30
0.0
 11
159.4645558288
 21
356.7308085007
 31
0.0
  0
LINE
  5
30E
330
1B
100
AcDbEntity
 67
     1
  8
7_ALL_FEATURES
  6
Continuous
 62
     7
100
AcDbLine
 10
159.4645558288
 20
356.7308085007
 30
0.0
 11
156.0305056861
 21
356.7308085007
 31
0.0
  0
LINE
  5
30F
330
1B
100
AcDbEntity
 67
     1
  8
7_ALL_FEATURES
  6
Continuous
 62
     7
100
AcDbLine
 10
156.0305056861
 20
356.7308085007
 30
0.0
 11
155.9039708067
 21
356.7308085007
 31
0.0
  0
LINE
  5
310
330
1B
100
AcDbEntity
 67
     1
  8
7_ALL_FEATURES
  6
Continuous
 62
     7
100
AcDbLine
 10
54.4453752882
 20
356.7308085007
 30
0.0
 11
54.3188404089
 21
356.7308085007
 31
0.0
  0
LINE
  5
311
330
1B
100
AcDbEntity
 67
     1
  8
7_ALL_FEATURES
  6
Continuous
 62
     7
100
AcDbLine
 10
54.3188404089
 20
356.7308085007
 30
0.0
 11
50.8847902661
 21
356.7308085007
 31
0.0
  0
LINE
  5
312
330
1B
100
AcDbEntity
 67
     1
  8
7_ALL_FEATURES
  6
Continuous
 62
     7
100
AcDbLine
 10
50.8847902661
 20
356.7308085007
 30
0.0
 11
47.8694271044
 21
356.7308085007
 31
0.0
  0
LINE
  5
313
330
1B
100
AcDbEntity
 67
     1
  8
7_ALL_FEATURES
  6
Continuous
 62
     7
100
AcDbLine
 10
47.8694271044
 20
356.7308085007
 30
0.0
 11
47.3121172363
 21
356.7308085007
 31
0.0
  0
LINE
  5
314
330
1B
100
AcDbEntity
 67
     1
  8
6_ALL_SURFS
  6
Continuous
 62
     7
100
AcDbLine
 10
67.2764314364
 20
346.2308085007
 30
0.0
 11
65.3635813849
 21
346.2308085007
 31
0.0
  0
LINE
  5
315
330
1B
100
AcDbEntity
 67
     1
  8
6_ALL_SURFS
  6
Continuous
 62
     7
100
AcDbLine
 10
65.3635813849
 20
346.2308085007
 30
0.0
 11
62.1380804176
 21
346.2308085007
 31
0.0
  0
LINE
  5
316
330
1B
100
AcDbEntity
 67
     1
  8
6_ALL_SURFS
  6
Continuous
 62
     7
100
AcDbLine
 10
62.1380804176
 20
346.2308085007
 30
0.0
 11
57.1504991016
 21
346.2308085007
 31
0.0
  0
LINE
  5
317
330
1B
100
AcDbEntity
 67
     1
  8
6_ALL_SURFS
  6
Continuous
 62
     7
100
AcDbLine
 10
153.1988469933
 20
346.2308085007
 30
0.0
 11
148.2112656774
 21
346.2308085007
 31
0.0
  0
LINE
  5
318
330
1B
100
AcDbEntity
 67
     1
  8
6_ALL_SURFS
  6
Continuous
 62
     7
100
AcDbLine
 10
148.2112656774
 20
346.2308085007
 30
0.0
 11
144.9866933198
 21
346.2308085007
 31
0.0
  0
LINE
  5
319
330
1B
100
AcDbEntity
 67
     1
  8
6_ALL_SURFS
  6
Continuous
 62
     7
100
AcDbLine
 10
144.9866933198
 20
346.2308085007
 30
0.0
 11
143.0729146586
 21
346.2308085007
 31
0.0
  0
LINE
  5
31A
330
1B
100
AcDbEntity
 67
     1
  8
7_ALL_FEATURES
  6
Continuous
 62
     7
100
AcDbLine
 10
87.4201844666
 20
366.7308085007
 30
0.0
 11
90.0138698187
 21
341.6777318323
 31
0.0
  0
LINE
  5
31B
330
1B
100
AcDbEntity
 67
     1
  8
7_ALL_FEATURES
  6
Continuous
 62
     7
100
AcDbLine
 10
65.3645607522
 20
346.2308103195
 30
0.0
 11
66.6523658217
 21
341.6777318323
 31
0.0
  0
LINE
  5
31C
330
1B
100
AcDbEntity
 67
     1
  8
7_ALL_FEATURES
  6
Continuous
 62
     7
100
AcDbLine
 10
43.9331174236
 20
366.7308085007
 30
0.0
 11
47.3116942318
 21
357.9864082677
 31
0.0
  0
LINE
  5
31D
330
1B
100
AcDbEntity
 67
     1
  8
7_ALL_FEATURES
  6
Continuous
 62
     7
100
AcDbLine
 10
47.8062516839
 20
356.7063993926
 30
0.0
 11
53.6128829364
 21
341.6777318323
 31
0.0
  0
LINE
  5
31E
330
1B
100
AcDbEntity
 67
     1
  8
3_ALL_AXES
  6
Continuous
 62
     7
100
AcDbLine
 10
42.8724572518
 20
391.7308085007
 30
0.0
 11
42.6748490459
 21
391.7308085007
 31
0.0
  0
LINE
  5
31F
330
1B
100
AcDbEntity
 67
     1
  8
3_ALL_AXES
  6
Continuous
 62
     7
100
AcDbLine
 10
42.6748490459
 20
391.7308085007
 30
0.0
 11
40.8746730475
 21
391.7308085007
 31
0.0
  0
LINE
  5
320
330
1B
100
AcDbEntity
 67
     1
  8
3_ALL_AXES
  6
Continuous
 62
     7
100
AcDbLine
 10
40.8746730475
 20
391.7308085007
 30
0.0
 11
40.6748047892
 21
391.7308085007
 31
0.0
  0
LINE
  5
321
330
1B
100
AcDbEntity
 67
     1
  8
7_ALL_FEATURES
  6
Continuous
 62
     7
100
AcDbLine
 10
166.4162286713
 20
366.7308085007
 30
0.0
 11
163.0376518631
 21
357.9864082677
 31
0.0
  0
LINE
  5
322
330
1B
100
AcDbEntity
 67
     1
  8
7_ALL_FEATURES
  6
Continuous
 62
     7
100
AcDbLine
 10
162.543094411
 20
356.7063993926
 30
0.0
 11
156.7364631585
 21
341.6777318323
 31
0.0
  0
LINE
  5
323
330
1B
100
AcDbEntity
 67
     1
  8
7_ALL_FEATURES
  6
Continuous
 62
     7
100
AcDbLine
 10
122.9291616284
 20
366.7308085007
 30
0.0
 11
120.3354762763
 21
341.6777318323
 31
0.0
  0
LINE
  5
324
330
1B
100
AcDbEntity
 67
     1
  8
7_ALL_FEATURES
  6
Continuous
 62
     7
100
AcDbLine
 10
144.9847853427
 20
346.2308103195
 30
0.0
 11
143.6969802733
 21
341.6777318323
 31
0.0
  0
ELLIPSE
  5
325
330
1B
100
AcDbEntity
 67
     1
  8
3_ALL_AXES
  6
Continuous
 62
     7
100
AcDbEllipse
 10
105.1746730475
 20
209.2308085007
 30
0.0
 11
-51.6436125848
 21
132.4185070514
 31
0.0
210
0.0
220
0.0
230
1.0
 40
0.0899703792
 41
-0.0633799926
 42
-0.0067686597
  0
LINE
  5
326
330
1B
100
AcDbEntity
 67
     1
  8
7_ALL_FEATURES
  6
Continuous
 62
     7
100
AcDbLine
 10
54.3893400717
 20
341.6777318323
 30
0.0
 11
54.3893400717
 21
348.1959036878
 31
0.0
  0
LINE
  5
327
330
1B
100
AcDbEntity
 67
     1
  8
7_ALL_FEATURES
  6
Continuous
 62
     7
100
AcDbLine
 10
54.3893400717
 20
348.1959036878
 30
0.0
 11
54.3893400717
 21
352.6918855211
 31
0.0
  0
SPLINE
  5
328
330
1B
100
AcDbEntity
 67
     1
  8
6_ALL_SURFS
  6
Continuous
 62
     9
100
AcDbSpline
 70
     0
 71
     3
 72
     9
 73
     5
 74
     0
 42
0.000000001
 43
0.0000001
 40
0.0
 40
0.0
 40
0.0
 40
0.0
 40
0.7459698701
 40
1.0
 40
1.0
 40
1.0
 40
1.0
 10
57.1504991016
 20
346.2308085007
 30
0.0
 10
57.0283784902
 20
346.2308085007
 30
0.0
 10
56.8633839165
 20
346.2560034861
 30
0.0
 10
56.7090518027
 20
346.3108225487
 30
0.0
 10
56.6705537327
 20
346.3265495924
 30
0.0
  0
SPLINE
  5
329
330
1B
100
AcDbEntity
 67
     1
  8
6_ALL_SURFS
  6
Continuous
 62
     9
100
AcDbSpline
 70
     0
 71
     3
 72
    11
 73
     7
 74
     0
 42
0.000000001
 43
0.0000001
 40
0.0
 40
0.0
 40
0.0
 40
0.0
 40
0.2262108977
 40
0.4698569061
 40
0.7299486606
 40
1.0
 40
1.0
 40
1.0
 40
1.0
 10
56.6705537327
 20
346.3265495924
 30
0.0
 10
56.5115035685
 20
346.3915239897
 30
0.0
 10
56.2059485329
 20
346.592448483
 30
0.0
 10
55.8604186268
 20
347.0360573681
 30
0.0
 10
55.6376829639
 20
347.5870444587
 30
0.0
 10
55.5835352015
 20
347.9908157478
 30
0.0
 10
55.5807250166
 20
348.1959036878
 30
0.0
  0
SPLINE
  5
32A
330
1B
100
AcDbEntity
 67
     1
  8
6_ALL_SURFS
  6
Continuous
 62
     9
100
AcDbSpline
 70
     0
 71
     3
 72
    11
 73
     7
 74
     0
 42
0.000000001
 43
0.0000001
 40
0.0
 40
0.0
 40
0.0
 40
0.0
 40
0.1947157133
 40
0.4252423138
 40
0.6988561405
 40
1.0
 40
1.0
 40
1.0
 40
1.0
 10
67.2764314364
 20
346.2308085007
 30
0.0
 10
67.1123442117
 20
346.2308085007
 30
0.0
 10
66.7513187892
 20
346.3585959989
 30
0.0
 10
66.3580342353
 20
346.8187497312
 30
0.0
 10
66.1017954667
 20
347.4558670371
 30
0.0
 10
66.0403893117
 20
347.9421441392
 30
0.0
 10
66.0376453609
 20
348.1959036878
 30
0.0
  0
LINE
  5
32B
330
1B
100
AcDbEntity
 67
     1
  8
7_ALL_FEATURES
  6
Continuous
 62
     9
100
AcDbLine
 10
55.5807250054
 20
348.1959036878
 30
0.0
 11
54.4678177265
 21
348.1959036878
 31
0.0
  0
LINE
  5
32C
330
1B
100
AcDbEntity
 67
     1
  8
7_ALL_FEATURES
  6
Continuous
 62
     9
100
AcDbLine
 10
55.3267534133
 20
366.7308085007
 30
0.0
 11
55.5807250054
 21
348.1959036878
 31
0.0
  0
LINE
  5
32D
330
1B
100
AcDbEntity
 67
     1
  8
7_ALL_FEATURES
  6
Continuous
 62
     7
100
AcDbLine
 10
54.2608620382
 20
366.7308085007
 30
0.0
 11
54.4453752882
 21
356.7308085007
 31
0.0
  0
LINE
  5
32E
330
1B
100
AcDbEntity
 67
     1
  8
7_ALL_FEATURES
  6
Continuous
 62
     9
100
AcDbLine
 10
66.0376453609
 20
348.1959036878
 30
0.0
 11
65.8372238654
 21
366.7308085007
 31
0.0
  0
LINE
  5
32F
330
1B
100
AcDbEntity
 67
     1
  8
6_ALL_SURFS
  6
Continuous
 62
     9
100
AcDbLine
 10
66.0376453609
 20
348.1959036878
 30
0.0
 11
55.5807250054
 21
348.1959036878
 31
0.0
  0
SPLINE
  5
330
330
1B
100
AcDbEntity
 67
     1
  8
6_ALL_SURFS
  6
Continuous
 62
     9
100
AcDbSpline
 70
     0
 71
     3
 72
    11
 73
     7
 74
     0
 42
0.000000001
 43
0.0000001
 40
0.0
 40
0.0
 40
0.0
 40
0.0
 40
0.1947157123
 40
0.4252423142
 40
0.6988561417
 40
1.0
 40
1.0
 40
1.0
 40
1.0
 10
143.0729146586
 20
346.2308085007
 30
0.0
 10
143.2370018825
 20
346.2308085007
 30
0.0
 10
143.5980273049
 20
346.3585959988
 30
0.0
 10
143.9913118627
 20
346.8187497315
 30
0.0
 10
144.2475506196
 20
347.4558670413
 30
0.0
 10
144.3089567974
 20
347.94214414
 30
0.0
 10
144.3117007482
 20
348.1959036878
 30
0.0
  0
SPLINE
  5
331
330
1B
100
AcDbEntity
 67
     1
  8
6_ALL_SURFS
  6
Continuous
 62
     9
100
AcDbSpline
 70
     0
 71
     3
 72
     9
 73
     5
 74
     0
 42
0.000000001
 43
0.0000001
 40
0.0
 40
0.0
 40
0.0
 40
0.0
 40
0.7459698657
 40
1.0
 40
1.0
 40
1.0
 40
1.0
 10
153.1988469933
 20
346.2308085007
 30
0.0
 10
153.3209676839
 20
346.2308085007
 30
0.0
 10
153.485962367
 20
346.2560035201
 30
0.0
 10
153.6402945701
 20
346.3108226515
 30
0.0
 10
153.6787926623
 20
346.3265497151
 30
0.0
  0
SPLINE
  5
332
330
1B
100
AcDbEntity
 67
     1
  8
6_ALL_SURFS
  6
Continuous
 62
     9
100
AcDbSpline
 70
     0
 71
     3
 72
    11
 73
     7
 74
     0
 42
0.000000001
 43
0.0000001
 40
0.0
 40
0.0
 40
0.0
 40
0.0
 40
0.2262109016
 40
0.4698569101
 40
0.729948663
 40
1.0
 40
1.0
 40
1.0
 40
1.0
 10
153.6787926623
 20
346.3265497151
 30
0.0
 10
153.8378427913
 20
346.3915241426
 30
0.0
 10
154.1433977434
 20
346.5924486676
 30
0.0
 10
154.4889275512
 20
347.0360575284
 30
0.0
 10
154.7116631418
 20
347.5870445515
 30
0.0
 10
154.765810905
 20
347.9908157784
 30
0.0
 10
154.7686210896
 20
348.1959036878
 30
0.0
  0
LINE
  5
333
330
1B
100
AcDbEntity
 67
     1
  8
7_ALL_FEATURES
  6
Continuous
 62
     9
100
AcDbLine
 10
144.3117007341
 20
348.1959036878
 30
0.0
 11
135.9284695586
 21
348.1959036878
 31
0.0
  0
LINE
  5
334
330
1B
100
AcDbEntity
 67
     1
  8
7_ALL_FEATURES
  6
Continuous
 62
     9
100
AcDbLine
 10
144.5121222295
 20
366.7308085007
 30
0.0
 11
144.3117007341
 21
348.1959036878
 31
0.0
  0
LINE
  5
335
330
1B
100
AcDbEntity
 67
     1
  8
7_ALL_FEATURES
  6
Continuous
 62
     7
100
AcDbLine
 10
155.9039708067
 20
356.7308085007
 30
0.0
 11
156.0884840567
 21
366.7308085007
 31
0.0
  0
ELLIPSE
  5
336
330
1B
100
AcDbEntity
 67
     1
  8
7_ALL_FEATURES
  6
Continuous
 62
     7
100
AcDbEllipse
 10
105.1746730475
 20
209.2308085007
 30
0.0
 11
-40.3286208394
 21
132.0833157406
 31
0.0
210
0.0
220
0.0
230
1.0
 40
0.2603582864
 41
-0.1076332975
 42
-0.0510219647
  0
LINE
  5
337
330
1B
100
AcDbEntity
 67
     1
  8
7_ALL_FEATURES
  6
Continuous
 62
     9
100
AcDbLine
 10
154.7686210896
 20
348.1959036878
 30
0.0
 11
155.0225926816
 21
366.7308085007
 31
0.0
  0
LINE
  5
338
330
1B
100
AcDbEntity
 67
     1
  8
7_ALL_FEATURES
  6
Continuous
 62
     7
100
AcDbLine
 10
68.7736861652
 20
341.6777318323
 30
0.0
 11
68.7736861652
 21
346.2308085007
 31
0.0
  0
LINE
  5
339
330
1B
100
AcDbEntity
 67
     1
  8
6_ALL_SURFS
  6
Continuous
 62
     9
100
AcDbLine
 10
154.7686210896
 20
348.1959036878
 30
0.0
 11
144.3117007341
 21
348.1959036878
 31
0.0
  0
LINE
  5
33A
330
1B
100
AcDbEntity
 67
     1
  8
7_ALL_FEATURES
  6
Continuous
 62
     9
100
AcDbLine
 10
159.4645558288
 20
356.7308085007
 30
0.0
 11
159.4645558288
 21
366.7308085007
 31
0.0
  0
LINE
  5
33B
330
1B
100
AcDbEntity
 67
     1
  8
7_ALL_FEATURES
  6
Continuous
 62
     9
100
AcDbLine
 10
47.8694271044
 20
356.7308085007
 30
0.0
 11
47.8694271044
 21
366.7308085007
 31
0.0
  0
ELLIPSE
  5
33C
330
1B
100
AcDbEntity
 67
     1
  8
7_ALL_FEATURES
  6
Continuous
 62
     7
100
AcDbEllipse
 10
105.1746730475
 20
209.2308085007
 30
0.0
 11
-16.0722130229
 21
132.3579979737
 31
0.0
210
0.0
220
0.0
230
1.0
 40
0.3815734395
 41
-0.0746069599
 42
-0.017995627
  0
LINE
  5
33D
330
1B
100
AcDbEntity
 67
     1
  8
7_ALL_FEATURES
  6
Continuous
 62
     7
100
AcDbLine
 10
92.9116472975
 20
341.6777318323
 30
0.0
 11
92.9116472975
 21
366.7308085007
 31
0.0
  0
LINE
  5
33E
330
1B
100
AcDbEntity
 67
     1
  8
7_ALL_FEATURES
  6
Continuous
 62
     9
100
AcDbLine
 10
50.8847902661
 20
356.7308085007
 30
0.0
 11
50.8847902661
 21
366.7308085007
 31
0.0
  0
LINE
  5
33F
330
1B
100
AcDbEntity
 67
     1
  8
7_ALL_FEATURES
  6
Continuous
 62
     7
100
AcDbLine
 10
117.4376987974
 20
341.6777318323
 30
0.0
 11
117.4376987974
 21
366.7308085007
 31
0.0
  0
ELLIPSE
  5
340
330
1B
100
AcDbEntity
 67
     1
  8
7_ALL_FEATURES
  6
Continuous
 62
     7
100
AcDbEllipse
 10
105.1746730475
 20
209.2308085007
 30
0.0
 11
16.0722130229
 21
132.3579979737
 31
0.0
210
0.0
220
0.0
230
1.0
 40
0.3815734395
 41
0.017995627
 42
0.0746069599
  0
LINE
  5
341
330
1B
100
AcDbEntity
 67
     1
  8
7_ALL_FEATURES
  6
Continuous
 62
     7
100
AcDbLine
 10
90.3179619454
 20
366.7308085007
 30
0.0
 11
92.9116472975
 21
341.6777318323
 31
0.0
  0
LINE
  5
342
330
1B
100
AcDbEntity
 67
     1
  8
7_ALL_FEATURES
  6
Continuous
 62
     9
100
AcDbLine
 10
155.8815283684
 20
348.1959036878
 30
0.0
 11
154.7686210896
 21
348.1959036878
 31
0.0
  0
LINE
  5
343
330
1B
100
AcDbEntity
 67
     1
  8
7_ALL_FEATURES
  6
Continuous
 62
     9
100
AcDbLine
 10
162.4799189905
 20
356.7308085007
 30
0.0
 11
162.4799189905
 21
366.7308085007
 31
0.0
  0
LINE
  5
344
330
1B
100
AcDbEntity
 67
     1
  8
7_ALL_FEATURES
  6
Continuous
 62
     7
100
AcDbLine
 10
67.4858810958
 20
346.2308103195
 30
0.0
 11
68.7736861652
 21
341.6777318323
 31
0.0
  0
LINE
  5
345
330
1B
100
AcDbEntity
 67
     1
  8
7_ALL_FEATURES
  6
Continuous
 62
     9
100
AcDbLine
 10
74.4208765363
 20
348.1959036878
 30
0.0
 11
66.0376453609
 21
348.1959036878
 31
0.0
  0
LINE
  5
346
330
1B
100
AcDbEntity
 67
     1
  8
7_ALL_FEATURES
  6
Continuous
 62
     7
100
AcDbLine
 10
44.7095745589
 20
366.7308085007
 30
0.0
 11
47.3116942318
 21
359.9960272109
 31
0.0
  0
LINE
  5
347
330
1B
100
AcDbEntity
 67
     1
  8
7_ALL_FEATURES
  6
Continuous
 62
     7
100
AcDbLine
 10
48.5732778641
 20
356.7308085007
 30
0.0
 11
54.3893400717
 21
341.6777318323
 31
0.0
  0
LINE
  5
348
330
1B
100
AcDbEntity
 67
     1
  8
7_ALL_FEATURES
  6
Continuous
 62
     7
100
AcDbLine
 10
141.5756599297
 20
341.6777318323
 30
0.0
 11
141.5756599297
 21
346.2308085007
 31
0.0
  0
ELLIPSE
  5
349
330
1B
100
AcDbEntity
 67
     1
  8
7_ALL_FEATURES
  6
Continuous
 62
     7
100
AcDbEllipse
 10
105.1746730475
 20
209.2308085007
 30
0.0
 11
40.3286208394
 21
132.0833157406
 31
0.0
210
0.0
220
0.0
230
1.0
 40
0.2603582864
 41
0.0510219647
 42
0.1076332975
  0
LINE
  5
34A
330
1B
100
AcDbEntity
 67
     1
  8
7_ALL_FEATURES
  6
Continuous
 62
     7
100
AcDbLine
 10
155.9600060232
 20
341.6777318323
 30
0.0
 11
155.9600060232
 21
348.1959036878
 31
0.0
  0
LINE
  5
34B
330
1B
100
AcDbEntity
 67
     1
  8
7_ALL_FEATURES
  6
Continuous
 62
     7
100
AcDbLine
 10
155.9600060232
 20
348.1959036878
 30
0.0
 11
155.9600060232
 21
352.6918855211
 31
0.0
  0
ELLIPSE
  5
34C
330
1B
100
AcDbEntity
 67
     1
  8
7_ALL_FEATURES
  6
Continuous
 62
     7
100
AcDbEllipse
 10
105.1746730475
 20
209.2308085007
 30
0.0
 11
51.6436125848
 21
132.4185070514
 31
0.0
210
0.0
220
0.0
230
1.0
 40
0.0899703792
 41
0.0067686597
 42
0.0633799926
  0
LINE
  5
34D
330
1B
100
AcDbEntity
 67
     1
  8
7_ALL_FEATURES
  6
Continuous
 62
     7
100
AcDbLine
 10
165.639771536
 20
366.7308085007
 30
0.0
 11
163.0376518631
 21
359.9960272109
 31
0.0
  0
LINE
  5
34E
330
1B
100
AcDbEntity
 67
     1
  8
7_ALL_FEATURES
  6
Continuous
 62
     7
100
AcDbLine
 10
161.7760682309
 20
356.7308085007
 30
0.0
 11
155.9600060232
 21
341.6777318323
 31
0.0
  0
LINE
  5
34F
330
1B
100
AcDbEntity
 67
     1
  8
7_ALL_FEATURES
  6
Continuous
 62
     7
100
AcDbLine
 10
120.0313841495
 20
366.7308085007
 30
0.0
 11
117.4376987974
 21
341.6777318323
 31
0.0
  0
LINE
  5
350
330
1B
100
AcDbEntity
 67
     1
  8
7_ALL_FEATURES
  6
Continuous
 62
     7
100
AcDbLine
 10
142.8634649992
 20
346.2308103195
 30
0.0
 11
141.5756599297
 21
341.6777318323
 31
0.0
  0
LINE
  5
351
330
1B
100
AcDbEntity
 67
     1
  8
02___PRT_ALL_AXES
  6
Continuous
 62
     7
100
AcDbLine
 10
372.2647975378
 20
392.8808085007
 30
0.0
 11
372.2647975378
 21
391.7308085007
 31
0.0
  0
LINE
  5
352
330
1B
100
AcDbEntity
 67
     1
  8
02___PRT_ALL_AXES
  6
Continuous
 62
     7
100
AcDbLine
 10
245.8557669074
 20
392.8808085007
 30
0.0
 11
243.6647975378
 21
392.8808085007
 31
0.0
  0
LINE
  5
353
330
1B
100
AcDbEntity
 67
     1
  8
02___PRT_ALL_AXES
  6
Continuous
 62
     7
100
AcDbLine
 10
245.8557669074
 20
392.8808085007
 30
0.0
 11
246.1147977626
 21
392.8808085007
 31
0.0
  0
LINE
  5
354
330
1B
100
AcDbEntity
 67
     1
  8
02___PRT_ALL_AXES
  6
Continuous
 62
     7
100
AcDbLine
 10
246.1147977626
 20
392.8808085007
 30
0.0
 11
367.7073098938
 21
392.8808085007
 31
0.0
  0
LINE
  5
355
330
1B
100
AcDbEntity
 67
     1
  8
02___PRT_ALL_AXES
  6
Continuous
 62
     7
100
AcDbLine
 10
367.7073098938
 20
392.8808085007
 30
0.0
 11
369.814797313
 21
392.8808085007
 31
0.0
  0
LINE
  5
356
330
1B
100
AcDbEntity
 67
     1
  8
02___PRT_ALL_AXES
  6
Continuous
 62
     7
100
AcDbLine
 10
369.814797313
 20
392.8808085007
 30
0.0
 11
372.2647975378
 21
392.8808085007
 31
0.0
  0
LINE
  5
357
330
1B
100
AcDbEntity
 67
     1
  8
02___PRT_ALL_AXES
  6
Continuous
 62
     7
100
AcDbLine
 10
243.6647975378
 20
392.8808085007
 30
0.0
 11
243.6647975378
 21
391.7308085007
 31
0.0
  0
LINE
  5
358
330
1B
100
AcDbEntity
 67
     1
  8
3_ALL_AXES
  6
Continuous
 62
     7
100
AcDbLine
 10
306.622902533
 20
236.7308085007
 30
0.0
 11
309.3066925426
 21
236.7308085007
 31
0.0
  0
LINE
  5
359
330
1B
100
AcDbEntity
 67
     1
  8
3_ALL_AXES
  6
Continuous
 62
     7
100
AcDbLine
 10
309.3066925426
 20
236.7308085007
 30
0.0
 11
311.755732527
 21
236.7308085007
 31
0.0
  0
LINE
  5
35A
330
1B
100
AcDbEntity
 67
     1
  8
3_ALL_AXES
  6
Continuous
 62
     7
100
AcDbLine
 10
311.755732527
 20
236.7308085007
 30
0.0
 11
358.9646330763
 21
236.7308085007
 31
0.0
  0
LINE
  5
35B
330
1B
100
AcDbEntity
 67
     1
  8
3_ALL_AXES
  6
Continuous
 62
     7
100
AcDbLine
 10
358.9646330763
 20
236.7308085007
 30
0.0
 11
360.8708926677
 21
236.7308085007
 31
0.0
  0
LINE
  5
35C
330
1B
100
AcDbEntity
 67
     1
  8
3_ALL_AXES
  6
Continuous
 62
     7
100
AcDbLine
 10
360.8708926677
 20
236.7308085007
 30
0.0
 11
360.9644768373
 21
236.7308085007
 31
0.0
  0
LINE
  5
35D
330
1B
100
AcDbEntity
 67
     1
  8
3_ALL_AXES
  6
Continuous
 62
     7
100
AcDbLine
 10
254.1648226903
 20
236.7308085007
 30
0.0
 11
254.4205169488
 21
236.7308085007
 31
0.0
  0
LINE
  5
35E
330
1B
100
AcDbEntity
 67
     1
  8
3_ALL_AXES
  6
Continuous
 62
     7
100
AcDbLine
 10
254.4205169488
 20
236.7308085007
 30
0.0
 11
254.6956388468
 21
236.7308085007
 31
0.0
  0
LINE
  5
35F
330
1B
100
AcDbEntity
 67
     1
  8
3_ALL_AXES
  6
Continuous
 62
     7
100
AcDbLine
 10
254.6956388468
 20
236.7308085007
 30
0.0
 11
254.9802189937
 21
236.7308085007
 31
0.0
  0
LINE
  5
360
330
1B
100
AcDbEntity
 67
     1
  8
3_ALL_AXES
  6
Continuous
 62
     7
100
AcDbLine
 10
254.9802189937
 20
236.7308085007
 30
0.0
 11
255.0233185965
 21
236.7308085007
 31
0.0
  0
ARC
  5
361
330
1B
100
AcDbEntity
 67
     1
  8
3_ALL_AXES
  6
Continuous
 62
     7
100
AcDbCircle
 10
307.9647975378
 20
207.7308085007
 30
0.0
 40
14.0
100
AcDbArc
 50
84.51642008129998
 51
85.8979154532
  0
ARC
  5
362
330
1B
100
AcDbEntity
 67
     1
  8
3_ALL_AXES
  6
Continuous
 62
     7
100
AcDbCircle
 10
307.9647975378
 20
207.7308085007
 30
0.0
 40
14.0
100
AcDbArc
 50
0.0
 51
84.51642008129998
  0
LINE
  5
363
330
1B
100
AcDbEntity
 67
     1
  8
3_ALL_AXES
  6
Continuous
 62
     7
100
AcDbLine
 10
254.1648226903
 20
191.7308085007
 30
0.0
 11
255.0233185965
 21
191.7308085007
 31
0.0
  0
LINE
  5
364
330
1B
100
AcDbEntity
 67
     1
  8
3_ALL_AXES
  6
Continuous
 62
     7
100
AcDbLine
 10
254.1647975378
 20
191.7308085007
 30
0.0
 11
254.1647975378
 21
236.7308085007
 31
0.0
  0
LINE
  5
365
330
1B
100
AcDbEntity
 67
     1
  8
7_ALL_FEATURES
  6
Continuous
 62
     7
100
AcDbLine
 10
360.9647975378
 20
191.7308085007
 30
0.0
 11
323.721721586
 21
191.7308085007
 31
0.0
  0
LINE
  5
366
330
1B
100
AcDbEntity
 67
     1
  8
7_ALL_FEATURES
  6
Continuous
 62
     7
100
AcDbLine
 10
323.721721586
 20
191.7308085007
 30
0.0
 11
322.736913833
 21
191.7308085007
 31
0.0
  0
LINE
  5
367
330
1B
100
AcDbEntity
 67
     1
  8
7_ALL_FEATURES
  6
Continuous
 62
     7
100
AcDbLine
 10
322.736913833
 20
191.7308085007
 30
0.0
 11
321.9647975378
 21
191.7308085007
 31
0.0
  0
LINE
  5
368
330
1B
100
AcDbEntity
 67
     1
  8
3_ALL_AXES
  6
Continuous
 62
     7
100
AcDbLine
 10
360.9647975378
 20
191.7308085007
 30
0.0
 11
360.9647975378
 21
236.7308085007
 31
0.0
  0
LINE
  5
369
330
1B
100
AcDbEntity
 67
     1
  8
3_ALL_AXES
  6
Continuous
 62
     7
100
AcDbLine
 10
255.0233185965
 20
236.7308085007
 30
0.0
 11
255.6328726035
 21
236.7308085007
 31
0.0
  0
LINE
  5
36A
330
1B
100
AcDbEntity
 67
     1
  8
3_ALL_AXES
  6
Continuous
 62
     7
100
AcDbLine
 10
255.6328726035
 20
236.7308085007
 30
0.0
 11
300.1954374677
 21
236.7308085007
 31
0.0
  0
LINE
  5
36B
330
1B
100
AcDbEntity
 67
     1
  8
3_ALL_AXES
  6
Continuous
 62
     7
100
AcDbLine
 10
300.1954374677
 20
236.7308085007
 30
0.0
 11
306.622902533
 21
236.7308085007
 31
0.0
  0
ARC
  5
36C
330
1B
100
AcDbEntity
 67
     1
  8
3_ALL_AXES
  6
Continuous
 62
     7
100
AcDbCircle
 10
307.9647975378
 20
207.7308085007
 30
0.0
 40
14.0
100
AcDbArc
 50
95.48264668410002
 51
180.0
  0
ARC
  5
36D
330
1B
100
AcDbEntity
 67
     1
  8
3_ALL_AXES
  6
Continuous
 62
     7
100
AcDbCircle
 10
307.9647975378
 20
207.7308085007
 30
0.0
 40
14.0
100
AcDbArc
 50
94.1011711599
 51
95.48264668410002
  0
LINE
  5
36E
330
1B
100
AcDbEntity
 67
     1
  8
3_ALL_AXES
  6
Continuous
 62
     7
100
AcDbLine
 10
306.622902533
 20
221.7308085007
 30
0.0
 11
307.9647975378
 21
221.7308085007
 31
0.0
  0
LINE
  5
36F
330
1B
100
AcDbEntity
 67
     1
  8
3_ALL_AXES
  6
Continuous
 62
     7
100
AcDbLine
 10
307.9647975378
 20
221.7308085007
 30
0.0
 11
309.3066925426
 21
221.7308085007
 31
0.0
  0
LINE
  5
370
330
1B
100
AcDbEntity
 67
     1
  8
7_ALL_FEATURES
  6
Continuous
 62
     7
100
AcDbLine
 10
308.9647975378
 20
221.6950485445
 30
0.0
 11
308.9647975378
 21
221.6436984289
 31
0.0
  0
LINE
  5
371
330
1B
100
AcDbEntity
 67
     1
  8
7_ALL_FEATURES
  6
Continuous
 62
     7
100
AcDbLine
 10
308.9647975378
 20
221.6436984289
 30
0.0
 11
308.9647975378
 21
220.6922898975
 31
0.0
  0
LINE
  5
372
330
1B
100
AcDbEntity
 67
     1
  8
7_ALL_FEATURES
  6
Continuous
 62
     7
100
AcDbLine
 10
308.9647975378
 20
220.6922898975
 30
0.0
 11
308.9647975378
 21
220.5358077506
 31
0.0
  0
LINE
  5
373
330
1B
100
AcDbEntity
 67
     1
  8
3_ALL_AXES
  6
Continuous
 62
     7
100
AcDbLine
 10
255.0233185965
 20
191.7308085007
 30
0.0
 11
292.2078734896
 21
191.7308085007
 31
0.0
  0
LINE
  5
374
330
1B
100
AcDbEntity
 67
     1
  8
3_ALL_AXES
  6
Continuous
 62
     7
100
AcDbLine
 10
292.2078734896
 20
191.7308085007
 30
0.0
 11
293.1926812426
 21
191.7308085007
 31
0.0
  0
LINE
  5
375
330
1B
100
AcDbEntity
 67
     1
  8
3_ALL_AXES
  6
Continuous
 62
     7
100
AcDbLine
 10
293.1926812426
 20
191.7308085007
 30
0.0
 11
293.9647975378
 21
191.7308085007
 31
0.0
  0
LINE
  5
376
330
1B
100
AcDbEntity
 67
     1
  8
7_ALL_FEATURES
  6
Continuous
 62
     7
100
AcDbLine
 10
306.9647975378
 20
221.6950485445
 30
0.0
 11
306.9647975378
 21
221.6437261202
 31
0.0
  0
LINE
  5
377
330
1B
100
AcDbEntity
 67
     1
  8
7_ALL_FEATURES
  6
Continuous
 62
     7
100
AcDbLine
 10
306.9647975378
 20
221.6437261202
 30
0.0
 11
306.9647975378
 21
220.6922898975
 31
0.0
  0
LINE
  5
378
330
1B
100
AcDbEntity
 67
     1
  8
7_ALL_FEATURES
  6
Continuous
 62
     7
100
AcDbLine
 10
306.9647975378
 20
220.6922898975
 30
0.0
 11
306.9647975378
 21
220.5358077506
 31
0.0
  0
LINE
  5
379
330
1B
100
AcDbEntity
 67
     1
  8
7_ALL_FEATURES
  6
Continuous
 62
     7
100
AcDbLine
 10
321.9647975378
 20
191.7308085007
 30
0.0
 11
293.9647975378
 21
191.7308085007
 31
0.0
  0
LINE
  5
37A
330
1B
100
AcDbEntity
 67
     1
  8
7_ALL_FEATURES
  6
Continuous
 62
     7
100
AcDbLine
 10
293.9647975378
 20
192.7308085007
 30
0.0
 11
321.9647975378
 21
192.7308085007
 31
0.0
  0
LINE
  5
37B
330
1B
100
AcDbEntity
 67
     1
  8
6_ALL_SURFS
  6
Continuous
 62
     7
100
AcDbLine
 10
294.9647975378
 20
193.7308085007
 30
0.0
 11
294.9647975378
 21
207.7308085007
 31
0.0
  0
LINE
  5
37C
330
1B
100
AcDbEntity
 67
     1
  8
6_ALL_SURFS
  6
Continuous
 62
     7
100
AcDbLine
 10
320.9647975378
 20
193.7308085007
 30
0.0
 11
320.9647975378
 21
207.7308085007
 31
0.0
  0
ARC
  5
37D
330
1B
100
AcDbEntity
 67
     1
  8
6_ALL_SURFS
  6
Continuous
 62
     7
100
AcDbCircle
 10
307.9647975378
 20
207.7308085007
 30
0.0
 40
13.0
100
AcDbArc
 50
0.0
 51
85.47741177299999
  0
ARC
  5
37E
330
1B
100
AcDbEntity
 67
     1
  8
6_ALL_SURFS
  6
Continuous
 62
     7
100
AcDbCircle
 10
307.9647975378
 20
207.7308085007
 30
0.0
 40
13.0
100
AcDbArc
 50
94.5225024057
 51
180.0
  0
LINE
  5
37F
330
1B
100
AcDbEntity
 67
     1
  8
7_ALL_FEATURES
  6
Continuous
 62
     7
100
AcDbLine
 10
293.9647975378
 20
191.7308085007
 30
0.0
 11
293.9647975378
 21
207.7308085007
 31
0.0
  0
LINE
  5
380
330
1B
100
AcDbEntity
 67
     1
  8
7_ALL_FEATURES
  6
Continuous
 62
     7
100
AcDbLine
 10
321.9647975378
 20
207.7308085007
 30
0.0
 11
321.9647975378
 21
191.7308085007
 31
0.0
  0
LINE
  5
381
330
1B
100
AcDbEntity
 67
     1
  8
7_ALL_FEATURES
  6
Continuous
 62
     7
100
AcDbLine
 10
321.9647975378
 20
193.7308085007
 30
0.0
 11
320.9647975378
 21
193.7308085007
 31
0.0
  0
LINE
  5
382
330
1B
100
AcDbEntity
 67
     1
  8
7_ALL_FEATURES
  6
Continuous
 62
     7
100
AcDbLine
 10
294.9647975378
 20
193.7308085007
 30
0.0
 11
293.9647975378
 21
193.7308085007
 31
0.0
  0
LINE
  5
383
330
1B
100
AcDbEntity
 67
     1
  8
3_ALL_AXES
  6
Continuous
 62
     7
100
AcDbLine
 10
255.0233185965
 20
191.7308085007
 30
0.0
 11
255.0233185965
 21
236.7308085007
 31
0.0
  0
LINE
  5
384
330
1B
100
AcDbEntity
 67
     1
  8
3_ALL_AXES
  6
Continuous
 62
     7
100
AcDbLine
 10
309.3066925426
 20
221.7308085007
 30
0.0
 11
309.3066925426
 21
236.7308085007
 31
0.0
  0
ELLIPSE
  5
385
330
1B
100
AcDbEntity
 67
     1
  8
6_ALL_SURFS
  6
Continuous
 62
     7
100
AcDbEllipse
 10
307.9647975378
 20
183.0433085007
 30
0.0
 11
50.0
 21
0.0
 31
0.0
210
0.0
220
0.0
230
1.0
 40
0.75
 41
1.5507949932
 42
1.5907976604
  0
LINE
  5
386
330
1B
100
AcDbEntity
 67
     1
  8
3_ALL_AXES
  6
Continuous
 62
     7
100
AcDbLine
 10
306.622902533
 20
221.7308085007
 30
0.0
 11
306.622902533
 21
236.7308085007
 31
0.0
  0
LINE
  5
387
330
1B
100
AcDbEntity
 67
     1
  8
3_ALL_AXES
  6
Continuous
 62
     7
100
AcDbLine
 10
254.2657596813
 20
336.7308085007
 30
0.0
 11
254.2959238127
 21
336.7308085007
 31
0.0
  0
LINE
  5
388
330
1B
100
AcDbEntity
 67
     1
  8
3_ALL_AXES
  6
Continuous
 62
     7
100
AcDbLine
 10
254.2959238127
 20
336.7308085007
 30
0.0
 11
254.5372368637
 21
336.7308085007
 31
0.0
  0
LINE
  5
389
330
1B
100
AcDbEntity
 67
     1
  8
3_ALL_AXES
  6
Continuous
 62
     7
100
AcDbLine
 10
254.5372368637
 20
336.7308085007
 30
0.0
 11
254.9802189937
 21
336.7308085007
 31
0.0
  0
LINE
  5
38A
330
1B
100
AcDbEntity
 67
     1
  8
3_ALL_AXES
  6
Continuous
 62
     7
100
AcDbLine
 10
254.2657596813
 20
286.7308085007
 30
0.0
 11
254.9802189937
 21
286.7308085007
 31
0.0
  0
LINE
  5
38B
330
1B
100
AcDbEntity
 67
     1
  8
3_ALL_AXES
  6
Continuous
 62
     7
100
AcDbLine
 10
254.9802189937
 20
336.7308085007
 30
0.0
 11
255.7514154685
 21
336.7308085007
 31
0.0
  0
LINE
  5
38C
330
1B
100
AcDbEntity
 67
     1
  8
3_ALL_AXES
  6
Continuous
 62
     7
100
AcDbLine
 10
255.7514154685
 20
336.7308085007
 30
0.0
 11
256.9649207421
 21
336.7308085007
 31
0.0
  0
LINE
  5
38D
330
1B
100
AcDbEntity
 67
     1
  8
3_ALL_AXES
  6
Continuous
 62
     7
100
AcDbLine
 10
256.9649207421
 20
336.7308085007
 30
0.0
 11
257.3516655621
 21
336.7308085007
 31
0.0
  0
LINE
  5
38E
330
1B
100
AcDbEntity
 67
     1
  8
3_ALL_AXES
  6
Continuous
 62
     7
100
AcDbLine
 10
257.3516655621
 20
336.7308085007
 30
0.0
 11
294.7650262376
 21
336.7308085007
 31
0.0
  0
LINE
  5
38F
330
1B
100
AcDbEntity
 67
     1
  8
3_ALL_AXES
  6
Continuous
 62
     7
100
AcDbLine
 10
294.7650262376
 20
336.7308085007
 30
0.0
 11
307.9647975378
 21
336.7308085007
 31
0.0
  0
LINE
  5
390
330
1B
100
AcDbEntity
 67
     1
  8
3_ALL_AXES
  6
Continuous
 62
     7
100
AcDbLine
 10
307.9647975378
 20
336.7308085007
 30
0.0
 11
358.9646743335
 21
336.7308085007
 31
0.0
  0
LINE
  5
391
330
1B
100
AcDbEntity
 67
     1
  8
3_ALL_AXES
  6
Continuous
 62
     7
100
AcDbLine
 10
358.9646743335
 20
336.7308085007
 30
0.0
 11
360.8216043188
 21
336.7308085007
 31
0.0
  0
LINE
  5
392
330
1B
100
AcDbEntity
 67
     1
  8
3_ALL_AXES
  6
Continuous
 62
     7
100
AcDbLine
 10
360.8216043188
 20
336.7308085007
 30
0.0
 11
360.9643403189
 21
336.7308085007
 31
0.0
  0
LINE
  5
393
330
1B
100
AcDbEntity
 67
     1
  8
3_ALL_AXES
  6
Continuous
 62
     7
100
AcDbLine
 10
254.2647975378
 20
286.7308085007
 30
0.0
 11
254.2647975378
 21
336.7308085007
 31
0.0
  0
LINE
  5
394
330
1B
100
AcDbEntity
 67
     1
  8
3_ALL_AXES
  6
Continuous
 62
     7
100
AcDbLine
 10
360.9643403189
 20
286.7308085007
 30
0.0
 11
358.9646330763
 21
286.7308085007
 31
0.0
  0
LINE
  5
395
330
1B
100
AcDbEntity
 67
     1
  8
3_ALL_AXES
  6
Continuous
 62
     7
100
AcDbLine
 10
358.9646330763
 20
286.7308085007
 30
0.0
 11
307.9647975378
 21
286.7308085007
 31
0.0
  0
LINE
  5
396
330
1B
100
AcDbEntity
 67
     1
  8
3_ALL_AXES
  6
Continuous
 62
     7
100
AcDbLine
 10
307.9647975378
 20
286.7308085007
 30
0.0
 11
256.9649619993
 21
286.7308085007
 31
0.0
  0
LINE
  5
397
330
1B
100
AcDbEntity
 67
     1
  8
3_ALL_AXES
  6
Continuous
 62
     7
100
AcDbLine
 10
256.9649619993
 20
286.7308085007
 30
0.0
 11
254.9802189937
 21
286.7308085007
 31
0.0
  0
LINE
  5
398
330
1B
100
AcDbEntity
 67
     1
  8
3_ALL_AXES
  6
Continuous
 62
     7
100
AcDbLine
 10
360.9647975378
 20
286.7308085007
 30
0.0
 11
360.9647975378
 21
336.7308085007
 31
0.0
  0
LINE
  5
399
330
1B
100
AcDbEntity
 67
     1
  8
3_ALL_AXES
  6
Continuous
 62
     7
100
AcDbLine
 10
254.9802189937
 20
286.7308085007
 30
0.0
 11
254.9802189937
 21
336.7308085007
 31
0.0
  0
LINE
  5
39A
330
1B
100
AcDbEntity
 67
     1
  8
3_ALL_AXES
  6
Continuous
 62
     7
100
AcDbLine
 10
254.2657596813
 20
286.7308085007
 30
0.0
 11
254.9802189937
 21
286.7308085007
 31
0.0
  0
LINE
  5
39B
330
1B
100
AcDbEntity
 67
     1
  8
3_ALL_AXES
  6
Continuous
 62
     7
100
AcDbLine
 10
254.9802189937
 20
286.7308085007
 30
0.0
 11
255.6646520791
 21
286.7308085007
 31
0.0
  0
LINE
  5
39C
330
1B
100
AcDbEntity
 67
     1
  8
3_ALL_AXES
  6
Continuous
 62
     7
100
AcDbLine
 10
255.6646520791
 20
286.7308085007
 30
0.0
 11
256.9649619993
 21
286.7308085007
 31
0.0
  0
LINE
  5
39D
330
1B
100
AcDbEntity
 67
     1
  8
3_ALL_AXES
  6
Continuous
 62
     7
100
AcDbLine
 10
256.9649619993
 20
286.7308085007
 30
0.0
 11
307.9647975378
 21
286.7308085007
 31
0.0
  0
LINE
  5
39E
330
1B
100
AcDbEntity
 67
     1
  8
3_ALL_AXES
  6
Continuous
 62
     7
100
AcDbLine
 10
307.9647975378
 20
286.7308085007
 30
0.0
 11
358.9646330763
 21
286.7308085007
 31
0.0
  0
LINE
  5
39F
330
1B
100
AcDbEntity
 67
     1
  8
3_ALL_AXES
  6
Continuous
 62
     7
100
AcDbLine
 10
358.9646330763
 20
286.7308085007
 30
0.0
 11
360.8386037386
 21
286.7308085007
 31
0.0
  0
LINE
  5
3A0
330
1B
100
AcDbEntity
 67
     1
  8
3_ALL_AXES
  6
Continuous
 62
     7
100
AcDbLine
 10
360.8386037386
 20
286.7308085007
 30
0.0
 11
360.9643403189
 21
286.7308085007
 31
0.0
  0
LINE
  5
3A1
330
1B
100
AcDbEntity
 67
     1
  8
3_ALL_AXES
  6
Continuous
 62
     7
100
AcDbLine
 10
254.2647975378
 20
236.7308085007
 30
0.0
 11
254.2647975378
 21
286.7308085007
 31
0.0
  0
LINE
  5
3A2
330
1B
100
AcDbEntity
 67
     1
  8
3_ALL_AXES
  6
Continuous
 62
     7
100
AcDbLine
 10
360.9643403189
 20
236.7308085007
 30
0.0
 11
360.8708926677
 21
236.7308085007
 31
0.0
  0
LINE
  5
3A3
330
1B
100
AcDbEntity
 67
     1
  8
3_ALL_AXES
  6
Continuous
 62
     7
100
AcDbLine
 10
360.8708926677
 20
236.7308085007
 30
0.0
 11
358.9646330763
 21
236.7308085007
 31
0.0
  0
LINE
  5
3A4
330
1B
100
AcDbEntity
 67
     1
  8
3_ALL_AXES
  6
Continuous
 62
     7
100
AcDbLine
 10
358.9646330763
 20
236.7308085007
 30
0.0
 11
311.755732527
 21
236.7308085007
 31
0.0
  0
LINE
  5
3A5
330
1B
100
AcDbEntity
 67
     1
  8
3_ALL_AXES
  6
Continuous
 62
     7
100
AcDbLine
 10
311.755732527
 20
236.7308085007
 30
0.0
 11
309.3066925426
 21
236.7308085007
 31
0.0
  0
LINE
  5
3A6
330
1B
100
AcDbEntity
 67
     1
  8
3_ALL_AXES
  6
Continuous
 62
     7
100
AcDbLine
 10
306.622902533
 20
236.7308085007
 30
0.0
 11
300.1954374677
 21
236.7308085007
 31
0.0
  0
LINE
  5
3A7
330
1B
100
AcDbEntity
 67
     1
  8
3_ALL_AXES
  6
Continuous
 62
     7
100
AcDbLine
 10
300.1954374677
 20
236.7308085007
 30
0.0
 11
256.9649619993
 21
236.7308085007
 31
0.0
  0
LINE
  5
3A8
330
1B
100
AcDbEntity
 67
     1
  8
3_ALL_AXES
  6
Continuous
 62
     7
100
AcDbLine
 10
256.9649619993
 20
236.7308085007
 30
0.0
 11
255.6328726035
 21
236.7308085007
 31
0.0
  0
LINE
  5
3A9
330
1B
100
AcDbEntity
 67
     1
  8
3_ALL_AXES
  6
Continuous
 62
     7
100
AcDbLine
 10
255.6328726035
 20
236.7308085007
 30
0.0
 11
255.0233185965
 21
236.7308085007
 31
0.0
  0
LINE
  5
3AA
330
1B
100
AcDbEntity
 67
     1
  8
3_ALL_AXES
  6
Continuous
 62
     7
100
AcDbLine
 10
360.9647975378
 20
236.7308085007
 30
0.0
 11
360.9647975378
 21
286.7308085007
 31
0.0
  0
LINE
  5
3AB
330
1B
100
AcDbEntity
 67
     1
  8
3_ALL_AXES
  6
Continuous
 62
     7
100
AcDbLine
 10
254.9802189937
 20
236.7308085007
 30
0.0
 11
254.9802189937
 21
286.7308085007
 31
0.0
  0
LINE
  5
3AC
330
1B
100
AcDbEntity
 67
     1
  8
3_ALL_AXES
  6
Continuous
 62
     7
100
AcDbLine
 10
241.4647975378
 20
391.7308085007
 30
0.0
 11
243.5116725378
 21
391.7308085007
 31
0.0
  0
LINE
  5
3AD
330
1B
100
AcDbEntity
 67
     1
  8
3_ALL_AXES
  6
Continuous
 62
     7
100
AcDbLine
 10
241.4645814054
 20
366.7308085007
 30
0.0
 11
243.4647975378
 21
366.7308085007
 31
0.0
  0
LINE
  5
3AE
330
1B
100
AcDbEntity
 67
     1
  8
3_ALL_AXES
  6
Continuous
 62
     7
100
AcDbLine
 10
243.4647975378
 20
366.7308085007
 30
0.0
 11
243.5116725378
 21
366.7308085007
 31
0.0
  0
LINE
  5
3AF
330
1B
100
AcDbEntity
 67
     1
  8
3_ALL_AXES
  6
Continuous
 62
     7
100
AcDbLine
 10
241.4647975378
 20
366.7308085007
 30
0.0
 11
241.4647975378
 21
391.7308085007
 31
0.0
  0
LINE
  5
3B0
330
1B
100
AcDbEntity
 67
     1
  8
3_ALL_AXES
  6
Continuous
 62
     7
100
AcDbLine
 10
324.6586259469
 20
391.7308085007
 30
0.0
 11
370.2670133334
 21
391.7308085007
 31
0.0
  0
LINE
  5
3B1
330
1B
100
AcDbEntity
 67
     1
  8
3_ALL_AXES
  6
Continuous
 62
     7
100
AcDbLine
 10
370.2670133334
 20
391.7308085007
 30
0.0
 11
370.4646215393
 21
391.7308085007
 31
0.0
  0
LINE
  5
3B2
330
1B
100
AcDbEntity
 67
     1
  8
3_ALL_AXES
  6
Continuous
 62
     7
100
AcDbLine
 10
370.4646215393
 20
391.7308085007
 30
0.0
 11
372.2647975378
 21
391.7308085007
 31
0.0
  0
LINE
  5
3B3
330
1B
100
AcDbEntity
 67
     1
  8
3_ALL_AXES
  6
Continuous
 62
     7
100
AcDbLine
 10
372.2647975378
 20
391.7308085007
 30
0.0
 11
372.4646159074
 21
391.7308085007
 31
0.0
  0
LINE
  5
3B4
330
1B
100
AcDbEntity
 67
     1
  8
3_ALL_AXES
  6
Continuous
 62
     7
100
AcDbLine
 10
254.2647975378
 20
347.2118262491
 30
0.0
 11
254.2647975378
 21
336.7308085007
 31
0.0
  0
ARC
  5
3B5
330
1B
100
AcDbEntity
 67
     1
  8
6_ALL_SURFS
  6
Continuous
 62
     7
100
AcDbCircle
 10
259.2576376072
 20
348.2308085007
 30
0.0
 40
2.0
100
AcDbArc
 50
181.0
 51
270.0
  0
LINE
  5
3B6
330
1B
100
AcDbEntity
 67
     1
  8
6_ALL_SURFS
  6
Continuous
 62
     7
100
AcDbLine
 10
259.9406235919
 20
346.2308085007
 30
0.0
 11
259.2579896957
 21
346.2308085007
 31
0.0
  0
LINE
  5
3B7
330
1B
100
AcDbEntity
 67
     1
  8
6_ALL_SURFS
  6
Continuous
 62
     7
100
AcDbLine
 10
259.279470863
 20
346.2308085007
 30
0.0
 11
259.9406235919
 21
346.2308085007
 31
0.0
  0
LINE
  5
3B8
330
1B
100
AcDbEntity
 67
     1
  8
6_ALL_SURFS
  6
Continuous
 62
     7
100
AcDbLine
 10
259.6083249005
 20
346.2308085007
 30
0.0
 11
259.279470863
 21
346.2308085007
 31
0.0
  0
LINE
  5
3B9
330
1B
100
AcDbEntity
 67
     1
  8
6_ALL_SURFS
  6
Continuous
 62
     7
100
AcDbLine
 10
275.211140474
 20
346.2308085007
 30
0.0
 11
274.7833868694
 21
346.2308085007
 31
0.0
  0
LINE
  5
3BA
330
1B
100
AcDbEntity
 67
     1
  8
6_ALL_SURFS
  6
Continuous
 62
     7
100
AcDbLine
 10
274.7833868694
 20
346.2308085007
 30
0.0
 11
274.2223102521
 21
346.2308085007
 31
0.0
  0
LINE
  5
3BB
330
1B
100
AcDbEntity
 67
     1
  8
6_ALL_SURFS
  6
Continuous
 62
     7
100
AcDbLine
 10
274.2223102521
 20
346.2308085007
 30
0.0
 11
270.0665559267
 21
346.2308085007
 31
0.0
  0
ARC
  5
3BC
330
1B
100
AcDbEntity
 67
     1
  8
6_ALL_SURFS
  6
Continuous
 62
     7
100
AcDbCircle
 10
275.2113056363
 20
348.2308085007
 30
0.0
 40
2.0
100
AcDbArc
 50
270.0
 51
358.9999999999999
  0
LINE
  5
3BD
330
1B
100
AcDbEntity
 67
     1
  8
6_ALL_SURFS
  6
Continuous
 62
     7
100
AcDbLine
 10
275.1782015882
 20
346.2308085007
 30
0.0
 11
275.038338309
 21
346.2308085007
 31
0.0
  0
LINE
  5
3BE
330
1B
100
AcDbEntity
 67
     1
  8
6_ALL_SURFS
  6
Continuous
 62
     7
100
AcDbLine
 10
270.0665559267
 20
346.2308085007
 30
0.0
 11
275.1782015882
 21
346.2308085007
 31
0.0
  0
LINE
  5
3BF
330
1B
100
AcDbEntity
 67
     1
  8
6_ALL_SURFS
  6
Continuous
 62
     7
100
AcDbLine
 10
257.2579422169
 20
348.1959036878
 30
0.0
 11
256.9344142499
 21
366.7308085007
 31
0.0
  0
LINE
  5
3C0
330
1B
100
AcDbEntity
 67
     1
  8
6_ALL_SURFS
  6
Continuous
 62
     7
100
AcDbLine
 10
277.2110010266
 20
348.1959036878
 30
0.0
 11
277.5345289936
 21
366.7308085007
 31
0.0
  0
LINE
  5
3C1
330
1B
100
AcDbEntity
 67
     1
  8
7_ALL_FEATURES
  6
Continuous
 62
     7
100
AcDbLine
 10
324.6586259469
 20
366.7308085007
 30
0.0
 11
322.8215086398
 21
366.7308085007
 31
0.0
  0
LINE
  5
3C2
330
1B
100
AcDbEntity
 67
     1
  8
7_ALL_FEATURES
  6
Continuous
 62
     7
100
AcDbLine
 10
322.8215086398
 20
366.7308085007
 30
0.0
 11
320.2278232877
 21
366.7308085007
 31
0.0
  0
LINE
  5
3C3
330
1B
100
AcDbEntity
 67
     1
  8
7_ALL_FEATURES
  6
Continuous
 62
     7
100
AcDbLine
 10
320.2278232877
 20
366.7308085007
 30
0.0
 11
295.7017717879
 21
366.7308085007
 31
0.0
  0
LINE
  5
3C4
330
1B
100
AcDbEntity
 67
     1
  8
7_ALL_FEATURES
  6
Continuous
 62
     7
100
AcDbLine
 10
295.7017717879
 20
366.7308085007
 30
0.0
 11
293.1080864358
 21
366.7308085007
 31
0.0
  0
LINE
  5
3C5
330
1B
100
AcDbEntity
 67
     1
  8
7_ALL_FEATURES
  6
Continuous
 62
     7
100
AcDbLine
 10
293.1080864358
 20
366.7308085007
 30
0.0
 11
292.9913298255
 21
366.7308085007
 31
0.0
  0
LINE
  5
3C6
330
1B
100
AcDbEntity
 67
     1
  8
7_ALL_FEATURES
  6
Continuous
 62
     7
100
AcDbLine
 10
292.9913298255
 20
366.7308085007
 30
0.0
 11
290.2103089569
 21
366.7308085007
 31
0.0
  0
LINE
  5
3C7
330
1B
100
AcDbEntity
 67
     1
  8
7_ALL_FEATURES
  6
Continuous
 62
     7
100
AcDbLine
 10
290.2103089569
 20
366.7308085007
 30
0.0
 11
277.5345289936
 21
366.7308085007
 31
0.0
  0
LINE
  5
3C8
330
1B
100
AcDbEntity
 67
     1
  8
7_ALL_FEATURES
  6
Continuous
 62
     7
100
AcDbLine
 10
277.5345289936
 20
366.7308085007
 30
0.0
 11
268.6273483558
 21
366.7308085007
 31
0.0
  0
LINE
  5
3C9
330
1B
100
AcDbEntity
 67
     1
  8
7_ALL_FEATURES
  6
Continuous
 62
     7
100
AcDbLine
 10
268.6273483558
 20
366.7308085007
 30
0.0
 11
258.1168779037
 21
366.7308085007
 31
0.0
  0
LINE
  5
3CA
330
1B
100
AcDbEntity
 67
     1
  8
7_ALL_FEATURES
  6
Continuous
 62
     7
100
AcDbLine
 10
258.1168779037
 20
366.7308085007
 30
0.0
 11
257.1794645621
 21
366.7308085007
 31
0.0
  0
LINE
  5
3CB
330
1B
100
AcDbEntity
 67
     1
  8
7_ALL_FEATURES
  6
Continuous
 62
     7
100
AcDbLine
 10
257.1794645621
 20
366.7308085007
 30
0.0
 11
256.9344142499
 21
366.7308085007
 31
0.0
  0
LINE
  5
3CC
330
1B
100
AcDbEntity
 67
     1
  8
7_ALL_FEATURES
  6
Continuous
 62
     7
100
AcDbLine
 10
256.9344142499
 20
366.7308085007
 30
0.0
 11
255.418219885
 21
366.7308085007
 31
0.0
  0
LINE
  5
3CD
330
1B
100
AcDbEntity
 67
     1
  8
7_ALL_FEATURES
  6
Continuous
 62
     7
100
AcDbLine
 10
255.418219885
 20
366.7308085007
 30
0.0
 11
249.1824840376
 21
366.7308085007
 31
0.0
  0
LINE
  5
3CE
330
1B
100
AcDbEntity
 67
     1
  8
7_ALL_FEATURES
  6
Continuous
 62
     7
100
AcDbLine
 10
249.1824840376
 20
366.7308085007
 30
0.0
 11
247.4996990492
 21
366.7308085007
 31
0.0
  0
LINE
  5
3CF
330
1B
100
AcDbEntity
 67
     1
  8
7_ALL_FEATURES
  6
Continuous
 62
     7
100
AcDbLine
 10
247.4996990492
 20
366.7308085007
 30
0.0
 11
247.2527068296
 21
366.7308085007
 31
0.0
  0
LINE
  5
3D0
330
1B
100
AcDbEntity
 67
     1
  8
7_ALL_FEATURES
  6
Continuous
 62
     7
100
AcDbLine
 10
247.2527068296
 20
366.7308085007
 30
0.0
 11
246.7232419139
 21
366.7308085007
 31
0.0
  0
LINE
  5
3D1
330
1B
100
AcDbEntity
 67
     1
  8
7_ALL_FEATURES
  6
Continuous
 62
     7
100
AcDbLine
 10
246.7232419139
 20
366.7308085007
 30
0.0
 11
243.5353199285
 21
366.7308085007
 31
0.0
  0
LINE
  5
3D2
330
1B
100
AcDbEntity
 67
     1
  8
7_ALL_FEATURES
  6
Continuous
 62
     7
100
AcDbLine
 10
324.6586259469
 20
366.7308085007
 30
0.0
 11
325.7192861187
 21
366.7308085007
 31
0.0
  0
LINE
  5
3D3
330
1B
100
AcDbEntity
 67
     1
  8
7_ALL_FEATURES
  6
Continuous
 62
     7
100
AcDbLine
 10
325.7192861187
 20
366.7308085007
 30
0.0
 11
337.5681552428
 21
366.7308085007
 31
0.0
  0
ARC
  5
3D4
330
1B
100
AcDbEntity
 67
     1
  8
6_ALL_SURFS
  6
Continuous
 62
     7
100
AcDbCircle
 10
340.7182894393
 20
348.2308085007
 30
0.0
 40
2.0
100
AcDbArc
 50
181.0
 51
270.0
  0
LINE
  5
3D5
330
1B
100
AcDbEntity
 67
     1
  8
6_ALL_SURFS
  6
Continuous
 62
     7
100
AcDbLine
 10
345.8630391489
 20
346.2308085007
 30
0.0
 11
341.7072779131
 21
346.2308085007
 31
0.0
  0
LINE
  5
3D6
330
1B
100
AcDbEntity
 67
     1
  8
6_ALL_SURFS
  6
Continuous
 62
     7
100
AcDbLine
 10
341.7072779131
 20
346.2308085007
 30
0.0
 11
340.7184545493
 21
346.2308085007
 31
0.0
  0
LINE
  5
3D7
330
1B
100
AcDbEntity
 67
     1
  8
6_ALL_SURFS
  6
Continuous
 62
     7
100
AcDbLine
 10
340.7401226958
 20
346.2308085007
 30
0.0
 11
345.8630391489
 21
346.2308085007
 31
0.0
  0
LINE
  5
3D8
330
1B
100
AcDbEntity
 67
     1
  8
6_ALL_SURFS
  6
Continuous
 62
     7
100
AcDbLine
 10
356.6716042646
 20
346.2308085007
 30
0.0
 11
356.4396667282
 21
346.2308085007
 31
0.0
  0
LINE
  5
3D9
330
1B
100
AcDbEntity
 67
     1
  8
6_ALL_SURFS
  6
Continuous
 62
     7
100
AcDbLine
 10
356.4396667282
 20
346.2308085007
 30
0.0
 11
355.9889714837
 21
346.2308085007
 31
0.0
  0
ARC
  5
3DA
330
1B
100
AcDbEntity
 67
     1
  8
6_ALL_SURFS
  6
Continuous
 62
     7
100
AcDbCircle
 10
356.6719574684
 20
348.2308085007
 30
0.0
 40
2.0
100
AcDbArc
 50
270.0
 51
358.9999999999999
  0
LINE
  5
3DB
330
1B
100
AcDbEntity
 67
     1
  8
6_ALL_SURFS
  6
Continuous
 62
     7
100
AcDbLine
 10
356.6388534197
 20
346.2308085007
 30
0.0
 11
356.615561215
 21
346.2308085007
 31
0.0
  0
LINE
  5
3DC
330
1B
100
AcDbEntity
 67
     1
  8
6_ALL_SURFS
  6
Continuous
 62
     7
100
AcDbLine
 10
355.9889714837
 20
346.2308085007
 30
0.0
 11
356.4423975208
 21
346.2308085007
 31
0.0
  0
LINE
  5
3DD
330
1B
100
AcDbEntity
 67
     1
  8
6_ALL_SURFS
  6
Continuous
 62
     7
100
AcDbLine
 10
356.4423975208
 20
346.2308085007
 30
0.0
 11
356.6388534197
 21
346.2308085007
 31
0.0
  0
LINE
  5
3DE
330
1B
100
AcDbEntity
 67
     1
  8
6_ALL_SURFS
  6
Continuous
 62
     7
100
AcDbLine
 10
338.718594049
 20
348.1959036878
 30
0.0
 11
338.5696167313
 21
356.7308085007
 31
0.0
  0
LINE
  5
3DF
330
1B
100
AcDbEntity
 67
     1
  8
6_ALL_SURFS
  6
Continuous
 62
     7
100
AcDbLine
 10
358.6716528587
 20
348.1959036878
 30
0.0
 11
358.9951808257
 21
366.7308085007
 31
0.0
  0
LINE
  5
3E0
330
1B
100
AcDbEntity
 67
     1
  8
7_ALL_FEATURES
  6
Continuous
 62
     7
100
AcDbLine
 10
342.7909174421
 20
366.7308085007
 30
0.0
 11
345.0214345691
 21
366.7308085007
 31
0.0
  0
LINE
  5
3E1
330
1B
100
AcDbEntity
 67
     1
  8
7_ALL_FEATURES
  6
Continuous
 62
     7
100
AcDbLine
 10
345.0214345691
 20
366.7308085007
 30
0.0
 11
347.3022467198
 21
366.7308085007
 31
0.0
  0
LINE
  5
3E2
330
1B
100
AcDbEntity
 67
     1
  8
7_ALL_FEATURES
  6
Continuous
 62
     7
100
AcDbLine
 10
347.3022467198
 20
366.7308085007
 30
0.0
 11
357.8127171719
 21
366.7308085007
 31
0.0
  0
LINE
  5
3E3
330
1B
100
AcDbEntity
 67
     1
  8
7_ALL_FEATURES
  6
Continuous
 62
     7
100
AcDbLine
 10
357.8127171719
 20
366.7308085007
 30
0.0
 11
358.7501305135
 21
366.7308085007
 31
0.0
  0
LINE
  5
3E4
330
1B
100
AcDbEntity
 67
     1
  8
7_ALL_FEATURES
  6
Continuous
 62
     7
100
AcDbLine
 10
358.7501305135
 20
366.7308085007
 30
0.0
 11
358.9951808257
 21
366.7308085007
 31
0.0
  0
LINE
  5
3E5
330
1B
100
AcDbEntity
 67
     1
  8
7_ALL_FEATURES
  6
Continuous
 62
     7
100
AcDbLine
 10
358.9951808257
 20
366.7308085007
 30
0.0
 11
360.9647975378
 21
366.7308085007
 31
0.0
  0
LINE
  5
3E6
330
1B
100
AcDbEntity
 67
     1
  8
7_ALL_FEATURES
  6
Continuous
 62
     7
100
AcDbLine
 10
360.9647975378
 20
366.7308085007
 30
0.0
 11
361.1900088425
 21
366.7308085007
 31
0.0
  0
LINE
  5
3E7
330
1B
100
AcDbEntity
 67
     1
  8
7_ALL_FEATURES
  6
Continuous
 62
     7
100
AcDbLine
 10
361.1900088425
 20
366.7308085007
 30
0.0
 11
368.4298960264
 21
366.7308085007
 31
0.0
  0
LINE
  5
3E8
330
1B
100
AcDbEntity
 67
     1
  8
7_ALL_FEATURES
  6
Continuous
 62
     7
100
AcDbLine
 10
368.4298960264
 20
366.7308085007
 30
0.0
 11
369.2063531617
 21
366.7308085007
 31
0.0
  0
LINE
  5
3E9
330
1B
100
AcDbEntity
 67
     1
  8
7_ALL_FEATURES
  6
Continuous
 62
     7
100
AcDbLine
 10
369.2063531617
 20
366.7308085007
 30
0.0
 11
372.4647975378
 21
366.7308085007
 31
0.0
  0
LINE
  5
3EA
330
1B
100
AcDbEntity
 67
     1
  8
3_ALL_AXES
  6
Continuous
 62
     7
100
AcDbLine
 10
243.4647975378
 20
356.7308085007
 30
0.0
 11
243.4647975378
 21
366.7308085007
 31
0.0
  0
LINE
  5
3EB
330
1B
100
AcDbEntity
 67
     1
  8
3_ALL_AXES
  6
Continuous
 62
     7
100
AcDbLine
 10
360.9641342573
 20
336.7308085007
 30
0.0
 11
360.8216043188
 21
336.7308085007
 31
0.0
  0
LINE
  5
3EC
330
1B
100
AcDbEntity
 67
     1
  8
3_ALL_AXES
  6
Continuous
 62
     7
100
AcDbLine
 10
360.8216043188
 20
336.7308085007
 30
0.0
 11
358.9646743335
 21
336.7308085007
 31
0.0
  0
LINE
  5
3ED
330
1B
100
AcDbEntity
 67
     1
  8
3_ALL_AXES
  6
Continuous
 62
     7
100
AcDbLine
 10
358.9646743335
 20
336.7308085007
 30
0.0
 11
307.9647975378
 21
336.7308085007
 31
0.0
  0
LINE
  5
3EE
330
1B
100
AcDbEntity
 67
     1
  8
3_ALL_AXES
  6
Continuous
 62
     7
100
AcDbLine
 10
307.9647975378
 20
336.7308085007
 30
0.0
 11
294.7650262376
 21
336.7308085007
 31
0.0
  0
LINE
  5
3EF
330
1B
100
AcDbEntity
 67
     1
  8
3_ALL_AXES
  6
Continuous
 62
     7
100
AcDbLine
 10
294.7650262376
 20
336.7308085007
 30
0.0
 11
256.9649207421
 21
336.7308085007
 31
0.0
  0
LINE
  5
3F0
330
1B
100
AcDbEntity
 67
     1
  8
3_ALL_AXES
  6
Continuous
 62
     7
100
AcDbLine
 10
256.9649207421
 20
336.7308085007
 30
0.0
 11
255.7514154685
 21
336.7308085007
 31
0.0
  0
LINE
  5
3F1
330
1B
100
AcDbEntity
 67
     1
  8
3_ALL_AXES
  6
Continuous
 62
     7
100
AcDbLine
 10
255.7514154685
 20
336.7308085007
 30
0.0
 11
254.9802189937
 21
336.7308085007
 31
0.0
  0
LINE
  5
3F2
330
1B
100
AcDbEntity
 67
     1
  8
3_ALL_AXES
  6
Continuous
 62
     7
100
AcDbLine
 10
360.9647975378
 20
336.7308085007
 30
0.0
 11
360.9647975378
 21
345.4000929334
 31
0.0
  0
LINE
  5
3F3
330
1B
100
AcDbEntity
 67
     1
  8
3_ALL_AXES
  6
Continuous
 62
     7
100
AcDbLine
 10
372.4647975378
 20
366.7308085007
 30
0.0
 11
372.4647975378
 21
391.7308085007
 31
0.0
  0
LINE
  5
3F4
330
1B
100
AcDbEntity
 67
     1
  8
7_ALL_FEATURES
  6
Continuous
 62
     7
100
AcDbLine
 10
250.5869452191
 20
356.7308085007
 30
0.0
 11
249.1824840376
 21
356.7308085007
 31
0.0
  0
LINE
  5
3F5
330
1B
100
AcDbEntity
 67
     1
  8
7_ALL_FEATURES
  6
Continuous
 62
     7
100
AcDbLine
 10
249.1824840376
 20
356.7308085007
 30
0.0
 11
243.5353199285
 21
356.7308085007
 31
0.0
  0
LINE
  5
3F6
330
1B
100
AcDbEntity
 67
     1
  8
7_ALL_FEATURES
  6
Continuous
 62
     7
100
AcDbLine
 10
243.5353199285
 20
356.7308085007
 30
0.0
 11
243.4647975378
 21
356.7308085007
 31
0.0
  0
LINE
  5
3F7
330
1B
100
AcDbEntity
 67
     1
  8
7_ALL_FEATURES
  6
Continuous
 62
     7
100
AcDbLine
 10
345.0490587625
 20
356.7308085007
 30
0.0
 11
342.7909174421
 21
356.7308085007
 31
0.0
  0
LINE
  5
3F8
330
1B
100
AcDbEntity
 67
     1
  8
7_ALL_FEATURES
  6
Continuous
 62
     7
100
AcDbLine
 10
342.7909174421
 20
356.7308085007
 30
0.0
 11
337.5681552428
 21
356.7308085007
 31
0.0
  0
LINE
  5
3F9
330
1B
100
AcDbEntity
 67
     1
  8
7_ALL_FEATURES
  6
Continuous
 62
     7
100
AcDbLine
 10
337.5681552428
 20
356.7308085007
 30
0.0
 11
330.6539236496
 21
356.7308085007
 31
0.0
  0
LINE
  5
3FA
330
1B
100
AcDbEntity
 67
     1
  8
7_ALL_FEATURES
  6
Continuous
 62
     7
100
AcDbLine
 10
330.6539236496
 20
356.7308085007
 30
0.0
 11
328.2470194531
 21
356.7308085007
 31
0.0
  0
LINE
  5
3FB
330
1B
100
AcDbEntity
 67
     1
  8
6_ALL_SURFS
  6
Continuous
 62
     7
100
AcDbLine
 10
270.0665559267
 20
346.2308085007
 30
0.0
 11
268.1537058752
 21
346.2308085007
 31
0.0
  0
LINE
  5
3FC
330
1B
100
AcDbEntity
 67
     1
  8
6_ALL_SURFS
  6
Continuous
 62
     7
100
AcDbLine
 10
268.1537058752
 20
346.2308085007
 30
0.0
 11
264.9282049079
 21
346.2308085007
 31
0.0
  0
LINE
  5
3FD
330
1B
100
AcDbEntity
 67
     1
  8
6_ALL_SURFS
  6
Continuous
 62
     7
100
AcDbLine
 10
264.9282049079
 20
346.2308085007
 30
0.0
 11
259.9406235919
 21
346.2308085007
 31
0.0
  0
LINE
  5
3FE
330
1B
100
AcDbEntity
 67
     1
  8
6_ALL_SURFS
  6
Continuous
 62
     7
100
AcDbLine
 10
355.9889714837
 20
346.2308085007
 30
0.0
 11
351.0013901677
 21
346.2308085007
 31
0.0
  0
LINE
  5
3FF
330
1B
100
AcDbEntity
 67
     1
  8
6_ALL_SURFS
  6
Continuous
 62
     7
100
AcDbLine
 10
351.0013901677
 20
346.2308085007
 30
0.0
 11
347.7768178101
 21
346.2308085007
 31
0.0
  0
LINE
  5
400
330
1B
100
AcDbEntity
 67
     1
  8
6_ALL_SURFS
  6
Continuous
 62
     7
100
AcDbLine
 10
347.7768178101
 20
346.2308085007
 30
0.0
 11
345.8630391489
 21
346.2308085007
 31
0.0
  0
LINE
  5
401
330
1B
100
AcDbEntity
 67
     1
  8
3_ALL_AXES
  6
Continuous
 62
     7
100
AcDbLine
 10
254.9802189937
 20
336.7308085007
 30
0.0
 11
254.2657596813
 21
336.7308085007
 31
0.0
  0
LINE
  5
402
330
1B
100
AcDbEntity
 67
     1
  8
7_ALL_FEATURES
  6
Continuous
 62
     7
100
AcDbLine
 10
369.2063531617
 20
366.7308085007
 30
0.0
 11
359.5265876488
 21
341.6777318323
 31
0.0
  0
LINE
  5
403
330
1B
100
AcDbEntity
 67
     1
  8
7_ALL_FEATURES
  6
Continuous
 62
     7
100
AcDbLine
 10
347.774909833
 20
346.2308103195
 30
0.0
 11
346.4871047636
 21
341.6777318323
 31
0.0
  0
LINE
  5
404
330
1B
100
AcDbEntity
 67
     1
  8
7_ALL_FEATURES
  6
Continuous
 62
     7
100
AcDbLine
 10
325.7192861187
 20
366.7308085007
 30
0.0
 11
323.1256007666
 21
341.6777318323
 31
0.0
  0
LINE
  5
405
330
1B
100
AcDbEntity
 67
     1
  8
7_ALL_FEATURES
  6
Continuous
 62
     7
100
AcDbLine
 10
290.2103089569
 20
366.7308085007
 30
0.0
 11
292.803994309
 21
341.6777318323
 31
0.0
  0
LINE
  5
406
330
1B
100
AcDbEntity
 67
     1
  8
7_ALL_FEATURES
  6
Continuous
 62
     7
100
AcDbLine
 10
268.1546852426
 20
346.2308103195
 30
0.0
 11
269.442490312
 21
341.6777318323
 31
0.0
  0
LINE
  5
407
330
1B
100
AcDbEntity
 67
     1
  8
7_ALL_FEATURES
  6
Continuous
 62
     7
100
AcDbLine
 10
246.7232419139
 20
366.7308085007
 30
0.0
 11
256.4030074267
 21
341.6777318323
 31
0.0
  0
LINE
  5
408
330
1B
100
AcDbEntity
 67
     1
  8
3_ALL_AXES
  6
Continuous
 62
     7
100
AcDbLine
 10
324.6586259469
 20
391.7308085007
 30
0.0
 11
245.8557669074
 21
391.7308085007
 31
0.0
  0
LINE
  5
409
330
1B
100
AcDbEntity
 67
     1
  8
3_ALL_AXES
  6
Continuous
 62
     7
100
AcDbLine
 10
245.8557669074
 20
391.7308085007
 30
0.0
 11
243.6647975378
 21
391.7308085007
 31
0.0
  0
LINE
  5
40A
330
1B
100
AcDbEntity
 67
     1
  8
3_ALL_AXES
  6
Continuous
 62
     7
100
AcDbLine
 10
243.6647975378
 20
391.7308085007
 30
0.0
 11
243.5116725378
 21
391.7308085007
 31
0.0
  0
LINE
  5
40B
330
1B
100
AcDbEntity
 67
     1
  8
7_ALL_FEATURES
  6
Continuous
 62
     9
100
AcDbLine
 10
268.8277698512
 20
348.1959036878
 30
0.0
 11
268.6273483558
 21
366.7308085007
 31
0.0
  0
LINE
  5
40C
330
1B
100
AcDbEntity
 67
     1
  8
6_ALL_SURFS
  6
Continuous
 62
     9
100
AcDbLine
 10
268.8277698512
 20
348.1959036878
 30
0.0
 11
258.3708494957
 21
348.1959036878
 31
0.0
  0
LINE
  5
40D
330
1B
100
AcDbEntity
 67
     1
  8
7_ALL_FEATURES
  6
Continuous
 62
     9
100
AcDbLine
 10
277.2110010266
 20
348.1959036878
 30
0.0
 11
268.8277698512
 21
348.1959036878
 31
0.0
  0
ELLIPSE
  5
40E
330
1B
100
AcDbEntity
 67
     1
  8
7_ALL_FEATURES
  6
Continuous
 62
     7
100
AcDbEllipse
 10
307.9647975378
 20
209.2308085007
 30
0.0
 11
-51.6436125848
 21
132.4185070514
 31
0.0
210
0.0
220
0.0
230
1.0
 40
0.0899703792
 41
-0.0633799926
 42
-0.0067686597
  0
LINE
  5
40F
330
1B
100
AcDbEntity
 67
     1
  8
7_ALL_FEATURES
  6
Continuous
 62
     7
100
AcDbLine
 10
257.1794645621
 20
341.6777318323
 30
0.0
 11
257.1794645621
 21
348.1959036878
 31
0.0
  0
LINE
  5
410
330
1B
100
AcDbEntity
 67
     1
  8
7_ALL_FEATURES
  6
Continuous
 62
     7
100
AcDbLine
 10
257.1794645621
 20
348.1959036878
 30
0.0
 11
257.1794645621
 21
352.6918855211
 31
0.0
  0
ELLIPSE
  5
411
330
1B
100
AcDbEntity
 67
     1
  8
7_ALL_FEATURES
  6
Continuous
 62
     7
100
AcDbEllipse
 10
307.9647975378
 20
209.2308085007
 30
0.0
 11
-16.0722130229
 21
132.3579979737
 31
0.0
210
0.0
220
0.0
230
1.0
 40
0.3815734395
 41
-0.0746069599
 42
-0.017995627
  0
LINE
  5
412
330
1B
100
AcDbEntity
 67
     1
  8
7_ALL_FEATURES
  6
Continuous
 62
     7
100
AcDbLine
 10
295.7017717879
 20
341.6777318323
 30
0.0
 11
295.7017717879
 21
366.7308085007
 31
0.0
  0
SPLINE
  5
413
330
1B
100
AcDbEntity
 67
     1
  8
6_ALL_SURFS
  6
Continuous
 62
     9
100
AcDbSpline
 70
     0
 71
     3
 72
    11
 73
     7
 74
     0
 42
0.000000001
 43
0.0000001
 40
0.0
 40
0.0
 40
0.0
 40
0.0
 40
0.1947157123
 40
0.4252423142
 40
0.6988561417
 40
1.0
 40
1.0
 40
1.0
 40
1.0
 10
345.8630391489
 20
346.2308085007
 30
0.0
 10
346.0271263728
 20
346.2308085007
 30
0.0
 10
346.3881517953
 20
346.3585959988
 30
0.0
 10
346.781436353
 20
346.8187497315
 30
0.0
 10
347.0376751099
 20
347.4558670413
 30
0.0
 10
347.0990812877
 20
347.94214414
 30
0.0
 10
347.1018252386
 20
348.1959036878
 30
0.0
  0
SPLINE
  5
414
330
1B
100
AcDbEntity
 67
     1
  8
6_ALL_SURFS
  6
Continuous
 62
     9
100
AcDbSpline
 70
     0
 71
     3
 72
     9
 73
     5
 74
     0
 42
0.000000001
 43
0.0000001
 40
0.0
 40
0.0
 40
0.0
 40
0.0
 40
0.7459698657
 40
1.0
 40
1.0
 40
1.0
 40
1.0
 10
355.9889714837
 20
346.2308085007
 30
0.0
 10
356.1110921742
 20
346.2308085007
 30
0.0
 10
356.2760868573
 20
346.2560035201
 30
0.0
 10
356.4304190604
 20
346.3108226515
 30
0.0
 10
356.4689171526
 20
346.3265497151
 30
0.0
  0
SPLINE
  5
415
330
1B
100
AcDbEntity
 67
     1
  8
6_ALL_SURFS
  6
Continuous
 62
     9
100
AcDbSpline
 70
     0
 71
     3
 72
    11
 73
     7
 74
     0
 42
0.000000001
 43
0.0000001
 40
0.0
 40
0.0
 40
0.0
 40
0.0
 40
0.2262109016
 40
0.4698569101
 40
0.729948663
 40
1.0
 40
1.0
 40
1.0
 40
1.0
 10
356.4689171526
 20
346.3265497151
 30
0.0
 10
356.6279672816
 20
346.3915241426
 30
0.0
 10
356.9335222337
 20
346.5924486676
 30
0.0
 10
357.2790520416
 20
347.0360575284
 30
0.0
 10
357.5017876321
 20
347.5870445515
 30
0.0
 10
357.5559353953
 20
347.9908157784
 30
0.0
 10
357.5587455799
 20
348.1959036878
 30
0.0
  0
LINE
  5
416
330
1B
100
AcDbEntity
 67
     1
  8
7_ALL_FEATURES
  6
Continuous
 62
     9
100
AcDbLine
 10
347.1018252244
 20
348.1959036878
 30
0.0
 11
338.718594049
 21
348.1959036878
 31
0.0
  0
LINE
  5
417
330
1B
100
AcDbEntity
 67
     1
  8
7_ALL_FEATURES
  6
Continuous
 62
     9
100
AcDbLine
 10
347.3022467198
 20
366.7308085007
 30
0.0
 11
347.1018252244
 21
348.1959036878
 31
0.0
  0
SPLINE
  5
418
330
1B
100
AcDbEntity
 67
     1
  8
7_ALL_FEATURES
  6
Continuous
 62
     7
100
AcDbSpline
 70
     0
 71
     3
 72
     8
 73
     4
 74
     0
 42
0.000000001
 43
0.0000001
 40
0.0
 40
0.0
 40
0.0
 40
0.0
 40
1.0
 40
1.0
 40
1.0
 40
1.0
 10
345.0214345691
 20
366.7308085007
 30
0.0
 10
345.0318388928
 20
363.3974786866
 30
0.0
 10
345.0410370625
 20
360.0641449002
 30
0.0
 10
345.0490587625
 20
356.7308085007
 30
0.0
  0
LINE
  5
419
330
1B
100
AcDbEntity
 67
     1
  8
7_ALL_FEATURES
  6
Continuous
 62
     9
100
AcDbLine
 10
357.5587455799
 20
348.1959036878
 30
0.0
 11
357.8127171719
 21
366.7308085007
 31
0.0
  0
LINE
  5
41A
330
1B
100
AcDbEntity
 67
     1
  8
6_ALL_SURFS
  6
Continuous
 62
     9
100
AcDbLine
 10
357.5587455799
 20
348.1959036878
 30
0.0
 11
347.1018252244
 21
348.1959036878
 31
0.0
  0
LINE
  5
41B
330
1B
100
AcDbEntity
 67
     1
  8
7_ALL_FEATURES
  6
Continuous
 62
     7
100
AcDbLine
 10
320.2278232877
 20
341.6777318323
 30
0.0
 11
320.2278232877
 21
366.7308085007
 31
0.0
  0
ELLIPSE
  5
41C
330
1B
100
AcDbEntity
 67
     1
  8
3_ALL_AXES
  6
Continuous
 62
     7
100
AcDbEllipse
 10
307.9647975378
 20
209.2308085007
 30
0.0
 11
16.0722130229
 21
132.3579979737
 31
0.0
210
0.0
220
0.0
230
1.0
 40
0.3815734395
 41
0.017995627
 42
0.0746069599
  0
LINE
  5
41D
330
1B
100
AcDbEntity
 67
     1
  8
7_ALL_FEATURES
  6
Continuous
 62
     7
100
AcDbLine
 10
328.2470194531
 20
356.7308085007
 30
0.0
 11
328.2470194531
 21
366.7308085007
 31
0.0
  0
LINE
  5
41E
330
1B
100
AcDbEntity
 67
     1
  8
7_ALL_FEATURES
  6
Continuous
 62
     7
100
AcDbLine
 10
344.36578442
 20
341.6777318323
 30
0.0
 11
344.36578442
 21
346.2308085007
 31
0.0
  0
ELLIPSE
  5
41F
330
1B
100
AcDbEntity
 67
     1
  8
7_ALL_FEATURES
  6
Continuous
 62
     7
100
AcDbEllipse
 10
307.9647975378
 20
209.2308085007
 30
0.0
 11
40.3286208394
 21
132.0833157406
 31
0.0
210
0.0
220
0.0
230
1.0
 40
0.2603582864
 41
0.0510219647
 42
0.1076332975
  0
LINE
  5
420
330
1B
100
AcDbEntity
 67
     1
  8
7_ALL_FEATURES
  6
Continuous
 62
     7
100
AcDbLine
 10
368.4298960264
 20
366.7308085007
 30
0.0
 11
358.7501305135
 21
341.6777318323
 31
0.0
  0
LINE
  5
421
330
1B
100
AcDbEntity
 67
     1
  8
7_ALL_FEATURES
  6
Continuous
 62
     7
100
AcDbLine
 10
358.7501305135
 20
341.6777318323
 30
0.0
 11
358.7501305135
 21
348.1959036878
 31
0.0
  0
LINE
  5
422
330
1B
100
AcDbEntity
 67
     1
  8
7_ALL_FEATURES
  6
Continuous
 62
     7
100
AcDbLine
 10
358.7501305135
 20
348.1959036878
 30
0.0
 11
358.7501305135
 21
352.6918855211
 31
0.0
  0
ELLIPSE
  5
423
330
1B
100
AcDbEntity
 67
     1
  8
7_ALL_FEATURES
  6
Continuous
 62
     7
100
AcDbEllipse
 10
307.9647975378
 20
209.2308085007
 30
0.0
 11
51.6436125848
 21
132.4185070514
 31
0.0
210
0.0
220
0.0
230
1.0
 40
0.0899703792
 41
0.0067686597
 42
0.0633799926
  0
LINE
  5
424
330
1B
100
AcDbEntity
 67
     1
  8
7_ALL_FEATURES
  6
Continuous
 62
     9
100
AcDbLine
 10
330.6539236496
 20
356.7308085007
 30
0.0
 11
330.6539236496
 21
366.7308085007
 31
0.0
  0
LINE
  5
425
330
1B
100
AcDbEntity
 67
     1
  8
7_ALL_FEATURES
  6
Continuous
 62
     7
100
AcDbLine
 10
345.6535894895
 20
346.2308103195
 30
0.0
 11
344.36578442
 21
341.6777318323
 31
0.0
  0
LINE
  5
426
330
1B
100
AcDbEntity
 67
     1
  8
7_ALL_FEATURES
  6
Continuous
 62
     9
100
AcDbLine
 10
249.1824840376
 20
356.7308085007
 30
0.0
 11
249.1824840376
 21
360.3658215194
 31
0.0
  0
LINE
  5
427
330
1B
100
AcDbEntity
 67
     1
  8
7_ALL_FEATURES
  6
Continuous
 62
     9
100
AcDbLine
 10
342.7909174421
 20
356.7308085007
 30
0.0
 11
342.7909174421
 21
366.7308085007
 31
0.0
  0
LINE
  5
428
330
1B
100
AcDbEntity
 67
     1
  8
7_ALL_FEATURES
  6
Continuous
 62
     7
100
AcDbLine
 10
322.8215086398
 20
366.7308085007
 30
0.0
 11
320.2278232877
 21
341.6777318323
 31
0.0
  0
LINE
  5
429
330
1B
100
AcDbEntity
 67
     1
  8
7_ALL_FEATURES
  6
Continuous
 62
     9
100
AcDbLine
 10
337.5681552428
 20
356.7308085007
 30
0.0
 11
337.5681552428
 21
366.7308085007
 31
0.0
  0
LINE
  5
42A
330
1B
100
AcDbEntity
 67
     1
  8
7_ALL_FEATURES
  6
Continuous
 62
     7
100
AcDbLine
 10
293.1080864358
 20
366.7308085007
 30
0.0
 11
295.7017717879
 21
341.6777318323
 31
0.0
  0
LINE
  5
42B
330
1B
100
AcDbEntity
 67
     1
  8
7_ALL_FEATURES
  6
Continuous
 62
     9
100
AcDbLine
 10
358.6716528587
 20
348.1959036878
 30
0.0
 11
357.5587455799
 21
348.1959036878
 31
0.0
  0
LINE
  5
42C
330
1B
100
AcDbEntity
 67
     1
  8
3_ALL_AXES
  6
Continuous
 62
     7
100
AcDbLine
 10
254.9802189937
 20
336.7308085007
 30
0.0
 11
254.9802189937
 21
345.3601792684
 31
0.0
  0
LINE
  5
42D
330
1B
100
AcDbEntity
 67
     1
  8
7_ALL_FEATURES
  6
Continuous
 62
     7
100
AcDbLine
 10
270.2760055861
 20
346.2308103195
 30
0.0
 11
271.5638106556
 21
341.6777318323
 31
0.0
  0
ELLIPSE
  5
42E
330
1B
100
AcDbEntity
 67
     1
  8
7_ALL_FEATURES
  6
Continuous
 62
     7
100
AcDbEllipse
 10
307.9647975378
 20
209.2308085007
 30
0.0
 11
-40.3286208394
 21
132.0833157406
 31
0.0
210
0.0
220
0.0
230
1.0
 40
0.2603582864
 41
-0.1076332975
 42
-0.0510219647
  0
LINE
  5
42F
330
1B
100
AcDbEntity
 67
     1
  8
7_ALL_FEATURES
  6
Continuous
 62
     7
100
AcDbLine
 10
271.5638106556
 20
341.6777318323
 30
0.0
 11
271.5638106556
 21
346.2308085007
 31
0.0
  0
LINE
  5
430
330
1B
100
AcDbEntity
 67
     1
  8
7_ALL_FEATURES
  6
Continuous
 62
     7
100
AcDbLine
 10
247.4996990492
 20
366.7308085007
 30
0.0
 11
257.1794645621
 21
341.6777318323
 31
0.0
  0
LINE
  5
431
330
1B
100
AcDbEntity
 67
     1
  8
3_ALL_AXES
  6
Continuous
 62
     7
100
AcDbLine
 10
243.5116725378
 20
366.7308085007
 30
0.0
 11
243.5116725378
 21
391.7308085007
 31
0.0
  0
LINE
  5
432
330
1B
100
AcDbEntity
 67
     1
  8
7_ALL_FEATURES
  6
Continuous
 62
     9
100
AcDbLine
 10
243.5353199285
 20
356.7308085007
 30
0.0
 11
243.5353199285
 21
366.7308085007
 31
0.0
  0
SPLINE
  5
433
330
1B
100
AcDbEntity
 67
     1
  8
6_ALL_SURFS
  6
Continuous
 62
     9
100
AcDbSpline
 70
     0
 71
     3
 72
     9
 73
     5
 74
     0
 42
0.000000001
 43
0.0000001
 40
0.0
 40
0.0
 40
0.0
 40
0.0
 40
0.7459698701
 40
1.0
 40
1.0
 40
1.0
 40
1.0
 10
259.9406235919
 20
346.2308085007
 30
0.0
 10
259.8185029806
 20
346.2308085007
 30
0.0
 10
259.6535084069
 20
346.2560034861
 30
0.0
 10
259.4991762931
 20
346.3108225487
 30
0.0
 10
259.460678223
 20
346.3265495924
 30
0.0
  0
SPLINE
  5
434
330
1B
100
AcDbEntity
 67
     1
  8
6_ALL_SURFS
  6
Continuous
 62
     9
100
AcDbSpline
 70
     0
 71
     3
 72
    11
 73
     7
 74
     0
 42
0.000000001
 43
0.0000001
 40
0.0
 40
0.0
 40
0.0
 40
0.0
 40
0.2262108977
 40
0.4698569061
 40
0.7299486606
 40
1.0
 40
1.0
 40
1.0
 40
1.0
 10
259.460678223
 20
346.3265495924
 30
0.0
 10
259.3016280588
 20
346.3915239897
 30
0.0
 10
258.9960730233
 20
346.592448483
 30
0.0
 10
258.6505431171
 20
347.0360573681
 30
0.0
 10
258.4278074542
 20
347.5870444587
 30
0.0
 10
258.3736596918
 20
347.9908157478
 30
0.0
 10
258.3708495069
 20
348.1959036878
 30
0.0
  0
SPLINE
  5
435
330
1B
100
AcDbEntity
 67
     1
  8
6_ALL_SURFS
  6
Continuous
 62
     9
100
AcDbSpline
 70
     0
 71
     3
 72
    11
 73
     7
 74
     0
 42
0.000000001
 43
0.0000001
 40
0.0
 40
0.0
 40
0.0
 40
0.0
 40
0.1947157133
 40
0.4252423138
 40
0.6988561405
 40
1.0
 40
1.0
 40
1.0
 40
1.0
 10
270.0665559267
 20
346.2308085007
 30
0.0
 10
269.902468702
 20
346.2308085007
 30
0.0
 10
269.5414432795
 20
346.3585959989
 30
0.0
 10
269.1481587256
 20
346.8187497312
 30
0.0
 10
268.8919199571
 20
347.4558670371
 30
0.0
 10
268.8305138021
 20
347.9421441392
 30
0.0
 10
268.8277698512
 20
348.1959036878
 30
0.0
  0
LINE
  5
436
330
1B
100
AcDbEntity
 67
     1
  8
7_ALL_FEATURES
  6
Continuous
 62
     9
100
AcDbLine
 10
258.3708494957
 20
348.1959036878
 30
0.0
 11
257.2579422169
 21
348.1959036878
 31
0.0
  0
LINE
  5
437
330
1B
100
AcDbEntity
 67
     1
  8
7_ALL_FEATURES
  6
Continuous
 62
     9
100
AcDbLine
 10
258.1168779037
 20
366.7308085007
 30
0.0
 11
258.3708494957
 21
348.1959036878
 31
0.0
  0
DIMENSION
  5
438
330
1B
100
AcDbEntity
 67
     1
  8
0
  6
Continuous
 62
     2
100
AcDbDimension
280
     0
  2
*D1
 10
159.7267985023
 20
119.008071621
 30
0.0
 11
174.8363010263
 21
131.2001118893
 31
0.0
 70
   163
  1
%%c<>
 71
     5
 42
-1.0
 73
     0
 74
     0
 75
     0
  3
DIMSTYLE_1
100
AcDbDiametricDimension
 15
50.6225475926
 25
50.1802979142
 35
0.0
 40
0.0
  0
DIMENSION
  5
439
330
1B
100
AcDbEntity
 67
     1
  8
0
  6
Continuous
 62
     2
100
AcDbDimension
280
     0
  2
*D2
 10
188.4316629513
 20
391.7308085007
 30
0.0
 11
188.4316629513
 21
291.6924119717
 31
0.0
 70
   160
 71
     5
 42
-1.0
 73
     0
 74
     0
 75
     0
  3
DIMSTYLE_2
100
AcDbAlignedDimension
 13
180.1326941155
 23
191.7308085007
 33
0.0
 14
180.1326941155
 24
391.7308085007
 34
0.0
 50
90.0
100
AcDbRotatedDimension
  0
DIMENSION
  5
43A
330
1B
100
AcDbEntity
 67
     1
  8
0
  6
Continuous
 62
     2
100
AcDbDimension
280
     0
  2
*D3
 10
199.7991283262
 20
392.8808085007
 30
0.0
 11
199.7991283262
 21
292.2746683386
 31
0.0
 70
   160
 71
     5
 42
-1.0
 73
     0
 74
     0
 75
     0
  3
DIMSTYLE_2
100
AcDbAlignedDimension
 13
180.1326941155
 23
191.7308085007
 33
0.0
 14
179.1426417975
 24
392.8808085007
 34
0.0
 50
90.0
100
AcDbRotatedDimension
  0
LINE
  5
43B
330
1B
100
AcDbEntity
 67
     1
  8
0
  6
Continuous
 62
     2
100
AcDbLine
 10
457.9550407761
 20
72.7231088301
 30
0.0
 11
587.9550407761
 21
72.7231088301
 31
0.0
  0
LINE
  5
43C
330
1B
100
AcDbEntity
 67
     1
  8
0
  6
Continuous
 62
     2
100
AcDbLine
 10
457.9550407761
 20
72.7231088301
 30
0.0
 11
457.9550407761
 21
6.7231088301
 31
0.0
  0
LINE
  5
43D
330
1B
100
AcDbEntity
 67
     1
  8
0
  6
Continuous
 62
     2
100
AcDbLine
 10
487.9550407761
 20
64.7231088301
 30
0.0
 11
587.9550407761
 21
64.7231088301
 31
0.0
  0
LINE
  5
43E
330
1B
100
AcDbEntity
 67
     1
  8
0
  6
Continuous
 62
     2
100
AcDbLine
 10
457.9550407761
 20
56.7231088301
 30
0.0
 11
587.9550407761
 21
56.7231088301
 31
0.0
  0
LINE
  5
43F
330
1B
100
AcDbEntity
 67
     1
  8
0
  6
Continuous
 62
     2
100
AcDbLine
 10
487.9550407761
 20
50.7231088301
 30
0.0
 11
587.9550407761
 21
50.7231088301
 31
0.0
  0
LINE
  5
440
330
1B
100
AcDbEntity
 67
     1
  8
0
  6
Continuous
 62
     2
100
AcDbLine
 10
487.9550407761
 20
44.7231088301
 30
0.0
 11
587.9550407761
 21
44.7231088301
 31
0.0
  0
LINE
  5
441
330
1B
100
AcDbEntity
 67
     1
  8
0
  6
Continuous
 62
     2
100
AcDbLine
 10
487.9550407761
 20
38.7231088301
 30
0.0
 11
587.9550407761
 21
38.7231088301
 31
0.0
  0
LINE
  5
442
330
1B
100
AcDbEntity
 67
     1
  8
0
  6
Continuous
 62
     2
100
AcDbLine
 10
487.9550407761
 20
32.7231088301
 30
0.0
 11
587.9550407761
 21
32.7231088301
 31
0.0
  0
LINE
  5
443
330
1B
100
AcDbEntity
 67
     1
  8
0
  6
Continuous
 62
     2
100
AcDbLine
 10
487.9550407761
 20
26.7231088301
 30
0.0
 11
587.9550407761
 21
26.7231088301
 31
0.0
  0
LINE
  5
444
330
1B
100
AcDbEntity
 67
     1
  8
0
  6
Continuous
 62
     2
100
AcDbLine
 10
457.9550407761
 20
20.7231088301
 30
0.0
 11
587.9550407761
 21
20.7231088301
 31
0.0
  0
LINE
  5
445
330
1B
100
AcDbEntity
 67
     1
  8
0
  6
Continuous
 62
     2
100
AcDbLine
 10
457.9550407761
 20
14.7231088301
 30
0.0
 11
587.9550407761
 21
14.7231088301
 31
0.0
  0
LINE
  5
446
330
1B
100
AcDbEntity
 67
     1
  8
0
  6
Continuous
 62
     2
100
AcDbLine
 10
457.9550407761
 20
10.7231088301
 30
0.0
 11
587.9550407761
 21
10.7231088301
 31
0.0
  0
LINE
  5
447
330
1B
100
AcDbEntity
 67
     1
  8
0
  6
Continuous
 62
     2
100
AcDbLine
 10
457.9550407761
 20
6.7231088301
 30
0.0
 11
587.9550407761
 21
6.7231088301
 31
0.0
  0
LINE
  5
448
330
1B
100
AcDbEntity
 67
     1
  8
0
  6
Continuous
 62
     2
100
AcDbLine
 10
487.9550407761
 20
72.7231088301
 30
0.0
 11
487.9550407761
 21
14.7231088301
 31
0.0
  0
LINE
  5
449
330
1B
100
AcDbEntity
 67
     1
  8
0
  6
Continuous
 62
     2
100
AcDbLine
 10
507.9550407761
 20
56.7231088301
 30
0.0
 11
507.9550407761
 21
50.7231088301
 31
0.0
  0
LINE
  5
44A
330
1B
100
AcDbEntity
 67
     1
  8
0
  6
Continuous
 62
     2
100
AcDbLine
 10
537.9550407761
 20
26.7231088301
 30
0.0
 11
537.9550407761
 21
14.7231088301
 31
0.0
  0
LINE
  5
44B
330
1B
100
AcDbEntity
 67
     1
  8
0
  6
Continuous
 62
     2
100
AcDbLine
 10
547.9550407761
 20
56.7231088301
 30
0.0
 11
547.9550407761
 21
50.7231088301
 31
0.0
  0
LINE
  5
44C
330
1B
100
AcDbEntity
 67
     1
  8
0
  6
Continuous
 62
     2
100
AcDbLine
 10
547.9550407761
 20
44.7231088301
 30
0.0
 11
547.9550407761
 21
38.7231088301
 31
0.0
  0
LINE
  5
44D
330
1B
100
AcDbEntity
 67
     1
  8
0
  6
Continuous
 62
     2
100
AcDbLine
 10
567.9550407761
 20
56.7231088301
 30
0.0
 11
567.9550407761
 21
50.7231088301
 31
0.0
  0
LINE
  5
44E
330
1B
100
AcDbEntity
 67
     1
  8
0
  6
Continuous
 62
     2
100
AcDbLine
 10
577.9550407761
 20
44.7231088301
 30
0.0
 11
577.9550407761
 21
38.7231088301
 31
0.0
  0
LINE
  5
44F
330
1B
100
AcDbEntity
 67
     1
  8
0
  6
Continuous
 62
     2
100
AcDbLine
 10
587.9550407761
 20
72.7231088301
 30
0.0
 11
587.9550407761
 21
6.7231088301
 31
0.0
  0
INSERT
  5
450
330
1B
100
AcDbEntity
 67
     1
  8
0
  6
Continuous
 62
     2
100
AcDbBlockReference
  2
PROIEZIONE_EU_BL0
 10
472.9550407761
 20
64.3481088301
 30
0.0
  0
MTEXT
  5
451
330
1B
100
AcDbEntity
 67
     1
  8
9_SOLID
  6
Continuous
 62
     2
100
AcDbMText
 10
489.4425407761
 20
71.0981088301
 30
0.0
 40
1.9
 41
142.3642857143
 46
0.0
 71
     1
 72
     1
  1
EN: Chamfer/radii unlisted 0.3x45°. Remove sharp edges.\PGen. tol.: hole H11, shaft h11, lenght Js12. UNI EN 22768 Medium Grande.
  7
TEXTSTYLE_4
 73
     1
 44
1.0
  0
MTEXT
  5
452
330
1B
100
AcDbEntity
 67
     1
  8
9_SOLID
  6
Continuous
 62
     2
100
AcDbMText
 10
489.4425407761
 20
63.0981088301
 30
0.0
 40
1.9
 41
148.2678571429
 46
0.0
 71
     1
 72
     1
  1
IT: Sm./rac. non quotati 0.3x45°. Eliminare spigoli taglienti.\PToll. gen.: foro H11, albero h11, lunghezza Js12. UNI EN 22768 Grado Medio.
  7
TEXTSTYLE_4
 73
     1
 44
1.0
  0
INSERT
  5
453
330
1B
100
AcDbEntity
 67
     1
  8
0
  6
Continuous
 62
     2
100
AcDbBlockReference
  2
LOGO2_BL1
 10
471.7810878209
 20
38.7231088301
 30
0.0
  0
MTEXT
  5
454
330
1B
100
AcDbEntity
 67
     1
  8
9_SOLID
  6
Continuous
 62
     2
100
AcDbMText
 10
489.4425407761
 20
54.9731088301
 30
0.0
 40
3.0
 41
22.0714285714
 46
0.0
 71
     1
 72
     1
  1
Pj: 250
  7
TEXTSTYLE_4
 73
     1
 44
1.0
  0
MTEXT
  5
455
330
1B
100
AcDbEntity
 67
     1
  8
0
  6
Continuous
 62
     2
100
AcDbMText
 10
509.4425407761
 20
54.9731088301
 30
0.0
 40
3.0
 41
41.5714285714
 46
0.0
 71
     1
 72
     1
  1
% Check:  %
  7
TEXTSTYLE_4
 73
     1
 44
1.0
  0
MTEXT
  5
456
330
1B
100
AcDbEntity
 67
     1
  8
9_SOLID
  6
Continuous
 62
     2
100
AcDbMText
 10
549.4425407761
 20
54.9731088301
 30
0.0
 40
3.0
 41
19.5
 46
0.0
 71
     1
 72
     1
  1
Rev:00
  7
TEXTSTYLE_4
 73
     1
 44
1.0
  0
MTEXT
  5
457
330
1B
100
AcDbEntity
 67
     1
  8
9_SOLID
  6
Continuous
 62
     2
100
AcDbMText
 10
569.4425407761
 20
55.2231088301
 30
0.0
 40
3.0
 41
19.7142857143
 46
0.0
 71
     1
 72
     1
  1
Ver: A
  7
TEXTSTYLE_4
 73
     1
 44
1.0
  0
MTEXT
  5
458
330
1B
100
AcDbEntity
 67
     1
  8
9_SOLID
  6
Continuous
 62
     2
100
AcDbMText
 10
489.4425407761
 20
48.9731088301
 30
0.0
 40
3.0
 41
72.75
 46
0.0
 71
     1
 72
     1
  1
Neutral code: 250_C_110
  7
TEXTSTYLE_4
 73
     1
 44
1.0
  0
MTEXT
  5
459
330
1B
100
AcDbEntity
 67
     1
  8
0
  6
Continuous
 62
     2
100
AcDbMText
 10
489.4425407761
 20
42.9731088301
 30
0.0
 40
3.0
 41
22.9285714286
 46
0.0
 71
     1
 72
     1
  1
Code:  
  7
TEXTSTYLE_4
 73
     1
 44
1.0
  0
MTEXT
  5
45A
330
1B
100
AcDbEntity
 67
     1
  8
9_SOLID
  6
Continuous
 62
     2
100
AcDbMText
 10
549.4425407761
 20
43.2231088301
 30
0.0
 40
3.0
 41
27.8571428571
 46
0.0
 71
     1
 72
     1
  1
Scale: 1:1
  7
TEXTSTYLE_4
 73
     1
 44
1.0
  0
MTEXT
  5
45B
330
1B
100
AcDbEntity
 67
     1
  8
9_SOLID
  6
Continuous
 62
     2
100
AcDbMText
 10
582.9550407761
 20
43.2231088301
 30
0.0
 40
3.0
 41
8.25
 46
0.0
 71
     2
 72
     1
  1
A2
  7
TEXTSTYLE_4
 73
     1
 44
1.0
  0
MTEXT
  5
45C
330
1B
100
AcDbEntity
 67
     1
  8
9_SOLID
  6
Continuous
 62
     2
100
AcDbMText
 10
489.4425407761
 20
37.2231088301
 30
0.0
 40
3.0
 41
101.0035714286
 46
0.0
 71
     1
 72
     1
  1
It descr.: CASSAFORMA Ø129X200
  7
TEXTSTYLE_4
 73
     1
 44
1.0
  0
MTEXT
  5
45D
330
1B
100
AcDbEntity
 67
     1
  8
0
  6
Continuous
 62
     2
100
AcDbMText
 10
489.4425407761
 20
31.2231088301
 30
0.0
 40
3.0
 41
37.5
 46
0.0
 71
     1
 72
     1
  1
En descr.:  
  7
TEXTSTYLE_4
 73
     1
 44
1.0
  0
MTEXT
  5
45E
330
1B
100
AcDbEntity
 67
     1
  8
9_SOLID
  6
Continuous
 62
     2
100
AcDbMText
 10
489.4425407761
 20
25.2231088301
 30
0.0
 40
3.0
 41
31.2857142857
 46
0.0
 71
     1
 72
     1
  1
Des.: S.Z.
  7
TEXTSTYLE_4
 73
     1
 44
1.0
  0
MTEXT
  5
45F
330
1B
100
AcDbEntity
 67
     1
  8
9_SOLID
  6
Continuous
 62
     2
100
AcDbMText
 10
539.4425407761
 20
25.2231088301
 30
0.0
 40
3.0
 41
22.2857142857
 46
0.0
 71
     1
 72
     1
  1
Check: 
  7
TEXTSTYLE_4
 73
     1
 44
1.0
  0
MTEXT
  5
460
330
1B
100
AcDbEntity
 67
     1
  8
9_SOLID
  6
Continuous
 62
     2
100
AcDbMText
 10
459.4425407761
 20
19.2231088301
 30
0.0
 40
3.0
 41
42.5357142857
 46
0.0
 71
     1
 72
     1
  1
Date: 17.12.18
  7
TEXTSTYLE_4
 73
     1
 44
1.0
  0
MTEXT
  5
461
330
1B
100
AcDbEntity
 67
     1
  8
0
  6
Continuous
 62
     2
100
AcDbMText
 10
489.4425407761
 20
19.2231088301
 30
0.0
 40
3.0
 41
21.75
 46
0.0
 71
     1
 72
     1
  1
Mat.:  
  7
TEXTSTYLE_4
 73
     1
 44
1.0
  0
MTEXT
  5
462
330
1B
100
AcDbEntity
 67
     1
  8
9_SOLID
  6
Continuous
 62
     2
100
AcDbMText
 10
539.4425407761
 20
18.7231088301
 30
0.0
 40
2.0
 41
42.3571428571
 46
0.0
 71
     1
 72
     1
  1
Disegno per catalogo
  7
TEXTSTYLE_4
 73
     1
 44
1.0
  0
MTEXT
  5
463
330
1B
100
AcDbEntity
 67
     1
  8
9_SOLID
  6
Continuous
 62
     2
100
AcDbMText
 10
459.4425407761
 20
13.6231088301
 30
0.0
 40
1.8
 41
176.2071428571
 46
0.0
 71
     1
 72
     1
  1
It: A norma di legge si diffida da qualsiasi riproduzione senza nostra autorizzazione esplicita.
  7
TEXTSTYLE_4
 73
     1
 44
1.0
  0
MTEXT
  5
464
330
1B
100
AcDbEntity
 67
     1
  8
9_SOLID
  6
Continuous
 62
     2
100
AcDbMText
 10
459.4425407761
 20
9.6231088301
 30
0.0
 40
1.8
 41
158.1428571429
 46
0.0
 71
     1
 72
     1
  1
En: According to the law, beware of any reproduction made without our authorization.
  7
TEXTSTYLE_4
 73
     1
 44
1.0
  0
ENDSEC
  0
SECTION
  2
OBJECTS
  0
DICTIONARY
  5
465
330
0
100
AcDbDictionary
281
     1
  3
ACAD_DETAILVIEWSTYLE
350
4BB
  3
ACAD_GROUP
350
466
  3
ACAD_LAYOUT
350
48E
  3
ACAD_MATERIAL
350
4AA
  3
ACAD_MLEADERSTYLE
350
4B0
  3
ACAD_MLINESTYLE
350
467
  3
ACAD_PLOTSETTINGS
350
469
  3
ACAD_PLOTSTYLENAME
350
46A
  3
ACAD_SCALELIST
350
46C
  3
ACAD_SECTIONVIEWSTYLE
350
4BC
  3
ACAD_TABLESTYLE
350
4AE
  3
ACAD_VISUALSTYLE
350
491
  3
ACDB_RECOMPOSE_DATA
350
4B7
  3
AcDbVariableDictionary
350
4B3
  3
APPDATA
350
4B2
  0
DICTIONARY
  5
4BB
102
{ACAD_REACTORS
330
465
102
}
330
465
100
AcDbDictionary
281
     1
  0
DICTIONARY
  5
466
102
{ACAD_REACTORS
330
465
102
}
330
465
100
AcDbDictionary
281
     1
  0
DICTIONARY
  5
48E
102
{ACAD_REACTORS
330
465
102
}
330
465
100
AcDbDictionary
281
     1
  3
Foglio 1
350
490
  3
Model
350
48F
  0
DICTIONARY
  5
4AA
102
{ACAD_REACTORS
330
465
102
}
330
465
100
AcDbDictionary
281
     1
  3
ByBlock
350
4AC
  3
ByLayer
350
4AB
  3
Global
350
4AD
  0
DICTIONARY
  5
4B0
102
{ACAD_REACTORS
330
465
102
}
330
465
100
AcDbDictionary
281
     1
  3
Standard
350
4B1
  0
DICTIONARY
  5
467
102
{ACAD_REACTORS
330
465
102
}
330
465
100
AcDbDictionary
281
     1
  3
STANDARD
350
468
  0
DICTIONARY
  5
469
102
{ACAD_REACTORS
330
465
102
}
330
465
100
AcDbDictionary
281
     1
  0
ACDBDICTIONARYWDFLT
  5
46A
102
{ACAD_REACTORS
330
465
102
}
330
465
100
AcDbDictionary
281
     1
  3
Normal
350
46B
100
AcDbDictionaryWithDefault
340
46B
  0
DICTIONARY
  5
46C
102
{ACAD_REACTORS
330
465
102
}
330
465
100
AcDbDictionary
281
     1
  3
A0
350
46D
  3
A1
350
46E
  3
A2
350
46F
  3
A3
350
470
  3
A4
350
471
  3
A5
350
472
  3
A6
350
473
  3
A7
350
474
  3
A8
350
475
  3
A9
350
476
  3
B0
350
477
  3
B1
350
478
  3
B2
350
479
  3
B3
350
47A
  3
B4
350
47B
  3
B5
350
47C
  3
B6
350
47D
  3
B7
350
47E
  3
B8
350
47F
  3
B9
350
480
  3
C0
350
481
  3
C1
350
482
  3
C2
350
483
  3
C3
350
484
  3
C4
350
485
  3
C5
350
486
  3
C6
350
487
  3
C7
350
488
  3
C8
350
489
  3
C9
350
48A
  3
D0
350
48B
  3
D1
350
48C
  3
D2
350
48D
  0
DICTIONARY
  5
4BC
102
{ACAD_REACTORS
330
465
102
}
330
465
100
AcDbDictionary
281
     1
  0
DICTIONARY
  5
4AE
102
{ACAD_REACTORS
330
465
102
}
330
465
100
AcDbDictionary
281
     1
  3
Standard
350
4AF
  0
DICTIONARY
  5
491
102
{ACAD_REACTORS
330
465
102
}
330
465
100
AcDbDictionary
281
     1
  3
2dWireframe
350
496
  3
Basic
350
499
  3
Brighten
350
49D
  3
ColorChange
350
4A1
  3
Conceptual
350
49B
  3
Dim
350
49C
  3
EdgeColorOff
350
4A4
  3
Facepattern
350
4A0
  3
Flat
350
492
  3
FlatWithEdges
350
493
  3
Gouraud
350
494
  3
GouraudWithEdges
350
495
  3
Hidden
350
498
  3
JitterOff
350
4A2
  3
Linepattern
350
49F
  3
OverhangOff
350
4A3
  3
Realistic
350
49A
  3
Shaded
350
4A9
  3
Shaded with edges
350
4A8
  3
Shades of Gray
350
4A5
  3
Sketchy
350
4A6
  3
Thicken
350
49E
  3
Wireframe
350
497
  3
X-Ray
350
4A7
  0
XRECORD
  5
4B7
102
{ACAD_REACTORS
330
465
102
}
330
465
100
AcDbXrecord
280
     1
 90
        1
330
4AF
  0
DICTIONARY
  5
4B3
102
{ACAD_REACTORS
330
465
102
}
330
465
100
AcDbDictionary
281
     1
  3
CANNOSCALE
350
4B4
  3
CMLEADERSTYLE
350
4B9
  3
CTABLESTYLE
350
4B8
  3
MSLTSCALE
350
4BA
  0
DICTIONARY
  5
4B2
102
{ACAD_REACTORS
330
465
102
}
330
465
100
AcDbDictionary
281
     1
  0
LAYOUT
  5
490
102
{ACAD_REACTORS
330
48E
102
}
330
48E
100
AcDbPlotSettings
  1

  2
none_device
  4
ISO_A3_(420.00_x_297.00_MM)
  6

 40
7.5
 41
20.0
 42
7.5
 43
20.0
 44
420.0
 45
297.0
 46
0.0
 47
0.0
 48
0.0
 49
0.0
140
0.0
141
0.0
142
1.0
143
1.634241245136187
 70
   688
 72
     1
 73
     0
 74
     1
  7

 75
     0
 76
     0
 77
     2
 78
   300
147
0.611904761904762
148
0.0
149
0.0
100
AcDbLayout
  1
Foglio 1
 70
     1
 71
     1
 10
0.0
 20
0.0
 11
412.5
 21
277.0
 12
0.0
 22
0.0
 32
0.0
 14
0.0
 24
0.0
 34
0.0
 15
595.4942074427667
 25
420.0
 35
0.0
146
0.0
 13
0.0
 23
0.0
 33
0.0
 16
1.0
 26
0.0
 36
0.0
 17
0.0
 27
1.0
 37
0.0
 76
     0
330
1B
331
281
  0
LAYOUT
  5
48F
102
{ACAD_REACTORS
330
48E
102
}
330
48E
100
AcDbPlotSettings
  1

  2
none_device
  4
Letter_(8.50_x_11.00_Inches)
  6

 40
6.35
 41
6.35
 42
6.35
 43
6.35
 44
215.9
 45
279.4
 46
0.0
 47
0.0
 48
0.0
 49
0.0
140
0.0
141
0.0
142
1.0
143
74.25000000075
 70
  1712
 72
     0
 73
     0
 74
     0
  7

 75
     0
 76
     0
 77
     2
 78
   300
147
0.0134680134678774
148
0.000000076200638
149
0.0
100
AcDbLayout
  1
Model
 70
     1
 71
     0
 10
0.0
 20
0.0
 11
594.0
 21
420.0
 12
0.0
 22
0.0
 32
0.0
 14
0.0
 24
0.0
 34
0.0
 15
594.0
 25
420.0
 35
0.0
146
0.0
 13
0.0
 23
0.0
 33
0.0
 16
1.0
 26
0.0
 36
0.0
 17
0.0
 27
1.0
 37
0.0
 76
     0
330
1F
331
1F4
  0
MATERIAL
  5
4AC
102
{ACAD_REACTORS
330
4AA
102
}
330
4AA
100
AcDbMaterial
  1
ByBlock
 72
     1
 94
      127
  0
MATERIAL
  5
4AB
102
{ACAD_REACTORS
330
4AA
102
}
330
4AA
100
AcDbMaterial
  1
ByLayer
 72
     1
 94
      127
  0
MATERIAL
  5
4AD
102
{ACAD_REACTORS
330
4AA
102
}
330
4AA
100
AcDbMaterial
  1
Global
 72
     1
 94
      127
  0
MLEADERSTYLE
  5
4B1
102
{ACAD_REACTORS
330
4B0
102
}
330
4B0
100
AcDbMLeaderStyle
179
     2
170
     2
171
     1
172
     0
 90
        2
 40
0.0
 41
0.0
173
     1
 91
-1056964608
340
14
 92
       -2
290
     1
 42
2.0
291
     1
 43
8.0
  3
Standard
341
0
 44
4.0
300

342
11
174
     1
178
     1
175
     1
176
     0
 93
-1056964608
 45
4.0
292
     0
297
     0
 46
4.0
343
0
 94
-1056964608
 47
1.0
 49
1.0
140
1.0
293
     1
141
0.0
294
     1
177
     0
142
1.0
295
     0
296
     0
143
3.75
271
     0
272
     9
273
     9
298
     0
  0
MLINESTYLE
  5
468
102
{ACAD_REACTORS
330
467
102
}
330
467
100
AcDbMlineStyle
  2
STANDARD
 70
     0
  3

 62
   256
 51
90.0
 52
90.0
 71
     2
 49
0.5
 62
   256
  6
BYLAYER
 49
-0.5
 62
   256
  6
BYLAYER
  0
ACDBPLACEHOLDER
  5
46B
102
{ACAD_REACTORS
330
46A
102
}
330
46A
  0
SCALE
  5
46D
102
{ACAD_REACTORS
330
46C
102
}
330
46C
100
AcDbScale
 70
     0
300
1:1
140
1.0
141
1.0
290
     1
  0
SCALE
  5
46E
102
{ACAD_REACTORS
330
46C
102
}
330
46C
100
AcDbScale
 70
     0
300
1:2
140
1.0
141
2.0
290
     0
  0
SCALE
  5
46F
102
{ACAD_REACTORS
330
46C
102
}
330
46C
100
AcDbScale
 70
     0
300
1:4
140
1.0
141
4.0
290
     0
  0
SCALE
  5
470
102
{ACAD_REACTORS
330
46C
102
}
330
46C
100
AcDbScale
 70
     0
300
1:5
140
1.0
141
5.0
290
     0
  0
SCALE
  5
471
102
{ACAD_REACTORS
330
46C
102
}
330
46C
100
AcDbScale
 70
     0
300
1:8
140
1.0
141
8.0
290
     0
  0
SCALE
  5
472
102
{ACAD_REACTORS
330
46C
102
}
330
46C
100
AcDbScale
 70
     0
300
1:10
140
1.0
141
10.0
290
     0
  0
SCALE
  5
473
102
{ACAD_REACTORS
330
46C
102
}
330
46C
100
AcDbScale
 70
     0
300
1:16
140
1.0
141
16.0
290
     0
  0
SCALE
  5
474
102
{ACAD_REACTORS
330
46C
102
}
330
46C
100
AcDbScale
 70
     0
300
1:20
140
1.0
141
20.0
290
     0
  0
SCALE
  5
475
102
{ACAD_REACTORS
330
46C
102
}
330
46C
100
AcDbScale
 70
     0
300
1:30
140
1.0
141
30.0
290
     0
  0
SCALE
  5
476
102
{ACAD_REACTORS
330
46C
102
}
330
46C
100
AcDbScale
 70
     0
300
1:40
140
1.0
141
40.0
290
     0
  0
SCALE
  5
477
102
{ACAD_REACTORS
330
46C
102
}
330
46C
100
AcDbScale
 70
     0
300
1:50
140
1.0
141
50.0
290
     0
  0
SCALE
  5
478
102
{ACAD_REACTORS
330
46C
102
}
330
46C
100
AcDbScale
 70
     0
300
1:100
140
1.0
141
100.0
290
     0
  0
SCALE
  5
479
102
{ACAD_REACTORS
330
46C
102
}
330
46C
100
AcDbScale
 70
     0
300
2:1
140
2.0
141
1.0
290
     0
  0
SCALE
  5
47A
102
{ACAD_REACTORS
330
46C
102
}
330
46C
100
AcDbScale
 70
     0
300
4:1
140
4.0
141
1.0
290
     0
  0
SCALE
  5
47B
102
{ACAD_REACTORS
330
46C
102
}
330
46C
100
AcDbScale
 70
     0
300
8:1
140
8.0
141
1.0
290
     0
  0
SCALE
  5
47C
102
{ACAD_REACTORS
330
46C
102
}
330
46C
100
AcDbScale
 70
     0
300
10:1
140
10.0
141
1.0
290
     0
  0
SCALE
  5
47D
102
{ACAD_REACTORS
330
46C
102
}
330
46C
100
AcDbScale
 70
     0
300
100:1
140
100.0
141
1.0
290
     0
  0
SCALE
  5
47E
102
{ACAD_REACTORS
330
46C
102
}
330
46C
100
AcDbScale
 70
     0
300
1/128" = 1'-0"
140
0.0078125
141
12.0
290
     0
  0
SCALE
  5
47F
102
{ACAD_REACTORS
330
46C
102
}
330
46C
100
AcDbScale
 70
     0
300
1/64" = 1'-0"
140
0.015625
141
12.0
290
     0
  0
SCALE
  5
480
102
{ACAD_REACTORS
330
46C
102
}
330
46C
100
AcDbScale
 70
     0
300
1/32" = 1'-0"
140
0.03125
141
12.0
290
     0
  0
SCALE
  5
481
102
{ACAD_REACTORS
330
46C
102
}
330
46C
100
AcDbScale
 70
     0
300
1/16" = 1'-0"
140
0.0625
141
12.0
290
     0
  0
SCALE
  5
482
102
{ACAD_REACTORS
330
46C
102
}
330
46C
100
AcDbScale
 70
     0
300
3/32" = 1'-0"
140
0.09375
141
12.0
290
     0
  0
SCALE
  5
483
102
{ACAD_REACTORS
330
46C
102
}
330
46C
100
AcDbScale
 70
     0
300
1/8" = 1'-0"
140
0.125
141
12.0
290
     0
  0
SCALE
  5
484
102
{ACAD_REACTORS
330
46C
102
}
330
46C
100
AcDbScale
 70
     0
300
3/16" = 1'-0"
140
0.1875
141
12.0
290
     0
  0
SCALE
  5
485
102
{ACAD_REACTORS
330
46C
102
}
330
46C
100
AcDbScale
 70
     0
300
1/4" = 1'-0"
140
0.25
141
12.0
290
     0
  0
SCALE
  5
486
102
{ACAD_REACTORS
330
46C
102
}
330
46C
100
AcDbScale
 70
     0
300
3/8" = 1'-0"
140
0.375
141
12.0
290
     0
  0
SCALE
  5
487
102
{ACAD_REACTORS
330
46C
102
}
330
46C
100
AcDbScale
 70
     0
300
1/2" = 1'-0"
140
0.5
141
12.0
290
     0
  0
SCALE
  5
488
102
{ACAD_REACTORS
330
46C
102
}
330
46C
100
AcDbScale
 70
     0
300
3/4" = 1'-0"
140
0.75
141
12.0
290
     0
  0
SCALE
  5
489
102
{ACAD_REACTORS
330
46C
102
}
330
46C
100
AcDbScale
 70
     0
300
1" = 1'-0"
140
1.0
141
12.0
290
     0
  0
SCALE
  5
48A
102
{ACAD_REACTORS
330
46C
102
}
330
46C
100
AcDbScale
 70
     0
300
1-1/2" = 1'-0"
140
1.5
141
12.0
290
     0
  0
SCALE
  5
48B
102
{ACAD_REACTORS
330
46C
102
}
330
46C
100
AcDbScale
 70
     0
300
3" = 1'-0"
140
3.0
141
12.0
290
     0
  0
SCALE
  5
48C
102
{ACAD_REACTORS
330
46C
102
}
330
46C
100
AcDbScale
 70
     0
300
6" = 1'-0"
140
6.0
141
12.0
290
     0
  0
SCALE
  5
48D
102
{ACAD_REACTORS
330
46C
102
}
330
46C
100
AcDbScale
 70
     0
300
1'-0" = 1'-0"
140
12.0
141
12.0
290
     0
  0
TABLESTYLE
  5
4AF
102
{ACAD_REACTORS
330
4AE
102
}
102
{ACAD_XDICTIONARY
360
4B5
102
}
330
4AE
100
AcDbTableStyle
  3
Standard
 70
     0
 71
     0
 40
0.06
 41
0.06
280
     0
281
     0
  7
STANDARD
140
4.5
170
     2
 62
     0
 63
   257
283
     0
 90
        4
 91
        0
  1

274
    -2
284
     1
 64
     0
275
    -2
285
     1
 65
     0
276
    -2
286
     1
 66
     0
277
    -2
287
     1
 67
     0
278
    -2
288
     1
 68
     0
279
    -2
289
     1
 69
     0
  7
STANDARD
140
6.0
170
     5
 62
     0
 63
   257
283
     0
 90
        4
 91
        0
  1

274
    -2
284
     1
 64
     0
275
    -2
285
     1
 65
     0
276
    -2
286
     1
 66
     0
277
    -2
287
     1
 67
     0
278
    -2
288
     1
 68
     0
279
    -2
289
     1
 69
     0
  7
STANDARD
140
4.5
170
     5
 62
     0
 63
   257
283
     0
 90
        4
 91
        0
  1

274
    -2
284
     1
 64
     0
275
    -2
285
     1
 65
     0
276
    -2
286
     1
 66
     0
277
    -2
287
     1
 67
     0
278
    -2
288
     1
 68
     0
279
    -2
289
     1
 69
     0
  0
VISUALSTYLE
  5
496
102
{ACAD_REACTORS
330
491
102
}
330
491
100
AcDbVisualStyle
  2
2dWireframe
 70
     4
177
     3
291
     0
 70
    58
 90
        0
176
     1
 90
        2
176
     1
 90
        0
176
     1
 90
        0
176
     1
 40
0.6
176
     1
 40
30.0
176
     1
 62
     7
420
 16777215
176
     1
 90
        1
176
     1
 90
        4
176
     1
 62
     7
176
     1
 62
   257
176
     1
 90
        1
176
     1
 90
        1
176
     1
 40
1.0
176
     1
 90
        0
176
     1
 62
   257
176
     1
 40
1.0
176
     1
 90
        1
176
     1
 90
        6
176
     1
 90
        2
176
     1
 62
     7
176
     1
 90
        5
176
     1
 90
        0
176
     1
 90
        0
176
     1
290
     0
176
     1
 90
        1
176
     1
 40
0.0
176
     1
 90
        0
176
     1
290
     1
176
     1
290
     1
176
     1
290
     0
176
     1
290
     0
176
     1
290
     0
176
     1
290
     0
176
     1
290
     0
176
     1
290
     0
176
     1
290
     0
176
     1
 90
       50
176
     1
 40
0.0
176
     1
 40
1.0
176
     1
 90
        0
176
     1
 62
    18
420
        0
176
     1
 90
       50
176
     1
 90
        3
176
     1
 62
     5
420
      255
176
     1
290
     0
176
     1
 90
       50
176
     1
 90
       50
176
     1
 90
       50
176
     1
290
     0
176
     1
 90
       50
176
     1
 62
   256
176
     0
 40
1.0
176
     0
 90
        2
176
     1
  1
strokes_ogs.tif
176
     1
290
     0
176
     1
 40
1.0
176
     1
 40
1.0
176
     1
  0
VISUALSTYLE
  5
499
102
{ACAD_REACTORS
330
491
102
}
330
491
100
AcDbVisualStyle
  2
Basic
 70
     7
177
     3
291
     1
 70
    58
 90
        1
176
     1
 90
        0
176
     1
 90
        1
176
     1
 90
        0
176
     1
 40
0.6
176
     1
 40
30.0
176
     1
 62
     7
420
 16777215
176
     1
 90
        0
176
     1
 90
        4
176
     1
 62
     7
176
     1
 62
   257
176
     1
 90
        1
176
     1
 90
        1
176
     1
 40
1.0
176
     1
 90
        8
176
     1
 62
     7
176
     1
 40
1.0
176
     1
 90
        1
176
     1
 90
        6
176
     1
 90
        2
176
     1
 62
     7
176
     1
 90
        5
176
     1
 90
        0
176
     1
 90
        0
176
     1
290
     0
176
     1
 90
        1
176
     1
 40
0.0
176
     1
 90
        0
176
     1
290
     0
176
     1
290
     1
176
     1
290
     1
176
     1
290
     0
176
     1
290
     0
176
     1
290
     0
176
     1
290
     0
176
     1
290
     0
176
     1
290
     0
176
     1
 90
       50
176
     1
 40
0.0
176
     1
 40
1.0
176
     1
 90
        0
176
     1
 62
    18
420
        0
176
     1
 90
       50
176
     1
 90
        3
176
     1
 62
     5
420
      255
176
     1
290
     0
176
     1
 90
       50
176
     1
 90
       50
176
     1
 90
       50
176
     1
290
     0
176
     1
 90
       50
176
     1
 62
   256
176
     0
 40
1.0
176
     0
 90
        2
176
     1
  1
strokes_ogs.tif
176
     1
290
     0
176
     1
 40
1.0
176
     1
 40
1.0
176
     1
  0
VISUALSTYLE
  5
49D
102
{ACAD_REACTORS
330
491
102
}
330
491
100
AcDbVisualStyle
  2
Brighten
 70
    12
177
     3
291
     1
 70
    58
 90
        2
176
     1
 90
        2
176
     1
 90
        0
176
     1
 90
        0
176
     1
 40
0.6
176
     1
 40
30.0
176
     1
 62
     7
420
 16777215
176
     1
 90
        1
176
     1
 90
        4
176
     1
 62
     7
176
     1
 62
   257
176
     1
 90
        1
176
     1
 90
        1
176
     1
 40
1.0
176
     1
 90
        8
176
     1
 62
     7
176
     1
 40
1.0
176
     1
 90
        1
176
     1
 90
        6
176
     1
 90
        2
176
     1
 62
     7
176
     1
 90
        5
176
     1
 90
        0
176
     1
 90
        0
176
     1
290
     0
176
     1
 90
        1
176
     1
 40
50.0
176
     1
 90
        0
176
     1
290
     0
176
     1
290
     1
176
     1
290
     1
176
     1
290
     0
176
     1
290
     0
176
     1
290
     0
176
     1
290
     0
176
     1
290
     0
176
     1
290
     0
176
     1
 90
       50
176
     1
 40
0.0
176
     1
 40
1.0
176
     1
 90
        0
176
     1
 62
    18
420
        0
176
     1
 90
       50
176
     1
 90
        3
176
     1
 62
     5
420
      255
176
     1
290
     0
176
     1
 90
       50
176
     1
 90
       50
176
     1
 90
       50
176
     1
290
     0
176
     1
 90
       50
176
     1
 62
   256
176
     0
 40
1.0
176
     0
 90
        2
176
     1
  1
strokes_ogs.tif
176
     1
290
     0
176
     1
 40
1.0
176
     1
 40
1.0
176
     1
  0
VISUALSTYLE
  5
4A1
102
{ACAD_REACTORS
330
491
102
}
330
491
100
AcDbVisualStyle
  2
ColorChange
 70
    16
177
     3
291
     1
 70
    58
 90
        2
176
     1
 90
        2
176
     1
 90
        3
176
     1
 90
        0
176
     1
 40
0.6
176
     1
 40
30.0
176
     1
 62
     8
420
  8421504
176
     1
 90
        1
176
     1
 90
        4
176
     1
 62
     7
176
     1
 62
   257
176
     1
 90
        1
176
     1
 90
        1
176
     1
 40
1.0
176
     1
 90
        8
176
     1
 62
     8
420
  8421504
176
     1
 40
1.0
176
     1
 90
        1
176
     1
 90
        6
176
     1
 90
        2
176
     1
 62
     7
176
     1
 90
        5
176
     1
 90
        0
176
     1
 90
        0
176
     1
290
     0
176
     1
 90
        1
176
     1
 40
0.0
176
     1
 90
        0
176
     1
290
     0
176
     1
290
     1
176
     1
290
     1
176
     1
290
     0
176
     1
290
     0
176
     1
290
     0
176
     1
290
     0
176
     1
290
     0
176
     1
290
     0
176
     1
 90
       50
176
     1
 40
0.0
176
     1
 40
1.0
176
     1
 90
        0
176
     1
 62
    18
420
        0
176
     1
 90
       50
176
     1
 90
        3
176
     1
 62
     5
420
      255
176
     1
290
     0
176
     1
 90
       50
176
     1
 90
       50
176
     1
 90
       50
176
     1
290
     0
176
     1
 90
       50
176
     1
 62
   256
176
     0
 40
1.0
176
     0
 90
        2
176
     1
  1
strokes_ogs.tif
176
     1
290
     0
176
     1
 40
1.0
176
     1
 40
1.0
176
     1
  0
VISUALSTYLE
  5
49B
102
{ACAD_REACTORS
330
491
102
}
330
491
100
AcDbVisualStyle
  2
Conceptual
 70
     9
177
     3
291
     0
 70
    58
 90
        3
176
     1
 90
        2
176
     1
 90
        0
176
     1
 90
        0
176
     1
 40
0.6
176
     1
 40
30.0
176
     1
 62
     7
420
 16777215
176
     1
 90
        2
176
     1
 90
        2
176
     1
 62
     7
176
     1
 62
   257
176
     1
 90
        1
176
     1
 90
        1
176
     1
 40
179.0
176
     1
 90
        8
176
     1
 62
     7
176
     1
 40
1.0
176
     1
 90
        1
176
     1
 90
        6
176
     1
 90
        2
176
     1
 62
     7
176
     1
 90
        3
176
     1
 90
        0
176
     1
 90
        0
176
     1
290
     0
176
     1
 90
        1
176
     1
 40
0.0
176
     1
 90
        0
176
     1
290
     0
176
     1
290
     1
176
     1
290
     1
176
     1
290
     0
176
     1
290
     0
176
     1
290
     0
176
     1
290
     0
176
     1
290
     0
176
     1
290
     0
176
     1
 90
       50
176
     1
 40
0.0
176
     1
 40
1.0
176
     1
 90
        0
176
     1
 62
    18
420
        0
176
     1
 90
       50
176
     1
 90
        3
176
     1
 62
     5
420
      255
176
     1
290
     0
176
     1
 90
       50
176
     1
 90
       50
176
     1
 90
       50
176
     1
290
     0
176
     1
 90
       50
176
     1
 62
   256
176
     0
 40
1.0
176
     0
 90
        2
176
     1
  1
strokes_ogs.tif
176
     1
290
     0
176
     1
 40
1.0
176
     1
 40
1.0
176
     1
  0
VISUALSTYLE
  5
49C
102
{ACAD_REACTORS
330
491
102
}
330
491
100
AcDbVisualStyle
  2
Dim
 70
    11
177
     3
291
     1
 70
    58
 90
        2
176
     1
 90
        2
176
     1
 90
        0
176
     1
 90
        0
176
     1
 40
0.6
176
     1
 40
30.0
176
     1
 62
     7
420
 16777215
176
     1
 90
        1
176
     1
 90
        4
176
     1
 62
     7
176
     1
 62
   257
176
     1
 90
        1
176
     1
 90
        1
176
     1
 40
1.0
176
     1
 90
        8
176
     1
 62
     7
176
     1
 40
1.0
176
     1
 90
        1
176
     1
 90
        6
176
     1
 90
        2
176
     1
 62
     7
176
     1
 90
        5
176
     1
 90
        0
176
     1
 90
        0
176
     1
290
     0
176
     1
 90
        1
176
     1
 40
-50.0
176
     1
 90
        0
176
     1
290
     0
176
     1
290
     1
176
     1
290
     1
176
     1
290
     0
176
     1
290
     0
176
     1
290
     0
176
     1
290
     0
176
     1
290
     0
176
     1
290
     0
176
     1
 90
       50
176
     1
 40
0.0
176
     1
 40
1.0
176
     1
 90
        0
176
     1
 62
    18
420
        0
176
     1
 90
       50
176
     1
 90
        3
176
     1
 62
     5
420
      255
176
     1
290
     0
176
     1
 90
       50
176
     1
 90
       50
176
     1
 90
       50
176
     1
290
     0
176
     1
 90
       50
176
     1
 62
   256
176
     0
 40
1.0
176
     0
 90
        2
176
     1
  1
strokes_ogs.tif
176
     1
290
     0
176
     1
 40
1.0
176
     1
 40
1.0
176
     1
  0
VISUALSTYLE
  5
4A4
102
{ACAD_REACTORS
330
491
102
}
330
491
100
AcDbVisualStyle
  2
EdgeColorOff
 70
    22
177
     3
291
     1
 70
    58
 90
        2
176
     0
 90
        2
176
     0
 90
        0
176
     0
 90
        0
176
     0
 40
0.6
176
     0
 40
30.0
176
     0
 62
     7
420
 16777215
176
     0
 90
        1
176
     0
 90
        4
176
     0
 62
     7
176
     0
 62
   257
176
     0
 90
        1
176
     0
 90
        1
176
     0
 40
1.0
176
     0
 90
        8
176
     2
 62
     7
176
     0
 40
1.0
176
     0
 90
        1
176
     0
 90
        6
176
     0
 90
        2
176
     0
 62
     7
176
     0
 90
        5
176
     0
 90
        0
176
     0
 90
        0
176
     0
290
     0
176
     0
 90
        1
176
     0
 40
0.0
176
     0
 90
        0
176
     0
290
     0
176
     0
290
     1
176
     0
290
     1
176
     0
290
     0
176
     0
290
     0
176
     0
290
     0
176
     0
290
     0
176
     0
290
     0
176
     0
290
     0
176
     0
 90
       50
176
     0
 40
0.0
176
     0
 40
1.0
176
     0
 90
        0
176
     0
 62
    18
420
        0
176
     0
 90
       50
176
     0
 90
        3
176
     0
 62
     5
420
      255
176
     0
290
     0
176
     0
 90
       50
176
     0
 90
       50
176
     0
 90
       50
176
     0
290
     0
176
     0
 90
       50
176
     0
 62
   256
176
     0
 40
1.0
176
     0
 90
        2
176
     0
  1
strokes_ogs.tif
176
     0
290
     0
176
     0
 40
1.0
176
     0
 40
1.0
176
     0
  0
VISUALSTYLE
  5
4A0
102
{ACAD_REACTORS
330
491
102
}
330
491
100
AcDbVisualStyle
  2
Facepattern
 70
    15
177
     3
291
     1
 70
    58
 90
        2
176
     1
 90
        2
176
     1
 90
        0
176
     1
 90
        0
176
     1
 40
0.6
176
     1
 40
30.0
176
     1
 62
     7
420
 16777215
176
     1
 90
        1
176
     1
 90
        4
176
     1
 62
     7
176
     1
 62
   257
176
     1
 90
        1
176
     1
 90
        1
176
     1
 40
1.0
176
     1
 90
        8
176
     1
 62
     7
176
     1
 40
1.0
176
     1
 90
        1
176
     1
 90
        6
176
     1
 90
        2
176
     1
 62
     7
176
     1
 90
        5
176
     1
 90
        0
176
     1
 90
        0
176
     1
290
     0
176
     1
 90
        1
176
     1
 40
0.0
176
     1
 90
        0
176
     1
290
     0
176
     1
290
     1
176
     1
290
     1
176
     1
290
     0
176
     1
290
     0
176
     1
290
     0
176
     1
290
     0
176
     1
290
     0
176
     1
290
     0
176
     1
 90
       50
176
     1
 40
0.0
176
     1
 40
1.0
176
     1
 90
        0
176
     1
 62
    18
420
        0
176
     1
 90
       50
176
     1
 90
        3
176
     1
 62
     5
420
      255
176
     1
290
     0
176
     1
 90
       50
176
     1
 90
       50
176
     1
 90
       50
176
     1
290
     0
176
     1
 90
       50
176
     1
 62
   256
176
     0
 40
1.0
176
     0
 90
        2
176
     1
  1
strokes_ogs.tif
176
     1
290
     0
176
     1
 40
1.0
176
     1
 40
1.0
176
     1
  0
VISUALSTYLE
  5
492
102
{ACAD_REACTORS
330
491
102
}
330
491
100
AcDbVisualStyle
  2
Flat
 70
     0
177
     3
291
     1
 70
    58
 90
        2
176
     1
 90
        1
176
     1
 90
        1
176
     1
 90
        2
176
     1
 40
0.6
176
     1
 40
30.0
176
     1
 62
     7
420
 16777215
176
     1
 90
        0
176
     1
 90
        0
176
     1
 62
     7
176
     1
 62
   257
176
     1
 90
        1
176
     1
 90
        1
176
     1
 40
1.0
176
     1
 90
        8
176
     1
 62
     7
176
     1
 40
1.0
176
     1
 90
        1
176
     1
 90
        6
176
     1
 90
        2
176
     1
 62
     7
176
     1
 90
        5
176
     1
 90
        0
176
     1
 90
        0
176
     1
290
     0
176
     1
 90
       13
176
     1
 40
0.0
176
     1
 90
        0
176
     1
290
     0
176
     1
290
     1
176
     1
290
     1
176
     1
290
     0
176
     1
290
     0
176
     1
290
     0
176
     1
290
     0
176
     1
290
     0
176
     1
290
     0
176
     1
 90
       50
176
     1
 40
0.0
176
     1
 40
1.0
176
     1
 90
        0
176
     1
 62
    18
420
        0
176
     1
 90
       50
176
     1
 90
        3
176
     1
 62
     5
420
      255
176
     1
290
     0
176
     1
 90
       50
176
     1
 90
       50
176
     1
 90
       50
176
     1
290
     0
176
     1
 90
       50
176
     1
 62
   256
176
     0
 40
1.0
176
     0
 90
        2
176
     1
  1
strokes_ogs.tif
176
     1
290
     0
176
     1
 40
1.0
176
     1
 40
1.0
176
     1
  0
VISUALSTYLE
  5
493
102
{ACAD_REACTORS
330
491
102
}
330
491
100
AcDbVisualStyle
  2
FlatWithEdges
 70
     1
177
     3
291
     1
 70
    58
 90
        2
176
     1
 90
        1
176
     1
 90
        1
176
     1
 90
        2
176
     1
 40
0.6
176
     1
 40
30.0
176
     1
 62
     7
420
 16777215
176
     1
 90
        1
176
     1
 90
        0
176
     1
 62
     7
176
     1
 62
   257
176
     1
 90
        1
176
     1
 90
        1
176
     1
 40
1.0
176
     1
 90
        0
176
     1
 62
   257
176
     1
 40
1.0
176
     1
 90
        1
176
     1
 90
        6
176
     1
 90
        2
176
     1
 62
     7
176
     1
 90
        5
176
     1
 90
        0
176
     1
 90
        0
176
     1
290
     0
176
     1
 90
       13
176
     1
 40
0.0
176
     1
 90
        0
176
     1
290
     0
176
     1
290
     1
176
     1
290
     1
176
     1
290
     0
176
     1
290
     0
176
     1
290
     0
176
     1
290
     0
176
     1
290
     0
176
     1
290
     0
176
     1
 90
       50
176
     1
 40
0.0
176
     1
 40
1.0
176
     1
 90
        0
176
     1
 62
    18
420
        0
176
     1
 90
       50
176
     1
 90
        3
176
     1
 62
     5
420
      255
176
     1
290
     0
176
     1
 90
       50
176
     1
 90
       50
176
     1
 90
       50
176
     1
290
     0
176
     1
 90
       50
176
     1
 62
   256
176
     0
 40
1.0
176
     0
 90
        2
176
     1
  1
strokes_ogs.tif
176
     1
290
     0
176
     1
 40
1.0
176
     1
 40
1.0
176
     1
  0
VISUALSTYLE
  5
494
102
{ACAD_REACTORS
330
491
102
}
330
491
100
AcDbVisualStyle
  2
Gouraud
 70
     2
177
     3
291
     1
 70
    58
 90
        2
176
     1
 90
        2
176
     1
 90
        1
176
     1
 90
        2
176
     1
 40
0.6
176
     1
 40
30.0
176
     1
 62
     7
420
 16777215
176
     1
 90
        0
176
     1
 90
        0
176
     1
 62
     7
176
     1
 62
   257
176
     1
 90
        1
176
     1
 90
        1
176
     1
 40
1.0
176
     1
 90
        0
176
     1
 62
     7
176
     1
 40
1.0
176
     1
 90
        1
176
     1
 90
        6
176
     1
 90
        2
176
     1
 62
     7
176
     1
 90
        5
176
     1
 90
        0
176
     1
 90
        0
176
     1
290
     0
176
     1
 90
       13
176
     1
 40
0.0
176
     1
 90
        0
176
     1
290
     0
176
     1
290
     1
176
     1
290
     1
176
     1
290
     0
176
     1
290
     0
176
     1
290
     0
176
     1
290
     0
176
     1
290
     0
176
     1
290
     0
176
     1
 90
       50
176
     1
 40
0.0
176
     1
 40
1.0
176
     1
 90
        0
176
     1
 62
    18
420
        0
176
     1
 90
       50
176
     1
 90
        3
176
     1
 62
     5
420
      255
176
     1
290
     0
176
     1
 90
       50
176
     1
 90
       50
176
     1
 90
       50
176
     1
290
     0
176
     1
 90
       50
176
     1
 62
   256
176
     0
 40
1.0
176
     0
 90
        2
176
     1
  1
strokes_ogs.tif
176
     1
290
     0
176
     1
 40
1.0
176
     1
 40
1.0
176
     1
  0
VISUALSTYLE
  5
495
102
{ACAD_REACTORS
330
491
102
}
330
491
100
AcDbVisualStyle
  2
GouraudWithEdges
 70
     3
177
     3
291
     1
 70
    58
 90
        2
176
     1
 90
        2
176
     1
 90
        1
176
     1
 90
        2
176
     1
 40
0.6
176
     1
 40
30.0
176
     1
 62
     7
420
 16777215
176
     1
 90
        1
176
     1
 90
        0
176
     1
 62
     7
176
     1
 62
   257
176
     1
 90
        1
176
     1
 90
        1
176
     1
 40
1.0
176
     1
 90
        0
176
     1
 62
   257
176
     1
 40
1.0
176
     1
 90
        1
176
     1
 90
        6
176
     1
 90
        2
176
     1
 62
     7
176
     1
 90
        5
176
     1
 90
        0
176
     1
 90
        0
176
     1
290
     0
176
     1
 90
       13
176
     1
 40
0.0
176
     1
 90
        0
176
     1
290
     0
176
     1
290
     1
176
     1
290
     1
176
     1
290
     0
176
     1
290
     0
176
     1
290
     0
176
     1
290
     0
176
     1
290
     0
176
     1
290
     0
176
     1
 90
       50
176
     1
 40
0.0
176
     1
 40
1.0
176
     1
 90
        0
176
     1
 62
    18
420
        0
176
     1
 90
       50
176
     1
 90
        3
176
     1
 62
     5
420
      255
176
     1
290
     0
176
     1
 90
       50
176
     1
 90
       50
176
     1
 90
       50
176
     1
290
     0
176
     1
 90
       50
176
     1
 62
   256
176
     0
 40
1.0
176
     0
 90
        2
176
     1
  1
strokes_ogs.tif
176
     1
290
     0
176
     1
 40
1.0
176
     1
 40
1.0
176
     1
  0
VISUALSTYLE
  5
498
102
{ACAD_REACTORS
330
491
102
}
330
491
100
AcDbVisualStyle
  2
Hidden
 70
     6
177
     3
291
     0
 70
    58
 90
        1
176
     1
 90
        2
176
     1
 90
        2
176
     1
 90
        0
176
     1
 40
0.6
176
     1
 40
30.0
176
     1
 62
     7
420
 16777215
176
     1
 90
        2
176
     1
 90
        2
176
     1
 62
     7
176
     1
 62
   257
176
     1
 90
        2
176
     1
 90
        1
176
     1
 40
40.0
176
     1
 90
        0
176
     1
 62
   257
176
     1
 40
1.0
176
     1
 90
        1
176
     1
 90
        6
176
     1
 90
        2
176
     1
 62
     7
176
     1
 90
        3
176
     1
 90
        0
176
     1
 90
        0
176
     1
290
     0
176
     1
 90
        1
176
     1
 40
0.0
176
     1
 90
        0
176
     1
290
     0
176
     1
290
     1
176
     1
290
     1
176
     1
290
     0
176
     1
290
     0
176
     1
290
     0
176
     1
290
     0
176
     1
290
     0
176
     1
290
     0
176
     1
 90
       50
176
     1
 40
0.0
176
     1
 40
1.0
176
     1
 90
        0
176
     1
 62
    18
420
        0
176
     1
 90
       50
176
     1
 90
        3
176
     1
 62
     5
420
      255
176
     1
290
     0
176
     1
 90
       50
176
     1
 90
       50
176
     1
 90
       50
176
     1
290
     0
176
     1
 90
       50
176
     1
 62
   256
176
     0
 40
1.0
176
     0
 90
        2
176
     1
  1
strokes_ogs.tif
176
     1
290
     0
176
     1
 40
1.0
176
     1
 40
1.0
176
     1
  0
VISUALSTYLE
  5
4A2
102
{ACAD_REACTORS
330
491
102
}
330
491
100
AcDbVisualStyle
  2
JitterOff
 70
    20
177
     3
291
     1
 70
    58
 90
        2
176
     0
 90
        2
176
     0
 90
        0
176
     0
 90
        0
176
     0
 40
0.6
176
     0
 40
30.0
176
     0
 62
     7
420
 16777215
176
     0
 90
        1
176
     0
 90
        4
176
     0
 62
     7
176
     0
 62
   257
176
     0
 90
        1
176
     0
 90
        1
176
     0
 40
1.0
176
     0
 90
       10
176
     2
 62
     7
176
     0
 40
1.0
176
     0
 90
        1
176
     0
 90
        6
176
     0
 90
        2
176
     0
 62
     7
176
     0
 90
        5
176
     0
 90
        0
176
     0
 90
        0
176
     0
290
     0
176
     0
 90
        1
176
     0
 40
0.0
176
     0
 90
        0
176
     0
290
     0
176
     0
290
     1
176
     0
290
     1
176
     0
290
     0
176
     0
290
     0
176
     0
290
     0
176
     0
290
     0
176
     0
290
     0
176
     0
290
     0
176
     0
 90
       50
176
     0
 40
0.0
176
     0
 40
1.0
176
     0
 90
        0
176
     0
 62
    18
420
        0
176
     0
 90
       50
176
     0
 90
        3
176
     0
 62
     5
420
      255
176
     0
290
     0
176
     0
 90
       50
176
     0
 90
       50
176
     0
 90
       50
176
     0
290
     0
176
     0
 90
       50
176
     0
 62
   256
176
     0
 40
1.0
176
     0
 90
        2
176
     0
  1
strokes_ogs.tif
176
     0
290
     0
176
     0
 40
1.0
176
     0
 40
1.0
176
     0
  0
VISUALSTYLE
  5
49F
102
{ACAD_REACTORS
330
491
102
}
330
491
100
AcDbVisualStyle
  2
Linepattern
 70
    14
177
     3
291
     1
 70
    58
 90
        2
176
     1
 90
        2
176
     1
 90
        0
176
     1
 90
        0
176
     1
 40
0.6
176
     1
 40
30.0
176
     1
 62
     7
420
 16777215
176
     1
 90
        1
176
     1
 90
        4
176
     1
 62
     7
176
     1
 62
   257
176
     1
 90
        7
176
     1
 90
        7
176
     1
 40
1.0
176
     1
 90
        8
176
     1
 62
     7
176
     1
 40
1.0
176
     1
 90
        1
176
     1
 90
        6
176
     1
 90
        2
176
     1
 62
     7
176
     1
 90
        5
176
     1
 90
        0
176
     1
 90
        0
176
     1
290
     0
176
     1
 90
        1
176
     1
 40
0.0
176
     1
 90
        0
176
     1
290
     0
176
     1
290
     1
176
     1
290
     1
176
     1
290
     0
176
     1
290
     0
176
     1
290
     0
176
     1
290
     0
176
     1
290
     0
176
     1
290
     0
176
     1
 90
       50
176
     1
 40
0.0
176
     1
 40
1.0
176
     1
 90
        0
176
     1
 62
    18
420
        0
176
     1
 90
       50
176
     1
 90
        3
176
     1
 62
     5
420
      255
176
     1
290
     0
176
     1
 90
       50
176
     1
 90
       50
176
     1
 90
       50
176
     1
290
     0
176
     1
 90
       50
176
     1
 62
   256
176
     0
 40
1.0
176
     0
 90
        2
176
     1
  1
strokes_ogs.tif
176
     1
290
     0
176
     1
 40
1.0
176
     1
 40
1.0
176
     1
  0
VISUALSTYLE
  5
4A3
102
{ACAD_REACTORS
330
491
102
}
330
491
100
AcDbVisualStyle
  2
OverhangOff
 70
    21
177
     3
291
     1
 70
    58
 90
        2
176
     0
 90
        2
176
     0
 90
        0
176
     0
 90
        0
176
     0
 40
0.6
176
     0
 40
30.0
176
     0
 62
     7
420
 16777215
176
     0
 90
        1
176
     0
 90
        4
176
     0
 62
     7
176
     0
 62
   257
176
     0
 90
        1
176
     0
 90
        1
176
     0
 40
1.0
176
     0
 90
        9
176
     2
 62
     7
176
     0
 40
1.0
176
     0
 90
        1
176
     0
 90
        6
176
     0
 90
        2
176
     0
 62
     7
176
     0
 90
        5
176
     0
 90
        0
176
     0
 90
        0
176
     0
290
     0
176
     0
 90
        1
176
     0
 40
0.0
176
     0
 90
        0
176
     0
290
     0
176
     0
290
     1
176
     0
290
     1
176
     0
290
     0
176
     0
290
     0
176
     0
290
     0
176
     0
290
     0
176
     0
290
     0
176
     0
290
     0
176
     0
 90
       50
176
     0
 40
0.0
176
     0
 40
1.0
176
     0
 90
        0
176
     0
 62
    18
420
        0
176
     0
 90
       50
176
     0
 90
        3
176
     0
 62
     5
420
      255
176
     0
290
     0
176
     0
 90
       50
176
     0
 90
       50
176
     0
 90
       50
176
     0
290
     0
176
     0
 90
       50
176
     0
 62
   256
176
     0
 40
1.0
176
     0
 90
        2
176
     0
  1
strokes_ogs.tif
176
     0
290
     0
176
     0
 40
1.0
176
     0
 40
1.0
176
     0
  0
VISUALSTYLE
  5
49A
102
{ACAD_REACTORS
330
491
102
}
330
491
100
AcDbVisualStyle
  2
Realistic
 70
     8
177
     3
291
     0
 70
    58
 90
        2
176
     1
 90
        3
176
     1
 90
        0
176
     1
 90
        2
176
     1
 40
0.6
176
     1
 40
30.0
176
     1
 62
     7
420
 16777215
176
     1
 90
        0
176
     1
 90
        0
176
     1
 62
     7
176
     1
 62
   257
176
     1
 90
        1
176
     1
 90
        1
176
     1
 40
1.0
176
     1
 90
        8
176
     1
 62
   257
176
     1
 40
1.0
176
     1
 90
        1
176
     1
 90
        6
176
     1
 90
        2
176
     1
 62
     7
176
     1
 90
        3
176
     1
 90
        0
176
     1
 90
        0
176
     1
290
     0
176
     1
 90
       13
176
     1
 40
0.0
176
     1
 90
        0
176
     1
290
     0
176
     1
290
     1
176
     1
290
     1
176
     1
290
     0
176
     1
290
     0
176
     1
290
     0
176
     1
290
     0
176
     1
290
     0
176
     1
290
     0
176
     1
 90
       50
176
     1
 40
0.0
176
     1
 40
1.0
176
     1
 90
        0
176
     1
 62
    18
420
        0
176
     1
 90
       50
176
     1
 90
        3
176
     1
 62
     5
420
      255
176
     1
290
     0
176
     1
 90
       50
176
     1
 90
       50
176
     1
 90
       50
176
     1
290
     0
176
     1
 90
       50
176
     1
 62
   256
176
     0
 40
1.0
176
     0
 90
        2
176
     1
  1
strokes_ogs.tif
176
     1
290
     0
176
     1
 40
1.0
176
     1
 40
1.0
176
     1
  0
VISUALSTYLE
  5
4A9
102
{ACAD_REACTORS
330
491
102
}
330
491
100
AcDbVisualStyle
  2
Shaded
 70
    27
177
     3
291
     0
 70
    58
 90
        2
176
     1
 90
        2
176
     1
 90
        1
176
     1
 90
        2
176
     1
 40
0.6
176
     1
 40
30.0
176
     1
 62
     7
420
 16777215
176
     1
 90
        0
176
     1
 90
        4
176
     1
 62
     7
176
     1
 62
   257
176
     1
 90
        1
176
     1
 90
        1
176
     1
 40
1.0
176
     1
 90
        8
176
     1
 62
   257
176
     1
 40
1.0
176
     1
 90
        1
176
     1
 90
        6
176
     1
 90
        2
176
     1
 62
     8
420
  7895160
176
     1
 90
        3
176
     1
 90
        0
176
     1
 90
        0
176
     1
290
     0
176
     1
 90
        5
176
     1
 40
0.0
176
     1
 90
        0
176
     1
290
     0
176
     1
290
     1
176
     1
290
     1
176
     1
290
     0
176
     1
290
     0
176
     1
290
     0
176
     1
290
     0
176
     1
290
     0
176
     1
290
     0
176
     1
 90
       50
176
     1
 40
0.0
176
     1
 40
1.0
176
     1
 90
        0
176
     1
 62
    18
420
        0
176
     1
 90
       50
176
     1
 90
        3
176
     1
 62
     5
420
      255
176
     1
290
     0
176
     1
 90
       50
176
     1
 90
       50
176
     1
 90
       50
176
     1
290
     0
176
     1
 90
       50
176
     1
 62
   256
176
     0
 40
1.0
176
     0
 90
        2
176
     1
  1
strokes_ogs.tif
176
     1
290
     0
176
     1
 40
1.0
176
     1
 40
1.0
176
     1
  0
VISUALSTYLE
  5
4A8
102
{ACAD_REACTORS
330
491
102
}
330
491
100
AcDbVisualStyle
  2
Shaded with edges
 70
    26
177
     3
291
     0
 70
    58
 90
        2
176
     1
 90
        2
176
     1
 90
        1
176
     1
 90
        2
176
     1
 40
0.6
176
     1
 40
30.0
176
     1
 62
     7
420
 16777215
176
     1
 90
        1
176
     1
 90
       10
176
     1
 62
     7
176
     1
 62
   257
176
     1
 90
        2
176
     1
 90
        1
176
     1
 40
1.0
176
     1
 90
        8
176
     1
 62
   257
176
     1
 40
1.0
176
     1
 90
        1
176
     1
 90
        6
176
     1
 90
        2
176
     1
 62
     7
176
     1
 90
        3
176
     1
 90
        0
176
     1
 90
        0
176
     1
290
     0
176
     1
 90
        5
176
     1
 40
0.0
176
     1
 90
        0
176
     1
290
     0
176
     1
290
     1
176
     1
290
     1
176
     1
290
     0
176
     1
290
     0
176
     1
290
     0
176
     1
290
     0
176
     1
290
     0
176
     1
290
     0
176
     1
 90
       50
176
     1
 40
0.0
176
     1
 40
1.0
176
     1
 90
        0
176
     1
 62
    18
420
        0
176
     1
 90
       50
176
     1
 90
        3
176
     1
 62
     5
420
      255
176
     1
290
     0
176
     1
 90
       50
176
     1
 90
       50
176
     1
 90
       50
176
     1
290
     0
176
     1
 90
       50
176
     1
 62
   256
176
     0
 40
1.0
176
     0
 90
        2
176
     1
  1
strokes_ogs.tif
176
     1
290
     0
176
     1
 40
1.0
176
     1
 40
1.0
176
     1
  0
VISUALSTYLE
  5
4A5
102
{ACAD_REACTORS
330
491
102
}
330
491
100
AcDbVisualStyle
  2
Shades of Gray
 70
    23
177
     3
291
     0
 70
    58
 90
        2
176
     1
 90
        2
176
     1
 90
        3
176
     1
 90
        0
176
     1
 40
0.6
176
     1
 40
30.0
176
     1
 62
     7
420
 16777215
176
     1
 90
        2
176
     1
 90
        2
176
     1
 62
     7
176
     1
 62
     7
176
     1
 90
        1
176
     1
 90
        1
176
     1
 40
40.0
176
     1
 90
        8
176
     1
 62
     7
176
     1
 40
1.0
176
     1
 90
        1
176
     1
 90
        6
176
     1
 90
        2
176
     1
 62
     7
176
     1
 90
        3
176
     1
 90
        0
176
     1
 90
        0
176
     1
290
     0
176
     1
 90
        1
176
     1
 40
0.0
176
     1
 90
        0
176
     1
290
     0
176
     1
290
     1
176
     1
290
     1
176
     1
290
     0
176
     1
290
     0
176
     1
290
     0
176
     1
290
     0
176
     1
290
     0
176
     1
290
     0
176
     1
 90
       50
176
     1
 40
0.0
176
     1
 40
1.0
176
     1
 90
        0
176
     1
 62
    18
420
        0
176
     1
 90
       50
176
     1
 90
        3
176
     1
 62
     5
420
      255
176
     1
290
     0
176
     1
 90
       50
176
     1
 90
       50
176
     1
 90
       50
176
     1
290
     0
176
     1
 90
       50
176
     1
 62
   256
176
     0
 40
1.0
176
     0
 90
        2
176
     1
  1
strokes_ogs.tif
176
     1
290
     0
176
     1
 40
1.0
176
     1
 40
1.0
176
     1
  0
VISUALSTYLE
  5
4A6
102
{ACAD_REACTORS
330
491
102
}
330
491
100
AcDbVisualStyle
  2
Sketchy
 70
    24
177
     3
291
     0
 70
    58
 90
        1
176
     1
 90
        2
176
     1
 90
        2
176
     1
 90
        0
176
     1
 40
0.6
176
     1
 40
30.0
176
     1
 62
     7
420
 16777215
176
     1
 90
        2
176
     1
 90
        2
176
     1
 62
     7
176
     1
 62
     7
176
     1
 90
        1
176
     1
 90
        1
176
     1
 40
40.0
176
     1
 90
       11
176
     1
 62
     7
176
     1
 40
1.0
176
     1
 90
        1
176
     1
 90
        6
176
     1
 90
        2
176
     1
 62
     7
176
     1
 90
        6
176
     1
 90
        0
176
     1
 90
        0
176
     1
290
     0
176
     1
 90
        1
176
     1
 40
0.0
176
     1
 90
        0
176
     1
290
     0
176
     1
290
     1
176
     1
290
     1
176
     1
290
     0
176
     1
290
     0
176
     1
290
     0
176
     1
290
     0
176
     1
290
     0
176
     1
290
     0
176
     1
 90
       50
176
     1
 40
0.0
176
     1
 40
1.0
176
     1
 90
        0
176
     1
 62
    18
420
        0
176
     1
 90
       50
176
     1
 90
        3
176
     1
 62
     5
420
      255
176
     1
290
     0
176
     1
 90
       50
176
     1
 90
       50
176
     1
 90
       50
176
     1
290
     0
176
     1
 90
       50
176
     1
 62
   256
176
     0
 40
1.0
176
     0
 90
        2
176
     1
  1
strokes_ogs.tif
176
     1
290
     0
176
     1
 40
1.0
176
     1
 40
1.0
176
     1
  0
VISUALSTYLE
  5
49E
102
{ACAD_REACTORS
330
491
102
}
330
491
100
AcDbVisualStyle
  2
Thicken
 70
    13
177
     3
291
     1
 70
    58
 90
        2
176
     1
 90
        2
176
     1
 90
        0
176
     1
 90
        0
176
     1
 40
0.6
176
     1
 40
30.0
176
     1
 62
     7
420
 16777215
176
     1
 90
        1
176
     1
 90
        4
176
     1
 62
     7
176
     1
 62
   257
176
     1
 90
        1
176
     1
 90
        1
176
     1
 40
1.0
176
     1
 90
       12
176
     1
 62
     7
176
     1
 40
1.0
176
     1
 90
        1
176
     1
 90
        6
176
     1
 90
        2
176
     1
 62
     7
176
     1
 90
        5
176
     1
 90
        0
176
     1
 90
        0
176
     1
290
     0
176
     1
 90
        1
176
     1
 40
0.0
176
     1
 90
        0
176
     1
290
     0
176
     1
290
     1
176
     1
290
     1
176
     1
290
     0
176
     1
290
     0
176
     1
290
     0
176
     1
290
     0
176
     1
290
     0
176
     1
290
     0
176
     1
 90
       50
176
     1
 40
0.0
176
     1
 40
1.0
176
     1
 90
        0
176
     1
 62
    18
420
        0
176
     1
 90
       50
176
     1
 90
        3
176
     1
 62
     5
420
      255
176
     1
290
     0
176
     1
 90
       50
176
     1
 90
       50
176
     1
 90
       50
176
     1
290
     0
176
     1
 90
       50
176
     1
 62
   256
176
     0
 40
1.0
176
     0
 90
        2
176
     1
  1
strokes_ogs.tif
176
     1
290
     0
176
     1
 40
1.0
176
     1
 40
1.0
176
     1
  0
VISUALSTYLE
  5
497
102
{ACAD_REACTORS
330
491
102
}
330
491
100
AcDbVisualStyle
  2
Wireframe
 70
     5
177
     3
291
     0
 70
    58
 90
        0
176
     1
 90
        2
176
     1
 90
        0
176
     1
 90
        0
176
     1
 40
0.6
176
     1
 40
30.0
176
     1
 62
     7
420
 16777215
176
     1
 90
        1
176
     1
 90
        4
176
     1
 62
     7
176
     1
 62
   257
176
     1
 90
        1
176
     1
 90
        1
176
     1
 40
1.0
176
     1
 90
        0
176
     1
 62
   257
176
     1
 40
1.0
176
     1
 90
        1
176
     1
 90
        6
176
     1
 90
        2
176
     1
 62
     7
176
     1
 90
        3
176
     1
 90
        0
176
     1
 90
        0
176
     1
290
     0
176
     1
 90
        1
176
     1
 40
0.0
176
     1
 90
        0
176
     1
290
     0
176
     1
290
     1
176
     1
290
     1
176
     1
290
     0
176
     1
290
     0
176
     1
290
     0
176
     1
290
     0
176
     1
290
     0
176
     1
290
     0
176
     1
 90
       50
176
     1
 40
0.0
176
     1
 40
1.0
176
     1
 90
        0
176
     1
 62
    18
420
        0
176
     1
 90
       50
176
     1
 90
        3
176
     1
 62
     5
420
      255
176
     1
290
     0
176
     1
 90
       50
176
     1
 90
       50
176
     1
 90
       50
176
     1
290
     0
176
     1
 90
       50
176
     1
 62
   256
176
     0
 40
1.0
176
     0
 90
        2
176
     1
  1
strokes_ogs.tif
176
     1
290
     0
176
     1
 40
1.0
176
     1
 40
1.0
176
     1
  0
VISUALSTYLE
  5
4A7
102
{ACAD_REACTORS
330
491
102
}
330
491
100
AcDbVisualStyle
  2
X-Ray
 70
    25
177
     3
291
     0
 70
    58
 90
        2
176
     1
 90
        2
176
     1
 90
        1
176
     1
 90
        1
176
     1
 40
0.5
176
     1
 40
30.0
176
     1
 62
     7
420
 16777215
176
     1
 90
        1
176
     1
 90
        0
176
     1
 62
     7
176
     1
 62
   257
176
     1
 90
        1
176
     1
 90
        1
176
     1
 40
1.0
176
     1
 90
        8
176
     1
 62
     7
176
     1
 40
1.0
176
     1
 90
        1
176
     1
 90
        6
176
     1
 90
        2
176
     1
 62
     7
176
     1
 90
        3
176
     1
 90
        0
176
     1
 90
        0
176
     1
290
     0
176
     1
 90
       13
176
     1
 40
0.0
176
     1
 90
        0
176
     1
290
     0
176
     1
290
     1
176
     1
290
     1
176
     1
290
     0
176
     1
290
     0
176
     1
290
     0
176
     1
290
     0
176
     1
290
     0
176
     1
290
     0
176
     1
 90
       50
176
     1
 40
0.0
176
     1
 40
1.0
176
     1
 90
        0
176
     1
 62
    18
420
        0
176
     1
 90
       50
176
     1
 90
        3
176
     1
 62
     5
420
      255
176
     1
290
     0
176
     1
 90
       50
176
     1
 90
       50
176
     1
 90
       50
176
     1
290
     0
176
     1
 90
       50
176
     1
 62
   256
176
     0
 40
1.0
176
     0
 90
        2
176
     1
  1
strokes_ogs.tif
176
     1
290
     0
176
     1
 40
1.0
176
     1
 40
1.0
176
     1
  0
DICTIONARYVAR
  5
4B4
102
{ACAD_REACTORS
330
4B3
102
}
330
4B3
100
DictionaryVariables
280
     0
  1
1:1
  0
DICTIONARYVAR
  5
4B9
102
{ACAD_REACTORS
330
4B3
102
}
330
4B3
100
DictionaryVariables
280
     0
  1
Standard
  0
DICTIONARYVAR
  5
4B8
102
{ACAD_REACTORS
330
4B3
102
}
330
4B3
100
DictionaryVariables
280
     0
  1
Standard
  0
DICTIONARYVAR
  5
4BA
102
{ACAD_REACTORS
330
4B3
102
}
330
4B3
100
DictionaryVariables
280
     0
  1
0
  0
DICTIONARY
  5
4B5
330
4AF
100
AcDbDictionary
280
     1
281
     1
  3
ACAD_ROUNDTRIP_2008_TABLESTYLE_CELLSTYLEMAP
360
4B6
  0
CELLSTYLEMAP
  5
4B6
102
{ACAD_REACTORS
330
4B5
102
}
330
4B5
100
AcDbCellStyleMap
 90
        3
300
CELLSTYLE
  1
TABLEFORMAT_BEGIN
 90
        5
170
     1
 91
        0
 92
    32768
 62
   257
 93
        1
300
CONTENTFORMAT
  1
CONTENTFORMAT_BEGIN
 90
        0
 91
        0
 92
        4
 93
        0
300

 40
0.0
140
1.0
 94
        5
 62
     0
340
11
144
6.0
309
CONTENTFORMAT_END
171
     1
301
MARGIN
  1
CELLMARGIN_BEGIN
 40
1.5
 40
1.5
 40
1.5
 40
1.5
 40
1.5
 40
1.5
309
CELLMARGIN_END
 94
        6
 95
        1
302
GRIDFORMAT
  1
GRIDFORMAT_BEGIN
 90
        0
 91
        1
 62
     0
 92
       -2
340
14
 93
        0
 40
0.045
309
GRIDFORMAT_END
 95
        2
302
GRIDFORMAT
  1
GRIDFORMAT_BEGIN
 90
        0
 91
        1
 62
     0
 92
       -2
340
14
 93
        0
 40
0.045
309
GRIDFORMAT_END
 95
        4
302
GRIDFORMAT
  1
GRIDFORMAT_BEGIN
 90
        0
 91
        1
 62
     0
 92
       -2
340
14
 93
        0
 40
0.045
309
GRIDFORMAT_END
 95
        8
302
GRIDFORMAT
  1
GRIDFORMAT_BEGIN
 90
        0
 91
        1
 62
     0
 92
       -2
340
14
 93
        0
 40
0.045
309
GRIDFORMAT_END
 95
       16
302
GRIDFORMAT
  1
GRIDFORMAT_BEGIN
 90
        0
 91
        1
 62
     0
 92
       -2
340
14
 93
        0
 40
0.045
309
GRIDFORMAT_END
 95
       32
302
GRIDFORMAT
  1
GRIDFORMAT_BEGIN
 90
        0
 91
        1
 62
     0
 92
       -2
340
14
 93
        0
 40
0.045
309
GRIDFORMAT_END
309
TABLEFORMAT_END
  1
CELLSTYLE_BEGIN
 90
        1
 91
        1
300
_TITLE
309
CELLSTYLE_END
300
CELLSTYLE
  1
TABLEFORMAT_BEGIN
 90
        5
170
     1
 91
        0
 92
        0
 62
   257
 93
        1
300
CONTENTFORMAT
  1
CONTENTFORMAT_BEGIN
 90
        0
 91
        0
 92
        4
 93
        0
300

 40
0.0
140
1.0
 94
        5
 62
     0
340
11
144
4.5
309
CONTENTFORMAT_END
171
     1
301
MARGIN
  1
CELLMARGIN_BEGIN
 40
1.5
 40
1.5
 40
1.5
 40
1.5
 40
1.5
 40
1.5
309
CELLMARGIN_END
 94
        6
 95
        1
302
GRIDFORMAT
  1
GRIDFORMAT_BEGIN
 90
        0
 91
        1
 62
     0
 92
       -2
340
14
 93
        0
 40
0.045
309
GRIDFORMAT_END
 95
        2
302
GRIDFORMAT
  1
GRIDFORMAT_BEGIN
 90
        0
 91
        1
 62
     0
 92
       -2
340
14
 93
        0
 40
0.045
309
GRIDFORMAT_END
 95
        4
302
GRIDFORMAT
  1
GRIDFORMAT_BEGIN
 90
        0
 91
        1
 62
     0
 92
       -2
340
14
 93
        0
 40
0.045
309
GRIDFORMAT_END
 95
        8
302
GRIDFORMAT
  1
GRIDFORMAT_BEGIN
 90
        0
 91
        1
 62
     0
 92
       -2
340
14
 93
        0
 40
0.045
309
GRIDFORMAT_END
 95
       16
302
GRIDFORMAT
  1
GRIDFORMAT_BEGIN
 90
        0
 91
        1
 62
     0
 92
       -2
340
14
 93
        0
 40
0.045
309
GRIDFORMAT_END
 95
       32
302
GRIDFORMAT
  1
GRIDFORMAT_BEGIN
 90
        0
 91
        1
 62
     0
 92
       -2
340
14
 93
        0
 40
0.045
309
GRIDFORMAT_END
309
TABLEFORMAT_END
  1
CELLSTYLE_BEGIN
 90
        2
 91
        1
300
_HEADER
309
CELLSTYLE_END
300
CELLSTYLE
  1
TABLEFORMAT_BEGIN
 90
        5
170
     1
 91
        0
 92
        0
 62
   257
 93
        1
300
CONTENTFORMAT
  1
CONTENTFORMAT_BEGIN
 90
        0
 91
        0
 92
        4
 93
        0
300

 40
0.0
140
1.0
 94
        2
 62
     0
340
11
144
4.5
309
CONTENTFORMAT_END
171
     1
301
MARGIN
  1
CELLMARGIN_BEGIN
 40
1.5
 40
1.5
 40
1.5
 40
1.5
 40
1.5
 40
1.5
309
CELLMARGIN_END
 94
        6
 95
        1
302
GRIDFORMAT
  1
GRIDFORMAT_BEGIN
 90
        0
 91
        1
 62
     0
 92
       -2
340
14
 93
        0
 40
0.045
309
GRIDFORMAT_END
 95
        2
302
GRIDFORMAT
  1
GRIDFORMAT_BEGIN
 90
        0
 91
        1
 62
     0
 92
       -2
340
14
 93
        0
 40
0.045
309
GRIDFORMAT_END
 95
        4
302
GRIDFORMAT
  1
GRIDFORMAT_BEGIN
 90
        0
 91
        1
 62
     0
 92
       -2
340
14
 93
        0
 40
0.045
309
GRIDFORMAT_END
 95
        8
302
GRIDFORMAT
  1
GRIDFORMAT_BEGIN
 90
        0
 91
        1
 62
     0
 92
       -2
340
14
 93
        0
 40
0.045
309
GRIDFORMAT_END
 95
       16
302
GRIDFORMAT
  1
GRIDFORMAT_BEGIN
 90
        0
 91
        1
 62
     0
 92
       -2
340
14
 93
        0
 40
0.045
309
GRIDFORMAT_END
 95
       32
302
GRIDFORMAT
  1
GRIDFORMAT_BEGIN
 90
        0
 91
        1
 62
     0
 92
       -2
340
14
 93
        0
 40
0.045
309
GRIDFORMAT_END
309
TABLEFORMAT_END
  1
CELLSTYLE_BEGIN
 90
        3
 91
        2
300
_DATA
309
CELLSTYLE_END
  0
ENDSEC
  0
EOF
