  0
SECTION
  2
HEADER
  9
$ACADVER
  1
AC1027
  9
$ACADMAINTVER
 70
   105
  9
$DWGCODEPAGE
  3
ANSI_1252
  9
$REQUIREDVERSIONS
160
                 0
  9
$LASTSAVEDBY
  1
andrea.zolin
  9
$INSBASE
 10
0.0
 20
0.0
 30
0.0
  9
$EXTMIN
 10
0.0
 20
0.0
 30
0.0
  9
$EXTMAX
 10
420.0
 20
594.0
 30
0.0
  9
$LIMMIN
 10
0.0
 20
0.0
  9
$LIMMAX
 10
420.0
 20
594.0
  9
$ORTHOMODE
 70
     0
  9
$REGENMODE
 70
     1
  9
$FILLMODE
 70
     1
  9
$QTEXTMODE
 70
     0
  9
$MIRRTEXT
 70
     1
  9
$LTSCALE
 40
38.72
  9
$ATTMODE
 70
     1
  9
$TEXTSIZE
 40
0.2
  9
$TRACEWID
 40
0.05
  9
$TEXTSTYLE
  7
STANDARD
  9
$CLAYER
  8
0
  9
$CELTYPE
  6
BYLAYER
  9
$CECOLOR
 62
   256
  9
$CELTSCALE
 40
1.0
  9
$DISPSILH
 70
     0
  9
$DIMSCALE
 40
1.0
  9
$DIMASZ
 40
2.5
  9
$DIMEXO
 40
0.75
  9
$DIMDLI
 40
26.752
  9
$DIMRND
 40
0.0
  9
$DIMDLE
 40
0.0
  9
$DIMEXE
 40
0.75
  9
$DIMTP
 40
0.01
  9
$DIMTM
 40
0.01
  9
$DIMTXT
 40
3.0
  9
$DIMCEN
 40
6.336
  9
$DIMTSZ
 40
0.0
  9
$DIMTOL
 70
     1
  9
$DIMLIM
 70
     0
  9
$DIMTIH
 70
     1
  9
$DIMTOH
 70
     1
  9
$DIMSE1
 70
     0
  9
$DIMSE2
 70
     0
  9
$DIMTAD
 70
     0
  9
$DIMZIN
 70
     0
  9
$DIMBLK
  1
CLOSED
  9
$DIMASO
 70
     1
  9
$DIMSHO
 70
     1
  9
$DIMPOST
  1

  9
$DIMAPOST
  1

  9
$DIMALT
 70
     0
  9
$DIMALTD
 70
     2
  9
$DIMALTF
 40
25.4
  9
$DIMLFAC
 40
1.0
  9
$DIMTOFL
 70
     0
  9
$DIMTVP
 40
0.0
  9
$DIMTIX
 70
     0
  9
$DIMSOXD
 70
     0
  9
$DIMSAH
 70
     0
  9
$DIMBLK1
  1

  9
$DIMBLK2
  1

  9
$DIMSTYLE
  2
STANDARD
  9
$DIMCLRD
 70
     0
  9
$DIMCLRE
 70
     0
  9
$DIMCLRT
 70
     0
  9
$DIMTFAC
 40
1.0
  9
$DIMGAP
 40
0.625
  9
$DIMJUST
 70
     0
  9
$DIMSD1
 70
     0
  9
$DIMSD2
 70
     0
  9
$DIMTOLJ
 70
     1
  9
$DIMTZIN
 70
     0
  9
$DIMALTZ
 70
     0
  9
$DIMALTTZ
 70
     0
  9
$DIMUPT
 70
     0
  9
$DIMDEC
 70
     4
  9
$DIMTDEC
 70
     4
  9
$DIMALTU
 70
     2
  9
$DIMALTTD
 70
     2
  9
$DIMTXSTY
  7
STANDARD
  9
$DIMAUNIT
 70
     0
  9
$DIMADEC
 70
     0
  9
$DIMALTRND
 40
0.0
  9
$DIMAZIN
 70
     0
  9
$DIMDSEP
 70
    46
  9
$DIMATFIT
 70
     3
  9
$DIMFRAC
 70
     0
  9
$DIMLDRBLK
  1

  9
$DIMLUNIT
 70
     2
  9
$DIMLWD
 70
    -2
  9
$DIMLWE
 70
    -2
  9
$DIMTMOVE
 70
     2
  9
$DIMFXL
 40
1.0
  9
$DIMFXLON
 70
     0
  9
$DIMJOGANG
 40
0.7853981633974483
  9
$DIMTFILL
 70
     0
  9
$DIMTFILLCLR
 70
     0
  9
$DIMARCSYM
 70
     0
  9
$DIMLTYPE
  6

  9
$DIMLTEX1
  6

  9
$DIMLTEX2
  6

  9
$DIMTXTDIRECTION
 70
     0
  9
$LUNITS
 70
     2
  9
$LUPREC
 70
     4
  9
$SKETCHINC
 40
0.1
  9
$FILLETRAD
 40
0.5
  9
$AUNITS
 70
     0
  9
$AUPREC
 70
     0
  9
$MENU
  1
.
  9
$ELEVATION
 40
0.0
  9
$PELEVATION
 40
0.0
  9
$THICKNESS
 40
0.0
  9
$LIMCHECK
 70
     0
  9
$CHAMFERA
 40
0.0
  9
$CHAMFERB
 40
0.0
  9
$CHAMFERC
 40
0.0
  9
$CHAMFERD
 40
0.0
  9
$SKPOLY
 70
     0
  9
$TDCREATE
 40
2447893.041666667
  9
$TDUCREATE
 40
0.0
  9
$TDUPDATE
 40
2458473.696592326
  9
$TDUUPDATE
 40
2458473.65492566
  9
$TDINDWG
 40
0.0004217361
  9
$TDUSRTIMER
 40
0.0004217361
  9
$USRTIMER
 70
     1
  9
$ANGBASE
 50
0.0
  9
$ANGDIR
 70
     0
  9
$PDMODE
 70
     3
  9
$PDSIZE
 40
0.3125
  9
$PLINEWID
 40
0.0
  9
$SPLFRAME
 70
     0
  9
$SPLINETYPE
 70
     6
  9
$SPLINESEGS
 70
     8
  9
$HANDSEED
  5
56C
  9
$SURFTAB1
 70
     6
  9
$SURFTAB2
 70
     6
  9
$SURFTYPE
 70
     6
  9
$SURFU
 70
     6
  9
$SURFV
 70
     6
  9
$UCSBASE
  2

  9
$UCSNAME
  2

  9
$UCSORG
 10
0.0
 20
0.0
 30
0.0
  9
$UCSXDIR
 10
1.0
 20
0.0
 30
0.0
  9
$UCSYDIR
 10
0.0
 20
1.0
 30
0.0
  9
$UCSORTHOREF
  2

  9
$UCSORTHOVIEW
 70
     0
  9
$UCSORGTOP
 10
0.0
 20
0.0
 30
0.0
  9
$UCSORGBOTTOM
 10
0.0
 20
0.0
 30
0.0
  9
$UCSORGLEFT
 10
0.0
 20
0.0
 30
0.0
  9
$UCSORGRIGHT
 10
0.0
 20
0.0
 30
0.0
  9
$UCSORGFRONT
 10
0.0
 20
0.0
 30
0.0
  9
$UCSORGBACK
 10
0.0
 20
0.0
 30
0.0
  9
$PUCSBASE
  2

  9
$PUCSNAME
  2

  9
$PUCSORG
 10
0.0
 20
0.0
 30
0.0
  9
$PUCSXDIR
 10
1.0
 20
0.0
 30
0.0
  9
$PUCSYDIR
 10
0.0
 20
1.0
 30
0.0
  9
$PUCSORTHOREF
  2

  9
$PUCSORTHOVIEW
 70
     0
  9
$PUCSORGTOP
 10
0.0
 20
0.0
 30
0.0
  9
$PUCSORGBOTTOM
 10
0.0
 20
0.0
 30
0.0
  9
$PUCSORGLEFT
 10
0.0
 20
0.0
 30
0.0
  9
$PUCSORGRIGHT
 10
0.0
 20
0.0
 30
0.0
  9
$PUCSORGFRONT
 10
0.0
 20
0.0
 30
0.0
  9
$PUCSORGBACK
 10
0.0
 20
0.0
 30
0.0
  9
$USERI1
 70
     0
  9
$USERI2
 70
     0
  9
$USERI3
 70
     0
  9
$USERI4
 70
     0
  9
$USERI5
 70
     0
  9
$USERR1
 40
0.0
  9
$USERR2
 40
0.0
  9
$USERR3
 40
0.0
  9
$USERR4
 40
0.0
  9
$USERR5
 40
0.0
  9
$WORLDVIEW
 70
     1
  9
$SHADEDGE
 70
     3
  9
$SHADEDIF
 70
    70
  9
$TILEMODE
 70
     0
  9
$MAXACTVP
 70
    64
  9
$PINSBASE
 10
0.0
 20
0.0
 30
0.0
  9
$PLIMCHECK
 70
     0
  9
$PEXTMIN
 10
0.0
 20
0.0
 30
0.0
  9
$PEXTMAX
 10
420.0
 20
594.0
 30
0.0
  9
$PLIMMIN
 10
-17.33463035019455
 20
-46.22568093385214
  9
$PLIMMAX
 10
953.4046692607004
 20
640.2256809338521
  9
$UNITMODE
 70
     0
  9
$VISRETAIN
 70
     1
  9
$PLINEGEN
 70
     0
  9
$PSLTSCALE
 70
     1
  9
$TREEDEPTH
 70
  3020
  9
$CMLSTYLE
  2
STANDARD
  9
$CMLJUST
 70
     0
  9
$CMLSCALE
 40
1.0
  9
$PROXYGRAPHICS
 70
     1
  9
$MEASUREMENT
 70
     1
  9
$CELWEIGHT
370
    -1
  9
$ENDCAPS
280
     0
  9
$JOINSTYLE
280
     0
  9
$LWDISPLAY
290
     0
  9
$INSUNITS
 70
     0
  9
$HYPERLINKBASE
  1

  9
$STYLESHEET
  1

  9
$XEDIT
290
     1
  9
$CEPSNTYPE
380
     0
  9
$PSTYLEMODE
290
     1
  9
$FINGERPRINTGUID
  2
{3121D25C-3344-4963-A0ED-5A04BBD762E4}
  9
$VERSIONGUID
  2
{FAEB1C32-E019-11D5-929B-00C0DF256EC4}
  9
$EXTNAMES
290
     1
  9
$PSVPSCALE
 40
0.0
  9
$OLESTARTUP
290
     0
  9
$SORTENTS
280
   127
  9
$INDEXCTL
280
     0
  9
$HIDETEXT
280
     1
  9
$XCLIPFRAME
280
     2
  9
$HALOGAP
280
     0
  9
$OBSCOLOR
 70
   257
  9
$OBSLTYPE
280
     0
  9
$INTERSECTIONDISPLAY
280
     0
  9
$INTERSECTIONCOLOR
 70
   257
  9
$DIMASSOC
280
     2
  9
$PROJECTNAME
  1

  9
$CAMERADISPLAY
290
     0
  9
$LENSLENGTH
 40
50.0
  9
$CAMERAHEIGHT
 40
0.0
  9
$STEPSPERSEC
 40
2.0
  9
$STEPSIZE
 40
6.0
  9
$3DDWFPREC
 40
2.0
  9
$PSOLWIDTH
 40
0.25
  9
$PSOLHEIGHT
 40
4.0
  9
$LOFTANG1
 40
1.570796326794897
  9
$LOFTANG2
 40
1.570796326794897
  9
$LOFTMAG1
 40
0.0
  9
$LOFTMAG2
 40
0.0
  9
$LOFTPARAM
 70
     7
  9
$LOFTNORMALS
280
     1
  9
$LATITUDE
 40
37.795
  9
$LONGITUDE
 40
-122.394
  9
$NORTHDIRECTION
 40
0.0
  9
$TIMEZONE
 70
 -8000
  9
$LIGHTGLYPHDISPLAY
280
     1
  9
$TILEMODELIGHTSYNCH
280
     1
  9
$SOLIDHIST
280
     0
  9
$SHOWHIST
280
     1
  9
$DWFFRAME
280
     2
  9
$DGNFRAME
280
     2
  9
$REALWORLDSCALE
290
     1
  9
$INTERFERECOLOR
 62
   256
  9
$CSHADOW
280
     0
  9
$SHADOWPLANELOCATION
 40
0.0
  0
ENDSEC
  0
SECTION
  2
CLASSES
  0
CLASS
  1
ACDBDICTIONARYWDFLT
  2
AcDbDictionaryWithDefault
  3
ObjectDBX Classes
 90
        0
 91
        4
280
     0
281
     0
  0
CLASS
  1
SCALE
  2
AcDbScale
  3
ObjectDBX Classes
 90
     1153
 91
        4
280
     0
281
     0
  0
CLASS
  1
VISUALSTYLE
  2
AcDbVisualStyle
  3
ObjectDBX Classes
 90
     4095
 91
        4
280
     0
281
     0
  0
CLASS
  1
MATERIAL
  2
AcDbMaterial
  3
ObjectDBX Classes
 90
     1153
 91
        4
280
     0
281
     0
  0
CLASS
  1
TABLESTYLE
  2
AcDbTableStyle
  3
ObjectDBX Classes
 90
     4095
 91
        4
280
     0
281
     0
  0
CLASS
  1
MLEADERSTYLE
  2
AcDbMLeaderStyle
  3
ACDB_MLEADERSTYLE_CLASS
 90
     4095
 91
        4
280
     0
281
     0
  0
CLASS
  1
DICTIONARYVAR
  2
AcDbDictionaryVar
  3
ObjectDBX Classes
 90
        0
 91
        4
280
     0
281
     0
  0
CLASS
  1
CELLSTYLEMAP
  2
AcDbCellStyleMap
  3
ObjectDBX Classes
 90
     1152
 91
        4
280
     0
281
     0
  0
ENDSEC
  0
SECTION
  2
TABLES
  0
TABLE
  2
VPORT
  5
8
330
0
100
AcDbSymbolTable
 70
     1
  0
VPORT
  5
1F4
330
8
100
AcDbSymbolTableRecord
100
AcDbViewportTableRecord
  2
*ACTIVE
 70
     0
 10
0.0
 20
0.0
 11
1.0
 21
1.0
 12
210.0
 22
297.0
 13
0.0
 23
0.0
 14
1.0
 24
1.0
 15
0.0
 25
0.0
 16
0.0
 26
0.0
 36
1.0
 17
0.0
 27
0.0
 37
0.0
 40
594.0
 41
0.7070707071
 42
50.0
 43
0.0
 44
0.0
 50
0.0
 51
0.0
 71
     0
 72
   100
 73
     1
 74
     1
 75
     0
 76
     0
 77
     0
 78
     0
281
     0
 65
     1
110
0.0
120
0.0
130
0.0
111
1.0
121
0.0
131
0.0
112
0.0
122
1.0
132
0.0
 79
     0
146
0.0
348
545
 60
     3
 61
     5
292
     1
282
     1
141
0.0
142
0.0
 63
   256
  0
ENDTAB
  0
TABLE
  2
LTYPE
  5
5
330
0
100
AcDbSymbolTable
 70
     6
  0
LTYPE
  5
14
330
5
100
AcDbSymbolTableRecord
100
AcDbLinetypeTableRecord
  2
BYBLOCK
 70
     0
  3

 72
    65
 73
     0
 40
0.0
  0
LTYPE
  5
15
330
5
100
AcDbSymbolTableRecord
100
AcDbLinetypeTableRecord
  2
BYLAYER
 70
     0
  3

 72
    65
 73
     0
 40
0.0
  0
LTYPE
  5
16
330
5
100
AcDbSymbolTableRecord
100
AcDbLinetypeTableRecord
  2
CONTINUOUS
 70
     0
  3
Solid line
 72
    65
 73
     0
 40
0.0
  0
LTYPE
  5
1F5
330
5
100
AcDbSymbolTableRecord
100
AcDbLinetypeTableRecord
  2
CENTER
 70
     0
  3
____ _ ____ _ ____ _ ____ _ ____ _ ____ _ ____
 72
    65
 73
     4
 40
0.6
 49
0.375
 74
     0
 49
-0.075
 74
     0
 49
0.075
 74
     0
 49
-0.075
 74
     0
  0
LTYPE
  5
1F6
330
5
100
AcDbSymbolTableRecord
100
AcDbLinetypeTableRecord
  2
HIDDEN
 70
     0
  3
- - - - - - - - - - - - - - - - - - - -
 72
    65
 73
     2
 40
0.2
 49
0.1
 74
     0
 49
-0.1
 74
     0
  0
LTYPE
  5
1F7
330
5
100
AcDbSymbolTableRecord
100
AcDbLinetypeTableRecord
  2
PHANTOM
 70
     0
  3
_____ _ _ _____ _ _ _____ _ _ _____
 72
    65
 73
     6
 40
0.8
 49
0.45
 74
     0
 49
-0.05
 74
     0
 49
0.1
 74
     0
 49
-0.05
 74
     0
 49
0.1
 74
     0
 49
-0.05
 74
     0
  0
LTYPE
  5
1F8
330
5
100
AcDbSymbolTableRecord
100
AcDbLinetypeTableRecord
  2
DOT
 70
     0
  3
. . . . . . . . . . . . . . . . . . . .
 72
    65
 73
     2
 40
0.2
 49
0.1
 74
     0
 49
-0.1
 74
     0
  0
LTYPE
  5
1F9
330
5
100
AcDbSymbolTableRecord
100
AcDbLinetypeTableRecord
  2
DASHED
 70
     0
  3
- - - - - - - - - - - - - - - - - - - -
 72
    65
 73
     2
 40
0.2
 49
0.1
 74
     0
 49
-0.1
 74
     0
  0
ENDTAB
  0
TABLE
  2
LAYER
  5
2
330
0
100
AcDbSymbolTable
 70
    21
  0
LAYER
  5
10
330
2
100
AcDbSymbolTableRecord
100
AcDbLayerTableRecord
  2
0
 70
     0
 62
     7
  6
CONTINUOUS
370
    -3
390
51A
347
55C
348
0
  0
LAYER
  5
1FA
330
2
100
AcDbSymbolTableRecord
100
AcDbLayerTableRecord
  2
DEFAULT_1
 70
     0
 62
     7
  6
CENTER
370
    -3
390
51A
347
55C
348
0
  0
LAYER
  5
1FB
330
2
100
AcDbSymbolTableRecord
100
AcDbLayerTableRecord
  2
DEFAULT_2
 70
     0
 62
     8
  6
HIDDEN
370
    -3
390
51A
347
55C
348
0
  0
LAYER
  5
1FC
330
2
100
AcDbSymbolTableRecord
100
AcDbLayerTableRecord
  2
DEFAULT_3
 70
     0
 62
     7
  6
PHANTOM
370
    -3
390
51A
347
55C
348
0
  0
LAYER
  5
1FD
330
2
100
AcDbSymbolTableRecord
100
AcDbLayerTableRecord
  2
01___PRT_ALL_DTM_PLN
 70
     0
 62
     7
  6
CONTINUOUS
370
    -3
390
51A
347
55C
348
0
  0
LAYER
  5
1FE
330
2
100
AcDbSymbolTableRecord
100
AcDbLayerTableRecord
  2
01___PRT_DEF_DTM_PLN
 70
     0
 62
     7
  6
CONTINUOUS
370
    -3
390
51A
347
55C
348
0
  0
LAYER
  5
1FF
330
2
100
AcDbSymbolTableRecord
100
AcDbLayerTableRecord
  2
02___PRT_ALL_AXES
 70
     0
 62
     7
  6
CONTINUOUS
370
    -3
390
51A
347
55C
348
0
  0
LAYER
  5
200
330
2
100
AcDbSymbolTableRecord
100
AcDbLayerTableRecord
  2
03___PRT_ALL_CURVES
 70
     0
 62
     7
  6
CONTINUOUS
370
    -3
390
51A
347
55C
348
0
  0
LAYER
  5
201
330
2
100
AcDbSymbolTableRecord
100
AcDbLayerTableRecord
  2
04___PRT_ALL_DTM_PNT
 70
     0
 62
     7
  6
CONTINUOUS
370
    -3
390
51A
347
55C
348
0
  0
LAYER
  5
202
330
2
100
AcDbSymbolTableRecord
100
AcDbLayerTableRecord
  2
05___PRT_ALL_DTM_CSYS
 70
     0
 62
     7
  6
CONTINUOUS
370
    -3
390
51A
347
55C
348
0
  0
LAYER
  5
203
330
2
100
AcDbSymbolTableRecord
100
AcDbLayerTableRecord
  2
05___PRT_DEF_DTM_CSYS
 70
     0
 62
     7
  6
CONTINUOUS
370
    -3
390
51A
347
55C
348
0
  0
LAYER
  5
204
330
2
100
AcDbSymbolTableRecord
100
AcDbLayerTableRecord
  2
06___PRT_ALL_SURFS
 70
     0
 62
     7
  6
CONTINUOUS
370
    -3
390
51A
347
55C
348
0
  0
LAYER
  5
205
330
2
100
AcDbSymbolTableRecord
100
AcDbLayerTableRecord
  2
1_ALL_PLANES
 70
     0
 62
     7
  6
CONTINUOUS
370
    -3
390
51A
347
55C
348
0
  0
LAYER
  5
206
330
2
100
AcDbSymbolTableRecord
100
AcDbLayerTableRecord
  2
2_ALL_CSYS
 70
     0
 62
     7
  6
CONTINUOUS
370
    -3
390
51A
347
55C
348
0
  0
LAYER
  5
207
330
2
100
AcDbSymbolTableRecord
100
AcDbLayerTableRecord
  2
3_ALL_AXES
 70
     0
 62
     7
  6
CONTINUOUS
370
    -3
390
51A
347
55C
348
0
  0
LAYER
  5
208
330
2
100
AcDbSymbolTableRecord
100
AcDbLayerTableRecord
  2
4_ALL_POINTS
 70
     0
 62
     7
  6
CONTINUOUS
370
    -3
390
51A
347
55C
348
0
  0
LAYER
  5
209
330
2
100
AcDbSymbolTableRecord
100
AcDbLayerTableRecord
  2
5_ALL_CURVES
 70
     0
 62
     7
  6
CONTINUOUS
370
    -3
390
51A
347
55C
348
0
  0
LAYER
  5
20A
330
2
100
AcDbSymbolTableRecord
100
AcDbLayerTableRecord
  2
6_ALL_SURFS
 70
     0
 62
     7
  6
CONTINUOUS
370
    -3
390
51A
347
55C
348
0
  0
LAYER
  5
20B
330
2
100
AcDbSymbolTableRecord
100
AcDbLayerTableRecord
  2
7_ALL_FEATURES
 70
     0
 62
     7
  6
CONTINUOUS
370
    -3
390
51A
347
55C
348
0
  0
LAYER
  5
20C
330
2
100
AcDbSymbolTableRecord
100
AcDbLayerTableRecord
  2
9_SOLID
 70
     0
 62
     7
  6
CONTINUOUS
370
    -3
390
51A
347
55C
348
0
  0
LAYER
  5
20D
330
2
100
AcDbSymbolTableRecord
100
AcDbLayerTableRecord
  2
XXX_SOLIDO
 70
     0
 62
     7
  6
CONTINUOUS
370
    -3
390
51A
347
55C
348
0
  0
ENDTAB
  0
TABLE
  2
STYLE
  5
3
330
0
100
AcDbSymbolTable
 70
     5
  0
STYLE
  5
11
330
3
100
AcDbSymbolTableRecord
100
AcDbTextStyleTableRecord
  2
STANDARD
 70
     0
 40
0.0
 41
1.0
 50
0.0
 71
     0
 42
0.2
  3
arial.ttf
  4

  0
STYLE
  5
20E
330
3
100
AcDbSymbolTableRecord
100
AcDbTextStyleTableRecord
  2
TEXTSTYLE_1
 70
     0
 40
0.0
 41
0.8
 50
0.0
 71
     0
 42
0.2
  3
gdt
  4

  0
STYLE
  5
20F
330
3
100
AcDbSymbolTableRecord
100
AcDbTextStyleTableRecord
  2
TEXTSTYLE_2
 70
     0
 40
0.0
 41
0.85
 50
0.0
 71
     0
 42
0.2
  3
gdt
  4

  0
STYLE
  5
210
330
3
100
AcDbSymbolTableRecord
100
AcDbTextStyleTableRecord
  2
TEXTSTYLE_3
 70
     0
 40
0.0
 41
2.0
 50
0.0
 71
     0
 42
0.2
  3
txt
  4

  0
STYLE
  5
211
330
3
100
AcDbSymbolTableRecord
100
AcDbTextStyleTableRecord
  2
TEXTSTYLE_4
 70
     0
 40
0.0
 41
0.85
 50
0.0
 71
     0
 42
0.2
  3
txt
  4

  0
ENDTAB
  0
TABLE
  2
VIEW
  5
6
330
0
100
AcDbSymbolTable
 70
     0
  0
ENDTAB
  0
TABLE
  2
UCS
  5
7
330
0
100
AcDbSymbolTable
 70
     0
  0
ENDTAB
  0
TABLE
  2
APPID
  5
9
330
0
100
AcDbSymbolTable
 70
     1
  0
APPID
  5
212
330
9
100
AcDbSymbolTableRecord
100
AcDbRegAppTableRecord
  2
ACAD
 70
     0
  0
ENDTAB
  0
TABLE
  2
DIMSTYLE
  5
A
330
0
100
AcDbSymbolTable
 70
     3
100
AcDbDimStyleTable
  0
DIMSTYLE
105
219
330
A
100
AcDbSymbolTableRecord
100
AcDbDimStyleTableRecord
  2
STANDARD
 70
     0
 41
2.5
 42
0.75
 44
0.75
 47
0.01
 48
0.01
 71
     1
 73
     0
 74
     0
 77
     1
 78
     8
 79
     2
140
3.0
147
0.625
171
     1
178
     0
179
     2
271
     2
272
     2
284
     8
340
11
341
213
342
213
343
213
344
213
  0
DIMSTYLE
105
21A
330
A
100
AcDbSymbolTableRecord
100
AcDbDimStyleTableRecord
  2
DIMSTYLE_1
 70
     0
  3
<>
 41
2.5
 42
0.75
 44
0.75
 47
0.5
 48
0.5
 73
     0
 74
     0
 77
     1
 78
     8
 79
     2
140
3.0
147
0.625
171
     1
172
     1
178
     0
179
     2
271
     2
272
     2
284
     8
288
     1
340
11
341
213
342
213
343
213
344
213
  0
DIMSTYLE
105
21B
330
A
100
AcDbSymbolTableRecord
100
AcDbDimStyleTableRecord
  2
DIMSTYLE_2
 70
     0
 41
2.5
 42
0.75
 44
0.75
 47
0.5
 48
0.5
 73
     0
 74
     0
 77
     1
 78
     8
 79
     2
140
3.0
147
0.75
171
     1
178
     0
179
     2
271
     2
272
     2
284
     8
340
11
341
213
342
213
343
213
344
213
  0
ENDTAB
  0
TABLE
  2
BLOCK_RECORD
  5
1
330
0
100
AcDbSymbolTable
 70
     6
  0
BLOCK_RECORD
  5
1F
330
1
100
AcDbSymbolTableRecord
100
AcDbBlockTableRecord
  2
*MODEL_SPACE
340
53E
 70
     0
280
     1
281
     0
  0
BLOCK_RECORD
  5
1B
330
1
100
AcDbSymbolTableRecord
100
AcDbBlockTableRecord
  2
*PAPER_SPACE
340
53F
 70
     0
280
     1
281
     0
  0
BLOCK_RECORD
  5
213
330
1
100
AcDbSymbolTableRecord
100
AcDbBlockTableRecord
  2
_CLOSED
340
0
102
{BLKREFS
331
26B
331
273
331
274
331
27C
331
27D
102
}
 70
     0
280
     1
281
     0
  0
BLOCK_RECORD
  5
214
330
1
100
AcDbSymbolTableRecord
100
AcDbBlockTableRecord
  2
*D1
340
0
 70
     0
280
     1
281
     0
  0
BLOCK_RECORD
  5
215
330
1
100
AcDbSymbolTableRecord
100
AcDbBlockTableRecord
  2
*D2
340
0
 70
     0
280
     1
281
     0
  0
BLOCK_RECORD
  5
216
330
1
100
AcDbSymbolTableRecord
100
AcDbBlockTableRecord
  2
*D3
340
0
 70
     0
280
     1
281
     0
  0
BLOCK_RECORD
  5
217
330
1
100
AcDbSymbolTableRecord
100
AcDbBlockTableRecord
  2
LOGO2_BL1
340
0
102
{BLKREFS
331
502
102
}
 70
     0
280
     1
281
     0
  0
BLOCK_RECORD
  5
218
330
1
100
AcDbSymbolTableRecord
100
AcDbBlockTableRecord
  2
PROIEZIONE_EU_BL0
340
0
102
{BLKREFS
331
4FF
102
}
 70
     0
280
     1
281
     0
  0
ENDTAB
  0
ENDSEC
  0
SECTION
  2
BLOCKS
  0
BLOCK
  5
20
330
1F
100
AcDbEntity
  8
0
100
AcDbBlockBegin
  2
*MODEL_SPACE
 70
     0
 10
0.0
 20
0.0
 30
0.0
  3
*MODEL_SPACE
  1

  0
ENDBLK
  5
21
330
1F
100
AcDbEntity
  8
0
100
AcDbBlockEnd
  0
BLOCK
  5
1C
330
1B
100
AcDbEntity
 67
     1
  8
0
100
AcDbBlockBegin
  2
*PAPER_SPACE
 70
     0
 10
0.0
 20
0.0
 30
0.0
  3
*PAPER_SPACE
  1

  0
ENDBLK
  5
1D
330
1B
100
AcDbEntity
 67
     1
  8
0
100
AcDbBlockEnd
  0
BLOCK
  5
262
330
213
100
AcDbEntity
  8
0
100
AcDbBlockBegin
  2
_CLOSED
 70
     0
 10
0.0
 20
0.0
 30
0.0
  3
_CLOSED
  1

  0
LINE
  5
263
330
213
100
AcDbEntity
  8
0
  6
ByBlock
 62
     0
100
AcDbLine
 10
0.0
 20
0.0
 30
0.0
 11
-1.0
 21
0.2
 31
0.0
  0
LINE
  5
264
330
213
100
AcDbEntity
  8
0
  6
ByBlock
 62
     0
100
AcDbLine
 10
-1.0
 20
0.2
 30
0.0
 11
-1.0
 21
-0.2
 31
0.0
  0
LINE
  5
265
330
213
100
AcDbEntity
  8
0
  6
ByBlock
 62
     0
100
AcDbLine
 10
-1.0
 20
-0.2
 30
0.0
 11
0.0
 21
0.0
 31
0.0
  0
LINE
  5
266
330
213
100
AcDbEntity
  8
0
  6
ByBlock
 62
     0
100
AcDbLine
 10
-1.0
 20
0.0
 30
0.0
 11
0.0
 21
0.0
 31
0.0
  0
ENDBLK
  5
267
330
213
100
AcDbEntity
  8
0
  6
ByBlock
 62
     0
100
AcDbBlockEnd
  0
BLOCK
  5
268
330
214
100
AcDbEntity
  8
0
100
AcDbBlockBegin
  2
*D1
 70
     1
 10
0.0
 20
0.0
 30
0.0
  3
*D1
  1

  0
MTEXT
  5
269
330
214
100
AcDbEntity
  8
0
  6
Continuous
 62
     2
100
AcDbMText
 10
170.086511723
 20
168.6500645362
 30
0.0
 40
3.0
 41
10.9925650558
 46
0.0
 71
     1
 72
     1
  1
{\Fgdt;n}\Farial.ttf;129
  7
TEXTSTYLE_2
 11
0.6310147411
 21
0.7757708402
 31
0.0
 73
     1
 44
1.0
  0
LINE
  5
26A
330
214
100
AcDbEntity
  8
0
  6
Continuous
 62
     2
100
AcDbLine
 10
170.444297105
 20
163.1471177626
 30
0.0
 11
179.9321229665
 21
174.8114706864
 31
0.0
  0
INSERT
  5
26B
330
214
100
AcDbEntity
  8
0
  6
Continuous
 62
     2
100
AcDbBlockReference
  2
_CLOSED
 10
170.444297105
 20
163.1471177626
 30
0.0
 41
2.5
 42
2.5
 43
2.5
 50
230.8749719646
  0
ENDBLK
  5
26C
330
214
100
AcDbEntity
  8
0
  6
ByBlock
 62
     0
100
AcDbBlockEnd
  0
BLOCK
  5
26D
330
215
100
AcDbEntity
  8
0
100
AcDbBlockBegin
  2
*D2
 70
     1
 10
0.0
 20
0.0
 30
0.0
  3
*D2
  1

  0
MTEXT
  5
26E
330
215
100
AcDbEntity
  8
0
  6
Continuous
 62
     2
100
AcDbMText
 10
204.9070459578
 20
305.8160324376
 30
0.0
 40
3.0
 41
12.8141263941
 46
0.0
 71
     2
 72
     1
  1
151,15
 11
0.0
 21
1.0
 31
0.0
 73
     1
 44
1.0
  0
LINE
  5
26F
330
215
100
AcDbEntity
  8
0
  6
Continuous
 62
     2
100
AcDbLine
 10
195.2343817124
 20
230.2410324376
 30
0.0
 11
209.4070459578
 21
230.2410324376
 31
0.0
  0
LINE
  5
270
330
215
100
AcDbEntity
  8
0
  6
Continuous
 62
     2
100
AcDbLine
 10
200.8216084661
 20
381.3910324376
 30
0.0
 11
209.4070459578
 21
381.3910324376
 31
0.0
  0
LINE
  5
271
330
215
100
AcDbEntity
  8
0
  6
Continuous
 62
     2
100
AcDbLine
 10
208.6570459578
 20
230.2410324376
 30
0.0
 11
208.6570459578
 21
305.8160324376
 31
0.0
  0
LINE
  5
272
330
215
100
AcDbEntity
  8
0
  6
Continuous
 62
     2
100
AcDbLine
 10
208.6570459578
 20
381.3910324376
 30
0.0
 11
208.6570459578
 21
305.8160324376
 31
0.0
  0
INSERT
  5
273
330
215
100
AcDbEntity
  8
0
  6
Continuous
 62
     2
100
AcDbBlockReference
  2
_CLOSED
 10
208.6570459578
 20
230.2410324376
 30
0.0
 41
2.5
 42
2.5
 43
2.5
 50
270.0
  0
INSERT
  5
274
330
215
100
AcDbEntity
  8
0
  6
Continuous
 62
     2
100
AcDbBlockReference
  2
_CLOSED
 10
208.6570459578
 20
381.3910324376
 30
0.0
 41
2.5
 42
2.5
 43
2.5
 50
90.0
  0
ENDBLK
  5
275
330
215
100
AcDbEntity
  8
0
  6
ByBlock
 62
     0
100
AcDbBlockEnd
  0
BLOCK
  5
276
330
216
100
AcDbEntity
  8
0
100
AcDbBlockBegin
  2
*D3
 70
     1
 10
0.0
 20
0.0
 30
0.0
  3
*D3
  1

  0
MTEXT
  5
277
330
216
100
AcDbEntity
  8
0
  6
Continuous
 62
     2
100
AcDbMText
 10
46.2125075794
 20
305.2410324376
 30
0.0
 40
3.0
 41
6.9925650558
 46
0.0
 71
     2
 72
     1
  1
150
 11
0.0
 21
1.0
 31
0.0
 73
     1
 44
1.0
  0
LINE
  5
278
330
216
100
AcDbEntity
  8
0
  6
Continuous
 62
     2
100
AcDbLine
 10
55.7186463039
 20
230.2410324376
 30
0.0
 11
49.2125075794
 21
230.2410324376
 31
0.0
  0
LINE
  5
279
330
216
100
AcDbEntity
  8
0
  6
Continuous
 62
     2
100
AcDbLine
 10
60.5840084661
 20
380.2410324376
 30
0.0
 11
49.2125075794
 21
380.2410324376
 31
0.0
  0
LINE
  5
27A
330
216
100
AcDbEntity
  8
0
  6
Continuous
 62
     2
100
AcDbLine
 10
49.9625075794
 20
230.2410324376
 30
0.0
 11
49.9625075794
 21
305.2410324376
 31
0.0
  0
LINE
  5
27B
330
216
100
AcDbEntity
  8
0
  6
Continuous
 62
     2
100
AcDbLine
 10
49.9625075794
 20
380.2410324376
 30
0.0
 11
49.9625075794
 21
305.2410324376
 31
0.0
  0
INSERT
  5
27C
330
216
100
AcDbEntity
  8
0
  6
Continuous
 62
     2
100
AcDbBlockReference
  2
_CLOSED
 10
49.9625075794
 20
230.2410324376
 30
0.0
 41
2.5
 42
2.5
 43
2.5
 50
270.0
  0
INSERT
  5
27D
330
216
100
AcDbEntity
  8
0
  6
Continuous
 62
     2
100
AcDbBlockReference
  2
_CLOSED
 10
49.9625075794
 20
380.2410324376
 30
0.0
 41
2.5
 42
2.5
 43
2.5
 50
90.0
  0
ENDBLK
  5
27E
330
216
100
AcDbEntity
  8
0
  6
ByBlock
 62
     0
100
AcDbBlockEnd
  0
BLOCK
  5
21C
330
217
100
AcDbEntity
  8
0
100
AcDbBlockBegin
  2
LOGO2_BL1
 70
     0
 10
295.6411898945
 20
41.7327405091
 30
0.0
  3
LOGO2_BL1
  1

  0
LINE
  5
21D
330
217
100
AcDbEntity
  8
0
  6
Continuous
 62
     7
100
AcDbLine
 10
287.3841151227
 20
44.9282318479
 30
0.0
 11
286.0797741933
 21
44.9282318479
 31
0.0
  0
LINE
  5
21E
330
217
100
AcDbEntity
  8
0
  6
Continuous
 62
     7
100
AcDbLine
 10
286.0797741933
 20
44.9282318479
 30
0.0
 11
286.0797741933
 21
34.469165788
 31
0.0
  0
LINE
  5
21F
330
217
100
AcDbEntity
  8
0
  6
Continuous
 62
     7
100
AcDbLine
 10
286.0797741933
 20
34.469165788
 30
0.0
 11
290.5608290816
 21
34.469165788
 31
0.0
  0
LINE
  5
220
330
217
100
AcDbEntity
  8
0
  6
Continuous
 62
     7
100
AcDbLine
 10
290.5608290816
 20
34.469165788
 30
0.0
 11
290.5608290816
 21
35.6620201131
 31
0.0
  0
LINE
  5
221
330
217
100
AcDbEntity
  8
0
  6
Continuous
 62
     7
100
AcDbLine
 10
290.5608290816
 20
35.6620201131
 30
0.0
 11
287.3841151227
 21
35.6620201131
 31
0.0
  0
LINE
  5
222
330
217
100
AcDbEntity
  8
0
  6
Continuous
 62
     7
100
AcDbLine
 10
287.3841151227
 20
35.6620201131
 30
0.0
 11
287.3841151227
 21
44.9282318479
 31
0.0
  0
LINE
  5
223
330
217
100
AcDbEntity
  8
0
  6
Continuous
 62
     7
100
AcDbLine
 10
302.320441339
 20
44.9282318479
 30
0.0
 11
301.0166238209
 21
44.9282318479
 31
0.0
  0
LINE
  5
224
330
217
100
AcDbEntity
  8
0
  6
Continuous
 62
     7
100
AcDbLine
 10
301.0166238209
 20
44.9282318479
 30
0.0
 11
301.0166238209
 21
34.469165788
 31
0.0
  0
LINE
  5
225
330
217
100
AcDbEntity
  8
0
  6
Continuous
 62
     7
100
AcDbLine
 10
301.0166238209
 20
34.469165788
 30
0.0
 11
305.497809562
 21
34.469165788
 31
0.0
  0
LINE
  5
226
330
217
100
AcDbEntity
  8
0
  6
Continuous
 62
     7
100
AcDbLine
 10
305.497809562
 20
34.469165788
 30
0.0
 11
305.497809562
 21
35.6620201131
 31
0.0
  0
LINE
  5
227
330
217
100
AcDbEntity
  8
0
  6
Continuous
 62
     7
100
AcDbLine
 10
305.497809562
 20
35.6620201131
 30
0.0
 11
302.320441339
 21
35.6620201131
 31
0.0
  0
LINE
  5
228
330
217
100
AcDbEntity
  8
0
  6
Continuous
 62
     7
100
AcDbLine
 10
302.320441339
 20
35.6620201131
 30
0.0
 11
302.320441339
 21
44.9282318479
 31
0.0
  0
LWPOLYLINE
  5
229
330
217
100
AcDbEntity
  8
0
  6
Continuous
 62
     7
100
AcDbPolyline
 90
        2
 70
     0
 43
0.2
 10
284.4341691042
 20
31.1256144811
 10
284.4341691042
 20
29.2685512318
  0
LWPOLYLINE
  5
22A
330
217
100
AcDbEntity
  8
0
  6
Continuous
 62
     7
100
AcDbPolyline
 90
        2
 70
     0
 43
0.2
 10
284.4341691042
 20
29.2685512318
 10
285.2298851146
 20
29.2685512318
  0
LWPOLYLINE
  5
22B
330
217
100
AcDbEntity
  8
0
  6
Continuous
 62
     7
100
AcDbPolyline
 90
        2
 70
     0
 43
0.2
 10
285.2298851146
 20
29.2685512318
 10
285.2298851146
 20
29.4805328034
  0
LWPOLYLINE
  5
22C
330
217
100
AcDbEntity
  8
0
  6
Continuous
 62
     7
100
AcDbPolyline
 90
        2
 70
     0
 43
0.2
 10
285.2298851146
 20
29.4805328034
 10
284.6657785991
 20
29.4805328034
  0
LWPOLYLINE
  5
22D
330
217
100
AcDbEntity
  8
0
  6
Continuous
 62
     7
100
AcDbPolyline
 90
        2
 70
     0
 43
0.2
 10
284.6657785991
 20
29.4805328034
 10
284.6657785991
 20
31.1256144811
  0
LWPOLYLINE
  5
22E
330
217
100
AcDbEntity
  8
0
  6
Continuous
 62
     7
100
AcDbPolyline
 90
        2
 70
     0
 43
0.2
 10
284.6657785991
 20
31.1256144811
 10
284.4341691042
 20
31.1256144811
  0
SPLINE
  5
22F
330
217
100
AcDbEntity
  8
0
  6
Continuous
 62
     7
100
AcDbSpline
 70
     3
 71
     3
 72
    35
 73
    31
 74
     0
 42
0.000000001
 43
0.0000001
 40
0.0
 40
0.0
 40
0.0
 40
0.0
 40
1.0
 40
1.0
 40
1.0
 40
2.0
 40
2.0
 40
2.0
 40
3.0
 40
3.0
 40
3.0
 40
4.0
 40
4.0
 40
4.0
 40
5.0
 40
5.0
 40
5.0
 40
6.0
 40
6.0
 40
6.0
 40
7.0
 40
7.0
 40
7.0
 40
8.0
 40
8.0
 40
8.0
 40
9.0
 40
9.0
 40
9.0
 40
10.0
 40
10.0
 40
10.0
 40
10.0
 10
286.6281783702
 20
30.4211028877
 30
0.0
 10
286.6281783702
 20
30.4211028877
 30
0.0
 10
286.6281783702
 20
29.7589876085
 30
0.0
 10
286.6281783702
 20
29.7589876085
 30
0.0
 10
286.6281783702
 20
29.4438940132
 30
0.0
 10
286.776042059
 20
29.2292953852
 30
0.0
 10
287.1161285433
 20
29.2292953852
 30
0.0
 10
287.4556916163
 20
29.2292953852
 30
0.0
 10
287.6038170108
 20
29.4438940132
 30
0.0
 10
287.6038170108
 20
29.7589876085
 30
0.0
 10
287.6038170108
 20
29.7589876085
 30
0.0
 10
287.6038170108
 20
30.4211028877
 30
0.0
 10
287.6038170108
 20
30.4211028877
 30
0.0
 10
287.6038170108
 20
30.4211028877
 30
0.0
 10
287.3817597719
 20
30.4211028877
 30
0.0
 10
287.3817597719
 20
30.4211028877
 30
0.0
 10
287.3817597719
 20
30.4211028877
 30
0.0
 10
287.3817597719
 20
29.7841113503
 30
0.0
 10
287.3817597719
 20
29.7841113503
 30
0.0
 10
287.3817597719
 20
29.5983003431
 30
0.0
 10
287.3350453144
 20
29.4355194326
 30
0.0
 10
287.1161285433
 20
29.4355194326
 30
0.0
 10
286.8966883609
 20
29.4355194326
 30
0.0
 10
286.8499739034
 20
29.5983003431
 30
0.0
 10
286.8499739034
 20
29.7841113503
 30
0.0
 10
286.8499739034
 20
29.7841113503
 30
0.0
 10
286.8499739034
 20
30.4211028877
 30
0.0
 10
286.8499739034
 20
30.4211028877
 30
0.0
 10
286.8499739034
 20
30.4211028877
 30
0.0
 10
286.6281783702
 20
30.4211028877
 30
0.0
 10
286.6281783702
 20
30.4211028877
 30
0.0
  0
SPLINE
  5
230
330
217
100
AcDbEntity
  8
0
  6
Continuous
 62
     7
100
AcDbSpline
 70
     3
 71
     3
 72
    35
 73
    31
 74
     0
 42
0.000000001
 43
0.0000001
 40
0.0
 40
0.0
 40
0.0
 40
0.0
 40
1.0
 40
1.0
 40
1.0
 40
2.0
 40
2.0
 40
2.0
 40
3.0
 40
3.0
 40
3.0
 40
4.0
 40
4.0
 40
4.0
 40
5.0
 40
5.0
 40
5.0
 40
6.0
 40
6.0
 40
6.0
 40
7.0
 40
7.0
 40
7.0
 40
8.0
 40
8.0
 40
8.0
 40
9.0
 40
9.0
 40
9.0
 40
10.0
 40
10.0
 40
10.0
 40
10.0
 10
290.026949568
 20
30.3797533959
 30
0.0
 10
289.9384930603
 20
30.4310477021
 30
0.0
 10
289.8250436637
 20
30.4561714439
 30
0.0
 10
289.7214082287
 20
30.4561714439
 30
0.0
 10
289.3665353755
 20
30.4561714439
 30
0.0
 10
289.0910901852
 20
30.1923721549
 30
0.0
 10
289.0910901852
 20
29.8348822452
 30
0.0
 10
289.0910901852
 20
29.4899542065
 30
0.0
 10
289.3695449904
 20
29.2298187965
 30
0.0
 10
289.7091080634
 20
29.2298187965
 30
0.0
 10
289.8250436637
 20
29.2298187965
 30
0.0
 10
289.9258003366
 20
29.2518020706
 30
0.0
 10
290.026949568
 20
29.3057134332
 30
0.0
 10
290.026949568
 20
29.3057134332
 30
0.0
 10
290.026949568
 20
29.5883555287
 30
0.0
 10
290.026949568
 20
29.5883555287
 30
0.0
 10
289.9430729091
 20
29.4951883194
 30
0.0
 10
289.8395683269
 20
29.4360428439
 30
0.0
 10
289.7114634142
 20
29.4360428439
 30
0.0
 10
289.4777602742
 20
29.4360428439
 30
0.0
 10
289.31249316
 20
29.6082451576
 30
0.0
 10
289.31249316
 20
29.8448270597
 30
0.0
 10
289.31249316
 20
30.0568086313
 30
0.0
 10
289.4802464778
 20
30.248900574
 30
0.0
 10
289.6970696038
 20
30.248900574
 30
0.0
 10
289.8298852181
 20
30.248900574
 30
0.0
 10
289.9384930603
 20
30.1949892113
 30
0.0
 10
290.026949568
 20
30.0939708327
 30
0.0
 10
290.026949568
 20
30.0939708327
 30
0.0
 10
290.026949568
 20
30.3797533959
 30
0.0
 10
290.026949568
 20
30.3797533959
 30
0.0
  0
SPLINE
  5
231
330
217
100
AcDbEntity
  8
0
  6
Continuous
 62
     7
100
AcDbSpline
 70
     3
 71
     3
 72
    32
 73
    28
 74
     0
 42
0.000000001
 43
0.0000001
 40
0.0
 40
0.0
 40
0.0
 40
0.0
 40
1.0
 40
1.0
 40
1.0
 40
2.0
 40
2.0
 40
2.0
 40
3.0
 40
3.0
 40
3.0
 40
4.0
 40
4.0
 40
4.0
 40
5.0
 40
5.0
 40
5.0
 40
6.0
 40
6.0
 40
6.0
 40
7.0
 40
7.0
 40
7.0
 40
8.0
 40
8.0
 40
8.0
 40
9.0
 40
9.0
 40
9.0
 40
9.0
 10
292.5588208202
 20
29.8081882696
 30
0.0
 10
292.5588208202
 20
29.8081882696
 30
0.0
 10
292.5588208202
 20
29.8422100033
 30
0.0
 10
292.5588208202
 20
29.8422100033
 30
0.0
 10
292.5588208202
 20
30.1845209855
 30
0.0
 10
292.3859642424
 20
30.4561714439
 30
0.0
 10
292.0193146352
 20
30.4561714439
 30
0.0
 10
291.6476926208
 20
30.4561714439
 30
0.0
 10
291.457956029
 20
30.1897550984
 30
0.0
 10
291.457956029
 20
29.8348822452
 30
0.0
 10
291.457956029
 20
29.4951883194
 30
0.0
 10
291.6720312457
 20
29.2292953852
 30
0.0
 10
292.0241561896
 20
29.2292953852
 30
0.0
 10
292.2481762209
 20
29.2292953852
 30
0.0
 10
292.4503438308
 20
29.3449692798
 30
0.0
 10
292.5588208202
 20
29.5443889805
 30
0.0
 10
292.5588208202
 20
29.5443889805
 30
0.0
 10
292.3711778735
 20
29.6511648832
 30
0.0
 10
292.3711778735
 20
29.6511648832
 30
0.0
 10
292.2876937731
 20
29.5124608919
 30
0.0
 10
292.1964893562
 20
29.4266214407
 30
0.0
 10
292.0269040989
 20
29.4266214407
 30
0.0
 10
291.8149225273
 20
29.4266214407
 30
0.0
 10
291.6819760602
 20
29.6113856253
 30
0.0
 10
291.6796207094
 20
29.8081882696
 30
0.0
 10
291.6796207094
 20
29.8081882696
 30
0.0
 10
292.5588208202
 20
29.8081882696
 30
0.0
 10
292.5588208202
 20
29.8081882696
 30
0.0
  0
SPLINE
  5
232
330
217
100
AcDbEntity
  8
0
  6
Continuous
 62
     7
100
AcDbSpline
 70
     3
 71
     3
 72
    14
 73
    10
 74
     0
 42
0.000000001
 43
0.0000001
 40
0.0
 40
0.0
 40
0.0
 40
0.0
 40
1.0
 40
1.0
 40
1.0
 40
2.0
 40
2.0
 40
2.0
 40
3.0
 40
3.0
 40
3.0
 40
3.0
 10
291.691659169
 20
29.9756798817
 30
0.0
 10
291.7192691145
 20
30.1405544374
 30
0.0
 10
291.8471123215
 20
30.26355609
 30
0.0
 10
292.0193146352
 20
30.26355609
 30
0.0
 10
292.1964893562
 20
30.26355609
 30
0.0
 10
292.3099387528
 20
30.1478821954
 30
0.0
 10
292.3371561398
 20
29.9756798817
 30
0.0
 10
292.3371561398
 20
29.9756798817
 30
0.0
 10
291.691659169
 20
29.9756798817
 30
0.0
 10
291.691659169
 20
29.9756798817
 30
0.0
  0
SPLINE
  5
233
330
217
100
AcDbEntity
  8
0
  6
Continuous
 62
     7
100
AcDbSpline
 70
     3
 71
     3
 72
    20
 73
    16
 74
     0
 42
0.000000001
 43
0.0000001
 40
0.0
 40
0.0
 40
0.0
 40
0.0
 40
1.0
 40
1.0
 40
1.0
 40
2.0
 40
2.0
 40
2.0
 40
3.0
 40
3.0
 40
3.0
 40
4.0
 40
4.0
 40
4.0
 40
5.0
 40
5.0
 40
5.0
 40
5.0
 10
294.5828522704
 20
30.1850443968
 30
0.0
 10
294.5828522704
 20
30.1850443968
 30
0.0
 10
294.993991837
 20
29.6825695605
 30
0.0
 10
294.993991837
 20
29.6825695605
 30
0.0
 10
294.8779253839
 20
29.5668956659
 30
0.0
 10
294.7401373624
 20
29.4365662552
 30
0.0
 10
294.5681967543
 20
29.4365662552
 30
0.0
 10
294.3907603278
 20
29.4365662552
 30
0.0
 10
294.2232687156
 20
29.6009173996
 30
0.0
 10
294.2232687156
 20
29.7778304149
 30
0.0
 10
294.2232687156
 20
29.9557902527
 30
0.0
 10
294.4330257892
 20
30.0819323731
 30
0.0
 10
294.5606072907
 20
30.1698654695
 30
0.0
 10
294.5606072907
 20
30.1698654695
 30
0.0
 10
294.5828522704
 20
30.1850443968
 30
0.0
 10
294.5828522704
 20
30.1850443968
 30
0.0
  0
SPLINE
  5
234
330
217
100
AcDbEntity
  8
0
  6
Continuous
 62
     7
100
AcDbSpline
 70
     3
 71
     3
 72
    23
 73
    19
 74
     0
 42
0.000000001
 43
0.0000001
 40
0.0
 40
0.0
 40
0.0
 40
0.0
 40
1.0
 40
1.0
 40
1.0
 40
2.0
 40
2.0
 40
2.0
 40
3.0
 40
3.0
 40
3.0
 40
4.0
 40
4.0
 40
4.0
 40
5.0
 40
5.0
 40
5.0
 40
6.0
 40
6.0
 40
6.0
 40
6.0
 10
294.6321837843
 20
30.4760610729
 30
0.0
 10
294.6321837843
 20
30.4760610729
 30
0.0
 10
294.5705521051
 20
30.5545727661
 30
0.0
 10
294.5705521051
 20
30.5545727661
 30
0.0
 10
294.5166407425
 20
30.6231396448
 30
0.0
 10
294.4598506178
 20
30.6922299348
 30
0.0
 10
294.4598506178
 20
30.7859205553
 30
0.0
 10
294.4598506178
 20
30.9047349177
 30
0.0
 10
294.5557657363
 20
30.9821997883
 30
0.0
 10
294.6667289293
 20
30.9821997883
 30
0.0
 10
294.7899922876
 20
30.9821997883
 30
0.0
 10
294.8832903496
 20
30.9110158531
 30
0.0
 10
294.8832903496
 20
30.7806864424
 30
0.0
 10
294.8832903496
 20
30.6456463302
 30
0.0
 10
294.7551854369
 20
30.5692282821
 30
0.0
 10
294.6616256692
 20
30.4954272905
 30
0.0
 10
294.6616256692
 20
30.4954272905
 30
0.0
 10
294.6321837843
 20
30.4760610729
 30
0.0
 10
294.6321837843
 20
30.4760610729
 30
0.0
  0
SPLINE
  5
235
330
217
100
AcDbEntity
  8
0
  6
Continuous
 62
     7
100
AcDbSpline
 70
     3
 71
     3
 72
    50
 73
    46
 74
     0
 42
0.000000001
 43
0.0000001
 40
0.0
 40
0.0
 40
0.0
 40
0.0
 40
1.0
 40
1.0
 40
1.0
 40
2.0
 40
2.0
 40
2.0
 40
3.0
 40
3.0
 40
3.0
 40
4.0
 40
4.0
 40
4.0
 40
5.0
 40
5.0
 40
5.0
 40
6.0
 40
6.0
 40
6.0
 40
7.0
 40
7.0
 40
7.0
 40
8.0
 40
8.0
 40
8.0
 40
9.0
 40
9.0
 40
9.0
 40
10.0
 40
10.0
 40
10.0
 40
11.0
 40
11.0
 40
11.0
 40
12.0
 40
12.0
 40
12.0
 40
13.0
 40
13.0
 40
13.0
 40
14.0
 40
14.0
 40
14.0
 40
15.0
 40
15.0
 40
15.0
 40
15.0
 10
295.334340027
 20
29.2690746431
 30
0.0
 10
295.334340027
 20
29.2690746431
 30
0.0
 10
295.6197300317
 20
29.2690746431
 30
0.0
 10
295.6197300317
 20
29.2690746431
 30
0.0
 10
295.6197300317
 20
29.2690746431
 30
0.0
 10
295.2873638639
 20
29.679952504
 30
0.0
 10
295.2873638639
 20
29.679952504
 30
0.0
 10
295.2873638639
 20
29.679952504
 30
0.0
 10
295.5138700987
 20
29.9458454383
 30
0.0
 10
295.5138700987
 20
29.9458454383
 30
0.0
 10
295.5138700987
 20
29.9458454383
 30
0.0
 10
295.3656138514
 20
30.0986815343
 30
0.0
 10
295.3656138514
 20
30.0986815343
 30
0.0
 10
295.3656138514
 20
30.0986815343
 30
0.0
 10
295.1497066952
 20
29.8474441162
 30
0.0
 10
295.1497066952
 20
29.8474441162
 30
0.0
 10
295.1497066952
 20
29.8474441162
 30
0.0
 10
294.7626440478
 20
30.3153738075
 30
0.0
 10
294.7626440478
 20
30.3153738075
 30
0.0
 10
294.9180972003
 20
30.4294774683
 30
0.0
 10
295.1003751813
 20
30.5692282821
 30
0.0
 10
295.1003751813
 20
30.7785927973
 30
0.0
 10
295.1003751813
 20
31.0225024574
 30
0.0
 10
294.8983384242
 20
31.1659171503
 30
0.0
 10
294.6718321893
 20
31.1659171503
 30
0.0
 10
294.4276608235
 20
31.1659171503
 30
0.0
 10
294.2432891974
 20
31.0151746994
 30
0.0
 10
294.2432891974
 20
30.7587031683
 30
0.0
 10
294.2432891974
 20
30.6011563707
 30
0.0
 10
294.3419522252
 20
30.463499202
 30
0.0
 10
294.4472887468
 20
30.352536009
 30
0.0
 10
294.4472887468
 20
30.352536009
 30
0.0
 10
294.331745705
 20
30.2687902029
 30
0.0
 10
294.331745705
 20
30.2687902029
 30
0.0
 10
294.1540475728
 20
30.1405544374
 30
0.0
 10
294.0067072953
 20
30.0128420831
 30
0.0
 10
294.0067072953
 20
29.7757367697
 30
0.0
 10
294.0067072953
 20
29.4554090615
 30
0.0
 10
294.2652724715
 20
29.2292953852
 30
0.0
 10
294.5756553652
 20
29.2292953852
 30
0.0
 10
294.7945721363
 20
29.2292953852
 30
0.0
 10
294.9917673391
 20
29.354390683
 30
0.0
 10
295.1320415642
 20
29.5203120612
 30
0.0
 10
295.1320415642
 20
29.5203120612
 30
0.0
 10
295.334340027
 20
29.2690746431
 30
0.0
 10
295.334340027
 20
29.2690746431
 30
0.0
  0
LWPOLYLINE
  5
236
330
217
100
AcDbEntity
  8
0
  6
Continuous
 62
     7
100
AcDbPolyline
 90
        2
 70
     0
 43
0.2
 10
297.2697841167
 20
31.1256144811
 10
297.0384363274
 20
31.1256144811
  0
LWPOLYLINE
  5
237
330
217
100
AcDbEntity
  8
0
  6
Continuous
 62
     7
100
AcDbPolyline
 90
        2
 70
     0
 43
0.2
 10
297.0384363274
 20
31.1256144811
 10
297.0384363274
 20
29.2685512318
  0
LWPOLYLINE
  5
238
330
217
100
AcDbEntity
  8
0
  6
Continuous
 62
     7
100
AcDbPolyline
 90
        2
 70
     0
 43
0.2
 10
297.0384363274
 20
29.2685512318
 10
297.8337597794
 20
29.2685512318
  0
LWPOLYLINE
  5
239
330
217
100
AcDbEntity
  8
0
  6
Continuous
 62
     7
100
AcDbPolyline
 90
        2
 70
     0
 43
0.2
 10
297.8337597794
 20
29.2685512318
 10
297.8337597794
 20
29.4805328034
  0
LWPOLYLINE
  5
23A
330
217
100
AcDbEntity
  8
0
  6
Continuous
 62
     7
100
AcDbPolyline
 90
        2
 70
     0
 43
0.2
 10
297.8337597794
 20
29.4805328034
 10
297.2697841167
 20
29.4805328034
  0
LWPOLYLINE
  5
23B
330
217
100
AcDbEntity
  8
0
  6
Continuous
 62
     7
100
AcDbPolyline
 90
        2
 70
     0
 43
0.2
 10
297.2697841167
 20
29.4805328034
 10
297.2697841167
 20
31.1256144811
  0
LWPOLYLINE
  5
23C
330
217
100
AcDbEntity
  8
0
  6
Continuous
 62
     7
100
AcDbPolyline
 90
        2
 70
     0
 43
0.2
 10
299.5128631909
 20
30.4211028877
 10
299.2917219217
 20
30.4211028877
  0
LWPOLYLINE
  5
23D
330
217
100
AcDbEntity
  8
0
  6
Continuous
 62
     7
100
AcDbPolyline
 90
        2
 70
     0
 43
0.2
 10
299.2917219217
 20
30.4211028877
 10
299.2917219217
 20
29.2690746431
  0
LWPOLYLINE
  5
23E
330
217
100
AcDbEntity
  8
0
  6
Continuous
 62
     7
100
AcDbPolyline
 90
        2
 70
     0
 43
0.2
 10
299.2917219217
 20
29.2690746431
 10
299.5128631909
 20
29.2690746431
  0
LWPOLYLINE
  5
23F
330
217
100
AcDbEntity
  8
0
  6
Continuous
 62
     7
100
AcDbPolyline
 90
        2
 70
     0
 43
0.2
 10
299.5128631909
 20
29.2690746431
 10
299.5128631909
 20
30.4211028877
  0
LWPOLYLINE
  5
240
330
217
100
AcDbEntity
  8
0
  6
Continuous
 62
     7
100
AcDbPolyline
 90
        2
 70
     1
 43
0.2
 10
299.2498399136
 20
30.9510568166
 42
1.0
 10
299.5550069046
 20
30.9510568166
 42
1.0
  0
SPLINE
  5
241
330
217
100
AcDbEntity
  8
0
  6
Continuous
 62
     7
100
AcDbSpline
 70
     3
 71
     3
 72
    17
 73
    13
 74
     0
 42
0.000000001
 43
0.0000001
 40
0.0
 40
0.0
 40
0.0
 40
0.0
 40
1.0
 40
1.0
 40
1.0
 40
2.0
 40
2.0
 40
2.0
 40
3.0
 40
3.0
 40
3.0
 40
4.0
 40
4.0
 40
4.0
 40
4.0
 10
301.6431471325
 20
29.4266214407
 30
0.0
 10
301.4091822868
 20
29.4266214407
 30
0.0
 10
301.2788528761
 20
29.6286581978
 30
0.0
 10
301.2788528761
 20
29.8448270597
 30
0.0
 10
301.2788528761
 20
30.0594256877
 30
0.0
 10
301.4146781053
 20
30.2583219771
 30
0.0
 10
301.6431471325
 20
30.2583219771
 30
0.0
 10
301.8826077967
 20
30.2583219771
 30
0.0
 10
302.0181713202
 20
30.0693705022
 30
0.0
 10
302.0181713202
 20
29.8448270597
 30
0.0
 10
302.0181713202
 20
29.6187133834
 30
0.0
 10
301.8849631475
 20
29.4266214407
 30
0.0
 10
301.6431471325
 20
29.4266214407
 30
0.0
  0
SPLINE
  5
242
330
217
100
AcDbEntity
  8
0
  6
Continuous
 62
     7
100
AcDbSpline
 70
     3
 71
     3
 72
    50
 73
    46
 74
     0
 42
0.000000001
 43
0.0000001
 40
0.0
 40
0.0
 40
0.0
 40
0.0
 40
1.0
 40
1.0
 40
1.0
 40
2.0
 40
2.0
 40
2.0
 40
3.0
 40
3.0
 40
3.0
 40
4.0
 40
4.0
 40
4.0
 40
5.0
 40
5.0
 40
5.0
 40
6.0
 40
6.0
 40
6.0
 40
7.0
 40
7.0
 40
7.0
 40
8.0
 40
8.0
 40
8.0
 40
9.0
 40
9.0
 40
9.0
 40
10.0
 40
10.0
 40
10.0
 40
11.0
 40
11.0
 40
11.0
 40
12.0
 40
12.0
 40
12.0
 40
13.0
 40
13.0
 40
13.0
 40
14.0
 40
14.0
 40
14.0
 40
15.0
 40
15.0
 40
15.0
 40
15.0
 10
302.2272741297
 20
30.4216262989
 30
0.0
 10
302.2272741297
 20
30.4216262989
 30
0.0
 10
302.0056094493
 20
30.4216262989
 30
0.0
 10
302.0056094493
 20
30.4216262989
 30
0.0
 10
302.0056094493
 20
30.4216262989
 30
0.0
 10
302.0056094493
 20
30.2243002434
 30
0.0
 10
302.0056094493
 20
30.2243002434
 30
0.0
 10
302.0056094493
 20
30.2243002434
 30
0.0
 10
302.0008987477
 20
30.2243002434
 30
0.0
 10
302.0008987477
 20
30.2243002434
 30
0.0
 10
301.909563478
 20
30.367191525
 30
0.0
 10
301.7716446037
 20
30.4556480327
 30
0.0
 10
301.5989188787
 20
30.4556480327
 30
0.0
 10
301.2665527109
 20
30.4556480327
 30
0.0
 10
301.0574499014
 20
30.1677718243
 30
0.0
 10
301.0574499014
 20
29.8521548177
 30
0.0
 10
301.0574499014
 20
29.5224057064
 30
0.0
 10
301.2545142512
 20
29.2292953852
 30
0.0
 10
301.6093871044
 20
29.2292953852
 30
0.0
 10
301.7716446037
 20
29.2292953852
 30
0.0
 10
301.9116571232
 20
29.3177518928
 30
0.0
 10
302.0008987477
 20
29.4486047148
 30
0.0
 10
302.0008987477
 20
29.4486047148
 30
0.0
 10
302.0056094493
 20
29.4486047148
 30
0.0
 10
302.0056094493
 20
29.4486047148
 30
0.0
 10
302.0056094493
 20
29.4486047148
 30
0.0
 10
302.0056094493
 20
29.2292953852
 30
0.0
 10
302.0056094493
 20
29.2292953852
 30
0.0
 10
302.0056094493
 20
28.9927134831
 30
0.0
 10
301.9490810302
 20
28.8058556533
 30
0.0
 10
301.675860338
 20
28.8058556533
 30
0.0
 10
301.4735618752
 20
28.8058556533
 30
0.0
 10
301.3309322993
 20
28.9241466044
 30
0.0
 10
301.3309322993
 20
29.1303706518
 30
0.0
 10
301.3309322993
 20
29.1303706518
 30
0.0
 10
301.1092676189
 20
29.1303706518
 30
0.0
 10
301.1092676189
 20
29.1303706518
 30
0.0
 10
301.1142400261
 20
28.8058556533
 30
0.0
 10
301.3453261097
 20
28.6090530091
 30
0.0
 10
301.6656538179
 20
28.6090530091
 30
0.0
 10
302.1136938803
 20
28.6090530091
 30
0.0
 10
302.2272741297
 20
28.8943121609
 30
0.0
 10
302.2272741297
 20
29.2910579172
 30
0.0
 10
302.2272741297
 20
29.2910579172
 30
0.0
 10
302.2272741297
 20
30.4216262989
 30
0.0
 10
302.2272741297
 20
30.4216262989
 30
0.0
  0
SPLINE
  5
243
330
217
100
AcDbEntity
  8
0
  6
Continuous
 62
     7
100
AcDbSpline
 70
     3
 71
     3
 72
    44
 73
    40
 74
     0
 42
0.000000001
 43
0.0000001
 40
0.0
 40
0.0
 40
0.0
 40
0.0
 40
1.0
 40
1.0
 40
1.0
 40
2.0
 40
2.0
 40
2.0
 40
3.0
 40
3.0
 40
3.0
 40
4.0
 40
4.0
 40
4.0
 40
5.0
 40
5.0
 40
5.0
 40
6.0
 40
6.0
 40
6.0
 40
7.0
 40
7.0
 40
7.0
 40
8.0
 40
8.0
 40
8.0
 40
9.0
 40
9.0
 40
9.0
 40
10.0
 40
10.0
 40
10.0
 40
11.0
 40
11.0
 40
11.0
 40
12.0
 40
12.0
 40
12.0
 40
13.0
 40
13.0
 40
13.0
 40
13.0
 10
303.7961994651
 20
31.4066863427
 30
0.0
 10
303.7961994651
 20
31.4066863427
 30
0.0
 10
303.7961994651
 20
29.2685512318
 30
0.0
 10
303.7961994651
 20
29.2685512318
 30
0.0
 10
303.7961994651
 20
29.2685512318
 30
0.0
 10
304.0176024399
 20
29.2685512318
 30
0.0
 10
304.0176024399
 20
29.2685512318
 30
0.0
 10
304.0176024399
 20
29.2685512318
 30
0.0
 10
304.0176024399
 20
29.7982434551
 30
0.0
 10
304.0176024399
 20
29.7982434551
 30
0.0
 10
304.0176024399
 20
30.0081313815
 30
0.0
 10
304.0176024399
 20
30.2588453884
 30
0.0
 10
304.3028615918
 20
30.2588453884
 30
0.0
 10
304.5297603851
 20
30.2588453884
 30
0.0
 10
304.5567160664
 20
30.1258989213
 30
0.0
 10
304.5567160664
 20
29.9296196884
 30
0.0
 10
304.5567160664
 20
29.9296196884
 30
0.0
 10
304.5567160664
 20
29.2685512318
 30
0.0
 10
304.5567160664
 20
29.2685512318
 30
0.0
 10
304.5567160664
 20
29.2685512318
 30
0.0
 10
304.7786424525
 20
29.2685512318
 30
0.0
 10
304.7786424525
 20
29.2685512318
 30
0.0
 10
304.7786424525
 20
29.2685512318
 30
0.0
 10
304.7786424525
 20
29.9557902527
 30
0.0
 10
304.7786424525
 20
29.9557902527
 30
0.0
 10
304.7786424525
 20
30.236338703
 30
0.0
 10
304.6946349408
 20
30.4561714439
 30
0.0
 10
304.369596531
 20
30.4561714439
 30
0.0
 10
304.2298457171
 20
30.4561714439
 30
0.0
 10
304.0916651371
 20
30.3896982104
 30
0.0
 10
304.0223131415
 20
30.2666965577
 30
0.0
 10
304.0223131415
 20
30.2666965577
 30
0.0
 10
304.0176024399
 20
30.2666965577
 30
0.0
 10
304.0176024399
 20
30.2666965577
 30
0.0
 10
304.0176024399
 20
30.2666965577
 30
0.0
 10
304.0176024399
 20
31.4066863427
 30
0.0
 10
304.0176024399
 20
31.4066863427
 30
0.0
 10
304.0176024399
 20
31.4066863427
 30
0.0
 10
303.7961994651
 20
31.4066863427
 30
0.0
 10
303.7961994651
 20
31.4066863427
 30
0.0
  0
LWPOLYLINE
  5
244
330
217
100
AcDbEntity
  8
0
  6
Continuous
 62
     7
100
AcDbPolyline
 90
        2
 70
     0
 43
0.2
 10
306.6184331293
 20
30.214355429
 10
306.8348636969
 20
30.214355429
  0
LWPOLYLINE
  5
245
330
217
100
AcDbEntity
  8
0
  6
Continuous
 62
     7
100
AcDbPolyline
 90
        2
 70
     0
 43
0.2
 10
306.8348636969
 20
30.214355429
 10
306.8348636969
 20
30.4211028877
  0
LWPOLYLINE
  5
246
330
217
100
AcDbEntity
  8
0
  6
Continuous
 62
     7
100
AcDbPolyline
 90
        2
 70
     0
 43
0.2
 10
306.8348636969
 20
30.4211028877
 10
306.6184331293
 20
30.4211028877
  0
LWPOLYLINE
  5
247
330
217
100
AcDbEntity
  8
0
  6
Continuous
 62
     7
100
AcDbPolyline
 90
        2
 70
     0
 43
0.2
 10
306.6184331293
 20
30.4211028877
 10
306.6184331293
 20
30.861815192
  0
LWPOLYLINE
  5
248
330
217
100
AcDbEntity
  8
0
  6
Continuous
 62
     7
100
AcDbPolyline
 90
        2
 70
     0
 43
0.2
 10
306.6184331293
 20
30.861815192
 10
306.3967684489
 20
30.861815192
  0
LWPOLYLINE
  5
249
330
217
100
AcDbEntity
  8
0
  6
Continuous
 62
     7
100
AcDbPolyline
 90
        2
 70
     0
 43
0.2
 10
306.3967684489
 20
30.861815192
 10
306.3967684489
 20
30.4211028877
  0
LWPOLYLINE
  5
24A
330
217
100
AcDbEntity
  8
0
  6
Continuous
 62
     7
100
AcDbPolyline
 90
        2
 70
     0
 43
0.2
 10
306.3967684489
 20
30.4211028877
 10
306.2761221471
 20
30.4211028877
  0
LWPOLYLINE
  5
24B
330
217
100
AcDbEntity
  8
0
  6
Continuous
 62
     7
100
AcDbPolyline
 90
        2
 70
     0
 43
0.2
 10
306.2761221471
 20
30.4211028877
 10
306.2761221471
 20
30.214355429
  0
LWPOLYLINE
  5
24C
330
217
100
AcDbEntity
  8
0
  6
Continuous
 62
     7
100
AcDbPolyline
 90
        2
 70
     0
 43
0.2
 10
306.2761221471
 20
30.214355429
 10
306.3967684489
 20
30.214355429
  0
LWPOLYLINE
  5
24D
330
217
100
AcDbEntity
  8
0
  6
Continuous
 62
     7
100
AcDbPolyline
 90
        2
 70
     0
 43
0.2
 10
306.3967684489
 20
30.214355429
 10
306.3967684489
 20
29.2685512318
  0
LWPOLYLINE
  5
24E
330
217
100
AcDbEntity
  8
0
  6
Continuous
 62
     7
100
AcDbPolyline
 90
        2
 70
     0
 43
0.2
 10
306.3967684489
 20
29.2685512318
 10
306.6184331293
 20
29.2685512318
  0
LWPOLYLINE
  5
24F
330
217
100
AcDbEntity
  8
0
  6
Continuous
 62
     7
100
AcDbPolyline
 90
        2
 70
     0
 43
0.2
 10
306.6184331293
 20
29.2685512318
 10
306.6184331293
 20
30.214355429
  0
SPLINE
  5
250
330
217
100
AcDbEntity
  8
0
  6
Continuous
 62
     7
100
AcDbSpline
 70
     3
 71
     3
 72
    20
 73
    16
 74
     0
 42
0.000000001
 43
0.0000001
 40
0.0
 40
0.0
 40
0.0
 40
0.0
 40
1.0
 40
1.0
 40
1.0
 40
2.0
 40
2.0
 40
2.0
 40
3.0
 40
3.0
 40
3.0
 40
4.0
 40
4.0
 40
4.0
 40
5.0
 40
5.0
 40
5.0
 40
5.0
 10
294.4004434366
 20
39.6294776752
 30
0.0
 10
294.4004434366
 20
39.6294776752
 30
0.0
 10
296.716800091
 20
36.7999162529
 30
0.0
 10
296.716800091
 20
36.7999162529
 30
0.0
 10
296.0651530377
 20
36.1477457882
 30
0.0
 10
295.2882798336
 20
35.4118295175
 30
0.0
 10
294.317090189
 20
35.4118295175
 30
0.0
 10
293.3185523046
 20
35.4118295175
 30
0.0
 10
292.375234311
 20
36.3414079648
 30
0.0
 10
292.375234311
 20
37.3406001133
 30
0.0
 10
292.375234311
 20
38.3397922618
 30
0.0
 10
293.5540873841
 20
39.0463975005
 30
0.0
 10
294.2756098444
 20
39.5462552804
 30
0.0
 10
294.2756098444
 20
39.5462552804
 30
0.0
 10
294.4004434366
 20
39.6294776752
 30
0.0
 10
294.4004434366
 20
39.6294776752
 30
0.0
  0
SPLINE
  5
251
330
217
100
AcDbEntity
  8
0
  6
Continuous
 62
     7
100
AcDbSpline
 70
     3
 71
     3
 72
    23
 73
    19
 74
     0
 42
0.000000001
 43
0.0000001
 40
0.0
 40
0.0
 40
0.0
 40
0.0
 40
1.0
 40
1.0
 40
1.0
 40
2.0
 40
2.0
 40
2.0
 40
3.0
 40
3.0
 40
3.0
 40
4.0
 40
4.0
 40
4.0
 40
5.0
 40
5.0
 40
5.0
 40
6.0
 40
6.0
 40
6.0
 40
6.0
 10
294.6778514192
 20
41.2672315949
 30
0.0
 10
294.6778514192
 20
41.2672315949
 30
0.0
 10
294.3313531466
 20
41.7105609557
 30
0.0
 10
294.3313531466
 20
41.7105609557
 30
0.0
 10
294.0255501016
 20
42.0986704257
 30
0.0
 10
293.7066617745
 20
42.4871724541
 30
0.0
 10
293.7066617745
 20
43.0141167682
 30
0.0
 10
293.7066617745
 20
43.6802884848
 30
0.0
 10
294.247999899
 20
44.1240104041
 30
0.0
 10
294.8719061541
 20
44.1240104041
 30
0.0
 10
295.5656878162
 20
44.1240104041
 30
0.0
 10
296.0928938359
 20
43.7217688294
 30
0.0
 10
296.0928938359
 20
42.9867685284
 30
0.0
 10
296.0928938359
 20
42.2235040178
 30
0.0
 10
295.3716330812
 20
41.793390792
 30
0.0
 10
294.8445579143
 20
41.3776713766
 30
0.0
 10
294.8445579143
 20
41.3776713766
 30
0.0
 10
294.6778514192
 20
41.2672315949
 30
0.0
 10
294.6778514192
 20
41.2672315949
 30
0.0
  0
SPLINE
  5
252
330
217
100
AcDbEntity
  8
0
  6
Continuous
 62
     7
100
AcDbSpline
 70
     3
 71
     3
 72
    50
 73
    46
 74
     0
 42
0.000000001
 43
0.0000001
 40
0.0
 40
0.0
 40
0.0
 40
0.0
 40
1.0
 40
1.0
 40
1.0
 40
2.0
 40
2.0
 40
2.0
 40
3.0
 40
3.0
 40
3.0
 40
4.0
 40
4.0
 40
4.0
 40
5.0
 40
5.0
 40
5.0
 40
6.0
 40
6.0
 40
6.0
 40
7.0
 40
7.0
 40
7.0
 40
8.0
 40
8.0
 40
8.0
 40
9.0
 40
9.0
 40
9.0
 40
10.0
 40
10.0
 40
10.0
 40
11.0
 40
11.0
 40
11.0
 40
12.0
 40
12.0
 40
12.0
 40
13.0
 40
13.0
 40
13.0
 40
14.0
 40
14.0
 40
14.0
 40
15.0
 40
15.0
 40
15.0
 40
15.0
 10
298.6314385821
 20
34.4686423768
 30
0.0
 10
298.6314385821
 20
34.4686423768
 30
0.0
 10
300.2406665866
 20
34.4686423768
 30
0.0
 10
300.2406665866
 20
34.4686423768
 30
0.0
 10
300.2406665866
 20
34.4686423768
 30
0.0
 10
298.367639293
 20
36.7857841482
 30
0.0
 10
298.367639293
 20
36.7857841482
 30
0.0
 10
298.367639293
 20
36.7857841482
 30
0.0
 10
299.6439777185
 20
38.2832638428
 30
0.0
 10
299.6439777185
 20
38.2832638428
 30
0.0
 10
299.6439777185
 20
38.2832638428
 30
0.0
 10
298.8117537707
 20
39.1442754113
 30
0.0
 10
298.8117537707
 20
39.1442754113
 30
0.0
 10
298.8117537707
 20
39.1442754113
 30
0.0
 10
297.5911586474
 20
37.7289712889
 30
0.0
 10
297.5911586474
 20
37.7289712889
 30
0.0
 10
297.5911586474
 20
37.7289712889
 30
0.0
 10
295.4132442786
 20
40.3643471233
 30
0.0
 10
295.4132442786
 20
40.3643471233
 30
0.0
 10
296.2868177181
 20
41.0023854832
 30
0.0
 10
297.3134889592
 20
41.793390792
 30
0.0
 10
297.3134889592
 20
42.9722438651
 30
0.0
 10
297.3134889592
 20
44.3459367902
 30
0.0
 10
296.1755928194
 20
45.1504199396
 30
0.0
 10
294.9003012165
 20
45.1504199396
 30
0.0
 10
293.5268699971
 20
45.1504199396
 30
0.0
 10
292.4859357984
 20
44.30419474
 30
0.0
 10
292.4859357984
 20
42.8615423778
 30
0.0
 10
292.4859357984
 20
41.9739676864
 30
0.0
 10
293.0412751748
 20
41.1970944823
 30
0.0
 10
293.6374406317
 20
40.5726648159
 30
0.0
 10
293.6374406317
 20
40.5726648159
 30
0.0
 10
292.9855318726
 20
40.1010712455
 30
0.0
 10
292.9855318726
 20
40.1010712455
 30
0.0
 10
291.9869939882
 20
39.3798104908
 30
0.0
 10
291.1541157764
 20
38.6585497362
 30
0.0
 10
291.1541157764
 20
37.3269914198
 30
0.0
 10
291.1541157764
 20
35.5233161218
 30
0.0
 10
292.611161949
 20
34.2467159907
 30
0.0
 10
294.3587013864
 20
34.2467159907
 30
0.0
 10
295.5935594673
 20
34.2467159907
 30
0.0
 10
296.7029296919
 20
34.9548914632
 30
0.0
 10
297.4938041479
 20
35.8834230879
 30
0.0
 10
297.4938041479
 20
35.8834230879
 30
0.0
 10
298.6314385821
 20
34.4686423768
 30
0.0
 10
298.6314385821
 20
34.4686423768
 30
0.0
  0
LINE
  5
253
330
217
100
AcDbEntity
  8
0
  6
Continuous
 62
     7
100
AcDbLine
 10
284.4342999571
 20
32.4425172814
 30
0.0
 11
306.8482106847
 21
32.4425172814
 31
0.0
  0
LINE
  5
254
330
217
100
AcDbEntity
  8
0
  6
Continuous
 62
     7
100
AcDbLine
 10
306.8482106847
 20
32.4425172814
 30
0.0
 11
306.8482106847
 21
54.8564280091
 31
0.0
  0
LINE
  5
255
330
217
100
AcDbEntity
  8
0
  6
Continuous
 62
     7
100
AcDbLine
 10
306.8482106847
 20
54.8564280091
 30
0.0
 11
284.4342999571
 21
54.8564280091
 31
0.0
  0
LINE
  5
256
330
217
100
AcDbEntity
  8
0
  6
Continuous
 62
     7
100
AcDbLine
 10
284.4342999571
 20
54.8564280091
 30
0.0
 11
284.4342999571
 21
32.4425172814
 31
0.0
  0
ENDBLK
  5
257
330
217
100
AcDbEntity
  8
0
  6
ByBlock
 62
     0
100
AcDbBlockEnd
  0
BLOCK
  5
258
330
218
100
AcDbEntity
  8
0
100
AcDbBlockBegin
  2
PROIEZIONE_EU_BL0
 70
     0
 10
296.8151428497
 20
67.3577405091
 30
0.0
  3
PROIEZIONE_EU_BL0
  1

  0
LWPOLYLINE
  5
259
330
218
100
AcDbEntity
  8
DEFAULT_1
  6
CENTER
 62
     7
100
AcDbPolyline
 90
        2
 70
     0
 43
0.25
 10
302.9417635114
 20
72.3574346409
 10
302.9418044937
 20
62.3580463772
  0
LWPOLYLINE
  5
25A
330
218
100
AcDbEntity
  8
DEFAULT_1
  6
CENTER
 62
     7
100
AcDbPolyline
 90
        2
 70
     0
 43
0.25
 10
308.9417933364
 20
67.3580116442
 10
284.688492363
 20
67.3577409838
  0
LWPOLYLINE
  5
25B
330
218
100
AcDbEntity
  8
0
  6
Continuous
 62
     7
100
AcDbPolyline
 90
        2
 70
     1
 43
0.25
 10
299.3946533356
 20
67.3391927548
 42
1.0
 10
306.5009824342
 20
67.3391927548
 42
1.0
  0
LWPOLYLINE
  5
25C
330
218
100
AcDbEntity
  8
0
  6
Continuous
 62
     7
100
AcDbPolyline
 90
        2
 70
     1
 43
0.25
 10
300.9443971639
 20
67.3570907995
 42
1.0
 10
304.956148914
 20
67.3570907995
 42
1.0
  0
LWPOLYLINE
  5
25D
330
218
100
AcDbEntity
  8
0
  6
Continuous
 62
     7
100
AcDbPolyline
 90
        2
 70
     0
 43
0.25
 10
296.9417911304
 20
70.9329440043
 10
296.9417907758
 20
63.832741096
  0
LWPOLYLINE
  5
25E
330
218
100
AcDbEntity
  8
0
  6
Continuous
 62
     7
100
AcDbPolyline
 90
        2
 70
     0
 43
0.25
 10
296.9418192122
 20
63.8327126596
 10
286.9472619411
 20
65.3528060725
  0
LWPOLYLINE
  5
25F
330
218
100
AcDbEntity
  8
0
  6
Continuous
 62
     7
100
AcDbPolyline
 90
        2
 70
     0
 43
0.25
 10
286.9449519554
 20
65.3521285309
 10
286.9422850514
 20
69.3577671423
  0
LWPOLYLINE
  5
260
330
218
100
AcDbEntity
  8
0
  6
Continuous
 62
     7
100
AcDbPolyline
 90
        2
 70
     0
 43
0.25
 10
286.9422767753
 20
69.3577588663
 10
296.9420200126
 20
70.9329160863
  0
ENDBLK
  5
261
330
218
100
AcDbEntity
  8
0
  6
ByBlock
 62
     0
100
AcDbBlockEnd
  0
ENDSEC
  0
SECTION
  2
ENTITIES
  0
LINE
  5
27F
330
1B
100
AcDbEntity
 67
     1
  8
0
  6
Continuous
 62
     7
100
AcDbLine
 10
0.0
 20
0.0
 30
0.0
 11
420.0
 21
0.0
 31
0.0
  0
LINE
  5
280
330
1B
100
AcDbEntity
 67
     1
  8
0
  6
Continuous
 62
     7
100
AcDbLine
 10
420.0
 20
0.0
 30
0.0
 11
420.0
 21
594.0
 31
0.0
  0
LINE
  5
281
330
1B
100
AcDbEntity
 67
     1
  8
0
  6
Continuous
 62
     7
100
AcDbLine
 10
0.0
 20
594.0
 30
0.0
 11
420.0
 21
594.0
 31
0.0
  0
LINE
  5
282
330
1B
100
AcDbEntity
 67
     1
  8
0
  6
Continuous
 62
     7
100
AcDbLine
 10
0.0
 20
0.0
 30
0.0
 11
0.0
 21
594.0
 31
0.0
  0
VIEWPORT
  5
283
330
1B
100
AcDbEntity
 67
     1
  8
0
100
AcDbViewport
 10
0.0
 20
0.0
 30
0.0
 40
990.1540856031129
 41
700.1803891050583
 68
     1
 69
     1
 12
468.0350194552529
 22
297.0
 13
0.0
 23
0.0
 14
1.0
 24
1.0
 15
0.0
 25
0.0
 16
0.0
 26
0.0
 36
1.0
 17
0.0
 27
0.0
 37
0.0
 42
50.0
 43
0.0
 44
0.0
 45
700.1803891050583
 50
0.0
 51
0.0
 72
   100
 90
   557216
  1

281
     0
 71
     1
 74
     0
110
0.0
120
0.0
130
0.0
111
1.0
121
0.0
131
0.0
112
0.0
122
1.0
132
0.0
 79
     0
146
0.0
170
     0
 61
     5
348
545
292
     1
282
     1
141
0.0
142
0.0
 63
   256
  0
LINE
  5
284
330
1B
100
AcDbEntity
 67
     1
  8
02___PRT_ALL_AXES
  6
Continuous
 62
     7
100
AcDbLine
 10
65.4438463039
 20
380.2410324376
 30
0.0
 11
65.4438463039
 21
381.3910324376
 31
0.0
  0
LINE
  5
285
330
1B
100
AcDbEntity
 67
     1
  8
02___PRT_ALL_AXES
  6
Continuous
 62
     7
100
AcDbLine
 10
194.0438463039
 20
381.3910324376
 30
0.0
 11
191.5938463039
 21
381.3910324376
 31
0.0
  0
LINE
  5
286
330
1B
100
AcDbEntity
 67
     1
  8
02___PRT_ALL_AXES
  6
Continuous
 62
     7
100
AcDbLine
 10
191.5938463039
 20
381.3910324376
 30
0.0
 11
67.8938463039
 21
381.3910324376
 31
0.0
  0
LINE
  5
287
330
1B
100
AcDbEntity
 67
     1
  8
02___PRT_ALL_AXES
  6
Continuous
 62
     7
100
AcDbLine
 10
67.8938463039
 20
381.3910324376
 30
0.0
 11
65.4438463039
 21
381.3910324376
 31
0.0
  0
LINE
  5
288
330
1B
100
AcDbEntity
 67
     1
  8
02___PRT_ALL_AXES
  6
Continuous
 62
     7
100
AcDbLine
 10
194.0438463039
 20
380.2410324376
 30
0.0
 11
194.0438463039
 21
381.3910324376
 31
0.0
  0
LINE
  5
289
330
1B
100
AcDbEntity
 67
     1
  8
3_ALL_AXES
  6
Continuous
 62
     7
100
AcDbLine
 10
181.3565013643
 20
230.2410324376
 30
0.0
 11
181.3565013643
 21
275.2410324376
 31
0.0
  0
LINE
  5
28A
330
1B
100
AcDbEntity
 67
     1
  8
3_ALL_AXES
  6
Continuous
 62
     7
100
AcDbLine
 10
182.1329584996
 20
230.2410324376
 30
0.0
 11
182.1329584996
 21
275.2410324376
 31
0.0
  0
LINE
  5
28B
330
1B
100
AcDbEntity
 67
     1
  8
3_ALL_AXES
  6
Continuous
 62
     7
100
AcDbLine
 10
181.7256660914
 20
275.2410324376
 30
0.0
 11
182.1326539555
 21
275.2410324376
 31
0.0
  0
LINE
  5
28C
330
1B
100
AcDbEntity
 67
     1
  8
3_ALL_AXES
  6
Continuous
 62
     7
100
AcDbLine
 10
180.2369438746
 20
275.2410324376
 30
0.0
 11
180.5921316933
 21
275.2410324376
 31
0.0
  0
LINE
  5
28D
330
1B
100
AcDbEntity
 67
     1
  8
3_ALL_AXES
  6
Continuous
 62
     7
100
AcDbLine
 10
180.5921316933
 20
275.2410324376
 30
0.0
 11
180.9025644935
 21
275.2410324376
 31
0.0
  0
LINE
  5
28E
330
1B
100
AcDbEntity
 67
     1
  8
3_ALL_AXES
  6
Continuous
 62
     7
100
AcDbLine
 10
180.9025644935
 20
275.2410324376
 30
0.0
 11
181.3563741042
 21
275.2410324376
 31
0.0
  0
SPLINE
  5
28F
330
1B
100
AcDbEntity
 67
     1
  8
6_ALL_SURFS
  6
Continuous
 62
     7
100
AcDbSpline
 70
     0
 71
     3
 72
    11
 73
     7
 74
     0
 42
0.000000001
 43
0.0000001
 40
0.0
 40
0.0
 40
0.0
 40
0.0
 40
0.2467108396
 40
0.4964443987
 40
0.7478867456
 40
1.0
 40
1.0
 40
1.0
 40
1.0
 10
118.0364152482
 20
259.211634308
 30
0.0
 10
119.0110988556
 20
259.1439876402
 30
0.0
 10
120.9630217721
 20
258.7721421724
 30
0.0
 10
123.6932628072
 20
257.5634196935
 30
0.0
 10
126.1071634705
 20
255.7706719002
 30
0.0
 10
127.419067123
 20
254.242582913
 30
0.0
 10
127.9796953977
 20
253.4164204651
 30
0.0
  0
SPLINE
  5
290
330
1B
100
AcDbEntity
 67
     1
  8
3_ALL_AXES
  6
Continuous
 62
     7
100
AcDbSpline
 70
     0
 71
     3
 72
    15
 73
    11
 74
     0
 42
0.000000001
 43
0.0000001
 40
0.0
 40
0.0
 40
0.0
 40
0.0
 40
0.1258421806
 40
0.2516812009
 40
0.3775218601
 40
0.5032911174
 40
0.6288095588
 40
0.753737042
 40
0.8776125861
 40
1.0
 40
1.0
 40
1.0
 40
1.0
 10
130.0366223118
 20
246.2410324376
 30
0.0
 10
130.0366223118
 20
247.1599048417
 30
0.0
 10
129.8474713034
 20
249.0030990774
 30
0.0
 10
129.0128589278
 20
251.6489199589
 30
0.0
 10
127.6732646275
 20
254.0779934439
 30
0.0
 10
125.8933096222
 20
256.2011454697
 30
0.0
 10
123.7496597877
 20
257.9451674738
 30
0.0
 10
121.3273526002
 20
259.2471518671
 30
0.0
 10
118.7231243617
 20
260.055175143
 30
0.0
 10
116.9200950924
 20
260.240977805
 30
0.0
 10
116.0264486479
 20
260.2409778051
 30
0.0
  0
LINE
  5
291
330
1B
100
AcDbEntity
 67
     1
  8
3_ALL_AXES
  6
Continuous
 62
     7
100
AcDbLine
 10
182.1329584996
 20
275.2410324376
 30
0.0
 11
182.426652678
 21
275.2410324376
 31
0.0
  0
LINE
  5
292
330
1B
100
AcDbEntity
 67
     1
  8
3_ALL_AXES
  6
Continuous
 62
     7
100
AcDbLine
 10
182.426652678
 20
275.2410324376
 30
0.0
 11
182.5964330367
 21
275.2410324376
 31
0.0
  0
LINE
  5
293
330
1B
100
AcDbEntity
 67
     1
  8
3_ALL_AXES
  6
Continuous
 62
     7
100
AcDbLine
 10
182.5964330367
 20
275.2410324376
 30
0.0
 11
182.7438140759
 21
275.2410324376
 31
0.0
  0
LINE
  5
294
330
1B
100
AcDbEntity
 67
     1
  8
3_ALL_AXES
  6
Continuous
 62
     7
100
AcDbLine
 10
182.7438463039
 20
230.2410324376
 30
0.0
 11
182.7438463039
 21
275.2410324376
 31
0.0
  0
LINE
  5
295
330
1B
100
AcDbEntity
 67
     1
  8
3_ALL_AXES
  6
Continuous
 62
     7
100
AcDbLine
 10
76.7451033378
 20
275.2410324376
 30
0.0
 11
78.7438616901
 21
275.2410324376
 31
0.0
  0
LINE
  5
296
330
1B
100
AcDbEntity
 67
     1
  8
3_ALL_AXES
  6
Continuous
 62
     7
100
AcDbLine
 10
78.7438616901
 20
275.2410324376
 30
0.0
 11
142.9436176041
 21
275.2410324376
 31
0.0
  0
LINE
  5
297
330
1B
100
AcDbEntity
 67
     1
  8
3_ALL_AXES
  6
Continuous
 62
     7
100
AcDbLine
 10
142.9436176041
 20
275.2410324376
 30
0.0
 11
179.0564562833
 21
275.2410324376
 31
0.0
  0
LINE
  5
298
330
1B
100
AcDbEntity
 67
     1
  8
3_ALL_AXES
  6
Continuous
 62
     7
100
AcDbLine
 10
179.0564562833
 20
275.2410324376
 30
0.0
 11
180.2369438746
 21
275.2410324376
 31
0.0
  0
LINE
  5
299
330
1B
100
AcDbEntity
 67
     1
  8
3_ALL_AXES
  6
Continuous
 62
     7
100
AcDbLine
 10
76.7438463039
 20
230.2410324376
 30
0.0
 11
76.7438463039
 21
275.2410324376
 31
0.0
  0
LINE
  5
29A
330
1B
100
AcDbEntity
 67
     1
  8
3_ALL_AXES
  6
Continuous
 62
     7
100
AcDbLine
 10
181.4129083125
 20
230.2410324376
 30
0.0
 11
182.1326539555
 21
230.2410324376
 31
0.0
  0
LINE
  5
29B
330
1B
100
AcDbEntity
 67
     1
  8
3_ALL_AXES
  6
Continuous
 62
     7
100
AcDbLine
 10
182.1329584996
 20
230.2410324376
 30
0.0
 11
182.7437943567
 21
230.2410324376
 31
0.0
  0
LINE
  5
29C
330
1B
100
AcDbEntity
 67
     1
  8
7_ALL_FEATURES
  6
Continuous
 62
     7
100
AcDbLine
 10
118.0409313843
 20
259.2025138344
 30
0.0
 11
118.0122499135
 21
259.2856263545
 31
0.0
  0
LINE
  5
29D
330
1B
100
AcDbEntity
 67
     1
  8
7_ALL_FEATURES
  6
Continuous
 62
     7
100
AcDbLine
 10
118.0122499135
 20
259.2856263545
 30
0.0
 11
117.7333466855
 21
260.0938258474
 31
0.0
  0
LINE
  5
29E
330
1B
100
AcDbEntity
 67
     1
  8
7_ALL_FEATURES
  6
Continuous
 62
     7
100
AcDbLine
 10
102.9906991757
 20
230.2410324376
 30
0.0
 11
76.7439596973
 21
230.2410324376
 31
0.0
  0
LINE
  5
29F
330
1B
100
AcDbEntity
 67
     1
  8
7_ALL_FEATURES
  6
Continuous
 62
     7
100
AcDbLine
 10
102.9906991757
 20
230.2410324376
 30
0.0
 11
104.4053984588
 21
230.2410324376
 31
0.0
  0
LINE
  5
2A0
330
1B
100
AcDbEntity
 67
     1
  8
7_ALL_FEATURES
  6
Continuous
 62
     7
100
AcDbLine
 10
130.0366223118
 20
230.2410324376
 30
0.0
 11
104.4053984588
 21
230.2410324376
 31
0.0
  0
LINE
  5
2A1
330
1B
100
AcDbEntity
 67
     1
  8
7_ALL_FEATURES
  6
Continuous
 62
     7
100
AcDbLine
 10
115.4395118781
 20
260.2052724813
 30
0.0
 11
115.447036211
 21
260.1834686389
 31
0.0
  0
LINE
  5
2A2
330
1B
100
AcDbEntity
 67
     1
  8
7_ALL_FEATURES
  6
Continuous
 62
     7
100
AcDbLine
 10
115.447036211
 20
260.1834686389
 30
0.0
 11
115.4545351054
 21
260.1617385114
 31
0.0
  0
LINE
  5
2A3
330
1B
100
AcDbEntity
 67
     1
  8
7_ALL_FEATURES
  6
Continuous
 62
     7
100
AcDbLine
 10
115.4545351054
 20
260.1617385114
 30
0.0
 11
115.7913024497
 21
259.1858616855
 31
0.0
  0
LINE
  5
2A4
330
1B
100
AcDbEntity
 67
     1
  8
7_ALL_FEATURES
  6
Continuous
 62
     7
100
AcDbLine
 10
115.7913024497
 20
259.1858616855
 30
0.0
 11
115.8395566718
 21
259.0460316874
 31
0.0
  0
LINE
  5
2A5
330
1B
100
AcDbEntity
 67
     1
  8
3_ALL_AXES
  6
Continuous
 62
     7
100
AcDbLine
 10
130.0366223118
 20
230.2410324376
 30
0.0
 11
131.4513215949
 21
230.2410324376
 31
0.0
  0
LINE
  5
2A6
330
1B
100
AcDbEntity
 67
     1
  8
3_ALL_AXES
  6
Continuous
 62
     7
100
AcDbLine
 10
131.4513215949
 20
230.2410324376
 30
0.0
 11
180.2369438746
 21
230.2410324376
 31
0.0
  0
LINE
  5
2A7
330
1B
100
AcDbEntity
 67
     1
  8
3_ALL_AXES
  6
Continuous
 62
     7
100
AcDbLine
 10
180.2369438746
 20
230.2410324376
 30
0.0
 11
181.3563741042
 21
230.2410324376
 31
0.0
  0
LINE
  5
2A8
330
1B
100
AcDbEntity
 67
     1
  8
7_ALL_FEATURES
  6
Continuous
 62
     7
100
AcDbLine
 10
103.797570571
 20
231.2410324376
 30
0.0
 11
130.0366223118
 21
231.2410324376
 31
0.0
  0
LINE
  5
2A9
330
1B
100
AcDbEntity
 67
     1
  8
6_ALL_SURFS
  6
Continuous
 62
     7
100
AcDbLine
 10
104.6909155606
 20
232.2410324376
 30
0.0
 11
104.6909155606
 21
246.2410324376
 31
0.0
  0
LINE
  5
2AA
330
1B
100
AcDbEntity
 67
     1
  8
7_ALL_FEATURES
  6
Continuous
 62
     7
100
AcDbLine
 10
104.6909155606
 20
232.2410324376
 30
0.0
 11
104.3919137378
 21
232.2410324376
 31
0.0
  0
LINE
  5
2AB
330
1B
100
AcDbEntity
 67
     1
  8
7_ALL_FEATURES
  6
Continuous
 62
     7
100
AcDbLine
 10
104.3919137378
 20
232.2410324376
 30
0.0
 11
103.797570571
 21
232.2410324376
 31
0.0
  0
LINE
  5
2AC
330
1B
100
AcDbEntity
 67
     1
  8
7_ALL_FEATURES
  6
Continuous
 62
     7
100
AcDbLine
 10
103.5281918794
 20
232.2410324376
 30
0.0
 11
103.797570571
 21
232.2410324376
 31
0.0
  0
SPLINE
  5
2AD
330
1B
100
AcDbEntity
 67
     1
  8
6_ALL_SURFS
  6
Continuous
 62
     7
100
AcDbSpline
 70
     0
 71
     3
 72
    13
 73
     9
 74
     0
 42
0.000000001
 43
0.0000001
 40
0.0
 40
0.0
 40
0.0
 40
0.0
 40
0.2572600726
 40
0.5075979478
 40
0.6307595162
 40
0.7532565092
 40
0.8760588539
 40
1.0
 40
1.0
 40
1.0
 40
1.0
 10
104.6909155606
 20
246.2410324376
 30
0.0
 10
104.6909155606
 20
247.8451216981
 30
0.0
 10
105.217865822
 20
251.0360522173
 30
0.0
 10
107.1874402503
 20
254.5453598281
 30
0.0
 10
109.4083165635
 20
256.7222423074
 30
0.0
 10
111.34241113
 20
257.9907091683
 30
0.0
 10
113.4929741245
 20
258.8528125042
 30
0.0
 10
115.017835464
 20
259.1330293302
 30
0.0
 10
115.7878864048
 20
259.1982510171
 30
0.0
  0
LINE
  5
2AE
330
1B
100
AcDbEntity
 67
     1
  8
7_ALL_FEATURES
  6
Continuous
 62
     7
100
AcDbLine
 10
130.0366223118
 20
232.2410324376
 30
0.0
 11
129.8049870441
 21
232.2410324376
 31
0.0
  0
SPLINE
  5
2AF
330
1B
100
AcDbEntity
 67
     1
  8
7_ALL_FEATURES
  6
Continuous
 62
     7
100
AcDbSpline
 70
     0
 71
     3
 72
    14
 73
    10
 74
     0
 42
0.000000001
 43
0.0000001
 40
0.0
 40
0.0
 40
0.0
 40
0.0
 40
0.1238868349
 40
0.246528568
 40
0.368791455
 40
0.4916999706
 40
0.616175737
 40
0.7427252924
 40
1.0
 40
1.0
 40
1.0
 40
1.0
 10
115.4414293737
 20
260.1941289448
 30
0.0
 10
114.6128250218
 20
260.1232681483
 30
0.0
 10
112.9728309663
 20
259.8205571099
 30
0.0
 10
110.6613929221
 20
258.8906728503
 30
0.0
 10
108.5850906475
 20
257.5244669663
 30
0.0
 10
106.8061174375
 20
255.7730128752
 30
0.0
 10
105.3711631625
 20
253.6950195885
 30
0.0
 10
103.9602927384
 20
250.5740936764
 30
0.0
 10
103.5281918794
 20
247.9680686544
 30
0.0
 10
103.5281918794
 20
246.2410324376
 30
0.0
  0
LINE
  5
2B0
330
1B
100
AcDbEntity
 67
     1
  8
7_ALL_FEATURES
  6
Continuous
 62
     7
100
AcDbLine
 10
130.0366223118
 20
246.2410324376
 30
0.0
 11
130.0366223118
 21
230.2410324376
 31
0.0
  0
LINE
  5
2B1
330
1B
100
AcDbEntity
 67
     1
  8
7_ALL_FEATURES
  6
Continuous
 62
     7
100
AcDbLine
 10
103.5281918794
 20
232.2410324376
 30
0.0
 11
103.5281918794
 21
246.2410324376
 31
0.0
  0
LINE
  5
2B2
330
1B
100
AcDbEntity
 67
     1
  8
3_ALL_AXES
  6
Continuous
 62
     7
100
AcDbLine
 10
180.2369438746
 20
230.2410324376
 30
0.0
 11
180.2369438746
 21
275.2410324376
 31
0.0
  0
ARC
  5
2B3
330
1B
100
AcDbEntity
 67
     1
  8
6_ALL_SURFS
  6
Continuous
 62
     7
100
AcDbCircle
 10
116.7959031117
 20
246.9261446124
 30
0.0
 40
12.315066045
100
AcDbArc
 50
84.2280860235
 51
85.4567074734
  0
SPLINE
  5
2B4
330
1B
100
AcDbEntity
 67
     1
  8
6_ALL_SURFS
  6
Continuous
 62
     7
100
AcDbSpline
 70
     0
 71
     3
 72
    15
 73
    11
 74
     0
 42
0.000000001
 43
0.0000001
 40
0.0
 40
0.0
 40
0.0
 40
0.0
 40
0.1229442212
 40
0.2470832024
 40
0.3720458959
 40
0.4974496674
 40
0.6230416771
 40
0.7486903634
 40
0.8743414244
 40
1.0
 40
1.0
 40
1.0
 40
1.0
 10
118.0344120741
 20
259.1787748298
 30
0.0
 10
118.8135160614
 20
259.1000330848
 30
0.0
 10
120.3679110929
 20
258.7924058204
 30
0.0
 10
122.5808332368
 20
257.9109270104
 30
0.0
 10
124.6148902196
 20
256.6405413679
 30
0.0
 10
126.3985943064
 20
255.0239498306
 30
0.0
 10
127.8688145457
 20
253.1118262791
 30
0.0
 10
128.9686618155
 20
250.9625058296
 30
0.0
 10
129.6507874414
 20
248.6462613885
 30
0.0
 10
129.8049870441
 20
247.0413940471
 30
0.0
 10
129.8049870441
 20
246.2410324376
 30
0.0
  0
LINE
  5
2B5
330
1B
100
AcDbEntity
 67
     1
  8
7_ALL_FEATURES
  6
Continuous
 62
     7
100
AcDbLine
 10
117.387270724
 20
260.1591769746
 30
0.0
 11
117.7714083244
 21
259.0460316874
 31
0.0
  0
LINE
  5
2B6
330
1B
100
AcDbEntity
 67
     1
  8
6_ALL_SURFS
  6
Continuous
 62
     7
100
AcDbLine
 10
117.7714083244
 20
259.0460316874
 30
0.0
 11
117.7714083244
 21
259.2025138344
 31
0.0
  0
LINE
  5
2B7
330
1B
100
AcDbEntity
 67
     1
  8
6_ALL_SURFS
  6
Continuous
 62
     9
100
AcDbLine
 10
129.8049870441
 20
246.2410324376
 30
0.0
 11
130.0366223118
 21
246.2410324376
 31
0.0
  0
LINE
  5
2B8
330
1B
100
AcDbEntity
 67
     1
  8
6_ALL_SURFS
  6
Continuous
 62
     7
100
AcDbLine
 10
129.8049870441
 20
232.2410324376
 30
0.0
 11
129.8049870441
 21
246.2410324376
 31
0.0
  0
LINE
  5
2B9
330
1B
100
AcDbEntity
 67
     1
  8
7_ALL_FEATURES
  6
Continuous
 62
     7
100
AcDbLine
 10
104.4053984588
 20
230.2410324376
 30
0.0
 11
104.4053984588
 21
231.2410324376
 31
0.0
  0
ELLIPSE
  5
2BA
330
1B
100
AcDbEntity
 67
     1
  8
6_ALL_SURFS
  6
Continuous
 62
     7
100
AcDbEllipse
 10
129.7438463039
 20
221.5535324376
 30
0.0
 11
48.435648891
 21
-18.3918167907
 31
0.0
210
0.0
220
0.0
230
1.0
 40
0.6747123963
 41
2.0633992593
 42
2.1034019264
  0
LINE
  5
2BB
330
1B
100
AcDbEntity
 67
     1
  8
7_ALL_FEATURES
  6
Continuous
 62
     7
100
AcDbLine
 10
102.9906991757
 20
230.2410324376
 30
0.0
 11
102.9906991757
 21
246.2410324376
 31
0.0
  0
ARC
  5
2BC
330
1B
100
AcDbEntity
 67
     1
  8
3_ALL_AXES
  6
Continuous
 62
     7
100
AcDbCircle
 10
116.026181269
 20
247.2021525396
 30
0.0
 40
13.0388252683
100
AcDbArc
 50
89.99882507170001
 51
91.96704034039999
  0
ARC
  5
2BD
330
1B
100
AcDbEntity
 67
     1
  8
3_ALL_AXES
  6
Continuous
 62
     7
100
AcDbCircle
 10
116.0240911061
 20
247.2708235625
 30
0.0
 40
12.9701229694
100
AcDbArc
 50
91.9682250013
 51
92.5921451389
  0
SPLINE
  5
2BE
330
1B
100
AcDbEntity
 67
     1
  8
3_ALL_AXES
  6
Continuous
 62
     7
100
AcDbSpline
 70
     0
 71
     3
 72
    15
 73
    11
 74
     0
 42
0.000000001
 43
0.0000001
 40
0.0
 40
0.0
 40
0.0
 40
0.0
 40
0.1239966381
 40
0.2467053468
 40
0.3689311593
 40
0.4917083613
 40
0.6159825101
 40
0.7422952883
 40
0.8705494579
 40
1.0
 40
1.0
 40
1.0
 40
1.0
 10
115.4375038624
 20
260.2276752343
 30
0.0
 10
114.583546375
 20
260.1890124722
 30
0.0
 10
112.8869352568
 20
259.9420388257
 30
0.0
 10
110.4806226433
 20
259.0670075221
 30
0.0
 10
108.3088391444
 20
257.725460615
 30
0.0
 10
106.4418148739
 20
255.9704180192
 30
0.0
 10
104.9326317412
 20
253.8662102656
 30
0.0
 10
103.8227160574
 20
251.4859845897
 30
0.0
 10
103.1430678561
 20
248.9139137915
 30
0.0
 10
102.9906991757
 20
247.1334638905
 30
0.0
 10
102.9906991757
 20
246.2410324376
 30
0.0
  0
LINE
  5
2BF
330
1B
100
AcDbEntity
 67
     1
  8
7_ALL_FEATURES
  6
Continuous
 62
     7
100
AcDbLine
 10
103.797570571
 20
231.2410324376
 30
0.0
 11
103.797570571
 21
232.2410324376
 31
0.0
  0
LINE
  5
2C0
330
1B
100
AcDbEntity
 67
     1
  8
3_ALL_AXES
  6
Continuous
 62
     9
100
AcDbLine
 10
103.5281918794
 20
246.2410324376
 30
0.0
 11
102.9906991757
 21
246.2410324376
 31
0.0
  0
LINE
  5
2C1
330
1B
100
AcDbEntity
 67
     1
  8
3_ALL_AXES
  6
Continuous
 62
     7
100
AcDbLine
 10
181.6651744362
 20
275.2410324376
 30
0.0
 11
181.6651744362
 21
325.2410324376
 31
0.0
  0
LINE
  5
2C2
330
1B
100
AcDbEntity
 67
     1
  8
3_ALL_AXES
  6
Continuous
 62
     7
100
AcDbLine
 10
180.5921316933
 20
325.2410324376
 30
0.0
 11
181.1277973528
 21
325.2410324376
 31
0.0
  0
LINE
  5
2C3
330
1B
100
AcDbEntity
 67
     1
  8
3_ALL_AXES
  6
Continuous
 62
     7
100
AcDbLine
 10
181.1277973528
 20
325.2410324376
 30
0.0
 11
181.5053190759
 21
325.2410324376
 31
0.0
  0
LINE
  5
2C4
330
1B
100
AcDbEntity
 67
     1
  8
3_ALL_AXES
  6
Continuous
 62
     7
100
AcDbLine
 10
181.5053190759
 20
325.2410324376
 30
0.0
 11
181.6626759297
 21
325.2410324376
 31
0.0
  0
LINE
  5
2C5
330
1B
100
AcDbEntity
 67
     1
  8
3_ALL_AXES
  6
Continuous
 62
     7
100
AcDbLine
 10
181.6626759297
 20
325.2410324376
 30
0.0
 11
181.6649425227
 21
325.2410324376
 31
0.0
  0
LINE
  5
2C6
330
1B
100
AcDbEntity
 67
     1
  8
3_ALL_AXES
  6
Continuous
 62
     7
100
AcDbLine
 10
180.2369438746
 20
275.2410324376
 30
0.0
 11
179.0564562833
 21
275.2410324376
 31
0.0
  0
LINE
  5
2C7
330
1B
100
AcDbEntity
 67
     1
  8
3_ALL_AXES
  6
Continuous
 62
     7
100
AcDbLine
 10
179.0564562833
 20
275.2410324376
 30
0.0
 11
142.9436176041
 21
275.2410324376
 31
0.0
  0
LINE
  5
2C8
330
1B
100
AcDbEntity
 67
     1
  8
3_ALL_AXES
  6
Continuous
 62
     7
100
AcDbLine
 10
142.9436176041
 20
275.2410324376
 30
0.0
 11
78.7438616901
 21
275.2410324376
 31
0.0
  0
LINE
  5
2C9
330
1B
100
AcDbEntity
 67
     1
  8
3_ALL_AXES
  6
Continuous
 62
     7
100
AcDbLine
 10
78.7438616901
 20
275.2410324376
 30
0.0
 11
76.7451033378
 21
275.2410324376
 31
0.0
  0
LINE
  5
2CA
330
1B
100
AcDbEntity
 67
     1
  8
3_ALL_AXES
  6
Continuous
 62
     7
100
AcDbLine
 10
182.7435425749
 20
275.2410324376
 30
0.0
 11
182.5964330367
 21
275.2410324376
 31
0.0
  0
LINE
  5
2CB
330
1B
100
AcDbEntity
 67
     1
  8
3_ALL_AXES
  6
Continuous
 62
     7
100
AcDbLine
 10
182.5964330367
 20
275.2410324376
 30
0.0
 11
182.426652678
 21
275.2410324376
 31
0.0
  0
LINE
  5
2CC
330
1B
100
AcDbEntity
 67
     1
  8
3_ALL_AXES
  6
Continuous
 62
     7
100
AcDbLine
 10
182.426652678
 20
275.2410324376
 30
0.0
 11
182.1329584996
 21
275.2410324376
 31
0.0
  0
LINE
  5
2CD
330
1B
100
AcDbEntity
 67
     1
  8
3_ALL_AXES
  6
Continuous
 62
     7
100
AcDbLine
 10
181.6649425227
 20
325.2410324376
 30
0.0
 11
182.5056873036
 21
325.2410324376
 31
0.0
  0
LINE
  5
2CE
330
1B
100
AcDbEntity
 67
     1
  8
3_ALL_AXES
  6
Continuous
 62
     7
100
AcDbLine
 10
182.5056873036
 20
325.2410324376
 30
0.0
 11
182.7410946237
 21
325.2410324376
 31
0.0
  0
LINE
  5
2CF
330
1B
100
AcDbEntity
 67
     1
  8
3_ALL_AXES
  6
Continuous
 62
     7
100
AcDbLine
 10
181.3565013643
 20
275.2410324376
 30
0.0
 11
181.5053190759
 21
275.2410324376
 31
0.0
  0
LINE
  5
2D0
330
1B
100
AcDbEntity
 67
     1
  8
3_ALL_AXES
  6
Continuous
 62
     7
100
AcDbLine
 10
181.5053190759
 20
275.2410324376
 30
0.0
 11
181.6649425227
 21
275.2410324376
 31
0.0
  0
LINE
  5
2D1
330
1B
100
AcDbEntity
 67
     1
  8
3_ALL_AXES
  6
Continuous
 62
     7
100
AcDbLine
 10
182.7438463039
 20
275.2410324376
 30
0.0
 11
182.7438463039
 21
325.2410324376
 31
0.0
  0
LINE
  5
2D2
330
1B
100
AcDbEntity
 67
     1
  8
3_ALL_AXES
  6
Continuous
 62
     7
100
AcDbLine
 10
76.7442584372
 20
325.2410324376
 30
0.0
 11
78.7440651486
 21
325.2410324376
 31
0.0
  0
LINE
  5
2D3
330
1B
100
AcDbEntity
 67
     1
  8
3_ALL_AXES
  6
Continuous
 62
     7
100
AcDbLine
 10
78.7440651486
 20
325.2410324376
 30
0.0
 11
129.7438463039
 21
325.2410324376
 31
0.0
  0
LINE
  5
2D4
330
1B
100
AcDbEntity
 67
     1
  8
3_ALL_AXES
  6
Continuous
 62
     7
100
AcDbLine
 10
129.7438463039
 20
325.2410324376
 30
0.0
 11
142.9436176041
 21
325.2410324376
 31
0.0
  0
LINE
  5
2D5
330
1B
100
AcDbEntity
 67
     1
  8
3_ALL_AXES
  6
Continuous
 62
     7
100
AcDbLine
 10
142.9436176041
 20
325.2410324376
 30
0.0
 11
177.8625954489
 21
325.2410324376
 31
0.0
  0
LINE
  5
2D6
330
1B
100
AcDbEntity
 67
     1
  8
3_ALL_AXES
  6
Continuous
 62
     7
100
AcDbLine
 10
177.8625954489
 20
325.2410324376
 30
0.0
 11
180.5921316933
 21
325.2410324376
 31
0.0
  0
LINE
  5
2D7
330
1B
100
AcDbEntity
 67
     1
  8
3_ALL_AXES
  6
Continuous
 62
     7
100
AcDbLine
 10
76.7438463039
 20
275.2410324376
 30
0.0
 11
76.7438463039
 21
325.2410324376
 31
0.0
  0
LINE
  5
2D8
330
1B
100
AcDbEntity
 67
     1
  8
3_ALL_AXES
  6
Continuous
 62
     7
100
AcDbLine
 10
180.5921316933
 20
275.2410324376
 30
0.0
 11
180.5921316933
 21
325.2410324376
 31
0.0
  0
LINE
  5
2D9
330
1B
100
AcDbEntity
 67
     1
  8
3_ALL_AXES
  6
Continuous
 62
     7
100
AcDbLine
 10
191.3644537289
 20
380.2410324376
 30
0.0
 11
194.0626323321
 21
380.2410324376
 31
0.0
  0
LINE
  5
2DA
330
1B
100
AcDbEntity
 67
     1
  8
3_ALL_AXES
  6
Continuous
 62
     7
100
AcDbLine
 10
194.0630991864
 20
355.2410324376
 30
0.0
 11
194.0630991864
 21
380.2410324376
 31
0.0
  0
LINE
  5
2DB
330
1B
100
AcDbEntity
 67
     1
  8
3_ALL_AXES
  6
Continuous
 62
     7
100
AcDbLine
 10
181.6649425227
 20
325.2410324376
 30
0.0
 11
180.5921316933
 21
325.2410324376
 31
0.0
  0
LINE
  5
2DC
330
1B
100
AcDbEntity
 67
     1
  8
3_ALL_AXES
  6
Continuous
 62
     7
100
AcDbLine
 10
181.6651744362
 20
345.2410324376
 30
0.0
 11
181.6651744362
 21
325.2410324376
 31
0.0
  0
LINE
  5
2DD
330
1B
100
AcDbEntity
 67
     1
  8
7_ALL_FEATURES
  6
Continuous
 62
     7
100
AcDbLine
 10
86.3175095175
 20
355.2410324376
 30
0.0
 11
96.9448081982
 21
355.2410324376
 31
0.0
  0
LINE
  5
2DE
330
1B
100
AcDbEntity
 67
     1
  8
7_ALL_FEATURES
  6
Continuous
 62
     7
100
AcDbLine
 10
96.9448081982
 20
355.2410324376
 30
0.0
 11
99.5428844096
 21
355.2410324376
 31
0.0
  0
LINE
  5
2DF
330
1B
100
AcDbEntity
 67
     1
  8
7_ALL_FEATURES
  6
Continuous
 62
     7
100
AcDbLine
 10
99.5428844096
 20
355.2410324376
 30
0.0
 11
128.2438463039
 21
355.2410324376
 31
0.0
  0
LINE
  5
2E0
330
1B
100
AcDbEntity
 67
     1
  8
7_ALL_FEATURES
  6
Continuous
 62
     7
100
AcDbLine
 10
128.2438463039
 20
355.2410324376
 30
0.0
 11
129.7438463039
 21
355.2410324376
 31
0.0
  0
LINE
  5
2E1
330
1B
100
AcDbEntity
 67
     1
  8
7_ALL_FEATURES
  6
Continuous
 62
     7
100
AcDbLine
 10
191.1975092869
 20
355.2410324376
 30
0.0
 11
185.0534467423
 21
355.2410324376
 31
0.0
  0
LINE
  5
2E2
330
1B
100
AcDbEntity
 67
     1
  8
7_ALL_FEATURES
  6
Continuous
 62
     7
100
AcDbLine
 10
185.0534467423
 20
355.2410324376
 30
0.0
 11
184.5202422814
 21
355.2410324376
 31
0.0
  0
LINE
  5
2E3
330
1B
100
AcDbEntity
 67
     1
  8
7_ALL_FEATURES
  6
Continuous
 62
     7
100
AcDbLine
 10
184.5202422814
 20
355.2410324376
 30
0.0
 11
183.5534467423
 21
355.2410324376
 31
0.0
  0
LINE
  5
2E4
330
1B
100
AcDbEntity
 67
     1
  8
7_ALL_FEATURES
  6
Continuous
 62
     7
100
AcDbLine
 10
183.5534467423
 20
355.2410324376
 30
0.0
 11
178.709461527
 21
355.2410324376
 31
0.0
  0
LINE
  5
2E5
330
1B
100
AcDbEntity
 67
     1
  8
7_ALL_FEATURES
  6
Continuous
 62
     7
100
AcDbLine
 10
178.709461527
 20
355.2410324376
 30
0.0
 11
174.9563163209
 21
355.2410324376
 31
0.0
  0
LINE
  5
2E6
330
1B
100
AcDbEntity
 67
     1
  8
7_ALL_FEATURES
  6
Continuous
 62
     7
100
AcDbLine
 10
174.9563163209
 20
355.2410324376
 30
0.0
 11
174.8748064072
 21
355.2410324376
 31
0.0
  0
LINE
  5
2E7
330
1B
100
AcDbEntity
 67
     1
  8
7_ALL_FEATURES
  6
Continuous
 62
     7
100
AcDbLine
 10
174.8748064072
 20
355.2410324376
 30
0.0
 11
169.9233816076
 21
355.2410324376
 31
0.0
  0
LINE
  5
2E8
330
1B
100
AcDbEntity
 67
     1
  8
7_ALL_FEATURES
  6
Continuous
 62
     7
100
AcDbLine
 10
169.9233816076
 20
355.2410324376
 30
0.0
 11
167.7119582313
 21
355.2410324376
 31
0.0
  0
LINE
  5
2E9
330
1B
100
AcDbEntity
 67
     1
  8
7_ALL_FEATURES
  6
Continuous
 62
     7
100
AcDbLine
 10
167.7119582313
 20
355.2410324376
 30
0.0
 11
154.8393134491
 21
355.2410324376
 31
0.0
  0
LINE
  5
2EA
330
1B
100
AcDbEntity
 67
     1
  8
7_ALL_FEATURES
  6
Continuous
 62
     7
100
AcDbLine
 10
154.8393134491
 20
355.2410324376
 30
0.0
 11
147.1656903106
 21
355.2410324376
 31
0.0
  0
LINE
  5
2EB
330
1B
100
AcDbEntity
 67
     1
  8
7_ALL_FEATURES
  6
Continuous
 62
     7
100
AcDbLine
 10
147.1656903106
 20
355.2410324376
 30
0.0
 11
131.2438463039
 21
355.2410324376
 31
0.0
  0
LINE
  5
2EC
330
1B
100
AcDbEntity
 67
     1
  8
7_ALL_FEATURES
  6
Continuous
 62
     7
100
AcDbLine
 10
131.2438463039
 20
355.2410324376
 30
0.0
 11
129.7438463039
 21
355.2410324376
 31
0.0
  0
LINE
  5
2ED
330
1B
100
AcDbEntity
 67
     1
  8
7_ALL_FEATURES
  6
Continuous
 62
     7
100
AcDbLine
 10
192.8733599569
 20
345.2410324376
 30
0.0
 11
192.7583761152
 21
345.2410324376
 31
0.0
  0
LINE
  5
2EE
330
1B
100
AcDbEntity
 67
     1
  8
7_ALL_FEATURES
  6
Continuous
 62
     7
100
AcDbLine
 10
192.873528843
 20
345.2410324376
 30
0.0
 11
192.873528843
 21
355.2410324376
 31
0.0
  0
LINE
  5
2EF
330
1B
100
AcDbEntity
 67
     1
  8
7_ALL_FEATURES
  6
Continuous
 62
     7
100
AcDbLine
 10
80.7500958577
 20
345.2410324376
 30
0.0
 11
80.7500958577
 21
355.2410324376
 31
0.0
  0
LINE
  5
2F0
330
1B
100
AcDbEntity
 67
     1
  8
6_ALL_SURFS
  6
Continuous
 62
     7
100
AcDbLine
 10
186.1982525102
 20
334.7410324376
 30
0.0
 11
185.8837756268
 21
334.7410324376
 31
0.0
  0
LINE
  5
2F1
330
1B
100
AcDbEntity
 67
     1
  8
6_ALL_SURFS
  6
Continuous
 62
     7
100
AcDbLine
 10
185.8837756268
 20
334.7410324376
 30
0.0
 11
184.5438463039
 21
334.7410324376
 31
0.0
  0
ARC
  5
2F2
330
1B
100
AcDbEntity
 67
     1
  8
6_ALL_SURFS
  6
Continuous
 62
     7
100
AcDbCircle
 10
186.1990338401
 20
336.7410324376
 30
0.0
 40
2.0
100
AcDbArc
 50
270.0
 51
358.9999999999999
  0
LINE
  5
2F3
330
1B
100
AcDbEntity
 67
     1
  8
6_ALL_SURFS
  6
Continuous
 62
     7
100
AcDbLine
 10
186.1772005844
 20
334.7410324376
 30
0.0
 11
185.9404229093
 21
334.7410324376
 31
0.0
  0
LINE
  5
2F4
330
1B
100
AcDbEntity
 67
     1
  8
6_ALL_SURFS
  6
Continuous
 62
     7
100
AcDbLine
 10
184.5438463039
 20
334.7410324376
 30
0.0
 11
186.1772005844
 21
334.7410324376
 31
0.0
  0
LINE
  5
2F5
330
1B
100
AcDbEntity
 67
     1
  8
6_ALL_SURFS
  6
Continuous
 62
     7
100
AcDbLine
 10
188.1987292305
 20
336.7061276247
 30
0.0
 11
188.3296311679
 21
344.2054945975
 31
0.0
  0
ARC
  5
2F6
330
1B
100
AcDbEntity
 67
     1
  8
6_ALL_SURFS
  6
Continuous
 62
     7
100
AcDbCircle
 10
149.4889136678
 20
336.7410324376
 30
0.0
 40
2.0
100
AcDbArc
 50
181.0
 51
270.0
  0
LINE
  5
2F7
330
1B
100
AcDbEntity
 67
     1
  8
6_ALL_SURFS
  6
Continuous
 62
     7
100
AcDbLine
 10
153.9211658045
 20
334.7410324376
 30
0.0
 11
151.4102148166
 21
334.7410324376
 31
0.0
  0
LINE
  5
2F8
330
1B
100
AcDbEntity
 67
     1
  8
6_ALL_SURFS
  6
Continuous
 62
     7
100
AcDbLine
 10
151.4102148166
 20
334.7410324376
 30
0.0
 11
151.2859721814
 21
334.7410324376
 31
0.0
  0
LINE
  5
2F9
330
1B
100
AcDbEntity
 67
     1
  8
6_ALL_SURFS
  6
Continuous
 62
     7
100
AcDbLine
 10
151.2859721814
 20
334.7410324376
 30
0.0
 11
149.4889551952
 21
334.7410324376
 31
0.0
  0
LINE
  5
2FA
330
1B
100
AcDbEntity
 67
     1
  8
6_ALL_SURFS
  6
Continuous
 62
     7
100
AcDbLine
 10
149.5107469242
 20
334.7410324376
 30
0.0
 11
153.9211658045
 21
334.7410324376
 31
0.0
  0
LINE
  5
2FB
330
1B
100
AcDbEntity
 67
     1
  8
6_ALL_SURFS
  6
Continuous
 62
     7
100
AcDbLine
 10
167.5998449146
 20
334.7410324376
 30
0.0
 11
167.3962532971
 21
334.7410324376
 31
0.0
  0
LINE
  5
2FC
330
1B
100
AcDbEntity
 67
     1
  8
6_ALL_SURFS
  6
Continuous
 62
     7
100
AcDbLine
 10
167.3962532971
 20
334.7410324376
 30
0.0
 11
166.3228494996
 21
334.7410324376
 31
0.0
  0
ARC
  5
2FD
330
1B
100
AcDbEntity
 67
     1
  8
6_ALL_SURFS
  6
Continuous
 62
     7
100
AcDbCircle
 10
167.6001582504
 20
336.7410324376
 30
0.0
 40
2.0
100
AcDbArc
 50
270.0
 51
358.9999999999999
  0
LINE
  5
2FE
330
1B
100
AcDbEntity
 67
     1
  8
6_ALL_SURFS
  6
Continuous
 62
     7
100
AcDbLine
 10
167.5670542017
 20
334.7410324376
 30
0.0
 11
167.5286964568
 21
334.7410324376
 31
0.0
  0
LINE
  5
2FF
330
1B
100
AcDbEntity
 67
     1
  8
6_ALL_SURFS
  6
Continuous
 62
     7
100
AcDbLine
 10
166.3228494996
 20
334.7410324376
 30
0.0
 11
167.3979799545
 21
334.7410324376
 31
0.0
  0
LINE
  5
300
330
1B
100
AcDbEntity
 67
     1
  8
6_ALL_SURFS
  6
Continuous
 62
     7
100
AcDbLine
 10
167.3979799545
 20
334.7410324376
 30
0.0
 11
167.5670542017
 21
334.7410324376
 31
0.0
  0
LINE
  5
301
330
1B
100
AcDbEntity
 67
     1
  8
6_ALL_SURFS
  6
Continuous
 62
     7
100
AcDbLine
 10
147.4892182775
 20
336.7061276247
 30
0.0
 11
147.1656903106
 21
355.2410324376
 31
0.0
  0
LINE
  5
302
330
1B
100
AcDbEntity
 67
     1
  8
6_ALL_SURFS
  6
Continuous
 62
     7
100
AcDbLine
 10
169.5998536407
 20
336.7061276247
 30
0.0
 11
169.9233816076
 21
355.2410324376
 31
0.0
  0
ARC
  5
303
330
1B
100
AcDbEntity
 67
     1
  8
6_ALL_SURFS
  6
Continuous
 62
     7
100
AcDbCircle
 10
73.2886587677
 20
336.7410324376
 30
0.0
 40
2.0
100
AcDbArc
 50
181.0
 51
270.0
  0
LINE
  5
304
330
1B
100
AcDbEntity
 67
     1
  8
3_ALL_AXES
  6
Continuous
 62
     7
100
AcDbLine
 10
180.5921316933
 20
325.2410324376
 30
0.0
 11
177.8625954489
 21
325.2410324376
 31
0.0
  0
LINE
  5
305
330
1B
100
AcDbEntity
 67
     1
  8
3_ALL_AXES
  6
Continuous
 62
     7
100
AcDbLine
 10
177.8625954489
 20
325.2410324376
 30
0.0
 11
142.9436176041
 21
325.2410324376
 31
0.0
  0
LINE
  5
306
330
1B
100
AcDbEntity
 67
     1
  8
3_ALL_AXES
  6
Continuous
 62
     7
100
AcDbLine
 10
142.9436176041
 20
325.2410324376
 30
0.0
 11
129.7438463039
 21
325.2410324376
 31
0.0
  0
LINE
  5
307
330
1B
100
AcDbEntity
 67
     1
  8
3_ALL_AXES
  6
Continuous
 62
     7
100
AcDbLine
 10
129.7438463039
 20
325.2410324376
 30
0.0
 11
78.7440651486
 21
325.2410324376
 31
0.0
  0
LINE
  5
308
330
1B
100
AcDbEntity
 67
     1
  8
3_ALL_AXES
  6
Continuous
 62
     7
100
AcDbLine
 10
78.7440651486
 20
325.2410324376
 30
0.0
 11
78.6751289116
 21
325.2410324376
 31
0.0
  0
LINE
  5
309
330
1B
100
AcDbEntity
 67
     1
  8
3_ALL_AXES
  6
Continuous
 62
     7
100
AcDbLine
 10
78.6751289116
 20
325.2410324376
 30
0.0
 11
76.7441584528
 21
325.2410324376
 31
0.0
  0
LINE
  5
30A
330
1B
100
AcDbEntity
 67
     1
  8
6_ALL_SURFS
  6
Continuous
 62
     7
100
AcDbLine
 10
73.5472696986
 20
334.7410324376
 30
0.0
 11
73.2894400976
 21
334.7410324376
 31
0.0
  0
LINE
  5
30B
330
1B
100
AcDbEntity
 67
     1
  8
6_ALL_SURFS
  6
Continuous
 62
     7
100
AcDbLine
 10
73.3104920234
 20
334.7410324376
 30
0.0
 11
73.5472696986
 21
334.7410324376
 31
0.0
  0
LINE
  5
30C
330
1B
100
AcDbEntity
 67
     1
  8
6_ALL_SURFS
  6
Continuous
 62
     7
100
AcDbLine
 10
73.6056181969
 20
334.7410324376
 30
0.0
 11
73.3104920234
 21
334.7410324376
 31
0.0
  0
LINE
  5
30D
330
1B
100
AcDbEntity
 67
     1
  8
6_ALL_SURFS
  6
Continuous
 62
     7
100
AcDbLine
 10
86.43028292
 20
334.7410324376
 30
0.0
 11
86.0404340151
 21
334.7410324376
 31
0.0
  0
LINE
  5
30E
330
1B
100
AcDbEntity
 67
     1
  8
6_ALL_SURFS
  6
Continuous
 62
     7
100
AcDbLine
 10
86.0404340151
 20
334.7410324376
 30
0.0
 11
80.7073851183
 21
334.7410324376
 31
0.0
  0
ARC
  5
30F
330
1B
100
AcDbEntity
 67
     1
  8
6_ALL_SURFS
  6
Continuous
 62
     7
100
AcDbCircle
 10
86.4305182886
 20
336.7410324376
 30
0.0
 40
2.0
100
AcDbArc
 50
270.0
 51
358.9999999999999
  0
LINE
  5
310
330
1B
100
AcDbEntity
 67
     1
  8
6_ALL_SURFS
  6
Continuous
 62
     7
100
AcDbLine
 10
86.3974142405
 20
334.7410324376
 30
0.0
 11
86.2320947884
 21
334.7410324376
 31
0.0
  0
LINE
  5
311
330
1B
100
AcDbEntity
 67
     1
  8
6_ALL_SURFS
  6
Continuous
 62
     7
100
AcDbLine
 10
80.7073851183
 20
334.7410324376
 30
0.0
 11
86.3974142405
 21
334.7410324376
 31
0.0
  0
LINE
  5
312
330
1B
100
AcDbEntity
 67
     1
  8
6_ALL_SURFS
  6
Continuous
 62
     7
100
AcDbLine
 10
71.2889633774
 20
336.7061276247
 30
0.0
 11
70.9654354104
 21
355.2410324376
 31
0.0
  0
LINE
  5
313
330
1B
100
AcDbEntity
 67
     1
  8
6_ALL_SURFS
  6
Continuous
 62
     7
100
AcDbLine
 10
88.4302136789
 20
336.7061276247
 30
0.0
 11
88.5791909966
 21
345.2410324376
 31
0.0
  0
LINE
  5
314
330
1B
100
AcDbEntity
 67
     1
  8
3_ALL_AXES
  6
Continuous
 62
     7
100
AcDbLine
 10
194.2437657075
 20
380.2410324376
 30
0.0
 11
194.0630991864
 21
380.2410324376
 31
0.0
  0
LINE
  5
315
330
1B
100
AcDbEntity
 67
     1
  8
7_ALL_FEATURES
  6
Continuous
 62
     7
100
AcDbLine
 10
194.2438015018
 20
355.2410324376
 30
0.0
 11
194.0630991864
 21
355.2410324376
 31
0.0
  0
LINE
  5
316
330
1B
100
AcDbEntity
 67
     1
  8
3_ALL_AXES
  6
Continuous
 62
     7
100
AcDbLine
 10
194.2438463039
 20
355.2410324376
 30
0.0
 11
194.2438463039
 21
380.2410324376
 31
0.0
  0
LINE
  5
317
330
1B
100
AcDbEntity
 67
     1
  8
3_ALL_AXES
  6
Continuous
 62
     7
100
AcDbLine
 10
182.7410946237
 20
325.2410324376
 30
0.0
 11
182.5056873036
 21
325.2410324376
 31
0.0
  0
LINE
  5
318
330
1B
100
AcDbEntity
 67
     1
  8
3_ALL_AXES
  6
Continuous
 62
     7
100
AcDbLine
 10
182.5056873036
 20
325.2410324376
 30
0.0
 11
181.6649425227
 21
325.2410324376
 31
0.0
  0
LINE
  5
319
330
1B
100
AcDbEntity
 67
     1
  8
3_ALL_AXES
  6
Continuous
 62
     7
100
AcDbLine
 10
182.7438463039
 20
325.2410324376
 30
0.0
 11
182.7438463039
 21
330.1879557691
 31
0.0
  0
LINE
  5
31A
330
1B
100
AcDbEntity
 67
     1
  8
3_ALL_AXES
  6
Continuous
 62
     7
100
AcDbLine
 10
76.7438463039
 20
325.2410324376
 30
0.0
 11
76.7438463039
 21
330.1879557691
 31
0.0
  0
LINE
  5
31B
330
1B
100
AcDbEntity
 67
     1
  8
3_ALL_AXES
  6
Continuous
 62
     7
100
AcDbLine
 10
65.2438463039
 20
380.2410324376
 30
0.0
 11
65.4438463039
 21
380.2410324376
 31
0.0
  0
LINE
  5
31C
330
1B
100
AcDbEntity
 67
     1
  8
3_ALL_AXES
  6
Continuous
 62
     7
100
AcDbLine
 10
65.4438463039
 20
380.2410324376
 30
0.0
 11
65.5971840527
 21
380.2410324376
 31
0.0
  0
LINE
  5
31D
330
1B
100
AcDbEntity
 67
     1
  8
3_ALL_AXES
  6
Continuous
 62
     7
100
AcDbLine
 10
65.5971840527
 20
380.2410324376
 30
0.0
 11
67.2438463039
 21
380.2410324376
 31
0.0
  0
LINE
  5
31E
330
1B
100
AcDbEntity
 67
     1
  8
3_ALL_AXES
  6
Continuous
 62
     7
100
AcDbLine
 10
67.2438463039
 20
380.2410324376
 30
0.0
 11
129.7438463039
 21
380.2410324376
 31
0.0
  0
LINE
  5
31F
330
1B
100
AcDbEntity
 67
     1
  8
7_ALL_FEATURES
  6
Continuous
 62
     7
100
AcDbLine
 10
65.243981305
 20
355.2410324376
 30
0.0
 11
66.7438463039
 21
355.2410324376
 31
0.0
  0
LINE
  5
320
330
1B
100
AcDbEntity
 67
     1
  8
7_ALL_FEATURES
  6
Continuous
 62
     7
100
AcDbLine
 10
66.7438463039
 20
355.2410324376
 30
0.0
 11
67.0681444119
 21
355.2410324376
 31
0.0
  0
LINE
  5
321
330
1B
100
AcDbEntity
 67
     1
  8
7_ALL_FEATURES
  6
Continuous
 62
     7
100
AcDbLine
 10
67.0681444119
 20
355.2410324376
 30
0.0
 11
70.9654354104
 21
355.2410324376
 31
0.0
  0
LINE
  5
322
330
1B
100
AcDbEntity
 67
     1
  8
7_ALL_FEATURES
  6
Continuous
 62
     7
100
AcDbLine
 10
70.9654354104
 20
355.2410324376
 30
0.0
 11
71.3459439975
 21
355.2410324376
 31
0.0
  0
LINE
  5
323
330
1B
100
AcDbEntity
 67
     1
  8
7_ALL_FEATURES
  6
Continuous
 62
     7
100
AcDbLine
 10
71.3459439975
 20
355.2410324376
 30
0.0
 11
71.4131723085
 21
355.2410324376
 31
0.0
  0
LINE
  5
324
330
1B
100
AcDbEntity
 67
     1
  8
7_ALL_FEATURES
  6
Continuous
 62
     7
100
AcDbLine
 10
71.4131723085
 20
355.2410324376
 30
0.0
 11
76.7650769713
 21
355.2410324376
 31
0.0
  0
LINE
  5
325
330
1B
100
AcDbEntity
 67
     1
  8
7_ALL_FEATURES
  6
Continuous
 62
     7
100
AcDbLine
 10
76.7650769713
 20
355.2410324376
 30
0.0
 11
78.8451972386
 21
355.2410324376
 31
0.0
  0
LINE
  5
326
330
1B
100
AcDbEntity
 67
     1
  8
7_ALL_FEATURES
  6
Continuous
 62
     7
100
AcDbLine
 10
78.8451972386
 20
355.2410324376
 30
0.0
 11
80.7500958577
 21
355.2410324376
 31
0.0
  0
LINE
  5
327
330
1B
100
AcDbEntity
 67
     1
  8
7_ALL_FEATURES
  6
Continuous
 62
     7
100
AcDbLine
 10
80.7500958577
 20
355.2410324376
 30
0.0
 11
82.0531420387
 21
355.2410324376
 31
0.0
  0
LINE
  5
328
330
1B
100
AcDbEntity
 67
     1
  8
3_ALL_AXES
  6
Continuous
 62
     7
100
AcDbLine
 10
65.2438463039
 20
355.2410324376
 30
0.0
 11
65.2438463039
 21
380.2410324376
 31
0.0
  0
LINE
  5
329
330
1B
100
AcDbEntity
 67
     1
  8
3_ALL_AXES
  6
Continuous
 62
     7
100
AcDbLine
 10
191.3644537289
 20
355.2410324376
 30
0.0
 11
194.0620306651
 21
355.2410324376
 31
0.0
  0
LINE
  5
32A
330
1B
100
AcDbEntity
 67
     1
  8
7_ALL_FEATURES
  6
Continuous
 62
     7
100
AcDbLine
 10
192.7583761152
 20
345.2410324376
 30
0.0
 11
191.1975092869
 21
345.2410324376
 31
0.0
  0
LINE
  5
32B
330
1B
100
AcDbEntity
 67
     1
  8
7_ALL_FEATURES
  6
Continuous
 62
     7
100
AcDbLine
 10
191.1975092869
 20
345.2410324376
 30
0.0
 11
184.5202422814
 21
345.2410324376
 31
0.0
  0
LINE
  5
32C
330
1B
100
AcDbEntity
 67
     1
  8
7_ALL_FEATURES
  6
Continuous
 62
     7
100
AcDbLine
 10
184.5202422814
 20
345.2410324376
 30
0.0
 11
181.5893451272
 21
345.2410324376
 31
0.0
  0
LINE
  5
32D
330
1B
100
AcDbEntity
 67
     1
  8
7_ALL_FEATURES
  6
Continuous
 62
     7
100
AcDbLine
 10
97.4794905665
 20
345.2410324376
 30
0.0
 11
93.6506589156
 21
345.2410324376
 31
0.0
  0
LINE
  5
32E
330
1B
100
AcDbEntity
 67
     1
  8
7_ALL_FEATURES
  6
Continuous
 62
     7
100
AcDbLine
 10
93.6506589156
 20
345.2410324376
 30
0.0
 11
86.3175095175
 21
345.2410324376
 31
0.0
  0
LINE
  5
32F
330
1B
100
AcDbEntity
 67
     1
  8
7_ALL_FEATURES
  6
Continuous
 62
     7
100
AcDbLine
 10
86.3175095175
 20
345.2410324376
 30
0.0
 11
82.0531420387
 21
345.2410324376
 31
0.0
  0
LINE
  5
330
330
1B
100
AcDbEntity
 67
     1
  8
7_ALL_FEATURES
  6
Continuous
 62
     7
100
AcDbLine
 10
82.0531420387
 20
345.2410324376
 30
0.0
 11
80.7503249044
 21
345.2410324376
 31
0.0
  0
LINE
  5
331
330
1B
100
AcDbEntity
 67
     1
  8
6_ALL_SURFS
  6
Continuous
 62
     7
100
AcDbLine
 10
166.3228494996
 20
334.7410324376
 30
0.0
 11
155.845450671
 21
334.7410324376
 31
0.0
  0
LINE
  5
332
330
1B
100
AcDbEntity
 67
     1
  8
6_ALL_SURFS
  6
Continuous
 62
     7
100
AcDbLine
 10
155.845450671
 20
334.7410324376
 30
0.0
 11
153.9211658045
 21
334.7410324376
 31
0.0
  0
LINE
  5
333
330
1B
100
AcDbEntity
 67
     1
  8
6_ALL_SURFS
  6
Continuous
 62
     7
100
AcDbLine
 10
80.7073851183
 20
334.7410324376
 30
0.0
 11
79.3836011223
 21
334.7410324376
 31
0.0
  0
LINE
  5
334
330
1B
100
AcDbEntity
 67
     1
  8
6_ALL_SURFS
  6
Continuous
 62
     7
100
AcDbLine
 10
79.3836011223
 20
334.7410324376
 30
0.0
 11
73.5472696986
 21
334.7410324376
 31
0.0
  0
LINE
  5
335
330
1B
100
AcDbEntity
 67
     1
  8
3_ALL_AXES
  6
Continuous
 62
     7
100
AcDbLine
 10
191.3644537289
 20
380.2410324376
 30
0.0
 11
129.7438463039
 21
380.2410324376
 31
0.0
  0
LINE
  5
336
330
1B
100
AcDbEntity
 67
     1
  8
7_ALL_FEATURES
  6
Continuous
 62
     7
100
AcDbLine
 10
66.7438463039
 20
355.2410324376
 30
0.0
 11
71.1580614399
 21
344.2054945975
 31
0.0
  0
LINE
  5
337
330
1B
100
AcDbEntity
 67
     1
  8
7_ALL_FEATURES
  6
Continuous
 62
     7
100
AcDbLine
 10
74.9438463039
 20
334.7410324376
 30
0.0
 11
76.7650769713
 21
330.1879557691
 31
0.0
  0
LINE
  5
338
330
1B
100
AcDbEntity
 67
     1
  8
7_ALL_FEATURES
  6
Continuous
 62
     7
100
AcDbLine
 10
81.5356535465
 20
334.7410342564
 30
0.0
 11
83.1128862006
 21
330.1879557691
 31
0.0
  0
LINE
  5
339
330
1B
100
AcDbEntity
 67
     1
  8
7_ALL_FEATURES
  6
Continuous
 62
     7
100
AcDbLine
 10
188.7438463039
 20
345.2410324376
 30
0.0
 11
182.7226156365
 21
330.1879557691
 31
0.0
  0
LINE
  5
33A
330
1B
100
AcDbEntity
 67
     1
  8
7_ALL_FEATURES
  6
Continuous
 62
     7
100
AcDbLine
 10
96.9448081982
 20
355.2410324376
 30
0.0
 11
101.9554235319
 21
330.1879557691
 31
0.0
  0
LINE
  5
33B
330
1B
100
AcDbEntity
 67
     1
  8
7_ALL_FEATURES
  6
Continuous
 62
     7
100
AcDbLine
 10
128.2438463039
 20
355.2410324376
 30
0.0
 11
128.2438463039
 21
330.1879557691
 31
0.0
  0
LINE
  5
33C
330
1B
100
AcDbEntity
 67
     1
  8
7_ALL_FEATURES
  6
Continuous
 62
     7
100
AcDbLine
 10
131.2438463039
 20
355.2410324376
 30
0.0
 11
131.2438463039
 21
330.1879557691
 31
0.0
  0
LINE
  5
33D
330
1B
100
AcDbEntity
 67
     1
  8
7_ALL_FEATURES
  6
Continuous
 62
     7
100
AcDbLine
 10
185.0534467423
 20
355.2410324376
 30
0.0
 11
176.3748064072
 21
330.1879557691
 31
0.0
  0
LINE
  5
33E
330
1B
100
AcDbEntity
 67
     1
  8
7_ALL_FEATURES
  6
Continuous
 62
     7
100
AcDbLine
 10
158.4428847734
 20
334.7410342564
 30
0.0
 11
157.5322690759
 21
330.1879557691
 31
0.0
  0
LINE
  5
33F
330
1B
100
AcDbEntity
 67
     1
  8
7_ALL_FEATURES
  6
Continuous
 62
     7
100
AcDbLine
 10
154.9341928646
 20
330.1879557691
 30
0.0
 11
154.9341928646
 21
334.7410324376
 31
0.0
  0
ELLIPSE
  5
340
330
1B
100
AcDbEntity
 67
     1
  8
7_ALL_FEATURES
  6
Continuous
 62
     7
100
AcDbEllipse
 10
129.7438463039
 20
197.7410324376
 30
0.0
 11
29.85355160429999
 21
132.1300481869
 31
0.0
210
0.0
220
0.0
230
1.0
 40
0.3314333088
 41
0.0464390915
 42
0.1030504243
  0
SPLINE
  5
341
330
1B
100
AcDbEntity
 67
     1
  8
6_ALL_SURFS
  6
Continuous
 62
     9
100
AcDbSpline
 70
     0
 71
     3
 72
    11
 73
     7
 74
     0
 42
0.000000001
 43
0.0000001
 40
0.0
 40
0.0
 40
0.0
 40
0.0
 40
0.1907592317
 40
0.4201916113
 40
0.6955385901
 40
1.0
 40
1.0
 40
1.0
 40
1.0
 10
166.3228494996
 20
334.7410324376
 30
0.0
 10
166.4817562658
 20
334.7410324376
 30
0.0
 10
166.8336978997
 20
334.8715160015
 30
0.0
 10
167.2106573286
 20
335.3321832029
 30
0.0
 10
167.4569331406
 20
335.9676563573
 30
0.0
 10
167.5158665441
 20
336.4525181773
 30
0.0
 10
167.5185134114
 20
336.7061276247
 30
0.0
  0
LINE
  5
342
330
1B
100
AcDbEntity
 67
     1
  8
7_ALL_FEATURES
  6
Continuous
 62
     9
100
AcDbLine
 10
154.7114538355
 20
336.7061276247
 30
0.0
 11
147.4892182775
 21
336.7061276247
 31
0.0
  0
LINE
  5
343
330
1B
100
AcDbEntity
 67
     1
  8
7_ALL_FEATURES
  6
Continuous
 62
     9
100
AcDbLine
 10
154.8393134491
 20
355.2410324376
 30
0.0
 11
154.7114538355
 21
336.7061276247
 31
0.0
  0
LINE
  5
344
330
1B
100
AcDbEntity
 67
     1
  8
7_ALL_FEATURES
  6
Continuous
 62
     9
100
AcDbLine
 10
167.5185134114
 20
336.7061276247
 30
0.0
 11
167.7119582313
 21
355.2410324376
 31
0.0
  0
LINE
  5
345
330
1B
100
AcDbEntity
 67
     1
  8
6_ALL_SURFS
  6
Continuous
 62
     9
100
AcDbLine
 10
167.5185134114
 20
336.7061276247
 30
0.0
 11
154.7114538355
 21
336.7061276247
 31
0.0
  0
LINE
  5
346
330
1B
100
AcDbEntity
 67
     1
  8
7_ALL_FEATURES
  6
Continuous
 62
     7
100
AcDbLine
 10
174.8748064072
 20
330.1879557691
 30
0.0
 11
174.8748064072
 21
355.2410324376
 31
0.0
  0
ELLIPSE
  5
347
330
1B
100
AcDbEntity
 67
     1
  8
7_ALL_FEATURES
  6
Continuous
 62
     7
100
AcDbEllipse
 10
129.7438463039
 20
197.7410324376
 30
0.0
 11
47.4955508003
 21
132.2304123336
 31
0.0
210
0.0
220
0.0
230
1.0
 40
0.1778684822
 41
0.0354958104
 42
0.0921071432
  0
LINE
  5
348
330
1B
100
AcDbEntity
 67
     1
  8
3_ALL_AXES
  6
Continuous
 62
     7
100
AcDbLine
 10
180.5921316933
 20
325.2410324376
 30
0.0
 11
180.5921316933
 21
342.3623252151
 31
0.0
  0
ARC
  5
349
330
1B
100
AcDbEntity
 67
     1
  8
6_ALL_SURFS
  6
Continuous
 62
     9
100
AcDbCircle
 10
73.548069385
 20
336.4313649676
 30
0.0
 40
1.6903327192
100
AcDbArc
 50
261.3454162038
 51
269.9728937038
  0
SPLINE
  5
34A
330
1B
100
AcDbEntity
 67
     1
  8
6_ALL_SURFS
  6
Continuous
 62
     9
100
AcDbSpline
 70
     0
 71
     3
 72
    11
 73
     7
 74
     0
 42
0.000000001
 43
0.0000001
 40
0.0
 40
0.0
 40
0.0
 40
0.0
 40
0.2406406367
 40
0.4873321321
 40
0.7412367885
 40
1.0
 40
1.0
 40
1.0
 40
1.0
 10
73.293712798
 20
334.7602792642
 30
0.0
 10
73.078671684
 20
334.7929537495
 30
0.0
 10
72.6520972351
 20
334.9456054606
 30
0.0
 10
72.1367596751
 20
335.3954612646
 30
0.0
 10
71.797099561
 20
336.0064960886
 30
0.0
 10
71.7141126686
 20
336.4722678063
 30
0.0
 10
71.7103629356
 20
336.7061276246
 30
0.0
  0
SPLINE
  5
34B
330
1B
100
AcDbEntity
 67
     1
  8
6_ALL_SURFS
  6
Continuous
 62
     9
100
AcDbSpline
 70
     0
 71
     3
 72
    11
 73
     7
 74
     0
 42
0.000000001
 43
0.0000001
 40
0.0
 40
0.0
 40
0.0
 40
0.0
 40
0.2243769294
 40
0.4643868405
 40
0.7251217245
 40
1.0
 40
1.0
 40
1.0
 40
1.0
 10
80.7073851183
 20
334.7410324376
 30
0.0
 10
80.4990230043
 20
334.7410324376
 30
0.0
 10
80.0622096234
 20
334.8523596614
 30
0.0
 10
79.5365720587
 20
335.3028300659
 30
0.0
 10
79.1914758722
 20
335.9508039652
 30
0.0
 10
79.1080932436
 20
336.4508936585
 30
0.0
 10
79.1045222221
 20
336.7061276247
 30
0.0
  0
LINE
  5
34C
330
1B
100
AcDbEntity
 67
     1
  8
7_ALL_FEATURES
  6
Continuous
 62
     7
100
AcDbLine
 10
76.7650769713
 20
330.1879557691
 30
0.0
 11
76.7650769713
 21
334.7410324376
 31
0.0
  0
LINE
  5
34D
330
1B
100
AcDbEntity
 67
     1
  8
7_ALL_FEATURES
  6
Continuous
 62
     9
100
AcDbLine
 10
71.7103629284
 20
336.7061276247
 30
0.0
 11
71.2889633774
 21
336.7061276247
 31
0.0
  0
LINE
  5
34E
330
1B
100
AcDbEntity
 67
     1
  8
7_ALL_FEATURES
  6
Continuous
 62
     9
100
AcDbLine
 10
71.4131723085
 20
355.2410324376
 30
0.0
 11
71.7103629284
 21
336.7061276247
 31
0.0
  0
LINE
  5
34F
330
1B
100
AcDbEntity
 67
     1
  8
7_ALL_FEATURES
  6
Continuous
 62
     9
100
AcDbLine
 10
184.5202422814
 20
345.2410324376
 30
0.0
 11
184.5202422814
 21
353.7018037423
 31
0.0
  0
LINE
  5
350
330
1B
100
AcDbEntity
 67
     1
  8
7_ALL_FEATURES
  6
Continuous
 62
     9
100
AcDbLine
 10
79.1045222221
 20
336.7061276247
 30
0.0
 11
78.8451972386
 21
355.2410324376
 31
0.0
  0
LINE
  5
351
330
1B
100
AcDbEntity
 67
     1
  8
7_ALL_FEATURES
  6
Continuous
 62
     9
100
AcDbLine
 10
93.6506589156
 20
345.2410324376
 30
0.0
 11
93.6506589156
 21
355.2410324376
 31
0.0
  0
LINE
  5
352
330
1B
100
AcDbEntity
 67
     1
  8
7_ALL_FEATURES
  6
Continuous
 62
     9
100
AcDbLine
 10
82.0531420387
 20
345.2410324376
 30
0.0
 11
82.0531420387
 21
355.2410324376
 31
0.0
  0
LINE
  5
353
330
1B
100
AcDbEntity
 67
     1
  8
6_ALL_SURFS
  6
Continuous
 62
     9
100
AcDbLine
 10
79.1045222221
 20
336.7061276247
 30
0.0
 11
71.7103629284
 21
336.7061276247
 31
0.0
  0
LINE
  5
354
330
1B
100
AcDbEntity
 67
     1
  8
7_ALL_FEATURES
  6
Continuous
 62
     9
100
AcDbLine
 10
86.3175095175
 20
345.2410324376
 30
0.0
 11
86.3175095175
 21
355.2410324376
 31
0.0
  0
ELLIPSE
  5
355
330
1B
100
AcDbEntity
 67
     1
  8
7_ALL_FEATURES
  6
Continuous
 62
     7
100
AcDbEllipse
 10
129.7438463039
 20
197.7410324376
 30
0.0
 11
-47.4955508003
 21
132.2304123336
 31
0.0
210
0.0
220
0.0
230
1.0
 40
0.1778684822
 41
-0.0921071432
 42
-0.0354958104
  0
LINE
  5
356
330
1B
100
AcDbEntity
 67
     1
  8
7_ALL_FEATURES
  6
Continuous
 62
     7
100
AcDbLine
 10
84.6128862006
 20
330.1879557691
 30
0.0
 11
84.6128862006
 21
334.7410324376
 31
0.0
  0
LINE
  5
357
330
1B
100
AcDbEntity
 67
     1
  8
7_ALL_FEATURES
  6
Continuous
 62
     9
100
AcDbLine
 10
88.4302136789
 20
336.7061276247
 30
0.0
 11
79.1045222221
 21
336.7061276247
 31
0.0
  0
LINE
  5
358
330
1B
100
AcDbEntity
 67
     1
  8
7_ALL_FEATURES
  6
Continuous
 62
     9
100
AcDbLine
 10
169.5998536407
 20
336.7061276247
 30
0.0
 11
167.5185134114
 21
336.7061276247
 31
0.0
  0
LINE
  5
359
330
1B
100
AcDbEntity
 67
     1
  8
7_ALL_FEATURES
  6
Continuous
 62
     7
100
AcDbLine
 10
182.7226156365
 20
330.1879557691
 30
0.0
 11
182.7226156365
 21
345.2410324376
 31
0.0
  0
LINE
  5
35A
330
1B
100
AcDbEntity
 67
     1
  8
7_ALL_FEATURES
  6
Continuous
 62
     9
100
AcDbLine
 10
188.1987292305
 20
336.7061276247
 30
0.0
 11
185.3298843788
 21
336.7061276247
 31
0.0
  0
LINE
  5
35B
330
1B
100
AcDbEntity
 67
     1
  8
7_ALL_FEATURES
  6
Continuous
 62
     7
100
AcDbLine
 10
97.4794905665
 20
345.2410324376
 30
0.0
 11
97.4794905665
 21
352.5676205965
 31
0.0
  0
LINE
  5
35C
330
1B
100
AcDbEntity
 67
     1
  8
7_ALL_FEATURES
  6
Continuous
 62
     9
100
AcDbLine
 10
192.7583761152
 20
345.2410324376
 30
0.0
 11
192.7583761152
 21
355.2410324376
 31
0.0
  0
LINE
  5
35D
330
1B
100
AcDbEntity
 67
     1
  8
7_ALL_FEATURES
  6
Continuous
 62
     9
100
AcDbLine
 10
191.1975092869
 20
345.2410324376
 30
0.0
 11
191.1975092869
 21
355.2410324376
 31
0.0
  0
LINE
  5
35E
330
1B
100
AcDbEntity
 67
     1
  8
3_ALL_AXES
  6
Continuous
 62
     7
100
AcDbLine
 10
191.3644537289
 20
355.2410324376
 30
0.0
 11
191.3644537289
 21
380.2410324376
 31
0.0
  0
ELLIPSE
  5
35F
330
1B
100
AcDbEntity
 67
     1
  8
7_ALL_FEATURES
  6
Continuous
 62
     7
100
AcDbEllipse
 10
129.7438463039
 20
197.7410324376
 30
0.0
 11
-29.85355160429999
 21
132.1300481869
 31
0.0
210
0.0
220
0.0
230
1.0
 40
0.3314333088
 41
-0.1030504243
 42
-0.0464390915
  0
LINE
  5
360
330
1B
100
AcDbEntity
 67
     1
  8
7_ALL_FEATURES
  6
Continuous
 62
     7
100
AcDbLine
 10
104.5534997433
 20
330.1879557691
 30
0.0
 11
104.5534997433
 21
355.2410324376
 31
0.0
  0
LINE
  5
361
330
1B
100
AcDbEntity
 67
     1
  8
7_ALL_FEATURES
  6
Continuous
 62
     7
100
AcDbLine
 10
83.0356535465
 20
334.7410342564
 30
0.0
 11
84.6128862006
 21
330.1879557691
 31
0.0
  0
ELLIPSE
  5
362
330
1B
100
AcDbEntity
 67
     1
  8
3_ALL_AXES
  6
Continuous
 62
     7
100
AcDbEllipse
 10
129.7438463039
 20
197.7410324376
 30
0.0
 11
0.0
 21
132.5
 31
0.0
210
0.0
220
0.0
230
1.0
 40
0.4
 41
-0.0283056664
 42
0.0283056664
  0
LINE
  5
363
330
1B
100
AcDbEntity
 67
     1
  8
7_ALL_FEATURES
  6
Continuous
 62
     7
100
AcDbLine
 10
99.5428844096
 20
355.2410324376
 30
0.0
 11
104.5534997433
 21
330.1879557691
 31
0.0
  0
LINE
  5
364
330
1B
100
AcDbEntity
 67
     1
  8
7_ALL_FEATURES
  6
Continuous
 62
     7
100
AcDbLine
 10
155.844808562
 20
334.7410342564
 30
0.0
 11
154.9341928646
 21
330.1879557691
 31
0.0
  0
LINE
  5
365
330
1B
100
AcDbEntity
 67
     1
  8
7_ALL_FEATURES
  6
Continuous
 62
     7
100
AcDbLine
 10
183.5534467423
 20
355.2410324376
 30
0.0
 11
174.8748064072
 21
330.1879557691
 31
0.0
  0
SPLINE
  5
366
330
1B
100
AcDbEntity
 67
     1
  8
6_ALL_SURFS
  6
Continuous
 62
     9
100
AcDbSpline
 70
     0
 71
     3
 72
    13
 73
     9
 74
     0
 42
0.000000001
 43
0.0000001
 40
0.0
 40
0.0
 40
0.0
 40
0.0
 40
0.0695827372
 40
0.1513025929
 40
0.2514981085
 40
0.3717689667
 40
0.6642415113
 40
1.0
 40
1.0
 40
1.0
 40
1.0
 10
153.9211658045
 20
334.7410324376
 30
0.0
 10
153.9734859988
 20
334.7410324376
 30
0.0
 10
154.0879954523
 20
334.7722735468
 30
0.0
 10
154.2369927146
 20
334.8940951829
 30
0.0
 10
154.3702501672
 20
335.0801930439
 30
0.0
 10
154.5355535254
 20
335.4302320625
 30
0.0
 10
154.6718448864
 20
335.9811017795
 30
0.0
 10
154.7097123358
 20
336.453672316
 30
0.0
 10
154.7114538521
 20
336.7061276246
 30
0.0
  0
ARC
  5
367
330
1B
100
AcDbEntity
 67
     1
  8
3_ALL_AXES
  6
Continuous
 62
     7
100
AcDbCircle
 10
180.1651744362
 20
503.8670063132
 30
0.0
 40
1.5
100
AcDbArc
 50
44.62027652570001
 51
46.45072186529999
  0
ARC
  5
368
330
1B
100
AcDbEntity
 67
     1
  8
3_ALL_AXES
  6
Continuous
 62
     7
100
AcDbCircle
 10
180.1651744362
 20
503.8670063132
 30
0.0
 40
1.5
100
AcDbArc
 50
343.5492781347
 51
44.62027652570001
  0
ARC
  5
369
330
1B
100
AcDbEntity
 67
     1
  8
3_ALL_AXES
  6
Continuous
 62
     7
100
AcDbCircle
 10
191.5630991864
 20
506.9210710454
 30
0.0
 40
2.5
100
AcDbArc
 50
295.4425772334999
 51
94.55742276650001
  0
LINE
  5
36A
330
1B
100
AcDbEntity
 67
     1
  8
7_ALL_FEATURES
  6
Continuous
 62
     7
100
AcDbLine
 10
182.2904239567
 20
497.2745403465
 30
0.0
 11
188.5261598041
 21
498.0954905451
 31
0.0
  0
ARC
  5
36B
330
1B
100
AcDbEntity
 67
     1
  8
7_ALL_FEATURES
  6
Continuous
 62
     7
100
AcDbCircle
 10
187.873528843
 20
503.052714852
 30
0.0
 40
5.0
100
AcDbArc
 50
277.5000000000001
 51
12.3204561746
  0
ARC
  5
36C
330
1B
100
AcDbEntity
 67
     1
  8
7_ALL_FEATURES
  6
Continuous
 62
     7
100
AcDbCircle
 10
129.7438463039
 20
490.3566521589
 30
0.0
 40
64.5
100
AcDbArc
 50
12.3204561746
 51
17.6795438254
  0
ARC
  5
36D
330
1B
100
AcDbEntity
 67
     1
  8
7_ALL_FEATURES
  6
Continuous
 62
     7
100
AcDbCircle
 10
186.4336594432
 20
508.4263806081
 30
0.0
 40
5.0
100
AcDbArc
 50
17.6795438254
 51
112.5
  0
LINE
  5
36E
330
1B
100
AcDbEntity
 67
     1
  8
7_ALL_FEATURES
  6
Continuous
 62
     7
100
AcDbLine
 10
184.5202422814
 20
513.0457782706
 30
0.0
 11
178.709461527
 21
510.6388740742
 31
0.0
  0
LINE
  5
36F
330
1B
100
AcDbEntity
 67
     1
  8
7_ALL_FEATURES
  6
Continuous
 62
     7
100
AcDbLine
 10
97.4794905665
 20
532.4043791943
 30
0.0
 11
93.6506589156
 21
537.3942097501
 31
0.0
  0
ARC
  5
370
330
1B
100
AcDbEntity
 67
     1
  8
7_ALL_FEATURES
  6
Continuous
 62
     7
100
AcDbCircle
 10
89.6838922141
 20
534.350402605
 30
0.0
 40
5.0
100
AcDbArc
 50
37.5
 51
132.3204561746
  0
ARC
  5
371
330
1B
100
AcDbEntity
 67
     1
  8
7_ALL_FEATURES
  6
Continuous
 62
     7
100
AcDbCircle
 10
129.7438463039
 20
490.3566521589
 30
0.0
 40
64.5
100
AcDbArc
 50
132.3204561746
 51
137.6795438254
  0
ARC
  5
372
330
1B
100
AcDbEntity
 67
     1
  8
7_ALL_FEATURES
  6
Continuous
 62
     7
100
AcDbCircle
 10
85.7500958577
 20
530.4166062487
 30
0.0
 40
5.0
100
AcDbArc
 50
137.6795438254
 51
187.5542955617
  0
ARC
  5
373
330
1B
100
AcDbEntity
 67
     1
  8
7_ALL_FEATURES
  6
Continuous
 62
     7
100
AcDbCircle
 10
129.7438463039
 20
490.3566521589
 30
0.0
 40
64.5
100
AcDbArc
 50
90.0
 51
132.3204561746
  0
ARC
  5
374
330
1B
100
AcDbEntity
 67
     1
  8
7_ALL_FEATURES
  6
Continuous
 62
     7
100
AcDbCircle
 10
129.7438463039
 20
490.3566521589
 30
0.0
 40
64.5
100
AcDbArc
 50
17.6795438254
 51
90.0
  0
ARC
  5
375
330
1B
100
AcDbEntity
 67
     1
  8
7_ALL_FEATURES
  6
Continuous
 62
     7
100
AcDbCircle
 10
111.6741178547
 20
433.6668390195
 30
0.0
 40
5.0
100
AcDbArc
 50
202.4457044383
 51
252.3204561746
  0
ARC
  5
376
330
1B
100
AcDbEntity
 67
     1
  8
7_ALL_FEATURES
  6
Continuous
 62
     7
100
AcDbCircle
 10
129.7438463039
 20
490.3566521589
 30
0.0
 40
64.5
100
AcDbArc
 50
252.3204561746
 51
257.6795438254
  0
ARC
  5
377
330
1B
100
AcDbEntity
 67
     1
  8
7_ALL_FEATURES
  6
Continuous
 62
     7
100
AcDbCircle
 10
117.0477836108
 20
432.2269696198
 30
0.0
 40
5.0
100
AcDbArc
 50
257.6795438254
 51
352.5
  0
LINE
  5
378
330
1B
100
AcDbEntity
 67
     1
  8
7_ALL_FEATURES
  6
Continuous
 62
     7
100
AcDbLine
 10
122.0050079177
 20
431.5743386587
 30
0.0
 11
122.8259581163
 21
437.810074506
 31
0.0
  0
ARC
  5
379
330
1B
100
AcDbEntity
 67
     1
  8
7_ALL_FEATURES
  6
Continuous
 62
     7
100
AcDbCircle
 10
129.7438463039
 20
490.3566521589
 30
0.0
 40
64.5
100
AcDbArc
 50
270.0
 51
12.3204561746
  0
ARC
  5
37A
330
1B
100
AcDbEntity
 67
     1
  8
7_ALL_FEATURES
  6
Continuous
 62
     7
100
AcDbCircle
 10
129.7438463039
 20
490.3566521589
 30
0.0
 40
64.5
100
AcDbArc
 50
257.6795438254
 51
270.0
  0
ARC
  5
37B
330
1B
100
AcDbEntity
 67
     1
  8
7_ALL_FEATURES
  6
Continuous
 62
     7
100
AcDbCircle
 10
129.7438463039
 20
490.3566521589
 30
0.0
 40
64.5
100
AcDbArc
 50
137.6795438254
 51
252.3204561746
  0
LINE
  5
37C
330
1B
100
AcDbEntity
 67
     1
  8
7_ALL_FEATURES
  6
Continuous
 62
     7
100
AcDbLine
 10
74.4342458655
 20
460.1556902645
 30
0.0
 11
83.1128862006
 21
465.1663055982
 31
0.0
  0
LINE
  5
37D
330
1B
100
AcDbEntity
 67
     1
  8
7_ALL_FEATURES
  6
Continuous
 62
     7
100
AcDbLine
 10
75.9342458655
 20
457.5576140532
 30
0.0
 11
84.6128862006
 21
462.5682293869
 31
0.0
  0
LINE
  5
37E
330
1B
100
AcDbEntity
 67
     1
  8
7_ALL_FEATURES
  6
Continuous
 62
     7
100
AcDbLine
 10
101.0448078345
 20
443.6484594014
 30
0.0
 11
101.9554235319
 21
445.2256920556
 31
0.0
  0
LINE
  5
37F
330
1B
100
AcDbEntity
 67
     1
  8
7_ALL_FEATURES
  6
Continuous
 62
     7
100
AcDbLine
 10
103.6428840458
 20
442.1484594014
 30
0.0
 11
104.5534997433
 21
443.7256920556
 31
0.0
  0
LINE
  5
380
330
1B
100
AcDbEntity
 67
     1
  8
7_ALL_FEATURES
  6
Continuous
 62
     7
100
AcDbLine
 10
128.2438463039
 20
427.3566521589
 30
0.0
 11
128.2438463039
 21
437.3778828262
 31
0.0
  0
LINE
  5
381
330
1B
100
AcDbEntity
 67
     1
  8
7_ALL_FEATURES
  6
Continuous
 62
     7
100
AcDbLine
 10
131.2438463039
 20
427.3566521589
 30
0.0
 11
131.2438463039
 21
437.3778828262
 31
0.0
  0
LINE
  5
382
330
1B
100
AcDbEntity
 67
     1
  8
7_ALL_FEATURES
  6
Continuous
 62
     7
100
AcDbLine
 10
159.9448081982
 20
435.0470517204
 30
0.0
 11
154.9341928646
 21
443.7256920556
 31
0.0
  0
LINE
  5
383
330
1B
100
AcDbEntity
 67
     1
  8
7_ALL_FEATURES
  6
Continuous
 62
     7
100
AcDbLine
 10
162.5428844096
 20
436.5470517204
 30
0.0
 11
157.5322690759
 21
445.2256920556
 31
0.0
  0
LINE
  5
384
330
1B
100
AcDbEntity
 67
     1
  8
7_ALL_FEATURES
  6
Continuous
 62
     7
100
AcDbLine
 10
176.4520390614
 20
461.6576136894
 30
0.0
 11
174.8748064072
 21
462.5682293869
 31
0.0
  0
LINE
  5
385
330
1B
100
AcDbEntity
 67
     1
  8
7_ALL_FEATURES
  6
Continuous
 62
     7
100
AcDbLine
 10
177.9520390614
 20
464.2556899008
 30
0.0
 11
176.3748064072
 21
465.1663055982
 31
0.0
  0
LINE
  5
386
330
1B
100
AcDbEntity
 67
     1
  8
7_ALL_FEATURES
  6
Continuous
 62
     7
100
AcDbLine
 10
192.7438463039
 20
488.8566521589
 30
0.0
 11
182.7226156365
 21
488.8566521589
 31
0.0
  0
LINE
  5
387
330
1B
100
AcDbEntity
 67
     1
  8
7_ALL_FEATURES
  6
Continuous
 62
     7
100
AcDbLine
 10
192.7438463039
 20
491.8566521589
 30
0.0
 11
182.7226156365
 21
491.8566521589
 31
0.0
  0
LINE
  5
388
330
1B
100
AcDbEntity
 67
     1
  8
7_ALL_FEATURES
  6
Continuous
 62
     7
100
AcDbLine
 10
185.0534467423
 20
520.5576140532
 30
0.0
 11
176.3748064072
 21
515.5469987195
 31
0.0
  0
LINE
  5
389
330
1B
100
AcDbEntity
 67
     1
  8
7_ALL_FEATURES
  6
Continuous
 62
     7
100
AcDbLine
 10
183.5534467423
 20
523.1556902645
 30
0.0
 11
174.8748064072
 21
518.1450749308
 31
0.0
  0
LINE
  5
38A
330
1B
100
AcDbEntity
 67
     1
  8
7_ALL_FEATURES
  6
Continuous
 62
     7
100
AcDbLine
 10
158.4428847734
 20
537.0648449163
 30
0.0
 11
157.5322690759
 21
535.4876122621
 31
0.0
  0
LINE
  5
38B
330
1B
100
AcDbEntity
 67
     1
  8
7_ALL_FEATURES
  6
Continuous
 62
     7
100
AcDbLine
 10
155.844808562
 20
538.5648449163
 30
0.0
 11
154.9341928646
 21
536.9876122621
 31
0.0
  0
LINE
  5
38C
330
1B
100
AcDbEntity
 67
     1
  8
7_ALL_FEATURES
  6
Continuous
 62
     7
100
AcDbLine
 10
131.2438463039
 20
553.3566521589
 30
0.0
 11
131.2438463039
 21
543.3354214915
 31
0.0
  0
LINE
  5
38D
330
1B
100
AcDbEntity
 67
     1
  8
7_ALL_FEATURES
  6
Continuous
 62
     7
100
AcDbLine
 10
128.2438463039
 20
553.3566521589
 30
0.0
 11
128.2438463039
 21
543.3354214915
 31
0.0
  0
LINE
  5
38E
330
1B
100
AcDbEntity
 67
     1
  8
7_ALL_FEATURES
  6
Continuous
 62
     7
100
AcDbLine
 10
99.5428844096
 20
545.6662525973
 30
0.0
 11
104.5534997433
 21
536.9876122621
 31
0.0
  0
LINE
  5
38F
330
1B
100
AcDbEntity
 67
     1
  8
7_ALL_FEATURES
  6
Continuous
 62
     7
100
AcDbLine
 10
96.9448081982
 20
544.1662525973
 30
0.0
 11
101.9554235319
 21
535.4876122621
 31
0.0
  0
LINE
  5
390
330
1B
100
AcDbEntity
 67
     1
  8
7_ALL_FEATURES
  6
Continuous
 62
     7
100
AcDbLine
 10
83.0356535465
 20
519.0556906283
 30
0.0
 11
84.6128862006
 21
518.1450749308
 31
0.0
  0
LINE
  5
391
330
1B
100
AcDbEntity
 67
     1
  8
7_ALL_FEATURES
  6
Continuous
 62
     7
100
AcDbLine
 10
81.5356535465
 20
516.4576144169
 30
0.0
 11
83.1128862006
 21
515.5469987195
 31
0.0
  0
LINE
  5
392
330
1B
100
AcDbEntity
 67
     1
  8
7_ALL_FEATURES
  6
Continuous
 62
     7
100
AcDbLine
 10
66.7438463039
 20
491.8566521589
 30
0.0
 11
76.7650769713
 21
491.8566521589
 31
0.0
  0
LINE
  5
393
330
1B
100
AcDbEntity
 67
     1
  8
7_ALL_FEATURES
  6
Continuous
 62
     7
100
AcDbLine
 10
66.7438463039
 20
488.8566521589
 30
0.0
 11
76.7650769713
 21
488.8566521589
 31
0.0
  0
LINE
  5
394
330
1B
100
AcDbEntity
 67
     1
  8
6_ALL_SURFS
  6
Continuous
 62
     9
100
AcDbLine
 10
153.9211658045
 20
546.5532287642
 30
0.0
 11
154.7114538521
 21
548.3901355272
 31
0.0
  0
LINE
  5
395
330
1B
100
AcDbEntity
 67
     1
  8
7_ALL_FEATURES
  6
Continuous
 62
     7
100
AcDbLine
 10
66.7438463039
 20
488.8566521589
 30
0.0
 11
66.7438463039
 21
491.8566521589
 31
0.0
  0
LINE
  5
396
330
1B
100
AcDbEntity
 67
     1
  8
7_ALL_FEATURES
  6
Continuous
 62
     9
100
AcDbLine
 10
151.4102148166
 20
540.7168973405
 30
0.0
 11
150.6896692755
 21
539.042096596
 31
0.0
  0
LINE
  5
397
330
1B
100
AcDbEntity
 67
     1
  8
7_ALL_FEATURES
  6
Continuous
 62
     9
100
AcDbLine
 10
162.5239137157
 20
534.3004002894
 30
0.0
 11
161.4337664952
 21
532.838989174
 31
0.0
  0
LINE
  5
398
330
1B
100
AcDbEntity
 67
     1
  8
7_ALL_FEATURES
  6
Continuous
 62
     7
100
AcDbLine
 10
75.9342458655
 20
457.5576140532
 30
0.0
 11
74.4342458655
 21
460.1556902645
 31
0.0
  0
LINE
  5
399
330
1B
100
AcDbEntity
 67
     1
  8
6_ALL_SURFS
  6
Continuous
 62
     9
100
AcDbLine
 10
166.3228494996
 20
539.3931133444
 30
0.0
 11
167.5185134114
 21
540.9959762406
 31
0.0
  0
ARC
  5
39A
330
1B
100
AcDbEntity
 67
     1
  8
7_ALL_FEATURES
  6
Continuous
 62
     7
100
AcDbCircle
 10
95.0643110002
 20
443.8665475008
 30
0.0
 40
5.5
100
AcDbArc
 50
76.7413701827
 51
233.2787105366
  0
ARC
  5
39B
330
1B
100
AcDbEntity
 67
     1
  8
7_ALL_FEATURES
  6
Continuous
 62
     7
100
AcDbCircle
 10
129.7438463039
 20
490.3566521589
 30
0.0
 40
63.5
100
AcDbArc
 50
233.2787105366
 51
246.7212894634
  0
ARC
  5
39C
330
1B
100
AcDbEntity
 67
     1
  8
7_ALL_FEATURES
  6
Continuous
 62
     7
100
AcDbCircle
 10
106.8220022973
 20
437.0782412654
 30
0.0
 40
5.5
100
AcDbArc
 50
272.3619390866
 51
273.1825438992
  0
ARC
  5
39D
330
1B
100
AcDbEntity
 67
     1
  8
7_ALL_FEATURES
  6
Continuous
 62
     7
100
AcDbCircle
 10
106.8220022973
 20
437.0782412654
 30
0.0
 40
5.5
100
AcDbArc
 50
246.7212894634
 51
272.3619390866
  0
ARC
  5
39E
330
1B
100
AcDbEntity
 67
     1
  8
7_ALL_FEATURES
  6
Continuous
 62
     9
100
AcDbCircle
 10
152.6656903106
 20
543.6350630523
 30
0.0
 40
5.1764720331
100
AcDbArc
 50
66.7212894634
 51
232.3943707394
  0
ARC
  5
39F
330
1B
100
AcDbEntity
 67
     1
  8
7_ALL_FEATURES
  6
Continuous
 62
     7
100
AcDbCircle
 10
129.7438463039
 20
490.3566521589
 30
0.0
 40
63.5
100
AcDbArc
 50
53.2787105366
 51
66.7212894634
  0
ARC
  5
3A0
330
1B
100
AcDbEntity
 67
     1
  8
7_ALL_FEATURES
  6
Continuous
 62
     7
100
AcDbCircle
 10
152.6656903106
 20
543.6350630523
 30
0.0
 40
5.5
100
AcDbArc
 50
66.7212894634
 51
223.2586298173
  0
LINE
  5
3A1
330
1B
100
AcDbEntity
 67
     1
  8
7_ALL_FEATURES
  6
Continuous
 62
     9
100
AcDbLine
 10
154.8393134491
 20
548.6873261543
 30
0.0
 11
154.7114538355
 21
548.3901355343
 31
0.0
  0
LINE
  5
3A2
330
1B
100
AcDbEntity
 67
     1
  8
7_ALL_FEATURES
  6
Continuous
 62
     9
100
AcDbLine
 10
167.5185134114
 20
540.9959762407
 30
0.0
 11
167.7119582313
 21
541.2553012242
 31
0.0
  0
ARC
  5
3A3
330
1B
100
AcDbEntity
 67
     1
  8
7_ALL_FEATURES
  6
Continuous
 62
     9
100
AcDbCircle
 10
164.4233816076
 20
536.8467568169
 30
0.0
 40
5.1764720331
100
AcDbArc
 50
247.6056292606
 51
53.2787105366
  0
ARC
  5
3A4
330
1B
100
AcDbEntity
 67
     1
  8
6_ALL_SURFS
  6
Continuous
 62
     9
100
AcDbCircle
 10
129.7438463039
 20
490.3566521589
 30
0.0
 40
63.1764720331
100
AcDbArc
 50
53.2787105366
 51
66.7212894634
  0
ARC
  5
3A5
330
1B
100
AcDbEntity
 67
     1
  8
7_ALL_FEATURES
  6
Continuous
 62
     9
100
AcDbCircle
 10
129.7438463039
 20
490.3566521589
 30
0.0
 40
54.8232233573
100
AcDbArc
 50
61.56792360600001
 51
66.7212894634
  0
ARC
  5
3A6
330
1B
100
AcDbEntity
 67
     1
  8
7_ALL_FEATURES
  6
Continuous
 62
     9
100
AcDbCircle
 10
129.7438463039
 20
490.3566521589
 30
0.0
 40
54.8232233573
100
AcDbArc
 50
58.4321535544
 51
61.56792360600001
  0
ARC
  5
3A7
330
1B
100
AcDbEntity
 67
     1
  8
7_ALL_FEATURES
  6
Continuous
 62
     9
100
AcDbCircle
 10
129.7438463039
 20
490.3566521589
 30
0.0
 40
54.8232233573
100
AcDbArc
 50
53.2787105366
 51
58.4321535544
  0
ARC
  5
3A8
330
1B
100
AcDbEntity
 67
     1
  8
6_ALL_SURFS
  6
Continuous
 62
     9
100
AcDbCircle
 10
164.4233816076
 20
536.8467568169
 30
0.0
 40
3.1767766427
100
AcDbArc
 50
233.2787105366
 51
53.2787105366
  0
ARC
  5
3A9
330
1B
100
AcDbEntity
 67
     1
  8
6_ALL_SURFS
  6
Continuous
 62
     9
100
AcDbCircle
 10
129.7438463039
 20
490.3566521589
 30
0.0
 40
61.1767766427
100
AcDbArc
 50
53.2787105366
 51
66.7212894634
  0
ARC
  5
3AA
330
1B
100
AcDbEntity
 67
     1
  8
6_ALL_SURFS
  6
Continuous
 62
     9
100
AcDbCircle
 10
152.6656903106
 20
543.6350630523
 30
0.0
 40
3.1767766427
100
AcDbArc
 50
66.7212894634
 51
246.7212894634
  0
LINE
  5
3AB
330
1B
100
AcDbEntity
 67
     1
  8
6_ALL_SURFS
  6
Continuous
 62
     9
100
AcDbLine
 10
105.5665268033
 20
434.1600755535
 30
0.0
 11
104.7762387558
 21
432.3231687905
 31
0.0
  0
LINE
  5
3AC
330
1B
100
AcDbEntity
 67
     1
  8
7_ALL_FEATURES
  6
Continuous
 62
     9
100
AcDbLine
 10
108.0774777912
 20
439.9964069772
 30
0.0
 11
108.7980233323
 21
441.6712077217
 31
0.0
  0
LINE
  5
3AD
330
1B
100
AcDbEntity
 67
     1
  8
7_ALL_FEATURES
  6
Continuous
 62
     9
100
AcDbLine
 10
96.9637788922
 20
446.4129040283
 30
0.0
 11
98.0539261126
 21
447.8743151437
 31
0.0
  0
LINE
  5
3AE
330
1B
100
AcDbEntity
 67
     1
  8
6_ALL_SURFS
  6
Continuous
 62
     9
100
AcDbLine
 10
93.1648431082
 20
441.3201909733
 30
0.0
 11
91.9691791964
 21
439.7173280771
 31
0.0
  0
ARC
  5
3AF
330
1B
100
AcDbEntity
 67
     1
  8
7_ALL_FEATURES
  6
Continuous
 62
     9
100
AcDbCircle
 10
106.8220022973
 20
437.0782412654
 30
0.0
 40
5.1764720331
100
AcDbArc
 50
246.7212894634
 51
52.39437073940001
  0
LINE
  5
3B0
330
1B
100
AcDbEntity
 67
     1
  8
7_ALL_FEATURES
  6
Continuous
 62
     9
100
AcDbLine
 10
104.6483791587
 20
432.0259781634
 30
0.0
 11
104.7762387723
 21
432.3231687834
 31
0.0
  0
ARC
  5
3B1
330
1B
100
AcDbEntity
 67
     1
  8
7_ALL_FEATURES
  6
Continuous
 62
     7
100
AcDbCircle
 10
106.8220022973
 20
437.0782412654
 30
0.0
 40
5.3254493507
100
AcDbArc
 50
272.4850730987
 51
47.5128027407
  0
LINE
  5
3B2
330
1B
100
AcDbEntity
 67
     1
  8
7_ALL_FEATURES
  6
Continuous
 62
     9
100
AcDbLine
 10
91.9691791964
 20
439.717328077
 30
0.0
 11
91.7757343766
 21
439.4580030935
 31
0.0
  0
ARC
  5
3B3
330
1B
100
AcDbEntity
 67
     1
  8
7_ALL_FEATURES
  6
Continuous
 62
     9
100
AcDbCircle
 10
95.0643110002
 20
443.8665475008
 30
0.0
 40
5.1764720331
100
AcDbArc
 50
67.6056292606
 51
233.2787105366
  0
ARC
  5
3B4
330
1B
100
AcDbEntity
 67
     1
  8
6_ALL_SURFS
  6
Continuous
 62
     9
100
AcDbCircle
 10
129.7438463039
 20
490.3566521589
 30
0.0
 40
63.1764720331
100
AcDbArc
 50
233.2787105366
 51
246.7212894634
  0
ARC
  5
3B5
330
1B
100
AcDbEntity
 67
     1
  8
7_ALL_FEATURES
  6
Continuous
 62
     9
100
AcDbCircle
 10
129.7438463039
 20
490.3566521589
 30
0.0
 40
54.8232233573
100
AcDbArc
 50
241.567923606
 51
246.7212894634
  0
ARC
  5
3B6
330
1B
100
AcDbEntity
 67
     1
  8
7_ALL_FEATURES
  6
Continuous
 62
     9
100
AcDbCircle
 10
129.7438463039
 20
490.3566521589
 30
0.0
 40
54.8232233573
100
AcDbArc
 50
238.4321535544
 51
241.567923606
  0
ARC
  5
3B7
330
1B
100
AcDbEntity
 67
     1
  8
7_ALL_FEATURES
  6
Continuous
 62
     9
100
AcDbCircle
 10
129.7438463039
 20
490.3566521589
 30
0.0
 40
54.8232233573
100
AcDbArc
 50
233.2787105366
 51
238.4321535544
  0
ARC
  5
3B8
330
1B
100
AcDbEntity
 67
     1
  8
6_ALL_SURFS
  6
Continuous
 62
     9
100
AcDbCircle
 10
95.0643110002
 20
443.8665475008
 30
0.0
 40
3.1767766427
100
AcDbArc
 50
53.2787105366
 51
233.2787105366
  0
ARC
  5
3B9
330
1B
100
AcDbEntity
 67
     1
  8
6_ALL_SURFS
  6
Continuous
 62
     9
100
AcDbCircle
 10
129.7438463039
 20
490.3566521589
 30
0.0
 40
61.1767766427
100
AcDbArc
 50
233.2787105366
 51
246.7212894634
  0
ARC
  5
3BA
330
1B
100
AcDbEntity
 67
     1
  8
6_ALL_SURFS
  6
Continuous
 62
     9
100
AcDbCircle
 10
106.8220022973
 20
437.0782412654
 30
0.0
 40
3.1767766427
100
AcDbArc
 50
246.7212894634
 51
66.7212894634
  0
LINE
  5
3BB
330
1B
100
AcDbEntity
 67
     1
  8
6_ALL_SURFS
  6
Continuous
 62
     9
100
AcDbLine
 10
73.5472696986
 20
514.5339716594
 30
0.0
 11
71.7103629356
 21
515.324259707
 31
0.0
  0
LINE
  5
3BC
330
1B
100
AcDbEntity
 67
     1
  8
7_ALL_FEATURES
  6
Continuous
 62
     9
100
AcDbLine
 10
79.3836011223
 20
512.0230206715
 30
0.0
 11
81.0584018668
 21
511.3024751304
 31
0.0
  0
LINE
  5
3BD
330
1B
100
AcDbEntity
 67
     1
  8
7_ALL_FEATURES
  6
Continuous
 62
     9
100
AcDbLine
 10
85.8000981734
 20
523.1367195706
 30
0.0
 11
87.2615092888
 21
522.0465723502
 31
0.0
  0
LINE
  5
3BE
330
1B
100
AcDbEntity
 67
     1
  8
6_ALL_SURFS
  6
Continuous
 62
     9
100
AcDbLine
 10
80.7073851183
 20
526.9356553545
 30
0.0
 11
79.1045222221
 21
528.1313192663
 31
0.0
  0
ARC
  5
3BF
330
1B
100
AcDbEntity
 67
     1
  8
7_ALL_FEATURES
  6
Continuous
 62
     9
100
AcDbCircle
 10
76.4654354104
 20
513.2784961655
 30
0.0
 40
5.1764720331
100
AcDbArc
 50
156.7212894634
 51
322.3943707394
  0
LINE
  5
3C0
330
1B
100
AcDbEntity
 67
     1
  8
7_ALL_FEATURES
  6
Continuous
 62
     9
100
AcDbLine
 10
71.4131723085
 20
515.452119304
 30
0.0
 11
71.7103629284
 21
515.3242596904
 31
0.0
  0
LINE
  5
3C1
330
1B
100
AcDbEntity
 67
     1
  8
7_ALL_FEATURES
  6
Continuous
 62
     9
100
AcDbLine
 10
79.1045222221
 20
528.1313192663
 30
0.0
 11
78.8451972386
 21
528.3247640862
 31
0.0
  0
ARC
  5
3C2
330
1B
100
AcDbEntity
 67
     1
  8
7_ALL_FEATURES
  6
Continuous
 62
     9
100
AcDbCircle
 10
83.2537416458
 20
525.0361874626
 30
0.0
 40
5.1764720331
100
AcDbArc
 50
337.6056292606
 51
143.2787105366
  0
ARC
  5
3C3
330
1B
100
AcDbEntity
 67
     1
  8
7_ALL_FEATURES
  6
Continuous
 62
     7
100
AcDbCircle
 10
83.2537416458
 20
525.0361874626
 30
0.0
 40
5.3254493507
100
AcDbArc
 50
342.4871972593
 51
117.5149269013
  0
ARC
  5
3C4
330
1B
100
AcDbEntity
 67
     1
  8
6_ALL_SURFS
  6
Continuous
 62
     9
100
AcDbCircle
 10
129.7438463039
 20
490.3566521589
 30
0.0
 40
63.1764720331
100
AcDbArc
 50
143.2787105366
 51
156.7212894634
  0
ARC
  5
3C5
330
1B
100
AcDbEntity
 67
     1
  8
7_ALL_FEATURES
  6
Continuous
 62
     9
100
AcDbCircle
 10
129.7438463039
 20
490.3566521589
 30
0.0
 40
54.8232233573
100
AcDbArc
 50
151.567923606
 51
156.7212894634
  0
ARC
  5
3C6
330
1B
100
AcDbEntity
 67
     1
  8
7_ALL_FEATURES
  6
Continuous
 62
     9
100
AcDbCircle
 10
129.7438463039
 20
490.3566521589
 30
0.0
 40
54.8232233573
100
AcDbArc
 50
148.4321535544
 51
151.567923606
  0
ARC
  5
3C7
330
1B
100
AcDbEntity
 67
     1
  8
7_ALL_FEATURES
  6
Continuous
 62
     9
100
AcDbCircle
 10
129.7438463039
 20
490.3566521589
 30
0.0
 40
54.8232233573
100
AcDbArc
 50
143.2787105366
 51
148.4321535544
  0
ARC
  5
3C8
330
1B
100
AcDbEntity
 67
     1
  8
6_ALL_SURFS
  6
Continuous
 62
     9
100
AcDbCircle
 10
83.2537416458
 20
525.0361874626
 30
0.0
 40
3.1767766427
100
AcDbArc
 50
323.2787105365999
 51
143.2787105366
  0
ARC
  5
3C9
330
1B
100
AcDbEntity
 67
     1
  8
6_ALL_SURFS
  6
Continuous
 62
     9
100
AcDbCircle
 10
129.7438463039
 20
490.3566521589
 30
0.0
 40
61.1767766427
100
AcDbArc
 50
143.2787105366
 51
156.7212894634
  0
ARC
  5
3CA
330
1B
100
AcDbEntity
 67
     1
  8
6_ALL_SURFS
  6
Continuous
 62
     9
100
AcDbCircle
 10
76.4654354104
 20
513.2784961655
 30
0.0
 40
3.1767766427
100
AcDbArc
 50
156.7212894634
 51
336.7212894634
  0
LINE
  5
3CB
330
1B
100
AcDbEntity
 67
     1
  8
6_ALL_SURFS
  6
Continuous
 62
     9
100
AcDbLine
 10
185.9404229093
 20
466.1793326583
 30
0.0
 11
187.7773296723
 21
465.3890446107
 31
0.0
  0
LINE
  5
3CC
330
1B
100
AcDbEntity
 67
     1
  8
7_ALL_FEATURES
  6
Continuous
 62
     7
100
AcDbLine
 10
128.2438463039
 20
553.3566521589
 30
0.0
 11
131.2438463039
 21
553.3566521589
 31
0.0
  0
LINE
  5
3CD
330
1B
100
AcDbEntity
 67
     1
  8
7_ALL_FEATURES
  6
Continuous
 62
     7
100
AcDbLine
 10
103.6428840458
 20
442.1484594014
 30
0.0
 11
101.0448078345
 21
443.6484594014
 31
0.0
  0
LINE
  5
3CE
330
1B
100
AcDbEntity
 67
     1
  8
7_ALL_FEATURES
  6
Continuous
 62
     9
100
AcDbLine
 10
180.1040914855
 20
468.6902836462
 30
0.0
 11
178.4292907411
 21
469.4108291873
 31
0.0
  0
LINE
  5
3CF
330
1B
100
AcDbEntity
 67
     1
  8
7_ALL_FEATURES
  6
Continuous
 62
     9
100
AcDbLine
 10
173.6875944345
 20
457.5765847471
 30
0.0
 11
172.2261833191
 21
458.6667319675
 31
0.0
  0
LINE
  5
3D0
330
1B
100
AcDbEntity
 67
     1
  8
7_ALL_FEATURES
  6
Continuous
 62
     7
100
AcDbLine
 10
96.9448081982
 20
544.1662525973
 30
0.0
 11
99.5428844096
 21
545.6662525973
 31
0.0
  0
LINE
  5
3D1
330
1B
100
AcDbEntity
 67
     1
  8
6_ALL_SURFS
  6
Continuous
 62
     9
100
AcDbLine
 10
178.7803074895
 20
453.7776489632
 30
0.0
 11
180.3831703857
 21
452.5819850514
 31
0.0
  0
ARC
  5
3D2
330
1B
100
AcDbEntity
 67
     1
  8
7_ALL_FEATURES
  6
Continuous
 62
     9
100
AcDbCircle
 10
183.0222571974
 20
467.4348081522
 30
0.0
 40
5.1764720331
100
AcDbArc
 50
336.7212894634
 51
142.3943707394
  0
LINE
  5
3D3
330
1B
100
AcDbEntity
 67
     1
  8
7_ALL_FEATURES
  6
Continuous
 62
     9
100
AcDbLine
 10
188.0745202994
 20
465.2611850137
 30
0.0
 11
187.7773296794
 21
465.3890446273
 31
0.0
  0
LINE
  5
3D4
330
1B
100
AcDbEntity
 67
     1
  8
7_ALL_FEATURES
  6
Continuous
 62
     7
100
AcDbLine
 10
177.9520390614
 20
464.2556899008
 30
0.0
 11
176.4520390614
 21
461.6576136894
 31
0.0
  0
LINE
  5
3D5
330
1B
100
AcDbEntity
 67
     1
  8
7_ALL_FEATURES
  6
Continuous
 62
     7
100
AcDbLine
 10
183.5534467423
 20
523.1556902645
 30
0.0
 11
185.0534467423
 21
520.5576140532
 31
0.0
  0
ARC
  5
3D6
330
1B
100
AcDbEntity
 67
     1
  8
7_ALL_FEATURES
  6
Continuous
 62
     7
100
AcDbCircle
 10
164.4233816076
 20
536.8467568169
 30
0.0
 40
5.5
100
AcDbArc
 50
256.7413701827
 51
53.2787105366
  0
LINE
  5
3D7
330
1B
100
AcDbEntity
 67
     1
  8
7_ALL_FEATURES
  6
Continuous
 62
     9
100
AcDbLine
 10
180.3831703857
 20
452.5819850514
 30
0.0
 11
180.6424953692
 21
452.3885402315
 31
0.0
  0
ARC
  5
3D8
330
1B
100
AcDbEntity
 67
     1
  8
7_ALL_FEATURES
  6
Continuous
 62
     9
100
AcDbCircle
 10
176.233950962
 20
455.6771168551
 30
0.0
 40
5.1764720331
100
AcDbArc
 50
157.6056292606
 51
323.2787105365999
  0
ARC
  5
3D9
330
1B
100
AcDbEntity
 67
     1
  8
6_ALL_SURFS
  6
Continuous
 62
     9
100
AcDbCircle
 10
129.7438463039
 20
490.3566521589
 30
0.0
 40
63.1764720331
100
AcDbArc
 50
323.2787105365999
 51
336.7212894634
  0
LINE
  5
3DA
330
1B
100
AcDbEntity
 67
     1
  8
7_ALL_FEATURES
  6
Continuous
 62
     7
100
AcDbLine
 10
131.2438463039
 20
427.3566521589
 30
0.0
 11
128.2438463039
 21
427.3566521589
 31
0.0
  0
LINE
  5
3DB
330
1B
100
AcDbEntity
 67
     1
  8
7_ALL_FEATURES
  6
Continuous
 62
     7
100
AcDbLine
 10
155.844808562
 20
538.5648449163
 30
0.0
 11
158.4428847734
 21
537.0648449163
 31
0.0
  0
ARC
  5
3DC
330
1B
100
AcDbEntity
 67
     1
  8
7_ALL_FEATURES
  6
Continuous
 62
     9
100
AcDbCircle
 10
129.7438463039
 20
490.3566521589
 30
0.0
 40
54.8232233573
100
AcDbArc
 50
331.567923606
 51
336.7212894634
  0
ARC
  5
3DD
330
1B
100
AcDbEntity
 67
     1
  8
7_ALL_FEATURES
  6
Continuous
 62
     9
100
AcDbCircle
 10
129.7438463039
 20
490.3566521589
 30
0.0
 40
54.8232233573
100
AcDbArc
 50
328.4321535543999
 51
331.567923606
  0
LINE
  5
3DE
330
1B
100
AcDbEntity
 67
     1
  8
7_ALL_FEATURES
  6
Continuous
 62
     7
100
AcDbLine
 10
162.5428844096
 20
436.5470517204
 30
0.0
 11
159.9448081982
 21
435.0470517204
 31
0.0
  0
ARC
  5
3DF
330
1B
100
AcDbEntity
 67
     1
  8
7_ALL_FEATURES
  6
Continuous
 62
     9
100
AcDbCircle
 10
129.7438463039
 20
490.3566521589
 30
0.0
 40
54.8232233573
100
AcDbArc
 50
323.2787105365999
 51
328.4321535543999
  0
ARC
  5
3E0
330
1B
100
AcDbEntity
 67
     1
  8
7_ALL_FEATURES
  6
Continuous
 62
     7
100
AcDbCircle
 10
176.233950962
 20
455.6771168551
 30
0.0
 40
5.5
100
AcDbArc
 50
166.7413701827
 51
323.2787105365999
  0
ARC
  5
3E1
330
1B
100
AcDbEntity
 67
     1
  8
7_ALL_FEATURES
  6
Continuous
 62
     7
100
AcDbCircle
 10
129.7438463039
 20
490.3566521589
 30
0.0
 40
63.5
100
AcDbArc
 50
323.2787105365999
 51
336.7212894634
  0
LINE
  5
3E2
330
1B
100
AcDbEntity
 67
     1
  8
7_ALL_FEATURES
  6
Continuous
 62
     7
100
AcDbLine
 10
81.5356535465
 20
516.4576144169
 30
0.0
 11
83.0356535465
 21
519.0556906283
 31
0.0
  0
ARC
  5
3E3
330
1B
100
AcDbEntity
 67
     1
  8
7_ALL_FEATURES
  6
Continuous
 62
     7
100
AcDbCircle
 10
183.0222571974
 20
467.4348081522
 30
0.0
 40
5.5
100
AcDbArc
 50
336.7212894634
 51
133.2586298173
  0
ARC
  5
3E4
330
1B
100
AcDbEntity
 67
     1
  8
6_ALL_SURFS
  6
Continuous
 62
     9
100
AcDbCircle
 10
176.233950962
 20
455.6771168551
 30
0.0
 40
3.1767766427
100
AcDbArc
 50
143.2787105366
 51
323.2787105365999
  0
LINE
  5
3E5
330
1B
100
AcDbEntity
 67
     1
  8
7_ALL_FEATURES
  6
Continuous
 62
     7
100
AcDbLine
 10
192.7438463039
 20
491.8566521589
 30
0.0
 11
192.7438463039
 21
488.8566521589
 31
0.0
  0
ARC
  5
3E6
330
1B
100
AcDbEntity
 67
     1
  8
6_ALL_SURFS
  6
Continuous
 62
     9
100
AcDbCircle
 10
129.7438463039
 20
490.3566521589
 30
0.0
 40
61.1767766427
100
AcDbArc
 50
323.2787105365999
 51
336.7212894634
  0
ARC
  5
3E7
330
1B
100
AcDbEntity
 67
     1
  8
6_ALL_SURFS
  6
Continuous
 62
     9
100
AcDbCircle
 10
183.0222571974
 20
467.4348081522
 30
0.0
 40
3.1767766427
100
AcDbArc
 50
336.7212894634
 51
156.7212894634
  0
ARC
  5
3E8
330
1B
100
AcDbEntity
 67
     1
  8
7_ALL_FEATURES
  6
Continuous
 62
     7
100
AcDbCircle
 10
83.2537416458
 20
525.0361874626
 30
0.0
 40
5.5
100
AcDbArc
 50
117.6380609134
 51
143.2787105366
  0
ARC
  5
3E9
330
1B
100
AcDbEntity
 67
     1
  8
7_ALL_FEATURES
  6
Continuous
 62
     7
100
AcDbCircle
 10
83.2537416458
 20
525.0361874626
 30
0.0
 40
5.5
100
AcDbArc
 50
116.8174561008
 51
117.6380609134
  0
ARC
  5
3EA
330
1B
100
AcDbEntity
 67
     1
  8
7_ALL_FEATURES
  6
Continuous
 62
     7
100
AcDbCircle
 10
129.7438463039
 20
490.3566521589
 30
0.0
 40
63.5
100
AcDbArc
 50
143.2787105366
 51
156.7212894634
  0
ARC
  5
3EB
330
1B
100
AcDbEntity
 67
     1
  8
7_ALL_FEATURES
  6
Continuous
 62
     7
100
AcDbCircle
 10
76.4654354104
 20
513.2784961655
 30
0.0
 40
5.5
100
AcDbArc
 50
156.7212894634
 51
313.2586298173
  0
ARC
  5
3EC
330
1B
100
AcDbEntity
 67
     1
  8
3_ALL_AXES
  6
Continuous
 62
     7
100
AcDbCircle
 10
143.0730271267
 20
440.611472105
 30
0.0
 40
2.0
100
AcDbArc
 50
287.5947266501
 51
327.1402356706
  0
ARC
  5
3ED
330
1B
100
AcDbEntity
 67
     1
  8
3_ALL_AXES
  6
Continuous
 62
     7
100
AcDbCircle
 10
143.0730271267
 20
440.611472105
 30
0.0
 40
2.0
100
AcDbArc
 50
242.8597643294
 51
287.5947266501
  0
LINE
  5
3EE
330
1B
100
AcDbEntity
 67
     1
  8
7_ALL_FEATURES
  6
Continuous
 62
     7
100
AcDbLine
 10
117.3713635306
 20
540.3950897897
 30
0.0
 11
117.5125385155
 21
539.8682175733
 31
0.0
  0
LINE
  5
3EF
330
1B
100
AcDbEntity
 67
     1
  8
7_ALL_FEATURES
  6
Continuous
 62
     7
100
AcDbLine
 10
117.5125385155
 20
539.8682175733
 30
0.0
 11
117.7714083244
 21
538.902102294
 31
0.0
  0
LINE
  5
3F0
330
1B
100
AcDbEntity
 67
     1
  8
7_ALL_FEATURES
  6
Continuous
 62
     7
100
AcDbLine
 10
115.4395118781
 20
539.8774516995
 30
0.0
 11
115.580686863
 21
539.3505794831
 31
0.0
  0
LINE
  5
3F1
330
1B
100
AcDbEntity
 67
     1
  8
7_ALL_FEATURES
  6
Continuous
 62
     7
100
AcDbLine
 10
115.580686863
 20
539.3505794831
 30
0.0
 11
115.8395566718
 21
538.3844642038
 31
0.0
  0
ARC
  5
3F2
330
1B
100
AcDbEntity
 67
     1
  8
7_ALL_FEATURES
  6
Continuous
 62
     7
100
AcDbCircle
 10
129.7438463039
 20
490.3566521589
 30
0.0
 40
48.5
100
AcDbArc
 50
88.22226316269999
 51
121.7777368373
  0
ARC
  5
3F3
330
1B
100
AcDbEntity
 67
     1
  8
7_ALL_FEATURES
  6
Continuous
 62
     7
100
AcDbCircle
 10
129.7438463039
 20
490.3566521589
 30
0.0
 40
50.0
100
AcDbArc
 50
88.73979529169999
 51
121.2602047083
  0
ARC
  5
3F4
330
1B
100
AcDbEntity
 67
     1
  8
3_ALL_AXES
  6
Continuous
 62
     7
100
AcDbCircle
 10
129.7438463039
 20
490.3566521589
 30
0.0
 40
53.0
100
AcDbArc
 50
89.6834921715
 51
120.3165078285
  0
ARC
  5
3F5
330
1B
100
AcDbEntity
 67
     1
  8
3_ALL_AXES
  6
Continuous
 62
     7
100
AcDbCircle
 10
129.7438463039
 20
490.3566521589
 30
0.0
 40
53.0
100
AcDbArc
 50
283.5429399444
 51
285.0
  0
ARC
  5
3F6
330
1B
100
AcDbEntity
 67
     1
  8
3_ALL_AXES
  6
Continuous
 62
     7
100
AcDbCircle
 10
129.7438463039
 20
490.3566521589
 30
0.0
 40
53.0
100
AcDbArc
 50
269.6834921715001
 51
283.5429399444
  0
LINE
  5
3F7
330
1B
100
AcDbEntity
 67
     1
  8
7_ALL_FEATURES
  6
Continuous
 62
     7
100
AcDbLine
 10
142.1163290772
 20
440.318214528
 30
0.0
 11
141.9751540923
 21
440.8450867444
 31
0.0
  0
LINE
  5
3F8
330
1B
100
AcDbEntity
 67
     1
  8
7_ALL_FEATURES
  6
Continuous
 62
     7
100
AcDbLine
 10
141.9751540923
 20
440.8450867444
 30
0.0
 11
141.7162842834
 21
441.8112020237
 31
0.0
  0
LINE
  5
3F9
330
1B
100
AcDbEntity
 67
     1
  8
7_ALL_FEATURES
  6
Continuous
 62
     7
100
AcDbLine
 10
144.0481807298
 20
440.8358526182
 30
0.0
 11
143.9070057449
 21
441.3627248346
 31
0.0
  0
LINE
  5
3FA
330
1B
100
AcDbEntity
 67
     1
  8
7_ALL_FEATURES
  6
Continuous
 62
     7
100
AcDbLine
 10
143.9070057449
 20
441.3627248346
 30
0.0
 11
143.648135936
 21
442.3288401139
 31
0.0
  0
ARC
  5
3FB
330
1B
100
AcDbEntity
 67
     1
  8
7_ALL_FEATURES
  6
Continuous
 62
     7
100
AcDbCircle
 10
129.7438463039
 20
490.3566521589
 30
0.0
 40
48.5
100
AcDbArc
 50
268.2222631627
 51
301.7777368373
  0
ARC
  5
3FC
330
1B
100
AcDbEntity
 67
     1
  8
7_ALL_FEATURES
  6
Continuous
 62
     7
100
AcDbCircle
 10
129.7438463039
 20
490.3566521589
 30
0.0
 40
50.0
100
AcDbArc
 50
268.7397952917
 51
301.2602047083
  0
ARC
  5
3FD
330
1B
100
AcDbEntity
 67
     1
  8
3_ALL_AXES
  6
Continuous
 62
     7
100
AcDbCircle
 10
129.7438463039
 20
490.3566521589
 30
0.0
 40
53.0
100
AcDbArc
 50
286.456814446
 51
300.3165078285
  0
ARC
  5
3FE
330
1B
100
AcDbEntity
 67
     1
  8
3_ALL_AXES
  6
Continuous
 62
     7
100
AcDbCircle
 10
129.7438463039
 20
490.3566521589
 30
0.0
 40
53.0
100
AcDbArc
 50
285.0000004785
 51
286.456814446
  0
ARC
  5
3FF
330
1B
100
AcDbEntity
 67
     1
  8
7_ALL_FEATURES
  6
Continuous
 62
     7
100
AcDbCircle
 10
129.7438463039
 20
490.3566521589
 30
0.0
 40
15.0
100
AcDbArc
 50
115.0
 51
185.0
  0
LINE
  5
400
330
1B
100
AcDbEntity
 67
     1
  8
7_ALL_FEATURES
  6
Continuous
 62
     7
100
AcDbLine
 10
123.4045723778
 20
503.9512689644
 30
0.0
 11
122.9819541161
 21
504.8575767514
 31
0.0
  0
ARC
  5
401
330
1B
100
AcDbEntity
 67
     1
  8
7_ALL_FEATURES
  6
Continuous
 62
     7
100
AcDbCircle
 10
129.7438463039
 20
490.3566521589
 30
0.0
 40
16.0
100
AcDbArc
 50
115.0
 51
185.0
  0
LINE
  5
402
330
1B
100
AcDbEntity
 67
     1
  8
7_ALL_FEATURES
  6
Continuous
 62
     7
100
AcDbLine
 10
113.8047311345
 20
488.9621602749
 30
0.0
 11
114.8009258325
 21
489.0493160176
 31
0.0
  0
LINE
  5
403
330
1B
100
AcDbEntity
 67
     1
  8
7_ALL_FEATURES
  6
Continuous
 62
     7
100
AcDbLine
 10
116.1492294984
 20
484.0173782327
 30
0.0
 11
115.2429217113
 21
483.594759971
 31
0.0
  0
ARC
  5
404
330
1B
100
AcDbEntity
 67
     1
  8
7_ALL_FEATURES
  6
Continuous
 62
     7
100
AcDbCircle
 10
129.7438463039
 20
490.3566521589
 30
0.0
 40
16.0
100
AcDbArc
 50
205.0
 51
275.0
  0
LINE
  5
405
330
1B
100
AcDbEntity
 67
     1
  8
7_ALL_FEATURES
  6
Continuous
 62
     7
100
AcDbLine
 10
131.1383381879
 20
474.4175369894
 30
0.0
 11
131.0511824451
 21
475.4137316875
 31
0.0
  0
ARC
  5
406
330
1B
100
AcDbEntity
 67
     1
  8
7_ALL_FEATURES
  6
Continuous
 62
     7
100
AcDbCircle
 10
129.7438463039
 20
490.3566521589
 30
0.0
 40
15.0
100
AcDbArc
 50
205.0
 51
275.0
  0
LINE
  5
407
330
1B
100
AcDbEntity
 67
     1
  8
7_ALL_FEATURES
  6
Continuous
 62
     7
100
AcDbLine
 10
143.3384631095
 20
496.695926085
 30
0.0
 11
144.2447708965
 21
497.1185443467
 31
0.0
  0
ARC
  5
408
330
1B
100
AcDbEntity
 67
     1
  8
7_ALL_FEATURES
  6
Continuous
 62
     7
100
AcDbCircle
 10
129.7438463039
 20
490.3566521589
 30
0.0
 40
16.0
100
AcDbArc
 50
25.0
 51
95.0
  0
LINE
  5
409
330
1B
100
AcDbEntity
 67
     1
  8
7_ALL_FEATURES
  6
Continuous
 62
     7
100
AcDbLine
 10
128.34935442
 20
506.2957673283
 30
0.0
 11
128.4365101627
 21
505.2995726302
 31
0.0
  0
ARC
  5
40A
330
1B
100
AcDbEntity
 67
     1
  8
7_ALL_FEATURES
  6
Continuous
 62
     7
100
AcDbCircle
 10
129.7438463039
 20
490.3566521589
 30
0.0
 40
15.0
100
AcDbArc
 50
25.0
 51
95.0
  0
ARC
  5
40B
330
1B
100
AcDbEntity
 67
     1
  8
7_ALL_FEATURES
  6
Continuous
 62
     7
100
AcDbCircle
 10
129.7438463039
 20
490.3566521589
 30
0.0
 40
15.0
100
AcDbArc
 50
295.0000000000001
 51
5.0
  0
LINE
  5
40C
330
1B
100
AcDbEntity
 67
     1
  8
7_ALL_FEATURES
  6
Continuous
 62
     7
100
AcDbLine
 10
136.08312023
 20
476.7620353533
 30
0.0
 11
136.5057384918
 21
475.8557275663
 31
0.0
  0
ARC
  5
40D
330
1B
100
AcDbEntity
 67
     1
  8
7_ALL_FEATURES
  6
Continuous
 62
     7
100
AcDbCircle
 10
129.7438463039
 20
490.3566521589
 30
0.0
 40
16.0
100
AcDbArc
 50
295.0000000000001
 51
5.0
  0
LINE
  5
40E
330
1B
100
AcDbEntity
 67
     1
  8
7_ALL_FEATURES
  6
Continuous
 62
     7
100
AcDbLine
 10
145.6829614734
 20
491.7511440428
 30
0.0
 11
144.6867667753
 21
491.6639883001
 31
0.0
  0
ARC
  5
40F
330
1B
100
AcDbEntity
 67
     1
  8
3_ALL_AXES
  6
Continuous
 62
     7
100
AcDbCircle
 10
129.7438463039
 20
490.3566521589
 30
0.0
 40
53.0
100
AcDbArc
 50
14.4381816026
 51
15.5618183974
  0
ARC
  5
410
330
1B
100
AcDbEntity
 67
     1
  8
3_ALL_AXES
  6
Continuous
 62
     7
100
AcDbCircle
 10
181.1329584996
 20
502.5734090008
 30
0.0
 40
1.0
100
AcDbArc
 50
293.1334352474
 51
93.61199810779999
  0
ARC
  5
411
330
1B
100
AcDbEntity
 67
     1
  8
3_ALL_AXES
  6
Continuous
 62
     7
100
AcDbCircle
 10
129.7438463039
 20
490.3566521589
 30
0.0
 40
53.0
100
AcDbArc
 50
300.3165078285
 51
12.3072517526
  0
LINE
  5
412
330
1B
100
AcDbEntity
 67
     1
  8
7_ALL_FEATURES
  6
Continuous
 62
     7
100
AcDbLine
 10
156.4969934321
 20
444.6043940863
 30
0.0
 11
155.082294149
 21
449.8841236883
 31
0.0
  0
ARC
  5
413
330
1B
100
AcDbEntity
 67
     1
  8
7_ALL_FEATURES
  6
Continuous
 62
     7
100
AcDbCircle
 10
129.7438463039
 20
490.3566521589
 30
0.0
 40
47.75
100
AcDbArc
 50
267.9507436873001
 51
302.0492563127
  0
LINE
  5
414
330
1B
100
AcDbEntity
 67
     1
  8
7_ALL_FEATURES
  6
Continuous
 62
     7
100
AcDbLine
 10
128.0363710129
 20
442.6371904254
 30
0.0
 11
129.451070296
 21
437.3574608234
 31
0.0
  0
ARC
  5
415
330
1B
100
AcDbEntity
 67
     1
  8
7_ALL_FEATURES
  6
Continuous
 62
     7
100
AcDbCircle
 10
129.7438463039
 20
490.3566521589
 30
0.0
 40
53.0
100
AcDbArc
 50
120.3165078285
 51
269.6834921715001
  0
LINE
  5
416
330
1B
100
AcDbEntity
 67
     1
  8
7_ALL_FEATURES
  6
Continuous
 62
     7
100
AcDbLine
 10
102.9906991757
 20
536.1089102314
 30
0.0
 11
104.4053984588
 21
530.8291806294
 31
0.0
  0
ARC
  5
417
330
1B
100
AcDbEntity
 67
     1
  8
7_ALL_FEATURES
  6
Continuous
 62
     7
100
AcDbCircle
 10
129.7438463039
 20
490.3566521589
 30
0.0
 40
47.75
100
AcDbArc
 50
87.95074368730002
 51
122.0492563127
  0
LINE
  5
418
330
1B
100
AcDbEntity
 67
     1
  8
7_ALL_FEATURES
  6
Continuous
 62
     7
100
AcDbLine
 10
131.4513215949
 20
538.0761138923
 30
0.0
 11
130.0366223118
 21
543.3558434943
 31
0.0
  0
ARC
  5
419
330
1B
100
AcDbEntity
 67
     1
  8
3_ALL_AXES
  6
Continuous
 62
     7
100
AcDbCircle
 10
129.7438463039
 20
490.3566521589
 30
0.0
 40
53.0
100
AcDbArc
 50
17.6927482474
 51
89.6834921715
  0
ARC
  5
41A
330
1B
100
AcDbEntity
 67
     1
  8
3_ALL_AXES
  6
Continuous
 62
     7
100
AcDbCircle
 10
180.3565013643
 20
505.4711864797
 30
0.0
 40
1.0
100
AcDbArc
 50
296.3880018922
 51
96.8665647526
  0
ARC
  5
41B
330
1B
100
AcDbEntity
 67
     1
  8
7_ALL_FEATURES
  6
Continuous
 62
     7
100
AcDbCircle
 10
129.7438463039
 20
490.3566521589
 30
0.0
 40
51.0
100
AcDbArc
 50
106.1235186577
 51
120.9328038153
  0
ARC
  5
41C
330
1B
100
AcDbEntity
 67
     1
  8
7_ALL_FEATURES
  6
Continuous
 62
     7
100
AcDbCircle
 10
129.7438463039
 20
490.3566521589
 30
0.0
 40
51.0
100
AcDbArc
 50
269.0671961847
 51
283.8764813423
  0
ARC
  5
41D
330
1B
100
AcDbEntity
 67
     1
  8
7_ALL_FEATURES
  6
Continuous
 62
     7
100
AcDbCircle
 10
129.7438463039
 20
490.3566521589
 30
0.0
 40
51.0
100
AcDbArc
 50
286.1235186577
 51
300.9328038153
  0
ARC
  5
41E
330
1B
100
AcDbEntity
 67
     1
  8
7_ALL_FEATURES
  6
Continuous
 62
     7
100
AcDbCircle
 10
129.7438463039
 20
490.3566521589
 30
0.0
 40
51.0
100
AcDbArc
 50
89.0671961847
 51
103.8764813423
  0
ELLIPSE
  5
41F
330
1B
100
AcDbEntity
 67
     1
  8
7_ALL_FEATURES
  6
Continuous
 62
     7
100
AcDbEllipse
 10
121.2243860693
 20
522.1517106075
 30
0.0
 11
-4.831288841899999
 21
18.0306154241
 31
0.0
210
0.0
220
0.0
230
1.0
 40
0.75
 41
-0.0714894499
 42
0.0714894499
  0
ELLIPSE
  5
420
330
1B
100
AcDbEntity
 67
     1
  8
7_ALL_FEATURES
  6
Continuous
 62
     7
100
AcDbEllipse
 10
138.2633065385
 20
458.5615937102
 30
0.0
 11
-4.831288841899999
 21
18.0306154241
 31
0.0
210
0.0
220
0.0
230
1.0
 40
0.75
 41
-3.2130821035
 42
-3.0701032037
  0
ARC
  5
421
330
1B
100
AcDbEntity
 67
     1
  8
02___PRT_ALL_AXES
  6
Continuous
 62
     7
100
AcDbCircle
 10
129.7438463039
 20
113.1098985693
 30
0.0
 40
61.85
100
AcDbArc
 50
0.0
 51
180.0
  0
ARC
  5
422
330
1B
100
AcDbEntity
 67
     1
  8
02___PRT_ALL_AXES
  6
Continuous
 62
     7
100
AcDbCircle
 10
129.7438463039
 20
113.1098985693
 30
0.0
 40
61.85
100
AcDbArc
 50
180.0
 51
360.0
  0
ARC
  5
423
330
1B
100
AcDbEntity
 67
     1
  8
02___PRT_ALL_AXES
  6
Continuous
 62
     7
100
AcDbCircle
 10
129.7438463039
 20
113.1098985693
 30
0.0
 40
64.3
100
AcDbArc
 50
0.0
 51
180.0
  0
ARC
  5
424
330
1B
100
AcDbEntity
 67
     1
  8
02___PRT_ALL_AXES
  6
Continuous
 62
     7
100
AcDbCircle
 10
129.7438463039
 20
113.1098985693
 30
0.0
 40
64.3
100
AcDbArc
 50
180.0
 51
360.0
  0
ARC
  5
425
330
1B
100
AcDbEntity
 67
     1
  8
3_ALL_AXES
  6
Continuous
 62
     7
100
AcDbCircle
 10
191.5630991864
 20
96.5454796828
 30
0.0
 40
2.5
100
AcDbArc
 50
265.4425772335
 51
64.5574227665
  0
ARC
  5
426
330
1B
100
AcDbEntity
 67
     1
  8
3_ALL_AXES
  6
Continuous
 62
     7
100
AcDbCircle
 10
129.7438463039
 20
113.1098985693
 30
0.0
 40
64.5
100
AcDbArc
 50
270.0
 51
342.8154865724
  0
ARC
  5
427
330
1B
100
AcDbEntity
 67
     1
  8
3_ALL_AXES
  6
Continuous
 62
     7
100
AcDbCircle
 10
129.7438463039
 20
113.1098985693
 30
0.0
 40
64.5
100
AcDbArc
 50
347.1845134276
 51
90.0
  0
ARC
  5
428
330
1B
100
AcDbEntity
 67
     1
  8
3_ALL_AXES
  6
Continuous
 62
     7
100
AcDbCircle
 10
129.7438463039
 20
113.1098985693
 30
0.0
 40
64.5
100
AcDbArc
 50
90.0
 51
179.9907145882
  0
ARC
  5
429
330
1B
100
AcDbEntity
 67
     1
  8
3_ALL_AXES
  6
Continuous
 62
     7
100
AcDbCircle
 10
129.7438463039
 20
113.1098985693
 30
0.0
 40
64.5
100
AcDbArc
 50
179.9907145882
 51
270.0
  0
LINE
  5
42A
330
1B
100
AcDbEntity
 67
     1
  8
02___PRT_ALL_AXES
  6
Continuous
 62
     7
100
AcDbLine
 10
246.3218738079
 20
381.3910324376
 30
0.0
 11
248.7718738079
 21
381.3910324376
 31
0.0
  0
LINE
  5
42B
330
1B
100
AcDbEntity
 67
     1
  8
02___PRT_ALL_AXES
  6
Continuous
 62
     7
100
AcDbLine
 10
248.7718738079
 20
381.3910324376
 30
0.0
 11
310.6218738079
 21
381.3910324376
 31
0.0
  0
LINE
  5
42C
330
1B
100
AcDbEntity
 67
     1
  8
02___PRT_ALL_AXES
  6
Continuous
 62
     7
100
AcDbLine
 10
246.3218738079
 20
381.3910324376
 30
0.0
 11
246.3218738079
 21
380.2410324376
 31
0.0
  0
LINE
  5
42D
330
1B
100
AcDbEntity
 67
     1
  8
02___PRT_ALL_AXES
  6
Continuous
 62
     7
100
AcDbLine
 10
374.9218738079
 20
381.3910324376
 30
0.0
 11
372.4718738079
 21
381.3910324376
 31
0.0
  0
LINE
  5
42E
330
1B
100
AcDbEntity
 67
     1
  8
02___PRT_ALL_AXES
  6
Continuous
 62
     7
100
AcDbLine
 10
372.4718738079
 20
381.3910324376
 30
0.0
 11
310.6218738079
 21
381.3910324376
 31
0.0
  0
LINE
  5
42F
330
1B
100
AcDbEntity
 67
     1
  8
02___PRT_ALL_AXES
  6
Continuous
 62
     7
100
AcDbLine
 10
374.9218738079
 20
381.3910324376
 30
0.0
 11
374.9218738079
 21
380.2410324376
 31
0.0
  0
LINE
  5
430
330
1B
100
AcDbEntity
 67
     1
  8
3_ALL_AXES
  6
Continuous
 62
     7
100
AcDbLine
 10
363.6210651433
 20
246.2410324376
 30
0.0
 11
363.621876485
 21
249.039727335
 31
0.0
  0
LINE
  5
431
330
1B
100
AcDbEntity
 67
     1
  8
6_ALL_SURFS
  6
Continuous
 62
     7
100
AcDbLine
 10
360.6218738079
 20
231.2410324376
 30
0.0
 11
360.6218738079
 21
247.4786732298
 31
0.0
  0
LINE
  5
432
330
1B
100
AcDbEntity
 67
     1
  8
7_ALL_FEATURES
  6
Continuous
 62
     7
100
AcDbLine
 10
358.371575123
 20
230.2410324376
 30
0.0
 11
358.2064624899
 21
230.2410324376
 31
0.0
  0
LINE
  5
433
330
1B
100
AcDbEntity
 67
     1
  8
7_ALL_FEATURES
  6
Continuous
 62
     7
100
AcDbLine
 10
358.2064624899
 20
230.2410324376
 30
0.0
 11
356.3741318805
 21
230.2410324376
 31
0.0
  0
LINE
  5
434
330
1B
100
AcDbEntity
 67
     1
  8
7_ALL_FEATURES
  6
Continuous
 62
     7
100
AcDbLine
 10
358.3718738079
 20
231.2410324376
 30
0.0
 11
358.3718738079
 21
230.2410324376
 31
0.0
  0
LINE
  5
435
330
1B
100
AcDbEntity
 67
     1
  8
7_ALL_FEATURES
  6
Continuous
 62
     7
100
AcDbLine
 10
356.3741318805
 20
230.2410324376
 30
0.0
 11
351.0944022785
 21
230.2410324376
 31
0.0
  0
LINE
  5
436
330
1B
100
AcDbEntity
 67
     1
  8
7_ALL_FEATURES
  6
Continuous
 62
     7
100
AcDbLine
 10
351.0944022785
 20
230.2410324376
 30
0.0
 11
326.6215258478
 21
230.2410324376
 31
0.0
  0
LINE
  5
437
330
1B
100
AcDbEntity
 67
     1
  8
7_ALL_FEATURES
  6
Continuous
 62
     7
100
AcDbLine
 10
326.6215258478
 20
230.2410324376
 30
0.0
 11
325.6215475953
 21
230.2410324376
 31
0.0
  0
LINE
  5
438
330
1B
100
AcDbEntity
 67
     1
  8
7_ALL_FEATURES
  6
Continuous
 62
     7
100
AcDbLine
 10
325.6215475953
 20
230.2410324376
 30
0.0
 11
325.5647942793
 21
230.2410324376
 31
0.0
  0
LINE
  5
439
330
1B
100
AcDbEntity
 67
     1
  8
7_ALL_FEATURES
  6
Continuous
 62
     7
100
AcDbLine
 10
325.5647942793
 20
230.2410324376
 30
0.0
 11
325.1227984005
 21
230.2410324376
 31
0.0
  0
LINE
  5
43A
330
1B
100
AcDbEntity
 67
     1
  8
7_ALL_FEATURES
  6
Continuous
 62
     7
100
AcDbLine
 10
325.1227984005
 20
230.2410324376
 30
0.0
 11
324.2164906135
 21
230.2410324376
 31
0.0
  0
LINE
  5
43B
330
1B
100
AcDbEntity
 67
     1
  8
7_ALL_FEATURES
  6
Continuous
 62
     7
100
AcDbLine
 10
324.2164906135
 20
230.2410324376
 30
0.0
 11
317.3837659958
 21
230.2410324376
 31
0.0
  0
LINE
  5
43C
330
1B
100
AcDbEntity
 67
     1
  8
7_ALL_FEATURES
  6
Continuous
 62
     7
100
AcDbLine
 10
317.3837659958
 20
230.2410324376
 30
0.0
 11
309.3145376667
 21
230.2410324376
 31
0.0
  0
LINE
  5
43D
330
1B
100
AcDbEntity
 67
     1
  8
7_ALL_FEATURES
  6
Continuous
 62
     7
100
AcDbLine
 10
309.3145376667
 20
230.2410324376
 30
0.0
 11
309.2273819239
 21
230.2410324376
 31
0.0
  0
LINE
  5
43E
330
1B
100
AcDbEntity
 67
     1
  8
7_ALL_FEATURES
  6
Continuous
 62
     7
100
AcDbLine
 10
309.2273819239
 20
230.2410324376
 30
0.0
 11
304.2825998818
 21
230.2410324376
 31
0.0
  0
LINE
  5
43F
330
1B
100
AcDbEntity
 67
     1
  8
7_ALL_FEATURES
  6
Continuous
 62
     7
100
AcDbLine
 10
304.2825998818
 20
230.2410324376
 30
0.0
 11
295.6222000205
 21
230.2410324376
 31
0.0
  0
LINE
  5
440
330
1B
100
AcDbEntity
 67
     1
  8
7_ALL_FEATURES
  6
Continuous
 62
     7
100
AcDbLine
 10
295.6222000205
 20
230.2410324376
 30
0.0
 11
294.6827586384
 21
230.2410324376
 31
0.0
  0
LINE
  5
441
330
1B
100
AcDbEntity
 67
     1
  8
7_ALL_FEATURES
  6
Continuous
 62
     7
100
AcDbLine
 10
294.6827586384
 20
230.2410324376
 30
0.0
 11
294.622221768
 21
230.2410324376
 31
0.0
  0
LINE
  5
442
330
1B
100
AcDbEntity
 67
     1
  8
7_ALL_FEATURES
  6
Continuous
 62
     7
100
AcDbLine
 10
294.622221768
 20
230.2410324376
 30
0.0
 11
262.9024120745
 21
230.2410324376
 31
0.0
  0
LINE
  5
443
330
1B
100
AcDbEntity
 67
     1
  8
7_ALL_FEATURES
  6
Continuous
 62
     7
100
AcDbLine
 10
262.9024120745
 20
230.2410324376
 30
0.0
 11
262.8721724928
 21
230.2410324376
 31
0.0
  0
LINE
  5
444
330
1B
100
AcDbEntity
 67
     1
  8
7_ALL_FEATURES
  6
Continuous
 62
     7
100
AcDbLine
 10
262.8721724928
 20
230.2410324376
 30
0.0
 11
257.6226824725
 21
230.2410324376
 31
0.0
  0
SPLINE
  5
445
330
1B
100
AcDbEntity
 67
     1
  8
3_ALL_AXES
  6
Continuous
 62
     7
100
AcDbSpline
 70
     0
 71
     3
 72
    16
 73
    12
 74
     0
 42
0.000000001
 43
0.0000001
 40
0.0
 40
0.0
 40
0.0
 40
0.0
 40
0.0524585935
 40
0.0871308426
 40
0.1281683114
 40
0.2291195987
 40
0.3532956879
 40
0.4969786749
 40
0.6558635829
 40
0.8252316049
 40
1.0
 40
1.0
 40
1.0
 40
1.0
 10
361.8158988076
 20
260.2409778051
 30
0.0
 10
361.5411624855
 20
260.2409778052
 30
0.0
 10
361.0946698427
 20
260.0417328545
 30
0.0
 10
360.5760941345
 20
259.6217282081
 30
0.0
 10
359.9374165053
 20
258.946324898
 30
0.0
 10
359.1489459806
 20
257.7894015283
 30
0.0
 10
358.2756481472
 20
256.0620164196
 30
0.0
 10
357.4930149105
 20
253.9639718845
 30
0.0
 10
356.8695357038
 20
251.5678842062
 30
0.0
 10
356.466632062
 20
248.9600381748
 30
0.0
 10
356.3741318805
 20
247.1563300633
 30
0.0
 10
356.3741318805
 20
246.2410324376
 30
0.0
  0
LINE
  5
446
330
1B
100
AcDbEntity
 67
     1
  8
7_ALL_FEATURES
  6
Continuous
 62
     7
100
AcDbLine
 10
358.371575123
 20
230.2410324376
 30
0.0
 11
363.6210651433
 21
230.2410324376
 31
0.0
  0
SPLINE
  5
447
330
1B
100
AcDbEntity
 67
     1
  8
7_ALL_FEATURES
  6
Continuous
 62
     7
100
AcDbSpline
 70
     0
 71
     3
 72
    13
 73
     9
 74
     0
 42
0.000000001
 43
0.0000001
 40
0.0
 40
0.0
 40
0.0
 40
0.0
 40
0.3368528279
 40
0.6235423597
 40
0.7436348805
 40
0.8465517298
 40
0.9317841173
 40
1.0
 40
1.0
 40
1.0
 40
1.0
 10
361.6218734716
 20
250.9064402155
 30
0.0
 10
361.6218741132
 20
251.9124602754
 30
0.0
 10
361.6155960196
 20
253.7744529722
 30
0.0
 10
361.5404271275
 20
255.9957217521
 30
0.0
 10
361.3876285946
 20
257.5108844144
 30
0.0
 10
361.2327237004
 20
258.4196588594
 30
0.0
 10
361.0256427785
 20
259.1581297648
 30
0.0
 10
360.8267376741
 20
259.5766214114
 30
0.0
 10
360.7111384818
 20
259.7443776593
 30
0.0
  0
LINE
  5
448
330
1B
100
AcDbEntity
 67
     1
  8
3_ALL_AXES
  6
Continuous
 62
     7
100
AcDbLine
 10
363.6218738079
 20
249.0397249207
 30
0.0
 11
363.6218738079
 21
275.2410324376
 31
0.0
  0
LINE
  5
449
330
1B
100
AcDbEntity
 67
     1
  8
3_ALL_AXES
  6
Continuous
 62
     7
100
AcDbLine
 10
257.6221494392
 20
275.2410324376
 30
0.0
 11
259.6220292722
 21
275.2410324376
 31
0.0
  0
LINE
  5
44A
330
1B
100
AcDbEntity
 67
     1
  8
3_ALL_AXES
  6
Continuous
 62
     7
100
AcDbLine
 10
259.6220292722
 20
275.2410324376
 30
0.0
 11
261.3596566672
 21
275.2410324376
 31
0.0
  0
LINE
  5
44B
330
1B
100
AcDbEntity
 67
     1
  8
3_ALL_AXES
  6
Continuous
 62
     7
100
AcDbLine
 10
261.3596566672
 20
275.2410324376
 30
0.0
 11
361.6217183436
 21
275.2410324376
 31
0.0
  0
LINE
  5
44C
330
1B
100
AcDbEntity
 67
     1
  8
3_ALL_AXES
  6
Continuous
 62
     7
100
AcDbLine
 10
361.6217183436
 20
275.2410324376
 30
0.0
 11
363.6188295523
 21
275.2410324376
 31
0.0
  0
LINE
  5
44D
330
1B
100
AcDbEntity
 67
     1
  8
3_ALL_AXES
  6
Continuous
 62
     7
100
AcDbLine
 10
257.6218682949
 20
249.0397265943
 30
0.0
 11
257.6226824725
 21
246.2410324376
 31
0.0
  0
LINE
  5
44E
330
1B
100
AcDbEntity
 67
     1
  8
3_ALL_AXES
  6
Continuous
 62
     7
100
AcDbLine
 10
257.6218738079
 20
249.0397249207
 30
0.0
 11
257.6218738079
 21
275.2410324376
 31
0.0
  0
LINE
  5
44F
330
1B
100
AcDbEntity
 67
     1
  8
7_ALL_FEATURES
  6
Continuous
 62
     7
100
AcDbLine
 10
356.3741318805
 20
231.2410324376
 30
0.0
 11
359.0985302752
 21
231.2410324376
 31
0.0
  0
LINE
  5
450
330
1B
100
AcDbEntity
 67
     1
  8
7_ALL_FEATURES
  6
Continuous
 62
     7
100
AcDbLine
 10
359.0985302752
 20
231.2410324376
 30
0.0
 11
359.1215783486
 21
231.2410324376
 31
0.0
  0
LINE
  5
451
330
1B
100
AcDbEntity
 67
     1
  8
7_ALL_FEATURES
  6
Continuous
 62
     7
100
AcDbLine
 10
359.1215783486
 20
231.2410324376
 30
0.0
 11
360.6216288086
 21
231.2410324376
 31
0.0
  0
LINE
  5
452
330
1B
100
AcDbEntity
 67
     1
  8
7_ALL_FEATURES
  6
Continuous
 62
     7
100
AcDbLine
 10
360.6097801012
 20
232.2410324376
 30
0.0
 11
361.6151150646
 21
232.2410324376
 31
0.0
  0
SPLINE
  5
453
330
1B
100
AcDbEntity
 67
     1
  8
6_ALL_SURFS
  6
Continuous
 62
     7
100
AcDbSpline
 70
     0
 71
     3
 72
    13
 73
     9
 74
     0
 42
0.000000001
 43
0.0000001
 40
0.0
 40
0.0
 40
0.0
 40
0.0
 40
0.0670710097
 40
0.1532697661
 40
0.2584876611
 40
0.3813475637
 40
0.6711103651
 40
1.0
 40
1.0
 40
1.0
 40
1.0
 10
359.766051099
 20
258.6665189393
 30
0.0
 10
359.8959937405
 20
258.4501576195
 30
0.0
 10
360.1081167397
 20
257.9068232411
 30
0.0
 10
360.3141771481
 20
256.9553317163
 30
0.0
 10
360.4568229053
 20
255.7799311335
 30
0.0
 10
360.5821431115
 20
253.8349860477
 30
0.0
 10
360.6224972638
 20
251.0439456388
 30
0.0
 10
360.6218821127
 20
248.7162531513
 30
0.0
 10
360.6218954243
 20
247.4786657168
 30
0.0
  0
LINE
  5
454
330
1B
100
AcDbEntity
 67
     1
  8
7_ALL_FEATURES
  6
Continuous
 62
     7
100
AcDbLine
 10
257.6226824725
 20
246.2410324376
 30
0.0
 11
257.6226824725
 21
230.2410324376
 31
0.0
  0
LINE
  5
455
330
1B
100
AcDbEntity
 67
     1
  8
7_ALL_FEATURES
  6
Continuous
 62
     7
100
AcDbLine
 10
356.3741318805
 20
230.2410324376
 30
0.0
 11
356.3741318805
 21
246.2410324376
 31
0.0
  0
LINE
  5
456
330
1B
100
AcDbEntity
 67
     1
  8
7_ALL_FEATURES
  6
Continuous
 62
     7
100
AcDbLine
 10
363.6210651433
 20
246.2410324376
 30
0.0
 11
363.6210651433
 21
230.2410324376
 31
0.0
  0
SPLINE
  5
457
330
1B
100
AcDbEntity
 67
     1
  8
3_ALL_AXES
  6
Continuous
 62
     7
100
AcDbSpline
 70
     0
 71
     3
 72
    18
 73
    14
 74
     0
 42
0.000000001
 43
0.0000001
 40
0.0
 40
0.0
 40
0.0
 40
0.0
 40
0.1943307867
 40
0.3755126982
 40
0.5385546877
 40
0.6793477235
 40
0.7948091987
 40
0.8425357159
 40
0.8836270552
 40
0.9185134784
 40
0.9481782599
 40
0.9744411226
 40
1.0
 40
1.0
 40
1.0
 40
1.0
 10
363.621876485
 20
249.039727335
 30
0.0
 10
363.6218944938
 20
249.8067444046
 30
0.0
 10
363.6207742537
 20
251.2888963021
 30
0.0
 10
363.6003647723
 20
253.4144628986
 30
0.0
 10
363.540929992
 20
255.3283202993
 30
0.0
 10
363.4193389805
 20
256.9791465263
 30
0.0
 10
363.2412860495
 20
258.1686822913
 30
0.0
 10
363.0309116259
 20
258.9480977334
 30
0.0
 10
362.854420355
 20
259.4046525955
 30
0.0
 10
362.6473736678
 20
259.7690118816
 30
0.0
 10
362.4052408794
 20
260.0386191187
 30
0.0
 10
362.1236632136
 20
260.2062867139
 30
0.0
 10
361.9167788359
 20
260.240977805
 30
0.0
 10
361.8158988076
 20
260.2409778051
 30
0.0
  0
SPLINE
  5
458
330
1B
100
AcDbEntity
 67
     1
  8
7_ALL_FEATURES
  6
Continuous
 62
     7
100
AcDbSpline
 70
     0
 71
     3
 72
     9
 73
     5
 74
     0
 42
0.000000001
 43
0.0000001
 40
0.0
 40
0.0
 40
0.0
 40
0.0
 40
0.2548091736
 40
1.0
 40
1.0
 40
1.0
 40
1.0
 10
361.6151150646
 20
246.2410324376
 30
0.0
 10
361.6151150646
 20
246.6372957895
 30
0.0
 10
361.6162117355
 20
248.1924335879
 30
0.0
 10
361.6218727325
 20
249.7475658683
 30
0.0
 10
361.6218734716
 20
250.9064402155
 30
0.0
  0
LINE
  5
459
330
1B
100
AcDbEntity
 67
     1
  8
3_ALL_AXES
  6
Continuous
 62
     9
100
AcDbLine
 10
361.6151150646
 20
246.2410324376
 30
0.0
 11
363.6210651433
 21
246.2410324376
 31
0.0
  0
LINE
  5
45A
330
1B
100
AcDbEntity
 67
     1
  8
7_ALL_FEATURES
  6
Continuous
 62
     7
100
AcDbLine
 10
361.6151150646
 20
232.2410324376
 30
0.0
 11
361.6151150646
 21
246.2410324376
 31
0.0
  0
LINE
  5
45B
330
1B
100
AcDbEntity
 67
     1
  8
3_ALL_AXES
  6
Continuous
 62
     7
100
AcDbLine
 10
363.6188295523
 20
275.2410324376
 30
0.0
 11
361.6217183436
 21
275.2410324376
 31
0.0
  0
LINE
  5
45C
330
1B
100
AcDbEntity
 67
     1
  8
3_ALL_AXES
  6
Continuous
 62
     7
100
AcDbLine
 10
361.6217183436
 20
275.2410324376
 30
0.0
 11
261.3596566672
 21
275.2410324376
 31
0.0
  0
LINE
  5
45D
330
1B
100
AcDbEntity
 67
     1
  8
3_ALL_AXES
  6
Continuous
 62
     7
100
AcDbLine
 10
261.3596566672
 20
275.2410324376
 30
0.0
 11
259.6220292722
 21
275.2410324376
 31
0.0
  0
LINE
  5
45E
330
1B
100
AcDbEntity
 67
     1
  8
3_ALL_AXES
  6
Continuous
 62
     7
100
AcDbLine
 10
259.6220292722
 20
275.2410324376
 30
0.0
 11
259.5422212021
 21
275.2410324376
 31
0.0
  0
LINE
  5
45F
330
1B
100
AcDbEntity
 67
     1
  8
3_ALL_AXES
  6
Continuous
 62
     7
100
AcDbLine
 10
259.5422212021
 20
275.2410324376
 30
0.0
 11
257.6218912487
 21
275.2410324376
 31
0.0
  0
LINE
  5
460
330
1B
100
AcDbEntity
 67
     1
  8
3_ALL_AXES
  6
Continuous
 62
     7
100
AcDbLine
 10
363.6218738079
 20
275.2410324376
 30
0.0
 11
363.6218738079
 21
325.2410324376
 31
0.0
  0
LINE
  5
461
330
1B
100
AcDbEntity
 67
     1
  8
3_ALL_AXES
  6
Continuous
 62
     7
100
AcDbLine
 10
257.6218912487
 20
325.2410324376
 30
0.0
 11
259.5422212021
 21
325.2410324376
 31
0.0
  0
LINE
  5
462
330
1B
100
AcDbEntity
 67
     1
  8
3_ALL_AXES
  6
Continuous
 62
     7
100
AcDbLine
 10
259.5422212021
 20
325.2410324376
 30
0.0
 11
259.6218738079
 21
325.2410324376
 31
0.0
  0
LINE
  5
463
330
1B
100
AcDbEntity
 67
     1
  8
3_ALL_AXES
  6
Continuous
 62
     7
100
AcDbLine
 10
259.6218738079
 20
325.2410324376
 30
0.0
 11
261.3596566672
 21
325.2410324376
 31
0.0
  0
LINE
  5
464
330
1B
100
AcDbEntity
 67
     1
  8
3_ALL_AXES
  6
Continuous
 62
     7
100
AcDbLine
 10
261.3596566672
 20
325.2410324376
 30
0.0
 11
361.6218738079
 21
325.2410324376
 31
0.0
  0
LINE
  5
465
330
1B
100
AcDbEntity
 67
     1
  8
3_ALL_AXES
  6
Continuous
 62
     7
100
AcDbLine
 10
361.6218738079
 20
325.2410324376
 30
0.0
 11
363.6193798023
 21
325.2410324376
 31
0.0
  0
LINE
  5
466
330
1B
100
AcDbEntity
 67
     1
  8
3_ALL_AXES
  6
Continuous
 62
     7
100
AcDbLine
 10
257.6218738079
 20
275.2410324376
 30
0.0
 11
257.6218738079
 21
325.2410324376
 31
0.0
  0
LINE
  5
467
330
1B
100
AcDbEntity
 67
     1
  8
3_ALL_AXES
  6
Continuous
 62
     7
100
AcDbLine
 10
246.1218738079
 20
380.2410324376
 30
0.0
 11
246.3218738079
 21
380.2410324376
 31
0.0
  0
LINE
  5
468
330
1B
100
AcDbEntity
 67
     1
  8
3_ALL_AXES
  6
Continuous
 62
     7
100
AcDbLine
 10
246.3218738079
 20
380.2410324376
 30
0.0
 11
246.4752115567
 21
380.2410324376
 31
0.0
  0
LINE
  5
469
330
1B
100
AcDbEntity
 67
     1
  8
3_ALL_AXES
  6
Continuous
 62
     7
100
AcDbLine
 10
246.4752115567
 20
380.2410324376
 30
0.0
 11
248.1218738079
 21
380.2410324376
 31
0.0
  0
LINE
  5
46A
330
1B
100
AcDbEntity
 67
     1
  8
3_ALL_AXES
  6
Continuous
 62
     7
100
AcDbLine
 10
248.1218738079
 20
380.2410324376
 30
0.0
 11
310.6218738079
 21
380.2410324376
 31
0.0
  0
LINE
  5
46B
330
1B
100
AcDbEntity
 67
     1
  8
3_ALL_AXES
  6
Continuous
 62
     7
100
AcDbLine
 10
310.6218738079
 20
380.2410324376
 30
0.0
 11
373.1218738079
 21
380.2410324376
 31
0.0
  0
LINE
  5
46C
330
1B
100
AcDbEntity
 67
     1
  8
3_ALL_AXES
  6
Continuous
 62
     7
100
AcDbLine
 10
373.1218738079
 20
380.2410324376
 30
0.0
 11
374.7685360592
 21
380.2410324376
 31
0.0
  0
LINE
  5
46D
330
1B
100
AcDbEntity
 67
     1
  8
3_ALL_AXES
  6
Continuous
 62
     7
100
AcDbLine
 10
374.7685360592
 20
380.2410324376
 30
0.0
 11
374.9218738079
 21
380.2410324376
 31
0.0
  0
LINE
  5
46E
330
1B
100
AcDbEntity
 67
     1
  8
3_ALL_AXES
  6
Continuous
 62
     7
100
AcDbLine
 10
374.9218738079
 20
380.2410324376
 30
0.0
 11
375.1218738079
 21
380.2410324376
 31
0.0
  0
LINE
  5
46F
330
1B
100
AcDbEntity
 67
     1
  8
7_ALL_FEATURES
  6
Continuous
 62
     7
100
AcDbLine
 10
358.3125780731
 20
355.2410324376
 30
0.0
 11
359.6156242541
 21
355.2410324376
 31
0.0
  0
LINE
  5
470
330
1B
100
AcDbEntity
 67
     1
  8
7_ALL_FEATURES
  6
Continuous
 62
     7
100
AcDbLine
 10
359.6156242541
 20
355.2410324376
 30
0.0
 11
363.6006431405
 21
355.2410324376
 31
0.0
  0
LINE
  5
471
330
1B
100
AcDbEntity
 67
     1
  8
7_ALL_FEATURES
  6
Continuous
 62
     7
100
AcDbLine
 10
363.6006431405
 20
355.2410324376
 30
0.0
 11
364.4314742463
 21
355.2410324376
 31
0.0
  0
LINE
  5
472
330
1B
100
AcDbEntity
 67
     1
  8
7_ALL_FEATURES
  6
Continuous
 62
     7
100
AcDbLine
 10
364.4314742463
 20
355.2410324376
 30
0.0
 11
365.4756543668
 21
355.2410324376
 31
0.0
  0
LINE
  5
473
330
1B
100
AcDbEntity
 67
     1
  8
7_ALL_FEATURES
  6
Continuous
 62
     7
100
AcDbLine
 10
365.4756543668
 20
355.2410324376
 30
0.0
 11
365.9314742463
 21
355.2410324376
 31
0.0
  0
LINE
  5
474
330
1B
100
AcDbEntity
 67
     1
  8
7_ALL_FEATURES
  6
Continuous
 62
     7
100
AcDbLine
 10
365.9314742463
 20
355.2410324376
 30
0.0
 11
373.6218738079
 21
355.2410324376
 31
0.0
  0
LINE
  5
475
330
1B
100
AcDbEntity
 67
     1
  8
7_ALL_FEATURES
  6
Continuous
 62
     7
100
AcDbLine
 10
373.6218738079
 20
355.2410324376
 30
0.0
 11
375.1218738079
 21
355.2410324376
 31
0.0
  0
LINE
  5
476
330
1B
100
AcDbEntity
 67
     1
  8
7_ALL_FEATURES
  6
Continuous
 62
     7
100
AcDbLine
 10
247.4921912688
 20
345.2410324376
 30
0.0
 11
247.4921912688
 21
355.2410324376
 31
0.0
  0
LINE
  5
477
330
1B
100
AcDbEntity
 67
     1
  8
7_ALL_FEATURES
  6
Continuous
 62
     7
100
AcDbLine
 10
359.6151089395
 20
345.2410324376
 30
0.0
 11
358.3125780731
 21
345.2410324376
 31
0.0
  0
LINE
  5
478
330
1B
100
AcDbEntity
 67
     1
  8
7_ALL_FEATURES
  6
Continuous
 62
     7
100
AcDbLine
 10
359.6156242541
 20
345.2410324376
 30
0.0
 11
359.6156242541
 21
355.2410324376
 31
0.0
  0
LINE
  5
479
330
1B
100
AcDbEntity
 67
     1
  8
7_ALL_FEATURES
  6
Continuous
 62
     7
100
AcDbLine
 10
246.1218738079
 20
355.2410324376
 30
0.0
 11
247.4921912688
 21
355.2410324376
 31
0.0
  0
LINE
  5
47A
330
1B
100
AcDbEntity
 67
     1
  8
7_ALL_FEATURES
  6
Continuous
 62
     7
100
AcDbLine
 10
247.4921912688
 20
355.2410324376
 30
0.0
 11
247.6073439967
 21
355.2410324376
 31
0.0
  0
LINE
  5
47B
330
1B
100
AcDbEntity
 67
     1
  8
6_ALL_SURFS
  6
Continuous
 62
     7
100
AcDbLine
 10
367.0762800142
 20
334.7410324376
 30
0.0
 11
366.7618031308
 21
334.7410324376
 31
0.0
  0
LINE
  5
47C
330
1B
100
AcDbEntity
 67
     1
  8
6_ALL_SURFS
  6
Continuous
 62
     7
100
AcDbLine
 10
366.7618031308
 20
334.7410324376
 30
0.0
 11
365.4218738079
 21
334.7410324376
 31
0.0
  0
ARC
  5
47D
330
1B
100
AcDbEntity
 67
     1
  8
6_ALL_SURFS
  6
Continuous
 62
     7
100
AcDbCircle
 10
367.0770613441
 20
336.7410324376
 30
0.0
 40
2.0
100
AcDbArc
 50
270.0
 51
358.9999999999999
  0
LINE
  5
47E
330
1B
100
AcDbEntity
 67
     1
  8
6_ALL_SURFS
  6
Continuous
 62
     7
100
AcDbLine
 10
367.0552280884
 20
334.7410324376
 30
0.0
 11
366.8184504133
 21
334.7410324376
 31
0.0
  0
LINE
  5
47F
330
1B
100
AcDbEntity
 67
     1
  8
6_ALL_SURFS
  6
Continuous
 62
     7
100
AcDbLine
 10
365.4218738079
 20
334.7410324376
 30
0.0
 11
367.0552280884
 21
334.7410324376
 31
0.0
  0
LINE
  5
480
330
1B
100
AcDbEntity
 67
     1
  8
6_ALL_SURFS
  6
Continuous
 62
     7
100
AcDbLine
 10
369.0767567344
 20
336.7061276247
 30
0.0
 11
369.2076586719
 21
344.2054945975
 31
0.0
  0
ARC
  5
481
330
1B
100
AcDbEntity
 67
     1
  8
6_ALL_SURFS
  6
Continuous
 62
     7
100
AcDbCircle
 10
254.1666862717
 20
336.7410324376
 30
0.0
 40
2.0
100
AcDbArc
 50
181.0
 51
270.0
  0
LINE
  5
482
330
1B
100
AcDbEntity
 67
     1
  8
6_ALL_SURFS
  6
Continuous
 62
     7
100
AcDbLine
 10
254.4252972025
 20
334.7410324376
 30
0.0
 11
254.1674676016
 21
334.7410324376
 31
0.0
  0
LINE
  5
483
330
1B
100
AcDbEntity
 67
     1
  8
6_ALL_SURFS
  6
Continuous
 62
     7
100
AcDbLine
 10
254.1885195274
 20
334.7410324376
 30
0.0
 11
254.4252972025
 21
334.7410324376
 31
0.0
  0
LINE
  5
484
330
1B
100
AcDbEntity
 67
     1
  8
6_ALL_SURFS
  6
Continuous
 62
     7
100
AcDbLine
 10
254.4836457009
 20
334.7410324376
 30
0.0
 11
254.1885195274
 21
334.7410324376
 31
0.0
  0
LINE
  5
485
330
1B
100
AcDbEntity
 67
     1
  8
6_ALL_SURFS
  6
Continuous
 62
     7
100
AcDbLine
 10
267.308310424
 20
334.7410324376
 30
0.0
 11
266.9184615191
 21
334.7410324376
 31
0.0
  0
LINE
  5
486
330
1B
100
AcDbEntity
 67
     1
  8
6_ALL_SURFS
  6
Continuous
 62
     7
100
AcDbLine
 10
266.9184615191
 20
334.7410324376
 30
0.0
 11
261.5854126223
 21
334.7410324376
 31
0.0
  0
ARC
  5
487
330
1B
100
AcDbEntity
 67
     1
  8
6_ALL_SURFS
  6
Continuous
 62
     7
100
AcDbCircle
 10
267.3085457926
 20
336.7410324376
 30
0.0
 40
2.0
100
AcDbArc
 50
270.0
 51
358.9999999999999
  0
LINE
  5
488
330
1B
100
AcDbEntity
 67
     1
  8
7_ALL_FEATURES
  6
Continuous
 62
     7
100
AcDbLine
 10
249.1682108249
 20
355.2410324376
 30
0.0
 11
251.8434629144
 21
355.2410324376
 31
0.0
  0
LINE
  5
489
330
1B
100
AcDbEntity
 67
     1
  8
7_ALL_FEATURES
  6
Continuous
 62
     7
100
AcDbLine
 10
251.8434629144
 20
355.2410324376
 30
0.0
 11
252.2911998124
 21
355.2410324376
 31
0.0
  0
LINE
  5
48A
330
1B
100
AcDbEntity
 67
     1
  8
7_ALL_FEATURES
  6
Continuous
 62
     7
100
AcDbLine
 10
252.2911998124
 20
355.2410324376
 30
0.0
 11
259.7232247426
 21
355.2410324376
 31
0.0
  0
LINE
  5
48B
330
1B
100
AcDbEntity
 67
     1
  8
7_ALL_FEATURES
  6
Continuous
 62
     7
100
AcDbLine
 10
259.7232247426
 20
355.2410324376
 30
0.0
 11
269.6317691498
 21
355.2410324376
 31
0.0
  0
LINE
  5
48C
330
1B
100
AcDbEntity
 67
     1
  8
7_ALL_FEATURES
  6
Continuous
 62
     7
100
AcDbLine
 10
269.6317691498
 20
355.2410324376
 30
0.0
 11
277.8228357022
 21
355.2410324376
 31
0.0
  0
LINE
  5
48D
330
1B
100
AcDbEntity
 67
     1
  8
7_ALL_FEATURES
  6
Continuous
 62
     7
100
AcDbLine
 10
277.8228357022
 20
355.2410324376
 30
0.0
 11
280.4209119136
 21
355.2410324376
 31
0.0
  0
LINE
  5
48E
330
1B
100
AcDbEntity
 67
     1
  8
7_ALL_FEATURES
  6
Continuous
 62
     7
100
AcDbLine
 10
280.4209119136
 20
355.2410324376
 30
0.0
 11
285.4315272473
 21
355.2410324376
 31
0.0
  0
LINE
  5
48F
330
1B
100
AcDbEntity
 67
     1
  8
7_ALL_FEATURES
  6
Continuous
 62
     7
100
AcDbLine
 10
285.4315272473
 20
355.2410324376
 30
0.0
 11
309.1218738079
 21
355.2410324376
 31
0.0
  0
LINE
  5
490
330
1B
100
AcDbEntity
 67
     1
  8
7_ALL_FEATURES
  6
Continuous
 62
     7
100
AcDbLine
 10
309.1218738079
 20
355.2410324376
 30
0.0
 11
312.1218738079
 21
355.2410324376
 31
0.0
  0
LINE
  5
491
330
1B
100
AcDbEntity
 67
     1
  8
7_ALL_FEATURES
  6
Continuous
 62
     7
100
AcDbLine
 10
312.1218738079
 20
355.2410324376
 30
0.0
 11
328.0437178145
 21
355.2410324376
 31
0.0
  0
LINE
  5
492
330
1B
100
AcDbEntity
 67
     1
  8
7_ALL_FEATURES
  6
Continuous
 62
     7
100
AcDbLine
 10
328.0437178145
 20
355.2410324376
 30
0.0
 11
335.7173409531
 21
355.2410324376
 31
0.0
  0
LINE
  5
493
330
1B
100
AcDbEntity
 67
     1
  8
7_ALL_FEATURES
  6
Continuous
 62
     7
100
AcDbLine
 10
335.7173409531
 20
355.2410324376
 30
0.0
 11
348.5899857352
 21
355.2410324376
 31
0.0
  0
LINE
  5
494
330
1B
100
AcDbEntity
 67
     1
  8
7_ALL_FEATURES
  6
Continuous
 62
     7
100
AcDbLine
 10
348.5899857352
 20
355.2410324376
 30
0.0
 11
350.2098753654
 21
355.2410324376
 31
0.0
  0
LINE
  5
495
330
1B
100
AcDbEntity
 67
     1
  8
7_ALL_FEATURES
  6
Continuous
 62
     7
100
AcDbLine
 10
350.2098753654
 20
355.2410324376
 30
0.0
 11
354.0482105944
 21
355.2410324376
 31
0.0
  0
LINE
  5
496
330
1B
100
AcDbEntity
 67
     1
  8
6_ALL_SURFS
  6
Continuous
 62
     7
100
AcDbLine
 10
267.2754417445
 20
334.7410324376
 30
0.0
 11
267.1101222924
 21
334.7410324376
 31
0.0
  0
LINE
  5
497
330
1B
100
AcDbEntity
 67
     1
  8
6_ALL_SURFS
  6
Continuous
 62
     7
100
AcDbLine
 10
261.5854126223
 20
334.7410324376
 30
0.0
 11
267.2754417445
 21
334.7410324376
 31
0.0
  0
LINE
  5
498
330
1B
100
AcDbEntity
 67
     1
  8
6_ALL_SURFS
  6
Continuous
 62
     7
100
AcDbLine
 10
252.1669908814
 20
336.7061276247
 30
0.0
 11
252.0180150892
 21
345.2409450438
 31
0.0
  0
LINE
  5
499
330
1B
100
AcDbEntity
 67
     1
  8
6_ALL_SURFS
  6
Continuous
 62
     7
100
AcDbLine
 10
252.0180150892
 20
345.2409450438
 30
0.0
 11
251.8434629144
 21
355.2410324376
 31
0.0
  0
LINE
  5
49A
330
1B
100
AcDbEntity
 67
     1
  8
6_ALL_SURFS
  6
Continuous
 62
     7
100
AcDbLine
 10
269.3082411829
 20
336.7061276247
 30
0.0
 11
269.6317691498
 21
355.2410324376
 31
0.0
  0
ARC
  5
49B
330
1B
100
AcDbEntity
 67
     1
  8
6_ALL_SURFS
  6
Continuous
 62
     7
100
AcDbCircle
 10
330.3669411718
 20
336.7410324376
 30
0.0
 40
2.0
100
AcDbArc
 50
181.0
 51
270.0
  0
LINE
  5
49C
330
1B
100
AcDbEntity
 67
     1
  8
6_ALL_SURFS
  6
Continuous
 62
     7
100
AcDbLine
 10
334.7991933085
 20
334.7410324376
 30
0.0
 11
332.2882423206
 21
334.7410324376
 31
0.0
  0
LINE
  5
49D
330
1B
100
AcDbEntity
 67
     1
  8
6_ALL_SURFS
  6
Continuous
 62
     7
100
AcDbLine
 10
332.2882423206
 20
334.7410324376
 30
0.0
 11
332.1639996854
 21
334.7410324376
 31
0.0
  0
LINE
  5
49E
330
1B
100
AcDbEntity
 67
     1
  8
6_ALL_SURFS
  6
Continuous
 62
     7
100
AcDbLine
 10
332.1639996854
 20
334.7410324376
 30
0.0
 11
330.3669826992
 21
334.7410324376
 31
0.0
  0
LINE
  5
49F
330
1B
100
AcDbEntity
 67
     1
  8
6_ALL_SURFS
  6
Continuous
 62
     7
100
AcDbLine
 10
330.3887744282
 20
334.7410324376
 30
0.0
 11
334.7991933085
 21
334.7410324376
 31
0.0
  0
LINE
  5
4A0
330
1B
100
AcDbEntity
 67
     1
  8
6_ALL_SURFS
  6
Continuous
 62
     7
100
AcDbLine
 10
348.4778724186
 20
334.7410324376
 30
0.0
 11
348.2742808011
 21
334.7410324376
 31
0.0
  0
LINE
  5
4A1
330
1B
100
AcDbEntity
 67
     1
  8
6_ALL_SURFS
  6
Continuous
 62
     7
100
AcDbLine
 10
348.2742808011
 20
334.7410324376
 30
0.0
 11
347.2008770036
 21
334.7410324376
 31
0.0
  0
ARC
  5
4A2
330
1B
100
AcDbEntity
 67
     1
  8
6_ALL_SURFS
  6
Continuous
 62
     7
100
AcDbCircle
 10
348.4781857544
 20
336.7410324376
 30
0.0
 40
2.0
100
AcDbArc
 50
270.0
 51
358.9999999999999
  0
LINE
  5
4A3
330
1B
100
AcDbEntity
 67
     1
  8
6_ALL_SURFS
  6
Continuous
 62
     7
100
AcDbLine
 10
348.4450817057
 20
334.7410324376
 30
0.0
 11
348.4067239608
 21
334.7410324376
 31
0.0
  0
LINE
  5
4A4
330
1B
100
AcDbEntity
 67
     1
  8
6_ALL_SURFS
  6
Continuous
 62
     7
100
AcDbLine
 10
347.2008770036
 20
334.7410324376
 30
0.0
 11
348.2760074585
 21
334.7410324376
 31
0.0
  0
LINE
  5
4A5
330
1B
100
AcDbEntity
 67
     1
  8
6_ALL_SURFS
  6
Continuous
 62
     7
100
AcDbLine
 10
348.2760074585
 20
334.7410324376
 30
0.0
 11
348.4450817057
 21
334.7410324376
 31
0.0
  0
LINE
  5
4A6
330
1B
100
AcDbEntity
 67
     1
  8
6_ALL_SURFS
  6
Continuous
 62
     7
100
AcDbLine
 10
328.3672457815
 20
336.7061276247
 30
0.0
 11
328.0437178145
 21
355.2410324376
 31
0.0
  0
LINE
  5
4A7
330
1B
100
AcDbEntity
 67
     1
  8
6_ALL_SURFS
  6
Continuous
 62
     7
100
AcDbLine
 10
350.4778811447
 20
336.7061276247
 30
0.0
 11
350.6268584623
 21
345.2410324376
 31
0.0
  0
LINE
  5
4A8
330
1B
100
AcDbEntity
 67
     1
  8
3_ALL_AXES
  6
Continuous
 62
     7
100
AcDbLine
 10
363.6193798023
 20
325.2410324376
 30
0.0
 11
361.6218738079
 21
325.2410324376
 31
0.0
  0
LINE
  5
4A9
330
1B
100
AcDbEntity
 67
     1
  8
3_ALL_AXES
  6
Continuous
 62
     7
100
AcDbLine
 10
361.6218738079
 20
325.2410324376
 30
0.0
 11
261.3596566672
 21
325.2410324376
 31
0.0
  0
LINE
  5
4AA
330
1B
100
AcDbEntity
 67
     1
  8
3_ALL_AXES
  6
Continuous
 62
     7
100
AcDbLine
 10
261.3596566672
 20
325.2410324376
 30
0.0
 11
259.6218738079
 21
325.2410324376
 31
0.0
  0
LINE
  5
4AB
330
1B
100
AcDbEntity
 67
     1
  8
3_ALL_AXES
  6
Continuous
 62
     7
100
AcDbLine
 10
259.6218738079
 20
325.2410324376
 30
0.0
 11
257.6219739183
 21
325.2410324376
 31
0.0
  0
LINE
  5
4AC
330
1B
100
AcDbEntity
 67
     1
  8
3_ALL_AXES
  6
Continuous
 62
     7
100
AcDbLine
 10
363.6218738079
 20
325.2410324376
 30
0.0
 11
363.6218738079
 21
330.1879557691
 31
0.0
  0
LINE
  5
4AD
330
1B
100
AcDbEntity
 67
     1
  8
3_ALL_AXES
  6
Continuous
 62
     7
100
AcDbLine
 10
257.6218738079
 20
325.2410324376
 30
0.0
 11
257.6218738079
 21
330.1879557691
 31
0.0
  0
LINE
  5
4AE
330
1B
100
AcDbEntity
 67
     1
  8
7_ALL_FEATURES
  6
Continuous
 62
     7
100
AcDbLine
 10
358.3125780731
 20
345.2410324376
 30
0.0
 11
354.0482105944
 21
345.2410324376
 31
0.0
  0
LINE
  5
4AF
330
1B
100
AcDbEntity
 67
     1
  8
7_ALL_FEATURES
  6
Continuous
 62
     7
100
AcDbLine
 10
354.0482105944
 20
345.2410324376
 30
0.0
 11
350.0244995846
 21
345.2410324376
 31
0.0
  0
LINE
  5
4B0
330
1B
100
AcDbEntity
 67
     1
  8
7_ALL_FEATURES
  6
Continuous
 62
     7
100
AcDbLine
 10
252.0230218743
 20
345.2410324376
 30
0.0
 11
249.1682108249
 21
345.2410324376
 31
0.0
  0
LINE
  5
4B1
330
1B
100
AcDbEntity
 67
     1
  8
7_ALL_FEATURES
  6
Continuous
 62
     7
100
AcDbLine
 10
249.1682108249
 20
345.2410324376
 30
0.0
 11
247.6073439967
 21
345.2410324376
 31
0.0
  0
LINE
  5
4B2
330
1B
100
AcDbEntity
 67
     1
  8
7_ALL_FEATURES
  6
Continuous
 62
     7
100
AcDbLine
 10
247.6073439967
 20
345.2410324376
 30
0.0
 11
247.4923601549
 21
345.2410324376
 31
0.0
  0
LINE
  5
4B3
330
1B
100
AcDbEntity
 67
     1
  8
6_ALL_SURFS
  6
Continuous
 62
     7
100
AcDbLine
 10
261.5854126223
 20
334.7410324376
 30
0.0
 11
260.2616286263
 21
334.7410324376
 31
0.0
  0
LINE
  5
4B4
330
1B
100
AcDbEntity
 67
     1
  8
6_ALL_SURFS
  6
Continuous
 62
     7
100
AcDbLine
 10
260.2616286263
 20
334.7410324376
 30
0.0
 11
254.4252972025
 21
334.7410324376
 31
0.0
  0
LINE
  5
4B5
330
1B
100
AcDbEntity
 67
     1
  8
6_ALL_SURFS
  6
Continuous
 62
     7
100
AcDbLine
 10
347.2008770036
 20
334.7410324376
 30
0.0
 11
336.723478175
 21
334.7410324376
 31
0.0
  0
LINE
  5
4B6
330
1B
100
AcDbEntity
 67
     1
  8
6_ALL_SURFS
  6
Continuous
 62
     7
100
AcDbLine
 10
336.723478175
 20
334.7410324376
 30
0.0
 11
334.7991933085
 21
334.7410324376
 31
0.0
  0
LINE
  5
4B7
330
1B
100
AcDbEntity
 67
     1
  8
7_ALL_FEATURES
  6
Continuous
 62
     7
100
AcDbLine
 10
277.8228357022
 20
355.2410324376
 30
0.0
 11
282.8334510359
 21
330.1879557691
 31
0.0
  0
LINE
  5
4B8
330
1B
100
AcDbEntity
 67
     1
  8
3_ALL_AXES
  6
Continuous
 62
     7
100
AcDbLine
 10
246.1218738079
 20
380.2410324376
 30
0.0
 11
246.1218738079
 21
355.2410324376
 31
0.0
  0
LINE
  5
4B9
330
1B
100
AcDbEntity
 67
     1
  8
7_ALL_FEATURES
  6
Continuous
 62
     7
100
AcDbLine
 10
262.4136810505
 20
334.7410342564
 30
0.0
 11
263.9909137046
 21
330.1879557691
 31
0.0
  0
LINE
  5
4BA
330
1B
100
AcDbEntity
 67
     1
  8
7_ALL_FEATURES
  6
Continuous
 62
     7
100
AcDbLine
 10
251.6218738079
 20
345.2410324376
 30
0.0
 11
251.6772045757
 21
345.1027055181
 31
0.0
  0
LINE
  5
4BB
330
1B
100
AcDbEntity
 67
     1
  8
7_ALL_FEATURES
  6
Continuous
 62
     7
100
AcDbLine
 10
251.6772045757
 20
345.1027055181
 30
0.0
 11
252.0360889439
 21
344.2054945975
 31
0.0
  0
LINE
  5
4BC
330
1B
100
AcDbEntity
 67
     1
  8
7_ALL_FEATURES
  6
Continuous
 62
     7
100
AcDbLine
 10
255.8218738079
 20
334.7410324376
 30
0.0
 11
257.6431044753
 21
330.1879557691
 31
0.0
  0
LINE
  5
4BD
330
1B
100
AcDbEntity
 67
     1
  8
3_ALL_AXES
  6
Continuous
 62
     7
100
AcDbLine
 10
375.1218738079
 20
380.2410324376
 30
0.0
 11
375.1218738079
 21
355.2410324376
 31
0.0
  0
LINE
  5
4BE
330
1B
100
AcDbEntity
 67
     1
  8
7_ALL_FEATURES
  6
Continuous
 62
     7
100
AcDbLine
 10
373.6218738079
 20
355.2410324376
 30
0.0
 11
363.6006431405
 21
330.1879557691
 31
0.0
  0
LINE
  5
4BF
330
1B
100
AcDbEntity
 67
     1
  8
7_ALL_FEATURES
  6
Continuous
 62
     7
100
AcDbLine
 10
309.1218738079
 20
355.2410324376
 30
0.0
 11
309.1218738079
 21
330.1879557691
 31
0.0
  0
LINE
  5
4C0
330
1B
100
AcDbEntity
 67
     1
  8
7_ALL_FEATURES
  6
Continuous
 62
     7
100
AcDbLine
 10
312.1218738079
 20
355.2410324376
 30
0.0
 11
312.1218738079
 21
330.1879557691
 31
0.0
  0
LINE
  5
4C1
330
1B
100
AcDbEntity
 67
     1
  8
7_ALL_FEATURES
  6
Continuous
 62
     7
100
AcDbLine
 10
365.9314742463
 20
355.2410324376
 30
0.0
 11
357.2528339112
 21
330.1879557691
 31
0.0
  0
LINE
  5
4C2
330
1B
100
AcDbEntity
 67
     1
  8
7_ALL_FEATURES
  6
Continuous
 62
     7
100
AcDbLine
 10
339.3209122773
 20
334.7410342564
 30
0.0
 11
338.4102965799
 21
330.1879557691
 31
0.0
  0
LINE
  5
4C3
330
1B
100
AcDbEntity
 67
     1
  8
7_ALL_FEATURES
  6
Continuous
 62
     9
100
AcDbLine
 10
269.3082411829
 20
336.7061276247
 30
0.0
 11
259.9825497261
 21
336.7061276247
 31
0.0
  0
LINE
  5
4C4
330
1B
100
AcDbEntity
 67
     1
  8
7_ALL_FEATURES
  6
Continuous
 62
     9
100
AcDbLine
 10
358.3125780731
 20
345.2410324376
 30
0.0
 11
358.3125780731
 21
355.2410324376
 31
0.0
  0
LINE
  5
4C5
330
1B
100
AcDbEntity
 67
     1
  8
7_ALL_FEATURES
  6
Continuous
 62
     7
100
AcDbLine
 10
257.6431044753
 20
330.1879557691
 30
0.0
 11
257.6431044753
 21
334.7410324376
 31
0.0
  0
ARC
  5
4C6
330
1B
100
AcDbEntity
 67
     1
  8
6_ALL_SURFS
  6
Continuous
 62
     9
100
AcDbCircle
 10
254.426096889
 20
336.4313649676
 30
0.0
 40
1.6903327192
100
AcDbArc
 50
261.3454162038
 51
269.9728937038
  0
SPLINE
  5
4C7
330
1B
100
AcDbEntity
 67
     1
  8
6_ALL_SURFS
  6
Continuous
 62
     9
100
AcDbSpline
 70
     0
 71
     3
 72
    11
 73
     7
 74
     0
 42
0.000000001
 43
0.0000001
 40
0.0
 40
0.0
 40
0.0
 40
0.0
 40
0.2406406367
 40
0.4873321321
 40
0.7412367885
 40
1.0
 40
1.0
 40
1.0
 40
1.0
 10
254.171740302
 20
334.7602792642
 30
0.0
 10
253.956699188
 20
334.7929537495
 30
0.0
 10
253.5301247391
 20
334.9456054606
 30
0.0
 10
253.0147871791
 20
335.3954612646
 30
0.0
 10
252.6751270649
 20
336.0064960886
 30
0.0
 10
252.5921401726
 20
336.4722678063
 30
0.0
 10
252.5883904396
 20
336.7061276246
 30
0.0
  0
SPLINE
  5
4C8
330
1B
100
AcDbEntity
 67
     1
  8
6_ALL_SURFS
  6
Continuous
 62
     9
100
AcDbSpline
 70
     0
 71
     3
 72
    11
 73
     7
 74
     0
 42
0.000000001
 43
0.0000001
 40
0.0
 40
0.0
 40
0.0
 40
0.0
 40
0.2243769294
 40
0.4643868405
 40
0.7251217245
 40
1.0
 40
1.0
 40
1.0
 40
1.0
 10
261.5854126223
 20
334.7410324376
 30
0.0
 10
261.3770505082
 20
334.7410324376
 30
0.0
 10
260.9402371274
 20
334.8523596614
 30
0.0
 10
260.4145995626
 20
335.3028300659
 30
0.0
 10
260.0695033762
 20
335.9508039652
 30
0.0
 10
259.9861207476
 20
336.4508936585
 30
0.0
 10
259.9825497261
 20
336.7061276247
 30
0.0
  0
LINE
  5
4C9
330
1B
100
AcDbEntity
 67
     1
  8
7_ALL_FEATURES
  6
Continuous
 62
     9
100
AcDbLine
 10
252.5883904324
 20
336.7061276247
 30
0.0
 11
252.1669908814
 21
336.7061276247
 31
0.0
  0
LINE
  5
4CA
330
1B
100
AcDbEntity
 67
     1
  8
7_ALL_FEATURES
  6
Continuous
 62
     9
100
AcDbLine
 10
252.2911998124
 20
355.2410324376
 30
0.0
 11
252.5883904324
 21
336.7061276247
 31
0.0
  0
LINE
  5
4CB
330
1B
100
AcDbEntity
 67
     1
  8
7_ALL_FEATURES
  6
Continuous
 62
     9
100
AcDbLine
 10
259.9825497261
 20
336.7061276247
 30
0.0
 11
259.7232247426
 21
355.2410324376
 31
0.0
  0
LINE
  5
4CC
330
1B
100
AcDbEntity
 67
     1
  8
6_ALL_SURFS
  6
Continuous
 62
     9
100
AcDbLine
 10
259.9825497261
 20
336.7061276247
 30
0.0
 11
252.5883904324
 21
336.7061276247
 31
0.0
  0
ELLIPSE
  5
4CD
330
1B
100
AcDbEntity
 67
     1
  8
7_ALL_FEATURES
  6
Continuous
 62
     7
100
AcDbEllipse
 10
310.6218738079
 20
197.7410324376
 30
0.0
 11
-47.4955508003
 21
132.2304123336
 31
0.0
210
0.0
220
0.0
230
1.0
 40
0.1778684822
 41
-0.0921071432
 42
-0.0354958104
  0
LINE
  5
4CE
330
1B
100
AcDbEntity
 67
     1
  8
7_ALL_FEATURES
  6
Continuous
 62
     7
100
AcDbLine
 10
265.4909137046
 20
330.1879557691
 30
0.0
 11
265.4909137046
 21
334.7410324376
 31
0.0
  0
SPLINE
  5
4CF
330
1B
100
AcDbEntity
 67
     1
  8
6_ALL_SURFS
  6
Continuous
 62
     9
100
AcDbSpline
 70
     0
 71
     3
 72
    13
 73
     9
 74
     0
 42
0.000000001
 43
0.0000001
 40
0.0
 40
0.0
 40
0.0
 40
0.0
 40
0.0695827372
 40
0.1513025929
 40
0.2514981085
 40
0.3717689667
 40
0.6642415113
 40
1.0
 40
1.0
 40
1.0
 40
1.0
 10
334.7991933085
 20
334.7410324376
 30
0.0
 10
334.8515135028
 20
334.7410324376
 30
0.0
 10
334.9660229563
 20
334.7722735468
 30
0.0
 10
335.1150202186
 20
334.8940951829
 30
0.0
 10
335.2482776712
 20
335.0801930439
 30
0.0
 10
335.4135810294
 20
335.4302320625
 30
0.0
 10
335.5498723904
 20
335.9811017795
 30
0.0
 10
335.5877398398
 20
336.453672316
 30
0.0
 10
335.589481356
 20
336.7061276246
 30
0.0
  0
SPLINE
  5
4D0
330
1B
100
AcDbEntity
 67
     1
  8
6_ALL_SURFS
  6
Continuous
 62
     9
100
AcDbSpline
 70
     0
 71
     3
 72
    11
 73
     7
 74
     0
 42
0.000000001
 43
0.0000001
 40
0.0
 40
0.0
 40
0.0
 40
0.0
 40
0.1907592317
 40
0.4201916113
 40
0.6955385901
 40
1.0
 40
1.0
 40
1.0
 40
1.0
 10
347.2008770036
 20
334.7410324376
 30
0.0
 10
347.3597837698
 20
334.7410324376
 30
0.0
 10
347.7117254037
 20
334.8715160015
 30
0.0
 10
348.0886848326
 20
335.3321832029
 30
0.0
 10
348.3349606446
 20
335.9676563573
 30
0.0
 10
348.3938940481
 20
336.4525181773
 30
0.0
 10
348.3965409154
 20
336.7061276247
 30
0.0
  0
LINE
  5
4D1
330
1B
100
AcDbEntity
 67
     1
  8
7_ALL_FEATURES
  6
Continuous
 62
     9
100
AcDbLine
 10
335.5894813395
 20
336.7061276247
 30
0.0
 11
328.3672457815
 21
336.7061276247
 31
0.0
  0
LINE
  5
4D2
330
1B
100
AcDbEntity
 67
     1
  8
7_ALL_FEATURES
  6
Continuous
 62
     9
100
AcDbLine
 10
335.7173409531
 20
355.2410324376
 30
0.0
 11
335.5894813395
 21
336.7061276247
 31
0.0
  0
ELLIPSE
  5
4D3
330
1B
100
AcDbEntity
 67
     1
  8
7_ALL_FEATURES
  6
Continuous
 62
     7
100
AcDbEllipse
 10
310.6218738079
 20
197.7410324376
 30
0.0
 11
-29.85355160429999
 21
132.1300481869
 31
0.0
210
0.0
220
0.0
230
1.0
 40
0.3314333088
 41
-0.1030504243
 42
-0.0464390915
  0
SPLINE
  5
4D4
330
1B
100
AcDbEntity
 67
     1
  8
7_ALL_FEATURES
  6
Continuous
 62
     7
100
AcDbSpline
 70
     0
 71
     3
 72
     8
 73
     4
 74
     0
 42
0.000000001
 43
0.0000001
 40
0.0
 40
0.0
 40
0.0
 40
0.0
 40
1.0
 40
1.0
 40
1.0
 40
1.0
 10
350.0244995846
 20
345.2410324376
 30
0.0
 10
350.0858646377
 20
348.5743736568
 30
0.0
 10
350.1476619953
 20
351.9077069434
 30
0.0
 10
350.2098753654
 20
355.2410324376
 30
0.0
  0
LINE
  5
4D5
330
1B
100
AcDbEntity
 67
     1
  8
7_ALL_FEATURES
  6
Continuous
 62
     7
100
AcDbLine
 10
285.4315272473
 20
330.1879557691
 30
0.0
 11
285.4315272473
 21
355.2410324376
 31
0.0
  0
LINE
  5
4D6
330
1B
100
AcDbEntity
 67
     1
  8
7_ALL_FEATURES
  6
Continuous
 62
     9
100
AcDbLine
 10
348.3965409154
 20
336.7061276247
 30
0.0
 11
348.5899857352
 21
355.2410324376
 31
0.0
  0
LINE
  5
4D7
330
1B
100
AcDbEntity
 67
     1
  8
6_ALL_SURFS
  6
Continuous
 62
     9
100
AcDbLine
 10
348.3965409154
 20
336.7061276247
 30
0.0
 11
335.5894813395
 21
336.7061276247
 31
0.0
  0
ELLIPSE
  5
4D8
330
1B
100
AcDbEntity
 67
     1
  8
7_ALL_FEATURES
  6
Continuous
 62
     7
100
AcDbEllipse
 10
310.6218738079
 20
197.7410324376
 30
0.0
 11
0.0
 21
132.5
 31
0.0
210
0.0
220
0.0
230
1.0
 40
0.4
 41
-0.0283056664
 42
0.0283056664
  0
LINE
  5
4D9
330
1B
100
AcDbEntity
 67
     1
  8
7_ALL_FEATURES
  6
Continuous
 62
     7
100
AcDbLine
 10
280.4209119136
 20
355.2410324376
 30
0.0
 11
285.4315272473
 21
330.1879557691
 31
0.0
  0
LINE
  5
4DA
330
1B
100
AcDbEntity
 67
     1
  8
7_ALL_FEATURES
  6
Continuous
 62
     7
100
AcDbLine
 10
335.8122203685
 20
330.1879557691
 30
0.0
 11
335.8122203685
 21
334.7410324376
 31
0.0
  0
LINE
  5
4DB
330
1B
100
AcDbEntity
 67
     1
  8
7_ALL_FEATURES
  6
Continuous
 62
     7
100
AcDbLine
 10
263.9136810505
 20
334.7410342564
 30
0.0
 11
265.4909137046
 21
330.1879557691
 31
0.0
  0
ELLIPSE
  5
4DC
330
1B
100
AcDbEntity
 67
     1
  8
7_ALL_FEATURES
  6
Continuous
 62
     7
100
AcDbEllipse
 10
310.6218738079
 20
197.7410324376
 30
0.0
 11
29.85355160429999
 21
132.1300481869
 31
0.0
210
0.0
220
0.0
230
1.0
 40
0.3314333088
 41
0.0464390915
 42
0.1030504243
  0
LINE
  5
4DD
330
1B
100
AcDbEntity
 67
     1
  8
7_ALL_FEATURES
  6
Continuous
 62
     9
100
AcDbLine
 10
354.0482105944
 20
345.2410324376
 30
0.0
 11
354.0482105944
 21
355.2410324376
 31
0.0
  0
LINE
  5
4DE
330
1B
100
AcDbEntity
 67
     1
  8
7_ALL_FEATURES
  6
Continuous
 62
     9
100
AcDbLine
 10
247.6073439967
 20
345.2410324376
 30
0.0
 11
247.6073439967
 21
355.2410324376
 31
0.0
  0
LINE
  5
4DF
330
1B
100
AcDbEntity
 67
     1
  8
7_ALL_FEATURES
  6
Continuous
 62
     9
100
AcDbLine
 10
350.4778811447
 20
336.7061276247
 30
0.0
 11
348.3965409154
 21
336.7061276247
 31
0.0
  0
LINE
  5
4E0
330
1B
100
AcDbEntity
 67
     1
  8
7_ALL_FEATURES
  6
Continuous
 62
     9
100
AcDbLine
 10
249.1682108249
 20
345.2410324376
 30
0.0
 11
249.1682108249
 21
355.2410324376
 31
0.0
  0
LINE
  5
4E1
330
1B
100
AcDbEntity
 67
     1
  8
7_ALL_FEATURES
  6
Continuous
 62
     9
100
AcDbLine
 10
369.0767567344
 20
336.7061276247
 30
0.0
 11
366.2079118828
 21
336.7061276247
 31
0.0
  0
LINE
  5
4E2
330
1B
100
AcDbEntity
 67
     1
  8
7_ALL_FEATURES
  6
Continuous
 62
     7
100
AcDbLine
 10
355.7528339112
 20
330.1879557691
 30
0.0
 11
355.7528339112
 21
345.2410324376
 31
0.0
  0
ELLIPSE
  5
4E3
330
1B
100
AcDbEntity
 67
     1
  8
7_ALL_FEATURES
  6
Continuous
 62
     7
100
AcDbEllipse
 10
310.6218738079
 20
197.7410324376
 30
0.0
 11
47.4955508003
 21
132.2304123336
 31
0.0
210
0.0
220
0.0
230
1.0
 40
0.1778684822
 41
0.0354958104
 42
0.0921071432
  0
LINE
  5
4E4
330
1B
100
AcDbEntity
 67
     1
  8
7_ALL_FEATURES
  6
Continuous
 62
     7
100
AcDbLine
 10
363.6006431405
 20
330.1879557691
 30
0.0
 11
363.6006431405
 21
348.5125026058
 31
0.0
  0
LINE
  5
4E5
330
1B
100
AcDbEntity
 67
     1
  8
7_ALL_FEATURES
  6
Continuous
 62
     7
100
AcDbLine
 10
336.722836066
 20
334.7410342564
 30
0.0
 11
335.8122203685
 21
330.1879557691
 31
0.0
  0
LINE
  5
4E6
330
1B
100
AcDbEntity
 67
     1
  8
7_ALL_FEATURES
  6
Continuous
 62
     7
100
AcDbLine
 10
364.4314742463
 20
355.2410324376
 30
0.0
 11
355.7528339112
 21
330.1879557691
 31
0.0
  0
DIMENSION
  5
4E7
330
1B
100
AcDbEntity
 67
     1
  8
0
  6
Continuous
 62
     2
100
AcDbDimension
280
     0
  2
*D1
 10
170.444297105
 20
163.1471177626
 30
0.0
 11
174.7184032797
 21
171.9673981392
 31
0.0
 70
   163
  1
%%c<>
 71
     5
 42
-1.0
 73
     0
 74
     0
 75
     0
  3
DIMSTYLE_1
100
AcDbDiametricDimension
 15
89.0433955029
 25
63.0726793761
 35
0.0
 40
0.0
  0
DIMENSION
  5
4E8
330
1B
100
AcDbEntity
 67
     1
  8
0
  6
Continuous
 62
     2
100
AcDbDimension
280
     0
  2
*D2
 10
208.6570459578
 20
381.3910324376
 30
0.0
 11
208.6570459578
 21
305.9521644937
 31
0.0
 70
   160
 71
     5
 42
-1.0
 73
     0
 74
     0
 75
     0
  3
DIMSTYLE_2
100
AcDbAlignedDimension
 13
194.4843817124
 23
230.2410324376
 33
0.0
 14
200.0716084661
 24
381.3910324376
 34
0.0
 50
90.0
100
AcDbRotatedDimension
  0
DIMENSION
  5
4E9
330
1B
100
AcDbEntity
 67
     1
  8
0
  6
Continuous
 62
     2
100
AcDbDimension
280
     0
  2
*D3
 10
49.9625075794
 20
380.2410324376
 30
0.0
 11
49.9625075794
 21
305.3699249475
 31
0.0
 70
   160
 71
     5
 42
-1.0
 73
     0
 74
     0
 75
     0
  3
DIMSTYLE_2
100
AcDbAlignedDimension
 13
56.4686463039
 23
230.2410324376
 33
0.0
 14
61.3340084661
 24
380.2410324376
 34
0.0
 50
90.0
100
AcDbRotatedDimension
  0
LINE
  5
4EA
330
1B
100
AcDbEntity
 67
     1
  8
0
  6
Continuous
 62
     2
100
AcDbLine
 10
281.8151428497
 20
75.7327405091
 30
0.0
 11
411.8151428497
 21
75.7327405091
 31
0.0
  0
LINE
  5
4EB
330
1B
100
AcDbEntity
 67
     1
  8
0
  6
Continuous
 62
     2
100
AcDbLine
 10
281.8151428497
 20
75.7327405091
 30
0.0
 11
281.8151428497
 21
9.7327405091
 31
0.0
  0
LINE
  5
4EC
330
1B
100
AcDbEntity
 67
     1
  8
0
  6
Continuous
 62
     2
100
AcDbLine
 10
311.8151428497
 20
67.7327405091
 30
0.0
 11
411.8151428497
 21
67.7327405091
 31
0.0
  0
LINE
  5
4ED
330
1B
100
AcDbEntity
 67
     1
  8
0
  6
Continuous
 62
     2
100
AcDbLine
 10
281.8151428497
 20
59.7327405091
 30
0.0
 11
411.8151428497
 21
59.7327405091
 31
0.0
  0
LINE
  5
4EE
330
1B
100
AcDbEntity
 67
     1
  8
0
  6
Continuous
 62
     2
100
AcDbLine
 10
311.8151428497
 20
53.7327405091
 30
0.0
 11
411.8151428497
 21
53.7327405091
 31
0.0
  0
LINE
  5
4EF
330
1B
100
AcDbEntity
 67
     1
  8
0
  6
Continuous
 62
     2
100
AcDbLine
 10
311.8151428497
 20
47.7327405091
 30
0.0
 11
411.8151428497
 21
47.7327405091
 31
0.0
  0
LINE
  5
4F0
330
1B
100
AcDbEntity
 67
     1
  8
0
  6
Continuous
 62
     2
100
AcDbLine
 10
311.8151428497
 20
41.7327405091
 30
0.0
 11
411.8151428497
 21
41.7327405091
 31
0.0
  0
LINE
  5
4F1
330
1B
100
AcDbEntity
 67
     1
  8
0
  6
Continuous
 62
     2
100
AcDbLine
 10
311.8151428497
 20
35.7327405091
 30
0.0
 11
411.8151428497
 21
35.7327405091
 31
0.0
  0
LINE
  5
4F2
330
1B
100
AcDbEntity
 67
     1
  8
0
  6
Continuous
 62
     2
100
AcDbLine
 10
311.8151428497
 20
29.7327405091
 30
0.0
 11
411.8151428497
 21
29.7327405091
 31
0.0
  0
LINE
  5
4F3
330
1B
100
AcDbEntity
 67
     1
  8
0
  6
Continuous
 62
     2
100
AcDbLine
 10
281.8151428497
 20
23.7327405091
 30
0.0
 11
411.8151428497
 21
23.7327405091
 31
0.0
  0
LINE
  5
4F4
330
1B
100
AcDbEntity
 67
     1
  8
0
  6
Continuous
 62
     2
100
AcDbLine
 10
281.8151428497
 20
17.7327405091
 30
0.0
 11
411.8151428497
 21
17.7327405091
 31
0.0
  0
LINE
  5
4F5
330
1B
100
AcDbEntity
 67
     1
  8
0
  6
Continuous
 62
     2
100
AcDbLine
 10
281.8151428497
 20
13.7327405091
 30
0.0
 11
411.8151428497
 21
13.7327405091
 31
0.0
  0
LINE
  5
4F6
330
1B
100
AcDbEntity
 67
     1
  8
0
  6
Continuous
 62
     2
100
AcDbLine
 10
281.8151428497
 20
9.7327405091
 30
0.0
 11
411.8151428497
 21
9.7327405091
 31
0.0
  0
LINE
  5
4F7
330
1B
100
AcDbEntity
 67
     1
  8
0
  6
Continuous
 62
     2
100
AcDbLine
 10
311.8151428497
 20
75.7327405091
 30
0.0
 11
311.8151428497
 21
17.7327405091
 31
0.0
  0
LINE
  5
4F8
330
1B
100
AcDbEntity
 67
     1
  8
0
  6
Continuous
 62
     2
100
AcDbLine
 10
331.8151428497
 20
59.7327405091
 30
0.0
 11
331.8151428497
 21
53.7327405091
 31
0.0
  0
LINE
  5
4F9
330
1B
100
AcDbEntity
 67
     1
  8
0
  6
Continuous
 62
     2
100
AcDbLine
 10
361.8151428497
 20
29.7327405091
 30
0.0
 11
361.8151428497
 21
17.7327405091
 31
0.0
  0
LINE
  5
4FA
330
1B
100
AcDbEntity
 67
     1
  8
0
  6
Continuous
 62
     2
100
AcDbLine
 10
371.8151428497
 20
59.7327405091
 30
0.0
 11
371.8151428497
 21
53.7327405091
 31
0.0
  0
LINE
  5
4FB
330
1B
100
AcDbEntity
 67
     1
  8
0
  6
Continuous
 62
     2
100
AcDbLine
 10
371.8151428497
 20
47.7327405091
 30
0.0
 11
371.8151428497
 21
41.7327405091
 31
0.0
  0
LINE
  5
4FC
330
1B
100
AcDbEntity
 67
     1
  8
0
  6
Continuous
 62
     2
100
AcDbLine
 10
391.8151428497
 20
59.7327405091
 30
0.0
 11
391.8151428497
 21
53.7327405091
 31
0.0
  0
LINE
  5
4FD
330
1B
100
AcDbEntity
 67
     1
  8
0
  6
Continuous
 62
     2
100
AcDbLine
 10
401.8151428497
 20
47.7327405091
 30
0.0
 11
401.8151428497
 21
41.7327405091
 31
0.0
  0
LINE
  5
4FE
330
1B
100
AcDbEntity
 67
     1
  8
0
  6
Continuous
 62
     2
100
AcDbLine
 10
411.8151428497
 20
75.7327405091
 30
0.0
 11
411.8151428497
 21
9.7327405091
 31
0.0
  0
INSERT
  5
4FF
330
1B
100
AcDbEntity
 67
     1
  8
0
  6
Continuous
 62
     2
100
AcDbBlockReference
  2
PROIEZIONE_EU_BL0
 10
296.8151428497
 20
67.3577405091
 30
0.0
  0
MTEXT
  5
500
330
1B
100
AcDbEntity
 67
     1
  8
9_SOLID
  6
Continuous
 62
     2
100
AcDbMText
 10
313.3026428497
 20
74.1077405091
 30
0.0
 40
1.9
 41
142.3642857143
 46
0.0
 71
     1
 72
     1
  1
EN: Chamfer/radii unlisted 0.3x45°. Remove sharp edges.\PGen. tol.: hole H11, shaft h11, lenght Js12. UNI EN 22768 Medium Grande.
  7
TEXTSTYLE_4
 73
     1
 44
1.0
  0
MTEXT
  5
501
330
1B
100
AcDbEntity
 67
     1
  8
9_SOLID
  6
Continuous
 62
     2
100
AcDbMText
 10
313.3026428497
 20
66.1077405091
 30
0.0
 40
1.9
 41
148.2678571429
 46
0.0
 71
     1
 72
     1
  1
IT: Sm./rac. non quotati 0.3x45°. Eliminare spigoli taglienti.\PToll. gen.: foro H11, albero h11, lunghezza Js12. UNI EN 22768 Grado Medio.
  7
TEXTSTYLE_4
 73
     1
 44
1.0
  0
INSERT
  5
502
330
1B
100
AcDbEntity
 67
     1
  8
0
  6
Continuous
 62
     2
100
AcDbBlockReference
  2
LOGO2_BL1
 10
295.6411898945
 20
41.7327405091
 30
0.0
  0
MTEXT
  5
503
330
1B
100
AcDbEntity
 67
     1
  8
9_SOLID
  6
Continuous
 62
     2
100
AcDbMText
 10
313.3026428497
 20
57.9827405091
 30
0.0
 40
3.0
 41
22.6071428571
 46
0.0
 71
     1
 72
     1
  1
Pj: C20
  7
TEXTSTYLE_4
 73
     1
 44
1.0
  0
MTEXT
  5
504
330
1B
100
AcDbEntity
 67
     1
  8
0
  6
Continuous
 62
     2
100
AcDbMText
 10
333.3026428497
 20
57.9827405091
 30
0.0
 40
3.0
 41
41.5714285714
 46
0.0
 71
     1
 72
     1
  1
% Check:  %
  7
TEXTSTYLE_4
 73
     1
 44
1.0
  0
MTEXT
  5
505
330
1B
100
AcDbEntity
 67
     1
  8
9_SOLID
  6
Continuous
 62
     2
100
AcDbMText
 10
373.3026428497
 20
57.9827405091
 30
0.0
 40
3.0
 41
19.5
 46
0.0
 71
     1
 72
     1
  1
Rev:00
  7
TEXTSTYLE_4
 73
     1
 44
1.0
  0
MTEXT
  5
506
330
1B
100
AcDbEntity
 67
     1
  8
9_SOLID
  6
Continuous
 62
     2
100
AcDbMText
 10
393.3026428497
 20
58.2327405091
 30
0.0
 40
3.0
 41
19.7142857143
 46
0.0
 71
     1
 72
     1
  1
Ver: A
  7
TEXTSTYLE_4
 73
     1
 44
1.0
  0
MTEXT
  5
507
330
1B
100
AcDbEntity
 67
     1
  8
9_SOLID
  6
Continuous
 62
     2
100
AcDbMText
 10
313.3026428497
 20
51.9827405091
 30
0.0
 40
3.0
 41
42.9642857143
 46
0.0
 71
     1
 72
     1
  1
Neutral code: 
  7
TEXTSTYLE_4
 73
     1
 44
1.0
  0
MTEXT
  5
508
330
1B
100
AcDbEntity
 67
     1
  8
0
  6
Continuous
 62
     2
100
AcDbMText
 10
313.3026428497
 20
45.9827405091
 30
0.0
 40
3.0
 41
22.9285714286
 46
0.0
 71
     1
 72
     1
  1
Code:  
  7
TEXTSTYLE_4
 73
     1
 44
1.0
  0
MTEXT
  5
509
330
1B
100
AcDbEntity
 67
     1
  8
9_SOLID
  6
Continuous
 62
     2
100
AcDbMText
 10
373.3026428497
 20
46.2327405091
 30
0.0
 40
3.0
 41
27.8571428571
 46
0.0
 71
     1
 72
     1
  1
Scale: 1:1
  7
TEXTSTYLE_4
 73
     1
 44
1.0
  0
MTEXT
  5
50A
330
1B
100
AcDbEntity
 67
     1
  8
9_SOLID
  6
Continuous
 62
     2
100
AcDbMText
 10
406.8151428497
 20
46.2327405091
 30
0.0
 40
3.0
 41
8.25
 46
0.0
 71
     2
 72
     1
  1
A2
  7
TEXTSTYLE_4
 73
     1
 44
1.0
  0
MTEXT
  5
50B
330
1B
100
AcDbEntity
 67
     1
  8
9_SOLID
  6
Continuous
 62
     2
100
AcDbMText
 10
313.3026428497
 20
40.2327405091
 30
0.0
 40
3.0
 41
99.075
 46
0.0
 71
     1
 72
     1
  1
It descr.: CASSAFORMA Ø129x150
  7
TEXTSTYLE_4
 73
     1
 44
1.0
  0
MTEXT
  5
50C
330
1B
100
AcDbEntity
 67
     1
  8
0
  6
Continuous
 62
     2
100
AcDbMText
 10
313.3026428497
 20
34.2327405091
 30
0.0
 40
3.0
 41
37.5
 46
0.0
 71
     1
 72
     1
  1
En descr.:  
  7
TEXTSTYLE_4
 73
     1
 44
1.0
  0
MTEXT
  5
50D
330
1B
100
AcDbEntity
 67
     1
  8
9_SOLID
  6
Continuous
 62
     2
100
AcDbMText
 10
313.3026428497
 20
28.2327405091
 30
0.0
 40
3.0
 41
31.2857142857
 46
0.0
 71
     1
 72
     1
  1
Des.: S.Z.
  7
TEXTSTYLE_4
 73
     1
 44
1.0
  0
MTEXT
  5
50E
330
1B
100
AcDbEntity
 67
     1
  8
9_SOLID
  6
Continuous
 62
     2
100
AcDbMText
 10
363.3026428497
 20
28.2327405091
 30
0.0
 40
3.0
 41
34.8214285714
 46
0.0
 71
     1
 72
     1
  1
Check: A.P.
  7
TEXTSTYLE_4
 73
     1
 44
1.0
  0
MTEXT
  5
50F
330
1B
100
AcDbEntity
 67
     1
  8
9_SOLID
  6
Continuous
 62
     2
100
AcDbMText
 10
283.3026428497
 20
22.2327405091
 30
0.0
 40
3.0
 41
42.5357142857
 46
0.0
 71
     1
 72
     1
  1
Date: 17.12.18
  7
TEXTSTYLE_4
 73
     1
 44
1.0
  0
MTEXT
  5
510
330
1B
100
AcDbEntity
 67
     1
  8
0
  6
Continuous
 62
     2
100
AcDbMText
 10
313.3026428497
 20
22.2327405091
 30
0.0
 40
3.0
 41
21.75
 46
0.0
 71
     1
 72
     1
  1
Mat.:  
  7
TEXTSTYLE_4
 73
     1
 44
1.0
  0
MTEXT
  5
511
330
1B
100
AcDbEntity
 67
     1
  8
9_SOLID
  6
Continuous
 62
     2
100
AcDbMText
 10
363.3026428497
 20
21.7327405091
 30
0.0
 40
2.0
 41
42.3571428571
 46
0.0
 71
     1
 72
     1
  1
Disegno per catalogo
  7
TEXTSTYLE_4
 73
     1
 44
1.0
  0
MTEXT
  5
512
330
1B
100
AcDbEntity
 67
     1
  8
9_SOLID
  6
Continuous
 62
     2
100
AcDbMText
 10
283.3026428497
 20
16.6327405091
 30
0.0
 40
1.8
 41
176.2071428571
 46
0.0
 71
     1
 72
     1
  1
It: A norma di legge si diffida da qualsiasi riproduzione senza nostra autorizzazione esplicita.
  7
TEXTSTYLE_4
 73
     1
 44
1.0
  0
MTEXT
  5
513
330
1B
100
AcDbEntity
 67
     1
  8
9_SOLID
  6
Continuous
 62
     2
100
AcDbMText
 10
283.3026428497
 20
12.6327405091
 30
0.0
 40
1.8
 41
158.1428571429
 46
0.0
 71
     1
 72
     1
  1
En: According to the law, beware of any reproduction made without our authorization.
  7
TEXTSTYLE_4
 73
     1
 44
1.0
  0
ENDSEC
  0
SECTION
  2
OBJECTS
  0
DICTIONARY
  5
514
330
0
100
AcDbDictionary
281
     1
  3
ACAD_DETAILVIEWSTYLE
350
56A
  3
ACAD_GROUP
350
515
  3
ACAD_LAYOUT
350
53D
  3
ACAD_MATERIAL
350
559
  3
ACAD_MLEADERSTYLE
350
55F
  3
ACAD_MLINESTYLE
350
516
  3
ACAD_PLOTSETTINGS
350
518
  3
ACAD_PLOTSTYLENAME
350
519
  3
ACAD_SCALELIST
350
51B
  3
ACAD_SECTIONVIEWSTYLE
350
56B
  3
ACAD_TABLESTYLE
350
55D
  3
ACAD_VISUALSTYLE
350
540
  3
ACDB_RECOMPOSE_DATA
350
566
  3
AcDbVariableDictionary
350
562
  3
APPDATA
350
561
  0
DICTIONARY
  5
56A
102
{ACAD_REACTORS
330
514
102
}
330
514
100
AcDbDictionary
281
     1
  0
DICTIONARY
  5
515
102
{ACAD_REACTORS
330
514
102
}
330
514
100
AcDbDictionary
281
     1
  0
DICTIONARY
  5
53D
102
{ACAD_REACTORS
330
514
102
}
330
514
100
AcDbDictionary
281
     1
  3
Foglio 1
350
53F
  3
Model
350
53E
  0
DICTIONARY
  5
559
102
{ACAD_REACTORS
330
514
102
}
330
514
100
AcDbDictionary
281
     1
  3
ByBlock
350
55B
  3
ByLayer
350
55A
  3
Global
350
55C
  0
DICTIONARY
  5
55F
102
{ACAD_REACTORS
330
514
102
}
330
514
100
AcDbDictionary
281
     1
  3
Standard
350
560
  0
DICTIONARY
  5
516
102
{ACAD_REACTORS
330
514
102
}
330
514
100
AcDbDictionary
281
     1
  3
STANDARD
350
517
  0
DICTIONARY
  5
518
102
{ACAD_REACTORS
330
514
102
}
330
514
100
AcDbDictionary
281
     1
  0
ACDBDICTIONARYWDFLT
  5
519
102
{ACAD_REACTORS
330
514
102
}
330
514
100
AcDbDictionary
281
     1
  3
Normal
350
51A
100
AcDbDictionaryWithDefault
340
51A
  0
DICTIONARY
  5
51B
102
{ACAD_REACTORS
330
514
102
}
330
514
100
AcDbDictionary
281
     1
  3
A0
350
51C
  3
A1
350
51D
  3
A2
350
51E
  3
A3
350
51F
  3
A4
350
520
  3
A5
350
521
  3
A6
350
522
  3
A7
350
523
  3
A8
350
524
  3
A9
350
525
  3
B0
350
526
  3
B1
350
527
  3
B2
350
528
  3
B3
350
529
  3
B4
350
52A
  3
B5
350
52B
  3
B6
350
52C
  3
B7
350
52D
  3
B8
350
52E
  3
B9
350
52F
  3
C0
350
530
  3
C1
350
531
  3
C2
350
532
  3
C3
350
533
  3
C4
350
534
  3
C5
350
535
  3
C6
350
536
  3
C7
350
537
  3
C8
350
538
  3
C9
350
539
  3
D0
350
53A
  3
D1
350
53B
  3
D2
350
53C
  0
DICTIONARY
  5
56B
102
{ACAD_REACTORS
330
514
102
}
330
514
100
AcDbDictionary
281
     1
  0
DICTIONARY
  5
55D
102
{ACAD_REACTORS
330
514
102
}
330
514
100
AcDbDictionary
281
     1
  3
Standard
350
55E
  0
DICTIONARY
  5
540
102
{ACAD_REACTORS
330
514
102
}
330
514
100
AcDbDictionary
281
     1
  3
2dWireframe
350
545
  3
Basic
350
548
  3
Brighten
350
54C
  3
ColorChange
350
550
  3
Conceptual
350
54A
  3
Dim
350
54B
  3
EdgeColorOff
350
553
  3
Facepattern
350
54F
  3
Flat
350
541
  3
FlatWithEdges
350
542
  3
Gouraud
350
543
  3
GouraudWithEdges
350
544
  3
Hidden
350
547
  3
JitterOff
350
551
  3
Linepattern
350
54E
  3
OverhangOff
350
552
  3
Realistic
350
549
  3
Shaded
350
558
  3
Shaded with edges
350
557
  3
Shades of Gray
350
554
  3
Sketchy
350
555
  3
Thicken
350
54D
  3
Wireframe
350
546
  3
X-Ray
350
556
  0
XRECORD
  5
566
102
{ACAD_REACTORS
330
514
102
}
330
514
100
AcDbXrecord
280
     1
 90
        1
330
55E
  0
DICTIONARY
  5
562
102
{ACAD_REACTORS
330
514
102
}
330
514
100
AcDbDictionary
281
     1
  3
CANNOSCALE
350
563
  3
CMLEADERSTYLE
350
568
  3
CTABLESTYLE
350
567
  3
MSLTSCALE
350
569
  0
DICTIONARY
  5
561
102
{ACAD_REACTORS
330
514
102
}
330
514
100
AcDbDictionary
281
     1
  0
LAYOUT
  5
53F
102
{ACAD_REACTORS
330
53D
102
}
330
53D
100
AcDbPlotSettings
  1

  2
none_device
  4
ISO_A3_(420.00_x_297.00_MM)
  6

 40
7.5
 41
20.0
 42
7.5
 43
20.0
 44
420.0
 45
297.0
 46
0.0
 47
0.0
 48
0.0
 49
0.0
140
0.0
141
0.0
142
1.0
143
2.311284046692607
 70
   688
 72
     1
 73
     0
 74
     1
  7

 75
     0
 76
     0
 77
     2
 78
   300
147
0.4326599326599327
148
0.0
149
0.0
100
AcDbLayout
  1
Foglio 1
 70
     1
 71
     1
 10
0.0
 20
0.0
 11
412.5
 21
277.0
 12
0.0
 22
0.0
 32
0.0
 14
0.0
 24
0.0
 34
0.0
 15
420.0
 25
594.0
 35
0.0
146
0.0
 13
0.0
 23
0.0
 33
0.0
 16
1.0
 26
0.0
 36
0.0
 17
0.0
 27
1.0
 37
0.0
 76
     0
330
1B
331
283
  0
LAYOUT
  5
53E
102
{ACAD_REACTORS
330
53D
102
}
330
53D
100
AcDbPlotSettings
  1

  2
none_device
  4
Letter_(8.50_x_11.00_Inches)
  6

 40
6.35
 41
6.35
 42
6.35
 43
6.35
 44
215.9
 45
279.4
 46
0.0
 47
0.0
 48
0.0
 49
0.0
140
0.0
141
0.0
142
1.0
143
56.57142857142858
 70
  1712
 72
     0
 73
     0
 74
     0
  7

 75
     0
 76
     0
 77
     2
 78
   300
147
0.0176767676767677
148
0.0000002209799732
149
0.0
100
AcDbLayout
  1
Model
 70
     1
 71
     0
 10
0.0
 20
0.0
 11
420.0
 21
594.0
 12
0.0
 22
0.0
 32
0.0
 14
0.0
 24
0.0
 34
0.0
 15
420.0
 25
594.0
 35
0.0
146
0.0
 13
0.0
 23
0.0
 33
0.0
 16
1.0
 26
0.0
 36
0.0
 17
0.0
 27
1.0
 37
0.0
 76
     0
330
1F
331
1F4
  0
MATERIAL
  5
55B
102
{ACAD_REACTORS
330
559
102
}
330
559
100
AcDbMaterial
  1
ByBlock
 72
     1
 94
      127
  0
MATERIAL
  5
55A
102
{ACAD_REACTORS
330
559
102
}
330
559
100
AcDbMaterial
  1
ByLayer
 72
     1
 94
      127
  0
MATERIAL
  5
55C
102
{ACAD_REACTORS
330
559
102
}
330
559
100
AcDbMaterial
  1
Global
 72
     1
 94
      127
  0
MLEADERSTYLE
  5
560
102
{ACAD_REACTORS
330
55F
102
}
330
55F
100
AcDbMLeaderStyle
179
     2
170
     2
171
     1
172
     0
 90
        2
 40
0.0
 41
0.0
173
     1
 91
-1056964608
340
14
 92
       -2
290
     1
 42
2.0
291
     1
 43
8.0
  3
Standard
341
0
 44
4.0
300

342
11
174
     1
178
     1
175
     1
176
     0
 93
-1056964608
 45
4.0
292
     0
297
     0
 46
4.0
343
0
 94
-1056964608
 47
1.0
 49
1.0
140
1.0
293
     1
141
0.0
294
     1
177
     0
142
1.0
295
     0
296
     0
143
3.75
271
     0
272
     9
273
     9
298
     0
  0
MLINESTYLE
  5
517
102
{ACAD_REACTORS
330
516
102
}
330
516
100
AcDbMlineStyle
  2
STANDARD
 70
     0
  3

 62
   256
 51
90.0
 52
90.0
 71
     2
 49
0.5
 62
   256
  6
BYLAYER
 49
-0.5
 62
   256
  6
BYLAYER
  0
ACDBPLACEHOLDER
  5
51A
102
{ACAD_REACTORS
330
519
102
}
330
519
  0
SCALE
  5
51C
102
{ACAD_REACTORS
330
51B
102
}
330
51B
100
AcDbScale
 70
     0
300
1:1
140
1.0
141
1.0
290
     1
  0
SCALE
  5
51D
102
{ACAD_REACTORS
330
51B
102
}
330
51B
100
AcDbScale
 70
     0
300
1:2
140
1.0
141
2.0
290
     0
  0
SCALE
  5
51E
102
{ACAD_REACTORS
330
51B
102
}
330
51B
100
AcDbScale
 70
     0
300
1:4
140
1.0
141
4.0
290
     0
  0
SCALE
  5
51F
102
{ACAD_REACTORS
330
51B
102
}
330
51B
100
AcDbScale
 70
     0
300
1:5
140
1.0
141
5.0
290
     0
  0
SCALE
  5
520
102
{ACAD_REACTORS
330
51B
102
}
330
51B
100
AcDbScale
 70
     0
300
1:8
140
1.0
141
8.0
290
     0
  0
SCALE
  5
521
102
{ACAD_REACTORS
330
51B
102
}
330
51B
100
AcDbScale
 70
     0
300
1:10
140
1.0
141
10.0
290
     0
  0
SCALE
  5
522
102
{ACAD_REACTORS
330
51B
102
}
330
51B
100
AcDbScale
 70
     0
300
1:16
140
1.0
141
16.0
290
     0
  0
SCALE
  5
523
102
{ACAD_REACTORS
330
51B
102
}
330
51B
100
AcDbScale
 70
     0
300
1:20
140
1.0
141
20.0
290
     0
  0
SCALE
  5
524
102
{ACAD_REACTORS
330
51B
102
}
330
51B
100
AcDbScale
 70
     0
300
1:30
140
1.0
141
30.0
290
     0
  0
SCALE
  5
525
102
{ACAD_REACTORS
330
51B
102
}
330
51B
100
AcDbScale
 70
     0
300
1:40
140
1.0
141
40.0
290
     0
  0
SCALE
  5
526
102
{ACAD_REACTORS
330
51B
102
}
330
51B
100
AcDbScale
 70
     0
300
1:50
140
1.0
141
50.0
290
     0
  0
SCALE
  5
527
102
{ACAD_REACTORS
330
51B
102
}
330
51B
100
AcDbScale
 70
     0
300
1:100
140
1.0
141
100.0
290
     0
  0
SCALE
  5
528
102
{ACAD_REACTORS
330
51B
102
}
330
51B
100
AcDbScale
 70
     0
300
2:1
140
2.0
141
1.0
290
     0
  0
SCALE
  5
529
102
{ACAD_REACTORS
330
51B
102
}
330
51B
100
AcDbScale
 70
     0
300
4:1
140
4.0
141
1.0
290
     0
  0
SCALE
  5
52A
102
{ACAD_REACTORS
330
51B
102
}
330
51B
100
AcDbScale
 70
     0
300
8:1
140
8.0
141
1.0
290
     0
  0
SCALE
  5
52B
102
{ACAD_REACTORS
330
51B
102
}
330
51B
100
AcDbScale
 70
     0
300
10:1
140
10.0
141
1.0
290
     0
  0
SCALE
  5
52C
102
{ACAD_REACTORS
330
51B
102
}
330
51B
100
AcDbScale
 70
     0
300
100:1
140
100.0
141
1.0
290
     0
  0
SCALE
  5
52D
102
{ACAD_REACTORS
330
51B
102
}
330
51B
100
AcDbScale
 70
     0
300
1/128" = 1'-0"
140
0.0078125
141
12.0
290
     0
  0
SCALE
  5
52E
102
{ACAD_REACTORS
330
51B
102
}
330
51B
100
AcDbScale
 70
     0
300
1/64" = 1'-0"
140
0.015625
141
12.0
290
     0
  0
SCALE
  5
52F
102
{ACAD_REACTORS
330
51B
102
}
330
51B
100
AcDbScale
 70
     0
300
1/32" = 1'-0"
140
0.03125
141
12.0
290
     0
  0
SCALE
  5
530
102
{ACAD_REACTORS
330
51B
102
}
330
51B
100
AcDbScale
 70
     0
300
1/16" = 1'-0"
140
0.0625
141
12.0
290
     0
  0
SCALE
  5
531
102
{ACAD_REACTORS
330
51B
102
}
330
51B
100
AcDbScale
 70
     0
300
3/32" = 1'-0"
140
0.09375
141
12.0
290
     0
  0
SCALE
  5
532
102
{ACAD_REACTORS
330
51B
102
}
330
51B
100
AcDbScale
 70
     0
300
1/8" = 1'-0"
140
0.125
141
12.0
290
     0
  0
SCALE
  5
533
102
{ACAD_REACTORS
330
51B
102
}
330
51B
100
AcDbScale
 70
     0
300
3/16" = 1'-0"
140
0.1875
141
12.0
290
     0
  0
SCALE
  5
534
102
{ACAD_REACTORS
330
51B
102
}
330
51B
100
AcDbScale
 70
     0
300
1/4" = 1'-0"
140
0.25
141
12.0
290
     0
  0
SCALE
  5
535
102
{ACAD_REACTORS
330
51B
102
}
330
51B
100
AcDbScale
 70
     0
300
3/8" = 1'-0"
140
0.375
141
12.0
290
     0
  0
SCALE
  5
536
102
{ACAD_REACTORS
330
51B
102
}
330
51B
100
AcDbScale
 70
     0
300
1/2" = 1'-0"
140
0.5
141
12.0
290
     0
  0
SCALE
  5
537
102
{ACAD_REACTORS
330
51B
102
}
330
51B
100
AcDbScale
 70
     0
300
3/4" = 1'-0"
140
0.75
141
12.0
290
     0
  0
SCALE
  5
538
102
{ACAD_REACTORS
330
51B
102
}
330
51B
100
AcDbScale
 70
     0
300
1" = 1'-0"
140
1.0
141
12.0
290
     0
  0
SCALE
  5
539
102
{ACAD_REACTORS
330
51B
102
}
330
51B
100
AcDbScale
 70
     0
300
1-1/2" = 1'-0"
140
1.5
141
12.0
290
     0
  0
SCALE
  5
53A
102
{ACAD_REACTORS
330
51B
102
}
330
51B
100
AcDbScale
 70
     0
300
3" = 1'-0"
140
3.0
141
12.0
290
     0
  0
SCALE
  5
53B
102
{ACAD_REACTORS
330
51B
102
}
330
51B
100
AcDbScale
 70
     0
300
6" = 1'-0"
140
6.0
141
12.0
290
     0
  0
SCALE
  5
53C
102
{ACAD_REACTORS
330
51B
102
}
330
51B
100
AcDbScale
 70
     0
300
1'-0" = 1'-0"
140
12.0
141
12.0
290
     0
  0
TABLESTYLE
  5
55E
102
{ACAD_REACTORS
330
55D
102
}
102
{ACAD_XDICTIONARY
360
564
102
}
330
55D
100
AcDbTableStyle
  3
Standard
 70
     0
 71
     0
 40
0.06
 41
0.06
280
     0
281
     0
  7
STANDARD
140
4.5
170
     2
 62
     0
 63
   257
283
     0
 90
        4
 91
        0
  1

274
    -2
284
     1
 64
     0
275
    -2
285
     1
 65
     0
276
    -2
286
     1
 66
     0
277
    -2
287
     1
 67
     0
278
    -2
288
     1
 68
     0
279
    -2
289
     1
 69
     0
  7
STANDARD
140
6.0
170
     5
 62
     0
 63
   257
283
     0
 90
        4
 91
        0
  1

274
    -2
284
     1
 64
     0
275
    -2
285
     1
 65
     0
276
    -2
286
     1
 66
     0
277
    -2
287
     1
 67
     0
278
    -2
288
     1
 68
     0
279
    -2
289
     1
 69
     0
  7
STANDARD
140
4.5
170
     5
 62
     0
 63
   257
283
     0
 90
        4
 91
        0
  1

274
    -2
284
     1
 64
     0
275
    -2
285
     1
 65
     0
276
    -2
286
     1
 66
     0
277
    -2
287
     1
 67
     0
278
    -2
288
     1
 68
     0
279
    -2
289
     1
 69
     0
  0
VISUALSTYLE
  5
545
102
{ACAD_REACTORS
330
540
102
}
330
540
100
AcDbVisualStyle
  2
2dWireframe
 70
     4
177
     3
291
     0
 70
    58
 90
        0
176
     1
 90
        2
176
     1
 90
        0
176
     1
 90
        0
176
     1
 40
0.6
176
     1
 40
30.0
176
     1
 62
     7
420
 16777215
176
     1
 90
        1
176
     1
 90
        4
176
     1
 62
     7
176
     1
 62
   257
176
     1
 90
        1
176
     1
 90
        1
176
     1
 40
1.0
176
     1
 90
        0
176
     1
 62
   257
176
     1
 40
1.0
176
     1
 90
        1
176
     1
 90
        6
176
     1
 90
        2
176
     1
 62
     7
176
     1
 90
        5
176
     1
 90
        0
176
     1
 90
        0
176
     1
290
     0
176
     1
 90
        1
176
     1
 40
0.0
176
     1
 90
        0
176
     1
290
     1
176
     1
290
     1
176
     1
290
     0
176
     1
290
     0
176
     1
290
     0
176
     1
290
     0
176
     1
290
     0
176
     1
290
     0
176
     1
290
     0
176
     1
 90
       50
176
     1
 40
0.0
176
     1
 40
1.0
176
     1
 90
        0
176
     1
 62
    18
420
        0
176
     1
 90
       50
176
     1
 90
        3
176
     1
 62
     5
420
      255
176
     1
290
     0
176
     1
 90
       50
176
     1
 90
       50
176
     1
 90
       50
176
     1
290
     0
176
     1
 90
       50
176
     1
 62
   256
176
     0
 40
1.0
176
     0
 90
        2
176
     1
  1
strokes_ogs.tif
176
     1
290
     0
176
     1
 40
1.0
176
     1
 40
1.0
176
     1
  0
VISUALSTYLE
  5
548
102
{ACAD_REACTORS
330
540
102
}
330
540
100
AcDbVisualStyle
  2
Basic
 70
     7
177
     3
291
     1
 70
    58
 90
        1
176
     1
 90
        0
176
     1
 90
        1
176
     1
 90
        0
176
     1
 40
0.6
176
     1
 40
30.0
176
     1
 62
     7
420
 16777215
176
     1
 90
        0
176
     1
 90
        4
176
     1
 62
     7
176
     1
 62
   257
176
     1
 90
        1
176
     1
 90
        1
176
     1
 40
1.0
176
     1
 90
        8
176
     1
 62
     7
176
     1
 40
1.0
176
     1
 90
        1
176
     1
 90
        6
176
     1
 90
        2
176
     1
 62
     7
176
     1
 90
        5
176
     1
 90
        0
176
     1
 90
        0
176
     1
290
     0
176
     1
 90
        1
176
     1
 40
0.0
176
     1
 90
        0
176
     1
290
     0
176
     1
290
     1
176
     1
290
     1
176
     1
290
     0
176
     1
290
     0
176
     1
290
     0
176
     1
290
     0
176
     1
290
     0
176
     1
290
     0
176
     1
 90
       50
176
     1
 40
0.0
176
     1
 40
1.0
176
     1
 90
        0
176
     1
 62
    18
420
        0
176
     1
 90
       50
176
     1
 90
        3
176
     1
 62
     5
420
      255
176
     1
290
     0
176
     1
 90
       50
176
     1
 90
       50
176
     1
 90
       50
176
     1
290
     0
176
     1
 90
       50
176
     1
 62
   256
176
     0
 40
1.0
176
     0
 90
        2
176
     1
  1
strokes_ogs.tif
176
     1
290
     0
176
     1
 40
1.0
176
     1
 40
1.0
176
     1
  0
VISUALSTYLE
  5
54C
102
{ACAD_REACTORS
330
540
102
}
330
540
100
AcDbVisualStyle
  2
Brighten
 70
    12
177
     3
291
     1
 70
    58
 90
        2
176
     1
 90
        2
176
     1
 90
        0
176
     1
 90
        0
176
     1
 40
0.6
176
     1
 40
30.0
176
     1
 62
     7
420
 16777215
176
     1
 90
        1
176
     1
 90
        4
176
     1
 62
     7
176
     1
 62
   257
176
     1
 90
        1
176
     1
 90
        1
176
     1
 40
1.0
176
     1
 90
        8
176
     1
 62
     7
176
     1
 40
1.0
176
     1
 90
        1
176
     1
 90
        6
176
     1
 90
        2
176
     1
 62
     7
176
     1
 90
        5
176
     1
 90
        0
176
     1
 90
        0
176
     1
290
     0
176
     1
 90
        1
176
     1
 40
50.0
176
     1
 90
        0
176
     1
290
     0
176
     1
290
     1
176
     1
290
     1
176
     1
290
     0
176
     1
290
     0
176
     1
290
     0
176
     1
290
     0
176
     1
290
     0
176
     1
290
     0
176
     1
 90
       50
176
     1
 40
0.0
176
     1
 40
1.0
176
     1
 90
        0
176
     1
 62
    18
420
        0
176
     1
 90
       50
176
     1
 90
        3
176
     1
 62
     5
420
      255
176
     1
290
     0
176
     1
 90
       50
176
     1
 90
       50
176
     1
 90
       50
176
     1
290
     0
176
     1
 90
       50
176
     1
 62
   256
176
     0
 40
1.0
176
     0
 90
        2
176
     1
  1
strokes_ogs.tif
176
     1
290
     0
176
     1
 40
1.0
176
     1
 40
1.0
176
     1
  0
VISUALSTYLE
  5
550
102
{ACAD_REACTORS
330
540
102
}
330
540
100
AcDbVisualStyle
  2
ColorChange
 70
    16
177
     3
291
     1
 70
    58
 90
        2
176
     1
 90
        2
176
     1
 90
        3
176
     1
 90
        0
176
     1
 40
0.6
176
     1
 40
30.0
176
     1
 62
     8
420
  8421504
176
     1
 90
        1
176
     1
 90
        4
176
     1
 62
     7
176
     1
 62
   257
176
     1
 90
        1
176
     1
 90
        1
176
     1
 40
1.0
176
     1
 90
        8
176
     1
 62
     8
420
  8421504
176
     1
 40
1.0
176
     1
 90
        1
176
     1
 90
        6
176
     1
 90
        2
176
     1
 62
     7
176
     1
 90
        5
176
     1
 90
        0
176
     1
 90
        0
176
     1
290
     0
176
     1
 90
        1
176
     1
 40
0.0
176
     1
 90
        0
176
     1
290
     0
176
     1
290
     1
176
     1
290
     1
176
     1
290
     0
176
     1
290
     0
176
     1
290
     0
176
     1
290
     0
176
     1
290
     0
176
     1
290
     0
176
     1
 90
       50
176
     1
 40
0.0
176
     1
 40
1.0
176
     1
 90
        0
176
     1
 62
    18
420
        0
176
     1
 90
       50
176
     1
 90
        3
176
     1
 62
     5
420
      255
176
     1
290
     0
176
     1
 90
       50
176
     1
 90
       50
176
     1
 90
       50
176
     1
290
     0
176
     1
 90
       50
176
     1
 62
   256
176
     0
 40
1.0
176
     0
 90
        2
176
     1
  1
strokes_ogs.tif
176
     1
290
     0
176
     1
 40
1.0
176
     1
 40
1.0
176
     1
  0
VISUALSTYLE
  5
54A
102
{ACAD_REACTORS
330
540
102
}
330
540
100
AcDbVisualStyle
  2
Conceptual
 70
     9
177
     3
291
     0
 70
    58
 90
        3
176
     1
 90
        2
176
     1
 90
        0
176
     1
 90
        0
176
     1
 40
0.6
176
     1
 40
30.0
176
     1
 62
     7
420
 16777215
176
     1
 90
        2
176
     1
 90
        2
176
     1
 62
     7
176
     1
 62
   257
176
     1
 90
        1
176
     1
 90
        1
176
     1
 40
179.0
176
     1
 90
        8
176
     1
 62
     7
176
     1
 40
1.0
176
     1
 90
        1
176
     1
 90
        6
176
     1
 90
        2
176
     1
 62
     7
176
     1
 90
        3
176
     1
 90
        0
176
     1
 90
        0
176
     1
290
     0
176
     1
 90
        1
176
     1
 40
0.0
176
     1
 90
        0
176
     1
290
     0
176
     1
290
     1
176
     1
290
     1
176
     1
290
     0
176
     1
290
     0
176
     1
290
     0
176
     1
290
     0
176
     1
290
     0
176
     1
290
     0
176
     1
 90
       50
176
     1
 40
0.0
176
     1
 40
1.0
176
     1
 90
        0
176
     1
 62
    18
420
        0
176
     1
 90
       50
176
     1
 90
        3
176
     1
 62
     5
420
      255
176
     1
290
     0
176
     1
 90
       50
176
     1
 90
       50
176
     1
 90
       50
176
     1
290
     0
176
     1
 90
       50
176
     1
 62
   256
176
     0
 40
1.0
176
     0
 90
        2
176
     1
  1
strokes_ogs.tif
176
     1
290
     0
176
     1
 40
1.0
176
     1
 40
1.0
176
     1
  0
VISUALSTYLE
  5
54B
102
{ACAD_REACTORS
330
540
102
}
330
540
100
AcDbVisualStyle
  2
Dim
 70
    11
177
     3
291
     1
 70
    58
 90
        2
176
     1
 90
        2
176
     1
 90
        0
176
     1
 90
        0
176
     1
 40
0.6
176
     1
 40
30.0
176
     1
 62
     7
420
 16777215
176
     1
 90
        1
176
     1
 90
        4
176
     1
 62
     7
176
     1
 62
   257
176
     1
 90
        1
176
     1
 90
        1
176
     1
 40
1.0
176
     1
 90
        8
176
     1
 62
     7
176
     1
 40
1.0
176
     1
 90
        1
176
     1
 90
        6
176
     1
 90
        2
176
     1
 62
     7
176
     1
 90
        5
176
     1
 90
        0
176
     1
 90
        0
176
     1
290
     0
176
     1
 90
        1
176
     1
 40
-50.0
176
     1
 90
        0
176
     1
290
     0
176
     1
290
     1
176
     1
290
     1
176
     1
290
     0
176
     1
290
     0
176
     1
290
     0
176
     1
290
     0
176
     1
290
     0
176
     1
290
     0
176
     1
 90
       50
176
     1
 40
0.0
176
     1
 40
1.0
176
     1
 90
        0
176
     1
 62
    18
420
        0
176
     1
 90
       50
176
     1
 90
        3
176
     1
 62
     5
420
      255
176
     1
290
     0
176
     1
 90
       50
176
     1
 90
       50
176
     1
 90
       50
176
     1
290
     0
176
     1
 90
       50
176
     1
 62
   256
176
     0
 40
1.0
176
     0
 90
        2
176
     1
  1
strokes_ogs.tif
176
     1
290
     0
176
     1
 40
1.0
176
     1
 40
1.0
176
     1
  0
VISUALSTYLE
  5
553
102
{ACAD_REACTORS
330
540
102
}
330
540
100
AcDbVisualStyle
  2
EdgeColorOff
 70
    22
177
     3
291
     1
 70
    58
 90
        2
176
     0
 90
        2
176
     0
 90
        0
176
     0
 90
        0
176
     0
 40
0.6
176
     0
 40
30.0
176
     0
 62
     7
420
 16777215
176
     0
 90
        1
176
     0
 90
        4
176
     0
 62
     7
176
     0
 62
   257
176
     0
 90
        1
176
     0
 90
        1
176
     0
 40
1.0
176
     0
 90
        8
176
     2
 62
     7
176
     0
 40
1.0
176
     0
 90
        1
176
     0
 90
        6
176
     0
 90
        2
176
     0
 62
     7
176
     0
 90
        5
176
     0
 90
        0
176
     0
 90
        0
176
     0
290
     0
176
     0
 90
        1
176
     0
 40
0.0
176
     0
 90
        0
176
     0
290
     0
176
     0
290
     1
176
     0
290
     1
176
     0
290
     0
176
     0
290
     0
176
     0
290
     0
176
     0
290
     0
176
     0
290
     0
176
     0
290
     0
176
     0
 90
       50
176
     0
 40
0.0
176
     0
 40
1.0
176
     0
 90
        0
176
     0
 62
    18
420
        0
176
     0
 90
       50
176
     0
 90
        3
176
     0
 62
     5
420
      255
176
     0
290
     0
176
     0
 90
       50
176
     0
 90
       50
176
     0
 90
       50
176
     0
290
     0
176
     0
 90
       50
176
     0
 62
   256
176
     0
 40
1.0
176
     0
 90
        2
176
     0
  1
strokes_ogs.tif
176
     0
290
     0
176
     0
 40
1.0
176
     0
 40
1.0
176
     0
  0
VISUALSTYLE
  5
54F
102
{ACAD_REACTORS
330
540
102
}
330
540
100
AcDbVisualStyle
  2
Facepattern
 70
    15
177
     3
291
     1
 70
    58
 90
        2
176
     1
 90
        2
176
     1
 90
        0
176
     1
 90
        0
176
     1
 40
0.6
176
     1
 40
30.0
176
     1
 62
     7
420
 16777215
176
     1
 90
        1
176
     1
 90
        4
176
     1
 62
     7
176
     1
 62
   257
176
     1
 90
        1
176
     1
 90
        1
176
     1
 40
1.0
176
     1
 90
        8
176
     1
 62
     7
176
     1
 40
1.0
176
     1
 90
        1
176
     1
 90
        6
176
     1
 90
        2
176
     1
 62
     7
176
     1
 90
        5
176
     1
 90
        0
176
     1
 90
        0
176
     1
290
     0
176
     1
 90
        1
176
     1
 40
0.0
176
     1
 90
        0
176
     1
290
     0
176
     1
290
     1
176
     1
290
     1
176
     1
290
     0
176
     1
290
     0
176
     1
290
     0
176
     1
290
     0
176
     1
290
     0
176
     1
290
     0
176
     1
 90
       50
176
     1
 40
0.0
176
     1
 40
1.0
176
     1
 90
        0
176
     1
 62
    18
420
        0
176
     1
 90
       50
176
     1
 90
        3
176
     1
 62
     5
420
      255
176
     1
290
     0
176
     1
 90
       50
176
     1
 90
       50
176
     1
 90
       50
176
     1
290
     0
176
     1
 90
       50
176
     1
 62
   256
176
     0
 40
1.0
176
     0
 90
        2
176
     1
  1
strokes_ogs.tif
176
     1
290
     0
176
     1
 40
1.0
176
     1
 40
1.0
176
     1
  0
VISUALSTYLE
  5
541
102
{ACAD_REACTORS
330
540
102
}
330
540
100
AcDbVisualStyle
  2
Flat
 70
     0
177
     3
291
     1
 70
    58
 90
        2
176
     1
 90
        1
176
     1
 90
        1
176
     1
 90
        2
176
     1
 40
0.6
176
     1
 40
30.0
176
     1
 62
     7
420
 16777215
176
     1
 90
        0
176
     1
 90
        0
176
     1
 62
     7
176
     1
 62
   257
176
     1
 90
        1
176
     1
 90
        1
176
     1
 40
1.0
176
     1
 90
        8
176
     1
 62
     7
176
     1
 40
1.0
176
     1
 90
        1
176
     1
 90
        6
176
     1
 90
        2
176
     1
 62
     7
176
     1
 90
        5
176
     1
 90
        0
176
     1
 90
        0
176
     1
290
     0
176
     1
 90
       13
176
     1
 40
0.0
176
     1
 90
        0
176
     1
290
     0
176
     1
290
     1
176
     1
290
     1
176
     1
290
     0
176
     1
290
     0
176
     1
290
     0
176
     1
290
     0
176
     1
290
     0
176
     1
290
     0
176
     1
 90
       50
176
     1
 40
0.0
176
     1
 40
1.0
176
     1
 90
        0
176
     1
 62
    18
420
        0
176
     1
 90
       50
176
     1
 90
        3
176
     1
 62
     5
420
      255
176
     1
290
     0
176
     1
 90
       50
176
     1
 90
       50
176
     1
 90
       50
176
     1
290
     0
176
     1
 90
       50
176
     1
 62
   256
176
     0
 40
1.0
176
     0
 90
        2
176
     1
  1
strokes_ogs.tif
176
     1
290
     0
176
     1
 40
1.0
176
     1
 40
1.0
176
     1
  0
VISUALSTYLE
  5
542
102
{ACAD_REACTORS
330
540
102
}
330
540
100
AcDbVisualStyle
  2
FlatWithEdges
 70
     1
177
     3
291
     1
 70
    58
 90
        2
176
     1
 90
        1
176
     1
 90
        1
176
     1
 90
        2
176
     1
 40
0.6
176
     1
 40
30.0
176
     1
 62
     7
420
 16777215
176
     1
 90
        1
176
     1
 90
        0
176
     1
 62
     7
176
     1
 62
   257
176
     1
 90
        1
176
     1
 90
        1
176
     1
 40
1.0
176
     1
 90
        0
176
     1
 62
   257
176
     1
 40
1.0
176
     1
 90
        1
176
     1
 90
        6
176
     1
 90
        2
176
     1
 62
     7
176
     1
 90
        5
176
     1
 90
        0
176
     1
 90
        0
176
     1
290
     0
176
     1
 90
       13
176
     1
 40
0.0
176
     1
 90
        0
176
     1
290
     0
176
     1
290
     1
176
     1
290
     1
176
     1
290
     0
176
     1
290
     0
176
     1
290
     0
176
     1
290
     0
176
     1
290
     0
176
     1
290
     0
176
     1
 90
       50
176
     1
 40
0.0
176
     1
 40
1.0
176
     1
 90
        0
176
     1
 62
    18
420
        0
176
     1
 90
       50
176
     1
 90
        3
176
     1
 62
     5
420
      255
176
     1
290
     0
176
     1
 90
       50
176
     1
 90
       50
176
     1
 90
       50
176
     1
290
     0
176
     1
 90
       50
176
     1
 62
   256
176
     0
 40
1.0
176
     0
 90
        2
176
     1
  1
strokes_ogs.tif
176
     1
290
     0
176
     1
 40
1.0
176
     1
 40
1.0
176
     1
  0
VISUALSTYLE
  5
543
102
{ACAD_REACTORS
330
540
102
}
330
540
100
AcDbVisualStyle
  2
Gouraud
 70
     2
177
     3
291
     1
 70
    58
 90
        2
176
     1
 90
        2
176
     1
 90
        1
176
     1
 90
        2
176
     1
 40
0.6
176
     1
 40
30.0
176
     1
 62
     7
420
 16777215
176
     1
 90
        0
176
     1
 90
        0
176
     1
 62
     7
176
     1
 62
   257
176
     1
 90
        1
176
     1
 90
        1
176
     1
 40
1.0
176
     1
 90
        0
176
     1
 62
     7
176
     1
 40
1.0
176
     1
 90
        1
176
     1
 90
        6
176
     1
 90
        2
176
     1
 62
     7
176
     1
 90
        5
176
     1
 90
        0
176
     1
 90
        0
176
     1
290
     0
176
     1
 90
       13
176
     1
 40
0.0
176
     1
 90
        0
176
     1
290
     0
176
     1
290
     1
176
     1
290
     1
176
     1
290
     0
176
     1
290
     0
176
     1
290
     0
176
     1
290
     0
176
     1
290
     0
176
     1
290
     0
176
     1
 90
       50
176
     1
 40
0.0
176
     1
 40
1.0
176
     1
 90
        0
176
     1
 62
    18
420
        0
176
     1
 90
       50
176
     1
 90
        3
176
     1
 62
     5
420
      255
176
     1
290
     0
176
     1
 90
       50
176
     1
 90
       50
176
     1
 90
       50
176
     1
290
     0
176
     1
 90
       50
176
     1
 62
   256
176
     0
 40
1.0
176
     0
 90
        2
176
     1
  1
strokes_ogs.tif
176
     1
290
     0
176
     1
 40
1.0
176
     1
 40
1.0
176
     1
  0
VISUALSTYLE
  5
544
102
{ACAD_REACTORS
330
540
102
}
330
540
100
AcDbVisualStyle
  2
GouraudWithEdges
 70
     3
177
     3
291
     1
 70
    58
 90
        2
176
     1
 90
        2
176
     1
 90
        1
176
     1
 90
        2
176
     1
 40
0.6
176
     1
 40
30.0
176
     1
 62
     7
420
 16777215
176
     1
 90
        1
176
     1
 90
        0
176
     1
 62
     7
176
     1
 62
   257
176
     1
 90
        1
176
     1
 90
        1
176
     1
 40
1.0
176
     1
 90
        0
176
     1
 62
   257
176
     1
 40
1.0
176
     1
 90
        1
176
     1
 90
        6
176
     1
 90
        2
176
     1
 62
     7
176
     1
 90
        5
176
     1
 90
        0
176
     1
 90
        0
176
     1
290
     0
176
     1
 90
       13
176
     1
 40
0.0
176
     1
 90
        0
176
     1
290
     0
176
     1
290
     1
176
     1
290
     1
176
     1
290
     0
176
     1
290
     0
176
     1
290
     0
176
     1
290
     0
176
     1
290
     0
176
     1
290
     0
176
     1
 90
       50
176
     1
 40
0.0
176
     1
 40
1.0
176
     1
 90
        0
176
     1
 62
    18
420
        0
176
     1
 90
       50
176
     1
 90
        3
176
     1
 62
     5
420
      255
176
     1
290
     0
176
     1
 90
       50
176
     1
 90
       50
176
     1
 90
       50
176
     1
290
     0
176
     1
 90
       50
176
     1
 62
   256
176
     0
 40
1.0
176
     0
 90
        2
176
     1
  1
strokes_ogs.tif
176
     1
290
     0
176
     1
 40
1.0
176
     1
 40
1.0
176
     1
  0
VISUALSTYLE
  5
547
102
{ACAD_REACTORS
330
540
102
}
330
540
100
AcDbVisualStyle
  2
Hidden
 70
     6
177
     3
291
     0
 70
    58
 90
        1
176
     1
 90
        2
176
     1
 90
        2
176
     1
 90
        0
176
     1
 40
0.6
176
     1
 40
30.0
176
     1
 62
     7
420
 16777215
176
     1
 90
        2
176
     1
 90
        2
176
     1
 62
     7
176
     1
 62
   257
176
     1
 90
        2
176
     1
 90
        1
176
     1
 40
40.0
176
     1
 90
        0
176
     1
 62
   257
176
     1
 40
1.0
176
     1
 90
        1
176
     1
 90
        6
176
     1
 90
        2
176
     1
 62
     7
176
     1
 90
        3
176
     1
 90
        0
176
     1
 90
        0
176
     1
290
     0
176
     1
 90
        1
176
     1
 40
0.0
176
     1
 90
        0
176
     1
290
     0
176
     1
290
     1
176
     1
290
     1
176
     1
290
     0
176
     1
290
     0
176
     1
290
     0
176
     1
290
     0
176
     1
290
     0
176
     1
290
     0
176
     1
 90
       50
176
     1
 40
0.0
176
     1
 40
1.0
176
     1
 90
        0
176
     1
 62
    18
420
        0
176
     1
 90
       50
176
     1
 90
        3
176
     1
 62
     5
420
      255
176
     1
290
     0
176
     1
 90
       50
176
     1
 90
       50
176
     1
 90
       50
176
     1
290
     0
176
     1
 90
       50
176
     1
 62
   256
176
     0
 40
1.0
176
     0
 90
        2
176
     1
  1
strokes_ogs.tif
176
     1
290
     0
176
     1
 40
1.0
176
     1
 40
1.0
176
     1
  0
VISUALSTYLE
  5
551
102
{ACAD_REACTORS
330
540
102
}
330
540
100
AcDbVisualStyle
  2
JitterOff
 70
    20
177
     3
291
     1
 70
    58
 90
        2
176
     0
 90
        2
176
     0
 90
        0
176
     0
 90
        0
176
     0
 40
0.6
176
     0
 40
30.0
176
     0
 62
     7
420
 16777215
176
     0
 90
        1
176
     0
 90
        4
176
     0
 62
     7
176
     0
 62
   257
176
     0
 90
        1
176
     0
 90
        1
176
     0
 40
1.0
176
     0
 90
       10
176
     2
 62
     7
176
     0
 40
1.0
176
     0
 90
        1
176
     0
 90
        6
176
     0
 90
        2
176
     0
 62
     7
176
     0
 90
        5
176
     0
 90
        0
176
     0
 90
        0
176
     0
290
     0
176
     0
 90
        1
176
     0
 40
0.0
176
     0
 90
        0
176
     0
290
     0
176
     0
290
     1
176
     0
290
     1
176
     0
290
     0
176
     0
290
     0
176
     0
290
     0
176
     0
290
     0
176
     0
290
     0
176
     0
290
     0
176
     0
 90
       50
176
     0
 40
0.0
176
     0
 40
1.0
176
     0
 90
        0
176
     0
 62
    18
420
        0
176
     0
 90
       50
176
     0
 90
        3
176
     0
 62
     5
420
      255
176
     0
290
     0
176
     0
 90
       50
176
     0
 90
       50
176
     0
 90
       50
176
     0
290
     0
176
     0
 90
       50
176
     0
 62
   256
176
     0
 40
1.0
176
     0
 90
        2
176
     0
  1
strokes_ogs.tif
176
     0
290
     0
176
     0
 40
1.0
176
     0
 40
1.0
176
     0
  0
VISUALSTYLE
  5
54E
102
{ACAD_REACTORS
330
540
102
}
330
540
100
AcDbVisualStyle
  2
Linepattern
 70
    14
177
     3
291
     1
 70
    58
 90
        2
176
     1
 90
        2
176
     1
 90
        0
176
     1
 90
        0
176
     1
 40
0.6
176
     1
 40
30.0
176
     1
 62
     7
420
 16777215
176
     1
 90
        1
176
     1
 90
        4
176
     1
 62
     7
176
     1
 62
   257
176
     1
 90
        7
176
     1
 90
        7
176
     1
 40
1.0
176
     1
 90
        8
176
     1
 62
     7
176
     1
 40
1.0
176
     1
 90
        1
176
     1
 90
        6
176
     1
 90
        2
176
     1
 62
     7
176
     1
 90
        5
176
     1
 90
        0
176
     1
 90
        0
176
     1
290
     0
176
     1
 90
        1
176
     1
 40
0.0
176
     1
 90
        0
176
     1
290
     0
176
     1
290
     1
176
     1
290
     1
176
     1
290
     0
176
     1
290
     0
176
     1
290
     0
176
     1
290
     0
176
     1
290
     0
176
     1
290
     0
176
     1
 90
       50
176
     1
 40
0.0
176
     1
 40
1.0
176
     1
 90
        0
176
     1
 62
    18
420
        0
176
     1
 90
       50
176
     1
 90
        3
176
     1
 62
     5
420
      255
176
     1
290
     0
176
     1
 90
       50
176
     1
 90
       50
176
     1
 90
       50
176
     1
290
     0
176
     1
 90
       50
176
     1
 62
   256
176
     0
 40
1.0
176
     0
 90
        2
176
     1
  1
strokes_ogs.tif
176
     1
290
     0
176
     1
 40
1.0
176
     1
 40
1.0
176
     1
  0
VISUALSTYLE
  5
552
102
{ACAD_REACTORS
330
540
102
}
330
540
100
AcDbVisualStyle
  2
OverhangOff
 70
    21
177
     3
291
     1
 70
    58
 90
        2
176
     0
 90
        2
176
     0
 90
        0
176
     0
 90
        0
176
     0
 40
0.6
176
     0
 40
30.0
176
     0
 62
     7
420
 16777215
176
     0
 90
        1
176
     0
 90
        4
176
     0
 62
     7
176
     0
 62
   257
176
     0
 90
        1
176
     0
 90
        1
176
     0
 40
1.0
176
     0
 90
        9
176
     2
 62
     7
176
     0
 40
1.0
176
     0
 90
        1
176
     0
 90
        6
176
     0
 90
        2
176
     0
 62
     7
176
     0
 90
        5
176
     0
 90
        0
176
     0
 90
        0
176
     0
290
     0
176
     0
 90
        1
176
     0
 40
0.0
176
     0
 90
        0
176
     0
290
     0
176
     0
290
     1
176
     0
290
     1
176
     0
290
     0
176
     0
290
     0
176
     0
290
     0
176
     0
290
     0
176
     0
290
     0
176
     0
290
     0
176
     0
 90
       50
176
     0
 40
0.0
176
     0
 40
1.0
176
     0
 90
        0
176
     0
 62
    18
420
        0
176
     0
 90
       50
176
     0
 90
        3
176
     0
 62
     5
420
      255
176
     0
290
     0
176
     0
 90
       50
176
     0
 90
       50
176
     0
 90
       50
176
     0
290
     0
176
     0
 90
       50
176
     0
 62
   256
176
     0
 40
1.0
176
     0
 90
        2
176
     0
  1
strokes_ogs.tif
176
     0
290
     0
176
     0
 40
1.0
176
     0
 40
1.0
176
     0
  0
VISUALSTYLE
  5
549
102
{ACAD_REACTORS
330
540
102
}
330
540
100
AcDbVisualStyle
  2
Realistic
 70
     8
177
     3
291
     0
 70
    58
 90
        2
176
     1
 90
        3
176
     1
 90
        0
176
     1
 90
        2
176
     1
 40
0.6
176
     1
 40
30.0
176
     1
 62
     7
420
 16777215
176
     1
 90
        0
176
     1
 90
        0
176
     1
 62
     7
176
     1
 62
   257
176
     1
 90
        1
176
     1
 90
        1
176
     1
 40
1.0
176
     1
 90
        8
176
     1
 62
   257
176
     1
 40
1.0
176
     1
 90
        1
176
     1
 90
        6
176
     1
 90
        2
176
     1
 62
     7
176
     1
 90
        3
176
     1
 90
        0
176
     1
 90
        0
176
     1
290
     0
176
     1
 90
       13
176
     1
 40
0.0
176
     1
 90
        0
176
     1
290
     0
176
     1
290
     1
176
     1
290
     1
176
     1
290
     0
176
     1
290
     0
176
     1
290
     0
176
     1
290
     0
176
     1
290
     0
176
     1
290
     0
176
     1
 90
       50
176
     1
 40
0.0
176
     1
 40
1.0
176
     1
 90
        0
176
     1
 62
    18
420
        0
176
     1
 90
       50
176
     1
 90
        3
176
     1
 62
     5
420
      255
176
     1
290
     0
176
     1
 90
       50
176
     1
 90
       50
176
     1
 90
       50
176
     1
290
     0
176
     1
 90
       50
176
     1
 62
   256
176
     0
 40
1.0
176
     0
 90
        2
176
     1
  1
strokes_ogs.tif
176
     1
290
     0
176
     1
 40
1.0
176
     1
 40
1.0
176
     1
  0
VISUALSTYLE
  5
558
102
{ACAD_REACTORS
330
540
102
}
330
540
100
AcDbVisualStyle
  2
Shaded
 70
    27
177
     3
291
     0
 70
    58
 90
        2
176
     1
 90
        2
176
     1
 90
        1
176
     1
 90
        2
176
     1
 40
0.6
176
     1
 40
30.0
176
     1
 62
     7
420
 16777215
176
     1
 90
        0
176
     1
 90
        4
176
     1
 62
     7
176
     1
 62
   257
176
     1
 90
        1
176
     1
 90
        1
176
     1
 40
1.0
176
     1
 90
        8
176
     1
 62
   257
176
     1
 40
1.0
176
     1
 90
        1
176
     1
 90
        6
176
     1
 90
        2
176
     1
 62
     8
420
  7895160
176
     1
 90
        3
176
     1
 90
        0
176
     1
 90
        0
176
     1
290
     0
176
     1
 90
        5
176
     1
 40
0.0
176
     1
 90
        0
176
     1
290
     0
176
     1
290
     1
176
     1
290
     1
176
     1
290
     0
176
     1
290
     0
176
     1
290
     0
176
     1
290
     0
176
     1
290
     0
176
     1
290
     0
176
     1
 90
       50
176
     1
 40
0.0
176
     1
 40
1.0
176
     1
 90
        0
176
     1
 62
    18
420
        0
176
     1
 90
       50
176
     1
 90
        3
176
     1
 62
     5
420
      255
176
     1
290
     0
176
     1
 90
       50
176
     1
 90
       50
176
     1
 90
       50
176
     1
290
     0
176
     1
 90
       50
176
     1
 62
   256
176
     0
 40
1.0
176
     0
 90
        2
176
     1
  1
strokes_ogs.tif
176
     1
290
     0
176
     1
 40
1.0
176
     1
 40
1.0
176
     1
  0
VISUALSTYLE
  5
557
102
{ACAD_REACTORS
330
540
102
}
330
540
100
AcDbVisualStyle
  2
Shaded with edges
 70
    26
177
     3
291
     0
 70
    58
 90
        2
176
     1
 90
        2
176
     1
 90
        1
176
     1
 90
        2
176
     1
 40
0.6
176
     1
 40
30.0
176
     1
 62
     7
420
 16777215
176
     1
 90
        1
176
     1
 90
       10
176
     1
 62
     7
176
     1
 62
   257
176
     1
 90
        2
176
     1
 90
        1
176
     1
 40
1.0
176
     1
 90
        8
176
     1
 62
   257
176
     1
 40
1.0
176
     1
 90
        1
176
     1
 90
        6
176
     1
 90
        2
176
     1
 62
     7
176
     1
 90
        3
176
     1
 90
        0
176
     1
 90
        0
176
     1
290
     0
176
     1
 90
        5
176
     1
 40
0.0
176
     1
 90
        0
176
     1
290
     0
176
     1
290
     1
176
     1
290
     1
176
     1
290
     0
176
     1
290
     0
176
     1
290
     0
176
     1
290
     0
176
     1
290
     0
176
     1
290
     0
176
     1
 90
       50
176
     1
 40
0.0
176
     1
 40
1.0
176
     1
 90
        0
176
     1
 62
    18
420
        0
176
     1
 90
       50
176
     1
 90
        3
176
     1
 62
     5
420
      255
176
     1
290
     0
176
     1
 90
       50
176
     1
 90
       50
176
     1
 90
       50
176
     1
290
     0
176
     1
 90
       50
176
     1
 62
   256
176
     0
 40
1.0
176
     0
 90
        2
176
     1
  1
strokes_ogs.tif
176
     1
290
     0
176
     1
 40
1.0
176
     1
 40
1.0
176
     1
  0
VISUALSTYLE
  5
554
102
{ACAD_REACTORS
330
540
102
}
330
540
100
AcDbVisualStyle
  2
Shades of Gray
 70
    23
177
     3
291
     0
 70
    58
 90
        2
176
     1
 90
        2
176
     1
 90
        3
176
     1
 90
        0
176
     1
 40
0.6
176
     1
 40
30.0
176
     1
 62
     7
420
 16777215
176
     1
 90
        2
176
     1
 90
        2
176
     1
 62
     7
176
     1
 62
     7
176
     1
 90
        1
176
     1
 90
        1
176
     1
 40
40.0
176
     1
 90
        8
176
     1
 62
     7
176
     1
 40
1.0
176
     1
 90
        1
176
     1
 90
        6
176
     1
 90
        2
176
     1
 62
     7
176
     1
 90
        3
176
     1
 90
        0
176
     1
 90
        0
176
     1
290
     0
176
     1
 90
        1
176
     1
 40
0.0
176
     1
 90
        0
176
     1
290
     0
176
     1
290
     1
176
     1
290
     1
176
     1
290
     0
176
     1
290
     0
176
     1
290
     0
176
     1
290
     0
176
     1
290
     0
176
     1
290
     0
176
     1
 90
       50
176
     1
 40
0.0
176
     1
 40
1.0
176
     1
 90
        0
176
     1
 62
    18
420
        0
176
     1
 90
       50
176
     1
 90
        3
176
     1
 62
     5
420
      255
176
     1
290
     0
176
     1
 90
       50
176
     1
 90
       50
176
     1
 90
       50
176
     1
290
     0
176
     1
 90
       50
176
     1
 62
   256
176
     0
 40
1.0
176
     0
 90
        2
176
     1
  1
strokes_ogs.tif
176
     1
290
     0
176
     1
 40
1.0
176
     1
 40
1.0
176
     1
  0
VISUALSTYLE
  5
555
102
{ACAD_REACTORS
330
540
102
}
330
540
100
AcDbVisualStyle
  2
Sketchy
 70
    24
177
     3
291
     0
 70
    58
 90
        1
176
     1
 90
        2
176
     1
 90
        2
176
     1
 90
        0
176
     1
 40
0.6
176
     1
 40
30.0
176
     1
 62
     7
420
 16777215
176
     1
 90
        2
176
     1
 90
        2
176
     1
 62
     7
176
     1
 62
     7
176
     1
 90
        1
176
     1
 90
        1
176
     1
 40
40.0
176
     1
 90
       11
176
     1
 62
     7
176
     1
 40
1.0
176
     1
 90
        1
176
     1
 90
        6
176
     1
 90
        2
176
     1
 62
     7
176
     1
 90
        6
176
     1
 90
        0
176
     1
 90
        0
176
     1
290
     0
176
     1
 90
        1
176
     1
 40
0.0
176
     1
 90
        0
176
     1
290
     0
176
     1
290
     1
176
     1
290
     1
176
     1
290
     0
176
     1
290
     0
176
     1
290
     0
176
     1
290
     0
176
     1
290
     0
176
     1
290
     0
176
     1
 90
       50
176
     1
 40
0.0
176
     1
 40
1.0
176
     1
 90
        0
176
     1
 62
    18
420
        0
176
     1
 90
       50
176
     1
 90
        3
176
     1
 62
     5
420
      255
176
     1
290
     0
176
     1
 90
       50
176
     1
 90
       50
176
     1
 90
       50
176
     1
290
     0
176
     1
 90
       50
176
     1
 62
   256
176
     0
 40
1.0
176
     0
 90
        2
176
     1
  1
strokes_ogs.tif
176
     1
290
     0
176
     1
 40
1.0
176
     1
 40
1.0
176
     1
  0
VISUALSTYLE
  5
54D
102
{ACAD_REACTORS
330
540
102
}
330
540
100
AcDbVisualStyle
  2
Thicken
 70
    13
177
     3
291
     1
 70
    58
 90
        2
176
     1
 90
        2
176
     1
 90
        0
176
     1
 90
        0
176
     1
 40
0.6
176
     1
 40
30.0
176
     1
 62
     7
420
 16777215
176
     1
 90
        1
176
     1
 90
        4
176
     1
 62
     7
176
     1
 62
   257
176
     1
 90
        1
176
     1
 90
        1
176
     1
 40
1.0
176
     1
 90
       12
176
     1
 62
     7
176
     1
 40
1.0
176
     1
 90
        1
176
     1
 90
        6
176
     1
 90
        2
176
     1
 62
     7
176
     1
 90
        5
176
     1
 90
        0
176
     1
 90
        0
176
     1
290
     0
176
     1
 90
        1
176
     1
 40
0.0
176
     1
 90
        0
176
     1
290
     0
176
     1
290
     1
176
     1
290
     1
176
     1
290
     0
176
     1
290
     0
176
     1
290
     0
176
     1
290
     0
176
     1
290
     0
176
     1
290
     0
176
     1
 90
       50
176
     1
 40
0.0
176
     1
 40
1.0
176
     1
 90
        0
176
     1
 62
    18
420
        0
176
     1
 90
       50
176
     1
 90
        3
176
     1
 62
     5
420
      255
176
     1
290
     0
176
     1
 90
       50
176
     1
 90
       50
176
     1
 90
       50
176
     1
290
     0
176
     1
 90
       50
176
     1
 62
   256
176
     0
 40
1.0
176
     0
 90
        2
176
     1
  1
strokes_ogs.tif
176
     1
290
     0
176
     1
 40
1.0
176
     1
 40
1.0
176
     1
  0
VISUALSTYLE
  5
546
102
{ACAD_REACTORS
330
540
102
}
330
540
100
AcDbVisualStyle
  2
Wireframe
 70
     5
177
     3
291
     0
 70
    58
 90
        0
176
     1
 90
        2
176
     1
 90
        0
176
     1
 90
        0
176
     1
 40
0.6
176
     1
 40
30.0
176
     1
 62
     7
420
 16777215
176
     1
 90
        1
176
     1
 90
        4
176
     1
 62
     7
176
     1
 62
   257
176
     1
 90
        1
176
     1
 90
        1
176
     1
 40
1.0
176
     1
 90
        0
176
     1
 62
   257
176
     1
 40
1.0
176
     1
 90
        1
176
     1
 90
        6
176
     1
 90
        2
176
     1
 62
     7
176
     1
 90
        3
176
     1
 90
        0
176
     1
 90
        0
176
     1
290
     0
176
     1
 90
        1
176
     1
 40
0.0
176
     1
 90
        0
176
     1
290
     0
176
     1
290
     1
176
     1
290
     1
176
     1
290
     0
176
     1
290
     0
176
     1
290
     0
176
     1
290
     0
176
     1
290
     0
176
     1
290
     0
176
     1
 90
       50
176
     1
 40
0.0
176
     1
 40
1.0
176
     1
 90
        0
176
     1
 62
    18
420
        0
176
     1
 90
       50
176
     1
 90
        3
176
     1
 62
     5
420
      255
176
     1
290
     0
176
     1
 90
       50
176
     1
 90
       50
176
     1
 90
       50
176
     1
290
     0
176
     1
 90
       50
176
     1
 62
   256
176
     0
 40
1.0
176
     0
 90
        2
176
     1
  1
strokes_ogs.tif
176
     1
290
     0
176
     1
 40
1.0
176
     1
 40
1.0
176
     1
  0
VISUALSTYLE
  5
556
102
{ACAD_REACTORS
330
540
102
}
330
540
100
AcDbVisualStyle
  2
X-Ray
 70
    25
177
     3
291
     0
 70
    58
 90
        2
176
     1
 90
        2
176
     1
 90
        1
176
     1
 90
        1
176
     1
 40
0.5
176
     1
 40
30.0
176
     1
 62
     7
420
 16777215
176
     1
 90
        1
176
     1
 90
        0
176
     1
 62
     7
176
     1
 62
   257
176
     1
 90
        1
176
     1
 90
        1
176
     1
 40
1.0
176
     1
 90
        8
176
     1
 62
     7
176
     1
 40
1.0
176
     1
 90
        1
176
     1
 90
        6
176
     1
 90
        2
176
     1
 62
     7
176
     1
 90
        3
176
     1
 90
        0
176
     1
 90
        0
176
     1
290
     0
176
     1
 90
       13
176
     1
 40
0.0
176
     1
 90
        0
176
     1
290
     0
176
     1
290
     1
176
     1
290
     1
176
     1
290
     0
176
     1
290
     0
176
     1
290
     0
176
     1
290
     0
176
     1
290
     0
176
     1
290
     0
176
     1
 90
       50
176
     1
 40
0.0
176
     1
 40
1.0
176
     1
 90
        0
176
     1
 62
    18
420
        0
176
     1
 90
       50
176
     1
 90
        3
176
     1
 62
     5
420
      255
176
     1
290
     0
176
     1
 90
       50
176
     1
 90
       50
176
     1
 90
       50
176
     1
290
     0
176
     1
 90
       50
176
     1
 62
   256
176
     0
 40
1.0
176
     0
 90
        2
176
     1
  1
strokes_ogs.tif
176
     1
290
     0
176
     1
 40
1.0
176
     1
 40
1.0
176
     1
  0
DICTIONARYVAR
  5
563
102
{ACAD_REACTORS
330
562
102
}
330
562
100
DictionaryVariables
280
     0
  1
1:1
  0
DICTIONARYVAR
  5
568
102
{ACAD_REACTORS
330
562
102
}
330
562
100
DictionaryVariables
280
     0
  1
Standard
  0
DICTIONARYVAR
  5
567
102
{ACAD_REACTORS
330
562
102
}
330
562
100
DictionaryVariables
280
     0
  1
Standard
  0
DICTIONARYVAR
  5
569
102
{ACAD_REACTORS
330
562
102
}
330
562
100
DictionaryVariables
280
     0
  1
0
  0
DICTIONARY
  5
564
330
55E
100
AcDbDictionary
280
     1
281
     1
  3
ACAD_ROUNDTRIP_2008_TABLESTYLE_CELLSTYLEMAP
360
565
  0
CELLSTYLEMAP
  5
565
102
{ACAD_REACTORS
330
564
102
}
330
564
100
AcDbCellStyleMap
 90
        3
300
CELLSTYLE
  1
TABLEFORMAT_BEGIN
 90
        5
170
     1
 91
        0
 92
    32768
 62
   257
 93
        1
300
CONTENTFORMAT
  1
CONTENTFORMAT_BEGIN
 90
        0
 91
        0
 92
        4
 93
        0
300

 40
0.0
140
1.0
 94
        5
 62
     0
340
11
144
6.0
309
CONTENTFORMAT_END
171
     1
301
MARGIN
  1
CELLMARGIN_BEGIN
 40
1.5
 40
1.5
 40
1.5
 40
1.5
 40
1.5
 40
1.5
309
CELLMARGIN_END
 94
        6
 95
        1
302
GRIDFORMAT
  1
GRIDFORMAT_BEGIN
 90
        0
 91
        1
 62
     0
 92
       -2
340
14
 93
        0
 40
0.045
309
GRIDFORMAT_END
 95
        2
302
GRIDFORMAT
  1
GRIDFORMAT_BEGIN
 90
        0
 91
        1
 62
     0
 92
       -2
340
14
 93
        0
 40
0.045
309
GRIDFORMAT_END
 95
        4
302
GRIDFORMAT
  1
GRIDFORMAT_BEGIN
 90
        0
 91
        1
 62
     0
 92
       -2
340
14
 93
        0
 40
0.045
309
GRIDFORMAT_END
 95
        8
302
GRIDFORMAT
  1
GRIDFORMAT_BEGIN
 90
        0
 91
        1
 62
     0
 92
       -2
340
14
 93
        0
 40
0.045
309
GRIDFORMAT_END
 95
       16
302
GRIDFORMAT
  1
GRIDFORMAT_BEGIN
 90
        0
 91
        1
 62
     0
 92
       -2
340
14
 93
        0
 40
0.045
309
GRIDFORMAT_END
 95
       32
302
GRIDFORMAT
  1
GRIDFORMAT_BEGIN
 90
        0
 91
        1
 62
     0
 92
       -2
340
14
 93
        0
 40
0.045
309
GRIDFORMAT_END
309
TABLEFORMAT_END
  1
CELLSTYLE_BEGIN
 90
        1
 91
        1
300
_TITLE
309
CELLSTYLE_END
300
CELLSTYLE
  1
TABLEFORMAT_BEGIN
 90
        5
170
     1
 91
        0
 92
        0
 62
   257
 93
        1
300
CONTENTFORMAT
  1
CONTENTFORMAT_BEGIN
 90
        0
 91
        0
 92
        4
 93
        0
300

 40
0.0
140
1.0
 94
        5
 62
     0
340
11
144
4.5
309
CONTENTFORMAT_END
171
     1
301
MARGIN
  1
CELLMARGIN_BEGIN
 40
1.5
 40
1.5
 40
1.5
 40
1.5
 40
1.5
 40
1.5
309
CELLMARGIN_END
 94
        6
 95
        1
302
GRIDFORMAT
  1
GRIDFORMAT_BEGIN
 90
        0
 91
        1
 62
     0
 92
       -2
340
14
 93
        0
 40
0.045
309
GRIDFORMAT_END
 95
        2
302
GRIDFORMAT
  1
GRIDFORMAT_BEGIN
 90
        0
 91
        1
 62
     0
 92
       -2
340
14
 93
        0
 40
0.045
309
GRIDFORMAT_END
 95
        4
302
GRIDFORMAT
  1
GRIDFORMAT_BEGIN
 90
        0
 91
        1
 62
     0
 92
       -2
340
14
 93
        0
 40
0.045
309
GRIDFORMAT_END
 95
        8
302
GRIDFORMAT
  1
GRIDFORMAT_BEGIN
 90
        0
 91
        1
 62
     0
 92
       -2
340
14
 93
        0
 40
0.045
309
GRIDFORMAT_END
 95
       16
302
GRIDFORMAT
  1
GRIDFORMAT_BEGIN
 90
        0
 91
        1
 62
     0
 92
       -2
340
14
 93
        0
 40
0.045
309
GRIDFORMAT_END
 95
       32
302
GRIDFORMAT
  1
GRIDFORMAT_BEGIN
 90
        0
 91
        1
 62
     0
 92
       -2
340
14
 93
        0
 40
0.045
309
GRIDFORMAT_END
309
TABLEFORMAT_END
  1
CELLSTYLE_BEGIN
 90
        2
 91
        1
300
_HEADER
309
CELLSTYLE_END
300
CELLSTYLE
  1
TABLEFORMAT_BEGIN
 90
        5
170
     1
 91
        0
 92
        0
 62
   257
 93
        1
300
CONTENTFORMAT
  1
CONTENTFORMAT_BEGIN
 90
        0
 91
        0
 92
        4
 93
        0
300

 40
0.0
140
1.0
 94
        2
 62
     0
340
11
144
4.5
309
CONTENTFORMAT_END
171
     1
301
MARGIN
  1
CELLMARGIN_BEGIN
 40
1.5
 40
1.5
 40
1.5
 40
1.5
 40
1.5
 40
1.5
309
CELLMARGIN_END
 94
        6
 95
        1
302
GRIDFORMAT
  1
GRIDFORMAT_BEGIN
 90
        0
 91
        1
 62
     0
 92
       -2
340
14
 93
        0
 40
0.045
309
GRIDFORMAT_END
 95
        2
302
GRIDFORMAT
  1
GRIDFORMAT_BEGIN
 90
        0
 91
        1
 62
     0
 92
       -2
340
14
 93
        0
 40
0.045
309
GRIDFORMAT_END
 95
        4
302
GRIDFORMAT
  1
GRIDFORMAT_BEGIN
 90
        0
 91
        1
 62
     0
 92
       -2
340
14
 93
        0
 40
0.045
309
GRIDFORMAT_END
 95
        8
302
GRIDFORMAT
  1
GRIDFORMAT_BEGIN
 90
        0
 91
        1
 62
     0
 92
       -2
340
14
 93
        0
 40
0.045
309
GRIDFORMAT_END
 95
       16
302
GRIDFORMAT
  1
GRIDFORMAT_BEGIN
 90
        0
 91
        1
 62
     0
 92
       -2
340
14
 93
        0
 40
0.045
309
GRIDFORMAT_END
 95
       32
302
GRIDFORMAT
  1
GRIDFORMAT_BEGIN
 90
        0
 91
        1
 62
     0
 92
       -2
340
14
 93
        0
 40
0.045
309
GRIDFORMAT_END
309
TABLEFORMAT_END
  1
CELLSTYLE_BEGIN
 90
        3
 91
        2
300
_DATA
309
CELLSTYLE_END
  0
ENDSEC
  0
EOF
