  0
SECTION
  2
HEADER
  9
$ACADVER
  1
AC1027
  9
$ACADMAINTVER
 70
   105
  9
$DWGCODEPAGE
  3
ANSI_1252
  9
$REQUIREDVERSIONS
160
                 0
  9
$LASTSAVEDBY
  1
andrea.zolin
  9
$INSBASE
 10
0.0
 20
0.0
 30
0.0
  9
$EXTMIN
 10
0.0
 20
0.0
 30
0.0
  9
$EXTMAX
 10
420.0
 20
297.0
 30
0.0
  9
$LIMMIN
 10
0.0
 20
0.0
  9
$LIMMAX
 10
420.0
 20
297.0
  9
$ORTHOMODE
 70
     0
  9
$REGENMODE
 70
     1
  9
$FILLMODE
 70
     1
  9
$QTEXTMODE
 70
     0
  9
$MIRRTEXT
 70
     1
  9
$LTSCALE
 40
23.1
  9
$ATTMODE
 70
     1
  9
$TEXTSIZE
 40
0.2
  9
$TRACEWID
 40
0.05
  9
$TEXTSTYLE
  7
STANDARD
  9
$CLAYER
  8
0
  9
$CELTYPE
  6
BYLAYER
  9
$CECOLOR
 62
   256
  9
$CELTSCALE
 40
1.0
  9
$DISPSILH
 70
     0
  9
$DIMSCALE
 40
1.0
  9
$DIMASZ
 40
2.5
  9
$DIMEXO
 40
0.75
  9
$DIMDLI
 40
15.96
  9
$DIMRND
 40
0.0
  9
$DIMDLE
 40
0.0
  9
$DIMEXE
 40
0.75
  9
$DIMTP
 40
0.01
  9
$DIMTM
 40
0.01
  9
$DIMTXT
 40
3.0
  9
$DIMCEN
 40
3.78
  9
$DIMTSZ
 40
0.0
  9
$DIMTOL
 70
     1
  9
$DIMLIM
 70
     0
  9
$DIMTIH
 70
     1
  9
$DIMTOH
 70
     1
  9
$DIMSE1
 70
     0
  9
$DIMSE2
 70
     0
  9
$DIMTAD
 70
     0
  9
$DIMZIN
 70
     0
  9
$DIMBLK
  1
CLOSED
  9
$DIMASO
 70
     1
  9
$DIMSHO
 70
     1
  9
$DIMPOST
  1

  9
$DIMAPOST
  1

  9
$DIMALT
 70
     0
  9
$DIMALTD
 70
     2
  9
$DIMALTF
 40
25.4
  9
$DIMLFAC
 40
1.0
  9
$DIMTOFL
 70
     0
  9
$DIMTVP
 40
0.0
  9
$DIMTIX
 70
     0
  9
$DIMSOXD
 70
     0
  9
$DIMSAH
 70
     0
  9
$DIMBLK1
  1

  9
$DIMBLK2
  1

  9
$DIMSTYLE
  2
STANDARD
  9
$DIMCLRD
 70
     0
  9
$DIMCLRE
 70
     0
  9
$DIMCLRT
 70
     0
  9
$DIMTFAC
 40
1.0
  9
$DIMGAP
 40
0.625
  9
$DIMJUST
 70
     0
  9
$DIMSD1
 70
     0
  9
$DIMSD2
 70
     0
  9
$DIMTOLJ
 70
     1
  9
$DIMTZIN
 70
     0
  9
$DIMALTZ
 70
     0
  9
$DIMALTTZ
 70
     0
  9
$DIMUPT
 70
     0
  9
$DIMDEC
 70
     4
  9
$DIMTDEC
 70
     4
  9
$DIMALTU
 70
     2
  9
$DIMALTTD
 70
     2
  9
$DIMTXSTY
  7
STANDARD
  9
$DIMAUNIT
 70
     0
  9
$DIMADEC
 70
     0
  9
$DIMALTRND
 40
0.0
  9
$DIMAZIN
 70
     0
  9
$DIMDSEP
 70
    46
  9
$DIMATFIT
 70
     3
  9
$DIMFRAC
 70
     0
  9
$DIMLDRBLK
  1

  9
$DIMLUNIT
 70
     2
  9
$DIMLWD
 70
    -2
  9
$DIMLWE
 70
    -2
  9
$DIMTMOVE
 70
     2
  9
$DIMFXL
 40
1.0
  9
$DIMFXLON
 70
     0
  9
$DIMJOGANG
 40
0.7853981633974483
  9
$DIMTFILL
 70
     0
  9
$DIMTFILLCLR
 70
     0
  9
$DIMARCSYM
 70
     0
  9
$DIMLTYPE
  6

  9
$DIMLTEX1
  6

  9
$DIMLTEX2
  6

  9
$DIMTXTDIRECTION
 70
     0
  9
$LUNITS
 70
     2
  9
$LUPREC
 70
     4
  9
$SKETCHINC
 40
0.1
  9
$FILLETRAD
 40
0.5
  9
$AUNITS
 70
     0
  9
$AUPREC
 70
     0
  9
$MENU
  1
.
  9
$ELEVATION
 40
0.0
  9
$PELEVATION
 40
0.0
  9
$THICKNESS
 40
0.0
  9
$LIMCHECK
 70
     0
  9
$CHAMFERA
 40
0.0
  9
$CHAMFERB
 40
0.0
  9
$CHAMFERC
 40
0.0
  9
$CHAMFERD
 40
0.0
  9
$SKPOLY
 70
     0
  9
$TDCREATE
 40
2447893.041666667
  9
$TDUCREATE
 40
0.0
  9
$TDUPDATE
 40
2458473.691592708
  9
$TDUUPDATE
 40
2458473.649926042
  9
$TDINDWG
 40
0.0002823032
  9
$TDUSRTIMER
 40
0.0002823032
  9
$USRTIMER
 70
     1
  9
$ANGBASE
 50
0.0
  9
$ANGDIR
 70
     0
  9
$PDMODE
 70
     3
  9
$PDSIZE
 40
0.3125
  9
$PLINEWID
 40
0.0
  9
$SPLFRAME
 70
     0
  9
$SPLINETYPE
 70
     6
  9
$SPLINESEGS
 70
     8
  9
$HANDSEED
  5
3EA
  9
$SURFTAB1
 70
     6
  9
$SURFTAB2
 70
     6
  9
$SURFTYPE
 70
     6
  9
$SURFU
 70
     6
  9
$SURFV
 70
     6
  9
$UCSBASE
  2

  9
$UCSNAME
  2

  9
$UCSORG
 10
0.0
 20
0.0
 30
0.0
  9
$UCSXDIR
 10
1.0
 20
0.0
 30
0.0
  9
$UCSYDIR
 10
0.0
 20
1.0
 30
0.0
  9
$UCSORTHOREF
  2

  9
$UCSORTHOVIEW
 70
     0
  9
$UCSORGTOP
 10
0.0
 20
0.0
 30
0.0
  9
$UCSORGBOTTOM
 10
0.0
 20
0.0
 30
0.0
  9
$UCSORGLEFT
 10
0.0
 20
0.0
 30
0.0
  9
$UCSORGRIGHT
 10
0.0
 20
0.0
 30
0.0
  9
$UCSORGFRONT
 10
0.0
 20
0.0
 30
0.0
  9
$UCSORGBACK
 10
0.0
 20
0.0
 30
0.0
  9
$PUCSBASE
  2

  9
$PUCSNAME
  2

  9
$PUCSORG
 10
0.0
 20
0.0
 30
0.0
  9
$PUCSXDIR
 10
1.0
 20
0.0
 30
0.0
  9
$PUCSYDIR
 10
0.0
 20
1.0
 30
0.0
  9
$PUCSORTHOREF
  2

  9
$PUCSORTHOVIEW
 70
     0
  9
$PUCSORGTOP
 10
0.0
 20
0.0
 30
0.0
  9
$PUCSORGBOTTOM
 10
0.0
 20
0.0
 30
0.0
  9
$PUCSORGLEFT
 10
0.0
 20
0.0
 30
0.0
  9
$PUCSORGRIGHT
 10
0.0
 20
0.0
 30
0.0
  9
$PUCSORGFRONT
 10
0.0
 20
0.0
 30
0.0
  9
$PUCSORGBACK
 10
0.0
 20
0.0
 30
0.0
  9
$USERI1
 70
     0
  9
$USERI2
 70
     0
  9
$USERI3
 70
     0
  9
$USERI4
 70
     0
  9
$USERI5
 70
     0
  9
$USERR1
 40
0.0
  9
$USERR2
 40
0.0
  9
$USERR3
 40
0.0
  9
$USERR4
 40
0.0
  9
$USERR5
 40
0.0
  9
$WORLDVIEW
 70
     1
  9
$SHADEDGE
 70
     3
  9
$SHADEDIF
 70
    70
  9
$TILEMODE
 70
     0
  9
$MAXACTVP
 70
    64
  9
$PINSBASE
 10
0.0
 20
0.0
 30
0.0
  9
$PLIMCHECK
 70
     0
  9
$PEXTMIN
 10
0.0
 20
0.0
 30
0.0
  9
$PEXTMAX
 10
420.0
 20
297.0
 30
0.0
  9
$PLIMMIN
 10
-8.667315175097276
 20
-23.11284046692607
  9
$PLIMMAX
 10
476.7023346303502
 20
320.1128404669261
  9
$UNITMODE
 70
     0
  9
$VISRETAIN
 70
     1
  9
$PLINEGEN
 70
     0
  9
$PSLTSCALE
 70
     1
  9
$TREEDEPTH
 70
  3020
  9
$CMLSTYLE
  2
STANDARD
  9
$CMLJUST
 70
     0
  9
$CMLSCALE
 40
1.0
  9
$PROXYGRAPHICS
 70
     1
  9
$MEASUREMENT
 70
     1
  9
$CELWEIGHT
370
    -1
  9
$ENDCAPS
280
     0
  9
$JOINSTYLE
280
     0
  9
$LWDISPLAY
290
     0
  9
$INSUNITS
 70
     0
  9
$HYPERLINKBASE
  1

  9
$STYLESHEET
  1

  9
$XEDIT
290
     1
  9
$CEPSNTYPE
380
     0
  9
$PSTYLEMODE
290
     1
  9
$FINGERPRINTGUID
  2
{D2BAF9C8-1653-4E1E-89E1-89C60C190C58}
  9
$VERSIONGUID
  2
{FAEB1C32-E019-11D5-929B-00C0DF256EC4}
  9
$EXTNAMES
290
     1
  9
$PSVPSCALE
 40
0.0
  9
$OLESTARTUP
290
     0
  9
$SORTENTS
280
   127
  9
$INDEXCTL
280
     0
  9
$HIDETEXT
280
     1
  9
$XCLIPFRAME
280
     2
  9
$HALOGAP
280
     0
  9
$OBSCOLOR
 70
   257
  9
$OBSLTYPE
280
     0
  9
$INTERSECTIONDISPLAY
280
     0
  9
$INTERSECTIONCOLOR
 70
   257
  9
$DIMASSOC
280
     2
  9
$PROJECTNAME
  1

  9
$CAMERADISPLAY
290
     0
  9
$LENSLENGTH
 40
50.0
  9
$CAMERAHEIGHT
 40
0.0
  9
$STEPSPERSEC
 40
2.0
  9
$STEPSIZE
 40
6.0
  9
$3DDWFPREC
 40
2.0
  9
$PSOLWIDTH
 40
0.25
  9
$PSOLHEIGHT
 40
4.0
  9
$LOFTANG1
 40
1.570796326794897
  9
$LOFTANG2
 40
1.570796326794897
  9
$LOFTMAG1
 40
0.0
  9
$LOFTMAG2
 40
0.0
  9
$LOFTPARAM
 70
     7
  9
$LOFTNORMALS
280
     1
  9
$LATITUDE
 40
37.795
  9
$LONGITUDE
 40
-122.394
  9
$NORTHDIRECTION
 40
0.0
  9
$TIMEZONE
 70
 -8000
  9
$LIGHTGLYPHDISPLAY
280
     1
  9
$TILEMODELIGHTSYNCH
280
     1
  9
$SOLIDHIST
280
     0
  9
$SHOWHIST
280
     1
  9
$DWFFRAME
280
     2
  9
$DGNFRAME
280
     2
  9
$REALWORLDSCALE
290
     1
  9
$INTERFERECOLOR
 62
   256
  9
$CSHADOW
280
     0
  9
$SHADOWPLANELOCATION
 40
0.0
  0
ENDSEC
  0
SECTION
  2
CLASSES
  0
CLASS
  1
ACDBDICTIONARYWDFLT
  2
AcDbDictionaryWithDefault
  3
ObjectDBX Classes
 90
        0
 91
        4
280
     0
281
     0
  0
CLASS
  1
SCALE
  2
AcDbScale
  3
ObjectDBX Classes
 90
     1153
 91
        4
280
     0
281
     0
  0
CLASS
  1
VISUALSTYLE
  2
AcDbVisualStyle
  3
ObjectDBX Classes
 90
     4095
 91
        4
280
     0
281
     0
  0
CLASS
  1
MATERIAL
  2
AcDbMaterial
  3
ObjectDBX Classes
 90
     1153
 91
        4
280
     0
281
     0
  0
CLASS
  1
TABLESTYLE
  2
AcDbTableStyle
  3
ObjectDBX Classes
 90
     4095
 91
        4
280
     0
281
     0
  0
CLASS
  1
MLEADERSTYLE
  2
AcDbMLeaderStyle
  3
ACDB_MLEADERSTYLE_CLASS
 90
     4095
 91
        4
280
     0
281
     0
  0
CLASS
  1
DICTIONARYVAR
  2
AcDbDictionaryVar
  3
ObjectDBX Classes
 90
        0
 91
        4
280
     0
281
     0
  0
CLASS
  1
CELLSTYLEMAP
  2
AcDbCellStyleMap
  3
ObjectDBX Classes
 90
     1152
 91
        4
280
     0
281
     0
  0
ENDSEC
  0
SECTION
  2
TABLES
  0
TABLE
  2
VPORT
  5
8
330
0
100
AcDbSymbolTable
 70
     1
  0
VPORT
  5
1F4
330
8
100
AcDbSymbolTableRecord
100
AcDbViewportTableRecord
  2
*ACTIVE
 70
     0
 10
0.0
 20
0.0
 11
1.0
 21
1.0
 12
210.0
 22
148.5
 13
0.0
 23
0.0
 14
1.0
 24
1.0
 15
0.0
 25
0.0
 16
0.0
 26
0.0
 36
1.0
 17
0.0
 27
0.0
 37
0.0
 40
297.0
 41
1.4141414141
 42
50.0
 43
0.0
 44
0.0
 50
0.0
 51
0.0
 71
     0
 72
   100
 73
     1
 74
     1
 75
     0
 76
     0
 77
     0
 78
     0
281
     0
 65
     1
110
0.0
120
0.0
130
0.0
111
1.0
121
0.0
131
0.0
112
0.0
122
1.0
132
0.0
 79
     0
146
0.0
348
3C3
 60
     3
 61
     5
292
     1
282
     1
141
0.0
142
0.0
 63
   256
  0
ENDTAB
  0
TABLE
  2
LTYPE
  5
5
330
0
100
AcDbSymbolTable
 70
     6
  0
LTYPE
  5
14
330
5
100
AcDbSymbolTableRecord
100
AcDbLinetypeTableRecord
  2
BYBLOCK
 70
     0
  3

 72
    65
 73
     0
 40
0.0
  0
LTYPE
  5
15
330
5
100
AcDbSymbolTableRecord
100
AcDbLinetypeTableRecord
  2
BYLAYER
 70
     0
  3

 72
    65
 73
     0
 40
0.0
  0
LTYPE
  5
16
330
5
100
AcDbSymbolTableRecord
100
AcDbLinetypeTableRecord
  2
CONTINUOUS
 70
     0
  3
Solid line
 72
    65
 73
     0
 40
0.0
  0
LTYPE
  5
1F5
330
5
100
AcDbSymbolTableRecord
100
AcDbLinetypeTableRecord
  2
CENTER
 70
     0
  3
____ _ ____ _ ____ _ ____ _ ____ _ ____ _ ____
 72
    65
 73
     4
 40
0.6
 49
0.375
 74
     0
 49
-0.075
 74
     0
 49
0.075
 74
     0
 49
-0.075
 74
     0
  0
LTYPE
  5
1F6
330
5
100
AcDbSymbolTableRecord
100
AcDbLinetypeTableRecord
  2
HIDDEN
 70
     0
  3
- - - - - - - - - - - - - - - - - - - -
 72
    65
 73
     2
 40
0.2
 49
0.1
 74
     0
 49
-0.1
 74
     0
  0
LTYPE
  5
1F7
330
5
100
AcDbSymbolTableRecord
100
AcDbLinetypeTableRecord
  2
PHANTOM
 70
     0
  3
_____ _ _ _____ _ _ _____ _ _ _____
 72
    65
 73
     6
 40
0.8
 49
0.45
 74
     0
 49
-0.05
 74
     0
 49
0.1
 74
     0
 49
-0.05
 74
     0
 49
0.1
 74
     0
 49
-0.05
 74
     0
  0
LTYPE
  5
1F8
330
5
100
AcDbSymbolTableRecord
100
AcDbLinetypeTableRecord
  2
DOT
 70
     0
  3
. . . . . . . . . . . . . . . . . . . .
 72
    65
 73
     2
 40
0.2
 49
0.1
 74
     0
 49
-0.1
 74
     0
  0
LTYPE
  5
1F9
330
5
100
AcDbSymbolTableRecord
100
AcDbLinetypeTableRecord
  2
DASHED
 70
     0
  3
- - - - - - - - - - - - - - - - - - - -
 72
    65
 73
     2
 40
0.2
 49
0.1
 74
     0
 49
-0.1
 74
     0
  0
ENDTAB
  0
TABLE
  2
LAYER
  5
2
330
0
100
AcDbSymbolTable
 70
    35
  0
LAYER
  5
10
330
2
100
AcDbSymbolTableRecord
100
AcDbLayerTableRecord
  2
0
 70
     0
 62
     7
  6
CONTINUOUS
370
    -3
390
398
347
3DA
348
0
  0
LAYER
  5
1FA
330
2
100
AcDbSymbolTableRecord
100
AcDbLayerTableRecord
  2
DEFAULT_1
 70
     0
 62
     7
  6
CENTER
370
    -3
390
398
347
3DA
348
0
  0
LAYER
  5
1FB
330
2
100
AcDbSymbolTableRecord
100
AcDbLayerTableRecord
  2
DEFAULT_2
 70
     0
 62
     8
  6
HIDDEN
370
    -3
390
398
347
3DA
348
0
  0
LAYER
  5
1FC
330
2
100
AcDbSymbolTableRecord
100
AcDbLayerTableRecord
  2
DEFAULT_3
 70
     0
 62
     7
  6
PHANTOM
370
    -3
390
398
347
3DA
348
0
  0
LAYER
  5
1FD
330
2
100
AcDbSymbolTableRecord
100
AcDbLayerTableRecord
  2
01_ALL_DTM_PLN
 70
     0
 62
     7
  6
CONTINUOUS
370
    -3
390
398
347
3DA
348
0
  0
LAYER
  5
1FE
330
2
100
AcDbSymbolTableRecord
100
AcDbLayerTableRecord
  2
01__ASM_ALL_DTM_PLN
 70
     0
 62
     7
  6
CONTINUOUS
370
    -3
390
398
347
3DA
348
0
  0
LAYER
  5
1FF
330
2
100
AcDbSymbolTableRecord
100
AcDbLayerTableRecord
  2
01__ASM_DEF_DTM_PLN
 70
     0
 62
     7
  6
CONTINUOUS
370
    -3
390
398
347
3DA
348
0
  0
LAYER
  5
200
330
2
100
AcDbSymbolTableRecord
100
AcDbLayerTableRecord
  2
01___PRT_ALL_DTM_PLN
 70
     0
 62
     7
  6
CONTINUOUS
370
    -3
390
398
347
3DA
348
0
  0
LAYER
  5
201
330
2
100
AcDbSymbolTableRecord
100
AcDbLayerTableRecord
  2
01___PRT_DEF_DTM_PLN
 70
     0
 62
     7
  6
CONTINUOUS
370
    -3
390
398
347
3DA
348
0
  0
LAYER
  5
202
330
2
100
AcDbSymbolTableRecord
100
AcDbLayerTableRecord
  2
02_ALL_AXES
 70
     0
 62
     7
  6
CONTINUOUS
370
    -3
390
398
347
3DA
348
0
  0
LAYER
  5
203
330
2
100
AcDbSymbolTableRecord
100
AcDbLayerTableRecord
  2
02__ASM_ALL_AXES
 70
     0
 62
     7
  6
CONTINUOUS
370
    -3
390
398
347
3DA
348
0
  0
LAYER
  5
204
330
2
100
AcDbSymbolTableRecord
100
AcDbLayerTableRecord
  2
02___PRT_ALL_AXES
 70
     0
 62
     7
  6
CONTINUOUS
370
    -3
390
398
347
3DA
348
0
  0
LAYER
  5
205
330
2
100
AcDbSymbolTableRecord
100
AcDbLayerTableRecord
  2
03_ALL_CURVES
 70
     0
 62
     7
  6
CONTINUOUS
370
    -3
390
398
347
3DA
348
0
  0
LAYER
  5
206
330
2
100
AcDbSymbolTableRecord
100
AcDbLayerTableRecord
  2
03__ASM_ALL_CURVES
 70
     0
 62
     7
  6
CONTINUOUS
370
    -3
390
398
347
3DA
348
0
  0
LAYER
  5
207
330
2
100
AcDbSymbolTableRecord
100
AcDbLayerTableRecord
  2
03___PRT_ALL_CURVES
 70
     0
 62
     7
  6
CONTINUOUS
370
    -3
390
398
347
3DA
348
0
  0
LAYER
  5
208
330
2
100
AcDbSymbolTableRecord
100
AcDbLayerTableRecord
  2
04_ALL_DTM_PNT
 70
     0
 62
     7
  6
CONTINUOUS
370
    -3
390
398
347
3DA
348
0
  0
LAYER
  5
209
330
2
100
AcDbSymbolTableRecord
100
AcDbLayerTableRecord
  2
04__ASM_ALL_DTM_PNT
 70
     0
 62
     7
  6
CONTINUOUS
370
    -3
390
398
347
3DA
348
0
  0
LAYER
  5
20A
330
2
100
AcDbSymbolTableRecord
100
AcDbLayerTableRecord
  2
04___PRT_ALL_DTM_PNT
 70
     0
 62
     7
  6
CONTINUOUS
370
    -3
390
398
347
3DA
348
0
  0
LAYER
  5
20B
330
2
100
AcDbSymbolTableRecord
100
AcDbLayerTableRecord
  2
05_ALL_DTM_CSYS
 70
     0
 62
     7
  6
CONTINUOUS
370
    -3
390
398
347
3DA
348
0
  0
LAYER
  5
20C
330
2
100
AcDbSymbolTableRecord
100
AcDbLayerTableRecord
  2
05__ASM_ALL_DTM_CSYS
 70
     0
 62
     7
  6
CONTINUOUS
370
    -3
390
398
347
3DA
348
0
  0
LAYER
  5
20D
330
2
100
AcDbSymbolTableRecord
100
AcDbLayerTableRecord
  2
05__ASM_DEF_DTM_CSYS
 70
     0
 62
     7
  6
CONTINUOUS
370
    -3
390
398
347
3DA
348
0
  0
LAYER
  5
20E
330
2
100
AcDbSymbolTableRecord
100
AcDbLayerTableRecord
  2
05___PRT_ALL_DTM_CSYS
 70
     0
 62
     7
  6
CONTINUOUS
370
    -3
390
398
347
3DA
348
0
  0
LAYER
  5
20F
330
2
100
AcDbSymbolTableRecord
100
AcDbLayerTableRecord
  2
05___PRT_DEF_DTM_CSYS
 70
     0
 62
     7
  6
CONTINUOUS
370
    -3
390
398
347
3DA
348
0
  0
LAYER
  5
210
330
2
100
AcDbSymbolTableRecord
100
AcDbLayerTableRecord
  2
06_ALL_SURFS
 70
     0
 62
     7
  6
CONTINUOUS
370
    -3
390
398
347
3DA
348
0
  0
LAYER
  5
211
330
2
100
AcDbSymbolTableRecord
100
AcDbLayerTableRecord
  2
06__ASM_ALL_SURFS
 70
     0
 62
     7
  6
CONTINUOUS
370
    -3
390
398
347
3DA
348
0
  0
LAYER
  5
212
330
2
100
AcDbSymbolTableRecord
100
AcDbLayerTableRecord
  2
06___PRT_ALL_SURFS
 70
     0
 62
     7
  6
CONTINUOUS
370
    -3
390
398
347
3DA
348
0
  0
LAYER
  5
213
330
2
100
AcDbSymbolTableRecord
100
AcDbLayerTableRecord
  2
07__ASM_ALL_SKELETONS
 70
     0
 62
     7
  6
CONTINUOUS
370
    -3
390
398
347
3DA
348
0
  0
LAYER
  5
214
330
2
100
AcDbSymbolTableRecord
100
AcDbLayerTableRecord
  2
1_ALL_PLANES
 70
     0
 62
     7
  6
CONTINUOUS
370
    -3
390
398
347
3DA
348
0
  0
LAYER
  5
215
330
2
100
AcDbSymbolTableRecord
100
AcDbLayerTableRecord
  2
2_ALL_CSYS
 70
     0
 62
     7
  6
CONTINUOUS
370
    -3
390
398
347
3DA
348
0
  0
LAYER
  5
216
330
2
100
AcDbSymbolTableRecord
100
AcDbLayerTableRecord
  2
3_ALL_AXES
 70
     0
 62
     7
  6
CONTINUOUS
370
    -3
390
398
347
3DA
348
0
  0
LAYER
  5
217
330
2
100
AcDbSymbolTableRecord
100
AcDbLayerTableRecord
  2
4_ALL_POINTS
 70
     0
 62
     7
  6
CONTINUOUS
370
    -3
390
398
347
3DA
348
0
  0
LAYER
  5
218
330
2
100
AcDbSymbolTableRecord
100
AcDbLayerTableRecord
  2
5_ALL_CURVES
 70
     0
 62
     7
  6
CONTINUOUS
370
    -3
390
398
347
3DA
348
0
  0
LAYER
  5
219
330
2
100
AcDbSymbolTableRecord
100
AcDbLayerTableRecord
  2
6_ALL_SURFS
 70
     0
 62
     7
  6
CONTINUOUS
370
    -3
390
398
347
3DA
348
0
  0
LAYER
  5
21A
330
2
100
AcDbSymbolTableRecord
100
AcDbLayerTableRecord
  2
7_ALL_FEATURES
 70
     0
 62
     7
  6
CONTINUOUS
370
    -3
390
398
347
3DA
348
0
  0
LAYER
  5
21B
330
2
100
AcDbSymbolTableRecord
100
AcDbLayerTableRecord
  2
9_SOLID
 70
     0
 62
     7
  6
CONTINUOUS
370
    -3
390
398
347
3DA
348
0
  0
ENDTAB
  0
TABLE
  2
STYLE
  5
3
330
0
100
AcDbSymbolTable
 70
     4
  0
STYLE
  5
11
330
3
100
AcDbSymbolTableRecord
100
AcDbTextStyleTableRecord
  2
STANDARD
 70
     0
 40
0.0
 41
1.0
 50
0.0
 71
     0
 42
0.2
  3
arial.ttf
  4

  0
STYLE
  5
21C
330
3
100
AcDbSymbolTableRecord
100
AcDbTextStyleTableRecord
  2
TEXTSTYLE_1
 70
     0
 40
0.0
 41
0.8
 50
0.0
 71
     0
 42
0.2
  3
gdt
  4

  0
STYLE
  5
21D
330
3
100
AcDbSymbolTableRecord
100
AcDbTextStyleTableRecord
  2
TEXTSTYLE_2
 70
     0
 40
0.0
 41
2.0
 50
0.0
 71
     0
 42
0.2
  3
txt
  4

  0
STYLE
  5
21E
330
3
100
AcDbSymbolTableRecord
100
AcDbTextStyleTableRecord
  2
TEXTSTYLE_3
 70
     0
 40
0.0
 41
0.85
 50
0.0
 71
     0
 42
0.2
  3
txt
  4

  0
ENDTAB
  0
TABLE
  2
VIEW
  5
6
330
0
100
AcDbSymbolTable
 70
     0
  0
ENDTAB
  0
TABLE
  2
UCS
  5
7
330
0
100
AcDbSymbolTable
 70
     0
  0
ENDTAB
  0
TABLE
  2
APPID
  5
9
330
0
100
AcDbSymbolTable
 70
     1
  0
APPID
  5
21F
330
9
100
AcDbSymbolTableRecord
100
AcDbRegAppTableRecord
  2
ACAD
 70
     0
  0
ENDTAB
  0
TABLE
  2
DIMSTYLE
  5
A
330
0
100
AcDbSymbolTable
 70
     3
100
AcDbDimStyleTable
  0
DIMSTYLE
105
229
330
A
100
AcDbSymbolTableRecord
100
AcDbDimStyleTableRecord
  2
STANDARD
 70
     0
 41
2.5
 42
0.75
 44
0.75
 47
0.01
 48
0.01
 71
     1
 73
     0
 74
     0
 77
     1
 78
     8
 79
     2
140
3.0
147
0.625
171
     1
178
     0
179
     2
271
     2
272
     2
284
     8
340
11
341
220
342
220
343
220
344
220
  0
DIMSTYLE
105
22A
330
A
100
AcDbSymbolTableRecord
100
AcDbDimStyleTableRecord
  2
DIMSTYLE_1
 70
     0
 41
2.5
 42
0.75
 44
0.75
 47
0.3
 48
0.3
 73
     0
 74
     0
 77
     1
 78
     8
 79
     2
140
3.0
147
0.75
171
     1
178
     0
179
     2
271
     2
272
     2
284
     8
340
11
341
220
342
220
343
220
344
220
  0
DIMSTYLE
105
22B
330
A
100
AcDbSymbolTableRecord
100
AcDbDimStyleTableRecord
  2
DIMSTYLE_2
 70
     0
 41
2.5
 42
0.75
 44
0.75
 47
0.2
 48
0.2
 73
     0
 74
     0
 77
     1
 78
     8
 79
     2
140
3.0
147
0.75
171
     1
178
     0
179
     2
271
     2
272
     2
284
     8
340
11
341
220
342
220
343
220
344
220
  0
ENDTAB
  0
TABLE
  2
BLOCK_RECORD
  5
1
330
0
100
AcDbSymbolTable
 70
     9
  0
BLOCK_RECORD
  5
1F
330
1
100
AcDbSymbolTableRecord
100
AcDbBlockTableRecord
  2
*MODEL_SPACE
340
3BC
 70
     0
280
     1
281
     0
  0
BLOCK_RECORD
  5
1B
330
1
100
AcDbSymbolTableRecord
100
AcDbBlockTableRecord
  2
*PAPER_SPACE
340
3BD
 70
     0
280
     1
281
     0
  0
BLOCK_RECORD
  5
220
330
1
100
AcDbSymbolTableRecord
100
AcDbBlockTableRecord
  2
_CLOSED
340
0
102
{BLKREFS
331
27E
331
27F
331
287
331
288
331
290
331
291
331
29A
331
29B
331
2A3
331
2A4
331
2AC
331
2AD
102
}
 70
     0
280
     1
281
     0
  0
BLOCK_RECORD
  5
221
330
1
100
AcDbSymbolTableRecord
100
AcDbBlockTableRecord
  2
*D1
340
0
 70
     0
280
     1
281
     0
  0
BLOCK_RECORD
  5
222
330
1
100
AcDbSymbolTableRecord
100
AcDbBlockTableRecord
  2
*D2
340
0
 70
     0
280
     1
281
     0
  0
BLOCK_RECORD
  5
223
330
1
100
AcDbSymbolTableRecord
100
AcDbBlockTableRecord
  2
*D3
340
0
 70
     0
280
     1
281
     0
  0
BLOCK_RECORD
  5
224
330
1
100
AcDbSymbolTableRecord
100
AcDbBlockTableRecord
  2
*D4
340
0
 70
     0
280
     1
281
     0
  0
BLOCK_RECORD
  5
225
330
1
100
AcDbSymbolTableRecord
100
AcDbBlockTableRecord
  2
*D5
340
0
 70
     0
280
     1
281
     0
  0
BLOCK_RECORD
  5
226
330
1
100
AcDbSymbolTableRecord
100
AcDbBlockTableRecord
  2
*D6
340
0
 70
     0
280
     1
281
     0
  0
BLOCK_RECORD
  5
227
330
1
100
AcDbSymbolTableRecord
100
AcDbBlockTableRecord
  2
LOGO2_BL1
340
0
102
{BLKREFS
331
380
102
}
 70
     0
280
     1
281
     0
  0
BLOCK_RECORD
  5
228
330
1
100
AcDbSymbolTableRecord
100
AcDbBlockTableRecord
  2
PROIEZIONE_EU_BL0
340
0
102
{BLKREFS
331
37D
102
}
 70
     0
280
     1
281
     0
  0
ENDTAB
  0
ENDSEC
  0
SECTION
  2
BLOCKS
  0
BLOCK
  5
20
330
1F
100
AcDbEntity
  8
0
100
AcDbBlockBegin
  2
*MODEL_SPACE
 70
     0
 10
0.0
 20
0.0
 30
0.0
  3
*MODEL_SPACE
  1

  0
ENDBLK
  5
21
330
1F
100
AcDbEntity
  8
0
100
AcDbBlockEnd
  0
BLOCK
  5
1C
330
1B
100
AcDbEntity
 67
     1
  8
0
100
AcDbBlockBegin
  2
*PAPER_SPACE
 70
     0
 10
0.0
 20
0.0
 30
0.0
  3
*PAPER_SPACE
  1

  0
ENDBLK
  5
1D
330
1B
100
AcDbEntity
 67
     1
  8
0
100
AcDbBlockEnd
  0
BLOCK
  5
272
330
220
100
AcDbEntity
  8
0
100
AcDbBlockBegin
  2
_CLOSED
 70
     0
 10
0.0
 20
0.0
 30
0.0
  3
_CLOSED
  1

  0
LINE
  5
273
330
220
100
AcDbEntity
  8
0
  6
ByBlock
 62
     0
100
AcDbLine
 10
0.0
 20
0.0
 30
0.0
 11
-1.0
 21
0.2
 31
0.0
  0
LINE
  5
274
330
220
100
AcDbEntity
  8
0
  6
ByBlock
 62
     0
100
AcDbLine
 10
-1.0
 20
0.2
 30
0.0
 11
-1.0
 21
-0.2
 31
0.0
  0
LINE
  5
275
330
220
100
AcDbEntity
  8
0
  6
ByBlock
 62
     0
100
AcDbLine
 10
-1.0
 20
-0.2
 30
0.0
 11
0.0
 21
0.0
 31
0.0
  0
LINE
  5
276
330
220
100
AcDbEntity
  8
0
  6
ByBlock
 62
     0
100
AcDbLine
 10
-1.0
 20
0.0
 30
0.0
 11
0.0
 21
0.0
 31
0.0
  0
ENDBLK
  5
277
330
220
100
AcDbEntity
  8
0
  6
ByBlock
 62
     0
100
AcDbBlockEnd
  0
BLOCK
  5
278
330
221
100
AcDbEntity
  8
0
100
AcDbBlockBegin
  2
*D1
 70
     1
 10
0.0
 20
0.0
 30
0.0
  3
*D1
  1

  0
MTEXT
  5
279
330
221
100
AcDbEntity
  8
0
  6
Continuous
 62
     2
100
AcDbMText
 10
122.0048564189
 20
165.0202702703
 30
0.0
 40
3.0
 41
6.9925650558
 46
0.0
 71
     2
 72
     1
  1
100
 73
     1
 44
1.0
  0
LINE
  5
27A
330
221
100
AcDbEntity
  8
0
  6
Continuous
 62
     2
100
AcDbLine
 10
72.0048564189
 20
151.554054054
 30
0.0
 11
72.0048564189
 21
162.0202702703
 31
0.0
  0
LINE
  5
27B
330
221
100
AcDbEntity
  8
0
  6
Continuous
 62
     2
100
AcDbLine
 10
172.0048564189
 20
151.953125
 30
0.0
 11
172.0048564189
 21
162.0202702703
 31
0.0
  0
LINE
  5
27C
330
221
100
AcDbEntity
  8
0
  6
Continuous
 62
     2
100
AcDbLine
 10
72.0048564189
 20
161.2702702703
 30
0.0
 11
122.0048564189
 21
161.2702702703
 31
0.0
  0
LINE
  5
27D
330
221
100
AcDbEntity
  8
0
  6
Continuous
 62
     2
100
AcDbLine
 10
172.0048564189
 20
161.2702702703
 30
0.0
 11
122.0048564189
 21
161.2702702703
 31
0.0
  0
INSERT
  5
27E
330
221
100
AcDbEntity
  8
0
  6
Continuous
 62
     2
100
AcDbBlockReference
  2
_CLOSED
 10
72.0048564189
 20
161.2702702703
 30
0.0
 41
2.5
 42
2.5
 43
2.5
 50
180.0
  0
INSERT
  5
27F
330
221
100
AcDbEntity
  8
0
  6
Continuous
 62
     2
100
AcDbBlockReference
  2
_CLOSED
 10
172.0048564189
 20
161.2702702703
 30
0.0
 41
2.5
 42
2.5
 43
2.5
  0
ENDBLK
  5
280
330
221
100
AcDbEntity
  8
0
  6
ByBlock
 62
     0
100
AcDbBlockEnd
  0
BLOCK
  5
281
330
222
100
AcDbEntity
  8
0
100
AcDbBlockBegin
  2
*D2
 70
     1
 10
0.0
 20
0.0
 30
0.0
  3
*D2
  1

  0
MTEXT
  5
282
330
222
100
AcDbEntity
  8
0
  6
Continuous
 62
     2
100
AcDbMText
 10
51.6100084459
 20
97.4189189189
 30
0.0
 40
3.0
 41
6.9925650558
 46
0.0
 71
     2
 72
     1
  1
100
 11
0.0
 21
1.0
 31
0.0
 73
     1
 44
1.0
  0
LINE
  5
283
330
222
100
AcDbEntity
  8
0
  6
Continuous
 62
     2
100
AcDbLine
 10
66.2734375
 20
147.4189189189
 30
0.0
 11
54.6100084459
 21
147.4189189189
 31
0.0
  0
LINE
  5
284
330
222
100
AcDbEntity
  8
0
  6
Continuous
 62
     2
100
AcDbLine
 10
66.6725084459
 20
47.4189189189
 30
0.0
 11
54.6100084459
 21
47.4189189189
 31
0.0
  0
LINE
  5
285
330
222
100
AcDbEntity
  8
0
  6
Continuous
 62
     2
100
AcDbLine
 10
55.3600084459
 20
147.4189189189
 30
0.0
 11
55.3600084459
 21
97.4189189189
 31
0.0
  0
LINE
  5
286
330
222
100
AcDbEntity
  8
0
  6
Continuous
 62
     2
100
AcDbLine
 10
55.3600084459
 20
47.4189189189
 30
0.0
 11
55.3600084459
 21
97.4189189189
 31
0.0
  0
INSERT
  5
287
330
222
100
AcDbEntity
  8
0
  6
Continuous
 62
     2
100
AcDbBlockReference
  2
_CLOSED
 10
55.3600084459
 20
147.4189189189
 30
0.0
 41
2.5
 42
2.5
 43
2.5
 50
90.0
  0
INSERT
  5
288
330
222
100
AcDbEntity
  8
0
  6
Continuous
 62
     2
100
AcDbBlockReference
  2
_CLOSED
 10
55.3600084459
 20
47.4189189189
 30
0.0
 41
2.5
 42
2.5
 43
2.5
 50
270.0
  0
ENDBLK
  5
289
330
222
100
AcDbEntity
  8
0
  6
ByBlock
 62
     0
100
AcDbBlockEnd
  0
BLOCK
  5
28A
330
223
100
AcDbEntity
  8
0
100
AcDbBlockBegin
  2
*D3
 70
     1
 10
0.0
 20
0.0
 30
0.0
  3
*D3
  1

  0
MTEXT
  5
28B
330
223
100
AcDbEntity
  8
0
  6
Continuous
 62
     2
100
AcDbMText
 10
51.6100084459
 20
215.8849767736
 30
0.0
 40
3.0
 41
4.6617100372
 46
0.0
 71
     2
 72
     1
  1
55
 11
0.0
 21
1.0
 31
0.0
 73
     1
 44
1.0
  0
LINE
  5
28C
330
223
100
AcDbEntity
  8
0
  6
Continuous
 62
     2
100
AcDbLine
 10
61.3460726351
 20
188.3849767736
 30
0.0
 11
54.6100084459
 21
188.3849767736
 31
0.0
  0
LINE
  5
28D
330
223
100
AcDbEntity
  8
0
  6
Continuous
 62
     2
100
AcDbLine
 10
61.3460726351
 20
243.3849767736
 30
0.0
 11
54.6100084459
 21
243.3849767736
 31
0.0
  0
LINE
  5
28E
330
223
100
AcDbEntity
  8
0
  6
Continuous
 62
     2
100
AcDbLine
 10
55.3600084459
 20
188.3849767736
 30
0.0
 11
55.3600084459
 21
215.8849767736
 31
0.0
  0
LINE
  5
28F
330
223
100
AcDbEntity
  8
0
  6
Continuous
 62
     2
100
AcDbLine
 10
55.3600084459
 20
243.3849767736
 30
0.0
 11
55.3600084459
 21
215.8849767736
 31
0.0
  0
INSERT
  5
290
330
223
100
AcDbEntity
  8
0
  6
Continuous
 62
     2
100
AcDbBlockReference
  2
_CLOSED
 10
55.3600084459
 20
188.3849767736
 30
0.0
 41
2.5
 42
2.5
 43
2.5
 50
270.0
  0
INSERT
  5
291
330
223
100
AcDbEntity
  8
0
  6
Continuous
 62
     2
100
AcDbBlockReference
  2
_CLOSED
 10
55.3600084459
 20
243.3849767736
 30
0.0
 41
2.5
 42
2.5
 43
2.5
 50
90.0
  0
ENDBLK
  5
292
330
223
100
AcDbEntity
  8
0
  6
ByBlock
 62
     0
100
AcDbBlockEnd
  0
BLOCK
  5
293
330
224
100
AcDbEntity
  8
0
100
AcDbBlockBegin
  2
*D4
 70
     1
 10
0.0
 20
0.0
 30
0.0
  3
*D4
  1

  0
MTEXT
  5
294
330
224
100
AcDbEntity
  8
0
  6
Continuous
 62
     2
100
AcDbMText
 10
51.6100084459
 20
258.4939294764
 30
0.0
 40
3.0
 41
2.3308550186
 46
0.0
 71
     1
 72
     1
  1
7
 11
0.0
 21
1.0
 31
0.0
 73
     1
 44
1.0
  0
LINE
  5
295
330
224
100
AcDbEntity
  8
0
  6
Continuous
 62
     2
100
AcDbLine
 10
61.3460726351
 20
243.3849767736
 30
0.0
 11
54.6100084459
 21
243.3849767736
 31
0.0
  0
LINE
  5
296
330
224
100
AcDbEntity
  8
0
  6
Continuous
 62
     2
100
AcDbLine
 10
62.7328969595
 20
250.3849767736
 30
0.0
 11
54.6100084459
 21
250.3849767736
 31
0.0
  0
LINE
  5
297
330
224
100
AcDbEntity
  8
0
  6
Continuous
 62
     2
100
AcDbLine
 10
55.3600084459
 20
243.3849767736
 30
0.0
 11
55.3600084459
 21
246.8849767736
 31
0.0
  0
LINE
  5
298
330
224
100
AcDbEntity
  8
0
  6
Continuous
 62
     2
100
AcDbLine
 10
55.3600084459
 20
250.3849767736
 30
0.0
 11
55.3600084459
 21
246.8849767736
 31
0.0
  0
LINE
  5
299
330
224
100
AcDbEntity
  8
0
  6
Continuous
 62
     2
100
AcDbLine
 10
55.3600084459
 20
246.8849767736
 30
0.0
 11
55.3600084459
 21
260.8247844949
 31
0.0
  0
INSERT
  5
29A
330
224
100
AcDbEntity
  8
0
  6
Continuous
 62
     2
100
AcDbBlockReference
  2
_CLOSED
 10
55.3600084459
 20
243.3849767736
 30
0.0
 41
2.5
 42
2.5
 43
2.5
 50
270.0
  0
INSERT
  5
29B
330
224
100
AcDbEntity
  8
0
  6
Continuous
 62
     2
100
AcDbBlockReference
  2
_CLOSED
 10
55.3600084459
 20
250.3849767736
 30
0.0
 41
2.5
 42
2.5
 43
2.5
 50
90.0
  0
ENDBLK
  5
29C
330
224
100
AcDbEntity
  8
0
  6
ByBlock
 62
     0
100
AcDbBlockEnd
  0
BLOCK
  5
29D
330
225
100
AcDbEntity
  8
0
100
AcDbBlockBegin
  2
*D5
 70
     1
 10
0.0
 20
0.0
 30
0.0
  3
*D5
  1

  0
MTEXT
  5
29E
330
225
100
AcDbEntity
  8
0
  6
Continuous
 62
     2
100
AcDbMText
 10
178.1570016892
 20
97.4189189189
 30
0.0
 40
3.0
 41
4.6617100372
 46
0.0
 71
     2
 72
     1
  1
50
 11
0.0
 21
1.0
 31
0.0
 73
     1
 44
1.0
  0
LINE
  5
29F
330
225
100
AcDbEntity
  8
0
  6
Continuous
 62
     2
100
AcDbLine
 10
158.1307010135
 20
122.4189189189
 30
0.0
 11
182.6570016892
 21
122.4189189189
 31
0.0
  0
LINE
  5
2A0
330
225
100
AcDbEntity
  8
0
  6
Continuous
 62
     2
100
AcDbLine
 10
158.5297719595
 20
72.4189189189
 30
0.0
 11
182.6570016892
 21
72.4189189189
 31
0.0
  0
LINE
  5
2A1
330
225
100
AcDbEntity
  8
0
  6
Continuous
 62
     2
100
AcDbLine
 10
181.9070016892
 20
122.4189189189
 30
0.0
 11
181.9070016892
 21
97.4189189189
 31
0.0
  0
LINE
  5
2A2
330
225
100
AcDbEntity
  8
0
  6
Continuous
 62
     2
100
AcDbLine
 10
181.9070016892
 20
72.4189189189
 30
0.0
 11
181.9070016892
 21
97.4189189189
 31
0.0
  0
INSERT
  5
2A3
330
225
100
AcDbEntity
  8
0
  6
Continuous
 62
     2
100
AcDbBlockReference
  2
_CLOSED
 10
181.9070016892
 20
122.4189189189
 30
0.0
 41
2.5
 42
2.5
 43
2.5
 50
90.0
  0
INSERT
  5
2A4
330
225
100
AcDbEntity
  8
0
  6
Continuous
 62
     2
100
AcDbBlockReference
  2
_CLOSED
 10
181.9070016892
 20
72.4189189189
 30
0.0
 41
2.5
 42
2.5
 43
2.5
 50
270.0
  0
ENDBLK
  5
2A5
330
225
100
AcDbEntity
  8
0
  6
ByBlock
 62
     0
100
AcDbBlockEnd
  0
BLOCK
  5
2A6
330
226
100
AcDbEntity
  8
0
100
AcDbBlockBegin
  2
*D6
 70
     1
 10
0.0
 20
0.0
 30
0.0
  3
*D6
  1

  0
MTEXT
  5
2A7
330
226
100
AcDbEntity
  8
0
  6
Continuous
 62
     2
100
AcDbMText
 10
122.0048564189
 20
39.6513344595
 30
0.0
 40
3.0
 41
4.6617100372
 46
0.0
 71
     2
 72
     1
  1
50
 73
     1
 44
1.0
  0
LINE
  5
2A8
330
226
100
AcDbEntity
  8
0
  6
Continuous
 62
     2
100
AcDbLine
 10
147.0048564189
 20
59.6967905405
 30
0.0
 11
147.0048564189
 21
35.1513344595
 31
0.0
  0
LINE
  5
2A9
330
226
100
AcDbEntity
  8
0
  6
Continuous
 62
     2
100
AcDbLine
 10
97.0048564189
 20
62.0912162162
 30
0.0
 11
97.0048564189
 21
35.1513344595
 31
0.0
  0
LINE
  5
2AA
330
226
100
AcDbEntity
  8
0
  6
Continuous
 62
     2
100
AcDbLine
 10
147.0048564189
 20
35.9013344595
 30
0.0
 11
122.0048564189
 21
35.9013344595
 31
0.0
  0
LINE
  5
2AB
330
226
100
AcDbEntity
  8
0
  6
Continuous
 62
     2
100
AcDbLine
 10
97.0048564189
 20
35.9013344595
 30
0.0
 11
122.0048564189
 21
35.9013344595
 31
0.0
  0
INSERT
  5
2AC
330
226
100
AcDbEntity
  8
0
  6
Continuous
 62
     2
100
AcDbBlockReference
  2
_CLOSED
 10
147.0048564189
 20
35.9013344595
 30
0.0
 41
2.5
 42
2.5
 43
2.5
  0
INSERT
  5
2AD
330
226
100
AcDbEntity
  8
0
  6
Continuous
 62
     2
100
AcDbBlockReference
  2
_CLOSED
 10
97.0048564189
 20
35.9013344595
 30
0.0
 41
2.5
 42
2.5
 43
2.5
 50
180.0
  0
ENDBLK
  5
2AE
330
226
100
AcDbEntity
  8
0
  6
ByBlock
 62
     0
100
AcDbBlockEnd
  0
BLOCK
  5
22C
330
227
100
AcDbEntity
  8
0
100
AcDbBlockBegin
  2
LOGO2_BL1
 70
     0
 10
294.5861676139
 20
38.3455743203
 30
0.0
  3
LOGO2_BL1
  1

  0
LINE
  5
22D
330
227
100
AcDbEntity
  8
0
  6
Continuous
 62
     7
100
AcDbLine
 10
286.3290928421
 20
41.5410656592
 30
0.0
 11
285.0247519128
 21
41.5410656592
 31
0.0
  0
LINE
  5
22E
330
227
100
AcDbEntity
  8
0
  6
Continuous
 62
     7
100
AcDbLine
 10
285.0247519128
 20
41.5410656592
 30
0.0
 11
285.0247519128
 21
31.0819995993
 31
0.0
  0
LINE
  5
22F
330
227
100
AcDbEntity
  8
0
  6
Continuous
 62
     7
100
AcDbLine
 10
285.0247519128
 20
31.0819995993
 30
0.0
 11
289.505806801
 21
31.0819995993
 31
0.0
  0
LINE
  5
230
330
227
100
AcDbEntity
  8
0
  6
Continuous
 62
     7
100
AcDbLine
 10
289.505806801
 20
31.0819995993
 30
0.0
 11
289.505806801
 21
32.2748539244
 31
0.0
  0
LINE
  5
231
330
227
100
AcDbEntity
  8
0
  6
Continuous
 62
     7
100
AcDbLine
 10
289.505806801
 20
32.2748539244
 30
0.0
 11
286.3290928421
 21
32.2748539244
 31
0.0
  0
LINE
  5
232
330
227
100
AcDbEntity
  8
0
  6
Continuous
 62
     7
100
AcDbLine
 10
286.3290928421
 20
32.2748539244
 30
0.0
 11
286.3290928421
 21
41.5410656592
 31
0.0
  0
LINE
  5
233
330
227
100
AcDbEntity
  8
0
  6
Continuous
 62
     7
100
AcDbLine
 10
301.2654190584
 20
41.5410656592
 30
0.0
 11
299.9616015404
 21
41.5410656592
 31
0.0
  0
LINE
  5
234
330
227
100
AcDbEntity
  8
0
  6
Continuous
 62
     7
100
AcDbLine
 10
299.9616015404
 20
41.5410656592
 30
0.0
 11
299.9616015404
 21
31.0819995993
 31
0.0
  0
LINE
  5
235
330
227
100
AcDbEntity
  8
0
  6
Continuous
 62
     7
100
AcDbLine
 10
299.9616015404
 20
31.0819995993
 30
0.0
 11
304.4427872815
 21
31.0819995993
 31
0.0
  0
LINE
  5
236
330
227
100
AcDbEntity
  8
0
  6
Continuous
 62
     7
100
AcDbLine
 10
304.4427872815
 20
31.0819995993
 30
0.0
 11
304.4427872815
 21
32.2748539244
 31
0.0
  0
LINE
  5
237
330
227
100
AcDbEntity
  8
0
  6
Continuous
 62
     7
100
AcDbLine
 10
304.4427872815
 20
32.2748539244
 30
0.0
 11
301.2654190584
 21
32.2748539244
 31
0.0
  0
LINE
  5
238
330
227
100
AcDbEntity
  8
0
  6
Continuous
 62
     7
100
AcDbLine
 10
301.2654190584
 20
32.2748539244
 30
0.0
 11
301.2654190584
 21
41.5410656592
 31
0.0
  0
LWPOLYLINE
  5
239
330
227
100
AcDbEntity
  8
0
  6
Continuous
 62
     7
100
AcDbPolyline
 90
        2
 70
     0
 43
0.2
 10
283.3791468237
 20
27.7384482924
 10
283.3791468237
 20
25.881385043
  0
LWPOLYLINE
  5
23A
330
227
100
AcDbEntity
  8
0
  6
Continuous
 62
     7
100
AcDbPolyline
 90
        2
 70
     0
 43
0.2
 10
283.3791468237
 20
25.881385043
 10
284.1748628341
 20
25.881385043
  0
LWPOLYLINE
  5
23B
330
227
100
AcDbEntity
  8
0
  6
Continuous
 62
     7
100
AcDbPolyline
 90
        2
 70
     0
 43
0.2
 10
284.1748628341
 20
25.881385043
 10
284.1748628341
 20
26.0933666146
  0
LWPOLYLINE
  5
23C
330
227
100
AcDbEntity
  8
0
  6
Continuous
 62
     7
100
AcDbPolyline
 90
        2
 70
     0
 43
0.2
 10
284.1748628341
 20
26.0933666146
 10
283.6107563186
 20
26.0933666146
  0
LWPOLYLINE
  5
23D
330
227
100
AcDbEntity
  8
0
  6
Continuous
 62
     7
100
AcDbPolyline
 90
        2
 70
     0
 43
0.2
 10
283.6107563186
 20
26.0933666146
 10
283.6107563186
 20
27.7384482924
  0
LWPOLYLINE
  5
23E
330
227
100
AcDbEntity
  8
0
  6
Continuous
 62
     7
100
AcDbPolyline
 90
        2
 70
     0
 43
0.2
 10
283.6107563186
 20
27.7384482924
 10
283.3791468237
 20
27.7384482924
  0
SPLINE
  5
23F
330
227
100
AcDbEntity
  8
0
  6
Continuous
 62
     7
100
AcDbSpline
 70
     3
 71
     3
 72
    35
 73
    31
 74
     0
 42
0.000000001
 43
0.0000001
 40
0.0
 40
0.0
 40
0.0
 40
0.0
 40
1.0
 40
1.0
 40
1.0
 40
2.0
 40
2.0
 40
2.0
 40
3.0
 40
3.0
 40
3.0
 40
4.0
 40
4.0
 40
4.0
 40
5.0
 40
5.0
 40
5.0
 40
6.0
 40
6.0
 40
6.0
 40
7.0
 40
7.0
 40
7.0
 40
8.0
 40
8.0
 40
8.0
 40
9.0
 40
9.0
 40
9.0
 40
10.0
 40
10.0
 40
10.0
 40
10.0
 10
285.5731560896
 20
27.0339366989
 30
0.0
 10
285.5731560896
 20
27.0339366989
 30
0.0
 10
285.5731560896
 20
26.3718214198
 30
0.0
 10
285.5731560896
 20
26.3718214198
 30
0.0
 10
285.5731560896
 20
26.0567278245
 30
0.0
 10
285.7210197785
 20
25.8421291964
 30
0.0
 10
286.0611062627
 20
25.8421291964
 30
0.0
 10
286.4006693358
 20
25.8421291964
 30
0.0
 10
286.5487947302
 20
26.0567278245
 30
0.0
 10
286.5487947302
 20
26.3718214198
 30
0.0
 10
286.5487947302
 20
26.3718214198
 30
0.0
 10
286.5487947302
 20
27.0339366989
 30
0.0
 10
286.5487947302
 20
27.0339366989
 30
0.0
 10
286.5487947302
 20
27.0339366989
 30
0.0
 10
286.3267374913
 20
27.0339366989
 30
0.0
 10
286.3267374913
 20
27.0339366989
 30
0.0
 10
286.3267374913
 20
27.0339366989
 30
0.0
 10
286.3267374913
 20
26.3969451616
 30
0.0
 10
286.3267374913
 20
26.3969451616
 30
0.0
 10
286.3267374913
 20
26.2111341544
 30
0.0
 10
286.2800230339
 20
26.0483532439
 30
0.0
 10
286.0611062627
 20
26.0483532439
 30
0.0
 10
285.8416660803
 20
26.0483532439
 30
0.0
 10
285.7949516229
 20
26.2111341544
 30
0.0
 10
285.7949516229
 20
26.3969451616
 30
0.0
 10
285.7949516229
 20
26.3969451616
 30
0.0
 10
285.7949516229
 20
27.0339366989
 30
0.0
 10
285.7949516229
 20
27.0339366989
 30
0.0
 10
285.7949516229
 20
27.0339366989
 30
0.0
 10
285.5731560896
 20
27.0339366989
 30
0.0
 10
285.5731560896
 20
27.0339366989
 30
0.0
  0
SPLINE
  5
240
330
227
100
AcDbEntity
  8
0
  6
Continuous
 62
     7
100
AcDbSpline
 70
     3
 71
     3
 72
    35
 73
    31
 74
     0
 42
0.000000001
 43
0.0000001
 40
0.0
 40
0.0
 40
0.0
 40
0.0
 40
1.0
 40
1.0
 40
1.0
 40
2.0
 40
2.0
 40
2.0
 40
3.0
 40
3.0
 40
3.0
 40
4.0
 40
4.0
 40
4.0
 40
5.0
 40
5.0
 40
5.0
 40
6.0
 40
6.0
 40
6.0
 40
7.0
 40
7.0
 40
7.0
 40
8.0
 40
8.0
 40
8.0
 40
9.0
 40
9.0
 40
9.0
 40
10.0
 40
10.0
 40
10.0
 40
10.0
 10
288.9719272874
 20
26.9925872072
 30
0.0
 10
288.8834707798
 20
27.0438815134
 30
0.0
 10
288.7700213831
 20
27.0690052552
 30
0.0
 10
288.6663859481
 20
27.0690052552
 30
0.0
 10
288.3115130949
 20
27.0690052552
 30
0.0
 10
288.0360679047
 20
26.8052059661
 30
0.0
 10
288.0360679047
 20
26.4477160565
 30
0.0
 10
288.0360679047
 20
26.1027880178
 30
0.0
 10
288.3145227098
 20
25.8426526077
 30
0.0
 10
288.6540857829
 20
25.8426526077
 30
0.0
 10
288.7700213831
 20
25.8426526077
 30
0.0
 10
288.870778056
 20
25.8646358818
 30
0.0
 10
288.9719272874
 20
25.9185472445
 30
0.0
 10
288.9719272874
 20
25.9185472445
 30
0.0
 10
288.9719272874
 20
26.2011893399
 30
0.0
 10
288.9719272874
 20
26.2011893399
 30
0.0
 10
288.8880506285
 20
26.1080221307
 30
0.0
 10
288.7845460464
 20
26.0488766551
 30
0.0
 10
288.6564411337
 20
26.0488766551
 30
0.0
 10
288.4227379936
 20
26.0488766551
 30
0.0
 10
288.2574708795
 20
26.2210789688
 30
0.0
 10
288.2574708795
 20
26.457660871
 30
0.0
 10
288.2574708795
 20
26.6696424426
 30
0.0
 10
288.4252241972
 20
26.8617343852
 30
0.0
 10
288.6420473232
 20
26.8617343852
 30
0.0
 10
288.7748629375
 20
26.8617343852
 30
0.0
 10
288.8834707798
 20
26.8078230225
 30
0.0
 10
288.9719272874
 20
26.706804644
 30
0.0
 10
288.9719272874
 20
26.706804644
 30
0.0
 10
288.9719272874
 20
26.9925872072
 30
0.0
 10
288.9719272874
 20
26.9925872072
 30
0.0
  0
SPLINE
  5
241
330
227
100
AcDbEntity
  8
0
  6
Continuous
 62
     7
100
AcDbSpline
 70
     3
 71
     3
 72
    32
 73
    28
 74
     0
 42
0.000000001
 43
0.0000001
 40
0.0
 40
0.0
 40
0.0
 40
0.0
 40
1.0
 40
1.0
 40
1.0
 40
2.0
 40
2.0
 40
2.0
 40
3.0
 40
3.0
 40
3.0
 40
4.0
 40
4.0
 40
4.0
 40
5.0
 40
5.0
 40
5.0
 40
6.0
 40
6.0
 40
6.0
 40
7.0
 40
7.0
 40
7.0
 40
8.0
 40
8.0
 40
8.0
 40
9.0
 40
9.0
 40
9.0
 40
9.0
 10
291.5037985397
 20
26.4210220808
 30
0.0
 10
291.5037985397
 20
26.4210220808
 30
0.0
 10
291.5037985397
 20
26.4550438145
 30
0.0
 10
291.5037985397
 20
26.4550438145
 30
0.0
 10
291.5037985397
 20
26.7973547968
 30
0.0
 10
291.3309419618
 20
27.0690052552
 30
0.0
 10
290.9642923547
 20
27.0690052552
 30
0.0
 10
290.5926703403
 20
27.0690052552
 30
0.0
 10
290.4029337485
 20
26.8025889097
 30
0.0
 10
290.4029337485
 20
26.4477160565
 30
0.0
 10
290.4029337485
 20
26.1080221307
 30
0.0
 10
290.6170089652
 20
25.8421291964
 30
0.0
 10
290.9691339091
 20
25.8421291964
 30
0.0
 10
291.1931539403
 20
25.8421291964
 30
0.0
 10
291.3953215503
 20
25.957803091
 30
0.0
 10
291.5037985397
 20
26.1572227917
 30
0.0
 10
291.5037985397
 20
26.1572227917
 30
0.0
 10
291.316155593
 20
26.2639986945
 30
0.0
 10
291.316155593
 20
26.2639986945
 30
0.0
 10
291.2326714925
 20
26.1252947032
 30
0.0
 10
291.1414670756
 20
26.039455252
 30
0.0
 10
290.9718818184
 20
26.039455252
 30
0.0
 10
290.7599002468
 20
26.039455252
 30
0.0
 10
290.6269537797
 20
26.2242194366
 30
0.0
 10
290.6245984289
 20
26.4210220808
 30
0.0
 10
290.6245984289
 20
26.4210220808
 30
0.0
 10
291.5037985397
 20
26.4210220808
 30
0.0
 10
291.5037985397
 20
26.4210220808
 30
0.0
  0
SPLINE
  5
242
330
227
100
AcDbEntity
  8
0
  6
Continuous
 62
     7
100
AcDbSpline
 70
     3
 71
     3
 72
    14
 73
    10
 74
     0
 42
0.000000001
 43
0.0000001
 40
0.0
 40
0.0
 40
0.0
 40
0.0
 40
1.0
 40
1.0
 40
1.0
 40
2.0
 40
2.0
 40
2.0
 40
3.0
 40
3.0
 40
3.0
 40
3.0
 10
290.6366368885
 20
26.5885136929
 30
0.0
 10
290.6642468339
 20
26.7533882486
 30
0.0
 10
290.792090041
 20
26.8763899013
 30
0.0
 10
290.9642923547
 20
26.8763899013
 30
0.0
 10
291.1414670756
 20
26.8763899013
 30
0.0
 10
291.2549164723
 20
26.7607160066
 30
0.0
 10
291.2821338593
 20
26.5885136929
 30
0.0
 10
291.2821338593
 20
26.5885136929
 30
0.0
 10
290.6366368885
 20
26.5885136929
 30
0.0
 10
290.6366368885
 20
26.5885136929
 30
0.0
  0
SPLINE
  5
243
330
227
100
AcDbEntity
  8
0
  6
Continuous
 62
     7
100
AcDbSpline
 70
     3
 71
     3
 72
    20
 73
    16
 74
     0
 42
0.000000001
 43
0.0000001
 40
0.0
 40
0.0
 40
0.0
 40
0.0
 40
1.0
 40
1.0
 40
1.0
 40
2.0
 40
2.0
 40
2.0
 40
3.0
 40
3.0
 40
3.0
 40
4.0
 40
4.0
 40
4.0
 40
5.0
 40
5.0
 40
5.0
 40
5.0
 10
293.5278299899
 20
26.7978782081
 30
0.0
 10
293.5278299899
 20
26.7978782081
 30
0.0
 10
293.9389695565
 20
26.2954033717
 30
0.0
 10
293.9389695565
 20
26.2954033717
 30
0.0
 10
293.8229031034
 20
26.1797294771
 30
0.0
 10
293.6851150819
 20
26.0494000664
 30
0.0
 10
293.5131744738
 20
26.0494000664
 30
0.0
 10
293.3357380472
 20
26.0494000664
 30
0.0
 10
293.1682464351
 20
26.2137512108
 30
0.0
 10
293.1682464351
 20
26.3906642261
 30
0.0
 10
293.1682464351
 20
26.568624064
 30
0.0
 10
293.3780035087
 20
26.6947661844
 30
0.0
 10
293.5055850101
 20
26.7826992807
 30
0.0
 10
293.5055850101
 20
26.7826992807
 30
0.0
 10
293.5278299899
 20
26.7978782081
 30
0.0
 10
293.5278299899
 20
26.7978782081
 30
0.0
  0
SPLINE
  5
244
330
227
100
AcDbEntity
  8
0
  6
Continuous
 62
     7
100
AcDbSpline
 70
     3
 71
     3
 72
    23
 73
    19
 74
     0
 42
0.000000001
 43
0.0000001
 40
0.0
 40
0.0
 40
0.0
 40
0.0
 40
1.0
 40
1.0
 40
1.0
 40
2.0
 40
2.0
 40
2.0
 40
3.0
 40
3.0
 40
3.0
 40
4.0
 40
4.0
 40
4.0
 40
5.0
 40
5.0
 40
5.0
 40
6.0
 40
6.0
 40
6.0
 40
6.0
 10
293.5771615037
 20
27.0888948841
 30
0.0
 10
293.5771615037
 20
27.0888948841
 30
0.0
 10
293.5155298246
 20
27.1674065773
 30
0.0
 10
293.5155298246
 20
27.1674065773
 30
0.0
 10
293.4616184619
 20
27.235973456
 30
0.0
 10
293.4048283372
 20
27.305063746
 30
0.0
 10
293.4048283372
 20
27.3987543666
 30
0.0
 10
293.4048283372
 20
27.5175687289
 30
0.0
 10
293.5007434557
 20
27.5950335995
 30
0.0
 10
293.6117066487
 20
27.5950335995
 30
0.0
 10
293.734970007
 20
27.5950335995
 30
0.0
 10
293.8282680691
 20
27.5238496644
 30
0.0
 10
293.8282680691
 20
27.3935202537
 30
0.0
 10
293.8282680691
 20
27.2584801414
 30
0.0
 10
293.7001631564
 20
27.1820620934
 30
0.0
 10
293.6066033887
 20
27.1082611018
 30
0.0
 10
293.6066033887
 20
27.1082611018
 30
0.0
 10
293.5771615037
 20
27.0888948841
 30
0.0
 10
293.5771615037
 20
27.0888948841
 30
0.0
  0
SPLINE
  5
245
330
227
100
AcDbEntity
  8
0
  6
Continuous
 62
     7
100
AcDbSpline
 70
     3
 71
     3
 72
    50
 73
    46
 74
     0
 42
0.000000001
 43
0.0000001
 40
0.0
 40
0.0
 40
0.0
 40
0.0
 40
1.0
 40
1.0
 40
1.0
 40
2.0
 40
2.0
 40
2.0
 40
3.0
 40
3.0
 40
3.0
 40
4.0
 40
4.0
 40
4.0
 40
5.0
 40
5.0
 40
5.0
 40
6.0
 40
6.0
 40
6.0
 40
7.0
 40
7.0
 40
7.0
 40
8.0
 40
8.0
 40
8.0
 40
9.0
 40
9.0
 40
9.0
 40
10.0
 40
10.0
 40
10.0
 40
11.0
 40
11.0
 40
11.0
 40
12.0
 40
12.0
 40
12.0
 40
13.0
 40
13.0
 40
13.0
 40
14.0
 40
14.0
 40
14.0
 40
15.0
 40
15.0
 40
15.0
 40
15.0
 10
294.2793177464
 20
25.8819084543
 30
0.0
 10
294.2793177464
 20
25.8819084543
 30
0.0
 10
294.5647077511
 20
25.8819084543
 30
0.0
 10
294.5647077511
 20
25.8819084543
 30
0.0
 10
294.5647077511
 20
25.8819084543
 30
0.0
 10
294.2323415833
 20
26.2927863153
 30
0.0
 10
294.2323415833
 20
26.2927863153
 30
0.0
 10
294.2323415833
 20
26.2927863153
 30
0.0
 10
294.4588478182
 20
26.5586792495
 30
0.0
 10
294.4588478182
 20
26.5586792495
 30
0.0
 10
294.4588478182
 20
26.5586792495
 30
0.0
 10
294.3105915709
 20
26.7115153456
 30
0.0
 10
294.3105915709
 20
26.7115153456
 30
0.0
 10
294.3105915709
 20
26.7115153456
 30
0.0
 10
294.0946844146
 20
26.4602779274
 30
0.0
 10
294.0946844146
 20
26.4602779274
 30
0.0
 10
294.0946844146
 20
26.4602779274
 30
0.0
 10
293.7076217672
 20
26.9282076188
 30
0.0
 10
293.7076217672
 20
26.9282076188
 30
0.0
 10
293.8630749197
 20
27.0423112795
 30
0.0
 10
294.0453529007
 20
27.1820620934
 30
0.0
 10
294.0453529007
 20
27.3914266085
 30
0.0
 10
294.0453529007
 20
27.6353362687
 30
0.0
 10
293.8433161436
 20
27.7787509615
 30
0.0
 10
293.6168099088
 20
27.7787509615
 30
0.0
 10
293.372638543
 20
27.7787509615
 30
0.0
 10
293.1882669169
 20
27.6280085106
 30
0.0
 10
293.1882669169
 20
27.3715369796
 30
0.0
 10
293.1882669169
 20
27.2139901819
 30
0.0
 10
293.2869299446
 20
27.0763330132
 30
0.0
 10
293.3922664663
 20
26.9653698202
 30
0.0
 10
293.3922664663
 20
26.9653698202
 30
0.0
 10
293.2767234245
 20
26.8816240141
 30
0.0
 10
293.2767234245
 20
26.8816240141
 30
0.0
 10
293.0990252923
 20
26.7533882486
 30
0.0
 10
292.9516850147
 20
26.6256758944
 30
0.0
 10
292.9516850147
 20
26.388570581
 30
0.0
 10
292.9516850147
 20
26.0682428728
 30
0.0
 10
293.2102501909
 20
25.8421291964
 30
0.0
 10
293.5206330846
 20
25.8421291964
 30
0.0
 10
293.7395498558
 20
25.8421291964
 30
0.0
 10
293.9367450585
 20
25.9672244942
 30
0.0
 10
294.0770192837
 20
26.1331458725
 30
0.0
 10
294.0770192837
 20
26.1331458725
 30
0.0
 10
294.2793177464
 20
25.8819084543
 30
0.0
 10
294.2793177464
 20
25.8819084543
 30
0.0
  0
LWPOLYLINE
  5
246
330
227
100
AcDbEntity
  8
0
  6
Continuous
 62
     7
100
AcDbPolyline
 90
        2
 70
     0
 43
0.2
 10
296.2147618361
 20
27.7384482924
 10
295.9834140469
 20
27.7384482924
  0
LWPOLYLINE
  5
247
330
227
100
AcDbEntity
  8
0
  6
Continuous
 62
     7
100
AcDbPolyline
 90
        2
 70
     0
 43
0.2
 10
295.9834140469
 20
27.7384482924
 10
295.9834140469
 20
25.881385043
  0
LWPOLYLINE
  5
248
330
227
100
AcDbEntity
  8
0
  6
Continuous
 62
     7
100
AcDbPolyline
 90
        2
 70
     0
 43
0.2
 10
295.9834140469
 20
25.881385043
 10
296.7787374988
 20
25.881385043
  0
LWPOLYLINE
  5
249
330
227
100
AcDbEntity
  8
0
  6
Continuous
 62
     7
100
AcDbPolyline
 90
        2
 70
     0
 43
0.2
 10
296.7787374988
 20
25.881385043
 10
296.7787374988
 20
26.0933666146
  0
LWPOLYLINE
  5
24A
330
227
100
AcDbEntity
  8
0
  6
Continuous
 62
     7
100
AcDbPolyline
 90
        2
 70
     0
 43
0.2
 10
296.7787374988
 20
26.0933666146
 10
296.2147618361
 20
26.0933666146
  0
LWPOLYLINE
  5
24B
330
227
100
AcDbEntity
  8
0
  6
Continuous
 62
     7
100
AcDbPolyline
 90
        2
 70
     0
 43
0.2
 10
296.2147618361
 20
26.0933666146
 10
296.2147618361
 20
27.7384482924
  0
LWPOLYLINE
  5
24C
330
227
100
AcDbEntity
  8
0
  6
Continuous
 62
     7
100
AcDbPolyline
 90
        2
 70
     0
 43
0.2
 10
298.4578409103
 20
27.0339366989
 10
298.2366996412
 20
27.0339366989
  0
LWPOLYLINE
  5
24D
330
227
100
AcDbEntity
  8
0
  6
Continuous
 62
     7
100
AcDbPolyline
 90
        2
 70
     0
 43
0.2
 10
298.2366996412
 20
27.0339366989
 10
298.2366996412
 20
25.8819084543
  0
LWPOLYLINE
  5
24E
330
227
100
AcDbEntity
  8
0
  6
Continuous
 62
     7
100
AcDbPolyline
 90
        2
 70
     0
 43
0.2
 10
298.2366996412
 20
25.8819084543
 10
298.4578409103
 20
25.8819084543
  0
LWPOLYLINE
  5
24F
330
227
100
AcDbEntity
  8
0
  6
Continuous
 62
     7
100
AcDbPolyline
 90
        2
 70
     0
 43
0.2
 10
298.4578409103
 20
25.8819084543
 10
298.4578409103
 20
27.0339366989
  0
LWPOLYLINE
  5
250
330
227
100
AcDbEntity
  8
0
  6
Continuous
 62
     7
100
AcDbPolyline
 90
        2
 70
     1
 43
0.2
 10
298.1948176331
 20
27.5638906279
 42
1.0
 10
298.499984624
 20
27.5638906279
 42
1.0
  0
SPLINE
  5
251
330
227
100
AcDbEntity
  8
0
  6
Continuous
 62
     7
100
AcDbSpline
 70
     3
 71
     3
 72
    17
 73
    13
 74
     0
 42
0.000000001
 43
0.0000001
 40
0.0
 40
0.0
 40
0.0
 40
0.0
 40
1.0
 40
1.0
 40
1.0
 40
2.0
 40
2.0
 40
2.0
 40
3.0
 40
3.0
 40
3.0
 40
4.0
 40
4.0
 40
4.0
 40
4.0
 10
300.5881248519
 20
26.039455252
 30
0.0
 10
300.3541600063
 20
26.039455252
 30
0.0
 10
300.2238305956
 20
26.2414920091
 30
0.0
 10
300.2238305956
 20
26.457660871
 30
0.0
 10
300.2238305956
 20
26.672259499
 30
0.0
 10
300.3596558248
 20
26.8711557884
 30
0.0
 10
300.5881248519
 20
26.8711557884
 30
0.0
 10
300.8275855161
 20
26.8711557884
 30
0.0
 10
300.9631490397
 20
26.6822043135
 30
0.0
 10
300.9631490397
 20
26.457660871
 30
0.0
 10
300.9631490397
 20
26.2315471946
 30
0.0
 10
300.8299408669
 20
26.039455252
 30
0.0
 10
300.5881248519
 20
26.039455252
 30
0.0
  0
SPLINE
  5
252
330
227
100
AcDbEntity
  8
0
  6
Continuous
 62
     7
100
AcDbSpline
 70
     3
 71
     3
 72
    50
 73
    46
 74
     0
 42
0.000000001
 43
0.0000001
 40
0.0
 40
0.0
 40
0.0
 40
0.0
 40
1.0
 40
1.0
 40
1.0
 40
2.0
 40
2.0
 40
2.0
 40
3.0
 40
3.0
 40
3.0
 40
4.0
 40
4.0
 40
4.0
 40
5.0
 40
5.0
 40
5.0
 40
6.0
 40
6.0
 40
6.0
 40
7.0
 40
7.0
 40
7.0
 40
8.0
 40
8.0
 40
8.0
 40
9.0
 40
9.0
 40
9.0
 40
10.0
 40
10.0
 40
10.0
 40
11.0
 40
11.0
 40
11.0
 40
12.0
 40
12.0
 40
12.0
 40
13.0
 40
13.0
 40
13.0
 40
14.0
 40
14.0
 40
14.0
 40
15.0
 40
15.0
 40
15.0
 40
15.0
 10
301.1722518492
 20
27.0344601102
 30
0.0
 10
301.1722518492
 20
27.0344601102
 30
0.0
 10
300.9505871688
 20
27.0344601102
 30
0.0
 10
300.9505871688
 20
27.0344601102
 30
0.0
 10
300.9505871688
 20
27.0344601102
 30
0.0
 10
300.9505871688
 20
26.8371340547
 30
0.0
 10
300.9505871688
 20
26.8371340547
 30
0.0
 10
300.9505871688
 20
26.8371340547
 30
0.0
 10
300.9458764672
 20
26.8371340547
 30
0.0
 10
300.9458764672
 20
26.8371340547
 30
0.0
 10
300.8545411975
 20
26.9800253363
 30
0.0
 10
300.7166223231
 20
27.0684818439
 30
0.0
 10
300.5438965981
 20
27.0684818439
 30
0.0
 10
300.2115304303
 20
27.0684818439
 30
0.0
 10
300.0024276208
 20
26.7806056356
 30
0.0
 10
300.0024276208
 20
26.464988629
 30
0.0
 10
300.0024276208
 20
26.1352395176
 30
0.0
 10
300.1994919707
 20
25.8421291964
 30
0.0
 10
300.5543648239
 20
25.8421291964
 30
0.0
 10
300.7166223231
 20
25.8421291964
 30
0.0
 10
300.8566348426
 20
25.9305857041
 30
0.0
 10
300.9458764672
 20
26.061438526
 30
0.0
 10
300.9458764672
 20
26.061438526
 30
0.0
 10
300.9505871688
 20
26.061438526
 30
0.0
 10
300.9505871688
 20
26.061438526
 30
0.0
 10
300.9505871688
 20
26.061438526
 30
0.0
 10
300.9505871688
 20
25.8421291964
 30
0.0
 10
300.9505871688
 20
25.8421291964
 30
0.0
 10
300.9505871688
 20
25.6055472943
 30
0.0
 10
300.8940587497
 20
25.4186894645
 30
0.0
 10
300.6208380574
 20
25.4186894645
 30
0.0
 10
300.4185395947
 20
25.4186894645
 30
0.0
 10
300.2759100187
 20
25.5369804156
 30
0.0
 10
300.2759100187
 20
25.743204463
 30
0.0
 10
300.2759100187
 20
25.743204463
 30
0.0
 10
300.0542453383
 20
25.743204463
 30
0.0
 10
300.0542453383
 20
25.743204463
 30
0.0
 10
300.0592177455
 20
25.4186894645
 30
0.0
 10
300.2903038291
 20
25.2218868203
 30
0.0
 10
300.6106315373
 20
25.2218868203
 30
0.0
 10
301.0586715997
 20
25.2218868203
 30
0.0
 10
301.1722518492
 20
25.5071459722
 30
0.0
 10
301.1722518492
 20
25.9038917284
 30
0.0
 10
301.1722518492
 20
25.9038917284
 30
0.0
 10
301.1722518492
 20
27.0344601102
 30
0.0
 10
301.1722518492
 20
27.0344601102
 30
0.0
  0
SPLINE
  5
253
330
227
100
AcDbEntity
  8
0
  6
Continuous
 62
     7
100
AcDbSpline
 70
     3
 71
     3
 72
    44
 73
    40
 74
     0
 42
0.000000001
 43
0.0000001
 40
0.0
 40
0.0
 40
0.0
 40
0.0
 40
1.0
 40
1.0
 40
1.0
 40
2.0
 40
2.0
 40
2.0
 40
3.0
 40
3.0
 40
3.0
 40
4.0
 40
4.0
 40
4.0
 40
5.0
 40
5.0
 40
5.0
 40
6.0
 40
6.0
 40
6.0
 40
7.0
 40
7.0
 40
7.0
 40
8.0
 40
8.0
 40
8.0
 40
9.0
 40
9.0
 40
9.0
 40
10.0
 40
10.0
 40
10.0
 40
11.0
 40
11.0
 40
11.0
 40
12.0
 40
12.0
 40
12.0
 40
13.0
 40
13.0
 40
13.0
 40
13.0
 10
302.7411771846
 20
28.019520154
 30
0.0
 10
302.7411771846
 20
28.019520154
 30
0.0
 10
302.7411771846
 20
25.881385043
 30
0.0
 10
302.7411771846
 20
25.881385043
 30
0.0
 10
302.7411771846
 20
25.881385043
 30
0.0
 10
302.9625801594
 20
25.881385043
 30
0.0
 10
302.9625801594
 20
25.881385043
 30
0.0
 10
302.9625801594
 20
25.881385043
 30
0.0
 10
302.9625801594
 20
26.4110772663
 30
0.0
 10
302.9625801594
 20
26.4110772663
 30
0.0
 10
302.9625801594
 20
26.6209651928
 30
0.0
 10
302.9625801594
 20
26.8716791997
 30
0.0
 10
303.2478393112
 20
26.8716791997
 30
0.0
 10
303.4747381045
 20
26.8716791997
 30
0.0
 10
303.5016937859
 20
26.7387327326
 30
0.0
 10
303.5016937859
 20
26.5424534996
 30
0.0
 10
303.5016937859
 20
26.5424534996
 30
0.0
 10
303.5016937859
 20
25.881385043
 30
0.0
 10
303.5016937859
 20
25.881385043
 30
0.0
 10
303.5016937859
 20
25.881385043
 30
0.0
 10
303.7236201719
 20
25.881385043
 30
0.0
 10
303.7236201719
 20
25.881385043
 30
0.0
 10
303.7236201719
 20
25.881385043
 30
0.0
 10
303.7236201719
 20
26.568624064
 30
0.0
 10
303.7236201719
 20
26.568624064
 30
0.0
 10
303.7236201719
 20
26.8491725143
 30
0.0
 10
303.6396126602
 20
27.0690052552
 30
0.0
 10
303.3145742505
 20
27.0690052552
 30
0.0
 10
303.1748234366
 20
27.0690052552
 30
0.0
 10
303.0366428566
 20
27.0025320216
 30
0.0
 10
302.967290861
 20
26.879530369
 30
0.0
 10
302.967290861
 20
26.879530369
 30
0.0
 10
302.9625801594
 20
26.879530369
 30
0.0
 10
302.9625801594
 20
26.879530369
 30
0.0
 10
302.9625801594
 20
26.879530369
 30
0.0
 10
302.9625801594
 20
28.019520154
 30
0.0
 10
302.9625801594
 20
28.019520154
 30
0.0
 10
302.9625801594
 20
28.019520154
 30
0.0
 10
302.7411771846
 20
28.019520154
 30
0.0
 10
302.7411771846
 20
28.019520154
 30
0.0
  0
LWPOLYLINE
  5
254
330
227
100
AcDbEntity
  8
0
  6
Continuous
 62
     7
100
AcDbPolyline
 90
        2
 70
     0
 43
0.2
 10
305.5634108488
 20
26.8271892402
 10
305.7798414163
 20
26.8271892402
  0
LWPOLYLINE
  5
255
330
227
100
AcDbEntity
  8
0
  6
Continuous
 62
     7
100
AcDbPolyline
 90
        2
 70
     0
 43
0.2
 10
305.7798414163
 20
26.8271892402
 10
305.7798414163
 20
27.0339366989
  0
LWPOLYLINE
  5
256
330
227
100
AcDbEntity
  8
0
  6
Continuous
 62
     7
100
AcDbPolyline
 90
        2
 70
     0
 43
0.2
 10
305.7798414163
 20
27.0339366989
 10
305.5634108488
 20
27.0339366989
  0
LWPOLYLINE
  5
257
330
227
100
AcDbEntity
  8
0
  6
Continuous
 62
     7
100
AcDbPolyline
 90
        2
 70
     0
 43
0.2
 10
305.5634108488
 20
27.0339366989
 10
305.5634108488
 20
27.4746490033
  0
LWPOLYLINE
  5
258
330
227
100
AcDbEntity
  8
0
  6
Continuous
 62
     7
100
AcDbPolyline
 90
        2
 70
     0
 43
0.2
 10
305.5634108488
 20
27.4746490033
 10
305.3417461684
 20
27.4746490033
  0
LWPOLYLINE
  5
259
330
227
100
AcDbEntity
  8
0
  6
Continuous
 62
     7
100
AcDbPolyline
 90
        2
 70
     0
 43
0.2
 10
305.3417461684
 20
27.4746490033
 10
305.3417461684
 20
27.0339366989
  0
LWPOLYLINE
  5
25A
330
227
100
AcDbEntity
  8
0
  6
Continuous
 62
     7
100
AcDbPolyline
 90
        2
 70
     0
 43
0.2
 10
305.3417461684
 20
27.0339366989
 10
305.2210998665
 20
27.0339366989
  0
LWPOLYLINE
  5
25B
330
227
100
AcDbEntity
  8
0
  6
Continuous
 62
     7
100
AcDbPolyline
 90
        2
 70
     0
 43
0.2
 10
305.2210998665
 20
27.0339366989
 10
305.2210998665
 20
26.8271892402
  0
LWPOLYLINE
  5
25C
330
227
100
AcDbEntity
  8
0
  6
Continuous
 62
     7
100
AcDbPolyline
 90
        2
 70
     0
 43
0.2
 10
305.2210998665
 20
26.8271892402
 10
305.3417461684
 20
26.8271892402
  0
LWPOLYLINE
  5
25D
330
227
100
AcDbEntity
  8
0
  6
Continuous
 62
     7
100
AcDbPolyline
 90
        2
 70
     0
 43
0.2
 10
305.3417461684
 20
26.8271892402
 10
305.3417461684
 20
25.881385043
  0
LWPOLYLINE
  5
25E
330
227
100
AcDbEntity
  8
0
  6
Continuous
 62
     7
100
AcDbPolyline
 90
        2
 70
     0
 43
0.2
 10
305.3417461684
 20
25.881385043
 10
305.5634108488
 20
25.881385043
  0
LWPOLYLINE
  5
25F
330
227
100
AcDbEntity
  8
0
  6
Continuous
 62
     7
100
AcDbPolyline
 90
        2
 70
     0
 43
0.2
 10
305.5634108488
 20
25.881385043
 10
305.5634108488
 20
26.8271892402
  0
SPLINE
  5
260
330
227
100
AcDbEntity
  8
0
  6
Continuous
 62
     7
100
AcDbSpline
 70
     3
 71
     3
 72
    20
 73
    16
 74
     0
 42
0.000000001
 43
0.0000001
 40
0.0
 40
0.0
 40
0.0
 40
0.0
 40
1.0
 40
1.0
 40
1.0
 40
2.0
 40
2.0
 40
2.0
 40
3.0
 40
3.0
 40
3.0
 40
4.0
 40
4.0
 40
4.0
 40
5.0
 40
5.0
 40
5.0
 40
5.0
 10
293.345421156
 20
36.2423114864
 30
0.0
 10
293.345421156
 20
36.2423114864
 30
0.0
 10
295.6617778105
 20
33.4127500642
 30
0.0
 10
295.6617778105
 20
33.4127500642
 30
0.0
 10
295.0101307571
 20
32.7605795995
 30
0.0
 10
294.2332575531
 20
32.0246633288
 30
0.0
 10
293.2620679084
 20
32.0246633288
 30
0.0
 10
292.263530024
 20
32.0246633288
 30
0.0
 10
291.3202120304
 20
32.954241776
 30
0.0
 10
291.3202120304
 20
33.9534339246
 30
0.0
 10
291.3202120304
 20
34.9526260731
 30
0.0
 10
292.4990651035
 20
35.6592313117
 30
0.0
 10
293.2205875639
 20
36.1590890916
 30
0.0
 10
293.2205875639
 20
36.1590890916
 30
0.0
 10
293.345421156
 20
36.2423114864
 30
0.0
 10
293.345421156
 20
36.2423114864
 30
0.0
  0
SPLINE
  5
261
330
227
100
AcDbEntity
  8
0
  6
Continuous
 62
     7
100
AcDbSpline
 70
     3
 71
     3
 72
    23
 73
    19
 74
     0
 42
0.000000001
 43
0.0000001
 40
0.0
 40
0.0
 40
0.0
 40
0.0
 40
1.0
 40
1.0
 40
1.0
 40
2.0
 40
2.0
 40
2.0
 40
3.0
 40
3.0
 40
3.0
 40
4.0
 40
4.0
 40
4.0
 40
5.0
 40
5.0
 40
5.0
 40
6.0
 40
6.0
 40
6.0
 40
6.0
 10
293.6228291386
 20
37.8800654062
 30
0.0
 10
293.6228291386
 20
37.8800654062
 30
0.0
 10
293.276330866
 20
38.323394767
 30
0.0
 10
293.276330866
 20
38.323394767
 30
0.0
 10
292.9705278211
 20
38.7115042369
 30
0.0
 10
292.651639494
 20
39.1000062654
 30
0.0
 10
292.651639494
 20
39.6269505794
 30
0.0
 10
292.651639494
 20
40.2931222961
 30
0.0
 10
293.1929776184
 20
40.7368442153
 30
0.0
 10
293.8168838736
 20
40.7368442153
 30
0.0
 10
294.5106655357
 20
40.7368442153
 30
0.0
 10
295.0378715554
 20
40.3346026406
 30
0.0
 10
295.0378715554
 20
39.5996023396
 30
0.0
 10
295.0378715554
 20
38.8363378291
 30
0.0
 10
294.3166108007
 20
38.4062246033
 30
0.0
 10
293.7895356338
 20
37.9905051879
 30
0.0
 10
293.7895356338
 20
37.9905051879
 30
0.0
 10
293.6228291386
 20
37.8800654062
 30
0.0
 10
293.6228291386
 20
37.8800654062
 30
0.0
  0
SPLINE
  5
262
330
227
100
AcDbEntity
  8
0
  6
Continuous
 62
     7
100
AcDbSpline
 70
     3
 71
     3
 72
    50
 73
    46
 74
     0
 42
0.000000001
 43
0.0000001
 40
0.0
 40
0.0
 40
0.0
 40
0.0
 40
1.0
 40
1.0
 40
1.0
 40
2.0
 40
2.0
 40
2.0
 40
3.0
 40
3.0
 40
3.0
 40
4.0
 40
4.0
 40
4.0
 40
5.0
 40
5.0
 40
5.0
 40
6.0
 40
6.0
 40
6.0
 40
7.0
 40
7.0
 40
7.0
 40
8.0
 40
8.0
 40
8.0
 40
9.0
 40
9.0
 40
9.0
 40
10.0
 40
10.0
 40
10.0
 40
11.0
 40
11.0
 40
11.0
 40
12.0
 40
12.0
 40
12.0
 40
13.0
 40
13.0
 40
13.0
 40
14.0
 40
14.0
 40
14.0
 40
15.0
 40
15.0
 40
15.0
 40
15.0
 10
297.5764163015
 20
31.081476188
 30
0.0
 10
297.5764163015
 20
31.081476188
 30
0.0
 10
299.1856443061
 20
31.081476188
 30
0.0
 10
299.1856443061
 20
31.081476188
 30
0.0
 10
299.1856443061
 20
31.081476188
 30
0.0
 10
297.3126170124
 20
33.3986179594
 30
0.0
 10
297.3126170124
 20
33.3986179594
 30
0.0
 10
297.3126170124
 20
33.3986179594
 30
0.0
 10
298.5889554379
 20
34.896097654
 30
0.0
 10
298.5889554379
 20
34.896097654
 30
0.0
 10
298.5889554379
 20
34.896097654
 30
0.0
 10
297.7567314902
 20
35.7571092226
 30
0.0
 10
297.7567314902
 20
35.7571092226
 30
0.0
 10
297.7567314902
 20
35.7571092226
 30
0.0
 10
296.5361363669
 20
34.3418051002
 30
0.0
 10
296.5361363669
 20
34.3418051002
 30
0.0
 10
296.5361363669
 20
34.3418051002
 30
0.0
 10
294.3582219981
 20
36.9771809346
 30
0.0
 10
294.3582219981
 20
36.9771809346
 30
0.0
 10
295.2317954375
 20
37.6152192945
 30
0.0
 10
296.2584666787
 20
38.4062246033
 30
0.0
 10
296.2584666787
 20
39.5850776764
 30
0.0
 10
296.2584666787
 20
40.9587706014
 30
0.0
 10
295.1205705388
 20
41.7632537509
 30
0.0
 10
293.845278936
 20
41.7632537509
 30
0.0
 10
292.4718477166
 20
41.7632537509
 30
0.0
 10
291.4309135178
 20
40.9170285512
 30
0.0
 10
291.4309135178
 20
39.474376189
 30
0.0
 10
291.4309135178
 20
38.5868014976
 30
0.0
 10
291.9862528943
 20
37.8099282936
 30
0.0
 10
292.5824183511
 20
37.1854986272
 30
0.0
 10
292.5824183511
 20
37.1854986272
 30
0.0
 10
291.9305095921
 20
36.7139050568
 30
0.0
 10
291.9305095921
 20
36.7139050568
 30
0.0
 10
290.9319717077
 20
35.9926443021
 30
0.0
 10
290.0990934958
 20
35.2713835474
 30
0.0
 10
290.0990934958
 20
33.9398252311
 30
0.0
 10
290.0990934958
 20
32.1361499331
 30
0.0
 10
291.5561396685
 20
30.859549802
 30
0.0
 10
293.3036791058
 20
30.859549802
 30
0.0
 10
294.5385371867
 20
30.859549802
 30
0.0
 10
295.6479074114
 20
31.5677252744
 30
0.0
 10
296.4387818673
 20
32.4962568991
 30
0.0
 10
296.4387818673
 20
32.4962568991
 30
0.0
 10
297.5764163015
 20
31.081476188
 30
0.0
 10
297.5764163015
 20
31.081476188
 30
0.0
  0
LINE
  5
263
330
227
100
AcDbEntity
  8
0
  6
Continuous
 62
     7
100
AcDbLine
 10
283.3792776765
 20
29.0553510927
 30
0.0
 11
305.7931884042
 21
29.0553510927
 31
0.0
  0
LINE
  5
264
330
227
100
AcDbEntity
  8
0
  6
Continuous
 62
     7
100
AcDbLine
 10
305.7931884042
 20
29.0553510927
 30
0.0
 11
305.7931884042
 21
51.4692618203
 31
0.0
  0
LINE
  5
265
330
227
100
AcDbEntity
  8
0
  6
Continuous
 62
     7
100
AcDbLine
 10
305.7931884042
 20
51.4692618203
 30
0.0
 11
283.3792776765
 21
51.4692618203
 31
0.0
  0
LINE
  5
266
330
227
100
AcDbEntity
  8
0
  6
Continuous
 62
     7
100
AcDbLine
 10
283.3792776765
 20
51.4692618203
 30
0.0
 11
283.3792776765
 21
29.0553510927
 31
0.0
  0
ENDBLK
  5
267
330
227
100
AcDbEntity
  8
0
  6
ByBlock
 62
     0
100
AcDbBlockEnd
  0
BLOCK
  5
268
330
228
100
AcDbEntity
  8
0
100
AcDbBlockBegin
  2
PROIEZIONE_EU_BL0
 70
     0
 10
295.7601205692
 20
63.9705743202
 30
0.0
  3
PROIEZIONE_EU_BL0
  1

  0
LWPOLYLINE
  5
269
330
228
100
AcDbEntity
  8
DEFAULT_1
  6
CENTER
 62
     7
100
AcDbPolyline
 90
        2
 70
     0
 43
0.25
 10
301.8867412308
 20
68.9702684521
 10
301.8867822132
 20
58.9708801884
  0
LWPOLYLINE
  5
26A
330
228
100
AcDbEntity
  8
DEFAULT_1
  6
CENTER
 62
     7
100
AcDbPolyline
 90
        2
 70
     0
 43
0.25
 10
307.8867710559
 20
63.9708454554
 10
283.6334700824
 20
63.970574795
  0
LWPOLYLINE
  5
26B
330
228
100
AcDbEntity
  8
0
  6
Continuous
 62
     7
100
AcDbPolyline
 90
        2
 70
     1
 43
0.25
 10
298.339631055
 20
63.952026566
 42
1.0
 10
305.4459601536
 20
63.952026566
 42
1.0
  0
LWPOLYLINE
  5
26C
330
228
100
AcDbEntity
  8
0
  6
Continuous
 62
     7
100
AcDbPolyline
 90
        2
 70
     1
 43
0.25
 10
299.8893748834
 20
63.9699246106
 42
1.0
 10
303.9011266335
 20
63.9699246106
 42
1.0
  0
LWPOLYLINE
  5
26D
330
228
100
AcDbEntity
  8
0
  6
Continuous
 62
     7
100
AcDbPolyline
 90
        2
 70
     0
 43
0.25
 10
295.8867688499
 20
67.5457778155
 10
295.8867684953
 20
60.4455749072
  0
LWPOLYLINE
  5
26E
330
228
100
AcDbEntity
  8
0
  6
Continuous
 62
     7
100
AcDbPolyline
 90
        2
 70
     0
 43
0.25
 10
295.8867969317
 20
60.4455464708
 10
285.8922396605
 20
61.9656398836
  0
LWPOLYLINE
  5
26F
330
228
100
AcDbEntity
  8
0
  6
Continuous
 62
     7
100
AcDbPolyline
 90
        2
 70
     0
 43
0.25
 10
285.8899296749
 20
61.9649623421
 10
285.8872627708
 20
65.9706009535
  0
LWPOLYLINE
  5
270
330
228
100
AcDbEntity
  8
0
  6
Continuous
 62
     7
100
AcDbPolyline
 90
        2
 70
     0
 43
0.25
 10
285.8872544947
 20
65.9705926774
 10
295.886997732
 20
67.5457498975
  0
ENDBLK
  5
271
330
228
100
AcDbEntity
  8
0
  6
ByBlock
 62
     0
100
AcDbBlockEnd
  0
ENDSEC
  0
SECTION
  2
ENTITIES
  0
LINE
  5
2AF
330
1B
100
AcDbEntity
 67
     1
  8
0
  6
Continuous
 62
     7
100
AcDbLine
 10
0.0
 20
0.0
 30
0.0
 11
420.0
 21
0.0
 31
0.0
  0
LINE
  5
2B0
330
1B
100
AcDbEntity
 67
     1
  8
0
  6
Continuous
 62
     7
100
AcDbLine
 10
420.0
 20
0.0
 30
0.0
 11
420.0
 21
297.0
 31
0.0
  0
LINE
  5
2B1
330
1B
100
AcDbEntity
 67
     1
  8
0
  6
Continuous
 62
     7
100
AcDbLine
 10
0.0
 20
297.0
 30
0.0
 11
420.0
 21
297.0
 31
0.0
  0
LINE
  5
2B2
330
1B
100
AcDbEntity
 67
     1
  8
0
  6
Continuous
 62
     7
100
AcDbLine
 10
0.0
 20
0.0
 30
0.0
 11
0.0
 21
297.0
 31
0.0
  0
VIEWPORT
  5
2B3
330
1B
100
AcDbEntity
 67
     1
  8
0
100
AcDbViewport
 10
0.0
 20
0.0
 30
0.0
 40
495.0770428015564
 41
350.0901945525292
 68
     1
 69
     1
 12
234.0175097276264
 22
148.5
 13
0.0
 23
0.0
 14
1.0
 24
1.0
 15
0.0
 25
0.0
 16
0.0
 26
0.0
 36
1.0
 17
0.0
 27
0.0
 37
0.0
 42
50.0
 43
0.0
 44
0.0
 45
350.0901945525292
 50
0.0
 51
0.0
 72
   100
 90
   557216
  1

281
     0
 71
     1
 74
     0
110
0.0
120
0.0
130
0.0
111
1.0
121
0.0
131
0.0
112
0.0
122
1.0
132
0.0
 79
     0
146
0.0
170
     0
 61
     5
348
3C3
292
     1
282
     1
141
0.0
142
0.0
 63
   256
  0
LINE
  5
2B4
330
1B
100
AcDbEntity
 67
     1
  8
06___PRT_ALL_SURFS
  6
Continuous
 62
     7
100
AcDbLine
 10
147.0048564189
 20
222.8849767736
 30
0.0
 11
146.9784100384
 21
222.8849767741
 31
0.0
  0
LINE
  5
2B5
330
1B
100
AcDbEntity
 67
     1
  8
06___PRT_ALL_SURFS
  6
Continuous
 62
     7
100
AcDbLine
 10
149.5048564189
 20
220.3849767736
 30
0.0
 11
147.0048564189
 21
222.8849767736
 31
0.0
  0
LINE
  5
2B6
330
1B
100
AcDbEntity
 67
     1
  8
7_ALL_FEATURES
  6
Continuous
 62
     7
100
AcDbLine
 10
97.0048564189
 20
222.8849767736
 30
0.0
 11
97.0313027994
 21
222.8849767741
 31
0.0
  0
SPLINE
  5
2B7
330
1B
100
AcDbEntity
 67
     1
  8
7_ALL_FEATURES
  6
Continuous
 62
     7
100
AcDbSpline
 70
     0
 71
     3
 72
    20
 73
    16
 74
     0
 42
0.000000001
 43
0.0000001
 40
0.0
 40
0.0
 40
0.0
 40
0.0
 40
0.1749592963
 40
0.3452517287
 40
0.5078612833
 40
0.6586380274
 40
0.7278816055
 40
0.7918626109
 40
0.8495558999
 40
0.8997082382
 40
0.9410308842
 40
0.9721755718
 40
0.9919003869
 40
0.9973029653
 40
1.0
 40
1.0
 40
1.0
 40
1.0
 10
97.2159713844
 20
220.3867810988
 30
0.0
 10
97.2139979391
 20
220.5332133994
 30
0.0
 10
97.2080101345
 20
220.8221486388
 30
0.0
 10
97.1928573609
 20
221.2469877002
 30
0.0
 10
97.1721450423
 20
221.6513265714
 30
0.0
 10
97.1504816559
 20
221.9708815284
 30
0.0
 10
97.1309282483
 20
222.2077999174
 30
0.0
 10
97.1160848339
 20
222.3669064602
 30
0.0
 10
97.1009268106
 20
222.5099640378
 30
0.0
 10
97.0859058475
 20
222.6338284732
 30
0.0
 10
97.0712944518
 20
222.7356902077
 30
0.0
 10
97.0581447206
 20
222.8111098532
 30
0.0
 10
97.0467507108
 20
222.8580607294
 30
0.0
 10
97.0386819326
 20
222.8787225951
 30
0.0
 10
97.0335602894
 20
222.8849767742
 30
0.0
 10
97.0313027994
 20
222.8849767741
 30
0.0
  0
LINE
  5
2B8
330
1B
100
AcDbEntity
 67
     1
  8
06___PRT_ALL_SURFS
  6
Continuous
 62
     7
100
AcDbLine
 10
97.0048564189
 20
222.8849767736
 30
0.0
 11
94.5048564189
 21
220.3849767736
 31
0.0
  0
SPLINE
  5
2B9
330
1B
100
AcDbEntity
 67
     1
  8
06___PRT_ALL_SURFS
  6
Continuous
 62
     7
100
AcDbSpline
 70
     0
 71
     3
 72
    20
 73
    16
 74
     0
 42
0.000000001
 43
0.0000001
 40
0.0
 40
0.0
 40
0.0
 40
0.0
 40
0.1749592963
 40
0.3452517287
 40
0.5078612833
 40
0.6586380274
 40
0.7278816055
 40
0.7918626109
 40
0.8495558999
 40
0.8997082382
 40
0.9410308842
 40
0.9721755718
 40
0.9919003869
 40
0.9973029653
 40
1.0
 40
1.0
 40
1.0
 40
1.0
 10
146.7937414534
 20
220.3867810988
 30
0.0
 10
146.7957148987
 20
220.5332133994
 30
0.0
 10
146.8017027034
 20
220.8221486388
 30
0.0
 10
146.816855477
 20
221.2469877002
 30
0.0
 10
146.8375677955
 20
221.6513265714
 30
0.0
 10
146.8592311819
 20
221.9708815284
 30
0.0
 10
146.8787845895
 20
222.2077999174
 30
0.0
 10
146.8936280039
 20
222.3669064602
 30
0.0
 10
146.9087860272
 20
222.5099640378
 30
0.0
 10
146.9238069903
 20
222.6338284732
 30
0.0
 10
146.938418386
 20
222.7356902077
 30
0.0
 10
146.9515681173
 20
222.8111098532
 30
0.0
 10
146.962962127
 20
222.8580607294
 30
0.0
 10
146.9710309052
 20
222.8787225951
 30
0.0
 10
146.9761525484
 20
222.8849767742
 30
0.0
 10
146.9784100384
 20
222.8849767741
 30
0.0
  0
SPLINE
  5
2BA
330
1B
100
AcDbEntity
 67
     1
  8
06___PRT_ALL_SURFS
  6
Continuous
 62
     9
100
AcDbSpline
 70
     0
 71
     3
 72
     8
 73
     4
 74
     0
 42
0.000000001
 43
0.0000001
 40
0.0
 40
0.0
 40
0.0
 40
0.0
 40
1.0
 40
1.0
 40
1.0
 40
1.0
 10
146.9784100379
 20
222.8849767741
 30
0.0
 10
147.807261608
 20
222.0517876889
 30
0.0
 10
148.6359557087
 20
221.2184419393
 30
0.0
 10
149.4645357913
 20
220.3849828678
 30
0.0
  0
SPLINE
  5
2BB
330
1B
100
AcDbEntity
 67
     1
  8
7_ALL_FEATURES
  6
Continuous
 62
     9
100
AcDbSpline
 70
     0
 71
     3
 72
     8
 73
     4
 74
     0
 42
0.000000001
 43
0.0000001
 40
0.0
 40
0.0
 40
0.0
 40
0.0
 40
1.0
 40
1.0
 40
1.0
 40
1.0
 10
97.0313028
 20
222.8849767741
 30
0.0
 10
96.2024512298
 20
222.0517876889
 30
0.0
 10
95.3737571291
 20
221.2184419393
 30
0.0
 10
94.5451770466
 20
220.3849828678
 30
0.0
  0
LINE
  5
2BC
330
1B
100
AcDbEntity
 67
     1
  8
6_ALL_SURFS
  6
Continuous
 62
     7
100
AcDbLine
 10
97.0048564189
 20
250.3849767736
 30
0.0
 11
147.0048564189
 21
250.3849767736
 31
0.0
  0
LINE
  5
2BD
330
1B
100
AcDbEntity
 67
     1
  8
6_ALL_SURFS
  6
Continuous
 62
     7
100
AcDbLine
 10
147.0048564189
 20
250.3849767736
 30
0.0
 11
147.0048564189
 21
243.3849767736
 31
0.0
  0
LINE
  5
2BE
330
1B
100
AcDbEntity
 67
     1
  8
6_ALL_SURFS
  6
Continuous
 62
     7
100
AcDbLine
 10
97.0048564189
 20
250.3849767736
 30
0.0
 11
97.0048564189
 21
243.3849767736
 31
0.0
  0
LINE
  5
2BF
330
1B
100
AcDbEntity
 67
     1
  8
7_ALL_FEATURES
  6
Continuous
 62
     7
100
AcDbLine
 10
97.0048564189
 20
243.3849767736
 30
0.0
 11
122.0048564189
 21
243.3849767736
 31
0.0
  0
LINE
  5
2C0
330
1B
100
AcDbEntity
 67
     1
  8
7_ALL_FEATURES
  6
Continuous
 62
     7
100
AcDbLine
 10
122.0048564189
 20
243.3849767736
 30
0.0
 11
147.0048564189
 21
243.3849767736
 31
0.0
  0
LINE
  5
2C1
330
1B
100
AcDbEntity
 67
     1
  8
02___PRT_ALL_AXES
  6
Continuous
 62
     7
100
AcDbLine
 10
147.0048564189
 20
222.8849767736
 30
0.0
 11
147.0048564189
 21
243.3849767736
 31
0.0
  0
LINE
  5
2C2
330
1B
100
AcDbEntity
 67
     1
  8
02___PRT_ALL_AXES
  6
Continuous
 62
     7
100
AcDbLine
 10
97.0048564189
 20
222.8849767736
 30
0.0
 11
97.0048564189
 21
243.3849767736
 31
0.0
  0
LINE
  5
2C3
330
1B
100
AcDbEntity
 67
     1
  8
7_ALL_FEATURES
  6
Continuous
 62
     7
100
AcDbLine
 10
172.0048564189
 20
217.3849767736
 30
0.0
 11
170.5048564189
 21
217.3849767736
 31
0.0
  0
LINE
  5
2C4
330
1B
100
AcDbEntity
 67
     1
  8
7_ALL_FEATURES
  6
Continuous
 62
     7
100
AcDbLine
 10
72.0048564189
 20
217.3849767736
 30
0.0
 11
73.5048564189
 21
217.3849767736
 31
0.0
  0
LINE
  5
2C5
330
1B
100
AcDbEntity
 67
     1
  8
7_ALL_FEATURES
  6
Continuous
 62
     7
100
AcDbLine
 10
74.5048564189
 20
191.3849767736
 30
0.0
 11
74.5048564189
 21
189.8849767736
 31
0.0
  0
LINE
  5
2C6
330
1B
100
AcDbEntity
 67
     1
  8
7_ALL_FEATURES
  6
Continuous
 62
     7
100
AcDbLine
 10
74.5048564189
 20
189.8849767736
 30
0.0
 11
74.5048564189
 21
188.3849767736
 31
0.0
  0
LINE
  5
2C7
330
1B
100
AcDbEntity
 67
     1
  8
7_ALL_FEATURES
  6
Continuous
 62
     7
100
AcDbLine
 10
169.5048564189
 20
191.3849767736
 30
0.0
 11
169.5048564189
 21
189.8849767736
 31
0.0
  0
LINE
  5
2C8
330
1B
100
AcDbEntity
 67
     1
  8
7_ALL_FEATURES
  6
Continuous
 62
     7
100
AcDbLine
 10
169.5048564189
 20
189.8849767736
 30
0.0
 11
169.5048564189
 21
188.3849767736
 31
0.0
  0
LINE
  5
2C9
330
1B
100
AcDbEntity
 67
     1
  8
7_ALL_FEATURES
  6
Continuous
 62
     7
100
AcDbLine
 10
169.5048564189
 20
188.3849767736
 30
0.0
 11
74.5048564189
 21
188.3849767736
 31
0.0
  0
ARC
  5
2CA
330
1B
100
AcDbEntity
 67
     1
  8
7_ALL_FEATURES
  6
Continuous
 62
     7
100
AcDbCircle
 10
169.0048564189
 20
217.3849767736
 30
0.0
 40
3.0
100
AcDbArc
 50
0.0
 51
90.0
  0
ARC
  5
2CB
330
1B
100
AcDbEntity
 67
     1
  8
7_ALL_FEATURES
  6
Continuous
 62
     7
100
AcDbCircle
 10
75.0048564189
 20
217.3849767736
 30
0.0
 40
3.0
100
AcDbArc
 50
90.0
 51
180.0
  0
LINE
  5
2CC
330
1B
100
AcDbEntity
 67
     1
  8
7_ALL_FEATURES
  6
Continuous
 62
     7
100
AcDbLine
 10
73.5048564189
 20
188.3849767736
 30
0.0
 11
72.0048564189
 21
188.3849767736
 31
0.0
  0
LINE
  5
2CD
330
1B
100
AcDbEntity
 67
     1
  8
7_ALL_FEATURES
  6
Continuous
 62
     7
100
AcDbLine
 10
169.0048564189
 20
220.3849767736
 30
0.0
 11
75.0048564189
 21
220.3849767736
 31
0.0
  0
LINE
  5
2CE
330
1B
100
AcDbEntity
 67
     1
  8
7_ALL_FEATURES
  6
Continuous
 62
     7
100
AcDbLine
 10
75.0048564189
 20
217.3849767736
 30
0.0
 11
75.0048564189
 21
218.8849767736
 31
0.0
  0
LINE
  5
2CF
330
1B
100
AcDbEntity
 67
     1
  8
7_ALL_FEATURES
  6
Continuous
 62
     7
100
AcDbLine
 10
75.0048564189
 20
218.8849767736
 30
0.0
 11
75.0048564189
 21
220.3849767736
 31
0.0
  0
LINE
  5
2D0
330
1B
100
AcDbEntity
 67
     1
  8
7_ALL_FEATURES
  6
Continuous
 62
     7
100
AcDbLine
 10
170.5048564189
 20
188.3849767736
 30
0.0
 11
172.0048564189
 21
188.3849767736
 31
0.0
  0
LINE
  5
2D1
330
1B
100
AcDbEntity
 67
     1
  8
7_ALL_FEATURES
  6
Continuous
 62
     7
100
AcDbLine
 10
169.0048564189
 20
217.3849767736
 30
0.0
 11
169.0048564189
 21
218.8849767736
 31
0.0
  0
LINE
  5
2D2
330
1B
100
AcDbEntity
 67
     1
  8
7_ALL_FEATURES
  6
Continuous
 62
     7
100
AcDbLine
 10
169.0048564189
 20
218.8849767736
 30
0.0
 11
169.0048564189
 21
220.3849767736
 31
0.0
  0
LINE
  5
2D3
330
1B
100
AcDbEntity
 67
     1
  8
7_ALL_FEATURES
  6
Continuous
 62
     7
100
AcDbLine
 10
72.0048564189
 20
216.3849767736
 30
0.0
 11
72.0048564189
 21
190.8849767736
 31
0.0
  0
ARC
  5
2D4
330
1B
100
AcDbEntity
 67
     1
  8
7_ALL_FEATURES
  6
Continuous
 62
     7
100
AcDbCircle
 10
75.5048564189
 20
216.5189513699
 30
0.0
 40
1.0
100
AcDbArc
 50
120.0
 51
180.0
  0
LINE
  5
2D5
330
1B
100
AcDbEntity
 67
     1
  8
7_ALL_FEATURES
  6
Continuous
 62
     7
100
AcDbLine
 10
72.0048564189
 20
216.3849767736
 30
0.0
 11
72.0048564189
 21
217.3849767736
 31
0.0
  0
LINE
  5
2D6
330
1B
100
AcDbEntity
 67
     1
  8
7_ALL_FEATURES
  6
Continuous
 62
     7
100
AcDbLine
 10
72.0048564189
 20
188.3849767736
 30
0.0
 11
72.0048564189
 21
190.8849767736
 31
0.0
  0
LINE
  5
2D7
330
1B
100
AcDbEntity
 67
     1
  8
7_ALL_FEATURES
  6
Continuous
 62
     7
100
AcDbLine
 10
74.5048564189
 20
216.5189513699
 30
0.0
 11
74.5048564189
 21
191.3849767736
 31
0.0
  0
LINE
  5
2D8
330
1B
100
AcDbEntity
 67
     1
  8
7_ALL_FEATURES
  6
Continuous
 62
     7
100
AcDbLine
 10
172.0048564189
 20
190.8849767736
 30
0.0
 11
172.0048564189
 21
188.3849767736
 31
0.0
  0
LINE
  5
2D9
330
1B
100
AcDbEntity
 67
     1
  8
7_ALL_FEATURES
  6
Continuous
 62
     7
100
AcDbLine
 10
172.0048564189
 20
216.3849767736
 30
0.0
 11
172.0048564189
 21
190.8849767736
 31
0.0
  0
LINE
  5
2DA
330
1B
100
AcDbEntity
 67
     1
  8
7_ALL_FEATURES
  6
Continuous
 62
     7
100
AcDbLine
 10
172.0048564189
 20
217.3849767736
 30
0.0
 11
172.0048564189
 21
216.3849767736
 31
0.0
  0
LINE
  5
2DB
330
1B
100
AcDbEntity
 67
     1
  8
7_ALL_FEATURES
  6
Continuous
 62
     7
100
AcDbLine
 10
169.5048564189
 20
191.3849767736
 30
0.0
 11
169.5048564189
 21
216.5189513699
 31
0.0
  0
ARC
  5
2DC
330
1B
100
AcDbEntity
 67
     1
  8
7_ALL_FEATURES
  6
Continuous
 62
     7
100
AcDbCircle
 10
168.5048564189
 20
216.5189513699
 30
0.0
 40
1.0
100
AcDbArc
 50
0.0
 51
60.0
  0
LINE
  5
2DD
330
1B
100
AcDbEntity
 67
     1
  8
7_ALL_FEATURES
  6
Continuous
 62
     9
100
AcDbLine
 10
72.0048564189
 20
216.3849767736
 30
0.0
 11
73.5048564189
 21
216.3849767736
 31
0.0
  0
LINE
  5
2DE
330
1B
100
AcDbEntity
 67
     1
  8
7_ALL_FEATURES
  6
Continuous
 62
     9
100
AcDbLine
 10
169.5048564189
 20
191.3849767736
 30
0.0
 11
74.5048564189
 21
191.3849767736
 31
0.0
  0
LINE
  5
2DF
330
1B
100
AcDbEntity
 67
     1
  8
7_ALL_FEATURES
  6
Continuous
 62
     9
100
AcDbLine
 10
170.5048564189
 20
190.8849767736
 30
0.0
 11
172.0048564189
 21
190.8849767736
 31
0.0
  0
LINE
  5
2E0
330
1B
100
AcDbEntity
 67
     1
  8
7_ALL_FEATURES
  6
Continuous
 62
     9
100
AcDbLine
 10
172.0048564189
 20
216.3849767736
 30
0.0
 11
170.5048564189
 21
216.3849767736
 31
0.0
  0
LINE
  5
2E1
330
1B
100
AcDbEntity
 67
     1
  8
7_ALL_FEATURES
  6
Continuous
 62
     9
100
AcDbLine
 10
169.0048564189
 20
217.3849767736
 30
0.0
 11
75.0048564189
 21
217.3849767736
 31
0.0
  0
LINE
  5
2E2
330
1B
100
AcDbEntity
 67
     1
  8
7_ALL_FEATURES
  6
Continuous
 62
     9
100
AcDbLine
 10
73.5048564189
 20
190.8849767736
 30
0.0
 11
72.0048564189
 21
190.8849767736
 31
0.0
  0
LINE
  5
2E3
330
1B
100
AcDbEntity
 67
     1
  8
7_ALL_FEATURES
  6
Continuous
 62
     3
100
AcDbLine
 10
73.5048564189
 20
190.8849767736
 30
0.0
 11
73.5048564189
 21
188.3849767736
 31
0.0
  0
LINE
  5
2E4
330
1B
100
AcDbEntity
 67
     1
  8
7_ALL_FEATURES
  6
Continuous
 62
     3
100
AcDbLine
 10
73.5048564189
 20
217.3849767736
 30
0.0
 11
73.5048564189
 21
216.3849767736
 31
0.0
  0
LINE
  5
2E5
330
1B
100
AcDbEntity
 67
     1
  8
7_ALL_FEATURES
  6
Continuous
 62
     3
100
AcDbLine
 10
170.5048564189
 20
216.3849767736
 30
0.0
 11
170.5048564189
 21
217.3849767736
 31
0.0
  0
LINE
  5
2E6
330
1B
100
AcDbEntity
 67
     1
  8
7_ALL_FEATURES
  6
Continuous
 62
     3
100
AcDbLine
 10
170.5048564189
 20
216.3849767736
 30
0.0
 11
170.5048564189
 21
190.8849767736
 31
0.0
  0
LINE
  5
2E7
330
1B
100
AcDbEntity
 67
     1
  8
7_ALL_FEATURES
  6
Continuous
 62
     3
100
AcDbLine
 10
170.5048564189
 20
188.3849767736
 30
0.0
 11
170.5048564189
 21
190.8849767736
 31
0.0
  0
ARC
  5
2E8
330
1B
100
AcDbEntity
 67
     1
  8
7_ALL_FEATURES
  6
Continuous
 62
     3
100
AcDbCircle
 10
169.0048564189
 20
217.3849767736
 30
0.0
 40
1.5
100
AcDbArc
 50
0.0
 51
90.0
  0
ARC
  5
2E9
330
1B
100
AcDbEntity
 67
     1
  8
7_ALL_FEATURES
  6
Continuous
 62
     3
100
AcDbCircle
 10
75.0048564189
 20
217.3849767736
 30
0.0
 40
1.5
100
AcDbArc
 50
90.0
 51
180.0
  0
LINE
  5
2EA
330
1B
100
AcDbEntity
 67
     1
  8
7_ALL_FEATURES
  6
Continuous
 62
     3
100
AcDbLine
 10
73.5048564189
 20
216.3849767736
 30
0.0
 11
73.5048564189
 21
190.8849767736
 31
0.0
  0
LINE
  5
2EB
330
1B
100
AcDbEntity
 67
     1
  8
7_ALL_FEATURES
  6
Continuous
 62
     7
100
AcDbLine
 10
123.2048564189
 20
119.9189189189
 30
0.0
 11
144.5048564189
 21
119.9189189189
 31
0.0
  0
LINE
  5
2EC
330
1B
100
AcDbEntity
 67
     1
  8
6_ALL_SURFS
  6
Continuous
 62
     7
100
AcDbLine
 10
144.5048564189
 20
119.9189189189
 30
0.0
 11
144.5048564189
 21
74.9189189189
 31
0.0
  0
LINE
  5
2ED
330
1B
100
AcDbEntity
 67
     1
  8
7_ALL_FEATURES
  6
Continuous
 62
     7
100
AcDbLine
 10
144.5048564189
 20
74.9189189189
 30
0.0
 11
123.2048564189
 21
74.9189189189
 31
0.0
  0
LINE
  5
2EE
330
1B
100
AcDbEntity
 67
     1
  8
7_ALL_FEATURES
  6
Continuous
 62
     7
100
AcDbLine
 10
123.2048564189
 20
74.9189189189
 30
0.0
 11
123.2048564189
 21
119.9189189189
 31
0.0
  0
LINE
  5
2EF
330
1B
100
AcDbEntity
 67
     1
  8
7_ALL_FEATURES
  6
Continuous
 62
     7
100
AcDbLine
 10
120.8048564189
 20
74.9189189189
 30
0.0
 11
99.5048564189
 21
74.9189189189
 31
0.0
  0
LINE
  5
2F0
330
1B
100
AcDbEntity
 67
     1
  8
6_ALL_SURFS
  6
Continuous
 62
     7
100
AcDbLine
 10
99.5048564189
 20
74.9189189189
 30
0.0
 11
99.5048564189
 21
119.9189189189
 31
0.0
  0
LINE
  5
2F1
330
1B
100
AcDbEntity
 67
     1
  8
7_ALL_FEATURES
  6
Continuous
 62
     7
100
AcDbLine
 10
99.5048564189
 20
119.9189189189
 30
0.0
 11
120.8048564189
 21
119.9189189189
 31
0.0
  0
LINE
  5
2F2
330
1B
100
AcDbEntity
 67
     1
  8
7_ALL_FEATURES
  6
Continuous
 62
     7
100
AcDbLine
 10
120.8048564189
 20
119.9189189189
 30
0.0
 11
120.8048564189
 21
74.9189189189
 31
0.0
  0
LINE
  5
2F3
330
1B
100
AcDbEntity
 67
     1
  8
6_ALL_SURFS
  6
Continuous
 62
     7
100
AcDbLine
 10
147.0048564189
 20
72.4189189189
 30
0.0
 11
147.0048564189
 21
122.4189189189
 31
0.0
  0
LINE
  5
2F4
330
1B
100
AcDbEntity
 67
     1
  8
6_ALL_SURFS
  6
Continuous
 62
     7
100
AcDbLine
 10
147.0048564189
 20
122.4189189189
 30
0.0
 11
97.0048564189
 21
122.4189189189
 31
0.0
  0
LINE
  5
2F5
330
1B
100
AcDbEntity
 67
     1
  8
6_ALL_SURFS
  6
Continuous
 62
     7
100
AcDbLine
 10
97.0048564189
 20
122.4189189189
 30
0.0
 11
97.0048564189
 21
72.4189189189
 31
0.0
  0
LINE
  5
2F6
330
1B
100
AcDbEntity
 67
     1
  8
6_ALL_SURFS
  6
Continuous
 62
     7
100
AcDbLine
 10
97.0048564189
 20
72.4189189189
 30
0.0
 11
147.0048564189
 21
72.4189189189
 31
0.0
  0
ARC
  5
2F7
330
1B
100
AcDbEntity
 67
     1
  8
7_ALL_FEATURES
  6
Continuous
 62
     7
100
AcDbCircle
 10
122.0048564189
 20
97.4189189189
 30
0.0
 40
20.7
100
AcDbArc
 50
273.323357674
 51
86.676642326
  0
ARC
  5
2F8
330
1B
100
AcDbEntity
 67
     1
  8
7_ALL_FEATURES
  6
Continuous
 62
     7
100
AcDbCircle
 10
122.0048564189
 20
97.4189189189
 30
0.0
 40
20.7
100
AcDbArc
 50
93.32335767400001
 51
266.676642326
  0
LINE
  5
2F9
330
1B
100
AcDbEntity
 67
     1
  8
7_ALL_FEATURES
  6
Continuous
 62
     7
100
AcDbLine
 10
172.0048564189
 20
144.4189189189
 30
0.0
 11
172.0048564189
 21
50.4189189189
 31
0.0
  0
LINE
  5
2FA
330
1B
100
AcDbEntity
 67
     1
  8
7_ALL_FEATURES
  6
Continuous
 62
     7
100
AcDbLine
 10
172.0048564189
 20
144.4189189189
 30
0.0
 11
170.5048564189
 21
144.4189189189
 31
0.0
  0
LINE
  5
2FB
330
1B
100
AcDbEntity
 67
     1
  8
7_ALL_FEATURES
  6
Continuous
 62
     7
100
AcDbLine
 10
170.5048564189
 20
144.4189189189
 30
0.0
 11
169.0048564189
 21
144.4189189189
 31
0.0
  0
LINE
  5
2FC
330
1B
100
AcDbEntity
 67
     1
  8
7_ALL_FEATURES
  6
Continuous
 62
     7
100
AcDbLine
 10
172.0048564189
 20
50.4189189189
 30
0.0
 11
170.5048564189
 21
50.4189189189
 31
0.0
  0
LINE
  5
2FD
330
1B
100
AcDbEntity
 67
     1
  8
7_ALL_FEATURES
  6
Continuous
 62
     7
100
AcDbLine
 10
170.5048564189
 20
50.4189189189
 30
0.0
 11
169.0048564189
 21
50.4189189189
 31
0.0
  0
LINE
  5
2FE
330
1B
100
AcDbEntity
 67
     1
  8
7_ALL_FEATURES
  6
Continuous
 62
     7
100
AcDbLine
 10
72.0048564189
 20
144.4189189189
 30
0.0
 11
73.5048564189
 21
144.4189189189
 31
0.0
  0
LINE
  5
2FF
330
1B
100
AcDbEntity
 67
     1
  8
7_ALL_FEATURES
  6
Continuous
 62
     7
100
AcDbLine
 10
73.5048564189
 20
144.4189189189
 30
0.0
 11
75.0048564189
 21
144.4189189189
 31
0.0
  0
LINE
  5
300
330
1B
100
AcDbEntity
 67
     1
  8
7_ALL_FEATURES
  6
Continuous
 62
     7
100
AcDbLine
 10
72.0048564189
 20
50.4189189189
 30
0.0
 11
73.5048564189
 21
50.4189189189
 31
0.0
  0
LINE
  5
301
330
1B
100
AcDbEntity
 67
     1
  8
7_ALL_FEATURES
  6
Continuous
 62
     7
100
AcDbLine
 10
73.5048564189
 20
50.4189189189
 30
0.0
 11
75.0048564189
 21
50.4189189189
 31
0.0
  0
LINE
  5
302
330
1B
100
AcDbEntity
 67
     1
  8
7_ALL_FEATURES
  6
Continuous
 62
     7
100
AcDbLine
 10
75.0048564189
 20
147.4189189189
 30
0.0
 11
169.0048564189
 21
147.4189189189
 31
0.0
  0
LINE
  5
303
330
1B
100
AcDbEntity
 67
     1
  8
7_ALL_FEATURES
  6
Continuous
 62
     7
100
AcDbLine
 10
75.0048564189
 20
147.4189189189
 30
0.0
 11
75.0048564189
 21
145.9189189189
 31
0.0
  0
LINE
  5
304
330
1B
100
AcDbEntity
 67
     1
  8
7_ALL_FEATURES
  6
Continuous
 62
     7
100
AcDbLine
 10
75.0048564189
 20
145.9189189189
 30
0.0
 11
75.0048564189
 21
144.4189189189
 31
0.0
  0
LINE
  5
305
330
1B
100
AcDbEntity
 67
     1
  8
7_ALL_FEATURES
  6
Continuous
 62
     7
100
AcDbLine
 10
169.0048564189
 20
147.4189189189
 30
0.0
 11
169.0048564189
 21
145.9189189189
 31
0.0
  0
LINE
  5
306
330
1B
100
AcDbEntity
 67
     1
  8
7_ALL_FEATURES
  6
Continuous
 62
     7
100
AcDbLine
 10
169.0048564189
 20
145.9189189189
 30
0.0
 11
169.0048564189
 21
144.4189189189
 31
0.0
  0
LINE
  5
307
330
1B
100
AcDbEntity
 67
     1
  8
7_ALL_FEATURES
  6
Continuous
 62
     7
100
AcDbLine
 10
75.0048564189
 20
47.4189189189
 30
0.0
 11
75.0048564189
 21
48.9189189189
 31
0.0
  0
LINE
  5
308
330
1B
100
AcDbEntity
 67
     1
  8
7_ALL_FEATURES
  6
Continuous
 62
     7
100
AcDbLine
 10
75.0048564189
 20
48.9189189189
 30
0.0
 11
75.0048564189
 21
50.4189189189
 31
0.0
  0
LINE
  5
309
330
1B
100
AcDbEntity
 67
     1
  8
7_ALL_FEATURES
  6
Continuous
 62
     7
100
AcDbLine
 10
169.0048564189
 20
47.4189189189
 30
0.0
 11
75.0048564189
 21
47.4189189189
 31
0.0
  0
LINE
  5
30A
330
1B
100
AcDbEntity
 67
     1
  8
7_ALL_FEATURES
  6
Continuous
 62
     7
100
AcDbLine
 10
169.0048564189
 20
47.4189189189
 30
0.0
 11
169.0048564189
 21
48.9189189189
 31
0.0
  0
LINE
  5
30B
330
1B
100
AcDbEntity
 67
     1
  8
7_ALL_FEATURES
  6
Continuous
 62
     7
100
AcDbLine
 10
169.0048564189
 20
48.9189189189
 30
0.0
 11
169.0048564189
 21
50.4189189189
 31
0.0
  0
LINE
  5
30C
330
1B
100
AcDbEntity
 67
     1
  8
7_ALL_FEATURES
  6
Continuous
 62
     7
100
AcDbLine
 10
172.0048564189
 20
147.4189189189
 30
0.0
 11
170.5048564189
 21
147.4189189189
 31
0.0
  0
LINE
  5
30D
330
1B
100
AcDbEntity
 67
     1
  8
7_ALL_FEATURES
  6
Continuous
 62
     7
100
AcDbLine
 10
172.0048564189
 20
47.4189189189
 30
0.0
 11
170.5048564189
 21
47.4189189189
 31
0.0
  0
LINE
  5
30E
330
1B
100
AcDbEntity
 67
     1
  8
7_ALL_FEATURES
  6
Continuous
 62
     7
100
AcDbLine
 10
72.0048564189
 20
47.4189189189
 30
0.0
 11
73.5048564189
 21
47.4189189189
 31
0.0
  0
LINE
  5
30F
330
1B
100
AcDbEntity
 67
     1
  8
7_ALL_FEATURES
  6
Continuous
 62
     7
100
AcDbLine
 10
72.0048564189
 20
147.4189189189
 30
0.0
 11
73.5048564189
 21
147.4189189189
 31
0.0
  0
LINE
  5
310
330
1B
100
AcDbEntity
 67
     1
  8
7_ALL_FEATURES
  6
Continuous
 62
     7
100
AcDbLine
 10
72.0048564189
 20
146.4189189189
 30
0.0
 11
72.0048564189
 21
147.4189189189
 31
0.0
  0
LINE
  5
311
330
1B
100
AcDbEntity
 67
     1
  8
7_ALL_FEATURES
  6
Continuous
 62
     7
100
AcDbLine
 10
72.0048564189
 20
144.4189189189
 30
0.0
 11
72.0048564189
 21
146.4189189189
 31
0.0
  0
LINE
  5
312
330
1B
100
AcDbEntity
 67
     1
  8
7_ALL_FEATURES
  6
Continuous
 62
     7
100
AcDbLine
 10
72.0048564189
 20
50.4189189189
 30
0.0
 11
72.0048564189
 21
144.4189189189
 31
0.0
  0
LINE
  5
313
330
1B
100
AcDbEntity
 67
     1
  8
7_ALL_FEATURES
  6
Continuous
 62
     7
100
AcDbLine
 10
72.0048564189
 20
48.4189189189
 30
0.0
 11
72.0048564189
 21
50.4189189189
 31
0.0
  0
LINE
  5
314
330
1B
100
AcDbEntity
 67
     1
  8
7_ALL_FEATURES
  6
Continuous
 62
     7
100
AcDbLine
 10
72.0048564189
 20
47.4189189189
 30
0.0
 11
72.0048564189
 21
48.4189189189
 31
0.0
  0
LINE
  5
315
330
1B
100
AcDbEntity
 67
     1
  8
7_ALL_FEATURES
  6
Continuous
 62
     7
100
AcDbLine
 10
74.5048564189
 20
147.4189189189
 30
0.0
 11
74.5048564189
 21
145.9189189189
 31
0.0
  0
LINE
  5
316
330
1B
100
AcDbEntity
 67
     1
  8
7_ALL_FEATURES
  6
Continuous
 62
     7
100
AcDbLine
 10
169.5048564189
 20
147.4189189189
 30
0.0
 11
169.5048564189
 21
145.9189189189
 31
0.0
  0
LINE
  5
317
330
1B
100
AcDbEntity
 67
     1
  8
7_ALL_FEATURES
  6
Continuous
 62
     7
100
AcDbLine
 10
169.5048564189
 20
47.4189189189
 30
0.0
 11
169.5048564189
 21
48.9189189189
 31
0.0
  0
LINE
  5
318
330
1B
100
AcDbEntity
 67
     1
  8
7_ALL_FEATURES
  6
Continuous
 62
     7
100
AcDbLine
 10
74.5048564189
 20
47.4189189189
 30
0.0
 11
74.5048564189
 21
48.9189189189
 31
0.0
  0
LINE
  5
319
330
1B
100
AcDbEntity
 67
     1
  8
7_ALL_FEATURES
  6
Continuous
 62
     7
100
AcDbLine
 10
172.0048564189
 20
48.4189189189
 30
0.0
 11
172.0048564189
 21
47.4189189189
 31
0.0
  0
LINE
  5
31A
330
1B
100
AcDbEntity
 67
     1
  8
7_ALL_FEATURES
  6
Continuous
 62
     7
100
AcDbLine
 10
172.0048564189
 20
50.4189189189
 30
0.0
 11
172.0048564189
 21
48.4189189189
 31
0.0
  0
LINE
  5
31B
330
1B
100
AcDbEntity
 67
     1
  8
7_ALL_FEATURES
  6
Continuous
 62
     7
100
AcDbLine
 10
172.0048564189
 20
146.4189189189
 30
0.0
 11
172.0048564189
 21
144.4189189189
 31
0.0
  0
LINE
  5
31C
330
1B
100
AcDbEntity
 67
     1
  8
7_ALL_FEATURES
  6
Continuous
 62
     7
100
AcDbLine
 10
172.0048564189
 20
147.4189189189
 30
0.0
 11
172.0048564189
 21
146.4189189189
 31
0.0
  0
LINE
  5
31D
330
1B
100
AcDbEntity
 67
     1
  8
7_ALL_FEATURES
  6
Continuous
 62
     7
100
AcDbLine
 10
74.5048564189
 20
147.4189189189
 30
0.0
 11
75.0048564189
 21
147.4189189189
 31
0.0
  0
LINE
  5
31E
330
1B
100
AcDbEntity
 67
     1
  8
7_ALL_FEATURES
  6
Continuous
 62
     7
100
AcDbLine
 10
169.0048564189
 20
147.4189189189
 30
0.0
 11
169.5048564189
 21
147.4189189189
 31
0.0
  0
LINE
  5
31F
330
1B
100
AcDbEntity
 67
     1
  8
7_ALL_FEATURES
  6
Continuous
 62
     7
100
AcDbLine
 10
75.0048564189
 20
47.4189189189
 30
0.0
 11
74.5048564189
 21
47.4189189189
 31
0.0
  0
LINE
  5
320
330
1B
100
AcDbEntity
 67
     1
  8
7_ALL_FEATURES
  6
Continuous
 62
     7
100
AcDbLine
 10
169.5048564189
 20
47.4189189189
 30
0.0
 11
169.0048564189
 21
47.4189189189
 31
0.0
  0
LINE
  5
321
330
1B
100
AcDbEntity
 67
     1
  8
7_ALL_FEATURES
  6
Continuous
 62
     9
100
AcDbLine
 10
172.0048564189
 20
48.4189189189
 30
0.0
 11
170.5048564189
 21
48.4189189189
 31
0.0
  0
LINE
  5
322
330
1B
100
AcDbEntity
 67
     1
  8
7_ALL_FEATURES
  6
Continuous
 62
     9
100
AcDbLine
 10
169.0048564189
 20
144.4189189189
 30
0.0
 11
169.0048564189
 21
50.4189189189
 31
0.0
  0
LINE
  5
323
330
1B
100
AcDbEntity
 67
     1
  8
7_ALL_FEATURES
  6
Continuous
 62
     9
100
AcDbLine
 10
72.0048564189
 20
48.4189189189
 30
0.0
 11
73.5048564189
 21
48.4189189189
 31
0.0
  0
LINE
  5
324
330
1B
100
AcDbEntity
 67
     1
  8
7_ALL_FEATURES
  6
Continuous
 62
     9
100
AcDbLine
 10
75.0048564189
 20
50.4189189189
 30
0.0
 11
75.0048564189
 21
144.4189189189
 31
0.0
  0
LINE
  5
325
330
1B
100
AcDbEntity
 67
     1
  8
7_ALL_FEATURES
  6
Continuous
 62
     9
100
AcDbLine
 10
75.0048564189
 20
144.4189189189
 30
0.0
 11
169.0048564189
 21
144.4189189189
 31
0.0
  0
LINE
  5
326
330
1B
100
AcDbEntity
 67
     1
  8
7_ALL_FEATURES
  6
Continuous
 62
     9
100
AcDbLine
 10
72.0048564189
 20
146.4189189189
 30
0.0
 11
73.5048564189
 21
146.4189189189
 31
0.0
  0
LINE
  5
327
330
1B
100
AcDbEntity
 67
     1
  8
7_ALL_FEATURES
  6
Continuous
 62
     9
100
AcDbLine
 10
172.0048564189
 20
146.4189189189
 30
0.0
 11
170.5048564189
 21
146.4189189189
 31
0.0
  0
LINE
  5
328
330
1B
100
AcDbEntity
 67
     1
  8
7_ALL_FEATURES
  6
Continuous
 62
     9
100
AcDbLine
 10
169.0048564189
 20
50.4189189189
 30
0.0
 11
75.0048564189
 21
50.4189189189
 31
0.0
  0
LINE
  5
329
330
1B
100
AcDbEntity
 67
     1
  8
7_ALL_FEATURES
  6
Continuous
 62
     3
100
AcDbLine
 10
73.5048564189
 20
48.4189189189
 30
0.0
 11
73.5048564189
 21
47.4189189189
 31
0.0
  0
LINE
  5
32A
330
1B
100
AcDbEntity
 67
     1
  8
7_ALL_FEATURES
  6
Continuous
 62
     3
100
AcDbLine
 10
73.5048564189
 20
48.4189189189
 30
0.0
 11
73.5048564189
 21
50.4189189189
 31
0.0
  0
LINE
  5
32B
330
1B
100
AcDbEntity
 67
     1
  8
7_ALL_FEATURES
  6
Continuous
 62
     3
100
AcDbLine
 10
73.5048564189
 20
144.4189189189
 30
0.0
 11
73.5048564189
 21
146.4189189189
 31
0.0
  0
LINE
  5
32C
330
1B
100
AcDbEntity
 67
     1
  8
7_ALL_FEATURES
  6
Continuous
 62
     3
100
AcDbLine
 10
73.5048564189
 20
147.4189189189
 30
0.0
 11
73.5048564189
 21
146.4189189189
 31
0.0
  0
LINE
  5
32D
330
1B
100
AcDbEntity
 67
     1
  8
7_ALL_FEATURES
  6
Continuous
 62
     3
100
AcDbLine
 10
170.5048564189
 20
146.4189189189
 30
0.0
 11
170.5048564189
 21
147.4189189189
 31
0.0
  0
LINE
  5
32E
330
1B
100
AcDbEntity
 67
     1
  8
7_ALL_FEATURES
  6
Continuous
 62
     3
100
AcDbLine
 10
170.5048564189
 20
146.4189189189
 30
0.0
 11
170.5048564189
 21
144.4189189189
 31
0.0
  0
LINE
  5
32F
330
1B
100
AcDbEntity
 67
     1
  8
7_ALL_FEATURES
  6
Continuous
 62
     3
100
AcDbLine
 10
170.5048564189
 20
50.4189189189
 30
0.0
 11
170.5048564189
 21
48.4189189189
 31
0.0
  0
LINE
  5
330
330
1B
100
AcDbEntity
 67
     1
  8
7_ALL_FEATURES
  6
Continuous
 62
     3
100
AcDbLine
 10
170.5048564189
 20
47.4189189189
 30
0.0
 11
170.5048564189
 21
48.4189189189
 31
0.0
  0
LINE
  5
331
330
1B
100
AcDbEntity
 67
     1
  8
7_ALL_FEATURES
  6
Continuous
 62
     3
100
AcDbLine
 10
74.5048564189
 20
48.9189189189
 30
0.0
 11
74.5048564189
 21
50.4189189189
 31
0.0
  0
LINE
  5
332
330
1B
100
AcDbEntity
 67
     1
  8
7_ALL_FEATURES
  6
Continuous
 62
     3
100
AcDbLine
 10
169.5048564189
 20
48.9189189189
 30
0.0
 11
169.5048564189
 21
50.4189189189
 31
0.0
  0
LINE
  5
333
330
1B
100
AcDbEntity
 67
     1
  8
7_ALL_FEATURES
  6
Continuous
 62
     3
100
AcDbLine
 10
75.0048564189
 20
145.9189189189
 30
0.0
 11
74.5048564189
 21
145.9189189189
 31
0.0
  0
LINE
  5
334
330
1B
100
AcDbEntity
 67
     1
  8
7_ALL_FEATURES
  6
Continuous
 62
     3
100
AcDbLine
 10
169.5048564189
 20
145.9189189189
 30
0.0
 11
169.0048564189
 21
145.9189189189
 31
0.0
  0
LINE
  5
335
330
1B
100
AcDbEntity
 67
     1
  8
7_ALL_FEATURES
  6
Continuous
 62
     3
100
AcDbLine
 10
169.5048564189
 20
144.4189189189
 30
0.0
 11
169.5048564189
 21
145.9189189189
 31
0.0
  0
LINE
  5
336
330
1B
100
AcDbEntity
 67
     1
  8
7_ALL_FEATURES
  6
Continuous
 62
     3
100
AcDbLine
 10
74.5048564189
 20
144.4189189189
 30
0.0
 11
74.5048564189
 21
145.9189189189
 31
0.0
  0
LINE
  5
337
330
1B
100
AcDbEntity
 67
     1
  8
7_ALL_FEATURES
  6
Continuous
 62
     3
100
AcDbLine
 10
74.5048564189
 20
48.9189189189
 30
0.0
 11
75.0048564189
 21
48.9189189189
 31
0.0
  0
LINE
  5
338
330
1B
100
AcDbEntity
 67
     1
  8
7_ALL_FEATURES
  6
Continuous
 62
     3
100
AcDbLine
 10
169.0048564189
 20
48.9189189189
 30
0.0
 11
169.5048564189
 21
48.9189189189
 31
0.0
  0
SPLINE
  5
339
330
1B
100
AcDbEntity
 67
     1
  8
7_ALL_FEATURES
  6
Continuous
 62
     7
100
AcDbSpline
 70
     0
 71
     3
 72
    12
 73
     8
 74
     0
 42
0.000000001
 43
0.0000001
 40
0.0
 40
0.0
 40
0.0
 40
0.0
 40
0.2504928308
 40
0.5004551783
 40
0.7496408437
 40
0.8748139588
 40
1.0
 40
1.0
 40
1.0
 40
1.0
 10
301.5738800445
 20
220.4944028608
 30
0.0
 10
301.536611745
 20
220.7788847964
 30
0.0
 10
301.3994291343
 20
221.3416695755
 30
0.0
 10
300.9914584776
 20
222.1084412083
 30
0.0
 10
300.4548900292
 20
222.6119825312
 30
0.0
 10
299.9255632727
 20
222.8429821336
 30
0.0
 10
299.6373350166
 20
222.8849767746
 30
0.0
 10
299.4939478183
 20
222.8849767741
 30
0.0
  0
LINE
  5
33A
330
1B
100
AcDbEntity
 67
     1
  8
7_ALL_FEATURES
  6
Continuous
 62
     7
100
AcDbLine
 10
301.5882023435
 20
220.3849767736
 30
0.0
 11
301.5738760545
 21
220.4943964418
 31
0.0
  0
SPLINE
  5
33B
330
1B
100
AcDbEntity
 67
     1
  8
7_ALL_FEATURES
  6
Continuous
 62
     7
100
AcDbSpline
 70
     0
 71
     3
 72
    12
 73
     8
 74
     0
 42
0.000000001
 43
0.0000001
 40
0.0
 40
0.0
 40
0.0
 40
0.0
 40
0.1251860412
 40
0.2503591564
 40
0.4995448215
 40
0.7495071694
 40
1.0
 40
1.0
 40
1.0
 40
1.0
 10
297.1947135988
 20
222.8849767878
 30
0.0
 10
297.0513263962
 20
222.8849767884
 30
0.0
 10
296.7630981079
 20
222.842982318
 30
0.0
 10
296.2337713382
 20
222.6119826435
 30
0.0
 10
295.6972028848
 20
222.1084413184
 30
0.0
 10
295.2892322402
 20
221.3416696461
 30
0.0
 10
295.1520495885
 20
220.7788848624
 30
0.0
 10
295.1147812808
 20
220.4944029193
 30
0.0
  0
LINE
  5
33C
330
1B
100
AcDbEntity
 67
     1
  8
7_ALL_FEATURES
  6
Continuous
 62
     7
100
AcDbLine
 10
295.11478527
 20
220.4943965004
 30
0.0
 11
295.100458998
 21
220.3849767736
 31
0.0
  0
LINE
  5
33D
330
1B
100
AcDbEntity
 67
     1
  8
7_ALL_FEATURES
  6
Continuous
 62
     7
100
AcDbLine
 10
297.1947135988
 20
222.8849767878
 30
0.0
 11
299.4939478183
 21
222.8849767741
 31
0.0
  0
SPLINE
  5
33E
330
1B
100
AcDbEntity
 67
     1
  8
7_ALL_FEATURES
  6
Continuous
 62
     9
100
AcDbSpline
 70
     0
 71
     3
 72
     8
 73
     4
 74
     0
 42
0.000000001
 43
0.0000001
 40
0.0
 40
0.0
 40
0.0
 40
0.0
 40
1.0
 40
1.0
 40
1.0
 40
1.0
 10
299.4939478214
 20
222.8849767741
 30
0.0
 10
299.607352308
 20
222.0517050873
 30
0.0
 10
299.7202757388
 20
221.2183678574
 30
0.0
 10
299.8328445652
 20
220.3849828678
 30
0.0
  0
SPLINE
  5
33F
330
1B
100
AcDbEntity
 67
     1
  8
7_ALL_FEATURES
  6
Continuous
 62
     9
100
AcDbSpline
 70
     0
 71
     3
 72
     8
 73
     4
 74
     0
 42
0.000000001
 43
0.0000001
 40
0.0
 40
0.0
 40
0.0
 40
0.0
 40
1.0
 40
1.0
 40
1.0
 40
1.0
 10
296.8558184303
 20
220.38499541
 30
0.0
 10
296.9683866618
 20
221.2183762284
 30
0.0
 10
297.0813095721
 20
222.0517092769
 30
0.0
 10
297.194713498
 20
222.8849767878
 30
0.0
  0
LINE
  5
340
330
1B
100
AcDbEntity
 67
     1
  8
6_ALL_SURFS
  6
Continuous
 62
     7
100
AcDbLine
 10
273.3443306588
 20
250.3849767736
 30
0.0
 11
323.3443306588
 21
250.3849767736
 31
0.0
  0
LINE
  5
341
330
1B
100
AcDbEntity
 67
     1
  8
6_ALL_SURFS
  6
Continuous
 62
     7
100
AcDbLine
 10
273.3443306588
 20
250.3849767736
 30
0.0
 11
273.3443306588
 21
243.3849767736
 31
0.0
  0
LINE
  5
342
330
1B
100
AcDbEntity
 67
     1
  8
6_ALL_SURFS
  6
Continuous
 62
     7
100
AcDbLine
 10
323.3443306588
 20
250.3849767736
 30
0.0
 11
323.3443306588
 21
243.3849767736
 31
0.0
  0
LINE
  5
343
330
1B
100
AcDbEntity
 67
     1
  8
7_ALL_FEATURES
  6
Continuous
 62
     7
100
AcDbLine
 10
273.3443306588
 20
243.3849767736
 30
0.0
 11
298.3443306588
 21
243.3849767736
 31
0.0
  0
LINE
  5
344
330
1B
100
AcDbEntity
 67
     1
  8
7_ALL_FEATURES
  6
Continuous
 62
     7
100
AcDbLine
 10
298.3443306588
 20
243.3849767736
 30
0.0
 11
323.3443306588
 21
243.3849767736
 31
0.0
  0
LINE
  5
345
330
1B
100
AcDbEntity
 67
     1
  8
02___PRT_ALL_AXES
  6
Continuous
 62
     7
100
AcDbLine
 10
323.3443306588
 20
220.3849767736
 30
0.0
 11
323.3443306588
 21
243.3849767736
 31
0.0
  0
LINE
  5
346
330
1B
100
AcDbEntity
 67
     1
  8
02___PRT_ALL_AXES
  6
Continuous
 62
     7
100
AcDbLine
 10
273.3443306588
 20
220.3849767736
 30
0.0
 11
273.3443306588
 21
243.3849767736
 31
0.0
  0
LINE
  5
347
330
1B
100
AcDbEntity
 67
     1
  8
0
  6
Continuous
 62
     7
100
AcDbLine
 10
313.3443306588
 20
198.8849767736
 30
0.0
 11
313.3443306588
 21
188.3849767736
 31
0.0
  0
LINE
  5
348
330
1B
100
AcDbEntity
 67
     1
  8
0
  6
Continuous
 62
     7
100
AcDbLine
 10
283.3443306588
 20
188.3849767736
 30
0.0
 11
283.3443306588
 21
198.8849767736
 31
0.0
  0
LINE
  5
349
330
1B
100
AcDbEntity
 67
     1
  8
7_ALL_FEATURES
  6
Continuous
 62
     7
100
AcDbLine
 10
345.3443306588
 20
220.3849767736
 30
0.0
 11
251.3443306588
 21
220.3849767736
 31
0.0
  0
LINE
  5
34A
330
1B
100
AcDbEntity
 67
     1
  8
7_ALL_FEATURES
  6
Continuous
 62
     7
100
AcDbLine
 10
251.3443306588
 20
217.3849767736
 30
0.0
 11
251.3443306588
 21
218.8849767736
 31
0.0
  0
LINE
  5
34B
330
1B
100
AcDbEntity
 67
     1
  8
7_ALL_FEATURES
  6
Continuous
 62
     7
100
AcDbLine
 10
251.3443306588
 20
218.8849767736
 30
0.0
 11
251.3443306588
 21
220.3849767736
 31
0.0
  0
LINE
  5
34C
330
1B
100
AcDbEntity
 67
     1
  8
7_ALL_FEATURES
  6
Continuous
 62
     7
100
AcDbLine
 10
345.3443306588
 20
217.3849767736
 30
0.0
 11
345.3443306588
 21
218.8849767736
 31
0.0
  0
LINE
  5
34D
330
1B
100
AcDbEntity
 67
     1
  8
7_ALL_FEATURES
  6
Continuous
 62
     7
100
AcDbLine
 10
345.3443306588
 20
218.8849767736
 30
0.0
 11
345.3443306588
 21
220.3849767736
 31
0.0
  0
ARC
  5
34E
330
1B
100
AcDbEntity
 67
     1
  8
7_ALL_FEATURES
  6
Continuous
 62
     7
100
AcDbCircle
 10
251.3443306588
 20
217.3849767736
 30
0.0
 40
3.0
100
AcDbArc
 50
90.0
 51
180.0
  0
ARC
  5
34F
330
1B
100
AcDbEntity
 67
     1
  8
7_ALL_FEATURES
  6
Continuous
 62
     7
100
AcDbCircle
 10
345.3443306588
 20
217.3849767736
 30
0.0
 40
3.0
100
AcDbArc
 50
0.0
 51
90.0
  0
LINE
  5
350
330
1B
100
AcDbEntity
 67
     1
  8
7_ALL_FEATURES
  6
Continuous
 62
     7
100
AcDbLine
 10
348.3443306588
 20
216.3849767736
 30
0.0
 11
348.3443306588
 21
190.8849767736
 31
0.0
  0
LINE
  5
351
330
1B
100
AcDbEntity
 67
     1
  8
0
  6
Continuous
 62
     7
100
AcDbLine
 10
345.8443306588
 20
188.3849767736
 30
0.0
 11
313.3443306588
 21
188.3849767736
 31
0.0
  0
LINE
  5
352
330
1B
100
AcDbEntity
 67
     1
  8
7_ALL_FEATURES
  6
Continuous
 62
     7
100
AcDbLine
 10
248.3443306588
 20
216.3849767736
 30
0.0
 11
248.3443306588
 21
190.8849767736
 31
0.0
  0
LINE
  5
353
330
1B
100
AcDbEntity
 67
     1
  8
0
  6
Continuous
 62
     7
100
AcDbLine
 10
283.3443306588
 20
188.3849767736
 30
0.0
 11
250.8443306588
 21
188.3849767736
 31
0.0
  0
LINE
  5
354
330
1B
100
AcDbEntity
 67
     1
  8
7_ALL_FEATURES
  6
Continuous
 62
     7
100
AcDbLine
 10
248.3443306588
 20
216.5189513699
 30
0.0
 11
248.3443306588
 21
217.3849767736
 31
0.0
  0
LINE
  5
355
330
1B
100
AcDbEntity
 67
     1
  8
7_ALL_FEATURES
  6
Continuous
 62
     7
100
AcDbLine
 10
348.3443306588
 20
217.3849767736
 30
0.0
 11
348.3443306588
 21
216.5189513699
 31
0.0
  0
ARC
  5
356
330
1B
100
AcDbEntity
 67
     1
  8
7_ALL_FEATURES
  6
Continuous
 62
     7
100
AcDbCircle
 10
345.8443306588
 20
190.8849767736
 30
0.0
 40
2.5
100
AcDbArc
 50
270.0
 51
360.0
  0
ARC
  5
357
330
1B
100
AcDbEntity
 67
     1
  8
7_ALL_FEATURES
  6
Continuous
 62
     7
100
AcDbCircle
 10
347.3443306588
 20
216.3849767736
 30
0.0
 40
1.0
100
AcDbArc
 50
0.0
 51
90.0
  0
LINE
  5
358
330
1B
100
AcDbEntity
 67
     1
  8
7_ALL_FEATURES
  6
Continuous
 62
     7
100
AcDbLine
 10
347.3443306588
 20
217.3849767736
 30
0.0
 11
345.3443306588
 21
217.3849767736
 31
0.0
  0
ARC
  5
359
330
1B
100
AcDbEntity
 67
     1
  8
02___PRT_ALL_AXES
  6
Continuous
 62
     7
100
AcDbCircle
 10
298.3443306588
 20
198.8849767736
 30
0.0
 40
15.0
100
AcDbArc
 50
0.0
 51
180.0
  0
ARC
  5
35A
330
1B
100
AcDbEntity
 67
     1
  8
7_ALL_FEATURES
  6
Continuous
 62
     7
100
AcDbCircle
 10
250.8443306588
 20
190.8849767736
 30
0.0
 40
2.5
100
AcDbArc
 50
180.0
 51
270.0
  0
ARC
  5
35B
330
1B
100
AcDbEntity
 67
     1
  8
7_ALL_FEATURES
  6
Continuous
 62
     7
100
AcDbCircle
 10
249.3443306588
 20
216.3849767736
 30
0.0
 40
1.0
100
AcDbArc
 50
90.0
 51
180.0
  0
LINE
  5
35C
330
1B
100
AcDbEntity
 67
     1
  8
7_ALL_FEATURES
  6
Continuous
 62
     7
100
AcDbLine
 10
251.3443306588
 20
217.3849767736
 30
0.0
 11
249.3443306588
 21
217.3849767736
 31
0.0
  0
LINE
  5
35D
330
1B
100
AcDbEntity
 67
     1
  8
7_ALL_FEATURES
  6
Continuous
 62
     7
100
AcDbLine
 10
348.3443306588
 20
217.3849767736
 30
0.0
 11
347.3443306588
 21
217.3849767736
 31
0.0
  0
LINE
  5
35E
330
1B
100
AcDbEntity
 67
     1
  8
7_ALL_FEATURES
  6
Continuous
 62
     7
100
AcDbLine
 10
248.3443306588
 20
217.3849767736
 30
0.0
 11
249.3443306588
 21
217.3849767736
 31
0.0
  0
LINE
  5
35F
330
1B
100
AcDbEntity
 67
     1
  8
7_ALL_FEATURES
  6
Continuous
 62
     9
100
AcDbLine
 10
345.3443306588
 20
217.3849767736
 30
0.0
 11
251.3443306588
 21
217.3849767736
 31
0.0
  0
ARC
  5
360
330
1B
100
AcDbEntity
 67
     1
  8
7_ALL_FEATURES
  6
Continuous
 62
     3
100
AcDbCircle
 10
251.3443306588
 20
217.3849767736
 30
0.0
 40
1.5
100
AcDbArc
 50
90.0
 51
180.0
  0
ARC
  5
361
330
1B
100
AcDbEntity
 67
     1
  8
7_ALL_FEATURES
  6
Continuous
 62
     3
100
AcDbCircle
 10
345.3443306588
 20
217.3849767736
 30
0.0
 40
1.5
100
AcDbArc
 50
0.0
 51
90.0
  0
DIMENSION
  5
362
330
1B
100
AcDbEntity
 67
     1
  8
0
  6
Continuous
 62
     2
100
AcDbDimension
280
     0
  2
*D1
 10
172.0048564189
 20
161.2702702703
 30
0.0
 11
122.1337454224
 21
161.2702702703
 31
0.0
 70
   160
 71
     5
 42
-1.0
 73
     0
 74
     0
 75
     0
  3
DIMSTYLE_1
100
AcDbAlignedDimension
 13
72.0048564189
 23
150.804054054
 33
0.0
 14
172.0048564189
 24
151.203125
 34
0.0
100
AcDbRotatedDimension
  0
DIMENSION
  5
363
330
1B
100
AcDbEntity
 67
     1
  8
0
  6
Continuous
 62
     2
100
AcDbDimension
280
     0
  2
*D2
 10
55.3600084459
 20
47.4189189189
 30
0.0
 11
55.3600084459
 21
97.547807541
 31
0.0
 70
   160
 71
     5
 42
-1.0
 73
     0
 74
     0
 75
     0
  3
DIMSTYLE_1
100
AcDbAlignedDimension
 13
67.0234375
 23
147.4189189189
 33
0.0
 14
67.4225084459
 24
47.4189189189
 34
0.0
 50
270.0
100
AcDbRotatedDimension
  0
DIMENSION
  5
364
330
1B
100
AcDbEntity
 67
     1
  8
0
  6
Continuous
 62
     2
100
AcDbDimension
280
     0
  2
*D3
 10
55.3600084459
 20
243.3849767736
 30
0.0
 11
55.3600084459
 21
215.8880825779
 31
0.0
 70
   160
 71
     5
 42
-1.0
 73
     0
 74
     0
 75
     0
  3
DIMSTYLE_1
100
AcDbAlignedDimension
 13
62.0960726351
 23
188.3849767736
 33
0.0
 14
62.0960726351
 24
243.3849767736
 34
0.0
 50
90.0
100
AcDbRotatedDimension
  0
DIMENSION
  5
365
330
1B
100
AcDbEntity
 67
     1
  8
0
  6
Continuous
 62
     2
100
AcDbDimension
280
     0
  2
*D4
 10
55.3600084459
 20
250.3849767736
 30
0.0
 11
55.3600084459
 21
259.6649307045
 31
0.0
 70
   160
 71
     5
 42
-1.0
 73
     0
 74
     0
 75
     0
  3
DIMSTYLE_2
100
AcDbAlignedDimension
 13
62.0960726351
 23
243.3849767736
 33
0.0
 14
63.4828969595
 24
250.3849767736
 34
0.0
 50
90.0
100
AcDbRotatedDimension
  0
DIMENSION
  5
366
330
1B
100
AcDbEntity
 67
     1
  8
0
  6
Continuous
 62
     2
100
AcDbDimension
280
     0
  2
*D5
 10
181.9070016892
 20
72.4189189189
 30
0.0
 11
181.9070016892
 21
97.4108717815
 31
0.0
 70
   160
 71
     5
 42
-1.0
 73
     0
 74
     0
 75
     0
  3
DIMSTYLE_1
100
AcDbAlignedDimension
 13
157.3807010135
 23
122.4189189189
 33
0.0
 14
157.7797719595
 24
72.4189189189
 34
0.0
 50
270.0
100
AcDbRotatedDimension
  0
DIMENSION
  5
367
330
1B
100
AcDbEntity
 67
     1
  8
0
  6
Continuous
 62
     2
100
AcDbDimension
280
     0
  2
*D6
 10
97.0048564189
 20
35.9013344595
 30
0.0
 11
121.9968109131
 21
35.9013344595
 31
0.0
 70
   160
 71
     5
 42
-1.0
 73
     0
 74
     0
 75
     0
  3
DIMSTYLE_1
100
AcDbAlignedDimension
 13
147.0048564189
 23
60.4467905405
 33
0.0
 14
97.0048564189
 24
62.8412162162
 34
0.0
 50
180.0
100
AcDbRotatedDimension
  0
LINE
  5
368
330
1B
100
AcDbEntity
 67
     1
  8
0
  6
Continuous
 62
     2
100
AcDbLine
 10
280.7601205692
 20
72.3455743202
 30
0.0
 11
410.7601205689
 21
72.3455743202
 31
0.0
  0
LINE
  5
369
330
1B
100
AcDbEntity
 67
     1
  8
0
  6
Continuous
 62
     2
100
AcDbLine
 10
280.7601205692
 20
72.3455743202
 30
0.0
 11
280.7601205692
 21
6.3455743204
 31
0.0
  0
LINE
  5
36A
330
1B
100
AcDbEntity
 67
     1
  8
0
  6
Continuous
 62
     2
100
AcDbLine
 10
310.7601205691
 20
64.3455743202
 30
0.0
 11
410.7601205689
 21
64.3455743202
 31
0.0
  0
LINE
  5
36B
330
1B
100
AcDbEntity
 67
     1
  8
0
  6
Continuous
 62
     2
100
AcDbLine
 10
280.7601205692
 20
56.3455743203
 30
0.0
 11
410.7601205689
 21
56.3455743203
 31
0.0
  0
LINE
  5
36C
330
1B
100
AcDbEntity
 67
     1
  8
0
  6
Continuous
 62
     2
100
AcDbLine
 10
310.7601205691
 20
50.3455743203
 30
0.0
 11
410.7601205689
 21
50.3455743203
 31
0.0
  0
LINE
  5
36D
330
1B
100
AcDbEntity
 67
     1
  8
0
  6
Continuous
 62
     2
100
AcDbLine
 10
310.7601205691
 20
44.3455743203
 30
0.0
 11
410.7601205689
 21
44.3455743203
 31
0.0
  0
LINE
  5
36E
330
1B
100
AcDbEntity
 67
     1
  8
0
  6
Continuous
 62
     2
100
AcDbLine
 10
310.7601205691
 20
38.3455743203
 30
0.0
 11
410.7601205689
 21
38.3455743203
 31
0.0
  0
LINE
  5
36F
330
1B
100
AcDbEntity
 67
     1
  8
0
  6
Continuous
 62
     2
100
AcDbLine
 10
310.7601205691
 20
32.3455743203
 30
0.0
 11
410.7601205689
 21
32.3455743203
 31
0.0
  0
LINE
  5
370
330
1B
100
AcDbEntity
 67
     1
  8
0
  6
Continuous
 62
     2
100
AcDbLine
 10
310.7601205691
 20
26.3455743203
 30
0.0
 11
410.7601205689
 21
26.3455743203
 31
0.0
  0
LINE
  5
371
330
1B
100
AcDbEntity
 67
     1
  8
0
  6
Continuous
 62
     2
100
AcDbLine
 10
280.7601205692
 20
20.3455743203
 30
0.0
 11
410.7601205689
 21
20.3455743203
 31
0.0
  0
LINE
  5
372
330
1B
100
AcDbEntity
 67
     1
  8
0
  6
Continuous
 62
     2
100
AcDbLine
 10
280.7601205692
 20
14.3455743204
 30
0.0
 11
410.7601205689
 21
14.3455743204
 31
0.0
  0
LINE
  5
373
330
1B
100
AcDbEntity
 67
     1
  8
0
  6
Continuous
 62
     2
100
AcDbLine
 10
280.7601205692
 20
10.3455743204
 30
0.0
 11
410.7601205689
 21
10.3455743204
 31
0.0
  0
LINE
  5
374
330
1B
100
AcDbEntity
 67
     1
  8
0
  6
Continuous
 62
     2
100
AcDbLine
 10
280.7601205692
 20
6.3455743204
 30
0.0
 11
410.7601205689
 21
6.3455743204
 31
0.0
  0
LINE
  5
375
330
1B
100
AcDbEntity
 67
     1
  8
0
  6
Continuous
 62
     2
100
AcDbLine
 10
310.7601205691
 20
72.3455743202
 30
0.0
 11
310.7601205691
 21
14.3455743204
 31
0.0
  0
LINE
  5
376
330
1B
100
AcDbEntity
 67
     1
  8
0
  6
Continuous
 62
     2
100
AcDbLine
 10
330.7601205691
 20
56.3455743203
 30
0.0
 11
330.7601205691
 21
50.3455743203
 31
0.0
  0
LINE
  5
377
330
1B
100
AcDbEntity
 67
     1
  8
0
  6
Continuous
 62
     2
100
AcDbLine
 10
360.760120569
 20
26.3455743203
 30
0.0
 11
360.760120569
 21
14.3455743204
 31
0.0
  0
LINE
  5
378
330
1B
100
AcDbEntity
 67
     1
  8
0
  6
Continuous
 62
     2
100
AcDbLine
 10
370.760120569
 20
56.3455743203
 30
0.0
 11
370.760120569
 21
50.3455743203
 31
0.0
  0
LINE
  5
379
330
1B
100
AcDbEntity
 67
     1
  8
0
  6
Continuous
 62
     2
100
AcDbLine
 10
370.760120569
 20
44.3455743203
 30
0.0
 11
370.760120569
 21
38.3455743203
 31
0.0
  0
LINE
  5
37A
330
1B
100
AcDbEntity
 67
     1
  8
0
  6
Continuous
 62
     2
100
AcDbLine
 10
390.7601205689
 20
56.3455743203
 30
0.0
 11
390.7601205689
 21
50.3455743203
 31
0.0
  0
LINE
  5
37B
330
1B
100
AcDbEntity
 67
     1
  8
0
  6
Continuous
 62
     2
100
AcDbLine
 10
400.7601205689
 20
44.3455743203
 30
0.0
 11
400.7601205689
 21
38.3455743203
 31
0.0
  0
LINE
  5
37C
330
1B
100
AcDbEntity
 67
     1
  8
0
  6
Continuous
 62
     2
100
AcDbLine
 10
410.7601205689
 20
72.3455743202
 30
0.0
 11
410.7601205689
 21
6.3455743204
 31
0.0
  0
INSERT
  5
37D
330
1B
100
AcDbEntity
 67
     1
  8
0
  6
Continuous
 62
     2
100
AcDbBlockReference
  2
PROIEZIONE_EU_BL0
 10
295.7601205692
 20
63.9705743202
 30
0.0
  0
MTEXT
  5
37E
330
1B
100
AcDbEntity
 67
     1
  8
9_SOLID
  6
Continuous
 62
     2
100
AcDbMText
 10
312.2476205691
 20
70.7205743202
 30
0.0
 40
1.9
 41
142.3642857143
 46
0.0
 71
     1
 72
     1
  1
EN: Chamfer/radii unlisted 0.3x45°. Remove sharp edges.\PGen. tol.: hole H11, shaft h11, lenght Js12. UNI EN 22768 Medium Grande.
  7
TEXTSTYLE_3
 73
     1
 44
1.0
  0
MTEXT
  5
37F
330
1B
100
AcDbEntity
 67
     1
  8
9_SOLID
  6
Continuous
 62
     2
100
AcDbMText
 10
312.2476205691
 20
62.7205743203
 30
0.0
 40
1.9
 41
148.2678571429
 46
0.0
 71
     1
 72
     1
  1
IT: Sm./rac. non quotati 0.3x45°. Eliminare spigoli taglienti.\PToll. gen.: foro H11, albero h11, lunghezza Js12. UNI EN 22768 Grado Medio.
  7
TEXTSTYLE_3
 73
     1
 44
1.0
  0
INSERT
  5
380
330
1B
100
AcDbEntity
 67
     1
  8
0
  6
Continuous
 62
     2
100
AcDbBlockReference
  2
LOGO2_BL1
 10
294.5861676139
 20
38.3455743203
 30
0.0
  0
MTEXT
  5
381
330
1B
100
AcDbEntity
 67
     1
  8
9_SOLID
  6
Continuous
 62
     2
100
AcDbMText
 10
312.2476205691
 20
54.5955743203
 30
0.0
 40
3.0
 41
21.4285714286
 46
0.0
 71
     1
 72
     1
  1
Pj: 721
  7
TEXTSTYLE_3
 73
     1
 44
1.0
  0
MTEXT
  5
382
330
1B
100
AcDbEntity
 67
     1
  8
0
  6
Continuous
 62
     2
100
AcDbMText
 10
332.2476205691
 20
54.5955743203
 30
0.0
 40
3.0
 41
41.5714285714
 46
0.0
 71
     1
 72
     1
  1
% Check:  %
  7
TEXTSTYLE_3
 73
     1
 44
1.0
  0
MTEXT
  5
383
330
1B
100
AcDbEntity
 67
     1
  8
9_SOLID
  6
Continuous
 62
     2
100
AcDbMText
 10
372.247620569
 20
54.5955743203
 30
0.0
 40
3.0
 41
19.5
 46
0.0
 71
     1
 72
     1
  1
Rev:00
  7
TEXTSTYLE_3
 73
     1
 44
1.0
  0
MTEXT
  5
384
330
1B
100
AcDbEntity
 67
     1
  8
9_SOLID
  6
Continuous
 62
     2
100
AcDbMText
 10
392.2476205689
 20
54.8455743203
 30
0.0
 40
3.0
 41
19.7142857143
 46
0.0
 71
     1
 72
     1
  1
Ver: A
  7
TEXTSTYLE_3
 73
     1
 44
1.0
  0
MTEXT
  5
385
330
1B
100
AcDbEntity
 67
     1
  8
9_SOLID
  6
Continuous
 62
     2
100
AcDbMText
 10
312.2476205691
 20
48.5955743203
 30
0.0
 40
3.0
 41
42.9642857143
 46
0.0
 71
     1
 72
     1
  1
Neutral code: 
  7
TEXTSTYLE_3
 73
     1
 44
1.0
  0
MTEXT
  5
386
330
1B
100
AcDbEntity
 67
     1
  8
0
  6
Continuous
 62
     2
100
AcDbMText
 10
312.2476205691
 20
42.5955743203
 30
0.0
 40
3.0
 41
22.9285714286
 46
0.0
 71
     1
 72
     1
  1
Code:  
  7
TEXTSTYLE_3
 73
     1
 44
1.0
  0
MTEXT
  5
387
330
1B
100
AcDbEntity
 67
     1
  8
9_SOLID
  6
Continuous
 62
     2
100
AcDbMText
 10
372.247620569
 20
42.8455743203
 30
0.0
 40
3.0
 41
27.8571428571
 46
0.0
 71
     1
 72
     1
  1
Scale: 1:1
  7
TEXTSTYLE_3
 73
     1
 44
1.0
  0
MTEXT
  5
388
330
1B
100
AcDbEntity
 67
     1
  8
9_SOLID
  6
Continuous
 62
     2
100
AcDbMText
 10
405.7601205689
 20
42.8455743203
 30
0.0
 40
3.0
 41
7.9285714286
 46
0.0
 71
     2
 72
     1
  1
A3
  7
TEXTSTYLE_3
 73
     1
 44
1.0
  0
MTEXT
  5
389
330
1B
100
AcDbEntity
 67
     1
  8
9_SOLID
  6
Continuous
 62
     2
100
AcDbMText
 10
312.2476205691
 20
36.8455743203
 30
0.0
 40
3.0
 41
103.0714285714
 46
0.0
 71
     1
 72
     1
  1
It descr.: CASSAFORMA GOCCIA2.1
  7
TEXTSTYLE_3
 73
     1
 44
1.0
  0
MTEXT
  5
38A
330
1B
100
AcDbEntity
 67
     1
  8
0
  6
Continuous
 62
     2
100
AcDbMText
 10
312.2476205691
 20
30.8455743203
 30
0.0
 40
3.0
 41
37.5
 46
0.0
 71
     1
 72
     1
  1
En descr.:  
  7
TEXTSTYLE_3
 73
     1
 44
1.0
  0
MTEXT
  5
38B
330
1B
100
AcDbEntity
 67
     1
  8
9_SOLID
  6
Continuous
 62
     2
100
AcDbMText
 10
312.2476205691
 20
24.8455743203
 30
0.0
 40
3.0
 41
31.2857142857
 46
0.0
 71
     1
 72
     1
  1
Des.: S.Z.
  7
TEXTSTYLE_3
 73
     1
 44
1.0
  0
MTEXT
  5
38C
330
1B
100
AcDbEntity
 67
     1
  8
9_SOLID
  6
Continuous
 62
     2
100
AcDbMText
 10
362.247620569
 20
24.8455743203
 30
0.0
 40
3.0
 41
34.8214285714
 46
0.0
 71
     1
 72
     1
  1
Check: A.P.
  7
TEXTSTYLE_3
 73
     1
 44
1.0
  0
MTEXT
  5
38D
330
1B
100
AcDbEntity
 67
     1
  8
9_SOLID
  6
Continuous
 62
     2
100
AcDbMText
 10
282.2476205692
 20
18.8455743204
 30
0.0
 40
3.0
 41
42.5357142857
 46
0.0
 71
     1
 72
     1
  1
Date: 17.12.18
  7
TEXTSTYLE_3
 73
     1
 44
1.0
  0
MTEXT
  5
38E
330
1B
100
AcDbEntity
 67
     1
  8
0
  6
Continuous
 62
     2
100
AcDbMText
 10
312.2476205691
 20
18.8455743204
 30
0.0
 40
3.0
 41
21.75
 46
0.0
 71
     1
 72
     1
  1
Mat.:  
  7
TEXTSTYLE_3
 73
     1
 44
1.0
  0
MTEXT
  5
38F
330
1B
100
AcDbEntity
 67
     1
  8
9_SOLID
  6
Continuous
 62
     2
100
AcDbMText
 10
362.247620569
 20
18.3455743204
 30
0.0
 40
2.0
 41
42.3571428571
 46
0.0
 71
     1
 72
     1
  1
Disegno per catalogo
  7
TEXTSTYLE_3
 73
     1
 44
1.0
  0
MTEXT
  5
390
330
1B
100
AcDbEntity
 67
     1
  8
9_SOLID
  6
Continuous
 62
     2
100
AcDbMText
 10
282.2476205692
 20
13.2455743204
 30
0.0
 40
1.8
 41
176.2071428571
 46
0.0
 71
     1
 72
     1
  1
It: A norma di legge si diffida da qualsiasi riproduzione senza nostra autorizzazione esplicita.
  7
TEXTSTYLE_3
 73
     1
 44
1.0
  0
MTEXT
  5
391
330
1B
100
AcDbEntity
 67
     1
  8
9_SOLID
  6
Continuous
 62
     2
100
AcDbMText
 10
282.2476205692
 20
9.2455743204
 30
0.0
 40
1.8
 41
158.1428571429
 46
0.0
 71
     1
 72
     1
  1
En: According to the law, beware of any reproduction made without our authorization.
  7
TEXTSTYLE_3
 73
     1
 44
1.0
  0
ENDSEC
  0
SECTION
  2
OBJECTS
  0
DICTIONARY
  5
392
330
0
100
AcDbDictionary
281
     1
  3
ACAD_DETAILVIEWSTYLE
350
3E8
  3
ACAD_GROUP
350
393
  3
ACAD_LAYOUT
350
3BB
  3
ACAD_MATERIAL
350
3D7
  3
ACAD_MLEADERSTYLE
350
3DD
  3
ACAD_MLINESTYLE
350
394
  3
ACAD_PLOTSETTINGS
350
396
  3
ACAD_PLOTSTYLENAME
350
397
  3
ACAD_SCALELIST
350
399
  3
ACAD_SECTIONVIEWSTYLE
350
3E9
  3
ACAD_TABLESTYLE
350
3DB
  3
ACAD_VISUALSTYLE
350
3BE
  3
ACDB_RECOMPOSE_DATA
350
3E4
  3
AcDbVariableDictionary
350
3E0
  3
APPDATA
350
3DF
  0
DICTIONARY
  5
3E8
102
{ACAD_REACTORS
330
392
102
}
330
392
100
AcDbDictionary
281
     1
  0
DICTIONARY
  5
393
102
{ACAD_REACTORS
330
392
102
}
330
392
100
AcDbDictionary
281
     1
  0
DICTIONARY
  5
3BB
102
{ACAD_REACTORS
330
392
102
}
330
392
100
AcDbDictionary
281
     1
  3
Foglio 1
350
3BD
  3
Model
350
3BC
  0
DICTIONARY
  5
3D7
102
{ACAD_REACTORS
330
392
102
}
330
392
100
AcDbDictionary
281
     1
  3
ByBlock
350
3D9
  3
ByLayer
350
3D8
  3
Global
350
3DA
  0
DICTIONARY
  5
3DD
102
{ACAD_REACTORS
330
392
102
}
330
392
100
AcDbDictionary
281
     1
  3
Standard
350
3DE
  0
DICTIONARY
  5
394
102
{ACAD_REACTORS
330
392
102
}
330
392
100
AcDbDictionary
281
     1
  3
STANDARD
350
395
  0
DICTIONARY
  5
396
102
{ACAD_REACTORS
330
392
102
}
330
392
100
AcDbDictionary
281
     1
  0
ACDBDICTIONARYWDFLT
  5
397
102
{ACAD_REACTORS
330
392
102
}
330
392
100
AcDbDictionary
281
     1
  3
Normal
350
398
100
AcDbDictionaryWithDefault
340
398
  0
DICTIONARY
  5
399
102
{ACAD_REACTORS
330
392
102
}
330
392
100
AcDbDictionary
281
     1
  3
A0
350
39A
  3
A1
350
39B
  3
A2
350
39C
  3
A3
350
39D
  3
A4
350
39E
  3
A5
350
39F
  3
A6
350
3A0
  3
A7
350
3A1
  3
A8
350
3A2
  3
A9
350
3A3
  3
B0
350
3A4
  3
B1
350
3A5
  3
B2
350
3A6
  3
B3
350
3A7
  3
B4
350
3A8
  3
B5
350
3A9
  3
B6
350
3AA
  3
B7
350
3AB
  3
B8
350
3AC
  3
B9
350
3AD
  3
C0
350
3AE
  3
C1
350
3AF
  3
C2
350
3B0
  3
C3
350
3B1
  3
C4
350
3B2
  3
C5
350
3B3
  3
C6
350
3B4
  3
C7
350
3B5
  3
C8
350
3B6
  3
C9
350
3B7
  3
D0
350
3B8
  3
D1
350
3B9
  3
D2
350
3BA
  0
DICTIONARY
  5
3E9
102
{ACAD_REACTORS
330
392
102
}
330
392
100
AcDbDictionary
281
     1
  0
DICTIONARY
  5
3DB
102
{ACAD_REACTORS
330
392
102
}
330
392
100
AcDbDictionary
281
     1
  3
Standard
350
3DC
  0
DICTIONARY
  5
3BE
102
{ACAD_REACTORS
330
392
102
}
330
392
100
AcDbDictionary
281
     1
  3
2dWireframe
350
3C3
  3
Basic
350
3C6
  3
Brighten
350
3CA
  3
ColorChange
350
3CE
  3
Conceptual
350
3C8
  3
Dim
350
3C9
  3
EdgeColorOff
350
3D1
  3
Facepattern
350
3CD
  3
Flat
350
3BF
  3
FlatWithEdges
350
3C0
  3
Gouraud
350
3C1
  3
GouraudWithEdges
350
3C2
  3
Hidden
350
3C5
  3
JitterOff
350
3CF
  3
Linepattern
350
3CC
  3
OverhangOff
350
3D0
  3
Realistic
350
3C7
  3
Shaded
350
3D6
  3
Shaded with edges
350
3D5
  3
Shades of Gray
350
3D2
  3
Sketchy
350
3D3
  3
Thicken
350
3CB
  3
Wireframe
350
3C4
  3
X-Ray
350
3D4
  0
XRECORD
  5
3E4
102
{ACAD_REACTORS
330
392
102
}
330
392
100
AcDbXrecord
280
     1
 90
        1
330
3DC
  0
DICTIONARY
  5
3E0
102
{ACAD_REACTORS
330
392
102
}
330
392
100
AcDbDictionary
281
     1
  3
CANNOSCALE
350
3E1
  3
CMLEADERSTYLE
350
3E6
  3
CTABLESTYLE
350
3E5
  3
MSLTSCALE
350
3E7
  0
DICTIONARY
  5
3DF
102
{ACAD_REACTORS
330
392
102
}
330
392
100
AcDbDictionary
281
     1
  0
LAYOUT
  5
3BD
102
{ACAD_REACTORS
330
3BB
102
}
330
3BB
100
AcDbPlotSettings
  1

  2
none_device
  4
ISO_A3_(420.00_x_297.00_MM)
  6

 40
7.5
 41
20.0
 42
7.5
 43
20.0
 44
420.0
 45
297.0
 46
0.0
 47
0.0
 48
0.0
 49
0.0
140
0.0
141
0.0
142
1.0
143
1.155642023346303
 70
   688
 72
     1
 73
     0
 74
     1
  7

 75
     0
 76
     0
 77
     2
 78
   300
147
0.8653198653198654
148
0.0
149
0.0
100
AcDbLayout
  1
Foglio 1
 70
     1
 71
     1
 10
0.0
 20
0.0
 11
412.5
 21
277.0
 12
0.0
 22
0.0
 32
0.0
 14
0.0
 24
0.0
 34
0.0
 15
420.0
 25
297.0
 35
0.0
146
0.0
 13
0.0
 23
0.0
 33
0.0
 16
1.0
 26
0.0
 36
0.0
 17
0.0
 27
1.0
 37
0.0
 76
     0
330
1B
331
2B3
  0
LAYOUT
  5
3BC
102
{ACAD_REACTORS
330
3BB
102
}
330
3BB
100
AcDbPlotSettings
  1

  2
none_device
  4
Letter_(8.50_x_11.00_Inches)
  6

 40
6.35
 41
6.35
 42
6.35
 43
6.35
 44
215.9
 45
279.4
 46
0.0
 47
0.0
 48
0.0
 49
0.0
140
0.0
141
0.0
142
1.0
143
52.49999999846251
 70
  1712
 72
     0
 73
     0
 74
     0
  7

 75
     0
 76
     0
 77
     2
 78
   300
147
0.0190476190481769
148
-0.0000001562100806
149
0.0
100
AcDbLayout
  1
Model
 70
     1
 71
     0
 10
0.0
 20
0.0
 11
420.0
 21
297.0
 12
0.0
 22
0.0
 32
0.0
 14
0.0
 24
0.0
 34
0.0
 15
420.0
 25
297.0
 35
0.0
146
0.0
 13
0.0
 23
0.0
 33
0.0
 16
1.0
 26
0.0
 36
0.0
 17
0.0
 27
1.0
 37
0.0
 76
     0
330
1F
331
1F4
  0
MATERIAL
  5
3D9
102
{ACAD_REACTORS
330
3D7
102
}
330
3D7
100
AcDbMaterial
  1
ByBlock
 72
     1
 94
      127
  0
MATERIAL
  5
3D8
102
{ACAD_REACTORS
330
3D7
102
}
330
3D7
100
AcDbMaterial
  1
ByLayer
 72
     1
 94
      127
  0
MATERIAL
  5
3DA
102
{ACAD_REACTORS
330
3D7
102
}
330
3D7
100
AcDbMaterial
  1
Global
 72
     1
 94
      127
  0
MLEADERSTYLE
  5
3DE
102
{ACAD_REACTORS
330
3DD
102
}
330
3DD
100
AcDbMLeaderStyle
179
     2
170
     2
171
     1
172
     0
 90
        2
 40
0.0
 41
0.0
173
     1
 91
-1056964608
340
14
 92
       -2
290
     1
 42
2.0
291
     1
 43
8.0
  3
Standard
341
0
 44
4.0
300

342
11
174
     1
178
     1
175
     1
176
     0
 93
-1056964608
 45
4.0
292
     0
297
     0
 46
4.0
343
0
 94
-1056964608
 47
1.0
 49
1.0
140
1.0
293
     1
141
0.0
294
     1
177
     0
142
1.0
295
     0
296
     0
143
3.75
271
     0
272
     9
273
     9
298
     0
  0
MLINESTYLE
  5
395
102
{ACAD_REACTORS
330
394
102
}
330
394
100
AcDbMlineStyle
  2
STANDARD
 70
     0
  3

 62
   256
 51
90.0
 52
90.0
 71
     2
 49
0.5
 62
   256
  6
BYLAYER
 49
-0.5
 62
   256
  6
BYLAYER
  0
ACDBPLACEHOLDER
  5
398
102
{ACAD_REACTORS
330
397
102
}
330
397
  0
SCALE
  5
39A
102
{ACAD_REACTORS
330
399
102
}
330
399
100
AcDbScale
 70
     0
300
1:1
140
1.0
141
1.0
290
     1
  0
SCALE
  5
39B
102
{ACAD_REACTORS
330
399
102
}
330
399
100
AcDbScale
 70
     0
300
1:2
140
1.0
141
2.0
290
     0
  0
SCALE
  5
39C
102
{ACAD_REACTORS
330
399
102
}
330
399
100
AcDbScale
 70
     0
300
1:4
140
1.0
141
4.0
290
     0
  0
SCALE
  5
39D
102
{ACAD_REACTORS
330
399
102
}
330
399
100
AcDbScale
 70
     0
300
1:5
140
1.0
141
5.0
290
     0
  0
SCALE
  5
39E
102
{ACAD_REACTORS
330
399
102
}
330
399
100
AcDbScale
 70
     0
300
1:8
140
1.0
141
8.0
290
     0
  0
SCALE
  5
39F
102
{ACAD_REACTORS
330
399
102
}
330
399
100
AcDbScale
 70
     0
300
1:10
140
1.0
141
10.0
290
     0
  0
SCALE
  5
3A0
102
{ACAD_REACTORS
330
399
102
}
330
399
100
AcDbScale
 70
     0
300
1:16
140
1.0
141
16.0
290
     0
  0
SCALE
  5
3A1
102
{ACAD_REACTORS
330
399
102
}
330
399
100
AcDbScale
 70
     0
300
1:20
140
1.0
141
20.0
290
     0
  0
SCALE
  5
3A2
102
{ACAD_REACTORS
330
399
102
}
330
399
100
AcDbScale
 70
     0
300
1:30
140
1.0
141
30.0
290
     0
  0
SCALE
  5
3A3
102
{ACAD_REACTORS
330
399
102
}
330
399
100
AcDbScale
 70
     0
300
1:40
140
1.0
141
40.0
290
     0
  0
SCALE
  5
3A4
102
{ACAD_REACTORS
330
399
102
}
330
399
100
AcDbScale
 70
     0
300
1:50
140
1.0
141
50.0
290
     0
  0
SCALE
  5
3A5
102
{ACAD_REACTORS
330
399
102
}
330
399
100
AcDbScale
 70
     0
300
1:100
140
1.0
141
100.0
290
     0
  0
SCALE
  5
3A6
102
{ACAD_REACTORS
330
399
102
}
330
399
100
AcDbScale
 70
     0
300
2:1
140
2.0
141
1.0
290
     0
  0
SCALE
  5
3A7
102
{ACAD_REACTORS
330
399
102
}
330
399
100
AcDbScale
 70
     0
300
4:1
140
4.0
141
1.0
290
     0
  0
SCALE
  5
3A8
102
{ACAD_REACTORS
330
399
102
}
330
399
100
AcDbScale
 70
     0
300
8:1
140
8.0
141
1.0
290
     0
  0
SCALE
  5
3A9
102
{ACAD_REACTORS
330
399
102
}
330
399
100
AcDbScale
 70
     0
300
10:1
140
10.0
141
1.0
290
     0
  0
SCALE
  5
3AA
102
{ACAD_REACTORS
330
399
102
}
330
399
100
AcDbScale
 70
     0
300
100:1
140
100.0
141
1.0
290
     0
  0
SCALE
  5
3AB
102
{ACAD_REACTORS
330
399
102
}
330
399
100
AcDbScale
 70
     0
300
1/128" = 1'-0"
140
0.0078125
141
12.0
290
     0
  0
SCALE
  5
3AC
102
{ACAD_REACTORS
330
399
102
}
330
399
100
AcDbScale
 70
     0
300
1/64" = 1'-0"
140
0.015625
141
12.0
290
     0
  0
SCALE
  5
3AD
102
{ACAD_REACTORS
330
399
102
}
330
399
100
AcDbScale
 70
     0
300
1/32" = 1'-0"
140
0.03125
141
12.0
290
     0
  0
SCALE
  5
3AE
102
{ACAD_REACTORS
330
399
102
}
330
399
100
AcDbScale
 70
     0
300
1/16" = 1'-0"
140
0.0625
141
12.0
290
     0
  0
SCALE
  5
3AF
102
{ACAD_REACTORS
330
399
102
}
330
399
100
AcDbScale
 70
     0
300
3/32" = 1'-0"
140
0.09375
141
12.0
290
     0
  0
SCALE
  5
3B0
102
{ACAD_REACTORS
330
399
102
}
330
399
100
AcDbScale
 70
     0
300
1/8" = 1'-0"
140
0.125
141
12.0
290
     0
  0
SCALE
  5
3B1
102
{ACAD_REACTORS
330
399
102
}
330
399
100
AcDbScale
 70
     0
300
3/16" = 1'-0"
140
0.1875
141
12.0
290
     0
  0
SCALE
  5
3B2
102
{ACAD_REACTORS
330
399
102
}
330
399
100
AcDbScale
 70
     0
300
1/4" = 1'-0"
140
0.25
141
12.0
290
     0
  0
SCALE
  5
3B3
102
{ACAD_REACTORS
330
399
102
}
330
399
100
AcDbScale
 70
     0
300
3/8" = 1'-0"
140
0.375
141
12.0
290
     0
  0
SCALE
  5
3B4
102
{ACAD_REACTORS
330
399
102
}
330
399
100
AcDbScale
 70
     0
300
1/2" = 1'-0"
140
0.5
141
12.0
290
     0
  0
SCALE
  5
3B5
102
{ACAD_REACTORS
330
399
102
}
330
399
100
AcDbScale
 70
     0
300
3/4" = 1'-0"
140
0.75
141
12.0
290
     0
  0
SCALE
  5
3B6
102
{ACAD_REACTORS
330
399
102
}
330
399
100
AcDbScale
 70
     0
300
1" = 1'-0"
140
1.0
141
12.0
290
     0
  0
SCALE
  5
3B7
102
{ACAD_REACTORS
330
399
102
}
330
399
100
AcDbScale
 70
     0
300
1-1/2" = 1'-0"
140
1.5
141
12.0
290
     0
  0
SCALE
  5
3B8
102
{ACAD_REACTORS
330
399
102
}
330
399
100
AcDbScale
 70
     0
300
3" = 1'-0"
140
3.0
141
12.0
290
     0
  0
SCALE
  5
3B9
102
{ACAD_REACTORS
330
399
102
}
330
399
100
AcDbScale
 70
     0
300
6" = 1'-0"
140
6.0
141
12.0
290
     0
  0
SCALE
  5
3BA
102
{ACAD_REACTORS
330
399
102
}
330
399
100
AcDbScale
 70
     0
300
1'-0" = 1'-0"
140
12.0
141
12.0
290
     0
  0
TABLESTYLE
  5
3DC
102
{ACAD_REACTORS
330
3DB
102
}
102
{ACAD_XDICTIONARY
360
3E2
102
}
330
3DB
100
AcDbTableStyle
  3
Standard
 70
     0
 71
     0
 40
0.06
 41
0.06
280
     0
281
     0
  7
STANDARD
140
4.5
170
     2
 62
     0
 63
   257
283
     0
 90
        4
 91
        0
  1

274
    -2
284
     1
 64
     0
275
    -2
285
     1
 65
     0
276
    -2
286
     1
 66
     0
277
    -2
287
     1
 67
     0
278
    -2
288
     1
 68
     0
279
    -2
289
     1
 69
     0
  7
STANDARD
140
6.0
170
     5
 62
     0
 63
   257
283
     0
 90
        4
 91
        0
  1

274
    -2
284
     1
 64
     0
275
    -2
285
     1
 65
     0
276
    -2
286
     1
 66
     0
277
    -2
287
     1
 67
     0
278
    -2
288
     1
 68
     0
279
    -2
289
     1
 69
     0
  7
STANDARD
140
4.5
170
     5
 62
     0
 63
   257
283
     0
 90
        4
 91
        0
  1

274
    -2
284
     1
 64
     0
275
    -2
285
     1
 65
     0
276
    -2
286
     1
 66
     0
277
    -2
287
     1
 67
     0
278
    -2
288
     1
 68
     0
279
    -2
289
     1
 69
     0
  0
VISUALSTYLE
  5
3C3
102
{ACAD_REACTORS
330
3BE
102
}
330
3BE
100
AcDbVisualStyle
  2
2dWireframe
 70
     4
177
     3
291
     0
 70
    58
 90
        0
176
     1
 90
        2
176
     1
 90
        0
176
     1
 90
        0
176
     1
 40
0.6
176
     1
 40
30.0
176
     1
 62
     7
420
 16777215
176
     1
 90
        1
176
     1
 90
        4
176
     1
 62
     7
176
     1
 62
   257
176
     1
 90
        1
176
     1
 90
        1
176
     1
 40
1.0
176
     1
 90
        0
176
     1
 62
   257
176
     1
 40
1.0
176
     1
 90
        1
176
     1
 90
        6
176
     1
 90
        2
176
     1
 62
     7
176
     1
 90
        5
176
     1
 90
        0
176
     1
 90
        0
176
     1
290
     0
176
     1
 90
        1
176
     1
 40
0.0
176
     1
 90
        0
176
     1
290
     1
176
     1
290
     1
176
     1
290
     0
176
     1
290
     0
176
     1
290
     0
176
     1
290
     0
176
     1
290
     0
176
     1
290
     0
176
     1
290
     0
176
     1
 90
       50
176
     1
 40
0.0
176
     1
 40
1.0
176
     1
 90
        0
176
     1
 62
    18
420
        0
176
     1
 90
       50
176
     1
 90
        3
176
     1
 62
     5
420
      255
176
     1
290
     0
176
     1
 90
       50
176
     1
 90
       50
176
     1
 90
       50
176
     1
290
     0
176
     1
 90
       50
176
     1
 62
   256
176
     0
 40
1.0
176
     0
 90
        2
176
     1
  1
strokes_ogs.tif
176
     1
290
     0
176
     1
 40
1.0
176
     1
 40
1.0
176
     1
  0
VISUALSTYLE
  5
3C6
102
{ACAD_REACTORS
330
3BE
102
}
330
3BE
100
AcDbVisualStyle
  2
Basic
 70
     7
177
     3
291
     1
 70
    58
 90
        1
176
     1
 90
        0
176
     1
 90
        1
176
     1
 90
        0
176
     1
 40
0.6
176
     1
 40
30.0
176
     1
 62
     7
420
 16777215
176
     1
 90
        0
176
     1
 90
        4
176
     1
 62
     7
176
     1
 62
   257
176
     1
 90
        1
176
     1
 90
        1
176
     1
 40
1.0
176
     1
 90
        8
176
     1
 62
     7
176
     1
 40
1.0
176
     1
 90
        1
176
     1
 90
        6
176
     1
 90
        2
176
     1
 62
     7
176
     1
 90
        5
176
     1
 90
        0
176
     1
 90
        0
176
     1
290
     0
176
     1
 90
        1
176
     1
 40
0.0
176
     1
 90
        0
176
     1
290
     0
176
     1
290
     1
176
     1
290
     1
176
     1
290
     0
176
     1
290
     0
176
     1
290
     0
176
     1
290
     0
176
     1
290
     0
176
     1
290
     0
176
     1
 90
       50
176
     1
 40
0.0
176
     1
 40
1.0
176
     1
 90
        0
176
     1
 62
    18
420
        0
176
     1
 90
       50
176
     1
 90
        3
176
     1
 62
     5
420
      255
176
     1
290
     0
176
     1
 90
       50
176
     1
 90
       50
176
     1
 90
       50
176
     1
290
     0
176
     1
 90
       50
176
     1
 62
   256
176
     0
 40
1.0
176
     0
 90
        2
176
     1
  1
strokes_ogs.tif
176
     1
290
     0
176
     1
 40
1.0
176
     1
 40
1.0
176
     1
  0
VISUALSTYLE
  5
3CA
102
{ACAD_REACTORS
330
3BE
102
}
330
3BE
100
AcDbVisualStyle
  2
Brighten
 70
    12
177
     3
291
     1
 70
    58
 90
        2
176
     1
 90
        2
176
     1
 90
        0
176
     1
 90
        0
176
     1
 40
0.6
176
     1
 40
30.0
176
     1
 62
     7
420
 16777215
176
     1
 90
        1
176
     1
 90
        4
176
     1
 62
     7
176
     1
 62
   257
176
     1
 90
        1
176
     1
 90
        1
176
     1
 40
1.0
176
     1
 90
        8
176
     1
 62
     7
176
     1
 40
1.0
176
     1
 90
        1
176
     1
 90
        6
176
     1
 90
        2
176
     1
 62
     7
176
     1
 90
        5
176
     1
 90
        0
176
     1
 90
        0
176
     1
290
     0
176
     1
 90
        1
176
     1
 40
50.0
176
     1
 90
        0
176
     1
290
     0
176
     1
290
     1
176
     1
290
     1
176
     1
290
     0
176
     1
290
     0
176
     1
290
     0
176
     1
290
     0
176
     1
290
     0
176
     1
290
     0
176
     1
 90
       50
176
     1
 40
0.0
176
     1
 40
1.0
176
     1
 90
        0
176
     1
 62
    18
420
        0
176
     1
 90
       50
176
     1
 90
        3
176
     1
 62
     5
420
      255
176
     1
290
     0
176
     1
 90
       50
176
     1
 90
       50
176
     1
 90
       50
176
     1
290
     0
176
     1
 90
       50
176
     1
 62
   256
176
     0
 40
1.0
176
     0
 90
        2
176
     1
  1
strokes_ogs.tif
176
     1
290
     0
176
     1
 40
1.0
176
     1
 40
1.0
176
     1
  0
VISUALSTYLE
  5
3CE
102
{ACAD_REACTORS
330
3BE
102
}
330
3BE
100
AcDbVisualStyle
  2
ColorChange
 70
    16
177
     3
291
     1
 70
    58
 90
        2
176
     1
 90
        2
176
     1
 90
        3
176
     1
 90
        0
176
     1
 40
0.6
176
     1
 40
30.0
176
     1
 62
     8
420
  8421504
176
     1
 90
        1
176
     1
 90
        4
176
     1
 62
     7
176
     1
 62
   257
176
     1
 90
        1
176
     1
 90
        1
176
     1
 40
1.0
176
     1
 90
        8
176
     1
 62
     8
420
  8421504
176
     1
 40
1.0
176
     1
 90
        1
176
     1
 90
        6
176
     1
 90
        2
176
     1
 62
     7
176
     1
 90
        5
176
     1
 90
        0
176
     1
 90
        0
176
     1
290
     0
176
     1
 90
        1
176
     1
 40
0.0
176
     1
 90
        0
176
     1
290
     0
176
     1
290
     1
176
     1
290
     1
176
     1
290
     0
176
     1
290
     0
176
     1
290
     0
176
     1
290
     0
176
     1
290
     0
176
     1
290
     0
176
     1
 90
       50
176
     1
 40
0.0
176
     1
 40
1.0
176
     1
 90
        0
176
     1
 62
    18
420
        0
176
     1
 90
       50
176
     1
 90
        3
176
     1
 62
     5
420
      255
176
     1
290
     0
176
     1
 90
       50
176
     1
 90
       50
176
     1
 90
       50
176
     1
290
     0
176
     1
 90
       50
176
     1
 62
   256
176
     0
 40
1.0
176
     0
 90
        2
176
     1
  1
strokes_ogs.tif
176
     1
290
     0
176
     1
 40
1.0
176
     1
 40
1.0
176
     1
  0
VISUALSTYLE
  5
3C8
102
{ACAD_REACTORS
330
3BE
102
}
330
3BE
100
AcDbVisualStyle
  2
Conceptual
 70
     9
177
     3
291
     0
 70
    58
 90
        3
176
     1
 90
        2
176
     1
 90
        0
176
     1
 90
        0
176
     1
 40
0.6
176
     1
 40
30.0
176
     1
 62
     7
420
 16777215
176
     1
 90
        2
176
     1
 90
        2
176
     1
 62
     7
176
     1
 62
   257
176
     1
 90
        1
176
     1
 90
        1
176
     1
 40
179.0
176
     1
 90
        8
176
     1
 62
     7
176
     1
 40
1.0
176
     1
 90
        1
176
     1
 90
        6
176
     1
 90
        2
176
     1
 62
     7
176
     1
 90
        3
176
     1
 90
        0
176
     1
 90
        0
176
     1
290
     0
176
     1
 90
        1
176
     1
 40
0.0
176
     1
 90
        0
176
     1
290
     0
176
     1
290
     1
176
     1
290
     1
176
     1
290
     0
176
     1
290
     0
176
     1
290
     0
176
     1
290
     0
176
     1
290
     0
176
     1
290
     0
176
     1
 90
       50
176
     1
 40
0.0
176
     1
 40
1.0
176
     1
 90
        0
176
     1
 62
    18
420
        0
176
     1
 90
       50
176
     1
 90
        3
176
     1
 62
     5
420
      255
176
     1
290
     0
176
     1
 90
       50
176
     1
 90
       50
176
     1
 90
       50
176
     1
290
     0
176
     1
 90
       50
176
     1
 62
   256
176
     0
 40
1.0
176
     0
 90
        2
176
     1
  1
strokes_ogs.tif
176
     1
290
     0
176
     1
 40
1.0
176
     1
 40
1.0
176
     1
  0
VISUALSTYLE
  5
3C9
102
{ACAD_REACTORS
330
3BE
102
}
330
3BE
100
AcDbVisualStyle
  2
Dim
 70
    11
177
     3
291
     1
 70
    58
 90
        2
176
     1
 90
        2
176
     1
 90
        0
176
     1
 90
        0
176
     1
 40
0.6
176
     1
 40
30.0
176
     1
 62
     7
420
 16777215
176
     1
 90
        1
176
     1
 90
        4
176
     1
 62
     7
176
     1
 62
   257
176
     1
 90
        1
176
     1
 90
        1
176
     1
 40
1.0
176
     1
 90
        8
176
     1
 62
     7
176
     1
 40
1.0
176
     1
 90
        1
176
     1
 90
        6
176
     1
 90
        2
176
     1
 62
     7
176
     1
 90
        5
176
     1
 90
        0
176
     1
 90
        0
176
     1
290
     0
176
     1
 90
        1
176
     1
 40
-50.0
176
     1
 90
        0
176
     1
290
     0
176
     1
290
     1
176
     1
290
     1
176
     1
290
     0
176
     1
290
     0
176
     1
290
     0
176
     1
290
     0
176
     1
290
     0
176
     1
290
     0
176
     1
 90
       50
176
     1
 40
0.0
176
     1
 40
1.0
176
     1
 90
        0
176
     1
 62
    18
420
        0
176
     1
 90
       50
176
     1
 90
        3
176
     1
 62
     5
420
      255
176
     1
290
     0
176
     1
 90
       50
176
     1
 90
       50
176
     1
 90
       50
176
     1
290
     0
176
     1
 90
       50
176
     1
 62
   256
176
     0
 40
1.0
176
     0
 90
        2
176
     1
  1
strokes_ogs.tif
176
     1
290
     0
176
     1
 40
1.0
176
     1
 40
1.0
176
     1
  0
VISUALSTYLE
  5
3D1
102
{ACAD_REACTORS
330
3BE
102
}
330
3BE
100
AcDbVisualStyle
  2
EdgeColorOff
 70
    22
177
     3
291
     1
 70
    58
 90
        2
176
     0
 90
        2
176
     0
 90
        0
176
     0
 90
        0
176
     0
 40
0.6
176
     0
 40
30.0
176
     0
 62
     7
420
 16777215
176
     0
 90
        1
176
     0
 90
        4
176
     0
 62
     7
176
     0
 62
   257
176
     0
 90
        1
176
     0
 90
        1
176
     0
 40
1.0
176
     0
 90
        8
176
     2
 62
     7
176
     0
 40
1.0
176
     0
 90
        1
176
     0
 90
        6
176
     0
 90
        2
176
     0
 62
     7
176
     0
 90
        5
176
     0
 90
        0
176
     0
 90
        0
176
     0
290
     0
176
     0
 90
        1
176
     0
 40
0.0
176
     0
 90
        0
176
     0
290
     0
176
     0
290
     1
176
     0
290
     1
176
     0
290
     0
176
     0
290
     0
176
     0
290
     0
176
     0
290
     0
176
     0
290
     0
176
     0
290
     0
176
     0
 90
       50
176
     0
 40
0.0
176
     0
 40
1.0
176
     0
 90
        0
176
     0
 62
    18
420
        0
176
     0
 90
       50
176
     0
 90
        3
176
     0
 62
     5
420
      255
176
     0
290
     0
176
     0
 90
       50
176
     0
 90
       50
176
     0
 90
       50
176
     0
290
     0
176
     0
 90
       50
176
     0
 62
   256
176
     0
 40
1.0
176
     0
 90
        2
176
     0
  1
strokes_ogs.tif
176
     0
290
     0
176
     0
 40
1.0
176
     0
 40
1.0
176
     0
  0
VISUALSTYLE
  5
3CD
102
{ACAD_REACTORS
330
3BE
102
}
330
3BE
100
AcDbVisualStyle
  2
Facepattern
 70
    15
177
     3
291
     1
 70
    58
 90
        2
176
     1
 90
        2
176
     1
 90
        0
176
     1
 90
        0
176
     1
 40
0.6
176
     1
 40
30.0
176
     1
 62
     7
420
 16777215
176
     1
 90
        1
176
     1
 90
        4
176
     1
 62
     7
176
     1
 62
   257
176
     1
 90
        1
176
     1
 90
        1
176
     1
 40
1.0
176
     1
 90
        8
176
     1
 62
     7
176
     1
 40
1.0
176
     1
 90
        1
176
     1
 90
        6
176
     1
 90
        2
176
     1
 62
     7
176
     1
 90
        5
176
     1
 90
        0
176
     1
 90
        0
176
     1
290
     0
176
     1
 90
        1
176
     1
 40
0.0
176
     1
 90
        0
176
     1
290
     0
176
     1
290
     1
176
     1
290
     1
176
     1
290
     0
176
     1
290
     0
176
     1
290
     0
176
     1
290
     0
176
     1
290
     0
176
     1
290
     0
176
     1
 90
       50
176
     1
 40
0.0
176
     1
 40
1.0
176
     1
 90
        0
176
     1
 62
    18
420
        0
176
     1
 90
       50
176
     1
 90
        3
176
     1
 62
     5
420
      255
176
     1
290
     0
176
     1
 90
       50
176
     1
 90
       50
176
     1
 90
       50
176
     1
290
     0
176
     1
 90
       50
176
     1
 62
   256
176
     0
 40
1.0
176
     0
 90
        2
176
     1
  1
strokes_ogs.tif
176
     1
290
     0
176
     1
 40
1.0
176
     1
 40
1.0
176
     1
  0
VISUALSTYLE
  5
3BF
102
{ACAD_REACTORS
330
3BE
102
}
330
3BE
100
AcDbVisualStyle
  2
Flat
 70
     0
177
     3
291
     1
 70
    58
 90
        2
176
     1
 90
        1
176
     1
 90
        1
176
     1
 90
        2
176
     1
 40
0.6
176
     1
 40
30.0
176
     1
 62
     7
420
 16777215
176
     1
 90
        0
176
     1
 90
        0
176
     1
 62
     7
176
     1
 62
   257
176
     1
 90
        1
176
     1
 90
        1
176
     1
 40
1.0
176
     1
 90
        8
176
     1
 62
     7
176
     1
 40
1.0
176
     1
 90
        1
176
     1
 90
        6
176
     1
 90
        2
176
     1
 62
     7
176
     1
 90
        5
176
     1
 90
        0
176
     1
 90
        0
176
     1
290
     0
176
     1
 90
       13
176
     1
 40
0.0
176
     1
 90
        0
176
     1
290
     0
176
     1
290
     1
176
     1
290
     1
176
     1
290
     0
176
     1
290
     0
176
     1
290
     0
176
     1
290
     0
176
     1
290
     0
176
     1
290
     0
176
     1
 90
       50
176
     1
 40
0.0
176
     1
 40
1.0
176
     1
 90
        0
176
     1
 62
    18
420
        0
176
     1
 90
       50
176
     1
 90
        3
176
     1
 62
     5
420
      255
176
     1
290
     0
176
     1
 90
       50
176
     1
 90
       50
176
     1
 90
       50
176
     1
290
     0
176
     1
 90
       50
176
     1
 62
   256
176
     0
 40
1.0
176
     0
 90
        2
176
     1
  1
strokes_ogs.tif
176
     1
290
     0
176
     1
 40
1.0
176
     1
 40
1.0
176
     1
  0
VISUALSTYLE
  5
3C0
102
{ACAD_REACTORS
330
3BE
102
}
330
3BE
100
AcDbVisualStyle
  2
FlatWithEdges
 70
     1
177
     3
291
     1
 70
    58
 90
        2
176
     1
 90
        1
176
     1
 90
        1
176
     1
 90
        2
176
     1
 40
0.6
176
     1
 40
30.0
176
     1
 62
     7
420
 16777215
176
     1
 90
        1
176
     1
 90
        0
176
     1
 62
     7
176
     1
 62
   257
176
     1
 90
        1
176
     1
 90
        1
176
     1
 40
1.0
176
     1
 90
        0
176
     1
 62
   257
176
     1
 40
1.0
176
     1
 90
        1
176
     1
 90
        6
176
     1
 90
        2
176
     1
 62
     7
176
     1
 90
        5
176
     1
 90
        0
176
     1
 90
        0
176
     1
290
     0
176
     1
 90
       13
176
     1
 40
0.0
176
     1
 90
        0
176
     1
290
     0
176
     1
290
     1
176
     1
290
     1
176
     1
290
     0
176
     1
290
     0
176
     1
290
     0
176
     1
290
     0
176
     1
290
     0
176
     1
290
     0
176
     1
 90
       50
176
     1
 40
0.0
176
     1
 40
1.0
176
     1
 90
        0
176
     1
 62
    18
420
        0
176
     1
 90
       50
176
     1
 90
        3
176
     1
 62
     5
420
      255
176
     1
290
     0
176
     1
 90
       50
176
     1
 90
       50
176
     1
 90
       50
176
     1
290
     0
176
     1
 90
       50
176
     1
 62
   256
176
     0
 40
1.0
176
     0
 90
        2
176
     1
  1
strokes_ogs.tif
176
     1
290
     0
176
     1
 40
1.0
176
     1
 40
1.0
176
     1
  0
VISUALSTYLE
  5
3C1
102
{ACAD_REACTORS
330
3BE
102
}
330
3BE
100
AcDbVisualStyle
  2
Gouraud
 70
     2
177
     3
291
     1
 70
    58
 90
        2
176
     1
 90
        2
176
     1
 90
        1
176
     1
 90
        2
176
     1
 40
0.6
176
     1
 40
30.0
176
     1
 62
     7
420
 16777215
176
     1
 90
        0
176
     1
 90
        0
176
     1
 62
     7
176
     1
 62
   257
176
     1
 90
        1
176
     1
 90
        1
176
     1
 40
1.0
176
     1
 90
        0
176
     1
 62
     7
176
     1
 40
1.0
176
     1
 90
        1
176
     1
 90
        6
176
     1
 90
        2
176
     1
 62
     7
176
     1
 90
        5
176
     1
 90
        0
176
     1
 90
        0
176
     1
290
     0
176
     1
 90
       13
176
     1
 40
0.0
176
     1
 90
        0
176
     1
290
     0
176
     1
290
     1
176
     1
290
     1
176
     1
290
     0
176
     1
290
     0
176
     1
290
     0
176
     1
290
     0
176
     1
290
     0
176
     1
290
     0
176
     1
 90
       50
176
     1
 40
0.0
176
     1
 40
1.0
176
     1
 90
        0
176
     1
 62
    18
420
        0
176
     1
 90
       50
176
     1
 90
        3
176
     1
 62
     5
420
      255
176
     1
290
     0
176
     1
 90
       50
176
     1
 90
       50
176
     1
 90
       50
176
     1
290
     0
176
     1
 90
       50
176
     1
 62
   256
176
     0
 40
1.0
176
     0
 90
        2
176
     1
  1
strokes_ogs.tif
176
     1
290
     0
176
     1
 40
1.0
176
     1
 40
1.0
176
     1
  0
VISUALSTYLE
  5
3C2
102
{ACAD_REACTORS
330
3BE
102
}
330
3BE
100
AcDbVisualStyle
  2
GouraudWithEdges
 70
     3
177
     3
291
     1
 70
    58
 90
        2
176
     1
 90
        2
176
     1
 90
        1
176
     1
 90
        2
176
     1
 40
0.6
176
     1
 40
30.0
176
     1
 62
     7
420
 16777215
176
     1
 90
        1
176
     1
 90
        0
176
     1
 62
     7
176
     1
 62
   257
176
     1
 90
        1
176
     1
 90
        1
176
     1
 40
1.0
176
     1
 90
        0
176
     1
 62
   257
176
     1
 40
1.0
176
     1
 90
        1
176
     1
 90
        6
176
     1
 90
        2
176
     1
 62
     7
176
     1
 90
        5
176
     1
 90
        0
176
     1
 90
        0
176
     1
290
     0
176
     1
 90
       13
176
     1
 40
0.0
176
     1
 90
        0
176
     1
290
     0
176
     1
290
     1
176
     1
290
     1
176
     1
290
     0
176
     1
290
     0
176
     1
290
     0
176
     1
290
     0
176
     1
290
     0
176
     1
290
     0
176
     1
 90
       50
176
     1
 40
0.0
176
     1
 40
1.0
176
     1
 90
        0
176
     1
 62
    18
420
        0
176
     1
 90
       50
176
     1
 90
        3
176
     1
 62
     5
420
      255
176
     1
290
     0
176
     1
 90
       50
176
     1
 90
       50
176
     1
 90
       50
176
     1
290
     0
176
     1
 90
       50
176
     1
 62
   256
176
     0
 40
1.0
176
     0
 90
        2
176
     1
  1
strokes_ogs.tif
176
     1
290
     0
176
     1
 40
1.0
176
     1
 40
1.0
176
     1
  0
VISUALSTYLE
  5
3C5
102
{ACAD_REACTORS
330
3BE
102
}
330
3BE
100
AcDbVisualStyle
  2
Hidden
 70
     6
177
     3
291
     0
 70
    58
 90
        1
176
     1
 90
        2
176
     1
 90
        2
176
     1
 90
        0
176
     1
 40
0.6
176
     1
 40
30.0
176
     1
 62
     7
420
 16777215
176
     1
 90
        2
176
     1
 90
        2
176
     1
 62
     7
176
     1
 62
   257
176
     1
 90
        2
176
     1
 90
        1
176
     1
 40
40.0
176
     1
 90
        0
176
     1
 62
   257
176
     1
 40
1.0
176
     1
 90
        1
176
     1
 90
        6
176
     1
 90
        2
176
     1
 62
     7
176
     1
 90
        3
176
     1
 90
        0
176
     1
 90
        0
176
     1
290
     0
176
     1
 90
        1
176
     1
 40
0.0
176
     1
 90
        0
176
     1
290
     0
176
     1
290
     1
176
     1
290
     1
176
     1
290
     0
176
     1
290
     0
176
     1
290
     0
176
     1
290
     0
176
     1
290
     0
176
     1
290
     0
176
     1
 90
       50
176
     1
 40
0.0
176
     1
 40
1.0
176
     1
 90
        0
176
     1
 62
    18
420
        0
176
     1
 90
       50
176
     1
 90
        3
176
     1
 62
     5
420
      255
176
     1
290
     0
176
     1
 90
       50
176
     1
 90
       50
176
     1
 90
       50
176
     1
290
     0
176
     1
 90
       50
176
     1
 62
   256
176
     0
 40
1.0
176
     0
 90
        2
176
     1
  1
strokes_ogs.tif
176
     1
290
     0
176
     1
 40
1.0
176
     1
 40
1.0
176
     1
  0
VISUALSTYLE
  5
3CF
102
{ACAD_REACTORS
330
3BE
102
}
330
3BE
100
AcDbVisualStyle
  2
JitterOff
 70
    20
177
     3
291
     1
 70
    58
 90
        2
176
     0
 90
        2
176
     0
 90
        0
176
     0
 90
        0
176
     0
 40
0.6
176
     0
 40
30.0
176
     0
 62
     7
420
 16777215
176
     0
 90
        1
176
     0
 90
        4
176
     0
 62
     7
176
     0
 62
   257
176
     0
 90
        1
176
     0
 90
        1
176
     0
 40
1.0
176
     0
 90
       10
176
     2
 62
     7
176
     0
 40
1.0
176
     0
 90
        1
176
     0
 90
        6
176
     0
 90
        2
176
     0
 62
     7
176
     0
 90
        5
176
     0
 90
        0
176
     0
 90
        0
176
     0
290
     0
176
     0
 90
        1
176
     0
 40
0.0
176
     0
 90
        0
176
     0
290
     0
176
     0
290
     1
176
     0
290
     1
176
     0
290
     0
176
     0
290
     0
176
     0
290
     0
176
     0
290
     0
176
     0
290
     0
176
     0
290
     0
176
     0
 90
       50
176
     0
 40
0.0
176
     0
 40
1.0
176
     0
 90
        0
176
     0
 62
    18
420
        0
176
     0
 90
       50
176
     0
 90
        3
176
     0
 62
     5
420
      255
176
     0
290
     0
176
     0
 90
       50
176
     0
 90
       50
176
     0
 90
       50
176
     0
290
     0
176
     0
 90
       50
176
     0
 62
   256
176
     0
 40
1.0
176
     0
 90
        2
176
     0
  1
strokes_ogs.tif
176
     0
290
     0
176
     0
 40
1.0
176
     0
 40
1.0
176
     0
  0
VISUALSTYLE
  5
3CC
102
{ACAD_REACTORS
330
3BE
102
}
330
3BE
100
AcDbVisualStyle
  2
Linepattern
 70
    14
177
     3
291
     1
 70
    58
 90
        2
176
     1
 90
        2
176
     1
 90
        0
176
     1
 90
        0
176
     1
 40
0.6
176
     1
 40
30.0
176
     1
 62
     7
420
 16777215
176
     1
 90
        1
176
     1
 90
        4
176
     1
 62
     7
176
     1
 62
   257
176
     1
 90
        7
176
     1
 90
        7
176
     1
 40
1.0
176
     1
 90
        8
176
     1
 62
     7
176
     1
 40
1.0
176
     1
 90
        1
176
     1
 90
        6
176
     1
 90
        2
176
     1
 62
     7
176
     1
 90
        5
176
     1
 90
        0
176
     1
 90
        0
176
     1
290
     0
176
     1
 90
        1
176
     1
 40
0.0
176
     1
 90
        0
176
     1
290
     0
176
     1
290
     1
176
     1
290
     1
176
     1
290
     0
176
     1
290
     0
176
     1
290
     0
176
     1
290
     0
176
     1
290
     0
176
     1
290
     0
176
     1
 90
       50
176
     1
 40
0.0
176
     1
 40
1.0
176
     1
 90
        0
176
     1
 62
    18
420
        0
176
     1
 90
       50
176
     1
 90
        3
176
     1
 62
     5
420
      255
176
     1
290
     0
176
     1
 90
       50
176
     1
 90
       50
176
     1
 90
       50
176
     1
290
     0
176
     1
 90
       50
176
     1
 62
   256
176
     0
 40
1.0
176
     0
 90
        2
176
     1
  1
strokes_ogs.tif
176
     1
290
     0
176
     1
 40
1.0
176
     1
 40
1.0
176
     1
  0
VISUALSTYLE
  5
3D0
102
{ACAD_REACTORS
330
3BE
102
}
330
3BE
100
AcDbVisualStyle
  2
OverhangOff
 70
    21
177
     3
291
     1
 70
    58
 90
        2
176
     0
 90
        2
176
     0
 90
        0
176
     0
 90
        0
176
     0
 40
0.6
176
     0
 40
30.0
176
     0
 62
     7
420
 16777215
176
     0
 90
        1
176
     0
 90
        4
176
     0
 62
     7
176
     0
 62
   257
176
     0
 90
        1
176
     0
 90
        1
176
     0
 40
1.0
176
     0
 90
        9
176
     2
 62
     7
176
     0
 40
1.0
176
     0
 90
        1
176
     0
 90
        6
176
     0
 90
        2
176
     0
 62
     7
176
     0
 90
        5
176
     0
 90
        0
176
     0
 90
        0
176
     0
290
     0
176
     0
 90
        1
176
     0
 40
0.0
176
     0
 90
        0
176
     0
290
     0
176
     0
290
     1
176
     0
290
     1
176
     0
290
     0
176
     0
290
     0
176
     0
290
     0
176
     0
290
     0
176
     0
290
     0
176
     0
290
     0
176
     0
 90
       50
176
     0
 40
0.0
176
     0
 40
1.0
176
     0
 90
        0
176
     0
 62
    18
420
        0
176
     0
 90
       50
176
     0
 90
        3
176
     0
 62
     5
420
      255
176
     0
290
     0
176
     0
 90
       50
176
     0
 90
       50
176
     0
 90
       50
176
     0
290
     0
176
     0
 90
       50
176
     0
 62
   256
176
     0
 40
1.0
176
     0
 90
        2
176
     0
  1
strokes_ogs.tif
176
     0
290
     0
176
     0
 40
1.0
176
     0
 40
1.0
176
     0
  0
VISUALSTYLE
  5
3C7
102
{ACAD_REACTORS
330
3BE
102
}
330
3BE
100
AcDbVisualStyle
  2
Realistic
 70
     8
177
     3
291
     0
 70
    58
 90
        2
176
     1
 90
        3
176
     1
 90
        0
176
     1
 90
        2
176
     1
 40
0.6
176
     1
 40
30.0
176
     1
 62
     7
420
 16777215
176
     1
 90
        0
176
     1
 90
        0
176
     1
 62
     7
176
     1
 62
   257
176
     1
 90
        1
176
     1
 90
        1
176
     1
 40
1.0
176
     1
 90
        8
176
     1
 62
   257
176
     1
 40
1.0
176
     1
 90
        1
176
     1
 90
        6
176
     1
 90
        2
176
     1
 62
     7
176
     1
 90
        3
176
     1
 90
        0
176
     1
 90
        0
176
     1
290
     0
176
     1
 90
       13
176
     1
 40
0.0
176
     1
 90
        0
176
     1
290
     0
176
     1
290
     1
176
     1
290
     1
176
     1
290
     0
176
     1
290
     0
176
     1
290
     0
176
     1
290
     0
176
     1
290
     0
176
     1
290
     0
176
     1
 90
       50
176
     1
 40
0.0
176
     1
 40
1.0
176
     1
 90
        0
176
     1
 62
    18
420
        0
176
     1
 90
       50
176
     1
 90
        3
176
     1
 62
     5
420
      255
176
     1
290
     0
176
     1
 90
       50
176
     1
 90
       50
176
     1
 90
       50
176
     1
290
     0
176
     1
 90
       50
176
     1
 62
   256
176
     0
 40
1.0
176
     0
 90
        2
176
     1
  1
strokes_ogs.tif
176
     1
290
     0
176
     1
 40
1.0
176
     1
 40
1.0
176
     1
  0
VISUALSTYLE
  5
3D6
102
{ACAD_REACTORS
330
3BE
102
}
330
3BE
100
AcDbVisualStyle
  2
Shaded
 70
    27
177
     3
291
     0
 70
    58
 90
        2
176
     1
 90
        2
176
     1
 90
        1
176
     1
 90
        2
176
     1
 40
0.6
176
     1
 40
30.0
176
     1
 62
     7
420
 16777215
176
     1
 90
        0
176
     1
 90
        4
176
     1
 62
     7
176
     1
 62
   257
176
     1
 90
        1
176
     1
 90
        1
176
     1
 40
1.0
176
     1
 90
        8
176
     1
 62
   257
176
     1
 40
1.0
176
     1
 90
        1
176
     1
 90
        6
176
     1
 90
        2
176
     1
 62
     8
420
  7895160
176
     1
 90
        3
176
     1
 90
        0
176
     1
 90
        0
176
     1
290
     0
176
     1
 90
        5
176
     1
 40
0.0
176
     1
 90
        0
176
     1
290
     0
176
     1
290
     1
176
     1
290
     1
176
     1
290
     0
176
     1
290
     0
176
     1
290
     0
176
     1
290
     0
176
     1
290
     0
176
     1
290
     0
176
     1
 90
       50
176
     1
 40
0.0
176
     1
 40
1.0
176
     1
 90
        0
176
     1
 62
    18
420
        0
176
     1
 90
       50
176
     1
 90
        3
176
     1
 62
     5
420
      255
176
     1
290
     0
176
     1
 90
       50
176
     1
 90
       50
176
     1
 90
       50
176
     1
290
     0
176
     1
 90
       50
176
     1
 62
   256
176
     0
 40
1.0
176
     0
 90
        2
176
     1
  1
strokes_ogs.tif
176
     1
290
     0
176
     1
 40
1.0
176
     1
 40
1.0
176
     1
  0
VISUALSTYLE
  5
3D5
102
{ACAD_REACTORS
330
3BE
102
}
330
3BE
100
AcDbVisualStyle
  2
Shaded with edges
 70
    26
177
     3
291
     0
 70
    58
 90
        2
176
     1
 90
        2
176
     1
 90
        1
176
     1
 90
        2
176
     1
 40
0.6
176
     1
 40
30.0
176
     1
 62
     7
420
 16777215
176
     1
 90
        1
176
     1
 90
       10
176
     1
 62
     7
176
     1
 62
   257
176
     1
 90
        2
176
     1
 90
        1
176
     1
 40
1.0
176
     1
 90
        8
176
     1
 62
   257
176
     1
 40
1.0
176
     1
 90
        1
176
     1
 90
        6
176
     1
 90
        2
176
     1
 62
     7
176
     1
 90
        3
176
     1
 90
        0
176
     1
 90
        0
176
     1
290
     0
176
     1
 90
        5
176
     1
 40
0.0
176
     1
 90
        0
176
     1
290
     0
176
     1
290
     1
176
     1
290
     1
176
     1
290
     0
176
     1
290
     0
176
     1
290
     0
176
     1
290
     0
176
     1
290
     0
176
     1
290
     0
176
     1
 90
       50
176
     1
 40
0.0
176
     1
 40
1.0
176
     1
 90
        0
176
     1
 62
    18
420
        0
176
     1
 90
       50
176
     1
 90
        3
176
     1
 62
     5
420
      255
176
     1
290
     0
176
     1
 90
       50
176
     1
 90
       50
176
     1
 90
       50
176
     1
290
     0
176
     1
 90
       50
176
     1
 62
   256
176
     0
 40
1.0
176
     0
 90
        2
176
     1
  1
strokes_ogs.tif
176
     1
290
     0
176
     1
 40
1.0
176
     1
 40
1.0
176
     1
  0
VISUALSTYLE
  5
3D2
102
{ACAD_REACTORS
330
3BE
102
}
330
3BE
100
AcDbVisualStyle
  2
Shades of Gray
 70
    23
177
     3
291
     0
 70
    58
 90
        2
176
     1
 90
        2
176
     1
 90
        3
176
     1
 90
        0
176
     1
 40
0.6
176
     1
 40
30.0
176
     1
 62
     7
420
 16777215
176
     1
 90
        2
176
     1
 90
        2
176
     1
 62
     7
176
     1
 62
     7
176
     1
 90
        1
176
     1
 90
        1
176
     1
 40
40.0
176
     1
 90
        8
176
     1
 62
     7
176
     1
 40
1.0
176
     1
 90
        1
176
     1
 90
        6
176
     1
 90
        2
176
     1
 62
     7
176
     1
 90
        3
176
     1
 90
        0
176
     1
 90
        0
176
     1
290
     0
176
     1
 90
        1
176
     1
 40
0.0
176
     1
 90
        0
176
     1
290
     0
176
     1
290
     1
176
     1
290
     1
176
     1
290
     0
176
     1
290
     0
176
     1
290
     0
176
     1
290
     0
176
     1
290
     0
176
     1
290
     0
176
     1
 90
       50
176
     1
 40
0.0
176
     1
 40
1.0
176
     1
 90
        0
176
     1
 62
    18
420
        0
176
     1
 90
       50
176
     1
 90
        3
176
     1
 62
     5
420
      255
176
     1
290
     0
176
     1
 90
       50
176
     1
 90
       50
176
     1
 90
       50
176
     1
290
     0
176
     1
 90
       50
176
     1
 62
   256
176
     0
 40
1.0
176
     0
 90
        2
176
     1
  1
strokes_ogs.tif
176
     1
290
     0
176
     1
 40
1.0
176
     1
 40
1.0
176
     1
  0
VISUALSTYLE
  5
3D3
102
{ACAD_REACTORS
330
3BE
102
}
330
3BE
100
AcDbVisualStyle
  2
Sketchy
 70
    24
177
     3
291
     0
 70
    58
 90
        1
176
     1
 90
        2
176
     1
 90
        2
176
     1
 90
        0
176
     1
 40
0.6
176
     1
 40
30.0
176
     1
 62
     7
420
 16777215
176
     1
 90
        2
176
     1
 90
        2
176
     1
 62
     7
176
     1
 62
     7
176
     1
 90
        1
176
     1
 90
        1
176
     1
 40
40.0
176
     1
 90
       11
176
     1
 62
     7
176
     1
 40
1.0
176
     1
 90
        1
176
     1
 90
        6
176
     1
 90
        2
176
     1
 62
     7
176
     1
 90
        6
176
     1
 90
        0
176
     1
 90
        0
176
     1
290
     0
176
     1
 90
        1
176
     1
 40
0.0
176
     1
 90
        0
176
     1
290
     0
176
     1
290
     1
176
     1
290
     1
176
     1
290
     0
176
     1
290
     0
176
     1
290
     0
176
     1
290
     0
176
     1
290
     0
176
     1
290
     0
176
     1
 90
       50
176
     1
 40
0.0
176
     1
 40
1.0
176
     1
 90
        0
176
     1
 62
    18
420
        0
176
     1
 90
       50
176
     1
 90
        3
176
     1
 62
     5
420
      255
176
     1
290
     0
176
     1
 90
       50
176
     1
 90
       50
176
     1
 90
       50
176
     1
290
     0
176
     1
 90
       50
176
     1
 62
   256
176
     0
 40
1.0
176
     0
 90
        2
176
     1
  1
strokes_ogs.tif
176
     1
290
     0
176
     1
 40
1.0
176
     1
 40
1.0
176
     1
  0
VISUALSTYLE
  5
3CB
102
{ACAD_REACTORS
330
3BE
102
}
330
3BE
100
AcDbVisualStyle
  2
Thicken
 70
    13
177
     3
291
     1
 70
    58
 90
        2
176
     1
 90
        2
176
     1
 90
        0
176
     1
 90
        0
176
     1
 40
0.6
176
     1
 40
30.0
176
     1
 62
     7
420
 16777215
176
     1
 90
        1
176
     1
 90
        4
176
     1
 62
     7
176
     1
 62
   257
176
     1
 90
        1
176
     1
 90
        1
176
     1
 40
1.0
176
     1
 90
       12
176
     1
 62
     7
176
     1
 40
1.0
176
     1
 90
        1
176
     1
 90
        6
176
     1
 90
        2
176
     1
 62
     7
176
     1
 90
        5
176
     1
 90
        0
176
     1
 90
        0
176
     1
290
     0
176
     1
 90
        1
176
     1
 40
0.0
176
     1
 90
        0
176
     1
290
     0
176
     1
290
     1
176
     1
290
     1
176
     1
290
     0
176
     1
290
     0
176
     1
290
     0
176
     1
290
     0
176
     1
290
     0
176
     1
290
     0
176
     1
 90
       50
176
     1
 40
0.0
176
     1
 40
1.0
176
     1
 90
        0
176
     1
 62
    18
420
        0
176
     1
 90
       50
176
     1
 90
        3
176
     1
 62
     5
420
      255
176
     1
290
     0
176
     1
 90
       50
176
     1
 90
       50
176
     1
 90
       50
176
     1
290
     0
176
     1
 90
       50
176
     1
 62
   256
176
     0
 40
1.0
176
     0
 90
        2
176
     1
  1
strokes_ogs.tif
176
     1
290
     0
176
     1
 40
1.0
176
     1
 40
1.0
176
     1
  0
VISUALSTYLE
  5
3C4
102
{ACAD_REACTORS
330
3BE
102
}
330
3BE
100
AcDbVisualStyle
  2
Wireframe
 70
     5
177
     3
291
     0
 70
    58
 90
        0
176
     1
 90
        2
176
     1
 90
        0
176
     1
 90
        0
176
     1
 40
0.6
176
     1
 40
30.0
176
     1
 62
     7
420
 16777215
176
     1
 90
        1
176
     1
 90
        4
176
     1
 62
     7
176
     1
 62
   257
176
     1
 90
        1
176
     1
 90
        1
176
     1
 40
1.0
176
     1
 90
        0
176
     1
 62
   257
176
     1
 40
1.0
176
     1
 90
        1
176
     1
 90
        6
176
     1
 90
        2
176
     1
 62
     7
176
     1
 90
        3
176
     1
 90
        0
176
     1
 90
        0
176
     1
290
     0
176
     1
 90
        1
176
     1
 40
0.0
176
     1
 90
        0
176
     1
290
     0
176
     1
290
     1
176
     1
290
     1
176
     1
290
     0
176
     1
290
     0
176
     1
290
     0
176
     1
290
     0
176
     1
290
     0
176
     1
290
     0
176
     1
 90
       50
176
     1
 40
0.0
176
     1
 40
1.0
176
     1
 90
        0
176
     1
 62
    18
420
        0
176
     1
 90
       50
176
     1
 90
        3
176
     1
 62
     5
420
      255
176
     1
290
     0
176
     1
 90
       50
176
     1
 90
       50
176
     1
 90
       50
176
     1
290
     0
176
     1
 90
       50
176
     1
 62
   256
176
     0
 40
1.0
176
     0
 90
        2
176
     1
  1
strokes_ogs.tif
176
     1
290
     0
176
     1
 40
1.0
176
     1
 40
1.0
176
     1
  0
VISUALSTYLE
  5
3D4
102
{ACAD_REACTORS
330
3BE
102
}
330
3BE
100
AcDbVisualStyle
  2
X-Ray
 70
    25
177
     3
291
     0
 70
    58
 90
        2
176
     1
 90
        2
176
     1
 90
        1
176
     1
 90
        1
176
     1
 40
0.5
176
     1
 40
30.0
176
     1
 62
     7
420
 16777215
176
     1
 90
        1
176
     1
 90
        0
176
     1
 62
     7
176
     1
 62
   257
176
     1
 90
        1
176
     1
 90
        1
176
     1
 40
1.0
176
     1
 90
        8
176
     1
 62
     7
176
     1
 40
1.0
176
     1
 90
        1
176
     1
 90
        6
176
     1
 90
        2
176
     1
 62
     7
176
     1
 90
        3
176
     1
 90
        0
176
     1
 90
        0
176
     1
290
     0
176
     1
 90
       13
176
     1
 40
0.0
176
     1
 90
        0
176
     1
290
     0
176
     1
290
     1
176
     1
290
     1
176
     1
290
     0
176
     1
290
     0
176
     1
290
     0
176
     1
290
     0
176
     1
290
     0
176
     1
290
     0
176
     1
 90
       50
176
     1
 40
0.0
176
     1
 40
1.0
176
     1
 90
        0
176
     1
 62
    18
420
        0
176
     1
 90
       50
176
     1
 90
        3
176
     1
 62
     5
420
      255
176
     1
290
     0
176
     1
 90
       50
176
     1
 90
       50
176
     1
 90
       50
176
     1
290
     0
176
     1
 90
       50
176
     1
 62
   256
176
     0
 40
1.0
176
     0
 90
        2
176
     1
  1
strokes_ogs.tif
176
     1
290
     0
176
     1
 40
1.0
176
     1
 40
1.0
176
     1
  0
DICTIONARYVAR
  5
3E1
102
{ACAD_REACTORS
330
3E0
102
}
330
3E0
100
DictionaryVariables
280
     0
  1
1:1
  0
DICTIONARYVAR
  5
3E6
102
{ACAD_REACTORS
330
3E0
102
}
330
3E0
100
DictionaryVariables
280
     0
  1
Standard
  0
DICTIONARYVAR
  5
3E5
102
{ACAD_REACTORS
330
3E0
102
}
330
3E0
100
DictionaryVariables
280
     0
  1
Standard
  0
DICTIONARYVAR
  5
3E7
102
{ACAD_REACTORS
330
3E0
102
}
330
3E0
100
DictionaryVariables
280
     0
  1
0
  0
DICTIONARY
  5
3E2
330
3DC
100
AcDbDictionary
280
     1
281
     1
  3
ACAD_ROUNDTRIP_2008_TABLESTYLE_CELLSTYLEMAP
360
3E3
  0
CELLSTYLEMAP
  5
3E3
102
{ACAD_REACTORS
330
3E2
102
}
330
3E2
100
AcDbCellStyleMap
 90
        3
300
CELLSTYLE
  1
TABLEFORMAT_BEGIN
 90
        5
170
     1
 91
        0
 92
    32768
 62
   257
 93
        1
300
CONTENTFORMAT
  1
CONTENTFORMAT_BEGIN
 90
        0
 91
        0
 92
        4
 93
        0
300

 40
0.0
140
1.0
 94
        5
 62
     0
340
11
144
6.0
309
CONTENTFORMAT_END
171
     1
301
MARGIN
  1
CELLMARGIN_BEGIN
 40
1.5
 40
1.5
 40
1.5
 40
1.5
 40
1.5
 40
1.5
309
CELLMARGIN_END
 94
        6
 95
        1
302
GRIDFORMAT
  1
GRIDFORMAT_BEGIN
 90
        0
 91
        1
 62
     0
 92
       -2
340
14
 93
        0
 40
0.045
309
GRIDFORMAT_END
 95
        2
302
GRIDFORMAT
  1
GRIDFORMAT_BEGIN
 90
        0
 91
        1
 62
     0
 92
       -2
340
14
 93
        0
 40
0.045
309
GRIDFORMAT_END
 95
        4
302
GRIDFORMAT
  1
GRIDFORMAT_BEGIN
 90
        0
 91
        1
 62
     0
 92
       -2
340
14
 93
        0
 40
0.045
309
GRIDFORMAT_END
 95
        8
302
GRIDFORMAT
  1
GRIDFORMAT_BEGIN
 90
        0
 91
        1
 62
     0
 92
       -2
340
14
 93
        0
 40
0.045
309
GRIDFORMAT_END
 95
       16
302
GRIDFORMAT
  1
GRIDFORMAT_BEGIN
 90
        0
 91
        1
 62
     0
 92
       -2
340
14
 93
        0
 40
0.045
309
GRIDFORMAT_END
 95
       32
302
GRIDFORMAT
  1
GRIDFORMAT_BEGIN
 90
        0
 91
        1
 62
     0
 92
       -2
340
14
 93
        0
 40
0.045
309
GRIDFORMAT_END
309
TABLEFORMAT_END
  1
CELLSTYLE_BEGIN
 90
        1
 91
        1
300
_TITLE
309
CELLSTYLE_END
300
CELLSTYLE
  1
TABLEFORMAT_BEGIN
 90
        5
170
     1
 91
        0
 92
        0
 62
   257
 93
        1
300
CONTENTFORMAT
  1
CONTENTFORMAT_BEGIN
 90
        0
 91
        0
 92
        4
 93
        0
300

 40
0.0
140
1.0
 94
        5
 62
     0
340
11
144
4.5
309
CONTENTFORMAT_END
171
     1
301
MARGIN
  1
CELLMARGIN_BEGIN
 40
1.5
 40
1.5
 40
1.5
 40
1.5
 40
1.5
 40
1.5
309
CELLMARGIN_END
 94
        6
 95
        1
302
GRIDFORMAT
  1
GRIDFORMAT_BEGIN
 90
        0
 91
        1
 62
     0
 92
       -2
340
14
 93
        0
 40
0.045
309
GRIDFORMAT_END
 95
        2
302
GRIDFORMAT
  1
GRIDFORMAT_BEGIN
 90
        0
 91
        1
 62
     0
 92
       -2
340
14
 93
        0
 40
0.045
309
GRIDFORMAT_END
 95
        4
302
GRIDFORMAT
  1
GRIDFORMAT_BEGIN
 90
        0
 91
        1
 62
     0
 92
       -2
340
14
 93
        0
 40
0.045
309
GRIDFORMAT_END
 95
        8
302
GRIDFORMAT
  1
GRIDFORMAT_BEGIN
 90
        0
 91
        1
 62
     0
 92
       -2
340
14
 93
        0
 40
0.045
309
GRIDFORMAT_END
 95
       16
302
GRIDFORMAT
  1
GRIDFORMAT_BEGIN
 90
        0
 91
        1
 62
     0
 92
       -2
340
14
 93
        0
 40
0.045
309
GRIDFORMAT_END
 95
       32
302
GRIDFORMAT
  1
GRIDFORMAT_BEGIN
 90
        0
 91
        1
 62
     0
 92
       -2
340
14
 93
        0
 40
0.045
309
GRIDFORMAT_END
309
TABLEFORMAT_END
  1
CELLSTYLE_BEGIN
 90
        2
 91
        1
300
_HEADER
309
CELLSTYLE_END
300
CELLSTYLE
  1
TABLEFORMAT_BEGIN
 90
        5
170
     1
 91
        0
 92
        0
 62
   257
 93
        1
300
CONTENTFORMAT
  1
CONTENTFORMAT_BEGIN
 90
        0
 91
        0
 92
        4
 93
        0
300

 40
0.0
140
1.0
 94
        2
 62
     0
340
11
144
4.5
309
CONTENTFORMAT_END
171
     1
301
MARGIN
  1
CELLMARGIN_BEGIN
 40
1.5
 40
1.5
 40
1.5
 40
1.5
 40
1.5
 40
1.5
309
CELLMARGIN_END
 94
        6
 95
        1
302
GRIDFORMAT
  1
GRIDFORMAT_BEGIN
 90
        0
 91
        1
 62
     0
 92
       -2
340
14
 93
        0
 40
0.045
309
GRIDFORMAT_END
 95
        2
302
GRIDFORMAT
  1
GRIDFORMAT_BEGIN
 90
        0
 91
        1
 62
     0
 92
       -2
340
14
 93
        0
 40
0.045
309
GRIDFORMAT_END
 95
        4
302
GRIDFORMAT
  1
GRIDFORMAT_BEGIN
 90
        0
 91
        1
 62
     0
 92
       -2
340
14
 93
        0
 40
0.045
309
GRIDFORMAT_END
 95
        8
302
GRIDFORMAT
  1
GRIDFORMAT_BEGIN
 90
        0
 91
        1
 62
     0
 92
       -2
340
14
 93
        0
 40
0.045
309
GRIDFORMAT_END
 95
       16
302
GRIDFORMAT
  1
GRIDFORMAT_BEGIN
 90
        0
 91
        1
 62
     0
 92
       -2
340
14
 93
        0
 40
0.045
309
GRIDFORMAT_END
 95
       32
302
GRIDFORMAT
  1
GRIDFORMAT_BEGIN
 90
        0
 91
        1
 62
     0
 92
       -2
340
14
 93
        0
 40
0.045
309
GRIDFORMAT_END
309
TABLEFORMAT_END
  1
CELLSTYLE_BEGIN
 90
        3
 91
        2
300
_DATA
309
CELLSTYLE_END
  0
ENDSEC
  0
EOF
