  0
SECTION
  2
HEADER
  9
$ACADVER
  1
AC1027
  9
$ACADMAINTVER
 70
   105
  9
$DWGCODEPAGE
  3
ANSI_1252
  9
$REQUIREDVERSIONS
160
                 0
  9
$LASTSAVEDBY
  1
andrea.zolin
  9
$INSBASE
 10
0.0
 20
0.0
 30
0.0
  9
$EXTMIN
 10
0.0
 20
0.0
 30
0.0
  9
$EXTMAX
 10
297.0
 20
210.0
 30
0.0
  9
$LIMMIN
 10
0.0
 20
0.0
  9
$LIMMAX
 10
297.0
 20
210.0
  9
$ORTHOMODE
 70
     0
  9
$REGENMODE
 70
     1
  9
$FILLMODE
 70
     1
  9
$QTEXTMODE
 70
     0
  9
$MIRRTEXT
 70
     1
  9
$LTSCALE
 40
16.335
  9
$ATTMODE
 70
     1
  9
$TEXTSIZE
 40
0.2
  9
$TRACEWID
 40
0.05
  9
$TEXTSTYLE
  7
STANDARD
  9
$CLAYER
  8
0
  9
$CELTYPE
  6
BYLAYER
  9
$CECOLOR
 62
   256
  9
$CELTSCALE
 40
1.0
  9
$DISPSILH
 70
     0
  9
$DIMSCALE
 40
1.0
  9
$DIMASZ
 40
2.5
  9
$DIMEXO
 40
0.75
  9
$DIMDLI
 40
11.286
  9
$DIMRND
 40
0.0
  9
$DIMDLE
 40
0.0
  9
$DIMEXE
 40
0.75
  9
$DIMTP
 40
0.01
  9
$DIMTM
 40
0.01
  9
$DIMTXT
 40
3.0
  9
$DIMCEN
 40
2.673
  9
$DIMTSZ
 40
0.0
  9
$DIMTOL
 70
     1
  9
$DIMLIM
 70
     0
  9
$DIMTIH
 70
     1
  9
$DIMTOH
 70
     1
  9
$DIMSE1
 70
     0
  9
$DIMSE2
 70
     0
  9
$DIMTAD
 70
     0
  9
$DIMZIN
 70
     0
  9
$DIMBLK
  1
CLOSED
  9
$DIMASO
 70
     1
  9
$DIMSHO
 70
     1
  9
$DIMPOST
  1

  9
$DIMAPOST
  1

  9
$DIMALT
 70
     0
  9
$DIMALTD
 70
     2
  9
$DIMALTF
 40
25.4
  9
$DIMLFAC
 40
1.0
  9
$DIMTOFL
 70
     0
  9
$DIMTVP
 40
0.0
  9
$DIMTIX
 70
     0
  9
$DIMSOXD
 70
     0
  9
$DIMSAH
 70
     0
  9
$DIMBLK1
  1

  9
$DIMBLK2
  1

  9
$DIMSTYLE
  2
STANDARD
  9
$DIMCLRD
 70
     0
  9
$DIMCLRE
 70
     0
  9
$DIMCLRT
 70
     0
  9
$DIMTFAC
 40
1.0
  9
$DIMGAP
 40
0.625
  9
$DIMJUST
 70
     0
  9
$DIMSD1
 70
     0
  9
$DIMSD2
 70
     0
  9
$DIMTOLJ
 70
     1
  9
$DIMTZIN
 70
     0
  9
$DIMALTZ
 70
     0
  9
$DIMALTTZ
 70
     0
  9
$DIMUPT
 70
     0
  9
$DIMDEC
 70
     4
  9
$DIMTDEC
 70
     4
  9
$DIMALTU
 70
     2
  9
$DIMALTTD
 70
     2
  9
$DIMTXSTY
  7
STANDARD
  9
$DIMAUNIT
 70
     0
  9
$DIMADEC
 70
     0
  9
$DIMALTRND
 40
0.0
  9
$DIMAZIN
 70
     0
  9
$DIMDSEP
 70
    46
  9
$DIMATFIT
 70
     3
  9
$DIMFRAC
 70
     0
  9
$DIMLDRBLK
  1

  9
$DIMLUNIT
 70
     2
  9
$DIMLWD
 70
    -2
  9
$DIMLWE
 70
    -2
  9
$DIMTMOVE
 70
     2
  9
$DIMFXL
 40
1.0
  9
$DIMFXLON
 70
     0
  9
$DIMJOGANG
 40
0.7853981633974483
  9
$DIMTFILL
 70
     0
  9
$DIMTFILLCLR
 70
     0
  9
$DIMARCSYM
 70
     0
  9
$DIMLTYPE
  6

  9
$DIMLTEX1
  6

  9
$DIMLTEX2
  6

  9
$DIMTXTDIRECTION
 70
     0
  9
$LUNITS
 70
     2
  9
$LUPREC
 70
     4
  9
$SKETCHINC
 40
0.1
  9
$FILLETRAD
 40
0.5
  9
$AUNITS
 70
     0
  9
$AUPREC
 70
     0
  9
$MENU
  1
.
  9
$ELEVATION
 40
0.0
  9
$PELEVATION
 40
0.0
  9
$THICKNESS
 40
0.0
  9
$LIMCHECK
 70
     0
  9
$CHAMFERA
 40
0.0
  9
$CHAMFERB
 40
0.0
  9
$CHAMFERC
 40
0.0
  9
$CHAMFERD
 40
0.0
  9
$SKPOLY
 70
     0
  9
$TDCREATE
 40
2447893.041666667
  9
$TDUCREATE
 40
0.0
  9
$TDUPDATE
 40
2458473.678464155
  9
$TDUUPDATE
 40
2458473.636797488
  9
$TDINDWG
 40
0.0002429745
  9
$TDUSRTIMER
 40
0.0002429745
  9
$USRTIMER
 70
     1
  9
$ANGBASE
 50
0.0
  9
$ANGDIR
 70
     0
  9
$PDMODE
 70
     3
  9
$PDSIZE
 40
0.3125
  9
$PLINEWID
 40
0.0
  9
$SPLFRAME
 70
     0
  9
$SPLINETYPE
 70
     6
  9
$SPLINESEGS
 70
     8
  9
$HANDSEED
  5
3FB
  9
$SURFTAB1
 70
     6
  9
$SURFTAB2
 70
     6
  9
$SURFTYPE
 70
     6
  9
$SURFU
 70
     6
  9
$SURFV
 70
     6
  9
$UCSBASE
  2

  9
$UCSNAME
  2

  9
$UCSORG
 10
0.0
 20
0.0
 30
0.0
  9
$UCSXDIR
 10
1.0
 20
0.0
 30
0.0
  9
$UCSYDIR
 10
0.0
 20
1.0
 30
0.0
  9
$UCSORTHOREF
  2

  9
$UCSORTHOVIEW
 70
     0
  9
$UCSORGTOP
 10
0.0
 20
0.0
 30
0.0
  9
$UCSORGBOTTOM
 10
0.0
 20
0.0
 30
0.0
  9
$UCSORGLEFT
 10
0.0
 20
0.0
 30
0.0
  9
$UCSORGRIGHT
 10
0.0
 20
0.0
 30
0.0
  9
$UCSORGFRONT
 10
0.0
 20
0.0
 30
0.0
  9
$UCSORGBACK
 10
0.0
 20
0.0
 30
0.0
  9
$PUCSBASE
  2

  9
$PUCSNAME
  2

  9
$PUCSORG
 10
0.0
 20
0.0
 30
0.0
  9
$PUCSXDIR
 10
1.0
 20
0.0
 30
0.0
  9
$PUCSYDIR
 10
0.0
 20
1.0
 30
0.0
  9
$PUCSORTHOREF
  2

  9
$PUCSORTHOVIEW
 70
     0
  9
$PUCSORGTOP
 10
0.0
 20
0.0
 30
0.0
  9
$PUCSORGBOTTOM
 10
0.0
 20
0.0
 30
0.0
  9
$PUCSORGLEFT
 10
0.0
 20
0.0
 30
0.0
  9
$PUCSORGRIGHT
 10
0.0
 20
0.0
 30
0.0
  9
$PUCSORGFRONT
 10
0.0
 20
0.0
 30
0.0
  9
$PUCSORGBACK
 10
0.0
 20
0.0
 30
0.0
  9
$USERI1
 70
     0
  9
$USERI2
 70
     0
  9
$USERI3
 70
     0
  9
$USERI4
 70
     0
  9
$USERI5
 70
     0
  9
$USERR1
 40
0.0
  9
$USERR2
 40
0.0
  9
$USERR3
 40
0.0
  9
$USERR4
 40
0.0
  9
$USERR5
 40
0.0
  9
$WORLDVIEW
 70
     1
  9
$SHADEDGE
 70
     3
  9
$SHADEDIF
 70
    70
  9
$TILEMODE
 70
     0
  9
$MAXACTVP
 70
    64
  9
$PINSBASE
 10
0.0
 20
0.0
 30
0.0
  9
$PLIMCHECK
 70
     0
  9
$PEXTMIN
 10
0.0
 20
0.0
 30
0.0
  9
$PEXTMAX
 10
298.0326738457667
 20
210.0
 30
0.0
  9
$PLIMMIN
 10
-6.1284046692607
 20
-16.34241245136187
  9
$PLIMMAX
 10
337.0622568093385
 20
226.3424124513618
  9
$UNITMODE
 70
     0
  9
$VISRETAIN
 70
     1
  9
$PLINEGEN
 70
     0
  9
$PSLTSCALE
 70
     1
  9
$TREEDEPTH
 70
  3020
  9
$CMLSTYLE
  2
STANDARD
  9
$CMLJUST
 70
     0
  9
$CMLSCALE
 40
1.0
  9
$PROXYGRAPHICS
 70
     1
  9
$MEASUREMENT
 70
     1
  9
$CELWEIGHT
370
    -1
  9
$ENDCAPS
280
     0
  9
$JOINSTYLE
280
     0
  9
$LWDISPLAY
290
     0
  9
$INSUNITS
 70
     0
  9
$HYPERLINKBASE
  1

  9
$STYLESHEET
  1

  9
$XEDIT
290
     1
  9
$CEPSNTYPE
380
     0
  9
$PSTYLEMODE
290
     1
  9
$FINGERPRINTGUID
  2
{4CDDB271-6AA9-47E7-A01D-D201895DC58B}
  9
$VERSIONGUID
  2
{FAEB1C32-E019-11D5-929B-00C0DF256EC4}
  9
$EXTNAMES
290
     1
  9
$PSVPSCALE
 40
0.0
  9
$OLESTARTUP
290
     0
  9
$SORTENTS
280
   127
  9
$INDEXCTL
280
     0
  9
$HIDETEXT
280
     1
  9
$XCLIPFRAME
280
     2
  9
$HALOGAP
280
     0
  9
$OBSCOLOR
 70
   257
  9
$OBSLTYPE
280
     0
  9
$INTERSECTIONDISPLAY
280
     0
  9
$INTERSECTIONCOLOR
 70
   257
  9
$DIMASSOC
280
     2
  9
$PROJECTNAME
  1

  9
$CAMERADISPLAY
290
     0
  9
$LENSLENGTH
 40
50.0
  9
$CAMERAHEIGHT
 40
0.0
  9
$STEPSPERSEC
 40
2.0
  9
$STEPSIZE
 40
6.0
  9
$3DDWFPREC
 40
2.0
  9
$PSOLWIDTH
 40
0.25
  9
$PSOLHEIGHT
 40
4.0
  9
$LOFTANG1
 40
1.570796326794897
  9
$LOFTANG2
 40
1.570796326794897
  9
$LOFTMAG1
 40
0.0
  9
$LOFTMAG2
 40
0.0
  9
$LOFTPARAM
 70
     7
  9
$LOFTNORMALS
280
     1
  9
$LATITUDE
 40
37.795
  9
$LONGITUDE
 40
-122.394
  9
$NORTHDIRECTION
 40
0.0
  9
$TIMEZONE
 70
 -8000
  9
$LIGHTGLYPHDISPLAY
280
     1
  9
$TILEMODELIGHTSYNCH
280
     1
  9
$SOLIDHIST
280
     0
  9
$SHOWHIST
280
     1
  9
$DWFFRAME
280
     2
  9
$DGNFRAME
280
     2
  9
$REALWORLDSCALE
290
     1
  9
$INTERFERECOLOR
 62
   256
  9
$CSHADOW
280
     0
  9
$SHADOWPLANELOCATION
 40
0.0
  0
ENDSEC
  0
SECTION
  2
CLASSES
  0
CLASS
  1
ACDBDICTIONARYWDFLT
  2
AcDbDictionaryWithDefault
  3
ObjectDBX Classes
 90
        0
 91
        4
280
     0
281
     0
  0
CLASS
  1
SCALE
  2
AcDbScale
  3
ObjectDBX Classes
 90
     1153
 91
        4
280
     0
281
     0
  0
CLASS
  1
VISUALSTYLE
  2
AcDbVisualStyle
  3
ObjectDBX Classes
 90
     4095
 91
        4
280
     0
281
     0
  0
CLASS
  1
MATERIAL
  2
AcDbMaterial
  3
ObjectDBX Classes
 90
     1153
 91
        4
280
     0
281
     0
  0
CLASS
  1
TABLESTYLE
  2
AcDbTableStyle
  3
ObjectDBX Classes
 90
     4095
 91
        4
280
     0
281
     0
  0
CLASS
  1
MLEADERSTYLE
  2
AcDbMLeaderStyle
  3
ACDB_MLEADERSTYLE_CLASS
 90
     4095
 91
        4
280
     0
281
     0
  0
CLASS
  1
DICTIONARYVAR
  2
AcDbDictionaryVar
  3
ObjectDBX Classes
 90
        0
 91
        4
280
     0
281
     0
  0
CLASS
  1
CELLSTYLEMAP
  2
AcDbCellStyleMap
  3
ObjectDBX Classes
 90
     1152
 91
        4
280
     0
281
     0
  0
ENDSEC
  0
SECTION
  2
TABLES
  0
TABLE
  2
VPORT
  5
8
330
0
100
AcDbSymbolTable
 70
     1
  0
VPORT
  5
1F4
330
8
100
AcDbSymbolTableRecord
100
AcDbViewportTableRecord
  2
*ACTIVE
 70
     0
 10
0.0
 20
0.0
 11
1.0
 21
1.0
 12
148.5
 22
105.0
 13
0.0
 23
0.0
 14
1.0
 24
1.0
 15
0.0
 25
0.0
 16
0.0
 26
0.0
 36
1.0
 17
0.0
 27
0.0
 37
0.0
 40
210.0
 41
1.4142857143
 42
50.0
 43
0.0
 44
0.0
 50
0.0
 51
0.0
 71
     0
 72
   100
 73
     1
 74
     1
 75
     0
 76
     0
 77
     0
 78
     0
281
     0
 65
     1
110
0.0
120
0.0
130
0.0
111
1.0
121
0.0
131
0.0
112
0.0
122
1.0
132
0.0
 79
     0
146
0.0
348
3D4
 60
     3
 61
     5
292
     1
282
     1
141
0.0
142
0.0
 63
   256
  0
ENDTAB
  0
TABLE
  2
LTYPE
  5
5
330
0
100
AcDbSymbolTable
 70
     6
  0
LTYPE
  5
14
330
5
100
AcDbSymbolTableRecord
100
AcDbLinetypeTableRecord
  2
BYBLOCK
 70
     0
  3

 72
    65
 73
     0
 40
0.0
  0
LTYPE
  5
15
330
5
100
AcDbSymbolTableRecord
100
AcDbLinetypeTableRecord
  2
BYLAYER
 70
     0
  3

 72
    65
 73
     0
 40
0.0
  0
LTYPE
  5
16
330
5
100
AcDbSymbolTableRecord
100
AcDbLinetypeTableRecord
  2
CONTINUOUS
 70
     0
  3
Solid line
 72
    65
 73
     0
 40
0.0
  0
LTYPE
  5
1F5
330
5
100
AcDbSymbolTableRecord
100
AcDbLinetypeTableRecord
  2
CENTER
 70
     0
  3
____ _ ____ _ ____ _ ____ _ ____ _ ____ _ ____
 72
    65
 73
     4
 40
0.6
 49
0.375
 74
     0
 49
-0.075
 74
     0
 49
0.075
 74
     0
 49
-0.075
 74
     0
  0
LTYPE
  5
1F6
330
5
100
AcDbSymbolTableRecord
100
AcDbLinetypeTableRecord
  2
HIDDEN
 70
     0
  3
- - - - - - - - - - - - - - - - - - - -
 72
    65
 73
     2
 40
0.2
 49
0.1
 74
     0
 49
-0.1
 74
     0
  0
LTYPE
  5
1F7
330
5
100
AcDbSymbolTableRecord
100
AcDbLinetypeTableRecord
  2
PHANTOM
 70
     0
  3
_____ _ _ _____ _ _ _____ _ _ _____
 72
    65
 73
     6
 40
0.8
 49
0.45
 74
     0
 49
-0.05
 74
     0
 49
0.1
 74
     0
 49
-0.05
 74
     0
 49
0.1
 74
     0
 49
-0.05
 74
     0
  0
LTYPE
  5
1F8
330
5
100
AcDbSymbolTableRecord
100
AcDbLinetypeTableRecord
  2
DOT
 70
     0
  3
. . . . . . . . . . . . . . . . . . . .
 72
    65
 73
     2
 40
0.2
 49
0.1
 74
     0
 49
-0.1
 74
     0
  0
LTYPE
  5
1F9
330
5
100
AcDbSymbolTableRecord
100
AcDbLinetypeTableRecord
  2
DASHED
 70
     0
  3
- - - - - - - - - - - - - - - - - - - -
 72
    65
 73
     2
 40
0.2
 49
0.1
 74
     0
 49
-0.1
 74
     0
  0
ENDTAB
  0
TABLE
  2
LAYER
  5
2
330
0
100
AcDbSymbolTable
 70
    11
  0
LAYER
  5
10
330
2
100
AcDbSymbolTableRecord
100
AcDbLayerTableRecord
  2
0
 70
     0
 62
     7
  6
CONTINUOUS
370
    -3
390
3A9
347
3EB
348
0
  0
LAYER
  5
1FA
330
2
100
AcDbSymbolTableRecord
100
AcDbLayerTableRecord
  2
DEFAULT_1
 70
     0
 62
     7
  6
CENTER
370
    -3
390
3A9
347
3EB
348
0
  0
LAYER
  5
1FB
330
2
100
AcDbSymbolTableRecord
100
AcDbLayerTableRecord
  2
DEFAULT_2
 70
     0
 62
     8
  6
HIDDEN
370
    -3
390
3A9
347
3EB
348
0
  0
LAYER
  5
1FC
330
2
100
AcDbSymbolTableRecord
100
AcDbLayerTableRecord
  2
DEFAULT_3
 70
     0
 62
     7
  6
PHANTOM
370
    -3
390
3A9
347
3EB
348
0
  0
LAYER
  5
1FD
330
2
100
AcDbSymbolTableRecord
100
AcDbLayerTableRecord
  2
1_ALL_PLANES
 70
     0
 62
     7
  6
CONTINUOUS
370
    -3
390
3A9
347
3EB
348
0
  0
LAYER
  5
1FE
330
2
100
AcDbSymbolTableRecord
100
AcDbLayerTableRecord
  2
3_ALL_AXES
 70
     0
 62
     7
  6
CONTINUOUS
370
    -3
390
3A9
347
3EB
348
0
  0
LAYER
  5
1FF
330
2
100
AcDbSymbolTableRecord
100
AcDbLayerTableRecord
  2
5_ALL_CURVES
 70
     0
 62
     7
  6
CONTINUOUS
370
    -3
390
3A9
347
3EB
348
0
  0
LAYER
  5
200
330
2
100
AcDbSymbolTableRecord
100
AcDbLayerTableRecord
  2
6_ALL_SURFS
 70
     0
 62
     7
  6
CONTINUOUS
370
    -3
390
3A9
347
3EB
348
0
  0
LAYER
  5
201
330
2
100
AcDbSymbolTableRecord
100
AcDbLayerTableRecord
  2
7_ALL_FEATURES
 70
     0
 62
     7
  6
CONTINUOUS
370
    -3
390
3A9
347
3EB
348
0
  0
LAYER
  5
202
330
2
100
AcDbSymbolTableRecord
100
AcDbLayerTableRecord
  2
9_SOLID
 70
     0
 62
     7
  6
CONTINUOUS
370
    -3
390
3A9
347
3EB
348
0
  0
LAYER
  5
203
330
2
100
AcDbSymbolTableRecord
100
AcDbLayerTableRecord
  2
9_SOLIDO
 70
     0
 62
     7
  6
CONTINUOUS
370
    -3
390
3A9
347
3EB
348
0
  0
ENDTAB
  0
TABLE
  2
STYLE
  5
3
330
0
100
AcDbSymbolTable
 70
     4
  0
STYLE
  5
11
330
3
100
AcDbSymbolTableRecord
100
AcDbTextStyleTableRecord
  2
STANDARD
 70
     0
 40
0.0
 41
1.0
 50
0.0
 71
     0
 42
0.2
  3
arial.ttf
  4

  0
STYLE
  5
204
330
3
100
AcDbSymbolTableRecord
100
AcDbTextStyleTableRecord
  2
TEXTSTYLE_1
 70
     0
 40
0.0
 41
0.8
 50
0.0
 71
     0
 42
0.2
  3
gdt
  4

  0
STYLE
  5
205
330
3
100
AcDbSymbolTableRecord
100
AcDbTextStyleTableRecord
  2
TEXTSTYLE_2
 70
     0
 40
0.0
 41
2.0
 50
0.0
 71
     0
 42
0.2
  3
txt
  4

  0
STYLE
  5
206
330
3
100
AcDbSymbolTableRecord
100
AcDbTextStyleTableRecord
  2
TEXTSTYLE_3
 70
     0
 40
0.0
 41
0.85
 50
0.0
 71
     0
 42
0.2
  3
txt
  4

  0
ENDTAB
  0
TABLE
  2
VIEW
  5
6
330
0
100
AcDbSymbolTable
 70
     0
  0
ENDTAB
  0
TABLE
  2
UCS
  5
7
330
0
100
AcDbSymbolTable
 70
     0
  0
ENDTAB
  0
TABLE
  2
APPID
  5
9
330
0
100
AcDbSymbolTable
 70
     1
  0
APPID
  5
207
330
9
100
AcDbSymbolTableRecord
100
AcDbRegAppTableRecord
  2
ACAD
 70
     0
  0
ENDTAB
  0
TABLE
  2
DIMSTYLE
  5
A
330
0
100
AcDbSymbolTable
 70
     2
100
AcDbDimStyleTable
  0
DIMSTYLE
105
20F
330
A
100
AcDbSymbolTableRecord
100
AcDbDimStyleTableRecord
  2
STANDARD
 70
     0
 41
2.5
 42
0.75
 44
0.75
 47
0.01
 48
0.01
 71
     1
 73
     0
 74
     0
 77
     1
 78
     8
 79
     2
140
3.0
147
0.625
171
     1
178
     0
179
     2
271
     2
272
     2
284
     8
340
11
341
208
342
208
343
208
344
208
  0
DIMSTYLE
105
210
330
A
100
AcDbSymbolTableRecord
100
AcDbDimStyleTableRecord
  2
DIMSTYLE_1
 70
     0
 41
2.5
 42
0.75
 44
0.75
 47
0.3
 48
0.3
 73
     0
 74
     0
 77
     1
 78
     8
 79
     2
140
3.0
147
0.75
171
     1
178
     0
179
     2
271
     2
272
     2
284
     8
340
11
341
208
342
208
343
208
344
208
  0
ENDTAB
  0
TABLE
  2
BLOCK_RECORD
  5
1
330
0
100
AcDbSymbolTable
 70
     7
  0
BLOCK_RECORD
  5
1F
330
1
100
AcDbSymbolTableRecord
100
AcDbBlockTableRecord
  2
*MODEL_SPACE
340
3CD
 70
     0
280
     1
281
     0
  0
BLOCK_RECORD
  5
1B
330
1
100
AcDbSymbolTableRecord
100
AcDbBlockTableRecord
  2
*PAPER_SPACE
340
3CE
 70
     0
280
     1
281
     0
  0
BLOCK_RECORD
  5
208
330
1
100
AcDbSymbolTableRecord
100
AcDbBlockTableRecord
  2
_CLOSED
340
0
102
{BLKREFS
331
263
331
264
331
26C
331
26D
331
275
331
276
331
27E
331
27F
102
}
 70
     0
280
     1
281
     0
  0
BLOCK_RECORD
  5
209
330
1
100
AcDbSymbolTableRecord
100
AcDbBlockTableRecord
  2
*D1
340
0
 70
     0
280
     1
281
     0
  0
BLOCK_RECORD
  5
20A
330
1
100
AcDbSymbolTableRecord
100
AcDbBlockTableRecord
  2
*D2
340
0
 70
     0
280
     1
281
     0
  0
BLOCK_RECORD
  5
20B
330
1
100
AcDbSymbolTableRecord
100
AcDbBlockTableRecord
  2
*D3
340
0
 70
     0
280
     1
281
     0
  0
BLOCK_RECORD
  5
20C
330
1
100
AcDbSymbolTableRecord
100
AcDbBlockTableRecord
  2
*D4
340
0
 70
     0
280
     1
281
     0
  0
BLOCK_RECORD
  5
20D
330
1
100
AcDbSymbolTableRecord
100
AcDbBlockTableRecord
  2
LOGO2_BL1
340
0
102
{BLKREFS
331
391
102
}
 70
     0
280
     1
281
     0
  0
BLOCK_RECORD
  5
20E
330
1
100
AcDbSymbolTableRecord
100
AcDbBlockTableRecord
  2
PROIEZIONE_EU_BL0
340
0
102
{BLKREFS
331
38E
102
}
 70
     0
280
     1
281
     0
  0
ENDTAB
  0
ENDSEC
  0
SECTION
  2
BLOCKS
  0
BLOCK
  5
20
330
1F
100
AcDbEntity
  8
0
100
AcDbBlockBegin
  2
*MODEL_SPACE
 70
     0
 10
0.0
 20
0.0
 30
0.0
  3
*MODEL_SPACE
  1

  0
ENDBLK
  5
21
330
1F
100
AcDbEntity
  8
0
100
AcDbBlockEnd
  0
BLOCK
  5
1C
330
1B
100
AcDbEntity
 67
     1
  8
0
100
AcDbBlockBegin
  2
*PAPER_SPACE
 70
     0
 10
0.0
 20
0.0
 30
0.0
  3
*PAPER_SPACE
  1

  0
ENDBLK
  5
1D
330
1B
100
AcDbEntity
 67
     1
  8
0
100
AcDbBlockEnd
  0
BLOCK
  5
257
330
208
100
AcDbEntity
  8
0
100
AcDbBlockBegin
  2
_CLOSED
 70
     0
 10
0.0
 20
0.0
 30
0.0
  3
_CLOSED
  1

  0
LINE
  5
258
330
208
100
AcDbEntity
  8
0
  6
ByBlock
 62
     0
100
AcDbLine
 10
0.0
 20
0.0
 30
0.0
 11
-1.0
 21
0.2
 31
0.0
  0
LINE
  5
259
330
208
100
AcDbEntity
  8
0
  6
ByBlock
 62
     0
100
AcDbLine
 10
-1.0
 20
0.2
 30
0.0
 11
-1.0
 21
-0.2
 31
0.0
  0
LINE
  5
25A
330
208
100
AcDbEntity
  8
0
  6
ByBlock
 62
     0
100
AcDbLine
 10
-1.0
 20
-0.2
 30
0.0
 11
0.0
 21
0.0
 31
0.0
  0
LINE
  5
25B
330
208
100
AcDbEntity
  8
0
  6
ByBlock
 62
     0
100
AcDbLine
 10
-1.0
 20
0.0
 30
0.0
 11
0.0
 21
0.0
 31
0.0
  0
ENDBLK
  5
25C
330
208
100
AcDbEntity
  8
0
  6
ByBlock
 62
     0
100
AcDbBlockEnd
  0
BLOCK
  5
25D
330
209
100
AcDbEntity
  8
0
100
AcDbBlockBegin
  2
*D1
 70
     1
 10
0.0
 20
0.0
 30
0.0
  3
*D1
  1

  0
MTEXT
  5
25E
330
209
100
AcDbEntity
  8
0
  6
Continuous
 62
     2
100
AcDbMText
 10
104.3835234375
 20
70.4180625
 30
0.0
 40
3.0
 41
4.6617100372
 46
0.0
 71
     2
 72
     1
  1
65
 11
0.0
 21
1.0
 31
0.0
 73
     1
 44
1.0
  0
LINE
  5
25F
330
209
100
AcDbEntity
  8
0
  6
Continuous
 62
     2
100
AcDbLine
 10
91.1692814612
 20
102.9180625
 30
0.0
 11
108.8835234375
 21
102.9180625
 31
0.0
  0
LINE
  5
260
330
209
100
AcDbEntity
  8
0
  6
Continuous
 62
     2
100
AcDbLine
 10
91.0846530828
 20
37.9180625
 30
0.0
 11
108.8835234375
 21
37.9180625
 31
0.0
  0
LINE
  5
261
330
209
100
AcDbEntity
  8
0
  6
Continuous
 62
     2
100
AcDbLine
 10
108.1335234375
 20
102.9180625
 30
0.0
 11
108.1335234375
 21
70.4180625
 31
0.0
  0
LINE
  5
262
330
209
100
AcDbEntity
  8
0
  6
Continuous
 62
     2
100
AcDbLine
 10
108.1335234375
 20
37.9180625
 30
0.0
 11
108.1335234375
 21
70.4180625
 31
0.0
  0
INSERT
  5
263
330
209
100
AcDbEntity
  8
0
  6
Continuous
 62
     2
100
AcDbBlockReference
  2
_CLOSED
 10
108.1335234375
 20
102.9180625
 30
0.0
 41
2.5
 42
2.5
 43
2.5
 50
90.0
  0
INSERT
  5
264
330
209
100
AcDbEntity
  8
0
  6
Continuous
 62
     2
100
AcDbBlockReference
  2
_CLOSED
 10
108.1335234375
 20
37.9180625
 30
0.0
 41
2.5
 42
2.5
 43
2.5
 50
270.0
  0
ENDBLK
  5
265
330
209
100
AcDbEntity
  8
0
  6
ByBlock
 62
     0
100
AcDbBlockEnd
  0
BLOCK
  5
266
330
20A
100
AcDbEntity
  8
0
100
AcDbBlockBegin
  2
*D2
 70
     1
 10
0.0
 20
0.0
 30
0.0
  3
*D2
  1

  0
MTEXT
  5
267
330
20A
100
AcDbEntity
  8
0
  6
Continuous
 62
     2
100
AcDbMText
 10
63.6949571368
 20
116.0183475507
 30
0.0
 40
3.0
 41
4.6617100372
 46
0.0
 71
     2
 72
     1
  1
55
 73
     1
 44
1.0
  0
LINE
  5
268
330
20A
100
AcDbEntity
  8
0
  6
Continuous
 62
     2
100
AcDbLine
 10
36.1949571368
 20
101.7635861487
 30
0.0
 11
36.1949571368
 21
113.0183475507
 31
0.0
  0
LINE
  5
269
330
20A
100
AcDbEntity
  8
0
  6
Continuous
 62
     2
100
AcDbLine
 10
91.1949571368
 20
101.5378260135
 30
0.0
 11
91.1949571368
 21
113.0183475507
 31
0.0
  0
LINE
  5
26A
330
20A
100
AcDbEntity
  8
0
  6
Continuous
 62
     2
100
AcDbLine
 10
36.1949571368
 20
112.2683475507
 30
0.0
 11
63.6949571368
 21
112.2683475507
 31
0.0
  0
LINE
  5
26B
330
20A
100
AcDbEntity
  8
0
  6
Continuous
 62
     2
100
AcDbLine
 10
91.1949571368
 20
112.2683475507
 30
0.0
 11
63.6949571368
 21
112.2683475507
 31
0.0
  0
INSERT
  5
26C
330
20A
100
AcDbEntity
  8
0
  6
Continuous
 62
     2
100
AcDbBlockReference
  2
_CLOSED
 10
36.1949571368
 20
112.2683475507
 30
0.0
 41
2.5
 42
2.5
 43
2.5
 50
180.0
  0
INSERT
  5
26D
330
20A
100
AcDbEntity
  8
0
  6
Continuous
 62
     2
100
AcDbBlockReference
  2
_CLOSED
 10
91.1949571368
 20
112.2683475507
 30
0.0
 41
2.5
 42
2.5
 43
2.5
  0
ENDBLK
  5
26E
330
20A
100
AcDbEntity
  8
0
  6
ByBlock
 62
     0
100
AcDbBlockEnd
  0
BLOCK
  5
26F
330
20B
100
AcDbEntity
  8
0
100
AcDbBlockBegin
  2
*D3
 70
     1
 10
0.0
 20
0.0
 30
0.0
  3
*D3
  1

  0
MTEXT
  5
270
330
20B
100
AcDbEntity
  8
0
  6
Continuous
 62
     2
100
AcDbMText
 10
21.4025637669
 20
155.4308633868
 30
0.0
 40
3.0
 41
4.6617100372
 46
0.0
 71
     2
 72
     1
  1
47
 11
0.0
 21
1.0
 31
0.0
 73
     1
 44
1.0
  0
LINE
  5
271
330
20B
100
AcDbEntity
  8
0
  6
Continuous
 62
     2
100
AcDbLine
 10
36.6721530828
 20
178.9308633868
 30
0.0
 11
24.4025637669
 21
178.9308633868
 31
0.0
  0
LINE
  5
272
330
20B
100
AcDbEntity
  8
0
  6
Continuous
 62
     2
100
AcDbLine
 10
34.4145517314
 20
131.9308633868
 30
0.0
 11
24.4025637669
 21
131.9308633868
 31
0.0
  0
LINE
  5
273
330
20B
100
AcDbEntity
  8
0
  6
Continuous
 62
     2
100
AcDbLine
 10
25.1525637669
 20
178.9308633868
 30
0.0
 11
25.1525637669
 21
155.4308633868
 31
0.0
  0
LINE
  5
274
330
20B
100
AcDbEntity
  8
0
  6
Continuous
 62
     2
100
AcDbLine
 10
25.1525637669
 20
131.9308633868
 30
0.0
 11
25.1525637669
 21
155.4308633868
 31
0.0
  0
INSERT
  5
275
330
20B
100
AcDbEntity
  8
0
  6
Continuous
 62
     2
100
AcDbBlockReference
  2
_CLOSED
 10
25.1525637669
 20
178.9308633868
 30
0.0
 41
2.5
 42
2.5
 43
2.5
 50
90.0
  0
INSERT
  5
276
330
20B
100
AcDbEntity
  8
0
  6
Continuous
 62
     2
100
AcDbBlockReference
  2
_CLOSED
 10
25.1525637669
 20
131.9308633868
 30
0.0
 41
2.5
 42
2.5
 43
2.5
 50
270.0
  0
ENDBLK
  5
277
330
20B
100
AcDbEntity
  8
0
  6
ByBlock
 62
     0
100
AcDbBlockEnd
  0
BLOCK
  5
278
330
20C
100
AcDbEntity
  8
0
100
AcDbBlockBegin
  2
*D4
 70
     1
 10
0.0
 20
0.0
 30
0.0
  3
*D4
  1

  0
MTEXT
  5
279
330
20C
100
AcDbEntity
  8
0
  6
Continuous
 62
     2
100
AcDbMText
 10
63.6949571368
 20
31.0623005607
 30
0.0
 40
3.0
 41
4.6617100372
 46
0.0
 71
     2
 72
     1
  1
37
 73
     1
 44
1.0
  0
LINE
  5
27A
330
20C
100
AcDbEntity
  8
0
  6
Continuous
 62
     2
100
AcDbLine
 10
45.1949571368
 20
58.1091435811
 30
0.0
 11
45.1949571368
 21
26.5623005607
 31
0.0
  0
LINE
  5
27B
330
20C
100
AcDbEntity
  8
0
  6
Continuous
 62
     2
100
AcDbLine
 10
82.1949571368
 20
57.928535473
 30
0.0
 11
82.1949571368
 21
26.5623005607
 31
0.0
  0
LINE
  5
27C
330
20C
100
AcDbEntity
  8
0
  6
Continuous
 62
     2
100
AcDbLine
 10
45.1949571368
 20
27.3123005607
 30
0.0
 11
63.6949571368
 21
27.3123005607
 31
0.0
  0
LINE
  5
27D
330
20C
100
AcDbEntity
  8
0
  6
Continuous
 62
     2
100
AcDbLine
 10
82.1949571368
 20
27.3123005607
 30
0.0
 11
63.6949571368
 21
27.3123005607
 31
0.0
  0
INSERT
  5
27E
330
20C
100
AcDbEntity
  8
0
  6
Continuous
 62
     2
100
AcDbBlockReference
  2
_CLOSED
 10
45.1949571368
 20
27.3123005607
 30
0.0
 41
2.5
 42
2.5
 43
2.5
 50
180.0
  0
INSERT
  5
27F
330
20C
100
AcDbEntity
  8
0
  6
Continuous
 62
     2
100
AcDbBlockReference
  2
_CLOSED
 10
82.1949571368
 20
27.3123005607
 30
0.0
 41
2.5
 42
2.5
 43
2.5
  0
ENDBLK
  5
280
330
20C
100
AcDbEntity
  8
0
  6
ByBlock
 62
     0
100
AcDbBlockEnd
  0
BLOCK
  5
211
330
20D
100
AcDbEntity
  8
0
100
AcDbBlockBegin
  2
LOGO2_BL1
 70
     0
 10
174.3195542238
 20
37.9825802365
 30
0.0
  3
LOGO2_BL1
  1

  0
LINE
  5
212
330
20D
100
AcDbEntity
  8
0
  6
Continuous
 62
     7
100
AcDbLine
 10
166.062479452
 20
41.1780715754
 30
0.0
 11
164.7581385227
 21
41.1780715754
 31
0.0
  0
LINE
  5
213
330
20D
100
AcDbEntity
  8
0
  6
Continuous
 62
     7
100
AcDbLine
 10
164.7581385227
 20
41.1780715754
 30
0.0
 11
164.7581385227
 21
30.7190055155
 31
0.0
  0
LINE
  5
214
330
20D
100
AcDbEntity
  8
0
  6
Continuous
 62
     7
100
AcDbLine
 10
164.7581385227
 20
30.7190055155
 30
0.0
 11
169.239193411
 21
30.7190055155
 31
0.0
  0
LINE
  5
215
330
20D
100
AcDbEntity
  8
0
  6
Continuous
 62
     7
100
AcDbLine
 10
169.239193411
 20
30.7190055155
 30
0.0
 11
169.239193411
 21
31.9118598405
 31
0.0
  0
LINE
  5
216
330
20D
100
AcDbEntity
  8
0
  6
Continuous
 62
     7
100
AcDbLine
 10
169.239193411
 20
31.9118598405
 30
0.0
 11
166.062479452
 21
31.9118598405
 31
0.0
  0
LINE
  5
217
330
20D
100
AcDbEntity
  8
0
  6
Continuous
 62
     7
100
AcDbLine
 10
166.062479452
 20
31.9118598405
 30
0.0
 11
166.062479452
 21
41.1780715754
 31
0.0
  0
LINE
  5
218
330
20D
100
AcDbEntity
  8
0
  6
Continuous
 62
     7
100
AcDbLine
 10
180.9988056684
 20
41.1780715754
 30
0.0
 11
179.6949881503
 21
41.1780715754
 31
0.0
  0
LINE
  5
219
330
20D
100
AcDbEntity
  8
0
  6
Continuous
 62
     7
100
AcDbLine
 10
179.6949881503
 20
41.1780715754
 30
0.0
 11
179.6949881503
 21
30.7190055155
 31
0.0
  0
LINE
  5
21A
330
20D
100
AcDbEntity
  8
0
  6
Continuous
 62
     7
100
AcDbLine
 10
179.6949881503
 20
30.7190055155
 30
0.0
 11
184.1761738914
 21
30.7190055155
 31
0.0
  0
LINE
  5
21B
330
20D
100
AcDbEntity
  8
0
  6
Continuous
 62
     7
100
AcDbLine
 10
184.1761738914
 20
30.7190055155
 30
0.0
 11
184.1761738914
 21
31.9118598405
 31
0.0
  0
LINE
  5
21C
330
20D
100
AcDbEntity
  8
0
  6
Continuous
 62
     7
100
AcDbLine
 10
184.1761738914
 20
31.9118598405
 30
0.0
 11
180.9988056684
 21
31.9118598405
 31
0.0
  0
LINE
  5
21D
330
20D
100
AcDbEntity
  8
0
  6
Continuous
 62
     7
100
AcDbLine
 10
180.9988056684
 20
31.9118598405
 30
0.0
 11
180.9988056684
 21
41.1780715754
 31
0.0
  0
LWPOLYLINE
  5
21E
330
20D
100
AcDbEntity
  8
0
  6
Continuous
 62
     7
100
AcDbPolyline
 90
        2
 70
     0
 43
0.2
 10
163.1125334336
 20
27.3754542086
 10
163.1125334336
 20
25.5183909592
  0
LWPOLYLINE
  5
21F
330
20D
100
AcDbEntity
  8
0
  6
Continuous
 62
     7
100
AcDbPolyline
 90
        2
 70
     0
 43
0.2
 10
163.1125334336
 20
25.5183909592
 10
163.908249444
 20
25.5183909592
  0
LWPOLYLINE
  5
220
330
20D
100
AcDbEntity
  8
0
  6
Continuous
 62
     7
100
AcDbPolyline
 90
        2
 70
     0
 43
0.2
 10
163.908249444
 20
25.5183909592
 10
163.908249444
 20
25.7303725308
  0
LWPOLYLINE
  5
221
330
20D
100
AcDbEntity
  8
0
  6
Continuous
 62
     7
100
AcDbPolyline
 90
        2
 70
     0
 43
0.2
 10
163.908249444
 20
25.7303725308
 10
163.3441429285
 20
25.7303725308
  0
LWPOLYLINE
  5
222
330
20D
100
AcDbEntity
  8
0
  6
Continuous
 62
     7
100
AcDbPolyline
 90
        2
 70
     0
 43
0.2
 10
163.3441429285
 20
25.7303725308
 10
163.3441429285
 20
27.3754542086
  0
LWPOLYLINE
  5
223
330
20D
100
AcDbEntity
  8
0
  6
Continuous
 62
     7
100
AcDbPolyline
 90
        2
 70
     0
 43
0.2
 10
163.3441429285
 20
27.3754542086
 10
163.1125334336
 20
27.3754542086
  0
SPLINE
  5
224
330
20D
100
AcDbEntity
  8
0
  6
Continuous
 62
     7
100
AcDbSpline
 70
     3
 71
     3
 72
    35
 73
    31
 74
     0
 42
0.000000001
 43
0.0000001
 40
0.0
 40
0.0
 40
0.0
 40
0.0
 40
1.0
 40
1.0
 40
1.0
 40
2.0
 40
2.0
 40
2.0
 40
3.0
 40
3.0
 40
3.0
 40
4.0
 40
4.0
 40
4.0
 40
5.0
 40
5.0
 40
5.0
 40
6.0
 40
6.0
 40
6.0
 40
7.0
 40
7.0
 40
7.0
 40
8.0
 40
8.0
 40
8.0
 40
9.0
 40
9.0
 40
9.0
 40
10.0
 40
10.0
 40
10.0
 40
10.0
 10
165.3065426995
 20
26.6709426151
 30
0.0
 10
165.3065426995
 20
26.6709426151
 30
0.0
 10
165.3065426995
 20
26.0088273359
 30
0.0
 10
165.3065426995
 20
26.0088273359
 30
0.0
 10
165.3065426995
 20
25.6937337406
 30
0.0
 10
165.4544063884
 20
25.4791351126
 30
0.0
 10
165.7944928727
 20
25.4791351126
 30
0.0
 10
166.1340559457
 20
25.4791351126
 30
0.0
 10
166.2821813401
 20
25.6937337406
 30
0.0
 10
166.2821813401
 20
26.0088273359
 30
0.0
 10
166.2821813401
 20
26.0088273359
 30
0.0
 10
166.2821813401
 20
26.6709426151
 30
0.0
 10
166.2821813401
 20
26.6709426151
 30
0.0
 10
166.2821813401
 20
26.6709426151
 30
0.0
 10
166.0601241012
 20
26.6709426151
 30
0.0
 10
166.0601241012
 20
26.6709426151
 30
0.0
 10
166.0601241012
 20
26.6709426151
 30
0.0
 10
166.0601241012
 20
26.0339510778
 30
0.0
 10
166.0601241012
 20
26.0339510778
 30
0.0
 10
166.0601241012
 20
25.8481400706
 30
0.0
 10
166.0134096438
 20
25.68535916
 30
0.0
 10
165.7944928727
 20
25.68535916
 30
0.0
 10
165.5750526902
 20
25.68535916
 30
0.0
 10
165.5283382328
 20
25.8481400706
 30
0.0
 10
165.5283382328
 20
26.0339510778
 30
0.0
 10
165.5283382328
 20
26.0339510778
 30
0.0
 10
165.5283382328
 20
26.6709426151
 30
0.0
 10
165.5283382328
 20
26.6709426151
 30
0.0
 10
165.5283382328
 20
26.6709426151
 30
0.0
 10
165.3065426995
 20
26.6709426151
 30
0.0
 10
165.3065426995
 20
26.6709426151
 30
0.0
  0
SPLINE
  5
225
330
20D
100
AcDbEntity
  8
0
  6
Continuous
 62
     7
100
AcDbSpline
 70
     3
 71
     3
 72
    35
 73
    31
 74
     0
 42
0.000000001
 43
0.0000001
 40
0.0
 40
0.0
 40
0.0
 40
0.0
 40
1.0
 40
1.0
 40
1.0
 40
2.0
 40
2.0
 40
2.0
 40
3.0
 40
3.0
 40
3.0
 40
4.0
 40
4.0
 40
4.0
 40
5.0
 40
5.0
 40
5.0
 40
6.0
 40
6.0
 40
6.0
 40
7.0
 40
7.0
 40
7.0
 40
8.0
 40
8.0
 40
8.0
 40
9.0
 40
9.0
 40
9.0
 40
10.0
 40
10.0
 40
10.0
 40
10.0
 10
168.7053138973
 20
26.6295931234
 30
0.0
 10
168.6168573897
 20
26.6808874296
 30
0.0
 10
168.503407993
 20
26.7060111714
 30
0.0
 10
168.399772558
 20
26.7060111714
 30
0.0
 10
168.0448997049
 20
26.7060111714
 30
0.0
 10
167.7694545146
 20
26.4422118823
 30
0.0
 10
167.7694545146
 20
26.0847219727
 30
0.0
 10
167.7694545146
 20
25.739793934
 30
0.0
 10
168.0479093198
 20
25.4796585239
 30
0.0
 10
168.3874723928
 20
25.4796585239
 30
0.0
 10
168.503407993
 20
25.4796585239
 30
0.0
 10
168.6041646659
 20
25.501641798
 30
0.0
 10
168.7053138973
 20
25.5555531606
 30
0.0
 10
168.7053138973
 20
25.5555531606
 30
0.0
 10
168.7053138973
 20
25.8381952561
 30
0.0
 10
168.7053138973
 20
25.8381952561
 30
0.0
 10
168.6214372384
 20
25.7450280469
 30
0.0
 10
168.5179326563
 20
25.6858825713
 30
0.0
 10
168.3898277436
 20
25.6858825713
 30
0.0
 10
168.1561246035
 20
25.6858825713
 30
0.0
 10
167.9908574894
 20
25.858084885
 30
0.0
 10
167.9908574894
 20
26.0946667872
 30
0.0
 10
167.9908574894
 20
26.3066483587
 30
0.0
 10
168.1586108071
 20
26.4987403014
 30
0.0
 10
168.3754339331
 20
26.4987403014
 30
0.0
 10
168.5082495474
 20
26.4987403014
 30
0.0
 10
168.6168573897
 20
26.4448289387
 30
0.0
 10
168.7053138973
 20
26.3438105602
 30
0.0
 10
168.7053138973
 20
26.3438105602
 30
0.0
 10
168.7053138973
 20
26.6295931234
 30
0.0
 10
168.7053138973
 20
26.6295931234
 30
0.0
  0
SPLINE
  5
226
330
20D
100
AcDbEntity
  8
0
  6
Continuous
 62
     7
100
AcDbSpline
 70
     3
 71
     3
 72
    32
 73
    28
 74
     0
 42
0.000000001
 43
0.0000001
 40
0.0
 40
0.0
 40
0.0
 40
0.0
 40
1.0
 40
1.0
 40
1.0
 40
2.0
 40
2.0
 40
2.0
 40
3.0
 40
3.0
 40
3.0
 40
4.0
 40
4.0
 40
4.0
 40
5.0
 40
5.0
 40
5.0
 40
6.0
 40
6.0
 40
6.0
 40
7.0
 40
7.0
 40
7.0
 40
8.0
 40
8.0
 40
8.0
 40
9.0
 40
9.0
 40
9.0
 40
9.0
 10
171.2371851496
 20
26.058027997
 30
0.0
 10
171.2371851496
 20
26.058027997
 30
0.0
 10
171.2371851496
 20
26.0920497307
 30
0.0
 10
171.2371851496
 20
26.0920497307
 30
0.0
 10
171.2371851496
 20
26.434360713
 30
0.0
 10
171.0643285718
 20
26.7060111714
 30
0.0
 10
170.6976789646
 20
26.7060111714
 30
0.0
 10
170.3260569502
 20
26.7060111714
 30
0.0
 10
170.1363203584
 20
26.4395948259
 30
0.0
 10
170.1363203584
 20
26.0847219727
 30
0.0
 10
170.1363203584
 20
25.7450280469
 30
0.0
 10
170.3503955751
 20
25.4791351126
 30
0.0
 10
170.702520519
 20
25.4791351126
 30
0.0
 10
170.9265405502
 20
25.4791351126
 30
0.0
 10
171.1287081602
 20
25.5948090072
 30
0.0
 10
171.2371851496
 20
25.7942287079
 30
0.0
 10
171.2371851496
 20
25.7942287079
 30
0.0
 10
171.0495422029
 20
25.9010046106
 30
0.0
 10
171.0495422029
 20
25.9010046106
 30
0.0
 10
170.9660581025
 20
25.7623006194
 30
0.0
 10
170.8748536855
 20
25.6764611681
 30
0.0
 10
170.7052684283
 20
25.6764611681
 30
0.0
 10
170.4932868567
 20
25.6764611681
 30
0.0
 10
170.3603403896
 20
25.8612253528
 30
0.0
 10
170.3579850388
 20
26.058027997
 30
0.0
 10
170.3579850388
 20
26.058027997
 30
0.0
 10
171.2371851496
 20
26.058027997
 30
0.0
 10
171.2371851496
 20
26.058027997
 30
0.0
  0
SPLINE
  5
227
330
20D
100
AcDbEntity
  8
0
  6
Continuous
 62
     7
100
AcDbSpline
 70
     3
 71
     3
 72
    14
 73
    10
 74
     0
 42
0.000000001
 43
0.0000001
 40
0.0
 40
0.0
 40
0.0
 40
0.0
 40
1.0
 40
1.0
 40
1.0
 40
2.0
 40
2.0
 40
2.0
 40
3.0
 40
3.0
 40
3.0
 40
3.0
 10
170.3700234984
 20
26.2255196091
 30
0.0
 10
170.3976334438
 20
26.3903941648
 30
0.0
 10
170.5254766509
 20
26.5133958175
 30
0.0
 10
170.6976789646
 20
26.5133958175
 30
0.0
 10
170.8748536855
 20
26.5133958175
 30
0.0
 10
170.9883030822
 20
26.3977219228
 30
0.0
 10
171.0155204692
 20
26.2255196091
 30
0.0
 10
171.0155204692
 20
26.2255196091
 30
0.0
 10
170.3700234984
 20
26.2255196091
 30
0.0
 10
170.3700234984
 20
26.2255196091
 30
0.0
  0
SPLINE
  5
228
330
20D
100
AcDbEntity
  8
0
  6
Continuous
 62
     7
100
AcDbSpline
 70
     3
 71
     3
 72
    20
 73
    16
 74
     0
 42
0.000000001
 43
0.0000001
 40
0.0
 40
0.0
 40
0.0
 40
0.0
 40
1.0
 40
1.0
 40
1.0
 40
2.0
 40
2.0
 40
2.0
 40
3.0
 40
3.0
 40
3.0
 40
4.0
 40
4.0
 40
4.0
 40
5.0
 40
5.0
 40
5.0
 40
5.0
 10
173.2612165998
 20
26.4348841243
 30
0.0
 10
173.2612165998
 20
26.4348841243
 30
0.0
 10
173.6723561664
 20
25.9324092879
 30
0.0
 10
173.6723561664
 20
25.9324092879
 30
0.0
 10
173.5562897133
 20
25.8167353933
 30
0.0
 10
173.4185016918
 20
25.6864059826
 30
0.0
 10
173.2465610837
 20
25.6864059826
 30
0.0
 10
173.0691246571
 20
25.6864059826
 30
0.0
 10
172.901633045
 20
25.850757127
 30
0.0
 10
172.901633045
 20
26.0276701423
 30
0.0
 10
172.901633045
 20
26.2056299802
 30
0.0
 10
173.1113901186
 20
26.3317721006
 30
0.0
 10
173.23897162
 20
26.4197051969
 30
0.0
 10
173.23897162
 20
26.4197051969
 30
0.0
 10
173.2612165998
 20
26.4348841243
 30
0.0
 10
173.2612165998
 20
26.4348841243
 30
0.0
  0
SPLINE
  5
229
330
20D
100
AcDbEntity
  8
0
  6
Continuous
 62
     7
100
AcDbSpline
 70
     3
 71
     3
 72
    23
 73
    19
 74
     0
 42
0.000000001
 43
0.0000001
 40
0.0
 40
0.0
 40
0.0
 40
0.0
 40
1.0
 40
1.0
 40
1.0
 40
2.0
 40
2.0
 40
2.0
 40
3.0
 40
3.0
 40
3.0
 40
4.0
 40
4.0
 40
4.0
 40
5.0
 40
5.0
 40
5.0
 40
6.0
 40
6.0
 40
6.0
 40
6.0
 10
173.3105481136
 20
26.7259008003
 30
0.0
 10
173.3105481136
 20
26.7259008003
 30
0.0
 10
173.2489164345
 20
26.8044124935
 30
0.0
 10
173.2489164345
 20
26.8044124935
 30
0.0
 10
173.1950050719
 20
26.8729793722
 30
0.0
 10
173.1382149471
 20
26.9420696622
 30
0.0
 10
173.1382149471
 20
27.0357602827
 30
0.0
 10
173.1382149471
 20
27.1545746451
 30
0.0
 10
173.2341300656
 20
27.2320395157
 30
0.0
 10
173.3450932586
 20
27.2320395157
 30
0.0
 10
173.4683566169
 20
27.2320395157
 30
0.0
 10
173.561654679
 20
27.1608555805
 30
0.0
 10
173.561654679
 20
27.0305261699
 30
0.0
 10
173.561654679
 20
26.8954860576
 30
0.0
 10
173.4335497663
 20
26.8190680096
 30
0.0
 10
173.3399899986
 20
26.745267018
 30
0.0
 10
173.3399899986
 20
26.745267018
 30
0.0
 10
173.3105481136
 20
26.7259008003
 30
0.0
 10
173.3105481136
 20
26.7259008003
 30
0.0
  0
SPLINE
  5
22A
330
20D
100
AcDbEntity
  8
0
  6
Continuous
 62
     7
100
AcDbSpline
 70
     3
 71
     3
 72
    50
 73
    46
 74
     0
 42
0.000000001
 43
0.0000001
 40
0.0
 40
0.0
 40
0.0
 40
0.0
 40
1.0
 40
1.0
 40
1.0
 40
2.0
 40
2.0
 40
2.0
 40
3.0
 40
3.0
 40
3.0
 40
4.0
 40
4.0
 40
4.0
 40
5.0
 40
5.0
 40
5.0
 40
6.0
 40
6.0
 40
6.0
 40
7.0
 40
7.0
 40
7.0
 40
8.0
 40
8.0
 40
8.0
 40
9.0
 40
9.0
 40
9.0
 40
10.0
 40
10.0
 40
10.0
 40
11.0
 40
11.0
 40
11.0
 40
12.0
 40
12.0
 40
12.0
 40
13.0
 40
13.0
 40
13.0
 40
14.0
 40
14.0
 40
14.0
 40
15.0
 40
15.0
 40
15.0
 40
15.0
 10
174.0127043563
 20
25.5189143705
 30
0.0
 10
174.0127043563
 20
25.5189143705
 30
0.0
 10
174.298094361
 20
25.5189143705
 30
0.0
 10
174.298094361
 20
25.5189143705
 30
0.0
 10
174.298094361
 20
25.5189143705
 30
0.0
 10
173.9657281932
 20
25.9297922315
 30
0.0
 10
173.9657281932
 20
25.9297922315
 30
0.0
 10
173.9657281932
 20
25.9297922315
 30
0.0
 10
174.1922344281
 20
26.1956851657
 30
0.0
 10
174.1922344281
 20
26.1956851657
 30
0.0
 10
174.1922344281
 20
26.1956851657
 30
0.0
 10
174.0439781808
 20
26.3485212618
 30
0.0
 10
174.0439781808
 20
26.3485212618
 30
0.0
 10
174.0439781808
 20
26.3485212618
 30
0.0
 10
173.8280710245
 20
26.0972838436
 30
0.0
 10
173.8280710245
 20
26.0972838436
 30
0.0
 10
173.8280710245
 20
26.0972838436
 30
0.0
 10
173.4410083771
 20
26.5652135349
 30
0.0
 10
173.4410083771
 20
26.5652135349
 30
0.0
 10
173.5964615296
 20
26.6793171957
 30
0.0
 10
173.7787395106
 20
26.8190680096
 30
0.0
 10
173.7787395106
 20
27.0284325247
 30
0.0
 10
173.7787395106
 20
27.2723421849
 30
0.0
 10
173.5767027535
 20
27.4157568777
 30
0.0
 10
173.3501965187
 20
27.4157568777
 30
0.0
 10
173.1060251529
 20
27.4157568777
 30
0.0
 10
172.9216535268
 20
27.2650144268
 30
0.0
 10
172.9216535268
 20
27.0085428958
 30
0.0
 10
172.9216535268
 20
26.8509960981
 30
0.0
 10
173.0203165545
 20
26.7133389294
 30
0.0
 10
173.1256530762
 20
26.6023757364
 30
0.0
 10
173.1256530762
 20
26.6023757364
 30
0.0
 10
173.0101100344
 20
26.5186299303
 30
0.0
 10
173.0101100344
 20
26.5186299303
 30
0.0
 10
172.8324119022
 20
26.3903941648
 30
0.0
 10
172.6850716246
 20
26.2626818106
 30
0.0
 10
172.6850716246
 20
26.0255764972
 30
0.0
 10
172.6850716246
 20
25.705248789
 30
0.0
 10
172.9436368009
 20
25.4791351126
 30
0.0
 10
173.2540196946
 20
25.4791351126
 30
0.0
 10
173.4729364657
 20
25.4791351126
 30
0.0
 10
173.6701316684
 20
25.6042304104
 30
0.0
 10
173.8104058936
 20
25.7701517887
 30
0.0
 10
173.8104058936
 20
25.7701517887
 30
0.0
 10
174.0127043563
 20
25.5189143705
 30
0.0
 10
174.0127043563
 20
25.5189143705
 30
0.0
  0
LWPOLYLINE
  5
22B
330
20D
100
AcDbEntity
  8
0
  6
Continuous
 62
     7
100
AcDbPolyline
 90
        2
 70
     0
 43
0.2
 10
175.948148446
 20
27.3754542086
 10
175.7168006568
 20
27.3754542086
  0
LWPOLYLINE
  5
22C
330
20D
100
AcDbEntity
  8
0
  6
Continuous
 62
     7
100
AcDbPolyline
 90
        2
 70
     0
 43
0.2
 10
175.7168006568
 20
27.3754542086
 10
175.7168006568
 20
25.5183909592
  0
LWPOLYLINE
  5
22D
330
20D
100
AcDbEntity
  8
0
  6
Continuous
 62
     7
100
AcDbPolyline
 90
        2
 70
     0
 43
0.2
 10
175.7168006568
 20
25.5183909592
 10
176.5121241087
 20
25.5183909592
  0
LWPOLYLINE
  5
22E
330
20D
100
AcDbEntity
  8
0
  6
Continuous
 62
     7
100
AcDbPolyline
 90
        2
 70
     0
 43
0.2
 10
176.5121241087
 20
25.5183909592
 10
176.5121241087
 20
25.7303725308
  0
LWPOLYLINE
  5
22F
330
20D
100
AcDbEntity
  8
0
  6
Continuous
 62
     7
100
AcDbPolyline
 90
        2
 70
     0
 43
0.2
 10
176.5121241087
 20
25.7303725308
 10
175.948148446
 20
25.7303725308
  0
LWPOLYLINE
  5
230
330
20D
100
AcDbEntity
  8
0
  6
Continuous
 62
     7
100
AcDbPolyline
 90
        2
 70
     0
 43
0.2
 10
175.948148446
 20
25.7303725308
 10
175.948148446
 20
27.3754542086
  0
LWPOLYLINE
  5
231
330
20D
100
AcDbEntity
  8
0
  6
Continuous
 62
     7
100
AcDbPolyline
 90
        2
 70
     0
 43
0.2
 10
178.1912275202
 20
26.6709426151
 10
177.9700862511
 20
26.6709426151
  0
LWPOLYLINE
  5
232
330
20D
100
AcDbEntity
  8
0
  6
Continuous
 62
     7
100
AcDbPolyline
 90
        2
 70
     0
 43
0.2
 10
177.9700862511
 20
26.6709426151
 10
177.9700862511
 20
25.5189143705
  0
LWPOLYLINE
  5
233
330
20D
100
AcDbEntity
  8
0
  6
Continuous
 62
     7
100
AcDbPolyline
 90
        2
 70
     0
 43
0.2
 10
177.9700862511
 20
25.5189143705
 10
178.1912275202
 20
25.5189143705
  0
LWPOLYLINE
  5
234
330
20D
100
AcDbEntity
  8
0
  6
Continuous
 62
     7
100
AcDbPolyline
 90
        2
 70
     0
 43
0.2
 10
178.1912275202
 20
25.5189143705
 10
178.1912275202
 20
26.6709426151
  0
SPLINE
  5
235
330
20D
100
AcDbEntity
  8
0
  6
Continuous
 62
     7
100
AcDbSpline
 70
     3
 71
     3
 72
    17
 73
    13
 74
     0
 42
0.000000001
 43
0.0000001
 40
0.0
 40
0.0
 40
0.0
 40
0.0
 40
1.0
 40
1.0
 40
1.0
 40
2.0
 40
2.0
 40
2.0
 40
3.0
 40
3.0
 40
3.0
 40
4.0
 40
4.0
 40
4.0
 40
4.0
 10
178.0807877385
 20
27.3534709345
 30
0.0
 10
177.9967802268
 20
27.3534709345
 30
0.0
 10
177.9282133481
 20
27.2843806445
 30
0.0
 10
177.9282133481
 20
27.1985411933
 30
0.0
 10
177.9282133481
 20
27.1142719759
 30
0.0
 10
177.9967802268
 20
27.0483221537
 30
0.0
 10
178.0807877385
 20
27.0483221537
 30
0.0
 10
178.1645335445
 20
27.0483221537
 30
0.0
 10
178.2333621289
 20
27.1142719759
 30
0.0
 10
178.2333621289
 20
27.1985411933
 30
0.0
 10
178.2333621289
 20
27.2843806445
 30
0.0
 10
178.1645335445
 20
27.3534709345
 30
0.0
 10
178.0807877385
 20
27.3534709345
 30
0.0
  0
SPLINE
  5
236
330
20D
100
AcDbEntity
  8
0
  6
Continuous
 62
     7
100
AcDbSpline
 70
     3
 71
     3
 72
    17
 73
    13
 74
     0
 42
0.000000001
 43
0.0000001
 40
0.0
 40
0.0
 40
0.0
 40
0.0
 40
1.0
 40
1.0
 40
1.0
 40
2.0
 40
2.0
 40
2.0
 40
3.0
 40
3.0
 40
3.0
 40
4.0
 40
4.0
 40
4.0
 40
4.0
 10
180.3215114618
 20
25.6764611681
 30
0.0
 10
180.0875466162
 20
25.6764611681
 30
0.0
 10
179.9572172055
 20
25.8784979253
 30
0.0
 10
179.9572172055
 20
26.0946667872
 30
0.0
 10
179.9572172055
 20
26.3092654152
 30
0.0
 10
180.0930424347
 20
26.5081617046
 30
0.0
 10
180.3215114618
 20
26.5081617046
 30
0.0
 10
180.560972126
 20
26.5081617046
 30
0.0
 10
180.6965356496
 20
26.3192102297
 30
0.0
 10
180.6965356496
 20
26.0946667872
 30
0.0
 10
180.6965356496
 20
25.8685531108
 30
0.0
 10
180.5633274768
 20
25.6764611681
 30
0.0
 10
180.3215114618
 20
25.6764611681
 30
0.0
  0
SPLINE
  5
237
330
20D
100
AcDbEntity
  8
0
  6
Continuous
 62
     7
100
AcDbSpline
 70
     3
 71
     3
 72
    50
 73
    46
 74
     0
 42
0.000000001
 43
0.0000001
 40
0.0
 40
0.0
 40
0.0
 40
0.0
 40
1.0
 40
1.0
 40
1.0
 40
2.0
 40
2.0
 40
2.0
 40
3.0
 40
3.0
 40
3.0
 40
4.0
 40
4.0
 40
4.0
 40
5.0
 40
5.0
 40
5.0
 40
6.0
 40
6.0
 40
6.0
 40
7.0
 40
7.0
 40
7.0
 40
8.0
 40
8.0
 40
8.0
 40
9.0
 40
9.0
 40
9.0
 40
10.0
 40
10.0
 40
10.0
 40
11.0
 40
11.0
 40
11.0
 40
12.0
 40
12.0
 40
12.0
 40
13.0
 40
13.0
 40
13.0
 40
14.0
 40
14.0
 40
14.0
 40
15.0
 40
15.0
 40
15.0
 40
15.0
 10
180.9056384591
 20
26.6714660264
 30
0.0
 10
180.9056384591
 20
26.6714660264
 30
0.0
 10
180.6839737787
 20
26.6714660264
 30
0.0
 10
180.6839737787
 20
26.6714660264
 30
0.0
 10
180.6839737787
 20
26.6714660264
 30
0.0
 10
180.6839737787
 20
26.4741399709
 30
0.0
 10
180.6839737787
 20
26.4741399709
 30
0.0
 10
180.6839737787
 20
26.4741399709
 30
0.0
 10
180.6792630771
 20
26.4741399709
 30
0.0
 10
180.6792630771
 20
26.4741399709
 30
0.0
 10
180.5879278074
 20
26.6170312524
 30
0.0
 10
180.450008933
 20
26.7054877601
 30
0.0
 10
180.277283208
 20
26.7054877601
 30
0.0
 10
179.9449170402
 20
26.7054877601
 30
0.0
 10
179.7358142307
 20
26.4176115518
 30
0.0
 10
179.7358142307
 20
26.1019945452
 30
0.0
 10
179.7358142307
 20
25.7722454338
 30
0.0
 10
179.9328785806
 20
25.4791351126
 30
0.0
 10
180.2877514338
 20
25.4791351126
 30
0.0
 10
180.450008933
 20
25.4791351126
 30
0.0
 10
180.5900214525
 20
25.5675916203
 30
0.0
 10
180.6792630771
 20
25.6984444422
 30
0.0
 10
180.6792630771
 20
25.6984444422
 30
0.0
 10
180.6839737787
 20
25.6984444422
 30
0.0
 10
180.6839737787
 20
25.6984444422
 30
0.0
 10
180.6839737787
 20
25.6984444422
 30
0.0
 10
180.6839737787
 20
25.4791351126
 30
0.0
 10
180.6839737787
 20
25.4791351126
 30
0.0
 10
180.6839737787
 20
25.2425532105
 30
0.0
 10
180.6274453596
 20
25.0556953807
 30
0.0
 10
180.3542246673
 20
25.0556953807
 30
0.0
 10
180.1519262046
 20
25.0556953807
 30
0.0
 10
180.0092966286
 20
25.1739863318
 30
0.0
 10
180.0092966286
 20
25.3802103792
 30
0.0
 10
180.0092966286
 20
25.3802103792
 30
0.0
 10
179.7876319482
 20
25.3802103792
 30
0.0
 10
179.7876319482
 20
25.3802103792
 30
0.0
 10
179.7926043555
 20
25.0556953807
 30
0.0
 10
180.023690439
 20
24.8588927365
 30
0.0
 10
180.3440181472
 20
24.8588927365
 30
0.0
 10
180.7920582096
 20
24.8588927365
 30
0.0
 10
180.9056384591
 20
25.1441518884
 30
0.0
 10
180.9056384591
 20
25.5408976446
 30
0.0
 10
180.9056384591
 20
25.5408976446
 30
0.0
 10
180.9056384591
 20
26.6714660264
 30
0.0
 10
180.9056384591
 20
26.6714660264
 30
0.0
  0
SPLINE
  5
238
330
20D
100
AcDbEntity
  8
0
  6
Continuous
 62
     7
100
AcDbSpline
 70
     3
 71
     3
 72
    44
 73
    40
 74
     0
 42
0.000000001
 43
0.0000001
 40
0.0
 40
0.0
 40
0.0
 40
0.0
 40
1.0
 40
1.0
 40
1.0
 40
2.0
 40
2.0
 40
2.0
 40
3.0
 40
3.0
 40
3.0
 40
4.0
 40
4.0
 40
4.0
 40
5.0
 40
5.0
 40
5.0
 40
6.0
 40
6.0
 40
6.0
 40
7.0
 40
7.0
 40
7.0
 40
8.0
 40
8.0
 40
8.0
 40
9.0
 40
9.0
 40
9.0
 40
10.0
 40
10.0
 40
10.0
 40
11.0
 40
11.0
 40
11.0
 40
12.0
 40
12.0
 40
12.0
 40
13.0
 40
13.0
 40
13.0
 40
13.0
 10
182.4745637945
 20
27.6565260702
 30
0.0
 10
182.4745637945
 20
27.6565260702
 30
0.0
 10
182.4745637945
 20
25.5183909592
 30
0.0
 10
182.4745637945
 20
25.5183909592
 30
0.0
 10
182.4745637945
 20
25.5183909592
 30
0.0
 10
182.6959667693
 20
25.5183909592
 30
0.0
 10
182.6959667693
 20
25.5183909592
 30
0.0
 10
182.6959667693
 20
25.5183909592
 30
0.0
 10
182.6959667693
 20
26.0480831825
 30
0.0
 10
182.6959667693
 20
26.0480831825
 30
0.0
 10
182.6959667693
 20
26.257971109
 30
0.0
 10
182.6959667693
 20
26.5086851159
 30
0.0
 10
182.9812259212
 20
26.5086851159
 30
0.0
 10
183.2081247144
 20
26.5086851159
 30
0.0
 10
183.2350803958
 20
26.3757386487
 30
0.0
 10
183.2350803958
 20
26.1794594158
 30
0.0
 10
183.2350803958
 20
26.1794594158
 30
0.0
 10
183.2350803958
 20
25.5183909592
 30
0.0
 10
183.2350803958
 20
25.5183909592
 30
0.0
 10
183.2350803958
 20
25.5183909592
 30
0.0
 10
183.4570067818
 20
25.5183909592
 30
0.0
 10
183.4570067818
 20
25.5183909592
 30
0.0
 10
183.4570067818
 20
25.5183909592
 30
0.0
 10
183.4570067818
 20
26.2056299802
 30
0.0
 10
183.4570067818
 20
26.2056299802
 30
0.0
 10
183.4570067818
 20
26.4861784305
 30
0.0
 10
183.3729992701
 20
26.7060111714
 30
0.0
 10
183.0479608604
 20
26.7060111714
 30
0.0
 10
182.9082100465
 20
26.7060111714
 30
0.0
 10
182.7700294665
 20
26.6395379378
 30
0.0
 10
182.7006774709
 20
26.5165362852
 30
0.0
 10
182.7006774709
 20
26.5165362852
 30
0.0
 10
182.6959667693
 20
26.5165362852
 30
0.0
 10
182.6959667693
 20
26.5165362852
 30
0.0
 10
182.6959667693
 20
26.5165362852
 30
0.0
 10
182.6959667693
 20
27.6565260702
 30
0.0
 10
182.6959667693
 20
27.6565260702
 30
0.0
 10
182.6959667693
 20
27.6565260702
 30
0.0
 10
182.4745637945
 20
27.6565260702
 30
0.0
 10
182.4745637945
 20
27.6565260702
 30
0.0
  0
LWPOLYLINE
  5
239
330
20D
100
AcDbEntity
  8
0
  6
Continuous
 62
     7
100
AcDbPolyline
 90
        2
 70
     0
 43
0.2
 10
185.2967974587
 20
26.4641951564
 10
185.5132280262
 20
26.4641951564
  0
LWPOLYLINE
  5
23A
330
20D
100
AcDbEntity
  8
0
  6
Continuous
 62
     7
100
AcDbPolyline
 90
        2
 70
     0
 43
0.2
 10
185.5132280262
 20
26.4641951564
 10
185.5132280262
 20
26.6709426151
  0
LWPOLYLINE
  5
23B
330
20D
100
AcDbEntity
  8
0
  6
Continuous
 62
     7
100
AcDbPolyline
 90
        2
 70
     0
 43
0.2
 10
185.5132280262
 20
26.6709426151
 10
185.2967974587
 20
26.6709426151
  0
LWPOLYLINE
  5
23C
330
20D
100
AcDbEntity
  8
0
  6
Continuous
 62
     7
100
AcDbPolyline
 90
        2
 70
     0
 43
0.2
 10
185.2967974587
 20
26.6709426151
 10
185.2967974587
 20
27.1116549195
  0
LWPOLYLINE
  5
23D
330
20D
100
AcDbEntity
  8
0
  6
Continuous
 62
     7
100
AcDbPolyline
 90
        2
 70
     0
 43
0.2
 10
185.2967974587
 20
27.1116549195
 10
185.0751327783
 20
27.1116549195
  0
LWPOLYLINE
  5
23E
330
20D
100
AcDbEntity
  8
0
  6
Continuous
 62
     7
100
AcDbPolyline
 90
        2
 70
     0
 43
0.2
 10
185.0751327783
 20
27.1116549195
 10
185.0751327783
 20
26.6709426151
  0
LWPOLYLINE
  5
23F
330
20D
100
AcDbEntity
  8
0
  6
Continuous
 62
     7
100
AcDbPolyline
 90
        2
 70
     0
 43
0.2
 10
185.0751327783
 20
26.6709426151
 10
184.9544864764
 20
26.6709426151
  0
LWPOLYLINE
  5
240
330
20D
100
AcDbEntity
  8
0
  6
Continuous
 62
     7
100
AcDbPolyline
 90
        2
 70
     0
 43
0.2
 10
184.9544864764
 20
26.6709426151
 10
184.9544864764
 20
26.4641951564
  0
LWPOLYLINE
  5
241
330
20D
100
AcDbEntity
  8
0
  6
Continuous
 62
     7
100
AcDbPolyline
 90
        2
 70
     0
 43
0.2
 10
184.9544864764
 20
26.4641951564
 10
185.0751327783
 20
26.4641951564
  0
LWPOLYLINE
  5
242
330
20D
100
AcDbEntity
  8
0
  6
Continuous
 62
     7
100
AcDbPolyline
 90
        2
 70
     0
 43
0.2
 10
185.0751327783
 20
26.4641951564
 10
185.0751327783
 20
25.5183909592
  0
LWPOLYLINE
  5
243
330
20D
100
AcDbEntity
  8
0
  6
Continuous
 62
     7
100
AcDbPolyline
 90
        2
 70
     0
 43
0.2
 10
185.0751327783
 20
25.5183909592
 10
185.2967974587
 20
25.5183909592
  0
LWPOLYLINE
  5
244
330
20D
100
AcDbEntity
  8
0
  6
Continuous
 62
     7
100
AcDbPolyline
 90
        2
 70
     0
 43
0.2
 10
185.2967974587
 20
25.5183909592
 10
185.2967974587
 20
26.4641951564
  0
SPLINE
  5
245
330
20D
100
AcDbEntity
  8
0
  6
Continuous
 62
     7
100
AcDbSpline
 70
     3
 71
     3
 72
    20
 73
    16
 74
     0
 42
0.000000001
 43
0.0000001
 40
0.0
 40
0.0
 40
0.0
 40
0.0
 40
1.0
 40
1.0
 40
1.0
 40
2.0
 40
2.0
 40
2.0
 40
3.0
 40
3.0
 40
3.0
 40
4.0
 40
4.0
 40
4.0
 40
5.0
 40
5.0
 40
5.0
 40
5.0
 10
173.0788077659
 20
35.8793174026
 30
0.0
 10
173.0788077659
 20
35.8793174026
 30
0.0
 10
175.3951644204
 20
33.0497559804
 30
0.0
 10
175.3951644204
 20
33.0497559804
 30
0.0
 10
174.743517367
 20
32.3975855157
 30
0.0
 10
173.966644163
 20
31.6616692449
 30
0.0
 10
172.9954545184
 20
31.6616692449
 30
0.0
 10
171.9969166339
 20
31.6616692449
 30
0.0
 10
171.0535986404
 20
32.5912476922
 30
0.0
 10
171.0535986404
 20
33.5904398407
 30
0.0
 10
171.0535986404
 20
34.5896319893
 30
0.0
 10
172.2324517135
 20
35.2962372279
 30
0.0
 10
172.9539741738
 20
35.7960950078
 30
0.0
 10
172.9539741738
 20
35.7960950078
 30
0.0
 10
173.0788077659
 20
35.8793174026
 30
0.0
 10
173.0788077659
 20
35.8793174026
 30
0.0
  0
SPLINE
  5
246
330
20D
100
AcDbEntity
  8
0
  6
Continuous
 62
     7
100
AcDbSpline
 70
     3
 71
     3
 72
    23
 73
    19
 74
     0
 42
0.000000001
 43
0.0000001
 40
0.0
 40
0.0
 40
0.0
 40
0.0
 40
1.0
 40
1.0
 40
1.0
 40
2.0
 40
2.0
 40
2.0
 40
3.0
 40
3.0
 40
3.0
 40
4.0
 40
4.0
 40
4.0
 40
5.0
 40
5.0
 40
5.0
 40
6.0
 40
6.0
 40
6.0
 40
6.0
 10
173.3562157485
 20
37.5170713223
 30
0.0
 10
173.3562157485
 20
37.5170713223
 30
0.0
 10
173.0097174759
 20
37.9604006832
 30
0.0
 10
173.0097174759
 20
37.9604006832
 30
0.0
 10
172.703914431
 20
38.3485101531
 30
0.0
 10
172.3850261039
 20
38.7370121815
 30
0.0
 10
172.3850261039
 20
39.2639564956
 30
0.0
 10
172.3850261039
 20
39.9301282122
 30
0.0
 10
172.9263642284
 20
40.3738501315
 30
0.0
 10
173.5502704835
 20
40.3738501315
 30
0.0
 10
174.2440521456
 20
40.3738501315
 30
0.0
 10
174.7712581653
 20
39.9716085568
 30
0.0
 10
174.7712581653
 20
39.2366082558
 30
0.0
 10
174.7712581653
 20
38.4733437453
 30
0.0
 10
174.0499974106
 20
38.0432305195
 30
0.0
 10
173.5229222437
 20
37.6275111041
 30
0.0
 10
173.5229222437
 20
37.6275111041
 30
0.0
 10
173.3562157485
 20
37.5170713223
 30
0.0
 10
173.3562157485
 20
37.5170713223
 30
0.0
  0
SPLINE
  5
247
330
20D
100
AcDbEntity
  8
0
  6
Continuous
 62
     7
100
AcDbSpline
 70
     3
 71
     3
 72
    50
 73
    46
 74
     0
 42
0.000000001
 43
0.0000001
 40
0.0
 40
0.0
 40
0.0
 40
0.0
 40
1.0
 40
1.0
 40
1.0
 40
2.0
 40
2.0
 40
2.0
 40
3.0
 40
3.0
 40
3.0
 40
4.0
 40
4.0
 40
4.0
 40
5.0
 40
5.0
 40
5.0
 40
6.0
 40
6.0
 40
6.0
 40
7.0
 40
7.0
 40
7.0
 40
8.0
 40
8.0
 40
8.0
 40
9.0
 40
9.0
 40
9.0
 40
10.0
 40
10.0
 40
10.0
 40
11.0
 40
11.0
 40
11.0
 40
12.0
 40
12.0
 40
12.0
 40
13.0
 40
13.0
 40
13.0
 40
14.0
 40
14.0
 40
14.0
 40
15.0
 40
15.0
 40
15.0
 40
15.0
 10
177.3098029114
 20
30.7184821042
 30
0.0
 10
177.3098029114
 20
30.7184821042
 30
0.0
 10
178.919030916
 20
30.7184821042
 30
0.0
 10
178.919030916
 20
30.7184821042
 30
0.0
 10
178.919030916
 20
30.7184821042
 30
0.0
 10
177.0460036224
 20
33.0356238756
 30
0.0
 10
177.0460036224
 20
33.0356238756
 30
0.0
 10
177.0460036224
 20
33.0356238756
 30
0.0
 10
178.3223420478
 20
34.5331035702
 30
0.0
 10
178.3223420478
 20
34.5331035702
 30
0.0
 10
178.3223420478
 20
34.5331035702
 30
0.0
 10
177.4901181001
 20
35.3941151387
 30
0.0
 10
177.4901181001
 20
35.3941151387
 30
0.0
 10
177.4901181001
 20
35.3941151387
 30
0.0
 10
176.2695229768
 20
33.9788110163
 30
0.0
 10
176.2695229768
 20
33.9788110163
 30
0.0
 10
176.2695229768
 20
33.9788110163
 30
0.0
 10
174.091608608
 20
36.6141868508
 30
0.0
 10
174.091608608
 20
36.6141868508
 30
0.0
 10
174.9651820474
 20
37.2522252107
 30
0.0
 10
175.9918532886
 20
38.0432305195
 30
0.0
 10
175.9918532886
 20
39.2220835926
 30
0.0
 10
175.9918532886
 20
40.5957765176
 30
0.0
 10
174.8539571488
 20
41.4002596671
 30
0.0
 10
173.5786655459
 20
41.4002596671
 30
0.0
 10
172.2052343265
 20
41.4002596671
 30
0.0
 10
171.1643001277
 20
40.5540344674
 30
0.0
 10
171.1643001277
 20
39.1113821052
 30
0.0
 10
171.1643001277
 20
38.2238074138
 30
0.0
 10
171.7196395042
 20
37.4469342098
 30
0.0
 10
172.3158049611
 20
36.8225045433
 30
0.0
 10
172.3158049611
 20
36.8225045433
 30
0.0
 10
171.663896202
 20
36.350910973
 30
0.0
 10
171.663896202
 20
36.350910973
 30
0.0
 10
170.6653583176
 20
35.6296502183
 30
0.0
 10
169.8324801058
 20
34.9083894636
 30
0.0
 10
169.8324801058
 20
33.5768311473
 30
0.0
 10
169.8324801058
 20
31.7731558493
 30
0.0
 10
171.2895262784
 20
30.4965557181
 30
0.0
 10
173.0370657157
 20
30.4965557181
 30
0.0
 10
174.2719237966
 20
30.4965557181
 30
0.0
 10
175.3812940213
 20
31.2047311906
 30
0.0
 10
176.1721684773
 20
32.1332628153
 30
0.0
 10
176.1721684773
 20
32.1332628153
 30
0.0
 10
177.3098029114
 20
30.7184821042
 30
0.0
 10
177.3098029114
 20
30.7184821042
 30
0.0
  0
LINE
  5
248
330
20D
100
AcDbEntity
  8
0
  6
Continuous
 62
     7
100
AcDbLine
 10
163.1126642864
 20
28.6923570089
 30
0.0
 11
185.5265750141
 21
28.6923570089
 31
0.0
  0
LINE
  5
249
330
20D
100
AcDbEntity
  8
0
  6
Continuous
 62
     7
100
AcDbLine
 10
185.5265750141
 20
28.6923570089
 30
0.0
 11
185.5265750141
 21
51.1062677365
 31
0.0
  0
LINE
  5
24A
330
20D
100
AcDbEntity
  8
0
  6
Continuous
 62
     7
100
AcDbLine
 10
185.5265750141
 20
51.1062677365
 30
0.0
 11
163.1126642864
 21
51.1062677365
 31
0.0
  0
LINE
  5
24B
330
20D
100
AcDbEntity
  8
0
  6
Continuous
 62
     7
100
AcDbLine
 10
163.1126642864
 20
51.1062677365
 30
0.0
 11
163.1126642864
 21
28.6923570089
 31
0.0
  0
ENDBLK
  5
24C
330
20D
100
AcDbEntity
  8
0
  6
ByBlock
 62
     0
100
AcDbBlockEnd
  0
BLOCK
  5
24D
330
20E
100
AcDbEntity
  8
0
100
AcDbBlockBegin
  2
PROIEZIONE_EU_BL0
 70
     0
 10
175.4935071791
 20
63.6075802365
 30
0.0
  3
PROIEZIONE_EU_BL0
  1

  0
LWPOLYLINE
  5
24E
330
20E
100
AcDbEntity
  8
DEFAULT_1
  6
CENTER
 62
     7
100
AcDbPolyline
 90
        2
 70
     0
 43
0.25
 10
181.6201278407
 20
68.6072743684
 10
181.6201688231
 20
58.6078861046
  0
LWPOLYLINE
  5
24F
330
20E
100
AcDbEntity
  8
DEFAULT_1
  6
CENTER
 62
     7
100
AcDbPolyline
 90
        2
 70
     0
 43
0.25
 10
187.6201576658
 20
63.6078513716
 10
163.3668566923
 20
63.6075807112
  0
LWPOLYLINE
  5
250
330
20E
100
AcDbEntity
  8
0
  6
Continuous
 62
     7
100
AcDbPolyline
 90
        2
 70
     1
 43
0.25
 10
178.0730176649
 20
63.5890324823
 42
1.0
 10
185.1793467636
 20
63.5890324823
 42
1.0
  0
LWPOLYLINE
  5
251
330
20E
100
AcDbEntity
  8
0
  6
Continuous
 62
     7
100
AcDbPolyline
 90
        2
 70
     1
 43
0.25
 10
179.6227614933
 20
63.6069305269
 42
1.0
 10
183.6345132434
 20
63.6069305269
 42
1.0
  0
LWPOLYLINE
  5
252
330
20E
100
AcDbEntity
  8
0
  6
Continuous
 62
     7
100
AcDbPolyline
 90
        2
 70
     0
 43
0.25
 10
175.6201554598
 20
67.1827837317
 10
175.6201551052
 20
60.0825808234
  0
LWPOLYLINE
  5
253
330
20E
100
AcDbEntity
  8
0
  6
Continuous
 62
     7
100
AcDbPolyline
 90
        2
 70
     0
 43
0.25
 10
175.6201835416
 20
60.082552387
 10
165.6256262704
 20
61.6026457999
  0
LWPOLYLINE
  5
254
330
20E
100
AcDbEntity
  8
0
  6
Continuous
 62
     7
100
AcDbPolyline
 90
        2
 70
     0
 43
0.25
 10
165.6233162848
 20
61.6019682583
 10
165.6206493807
 20
65.6076068698
  0
LWPOLYLINE
  5
255
330
20E
100
AcDbEntity
  8
0
  6
Continuous
 62
     7
100
AcDbPolyline
 90
        2
 70
     0
 43
0.25
 10
165.6206411046
 20
65.6075985937
 10
175.6203843419
 20
67.1827558138
  0
ENDBLK
  5
256
330
20E
100
AcDbEntity
  8
0
  6
ByBlock
 62
     0
100
AcDbBlockEnd
  0
ENDSEC
  0
SECTION
  2
ENTITIES
  0
LINE
  5
281
330
1B
100
AcDbEntity
 67
     1
  8
0
  6
Continuous
 62
     7
100
AcDbLine
 10
0.0
 20
0.0
 30
0.0
 11
297.0
 21
0.0
 31
0.0
  0
LINE
  5
282
330
1B
100
AcDbEntity
 67
     1
  8
0
  6
Continuous
 62
     7
100
AcDbLine
 10
297.0
 20
0.0
 30
0.0
 11
297.0
 21
210.0
 31
0.0
  0
LINE
  5
283
330
1B
100
AcDbEntity
 67
     1
  8
0
  6
Continuous
 62
     7
100
AcDbLine
 10
0.0
 20
210.0
 30
0.0
 11
297.0
 21
210.0
 31
0.0
  0
LINE
  5
284
330
1B
100
AcDbEntity
 67
     1
  8
0
  6
Continuous
 62
     7
100
AcDbLine
 10
0.0
 20
0.0
 30
0.0
 11
0.0
 21
210.0
 31
0.0
  0
VIEWPORT
  5
285
330
1B
100
AcDbEntity
 67
     1
  8
0
100
AcDbViewport
 10
0.0
 20
0.0
 30
0.0
 40
350.0544747081711
 41
247.5385214007782
 68
     1
 69
     1
 12
165.4669260700389
 22
105.0
 13
0.0
 23
0.0
 14
1.0
 24
1.0
 15
0.0
 25
0.0
 16
0.0
 26
0.0
 36
1.0
 17
0.0
 27
0.0
 37
0.0
 42
50.0
 43
0.0
 44
0.0
 45
247.5385214007782
 50
0.0
 51
0.0
 72
   100
 90
   557216
  1

281
     0
 71
     1
 74
     0
110
0.0
120
0.0
130
0.0
111
1.0
121
0.0
131
0.0
112
0.0
122
1.0
132
0.0
 79
     0
146
0.0
170
     0
 61
     5
348
3D4
292
     1
282
     1
141
0.0
142
0.0
 63
   256
  0
LINE
  5
286
330
1B
100
AcDbEntity
 67
     1
  8
7_ALL_FEATURES
  6
Continuous
 62
     7
100
AcDbLine
 10
86.1949571368
 20
94.9180625
 30
0.0
 11
86.1949571368
 21
79.4180625
 31
0.0
  0
LINE
  5
287
330
1B
100
AcDbEntity
 67
     1
  8
7_ALL_FEATURES
  6
Continuous
 62
     7
100
AcDbLine
 10
86.1949571368
 20
61.4180625
 30
0.0
 11
86.1949571368
 21
45.9180625
 31
0.0
  0
LINE
  5
288
330
1B
100
AcDbEntity
 67
     1
  8
7_ALL_FEATURES
  6
Continuous
 62
     7
100
AcDbLine
 10
86.1949571368
 20
60.6680625
 30
0.0
 11
82.6949571368
 21
60.6680625
 31
0.0
  0
LINE
  5
289
330
1B
100
AcDbEntity
 67
     1
  8
7_ALL_FEATURES
  6
Continuous
 62
     7
100
AcDbLine
 10
86.1949571368
 20
80.1680625
 30
0.0
 11
82.6949571368
 21
80.1680625
 31
0.0
  0
LINE
  5
28A
330
1B
100
AcDbEntity
 67
     1
  8
6_ALL_SURFS
  6
Continuous
 62
     7
100
AcDbLine
 10
82.6949571368
 20
80.1680625
 30
0.0
 11
82.6949571368
 21
79.425887942
 31
0.0
  0
LINE
  5
28B
330
1B
100
AcDbEntity
 67
     1
  8
6_ALL_SURFS
  6
Continuous
 62
     7
100
AcDbLine
 10
82.6949571368
 20
79.425887942
 30
0.0
 11
82.6949571368
 21
79.4041628778
 31
0.0
  0
LINE
  5
28C
330
1B
100
AcDbEntity
 67
     1
  8
6_ALL_SURFS
  6
Continuous
 62
     7
100
AcDbLine
 10
82.6949571368
 20
79.4041628778
 30
0.0
 11
82.6949571368
 21
78.5248912199
 31
0.0
  0
LINE
  5
28D
330
1B
100
AcDbEntity
 67
     1
  8
6_ALL_SURFS
  6
Continuous
 62
     7
100
AcDbLine
 10
82.6949571368
 20
78.5248912199
 30
0.0
 11
82.6949571368
 21
78.4024222113
 31
0.0
  0
LINE
  5
28E
330
1B
100
AcDbEntity
 67
     1
  8
6_ALL_SURFS
  6
Continuous
 62
     7
100
AcDbLine
 10
82.6949571368
 20
78.4024222113
 30
0.0
 11
82.6949571368
 21
74.4180625
 31
0.0
  0
LINE
  5
28F
330
1B
100
AcDbEntity
 67
     1
  8
6_ALL_SURFS
  6
Continuous
 62
     7
100
AcDbLine
 10
82.6949571368
 20
71.8260625841
 30
0.0
 11
82.6949571368
 21
70.9180625
 31
0.0
  0
LINE
  5
290
330
1B
100
AcDbEntity
 67
     1
  8
6_ALL_SURFS
  6
Continuous
 62
     7
100
AcDbLine
 10
82.6949571368
 20
70.9180625
 30
0.0
 11
82.6949571368
 21
69.9180625
 31
0.0
  0
LINE
  5
291
330
1B
100
AcDbEntity
 67
     1
  8
6_ALL_SURFS
  6
Continuous
 62
     7
100
AcDbLine
 10
82.6949571368
 20
69.9180625
 30
0.0
 11
82.6949571368
 21
69.0100624159
 31
0.0
  0
LINE
  5
292
330
1B
100
AcDbEntity
 67
     1
  8
6_ALL_SURFS
  6
Continuous
 62
     7
100
AcDbLine
 10
82.6949571368
 20
66.4180625
 30
0.0
 11
82.6949571368
 21
62.4337027887
 31
0.0
  0
LINE
  5
293
330
1B
100
AcDbEntity
 67
     1
  8
6_ALL_SURFS
  6
Continuous
 62
     7
100
AcDbLine
 10
82.6949571368
 20
62.4337027887
 30
0.0
 11
82.6949571368
 21
62.3112337801
 31
0.0
  0
LINE
  5
294
330
1B
100
AcDbEntity
 67
     1
  8
6_ALL_SURFS
  6
Continuous
 62
     7
100
AcDbLine
 10
82.6949571368
 20
62.3112337801
 30
0.0
 11
82.6949571368
 21
61.4319621222
 31
0.0
  0
LINE
  5
295
330
1B
100
AcDbEntity
 67
     1
  8
6_ALL_SURFS
  6
Continuous
 62
     7
100
AcDbLine
 10
82.6949571368
 20
61.4319621222
 30
0.0
 11
82.6949571368
 21
61.410237058
 31
0.0
  0
LINE
  5
296
330
1B
100
AcDbEntity
 67
     1
  8
6_ALL_SURFS
  6
Continuous
 62
     7
100
AcDbLine
 10
82.6949571368
 20
61.410237058
 30
0.0
 11
82.6949571368
 21
60.6680625
 31
0.0
  0
LINE
  5
297
330
1B
100
AcDbEntity
 67
     1
  8
7_ALL_FEATURES
  6
Continuous
 62
     7
100
AcDbLine
 10
41.1949571368
 20
60.6680625
 30
0.0
 11
44.6949571368
 21
60.6680625
 31
0.0
  0
LINE
  5
298
330
1B
100
AcDbEntity
 67
     1
  8
7_ALL_FEATURES
  6
Continuous
 62
     7
100
AcDbLine
 10
41.1949571368
 20
80.1680625
 30
0.0
 11
44.6949571368
 21
80.1680625
 31
0.0
  0
LINE
  5
299
330
1B
100
AcDbEntity
 67
     1
  8
7_ALL_FEATURES
  6
Continuous
 62
     7
100
AcDbLine
 10
87.1949571368
 20
79.4180625
 30
0.0
 11
87.8349571368
 21
79.4180625
 31
0.0
  0
LINE
  5
29A
330
1B
100
AcDbEntity
 67
     1
  8
7_ALL_FEATURES
  6
Continuous
 62
     7
100
AcDbLine
 10
91.1949571368
 20
94.9180625
 30
0.0
 11
91.1949571368
 21
70.4180625
 31
0.0
  0
LINE
  5
29B
330
1B
100
AcDbEntity
 67
     1
  8
7_ALL_FEATURES
  6
Continuous
 62
     7
100
AcDbLine
 10
91.1949571368
 20
70.4180625
 30
0.0
 11
91.1949571368
 21
45.9180625
 31
0.0
  0
LINE
  5
29C
330
1B
100
AcDbEntity
 67
     1
  8
7_ALL_FEATURES
  6
Continuous
 62
     7
100
AcDbLine
 10
87.1949571368
 20
61.4180625
 30
0.0
 11
87.8349571368
 21
61.4180625
 31
0.0
  0
LINE
  5
29D
330
1B
100
AcDbEntity
 67
     1
  8
7_ALL_FEATURES
  6
Continuous
 62
     7
100
AcDbLine
 10
87.1949571368
 20
79.4180625
 30
0.0
 11
86.1949571368
 21
79.4180625
 31
0.0
  0
LINE
  5
29E
330
1B
100
AcDbEntity
 67
     1
  8
7_ALL_FEATURES
  6
Continuous
 62
     7
100
AcDbLine
 10
41.1949571368
 20
79.4180625
 30
0.0
 11
40.1949571368
 21
79.4180625
 31
0.0
  0
LINE
  5
29F
330
1B
100
AcDbEntity
 67
     1
  8
7_ALL_FEATURES
  6
Continuous
 62
     7
100
AcDbLine
 10
87.1949571368
 20
61.4180625
 30
0.0
 11
86.1949571368
 21
61.4180625
 31
0.0
  0
LINE
  5
2A0
330
1B
100
AcDbEntity
 67
     1
  8
7_ALL_FEATURES
  6
Continuous
 62
     7
100
AcDbLine
 10
41.1949571368
 20
61.4180625
 30
0.0
 11
40.1949571368
 21
61.4180625
 31
0.0
  0
ARC
  5
2A1
330
1B
100
AcDbEntity
 67
     1
  8
7_ALL_FEATURES
  6
Continuous
 62
     7
100
AcDbCircle
 10
83.1949571368
 20
45.9180625
 30
0.0
 40
3.0
100
AcDbArc
 50
270.0
 51
360.0
  0
ARC
  5
2A2
330
1B
100
AcDbEntity
 67
     1
  8
7_ALL_FEATURES
  6
Continuous
 62
     7
100
AcDbCircle
 10
83.1949571368
 20
45.9180625
 30
0.0
 40
8.0
100
AcDbArc
 50
270.0
 51
360.0
  0
LINE
  5
2A3
330
1B
100
AcDbEntity
 67
     1
  8
6_ALL_SURFS
  6
Continuous
 62
     7
100
AcDbLine
 10
44.6949571368
 20
80.1680625
 30
0.0
 11
44.6949571368
 21
79.425887942
 31
0.0
  0
LINE
  5
2A4
330
1B
100
AcDbEntity
 67
     1
  8
6_ALL_SURFS
  6
Continuous
 62
     7
100
AcDbLine
 10
44.6949571368
 20
79.425887942
 30
0.0
 11
44.6949571368
 21
79.4041628778
 31
0.0
  0
LINE
  5
2A5
330
1B
100
AcDbEntity
 67
     1
  8
6_ALL_SURFS
  6
Continuous
 62
     7
100
AcDbLine
 10
44.6949571368
 20
79.4041628778
 30
0.0
 11
44.6949571368
 21
78.5248912199
 31
0.0
  0
LINE
  5
2A6
330
1B
100
AcDbEntity
 67
     1
  8
6_ALL_SURFS
  6
Continuous
 62
     7
100
AcDbLine
 10
44.6949571368
 20
78.5248912199
 30
0.0
 11
44.6949571368
 21
78.4024222113
 31
0.0
  0
LINE
  5
2A7
330
1B
100
AcDbEntity
 67
     1
  8
6_ALL_SURFS
  6
Continuous
 62
     7
100
AcDbLine
 10
44.6949571368
 20
78.4024222113
 30
0.0
 11
44.6949571368
 21
74.4180625
 31
0.0
  0
LINE
  5
2A8
330
1B
100
AcDbEntity
 67
     1
  8
6_ALL_SURFS
  6
Continuous
 62
     7
100
AcDbLine
 10
44.6949571368
 20
71.8260625841
 30
0.0
 11
44.6949571368
 21
70.9180625
 31
0.0
  0
LINE
  5
2A9
330
1B
100
AcDbEntity
 67
     1
  8
6_ALL_SURFS
  6
Continuous
 62
     7
100
AcDbLine
 10
44.6949571368
 20
70.9180625
 30
0.0
 11
44.6949571368
 21
69.9180625
 31
0.0
  0
LINE
  5
2AA
330
1B
100
AcDbEntity
 67
     1
  8
6_ALL_SURFS
  6
Continuous
 62
     7
100
AcDbLine
 10
44.6949571368
 20
69.9180625
 30
0.0
 11
44.6949571368
 21
69.0100624159
 31
0.0
  0
LINE
  5
2AB
330
1B
100
AcDbEntity
 67
     1
  8
6_ALL_SURFS
  6
Continuous
 62
     7
100
AcDbLine
 10
44.6949571368
 20
66.4180625
 30
0.0
 11
44.6949571368
 21
62.4337027887
 31
0.0
  0
LINE
  5
2AC
330
1B
100
AcDbEntity
 67
     1
  8
6_ALL_SURFS
  6
Continuous
 62
     7
100
AcDbLine
 10
44.6949571368
 20
62.4337027887
 30
0.0
 11
44.6949571368
 21
62.3112337801
 31
0.0
  0
LINE
  5
2AD
330
1B
100
AcDbEntity
 67
     1
  8
6_ALL_SURFS
  6
Continuous
 62
     7
100
AcDbLine
 10
44.6949571368
 20
62.3112337801
 30
0.0
 11
44.6949571368
 21
61.4319621222
 31
0.0
  0
LINE
  5
2AE
330
1B
100
AcDbEntity
 67
     1
  8
6_ALL_SURFS
  6
Continuous
 62
     7
100
AcDbLine
 10
44.6949571368
 20
61.4319621222
 30
0.0
 11
44.6949571368
 21
61.410237058
 31
0.0
  0
LINE
  5
2AF
330
1B
100
AcDbEntity
 67
     1
  8
6_ALL_SURFS
  6
Continuous
 62
     7
100
AcDbLine
 10
44.6949571368
 20
61.410237058
 30
0.0
 11
44.6949571368
 21
60.6680625
 31
0.0
  0
LINE
  5
2B0
330
1B
100
AcDbEntity
 67
     1
  8
7_ALL_FEATURES
  6
Continuous
 62
     7
100
AcDbLine
 10
83.1949571368
 20
42.9180625
 30
0.0
 11
63.6949571368
 21
42.9180625
 31
0.0
  0
LINE
  5
2B1
330
1B
100
AcDbEntity
 67
     1
  8
7_ALL_FEATURES
  6
Continuous
 62
     7
100
AcDbLine
 10
63.6949571368
 20
42.9180625
 30
0.0
 11
44.1949571368
 21
42.9180625
 31
0.0
  0
LINE
  5
2B2
330
1B
100
AcDbEntity
 67
     1
  8
7_ALL_FEATURES
  6
Continuous
 62
     7
100
AcDbLine
 10
53.9449571368
 20
97.9180625
 30
0.0
 11
53.9449571368
 21
94.4180625
 31
0.0
  0
LINE
  5
2B3
330
1B
100
AcDbEntity
 67
     1
  8
7_ALL_FEATURES
  6
Continuous
 62
     7
100
AcDbLine
 10
73.4449571368
 20
97.9180625
 30
0.0
 11
73.4449571368
 21
94.4180625
 31
0.0
  0
LINE
  5
2B4
330
1B
100
AcDbEntity
 67
     1
  8
7_ALL_FEATURES
  6
Continuous
 62
     7
100
AcDbLine
 10
83.1949571368
 20
37.9180625
 30
0.0
 11
63.6949571368
 21
37.9180625
 31
0.0
  0
LINE
  5
2B5
330
1B
100
AcDbEntity
 67
     1
  8
7_ALL_FEATURES
  6
Continuous
 62
     7
100
AcDbLine
 10
63.6949571368
 20
37.9180625
 30
0.0
 11
44.1949571368
 21
37.9180625
 31
0.0
  0
ARC
  5
2B6
330
1B
100
AcDbEntity
 67
     1
  8
7_ALL_FEATURES
  6
Continuous
 62
     7
100
AcDbCircle
 10
44.1949571368
 20
45.9180625
 30
0.0
 40
3.0
100
AcDbArc
 50
180.0
 51
270.0
  0
LINE
  5
2B7
330
1B
100
AcDbEntity
 67
     1
  8
6_ALL_SURFS
  6
Continuous
 62
     7
100
AcDbLine
 10
73.4449571368
 20
94.4180625
 30
0.0
 11
72.7027825788
 21
94.4180625
 31
0.0
  0
LINE
  5
2B8
330
1B
100
AcDbEntity
 67
     1
  8
6_ALL_SURFS
  6
Continuous
 62
     7
100
AcDbLine
 10
72.7027825788
 20
94.4180625
 30
0.0
 11
72.6810575146
 21
94.4180625
 31
0.0
  0
LINE
  5
2B9
330
1B
100
AcDbEntity
 67
     1
  8
6_ALL_SURFS
  6
Continuous
 62
     7
100
AcDbLine
 10
72.6810575146
 20
94.4180625
 30
0.0
 11
71.8017858568
 21
94.4180625
 31
0.0
  0
LINE
  5
2BA
330
1B
100
AcDbEntity
 67
     1
  8
6_ALL_SURFS
  6
Continuous
 62
     7
100
AcDbLine
 10
71.8017858568
 20
94.4180625
 30
0.0
 11
71.6793168482
 21
94.4180625
 31
0.0
  0
LINE
  5
2BB
330
1B
100
AcDbEntity
 67
     1
  8
6_ALL_SURFS
  6
Continuous
 62
     7
100
AcDbLine
 10
71.6793168482
 20
94.4180625
 30
0.0
 11
64.1949571368
 21
94.4180625
 31
0.0
  0
LINE
  5
2BC
330
1B
100
AcDbEntity
 67
     1
  8
6_ALL_SURFS
  6
Continuous
 62
     7
100
AcDbLine
 10
64.1949571368
 20
94.4180625
 30
0.0
 11
63.1949571368
 21
94.4180625
 31
0.0
  0
LINE
  5
2BD
330
1B
100
AcDbEntity
 67
     1
  8
6_ALL_SURFS
  6
Continuous
 62
     7
100
AcDbLine
 10
63.1949571368
 20
94.4180625
 30
0.0
 11
55.7105974255
 21
94.4180625
 31
0.0
  0
LINE
  5
2BE
330
1B
100
AcDbEntity
 67
     1
  8
6_ALL_SURFS
  6
Continuous
 62
     7
100
AcDbLine
 10
55.7105974255
 20
94.4180625
 30
0.0
 11
55.5881284169
 21
94.4180625
 31
0.0
  0
LINE
  5
2BF
330
1B
100
AcDbEntity
 67
     1
  8
6_ALL_SURFS
  6
Continuous
 62
     7
100
AcDbLine
 10
55.5881284169
 20
94.4180625
 30
0.0
 11
54.708856759
 21
94.4180625
 31
0.0
  0
LINE
  5
2C0
330
1B
100
AcDbEntity
 67
     1
  8
6_ALL_SURFS
  6
Continuous
 62
     7
100
AcDbLine
 10
54.708856759
 20
94.4180625
 30
0.0
 11
54.6871316948
 21
94.4180625
 31
0.0
  0
LINE
  5
2C1
330
1B
100
AcDbEntity
 67
     1
  8
6_ALL_SURFS
  6
Continuous
 62
     7
100
AcDbLine
 10
54.6871316948
 20
94.4180625
 30
0.0
 11
53.9449571368
 21
94.4180625
 31
0.0
  0
ARC
  5
2C2
330
1B
100
AcDbEntity
 67
     1
  8
7_ALL_FEATURES
  6
Continuous
 62
     7
100
AcDbCircle
 10
44.1949571368
 20
45.9180625
 30
0.0
 40
8.0
100
AcDbArc
 50
180.0
 51
270.0
  0
LINE
  5
2C3
330
1B
100
AcDbEntity
 67
     1
  8
7_ALL_FEATURES
  6
Continuous
 62
     7
100
AcDbLine
 10
53.9449571368
 20
42.9180625
 30
0.0
 11
53.9449571368
 21
46.4180625
 31
0.0
  0
LINE
  5
2C4
330
1B
100
AcDbEntity
 67
     1
  8
7_ALL_FEATURES
  6
Continuous
 62
     7
100
AcDbLine
 10
73.4449571368
 20
42.9180625
 30
0.0
 11
73.4449571368
 21
46.4180625
 31
0.0
  0
LINE
  5
2C5
330
1B
100
AcDbEntity
 67
     1
  8
7_ALL_FEATURES
  6
Continuous
 62
     7
100
AcDbLine
 10
41.1949571368
 20
45.9180625
 30
0.0
 11
41.1949571368
 21
61.4180625
 31
0.0
  0
LINE
  5
2C6
330
1B
100
AcDbEntity
 67
     1
  8
6_ALL_SURFS
  6
Continuous
 62
     7
100
AcDbLine
 10
73.4449571368
 20
46.4180625
 30
0.0
 11
72.7027825788
 21
46.4180625
 31
0.0
  0
LINE
  5
2C7
330
1B
100
AcDbEntity
 67
     1
  8
6_ALL_SURFS
  6
Continuous
 62
     7
100
AcDbLine
 10
72.7027825788
 20
46.4180625
 30
0.0
 11
72.6810575146
 21
46.4180625
 31
0.0
  0
LINE
  5
2C8
330
1B
100
AcDbEntity
 67
     1
  8
6_ALL_SURFS
  6
Continuous
 62
     7
100
AcDbLine
 10
72.6810575146
 20
46.4180625
 30
0.0
 11
71.8017858568
 21
46.4180625
 31
0.0
  0
LINE
  5
2C9
330
1B
100
AcDbEntity
 67
     1
  8
6_ALL_SURFS
  6
Continuous
 62
     7
100
AcDbLine
 10
71.8017858568
 20
46.4180625
 30
0.0
 11
71.6793168482
 21
46.4180625
 31
0.0
  0
LINE
  5
2CA
330
1B
100
AcDbEntity
 67
     1
  8
6_ALL_SURFS
  6
Continuous
 62
     7
100
AcDbLine
 10
71.6793168482
 20
46.4180625
 30
0.0
 11
64.1949571368
 21
46.4180625
 31
0.0
  0
LINE
  5
2CB
330
1B
100
AcDbEntity
 67
     1
  8
6_ALL_SURFS
  6
Continuous
 62
     7
100
AcDbLine
 10
64.1949571368
 20
46.4180625
 30
0.0
 11
63.1949571368
 21
46.4180625
 31
0.0
  0
LINE
  5
2CC
330
1B
100
AcDbEntity
 67
     1
  8
6_ALL_SURFS
  6
Continuous
 62
     7
100
AcDbLine
 10
63.1949571368
 20
46.4180625
 30
0.0
 11
55.7105974255
 21
46.4180625
 31
0.0
  0
LINE
  5
2CD
330
1B
100
AcDbEntity
 67
     1
  8
6_ALL_SURFS
  6
Continuous
 62
     7
100
AcDbLine
 10
55.7105974255
 20
46.4180625
 30
0.0
 11
55.5881284169
 21
46.4180625
 31
0.0
  0
LINE
  5
2CE
330
1B
100
AcDbEntity
 67
     1
  8
6_ALL_SURFS
  6
Continuous
 62
     7
100
AcDbLine
 10
55.5881284169
 20
46.4180625
 30
0.0
 11
54.708856759
 21
46.4180625
 31
0.0
  0
LINE
  5
2CF
330
1B
100
AcDbEntity
 67
     1
  8
6_ALL_SURFS
  6
Continuous
 62
     7
100
AcDbLine
 10
54.708856759
 20
46.4180625
 30
0.0
 11
54.6871316948
 21
46.4180625
 31
0.0
  0
LINE
  5
2D0
330
1B
100
AcDbEntity
 67
     1
  8
6_ALL_SURFS
  6
Continuous
 62
     7
100
AcDbLine
 10
54.6871316948
 20
46.4180625
 30
0.0
 11
53.9449571368
 21
46.4180625
 31
0.0
  0
LINE
  5
2D1
330
1B
100
AcDbEntity
 67
     1
  8
7_ALL_FEATURES
  6
Continuous
 62
     7
100
AcDbLine
 10
41.1949571368
 20
79.4180625
 30
0.0
 11
41.1949571368
 21
94.9180625
 31
0.0
  0
LINE
  5
2D2
330
1B
100
AcDbEntity
 67
     1
  8
3_ALL_AXES
  6
Continuous
 62
     7
100
AcDbLine
 10
86.1949571368
 20
74.4180625
 30
0.0
 11
86.1949571368
 21
79.4180625
 31
0.0
  0
LINE
  5
2D3
330
1B
100
AcDbEntity
 67
     1
  8
3_ALL_AXES
  6
Continuous
 62
     7
100
AcDbLine
 10
86.1949571368
 20
74.4180625
 30
0.0
 11
82.1949571368
 21
74.4180625
 31
0.0
  0
ARC
  5
2D4
330
1B
100
AcDbEntity
 67
     1
  8
3_ALL_AXES
  6
Continuous
 62
     7
100
AcDbCircle
 10
82.1949571368
 20
70.4180625
 30
0.0
 40
4.0
100
AcDbArc
 50
90.0
 51
270.0
  0
LINE
  5
2D5
330
1B
100
AcDbEntity
 67
     1
  8
3_ALL_AXES
  6
Continuous
 62
     7
100
AcDbLine
 10
82.1949571368
 20
66.4180625
 30
0.0
 11
86.1949571368
 21
66.4180625
 31
0.0
  0
LINE
  5
2D6
330
1B
100
AcDbEntity
 67
     1
  8
3_ALL_AXES
  6
Continuous
 62
     7
100
AcDbLine
 10
86.1949571368
 20
61.4180625
 30
0.0
 11
86.1949571368
 21
66.4180625
 31
0.0
  0
LINE
  5
2D7
330
1B
100
AcDbEntity
 67
     1
  8
7_ALL_FEATURES
  6
Continuous
 62
     7
100
AcDbLine
 10
40.1949571368
 20
79.4180625
 30
0.0
 11
39.5549571368
 21
79.4180625
 31
0.0
  0
LINE
  5
2D8
330
1B
100
AcDbEntity
 67
     1
  8
7_ALL_FEATURES
  6
Continuous
 62
     7
100
AcDbLine
 10
40.1949571368
 20
61.4180625
 30
0.0
 11
39.5549571368
 21
61.4180625
 31
0.0
  0
LINE
  5
2D9
330
1B
100
AcDbEntity
 67
     1
  8
7_ALL_FEATURES
  6
Continuous
 62
     7
100
AcDbLine
 10
36.1949571368
 20
45.9180625
 30
0.0
 11
36.1949571368
 21
70.4180625
 31
0.0
  0
LINE
  5
2DA
330
1B
100
AcDbEntity
 67
     1
  8
7_ALL_FEATURES
  6
Continuous
 62
     7
100
AcDbLine
 10
36.1949571368
 20
70.4180625
 30
0.0
 11
36.1949571368
 21
94.9180625
 31
0.0
  0
LINE
  5
2DB
330
1B
100
AcDbEntity
 67
     1
  8
3_ALL_AXES
  6
Continuous
 62
     7
100
AcDbLine
 10
41.1949571368
 20
66.4180625
 30
0.0
 11
41.1949571368
 21
61.4180625
 31
0.0
  0
ARC
  5
2DC
330
1B
100
AcDbEntity
 67
     1
  8
7_ALL_FEATURES
  6
Continuous
 62
     7
100
AcDbCircle
 10
44.1949571368
 20
94.9180625
 30
0.0
 40
3.0
100
AcDbArc
 50
90.0
 51
180.0
  0
LINE
  5
2DD
330
1B
100
AcDbEntity
 67
     1
  8
3_ALL_AXES
  6
Continuous
 62
     7
100
AcDbLine
 10
45.1949571368
 20
66.4180625
 30
0.0
 11
41.1949571368
 21
66.4180625
 31
0.0
  0
ARC
  5
2DE
330
1B
100
AcDbEntity
 67
     1
  8
7_ALL_FEATURES
  6
Continuous
 62
     7
100
AcDbCircle
 10
44.1949571368
 20
94.9180625
 30
0.0
 40
8.0
100
AcDbArc
 50
90.0
 51
180.0
  0
ARC
  5
2DF
330
1B
100
AcDbEntity
 67
     1
  8
3_ALL_AXES
  6
Continuous
 62
     7
100
AcDbCircle
 10
45.1949571368
 20
70.4180625
 30
0.0
 40
4.0
100
AcDbArc
 50
270.0
 51
90.0
  0
LINE
  5
2E0
330
1B
100
AcDbEntity
 67
     1
  8
3_ALL_AXES
  6
Continuous
 62
     7
100
AcDbLine
 10
41.1949571368
 20
74.4180625
 30
0.0
 11
45.1949571368
 21
74.4180625
 31
0.0
  0
LINE
  5
2E1
330
1B
100
AcDbEntity
 67
     1
  8
3_ALL_AXES
  6
Continuous
 62
     7
100
AcDbLine
 10
41.1949571368
 20
79.4180625
 30
0.0
 11
41.1949571368
 21
74.4180625
 31
0.0
  0
ARC
  5
2E2
330
1B
100
AcDbEntity
 67
     1
  8
3_ALL_AXES
  6
Continuous
 62
     7
100
AcDbCircle
 10
45.1949571368
 20
70.4180625
 30
0.0
 40
1.5
100
AcDbArc
 50
0.0
 51
180.0
  0
LINE
  5
2E3
330
1B
100
AcDbEntity
 67
     1
  8
7_ALL_FEATURES
  6
Continuous
 62
     7
100
AcDbLine
 10
44.1949571368
 20
97.9180625
 30
0.0
 11
63.6949571368
 21
97.9180625
 31
0.0
  0
LINE
  5
2E4
330
1B
100
AcDbEntity
 67
     1
  8
7_ALL_FEATURES
  6
Continuous
 62
     7
100
AcDbLine
 10
63.6949571368
 20
97.9180625
 30
0.0
 11
83.1949571368
 21
97.9180625
 31
0.0
  0
ARC
  5
2E5
330
1B
100
AcDbEntity
 67
     1
  8
3_ALL_AXES
  6
Continuous
 62
     7
100
AcDbCircle
 10
45.1949571368
 20
70.4180625
 30
0.0
 40
1.5
100
AcDbArc
 50
180.0
 51
360.0
  0
ARC
  5
2E6
330
1B
100
AcDbEntity
 67
     1
  8
3_ALL_AXES
  6
Continuous
 62
     7
100
AcDbCircle
 10
82.1949571368
 20
70.4180625
 30
0.0
 40
1.5
100
AcDbArc
 50
0.0
 51
180.0
  0
ARC
  5
2E7
330
1B
100
AcDbEntity
 67
     1
  8
3_ALL_AXES
  6
Continuous
 62
     7
100
AcDbCircle
 10
82.1949571368
 20
70.4180625
 30
0.0
 40
1.5
100
AcDbArc
 50
180.0
 51
360.0
  0
ARC
  5
2E8
330
1B
100
AcDbEntity
 67
     1
  8
7_ALL_FEATURES
  6
Continuous
 62
     7
100
AcDbCircle
 10
83.1949571368
 20
94.9180625
 30
0.0
 40
8.0
100
AcDbArc
 50
0.0
 51
90.0
  0
LINE
  5
2E9
330
1B
100
AcDbEntity
 67
     1
  8
7_ALL_FEATURES
  6
Continuous
 62
     7
100
AcDbLine
 10
44.1949571368
 20
102.9180625
 30
0.0
 11
63.6949571368
 21
102.9180625
 31
0.0
  0
LINE
  5
2EA
330
1B
100
AcDbEntity
 67
     1
  8
7_ALL_FEATURES
  6
Continuous
 62
     7
100
AcDbLine
 10
63.6949571368
 20
102.9180625
 30
0.0
 11
83.1949571368
 21
102.9180625
 31
0.0
  0
ARC
  5
2EB
330
1B
100
AcDbEntity
 67
     1
  8
7_ALL_FEATURES
  6
Continuous
 62
     7
100
AcDbCircle
 10
83.1949571368
 20
94.9180625
 30
0.0
 40
3.0
100
AcDbArc
 50
0.0
 51
90.0
  0
LINE
  5
2EC
330
1B
100
AcDbEntity
 67
     1
  8
7_ALL_FEATURES
  6
Continuous
 62
     9
100
AcDbLine
 10
36.1949571368
 20
45.9180625
 30
0.0
 11
40.1949571368
 21
45.9180625
 31
0.0
  0
LINE
  5
2ED
330
1B
100
AcDbEntity
 67
     1
  8
7_ALL_FEATURES
  6
Continuous
 62
     9
100
AcDbLine
 10
91.1949571368
 20
45.9180625
 30
0.0
 11
87.1949571368
 21
45.9180625
 31
0.0
  0
LINE
  5
2EE
330
1B
100
AcDbEntity
 67
     1
  8
7_ALL_FEATURES
  6
Continuous
 62
     7
100
AcDbLine
 10
39.5549571368
 20
61.4180625
 30
0.0
 11
39.5549571368
 21
79.4180625
 31
0.0
  0
LINE
  5
2EF
330
1B
100
AcDbEntity
 67
     1
  8
7_ALL_FEATURES
  6
Continuous
 62
     9
100
AcDbLine
 10
44.1949571368
 20
37.9180625
 30
0.0
 11
44.1949571368
 21
41.9180625
 31
0.0
  0
LINE
  5
2F0
330
1B
100
AcDbEntity
 67
     1
  8
7_ALL_FEATURES
  6
Continuous
 62
     7
100
AcDbLine
 10
40.1949571368
 20
79.4180625
 30
0.0
 11
40.1949571368
 21
94.9180625
 31
0.0
  0
LINE
  5
2F1
330
1B
100
AcDbEntity
 67
     1
  8
7_ALL_FEATURES
  6
Continuous
 62
     9
100
AcDbLine
 10
36.1949571368
 20
94.9180625
 30
0.0
 11
40.1949571368
 21
94.9180625
 31
0.0
  0
ARC
  5
2F2
330
1B
100
AcDbEntity
 67
     1
  8
7_ALL_FEATURES
  6
Continuous
 62
     7
100
AcDbCircle
 10
44.1949571368
 20
94.9180625
 30
0.0
 40
4.0
100
AcDbArc
 50
90.0
 51
180.0
  0
LINE
  5
2F3
330
1B
100
AcDbEntity
 67
     1
  8
7_ALL_FEATURES
  6
Continuous
 62
     7
100
AcDbLine
 10
44.1949571368
 20
98.9180625
 30
0.0
 11
63.6949571368
 21
98.9180625
 31
0.0
  0
LINE
  5
2F4
330
1B
100
AcDbEntity
 67
     1
  8
7_ALL_FEATURES
  6
Continuous
 62
     7
100
AcDbLine
 10
63.6949571368
 20
98.9180625
 30
0.0
 11
83.1949571368
 21
98.9180625
 31
0.0
  0
ARC
  5
2F5
330
1B
100
AcDbEntity
 67
     1
  8
7_ALL_FEATURES
  6
Continuous
 62
     7
100
AcDbCircle
 10
83.1949571368
 20
94.9180625
 30
0.0
 40
4.0
100
AcDbArc
 50
0.0
 51
90.0
  0
LINE
  5
2F6
330
1B
100
AcDbEntity
 67
     1
  8
7_ALL_FEATURES
  6
Continuous
 62
     7
100
AcDbLine
 10
87.1949571368
 20
94.9180625
 30
0.0
 11
87.1949571368
 21
79.4180625
 31
0.0
  0
LINE
  5
2F7
330
1B
100
AcDbEntity
 67
     1
  8
7_ALL_FEATURES
  6
Continuous
 62
     7
100
AcDbLine
 10
87.1949571368
 20
61.4180625
 30
0.0
 11
87.1949571368
 21
45.9180625
 31
0.0
  0
ARC
  5
2F8
330
1B
100
AcDbEntity
 67
     1
  8
7_ALL_FEATURES
  6
Continuous
 62
     7
100
AcDbCircle
 10
83.1949571368
 20
45.9180625
 30
0.0
 40
4.0
100
AcDbArc
 50
270.0
 51
360.0
  0
LINE
  5
2F9
330
1B
100
AcDbEntity
 67
     1
  8
7_ALL_FEATURES
  6
Continuous
 62
     7
100
AcDbLine
 10
83.1949571368
 20
41.9180625
 30
0.0
 11
63.6949571368
 21
41.9180625
 31
0.0
  0
LINE
  5
2FA
330
1B
100
AcDbEntity
 67
     1
  8
7_ALL_FEATURES
  6
Continuous
 62
     7
100
AcDbLine
 10
87.8349571368
 20
79.4180625
 30
0.0
 11
87.8349571368
 21
61.4180625
 31
0.0
  0
LINE
  5
2FB
330
1B
100
AcDbEntity
 67
     1
  8
7_ALL_FEATURES
  6
Continuous
 62
     7
100
AcDbLine
 10
63.6949571368
 20
41.9180625
 30
0.0
 11
44.1949571368
 21
41.9180625
 31
0.0
  0
ARC
  5
2FC
330
1B
100
AcDbEntity
 67
     1
  8
7_ALL_FEATURES
  6
Continuous
 62
     7
100
AcDbCircle
 10
44.1949571368
 20
45.9180625
 30
0.0
 40
4.0
100
AcDbArc
 50
180.0
 51
270.0
  0
LINE
  5
2FD
330
1B
100
AcDbEntity
 67
     1
  8
7_ALL_FEATURES
  6
Continuous
 62
     7
100
AcDbLine
 10
40.1949571368
 20
45.9180625
 30
0.0
 11
40.1949571368
 21
61.4180625
 31
0.0
  0
LINE
  5
2FE
330
1B
100
AcDbEntity
 67
     1
  8
7_ALL_FEATURES
  6
Continuous
 62
     9
100
AcDbLine
 10
83.1949571368
 20
102.9180625
 30
0.0
 11
83.1949571368
 21
98.9180625
 31
0.0
  0
LINE
  5
2FF
330
1B
100
AcDbEntity
 67
     1
  8
7_ALL_FEATURES
  6
Continuous
 62
     9
100
AcDbLine
 10
83.1949571368
 20
37.9180625
 30
0.0
 11
83.1949571368
 21
41.9180625
 31
0.0
  0
LINE
  5
300
330
1B
100
AcDbEntity
 67
     1
  8
7_ALL_FEATURES
  6
Continuous
 62
     9
100
AcDbLine
 10
44.1949571368
 20
102.9180625
 30
0.0
 11
44.1949571368
 21
98.9180625
 31
0.0
  0
LINE
  5
301
330
1B
100
AcDbEntity
 67
     1
  8
7_ALL_FEATURES
  6
Continuous
 62
     9
100
AcDbLine
 10
91.1949571368
 20
94.9180625
 30
0.0
 11
87.1949571368
 21
94.9180625
 31
0.0
  0
LINE
  5
302
330
1B
100
AcDbEntity
 67
     1
  8
7_ALL_FEATURES
  6
Continuous
 62
     7
100
AcDbLine
 10
83.1949571368
 20
131.9308633868
 30
0.0
 11
72.6949571368
 21
131.9308633868
 31
0.0
  0
LINE
  5
303
330
1B
100
AcDbEntity
 67
     1
  8
7_ALL_FEATURES
  6
Continuous
 62
     7
100
AcDbLine
 10
85.1949571368
 20
131.9308633868
 30
0.0
 11
83.1949571368
 21
131.9308633868
 31
0.0
  0
ARC
  5
304
330
1B
100
AcDbEntity
 67
     1
  8
7_ALL_FEATURES
  6
Continuous
 62
     7
100
AcDbCircle
 10
42.1949571368
 20
133.9308633868
 30
0.0
 40
2.0
100
AcDbArc
 50
180.0
 51
270.0
  0
ARC
  5
305
330
1B
100
AcDbEntity
 67
     1
  8
7_ALL_FEATURES
  6
Continuous
 62
     7
100
AcDbCircle
 10
85.1949571368
 20
133.9308633868
 30
0.0
 40
2.0
100
AcDbArc
 50
270.0
 51
360.0
  0
LINE
  5
306
330
1B
100
AcDbEntity
 67
     1
  8
7_ALL_FEATURES
  6
Continuous
 62
     7
100
AcDbLine
 10
44.1949571368
 20
131.9308633868
 30
0.0
 11
42.1949571368
 21
131.9308633868
 31
0.0
  0
LINE
  5
307
330
1B
100
AcDbEntity
 67
     1
  8
7_ALL_FEATURES
  6
Continuous
 62
     7
100
AcDbLine
 10
54.6949571368
 20
131.9308633868
 30
0.0
 11
44.1949571368
 21
131.9308633868
 31
0.0
  0
LINE
  5
308
330
1B
100
AcDbEntity
 67
     1
  8
7_ALL_FEATURES
  6
Continuous
 62
     7
100
AcDbLine
 10
54.6949571368
 20
131.9308633868
 30
0.0
 11
72.6949571368
 21
131.9308633868
 31
0.0
  0
LINE
  5
309
330
1B
100
AcDbEntity
 67
     1
  8
7_ALL_FEATURES
  6
Continuous
 62
     7
100
AcDbLine
 10
54.6949571368
 20
133.9308633868
 30
0.0
 11
54.6949571368
 21
131.9308633868
 31
0.0
  0
LINE
  5
30A
330
1B
100
AcDbEntity
 67
     1
  8
7_ALL_FEATURES
  6
Continuous
 62
     7
100
AcDbLine
 10
72.6949571368
 20
131.9308633868
 30
0.0
 11
72.6949571368
 21
133.9308633868
 31
0.0
  0
ARC
  5
30B
330
1B
100
AcDbEntity
 67
     1
  8
7_ALL_FEATURES
  6
Continuous
 62
     7
100
AcDbCircle
 10
63.6949571368
 20
143.2808633868
 30
0.0
 40
9.0
100
AcDbArc
 50
273.1847385367
 51
356.8152614633
  0
LINE
  5
30C
330
1B
100
AcDbEntity
 67
     1
  8
7_ALL_FEATURES
  6
Continuous
 62
     7
100
AcDbLine
 10
64.1949571368
 20
134.294763009
 30
0.0
 11
64.1949571368
 21
135.2965036755
 31
0.0
  0
ARC
  5
30D
330
1B
100
AcDbEntity
 67
     1
  8
7_ALL_FEATURES
  6
Continuous
 62
     7
100
AcDbCircle
 10
63.6949571368
 20
143.2808633868
 30
0.0
 40
8.0
100
AcDbArc
 50
273.5833216985001
 51
356.4166783014999
  0
LINE
  5
30E
330
1B
100
AcDbEntity
 67
     1
  8
7_ALL_FEATURES
  6
Continuous
 62
     7
100
AcDbLine
 10
71.6793168482
 20
142.7808633868
 30
0.0
 11
72.6810575146
 21
142.7808633868
 31
0.0
  0
LINE
  5
30F
330
1B
100
AcDbEntity
 67
     1
  8
7_ALL_FEATURES
  6
Continuous
 62
     7
100
AcDbLine
 10
63.1949571368
 20
135.2965036755
 30
0.0
 11
63.1949571368
 21
134.294763009
 31
0.0
  0
ARC
  5
310
330
1B
100
AcDbEntity
 67
     1
  8
7_ALL_FEATURES
  6
Continuous
 62
     7
100
AcDbCircle
 10
63.6949571368
 20
143.2808633868
 30
0.0
 40
9.0
100
AcDbArc
 50
183.1847385367
 51
266.8152614633
  0
LINE
  5
311
330
1B
100
AcDbEntity
 67
     1
  8
7_ALL_FEATURES
  6
Continuous
 62
     7
100
AcDbLine
 10
54.708856759
 20
142.7808633868
 30
0.0
 11
55.7105974255
 21
142.7808633868
 31
0.0
  0
ARC
  5
312
330
1B
100
AcDbEntity
 67
     1
  8
7_ALL_FEATURES
  6
Continuous
 62
     7
100
AcDbCircle
 10
63.6949571368
 20
143.2808633868
 30
0.0
 40
8.0
100
AcDbArc
 50
183.5833216985
 51
266.4166783014999
  0
ARC
  5
313
330
1B
100
AcDbEntity
 67
     1
  8
7_ALL_FEATURES
  6
Continuous
 62
     7
100
AcDbCircle
 10
63.6949571368
 20
143.2808633868
 30
0.0
 40
8.0
100
AcDbArc
 50
3.5833216985
 51
86.4166783015
  0
LINE
  5
314
330
1B
100
AcDbEntity
 67
     1
  8
7_ALL_FEATURES
  6
Continuous
 62
     7
100
AcDbLine
 10
64.1949571368
 20
151.2652230982
 30
0.0
 11
64.1949571368
 21
152.2424709735
 31
0.0
  0
LINE
  5
315
330
1B
100
AcDbEntity
 67
     1
  8
7_ALL_FEATURES
  6
Continuous
 62
     7
100
AcDbLine
 10
64.1949571368
 20
152.2424709735
 30
0.0
 11
64.1949571368
 21
152.2669637646
 31
0.0
  0
LINE
  5
316
330
1B
100
AcDbEntity
 67
     1
  8
7_ALL_FEATURES
  6
Continuous
 62
     7
100
AcDbLine
 10
63.1949571368
 20
152.2669637646
 30
0.0
 11
63.1949571368
 21
152.2424709735
 31
0.0
  0
LINE
  5
317
330
1B
100
AcDbEntity
 67
     1
  8
7_ALL_FEATURES
  6
Continuous
 62
     7
100
AcDbLine
 10
63.1949571368
 20
152.2424709735
 30
0.0
 11
63.1949571368
 21
151.2652230982
 31
0.0
  0
ARC
  5
318
330
1B
100
AcDbEntity
 67
     1
  8
7_ALL_FEATURES
  6
Continuous
 62
     7
100
AcDbCircle
 10
63.6949571368
 20
143.2808633868
 30
0.0
 40
8.0
100
AcDbArc
 50
93.58332169850001
 51
176.4166783015
  0
LINE
  5
319
330
1B
100
AcDbEntity
 67
     1
  8
7_ALL_FEATURES
  6
Continuous
 62
     7
100
AcDbLine
 10
55.7105974255
 20
143.7808633868
 30
0.0
 11
54.7412889599
 21
143.7808633868
 31
0.0
  0
LINE
  5
31A
330
1B
100
AcDbEntity
 67
     1
  8
7_ALL_FEATURES
  6
Continuous
 62
     7
100
AcDbLine
 10
54.7412889599
 20
143.7808633868
 30
0.0
 11
54.708856759
 21
143.7808633868
 31
0.0
  0
LINE
  5
31B
330
1B
100
AcDbEntity
 67
     1
  8
7_ALL_FEATURES
  6
Continuous
 62
     7
100
AcDbLine
 10
72.6810575146
 20
143.7808633868
 30
0.0
 11
72.6486253137
 21
143.7808633868
 31
0.0
  0
LINE
  5
31C
330
1B
100
AcDbEntity
 67
     1
  8
7_ALL_FEATURES
  6
Continuous
 62
     7
100
AcDbLine
 10
72.6486253137
 20
143.7808633868
 30
0.0
 11
71.6793168482
 21
143.7808633868
 31
0.0
  0
LINE
  5
31D
330
1B
100
AcDbEntity
 67
     1
  8
7_ALL_FEATURES
  6
Continuous
 62
     7
100
AcDbLine
 10
87.1949571368
 20
178.9308633868
 30
0.0
 11
86.1949571368
 21
178.9308633868
 31
0.0
  0
LINE
  5
31E
330
1B
100
AcDbEntity
 67
     1
  8
7_ALL_FEATURES
  6
Continuous
 62
     7
100
AcDbLine
 10
86.1949571368
 20
178.9308633868
 30
0.0
 11
83.1949571368
 21
178.9308633868
 31
0.0
  0
LINE
  5
31F
330
1B
100
AcDbEntity
 67
     1
  8
7_ALL_FEATURES
  6
Continuous
 62
     7
100
AcDbLine
 10
83.1949571368
 20
178.9308633868
 30
0.0
 11
63.6949571368
 21
178.9308633868
 31
0.0
  0
LINE
  5
320
330
1B
100
AcDbEntity
 67
     1
  8
7_ALL_FEATURES
  6
Continuous
 62
     7
100
AcDbLine
 10
63.6949571368
 20
178.9308633868
 30
0.0
 11
44.1949571368
 21
178.9308633868
 31
0.0
  0
LINE
  5
321
330
1B
100
AcDbEntity
 67
     1
  8
7_ALL_FEATURES
  6
Continuous
 62
     7
100
AcDbLine
 10
44.1949571368
 20
178.9308633868
 30
0.0
 11
41.1949571368
 21
178.9308633868
 31
0.0
  0
LINE
  5
322
330
1B
100
AcDbEntity
 67
     1
  8
7_ALL_FEATURES
  6
Continuous
 62
     7
100
AcDbLine
 10
41.1949571368
 20
178.9308633868
 30
0.0
 11
40.1949571368
 21
178.9308633868
 31
0.0
  0
LINE
  5
323
330
1B
100
AcDbEntity
 67
     1
  8
7_ALL_FEATURES
  6
Continuous
 62
     7
100
AcDbLine
 10
87.1949571368
 20
133.9308633868
 30
0.0
 11
87.1949571368
 21
168.9308633868
 31
0.0
  0
LINE
  5
324
330
1B
100
AcDbEntity
 67
     1
  8
7_ALL_FEATURES
  6
Continuous
 62
     7
100
AcDbLine
 10
91.1949571368
 20
168.9308633868
 30
0.0
 11
87.1949571368
 21
178.9308633868
 31
0.0
  0
LINE
  5
325
330
1B
100
AcDbEntity
 67
     1
  8
7_ALL_FEATURES
  6
Continuous
 62
     7
100
AcDbLine
 10
91.1949571368
 20
168.9308633868
 30
0.0
 11
87.1949571368
 21
168.9308633868
 31
0.0
  0
LINE
  5
326
330
1B
100
AcDbEntity
 67
     1
  8
7_ALL_FEATURES
  6
Continuous
 62
     7
100
AcDbLine
 10
87.1949571368
 20
168.9308633868
 30
0.0
 11
83.1949571368
 21
168.9308633868
 31
0.0
  0
LINE
  5
327
330
1B
100
AcDbEntity
 67
     1
  8
7_ALL_FEATURES
  6
Continuous
 62
     7
100
AcDbLine
 10
72.6949571368
 20
133.9308633868
 30
0.0
 11
72.6949571368
 21
143.2808633868
 31
0.0
  0
ARC
  5
328
330
1B
100
AcDbEntity
 67
     1
  8
7_ALL_FEATURES
  6
Continuous
 62
     7
100
AcDbCircle
 10
63.6949571368
 20
143.2808633868
 30
0.0
 40
9.0
100
AcDbArc
 50
0.0
 51
180.0
  0
LINE
  5
329
330
1B
100
AcDbEntity
 67
     1
  8
7_ALL_FEATURES
  6
Continuous
 62
     7
100
AcDbLine
 10
54.6949571368
 20
133.9308633868
 30
0.0
 11
54.6949571368
 21
143.2808633868
 31
0.0
  0
LINE
  5
32A
330
1B
100
AcDbEntity
 67
     1
  8
7_ALL_FEATURES
  6
Continuous
 62
     7
100
AcDbLine
 10
83.1949571368
 20
168.9308633868
 30
0.0
 11
63.6949571368
 21
168.9308633868
 31
0.0
  0
LINE
  5
32B
330
1B
100
AcDbEntity
 67
     1
  8
7_ALL_FEATURES
  6
Continuous
 62
     7
100
AcDbLine
 10
63.6949571368
 20
168.9308633868
 30
0.0
 11
44.1949571368
 21
168.9308633868
 31
0.0
  0
LINE
  5
32C
330
1B
100
AcDbEntity
 67
     1
  8
7_ALL_FEATURES
  6
Continuous
 62
     7
100
AcDbLine
 10
44.1949571368
 20
168.9308633868
 30
0.0
 11
40.1949571368
 21
168.9308633868
 31
0.0
  0
LINE
  5
32D
330
1B
100
AcDbEntity
 67
     1
  8
7_ALL_FEATURES
  6
Continuous
 62
     7
100
AcDbLine
 10
40.1949571368
 20
168.9308633868
 30
0.0
 11
36.1949571368
 21
168.9308633868
 31
0.0
  0
LINE
  5
32E
330
1B
100
AcDbEntity
 67
     1
  8
7_ALL_FEATURES
  6
Continuous
 62
     7
100
AcDbLine
 10
40.1949571368
 20
133.9308633868
 30
0.0
 11
40.1949571368
 21
168.9308633868
 31
0.0
  0
LINE
  5
32F
330
1B
100
AcDbEntity
 67
     1
  8
7_ALL_FEATURES
  6
Continuous
 62
     7
100
AcDbLine
 10
36.1949571368
 20
168.9308633868
 30
0.0
 11
40.1949571368
 21
178.9308633868
 31
0.0
  0
LINE
  5
330
330
1B
100
AcDbEntity
 67
     1
  8
7_ALL_FEATURES
  6
Continuous
 62
     9
100
AcDbLine
 10
54.6949571368
 20
133.9308633868
 30
0.0
 11
44.1949571368
 21
133.9308633868
 31
0.0
  0
LINE
  5
331
330
1B
100
AcDbEntity
 67
     1
  8
7_ALL_FEATURES
  6
Continuous
 62
     9
100
AcDbLine
 10
83.1949571368
 20
133.9308633868
 30
0.0
 11
83.1949571368
 21
168.9308633868
 31
0.0
  0
LINE
  5
332
330
1B
100
AcDbEntity
 67
     1
  8
7_ALL_FEATURES
  6
Continuous
 62
     9
100
AcDbLine
 10
83.1949571368
 20
168.9308633868
 30
0.0
 11
83.1949571368
 21
178.9308633868
 31
0.0
  0
LINE
  5
333
330
1B
100
AcDbEntity
 67
     1
  8
7_ALL_FEATURES
  6
Continuous
 62
     9
100
AcDbLine
 10
44.1949571368
 20
133.9308633868
 30
0.0
 11
40.1949571368
 21
133.9308633868
 31
0.0
  0
LINE
  5
334
330
1B
100
AcDbEntity
 67
     1
  8
7_ALL_FEATURES
  6
Continuous
 62
     9
100
AcDbLine
 10
44.1949571368
 20
133.9308633868
 30
0.0
 11
44.1949571368
 21
168.9308633868
 31
0.0
  0
LINE
  5
335
330
1B
100
AcDbEntity
 67
     1
  8
7_ALL_FEATURES
  6
Continuous
 62
     9
100
AcDbLine
 10
44.1949571368
 20
168.9308633868
 30
0.0
 11
44.1949571368
 21
178.9308633868
 31
0.0
  0
LINE
  5
336
330
1B
100
AcDbEntity
 67
     1
  8
7_ALL_FEATURES
  6
Continuous
 62
     9
100
AcDbLine
 10
87.1949571368
 20
133.9308633868
 30
0.0
 11
83.1949571368
 21
133.9308633868
 31
0.0
  0
LINE
  5
337
330
1B
100
AcDbEntity
 67
     1
  8
7_ALL_FEATURES
  6
Continuous
 62
     9
100
AcDbLine
 10
83.1949571368
 20
133.9308633868
 30
0.0
 11
72.6949571368
 21
133.9308633868
 31
0.0
  0
LINE
  5
338
330
1B
100
AcDbEntity
 67
     1
  8
7_ALL_FEATURES
  6
Continuous
 62
     9
100
AcDbLine
 10
44.1949571368
 20
131.9308633868
 30
0.0
 11
44.1949571388
 21
133.9308633868
 31
0.0
  0
LINE
  5
339
330
1B
100
AcDbEntity
 67
     1
  8
7_ALL_FEATURES
  6
Continuous
 62
     9
100
AcDbLine
 10
83.1949571368
 20
131.9308633868
 30
0.0
 11
83.1949571368
 21
133.9308633868
 31
0.0
  0
ARC
  5
33A
330
1B
100
AcDbEntity
 67
     1
  8
7_ALL_FEATURES
  6
Continuous
 62
     7
100
AcDbCircle
 10
127.6462609797
 20
133.9308633868
 30
0.0
 40
2.0
100
AcDbArc
 50
180.0
 51
270.0
  0
ARC
  5
33B
330
1B
100
AcDbEntity
 67
     1
  8
7_ALL_FEATURES
  6
Continuous
 62
     7
100
AcDbCircle
 10
180.6462609797
 20
133.9308633868
 30
0.0
 40
2.0
100
AcDbArc
 50
270.0
 51
360.0
  0
LINE
  5
33C
330
1B
100
AcDbEntity
 67
     1
  8
7_ALL_FEATURES
  6
Continuous
 62
     7
100
AcDbLine
 10
129.6462609797
 20
131.9308633868
 30
0.0
 11
127.6462609797
 21
131.9308633868
 31
0.0
  0
LINE
  5
33D
330
1B
100
AcDbEntity
 67
     1
  8
7_ALL_FEATURES
  6
Continuous
 62
     7
100
AcDbLine
 10
145.1462609797
 20
131.9308633868
 30
0.0
 11
129.6462609797
 21
131.9308633868
 31
0.0
  0
LINE
  5
33E
330
1B
100
AcDbEntity
 67
     1
  8
7_ALL_FEATURES
  6
Continuous
 62
     7
100
AcDbLine
 10
163.1462609797
 20
131.9308633868
 30
0.0
 11
145.1462609797
 21
131.9308633868
 31
0.0
  0
LINE
  5
33F
330
1B
100
AcDbEntity
 67
     1
  8
7_ALL_FEATURES
  6
Continuous
 62
     7
100
AcDbLine
 10
178.6462609797
 20
131.9308633868
 30
0.0
 11
163.1462609797
 21
131.9308633868
 31
0.0
  0
LINE
  5
340
330
1B
100
AcDbEntity
 67
     1
  8
7_ALL_FEATURES
  6
Continuous
 62
     7
100
AcDbLine
 10
180.6462609797
 20
131.9308633868
 30
0.0
 11
178.6462609797
 21
131.9308633868
 31
0.0
  0
LINE
  5
341
330
1B
100
AcDbEntity
 67
     1
  8
7_ALL_FEATURES
  6
Continuous
 62
     7
100
AcDbLine
 10
163.1462609797
 20
131.9308633868
 30
0.0
 11
163.1462609797
 21
133.9308633868
 31
0.0
  0
LINE
  5
342
330
1B
100
AcDbEntity
 67
     1
  8
7_ALL_FEATURES
  6
Continuous
 62
     7
100
AcDbLine
 10
145.1462609797
 20
133.9308633868
 30
0.0
 11
145.1462609797
 21
131.9308633868
 31
0.0
  0
ARC
  5
343
330
1B
100
AcDbEntity
 67
     1
  8
7_ALL_FEATURES
  6
Continuous
 62
     7
100
AcDbCircle
 10
154.1462609797
 20
143.2808633868
 30
0.0
 40
8.0
100
AcDbArc
 50
3.5833216985
 51
86.4166783015
  0
LINE
  5
344
330
1B
100
AcDbEntity
 67
     1
  8
7_ALL_FEATURES
  6
Continuous
 62
     7
100
AcDbLine
 10
154.6462609797
 20
152.2669637646
 30
0.0
 11
154.6462609797
 21
152.2424709735
 31
0.0
  0
LINE
  5
345
330
1B
100
AcDbEntity
 67
     1
  8
7_ALL_FEATURES
  6
Continuous
 62
     7
100
AcDbLine
 10
154.6462609797
 20
152.2424709735
 30
0.0
 11
154.6462609797
 21
151.2652230982
 31
0.0
  0
LINE
  5
346
330
1B
100
AcDbEntity
 67
     1
  8
7_ALL_FEATURES
  6
Continuous
 62
     7
100
AcDbLine
 10
153.6462609797
 20
151.2652230982
 30
0.0
 11
153.6462609797
 21
152.2424709735
 31
0.0
  0
LINE
  5
347
330
1B
100
AcDbEntity
 67
     1
  8
7_ALL_FEATURES
  6
Continuous
 62
     7
100
AcDbLine
 10
153.6462609797
 20
152.2424709735
 30
0.0
 11
153.6462609797
 21
152.2669637646
 31
0.0
  0
ARC
  5
348
330
1B
100
AcDbEntity
 67
     1
  8
7_ALL_FEATURES
  6
Continuous
 62
     7
100
AcDbCircle
 10
154.1462609797
 20
143.2808633868
 30
0.0
 40
8.0
100
AcDbArc
 50
93.58332169850001
 51
176.4166783015
  0
LINE
  5
349
330
1B
100
AcDbEntity
 67
     1
  8
7_ALL_FEATURES
  6
Continuous
 62
     7
100
AcDbLine
 10
145.1601606019
 20
143.7808633868
 30
0.0
 11
145.1925928029
 21
143.7808633868
 31
0.0
  0
LINE
  5
34A
330
1B
100
AcDbEntity
 67
     1
  8
7_ALL_FEATURES
  6
Continuous
 62
     7
100
AcDbLine
 10
145.1925928029
 20
143.7808633868
 30
0.0
 11
146.1619012684
 21
143.7808633868
 31
0.0
  0
LINE
  5
34B
330
1B
100
AcDbEntity
 67
     1
  8
7_ALL_FEATURES
  6
Continuous
 62
     7
100
AcDbLine
 10
162.1306206911
 20
143.7808633868
 30
0.0
 11
163.0999291566
 21
143.7808633868
 31
0.0
  0
LINE
  5
34C
330
1B
100
AcDbEntity
 67
     1
  8
7_ALL_FEATURES
  6
Continuous
 62
     7
100
AcDbLine
 10
163.0999291566
 20
143.7808633868
 30
0.0
 11
163.1323613575
 21
143.7808633868
 31
0.0
  0
ARC
  5
34D
330
1B
100
AcDbEntity
 67
     1
  8
7_ALL_FEATURES
  6
Continuous
 62
     7
100
AcDbCircle
 10
154.1462609797
 20
143.2808633868
 30
0.0
 40
9.0
100
AcDbArc
 50
273.1847385367
 51
356.8152614633
  0
LINE
  5
34E
330
1B
100
AcDbEntity
 67
     1
  8
7_ALL_FEATURES
  6
Continuous
 62
     7
100
AcDbLine
 10
154.6462609797
 20
135.2965036755
 30
0.0
 11
154.6462609797
 21
134.294763009
 31
0.0
  0
ARC
  5
34F
330
1B
100
AcDbEntity
 67
     1
  8
7_ALL_FEATURES
  6
Continuous
 62
     7
100
AcDbCircle
 10
154.1462609797
 20
143.2808633868
 30
0.0
 40
8.0
100
AcDbArc
 50
273.5833216985001
 51
356.4166783014999
  0
LINE
  5
350
330
1B
100
AcDbEntity
 67
     1
  8
7_ALL_FEATURES
  6
Continuous
 62
     7
100
AcDbLine
 10
163.1323613575
 20
142.7808633868
 30
0.0
 11
162.1306206911
 21
142.7808633868
 31
0.0
  0
LINE
  5
351
330
1B
100
AcDbEntity
 67
     1
  8
7_ALL_FEATURES
  6
Continuous
 62
     7
100
AcDbLine
 10
153.6462609797
 20
134.294763009
 30
0.0
 11
153.6462609797
 21
135.2965036755
 31
0.0
  0
ARC
  5
352
330
1B
100
AcDbEntity
 67
     1
  8
7_ALL_FEATURES
  6
Continuous
 62
     7
100
AcDbCircle
 10
154.1462609797
 20
143.2808633868
 30
0.0
 40
9.0
100
AcDbArc
 50
183.1847385367
 51
266.8152614633
  0
LINE
  5
353
330
1B
100
AcDbEntity
 67
     1
  8
7_ALL_FEATURES
  6
Continuous
 62
     7
100
AcDbLine
 10
146.1619012684
 20
142.7808633868
 30
0.0
 11
145.1601606019
 21
142.7808633868
 31
0.0
  0
ARC
  5
354
330
1B
100
AcDbEntity
 67
     1
  8
7_ALL_FEATURES
  6
Continuous
 62
     7
100
AcDbCircle
 10
154.1462609797
 20
143.2808633868
 30
0.0
 40
8.0
100
AcDbArc
 50
183.5833216985
 51
266.4166783014999
  0
LINE
  5
355
330
1B
100
AcDbEntity
 67
     1
  8
7_ALL_FEATURES
  6
Continuous
 62
     7
100
AcDbLine
 10
145.1462609797
 20
178.9308633868
 30
0.0
 11
129.6462609797
 21
178.9308633868
 31
0.0
  0
LINE
  5
356
330
1B
100
AcDbEntity
 67
     1
  8
7_ALL_FEATURES
  6
Continuous
 62
     7
100
AcDbLine
 10
129.6462609797
 20
178.9308633868
 30
0.0
 11
126.6462609797
 21
178.9308633868
 31
0.0
  0
LINE
  5
357
330
1B
100
AcDbEntity
 67
     1
  8
7_ALL_FEATURES
  6
Continuous
 62
     7
100
AcDbLine
 10
126.6462609797
 20
178.9308633868
 30
0.0
 11
125.6462609797
 21
178.9308633868
 31
0.0
  0
LINE
  5
358
330
1B
100
AcDbEntity
 67
     1
  8
7_ALL_FEATURES
  6
Continuous
 62
     7
100
AcDbLine
 10
182.6462609797
 20
178.9308633868
 30
0.0
 11
181.6462609797
 21
178.9308633868
 31
0.0
  0
LINE
  5
359
330
1B
100
AcDbEntity
 67
     1
  8
7_ALL_FEATURES
  6
Continuous
 62
     7
100
AcDbLine
 10
181.6462609797
 20
178.9308633868
 30
0.0
 11
178.6462609797
 21
178.9308633868
 31
0.0
  0
LINE
  5
35A
330
1B
100
AcDbEntity
 67
     1
  8
7_ALL_FEATURES
  6
Continuous
 62
     7
100
AcDbLine
 10
178.6462609797
 20
178.9308633868
 30
0.0
 11
163.1462609797
 21
178.9308633868
 31
0.0
  0
LINE
  5
35B
330
1B
100
AcDbEntity
 67
     1
  8
7_ALL_FEATURES
  6
Continuous
 62
     7
100
AcDbLine
 10
182.6462609797
 20
133.9308633868
 30
0.0
 11
182.6462609797
 21
168.9308633868
 31
0.0
  0
LINE
  5
35C
330
1B
100
AcDbEntity
 67
     1
  8
7_ALL_FEATURES
  6
Continuous
 62
     7
100
AcDbLine
 10
186.6462609797
 20
168.9308633868
 30
0.0
 11
182.6462609797
 21
178.9308633868
 31
0.0
  0
LINE
  5
35D
330
1B
100
AcDbEntity
 67
     1
  8
7_ALL_FEATURES
  6
Continuous
 62
     7
100
AcDbLine
 10
186.6462609797
 20
168.9308633868
 30
0.0
 11
182.6462609797
 21
168.9308633868
 31
0.0
  0
LINE
  5
35E
330
1B
100
AcDbEntity
 67
     1
  8
7_ALL_FEATURES
  6
Continuous
 62
     7
100
AcDbLine
 10
182.6462609797
 20
168.9308633868
 30
0.0
 11
178.6462609797
 21
168.9308633868
 31
0.0
  0
LINE
  5
35F
330
1B
100
AcDbEntity
 67
     1
  8
7_ALL_FEATURES
  6
Continuous
 62
     7
100
AcDbLine
 10
163.1462609797
 20
133.9308633868
 30
0.0
 11
163.1462609797
 21
143.2808633868
 31
0.0
  0
ARC
  5
360
330
1B
100
AcDbEntity
 67
     1
  8
7_ALL_FEATURES
  6
Continuous
 62
     7
100
AcDbCircle
 10
154.1462609797
 20
143.2808633868
 30
0.0
 40
9.0
100
AcDbArc
 50
0.0
 51
180.0
  0
LINE
  5
361
330
1B
100
AcDbEntity
 67
     1
  8
7_ALL_FEATURES
  6
Continuous
 62
     7
100
AcDbLine
 10
145.1462609797
 20
133.9308633868
 30
0.0
 11
145.1462609797
 21
143.2808633868
 31
0.0
  0
LINE
  5
362
330
1B
100
AcDbEntity
 67
     1
  8
7_ALL_FEATURES
  6
Continuous
 62
     7
100
AcDbLine
 10
145.1462609797
 20
178.9308633868
 30
0.0
 11
145.1462609797
 21
177.3308633868
 31
0.0
  0
LINE
  5
363
330
1B
100
AcDbEntity
 67
     1
  8
7_ALL_FEATURES
  6
Continuous
 62
     7
100
AcDbLine
 10
163.1462609797
 20
178.9308633868
 30
0.0
 11
163.1462609797
 21
177.3308633868
 31
0.0
  0
LINE
  5
364
330
1B
100
AcDbEntity
 67
     1
  8
7_ALL_FEATURES
  6
Continuous
 62
     7
100
AcDbLine
 10
178.6462609797
 20
168.9308633868
 30
0.0
 11
154.1462609797
 21
168.9308633868
 31
0.0
  0
LINE
  5
365
330
1B
100
AcDbEntity
 67
     1
  8
7_ALL_FEATURES
  6
Continuous
 62
     7
100
AcDbLine
 10
154.1462609797
 20
168.9308633868
 30
0.0
 11
129.6462609797
 21
168.9308633868
 31
0.0
  0
LINE
  5
366
330
1B
100
AcDbEntity
 67
     1
  8
7_ALL_FEATURES
  6
Continuous
 62
     7
100
AcDbLine
 10
129.6462609797
 20
168.9308633868
 30
0.0
 11
125.6462609797
 21
168.9308633868
 31
0.0
  0
LINE
  5
367
330
1B
100
AcDbEntity
 67
     1
  8
7_ALL_FEATURES
  6
Continuous
 62
     7
100
AcDbLine
 10
125.6462609797
 20
168.9308633868
 30
0.0
 11
121.6462609797
 21
168.9308633868
 31
0.0
  0
LINE
  5
368
330
1B
100
AcDbEntity
 67
     1
  8
7_ALL_FEATURES
  6
Continuous
 62
     7
100
AcDbLine
 10
163.1462609797
 20
177.3308633868
 30
0.0
 11
145.1462609797
 21
177.3308633868
 31
0.0
  0
LINE
  5
369
330
1B
100
AcDbEntity
 67
     1
  8
7_ALL_FEATURES
  6
Continuous
 62
     7
100
AcDbLine
 10
125.6462609797
 20
133.9308633868
 30
0.0
 11
125.6462609797
 21
168.9308633868
 31
0.0
  0
LINE
  5
36A
330
1B
100
AcDbEntity
 67
     1
  8
7_ALL_FEATURES
  6
Continuous
 62
     7
100
AcDbLine
 10
121.6462609797
 20
168.9308633868
 30
0.0
 11
125.6462609797
 21
178.9308633868
 31
0.0
  0
LINE
  5
36B
330
1B
100
AcDbEntity
 67
     1
  8
7_ALL_FEATURES
  6
Continuous
 62
     9
100
AcDbLine
 10
129.6462609797
 20
133.9308633868
 30
0.0
 11
125.6462609797
 21
133.9308633868
 31
0.0
  0
LINE
  5
36C
330
1B
100
AcDbEntity
 67
     1
  8
7_ALL_FEATURES
  6
Continuous
 62
     9
100
AcDbLine
 10
129.6462609797
 20
133.9308633868
 30
0.0
 11
129.6462609797
 21
168.9308633868
 31
0.0
  0
LINE
  5
36D
330
1B
100
AcDbEntity
 67
     1
  8
7_ALL_FEATURES
  6
Continuous
 62
     9
100
AcDbLine
 10
129.6462609797
 20
168.9308633868
 30
0.0
 11
129.6462609797
 21
178.9308633868
 31
0.0
  0
LINE
  5
36E
330
1B
100
AcDbEntity
 67
     1
  8
7_ALL_FEATURES
  6
Continuous
 62
     9
100
AcDbLine
 10
182.6462609797
 20
133.9308633868
 30
0.0
 11
178.6462609797
 21
133.9308633868
 31
0.0
  0
LINE
  5
36F
330
1B
100
AcDbEntity
 67
     1
  8
7_ALL_FEATURES
  6
Continuous
 62
     9
100
AcDbLine
 10
178.6462609797
 20
133.9308633868
 30
0.0
 11
163.1462609797
 21
133.9308633868
 31
0.0
  0
LINE
  5
370
330
1B
100
AcDbEntity
 67
     1
  8
7_ALL_FEATURES
  6
Continuous
 62
     9
100
AcDbLine
 10
178.6462609797
 20
131.9308633868
 30
0.0
 11
178.6462609797
 21
133.9308633868
 31
0.0
  0
LINE
  5
371
330
1B
100
AcDbEntity
 67
     1
  8
7_ALL_FEATURES
  6
Continuous
 62
     9
100
AcDbLine
 10
145.1462609797
 20
133.9308633868
 30
0.0
 11
129.6462609797
 21
133.9308633868
 31
0.0
  0
LINE
  5
372
330
1B
100
AcDbEntity
 67
     1
  8
7_ALL_FEATURES
  6
Continuous
 62
     9
100
AcDbLine
 10
178.6462609797
 20
133.9308633868
 30
0.0
 11
178.6462609797
 21
168.9308633868
 31
0.0
  0
LINE
  5
373
330
1B
100
AcDbEntity
 67
     1
  8
7_ALL_FEATURES
  6
Continuous
 62
     9
100
AcDbLine
 10
129.6462609797
 20
131.9308633868
 30
0.0
 11
129.6462609817
 21
133.9308633868
 31
0.0
  0
LINE
  5
374
330
1B
100
AcDbEntity
 67
     1
  8
7_ALL_FEATURES
  6
Continuous
 62
     9
100
AcDbLine
 10
178.6462609797
 20
168.9308633868
 30
0.0
 11
178.6462609797
 21
178.9308633868
 31
0.0
  0
DIMENSION
  5
375
330
1B
100
AcDbEntity
 67
     1
  8
0
  6
Continuous
 62
     2
100
AcDbDimension
280
     0
  2
*D1
 10
108.1335234375
 20
37.9180625
 30
0.0
 11
108.1335234375
 21
70.4100168076
 31
0.0
 70
   160
 71
     5
 42
-1.0
 73
     0
 74
     0
 75
     0
  3
DIMSTYLE_1
100
AcDbAlignedDimension
 13
90.4192814612
 23
102.9180625
 33
0.0
 14
90.3346530828
 24
37.9180625
 34
0.0
 50
270.0
100
AcDbRotatedDimension
  0
DIMENSION
  5
376
330
1B
100
AcDbEntity
 67
     1
  8
0
  6
Continuous
 62
     2
100
AcDbDimension
280
     0
  2
*D2
 10
91.1949571368
 20
112.2683475507
 30
0.0
 11
63.698063942
 21
112.2683475507
 31
0.0
 70
   160
 71
     5
 42
-1.0
 73
     0
 74
     0
 75
     0
  3
DIMSTYLE_1
100
AcDbAlignedDimension
 13
36.1949571368
 23
101.0135861487
 33
0.0
 14
91.1949571368
 24
100.7878260135
 34
0.0
100
AcDbRotatedDimension
  0
DIMENSION
  5
377
330
1B
100
AcDbEntity
 67
     1
  8
0
  6
Continuous
 62
     2
100
AcDbDimension
280
     0
  2
*D3
 10
25.1525637669
 20
131.9308633868
 30
0.0
 11
25.1525637669
 21
155.3559023879
 31
0.0
 70
   160
 71
     5
 42
-1.0
 73
     0
 74
     0
 75
     0
  3
DIMSTYLE_1
100
AcDbAlignedDimension
 13
37.4221530828
 23
178.9308633868
 33
0.0
 14
35.1645517314
 24
131.9308633868
 34
0.0
 50
270.0
100
AcDbRotatedDimension
  0
DIMENSION
  5
378
330
1B
100
AcDbEntity
 67
     1
  8
0
  6
Continuous
 62
     2
100
AcDbDimension
280
     0
  2
*D4
 10
82.1949571368
 20
27.3123005607
 30
0.0
 11
63.6924874878
 21
27.3123005607
 31
0.0
 70
   160
 71
     5
 42
-1.0
 73
     0
 74
     0
 75
     0
  3
DIMSTYLE_1
100
AcDbAlignedDimension
 13
45.1949571368
 23
58.8591435811
 33
0.0
 14
82.1949571368
 24
58.678535473
 34
0.0
100
AcDbRotatedDimension
  0
LINE
  5
379
330
1B
100
AcDbEntity
 67
     1
  8
0
  6
Continuous
 62
     2
100
AcDbLine
 10
160.4935071791
 20
71.9825802365
 30
0.0
 11
290.4935071791
 21
71.9825802365
 31
0.0
  0
LINE
  5
37A
330
1B
100
AcDbEntity
 67
     1
  8
0
  6
Continuous
 62
     2
100
AcDbLine
 10
160.4935071791
 20
71.9825802365
 30
0.0
 11
160.4935071791
 21
5.9825802365
 31
0.0
  0
LINE
  5
37B
330
1B
100
AcDbEntity
 67
     1
  8
0
  6
Continuous
 62
     2
100
AcDbLine
 10
190.4935071791
 20
63.9825802365
 30
0.0
 11
290.4935071791
 21
63.9825802365
 31
0.0
  0
LINE
  5
37C
330
1B
100
AcDbEntity
 67
     1
  8
0
  6
Continuous
 62
     2
100
AcDbLine
 10
160.4935071791
 20
55.9825802365
 30
0.0
 11
290.4935071791
 21
55.9825802365
 31
0.0
  0
LINE
  5
37D
330
1B
100
AcDbEntity
 67
     1
  8
0
  6
Continuous
 62
     2
100
AcDbLine
 10
190.4935071791
 20
49.9825802365
 30
0.0
 11
290.4935071791
 21
49.9825802365
 31
0.0
  0
LINE
  5
37E
330
1B
100
AcDbEntity
 67
     1
  8
0
  6
Continuous
 62
     2
100
AcDbLine
 10
190.4935071791
 20
43.9825802365
 30
0.0
 11
290.4935071791
 21
43.9825802365
 31
0.0
  0
LINE
  5
37F
330
1B
100
AcDbEntity
 67
     1
  8
0
  6
Continuous
 62
     2
100
AcDbLine
 10
190.4935071791
 20
37.9825802365
 30
0.0
 11
290.4935071791
 21
37.9825802365
 31
0.0
  0
LINE
  5
380
330
1B
100
AcDbEntity
 67
     1
  8
0
  6
Continuous
 62
     2
100
AcDbLine
 10
190.4935071791
 20
31.9825802365
 30
0.0
 11
290.4935071791
 21
31.9825802365
 31
0.0
  0
LINE
  5
381
330
1B
100
AcDbEntity
 67
     1
  8
0
  6
Continuous
 62
     2
100
AcDbLine
 10
190.4935071791
 20
25.9825802365
 30
0.0
 11
290.4935071791
 21
25.9825802365
 31
0.0
  0
LINE
  5
382
330
1B
100
AcDbEntity
 67
     1
  8
0
  6
Continuous
 62
     2
100
AcDbLine
 10
160.4935071791
 20
19.9825802365
 30
0.0
 11
290.4935071791
 21
19.9825802365
 31
0.0
  0
LINE
  5
383
330
1B
100
AcDbEntity
 67
     1
  8
0
  6
Continuous
 62
     2
100
AcDbLine
 10
160.4935071791
 20
13.9825802365
 30
0.0
 11
290.4935071791
 21
13.9825802365
 31
0.0
  0
LINE
  5
384
330
1B
100
AcDbEntity
 67
     1
  8
0
  6
Continuous
 62
     2
100
AcDbLine
 10
160.4935071791
 20
9.9825802365
 30
0.0
 11
290.4935071791
 21
9.9825802365
 31
0.0
  0
LINE
  5
385
330
1B
100
AcDbEntity
 67
     1
  8
0
  6
Continuous
 62
     2
100
AcDbLine
 10
160.4935071791
 20
5.9825802365
 30
0.0
 11
290.4935071791
 21
5.9825802365
 31
0.0
  0
LINE
  5
386
330
1B
100
AcDbEntity
 67
     1
  8
0
  6
Continuous
 62
     2
100
AcDbLine
 10
190.4935071791
 20
71.9825802365
 30
0.0
 11
190.4935071791
 21
13.9825802365
 31
0.0
  0
LINE
  5
387
330
1B
100
AcDbEntity
 67
     1
  8
0
  6
Continuous
 62
     2
100
AcDbLine
 10
210.4935071791
 20
55.9825802365
 30
0.0
 11
210.4935071791
 21
49.9825802365
 31
0.0
  0
LINE
  5
388
330
1B
100
AcDbEntity
 67
     1
  8
0
  6
Continuous
 62
     2
100
AcDbLine
 10
240.4935071791
 20
25.9825802365
 30
0.0
 11
240.4935071791
 21
13.9825802365
 31
0.0
  0
LINE
  5
389
330
1B
100
AcDbEntity
 67
     1
  8
0
  6
Continuous
 62
     2
100
AcDbLine
 10
250.4935071791
 20
55.9825802365
 30
0.0
 11
250.4935071791
 21
49.9825802365
 31
0.0
  0
LINE
  5
38A
330
1B
100
AcDbEntity
 67
     1
  8
0
  6
Continuous
 62
     2
100
AcDbLine
 10
250.4935071791
 20
43.9825802365
 30
0.0
 11
250.4935071791
 21
37.9825802365
 31
0.0
  0
LINE
  5
38B
330
1B
100
AcDbEntity
 67
     1
  8
0
  6
Continuous
 62
     2
100
AcDbLine
 10
270.4935071791
 20
55.9825802365
 30
0.0
 11
270.4935071791
 21
49.9825802365
 31
0.0
  0
LINE
  5
38C
330
1B
100
AcDbEntity
 67
     1
  8
0
  6
Continuous
 62
     2
100
AcDbLine
 10
280.4935071791
 20
43.9825802365
 30
0.0
 11
280.4935071791
 21
37.9825802365
 31
0.0
  0
LINE
  5
38D
330
1B
100
AcDbEntity
 67
     1
  8
0
  6
Continuous
 62
     2
100
AcDbLine
 10
290.4935071791
 20
71.9825802365
 30
0.0
 11
290.4935071791
 21
5.9825802365
 31
0.0
  0
INSERT
  5
38E
330
1B
100
AcDbEntity
 67
     1
  8
0
  6
Continuous
 62
     2
100
AcDbBlockReference
  2
PROIEZIONE_EU_BL0
 10
175.4935071791
 20
63.6075802365
 30
0.0
  0
MTEXT
  5
38F
330
1B
100
AcDbEntity
 67
     1
  8
9_SOLID
  6
Continuous
 62
     2
100
AcDbMText
 10
191.9810071791
 20
70.3575802365
 30
0.0
 40
1.9
 41
142.3642857143
 46
0.0
 71
     1
 72
     1
  1
EN: Chamfer/radii unlisted 0.3x45°. Remove sharp edges.\PGen. tol.: hole H11, shaft h11, lenght Js12. UNI EN 22768 Medium Grande.
  7
TEXTSTYLE_3
 73
     1
 44
1.0
  0
MTEXT
  5
390
330
1B
100
AcDbEntity
 67
     1
  8
9_SOLID
  6
Continuous
 62
     2
100
AcDbMText
 10
191.9810071791
 20
62.3575802365
 30
0.0
 40
1.9
 41
148.2678571429
 46
0.0
 71
     1
 72
     1
  1
IT: Sm./rac. non quotati 0.3x45°. Eliminare spigoli taglienti.\PToll. gen.: foro H11, albero h11, lunghezza Js12. UNI EN 22768 Grado Medio.
  7
TEXTSTYLE_3
 73
     1
 44
1.0
  0
INSERT
  5
391
330
1B
100
AcDbEntity
 67
     1
  8
0
  6
Continuous
 62
     2
100
AcDbBlockReference
  2
LOGO2_BL1
 10
174.3195542238
 20
37.9825802365
 30
0.0
  0
MTEXT
  5
392
330
1B
100
AcDbEntity
 67
     1
  8
9_SOLID
  6
Continuous
 62
     2
100
AcDbMText
 10
191.9810071791
 20
54.2325802365
 30
0.0
 40
3.0
 41
21.4285714286
 46
0.0
 71
     1
 72
     1
  1
Pj: 190
  7
TEXTSTYLE_3
 73
     1
 44
1.0
  0
MTEXT
  5
393
330
1B
100
AcDbEntity
 67
     1
  8
0
  6
Continuous
 62
     2
100
AcDbMText
 10
211.9810071791
 20
54.2325802365
 30
0.0
 40
3.0
 41
41.5714285714
 46
0.0
 71
     1
 72
     1
  1
% Check:  %
  7
TEXTSTYLE_3
 73
     1
 44
1.0
  0
MTEXT
  5
394
330
1B
100
AcDbEntity
 67
     1
  8
9_SOLID
  6
Continuous
 62
     2
100
AcDbMText
 10
251.9810071791
 20
54.2325802365
 30
0.0
 40
3.0
 41
19.5
 46
0.0
 71
     1
 72
     1
  1
Rev:00
  7
TEXTSTYLE_3
 73
     1
 44
1.0
  0
MTEXT
  5
395
330
1B
100
AcDbEntity
 67
     1
  8
9_SOLID
  6
Continuous
 62
     2
100
AcDbMText
 10
271.9810071791
 20
54.4825802365
 30
0.0
 40
3.0
 41
19.7142857143
 46
0.0
 71
     1
 72
     1
  1
Ver: A
  7
TEXTSTYLE_3
 73
     1
 44
1.0
  0
MTEXT
  5
396
330
1B
100
AcDbEntity
 67
     1
  8
9_SOLID
  6
Continuous
 62
     2
100
AcDbMText
 10
191.9810071791
 20
48.2325802365
 30
0.0
 40
3.0
 41
42.9642857143
 46
0.0
 71
     1
 72
     1
  1
Neutral code: 
  7
TEXTSTYLE_3
 73
     1
 44
1.0
  0
MTEXT
  5
397
330
1B
100
AcDbEntity
 67
     1
  8
0
  6
Continuous
 62
     2
100
AcDbMText
 10
191.9810071791
 20
42.2325802365
 30
0.0
 40
3.0
 41
22.9285714286
 46
0.0
 71
     1
 72
     1
  1
Code:  
  7
TEXTSTYLE_3
 73
     1
 44
1.0
  0
MTEXT
  5
398
330
1B
100
AcDbEntity
 67
     1
  8
9_SOLID
  6
Continuous
 62
     2
100
AcDbMText
 10
251.9810071791
 20
42.4825802365
 30
0.0
 40
3.0
 41
27.8571428571
 46
0.0
 71
     1
 72
     1
  1
Scale: 1:1
  7
TEXTSTYLE_3
 73
     1
 44
1.0
  0
MTEXT
  5
399
330
1B
100
AcDbEntity
 67
     1
  8
9_SOLID
  6
Continuous
 62
     2
100
AcDbMText
 10
285.4935071791
 20
42.4825802365
 30
0.0
 40
3.0
 41
8.25
 46
0.0
 71
     2
 72
     1
  1
A4
  7
TEXTSTYLE_3
 73
     1
 44
1.0
  0
MTEXT
  5
39A
330
1B
100
AcDbEntity
 67
     1
  8
9_SOLID
  6
Continuous
 62
     2
100
AcDbMText
 10
191.9810071791
 20
36.4825802365
 30
0.0
 40
3.0
 41
94.2857142857
 46
0.0
 71
     1
 72
     1
  1
It descr.: CASSAFORMA LINE1.0
  7
TEXTSTYLE_3
 73
     1
 44
1.0
  0
MTEXT
  5
39B
330
1B
100
AcDbEntity
 67
     1
  8
0
  6
Continuous
 62
     2
100
AcDbMText
 10
191.9810071791
 20
30.4825802365
 30
0.0
 40
3.0
 41
37.5
 46
0.0
 71
     1
 72
     1
  1
En descr.:  
  7
TEXTSTYLE_3
 73
     1
 44
1.0
  0
MTEXT
  5
39C
330
1B
100
AcDbEntity
 67
     1
  8
9_SOLID
  6
Continuous
 62
     2
100
AcDbMText
 10
191.9810071791
 20
24.4825802365
 30
0.0
 40
3.0
 41
31.2857142857
 46
0.0
 71
     1
 72
     1
  1
Des.: S.Z.
  7
TEXTSTYLE_3
 73
     1
 44
1.0
  0
MTEXT
  5
39D
330
1B
100
AcDbEntity
 67
     1
  8
9_SOLID
  6
Continuous
 62
     2
100
AcDbMText
 10
241.9810071791
 20
24.4825802365
 30
0.0
 40
3.0
 41
34.8214285714
 46
0.0
 71
     1
 72
     1
  1
Check: A.P.
  7
TEXTSTYLE_3
 73
     1
 44
1.0
  0
MTEXT
  5
39E
330
1B
100
AcDbEntity
 67
     1
  8
9_SOLID
  6
Continuous
 62
     2
100
AcDbMText
 10
161.9810071791
 20
18.4825802365
 30
0.0
 40
3.0
 41
42.5357142857
 46
0.0
 71
     1
 72
     1
  1
Date: 17.12.18
  7
TEXTSTYLE_3
 73
     1
 44
1.0
  0
MTEXT
  5
39F
330
1B
100
AcDbEntity
 67
     1
  8
0
  6
Continuous
 62
     2
100
AcDbMText
 10
191.9810071791
 20
18.4825802365
 30
0.0
 40
3.0
 41
21.75
 46
0.0
 71
     1
 72
     1
  1
Mat.:  
  7
TEXTSTYLE_3
 73
     1
 44
1.0
  0
MTEXT
  5
3A0
330
1B
100
AcDbEntity
 67
     1
  8
9_SOLID
  6
Continuous
 62
     2
100
AcDbMText
 10
241.9810071791
 20
17.9825802365
 30
0.0
 40
2.0
 41
42.3571428571
 46
0.0
 71
     1
 72
     1
  1
Disegno per catalogo
  7
TEXTSTYLE_3
 73
     1
 44
1.0
  0
MTEXT
  5
3A1
330
1B
100
AcDbEntity
 67
     1
  8
9_SOLID
  6
Continuous
 62
     2
100
AcDbMText
 10
161.9810071791
 20
12.8825802365
 30
0.0
 40
1.8
 41
176.2071428571
 46
0.0
 71
     1
 72
     1
  1
It: A norma di legge si diffida da qualsiasi riproduzione senza nostra autorizzazione esplicita.
  7
TEXTSTYLE_3
 73
     1
 44
1.0
  0
MTEXT
  5
3A2
330
1B
100
AcDbEntity
 67
     1
  8
9_SOLID
  6
Continuous
 62
     2
100
AcDbMText
 10
161.9810071791
 20
8.8825802365
 30
0.0
 40
1.8
 41
158.1428571429
 46
0.0
 71
     1
 72
     1
  1
En: According to the law, beware of any reproduction made without our authorization.
  7
TEXTSTYLE_3
 73
     1
 44
1.0
  0
ENDSEC
  0
SECTION
  2
OBJECTS
  0
DICTIONARY
  5
3A3
330
0
100
AcDbDictionary
281
     1
  3
ACAD_DETAILVIEWSTYLE
350
3F9
  3
ACAD_GROUP
350
3A4
  3
ACAD_LAYOUT
350
3CC
  3
ACAD_MATERIAL
350
3E8
  3
ACAD_MLEADERSTYLE
350
3EE
  3
ACAD_MLINESTYLE
350
3A5
  3
ACAD_PLOTSETTINGS
350
3A7
  3
ACAD_PLOTSTYLENAME
350
3A8
  3
ACAD_SCALELIST
350
3AA
  3
ACAD_SECTIONVIEWSTYLE
350
3FA
  3
ACAD_TABLESTYLE
350
3EC
  3
ACAD_VISUALSTYLE
350
3CF
  3
ACDB_RECOMPOSE_DATA
350
3F5
  3
AcDbVariableDictionary
350
3F1
  3
APPDATA
350
3F0
  0
DICTIONARY
  5
3F9
102
{ACAD_REACTORS
330
3A3
102
}
330
3A3
100
AcDbDictionary
281
     1
  0
DICTIONARY
  5
3A4
102
{ACAD_REACTORS
330
3A3
102
}
330
3A3
100
AcDbDictionary
281
     1
  0
DICTIONARY
  5
3CC
102
{ACAD_REACTORS
330
3A3
102
}
330
3A3
100
AcDbDictionary
281
     1
  3
Foglio 1
350
3CE
  3
Model
350
3CD
  0
DICTIONARY
  5
3E8
102
{ACAD_REACTORS
330
3A3
102
}
330
3A3
100
AcDbDictionary
281
     1
  3
ByBlock
350
3EA
  3
ByLayer
350
3E9
  3
Global
350
3EB
  0
DICTIONARY
  5
3EE
102
{ACAD_REACTORS
330
3A3
102
}
330
3A3
100
AcDbDictionary
281
     1
  3
Standard
350
3EF
  0
DICTIONARY
  5
3A5
102
{ACAD_REACTORS
330
3A3
102
}
330
3A3
100
AcDbDictionary
281
     1
  3
STANDARD
350
3A6
  0
DICTIONARY
  5
3A7
102
{ACAD_REACTORS
330
3A3
102
}
330
3A3
100
AcDbDictionary
281
     1
  0
ACDBDICTIONARYWDFLT
  5
3A8
102
{ACAD_REACTORS
330
3A3
102
}
330
3A3
100
AcDbDictionary
281
     1
  3
Normal
350
3A9
100
AcDbDictionaryWithDefault
340
3A9
  0
DICTIONARY
  5
3AA
102
{ACAD_REACTORS
330
3A3
102
}
330
3A3
100
AcDbDictionary
281
     1
  3
A0
350
3AB
  3
A1
350
3AC
  3
A2
350
3AD
  3
A3
350
3AE
  3
A4
350
3AF
  3
A5
350
3B0
  3
A6
350
3B1
  3
A7
350
3B2
  3
A8
350
3B3
  3
A9
350
3B4
  3
B0
350
3B5
  3
B1
350
3B6
  3
B2
350
3B7
  3
B3
350
3B8
  3
B4
350
3B9
  3
B5
350
3BA
  3
B6
350
3BB
  3
B7
350
3BC
  3
B8
350
3BD
  3
B9
350
3BE
  3
C0
350
3BF
  3
C1
350
3C0
  3
C2
350
3C1
  3
C3
350
3C2
  3
C4
350
3C3
  3
C5
350
3C4
  3
C6
350
3C5
  3
C7
350
3C6
  3
C8
350
3C7
  3
C9
350
3C8
  3
D0
350
3C9
  3
D1
350
3CA
  3
D2
350
3CB
  0
DICTIONARY
  5
3FA
102
{ACAD_REACTORS
330
3A3
102
}
330
3A3
100
AcDbDictionary
281
     1
  0
DICTIONARY
  5
3EC
102
{ACAD_REACTORS
330
3A3
102
}
330
3A3
100
AcDbDictionary
281
     1
  3
Standard
350
3ED
  0
DICTIONARY
  5
3CF
102
{ACAD_REACTORS
330
3A3
102
}
330
3A3
100
AcDbDictionary
281
     1
  3
2dWireframe
350
3D4
  3
Basic
350
3D7
  3
Brighten
350
3DB
  3
ColorChange
350
3DF
  3
Conceptual
350
3D9
  3
Dim
350
3DA
  3
EdgeColorOff
350
3E2
  3
Facepattern
350
3DE
  3
Flat
350
3D0
  3
FlatWithEdges
350
3D1
  3
Gouraud
350
3D2
  3
GouraudWithEdges
350
3D3
  3
Hidden
350
3D6
  3
JitterOff
350
3E0
  3
Linepattern
350
3DD
  3
OverhangOff
350
3E1
  3
Realistic
350
3D8
  3
Shaded
350
3E7
  3
Shaded with edges
350
3E6
  3
Shades of Gray
350
3E3
  3
Sketchy
350
3E4
  3
Thicken
350
3DC
  3
Wireframe
350
3D5
  3
X-Ray
350
3E5
  0
XRECORD
  5
3F5
102
{ACAD_REACTORS
330
3A3
102
}
330
3A3
100
AcDbXrecord
280
     1
 90
        1
330
3ED
  0
DICTIONARY
  5
3F1
102
{ACAD_REACTORS
330
3A3
102
}
330
3A3
100
AcDbDictionary
281
     1
  3
CANNOSCALE
350
3F2
  3
CMLEADERSTYLE
350
3F7
  3
CTABLESTYLE
350
3F6
  3
MSLTSCALE
350
3F8
  0
DICTIONARY
  5
3F0
102
{ACAD_REACTORS
330
3A3
102
}
330
3A3
100
AcDbDictionary
281
     1
  0
LAYOUT
  5
3CE
102
{ACAD_REACTORS
330
3CC
102
}
330
3CC
100
AcDbPlotSettings
  1

  2
none_device
  4
ISO_A3_(420.00_x_297.00_MM)
  6

 40
7.5
 41
20.0
 42
7.5
 43
20.0
 44
420.0
 45
297.0
 46
0.0
 47
0.0
 48
0.0
 49
0.0
140
0.0
141
0.0
142
1.0
143
0.8171206225680934
 70
   688
 72
     1
 73
     0
 74
     1
  7

 75
     0
 76
     0
 77
     2
 78
   300
147
1.223809523809524
148
0.0
149
0.0
100
AcDbLayout
  1
Foglio 1
 70
     1
 71
     1
 10
0.0
 20
0.0
 11
412.5
 21
277.0
 12
0.0
 22
0.0
 32
0.0
 14
0.0
 24
0.0
 34
0.0
 15
298.0326738457667
 25
210.0
 35
0.0
146
0.0
 13
0.0
 23
0.0
 33
0.0
 16
1.0
 26
0.0
 36
0.0
 17
0.0
 27
1.0
 37
0.0
 76
     0
330
1B
331
285
  0
LAYOUT
  5
3CD
102
{ACAD_REACTORS
330
3CC
102
}
330
3CC
100
AcDbPlotSettings
  1

  2
none_device
  4
Letter_(8.50_x_11.00_Inches)
  6

 40
6.35
 41
6.35
 42
6.35
 43
6.35
 44
215.9
 45
279.4
 46
0.0
 47
0.0
 48
0.0
 49
0.0
140
0.0
141
0.0
142
1.0
143
37.125000000375
 70
  1712
 72
     0
 73
     0
 74
     0
  7

 75
     0
 76
     0
 77
     2
 78
   300
147
0.0269360269357549
148
0.000000038100319
149
0.0
100
AcDbLayout
  1
Model
 70
     1
 71
     0
 10
0.0
 20
0.0
 11
297.0
 21
210.0
 12
0.0
 22
0.0
 32
0.0
 14
0.0
 24
0.0
 34
0.0
 15
297.0
 25
210.0
 35
0.0
146
0.0
 13
0.0
 23
0.0
 33
0.0
 16
1.0
 26
0.0
 36
0.0
 17
0.0
 27
1.0
 37
0.0
 76
     0
330
1F
331
1F4
  0
MATERIAL
  5
3EA
102
{ACAD_REACTORS
330
3E8
102
}
330
3E8
100
AcDbMaterial
  1
ByBlock
 72
     1
 94
      127
  0
MATERIAL
  5
3E9
102
{ACAD_REACTORS
330
3E8
102
}
330
3E8
100
AcDbMaterial
  1
ByLayer
 72
     1
 94
      127
  0
MATERIAL
  5
3EB
102
{ACAD_REACTORS
330
3E8
102
}
330
3E8
100
AcDbMaterial
  1
Global
 72
     1
 94
      127
  0
MLEADERSTYLE
  5
3EF
102
{ACAD_REACTORS
330
3EE
102
}
330
3EE
100
AcDbMLeaderStyle
179
     2
170
     2
171
     1
172
     0
 90
        2
 40
0.0
 41
0.0
173
     1
 91
-1056964608
340
14
 92
       -2
290
     1
 42
2.0
291
     1
 43
8.0
  3
Standard
341
0
 44
4.0
300

342
11
174
     1
178
     1
175
     1
176
     0
 93
-1056964608
 45
4.0
292
     0
297
     0
 46
4.0
343
0
 94
-1056964608
 47
1.0
 49
1.0
140
1.0
293
     1
141
0.0
294
     1
177
     0
142
1.0
295
     0
296
     0
143
3.75
271
     0
272
     9
273
     9
298
     0
  0
MLINESTYLE
  5
3A6
102
{ACAD_REACTORS
330
3A5
102
}
330
3A5
100
AcDbMlineStyle
  2
STANDARD
 70
     0
  3

 62
   256
 51
90.0
 52
90.0
 71
     2
 49
0.5
 62
   256
  6
BYLAYER
 49
-0.5
 62
   256
  6
BYLAYER
  0
ACDBPLACEHOLDER
  5
3A9
102
{ACAD_REACTORS
330
3A8
102
}
330
3A8
  0
SCALE
  5
3AB
102
{ACAD_REACTORS
330
3AA
102
}
330
3AA
100
AcDbScale
 70
     0
300
1:1
140
1.0
141
1.0
290
     1
  0
SCALE
  5
3AC
102
{ACAD_REACTORS
330
3AA
102
}
330
3AA
100
AcDbScale
 70
     0
300
1:2
140
1.0
141
2.0
290
     0
  0
SCALE
  5
3AD
102
{ACAD_REACTORS
330
3AA
102
}
330
3AA
100
AcDbScale
 70
     0
300
1:4
140
1.0
141
4.0
290
     0
  0
SCALE
  5
3AE
102
{ACAD_REACTORS
330
3AA
102
}
330
3AA
100
AcDbScale
 70
     0
300
1:5
140
1.0
141
5.0
290
     0
  0
SCALE
  5
3AF
102
{ACAD_REACTORS
330
3AA
102
}
330
3AA
100
AcDbScale
 70
     0
300
1:8
140
1.0
141
8.0
290
     0
  0
SCALE
  5
3B0
102
{ACAD_REACTORS
330
3AA
102
}
330
3AA
100
AcDbScale
 70
     0
300
1:10
140
1.0
141
10.0
290
     0
  0
SCALE
  5
3B1
102
{ACAD_REACTORS
330
3AA
102
}
330
3AA
100
AcDbScale
 70
     0
300
1:16
140
1.0
141
16.0
290
     0
  0
SCALE
  5
3B2
102
{ACAD_REACTORS
330
3AA
102
}
330
3AA
100
AcDbScale
 70
     0
300
1:20
140
1.0
141
20.0
290
     0
  0
SCALE
  5
3B3
102
{ACAD_REACTORS
330
3AA
102
}
330
3AA
100
AcDbScale
 70
     0
300
1:30
140
1.0
141
30.0
290
     0
  0
SCALE
  5
3B4
102
{ACAD_REACTORS
330
3AA
102
}
330
3AA
100
AcDbScale
 70
     0
300
1:40
140
1.0
141
40.0
290
     0
  0
SCALE
  5
3B5
102
{ACAD_REACTORS
330
3AA
102
}
330
3AA
100
AcDbScale
 70
     0
300
1:50
140
1.0
141
50.0
290
     0
  0
SCALE
  5
3B6
102
{ACAD_REACTORS
330
3AA
102
}
330
3AA
100
AcDbScale
 70
     0
300
1:100
140
1.0
141
100.0
290
     0
  0
SCALE
  5
3B7
102
{ACAD_REACTORS
330
3AA
102
}
330
3AA
100
AcDbScale
 70
     0
300
2:1
140
2.0
141
1.0
290
     0
  0
SCALE
  5
3B8
102
{ACAD_REACTORS
330
3AA
102
}
330
3AA
100
AcDbScale
 70
     0
300
4:1
140
4.0
141
1.0
290
     0
  0
SCALE
  5
3B9
102
{ACAD_REACTORS
330
3AA
102
}
330
3AA
100
AcDbScale
 70
     0
300
8:1
140
8.0
141
1.0
290
     0
  0
SCALE
  5
3BA
102
{ACAD_REACTORS
330
3AA
102
}
330
3AA
100
AcDbScale
 70
     0
300
10:1
140
10.0
141
1.0
290
     0
  0
SCALE
  5
3BB
102
{ACAD_REACTORS
330
3AA
102
}
330
3AA
100
AcDbScale
 70
     0
300
100:1
140
100.0
141
1.0
290
     0
  0
SCALE
  5
3BC
102
{ACAD_REACTORS
330
3AA
102
}
330
3AA
100
AcDbScale
 70
     0
300
1/128" = 1'-0"
140
0.0078125
141
12.0
290
     0
  0
SCALE
  5
3BD
102
{ACAD_REACTORS
330
3AA
102
}
330
3AA
100
AcDbScale
 70
     0
300
1/64" = 1'-0"
140
0.015625
141
12.0
290
     0
  0
SCALE
  5
3BE
102
{ACAD_REACTORS
330
3AA
102
}
330
3AA
100
AcDbScale
 70
     0
300
1/32" = 1'-0"
140
0.03125
141
12.0
290
     0
  0
SCALE
  5
3BF
102
{ACAD_REACTORS
330
3AA
102
}
330
3AA
100
AcDbScale
 70
     0
300
1/16" = 1'-0"
140
0.0625
141
12.0
290
     0
  0
SCALE
  5
3C0
102
{ACAD_REACTORS
330
3AA
102
}
330
3AA
100
AcDbScale
 70
     0
300
3/32" = 1'-0"
140
0.09375
141
12.0
290
     0
  0
SCALE
  5
3C1
102
{ACAD_REACTORS
330
3AA
102
}
330
3AA
100
AcDbScale
 70
     0
300
1/8" = 1'-0"
140
0.125
141
12.0
290
     0
  0
SCALE
  5
3C2
102
{ACAD_REACTORS
330
3AA
102
}
330
3AA
100
AcDbScale
 70
     0
300
3/16" = 1'-0"
140
0.1875
141
12.0
290
     0
  0
SCALE
  5
3C3
102
{ACAD_REACTORS
330
3AA
102
}
330
3AA
100
AcDbScale
 70
     0
300
1/4" = 1'-0"
140
0.25
141
12.0
290
     0
  0
SCALE
  5
3C4
102
{ACAD_REACTORS
330
3AA
102
}
330
3AA
100
AcDbScale
 70
     0
300
3/8" = 1'-0"
140
0.375
141
12.0
290
     0
  0
SCALE
  5
3C5
102
{ACAD_REACTORS
330
3AA
102
}
330
3AA
100
AcDbScale
 70
     0
300
1/2" = 1'-0"
140
0.5
141
12.0
290
     0
  0
SCALE
  5
3C6
102
{ACAD_REACTORS
330
3AA
102
}
330
3AA
100
AcDbScale
 70
     0
300
3/4" = 1'-0"
140
0.75
141
12.0
290
     0
  0
SCALE
  5
3C7
102
{ACAD_REACTORS
330
3AA
102
}
330
3AA
100
AcDbScale
 70
     0
300
1" = 1'-0"
140
1.0
141
12.0
290
     0
  0
SCALE
  5
3C8
102
{ACAD_REACTORS
330
3AA
102
}
330
3AA
100
AcDbScale
 70
     0
300
1-1/2" = 1'-0"
140
1.5
141
12.0
290
     0
  0
SCALE
  5
3C9
102
{ACAD_REACTORS
330
3AA
102
}
330
3AA
100
AcDbScale
 70
     0
300
3" = 1'-0"
140
3.0
141
12.0
290
     0
  0
SCALE
  5
3CA
102
{ACAD_REACTORS
330
3AA
102
}
330
3AA
100
AcDbScale
 70
     0
300
6" = 1'-0"
140
6.0
141
12.0
290
     0
  0
SCALE
  5
3CB
102
{ACAD_REACTORS
330
3AA
102
}
330
3AA
100
AcDbScale
 70
     0
300
1'-0" = 1'-0"
140
12.0
141
12.0
290
     0
  0
TABLESTYLE
  5
3ED
102
{ACAD_REACTORS
330
3EC
102
}
102
{ACAD_XDICTIONARY
360
3F3
102
}
330
3EC
100
AcDbTableStyle
  3
Standard
 70
     0
 71
     0
 40
0.06
 41
0.06
280
     0
281
     0
  7
STANDARD
140
4.5
170
     2
 62
     0
 63
   257
283
     0
 90
        4
 91
        0
  1

274
    -2
284
     1
 64
     0
275
    -2
285
     1
 65
     0
276
    -2
286
     1
 66
     0
277
    -2
287
     1
 67
     0
278
    -2
288
     1
 68
     0
279
    -2
289
     1
 69
     0
  7
STANDARD
140
6.0
170
     5
 62
     0
 63
   257
283
     0
 90
        4
 91
        0
  1

274
    -2
284
     1
 64
     0
275
    -2
285
     1
 65
     0
276
    -2
286
     1
 66
     0
277
    -2
287
     1
 67
     0
278
    -2
288
     1
 68
     0
279
    -2
289
     1
 69
     0
  7
STANDARD
140
4.5
170
     5
 62
     0
 63
   257
283
     0
 90
        4
 91
        0
  1

274
    -2
284
     1
 64
     0
275
    -2
285
     1
 65
     0
276
    -2
286
     1
 66
     0
277
    -2
287
     1
 67
     0
278
    -2
288
     1
 68
     0
279
    -2
289
     1
 69
     0
  0
VISUALSTYLE
  5
3D4
102
{ACAD_REACTORS
330
3CF
102
}
330
3CF
100
AcDbVisualStyle
  2
2dWireframe
 70
     4
177
     3
291
     0
 70
    58
 90
        0
176
     1
 90
        2
176
     1
 90
        0
176
     1
 90
        0
176
     1
 40
0.6
176
     1
 40
30.0
176
     1
 62
     7
420
 16777215
176
     1
 90
        1
176
     1
 90
        4
176
     1
 62
     7
176
     1
 62
   257
176
     1
 90
        1
176
     1
 90
        1
176
     1
 40
1.0
176
     1
 90
        0
176
     1
 62
   257
176
     1
 40
1.0
176
     1
 90
        1
176
     1
 90
        6
176
     1
 90
        2
176
     1
 62
     7
176
     1
 90
        5
176
     1
 90
        0
176
     1
 90
        0
176
     1
290
     0
176
     1
 90
        1
176
     1
 40
0.0
176
     1
 90
        0
176
     1
290
     1
176
     1
290
     1
176
     1
290
     0
176
     1
290
     0
176
     1
290
     0
176
     1
290
     0
176
     1
290
     0
176
     1
290
     0
176
     1
290
     0
176
     1
 90
       50
176
     1
 40
0.0
176
     1
 40
1.0
176
     1
 90
        0
176
     1
 62
    18
420
        0
176
     1
 90
       50
176
     1
 90
        3
176
     1
 62
     5
420
      255
176
     1
290
     0
176
     1
 90
       50
176
     1
 90
       50
176
     1
 90
       50
176
     1
290
     0
176
     1
 90
       50
176
     1
 62
   256
176
     0
 40
1.0
176
     0
 90
        2
176
     1
  1
strokes_ogs.tif
176
     1
290
     0
176
     1
 40
1.0
176
     1
 40
1.0
176
     1
  0
VISUALSTYLE
  5
3D7
102
{ACAD_REACTORS
330
3CF
102
}
330
3CF
100
AcDbVisualStyle
  2
Basic
 70
     7
177
     3
291
     1
 70
    58
 90
        1
176
     1
 90
        0
176
     1
 90
        1
176
     1
 90
        0
176
     1
 40
0.6
176
     1
 40
30.0
176
     1
 62
     7
420
 16777215
176
     1
 90
        0
176
     1
 90
        4
176
     1
 62
     7
176
     1
 62
   257
176
     1
 90
        1
176
     1
 90
        1
176
     1
 40
1.0
176
     1
 90
        8
176
     1
 62
     7
176
     1
 40
1.0
176
     1
 90
        1
176
     1
 90
        6
176
     1
 90
        2
176
     1
 62
     7
176
     1
 90
        5
176
     1
 90
        0
176
     1
 90
        0
176
     1
290
     0
176
     1
 90
        1
176
     1
 40
0.0
176
     1
 90
        0
176
     1
290
     0
176
     1
290
     1
176
     1
290
     1
176
     1
290
     0
176
     1
290
     0
176
     1
290
     0
176
     1
290
     0
176
     1
290
     0
176
     1
290
     0
176
     1
 90
       50
176
     1
 40
0.0
176
     1
 40
1.0
176
     1
 90
        0
176
     1
 62
    18
420
        0
176
     1
 90
       50
176
     1
 90
        3
176
     1
 62
     5
420
      255
176
     1
290
     0
176
     1
 90
       50
176
     1
 90
       50
176
     1
 90
       50
176
     1
290
     0
176
     1
 90
       50
176
     1
 62
   256
176
     0
 40
1.0
176
     0
 90
        2
176
     1
  1
strokes_ogs.tif
176
     1
290
     0
176
     1
 40
1.0
176
     1
 40
1.0
176
     1
  0
VISUALSTYLE
  5
3DB
102
{ACAD_REACTORS
330
3CF
102
}
330
3CF
100
AcDbVisualStyle
  2
Brighten
 70
    12
177
     3
291
     1
 70
    58
 90
        2
176
     1
 90
        2
176
     1
 90
        0
176
     1
 90
        0
176
     1
 40
0.6
176
     1
 40
30.0
176
     1
 62
     7
420
 16777215
176
     1
 90
        1
176
     1
 90
        4
176
     1
 62
     7
176
     1
 62
   257
176
     1
 90
        1
176
     1
 90
        1
176
     1
 40
1.0
176
     1
 90
        8
176
     1
 62
     7
176
     1
 40
1.0
176
     1
 90
        1
176
     1
 90
        6
176
     1
 90
        2
176
     1
 62
     7
176
     1
 90
        5
176
     1
 90
        0
176
     1
 90
        0
176
     1
290
     0
176
     1
 90
        1
176
     1
 40
50.0
176
     1
 90
        0
176
     1
290
     0
176
     1
290
     1
176
     1
290
     1
176
     1
290
     0
176
     1
290
     0
176
     1
290
     0
176
     1
290
     0
176
     1
290
     0
176
     1
290
     0
176
     1
 90
       50
176
     1
 40
0.0
176
     1
 40
1.0
176
     1
 90
        0
176
     1
 62
    18
420
        0
176
     1
 90
       50
176
     1
 90
        3
176
     1
 62
     5
420
      255
176
     1
290
     0
176
     1
 90
       50
176
     1
 90
       50
176
     1
 90
       50
176
     1
290
     0
176
     1
 90
       50
176
     1
 62
   256
176
     0
 40
1.0
176
     0
 90
        2
176
     1
  1
strokes_ogs.tif
176
     1
290
     0
176
     1
 40
1.0
176
     1
 40
1.0
176
     1
  0
VISUALSTYLE
  5
3DF
102
{ACAD_REACTORS
330
3CF
102
}
330
3CF
100
AcDbVisualStyle
  2
ColorChange
 70
    16
177
     3
291
     1
 70
    58
 90
        2
176
     1
 90
        2
176
     1
 90
        3
176
     1
 90
        0
176
     1
 40
0.6
176
     1
 40
30.0
176
     1
 62
     8
420
  8421504
176
     1
 90
        1
176
     1
 90
        4
176
     1
 62
     7
176
     1
 62
   257
176
     1
 90
        1
176
     1
 90
        1
176
     1
 40
1.0
176
     1
 90
        8
176
     1
 62
     8
420
  8421504
176
     1
 40
1.0
176
     1
 90
        1
176
     1
 90
        6
176
     1
 90
        2
176
     1
 62
     7
176
     1
 90
        5
176
     1
 90
        0
176
     1
 90
        0
176
     1
290
     0
176
     1
 90
        1
176
     1
 40
0.0
176
     1
 90
        0
176
     1
290
     0
176
     1
290
     1
176
     1
290
     1
176
     1
290
     0
176
     1
290
     0
176
     1
290
     0
176
     1
290
     0
176
     1
290
     0
176
     1
290
     0
176
     1
 90
       50
176
     1
 40
0.0
176
     1
 40
1.0
176
     1
 90
        0
176
     1
 62
    18
420
        0
176
     1
 90
       50
176
     1
 90
        3
176
     1
 62
     5
420
      255
176
     1
290
     0
176
     1
 90
       50
176
     1
 90
       50
176
     1
 90
       50
176
     1
290
     0
176
     1
 90
       50
176
     1
 62
   256
176
     0
 40
1.0
176
     0
 90
        2
176
     1
  1
strokes_ogs.tif
176
     1
290
     0
176
     1
 40
1.0
176
     1
 40
1.0
176
     1
  0
VISUALSTYLE
  5
3D9
102
{ACAD_REACTORS
330
3CF
102
}
330
3CF
100
AcDbVisualStyle
  2
Conceptual
 70
     9
177
     3
291
     0
 70
    58
 90
        3
176
     1
 90
        2
176
     1
 90
        0
176
     1
 90
        0
176
     1
 40
0.6
176
     1
 40
30.0
176
     1
 62
     7
420
 16777215
176
     1
 90
        2
176
     1
 90
        2
176
     1
 62
     7
176
     1
 62
   257
176
     1
 90
        1
176
     1
 90
        1
176
     1
 40
179.0
176
     1
 90
        8
176
     1
 62
     7
176
     1
 40
1.0
176
     1
 90
        1
176
     1
 90
        6
176
     1
 90
        2
176
     1
 62
     7
176
     1
 90
        3
176
     1
 90
        0
176
     1
 90
        0
176
     1
290
     0
176
     1
 90
        1
176
     1
 40
0.0
176
     1
 90
        0
176
     1
290
     0
176
     1
290
     1
176
     1
290
     1
176
     1
290
     0
176
     1
290
     0
176
     1
290
     0
176
     1
290
     0
176
     1
290
     0
176
     1
290
     0
176
     1
 90
       50
176
     1
 40
0.0
176
     1
 40
1.0
176
     1
 90
        0
176
     1
 62
    18
420
        0
176
     1
 90
       50
176
     1
 90
        3
176
     1
 62
     5
420
      255
176
     1
290
     0
176
     1
 90
       50
176
     1
 90
       50
176
     1
 90
       50
176
     1
290
     0
176
     1
 90
       50
176
     1
 62
   256
176
     0
 40
1.0
176
     0
 90
        2
176
     1
  1
strokes_ogs.tif
176
     1
290
     0
176
     1
 40
1.0
176
     1
 40
1.0
176
     1
  0
VISUALSTYLE
  5
3DA
102
{ACAD_REACTORS
330
3CF
102
}
330
3CF
100
AcDbVisualStyle
  2
Dim
 70
    11
177
     3
291
     1
 70
    58
 90
        2
176
     1
 90
        2
176
     1
 90
        0
176
     1
 90
        0
176
     1
 40
0.6
176
     1
 40
30.0
176
     1
 62
     7
420
 16777215
176
     1
 90
        1
176
     1
 90
        4
176
     1
 62
     7
176
     1
 62
   257
176
     1
 90
        1
176
     1
 90
        1
176
     1
 40
1.0
176
     1
 90
        8
176
     1
 62
     7
176
     1
 40
1.0
176
     1
 90
        1
176
     1
 90
        6
176
     1
 90
        2
176
     1
 62
     7
176
     1
 90
        5
176
     1
 90
        0
176
     1
 90
        0
176
     1
290
     0
176
     1
 90
        1
176
     1
 40
-50.0
176
     1
 90
        0
176
     1
290
     0
176
     1
290
     1
176
     1
290
     1
176
     1
290
     0
176
     1
290
     0
176
     1
290
     0
176
     1
290
     0
176
     1
290
     0
176
     1
290
     0
176
     1
 90
       50
176
     1
 40
0.0
176
     1
 40
1.0
176
     1
 90
        0
176
     1
 62
    18
420
        0
176
     1
 90
       50
176
     1
 90
        3
176
     1
 62
     5
420
      255
176
     1
290
     0
176
     1
 90
       50
176
     1
 90
       50
176
     1
 90
       50
176
     1
290
     0
176
     1
 90
       50
176
     1
 62
   256
176
     0
 40
1.0
176
     0
 90
        2
176
     1
  1
strokes_ogs.tif
176
     1
290
     0
176
     1
 40
1.0
176
     1
 40
1.0
176
     1
  0
VISUALSTYLE
  5
3E2
102
{ACAD_REACTORS
330
3CF
102
}
330
3CF
100
AcDbVisualStyle
  2
EdgeColorOff
 70
    22
177
     3
291
     1
 70
    58
 90
        2
176
     0
 90
        2
176
     0
 90
        0
176
     0
 90
        0
176
     0
 40
0.6
176
     0
 40
30.0
176
     0
 62
     7
420
 16777215
176
     0
 90
        1
176
     0
 90
        4
176
     0
 62
     7
176
     0
 62
   257
176
     0
 90
        1
176
     0
 90
        1
176
     0
 40
1.0
176
     0
 90
        8
176
     2
 62
     7
176
     0
 40
1.0
176
     0
 90
        1
176
     0
 90
        6
176
     0
 90
        2
176
     0
 62
     7
176
     0
 90
        5
176
     0
 90
        0
176
     0
 90
        0
176
     0
290
     0
176
     0
 90
        1
176
     0
 40
0.0
176
     0
 90
        0
176
     0
290
     0
176
     0
290
     1
176
     0
290
     1
176
     0
290
     0
176
     0
290
     0
176
     0
290
     0
176
     0
290
     0
176
     0
290
     0
176
     0
290
     0
176
     0
 90
       50
176
     0
 40
0.0
176
     0
 40
1.0
176
     0
 90
        0
176
     0
 62
    18
420
        0
176
     0
 90
       50
176
     0
 90
        3
176
     0
 62
     5
420
      255
176
     0
290
     0
176
     0
 90
       50
176
     0
 90
       50
176
     0
 90
       50
176
     0
290
     0
176
     0
 90
       50
176
     0
 62
   256
176
     0
 40
1.0
176
     0
 90
        2
176
     0
  1
strokes_ogs.tif
176
     0
290
     0
176
     0
 40
1.0
176
     0
 40
1.0
176
     0
  0
VISUALSTYLE
  5
3DE
102
{ACAD_REACTORS
330
3CF
102
}
330
3CF
100
AcDbVisualStyle
  2
Facepattern
 70
    15
177
     3
291
     1
 70
    58
 90
        2
176
     1
 90
        2
176
     1
 90
        0
176
     1
 90
        0
176
     1
 40
0.6
176
     1
 40
30.0
176
     1
 62
     7
420
 16777215
176
     1
 90
        1
176
     1
 90
        4
176
     1
 62
     7
176
     1
 62
   257
176
     1
 90
        1
176
     1
 90
        1
176
     1
 40
1.0
176
     1
 90
        8
176
     1
 62
     7
176
     1
 40
1.0
176
     1
 90
        1
176
     1
 90
        6
176
     1
 90
        2
176
     1
 62
     7
176
     1
 90
        5
176
     1
 90
        0
176
     1
 90
        0
176
     1
290
     0
176
     1
 90
        1
176
     1
 40
0.0
176
     1
 90
        0
176
     1
290
     0
176
     1
290
     1
176
     1
290
     1
176
     1
290
     0
176
     1
290
     0
176
     1
290
     0
176
     1
290
     0
176
     1
290
     0
176
     1
290
     0
176
     1
 90
       50
176
     1
 40
0.0
176
     1
 40
1.0
176
     1
 90
        0
176
     1
 62
    18
420
        0
176
     1
 90
       50
176
     1
 90
        3
176
     1
 62
     5
420
      255
176
     1
290
     0
176
     1
 90
       50
176
     1
 90
       50
176
     1
 90
       50
176
     1
290
     0
176
     1
 90
       50
176
     1
 62
   256
176
     0
 40
1.0
176
     0
 90
        2
176
     1
  1
strokes_ogs.tif
176
     1
290
     0
176
     1
 40
1.0
176
     1
 40
1.0
176
     1
  0
VISUALSTYLE
  5
3D0
102
{ACAD_REACTORS
330
3CF
102
}
330
3CF
100
AcDbVisualStyle
  2
Flat
 70
     0
177
     3
291
     1
 70
    58
 90
        2
176
     1
 90
        1
176
     1
 90
        1
176
     1
 90
        2
176
     1
 40
0.6
176
     1
 40
30.0
176
     1
 62
     7
420
 16777215
176
     1
 90
        0
176
     1
 90
        0
176
     1
 62
     7
176
     1
 62
   257
176
     1
 90
        1
176
     1
 90
        1
176
     1
 40
1.0
176
     1
 90
        8
176
     1
 62
     7
176
     1
 40
1.0
176
     1
 90
        1
176
     1
 90
        6
176
     1
 90
        2
176
     1
 62
     7
176
     1
 90
        5
176
     1
 90
        0
176
     1
 90
        0
176
     1
290
     0
176
     1
 90
       13
176
     1
 40
0.0
176
     1
 90
        0
176
     1
290
     0
176
     1
290
     1
176
     1
290
     1
176
     1
290
     0
176
     1
290
     0
176
     1
290
     0
176
     1
290
     0
176
     1
290
     0
176
     1
290
     0
176
     1
 90
       50
176
     1
 40
0.0
176
     1
 40
1.0
176
     1
 90
        0
176
     1
 62
    18
420
        0
176
     1
 90
       50
176
     1
 90
        3
176
     1
 62
     5
420
      255
176
     1
290
     0
176
     1
 90
       50
176
     1
 90
       50
176
     1
 90
       50
176
     1
290
     0
176
     1
 90
       50
176
     1
 62
   256
176
     0
 40
1.0
176
     0
 90
        2
176
     1
  1
strokes_ogs.tif
176
     1
290
     0
176
     1
 40
1.0
176
     1
 40
1.0
176
     1
  0
VISUALSTYLE
  5
3D1
102
{ACAD_REACTORS
330
3CF
102
}
330
3CF
100
AcDbVisualStyle
  2
FlatWithEdges
 70
     1
177
     3
291
     1
 70
    58
 90
        2
176
     1
 90
        1
176
     1
 90
        1
176
     1
 90
        2
176
     1
 40
0.6
176
     1
 40
30.0
176
     1
 62
     7
420
 16777215
176
     1
 90
        1
176
     1
 90
        0
176
     1
 62
     7
176
     1
 62
   257
176
     1
 90
        1
176
     1
 90
        1
176
     1
 40
1.0
176
     1
 90
        0
176
     1
 62
   257
176
     1
 40
1.0
176
     1
 90
        1
176
     1
 90
        6
176
     1
 90
        2
176
     1
 62
     7
176
     1
 90
        5
176
     1
 90
        0
176
     1
 90
        0
176
     1
290
     0
176
     1
 90
       13
176
     1
 40
0.0
176
     1
 90
        0
176
     1
290
     0
176
     1
290
     1
176
     1
290
     1
176
     1
290
     0
176
     1
290
     0
176
     1
290
     0
176
     1
290
     0
176
     1
290
     0
176
     1
290
     0
176
     1
 90
       50
176
     1
 40
0.0
176
     1
 40
1.0
176
     1
 90
        0
176
     1
 62
    18
420
        0
176
     1
 90
       50
176
     1
 90
        3
176
     1
 62
     5
420
      255
176
     1
290
     0
176
     1
 90
       50
176
     1
 90
       50
176
     1
 90
       50
176
     1
290
     0
176
     1
 90
       50
176
     1
 62
   256
176
     0
 40
1.0
176
     0
 90
        2
176
     1
  1
strokes_ogs.tif
176
     1
290
     0
176
     1
 40
1.0
176
     1
 40
1.0
176
     1
  0
VISUALSTYLE
  5
3D2
102
{ACAD_REACTORS
330
3CF
102
}
330
3CF
100
AcDbVisualStyle
  2
Gouraud
 70
     2
177
     3
291
     1
 70
    58
 90
        2
176
     1
 90
        2
176
     1
 90
        1
176
     1
 90
        2
176
     1
 40
0.6
176
     1
 40
30.0
176
     1
 62
     7
420
 16777215
176
     1
 90
        0
176
     1
 90
        0
176
     1
 62
     7
176
     1
 62
   257
176
     1
 90
        1
176
     1
 90
        1
176
     1
 40
1.0
176
     1
 90
        0
176
     1
 62
     7
176
     1
 40
1.0
176
     1
 90
        1
176
     1
 90
        6
176
     1
 90
        2
176
     1
 62
     7
176
     1
 90
        5
176
     1
 90
        0
176
     1
 90
        0
176
     1
290
     0
176
     1
 90
       13
176
     1
 40
0.0
176
     1
 90
        0
176
     1
290
     0
176
     1
290
     1
176
     1
290
     1
176
     1
290
     0
176
     1
290
     0
176
     1
290
     0
176
     1
290
     0
176
     1
290
     0
176
     1
290
     0
176
     1
 90
       50
176
     1
 40
0.0
176
     1
 40
1.0
176
     1
 90
        0
176
     1
 62
    18
420
        0
176
     1
 90
       50
176
     1
 90
        3
176
     1
 62
     5
420
      255
176
     1
290
     0
176
     1
 90
       50
176
     1
 90
       50
176
     1
 90
       50
176
     1
290
     0
176
     1
 90
       50
176
     1
 62
   256
176
     0
 40
1.0
176
     0
 90
        2
176
     1
  1
strokes_ogs.tif
176
     1
290
     0
176
     1
 40
1.0
176
     1
 40
1.0
176
     1
  0
VISUALSTYLE
  5
3D3
102
{ACAD_REACTORS
330
3CF
102
}
330
3CF
100
AcDbVisualStyle
  2
GouraudWithEdges
 70
     3
177
     3
291
     1
 70
    58
 90
        2
176
     1
 90
        2
176
     1
 90
        1
176
     1
 90
        2
176
     1
 40
0.6
176
     1
 40
30.0
176
     1
 62
     7
420
 16777215
176
     1
 90
        1
176
     1
 90
        0
176
     1
 62
     7
176
     1
 62
   257
176
     1
 90
        1
176
     1
 90
        1
176
     1
 40
1.0
176
     1
 90
        0
176
     1
 62
   257
176
     1
 40
1.0
176
     1
 90
        1
176
     1
 90
        6
176
     1
 90
        2
176
     1
 62
     7
176
     1
 90
        5
176
     1
 90
        0
176
     1
 90
        0
176
     1
290
     0
176
     1
 90
       13
176
     1
 40
0.0
176
     1
 90
        0
176
     1
290
     0
176
     1
290
     1
176
     1
290
     1
176
     1
290
     0
176
     1
290
     0
176
     1
290
     0
176
     1
290
     0
176
     1
290
     0
176
     1
290
     0
176
     1
 90
       50
176
     1
 40
0.0
176
     1
 40
1.0
176
     1
 90
        0
176
     1
 62
    18
420
        0
176
     1
 90
       50
176
     1
 90
        3
176
     1
 62
     5
420
      255
176
     1
290
     0
176
     1
 90
       50
176
     1
 90
       50
176
     1
 90
       50
176
     1
290
     0
176
     1
 90
       50
176
     1
 62
   256
176
     0
 40
1.0
176
     0
 90
        2
176
     1
  1
strokes_ogs.tif
176
     1
290
     0
176
     1
 40
1.0
176
     1
 40
1.0
176
     1
  0
VISUALSTYLE
  5
3D6
102
{ACAD_REACTORS
330
3CF
102
}
330
3CF
100
AcDbVisualStyle
  2
Hidden
 70
     6
177
     3
291
     0
 70
    58
 90
        1
176
     1
 90
        2
176
     1
 90
        2
176
     1
 90
        0
176
     1
 40
0.6
176
     1
 40
30.0
176
     1
 62
     7
420
 16777215
176
     1
 90
        2
176
     1
 90
        2
176
     1
 62
     7
176
     1
 62
   257
176
     1
 90
        2
176
     1
 90
        1
176
     1
 40
40.0
176
     1
 90
        0
176
     1
 62
   257
176
     1
 40
1.0
176
     1
 90
        1
176
     1
 90
        6
176
     1
 90
        2
176
     1
 62
     7
176
     1
 90
        3
176
     1
 90
        0
176
     1
 90
        0
176
     1
290
     0
176
     1
 90
        1
176
     1
 40
0.0
176
     1
 90
        0
176
     1
290
     0
176
     1
290
     1
176
     1
290
     1
176
     1
290
     0
176
     1
290
     0
176
     1
290
     0
176
     1
290
     0
176
     1
290
     0
176
     1
290
     0
176
     1
 90
       50
176
     1
 40
0.0
176
     1
 40
1.0
176
     1
 90
        0
176
     1
 62
    18
420
        0
176
     1
 90
       50
176
     1
 90
        3
176
     1
 62
     5
420
      255
176
     1
290
     0
176
     1
 90
       50
176
     1
 90
       50
176
     1
 90
       50
176
     1
290
     0
176
     1
 90
       50
176
     1
 62
   256
176
     0
 40
1.0
176
     0
 90
        2
176
     1
  1
strokes_ogs.tif
176
     1
290
     0
176
     1
 40
1.0
176
     1
 40
1.0
176
     1
  0
VISUALSTYLE
  5
3E0
102
{ACAD_REACTORS
330
3CF
102
}
330
3CF
100
AcDbVisualStyle
  2
JitterOff
 70
    20
177
     3
291
     1
 70
    58
 90
        2
176
     0
 90
        2
176
     0
 90
        0
176
     0
 90
        0
176
     0
 40
0.6
176
     0
 40
30.0
176
     0
 62
     7
420
 16777215
176
     0
 90
        1
176
     0
 90
        4
176
     0
 62
     7
176
     0
 62
   257
176
     0
 90
        1
176
     0
 90
        1
176
     0
 40
1.0
176
     0
 90
       10
176
     2
 62
     7
176
     0
 40
1.0
176
     0
 90
        1
176
     0
 90
        6
176
     0
 90
        2
176
     0
 62
     7
176
     0
 90
        5
176
     0
 90
        0
176
     0
 90
        0
176
     0
290
     0
176
     0
 90
        1
176
     0
 40
0.0
176
     0
 90
        0
176
     0
290
     0
176
     0
290
     1
176
     0
290
     1
176
     0
290
     0
176
     0
290
     0
176
     0
290
     0
176
     0
290
     0
176
     0
290
     0
176
     0
290
     0
176
     0
 90
       50
176
     0
 40
0.0
176
     0
 40
1.0
176
     0
 90
        0
176
     0
 62
    18
420
        0
176
     0
 90
       50
176
     0
 90
        3
176
     0
 62
     5
420
      255
176
     0
290
     0
176
     0
 90
       50
176
     0
 90
       50
176
     0
 90
       50
176
     0
290
     0
176
     0
 90
       50
176
     0
 62
   256
176
     0
 40
1.0
176
     0
 90
        2
176
     0
  1
strokes_ogs.tif
176
     0
290
     0
176
     0
 40
1.0
176
     0
 40
1.0
176
     0
  0
VISUALSTYLE
  5
3DD
102
{ACAD_REACTORS
330
3CF
102
}
330
3CF
100
AcDbVisualStyle
  2
Linepattern
 70
    14
177
     3
291
     1
 70
    58
 90
        2
176
     1
 90
        2
176
     1
 90
        0
176
     1
 90
        0
176
     1
 40
0.6
176
     1
 40
30.0
176
     1
 62
     7
420
 16777215
176
     1
 90
        1
176
     1
 90
        4
176
     1
 62
     7
176
     1
 62
   257
176
     1
 90
        7
176
     1
 90
        7
176
     1
 40
1.0
176
     1
 90
        8
176
     1
 62
     7
176
     1
 40
1.0
176
     1
 90
        1
176
     1
 90
        6
176
     1
 90
        2
176
     1
 62
     7
176
     1
 90
        5
176
     1
 90
        0
176
     1
 90
        0
176
     1
290
     0
176
     1
 90
        1
176
     1
 40
0.0
176
     1
 90
        0
176
     1
290
     0
176
     1
290
     1
176
     1
290
     1
176
     1
290
     0
176
     1
290
     0
176
     1
290
     0
176
     1
290
     0
176
     1
290
     0
176
     1
290
     0
176
     1
 90
       50
176
     1
 40
0.0
176
     1
 40
1.0
176
     1
 90
        0
176
     1
 62
    18
420
        0
176
     1
 90
       50
176
     1
 90
        3
176
     1
 62
     5
420
      255
176
     1
290
     0
176
     1
 90
       50
176
     1
 90
       50
176
     1
 90
       50
176
     1
290
     0
176
     1
 90
       50
176
     1
 62
   256
176
     0
 40
1.0
176
     0
 90
        2
176
     1
  1
strokes_ogs.tif
176
     1
290
     0
176
     1
 40
1.0
176
     1
 40
1.0
176
     1
  0
VISUALSTYLE
  5
3E1
102
{ACAD_REACTORS
330
3CF
102
}
330
3CF
100
AcDbVisualStyle
  2
OverhangOff
 70
    21
177
     3
291
     1
 70
    58
 90
        2
176
     0
 90
        2
176
     0
 90
        0
176
     0
 90
        0
176
     0
 40
0.6
176
     0
 40
30.0
176
     0
 62
     7
420
 16777215
176
     0
 90
        1
176
     0
 90
        4
176
     0
 62
     7
176
     0
 62
   257
176
     0
 90
        1
176
     0
 90
        1
176
     0
 40
1.0
176
     0
 90
        9
176
     2
 62
     7
176
     0
 40
1.0
176
     0
 90
        1
176
     0
 90
        6
176
     0
 90
        2
176
     0
 62
     7
176
     0
 90
        5
176
     0
 90
        0
176
     0
 90
        0
176
     0
290
     0
176
     0
 90
        1
176
     0
 40
0.0
176
     0
 90
        0
176
     0
290
     0
176
     0
290
     1
176
     0
290
     1
176
     0
290
     0
176
     0
290
     0
176
     0
290
     0
176
     0
290
     0
176
     0
290
     0
176
     0
290
     0
176
     0
 90
       50
176
     0
 40
0.0
176
     0
 40
1.0
176
     0
 90
        0
176
     0
 62
    18
420
        0
176
     0
 90
       50
176
     0
 90
        3
176
     0
 62
     5
420
      255
176
     0
290
     0
176
     0
 90
       50
176
     0
 90
       50
176
     0
 90
       50
176
     0
290
     0
176
     0
 90
       50
176
     0
 62
   256
176
     0
 40
1.0
176
     0
 90
        2
176
     0
  1
strokes_ogs.tif
176
     0
290
     0
176
     0
 40
1.0
176
     0
 40
1.0
176
     0
  0
VISUALSTYLE
  5
3D8
102
{ACAD_REACTORS
330
3CF
102
}
330
3CF
100
AcDbVisualStyle
  2
Realistic
 70
     8
177
     3
291
     0
 70
    58
 90
        2
176
     1
 90
        3
176
     1
 90
        0
176
     1
 90
        2
176
     1
 40
0.6
176
     1
 40
30.0
176
     1
 62
     7
420
 16777215
176
     1
 90
        0
176
     1
 90
        0
176
     1
 62
     7
176
     1
 62
   257
176
     1
 90
        1
176
     1
 90
        1
176
     1
 40
1.0
176
     1
 90
        8
176
     1
 62
   257
176
     1
 40
1.0
176
     1
 90
        1
176
     1
 90
        6
176
     1
 90
        2
176
     1
 62
     7
176
     1
 90
        3
176
     1
 90
        0
176
     1
 90
        0
176
     1
290
     0
176
     1
 90
       13
176
     1
 40
0.0
176
     1
 90
        0
176
     1
290
     0
176
     1
290
     1
176
     1
290
     1
176
     1
290
     0
176
     1
290
     0
176
     1
290
     0
176
     1
290
     0
176
     1
290
     0
176
     1
290
     0
176
     1
 90
       50
176
     1
 40
0.0
176
     1
 40
1.0
176
     1
 90
        0
176
     1
 62
    18
420
        0
176
     1
 90
       50
176
     1
 90
        3
176
     1
 62
     5
420
      255
176
     1
290
     0
176
     1
 90
       50
176
     1
 90
       50
176
     1
 90
       50
176
     1
290
     0
176
     1
 90
       50
176
     1
 62
   256
176
     0
 40
1.0
176
     0
 90
        2
176
     1
  1
strokes_ogs.tif
176
     1
290
     0
176
     1
 40
1.0
176
     1
 40
1.0
176
     1
  0
VISUALSTYLE
  5
3E7
102
{ACAD_REACTORS
330
3CF
102
}
330
3CF
100
AcDbVisualStyle
  2
Shaded
 70
    27
177
     3
291
     0
 70
    58
 90
        2
176
     1
 90
        2
176
     1
 90
        1
176
     1
 90
        2
176
     1
 40
0.6
176
     1
 40
30.0
176
     1
 62
     7
420
 16777215
176
     1
 90
        0
176
     1
 90
        4
176
     1
 62
     7
176
     1
 62
   257
176
     1
 90
        1
176
     1
 90
        1
176
     1
 40
1.0
176
     1
 90
        8
176
     1
 62
   257
176
     1
 40
1.0
176
     1
 90
        1
176
     1
 90
        6
176
     1
 90
        2
176
     1
 62
     8
420
  7895160
176
     1
 90
        3
176
     1
 90
        0
176
     1
 90
        0
176
     1
290
     0
176
     1
 90
        5
176
     1
 40
0.0
176
     1
 90
        0
176
     1
290
     0
176
     1
290
     1
176
     1
290
     1
176
     1
290
     0
176
     1
290
     0
176
     1
290
     0
176
     1
290
     0
176
     1
290
     0
176
     1
290
     0
176
     1
 90
       50
176
     1
 40
0.0
176
     1
 40
1.0
176
     1
 90
        0
176
     1
 62
    18
420
        0
176
     1
 90
       50
176
     1
 90
        3
176
     1
 62
     5
420
      255
176
     1
290
     0
176
     1
 90
       50
176
     1
 90
       50
176
     1
 90
       50
176
     1
290
     0
176
     1
 90
       50
176
     1
 62
   256
176
     0
 40
1.0
176
     0
 90
        2
176
     1
  1
strokes_ogs.tif
176
     1
290
     0
176
     1
 40
1.0
176
     1
 40
1.0
176
     1
  0
VISUALSTYLE
  5
3E6
102
{ACAD_REACTORS
330
3CF
102
}
330
3CF
100
AcDbVisualStyle
  2
Shaded with edges
 70
    26
177
     3
291
     0
 70
    58
 90
        2
176
     1
 90
        2
176
     1
 90
        1
176
     1
 90
        2
176
     1
 40
0.6
176
     1
 40
30.0
176
     1
 62
     7
420
 16777215
176
     1
 90
        1
176
     1
 90
       10
176
     1
 62
     7
176
     1
 62
   257
176
     1
 90
        2
176
     1
 90
        1
176
     1
 40
1.0
176
     1
 90
        8
176
     1
 62
   257
176
     1
 40
1.0
176
     1
 90
        1
176
     1
 90
        6
176
     1
 90
        2
176
     1
 62
     7
176
     1
 90
        3
176
     1
 90
        0
176
     1
 90
        0
176
     1
290
     0
176
     1
 90
        5
176
     1
 40
0.0
176
     1
 90
        0
176
     1
290
     0
176
     1
290
     1
176
     1
290
     1
176
     1
290
     0
176
     1
290
     0
176
     1
290
     0
176
     1
290
     0
176
     1
290
     0
176
     1
290
     0
176
     1
 90
       50
176
     1
 40
0.0
176
     1
 40
1.0
176
     1
 90
        0
176
     1
 62
    18
420
        0
176
     1
 90
       50
176
     1
 90
        3
176
     1
 62
     5
420
      255
176
     1
290
     0
176
     1
 90
       50
176
     1
 90
       50
176
     1
 90
       50
176
     1
290
     0
176
     1
 90
       50
176
     1
 62
   256
176
     0
 40
1.0
176
     0
 90
        2
176
     1
  1
strokes_ogs.tif
176
     1
290
     0
176
     1
 40
1.0
176
     1
 40
1.0
176
     1
  0
VISUALSTYLE
  5
3E3
102
{ACAD_REACTORS
330
3CF
102
}
330
3CF
100
AcDbVisualStyle
  2
Shades of Gray
 70
    23
177
     3
291
     0
 70
    58
 90
        2
176
     1
 90
        2
176
     1
 90
        3
176
     1
 90
        0
176
     1
 40
0.6
176
     1
 40
30.0
176
     1
 62
     7
420
 16777215
176
     1
 90
        2
176
     1
 90
        2
176
     1
 62
     7
176
     1
 62
     7
176
     1
 90
        1
176
     1
 90
        1
176
     1
 40
40.0
176
     1
 90
        8
176
     1
 62
     7
176
     1
 40
1.0
176
     1
 90
        1
176
     1
 90
        6
176
     1
 90
        2
176
     1
 62
     7
176
     1
 90
        3
176
     1
 90
        0
176
     1
 90
        0
176
     1
290
     0
176
     1
 90
        1
176
     1
 40
0.0
176
     1
 90
        0
176
     1
290
     0
176
     1
290
     1
176
     1
290
     1
176
     1
290
     0
176
     1
290
     0
176
     1
290
     0
176
     1
290
     0
176
     1
290
     0
176
     1
290
     0
176
     1
 90
       50
176
     1
 40
0.0
176
     1
 40
1.0
176
     1
 90
        0
176
     1
 62
    18
420
        0
176
     1
 90
       50
176
     1
 90
        3
176
     1
 62
     5
420
      255
176
     1
290
     0
176
     1
 90
       50
176
     1
 90
       50
176
     1
 90
       50
176
     1
290
     0
176
     1
 90
       50
176
     1
 62
   256
176
     0
 40
1.0
176
     0
 90
        2
176
     1
  1
strokes_ogs.tif
176
     1
290
     0
176
     1
 40
1.0
176
     1
 40
1.0
176
     1
  0
VISUALSTYLE
  5
3E4
102
{ACAD_REACTORS
330
3CF
102
}
330
3CF
100
AcDbVisualStyle
  2
Sketchy
 70
    24
177
     3
291
     0
 70
    58
 90
        1
176
     1
 90
        2
176
     1
 90
        2
176
     1
 90
        0
176
     1
 40
0.6
176
     1
 40
30.0
176
     1
 62
     7
420
 16777215
176
     1
 90
        2
176
     1
 90
        2
176
     1
 62
     7
176
     1
 62
     7
176
     1
 90
        1
176
     1
 90
        1
176
     1
 40
40.0
176
     1
 90
       11
176
     1
 62
     7
176
     1
 40
1.0
176
     1
 90
        1
176
     1
 90
        6
176
     1
 90
        2
176
     1
 62
     7
176
     1
 90
        6
176
     1
 90
        0
176
     1
 90
        0
176
     1
290
     0
176
     1
 90
        1
176
     1
 40
0.0
176
     1
 90
        0
176
     1
290
     0
176
     1
290
     1
176
     1
290
     1
176
     1
290
     0
176
     1
290
     0
176
     1
290
     0
176
     1
290
     0
176
     1
290
     0
176
     1
290
     0
176
     1
 90
       50
176
     1
 40
0.0
176
     1
 40
1.0
176
     1
 90
        0
176
     1
 62
    18
420
        0
176
     1
 90
       50
176
     1
 90
        3
176
     1
 62
     5
420
      255
176
     1
290
     0
176
     1
 90
       50
176
     1
 90
       50
176
     1
 90
       50
176
     1
290
     0
176
     1
 90
       50
176
     1
 62
   256
176
     0
 40
1.0
176
     0
 90
        2
176
     1
  1
strokes_ogs.tif
176
     1
290
     0
176
     1
 40
1.0
176
     1
 40
1.0
176
     1
  0
VISUALSTYLE
  5
3DC
102
{ACAD_REACTORS
330
3CF
102
}
330
3CF
100
AcDbVisualStyle
  2
Thicken
 70
    13
177
     3
291
     1
 70
    58
 90
        2
176
     1
 90
        2
176
     1
 90
        0
176
     1
 90
        0
176
     1
 40
0.6
176
     1
 40
30.0
176
     1
 62
     7
420
 16777215
176
     1
 90
        1
176
     1
 90
        4
176
     1
 62
     7
176
     1
 62
   257
176
     1
 90
        1
176
     1
 90
        1
176
     1
 40
1.0
176
     1
 90
       12
176
     1
 62
     7
176
     1
 40
1.0
176
     1
 90
        1
176
     1
 90
        6
176
     1
 90
        2
176
     1
 62
     7
176
     1
 90
        5
176
     1
 90
        0
176
     1
 90
        0
176
     1
290
     0
176
     1
 90
        1
176
     1
 40
0.0
176
     1
 90
        0
176
     1
290
     0
176
     1
290
     1
176
     1
290
     1
176
     1
290
     0
176
     1
290
     0
176
     1
290
     0
176
     1
290
     0
176
     1
290
     0
176
     1
290
     0
176
     1
 90
       50
176
     1
 40
0.0
176
     1
 40
1.0
176
     1
 90
        0
176
     1
 62
    18
420
        0
176
     1
 90
       50
176
     1
 90
        3
176
     1
 62
     5
420
      255
176
     1
290
     0
176
     1
 90
       50
176
     1
 90
       50
176
     1
 90
       50
176
     1
290
     0
176
     1
 90
       50
176
     1
 62
   256
176
     0
 40
1.0
176
     0
 90
        2
176
     1
  1
strokes_ogs.tif
176
     1
290
     0
176
     1
 40
1.0
176
     1
 40
1.0
176
     1
  0
VISUALSTYLE
  5
3D5
102
{ACAD_REACTORS
330
3CF
102
}
330
3CF
100
AcDbVisualStyle
  2
Wireframe
 70
     5
177
     3
291
     0
 70
    58
 90
        0
176
     1
 90
        2
176
     1
 90
        0
176
     1
 90
        0
176
     1
 40
0.6
176
     1
 40
30.0
176
     1
 62
     7
420
 16777215
176
     1
 90
        1
176
     1
 90
        4
176
     1
 62
     7
176
     1
 62
   257
176
     1
 90
        1
176
     1
 90
        1
176
     1
 40
1.0
176
     1
 90
        0
176
     1
 62
   257
176
     1
 40
1.0
176
     1
 90
        1
176
     1
 90
        6
176
     1
 90
        2
176
     1
 62
     7
176
     1
 90
        3
176
     1
 90
        0
176
     1
 90
        0
176
     1
290
     0
176
     1
 90
        1
176
     1
 40
0.0
176
     1
 90
        0
176
     1
290
     0
176
     1
290
     1
176
     1
290
     1
176
     1
290
     0
176
     1
290
     0
176
     1
290
     0
176
     1
290
     0
176
     1
290
     0
176
     1
290
     0
176
     1
 90
       50
176
     1
 40
0.0
176
     1
 40
1.0
176
     1
 90
        0
176
     1
 62
    18
420
        0
176
     1
 90
       50
176
     1
 90
        3
176
     1
 62
     5
420
      255
176
     1
290
     0
176
     1
 90
       50
176
     1
 90
       50
176
     1
 90
       50
176
     1
290
     0
176
     1
 90
       50
176
     1
 62
   256
176
     0
 40
1.0
176
     0
 90
        2
176
     1
  1
strokes_ogs.tif
176
     1
290
     0
176
     1
 40
1.0
176
     1
 40
1.0
176
     1
  0
VISUALSTYLE
  5
3E5
102
{ACAD_REACTORS
330
3CF
102
}
330
3CF
100
AcDbVisualStyle
  2
X-Ray
 70
    25
177
     3
291
     0
 70
    58
 90
        2
176
     1
 90
        2
176
     1
 90
        1
176
     1
 90
        1
176
     1
 40
0.5
176
     1
 40
30.0
176
     1
 62
     7
420
 16777215
176
     1
 90
        1
176
     1
 90
        0
176
     1
 62
     7
176
     1
 62
   257
176
     1
 90
        1
176
     1
 90
        1
176
     1
 40
1.0
176
     1
 90
        8
176
     1
 62
     7
176
     1
 40
1.0
176
     1
 90
        1
176
     1
 90
        6
176
     1
 90
        2
176
     1
 62
     7
176
     1
 90
        3
176
     1
 90
        0
176
     1
 90
        0
176
     1
290
     0
176
     1
 90
       13
176
     1
 40
0.0
176
     1
 90
        0
176
     1
290
     0
176
     1
290
     1
176
     1
290
     1
176
     1
290
     0
176
     1
290
     0
176
     1
290
     0
176
     1
290
     0
176
     1
290
     0
176
     1
290
     0
176
     1
 90
       50
176
     1
 40
0.0
176
     1
 40
1.0
176
     1
 90
        0
176
     1
 62
    18
420
        0
176
     1
 90
       50
176
     1
 90
        3
176
     1
 62
     5
420
      255
176
     1
290
     0
176
     1
 90
       50
176
     1
 90
       50
176
     1
 90
       50
176
     1
290
     0
176
     1
 90
       50
176
     1
 62
   256
176
     0
 40
1.0
176
     0
 90
        2
176
     1
  1
strokes_ogs.tif
176
     1
290
     0
176
     1
 40
1.0
176
     1
 40
1.0
176
     1
  0
DICTIONARYVAR
  5
3F2
102
{ACAD_REACTORS
330
3F1
102
}
330
3F1
100
DictionaryVariables
280
     0
  1
1:1
  0
DICTIONARYVAR
  5
3F7
102
{ACAD_REACTORS
330
3F1
102
}
330
3F1
100
DictionaryVariables
280
     0
  1
Standard
  0
DICTIONARYVAR
  5
3F6
102
{ACAD_REACTORS
330
3F1
102
}
330
3F1
100
DictionaryVariables
280
     0
  1
Standard
  0
DICTIONARYVAR
  5
3F8
102
{ACAD_REACTORS
330
3F1
102
}
330
3F1
100
DictionaryVariables
280
     0
  1
0
  0
DICTIONARY
  5
3F3
330
3ED
100
AcDbDictionary
280
     1
281
     1
  3
ACAD_ROUNDTRIP_2008_TABLESTYLE_CELLSTYLEMAP
360
3F4
  0
CELLSTYLEMAP
  5
3F4
102
{ACAD_REACTORS
330
3F3
102
}
330
3F3
100
AcDbCellStyleMap
 90
        3
300
CELLSTYLE
  1
TABLEFORMAT_BEGIN
 90
        5
170
     1
 91
        0
 92
    32768
 62
   257
 93
        1
300
CONTENTFORMAT
  1
CONTENTFORMAT_BEGIN
 90
        0
 91
        0
 92
        4
 93
        0
300

 40
0.0
140
1.0
 94
        5
 62
     0
340
11
144
6.0
309
CONTENTFORMAT_END
171
     1
301
MARGIN
  1
CELLMARGIN_BEGIN
 40
1.5
 40
1.5
 40
1.5
 40
1.5
 40
1.5
 40
1.5
309
CELLMARGIN_END
 94
        6
 95
        1
302
GRIDFORMAT
  1
GRIDFORMAT_BEGIN
 90
        0
 91
        1
 62
     0
 92
       -2
340
14
 93
        0
 40
0.045
309
GRIDFORMAT_END
 95
        2
302
GRIDFORMAT
  1
GRIDFORMAT_BEGIN
 90
        0
 91
        1
 62
     0
 92
       -2
340
14
 93
        0
 40
0.045
309
GRIDFORMAT_END
 95
        4
302
GRIDFORMAT
  1
GRIDFORMAT_BEGIN
 90
        0
 91
        1
 62
     0
 92
       -2
340
14
 93
        0
 40
0.045
309
GRIDFORMAT_END
 95
        8
302
GRIDFORMAT
  1
GRIDFORMAT_BEGIN
 90
        0
 91
        1
 62
     0
 92
       -2
340
14
 93
        0
 40
0.045
309
GRIDFORMAT_END
 95
       16
302
GRIDFORMAT
  1
GRIDFORMAT_BEGIN
 90
        0
 91
        1
 62
     0
 92
       -2
340
14
 93
        0
 40
0.045
309
GRIDFORMAT_END
 95
       32
302
GRIDFORMAT
  1
GRIDFORMAT_BEGIN
 90
        0
 91
        1
 62
     0
 92
       -2
340
14
 93
        0
 40
0.045
309
GRIDFORMAT_END
309
TABLEFORMAT_END
  1
CELLSTYLE_BEGIN
 90
        1
 91
        1
300
_TITLE
309
CELLSTYLE_END
300
CELLSTYLE
  1
TABLEFORMAT_BEGIN
 90
        5
170
     1
 91
        0
 92
        0
 62
   257
 93
        1
300
CONTENTFORMAT
  1
CONTENTFORMAT_BEGIN
 90
        0
 91
        0
 92
        4
 93
        0
300

 40
0.0
140
1.0
 94
        5
 62
     0
340
11
144
4.5
309
CONTENTFORMAT_END
171
     1
301
MARGIN
  1
CELLMARGIN_BEGIN
 40
1.5
 40
1.5
 40
1.5
 40
1.5
 40
1.5
 40
1.5
309
CELLMARGIN_END
 94
        6
 95
        1
302
GRIDFORMAT
  1
GRIDFORMAT_BEGIN
 90
        0
 91
        1
 62
     0
 92
       -2
340
14
 93
        0
 40
0.045
309
GRIDFORMAT_END
 95
        2
302
GRIDFORMAT
  1
GRIDFORMAT_BEGIN
 90
        0
 91
        1
 62
     0
 92
       -2
340
14
 93
        0
 40
0.045
309
GRIDFORMAT_END
 95
        4
302
GRIDFORMAT
  1
GRIDFORMAT_BEGIN
 90
        0
 91
        1
 62
     0
 92
       -2
340
14
 93
        0
 40
0.045
309
GRIDFORMAT_END
 95
        8
302
GRIDFORMAT
  1
GRIDFORMAT_BEGIN
 90
        0
 91
        1
 62
     0
 92
       -2
340
14
 93
        0
 40
0.045
309
GRIDFORMAT_END
 95
       16
302
GRIDFORMAT
  1
GRIDFORMAT_BEGIN
 90
        0
 91
        1
 62
     0
 92
       -2
340
14
 93
        0
 40
0.045
309
GRIDFORMAT_END
 95
       32
302
GRIDFORMAT
  1
GRIDFORMAT_BEGIN
 90
        0
 91
        1
 62
     0
 92
       -2
340
14
 93
        0
 40
0.045
309
GRIDFORMAT_END
309
TABLEFORMAT_END
  1
CELLSTYLE_BEGIN
 90
        2
 91
        1
300
_HEADER
309
CELLSTYLE_END
300
CELLSTYLE
  1
TABLEFORMAT_BEGIN
 90
        5
170
     1
 91
        0
 92
        0
 62
   257
 93
        1
300
CONTENTFORMAT
  1
CONTENTFORMAT_BEGIN
 90
        0
 91
        0
 92
        4
 93
        0
300

 40
0.0
140
1.0
 94
        2
 62
     0
340
11
144
4.5
309
CONTENTFORMAT_END
171
     1
301
MARGIN
  1
CELLMARGIN_BEGIN
 40
1.5
 40
1.5
 40
1.5
 40
1.5
 40
1.5
 40
1.5
309
CELLMARGIN_END
 94
        6
 95
        1
302
GRIDFORMAT
  1
GRIDFORMAT_BEGIN
 90
        0
 91
        1
 62
     0
 92
       -2
340
14
 93
        0
 40
0.045
309
GRIDFORMAT_END
 95
        2
302
GRIDFORMAT
  1
GRIDFORMAT_BEGIN
 90
        0
 91
        1
 62
     0
 92
       -2
340
14
 93
        0
 40
0.045
309
GRIDFORMAT_END
 95
        4
302
GRIDFORMAT
  1
GRIDFORMAT_BEGIN
 90
        0
 91
        1
 62
     0
 92
       -2
340
14
 93
        0
 40
0.045
309
GRIDFORMAT_END
 95
        8
302
GRIDFORMAT
  1
GRIDFORMAT_BEGIN
 90
        0
 91
        1
 62
     0
 92
       -2
340
14
 93
        0
 40
0.045
309
GRIDFORMAT_END
 95
       16
302
GRIDFORMAT
  1
GRIDFORMAT_BEGIN
 90
        0
 91
        1
 62
     0
 92
       -2
340
14
 93
        0
 40
0.045
309
GRIDFORMAT_END
 95
       32
302
GRIDFORMAT
  1
GRIDFORMAT_BEGIN
 90
        0
 91
        1
 62
     0
 92
       -2
340
14
 93
        0
 40
0.045
309
GRIDFORMAT_END
309
TABLEFORMAT_END
  1
CELLSTYLE_BEGIN
 90
        3
 91
        2
300
_DATA
309
CELLSTYLE_END
  0
ENDSEC
  0
EOF
