  0
SECTION
  2
HEADER
  9
$ACADVER
  1
AC1024
  9
$ACADMAINTVER
 70
     6
  9
$DWGCODEPAGE
  3
ANSI_1252
  9
$INSBASE
 10
0.0
 20
0.0
 30
0.0
  9
$EXTMIN
 10
0.0
 20
0.0
 30
0.0
  9
$EXTMAX
 10
594.0
 20
420.0
 30
0.0
  9
$LIMMIN
 10
0.0
 20
0.0
  9
$LIMMAX
 10
594.0
 20
420.0
  9
$ORTHOMODE
 70
     0
  9
$REGENMODE
 70
     1
  9
$FILLMODE
 70
     1
  9
$QTEXTMODE
 70
     0
  9
$MIRRTEXT
 70
     1
  9
$LTSCALE
 40
32.67
  9
$ATTMODE
 70
     1
  9
$TEXTSIZE
 40
0.2
  9
$TRACEWID
 40
0.05
  9
$TEXTSTYLE
  7
STANDARD
  9
$CLAYER
  8
0
  9
$CELTYPE
  6
BYLAYER
  9
$CECOLOR
 62
   256
  9
$CELTSCALE
 40
1.0
  9
$DISPSILH
 70
     0
  9
$DIMSCALE
 40
1.0
  9
$DIMASZ
 40
2.5
  9
$DIMEXO
 40
0.75
  9
$DIMDLI
 40
22.572
  9
$DIMRND
 40
0.0
  9
$DIMDLE
 40
0.0
  9
$DIMEXE
 40
0.75
  9
$DIMTP
 40
0.01
  9
$DIMTM
 40
0.01
  9
$DIMTXT
 40
3.0
  9
$DIMCEN
 40
5.346
  9
$DIMTSZ
 40
0.0
  9
$DIMTOL
 70
     1
  9
$DIMLIM
 70
     0
  9
$DIMTIH
 70
     1
  9
$DIMTOH
 70
     1
  9
$DIMSE1
 70
     0
  9
$DIMSE2
 70
     0
  9
$DIMTAD
 70
     0
  9
$DIMZIN
 70
     0
  9
$DIMBLK
  1
CLOSED
  9
$DIMASO
 70
     1
  9
$DIMSHO
 70
     1
  9
$DIMPOST
  1

  9
$DIMAPOST
  1

  9
$DIMALT
 70
     0
  9
$DIMALTD
 70
     2
  9
$DIMALTF
 40
25.4
  9
$DIMLFAC
 40
1.0
  9
$DIMTOFL
 70
     0
  9
$DIMTVP
 40
0.0
  9
$DIMTIX
 70
     0
  9
$DIMSOXD
 70
     0
  9
$DIMSAH
 70
     0
  9
$DIMBLK1
  1

  9
$DIMBLK2
  1

  9
$DIMSTYLE
  2
STANDARD
  9
$DIMCLRD
 70
     0
  9
$DIMCLRE
 70
     0
  9
$DIMCLRT
 70
     0
  9
$DIMTFAC
 40
1.0
  9
$DIMGAP
 40
0.625
  9
$DIMJUST
 70
     0
  9
$DIMSD1
 70
     0
  9
$DIMSD2
 70
     0
  9
$DIMTOLJ
 70
     1
  9
$DIMTZIN
 70
     0
  9
$DIMALTZ
 70
     0
  9
$DIMALTTZ
 70
     0
  9
$DIMUPT
 70
     0
  9
$DIMDEC
 70
     4
  9
$DIMTDEC
 70
     4
  9
$DIMALTU
 70
     2
  9
$DIMALTTD
 70
     2
  9
$DIMTXSTY
  7
STANDARD
  9
$DIMAUNIT
 70
     0
  9
$DIMADEC
 70
     0
  9
$DIMALTRND
 40
0.0
  9
$DIMAZIN
 70
     0
  9
$DIMDSEP
 70
    44
  9
$DIMATFIT
 70
     3
  9
$DIMFRAC
 70
     0
  9
$DIMLDRBLK
  1

  9
$DIMLUNIT
 70
     2
  9
$DIMLWD
 70
    -2
  9
$DIMLWE
 70
    -2
  9
$DIMTMOVE
 70
     0
  9
$DIMFXL
 40
1.0
  9
$DIMFXLON
 70
     0
  9
$DIMJOGANG
 40
0.785398
  9
$DIMTFILL
 70
     0
  9
$DIMTFILLCLR
 70
     0
  9
$DIMARCSYM
 70
     0
  9
$DIMLTYPE
  6

  9
$DIMLTEX1
  6

  9
$DIMLTEX2
  6

  9
$DIMTXTDIRECTION
 70
     0
  9
$LUNITS
 70
     2
  9
$LUPREC
 70
     4
  9
$SKETCHINC
 40
0.1
  9
$FILLETRAD
 40
0.5
  9
$AUNITS
 70
     0
  9
$AUPREC
 70
     0
  9
$MENU
  1
.
  9
$ELEVATION
 40
0.0
  9
$PELEVATION
 40
0.0
  9
$THICKNESS
 40
0.0
  9
$LIMCHECK
 70
     0
  9
$CHAMFERA
 40
0.0
  9
$CHAMFERB
 40
0.0
  9
$CHAMFERC
 40
0.0
  9
$CHAMFERD
 40
0.0
  9
$SKPOLY
 70
     0
  9
$TDCREATE
 40
2447893.083333333
  9
$TDUCREATE
 40
0.0
  9
$TDUPDATE
 40
2459766.605703055
  9
$TDUUPDATE
 40
2459766.522369722
  9
$TDINDWG
 40
0.0
  9
$TDUSRTIMER
 40
0.0
  9
$USRTIMER
 70
     1
  9
$ANGBASE
 50
0.0
  9
$ANGDIR
 70
     0
  9
$PDMODE
 70
     3
  9
$PDSIZE
 40
0.3125
  9
$PLINEWID
 40
0.0
  9
$SPLFRAME
 70
     0
  9
$SPLINETYPE
 70
     6
  9
$SPLINESEGS
 70
     8
  9
$HANDSEED
  5
4FA
  9
$SURFTAB1
 70
     6
  9
$SURFTAB2
 70
     6
  9
$SURFTYPE
 70
     6
  9
$SURFU
 70
     6
  9
$SURFV
 70
     6
  9
$UCSBASE
  2

  9
$UCSNAME
  2

  9
$UCSORG
 10
0.0
 20
0.0
 30
0.0
  9
$UCSXDIR
 10
1.0
 20
0.0
 30
0.0
  9
$UCSYDIR
 10
0.0
 20
1.0
 30
0.0
  9
$UCSORTHOREF
  2

  9
$UCSORTHOVIEW
 70
     0
  9
$UCSORGTOP
 10
0.0
 20
0.0
 30
0.0
  9
$UCSORGBOTTOM
 10
0.0
 20
0.0
 30
0.0
  9
$UCSORGLEFT
 10
0.0
 20
0.0
 30
0.0
  9
$UCSORGRIGHT
 10
0.0
 20
0.0
 30
0.0
  9
$UCSORGFRONT
 10
0.0
 20
0.0
 30
0.0
  9
$UCSORGBACK
 10
0.0
 20
0.0
 30
0.0
  9
$PUCSBASE
  2

  9
$PUCSNAME
  2

  9
$PUCSORG
 10
0.0
 20
0.0
 30
0.0
  9
$PUCSXDIR
 10
1.0
 20
0.0
 30
0.0
  9
$PUCSYDIR
 10
0.0
 20
1.0
 30
0.0
  9
$PUCSORTHOREF
  2

  9
$PUCSORTHOVIEW
 70
     0
  9
$PUCSORGTOP
 10
0.0
 20
0.0
 30
0.0
  9
$PUCSORGBOTTOM
 10
0.0
 20
0.0
 30
0.0
  9
$PUCSORGLEFT
 10
0.0
 20
0.0
 30
0.0
  9
$PUCSORGRIGHT
 10
0.0
 20
0.0
 30
0.0
  9
$PUCSORGFRONT
 10
0.0
 20
0.0
 30
0.0
  9
$PUCSORGBACK
 10
0.0
 20
0.0
 30
0.0
  9
$USERI1
 70
     0
  9
$USERI2
 70
     0
  9
$USERI3
 70
     0
  9
$USERI4
 70
     0
  9
$USERI5
 70
     0
  9
$USERR1
 40
0.0
  9
$USERR2
 40
0.0
  9
$USERR3
 40
0.0
  9
$USERR4
 40
0.0
  9
$USERR5
 40
0.0
  9
$WORLDVIEW
 70
     1
  9
$SHADEDGE
 70
     3
  9
$SHADEDIF
 70
    70
  9
$TILEMODE
 70
     1
  9
$MAXACTVP
 70
    64
  9
$PINSBASE
 10
0.0
 20
0.0
 30
0.0
  9
$PLIMCHECK
 70
     0
  9
$PEXTMIN
 10
1.000000E+20
 20
1.000000E+20
 30
1.000000E+20
  9
$PEXTMAX
 10
-1.000000E+20
 20
-1.000000E+20
 30
-1.000000E+20
  9
$PLIMMIN
 10
0.0
 20
0.0
  9
$PLIMMAX
 10
12.0
 20
9.0
  9
$UNITMODE
 70
     0
  9
$VISRETAIN
 70
     1
  9
$PLINEGEN
 70
     0
  9
$PSLTSCALE
 70
     0
  9
$TREEDEPTH
 70
  3020
  9
$CMLSTYLE
  2

  9
$CMLJUST
 70
     0
  9
$CMLSCALE
 40
1.0
  9
$PROXYGRAPHICS
 70
     1
  9
$MEASUREMENT
 70
     1
  9
$CELWEIGHT
370
    -1
  9
$ENDCAPS
280
     0
  9
$JOINSTYLE
280
     0
  9
$LWDISPLAY
290
     0
  9
$INSUNITS
 70
     4
  9
$HYPERLINKBASE
  1

  9
$STYLESHEET
  1

  9
$XEDIT
290
     1
  9
$CEPSNTYPE
380
     0
  9
$PSTYLEMODE
290
     1
  9
$FINGERPRINTGUID
  2
{1FFDF881-7542-4189-A835-C5BD284C4247}
  9
$VERSIONGUID
  2
{FAEB1C32-E019-11D5-929B-00C0DF256EC4}
  9
$EXTNAMES
290
     1
  9
$PSVPSCALE
 40
0.0
  9
$OLESTARTUP
290
     0
  9
$SORTENTS
280
   127
  9
$INDEXCTL
280
     0
  9
$HIDETEXT
280
     1
  9
$XCLIPFRAME
280
     2
  9
$HALOGAP
280
     0
  9
$OBSCOLOR
 70
   257
  9
$OBSLTYPE
280
     0
  9
$INTERSECTIONDISPLAY
280
     0
  9
$INTERSECTIONCOLOR
 70
   257
  9
$DIMASSOC
280
     2
  9
$PROJECTNAME
  1

  9
$CAMERADISPLAY
290
     0
  9
$LENSLENGTH
 40
50.0
  9
$CAMERAHEIGHT
 40
0.0
  9
$STEPSPERSEC
 40
2.0
  9
$STEPSIZE
 40
6.0
  9
$3DDWFPREC
 40
2.0
  9
$PSOLWIDTH
 40
0.25
  9
$PSOLHEIGHT
 40
4.0
  9
$LOFTANG1
 40
1.570796
  9
$LOFTANG2
 40
1.570796
  9
$LOFTMAG1
 40
0.0
  9
$LOFTMAG2
 40
0.0
  9
$LOFTPARAM
 70
     7
  9
$LOFTNORMALS
280
     1
  9
$LATITUDE
 40
37.795
  9
$LONGITUDE
 40
-122.394
  9
$NORTHDIRECTION
 40
0.0
  9
$TIMEZONE
 70
 -8000
  9
$LIGHTGLYPHDISPLAY
280
     1
  9
$TILEMODELIGHTSYNCH
280
     1
  9
$SOLIDHIST
280
     1
  9
$SHOWHIST
280
     1
  9
$DWFFRAME
280
     2
  9
$DGNFRAME
280
     2
  9
$REALWORLDSCALE
290
     1
  9
$INTERFERECOLOR
 62
   256
  9
$CSHADOW
280
     0
  9
$SHADOWPLANELOCATION
 40
0.0
  0
ENDSEC
  0
SECTION
  2
CLASSES
  0
CLASS
  1
ACDBDICTIONARYWDFLT
  2
AcDbDictionaryWithDefault
  3
ObjectDBX Classes
 90
        0
 91
        6
280
     0
281
     0
  0
CLASS
  1
ACDBPLACEHOLDER
  2
AcDbPlaceHolder
  3
ObjectDBX Classes
 90
        0
 91
        1
280
     0
281
     0
  0
CLASS
  1
LAYOUT
  2
AcDbLayout
  3
ObjectDBX Classes
 90
        0
 91
        1
280
     0
281
     0
  0
CLASS
  1
TABLESTYLE
  2
AcDbTableStyle
  3
ObjectDBX Classes
 90
     4095
 91
        5
280
     0
281
     0
  0
CLASS
  1
ACAD_TABLE
  2
AcDbTable
  3
ObjectDBX Classes
 90
     1025
 91
        5
280
     0
281
     1
  0
CLASS
  1
SCALE
  2
AcDbScale
  3
ObjectDBX Classes
 90
     1153
 91
        5
280
     0
281
     0
  0
CLASS
  1
TABLEGEOMETRY
  2
AcDbTableGeometry
  3
ObjectDBX Classes
 90
     1152
 91
        4
280
     0
281
     0
  0
CLASS
  1
VISUALSTYLE
  2
AcDbVisualStyle
  3
ObjectDBX Classes
 90
     4095
 91
        5
280
     0
281
     0
  0
CLASS
  1
MATERIAL
  2
AcDbMaterial
  3
ObjectDBX Classes
 90
     1153
 91
        5
280
     0
281
     0
  0
CLASS
  1
SUN
  2
AcDbSun
  3
SCENEOE
 90
     1153
 91
        5
280
     0
281
     0
  0
CLASS
  1
CSACDOCUMENTOPTIONS
  2
CDocDataContainer
  3
"DERU003_CSAPP"
 90
     4095
 91
        4
280
     0
281
     0
  0
CLASS
  1
TABLECONTENT
  2
AcDbTableContent
  3
ObjectDBX Classes
 90
     1152
 91
        4
280
     0
281
     0
  0
CLASS
  1
DICTIONARYVAR
  2
AcDbDictionaryVar
  3
ObjectDBX Classes
 90
        0
 91
        4
280
     0
281
     0
  0
CLASS
  1
CELLSTYLEMAP
  2
AcDbCellStyleMap
  3
ObjectDBX Classes
 90
     1152
 91
        4
280
     0
281
     0
  0
ENDSEC
  0
SECTION
  2
TABLES
  0
TABLE
  2
VPORT
  5
8
330
0
100
AcDbSymbolTable
 70
     1
  0
VPORT
  5
1F4
330
8
100
AcDbSymbolTableRecord
100
AcDbViewportTableRecord
  2
*ACTIVE
 70
     0
 10
0.0
 20
0.0
 11
1.0
 21
1.0
 12
297.0
 22
210.0
 13
0.0
 23
0.0
 14
1.0
 24
1.0
 15
0.0
 25
0.0
 16
0.0
 26
0.0
 36
1.0
 17
0.0
 27
0.0
 37
0.0
 40
420.0
 41
2.176471
 42
50.0
 43
0.0
 44
0.0
 50
0.0
 51
0.0
 71
    16
 72
   100
 73
     1
 74
     1
 75
     0
 76
     0
 77
     0
 78
     0
281
     0
 65
     1
110
0.0
120
0.0
130
0.0
111
1.0
121
0.0
131
0.0
112
0.0
122
1.0
132
0.0
 79
     0
146
0.0
 60
     3
 61
     5
292
     1
282
     1
141
0.0
142
0.0
 63
   256
361
4B5
  0
ENDTAB
  0
TABLE
  2
LTYPE
  5
5
330
0
100
AcDbSymbolTable
 70
     6
  0
LTYPE
  5
14
330
5
100
AcDbSymbolTableRecord
100
AcDbLinetypeTableRecord
  2
BYBLOCK
 70
     0
  3

 72
    65
 73
     0
 40
0.0
  0
LTYPE
  5
15
330
5
100
AcDbSymbolTableRecord
100
AcDbLinetypeTableRecord
  2
BYLAYER
 70
     0
  3

 72
    65
 73
     0
 40
0.0
  0
LTYPE
  5
16
330
5
100
AcDbSymbolTableRecord
100
AcDbLinetypeTableRecord
  2
CONTINUOUS
 70
     0
  3
Solid line
 72
    65
 73
     0
 40
0.0
  0
LTYPE
  5
1F5
330
5
100
AcDbSymbolTableRecord
100
AcDbLinetypeTableRecord
  2
CENTER
 70
     0
  3
____ _ ____ _ ____ _ ____ _ ____ _ ____ _ ____
 72
    65
 73
     4
 40
0.6
 49
0.375
 74
     0
 49
-0.075
 74
     0
 49
0.075
 74
     0
 49
-0.075
 74
     0
  0
LTYPE
  5
1F6
330
5
100
AcDbSymbolTableRecord
100
AcDbLinetypeTableRecord
  2
HIDDEN
 70
     0
  3
- - - - - - - - - - - - - - - - - - - -
 72
    65
 73
     2
 40
0.2
 49
0.1
 74
     0
 49
-0.1
 74
     0
  0
LTYPE
  5
1F7
330
5
100
AcDbSymbolTableRecord
100
AcDbLinetypeTableRecord
  2
PHANTOM
 70
     0
  3
_____ _ _ _____ _ _ _____ _ _ _____
 72
    65
 73
     6
 40
0.8
 49
0.45
 74
     0
 49
-0.05
 74
     0
 49
0.1
 74
     0
 49
-0.05
 74
     0
 49
0.1
 74
     0
 49
-0.05
 74
     0
  0
LTYPE
  5
1F8
330
5
100
AcDbSymbolTableRecord
100
AcDbLinetypeTableRecord
  2
DOT
 70
     0
  3
. . . . . . . . . . . . . . . . . . . .
 72
    65
 73
     2
 40
0.2
 49
0.1
 74
     0
 49
-0.1
 74
     0
  0
LTYPE
  5
1F9
330
5
100
AcDbSymbolTableRecord
100
AcDbLinetypeTableRecord
  2
DASHED
 70
     0
  3
- - - - - - - - - - - - - - - - - - - -
 72
    65
 73
     2
 40
0.2
 49
0.1
 74
     0
 49
-0.1
 74
     0
  0
ENDTAB
  0
TABLE
  2
LAYER
  5
2
330
0
100
AcDbSymbolTable
 70
    13
  0
LAYER
  5
10
330
2
100
AcDbSymbolTableRecord
100
AcDbLayerTableRecord
  2
0
 70
     0
 62
     7
  6
CONTINUOUS
370
    -3
390
F
347
4AF
  0
LAYER
  5
1FA
330
2
100
AcDbSymbolTableRecord
100
AcDbLayerTableRecord
  2
DEFAULT_1
 70
     0
 62
     7
  6
CENTER
370
    -3
390
F
347
4AF
  0
LAYER
  5
1FB
330
2
100
AcDbSymbolTableRecord
100
AcDbLayerTableRecord
  2
DEFAULT_2
 70
     0
 62
     8
  6
HIDDEN
370
    -3
390
F
347
4AF
  0
LAYER
  5
1FC
330
2
100
AcDbSymbolTableRecord
100
AcDbLayerTableRecord
  2
DEFAULT_3
 70
     0
 62
     7
  6
PHANTOM
370
    -3
390
F
347
4AF
  0
LAYER
  5
1FD
330
2
100
AcDbSymbolTableRecord
100
AcDbLayerTableRecord
  2
1_ALL_PLANES
 70
     0
 62
     7
  6
CONTINUOUS
370
    -3
390
F
347
4AF
  0
LAYER
  5
1FE
330
2
100
AcDbSymbolTableRecord
100
AcDbLayerTableRecord
  2
2_ALL_CSYS
 70
     0
 62
     7
  6
CONTINUOUS
370
    -3
390
F
347
4AF
  0
LAYER
  5
1FF
330
2
100
AcDbSymbolTableRecord
100
AcDbLayerTableRecord
  2
3_ALL_AXES
 70
     0
 62
     7
  6
CONTINUOUS
370
    -3
390
F
347
4AF
  0
LAYER
  5
200
330
2
100
AcDbSymbolTableRecord
100
AcDbLayerTableRecord
  2
4_ALL_POINTS
 70
     0
 62
     7
  6
CONTINUOUS
370
    -3
390
F
347
4AF
  0
LAYER
  5
201
330
2
100
AcDbSymbolTableRecord
100
AcDbLayerTableRecord
  2
5_ALL_CURVES
 70
     0
 62
     7
  6
CONTINUOUS
370
    -3
390
F
347
4AF
  0
LAYER
  5
202
330
2
100
AcDbSymbolTableRecord
100
AcDbLayerTableRecord
  2
6_ALL_SURFS
 70
     0
 62
     7
  6
CONTINUOUS
370
    -3
390
F
347
4AF
  0
LAYER
  5
203
330
2
100
AcDbSymbolTableRecord
100
AcDbLayerTableRecord
  2
7_ALL_FEATURES
 70
     0
 62
     7
  6
CONTINUOUS
370
    -3
390
F
347
4AF
  0
LAYER
  5
204
330
2
100
AcDbSymbolTableRecord
100
AcDbLayerTableRecord
  2
9_SOLID
 70
     0
 62
     7
  6
CONTINUOUS
370
    -3
390
F
347
4AF
  0
LAYER
  5
205
330
2
100
AcDbSymbolTableRecord
100
AcDbLayerTableRecord
  2
XXX_SOLIDO
 70
     0
 62
     7
  6
CONTINUOUS
370
    -3
390
F
347
4AF
  0
ENDTAB
  0
TABLE
  2
STYLE
  5
3
330
0
100
AcDbSymbolTable
 70
     4
  0
STYLE
  5
11
330
3
100
AcDbSymbolTableRecord
100
AcDbTextStyleTableRecord
  2
STANDARD
 70
     0
 40
0.0
 41
1.0
 50
0.0
 71
     0
 42
0.2
  3
arial.ttf
  4

  0
STYLE
  5
206
330
3
100
AcDbSymbolTableRecord
100
AcDbTextStyleTableRecord
  2
TEXTSTYLE_1
 70
     0
 40
0.0
 41
0.8
 50
0.0
 71
     0
 42
0.2
  3
gdt
  4

  0
STYLE
  5
207
330
3
100
AcDbSymbolTableRecord
100
AcDbTextStyleTableRecord
  2
TEXTSTYLE_2
 70
     0
 40
0.0
 41
0.85
 50
0.0
 71
     0
 42
0.2
  3
gdt
  4

  0
STYLE
  5
208
330
3
100
AcDbSymbolTableRecord
100
AcDbTextStyleTableRecord
  2
TEXTSTYLE_3
 70
     0
 40
0.0
 41
0.85
 50
0.0
 71
     0
 42
0.2
  3
txt
  4

  0
ENDTAB
  0
TABLE
  2
VIEW
  5
6
330
0
100
AcDbSymbolTable
 70
     0
  0
ENDTAB
  0
TABLE
  2
UCS
  5
7
330
0
100
AcDbSymbolTable
 70
     0
  0
ENDTAB
  0
TABLE
  2
APPID
  5
9
330
0
100
AcDbSymbolTable
 70
     6
  0
APPID
  5
209
330
9
100
AcDbSymbolTableRecord
100
AcDbRegAppTableRecord
  2
ACAD
 70
     0
  0
APPID
  5
4B0
330
9
100
AcDbSymbolTableRecord
100
AcDbRegAppTableRecord
  2
MCS_DIM1
 70
     0
  0
APPID
  5
4B1
330
9
100
AcDbSymbolTableRecord
100
AcDbRegAppTableRecord
  2
McsXdata5
 70
     0
  0
APPID
  5
4B4
330
9
100
AcDbSymbolTableRecord
100
AcDbRegAppTableRecord
  2
MCS_DOCUMENT_ID
 70
     0
  0
APPID
  5
4BA
330
9
100
AcDbSymbolTableRecord
100
AcDbRegAppTableRecord
  2
MCS_PARAMS_DATA
 70
     0
  0
APPID
  5
4BC
330
9
100
AcDbSymbolTableRecord
100
AcDbRegAppTableRecord
  2
MC_VERSION_DATA
 70
     0
  0
ENDTAB
  0
TABLE
  2
DIMSTYLE
  5
A
330
0
100
AcDbSymbolTable
 70
     3
100
AcDbDimStyleTable
  0
DIMSTYLE
105
211
330
A
100
AcDbSymbolTableRecord
100
AcDbDimStyleTableRecord
  2
STANDARD
 70
     0
 41
2.5
 42
0.75
 44
0.75
 47
0.01
 48
0.01
 71
     1
 73
     0
 74
     0
 77
     1
 78
     8
 79
     2
140
3.0
147
0.625
171
     1
178
     0
179
     2
271
     2
272
     2
278
    44
284
     8
340
11
341
20C
342
20C
343
20C
344
20C
  0
DIMSTYLE
105
212
330
A
100
AcDbSymbolTableRecord
100
AcDbDimStyleTableRecord
  2
DIMSTYLE_1
 70
     0
  3
<>
 41
2.5
 42
0.75
 44
0.75
 47
0.3
 48
0.3
 73
     0
 74
     0
 77
     1
 78
     8
 79
     2
140
3.0
147
0.625
171
     1
172
     1
178
     0
179
     2
271
     2
272
     2
278
    44
284
     8
288
     1
289
     2
340
11
341
20C
342
20C
343
20C
344
20C
  0
DIMSTYLE
105
213
330
A
100
AcDbSymbolTableRecord
100
AcDbDimStyleTableRecord
  2
DIMSTYLE_2
 70
     0
 41
2.5
 42
0.75
 44
0.75
 47
0.3
 48
0.3
 73
     0
 74
     0
 77
     1
 78
     8
 79
     2
140
3.0
147
0.75
171
     1
178
     0
179
     2
271
     2
272
     2
278
    44
284
     8
340
11
341
20C
342
20C
343
20C
344
20C
  0
ENDTAB
  0
TABLE
  2
BLOCK_RECORD
  5
1
330
0
100
AcDbSymbolTable
 70
     5
  0
BLOCK_RECORD
  5
20A
330
1
100
AcDbSymbolTableRecord
100
AcDbBlockTableRecord
  2
*Model_Space
340
46A
 70
     0
280
     1
281
     0
  0
BLOCK_RECORD
  5
20B
330
1
100
AcDbSymbolTableRecord
100
AcDbBlockTableRecord
  2
*Paper_Space
340
46B
 70
     0
280
     1
281
     0
  0
BLOCK_RECORD
  5
20C
330
1
100
AcDbSymbolTableRecord
100
AcDbBlockTableRecord
  2
_CLOSED
340
0
102
{BLKREFS
331
259
331
261
331
262
102
}
 70
     0
280
     1
281
     0
  0
BLOCK_RECORD
  5
20D
330
1
100
AcDbSymbolTableRecord
100
AcDbBlockTableRecord
  2
*D1
340
0
 70
     0
280
     1
281
     0
  0
BLOCK_RECORD
  5
20E
330
1
100
AcDbSymbolTableRecord
100
AcDbBlockTableRecord
  2
*D2
340
0
 70
     0
280
     1
281
     0
  0
BLOCK_RECORD
  5
20F
330
1
100
AcDbSymbolTableRecord
100
AcDbBlockTableRecord
  2
LOGO2_BL0
340
0
102
{BLKREFS
331
467
102
}
 70
     0
280
     1
281
     0
  0
BLOCK_RECORD
  5
210
330
1
100
AcDbSymbolTableRecord
100
AcDbBlockTableRecord
  2
*T4
340
0
102
{BLKREFS
331
468
102
}
 70
     0
280
     1
281
     0
  0
ENDTAB
  0
ENDSEC
  0
SECTION
  2
BLOCKS
  0
BLOCK
  5
20
330
20A
100
AcDbEntity
  8
0
100
AcDbBlockBegin
  2
*Model_Space
 70
     0
 10
0.0
 20
0.0
 30
0.0
  3
*Model_Space
  1
*Model_Space
  0
ENDBLK
  5
21
330
20A
100
AcDbEntity
  8
0
100
AcDbBlockEnd
  0
BLOCK
  5
1C
330
20B
100
AcDbEntity
 67
     1
  8
0
100
AcDbBlockBegin
  2
*Paper_Space
 70
     0
 10
0.0
 20
0.0
 30
0.0
  3
*Paper_Space
  1
*Paper_Space
  0
ENDBLK
  5
1D
330
20B
100
AcDbEntity
 67
     1
  8
0
100
AcDbBlockEnd
  0
BLOCK
  5
250
330
20C
100
AcDbEntity
  8
0
100
AcDbBlockBegin
  2
_CLOSED
 70
     0
 10
0.0
 20
0.0
 30
0.0
  3
_CLOSED
  1
_CLOSED
  0
LINE
  5
251
330
20C
100
AcDbEntity
  8
0
  6
ByBlock
 62
     0
100
AcDbLine
 10
0.0
 20
0.0
 30
0.0
 11
-1.0
 21
0.2
 31
0.0
  0
LINE
  5
252
330
20C
100
AcDbEntity
  8
0
  6
ByBlock
 62
     0
100
AcDbLine
 10
-1.0
 20
0.2
 30
0.0
 11
-1.0
 21
-0.2
 31
0.0
  0
LINE
  5
253
330
20C
100
AcDbEntity
  8
0
  6
ByBlock
 62
     0
100
AcDbLine
 10
-1.0
 20
-0.2
 30
0.0
 11
0.0
 21
0.0
 31
0.0
  0
LINE
  5
254
330
20C
100
AcDbEntity
  8
0
  6
ByBlock
 62
     0
100
AcDbLine
 10
-1.0
 20
0.0
 30
0.0
 11
0.0
 21
0.0
 31
0.0
  0
ENDBLK
  5
255
330
20C
100
AcDbEntity
  8
0
  6
ByBlock
 62
     0
100
AcDbBlockEnd
  0
BLOCK
  5
256
330
20D
100
AcDbEntity
  8
0
100
AcDbBlockBegin
  2
*D1
 70
     1
 10
0.0
 20
0.0
 30
0.0
  3
*D1
  1
*D1
  0
MTEXT
  5
257
330
20D
100
AcDbEntity
  8
0
  6
Continuous
 62
     2
100
AcDbMText
 10
198.362811
 20
142.867415
 30
0.0
 40
3.0
 41
16.814126
 46
0.0
 71
     1
 72
     1
  1
{\Fgdt;n}\Farial.ttf;116,71
  7
TEXTSTYLE_2
 11
0.9200432047
 21
0.3918169234
 31
0.0
 73
     1
 44
0.9
  0
LINE
  5
258
330
20D
100
AcDbEntity
  8
0
  6
Continuous
 62
     2
100
AcDbLine
 10
195.00677
 20
137.362289
 30
0.0
 11
215.301847
 21
146.005312
 31
0.0
  0
INSERT
  5
259
330
20D
100
AcDbEntity
  8
0
  6
Continuous
 62
     2
100
AcDbBlockReference
  2
_CLOSED
 10
195.00677
 20
137.362289
 30
0.0
 41
2.5
 42
2.5
 43
2.5
 50
203.067601
  0
ENDBLK
  5
25A
330
20D
100
AcDbEntity
  8
0
  6
ByBlock
 62
     0
100
AcDbBlockEnd
  0
BLOCK
  5
25B
330
20E
100
AcDbEntity
  8
0
100
AcDbBlockBegin
  2
*D2
 70
     1
 10
0.0
 20
0.0
 30
0.0
  3
*D2
  1
*D2
  0
MTEXT
  5
25C
330
20E
100
AcDbEntity
  8
0
  6
Continuous
 62
     2
100
AcDbMText
 10
212.25111
 20
315.984875
 30
0.0
 40
3.0
 41
12.814126
 46
0.0
 71
     2
 72
     1
  1
114,55
 11
0.0
 21
1.0
 31
0.0
 73
     1
 44
0.9
  0
LINE
  5
25D
330
20E
100
AcDbEntity
  8
0
  6
Continuous
 62
     2
100
AcDbLine
 10
201.985655
 20
373.258781
 30
0.0
 11
216.75111
 21
373.258781
 31
0.0
  0
LINE
  5
25E
330
20E
100
AcDbEntity
  8
0
  6
Continuous
 62
     2
100
AcDbLine
 10
203.085643
 20
258.710969
 30
0.0
 11
216.75111
 21
258.710969
 31
0.0
  0
LINE
  5
25F
330
20E
100
AcDbEntity
  8
0
  6
Continuous
 62
     2
100
AcDbLine
 10
216.00111
 20
373.258781
 30
0.0
 11
216.00111
 21
315.984875
 31
0.0
  0
LINE
  5
260
330
20E
100
AcDbEntity
  8
0
  6
Continuous
 62
     2
100
AcDbLine
 10
216.00111
 20
258.710969
 30
0.0
 11
216.00111
 21
315.984875
 31
0.0
  0
INSERT
  5
261
330
20E
100
AcDbEntity
  8
0
  6
Continuous
 62
     2
100
AcDbBlockReference
  2
_CLOSED
 10
216.00111
 20
373.258781
 30
0.0
 41
2.5
 42
2.5
 43
2.5
 50
90.0
  0
INSERT
  5
262
330
20E
100
AcDbEntity
  8
0
  6
Continuous
 62
     2
100
AcDbBlockReference
  2
_CLOSED
 10
216.00111
 20
258.710969
 30
0.0
 41
2.5
 42
2.5
 43
2.5
 50
270.0
  0
ENDBLK
  5
263
330
20E
100
AcDbEntity
  8
0
  6
ByBlock
 62
     0
100
AcDbBlockEnd
  0
BLOCK
  5
214
330
20F
100
AcDbEntity
  8
0
100
AcDbBlockBegin
  2
LOGO2_BL0
 70
     0
 10
507.922935
 20
36.880038
 30
0.0
  3
LOGO2_BL0
  1
LOGO2_BL0
  0
LINE
  5
215
330
20F
100
AcDbEntity
  8
0
  6
Continuous
 62
     7
100
AcDbLine
 10
499.66586
 20
40.075529
 30
0.0
 11
498.361519
 21
40.075529
 31
0.0
  0
LINE
  5
216
330
20F
100
AcDbEntity
  8
0
  6
Continuous
 62
     7
100
AcDbLine
 10
498.361519
 20
40.075529
 30
0.0
 11
498.361519
 21
29.616463
 31
0.0
  0
LINE
  5
217
330
20F
100
AcDbEntity
  8
0
  6
Continuous
 62
     7
100
AcDbLine
 10
498.361519
 20
29.616463
 30
0.0
 11
502.842574
 21
29.616463
 31
0.0
  0
LINE
  5
218
330
20F
100
AcDbEntity
  8
0
  6
Continuous
 62
     7
100
AcDbLine
 10
502.842574
 20
29.616463
 30
0.0
 11
502.842574
 21
30.809318
 31
0.0
  0
LINE
  5
219
330
20F
100
AcDbEntity
  8
0
  6
Continuous
 62
     7
100
AcDbLine
 10
502.842574
 20
30.809318
 30
0.0
 11
499.66586
 21
30.809318
 31
0.0
  0
LINE
  5
21A
330
20F
100
AcDbEntity
  8
0
  6
Continuous
 62
     7
100
AcDbLine
 10
499.66586
 20
30.809318
 30
0.0
 11
499.66586
 21
40.075529
 31
0.0
  0
LINE
  5
21B
330
20F
100
AcDbEntity
  8
0
  6
Continuous
 62
     7
100
AcDbLine
 10
514.602186
 20
40.075529
 30
0.0
 11
513.298369
 21
40.075529
 31
0.0
  0
LINE
  5
21C
330
20F
100
AcDbEntity
  8
0
  6
Continuous
 62
     7
100
AcDbLine
 10
513.298369
 20
40.075529
 30
0.0
 11
513.298369
 21
29.616463
 31
0.0
  0
LINE
  5
21D
330
20F
100
AcDbEntity
  8
0
  6
Continuous
 62
     7
100
AcDbLine
 10
513.298369
 20
29.616463
 30
0.0
 11
517.779555
 21
29.616463
 31
0.0
  0
LINE
  5
21E
330
20F
100
AcDbEntity
  8
0
  6
Continuous
 62
     7
100
AcDbLine
 10
517.779555
 20
29.616463
 30
0.0
 11
517.779555
 21
30.809318
 31
0.0
  0
LINE
  5
21F
330
20F
100
AcDbEntity
  8
0
  6
Continuous
 62
     7
100
AcDbLine
 10
517.779555
 20
30.809318
 30
0.0
 11
514.602186
 21
30.809318
 31
0.0
  0
LINE
  5
220
330
20F
100
AcDbEntity
  8
0
  6
Continuous
 62
     7
100
AcDbLine
 10
514.602186
 20
30.809318
 30
0.0
 11
514.602186
 21
40.075529
 31
0.0
  0
LWPOLYLINE
  5
221
330
20F
100
AcDbEntity
  8
0
  6
Continuous
 62
     7
100
AcDbPolyline
 90
        2
 70
     0
 43
0.2
 10
496.715914
 20
26.272912
 10
496.715914
 20
24.415849
  0
LWPOLYLINE
  5
222
330
20F
100
AcDbEntity
  8
0
  6
Continuous
 62
     7
100
AcDbPolyline
 90
        2
 70
     0
 43
0.2
 10
496.715914
 20
24.415849
 10
497.51163
 20
24.415849
  0
LWPOLYLINE
  5
223
330
20F
100
AcDbEntity
  8
0
  6
Continuous
 62
     7
100
AcDbPolyline
 90
        2
 70
     0
 43
0.2
 10
497.51163
 20
24.415849
 10
497.51163
 20
24.62783
  0
LWPOLYLINE
  5
224
330
20F
100
AcDbEntity
  8
0
  6
Continuous
 62
     7
100
AcDbPolyline
 90
        2
 70
     0
 43
0.2
 10
497.51163
 20
24.62783
 10
496.947524
 20
24.62783
  0
LWPOLYLINE
  5
225
330
20F
100
AcDbEntity
  8
0
  6
Continuous
 62
     7
100
AcDbPolyline
 90
        2
 70
     0
 43
0.2
 10
496.947524
 20
24.62783
 10
496.947524
 20
26.272912
  0
LWPOLYLINE
  5
226
330
20F
100
AcDbEntity
  8
0
  6
Continuous
 62
     7
100
AcDbPolyline
 90
        2
 70
     0
 43
0.2
 10
496.947524
 20
26.272912
 10
496.715914
 20
26.272912
  0
SPLINE
  5
227
330
20F
100
AcDbEntity
  8
0
  6
Continuous
 62
     7
100
AcDbSpline
 70
     3
 71
     3
 72
    35
 73
    31
 74
     0
 42
0.000000001
 43
0.0000001
 40
0.0
 40
0.0
 40
0.0
 40
0.0
 40
1.0
 40
1.0
 40
1.0
 40
2.0
 40
2.0
 40
2.0
 40
3.0
 40
3.0
 40
3.0
 40
4.0
 40
4.0
 40
4.0
 40
5.0
 40
5.0
 40
5.0
 40
6.0
 40
6.0
 40
6.0
 40
7.0
 40
7.0
 40
7.0
 40
8.0
 40
8.0
 40
8.0
 40
9.0
 40
9.0
 40
9.0
 40
10.0
 40
10.0
 40
10.0
 40
10.0
 10
498.9099234723
 20
25.5684003304
 30
0.0
 10
498.9099234723
 20
25.5684003304
 30
0.0
 10
498.9099234723
 20
24.9062850513
 30
0.0
 10
498.9099234723
 20
24.9062850513
 30
0.0
 10
498.9099234723
 20
24.591191456
 30
0.0
 10
499.0577871611
 20
24.3765928279
 30
0.0
 10
499.3978736454
 20
24.3765928279
 30
0.0
 10
499.7374367184
 20
24.3765928279
 30
0.0
 10
499.8855621129
 20
24.591191456
 30
0.0
 10
499.8855621129
 20
24.9062850513
 30
0.0
 10
499.8855621129
 20
24.9062850513
 30
0.0
 10
499.8855621129
 20
25.5684003304
 30
0.0
 10
499.8855621129
 20
25.5684003304
 30
0.0
 10
499.8855621129
 20
25.5684003304
 30
0.0
 10
499.663504874
 20
25.5684003304
 30
0.0
 10
499.663504874
 20
25.5684003304
 30
0.0
 10
499.663504874
 20
25.5684003304
 30
0.0
 10
499.663504874
 20
24.9314087931
 30
0.0
 10
499.663504874
 20
24.9314087931
 30
0.0
 10
499.663504874
 20
24.7455977859
 30
0.0
 10
499.6167904166
 20
24.5828168754
 30
0.0
 10
499.3978736454
 20
24.5828168754
 30
0.0
 10
499.178433463
 20
24.5828168754
 30
0.0
 10
499.1317190055
 20
24.7455977859
 30
0.0
 10
499.1317190055
 20
24.9314087931
 30
0.0
 10
499.1317190055
 20
24.9314087931
 30
0.0
 10
499.1317190055
 20
25.5684003304
 30
0.0
 10
499.1317190055
 20
25.5684003304
 30
0.0
 10
499.1317190055
 20
25.5684003304
 30
0.0
 10
498.9099234723
 20
25.5684003304
 30
0.0
 10
498.9099234723
 20
25.5684003304
 30
0.0
  0
SPLINE
  5
228
330
20F
100
AcDbEntity
  8
0
  6
Continuous
 62
     7
100
AcDbSpline
 70
     3
 71
     3
 72
    35
 73
    31
 74
     0
 42
0.000000001
 43
0.0000001
 40
0.0
 40
0.0
 40
0.0
 40
0.0
 40
1.0
 40
1.0
 40
1.0
 40
2.0
 40
2.0
 40
2.0
 40
3.0
 40
3.0
 40
3.0
 40
4.0
 40
4.0
 40
4.0
 40
5.0
 40
5.0
 40
5.0
 40
6.0
 40
6.0
 40
6.0
 40
7.0
 40
7.0
 40
7.0
 40
8.0
 40
8.0
 40
8.0
 40
9.0
 40
9.0
 40
9.0
 40
10.0
 40
10.0
 40
10.0
 40
10.0
 10
502.3086946701
 20
25.5270508387
 30
0.0
 10
502.2202381624
 20
25.5783451449
 30
0.0
 10
502.1067887658
 20
25.6034688867
 30
0.0
 10
502.0031533308
 20
25.6034688867
 30
0.0
 10
501.6482804776
 20
25.6034688867
 30
0.0
 10
501.3728352874
 20
25.3396695976
 30
0.0
 10
501.3728352874
 20
24.982179688
 30
0.0
 10
501.3728352874
 20
24.6372516493
 30
0.0
 10
501.6512900925
 20
24.3771162392
 30
0.0
 10
501.9908531655
 20
24.3771162392
 30
0.0
 10
502.1067887658
 20
24.3771162392
 30
0.0
 10
502.2075454387
 20
24.3990995133
 30
0.0
 10
502.3086946701
 20
24.453010876
 30
0.0
 10
502.3086946701
 20
24.453010876
 30
0.0
 10
502.3086946701
 20
24.7356529714
 30
0.0
 10
502.3086946701
 20
24.7356529714
 30
0.0
 10
502.2248180112
 20
24.6424857622
 30
0.0
 10
502.121313429
 20
24.5833402866
 30
0.0
 10
501.9932085163
 20
24.5833402866
 30
0.0
 10
501.7595053763
 20
24.5833402866
 30
0.0
 10
501.5942382621
 20
24.7555426004
 30
0.0
 10
501.5942382621
 20
24.9921245025
 30
0.0
 10
501.5942382621
 20
25.2041060741
 30
0.0
 10
501.7619915799
 20
25.3961980167
 30
0.0
 10
501.9788147059
 20
25.3961980167
 30
0.0
 10
502.1116303202
 20
25.3961980167
 30
0.0
 10
502.2202381624
 20
25.3422866541
 30
0.0
 10
502.3086946701
 20
25.2412682755
 30
0.0
 10
502.3086946701
 20
25.2412682755
 30
0.0
 10
502.3086946701
 20
25.5270508387
 30
0.0
 10
502.3086946701
 20
25.5270508387
 30
0.0
  0
SPLINE
  5
229
330
20F
100
AcDbEntity
  8
0
  6
Continuous
 62
     7
100
AcDbSpline
 70
     3
 71
     3
 72
    32
 73
    28
 74
     0
 42
0.000000001
 43
0.0000001
 40
0.0
 40
0.0
 40
0.0
 40
0.0
 40
1.0
 40
1.0
 40
1.0
 40
2.0
 40
2.0
 40
2.0
 40
3.0
 40
3.0
 40
3.0
 40
4.0
 40
4.0
 40
4.0
 40
5.0
 40
5.0
 40
5.0
 40
6.0
 40
6.0
 40
6.0
 40
7.0
 40
7.0
 40
7.0
 40
8.0
 40
8.0
 40
8.0
 40
9.0
 40
9.0
 40
9.0
 40
9.0
 10
504.8405659223
 20
24.9554857123
 30
0.0
 10
504.8405659223
 20
24.9554857123
 30
0.0
 10
504.8405659223
 20
24.989507446
 30
0.0
 10
504.8405659223
 20
24.989507446
 30
0.0
 10
504.8405659223
 20
25.3318184283
 30
0.0
 10
504.6677093445
 20
25.6034688867
 30
0.0
 10
504.3010597373
 20
25.6034688867
 30
0.0
 10
503.929437723
 20
25.6034688867
 30
0.0
 10
503.7397011311
 20
25.3370525412
 30
0.0
 10
503.7397011311
 20
24.982179688
 30
0.0
 10
503.7397011311
 20
24.6424857622
 30
0.0
 10
503.9537763478
 20
24.3765928279
 30
0.0
 10
504.3059012918
 20
24.3765928279
 30
0.0
 10
504.529921323
 20
24.3765928279
 30
0.0
 10
504.7320889329
 20
24.4922667226
 30
0.0
 10
504.8405659223
 20
24.6916864232
 30
0.0
 10
504.8405659223
 20
24.6916864232
 30
0.0
 10
504.6529229756
 20
24.798462326
 30
0.0
 10
504.6529229756
 20
24.798462326
 30
0.0
 10
504.5694388752
 20
24.6597583347
 30
0.0
 10
504.4782344583
 20
24.5739188835
 30
0.0
 10
504.308649201
 20
24.5739188835
 30
0.0
 10
504.0966676294
 20
24.5739188835
 30
0.0
 10
503.9637211623
 20
24.7586830681
 30
0.0
 10
503.9613658115
 20
24.9554857123
 30
0.0
 10
503.9613658115
 20
24.9554857123
 30
0.0
 10
504.8405659223
 20
24.9554857123
 30
0.0
 10
504.8405659223
 20
24.9554857123
 30
0.0
  0
SPLINE
  5
22A
330
20F
100
AcDbEntity
  8
0
  6
Continuous
 62
     7
100
AcDbSpline
 70
     3
 71
     3
 72
    14
 73
    10
 74
     0
 42
0.000000001
 43
0.0000001
 40
0.0
 40
0.0
 40
0.0
 40
0.0
 40
1.0
 40
1.0
 40
1.0
 40
2.0
 40
2.0
 40
2.0
 40
3.0
 40
3.0
 40
3.0
 40
3.0
 10
503.9734042711
 20
25.1229773244
 30
0.0
 10
504.0010142166
 20
25.2878518801
 30
0.0
 10
504.1288574236
 20
25.4108535328
 30
0.0
 10
504.3010597373
 20
25.4108535328
 30
0.0
 10
504.4782344583
 20
25.4108535328
 30
0.0
 10
504.5916838549
 20
25.2951796381
 30
0.0
 10
504.6189012419
 20
25.1229773244
 30
0.0
 10
504.6189012419
 20
25.1229773244
 30
0.0
 10
503.9734042711
 20
25.1229773244
 30
0.0
 10
503.9734042711
 20
25.1229773244
 30
0.0
  0
SPLINE
  5
22B
330
20F
100
AcDbEntity
  8
0
  6
Continuous
 62
     7
100
AcDbSpline
 70
     3
 71
     3
 72
    20
 73
    16
 74
     0
 42
0.000000001
 43
0.0000001
 40
0.0
 40
0.0
 40
0.0
 40
0.0
 40
1.0
 40
1.0
 40
1.0
 40
2.0
 40
2.0
 40
2.0
 40
3.0
 40
3.0
 40
3.0
 40
4.0
 40
4.0
 40
4.0
 40
5.0
 40
5.0
 40
5.0
 40
5.0
 10
506.8645973725
 20
25.3323418396
 30
0.0
 10
506.8645973725
 20
25.3323418396
 30
0.0
 10
507.2757369391
 20
24.8298670032
 30
0.0
 10
507.2757369391
 20
24.8298670032
 30
0.0
 10
507.159670486
 20
24.7141931086
 30
0.0
 10
507.0218824645
 20
24.5838636979
 30
0.0
 10
506.8499418565
 20
24.5838636979
 30
0.0
 10
506.6725054299
 20
24.5838636979
 30
0.0
 10
506.5050138177
 20
24.7482148423
 30
0.0
 10
506.5050138177
 20
24.9251278576
 30
0.0
 10
506.5050138177
 20
25.1030876955
 30
0.0
 10
506.7147708914
 20
25.2292298159
 30
0.0
 10
506.8423523928
 20
25.3171629122
 30
0.0
 10
506.8423523928
 20
25.3171629122
 30
0.0
 10
506.8645973725
 20
25.3323418396
 30
0.0
 10
506.8645973725
 20
25.3323418396
 30
0.0
  0
SPLINE
  5
22C
330
20F
100
AcDbEntity
  8
0
  6
Continuous
 62
     7
100
AcDbSpline
 70
     3
 71
     3
 72
    23
 73
    19
 74
     0
 42
0.000000001
 43
0.0000001
 40
0.0
 40
0.0
 40
0.0
 40
0.0
 40
1.0
 40
1.0
 40
1.0
 40
2.0
 40
2.0
 40
2.0
 40
3.0
 40
3.0
 40
3.0
 40
4.0
 40
4.0
 40
4.0
 40
5.0
 40
5.0
 40
5.0
 40
6.0
 40
6.0
 40
6.0
 40
6.0
 10
506.9139288864
 20
25.6233585156
 30
0.0
 10
506.9139288864
 20
25.6233585156
 30
0.0
 10
506.8522972072
 20
25.7018702088
 30
0.0
 10
506.8522972072
 20
25.7018702088
 30
0.0
 10
506.7983858446
 20
25.7704370875
 30
0.0
 10
506.7415957199
 20
25.8395273775
 30
0.0
 10
506.7415957199
 20
25.9332179981
 30
0.0
 10
506.7415957199
 20
26.0520323604
 30
0.0
 10
506.8375108384
 20
26.129497231
 30
0.0
 10
506.9484740314
 20
26.129497231
 30
0.0
 10
507.0717373897
 20
26.129497231
 30
0.0
 10
507.1650354517
 20
26.0583132959
 30
0.0
 10
507.1650354517
 20
25.9279838852
 30
0.0
 10
507.1650354517
 20
25.7929437729
 30
0.0
 10
507.036930539
 20
25.7165257249
 30
0.0
 10
506.9433707713
 20
25.6427247333
 30
0.0
 10
506.9433707713
 20
25.6427247333
 30
0.0
 10
506.9139288864
 20
25.6233585156
 30
0.0
 10
506.9139288864
 20
25.6233585156
 30
0.0
  0
SPLINE
  5
22D
330
20F
100
AcDbEntity
  8
0
  6
Continuous
 62
     7
100
AcDbSpline
 70
     3
 71
     3
 72
    50
 73
    46
 74
     0
 42
0.000000001
 43
0.0000001
 40
0.0
 40
0.0
 40
0.0
 40
0.0
 40
1.0
 40
1.0
 40
1.0
 40
2.0
 40
2.0
 40
2.0
 40
3.0
 40
3.0
 40
3.0
 40
4.0
 40
4.0
 40
4.0
 40
5.0
 40
5.0
 40
5.0
 40
6.0
 40
6.0
 40
6.0
 40
7.0
 40
7.0
 40
7.0
 40
8.0
 40
8.0
 40
8.0
 40
9.0
 40
9.0
 40
9.0
 40
10.0
 40
10.0
 40
10.0
 40
11.0
 40
11.0
 40
11.0
 40
12.0
 40
12.0
 40
12.0
 40
13.0
 40
13.0
 40
13.0
 40
14.0
 40
14.0
 40
14.0
 40
15.0
 40
15.0
 40
15.0
 40
15.0
 10
507.6160851291
 20
24.4163720858
 30
0.0
 10
507.6160851291
 20
24.4163720858
 30
0.0
 10
507.9014751338
 20
24.4163720858
 30
0.0
 10
507.9014751338
 20
24.4163720858
 30
0.0
 10
507.9014751338
 20
24.4163720858
 30
0.0
 10
507.569108966
 20
24.8272499468
 30
0.0
 10
507.569108966
 20
24.8272499468
 30
0.0
 10
507.569108966
 20
24.8272499468
 30
0.0
 10
507.7956152008
 20
25.093142881
 30
0.0
 10
507.7956152008
 20
25.093142881
 30
0.0
 10
507.7956152008
 20
25.093142881
 30
0.0
 10
507.6473589535
 20
25.2459789771
 30
0.0
 10
507.6473589535
 20
25.2459789771
 30
0.0
 10
507.6473589535
 20
25.2459789771
 30
0.0
 10
507.4314517973
 20
24.9947415589
 30
0.0
 10
507.4314517973
 20
24.9947415589
 30
0.0
 10
507.4314517973
 20
24.9947415589
 30
0.0
 10
507.0443891499
 20
25.4626712503
 30
0.0
 10
507.0443891499
 20
25.4626712503
 30
0.0
 10
507.1998423024
 20
25.576774911
 30
0.0
 10
507.3821202834
 20
25.7165257249
 30
0.0
 10
507.3821202834
 20
25.92589024
 30
0.0
 10
507.3821202834
 20
26.1697999002
 30
0.0
 10
507.1800835263
 20
26.3132145931
 30
0.0
 10
506.9535772914
 20
26.3132145931
 30
0.0
 10
506.7094059257
 20
26.3132145931
 30
0.0
 10
506.5250342995
 20
26.1624721421
 30
0.0
 10
506.5250342995
 20
25.9060006111
 30
0.0
 10
506.5250342995
 20
25.7484538134
 30
0.0
 10
506.6236973273
 20
25.6107966447
 30
0.0
 10
506.729033849
 20
25.4998334517
 30
0.0
 10
506.729033849
 20
25.4998334517
 30
0.0
 10
506.6134908072
 20
25.4160876456
 30
0.0
 10
506.6134908072
 20
25.4160876456
 30
0.0
 10
506.4357926749
 20
25.2878518801
 30
0.0
 10
506.2884523974
 20
25.1601395259
 30
0.0
 10
506.2884523974
 20
24.9230342125
 30
0.0
 10
506.2884523974
 20
24.6027065043
 30
0.0
 10
506.5470175736
 20
24.3765928279
 30
0.0
 10
506.8574004673
 20
24.3765928279
 30
0.0
 10
507.0763172385
 20
24.3765928279
 30
0.0
 10
507.2735124412
 20
24.5016881257
 30
0.0
 10
507.4137866663
 20
24.667609504
 30
0.0
 10
507.4137866663
 20
24.667609504
 30
0.0
 10
507.6160851291
 20
24.4163720858
 30
0.0
 10
507.6160851291
 20
24.4163720858
 30
0.0
  0
LWPOLYLINE
  5
22E
330
20F
100
AcDbEntity
  8
0
  6
Continuous
 62
     7
100
AcDbPolyline
 90
        2
 70
     0
 43
0.2
 10
509.551529
 20
26.272912
 10
509.320181
 20
26.272912
  0
LWPOLYLINE
  5
22F
330
20F
100
AcDbEntity
  8
0
  6
Continuous
 62
     7
100
AcDbPolyline
 90
        2
 70
     0
 43
0.2
 10
509.320181
 20
26.272912
 10
509.320181
 20
24.415849
  0
LWPOLYLINE
  5
230
330
20F
100
AcDbEntity
  8
0
  6
Continuous
 62
     7
100
AcDbPolyline
 90
        2
 70
     0
 43
0.2
 10
509.320181
 20
24.415849
 10
510.115505
 20
24.415849
  0
LWPOLYLINE
  5
231
330
20F
100
AcDbEntity
  8
0
  6
Continuous
 62
     7
100
AcDbPolyline
 90
        2
 70
     0
 43
0.2
 10
510.115505
 20
24.415849
 10
510.115505
 20
24.62783
  0
LWPOLYLINE
  5
232
330
20F
100
AcDbEntity
  8
0
  6
Continuous
 62
     7
100
AcDbPolyline
 90
        2
 70
     0
 43
0.2
 10
510.115505
 20
24.62783
 10
509.551529
 20
24.62783
  0
LWPOLYLINE
  5
233
330
20F
100
AcDbEntity
  8
0
  6
Continuous
 62
     7
100
AcDbPolyline
 90
        2
 70
     0
 43
0.2
 10
509.551529
 20
24.62783
 10
509.551529
 20
26.272912
  0
LWPOLYLINE
  5
234
330
20F
100
AcDbEntity
  8
0
  6
Continuous
 62
     7
100
AcDbPolyline
 90
        2
 70
     0
 43
0.2
 10
511.794608
 20
25.5684
 10
511.573467
 20
25.5684
  0
LWPOLYLINE
  5
235
330
20F
100
AcDbEntity
  8
0
  6
Continuous
 62
     7
100
AcDbPolyline
 90
        2
 70
     0
 43
0.2
 10
511.573467
 20
25.5684
 10
511.573467
 20
24.416372
  0
LWPOLYLINE
  5
236
330
20F
100
AcDbEntity
  8
0
  6
Continuous
 62
     7
100
AcDbPolyline
 90
        2
 70
     0
 43
0.2
 10
511.573467
 20
24.416372
 10
511.794608
 20
24.416372
  0
LWPOLYLINE
  5
237
330
20F
100
AcDbEntity
  8
0
  6
Continuous
 62
     7
100
AcDbPolyline
 90
        2
 70
     0
 43
0.2
 10
511.794608
 20
24.416372
 10
511.794608
 20
25.5684
  0
LWPOLYLINE
  5
238
330
20F
100
AcDbEntity
  8
0
  6
Continuous
 62
     7
100
AcDbPolyline
 90
        2
 70
     1
 43
0.2
 10
511.531585
 20
26.098354
 42
1.0
 10
511.836752
 20
26.098354
 42
1.0
  0
SPLINE
  5
239
330
20F
100
AcDbEntity
  8
0
  6
Continuous
 62
     7
100
AcDbSpline
 70
     3
 71
     3
 72
    17
 73
    13
 74
     0
 42
0.000000001
 43
0.0000001
 40
0.0
 40
0.0
 40
0.0
 40
0.0
 40
1.0
 40
1.0
 40
1.0
 40
2.0
 40
2.0
 40
2.0
 40
3.0
 40
3.0
 40
3.0
 40
4.0
 40
4.0
 40
4.0
 40
4.0
 10
513.9248922346
 20
24.5739188835
 30
0.0
 10
513.6909273889
 20
24.5739188835
 30
0.0
 10
513.5605979782
 20
24.7759556406
 30
0.0
 10
513.5605979782
 20
24.9921245025
 30
0.0
 10
513.5605979782
 20
25.2067231305
 30
0.0
 10
513.6964232074
 20
25.4056194199
 30
0.0
 10
513.9248922346
 20
25.4056194199
 30
0.0
 10
514.1643528988
 20
25.4056194199
 30
0.0
 10
514.2999164223
 20
25.216667945
 30
0.0
 10
514.2999164223
 20
24.9921245025
 30
0.0
 10
514.2999164223
 20
24.7660108261
 30
0.0
 10
514.1667082496
 20
24.5739188835
 30
0.0
 10
513.9248922346
 20
24.5739188835
 30
0.0
  0
SPLINE
  5
23A
330
20F
100
AcDbEntity
  8
0
  6
Continuous
 62
     7
100
AcDbSpline
 70
     3
 71
     3
 72
    50
 73
    46
 74
     0
 42
0.000000001
 43
0.0000001
 40
0.0
 40
0.0
 40
0.0
 40
0.0
 40
1.0
 40
1.0
 40
1.0
 40
2.0
 40
2.0
 40
2.0
 40
3.0
 40
3.0
 40
3.0
 40
4.0
 40
4.0
 40
4.0
 40
5.0
 40
5.0
 40
5.0
 40
6.0
 40
6.0
 40
6.0
 40
7.0
 40
7.0
 40
7.0
 40
8.0
 40
8.0
 40
8.0
 40
9.0
 40
9.0
 40
9.0
 40
10.0
 40
10.0
 40
10.0
 40
11.0
 40
11.0
 40
11.0
 40
12.0
 40
12.0
 40
12.0
 40
13.0
 40
13.0
 40
13.0
 40
14.0
 40
14.0
 40
14.0
 40
15.0
 40
15.0
 40
15.0
 40
15.0
 10
514.5090192319
 20
25.5689237417
 30
0.0
 10
514.5090192319
 20
25.5689237417
 30
0.0
 10
514.2873545514
 20
25.5689237417
 30
0.0
 10
514.2873545514
 20
25.5689237417
 30
0.0
 10
514.2873545514
 20
25.5689237417
 30
0.0
 10
514.2873545514
 20
25.3715976862
 30
0.0
 10
514.2873545514
 20
25.3715976862
 30
0.0
 10
514.2873545514
 20
25.3715976862
 30
0.0
 10
514.2826438499
 20
25.3715976862
 30
0.0
 10
514.2826438499
 20
25.3715976862
 30
0.0
 10
514.1913085801
 20
25.5144889678
 30
0.0
 10
514.0533897058
 20
25.6029454754
 30
0.0
 10
513.8806639808
 20
25.6029454754
 30
0.0
 10
513.548297813
 20
25.6029454754
 30
0.0
 10
513.3391950035
 20
25.3150692671
 30
0.0
 10
513.3391950035
 20
24.9994522605
 30
0.0
 10
513.3391950035
 20
24.6697031491
 30
0.0
 10
513.5362593533
 20
24.3765928279
 30
0.0
 10
513.8911322065
 20
24.3765928279
 30
0.0
 10
514.0533897058
 20
24.3765928279
 30
0.0
 10
514.1934022253
 20
24.4650493356
 30
0.0
 10
514.2826438499
 20
24.5959021576
 30
0.0
 10
514.2826438499
 20
24.5959021576
 30
0.0
 10
514.2873545514
 20
24.5959021576
 30
0.0
 10
514.2873545514
 20
24.5959021576
 30
0.0
 10
514.2873545514
 20
24.5959021576
 30
0.0
 10
514.2873545514
 20
24.3765928279
 30
0.0
 10
514.2873545514
 20
24.3765928279
 30
0.0
 10
514.2873545514
 20
24.1400109258
 30
0.0
 10
514.2308261324
 20
23.953153096
 30
0.0
 10
513.9576054401
 20
23.953153096
 30
0.0
 10
513.7553069773
 20
23.953153096
 30
0.0
 10
513.6126774014
 20
24.0714440471
 30
0.0
 10
513.6126774014
 20
24.2776680945
 30
0.0
 10
513.6126774014
 20
24.2776680945
 30
0.0
 10
513.391012721
 20
24.2776680945
 30
0.0
 10
513.391012721
 20
24.2776680945
 30
0.0
 10
513.3959851282
 20
23.953153096
 30
0.0
 10
513.6270712118
 20
23.7563504518
 30
0.0
 10
513.94739892
 20
23.7563504518
 30
0.0
 10
514.3954389824
 20
23.7563504518
 30
0.0
 10
514.5090192319
 20
24.0416096037
 30
0.0
 10
514.5090192319
 20
24.4383553599
 30
0.0
 10
514.5090192319
 20
24.4383553599
 30
0.0
 10
514.5090192319
 20
25.5689237417
 30
0.0
 10
514.5090192319
 20
25.5689237417
 30
0.0
  0
SPLINE
  5
23B
330
20F
100
AcDbEntity
  8
0
  6
Continuous
 62
     7
100
AcDbSpline
 70
     3
 71
     3
 72
    44
 73
    40
 74
     0
 42
0.000000001
 43
0.0000001
 40
0.0
 40
0.0
 40
0.0
 40
0.0
 40
1.0
 40
1.0
 40
1.0
 40
2.0
 40
2.0
 40
2.0
 40
3.0
 40
3.0
 40
3.0
 40
4.0
 40
4.0
 40
4.0
 40
5.0
 40
5.0
 40
5.0
 40
6.0
 40
6.0
 40
6.0
 40
7.0
 40
7.0
 40
7.0
 40
8.0
 40
8.0
 40
8.0
 40
9.0
 40
9.0
 40
9.0
 40
10.0
 40
10.0
 40
10.0
 40
11.0
 40
11.0
 40
11.0
 40
12.0
 40
12.0
 40
12.0
 40
13.0
 40
13.0
 40
13.0
 40
13.0
 10
516.0779445672
 20
26.5539837855
 30
0.0
 10
516.0779445672
 20
26.5539837855
 30
0.0
 10
516.0779445672
 20
24.4158486745
 30
0.0
 10
516.0779445672
 20
24.4158486745
 30
0.0
 10
516.0779445672
 20
24.4158486745
 30
0.0
 10
516.299347542
 20
24.4158486745
 30
0.0
 10
516.299347542
 20
24.4158486745
 30
0.0
 10
516.299347542
 20
24.4158486745
 30
0.0
 10
516.299347542
 20
24.9455408978
 30
0.0
 10
516.299347542
 20
24.9455408978
 30
0.0
 10
516.299347542
 20
25.1554288243
 30
0.0
 10
516.299347542
 20
25.4061428312
 30
0.0
 10
516.5846066939
 20
25.4061428312
 30
0.0
 10
516.8115054872
 20
25.4061428312
 30
0.0
 10
516.8384611685
 20
25.2731963641
 30
0.0
 10
516.8384611685
 20
25.0769171311
 30
0.0
 10
516.8384611685
 20
25.0769171311
 30
0.0
 10
516.8384611685
 20
24.4158486745
 30
0.0
 10
516.8384611685
 20
24.4158486745
 30
0.0
 10
516.8384611685
 20
24.4158486745
 30
0.0
 10
517.0603875546
 20
24.4158486745
 30
0.0
 10
517.0603875546
 20
24.4158486745
 30
0.0
 10
517.0603875546
 20
24.4158486745
 30
0.0
 10
517.0603875546
 20
25.1030876955
 30
0.0
 10
517.0603875546
 20
25.1030876955
 30
0.0
 10
517.0603875546
 20
25.3836361458
 30
0.0
 10
516.9763800429
 20
25.6034688867
 30
0.0
 10
516.6513416331
 20
25.6034688867
 30
0.0
 10
516.5115908192
 20
25.6034688867
 30
0.0
 10
516.3734102392
 20
25.5369956531
 30
0.0
 10
516.3040582436
 20
25.4139940005
 30
0.0
 10
516.3040582436
 20
25.4139940005
 30
0.0
 10
516.299347542
 20
25.4139940005
 30
0.0
 10
516.299347542
 20
25.4139940005
 30
0.0
 10
516.299347542
 20
25.4139940005
 30
0.0
 10
516.299347542
 20
26.5539837855
 30
0.0
 10
516.299347542
 20
26.5539837855
 30
0.0
 10
516.299347542
 20
26.5539837855
 30
0.0
 10
516.0779445672
 20
26.5539837855
 30
0.0
 10
516.0779445672
 20
26.5539837855
 30
0.0
  0
LWPOLYLINE
  5
23C
330
20F
100
AcDbEntity
  8
0
  6
Continuous
 62
     7
100
AcDbPolyline
 90
        2
 70
     0
 43
0.2
 10
518.900178
 20
25.361653
 10
519.116609
 20
25.361653
  0
LWPOLYLINE
  5
23D
330
20F
100
AcDbEntity
  8
0
  6
Continuous
 62
     7
100
AcDbPolyline
 90
        2
 70
     0
 43
0.2
 10
519.116609
 20
25.361653
 10
519.116609
 20
25.5684
  0
LWPOLYLINE
  5
23E
330
20F
100
AcDbEntity
  8
0
  6
Continuous
 62
     7
100
AcDbPolyline
 90
        2
 70
     0
 43
0.2
 10
519.116609
 20
25.5684
 10
518.900178
 20
25.5684
  0
LWPOLYLINE
  5
23F
330
20F
100
AcDbEntity
  8
0
  6
Continuous
 62
     7
100
AcDbPolyline
 90
        2
 70
     0
 43
0.2
 10
518.900178
 20
25.5684
 10
518.900178
 20
26.009113
  0
LWPOLYLINE
  5
240
330
20F
100
AcDbEntity
  8
0
  6
Continuous
 62
     7
100
AcDbPolyline
 90
        2
 70
     0
 43
0.2
 10
518.900178
 20
26.009113
 10
518.678514
 20
26.009113
  0
LWPOLYLINE
  5
241
330
20F
100
AcDbEntity
  8
0
  6
Continuous
 62
     7
100
AcDbPolyline
 90
        2
 70
     0
 43
0.2
 10
518.678514
 20
26.009113
 10
518.678514
 20
25.5684
  0
LWPOLYLINE
  5
242
330
20F
100
AcDbEntity
  8
0
  6
Continuous
 62
     7
100
AcDbPolyline
 90
        2
 70
     0
 43
0.2
 10
518.678514
 20
25.5684
 10
518.557867
 20
25.5684
  0
LWPOLYLINE
  5
243
330
20F
100
AcDbEntity
  8
0
  6
Continuous
 62
     7
100
AcDbPolyline
 90
        2
 70
     0
 43
0.2
 10
518.557867
 20
25.5684
 10
518.557867
 20
25.361653
  0
LWPOLYLINE
  5
244
330
20F
100
AcDbEntity
  8
0
  6
Continuous
 62
     7
100
AcDbPolyline
 90
        2
 70
     0
 43
0.2
 10
518.557867
 20
25.361653
 10
518.678514
 20
25.361653
  0
LWPOLYLINE
  5
245
330
20F
100
AcDbEntity
  8
0
  6
Continuous
 62
     7
100
AcDbPolyline
 90
        2
 70
     0
 43
0.2
 10
518.678514
 20
25.361653
 10
518.678514
 20
24.415849
  0
LWPOLYLINE
  5
246
330
20F
100
AcDbEntity
  8
0
  6
Continuous
 62
     7
100
AcDbPolyline
 90
        2
 70
     0
 43
0.2
 10
518.678514
 20
24.415849
 10
518.900178
 20
24.415849
  0
LWPOLYLINE
  5
247
330
20F
100
AcDbEntity
  8
0
  6
Continuous
 62
     7
100
AcDbPolyline
 90
        2
 70
     0
 43
0.2
 10
518.900178
 20
24.415849
 10
518.900178
 20
25.361653
  0
SPLINE
  5
248
330
20F
100
AcDbEntity
  8
0
  6
Continuous
 62
     7
100
AcDbSpline
 70
     3
 71
     3
 72
    20
 73
    16
 74
     0
 42
0.000000001
 43
0.0000001
 40
0.0
 40
0.0
 40
0.0
 40
0.0
 40
1.0
 40
1.0
 40
1.0
 40
2.0
 40
2.0
 40
2.0
 40
3.0
 40
3.0
 40
3.0
 40
4.0
 40
4.0
 40
4.0
 40
5.0
 40
5.0
 40
5.0
 40
5.0
 10
506.6821885387
 20
34.7767751179
 30
0.0
 10
506.6821885387
 20
34.7767751179
 30
0.0
 10
508.9985451932
 20
31.9472136957
 30
0.0
 10
508.9985451932
 20
31.9472136957
 30
0.0
 10
508.3468981398
 20
31.295043231
 30
0.0
 10
507.5700249357
 20
30.5591269603
 30
0.0
 10
506.5988352911
 20
30.5591269603
 30
0.0
 10
505.6002974067
 20
30.5591269603
 30
0.0
 10
504.6569794131
 20
31.4887054075
 30
0.0
 10
504.6569794131
 20
32.4878975561
 30
0.0
 10
504.6569794131
 20
33.4870897046
 30
0.0
 10
505.8358324862
 20
34.1936949432
 30
0.0
 10
506.5573549465
 20
34.6935527231
 30
0.0
 10
506.5573549465
 20
34.6935527231
 30
0.0
 10
506.6821885387
 20
34.7767751179
 30
0.0
 10
506.6821885387
 20
34.7767751179
 30
0.0
  0
SPLINE
  5
249
330
20F
100
AcDbEntity
  8
0
  6
Continuous
 62
     7
100
AcDbSpline
 70
     3
 71
     3
 72
    23
 73
    19
 74
     0
 42
0.000000001
 43
0.0000001
 40
0.0
 40
0.0
 40
0.0
 40
0.0
 40
1.0
 40
1.0
 40
1.0
 40
2.0
 40
2.0
 40
2.0
 40
3.0
 40
3.0
 40
3.0
 40
4.0
 40
4.0
 40
4.0
 40
5.0
 40
5.0
 40
5.0
 40
6.0
 40
6.0
 40
6.0
 40
6.0
 10
506.9595965213
 20
36.4145290377
 30
0.0
 10
506.9595965213
 20
36.4145290377
 30
0.0
 10
506.6130982487
 20
36.8578583985
 30
0.0
 10
506.6130982487
 20
36.8578583985
 30
0.0
 10
506.3072952038
 20
37.2459678684
 30
0.0
 10
505.9884068766
 20
37.6344698969
 30
0.0
 10
505.9884068766
 20
38.1614142109
 30
0.0
 10
505.9884068766
 20
38.8275859276
 30
0.0
 10
506.5297450011
 20
39.2713078469
 30
0.0
 10
507.1536512562
 20
39.2713078469
 30
0.0
 10
507.8474329183
 20
39.2713078469
 30
0.0
 10
508.374638938
 20
38.8690662721
 30
0.0
 10
508.374638938
 20
38.1340659711
 30
0.0
 10
508.374638938
 20
37.3708014606
 30
0.0
 10
507.6533781833
 20
36.9406882348
 30
0.0
 10
507.1263030164
 20
36.5249688194
 30
0.0
 10
507.1263030164
 20
36.5249688194
 30
0.0
 10
506.9595965213
 20
36.4145290377
 30
0.0
 10
506.9595965213
 20
36.4145290377
 30
0.0
  0
SPLINE
  5
24A
330
20F
100
AcDbEntity
  8
0
  6
Continuous
 62
     7
100
AcDbSpline
 70
     3
 71
     3
 72
    50
 73
    46
 74
     0
 42
0.000000001
 43
0.0000001
 40
0.0
 40
0.0
 40
0.0
 40
0.0
 40
1.0
 40
1.0
 40
1.0
 40
2.0
 40
2.0
 40
2.0
 40
3.0
 40
3.0
 40
3.0
 40
4.0
 40
4.0
 40
4.0
 40
5.0
 40
5.0
 40
5.0
 40
6.0
 40
6.0
 40
6.0
 40
7.0
 40
7.0
 40
7.0
 40
8.0
 40
8.0
 40
8.0
 40
9.0
 40
9.0
 40
9.0
 40
10.0
 40
10.0
 40
10.0
 40
11.0
 40
11.0
 40
11.0
 40
12.0
 40
12.0
 40
12.0
 40
13.0
 40
13.0
 40
13.0
 40
14.0
 40
14.0
 40
14.0
 40
15.0
 40
15.0
 40
15.0
 40
15.0
 10
510.9131836842
 20
29.6159398195
 30
0.0
 10
510.9131836842
 20
29.6159398195
 30
0.0
 10
512.5224116887
 20
29.6159398195
 30
0.0
 10
512.5224116887
 20
29.6159398195
 30
0.0
 10
512.5224116887
 20
29.6159398195
 30
0.0
 10
510.6493843951
 20
31.9330815909
 30
0.0
 10
510.6493843951
 20
31.9330815909
 30
0.0
 10
510.6493843951
 20
31.9330815909
 30
0.0
 10
511.9257228206
 20
33.4305612855
 30
0.0
 10
511.9257228206
 20
33.4305612855
 30
0.0
 10
511.9257228206
 20
33.4305612855
 30
0.0
 10
511.0934988729
 20
34.2915728541
 30
0.0
 10
511.0934988729
 20
34.2915728541
 30
0.0
 10
511.0934988729
 20
34.2915728541
 30
0.0
 10
509.8729037495
 20
32.8762687317
 30
0.0
 10
509.8729037495
 20
32.8762687317
 30
0.0
 10
509.8729037495
 20
32.8762687317
 30
0.0
 10
507.6949893807
 20
35.5116445661
 30
0.0
 10
507.6949893807
 20
35.5116445661
 30
0.0
 10
508.5685628202
 20
36.149682926
 30
0.0
 10
509.5952340613
 20
36.9406882348
 30
0.0
 10
509.5952340613
 20
38.1195413079
 30
0.0
 10
509.5952340613
 20
39.4932342329
 30
0.0
 10
508.4573379215
 20
40.2977173824
 30
0.0
 10
507.1820463186
 20
40.2977173824
 30
0.0
 10
505.8086150992
 20
40.2977173824
 30
0.0
 10
504.7676809005
 20
39.4514921827
 30
0.0
 10
504.7676809005
 20
38.0088398205
 30
0.0
 10
504.7676809005
 20
37.1212651291
 30
0.0
 10
505.3230202769
 20
36.3443919251
 30
0.0
 10
505.9191857338
 20
35.7199622587
 30
0.0
 10
505.9191857338
 20
35.7199622587
 30
0.0
 10
505.2672769748
 20
35.2483686883
 30
0.0
 10
505.2672769748
 20
35.2483686883
 30
0.0
 10
504.2687390903
 20
34.5271079336
 30
0.0
 10
503.4358608785
 20
33.8058471789
 30
0.0
 10
503.4358608785
 20
32.4742888626
 30
0.0
 10
503.4358608785
 20
30.6706135646
 30
0.0
 10
504.8929070511
 20
29.3940134335
 30
0.0
 10
506.6404464885
 20
29.3940134335
 30
0.0
 10
507.8753045694
 20
29.3940134335
 30
0.0
 10
508.984674794
 20
30.1021889059
 30
0.0
 10
509.77554925
 20
31.0307205306
 30
0.0
 10
509.77554925
 20
31.0307205306
 30
0.0
 10
510.9131836842
 20
29.6159398195
 30
0.0
 10
510.9131836842
 20
29.6159398195
 30
0.0
  0
LINE
  5
24B
330
20F
100
AcDbEntity
  8
0
  6
Continuous
 62
     7
100
AcDbLine
 10
496.716045
 20
27.589815
 30
0.0
 11
519.129956
 21
27.589815
 31
0.0
  0
LINE
  5
24C
330
20F
100
AcDbEntity
  8
0
  6
Continuous
 62
     7
100
AcDbLine
 10
519.129956
 20
27.589815
 30
0.0
 11
519.129956
 21
50.003725
 31
0.0
  0
LINE
  5
24D
330
20F
100
AcDbEntity
  8
0
  6
Continuous
 62
     7
100
AcDbLine
 10
519.129956
 20
50.003725
 30
0.0
 11
496.716045
 21
50.003725
 31
0.0
  0
LINE
  5
24E
330
20F
100
AcDbEntity
  8
0
  6
Continuous
 62
     7
100
AcDbLine
 10
496.716045
 20
50.003725
 30
0.0
 11
496.716045
 21
27.589815
 31
0.0
  0
ENDBLK
  5
24F
330
20F
100
AcDbEntity
  8
0
  6
ByBlock
 62
     0
100
AcDbBlockEnd
  0
BLOCK
  5
264
330
210
100
AcDbEntity
  8
0
100
AcDbBlockBegin
  2
*T4
 70
     1
 10
0.0
 20
0.0
 30
0.0
  3
*T4
  1
*T4
  0
LINE
  5
265
330
210
100
AcDbEntity
  8
0
  6
Continuous
 62
     2
100
AcDbLine
 10
0.0
 20
0.0
 30
0.0
 11
90.0
 21
0.0
 31
0.0
  0
LINE
  5
266
330
210
100
AcDbEntity
  8
0
  6
Continuous
 62
     2
100
AcDbLine
 10
0.0
 20
0.0
 30
0.0
 11
0.0
 21
-40.0
 31
0.0
  0
LINE
  5
267
330
210
100
AcDbEntity
  8
0
  6
Continuous
 62
     2
100
AcDbLine
 10
30.0
 20
-6.0
 30
0.0
 11
90.0
 21
-6.0
 31
0.0
  0
LINE
  5
268
330
210
100
AcDbEntity
  8
0
  6
Continuous
 62
     2
100
AcDbLine
 10
30.0
 20
-12.0
 30
0.0
 11
90.0
 21
-12.0
 31
0.0
  0
LINE
  5
269
330
210
100
AcDbEntity
  8
0
  6
Continuous
 62
     2
100
AcDbLine
 10
30.0
 20
-22.0
 30
0.0
 11
90.0
 21
-22.0
 31
0.0
  0
LINE
  5
26A
330
210
100
AcDbEntity
  8
0
  6
Continuous
 62
     2
100
AcDbLine
 10
0.0
 20
-27.0
 30
0.0
 11
90.0
 21
-27.0
 31
0.0
  0
LINE
  5
26B
330
210
100
AcDbEntity
  8
0
  6
Continuous
 62
     2
100
AcDbLine
 10
0.0
 20
-40.0
 30
0.0
 11
90.0
 21
-40.0
 31
0.0
  0
LINE
  5
26C
330
210
100
AcDbEntity
  8
0
  6
Continuous
 62
     2
100
AcDbLine
 10
30.0
 20
0.0
 30
0.0
 11
30.0
 21
-27.0
 31
0.0
  0
LINE
  5
26D
330
210
100
AcDbEntity
  8
0
  6
Continuous
 62
     2
100
AcDbLine
 10
70.0
 20
0.0
 30
0.0
 11
70.0
 21
-12.0
 31
0.0
  0
LINE
  5
26E
330
210
100
AcDbEntity
  8
0
  6
Continuous
 62
     2
100
AcDbLine
 10
90.0
 20
0.0
 30
0.0
 11
90.0
 21
-40.0
 31
0.0
  0
MTEXT
  5
26F
330
210
100
AcDbEntity
  8
9_SOLID
  6
Continuous
 62
     2
100
AcDbMText
 10
31.4875
 20
-1.5
 30
0.0
 40
3.0
 41
27.714286
 46
0.0
 71
     1
 72
     1
  1
169839
  7
TEXTSTYLE_3
 73
     1
 44
0.9
  0
MTEXT
  5
270
330
210
100
AcDbEntity
  8
9_SOLID
  6
Continuous
 62
     2
100
AcDbMText
 10
71.4875
 20
-1.75
 30
0.0
 40
3.5
 41
30.333333
 46
0.0
 71
     1
 72
     1
  1
Rev:00
  7
TEXTSTYLE_3
 73
     1
 44
0.9
  0
MTEXT
  5
271
330
210
100
AcDbEntity
  8
9_SOLID
  6
Continuous
 62
     2
100
AcDbMText
 10
31.4875
 20
-7.75
 30
0.0
 40
3.5
 41
37.833333
 46
0.0
 71
     1
 72
     1
  1
Scale:1:1
  7
TEXTSTYLE_3
 73
     1
 44
0.9
  0
MTEXT
  5
272
330
210
100
AcDbEntity
  8
9_SOLID
  6
Continuous
 62
     2
100
AcDbMText
 10
71.4875
 20
-7.25
 30
0.0
 40
3.5
 41
12.833333
 46
0.0
 71
     1
 72
     1
  1
A2
  7
TEXTSTYLE_3
 73
     1
 44
0.9
  0
MTEXT
  5
273
330
210
100
AcDbEntity
  8
9_SOLID
  6
Continuous
 62
     2
100
AcDbMText
 10
31.4875
 20
-16.0
 30
0.0
 40
2.0
 41
116.542857
 46
0.0
 71
     1
 72
     1
  1
WC0105 - CASSAFORMA Ø117X120 BRIGHT 3
  7
TEXTSTYLE_3
 73
     1
 44
0.9
  0
MTEXT
  5
274
330
210
100
AcDbEntity
  8
9_SOLID
  6
Continuous
 62
     2
100
AcDbMText
 10
31.4875
 20
-23.25
 30
0.0
 40
2.5
 41
47.619048
 46
0.0
 71
     1
 72
     1
  1
DATE:24.06.19
  7
TEXTSTYLE_3
 73
     1
 44
0.9
  0
MTEXT
  5
275
330
210
100
AcDbEntity
  8
9_SOLID
  6
Continuous
 62
     2
100
AcDbMText
 10
1.4875
 20
-27.3125
 30
0.0
 40
2.25
 41
179.464286
 46
0.0
 71
     1
 72
     1
  1
Any integral or partial reproductions are prohibited \Pwithout prior authorisation of L {\Ftxt.shx;\W0.190476;\H2.250000; }& L Luce & Light s.r.l., \Pin accordance with the law in force. \PAll rights reserved.
  7
TEXTSTYLE_3
 73
     1
 44
0.9
  0
ENDBLK
  5
276
330
210
100
AcDbEntity
  8
0
  6
ByBlock
 62
     0
100
AcDbBlockEnd
  0
ENDSEC
  0
SECTION
  2
ENTITIES
  0
LINE
  5
277
330
20A
100
AcDbEntity
  8
0
  6
Continuous
 62
     7
100
AcDbLine
 10
0.0
 20
0.0
 30
0.0
 11
594.0
 21
0.0
 31
0.0
  0
LINE
  5
278
330
20A
100
AcDbEntity
  8
0
  6
Continuous
 62
     7
100
AcDbLine
 10
594.0
 20
0.0
 30
0.0
 11
594.0
 21
420.0
 31
0.0
  0
LINE
  5
279
330
20A
100
AcDbEntity
  8
0
  6
Continuous
 62
     7
100
AcDbLine
 10
0.0
 20
420.0
 30
0.0
 11
594.0
 21
420.0
 31
0.0
  0
LINE
  5
27A
330
20A
100
AcDbEntity
  8
0
  6
Continuous
 62
     7
100
AcDbLine
 10
0.0
 20
0.0
 30
0.0
 11
0.0
 21
420.0
 31
0.0
  0
LINE
  5
27B
330
20A
100
AcDbEntity
  8
6_ALL_SURFS
  6
Continuous
 62
     7
100
AcDbLine
 10
88.344244
 20
258.710969
 30
0.0
 11
87.820988
 21
288.688279
 31
0.0
  0
LINE
  5
27C
330
20A
100
AcDbEntity
  8
6_ALL_SURFS
  6
Continuous
 62
     7
100
AcDbLine
 10
142.32116
 20
288.675199
 30
0.0
 11
142.320816
 21
287.67248
 31
0.0
  0
LINE
  5
27D
330
20A
100
AcDbEntity
  8
6_ALL_SURFS
  6
Continuous
 62
     7
100
AcDbLine
 10
87.820988
 20
303.710969
 30
0.0
 11
87.820988
 21
288.688279
 31
0.0
  0
LINE
  5
27E
330
20A
100
AcDbEntity
  8
6_ALL_SURFS
  6
Continuous
 62
     7
100
AcDbLine
 10
194.820988
 20
303.710969
 30
0.0
 11
194.820988
 21
288.688279
 31
0.0
  0
LINE
  5
27F
330
20A
100
AcDbEntity
  8
6_ALL_SURFS
  6
Continuous
 62
     7
100
AcDbLine
 10
194.297315
 20
258.710969
 30
0.0
 11
157.077912
 21
258.710969
 31
0.0
  0
LINE
  5
280
330
20A
100
AcDbEntity
  8
6_ALL_SURFS
  6
Continuous
 62
     7
100
AcDbLine
 10
157.077912
 20
258.710969
 30
0.0
 11
156.093104
 21
258.710969
 31
0.0
  0
LINE
  5
281
330
20A
100
AcDbEntity
  8
6_ALL_SURFS
  6
Continuous
 62
     7
100
AcDbLine
 10
156.093104
 20
258.710969
 30
0.0
 11
155.320988
 21
258.710969
 31
0.0
  0
LINE
  5
282
330
20A
100
AcDbEntity
  8
6_ALL_SURFS
  6
Continuous
 62
     7
100
AcDbLine
 10
194.297732
 20
258.710969
 30
0.0
 11
194.820988
 21
288.688279
 31
0.0
  0
ARC
  5
283
330
20A
100
AcDbEntity
  8
3_ALL_AXES
  6
Continuous
 62
     7
100
AcDbCircle
 10
141.320988
 20
274.710969
 30
0.0
 40
14.0
100
AcDbArc
 50
85.909869
 51
94.100947
  0
ARC
  5
284
330
20A
100
AcDbEntity
  8
3_ALL_AXES
  6
Continuous
 62
     7
100
AcDbCircle
 10
141.320988
 20
274.710969
 30
0.0
 40
14.0
100
AcDbArc
 50
0.0
 51
85.909869
  0
ARC
  5
285
330
20A
100
AcDbEntity
  8
3_ALL_AXES
  6
Continuous
 62
     7
100
AcDbCircle
 10
141.320988
 20
274.710969
 30
0.0
 40
14.0
100
AcDbArc
 50
94.100947
 51
180.0
  0
LINE
  5
286
330
20A
100
AcDbEntity
  8
6_ALL_SURFS
  6
Continuous
 62
     7
100
AcDbLine
 10
127.320988
 20
258.710969
 30
0.0
 11
126.548872
 21
258.710969
 31
0.0
  0
LINE
  5
287
330
20A
100
AcDbEntity
  8
6_ALL_SURFS
  6
Continuous
 62
     7
100
AcDbLine
 10
126.548872
 20
258.710969
 30
0.0
 11
125.564064
 21
258.710969
 31
0.0
  0
LINE
  5
288
330
20A
100
AcDbEntity
  8
6_ALL_SURFS
  6
Continuous
 62
     7
100
AcDbLine
 10
125.564064
 20
258.710969
 30
0.0
 11
88.344661
 21
258.710969
 31
0.0
  0
LINE
  5
289
330
20A
100
AcDbEntity
  8
6_ALL_SURFS
  6
Continuous
 62
     7
100
AcDbLine
 10
155.320988
 20
258.710969
 30
0.0
 11
127.320988
 21
258.710969
 31
0.0
  0
LINE
  5
28A
330
20A
100
AcDbEntity
  8
6_ALL_SURFS
  6
Continuous
 62
     7
100
AcDbLine
 10
155.320988
 20
260.710969
 30
0.0
 11
127.320988
 21
260.710969
 31
0.0
  0
LINE
  5
28B
330
20A
100
AcDbEntity
  8
6_ALL_SURFS
  6
Continuous
 62
     7
100
AcDbLine
 10
127.320988
 20
261.710969
 30
0.0
 11
128.320988
 21
261.710969
 31
0.0
  0
LINE
  5
28C
330
20A
100
AcDbEntity
  8
6_ALL_SURFS
  6
Continuous
 62
     7
100
AcDbLine
 10
140.32116
 20
287.67248
 30
0.0
 11
140.320816
 21
288.675199
 31
0.0
  0
ARC
  5
28D
330
20A
100
AcDbEntity
  8
6_ALL_SURFS
  6
Continuous
 62
     7
100
AcDbCircle
 10
141.320988
 20
274.710969
 30
0.0
 40
13.0
100
AcDbArc
 50
94.411726
 51
180.0
  0
LINE
  5
28E
330
20A
100
AcDbEntity
  8
6_ALL_SURFS
  6
Continuous
 62
     7
100
AcDbLine
 10
155.320988
 20
274.710969
 30
0.0
 11
155.320988
 21
258.710969
 31
0.0
  0
LINE
  5
28F
330
20A
100
AcDbEntity
  8
6_ALL_SURFS
  6
Continuous
 62
     7
100
AcDbLine
 10
128.320988
 20
274.710969
 30
0.0
 11
128.320988
 21
261.710969
 31
0.0
  0
LINE
  5
290
330
20A
100
AcDbEntity
  8
6_ALL_SURFS
  6
Continuous
 62
     7
100
AcDbLine
 10
127.320988
 20
258.710969
 30
0.0
 11
127.320988
 21
274.710969
 31
0.0
  0
LINE
  5
291
330
20A
100
AcDbEntity
  8
6_ALL_SURFS
  6
Continuous
 62
     7
100
AcDbLine
 10
154.320988
 20
261.710969
 30
0.0
 11
154.320988
 21
274.710969
 31
0.0
  0
ARC
  5
292
330
20A
100
AcDbEntity
  8
6_ALL_SURFS
  6
Continuous
 62
     7
100
AcDbCircle
 10
141.320988
 20
274.710969
 30
0.0
 40
13.0
100
AcDbArc
 50
0.0
 51
85.588274
  0
LINE
  5
293
330
20A
100
AcDbEntity
  8
6_ALL_SURFS
  6
Continuous
 62
     7
100
AcDbLine
 10
154.320988
 20
261.710969
 30
0.0
 11
155.320988
 21
261.710969
 31
0.0
  0
LINE
  5
294
330
20A
100
AcDbEntity
  8
3_ALL_AXES
  6
Continuous
 62
     7
100
AcDbLine
 10
140.319547
 20
303.710969
 30
0.0
 11
140.319547
 21
288.688279
 31
0.0
  0
LINE
  5
295
330
20A
100
AcDbEntity
  8
3_ALL_AXES
  6
Continuous
 62
     7
100
AcDbLine
 10
142.319547
 20
303.710969
 30
0.0
 11
142.319547
 21
288.688279
 31
0.0
  0
LINE
  5
296
330
20A
100
AcDbEntity
  8
3_ALL_AXES
  6
Continuous
 62
     7
100
AcDbLine
 10
140.319547
 20
288.688279
 30
0.0
 11
87.820988
 21
288.688279
 31
0.0
  0
LINE
  5
297
330
20A
100
AcDbEntity
  8
3_ALL_AXES
  6
Continuous
 62
     7
100
AcDbLine
 10
194.820988
 20
288.688279
 30
0.0
 11
142.319547
 21
288.688279
 31
0.0
  0
LINE
  5
298
330
20A
100
AcDbEntity
  8
7_ALL_FEATURES
  6
Continuous
 62
     7
100
AcDbLine
 10
140.467761
 20
306.211007
 30
0.0
 11
142.172128
 21
306.210931
 31
0.0
  0
LINE
  5
299
330
20A
100
AcDbEntity
  8
7_ALL_FEATURES
  6
Continuous
 62
     7
100
AcDbLine
 10
140.46744
 20
306.211007
 30
0.0
 11
140.423692
 21
303.711008
 31
0.0
  0
LINE
  5
29A
330
20A
100
AcDbEntity
  8
7_ALL_FEATURES
  6
Continuous
 62
     7
100
AcDbLine
 10
142.215609
 20
303.710929
 30
0.0
 11
140.424059
 21
303.711008
 31
0.0
  0
LINE
  5
29B
330
20A
100
AcDbEntity
  8
7_ALL_FEATURES
  6
Continuous
 62
     7
100
AcDbLine
 10
142.172449
 20
306.210931
 30
0.0
 11
142.215976
 21
303.710929
 31
0.0
  0
LINE
  5
29C
330
20A
100
AcDbEntity
  8
7_ALL_FEATURES
  6
Continuous
 62
     7
100
AcDbLine
 10
82.967486
 20
306.213548
 30
0.0
 11
89.734808
 21
306.213249
 31
0.0
  0
LINE
  5
29D
330
20A
100
AcDbEntity
  8
7_ALL_FEATURES
  6
Continuous
 62
     7
100
AcDbLine
 10
89.734808
 20
306.213249
 30
0.0
 11
140.479861
 21
306.211006
 31
0.0
  0
LINE
  5
29E
330
20A
100
AcDbEntity
  8
7_ALL_FEATURES
  6
Continuous
 62
     7
100
AcDbLine
 10
82.96744
 20
306.213548
 30
0.0
 11
82.923692
 21
303.71355
 31
0.0
  0
LINE
  5
29F
330
20A
100
AcDbEntity
  8
7_ALL_FEATURES
  6
Continuous
 62
     7
100
AcDbLine
 10
199.715814
 20
303.708388
 30
0.0
 11
194.820988
 21
303.708604
 31
0.0
  0
LINE
  5
2A0
330
20A
100
AcDbEntity
  8
7_ALL_FEATURES
  6
Continuous
 62
     7
100
AcDbLine
 10
194.820988
 20
303.708604
 30
0.0
 11
193.469142
 21
303.708664
 31
0.0
  0
LINE
  5
2A1
330
20A
100
AcDbEntity
  8
7_ALL_FEATURES
  6
Continuous
 62
     7
100
AcDbLine
 10
193.469142
 20
303.708664
 30
0.0
 11
193.26547
 21
303.708673
 31
0.0
  0
LINE
  5
2A2
330
20A
100
AcDbEntity
  8
7_ALL_FEATURES
  6
Continuous
 62
     7
100
AcDbLine
 10
193.26547
 20
303.708673
 30
0.0
 11
142.319547
 21
303.710925
 31
0.0
  0
LINE
  5
2A3
330
20A
100
AcDbEntity
  8
7_ALL_FEATURES
  6
Continuous
 62
     7
100
AcDbLine
 10
142.319547
 20
303.710925
 30
0.0
 11
142.210141
 21
303.710929
 31
0.0
  0
LINE
  5
2A4
330
20A
100
AcDbEntity
  8
7_ALL_FEATURES
  6
Continuous
 62
     7
100
AcDbLine
 10
199.672449
 20
306.20839
 30
0.0
 11
199.715976
 21
303.708388
 31
0.0
  0
LINE
  5
2A5
330
20A
100
AcDbEntity
  8
7_ALL_FEATURES
  6
Continuous
 62
     7
100
AcDbLine
 10
91.158574
 20
354.263186
 30
0.0
 11
90.147389
 21
353.252091
 31
0.0
  0
LINE
  5
2A6
330
20A
100
AcDbEntity
  8
7_ALL_FEATURES
  6
Continuous
 62
     7
100
AcDbLine
 10
191.485563
 20
354.258752
 30
0.0
 11
192.496658
 21
353.247567
 31
0.0
  0
LINE
  5
2A7
330
20A
100
AcDbEntity
  8
7_ALL_FEATURES
  6
Continuous
 62
     7
100
AcDbLine
 10
191.485563
 20
354.258752
 30
0.0
 11
190.822908
 21
373.258781
 31
0.0
  0
LINE
  5
2A8
330
20A
100
AcDbEntity
  8
7_ALL_FEATURES
  6
Continuous
 62
     7
100
AcDbLine
 10
91.158574
 20
354.263186
 30
0.0
 11
91.822908
 21
373.263157
 31
0.0
  0
LINE
  5
2A9
330
20A
100
AcDbEntity
  8
7_ALL_FEATURES
  6
Continuous
 62
     7
100
AcDbLine
 10
91.822908
 20
373.263157
 30
0.0
 11
93.623223
 21
373.263077
 31
0.0
  0
LINE
  5
2AA
330
20A
100
AcDbEntity
  8
7_ALL_FEATURES
  6
Continuous
 62
     7
100
AcDbLine
 10
93.623223
 20
373.263077
 30
0.0
 11
93.828006
 21
373.263068
 31
0.0
  0
LINE
  5
2AB
330
20A
100
AcDbEntity
  8
7_ALL_FEATURES
  6
Continuous
 62
     7
100
AcDbLine
 10
93.828006
 20
373.263068
 30
0.0
 11
175.051902
 21
373.259478
 31
0.0
  0
LINE
  5
2AC
330
20A
100
AcDbEntity
  8
7_ALL_FEATURES
  6
Continuous
 62
     7
100
AcDbLine
 10
175.051902
 20
373.259478
 30
0.0
 11
188.81781
 21
373.258869
 31
0.0
  0
LINE
  5
2AD
330
20A
100
AcDbEntity
  8
7_ALL_FEATURES
  6
Continuous
 62
     7
100
AcDbLine
 10
188.81781
 20
373.258869
 30
0.0
 11
189.022593
 21
373.25886
 31
0.0
  0
LINE
  5
2AE
330
20A
100
AcDbEntity
  8
7_ALL_FEATURES
  6
Continuous
 62
     7
100
AcDbLine
 10
189.022593
 20
373.25886
 30
0.0
 11
190.822908
 21
373.258781
 31
0.0
  0
LINE
  5
2AF
330
20A
100
AcDbEntity
  8
7_ALL_FEATURES
  6
Continuous
 62
     7
100
AcDbLine
 10
192.905081
 20
306.208689
 30
0.0
 11
192.496658
 21
353.247567
 31
0.0
  0
LINE
  5
2B0
330
20A
100
AcDbEntity
  8
7_ALL_FEATURES
  6
Continuous
 62
     7
100
AcDbLine
 10
89.734808
 20
306.213249
 30
0.0
 11
90.147389
 21
353.252091
 31
0.0
  0
LINE
  5
2B1
330
20A
100
AcDbEntity
  8
7_ALL_FEATURES
  6
Continuous
 62
     7
100
AcDbLine
 10
142.160028
 20
306.210932
 30
0.0
 11
192.905081
 21
306.208689
 31
0.0
  0
LINE
  5
2B2
330
20A
100
AcDbEntity
  8
7_ALL_FEATURES
  6
Continuous
 62
     7
100
AcDbLine
 10
192.905081
 20
306.208689
 30
0.0
 11
199.672402
 21
306.20839
 31
0.0
  0
LINE
  5
2B3
330
20A
100
AcDbEntity
  8
7_ALL_FEATURES
  6
Continuous
 62
     7
100
AcDbLine
 10
140.429527
 20
303.711008
 30
0.0
 11
140.319547
 21
303.711013
 31
0.0
  0
LINE
  5
2B4
330
20A
100
AcDbEntity
  8
7_ALL_FEATURES
  6
Continuous
 62
     7
100
AcDbLine
 10
140.319547
 20
303.711013
 30
0.0
 11
89.374198
 21
303.713265
 31
0.0
  0
LINE
  5
2B5
330
20A
100
AcDbEntity
  8
7_ALL_FEATURES
  6
Continuous
 62
     7
100
AcDbLine
 10
89.374198
 20
303.713265
 30
0.0
 11
89.169992
 21
303.713274
 31
0.0
  0
LINE
  5
2B6
330
20A
100
AcDbEntity
  8
7_ALL_FEATURES
  6
Continuous
 62
     7
100
AcDbLine
 10
89.169992
 20
303.713274
 30
0.0
 11
87.821154
 21
303.713334
 31
0.0
  0
LINE
  5
2B7
330
20A
100
AcDbEntity
  8
7_ALL_FEATURES
  6
Continuous
 62
     7
100
AcDbLine
 10
87.821154
 20
303.713334
 30
0.0
 11
82.923853
 21
303.71355
 31
0.0
  0
LINE
  5
2B8
330
20A
100
AcDbEntity
  8
7_ALL_FEATURES
  6
Continuous
 62
     7
100
AcDbLine
 10
91.158574
 20
354.263186
 30
0.0
 11
191.485563
 21
354.258752
 31
0.0
  0
LINE
  5
2B9
330
20A
100
AcDbEntity
  8
7_ALL_FEATURES
  6
Continuous
 62
     7
100
AcDbLine
 10
192.496658
 20
353.247567
 30
0.0
 11
90.147389
 21
353.252091
 31
0.0
  0
LINE
  5
2BA
330
20A
100
AcDbEntity
  8
6_ALL_SURFS
  6
Continuous
 62
     7
100
AcDbLine
 10
157.077912
 20
117.277161
 30
0.0
 11
156.093104
 21
117.103513
 31
0.0
  0
ARC
  5
2BB
330
20A
100
AcDbEntity
  8
6_ALL_SURFS
  6
Continuous
 62
     7
100
AcDbCircle
 10
141.320988
 20
114.49879
 30
0.0
 40
16.0
100
AcDbArc
 50
10.0
 51
80.0
  0
LINE
  5
2BC
330
20A
100
AcDbEntity
  8
6_ALL_SURFS
  6
Continuous
 62
     7
100
AcDbLine
 10
143.925711
 20
129.270907
 30
0.0
 11
144.099359
 21
130.255715
 31
0.0
  0
ARC
  5
2BD
330
20A
100
AcDbEntity
  8
6_ALL_SURFS
  6
Continuous
 62
     7
100
AcDbCircle
 10
141.320988
 20
114.49879
 30
0.0
 40
15.0
100
AcDbArc
 50
10.0
 51
80.0
  0
LINE
  5
2BE
330
20A
100
AcDbEntity
  8
6_ALL_SURFS
  6
Continuous
 62
     7
100
AcDbLine
 10
144.099359
 20
98.741866
 30
0.0
 11
143.925711
 21
99.726674
 31
0.0
  0
ARC
  5
2BF
330
20A
100
AcDbEntity
  8
6_ALL_SURFS
  6
Continuous
 62
     7
100
AcDbCircle
 10
141.320988
 20
114.49879
 30
0.0
 40
16.0
100
AcDbArc
 50
280.0
 51
350.0
  0
LINE
  5
2C0
330
20A
100
AcDbEntity
  8
6_ALL_SURFS
  6
Continuous
 62
     7
100
AcDbLine
 10
156.093104
 20
111.894068
 30
0.0
 11
157.077912
 21
111.72042
 31
0.0
  0
ARC
  5
2C1
330
20A
100
AcDbEntity
  8
6_ALL_SURFS
  6
Continuous
 62
     7
100
AcDbCircle
 10
141.320988
 20
114.49879
 30
0.0
 40
15.0
100
AcDbArc
 50
280.0
 51
350.0
  0
LINE
  5
2C2
330
20A
100
AcDbEntity
  8
6_ALL_SURFS
  6
Continuous
 62
     7
100
AcDbLine
 10
138.542617
 20
130.255715
 30
0.0
 11
138.716266
 21
129.270907
 31
0.0
  0
ARC
  5
2C3
330
20A
100
AcDbEntity
  8
6_ALL_SURFS
  6
Continuous
 62
     7
100
AcDbCircle
 10
141.320988
 20
114.49879
 30
0.0
 40
16.0
100
AcDbArc
 50
100.0
 51
170.0
  0
LINE
  5
2C4
330
20A
100
AcDbEntity
  8
6_ALL_SURFS
  6
Continuous
 62
     7
100
AcDbLine
 10
126.548872
 20
117.103513
 30
0.0
 11
125.564064
 21
117.277161
 31
0.0
  0
ARC
  5
2C5
330
20A
100
AcDbEntity
  8
6_ALL_SURFS
  6
Continuous
 62
     7
100
AcDbCircle
 10
141.320988
 20
114.49879
 30
0.0
 40
15.0
100
AcDbArc
 50
100.0
 51
170.0
  0
LINE
  5
2C6
330
20A
100
AcDbEntity
  8
7_ALL_FEATURES
  6
Continuous
 62
     7
100
AcDbLine
 10
138.716266
 20
99.726674
 30
0.0
 11
138.542617
 21
98.741866
 31
0.0
  0
ARC
  5
2C7
330
20A
100
AcDbEntity
  8
6_ALL_SURFS
  6
Continuous
 62
     7
100
AcDbCircle
 10
141.320988
 20
114.49879
 30
0.0
 40
15.0
100
AcDbArc
 50
190.0
 51
260.0
  0
LINE
  5
2C8
330
20A
100
AcDbEntity
  8
7_ALL_FEATURES
  6
Continuous
 62
     7
100
AcDbLine
 10
125.564064
 20
111.72042
 30
0.0
 11
126.548872
 21
111.894068
 31
0.0
  0
SPLINE
  5
2C9
330
20A
100
AcDbEntity
  8
7_ALL_FEATURES
  6
Continuous
 62
     7
100
AcDbSpline
 70
     0
 71
     3
 72
    21
 73
    17
 74
     0
 42
0.000000001
 43
0.0000001
 40
0.0
 40
0.0
 40
0.0
 40
0.0
 40
0.0312235732
 40
0.0624622123
 40
0.1250562079
 40
0.187647065
 40
0.25016791
 40
0.3750406531
 40
0.5
 40
0.6249593469
 40
0.74983209
 40
0.812352935
 40
0.8749437921
 40
0.9375377877
 40
0.9687764268
 40
1.0
 40
1.0
 40
1.0
 40
1.0
 10
138.5426173427
 20
98.7418664139
 30
0.0
 10
138.3424206562
 20
98.7775431555
 30
0.0
 10
137.9417884958
 20
98.8484363814
 30
0.0
 10
137.1469912211
 20
99.028144011
 30
0.0
 10
136.1728199494
 20
99.3309026091
 30
0.0
 10
135.0320133242
 20
99.7726232137
 30
0.0
 10
133.5590056283
 20
100.4689277361
 30
0.0
 10
131.8213619048
 20
101.5435842471
 30
0.0
 10
129.9646761939
 20
103.1424784706
 30
0.0
 10
128.3657819705
 20
104.9991641815
 30
0.0
 10
127.2911254595
 20
106.736807905
 30
0.0
 10
126.594820937
 20
108.2098156008
 30
0.0
 10
126.1531003324
 20
109.350622226
 30
0.0
 10
125.8503417343
 20
110.3247934977
 30
0.0
 10
125.6706341047
 20
111.1195907725
 30
0.0
 10
125.5997408788
 20
111.5202229328
 30
0.0
 10
125.5640641372
 20
111.7204196194
 30
0.0
  0
ARC
  5
2CA
330
20A
100
AcDbEntity
  8
6_ALL_SURFS
  6
Continuous
 62
     7
100
AcDbCircle
 10
141.322908
 20
114.49879
 30
0.0
 40
47.7
100
AcDbArc
 50
45.0
 51
225.0
  0
ARC
  5
2CB
330
20A
100
AcDbEntity
  8
6_ALL_SURFS
  6
Continuous
 62
     7
100
AcDbCircle
 10
141.322908
 20
114.49879
 30
0.0
 40
47.7
100
AcDbArc
 50
225.0
 51
45.0
  0
SPLINE
  5
2CC
330
20A
100
AcDbEntity
  8
7_ALL_FEATURES
  6
Continuous
 62
     7
100
AcDbSpline
 70
     0
 71
     3
 72
     9
 73
     5
 74
     0
 42
0.000000001
 43
0.0000001
 40
0.0
 40
0.0
 40
0.0
 40
0.0
 40
0.2585792232
 40
1.0
 40
1.0
 40
1.0
 40
1.0
 10
127.8597144252
 20
80.0348017927
 30
0.0
 10
127.8255435841
 20
80.01961069
 30
0.0
 10
127.693110213
 20
79.9615117324
 30
0.0
 10
127.5596513306
 20
79.9057009057
 30
0.0
 10
127.4598452025
 20
79.8665144209
 30
0.0
  0
SPLINE
  5
2CD
330
20A
100
AcDbEntity
  8
7_ALL_FEATURES
  6
Continuous
 62
     7
100
AcDbSpline
 70
     0
 71
     3
 72
     9
 73
     5
 74
     0
 42
0.000000001
 43
0.0000001
 40
0.0
 40
0.0
 40
0.0
 40
0.0
 40
0.2993928462
 40
1.0
 40
1.0
 40
1.0
 40
1.0
 10
127.4598452025
 20
79.8665144209
 30
0.0
 10
127.4353074185
 20
79.8568802479
 30
0.0
 10
127.3531034347
 20
79.8254718551
 30
0.0
 10
127.2704131444
 20
79.7943843662
 30
0.0
 10
127.2106933048
 20
79.7789264086
 30
0.0
  0
ARC
  5
2CE
330
20A
100
AcDbEntity
  8
7_ALL_FEATURES
  6
Continuous
 62
     7
100
AcDbCircle
 10
141.322013
 20
114.49879
 30
0.0
 40
36.0
100
AcDbArc
 50
253.408246
 51
256.591754
  0
SPLINE
  5
2CF
330
20A
100
AcDbEntity
  8
7_ALL_FEATURES
  6
Continuous
 62
     7
100
AcDbSpline
 70
     0
 71
     3
 72
     9
 73
     5
 74
     0
 42
0.000000001
 43
0.0000001
 40
0.0
 40
0.0
 40
0.0
 40
0.0
 40
0.2061684317
 40
1.0
 40
1.0
 40
1.0
 40
1.0
 10
176.0418568141
 20
128.610092043
 30
0.0
 10
176.0400454151
 20
128.6030926401
 30
0.0
 10
176.0305385538
 20
128.5693305147
 30
0.0
 10
176.0192886223
 20
128.5360901555
 30
0.0
 10
176.0100695993
 20
128.5098225792
 30
0.0
  0
SPLINE
  5
2D0
330
20A
100
AcDbEntity
  8
7_ALL_FEATURES
  6
Continuous
 62
     7
100
AcDbSpline
 70
     0
 71
     3
 72
     9
 73
     5
 74
     0
 42
0.000000001
 43
0.0000001
 40
0.0
 40
0.0
 40
0.0
 40
0.0
 40
0.2304890644
 40
1.0
 40
1.0
 40
1.0
 40
1.0
 10
176.0100695993
 20
128.5098225792
 30
0.0
 10
176.0060039998
 20
128.4982385486
 30
0.0
 10
175.9880231066
 20
128.4481000495
 30
0.0
 10
175.9689684833
 20
128.3983524852
 30
0.0
 10
175.953984845
 20
128.3602022384
 30
0.0
  0
SPLINE
  5
2D1
330
20A
100
AcDbEntity
  8
7_ALL_FEATURES
  6
Continuous
 62
     7
100
AcDbSpline
 70
     0
 71
     3
 72
     9
 73
     5
 74
     0
 42
0.000000001
 43
0.0000001
 40
0.0
 40
0.0
 40
0.0
 40
0.0
 40
0.2372190603
 40
1.0
 40
1.0
 40
1.0
 40
1.0
 10
175.953984845
 20
128.3602022384
 30
0.0
 10
175.9414671384
 20
128.3283305669
 30
0.0
 10
175.8876638226
 20
128.1943824363
 30
0.0
 10
175.8307272525
 20
128.0617051692
 30
0.0
 10
175.7859995577
 20
127.9610945983
 30
0.0
  0
ARC
  5
2D2
330
20A
100
AcDbEntity
  8
7_ALL_FEATURES
  6
Continuous
 62
     7
100
AcDbCircle
 10
141.322013
 20
114.49879
 30
0.0
 40
36.0
100
AcDbArc
 50
283.408246
 51
286.591754
  0
ARC
  5
2D3
330
20A
100
AcDbEntity
  8
7_ALL_FEATURES
  6
Continuous
 62
     7
100
AcDbCircle
 10
141.322013
 20
114.49879
 30
0.0
 40
36.0
100
AcDbArc
 50
103.408246
 51
106.591754
  0
SPLINE
  5
2D4
330
20A
100
AcDbEntity
  8
7_ALL_FEATURES
  6
Continuous
 62
     7
100
AcDbSpline
 70
     0
 71
     3
 72
     9
 73
     5
 74
     0
 42
0.000000001
 43
0.0000001
 40
0.0
 40
0.0
 40
0.0
 40
0.0
 40
0.2061548079
 40
1.0
 40
1.0
 40
1.0
 40
1.0
 10
106.6021248884
 20
100.3874815689
 30
0.0
 10
106.603936934
 20
100.3944799834
 30
0.0
 10
106.6134471566
 20
100.4282395572
 30
0.0
 10
106.6246992928
 20
100.4614775124
 30
0.0
 10
106.6339199225
 20
100.4877437372
 30
0.0
  0
SPLINE
  5
2D5
330
20A
100
AcDbEntity
  8
7_ALL_FEATURES
  6
Continuous
 62
     7
100
AcDbSpline
 70
     0
 71
     3
 72
     9
 73
     5
 74
     0
 42
0.000000001
 43
0.0000001
 40
0.0
 40
0.0
 40
0.0
 40
0.0
 40
0.2304852584
 40
1.0
 40
1.0
 40
1.0
 40
1.0
 10
106.6339199225
 20
100.4877437372
 30
0.0
 10
106.6379864146
 20
100.4993276962
 30
0.0
 10
106.6559712239
 20
100.5494667753
 30
0.0
 10
106.6750289309
 20
100.5992151468
 30
0.0
 10
106.690014733
 20
100.6373663074
 30
0.0
  0
SPLINE
  5
2D6
330
20A
100
AcDbEntity
  8
7_ALL_FEATURES
  6
Continuous
 62
     7
100
AcDbSpline
 70
     0
 71
     3
 72
     9
 73
     5
 74
     0
 42
0.000000001
 43
0.0000001
 40
0.0
 40
0.0
 40
0.0
 40
0.0
 40
0.2372182538
 40
1.0
 40
1.0
 40
1.0
 40
1.0
 10
106.690014733
 20
100.6373663074
 30
0.0
 10
106.7025346593
 20
100.6692397913
 30
0.0
 10
106.7563467023
 20
100.8031962899
 30
0.0
 10
106.813289427
 20
100.9358828528
 30
0.0
 10
106.8580207911
 20
101.0365011219
 30
0.0
  0
ARC
  5
2D7
330
20A
100
AcDbEntity
  8
7_ALL_FEATURES
  6
Continuous
 62
     7
100
AcDbCircle
 10
141.322013
 20
114.49879
 30
0.0
 40
36.0
100
AcDbArc
 50
73.408246
 51
76.591754
  0
ARC
  5
2D8
330
20A
100
AcDbEntity
  8
7_ALL_FEATURES
  6
Continuous
 62
     7
100
AcDbCircle
 10
141.322013
 20
114.49879
 30
0.0
 40
36.0
100
AcDbArc
 50
13.408246
 51
16.591754
  0
SPLINE
  5
2D9
330
20A
100
AcDbEntity
  8
7_ALL_FEATURES
  6
Continuous
 62
     7
100
AcDbSpline
 70
     0
 71
     3
 72
     9
 73
     5
 74
     0
 42
0.000000001
 43
0.0000001
 40
0.0
 40
0.0
 40
0.0
 40
0.0
 40
0.2585838337
 40
1.0
 40
1.0
 40
1.0
 40
1.0
 10
154.7843033838
 20
148.9627823811
 30
0.0
 10
154.8184753786
 20
148.9779740679
 30
0.0
 10
154.9509107571
 20
149.036074464
 30
0.0
 10
155.0843712725
 20
149.0918875888
 30
0.0
 10
155.1841778365
 20
149.13107604
 30
0.0
  0
SPLINE
  5
2DA
330
20A
100
AcDbEntity
  8
7_ALL_FEATURES
  6
Continuous
 62
     7
100
AcDbSpline
 70
     0
 71
     3
 72
     9
 73
     5
 74
     0
 42
0.000000001
 43
0.0000001
 40
0.0
 40
0.0
 40
0.0
 40
0.0
 40
0.2994091767
 40
1.0
 40
1.0
 40
1.0
 40
1.0
 10
155.1841778365
 20
149.13107604
 30
0.0
 10
155.2087146164
 20
149.1407102601
 30
0.0
 10
155.2909107579
 20
149.1721171087
 30
0.0
 10
155.3735927001
 20
149.2032045256
 30
0.0
 10
155.4333055685
 20
149.218661683
 30
0.0
  0
ARC
  5
2DB
330
20A
100
AcDbEntity
  8
7_ALL_FEATURES
  6
Continuous
 62
     7
100
AcDbCircle
 10
141.322013
 20
114.49879
 30
0.0
 40
36.0
100
AcDbArc
 50
343.408246
 51
346.591754
  0
ARC
  5
2DC
330
20A
100
AcDbEntity
  8
7_ALL_FEATURES
  6
Continuous
 62
     7
100
AcDbCircle
 10
141.322013
 20
114.49879
 30
0.0
 40
36.0
100
AcDbArc
 50
193.408246
 51
196.591754
  0
ARC
  5
2DD
330
20A
100
AcDbEntity
  8
7_ALL_FEATURES
  6
Continuous
 62
     7
100
AcDbCircle
 10
141.322013
 20
114.49879
 30
0.0
 40
36.0
100
AcDbArc
 50
163.408246
 51
166.591754
  0
ARC
  5
2DE
330
20A
100
AcDbEntity
  8
3_ALL_AXES
  6
Continuous
 62
     7
100
AcDbCircle
 10
129.042512
 20
74.333991
 30
0.0
 40
2.0
100
AcDbArc
 50
146.0
 51
326.0
  0
ARC
  5
2DF
330
20A
100
AcDbEntity
  8
3_ALL_AXES
  6
Continuous
 62
     7
100
AcDbCircle
 10
129.042512
 20
74.333991
 30
0.0
 40
2.0
100
AcDbArc
 50
326.0
 51
146.0
  0
ARC
  5
2E0
330
20A
100
AcDbEntity
  8
3_ALL_AXES
  6
Continuous
 62
     7
100
AcDbCircle
 10
135.114128
 20
72.960124
 30
0.0
 40
2.0
100
AcDbArc
 50
154.5
 51
334.5
  0
ARC
  5
2E1
330
20A
100
AcDbEntity
  8
3_ALL_AXES
  6
Continuous
 62
     7
100
AcDbCircle
 10
135.114128
 20
72.960124
 30
0.0
 40
2.0
100
AcDbArc
 50
334.5
 51
154.5
  0
ARC
  5
2E2
330
20A
100
AcDbEntity
  8
3_ALL_AXES
  6
Continuous
 62
     7
100
AcDbCircle
 10
141.322124
 20
72.49879
 30
0.0
 40
2.0
100
AcDbArc
 50
163.0
 51
343.0
  0
ARC
  5
2E3
330
20A
100
AcDbEntity
  8
3_ALL_AXES
  6
Continuous
 62
     7
100
AcDbCircle
 10
141.322124
 20
72.49879
 30
0.0
 40
2.0
100
AcDbArc
 50
343.0
 51
163.0
  0
ARC
  5
2E4
330
20A
100
AcDbEntity
  8
3_ALL_AXES
  6
Continuous
 62
     7
100
AcDbCircle
 10
147.530119
 20
72.960124
 30
0.0
 40
2.0
100
AcDbArc
 50
171.5
 51
351.5
  0
ARC
  5
2E5
330
20A
100
AcDbEntity
  8
3_ALL_AXES
  6
Continuous
 62
     7
100
AcDbCircle
 10
147.530119
 20
72.960124
 30
0.0
 40
2.0
100
AcDbArc
 50
351.5
 51
171.5
  0
ARC
  5
2E6
330
20A
100
AcDbEntity
  8
3_ALL_AXES
  6
Continuous
 62
     7
100
AcDbCircle
 10
181.486923
 20
102.219179
 30
0.0
 40
2.0
100
AcDbArc
 50
236.0
 51
56.0
  0
ARC
  5
2E7
330
20A
100
AcDbEntity
  8
3_ALL_AXES
  6
Continuous
 62
     7
100
AcDbCircle
 10
181.486923
 20
102.219179
 30
0.0
 40
2.0
100
AcDbArc
 50
56.0
 51
236.0
  0
ARC
  5
2E8
330
20A
100
AcDbEntity
  8
3_ALL_AXES
  6
Continuous
 62
     7
100
AcDbCircle
 10
182.86079
 20
108.290795
 30
0.0
 40
2.0
100
AcDbArc
 50
244.5
 51
64.5
  0
ARC
  5
2E9
330
20A
100
AcDbEntity
  8
3_ALL_AXES
  6
Continuous
 62
     7
100
AcDbCircle
 10
182.86079
 20
108.290795
 30
0.0
 40
2.0
100
AcDbArc
 50
64.5
 51
244.5
  0
ARC
  5
2EA
330
20A
100
AcDbEntity
  8
3_ALL_AXES
  6
Continuous
 62
     7
100
AcDbCircle
 10
183.322124
 20
114.49879
 30
0.0
 40
2.0
100
AcDbArc
 50
253.0
 51
73.0
  0
ARC
  5
2EB
330
20A
100
AcDbEntity
  8
3_ALL_AXES
  6
Continuous
 62
     7
100
AcDbCircle
 10
183.322124
 20
114.49879
 30
0.0
 40
2.0
100
AcDbArc
 50
73.0
 51
253.0
  0
ARC
  5
2EC
330
20A
100
AcDbEntity
  8
3_ALL_AXES
  6
Continuous
 62
     7
100
AcDbCircle
 10
182.86079
 20
120.706786
 30
0.0
 40
2.0
100
AcDbArc
 50
261.5
 51
81.5
  0
ARC
  5
2ED
330
20A
100
AcDbEntity
  8
3_ALL_AXES
  6
Continuous
 62
     7
100
AcDbCircle
 10
182.86079
 20
120.706786
 30
0.0
 40
2.0
100
AcDbArc
 50
81.5
 51
261.5
  0
ARC
  5
2EE
330
20A
100
AcDbEntity
  8
3_ALL_AXES
  6
Continuous
 62
     7
100
AcDbCircle
 10
181.486923
 20
126.778402
 30
0.0
 40
2.0
100
AcDbArc
 50
270.0
 51
90.0
  0
ARC
  5
2EF
330
20A
100
AcDbEntity
  8
3_ALL_AXES
  6
Continuous
 62
     7
100
AcDbCircle
 10
181.486923
 20
126.778402
 30
0.0
 40
2.0
100
AcDbArc
 50
90.0
 51
270.0
  0
ARC
  5
2F0
330
20A
100
AcDbEntity
  8
3_ALL_AXES
  6
Continuous
 62
     7
100
AcDbCircle
 10
153.601735
 20
74.333991
 30
0.0
 40
2.0
100
AcDbArc
 50
180.0
 51
360.0
  0
ARC
  5
2F1
330
20A
100
AcDbEntity
  8
3_ALL_AXES
  6
Continuous
 62
     7
100
AcDbCircle
 10
153.601735
 20
74.333991
 30
0.0
 40
2.0
100
AcDbArc
 50
0.0
 51
180.0
  0
ARC
  5
2F2
330
20A
100
AcDbEntity
  8
3_ALL_AXES
  6
Continuous
 62
     7
100
AcDbCircle
 10
101.157324
 20
126.778402
 30
0.0
 40
2.0
100
AcDbArc
 50
56.0
 51
236.0
  0
ARC
  5
2F3
330
20A
100
AcDbEntity
  8
3_ALL_AXES
  6
Continuous
 62
     7
100
AcDbCircle
 10
101.157324
 20
126.778402
 30
0.0
 40
2.0
100
AcDbArc
 50
236.0
 51
56.0
  0
ARC
  5
2F4
330
20A
100
AcDbEntity
  8
3_ALL_AXES
  6
Continuous
 62
     7
100
AcDbCircle
 10
99.783457
 20
120.706786
 30
0.0
 40
2.0
100
AcDbArc
 50
64.5
 51
244.5
  0
ARC
  5
2F5
330
20A
100
AcDbEntity
  8
3_ALL_AXES
  6
Continuous
 62
     7
100
AcDbCircle
 10
99.783457
 20
120.706786
 30
0.0
 40
2.0
100
AcDbArc
 50
244.5
 51
64.5
  0
ARC
  5
2F6
330
20A
100
AcDbEntity
  8
3_ALL_AXES
  6
Continuous
 62
     7
100
AcDbCircle
 10
99.322124
 20
114.49879
 30
0.0
 40
2.0
100
AcDbArc
 50
73.0
 51
253.0
  0
ARC
  5
2F7
330
20A
100
AcDbEntity
  8
3_ALL_AXES
  6
Continuous
 62
     7
100
AcDbCircle
 10
99.322124
 20
114.49879
 30
0.0
 40
2.0
100
AcDbArc
 50
253.0
 51
73.0
  0
ARC
  5
2F8
330
20A
100
AcDbEntity
  8
3_ALL_AXES
  6
Continuous
 62
     7
100
AcDbCircle
 10
99.783457
 20
108.290795
 30
0.0
 40
2.0
100
AcDbArc
 50
81.5
 51
261.5
  0
ARC
  5
2F9
330
20A
100
AcDbEntity
  8
3_ALL_AXES
  6
Continuous
 62
     7
100
AcDbCircle
 10
99.783457
 20
108.290795
 30
0.0
 40
2.0
100
AcDbArc
 50
261.5
 51
81.5
  0
ARC
  5
2FA
330
20A
100
AcDbEntity
  8
3_ALL_AXES
  6
Continuous
 62
     7
100
AcDbCircle
 10
153.601735
 20
154.66359
 30
0.0
 40
2.0
100
AcDbArc
 50
326.0
 51
146.0
  0
ARC
  5
2FB
330
20A
100
AcDbEntity
  8
3_ALL_AXES
  6
Continuous
 62
     7
100
AcDbCircle
 10
153.601735
 20
154.66359
 30
0.0
 40
2.0
100
AcDbArc
 50
146.0
 51
326.0
  0
ARC
  5
2FC
330
20A
100
AcDbEntity
  8
3_ALL_AXES
  6
Continuous
 62
     7
100
AcDbCircle
 10
147.530119
 20
156.037457
 30
0.0
 40
2.0
100
AcDbArc
 50
334.5
 51
154.5
  0
ARC
  5
2FD
330
20A
100
AcDbEntity
  8
3_ALL_AXES
  6
Continuous
 62
     7
100
AcDbCircle
 10
147.530119
 20
156.037457
 30
0.0
 40
2.0
100
AcDbArc
 50
154.5
 51
334.5
  0
ARC
  5
2FE
330
20A
100
AcDbEntity
  8
3_ALL_AXES
  6
Continuous
 62
     7
100
AcDbCircle
 10
141.322124
 20
156.49879
 30
0.0
 40
2.0
100
AcDbArc
 50
343.0
 51
163.0
  0
ARC
  5
2FF
330
20A
100
AcDbEntity
  8
3_ALL_AXES
  6
Continuous
 62
     7
100
AcDbCircle
 10
141.322124
 20
156.49879
 30
0.0
 40
2.0
100
AcDbArc
 50
163.0
 51
343.0
  0
ARC
  5
300
330
20A
100
AcDbEntity
  8
3_ALL_AXES
  6
Continuous
 62
     7
100
AcDbCircle
 10
135.114128
 20
156.037457
 30
0.0
 40
2.0
100
AcDbArc
 50
351.5
 51
171.5
  0
ARC
  5
301
330
20A
100
AcDbEntity
  8
3_ALL_AXES
  6
Continuous
 62
     7
100
AcDbCircle
 10
135.114128
 20
156.037457
 30
0.0
 40
2.0
100
AcDbArc
 50
171.5
 51
351.5
  0
ARC
  5
302
330
20A
100
AcDbEntity
  8
3_ALL_AXES
  6
Continuous
 62
     7
100
AcDbCircle
 10
129.042512
 20
154.66359
 30
0.0
 40
2.0
100
AcDbArc
 50
0.0
 51
180.0
  0
ARC
  5
303
330
20A
100
AcDbEntity
  8
3_ALL_AXES
  6
Continuous
 62
     7
100
AcDbCircle
 10
129.042512
 20
154.66359
 30
0.0
 40
2.0
100
AcDbArc
 50
180.0
 51
360.0
  0
ARC
  5
304
330
20A
100
AcDbEntity
  8
3_ALL_AXES
  6
Continuous
 62
     7
100
AcDbCircle
 10
101.157324
 20
102.219179
 30
0.0
 40
2.0
100
AcDbArc
 50
90.0
 51
270.0
  0
ARC
  5
305
330
20A
100
AcDbEntity
  8
3_ALL_AXES
  6
Continuous
 62
     7
100
AcDbCircle
 10
101.157324
 20
102.219179
 30
0.0
 40
2.0
100
AcDbArc
 50
270.0
 51
90.0
  0
ARC
  5
306
330
20A
100
AcDbEntity
  8
7_ALL_FEATURES
  6
Continuous
 62
     7
100
AcDbCircle
 10
141.322013
 20
114.49879
 30
0.0
 40
36.0
100
AcDbArc
 50
286.591754
 51
343.408246
  0
ARC
  5
307
330
20A
100
AcDbEntity
  8
7_ALL_FEATURES
  6
Continuous
 62
     7
100
AcDbCircle
 10
141.322013
 20
114.49879
 30
0.0
 40
36.0
100
AcDbArc
 50
346.591754
 51
13.408246
  0
ARC
  5
308
330
20A
100
AcDbEntity
  8
7_ALL_FEATURES
  6
Continuous
 62
     7
100
AcDbCircle
 10
141.322013
 20
114.49879
 30
0.0
 40
36.0
100
AcDbArc
 50
16.591754
 51
17.948616
  0
ARC
  5
309
330
20A
100
AcDbEntity
  8
7_ALL_FEATURES
  6
Continuous
 62
     7
100
AcDbCircle
 10
141.322013
 20
114.49879
 30
0.0
 40
36.0
100
AcDbArc
 50
252.051393
 51
253.408246
  0
ARC
  5
30A
330
20A
100
AcDbEntity
  8
7_ALL_FEATURES
  6
Continuous
 62
     7
100
AcDbCircle
 10
141.322013
 20
114.49879
 30
0.0
 40
36.0
100
AcDbArc
 50
256.591754
 51
283.408246
  0
ARC
  5
30B
330
20A
100
AcDbEntity
  8
7_ALL_FEATURES
  6
Continuous
 62
     7
100
AcDbCircle
 10
141.322013
 20
114.49879
 30
0.0
 40
36.0
100
AcDbArc
 50
166.591754
 51
193.408246
  0
ARC
  5
30C
330
20A
100
AcDbEntity
  8
7_ALL_FEATURES
  6
Continuous
 62
     7
100
AcDbCircle
 10
141.322013
 20
114.49879
 30
0.0
 40
36.0
100
AcDbArc
 50
196.591754
 51
197.948592
  0
ARC
  5
30D
330
20A
100
AcDbEntity
  8
7_ALL_FEATURES
  6
Continuous
 62
     7
100
AcDbCircle
 10
141.322013
 20
114.49879
 30
0.0
 40
36.0
100
AcDbArc
 50
72.051406
 51
73.408246
  0
ARC
  5
30E
330
20A
100
AcDbEntity
  8
7_ALL_FEATURES
  6
Continuous
 62
     7
100
AcDbCircle
 10
141.322013
 20
114.49879
 30
0.0
 40
36.0
100
AcDbArc
 50
76.591754
 51
103.408246
  0
ARC
  5
30F
330
20A
100
AcDbEntity
  8
7_ALL_FEATURES
  6
Continuous
 62
     7
100
AcDbCircle
 10
141.322013
 20
114.49879
 30
0.0
 40
36.0
100
AcDbArc
 50
106.591754
 51
163.408246
  0
ARC
  5
310
330
20A
100
AcDbEntity
  8
7_ALL_FEATURES
  6
Continuous
 62
     7
100
AcDbCircle
 10
153.336914
 20
151.589634
 30
0.0
 40
2.988312484
100
AcDbArc
 50
252.048919
 51
293.976659
  0
LINE
  5
311
330
20A
100
AcDbEntity
  8
7_ALL_FEATURES
  6
Continuous
 62
     7
100
AcDbLine
 10
154.784303
 20
148.962782
 30
0.0
 11
154.551258
 21
148.85918
 31
0.0
  0
LINE
  5
312
330
20A
100
AcDbEntity
  8
7_ALL_FEATURES
  6
Continuous
 62
     7
100
AcDbLine
 10
106.961624
 20
101.269547
 30
0.0
 11
106.858021
 21
101.036501
 31
0.0
  0
ARC
  5
313
330
20A
100
AcDbEntity
  8
7_ALL_FEATURES
  6
Continuous
 62
     7
100
AcDbCircle
 10
104.231169
 20
102.483891
 30
0.0
 40
2.9883128584
100
AcDbArc
 50
336.023357
 51
17.951077
  0
LINE
  5
314
330
20A
100
AcDbEntity
  8
7_ALL_FEATURES
  6
Continuous
 62
     7
100
AcDbLine
 10
175.682395
 20
127.728043
 30
0.0
 11
175.786
 21
127.961095
 31
0.0
  0
ARC
  5
315
330
20A
100
AcDbEntity
  8
7_ALL_FEATURES
  6
Continuous
 62
     7
100
AcDbCircle
 10
178.412852
 20
126.513706
 30
0.0
 40
2.9883126637
100
AcDbArc
 50
156.023475
 51
197.951101
  0
ARC
  5
316
330
20A
100
AcDbEntity
  8
7_ALL_FEATURES
  6
Continuous
 62
     7
100
AcDbCircle
 10
129.307104
 20
77.40795
 30
0.0
 40
2.9883126536
100
AcDbArc
 50
72.048907
 51
113.976561
  0
LINE
  5
317
330
20A
100
AcDbEntity
  8
7_ALL_FEATURES
  6
Continuous
 62
     7
100
AcDbLine
 10
127.859714
 20
80.034802
 30
0.0
 11
128.092764
 21
80.138406
 31
0.0
  0
ARC
  5
318
330
20A
100
AcDbEntity
  8
7_ALL_FEATURES
  6
Continuous
 62
     7
100
AcDbCircle
 10
141.319834
 20
56.007338
 30
0.0
 40
0.8961423637
100
AcDbArc
 50
173.458106
 51
6.541894
  0
ARC
  5
319
330
20A
100
AcDbEntity
  8
7_ALL_FEATURES
  6
Continuous
 62
     7
100
AcDbCircle
 10
141.321836
 20
114.49879
 30
0.0
 40
37.5
100
AcDbArc
 50
247.624653
 51
247.873706
  0
ARC
  5
31A
330
20A
100
AcDbEntity
  8
7_ALL_FEATURES
  6
Continuous
 62
     7
100
AcDbCircle
 10
141.321836
 20
114.49879
 30
0.0
 40
37.5
100
AcDbArc
 50
247.499781
 51
247.624653
  0
ARC
  5
31B
330
20A
100
AcDbEntity
  8
7_ALL_FEATURES
  6
Continuous
 62
     7
100
AcDbCircle
 10
141.321836
 20
114.49879
 30
0.0
 40
37.5
100
AcDbArc
 50
67.624798
 51
67.873269
  0
ARC
  5
31C
330
20A
100
AcDbEntity
  8
7_ALL_FEATURES
  6
Continuous
 62
     7
100
AcDbCircle
 10
141.321836
 20
114.49879
 30
0.0
 40
37.5
100
AcDbArc
 50
67.500219
 51
67.624798
  0
ARC
  5
31D
330
20A
100
AcDbEntity
  8
7_ALL_FEATURES
  6
Continuous
 62
     7
100
AcDbCircle
 10
141.319834
 20
114.49879
 30
0.0
 40
58.3961423637
100
AcDbArc
 50
86.023986
 51
269.126435
  0
ARC
  5
31E
330
20A
100
AcDbEntity
  8
7_ALL_FEATURES
  6
Continuous
 62
     7
100
AcDbCircle
 10
141.321836
 20
114.49879
 30
0.0
 40
37.5
100
AcDbArc
 50
202.126601
 51
202.50009
  0
ARC
  5
31F
330
20A
100
AcDbEntity
  8
7_ALL_FEATURES
  6
Continuous
 62
     7
100
AcDbCircle
 10
141.321836
 20
114.49879
 30
0.0
 40
37.5
100
AcDbArc
 50
22.126423
 51
22.49991
  0
LINE
  5
320
330
20A
100
AcDbEntity
  8
7_ALL_FEATURES
  6
Continuous
 62
     7
100
AcDbLine
 10
175.967164
 20
128.849419
 30
0.0
 11
182.321682
 21
131.481547
 31
0.0
  0
LINE
  5
321
330
20A
100
AcDbEntity
  8
7_ALL_FEATURES
  6
Continuous
 62
     7
100
AcDbLine
 10
158.304438
 20
155.49879
 30
0.0
 11
155.67231
 21
149.144273
 31
0.0
  0
LINE
  5
322
330
20A
100
AcDbEntity
  8
7_ALL_FEATURES
  6
Continuous
 62
     7
100
AcDbLine
 10
179.328671
 20
134.474557
 30
0.0
 11
182.321682
 21
131.481547
 31
0.0
  0
LINE
  5
323
330
20A
100
AcDbEntity
  8
7_ALL_FEATURES
  6
Continuous
 62
     7
100
AcDbLine
 10
124.338926
 20
73.49879
 30
0.0
 11
121.345915
 21
76.491801
 31
0.0
  0
LINE
  5
324
330
20A
100
AcDbEntity
  8
7_ALL_FEATURES
  6
Continuous
 62
     7
100
AcDbLine
 10
103.314692
 20
94.523024
 30
0.0
 11
100.321682
 21
97.516034
 31
0.0
  0
LINE
  5
325
330
20A
100
AcDbEntity
  8
7_ALL_FEATURES
  6
Continuous
 62
     7
100
AcDbLine
 10
158.304438
 20
155.49879
 30
0.0
 11
161.297448
 21
152.50578
 31
0.0
  0
LINE
  5
326
330
20A
100
AcDbEntity
  8
7_ALL_FEATURES
  6
Continuous
 62
     7
100
AcDbLine
 10
162.358108
 20
151.44512
 30
0.0
 11
165.540089
 21
148.263139
 31
0.0
  0
LINE
  5
327
330
20A
100
AcDbEntity
  8
7_ALL_FEATURES
  6
Continuous
 62
     7
100
AcDbLine
 10
166.600749
 20
147.202479
 30
0.0
 11
169.782729
 21
144.020499
 31
0.0
  0
LINE
  5
328
330
20A
100
AcDbEntity
  8
7_ALL_FEATURES
  6
Continuous
 62
     7
100
AcDbLine
 10
170.84339
 20
142.959838
 30
0.0
 11
174.02537
 21
139.777858
 31
0.0
  0
LINE
  5
329
330
20A
100
AcDbEntity
  8
7_ALL_FEATURES
  6
Continuous
 62
     7
100
AcDbLine
 10
175.08603
 20
138.717198
 30
0.0
 11
178.268011
 21
135.535217
 31
0.0
  0
LINE
  5
32A
330
20A
100
AcDbEntity
  8
7_ALL_FEATURES
  6
Continuous
 62
     7
100
AcDbLine
 10
120.285255
 20
77.552461
 30
0.0
 11
117.103274
 21
80.734442
 31
0.0
  0
LINE
  5
32B
330
20A
100
AcDbEntity
  8
7_ALL_FEATURES
  6
Continuous
 62
     7
100
AcDbLine
 10
116.042614
 20
81.795102
 30
0.0
 11
112.860634
 21
84.977082
 31
0.0
  0
LINE
  5
32C
330
20A
100
AcDbEntity
  8
7_ALL_FEATURES
  6
Continuous
 62
     7
100
AcDbLine
 10
111.799973
 20
86.037743
 30
0.0
 11
108.617993
 21
89.219723
 31
0.0
  0
LINE
  5
32D
330
20A
100
AcDbEntity
  8
7_ALL_FEATURES
  6
Continuous
 62
     7
100
AcDbLine
 10
107.557333
 20
90.280383
 30
0.0
 11
104.375352
 21
93.462364
 31
0.0
  0
LINE
  5
32E
330
20A
100
AcDbEntity
  8
7_ALL_FEATURES
  6
Continuous
 62
     7
100
AcDbLine
 10
106.676199
 20
100.148162
 30
0.0
 11
100.321682
 21
97.516034
 31
0.0
  0
LINE
  5
32F
330
20A
100
AcDbEntity
  8
7_ALL_FEATURES
  6
Continuous
 62
     7
100
AcDbLine
 10
124.338926
 20
73.49879
 30
0.0
 11
126.971053
 21
79.853308
 31
0.0
  0
LINE
  5
330
330
20A
100
AcDbEntity
  8
7_ALL_FEATURES
  6
Continuous
 62
     7
100
AcDbLine
 10
161.297448
 20
152.50578
 30
0.0
 11
162.358108
 21
151.44512
 31
0.0
  0
LINE
  5
331
330
20A
100
AcDbEntity
  8
7_ALL_FEATURES
  6
Continuous
 62
     7
100
AcDbLine
 10
165.540089
 20
148.263139
 30
0.0
 11
166.600749
 21
147.202479
 31
0.0
  0
LINE
  5
332
330
20A
100
AcDbEntity
  8
7_ALL_FEATURES
  6
Continuous
 62
     7
100
AcDbLine
 10
169.782729
 20
144.020499
 30
0.0
 11
170.84339
 21
142.959838
 31
0.0
  0
LINE
  5
333
330
20A
100
AcDbEntity
  8
7_ALL_FEATURES
  6
Continuous
 62
     7
100
AcDbLine
 10
174.02537
 20
139.777858
 30
0.0
 11
175.08603
 21
138.717198
 31
0.0
  0
LINE
  5
334
330
20A
100
AcDbEntity
  8
7_ALL_FEATURES
  6
Continuous
 62
     7
100
AcDbLine
 10
178.268011
 20
135.535217
 30
0.0
 11
179.328671
 21
134.474557
 31
0.0
  0
LINE
  5
335
330
20A
100
AcDbEntity
  8
7_ALL_FEATURES
  6
Continuous
 62
     7
100
AcDbLine
 10
104.375352
 20
93.462364
 30
0.0
 11
103.314692
 21
94.523024
 31
0.0
  0
LINE
  5
336
330
20A
100
AcDbEntity
  8
7_ALL_FEATURES
  6
Continuous
 62
     7
100
AcDbLine
 10
108.617993
 20
89.219723
 30
0.0
 11
107.557333
 21
90.280383
 31
0.0
  0
LINE
  5
337
330
20A
100
AcDbEntity
  8
7_ALL_FEATURES
  6
Continuous
 62
     7
100
AcDbLine
 10
112.860634
 20
84.977082
 30
0.0
 11
111.799973
 21
86.037743
 31
0.0
  0
LINE
  5
338
330
20A
100
AcDbEntity
  8
7_ALL_FEATURES
  6
Continuous
 62
     7
100
AcDbLine
 10
121.345915
 20
76.491801
 30
0.0
 11
120.285255
 21
77.552461
 31
0.0
  0
LINE
  5
339
330
20A
100
AcDbEntity
  8
7_ALL_FEATURES
  6
Continuous
 62
     7
100
AcDbLine
 10
117.103274
 20
80.734442
 30
0.0
 11
116.042614
 21
81.795102
 31
0.0
  0
ARC
  5
33A
330
20A
100
AcDbEntity
  8
7_ALL_FEATURES
  6
Continuous
 62
     7
100
AcDbCircle
 10
141.319834
 20
114.49879
 30
0.0
 40
58.3961423637
100
AcDbArc
 50
270.873565
 51
86.023986
  0
ARC
  5
33B
330
20A
100
AcDbEntity
  8
7_ALL_FEATURES
  6
Continuous
 62
     7
100
AcDbCircle
 10
159.846468
 20
157.922509
 30
0.0
 40
0.4944549156
100
AcDbArc
 50
109.010976
 51
117.035963
  0
ARC
  5
33C
330
20A
100
AcDbEntity
  8
7_ALL_FEATURES
  6
Continuous
 62
     7
100
AcDbCircle
 10
159.852342
 20
157.911811
 30
0.0
 40
0.5066548746
100
AcDbArc
 50
117.077754
 51
157.47485
  0
ARC
  5
33D
330
20A
100
AcDbEntity
  8
7_ALL_FEATURES
  6
Continuous
 62
     9
100
AcDbCircle
 10
141.321682
 20
114.49879
 30
0.0
 40
47.2
100
AcDbArc
 50
60.671831
 51
67.5
  0
SPLINE
  5
33E
330
20A
100
AcDbEntity
  8
7_ALL_FEATURES
  6
Continuous
 62
     7
100
AcDbSpline
 70
     0
 71
     3
 72
     9
 73
     5
 74
     0
 42
0.000000001
 43
0.0000001
 40
0.0
 40
0.0
 40
0.0
 40
0.0
 40
0.2790278289
 40
1.0
 40
1.0
 40
1.0
 40
1.0
 10
165.7802883638
 20
154.8672998704
 30
0.0
 10
165.8056503614
 20
154.892661868
 30
0.0
 10
165.8961777747
 20
154.9839163568
 30
0.0
 10
165.985803406
 20
155.0761057904
 30
0.0
 10
166.0487276946
 20
155.1441459267
 30
0.0
  0
SPLINE
  5
33F
330
20A
100
AcDbEntity
  8
7_ALL_FEATURES
  6
Continuous
 62
     7
100
AcDbSpline
 70
     0
 71
     3
 72
     9
 73
     5
 74
     0
 42
0.000000001
 43
0.0000001
 40
0.0
 40
0.0
 40
0.0
 40
0.0
 40
0.4924123125
 40
1.0
 40
1.0
 40
1.0
 40
1.0
 10
159.3866384013
 20
158.5188901765
 30
0.0
 10
159.3193749585
 20
158.4970409706
 30
0.0
 10
159.1909731932
 20
158.4221826334
 30
0.0
 10
159.106039413
 20
158.2999399472
 30
0.0
 10
159.0781407625
 20
158.2325866467
 30
0.0
  0
SPLINE
  5
340
330
20A
100
AcDbEntity
  8
7_ALL_FEATURES
  6
Continuous
 62
     7
100
AcDbSpline
 70
     0
 71
     3
 72
     9
 73
     5
 74
     0
 42
0.000000001
 43
0.0000001
 40
0.0
 40
0.0
 40
0.0
 40
0.0
 40
0.2048660761
 40
1.0
 40
1.0
 40
1.0
 40
1.0
 10
158.8228748852
 20
158.7678892845
 30
0.0
 10
158.8010738942
 20
158.7499157578
 30
0.0
 10
158.7040014095
 20
158.6509317481
 30
0.0
 10
158.6392586291
 20
158.5251394789
 30
0.0
 10
158.597292264
 20
158.4238237108
 30
0.0
  0
SPLINE
  5
341
330
20A
100
AcDbEntity
  8
7_ALL_FEATURES
  6
Continuous
 62
     7
100
AcDbSpline
 70
     0
 71
     3
 72
     9
 73
     5
 74
     0
 42
0.000000001
 43
0.0000001
 40
0.0
 40
0.0
 40
0.0
 40
0.0
 40
0.2052073349
 40
1.0
 40
1.0
 40
1.0
 40
1.0
 10
97.053809008
 20
96.9989852486
 30
0.0
 10
97.0718277169
 20
97.0207027294
 30
0.0
 10
97.1707136039
 20
97.1172800378
 30
0.0
 10
97.2961137238
 20
97.1817958556
 30
0.0
 10
97.3970903611
 20
97.2236217482
 30
0.0
  0
ARC
  5
342
330
20A
100
AcDbEntity
  8
7_ALL_FEATURES
  6
Continuous
 62
     9
100
AcDbCircle
 10
141.322124
 20
114.49879
 30
0.0
 40
47.2
100
AcDbArc
 50
68.530903
 51
201.469097
  0
LINE
  5
343
330
20A
100
AcDbEntity
  8
7_ALL_FEATURES
  6
Continuous
 62
     7
100
AcDbLine
 10
164.405483
 20
153.640518
 30
0.0
 11
162.358108
 21
151.44512
 31
0.0
  0
SPLINE
  5
344
330
20A
100
AcDbEntity
  8
7_ALL_FEATURES
  6
Continuous
 62
     7
100
AcDbSpline
 70
     0
 71
     3
 72
     9
 73
     5
 74
     0
 42
0.000000001
 43
0.0000001
 40
0.0
 40
0.0
 40
0.0
 40
0.0
 40
0.4924659528
 40
1.0
 40
1.0
 40
1.0
 40
1.0
 10
97.3025995101
 20
96.4360767573
 30
0.0
 10
97.3246011785
 20
96.5029246084
 30
0.0
 10
97.3994240745
 20
96.6304074321
 30
0.0
 10
97.5210238378
 20
96.7148822522
 30
0.0
 10
97.5880316913
 20
96.7426378139
 30
0.0
  0
ARC
  5
345
330
20A
100
AcDbEntity
  8
7_ALL_FEATURES
  6
Continuous
 62
     7
100
AcDbCircle
 10
97.898024
 20
95.973982
 30
0.0
 40
0.4945168763
100
AcDbArc
 50
152.94043
 51
160.710848
  0
ARC
  5
346
330
20A
100
AcDbEntity
  8
7_ALL_FEATURES
  6
Continuous
 62
     7
100
AcDbCircle
 10
97.908673
 20
95.968122
 30
0.0
 40
0.506666705
100
AcDbArc
 50
112.526037
 51
152.898111
  0
ARC
  5
347
330
20A
100
AcDbEntity
  8
7_ALL_FEATURES
  6
Continuous
 62
     9
100
AcDbCircle
 10
141.321682
 20
114.49879
 30
0.0
 40
47.2
100
AcDbArc
 50
202.5
 51
209.328169
  0
LINE
  5
348
330
20A
100
AcDbEntity
  8
7_ALL_FEATURES
  6
Continuous
 62
     7
100
AcDbLine
 10
118.238145
 20
75.357063
 30
0.0
 11
120.285255
 21
77.552461
 31
0.0
  0
ARC
  5
349
330
20A
100
AcDbEntity
  8
7_ALL_FEATURES
  6
Continuous
 62
     7
100
AcDbCircle
 10
122.796866
 20
71.075128
 30
0.0
 40
0.4945237614
100
AcDbArc
 50
289.185184
 51
297.03714
  0
ARC
  5
34A
330
20A
100
AcDbEntity
  8
7_ALL_FEATURES
  6
Continuous
 62
     7
100
AcDbCircle
 10
122.791016
 20
71.085764
 30
0.0
 40
0.5066564523
100
AcDbArc
 50
297.079572
 51
337.475648
  0
ARC
  5
34B
330
20A
100
AcDbEntity
  8
7_ALL_FEATURES
  6
Continuous
 62
     9
100
AcDbCircle
 10
141.321682
 20
114.49879
 30
0.0
 40
47.2
100
AcDbArc
 50
240.671831
 51
247.5
  0
SPLINE
  5
34C
330
20A
100
AcDbEntity
  8
7_ALL_FEATURES
  6
Continuous
 62
     7
100
AcDbSpline
 70
     0
 71
     3
 72
     9
 73
     5
 74
     0
 42
0.000000001
 43
0.0000001
 40
0.0
 40
0.0
 40
0.0
 40
0.0
 40
0.3741579214
 40
1.0
 40
1.0
 40
1.0
 40
1.0
 10
169.9358444907
 20
152.6407338669
 30
0.0
 10
169.8877335629
 20
152.603232616
 30
0.0
 10
169.7705940631
 20
152.4892090819
 30
0.0
 10
169.6532482728
 20
152.3762987526
 30
0.0
 10
169.5811001634
 20
152.3041506431
 30
0.0
  0
SPLINE
  5
34D
330
20A
100
AcDbEntity
  8
7_ALL_FEATURES
  6
Continuous
 62
     7
100
AcDbSpline
 70
     0
 71
     3
 72
     9
 73
     5
 74
     0
 42
0.000000001
 43
0.0000001
 40
0.0
 40
0.0
 40
0.0
 40
0.0
 40
0.4924415964
 40
1.0
 40
1.0
 40
1.0
 40
1.0
 10
123.2586758596
 20
70.4790509496
 30
0.0
 10
123.3257136467
 20
70.5010021092
 30
0.0
 10
123.4536177746
 20
70.5758788021
 30
0.0
 10
123.5382389654
 20
70.6978230539
 30
0.0
 10
123.5660621972
 20
70.7649942774
 30
0.0
  0
SPLINE
  5
34E
330
20A
100
AcDbEntity
  8
7_ALL_FEATURES
  6
Continuous
 62
     7
100
AcDbSpline
 70
     0
 71
     3
 72
     9
 73
     5
 74
     0
 42
0.000000001
 43
0.0000001
 40
0.0
 40
0.0
 40
0.0
 40
0.0
 40
0.2050666858
 40
1.0
 40
1.0
 40
1.0
 40
1.0
 10
123.8219884211
 20
70.2301858563
 30
0.0
 10
123.8437327316
 20
70.2481884485
 30
0.0
 10
123.9404838595
 20
70.3471135944
 30
0.0
 10
124.0050774961
 20
70.4726562894
 30
0.0
 10
124.0469548699
 20
70.5737572133
 30
0.0
  0
SPLINE
  5
34F
330
20A
100
AcDbEntity
  8
7_ALL_FEATURES
  6
Continuous
 62
     7
100
AcDbSpline
 70
     0
 71
     3
 72
     9
 73
     5
 74
     0
 42
0.000000001
 43
0.0000001
 40
0.0
 40
0.0
 40
0.0
 40
0.0
 40
0.204734747
 40
1.0
 40
1.0
 40
1.0
 40
1.0
 10
185.591590211
 20
131.9999688722
 30
0.0
 10
185.5736347048
 20
131.9781272818
 30
0.0
 10
185.4745970934
 20
131.8808348194
 30
0.0
 10
185.3486256567
 20
131.8159889638
 30
0.0
 10
185.2471567728
 20
131.773959176
 30
0.0
  0
ARC
  5
350
330
20A
100
AcDbEntity
  8
7_ALL_FEATURES
  6
Continuous
 62
     9
100
AcDbCircle
 10
141.322124
 20
114.49879
 30
0.0
 40
47.2
100
AcDbArc
 50
248.530903
 51
21.469097
  0
LINE
  5
351
330
20A
100
AcDbEntity
  8
7_ALL_FEATURES
  6
Continuous
 62
     7
100
AcDbLine
 10
165.540089
 20
148.263139
 30
0.0
 11
167.73562
 21
150.310381
 31
0.0
  0
SPLINE
  5
352
330
20A
100
AcDbEntity
  8
7_ALL_FEATURES
  6
Continuous
 62
     7
100
AcDbSpline
 70
     0
 71
     3
 72
     9
 73
     5
 74
     0
 42
0.000000001
 43
0.0000001
 40
0.0
 40
0.0
 40
0.0
 40
0.0
 40
0.4923909832
 40
1.0
 40
1.0
 40
1.0
 40
1.0
 10
185.3424358714
 20
132.5640353597
 30
0.0
 10
185.3206651422
 20
132.4966738297
 30
0.0
 10
185.2458779794
 20
132.3680581623
 30
0.0
 10
185.1235961511
 20
132.2828714111
 30
0.0
 10
185.0561712684
 20
132.2549431102
 30
0.0
  0
ARC
  5
353
330
20A
100
AcDbEntity
  8
7_ALL_FEATURES
  6
Continuous
 62
     7
100
AcDbCircle
 10
184.745549
 20
133.023535
 30
0.0
 40
0.4943106226
100
AcDbArc
 50
332.936564
 51
341.103575
  0
ARC
  5
354
330
20A
100
AcDbEntity
  8
7_ALL_FEATURES
  6
Continuous
 62
     7
100
AcDbCircle
 10
184.734665
 20
133.029507
 30
0.0
 40
0.5067198771
100
AcDbArc
 50
292.52656
 51
332.895174
  0
ARC
  5
355
330
20A
100
AcDbEntity
  8
7_ALL_FEATURES
  6
Continuous
 62
     9
100
AcDbCircle
 10
141.321682
 20
114.49879
 30
0.0
 40
47.2
100
AcDbArc
 50
22.5
 51
29.328169
  0
SPLINE
  5
356
330
20A
100
AcDbEntity
  8
7_ALL_FEATURES
  6
Continuous
 62
     7
100
AcDbSpline
 70
     0
 71
     3
 72
     9
 73
     5
 74
     0
 42
0.000000001
 43
0.0000001
 40
0.0
 40
0.0
 40
0.0
 40
0.0
 40
0.2882471934
 40
1.0
 40
1.0
 40
1.0
 40
1.0
 10
170.7777104986
 20
151.3794406359
 30
0.0
 10
170.8053878864
 20
151.4071180237
 30
0.0
 10
170.9009349329
 20
151.5035973226
 30
0.0
 10
170.9956298272
 20
151.6010013236
 30
0.0
 10
171.0605906731
 20
151.6725653624
 30
0.0
  0
LINE
  5
357
330
20A
100
AcDbEntity
  8
7_ALL_FEATURES
  6
Continuous
 62
     7
100
AcDbLine
 10
168.648124
 20
149.397878
 30
0.0
 11
166.600749
 21
147.202479
 31
0.0
  0
SPLINE
  5
358
330
20A
100
AcDbEntity
  8
7_ALL_FEATURES
  6
Continuous
 62
     7
100
AcDbSpline
 70
     0
 71
     3
 72
     9
 73
     5
 74
     0
 42
0.000000001
 43
0.0000001
 40
0.0
 40
0.0
 40
0.0
 40
0.0
 40
0.3779004371
 40
1.0
 40
1.0
 40
1.0
 40
1.0
 10
112.7093494162
 20
76.3582600042
 30
0.0
 10
112.7574343351
 20
76.3963119269
 30
0.0
 10
112.8742292651
 20
76.5094857512
 30
0.0
 10
112.9908844058
 20
76.6220517382
 30
0.0
 10
113.0622629486
 20
76.6934302811
 30
0.0
  0
SPLINE
  5
359
330
20A
100
AcDbEntity
  8
7_ALL_FEATURES
  6
Continuous
 62
     7
100
AcDbSpline
 70
     0
 71
     3
 72
     9
 73
     5
 74
     0
 42
0.000000001
 43
0.0000001
 40
0.0
 40
0.0
 40
0.0
 40
0.0
 40
0.169763629
 40
1.0
 40
1.0
 40
1.0
 40
1.0
 10
174.4912411733
 20
148.7146087043
 30
0.0
 10
174.4717169719
 20
148.6978429689
 30
0.0
 10
174.359639947
 20
148.5957177764
 30
0.0
 10
174.2515725576
 20
148.4893416676
 30
0.0
 10
174.1625778165
 20
148.4003469264
 30
0.0
  0
LINE
  5
35A
330
20A
100
AcDbEntity
  8
7_ALL_FEATURES
  6
Continuous
 62
     7
100
AcDbLine
 10
169.782729
 20
144.020499
 30
0.0
 11
171.978261
 21
146.067741
 31
0.0
  0
SPLINE
  5
35B
330
20A
100
AcDbEntity
  8
7_ALL_FEATURES
  6
Continuous
 62
     7
100
AcDbSpline
 70
     0
 71
     3
 72
     9
 73
     5
 74
     0
 42
0.000000001
 43
0.0000001
 40
0.0
 40
0.0
 40
0.0
 40
0.0
 40
0.3091529692
 40
1.0
 40
1.0
 40
1.0
 40
1.0
 10
175.2232379872
 20
147.3396867546
 30
0.0
 10
175.2563825963
 20
147.3728313638
 30
0.0
 10
175.362752123
 20
147.4808285063
 30
0.0
 10
175.4693328759
 20
147.5889466115
 30
0.0
 10
175.5375758662
 20
147.6684108457
 30
0.0
  0
LINE
  5
35C
330
20A
100
AcDbEntity
  8
7_ALL_FEATURES
  6
Continuous
 62
     7
100
AcDbLine
 10
172.890764
 20
145.155237
 30
0.0
 11
170.84339
 21
142.959838
 31
0.0
  0
LINE
  5
35D
330
20A
100
AcDbEntity
  8
7_ALL_FEATURES
  6
Continuous
 62
     7
100
AcDbLine
 10
117.103274
 20
80.734442
 30
0.0
 11
114.908008
 21
78.687199
 31
0.0
  0
SPLINE
  5
35E
330
20A
100
AcDbEntity
  8
7_ALL_FEATURES
  6
Continuous
 62
     7
100
AcDbSpline
 70
     0
 71
     3
 72
     9
 73
     5
 74
     0
 42
0.000000001
 43
0.0000001
 40
0.0
 40
0.0
 40
0.0
 40
0.0
 40
0.2877195673
 40
1.0
 40
1.0
 40
1.0
 40
1.0
 10
111.8656526135
 20
77.6181402883
 30
0.0
 10
111.8381430771
 20
77.5906307519
 30
0.0
 10
111.7429969836
 20
77.4945646154
 30
0.0
 10
111.6487131335
 20
77.3975667408
 30
0.0
 10
111.5839442848
 20
77.3262857792
 30
0.0
  0
LINE
  5
35F
330
20A
100
AcDbEntity
  8
7_ALL_FEATURES
  6
Continuous
 62
     7
100
AcDbLine
 10
113.995505
 20
79.599703
 30
0.0
 11
116.042614
 21
81.795102
 31
0.0
  0
SPLINE
  5
360
330
20A
100
AcDbEntity
  8
7_ALL_FEATURES
  6
Continuous
 62
     7
100
AcDbSpline
 70
     0
 71
     3
 72
     9
 73
     5
 74
     0
 42
0.000000001
 43
0.0000001
 40
0.0
 40
0.0
 40
0.0
 40
0.0
 40
0.2093845196
 40
1.0
 40
1.0
 40
1.0
 40
1.0
 10
100.6778356095
 20
89.7731415106
 30
0.0
 10
100.6974818901
 20
89.7913279861
 30
0.0
 10
100.7905274515
 20
89.8790288765
 30
0.0
 10
100.8816926403
 20
89.9687040835
 30
0.0
 10
100.9531721871
 20
90.0401836304
 30
0.0
  0
ARC
  5
361
330
20A
100
AcDbEntity
  8
7_ALL_FEATURES
  6
Continuous
 62
     7
100
AcDbCircle
 10
141.322068
 20
114.49879
 30
0.0
 40
50.1634946203
100
AcDbArc
 50
180.0
 51
360.0
  0
LINE
  5
362
330
20A
100
AcDbEntity
  8
7_ALL_FEATURES
  6
Continuous
 62
     7
100
AcDbLine
 10
104.375352
 20
93.462364
 30
0.0
 11
102.180086
 21
91.415122
 31
0.0
  0
SPLINE
  5
363
330
20A
100
AcDbEntity
  8
7_ALL_FEATURES
  6
Continuous
 62
     7
100
AcDbSpline
 70
     0
 71
     3
 72
     9
 73
     5
 74
     0
 42
0.000000001
 43
0.0000001
 40
0.0
 40
0.0
 40
0.0
 40
0.0
 40
0.2919255029
 40
1.0
 40
1.0
 40
1.0
 40
1.0
 10
100.171373156
 20
91.3797049422
 30
0.0
 10
100.1408571274
 20
91.3491889135
 30
0.0
 10
100.0368879576
 20
91.244110424
 30
0.0
 10
99.9336449811
 20
91.1381911949
 30
0.0
 10
99.8636830572
 20
91.0603289069
 30
0.0
  0
LINE
  5
364
330
20A
100
AcDbEntity
  8
7_ALL_FEATURES
  6
Continuous
 62
     7
100
AcDbLine
 10
101.267583
 20
92.327625
 30
0.0
 11
103.314692
 21
94.523024
 31
0.0
  0
LINE
  5
365
330
20A
100
AcDbEntity
  8
7_ALL_FEATURES
  6
Continuous
 62
     7
100
AcDbLine
 10
155.401011
 20
149.424145
 30
0.0
 11
155.036113
 21
149.826376
 31
0.0
  0
ARC
  5
366
330
20A
100
AcDbEntity
  8
7_ALL_FEATURES
  6
Continuous
 62
     9
100
AcDbCircle
 10
141.001787
 20
114.635106
 30
0.0
 40
47.1966399333
100
AcDbArc
 50
67.480164
 51
68.108324
  0
LINE
  5
367
330
20A
100
AcDbEntity
  8
7_ALL_FEATURES
  6
Continuous
 62
     9
100
AcDbLine
 10
154.343468
 20
149.517763
 30
0.0
 11
154.553424
 21
149.046477
 31
0.0
  0
LINE
  5
368
330
20A
100
AcDbEntity
  8
7_ALL_FEATURES
  6
Continuous
 62
     9
100
AcDbLine
 10
152.578246
 20
149.422824
 30
0.0
 11
152.419998
 21
148.931898
 31
0.0
  0
LINE
  5
369
330
20A
100
AcDbEntity
  8
7_ALL_FEATURES
  6
Continuous
 62
     9
100
AcDbLine
 10
106.398091
 20
103.242664
 30
0.0
 11
106.888996
 21
103.400891
 31
0.0
  0
LINE
  5
36A
330
20A
100
AcDbEntity
  8
7_ALL_FEATURES
  6
Continuous
 62
     9
100
AcDbLine
 10
106.303099
 20
101.477468
 30
0.0
 11
106.774353
 21
101.267497
 31
0.0
  0
LINE
  5
36B
330
20A
100
AcDbEntity
  8
7_ALL_FEATURES
  6
Continuous
 62
     7
100
AcDbLine
 10
106.396753
 20
100.419883
 30
0.0
 11
105.994544
 21
100.784803
 31
0.0
  0
ARC
  5
36C
330
20A
100
AcDbEntity
  8
7_ALL_FEATURES
  6
Continuous
 62
     9
100
AcDbCircle
 10
141.188833
 20
114.817518
 30
0.0
 40
47.1988471945
100
AcDbArc
 50
201.888494
 51
202.51664
  0
LINE
  5
36D
330
20A
100
AcDbEntity
  8
7_ALL_FEATURES
  6
Continuous
 62
     7
100
AcDbLine
 10
127.243199
 20
79.573449
 30
0.0
 11
127.60814
 21
79.171218
 31
0.0
  0
ARC
  5
36E
330
20A
100
AcDbEntity
  8
7_ALL_FEATURES
  6
Continuous
 62
     9
100
AcDbCircle
 10
141.643851
 20
114.369965
 30
0.0
 40
47.2041087487
100
AcDbArc
 50
247.482037
 51
248.110148
  0
LINE
  5
36F
330
20A
100
AcDbEntity
  8
7_ALL_FEATURES
  6
Continuous
 62
     9
100
AcDbLine
 10
128.300773
 20
79.479823
 30
0.0
 11
128.090775
 21
79.95111
 31
0.0
  0
LINE
  5
370
330
20A
100
AcDbEntity
  8
7_ALL_FEATURES
  6
Continuous
 62
     9
100
AcDbLine
 10
130.06599
 20
79.57476
 30
0.0
 11
130.224197
 21
80.065686
 31
0.0
  0
LINE
  5
371
330
20A
100
AcDbEntity
  8
7_ALL_FEATURES
  6
Continuous
 62
     9
100
AcDbLine
 10
176.246152
 20
125.754929
 30
0.0
 11
175.755205
 21
125.596701
 31
0.0
  0
LINE
  5
372
330
20A
100
AcDbEntity
  8
7_ALL_FEATURES
  6
Continuous
 62
     9
100
AcDbLine
 10
176.341142
 20
127.520122
 30
0.0
 11
175.869847
 21
127.730092
 31
0.0
  0
LINE
  5
373
330
20A
100
AcDbEntity
  8
7_ALL_FEATURES
  6
Continuous
 62
     7
100
AcDbLine
 10
176.247438
 20
128.577691
 30
0.0
 11
176.64969
 21
128.212772
 31
0.0
  0
ARC
  5
374
330
20A
100
AcDbEntity
  8
7_ALL_FEATURES
  6
Continuous
 62
     9
100
AcDbCircle
 10
141.454
 20
114.175465
 30
0.0
 40
47.2018734739
100
AcDbArc
 50
21.893033
 51
22.521159
  0
ARC
  5
375
330
20A
100
AcDbEntity
  8
7_ALL_FEATURES
  6
Continuous
 62
     7
100
AcDbCircle
 10
104.043188
 20
102.483897
 30
0.0
 40
2.9897153253
100
AcDbArc
 50
335.992856
 51
17.860298
  0
ARC
  5
376
330
20A
100
AcDbEntity
  8
7_ALL_FEATURES
  6
Continuous
 62
     7
100
AcDbCircle
 10
129.307203
 20
77.219875
 30
0.0
 40
2.9897174707
100
AcDbArc
 50
72.139705
 51
114.00707
  0
ARC
  5
377
330
20A
100
AcDbEntity
  8
7_ALL_FEATURES
  6
Continuous
 62
     7
100
AcDbCircle
 10
153.336992
 20
151.777708
 30
0.0
 40
2.9897167273
100
AcDbArc
 50
252.13972
 51
294.007188
  0
ARC
  5
378
330
20A
100
AcDbEntity
  8
7_ALL_FEATURES
  6
Continuous
 62
     7
100
AcDbCircle
 10
178.601018
 20
126.513696
 30
0.0
 40
2.9897190869
100
AcDbArc
 50
155.992977
 51
197.860293
  0
LINE
  5
379
330
20A
100
AcDbEntity
  8
7_ALL_FEATURES
  6
Continuous
 62
     7
100
AcDbLine
 10
155.434832
 20
149.436861
 30
0.0
 11
155.401011
 21
149.424145
 31
0.0
  0
LINE
  5
37A
330
20A
100
AcDbEntity
  8
7_ALL_FEATURES
  6
Continuous
 62
     7
100
AcDbLine
 10
154.553424
 20
149.046477
 30
0.0
 11
155.40101
 21
149.424145
 31
0.0
  0
LWPOLYLINE
  5
37B
330
20A
100
AcDbEntity
  8
7_ALL_FEATURES
  6
Continuous
 62
     7
100
AcDbPolyline
 90
        3
 70
     0
 43
0.0
 10
154.553425
 20
149.046477
 10
154.977208
 20
149.235303
 10
155.401011
 20
149.424145
  0
LINE
  5
37C
330
20A
100
AcDbEntity
  8
7_ALL_FEATURES
  6
Continuous
 62
     9
100
AcDbLine
 10
154.551258
 20
148.85918
 30
0.0
 11
154.553425
 21
149.046477
 31
0.0
  0
LINE
  5
37D
330
20A
100
AcDbEntity
  8
7_ALL_FEATURES
  6
Continuous
 62
     9
100
AcDbLine
 10
175.869781
 20
127.730122
 30
0.0
 11
175.682395
 21
127.728043
 31
0.0
  0
LINE
  5
37E
330
20A
100
AcDbEntity
  8
7_ALL_FEATURES
  6
Continuous
 62
     7
100
AcDbLine
 10
176.247438
 20
128.577691
 30
0.0
 11
175.869781
 21
127.730122
 31
0.0
  0
LWPOLYLINE
  5
37F
330
20A
100
AcDbEntity
  8
7_ALL_FEATURES
  6
Continuous
 62
     7
100
AcDbPolyline
 90
        3
 70
     0
 43
0.0
 10
176.247438
 20
128.577691
 10
176.058602
 20
128.153897
 10
175.869781
 20
127.730122
  0
LINE
  5
380
330
20A
100
AcDbEntity
  8
7_ALL_FEATURES
  6
Continuous
 62
     7
100
AcDbLine
 10
176.247438
 20
128.577691
 30
0.0
 11
176.260153
 21
128.611513
 31
0.0
  0
LINE
  5
381
330
20A
100
AcDbEntity
  8
7_ALL_FEATURES
  6
Continuous
 62
     7
100
AcDbLine
 10
176.041857
 20
128.610092
 30
0.0
 11
176.065334
 21
128.610247
 31
0.0
  0
LINE
  5
382
330
20A
100
AcDbEntity
  8
7_ALL_FEATURES
  6
Continuous
 62
     7
100
AcDbLine
 10
176.041857
 20
128.610092
 30
0.0
 11
176.065334
 21
128.610247
 31
0.0
  0
LINE
  5
383
330
20A
100
AcDbEntity
  8
7_ALL_FEATURES
  6
Continuous
 62
     7
100
AcDbLine
 10
176.065334
 20
128.610247
 30
0.0
 11
176.237632
 21
128.611369
 31
0.0
  0
LWPOLYLINE
  5
384
330
20A
100
AcDbEntity
  8
7_ALL_FEATURES
  6
Continuous
 62
     7
100
AcDbPolyline
 90
        9
 70
     0
 43
0.0
 10
176.065334
 20
128.610247
 10
176.072817
 20
128.610297
 10
176.101378
 20
128.610485
 10
176.12555
 20
128.610643
 10
176.147734
 20
128.610788
 10
176.169807
 20
128.610931
 10
176.192352
 20
128.611077
 10
176.214996
 20
128.611223
 10
176.237632
 20
128.611369
  0
LINE
  5
385
330
20A
100
AcDbEntity
  8
7_ALL_FEATURES
  6
Continuous
 62
     9
100
AcDbLine
 10
106.774418
 20
101.267467
 30
0.0
 11
106.961624
 21
101.269547
 31
0.0
  0
LINE
  5
386
330
20A
100
AcDbEntity
  8
7_ALL_FEATURES
  6
Continuous
 62
     7
100
AcDbLine
 10
106.396753
 20
100.419883
 30
0.0
 11
106.774418
 21
101.267467
 31
0.0
  0
LWPOLYLINE
  5
387
330
20A
100
AcDbEntity
  8
7_ALL_FEATURES
  6
Continuous
 62
     7
100
AcDbPolyline
 90
        3
 70
     0
 43
0.0
 10
106.396753
 20
100.419883
 10
106.585593
 20
100.843684
 10
106.774418
 20
101.267467
  0
LINE
  5
388
330
20A
100
AcDbEntity
  8
7_ALL_FEATURES
  6
Continuous
 62
     7
100
AcDbLine
 10
106.396753
 20
100.419883
 30
0.0
 11
106.384036
 21
100.386062
 31
0.0
  0
LINE
  5
389
330
20A
100
AcDbEntity
  8
7_ALL_FEATURES
  6
Continuous
 62
     7
100
AcDbLine
 10
106.602125
 20
100.387482
 30
0.0
 11
106.578651
 21
100.387326
 31
0.0
  0
LINE
  5
38A
330
20A
100
AcDbEntity
  8
7_ALL_FEATURES
  6
Continuous
 62
     7
100
AcDbLine
 10
106.602125
 20
100.387482
 30
0.0
 11
106.578651
 21
100.387326
 31
0.0
  0
LINE
  5
38B
330
20A
100
AcDbEntity
  8
7_ALL_FEATURES
  6
Continuous
 62
     7
100
AcDbLine
 10
106.578651
 20
100.387326
 30
0.0
 11
106.406536
 21
100.386206
 31
0.0
  0
LWPOLYLINE
  5
38C
330
20A
100
AcDbEntity
  8
7_ALL_FEATURES
  6
Continuous
 62
     7
100
AcDbPolyline
 90
        9
 70
     0
 43
0.0
 10
106.578651
 20
100.387326
 10
106.571195
 20
100.387277
 10
106.542661
 20
100.387089
 10
106.518511
 20
100.386931
 10
106.496348
 20
100.386787
 10
106.474295
 20
100.386643
 10
106.451772
 20
100.386498
 10
106.42915
 20
100.386352
 10
106.406536
 20
100.386206
  0
LINE
  5
38D
330
20A
100
AcDbEntity
  8
7_ALL_FEATURES
  6
Continuous
 62
     7
100
AcDbLine
 10
127.209377
 20
79.560733
 30
0.0
 11
127.243199
 21
79.573449
 31
0.0
  0
LINE
  5
38E
330
20A
100
AcDbEntity
  8
7_ALL_FEATURES
  6
Continuous
 62
     7
100
AcDbLine
 10
128.090775
 20
79.95111
 30
0.0
 11
127.2432
 21
79.573449
 31
0.0
  0
LWPOLYLINE
  5
38F
330
20A
100
AcDbEntity
  8
7_ALL_FEATURES
  6
Continuous
 62
     7
100
AcDbPolyline
 90
        3
 70
     0
 43
0.0
 10
128.090775
 20
79.95111
 10
127.666996
 20
79.762287
 10
127.243199
 20
79.573449
  0
LINE
  5
390
330
20A
100
AcDbEntity
  8
7_ALL_FEATURES
  6
Continuous
 62
     9
100
AcDbLine
 10
128.092764
 20
80.138406
 30
0.0
 11
128.090775
 21
79.95111
 31
0.0
  0
ARC
  5
391
330
20A
100
AcDbEntity
  8
7_ALL_FEATURES
  6
Continuous
 62
     7
100
AcDbCircle
 10
141.322068
 20
114.49879
 30
0.0
 40
50.1634946203
100
AcDbArc
 50
0.0
 51
180.0
  0
SPLINE
  5
392
330
20A
100
AcDbEntity
  8
7_ALL_FEATURES
  6
Continuous
 62
     7
100
AcDbSpline
 70
     0
 71
     3
 72
     9
 73
     5
 74
     0
 42
0.000000001
 43
0.0000001
 40
0.0
 40
0.0
 40
0.0
 40
0.0
 40
0.1975839537
 40
1.0
 40
1.0
 40
1.0
 40
1.0
 10
104.1492892787
 20
84.7611379688
 30
0.0
 10
104.1690533778
 20
84.7791012409
 30
0.0
 10
104.2679227364
 20
84.8712865092
 30
0.0
 10
104.3643361326
 20
84.966066205
 30
0.0
 10
104.4410314183
 20
85.0427614908
 30
0.0
  0
ARC
  5
393
330
20A
100
AcDbEntity
  8
7_ALL_FEATURES
  6
Continuous
 62
     7
100
AcDbCircle
 10
141.322908
 20
114.49879
 30
0.0
 40
49.5
100
AcDbArc
 50
180.0
 51
360.0
  0
LINE
  5
394
330
20A
100
AcDbEntity
  8
7_ALL_FEATURES
  6
Continuous
 62
     7
100
AcDbLine
 10
108.617993
 20
89.219723
 30
0.0
 11
106.422727
 21
87.172481
 31
0.0
  0
LINE
  5
395
330
20A
100
AcDbEntity
  8
7_ALL_FEATURES
  6
Continuous
 62
     7
100
AcDbLine
 10
127.60814
 20
79.171218
 30
0.0
 11
124.046955
 21
70.573757
 31
0.0
  0
LINE
  5
396
330
20A
100
AcDbEntity
  8
7_ALL_FEATURES
  6
Continuous
 62
     7
100
AcDbLine
 10
128.300773
 20
79.479823
 30
0.0
 11
127.60814
 21
79.171218
 31
0.0
  0
LWPOLYLINE
  5
397
330
20A
100
AcDbEntity
  8
7_ALL_FEATURES
  6
Continuous
 62
     7
100
AcDbPolyline
 90
        3
 70
     0
 43
0.0
 10
128.300773
 20
79.479823
 10
127.954463
 20
79.325526
 10
127.60814
 20
79.171218
  0
ARC
  5
398
330
20A
100
AcDbEntity
  8
7_ALL_FEATURES
  6
Continuous
 62
     7
100
AcDbCircle
 10
129.307244
 20
77.223591
 30
0.0
 40
2.4704121624
100
AcDbArc
 50
72.114571
 51
114.040929
  0
ARC
  5
399
330
20A
100
AcDbEntity
  8
7_ALL_FEATURES
  6
Continuous
 62
     7
100
AcDbCircle
 10
141.322124
 20
114.49879
 30
0.0
 40
36.6931660129
100
AcDbArc
 50
252.135694
 51
17.864315
  0
ARC
  5
39A
330
20A
100
AcDbEntity
  8
7_ALL_FEATURES
  6
Continuous
 62
     7
100
AcDbCircle
 10
178.597322
 20
126.513676
 30
0.0
 40
2.4704121633
100
AcDbArc
 50
155.959104
 51
197.885438
  0
ARC
  5
39B
330
20A
100
AcDbEntity
  8
7_ALL_FEATURES
  6
Continuous
 62
     7
100
AcDbCircle
 10
141.319944
 20
114.49879
 30
0.0
 40
58.3525047014
100
AcDbArc
 50
270.824899
 51
93.977385
  0
ARC
  5
39C
330
20A
100
AcDbEntity
  8
7_ALL_FEATURES
  6
Continuous
 62
     7
100
AcDbCircle
 10
140.653795
 20
54.34204
 30
0.0
 40
2.3549732015
100
AcDbArc
 50
48.633254
 51
50.23825
  0
LINE
  5
39D
330
20A
100
AcDbEntity
  8
7_ALL_FEATURES
  6
Continuous
 62
     7
100
AcDbLine
 10
176.64969
 20
128.212772
 30
0.0
 11
176.341088
 21
127.520146
 31
0.0
  0
LWPOLYLINE
  5
39E
330
20A
100
AcDbEntity
  8
7_ALL_FEATURES
  6
Continuous
 62
     7
100
AcDbPolyline
 90
        3
 70
     0
 43
0.0
 10
176.64969
 20
128.212772
 10
176.495384
 20
127.866452
 10
176.341088
 20
127.520146
  0
LINE
  5
39F
330
20A
100
AcDbEntity
  8
7_ALL_FEATURES
  6
Continuous
 62
     7
100
AcDbLine
 10
185.247157
 20
131.773959
 30
0.0
 11
176.64969
 21
128.212772
 31
0.0
  0
ARC
  5
3A0
330
20A
100
AcDbEntity
  8
7_ALL_FEATURES
  6
Continuous
 62
     7
100
AcDbCircle
 10
141.993794
 20
54.324987
 30
0.0
 40
2.3730127068
100
AcDbArc
 50
129.64131
 51
131.238161
  0
LINE
  5
3A1
330
20A
100
AcDbEntity
  8
7_ALL_FEATURES
  6
Continuous
 62
     7
100
AcDbLine
 10
185.055898
 20
132.25483
 30
0.0
 11
176.260153
 21
128.611513
 31
0.0
  0
ARC
  5
3A2
330
20A
100
AcDbEntity
  8
7_ALL_FEATURES
  6
Continuous
 62
     9
100
AcDbCircle
 10
141.49115
 20
113.968079
 30
0.0
 40
47.247142789
100
AcDbArc
 50
22.77073
 51
23.173256
  0
LINE
  5
3A3
330
20A
100
AcDbEntity
  8
7_ALL_FEATURES
  6
Continuous
 62
     7
100
AcDbLine
 10
97.588305
 20
96.742751
 30
0.0
 11
106.384036
 21
100.386062
 31
0.0
  0
ARC
  5
3A4
330
20A
100
AcDbEntity
  8
7_ALL_FEATURES
  6
Continuous
 62
     9
100
AcDbCircle
 10
141.109079
 20
114.891616
 30
0.0
 40
47.1533565893
100
AcDbArc
 50
202.636923
 51
203.039853
  0
LINE
  5
3A5
330
20A
100
AcDbEntity
  8
7_ALL_FEATURES
  6
Continuous
 62
     7
100
AcDbLine
 10
155.036113
 20
149.826376
 30
0.0
 11
158.597292
 21
158.423824
 31
0.0
  0
LINE
  5
3A6
330
20A
100
AcDbEntity
  8
7_ALL_FEATURES
  6
Continuous
 62
     7
100
AcDbLine
 10
154.343468
 20
149.517763
 30
0.0
 11
155.036113
 21
149.826376
 31
0.0
  0
LWPOLYLINE
  5
3A7
330
20A
100
AcDbEntity
  8
7_ALL_FEATURES
  6
Continuous
 62
     7
100
AcDbPolyline
 90
        3
 70
     0
 43
0.0
 10
154.343468
 20
149.517763
 10
154.689784
 20
149.672064
 10
155.036113
 20
149.826376
  0
ARC
  5
3A8
330
20A
100
AcDbEntity
  8
7_ALL_FEATURES
  6
Continuous
 62
     7
100
AcDbCircle
 10
153.336992
 20
151.773994
 30
0.0
 40
2.4704120277
100
AcDbArc
 50
252.114587
 51
294.041043
  0
ARC
  5
3A9
330
20A
100
AcDbEntity
  8
7_ALL_FEATURES
  6
Continuous
 62
     7
100
AcDbCircle
 10
141.322124
 20
114.49879
 30
0.0
 40
36.6931660129
100
AcDbArc
 50
72.135711
 51
197.864296
  0
ARC
  5
3AA
330
20A
100
AcDbEntity
  8
7_ALL_FEATURES
  6
Continuous
 62
     7
100
AcDbCircle
 10
104.046921
 20
102.483918
 30
0.0
 40
2.4704122877
100
AcDbArc
 50
335.959014
 51
17.885417
  0
LINE
  5
3AB
330
20A
100
AcDbEntity
  8
7_ALL_FEATURES
  6
Continuous
 62
     7
100
AcDbLine
 10
105.994543
 20
100.784803
 30
0.0
 11
106.303153
 21
101.477444
 31
0.0
  0
LWPOLYLINE
  5
3AC
330
20A
100
AcDbEntity
  8
7_ALL_FEATURES
  6
Continuous
 62
     7
100
AcDbPolyline
 90
        3
 70
     0
 43
0.0
 10
105.994543
 20
100.784803
 10
106.148853
 20
101.13113
 10
106.303153
 20
101.477444
  0
LINE
  5
3AD
330
20A
100
AcDbEntity
  8
7_ALL_FEATURES
  6
Continuous
 62
     7
100
AcDbLine
 10
97.39709
 20
97.223622
 30
0.0
 11
105.994543
 21
100.784803
 31
0.0
  0
SPLINE
  5
3AE
330
20A
100
AcDbEntity
  8
7_ALL_FEATURES
  6
Continuous
 62
     7
100
AcDbSpline
 70
     0
 71
     3
 72
     9
 73
     5
 74
     0
 42
0.000000001
 43
0.0000001
 40
0.0
 40
0.0
 40
0.0
 40
0.0
 40
0.6217981233
 40
1.0
 40
1.0
 40
1.0
 40
1.0
 10
103.516321412
 20
86.2393718271
 30
0.0
 10
103.4450052003
 20
86.1680556154
 30
0.0
 10
103.3324733188
 20
86.051452792
 30
0.0
 10
103.2193691617
 20
85.9346833902
 30
0.0
 10
103.1812852889
 20
85.886591818
 30
0.0
  0
LINE
  5
3AF
330
20A
100
AcDbEntity
  8
7_ALL_FEATURES
  6
Continuous
 62
     7
100
AcDbLine
 10
105.510223
 20
88.084985
 30
0.0
 11
107.557333
 21
90.280383
 31
0.0
  0
ARC
  5
3B0
330
20A
100
AcDbEntity
  8
7_ALL_FEATURES
  6
Continuous
 62
     9
100
AcDbCircle
 10
140.881528
 20
114.800087
 30
0.0
 40
47.0903257432
100
AcDbArc
 50
66.864919
 51
67.268117
  0
LINE
  5
3B1
330
20A
100
AcDbEntity
  8
7_ALL_FEATURES
  6
Continuous
 62
     7
100
AcDbLine
 10
155.434832
 20
149.436861
 30
0.0
 11
159.078141
 21
158.232587
 31
0.0
  0
LINE
  5
3B2
330
20A
100
AcDbEntity
  8
7_ALL_FEATURES
  6
Continuous
 62
     7
100
AcDbLine
 10
155.433306
 20
149.218662
 30
0.0
 11
155.433472
 21
149.242124
 31
0.0
  0
LINE
  5
3B3
330
20A
100
AcDbEntity
  8
7_ALL_FEATURES
  6
Continuous
 62
     7
100
AcDbLine
 10
155.433306
 20
149.218662
 30
0.0
 11
155.433472
 21
149.242124
 31
0.0
  0
LINE
  5
3B4
330
20A
100
AcDbEntity
  8
7_ALL_FEATURES
  6
Continuous
 62
     7
100
AcDbLine
 10
155.433472
 20
149.242124
 30
0.0
 11
155.434677
 21
149.41435
 31
0.0
  0
LWPOLYLINE
  5
3B5
330
20A
100
AcDbEntity
  8
7_ALL_FEATURES
  6
Continuous
 62
     7
100
AcDbPolyline
 90
        9
 70
     0
 43
0.0
 10
155.433472
 20
149.242124
 10
155.433525
 20
149.249606
 10
155.433727
 20
149.278153
 10
155.433897
 20
149.302314
 10
155.434052
 20
149.324489
 10
155.434206
 20
149.346553
 10
155.434363
 20
149.369088
 10
155.43452
 20
149.391723
 10
155.434677
 20
149.41435
  0
ARC
  5
3B6
330
20A
100
AcDbEntity
  8
7_ALL_FEATURES
  6
Continuous
 62
     7
100
AcDbCircle
 10
141.322908
 20
114.49879
 30
0.0
 40
49.5
100
AcDbArc
 50
0.0
 51
180.0
  0
LINE
  5
3B7
330
20A
100
AcDbEntity
  8
7_ALL_FEATURES
  6
Continuous
 62
     9
100
AcDbLine
 10
175.755205
 20
125.596701
 30
0.0
 11
175.570011
 21
125.592692
 31
0.0
  0
ARC
  5
3B8
330
20A
100
AcDbEntity
  8
7_ALL_FEATURES
  6
Continuous
 62
     7
100
AcDbCircle
 10
141.322103
 20
114.49879
 30
0.0
 40
36.1773711087
100
AcDbArc
 50
252.135694
 51
17.864315
  0
LINE
  5
3B9
330
20A
100
AcDbEntity
  8
7_ALL_FEATURES
  6
Continuous
 62
     9
100
AcDbLine
 10
130.228117
 20
80.250791
 30
0.0
 11
130.224197
 21
80.065686
 31
0.0
  0
SPLINE
  5
3BA
330
20A
100
AcDbEntity
  8
7_ALL_FEATURES
  6
Continuous
 62
     7
100
AcDbSpline
 70
     0
 71
     3
 72
     9
 73
     5
 74
     0
 42
0.000000001
 43
0.0000001
 40
0.0
 40
0.0
 40
0.0
 40
0.0
 40
0.1706561626
 40
1.0
 40
1.0
 40
1.0
 40
1.0
 10
108.1530628591
 20
80.283759192
 30
0.0
 10
108.1726156551
 20
80.3005922972
 30
0.0
 10
108.2843481462
 20
80.4024865466
 30
0.0
 10
108.3921257306
 20
80.5085744327
 30
0.0
 10
108.4807852956
 20
80.5972339978
 30
0.0
  0
ARC
  5
3BB
330
20A
100
AcDbEntity
  8
7_ALL_FEATURES
  6
Continuous
 62
     7
100
AcDbCircle
 10
141.319944
 20
114.49879
 30
0.0
 40
51.5851364854
100
AcDbArc
 50
0.0
 51
180.0
  0
LINE
  5
3BC
330
20A
100
AcDbEntity
  8
7_ALL_FEATURES
  6
Continuous
 62
     7
100
AcDbLine
 10
112.860634
 20
84.977082
 30
0.0
 11
110.665368
 21
82.92984
 31
0.0
  0
SPLINE
  5
3BD
330
20A
100
AcDbEntity
  8
7_ALL_FEATURES
  6
Continuous
 62
     7
100
AcDbSpline
 70
     0
 71
     3
 72
     9
 73
     5
 74
     0
 42
0.000000001
 43
0.0000001
 40
0.0
 40
0.0
 40
0.0
 40
0.0
 40
0.3083534457
 40
1.0
 40
1.0
 40
1.0
 40
1.0
 10
107.4201251248
 20
81.6578941695
 30
0.0
 10
107.3871693647
 20
81.6249384094
 30
0.0
 10
107.2811165622
 20
81.5172907867
 30
0.0
 10
107.1749292989
 20
81.4094616125
 30
0.0
 10
107.106727365
 20
81.3302336509
 30
0.0
  0
LINE
  5
3BE
330
20A
100
AcDbEntity
  8
7_ALL_FEATURES
  6
Continuous
 62
     9
100
AcDbLine
 10
106.888996
 20
103.400891
 30
0.0
 11
107.074011
 21
103.404903
 31
0.0
  0
ARC
  5
3BF
330
20A
100
AcDbEntity
  8
7_ALL_FEATURES
  6
Continuous
 62
     7
100
AcDbCircle
 10
141.322103
 20
114.49879
 30
0.0
 40
36.1773711087
100
AcDbArc
 50
72.135711
 51
197.864296
  0
LINE
  5
3C0
330
20A
100
AcDbEntity
  8
7_ALL_FEATURES
  6
Continuous
 62
     9
100
AcDbLine
 10
152.415902
 20
148.746792
 30
0.0
 11
152.419998
 21
148.931898
 31
0.0
  0
ARC
  5
3C1
330
20A
100
AcDbEntity
  8
7_ALL_FEATURES
  6
Continuous
 62
     9
100
AcDbCircle
 10
141.804964
 20
114.418058
 30
0.0
 40
47.3101211058
100
AcDbArc
 50
246.921839
 51
247.3241
  0
LINE
  5
3C2
330
20A
100
AcDbEntity
  8
7_ALL_FEATURES
  6
Continuous
 62
     7
100
AcDbLine
 10
182.321682
 20
131.481547
 30
0.0
 11
184.928795
 21
132.561448
 31
0.0
  0
LINE
  5
3C3
330
20A
100
AcDbEntity
  8
7_ALL_FEATURES
  6
Continuous
 62
     7
100
AcDbLine
 10
109.752864
 20
83.842344
 30
0.0
 11
111.799973
 21
86.037743
 31
0.0
  0
LINE
  5
3C4
330
20A
100
AcDbEntity
  8
7_ALL_FEATURES
  6
Continuous
 62
     7
100
AcDbLine
 10
182.47199
 20
137.617876
 30
0.0
 11
179.328671
 21
134.474557
 31
0.0
  0
LINE
  5
3C5
330
20A
100
AcDbEntity
  8
7_ALL_FEATURES
  6
Continuous
 62
     7
100
AcDbLine
 10
121.345915
 20
76.491801
 30
0.0
 11
118.202596
 21
73.348482
 31
0.0
  0
ARC
  5
3C6
330
20A
100
AcDbEntity
  8
7_ALL_FEATURES
  6
Continuous
 62
     7
100
AcDbCircle
 10
141.319944
 20
114.49879
 30
0.0
 40
51.5851364854
100
AcDbArc
 50
180.0
 51
360.0
  0
LINE
  5
3C7
330
20A
100
AcDbEntity
  8
7_ALL_FEATURES
  6
Continuous
 62
     7
100
AcDbLine
 10
123.259024
 20
70.891677
 30
0.0
 11
124.338926
 21
73.49879
 31
0.0
  0
LINE
  5
3C8
330
20A
100
AcDbEntity
  8
7_ALL_FEATURES
  6
Continuous
 62
     7
100
AcDbLine
 10
100.321682
 20
97.516034
 30
0.0
 11
97.714568
 21
96.436132
 31
0.0
  0
ARC
  5
3C9
330
20A
100
AcDbEntity
  8
7_ALL_FEATURES
  6
Continuous
 62
     9
100
AcDbCircle
 10
141.321682
 20
114.49879
 30
0.0
 40
47.2
100
AcDbArc
 50
211.210974
 51
216.778029
  0
LINE
  5
3CA
330
20A
100
AcDbEntity
  8
7_ALL_FEATURES
  6
Continuous
 62
     7
100
AcDbLine
 10
100.171373
 20
91.379705
 30
0.0
 11
103.314692
 21
94.523024
 31
0.0
  0
LINE
  5
3CB
330
20A
100
AcDbEntity
  8
7_ALL_FEATURES
  6
Continuous
 62
     7
100
AcDbLine
 10
161.297448
 20
152.50578
 30
0.0
 11
164.440767
 21
155.649099
 31
0.0
  0
ARC
  5
3CC
330
20A
100
AcDbEntity
  8
7_ALL_FEATURES
  6
Continuous
 62
     9
100
AcDbCircle
 10
141.321682
 20
114.49879
 30
0.0
 40
47.2
100
AcDbArc
 50
218.613844
 51
224.089541
  0
LINE
  5
3CD
330
20A
100
AcDbEntity
  8
7_ALL_FEATURES
  6
Continuous
 62
     7
100
AcDbLine
 10
159.38434
 20
158.105904
 30
0.0
 11
158.304438
 21
155.49879
 31
0.0
  0
LINE
  5
3CE
330
20A
100
AcDbEntity
  8
7_ALL_FEATURES
  6
Continuous
 62
     7
100
AcDbLine
 10
165.540089
 20
148.263139
 30
0.0
 11
169.5811
 21
152.304151
 31
0.0
  0
SPLINE
  5
3CF
330
20A
100
AcDbEntity
  8
7_ALL_FEATURES
  6
Continuous
 62
     7
100
AcDbSpline
 70
     0
 71
     3
 72
     9
 73
     5
 74
     0
 42
0.000000001
 43
0.0000001
 40
0.0
 40
0.0
 40
0.0
 40
0.0
 40
0.2086062759
 40
1.0
 40
1.0
 40
1.0
 40
1.0
 10
181.9673863405
 20
139.2261451415
 30
0.0
 10
181.9476723934
 20
139.2079200581
 30
0.0
 10
181.8539792942
 20
139.1196800253
 30
0.0
 10
181.7622113413
 20
139.0294177102
 30
0.0
 10
181.6901909249
 20
138.9573972938
 30
0.0
  0
LINE
  5
3D0
330
20A
100
AcDbEntity
  8
7_ALL_FEATURES
  6
Continuous
 62
     7
100
AcDbLine
 10
165.780288
 20
154.8673
 30
0.0
 11
162.358108
 21
151.44512
 31
0.0
  0
LINE
  5
3D1
330
20A
100
AcDbEntity
  8
7_ALL_FEATURES
  6
Continuous
 62
     7
100
AcDbLine
 10
169.782729
 20
144.020499
 30
0.0
 11
174.162578
 21
148.400347
 31
0.0
  0
ARC
  5
3D2
330
20A
100
AcDbEntity
  8
7_ALL_FEATURES
  6
Continuous
 62
     9
100
AcDbCircle
 10
141.321682
 20
114.49879
 30
0.0
 40
47.2
100
AcDbArc
 50
225.910459
 51
231.386156
  0
LINE
  5
3D3
330
20A
100
AcDbEntity
  8
7_ALL_FEATURES
  6
Continuous
 62
     7
100
AcDbLine
 10
170.77771
 20
151.379441
 30
0.0
 11
166.600749
 21
147.202479
 31
0.0
  0
LINE
  5
3D4
330
20A
100
AcDbEntity
  8
7_ALL_FEATURES
  6
Continuous
 62
     7
100
AcDbLine
 10
174.02537
 20
139.777858
 30
0.0
 11
178.202332
 21
143.954819
 31
0.0
  0
ARC
  5
3D5
330
20A
100
AcDbEntity
  8
7_ALL_FEATURES
  6
Continuous
 62
     7
100
AcDbCircle
 10
141.319944
 20
56.007338
 30
0.0
 40
0.8525047014
100
AcDbArc
 50
170.207448
 51
9.792552
  0
LINE
  5
3D6
330
20A
100
AcDbEntity
  8
7_ALL_FEATURES
  6
Continuous
 62
     7
100
AcDbLine
 10
175.223238
 20
147.339687
 30
0.0
 11
170.84339
 21
142.959838
 31
0.0
  0
LINE
  5
3D7
330
20A
100
AcDbEntity
  8
7_ALL_FEATURES
  6
Continuous
 62
     7
100
AcDbLine
 10
178.268011
 20
135.535217
 30
0.0
 11
181.690191
 21
138.957397
 31
0.0
  0
LINE
  5
3D8
330
20A
100
AcDbEntity
  8
7_ALL_FEATURES
  6
Continuous
 62
     7
100
AcDbLine
 10
178.268011
 20
135.535217
 30
0.0
 11
180.463542
 21
137.582459
 31
0.0
  0
LINE
  5
3D9
330
20A
100
AcDbEntity
  8
7_ALL_FEATURES
  6
Continuous
 62
     7
100
AcDbLine
 10
179.127042
 20
142.758209
 30
0.0
 11
175.08603
 21
138.717198
 31
0.0
  0
LINE
  5
3DA
330
20A
100
AcDbEntity
  8
7_ALL_FEATURES
  6
Continuous
 62
     7
100
AcDbLine
 10
117.103274
 20
80.734442
 30
0.0
 11
113.062263
 21
76.69343
 31
0.0
  0
SPLINE
  5
3DB
330
20A
100
AcDbEntity
  8
7_ALL_FEATURES
  6
Continuous
 62
     7
100
AcDbSpline
 70
     0
 71
     3
 72
     9
 73
     5
 74
     0
 42
0.000000001
 43
0.0000001
 40
0.0
 40
0.0
 40
0.0
 40
0.0
 40
0.2926399528
 40
1.0
 40
1.0
 40
1.0
 40
1.0
 10
182.471989956
 20
137.617875982
 30
0.0
 10
182.502725387
 20
137.648611413
 30
0.0
 10
182.6071783096
 20
137.7541941685
 30
0.0
 10
182.7109333
 20
137.860595888
 30
0.0
 10
182.7810935861
 20
137.9388029755
 30
0.0
  0
LINE
  5
3DC
330
20A
100
AcDbEntity
  8
7_ALL_FEATURES
  6
Continuous
 62
     7
100
AcDbLine
 10
116.863075
 20
74.130281
 30
0.0
 11
120.285255
 21
77.552461
 31
0.0
  0
LINE
  5
3DD
330
20A
100
AcDbEntity
  8
7_ALL_FEATURES
  6
Continuous
 62
     7
100
AcDbLine
 10
112.860634
 20
84.977082
 30
0.0
 11
108.480785
 21
80.597234
 31
0.0
  0
ARC
  5
3DE
330
20A
100
AcDbEntity
  8
7_ALL_FEATURES
  6
Continuous
 62
     9
100
AcDbCircle
 10
141.321682
 20
114.49879
 30
0.0
 40
47.2
100
AcDbArc
 50
233.221971
 51
238.789027
  0
LINE
  5
3DF
330
20A
100
AcDbEntity
  8
7_ALL_FEATURES
  6
Continuous
 62
     7
100
AcDbLine
 10
111.865653
 20
77.61814
 30
0.0
 11
116.042614
 21
81.795102
 31
0.0
  0
LINE
  5
3E0
330
20A
100
AcDbEntity
  8
7_ALL_FEATURES
  6
Continuous
 62
     7
100
AcDbLine
 10
108.617993
 20
89.219723
 30
0.0
 11
104.441031
 21
85.042761
 31
0.0
  0
LINE
  5
3E1
330
20A
100
AcDbEntity
  8
7_ALL_FEATURES
  6
Continuous
 62
     7
100
AcDbLine
 10
181.376046
 20
136.669956
 30
0.0
 11
179.328671
 21
134.474557
 31
0.0
  0
LINE
  5
3E2
330
20A
100
AcDbEntity
  8
7_ALL_FEATURES
  6
Continuous
 62
     7
100
AcDbLine
 10
107.420125
 20
81.657894
 30
0.0
 11
111.799973
 21
86.037743
 31
0.0
  0
LINE
  5
3E3
330
20A
100
AcDbEntity
  8
7_ALL_FEATURES
  6
Continuous
 62
     7
100
AcDbLine
 10
104.375352
 20
93.462364
 30
0.0
 11
100.953172
 21
90.040184
 31
0.0
  0
SPLINE
  5
3E4
330
20A
100
AcDbEntity
  8
7_ALL_FEATURES
  6
Continuous
 62
     7
100
AcDbSpline
 70
     0
 71
     3
 72
     9
 73
     5
 74
     0
 42
0.000000001
 43
0.0000001
 40
0.0
 40
0.0
 40
0.0
 40
0.0
 40
0.1911959145
 40
1.0
 40
1.0
 40
1.0
 40
1.0
 10
117.8829409416
 20
73.0405213115
 30
0.0
 10
117.9039855558
 20
73.0594280143
 30
0.0
 10
118.0124581509
 20
73.1600802257
 30
0.0
 10
118.1179733789
 20
73.2638593421
 30
0.0
 10
118.2025960587
 20
73.3484820219
 30
0.0
  0
LINE
  5
3E5
330
20A
100
AcDbEntity
  8
7_ALL_FEATURES
  6
Continuous
 62
     7
100
AcDbLine
 10
103.516321
 20
86.239372
 30
0.0
 11
107.557333
 21
90.280383
 31
0.0
  0
LINE
  5
3E6
330
20A
100
AcDbEntity
  8
7_ALL_FEATURES
  6
Continuous
 62
     7
100
AcDbLine
 10
127.209377
 20
79.560733
 30
0.0
 11
123.566062
 21
70.764994
 31
0.0
  0
LINE
  5
3E7
330
20A
100
AcDbEntity
  8
7_ALL_FEATURES
  6
Continuous
 62
     7
100
AcDbLine
 10
127.210693
 20
79.778926
 30
0.0
 11
127.210549
 21
79.755442
 31
0.0
  0
LINE
  5
3E8
330
20A
100
AcDbEntity
  8
7_ALL_FEATURES
  6
Continuous
 62
     7
100
AcDbLine
 10
127.210693
 20
79.778926
 30
0.0
 11
127.210549
 21
79.755442
 31
0.0
  0
LINE
  5
3E9
330
20A
100
AcDbEntity
  8
7_ALL_FEATURES
  6
Continuous
 62
     7
100
AcDbLine
 10
127.210549
 20
79.755442
 30
0.0
 11
127.20951
 21
79.583244
 31
0.0
  0
LWPOLYLINE
  5
3EA
330
20A
100
AcDbEntity
  8
7_ALL_FEATURES
  6
Continuous
 62
     7
100
AcDbPolyline
 90
        9
 70
     0
 43
0.0
 10
127.210549
 20
79.755442
 10
127.210503
 20
79.747982
 10
127.210329
 20
79.719436
 10
127.210182
 20
79.695275
 10
127.210048
 20
79.673101
 10
127.209915
 20
79.651038
 10
127.20978
 20
79.628503
 10
127.209645
 20
79.605869
 10
127.20951
 20
79.583244
  0
SPLINE
  5
3EB
330
20A
100
AcDbEntity
  8
7_ALL_FEATURES
  6
Continuous
 62
     7
100
AcDbSpline
 70
     0
 71
     3
 72
     9
 73
     5
 74
     0
 42
0.000000001
 43
0.0000001
 40
0.0
 40
0.0
 40
0.0
 40
0.0
 40
0.1967648938
 40
1.0
 40
1.0
 40
1.0
 40
1.0
 10
178.4955681024
 20
144.2377834572
 30
0.0
 10
178.4757747528
 20
144.2198212953
 30
0.0
 10
178.3763769529
 20
144.1272213234
 30
0.0
 10
178.2794851949
 20
144.0319729346
 30
0.0
 10
178.2023316938
 20
143.9548194334
 30
0.0
  0
ARC
  5
3EC
330
20A
100
AcDbEntity
  8
7_ALL_FEATURES
  6
Continuous
 62
     9
100
AcDbCircle
 10
141.321682
 20
114.49879
 30
0.0
 40
47.2
100
AcDbArc
 50
31.210974
 51
36.778029
  0
ARC
  5
3ED
330
20A
100
AcDbEntity
  8
7_ALL_FEATURES
  6
Continuous
 62
     7
100
AcDbCircle
 10
141.322024
 20
114.49879
 30
0.0
 40
51.1746345727
100
AcDbArc
 50
180.0
 51
360.0
  0
ARC
  5
3EE
330
20A
100
AcDbEntity
  8
7_ALL_FEATURES
  6
Continuous
 62
     7
100
AcDbCircle
 10
141.322024
 20
114.49879
 30
0.0
 40
51.1746345727
100
AcDbArc
 50
0.0
 51
180.0
  0
LINE
  5
3EF
330
20A
100
AcDbEntity
  8
7_ALL_FEATURES
  6
Continuous
 62
     7
100
AcDbLine
 10
174.02537
 20
139.777858
 30
0.0
 11
176.220901
 21
141.8251
 31
0.0
  0
SPLINE
  5
3F0
330
20A
100
AcDbEntity
  8
7_ALL_FEATURES
  6
Continuous
 62
     7
100
AcDbSpline
 70
     0
 71
     3
 72
     9
 73
     5
 74
     0
 42
0.000000001
 43
0.0000001
 40
0.0
 40
0.0
 40
0.0
 40
0.0
 40
0.626151795
 40
1.0
 40
1.0
 40
1.0
 40
1.0
 10
179.1270417001
 20
142.758209097
 30
0.0
 10
179.1992518825
 20
142.8304192795
 30
0.0
 10
179.3121915221
 20
142.9478164361
 30
0.0
 10
179.426286987
 20
143.0649756422
 30
0.0
 10
179.4637518129
 20
143.1130791641
 30
0.0
  0
ARC
  5
3F1
330
20A
100
AcDbEntity
  8
7_ALL_FEATURES
  6
Continuous
 62
     9
100
AcDbCircle
 10
141.321682
 20
114.49879
 30
0.0
 40
47.2
100
AcDbArc
 50
38.613844
 51
44.089541
  0
LINE
  5
3F2
330
20A
100
AcDbEntity
  8
7_ALL_FEATURES
  6
Continuous
 62
     7
100
AcDbLine
 10
177.133405
 20
140.912596
 30
0.0
 11
175.08603
 21
138.717198
 31
0.0
  0
ARC
  5
3F3
330
20A
100
AcDbEntity
  8
7_ALL_FEATURES
  6
Continuous
 62
     9
100
AcDbCircle
 10
141.321682
 20
114.49879
 30
0.0
 40
47.2
100
AcDbArc
 50
45.910459
 51
51.386156
  0
LINE
  5
3F4
330
20A
100
AcDbEntity
  8
7_ALL_FEATURES
  6
Continuous
 62
     7
100
AcDbLine
 10
121.345915
 20
76.491801
 30
0.0
 11
119.150649
 21
74.444559
 31
0.0
  0
SPLINE
  5
3F5
330
20A
100
AcDbEntity
  8
7_ALL_FEATURES
  6
Continuous
 62
     7
100
AcDbSpline
 70
     0
 71
     3
 72
     9
 73
     5
 74
     0
 42
0.000000001
 43
0.0000001
 40
0.0
 40
0.0
 40
0.0
 40
0.0
 40
0.1905905151
 40
1.0
 40
1.0
 40
1.0
 40
1.0
 10
164.7614177474
 20
155.9579345755
 30
0.0
 10
164.7403648777
 20
155.9390451837
 30
0.0
 10
164.6315365284
 20
155.838126518
 30
0.0
 10
164.5257057921
 20
155.7340376411
 30
0.0
 10
164.4407670534
 20
155.6490989023
 30
0.0
  0
SPLINE
  5
3F6
330
20A
100
AcDbEntity
  8
7_ALL_FEATURES
  6
Continuous
 62
     7
100
AcDbSpline
 70
     0
 71
     3
 72
     9
 73
     5
 74
     0
 42
0.000000001
 43
0.0000001
 40
0.0
 40
0.0
 40
0.0
 40
0.0
 40
0.2786724048
 40
1.0
 40
1.0
 40
1.0
 40
1.0
 10
116.8630747482
 20
74.1302810537
 30
0.0
 10
116.8378493909
 20
74.1050556964
 30
0.0
 10
116.7476925902
 20
74.0141791963
 30
0.0
 10
116.6584383997
 20
73.9223681267
 30
0.0
 10
116.5957221765
 20
73.8545935618
 30
0.0
  0
ARC
  5
3F7
330
20A
100
AcDbEntity
  8
7_ALL_FEATURES
  6
Continuous
 62
     9
100
AcDbCircle
 10
141.321682
 20
114.49879
 30
0.0
 40
47.2
100
AcDbArc
 50
53.221971
 51
58.789027
  0
LINE
  5
3F8
330
20A
100
AcDbEntity
  8
7_ALL_FEATURES
  6
Continuous
 62
     7
100
AcDbLine
 10
176.220901
 20
141.8251
 30
0.0
 11
178.554034
 21
144.158233
 31
0.0
  0
LINE
  5
3F9
330
20A
100
AcDbEntity
  8
7_ALL_FEATURES
  6
Continuous
 62
     7
100
AcDbLine
 10
178.554034
 20
144.158233
 30
0.0
 11
178.623994
 21
144.228193
 31
0.0
  0
LINE
  5
3FA
330
20A
100
AcDbEntity
  8
7_ALL_FEATURES
  6
Continuous
 62
     7
100
AcDbLine
 10
176.220901
 20
141.8251
 30
0.0
 11
177.133405
 21
140.912596
 31
0.0
  0
LINE
  5
3FB
330
20A
100
AcDbEntity
  8
7_ALL_FEATURES
  6
Continuous
 62
     7
100
AcDbLine
 10
179.398155
 20
143.177346
 30
0.0
 11
177.133405
 21
140.912596
 31
0.0
  0
LINE
  5
3FC
330
20A
100
AcDbEntity
  8
7_ALL_FEATURES
  6
Continuous
 62
     7
100
AcDbLine
 10
180.463542
 20
137.582459
 30
0.0
 11
182.018601
 21
139.137518
 31
0.0
  0
LINE
  5
3FD
330
20A
100
AcDbEntity
  8
7_ALL_FEATURES
  6
Continuous
 62
     7
100
AcDbLine
 10
182.018601
 20
139.137518
 30
0.0
 11
182.110265
 21
139.229182
 31
0.0
  0
LINE
  5
3FE
330
20A
100
AcDbEntity
  8
7_ALL_FEATURES
  6
Continuous
 62
     7
100
AcDbLine
 10
180.463542
 20
137.582459
 30
0.0
 11
181.376046
 21
136.669956
 31
0.0
  0
LINE
  5
3FF
330
20A
100
AcDbEntity
  8
7_ALL_FEATURES
  6
Continuous
 62
     7
100
AcDbLine
 10
182.785555
 20
138.079465
 30
0.0
 11
182.722831
 21
138.016741
 31
0.0
  0
LINE
  5
400
330
20A
100
AcDbEntity
  8
7_ALL_FEATURES
  6
Continuous
 62
     7
100
AcDbLine
 10
182.722831
 20
138.016741
 30
0.0
 11
181.376046
 21
136.669956
 31
0.0
  0
LINE
  5
401
330
20A
100
AcDbEntity
  8
7_ALL_FEATURES
  6
Continuous
 62
     7
100
AcDbLine
 10
119.150649
 20
74.444559
 30
0.0
 11
117.804957
 21
73.098867
 31
0.0
  0
LINE
  5
402
330
20A
100
AcDbEntity
  8
7_ALL_FEATURES
  6
Continuous
 62
     7
100
AcDbLine
 10
117.804957
 20
73.098867
 30
0.0
 11
117.74114
 21
73.03505
 31
0.0
  0
LINE
  5
403
330
20A
100
AcDbEntity
  8
7_ALL_FEATURES
  6
Continuous
 62
     7
100
AcDbLine
 10
119.150649
 20
74.444559
 30
0.0
 11
118.238145
 21
75.357063
 31
0.0
  0
LINE
  5
404
330
20A
100
AcDbEntity
  8
7_ALL_FEATURES
  6
Continuous
 62
     7
100
AcDbLine
 10
116.591422
 20
73.71034
 30
0.0
 11
116.68418
 21
73.803098
 31
0.0
  0
LINE
  5
405
330
20A
100
AcDbEntity
  8
7_ALL_FEATURES
  6
Continuous
 62
     7
100
AcDbLine
 10
116.68418
 20
73.803098
 30
0.0
 11
118.238145
 21
75.357063
 31
0.0
  0
LINE
  5
406
330
20A
100
AcDbEntity
  8
7_ALL_FEATURES
  6
Continuous
 62
     7
100
AcDbLine
 10
114.908008
 20
78.687199
 30
0.0
 11
112.644353
 21
76.423544
 31
0.0
  0
LINE
  5
407
330
20A
100
AcDbEntity
  8
7_ALL_FEATURES
  6
Continuous
 62
     7
100
AcDbLine
 10
114.908008
 20
78.687199
 30
0.0
 11
113.995505
 21
79.599703
 31
0.0
  0
LINE
  5
408
330
20A
100
AcDbEntity
  8
7_ALL_FEATURES
  6
Continuous
 62
     7
100
AcDbLine
 10
111.592412
 20
77.196611
 30
0.0
 11
111.663466
 21
77.267665
 31
0.0
  0
LINE
  5
409
330
20A
100
AcDbEntity
  8
7_ALL_FEATURES
  6
Continuous
 62
     7
100
AcDbLine
 10
111.663466
 20
77.267665
 30
0.0
 11
113.995505
 21
79.599703
 31
0.0
  0
LINE
  5
40A
330
20A
100
AcDbEntity
  8
7_ALL_FEATURES
  6
Continuous
 62
     7
100
AcDbLine
 10
110.665368
 20
82.92984
 30
0.0
 11
108.08377
 21
80.348242
 31
0.0
  0
LINE
  5
40B
330
20A
100
AcDbEntity
  8
7_ALL_FEATURES
  6
Continuous
 62
     7
100
AcDbLine
 10
108.08377
 20
80.348242
 30
0.0
 11
108.052159
 21
80.316631
 31
0.0
  0
LINE
  5
40C
330
20A
100
AcDbEntity
  8
7_ALL_FEATURES
  6
Continuous
 62
     7
100
AcDbLine
 10
110.665368
 20
82.92984
 30
0.0
 11
109.752864
 21
83.842344
 31
0.0
  0
LINE
  5
40D
330
20A
100
AcDbEntity
  8
7_ALL_FEATURES
  6
Continuous
 62
     7
100
AcDbLine
 10
107.139655
 20
81.229135
 30
0.0
 11
107.171348
 21
81.260828
 31
0.0
  0
LINE
  5
40E
330
20A
100
AcDbEntity
  8
7_ALL_FEATURES
  6
Continuous
 62
     7
100
AcDbLine
 10
107.171348
 20
81.260828
 30
0.0
 11
109.752864
 21
83.842344
 31
0.0
  0
LINE
  5
40F
330
20A
100
AcDbEntity
  8
7_ALL_FEATURES
  6
Continuous
 62
     7
100
AcDbLine
 10
106.422727
 20
87.172481
 30
0.0
 11
104.090771
 21
84.840524
 31
0.0
  0
LINE
  5
410
330
20A
100
AcDbEntity
  8
7_ALL_FEATURES
  6
Continuous
 62
     7
100
AcDbLine
 10
104.090771
 20
84.840524
 30
0.0
 11
104.019634
 21
84.769388
 31
0.0
  0
LINE
  5
411
330
20A
100
AcDbEntity
  8
7_ALL_FEATURES
  6
Continuous
 62
     7
100
AcDbLine
 10
106.422727
 20
87.172481
 30
0.0
 11
105.510223
 21
88.084985
 31
0.0
  0
LINE
  5
412
330
20A
100
AcDbEntity
  8
7_ALL_FEATURES
  6
Continuous
 62
     7
100
AcDbLine
 10
103.246649
 20
85.821411
 30
0.0
 11
105.510223
 21
88.084985
 31
0.0
  0
LINE
  5
413
330
20A
100
AcDbEntity
  8
7_ALL_FEATURES
  6
Continuous
 62
     7
100
AcDbLine
 10
102.180086
 20
91.415122
 30
0.0
 11
100.626371
 21
89.861406
 31
0.0
  0
LINE
  5
414
330
20A
100
AcDbEntity
  8
7_ALL_FEATURES
  6
Continuous
 62
     7
100
AcDbLine
 10
100.626371
 20
89.861406
 30
0.0
 11
100.533363
 21
89.768399
 31
0.0
  0
LINE
  5
415
330
20A
100
AcDbEntity
  8
7_ALL_FEATURES
  6
Continuous
 62
     7
100
AcDbLine
 10
102.180086
 20
91.415122
 30
0.0
 11
101.267583
 21
92.327625
 31
0.0
  0
LINE
  5
416
330
20A
100
AcDbEntity
  8
7_ALL_FEATURES
  6
Continuous
 62
     7
100
AcDbLine
 10
99.858073
 20
90.918116
 30
0.0
 11
99.922141
 21
90.982183
 31
0.0
  0
LINE
  5
417
330
20A
100
AcDbEntity
  8
7_ALL_FEATURES
  6
Continuous
 62
     7
100
AcDbLine
 10
99.922141
 20
90.982183
 30
0.0
 11
101.267583
 21
92.327625
 31
0.0
  0
LINE
  5
418
330
20A
100
AcDbEntity
  8
7_ALL_FEATURES
  6
Continuous
 62
     7
100
AcDbLine
 10
163.492979
 20
154.553022
 30
0.0
 11
164.839515
 21
155.899558
 31
0.0
  0
LINE
  5
419
330
20A
100
AcDbEntity
  8
7_ALL_FEATURES
  6
Continuous
 62
     7
100
AcDbLine
 10
164.839515
 20
155.899558
 30
0.0
 11
164.902488
 21
155.962531
 31
0.0
  0
LINE
  5
41A
330
20A
100
AcDbEntity
  8
7_ALL_FEATURES
  6
Continuous
 62
     7
100
AcDbLine
 10
163.492979
 20
154.553022
 30
0.0
 11
164.405483
 21
153.640518
 31
0.0
  0
LINE
  5
41B
330
20A
100
AcDbEntity
  8
7_ALL_FEATURES
  6
Continuous
 62
     7
100
AcDbLine
 10
166.052206
 20
155.287241
 30
0.0
 11
165.960292
 21
155.195327
 31
0.0
  0
LINE
  5
41C
330
20A
100
AcDbEntity
  8
7_ALL_FEATURES
  6
Continuous
 62
     7
100
AcDbLine
 10
165.960292
 20
155.195327
 30
0.0
 11
164.405483
 21
153.640518
 31
0.0
  0
LINE
  5
41D
330
20A
100
AcDbEntity
  8
7_ALL_FEATURES
  6
Continuous
 62
     7
100
AcDbLine
 10
167.73562
 20
150.310381
 30
0.0
 11
170.000288
 21
152.575049
 31
0.0
  0
LINE
  5
41E
330
20A
100
AcDbEntity
  8
7_ALL_FEATURES
  6
Continuous
 62
     7
100
AcDbLine
 10
167.73562
 20
150.310381
 30
0.0
 11
168.648124
 21
149.397878
 31
0.0
  0
LINE
  5
41F
330
20A
100
AcDbEntity
  8
7_ALL_FEATURES
  6
Continuous
 62
     7
100
AcDbLine
 10
171.051217
 20
151.80097
 30
0.0
 11
170.981174
 21
151.730928
 31
0.0
  0
LINE
  5
420
330
20A
100
AcDbEntity
  8
7_ALL_FEATURES
  6
Continuous
 62
     7
100
AcDbLine
 10
170.981174
 20
151.730928
 30
0.0
 11
168.648124
 21
149.397878
 31
0.0
  0
LINE
  5
421
330
20A
100
AcDbEntity
  8
7_ALL_FEATURES
  6
Continuous
 62
     7
100
AcDbLine
 10
171.978261
 20
146.067741
 30
0.0
 11
174.56087
 21
148.650351
 31
0.0
  0
LINE
  5
422
330
20A
100
AcDbEntity
  8
7_ALL_FEATURES
  6
Continuous
 62
     7
100
AcDbLine
 10
174.56087
 20
148.650351
 30
0.0
 11
174.59147
 21
148.68095
 31
0.0
  0
LINE
  5
423
330
20A
100
AcDbEntity
  8
7_ALL_FEATURES
  6
Continuous
 62
     7
100
AcDbLine
 10
171.978261
 20
146.067741
 30
0.0
 11
172.890764
 21
145.155237
 31
0.0
  0
LINE
  5
424
330
20A
100
AcDbEntity
  8
7_ALL_FEATURES
  6
Continuous
 62
     7
100
AcDbLine
 10
175.503974
 20
147.768446
 30
0.0
 11
175.473456
 21
147.737929
 31
0.0
  0
LINE
  5
425
330
20A
100
AcDbEntity
  8
7_ALL_FEATURES
  6
Continuous
 62
     7
100
AcDbLine
 10
175.473456
 20
147.737929
 30
0.0
 11
172.890764
 21
145.155237
 31
0.0
  0
ARC
  5
426
330
20A
100
AcDbEntity
  8
7_ALL_FEATURES
  6
Continuous
 62
     7
100
AcDbCircle
 10
141.319944
 20
114.49879
 30
0.0
 40
58.3525047014
100
AcDbArc
 50
93.977385
 51
269.175101
  0
LINE
  5
427
330
20A
100
AcDbEntity
  8
7_ALL_FEATURES
  6
Continuous
 62
     7
100
AcDbLine
 10
161.297448
 20
152.50578
 30
0.0
 11
163.492979
 21
154.553022
 31
0.0
  0
LINE
  5
428
330
20A
100
AcDbEntity
  8
3_ALL_AXES
  6
Continuous
 62
     7
100
AcDbLine
 10
458.073278
 20
288.710969
 30
0.0
 11
458.073278
 21
303.710969
 31
0.0
  0
SPLINE
  5
429
330
20A
100
AcDbEntity
  8
3_ALL_AXES
  6
Continuous
 62
     7
100
AcDbSpline
 70
     0
 71
     3
 72
    17
 73
    13
 74
     0
 42
0.000000001
 43
0.0000001
 40
0.0
 40
0.0
 40
0.0
 40
0.0
 40
0.2204136442
 40
0.4185821756
 40
0.5909445569
 40
0.7352849199
 40
0.8497808593
 40
0.9328474504
 40
0.9621397495
 40
0.9831347116
 40
0.9957741834
 40
1.0
 40
1.0
 40
1.0
 40
1.0
 10
457.5636623188
 20
288.6751232571
 30
0.0
 10
457.6011481149
 20
288.6770769962
 30
0.0
 10
457.6723196899
 20
288.6810690245
 30
0.0
 10
457.7727666315
 20
288.6874394698
 30
0.0
 10
457.8602039777
 20
288.6936251113
 30
0.0
 10
457.9335087466
 20
288.6991557585
 30
0.0
 10
457.9913225674
 20
288.7040339513
 30
0.0
 10
458.0302888506
 20
288.706919303
 30
0.0
 10
458.0522748443
 20
288.7093961269
 30
0.0
 10
458.0640089616
 20
288.7094812596
 30
0.0
 10
458.0685543015
 20
288.7115637401
 30
0.0
 10
458.0733639962
 20
288.7102542242
 30
0.0
 10
458.073278389
 20
288.7109687754
 30
0.0
  0
SPLINE
  5
42A
330
20A
100
AcDbEntity
  8
3_ALL_AXES
  6
Continuous
 62
     7
100
AcDbSpline
 70
     0
 71
     3
 72
    11
 73
     7
 74
     0
 42
0.000000001
 43
0.0000001
 40
0.0
 40
0.0
 40
0.0
 40
0.0
 40
0.0981858956
 40
0.3214404322
 40
0.6360092619
 40
1.0
 40
1.0
 40
1.0
 40
1.0
 10
457.5636623188
 20
288.6751232571
 30
0.0
 10
457.4409201241
 20
288.2283397029
 30
0.0
 10
457.0463552844
 20
286.7636058977
 30
0.0
 10
456.3805149515
 20
283.8354951257
 30
0.0
 10
455.7064733064
 20
279.6294006883
 30
0.0
 10
455.4872657324
 20
276.4283518681
 30
0.0
 10
455.4561959206
 20
274.7109688476
 30
0.0
  0
LINE
  5
42B
330
20A
100
AcDbEntity
  8
6_ALL_SURFS
  6
Continuous
 62
     7
100
AcDbLine
 10
350.573278
 20
303.710969
 30
0.0
 11
350.573278
 21
288.710969
 31
0.0
  0
LINE
  5
42C
330
20A
100
AcDbEntity
  8
3_ALL_AXES
  6
Continuous
 62
     7
100
AcDbLine
 10
350.573278
 20
288.710969
 30
0.0
 11
350.579211
 21
288.688279
 31
0.0
  0
LWPOLYLINE
  5
42D
330
20A
100
AcDbEntity
  8
3_ALL_AXES
  6
Continuous
 62
     7
100
AcDbPolyline
 90
        3
 70
     0
 43
0.0
 10
350.573278
 20
288.710969
 10
350.573938
 20
288.708448
 10
350.579211
 20
288.688279
  0
SPLINE
  5
42E
330
20A
100
AcDbEntity
  8
6_ALL_SURFS
  6
Continuous
 62
     7
100
AcDbSpline
 70
     0
 71
     3
 72
    10
 73
     6
 74
     0
 42
0.000000001
 43
0.0000001
 40
0.0
 40
0.0
 40
0.0
 40
0.0
 40
0.3670118577
 40
0.6832489372
 40
1.0
 40
1.0
 40
1.0
 40
1.0
 10
352.690360856
 20
274.7109688476
 30
0.0
 10
352.659004471
 20
276.444192191
 30
0.0
 10
352.4361616594
 20
279.6703143855
 30
0.0
 10
351.6842672566
 20
284.3378807784
 30
0.0
 10
350.9809288724
 20
287.2471097654
 30
0.0
 10
350.5792114382
 20
288.6882789913
 30
0.0
  0
LINE
  5
42F
330
20A
100
AcDbEntity
  8
6_ALL_SURFS
  6
Continuous
 62
     7
100
AcDbLine
 10
455.166677
 20
258.710969
 30
0.0
 11
451.973046
 21
258.710969
 31
0.0
  0
LINE
  5
430
330
20A
100
AcDbEntity
  8
6_ALL_SURFS
  6
Continuous
 62
     7
100
AcDbLine
 10
451.973046
 20
258.710969
 30
0.0
 11
449.881684
 21
258.710969
 31
0.0
  0
LINE
  5
431
330
20A
100
AcDbEntity
  8
6_ALL_SURFS
  6
Continuous
 62
     7
100
AcDbLine
 10
449.881684
 20
258.710969
 30
0.0
 11
418.845395
 21
258.710969
 31
0.0
  0
LINE
  5
432
330
20A
100
AcDbEntity
  8
6_ALL_SURFS
  6
Continuous
 62
     7
100
AcDbLine
 10
418.845395
 20
258.710969
 30
0.0
 11
406.678001
 21
258.710969
 31
0.0
  0
LINE
  5
433
330
20A
100
AcDbEntity
  8
6_ALL_SURFS
  6
Continuous
 62
     7
100
AcDbLine
 10
406.678001
 20
258.710969
 30
0.0
 11
401.468556
 21
258.710969
 31
0.0
  0
LINE
  5
434
330
20A
100
AcDbEntity
  8
6_ALL_SURFS
  6
Continuous
 62
     7
100
AcDbLine
 10
401.468556
 20
258.710969
 30
0.0
 11
389.301162
 21
258.710969
 31
0.0
  0
LINE
  5
435
330
20A
100
AcDbEntity
  8
6_ALL_SURFS
  6
Continuous
 62
     7
100
AcDbLine
 10
389.301162
 20
258.710969
 30
0.0
 11
358.264873
 21
258.710969
 31
0.0
  0
LINE
  5
436
330
20A
100
AcDbEntity
  8
6_ALL_SURFS
  6
Continuous
 62
     7
100
AcDbLine
 10
358.264873
 20
258.710969
 30
0.0
 11
356.173511
 21
258.710969
 31
0.0
  0
LINE
  5
437
330
20A
100
AcDbEntity
  8
6_ALL_SURFS
  6
Continuous
 62
     7
100
AcDbLine
 10
356.173511
 20
258.710969
 30
0.0
 11
352.979879
 21
258.710969
 31
0.0
  0
LINE
  5
438
330
20A
100
AcDbEntity
  8
3_ALL_AXES
  6
Continuous
 62
     7
100
AcDbLine
 10
350.579211
 20
288.688279
 30
0.0
 11
350.573278
 21
288.710969
 31
0.0
  0
LWPOLYLINE
  5
439
330
20A
100
AcDbEntity
  8
3_ALL_AXES
  6
Continuous
 62
     7
100
AcDbPolyline
 90
        3
 70
     0
 43
0.0
 10
350.579211
 20
288.688279
 10
350.573938
 20
288.708448
 10
350.573278
 20
288.710969
  0
LINE
  5
43A
330
20A
100
AcDbEntity
  8
6_ALL_SURFS
  6
Continuous
 62
     7
100
AcDbLine
 10
455.166677
 20
258.710969
 30
0.0
 11
455.456196
 21
274.710969
 31
0.0
  0
LINE
  5
43B
330
20A
100
AcDbEntity
  8
6_ALL_SURFS
  6
Continuous
 62
     7
100
AcDbLine
 10
352.690361
 20
274.710969
 30
0.0
 11
352.979879
 21
258.710969
 31
0.0
  0
LINE
  5
43C
330
20A
100
AcDbEntity
  8
3_ALL_AXES
  6
Continuous
 62
     7
100
AcDbLine
 10
457.563905
 20
303.710969
 30
0.0
 11
457.563905
 21
288.688279
 31
0.0
  0
LINE
  5
43D
330
20A
100
AcDbEntity
  8
3_ALL_AXES
  6
Continuous
 62
     7
100
AcDbLine
 10
457.563905
 20
288.688279
 30
0.0
 11
350.579211
 21
288.688279
 31
0.0
  0
LINE
  5
43E
330
20A
100
AcDbEntity
  8
7_ALL_FEATURES
  6
Continuous
 62
     7
100
AcDbLine
 10
352.898644
 20
353.249829
 30
0.0
 11
352.898644
 21
353.249829
 31
0.0
  0
LINE
  5
43F
330
20A
100
AcDbEntity
  8
7_ALL_FEATURES
  6
Continuous
 62
     7
100
AcDbLine
 10
462.419736
 20
306.211006
 30
0.0
 11
463.41746
 21
306.210969
 31
0.0
  0
LINE
  5
440
330
20A
100
AcDbEntity
  8
7_ALL_FEATURES
  6
Continuous
 62
     7
100
AcDbLine
 10
352.898644
 20
353.249829
 30
0.0
 11
353.909784
 21
354.260969
 31
0.0
  0
LINE
  5
441
330
20A
100
AcDbEntity
  8
7_ALL_FEATURES
  6
Continuous
 62
     7
100
AcDbLine
 10
454.236773
 20
354.260969
 30
0.0
 11
454.236773
 21
354.260969
 31
0.0
  0
LINE
  5
442
330
20A
100
AcDbEntity
  8
7_ALL_FEATURES
  6
Continuous
 62
     7
100
AcDbLine
 10
455.247913
 20
353.249829
 30
0.0
 11
454.236773
 21
354.260969
 31
0.0
  0
LINE
  5
443
330
20A
100
AcDbEntity
  8
7_ALL_FEATURES
  6
Continuous
 62
     7
100
AcDbLine
 10
454.236773
 20
354.260969
 30
0.0
 11
453.573278
 21
373.260969
 31
0.0
  0
LINE
  5
444
330
20A
100
AcDbEntity
  8
7_ALL_FEATURES
  6
Continuous
 62
     7
100
AcDbLine
 10
354.573278
 20
373.260969
 30
0.0
 11
356.373593
 21
373.261544
 31
0.0
  0
LINE
  5
445
330
20A
100
AcDbEntity
  8
7_ALL_FEATURES
  6
Continuous
 62
     7
100
AcDbLine
 10
356.373593
 20
373.261544
 30
0.0
 11
356.578376
 21
373.261585
 31
0.0
  0
LINE
  5
446
330
20A
100
AcDbEntity
  8
7_ALL_FEATURES
  6
Continuous
 62
     7
100
AcDbLine
 10
356.578376
 20
373.261585
 30
0.0
 11
370.344285
 21
373.262564
 31
0.0
  0
LINE
  5
447
330
20A
100
AcDbEntity
  8
7_ALL_FEATURES
  6
Continuous
 62
     7
100
AcDbLine
 10
370.344285
 20
373.262564
 30
0.0
 11
404.073278
 21
373.263157
 31
0.0
  0
LINE
  5
448
330
20A
100
AcDbEntity
  8
7_ALL_FEATURES
  6
Continuous
 62
     7
100
AcDbLine
 10
353.909784
 20
354.260969
 30
0.0
 11
353.909784
 21
354.260969
 31
0.0
  0
LINE
  5
449
330
20A
100
AcDbEntity
  8
7_ALL_FEATURES
  6
Continuous
 62
     7
100
AcDbLine
 10
353.909784
 20
354.260969
 30
0.0
 11
354.573278
 21
373.260969
 31
0.0
  0
LINE
  5
44A
330
20A
100
AcDbEntity
  8
7_ALL_FEATURES
  6
Continuous
 62
     7
100
AcDbLine
 10
463.461067
 20
303.710969
 30
0.0
 11
462.462634
 21
303.711008
 31
0.0
  0
LINE
  5
44B
330
20A
100
AcDbEntity
  8
7_ALL_FEATURES
  6
Continuous
 62
     7
100
AcDbLine
 10
463.417235
 20
306.210969
 30
0.0
 11
463.460873
 21
303.710969
 31
0.0
  0
LINE
  5
44C
330
20A
100
AcDbEntity
  8
7_ALL_FEATURES
  6
Continuous
 62
     7
100
AcDbLine
 10
345.720572
 20
306.210969
 30
0.0
 11
352.488142
 21
306.212174
 31
0.0
  0
LINE
  5
44D
330
20A
100
AcDbEntity
  8
7_ALL_FEATURES
  6
Continuous
 62
     7
100
AcDbLine
 10
352.488142
 20
306.212174
 30
0.0
 11
352.499527
 21
306.212175
 31
0.0
  0
LINE
  5
44E
330
20A
100
AcDbEntity
  8
7_ALL_FEATURES
  6
Continuous
 62
     7
100
AcDbLine
 10
352.499527
 20
306.212175
 30
0.0
 11
455.658415
 21
306.212162
 31
0.0
  0
LINE
  5
44F
330
20A
100
AcDbEntity
  8
7_ALL_FEATURES
  6
Continuous
 62
     7
100
AcDbLine
 10
455.658415
 20
306.212162
 30
0.0
 11
462.419736
 21
306.211006
 31
0.0
  0
LINE
  5
450
330
20A
100
AcDbEntity
  8
7_ALL_FEATURES
  6
Continuous
 62
     7
100
AcDbLine
 10
345.720774
 20
306.210969
 30
0.0
 11
345.677136
 21
303.710969
 31
0.0
  0
LINE
  5
451
330
20A
100
AcDbEntity
  8
7_ALL_FEATURES
  6
Continuous
 62
     7
100
AcDbLine
 10
455.247913
 20
353.249829
 30
0.0
 11
455.247913
 21
353.249829
 31
0.0
  0
LINE
  5
452
330
20A
100
AcDbEntity
  8
7_ALL_FEATURES
  6
Continuous
 62
     7
100
AcDbLine
 10
455.247913
 20
353.249829
 30
0.0
 11
455.658415
 21
306.210969
 31
0.0
  0
LINE
  5
453
330
20A
100
AcDbEntity
  8
7_ALL_FEATURES
  6
Continuous
 62
     7
100
AcDbLine
 10
352.898644
 20
353.249829
 30
0.0
 11
352.488142
 21
306.210969
 31
0.0
  0
LINE
  5
454
330
20A
100
AcDbEntity
  8
7_ALL_FEATURES
  6
Continuous
 62
     7
100
AcDbLine
 10
404.073278
 20
373.263157
 30
0.0
 11
451.568181
 21
373.261585
 31
0.0
  0
LINE
  5
455
330
20A
100
AcDbEntity
  8
7_ALL_FEATURES
  6
Continuous
 62
     7
100
AcDbLine
 10
451.568181
 20
373.261585
 30
0.0
 11
451.772964
 21
373.261544
 31
0.0
  0
LINE
  5
456
330
20A
100
AcDbEntity
  8
7_ALL_FEATURES
  6
Continuous
 62
     7
100
AcDbLine
 10
451.772964
 20
373.261544
 30
0.0
 11
453.573278
 21
373.260969
 31
0.0
  0
LINE
  5
457
330
20A
100
AcDbEntity
  8
7_ALL_FEATURES
  6
Continuous
 62
     7
100
AcDbLine
 10
462.462634
 20
303.711008
 30
0.0
 11
458.073279
 21
303.711937
 31
0.0
  0
LINE
  5
458
330
20A
100
AcDbEntity
  8
7_ALL_FEATURES
  6
Continuous
 62
     7
100
AcDbLine
 10
458.073279
 20
303.711937
 30
0.0
 11
457.563905
 21
303.711996
 31
0.0
  0
LINE
  5
459
330
20A
100
AcDbEntity
  8
7_ALL_FEATURES
  6
Continuous
 62
     7
100
AcDbLine
 10
457.563905
 20
303.711996
 30
0.0
 11
456.223278
 21
303.712121
 31
0.0
  0
LINE
  5
45A
330
20A
100
AcDbEntity
  8
7_ALL_FEATURES
  6
Continuous
 62
     7
100
AcDbLine
 10
456.223278
 20
303.712121
 30
0.0
 11
456.018915
 21
303.712137
 31
0.0
  0
LINE
  5
45B
330
20A
100
AcDbEntity
  8
7_ALL_FEATURES
  6
Continuous
 62
     7
100
AcDbLine
 10
456.018915
 20
303.712137
 30
0.0
 11
352.127642
 21
303.712143
 31
0.0
  0
LINE
  5
45C
330
20A
100
AcDbEntity
  8
7_ALL_FEATURES
  6
Continuous
 62
     7
100
AcDbLine
 10
352.127642
 20
303.712143
 30
0.0
 11
351.923278
 21
303.712123
 31
0.0
  0
LINE
  5
45D
330
20A
100
AcDbEntity
  8
7_ALL_FEATURES
  6
Continuous
 62
     7
100
AcDbLine
 10
351.923278
 20
303.712123
 30
0.0
 11
350.573743
 21
303.711988
 31
0.0
  0
LINE
  5
45E
330
20A
100
AcDbEntity
  8
7_ALL_FEATURES
  6
Continuous
 62
     7
100
AcDbLine
 10
350.573743
 20
303.711988
 30
0.0
 11
345.676988
 21
303.710969
 31
0.0
  0
LINE
  5
45F
330
20A
100
AcDbEntity
  8
7_ALL_FEATURES
  6
Continuous
 62
     7
100
AcDbLine
 10
455.247913
 20
353.249829
 30
0.0
 11
404.073278
 21
353.252091
 31
0.0
  0
LINE
  5
460
330
20A
100
AcDbEntity
  8
7_ALL_FEATURES
  6
Continuous
 62
     7
100
AcDbLine
 10
353.909784
 20
354.260969
 30
0.0
 11
404.073278
 21
354.263186
 31
0.0
  0
LINE
  5
461
330
20A
100
AcDbEntity
  8
7_ALL_FEATURES
  6
Continuous
 62
     7
100
AcDbLine
 10
404.073278
 20
354.263186
 30
0.0
 11
454.236773
 21
354.260969
 31
0.0
  0
LINE
  5
462
330
20A
100
AcDbEntity
  8
7_ALL_FEATURES
  6
Continuous
 62
     7
100
AcDbLine
 10
404.073278
 20
353.252091
 30
0.0
 11
352.898644
 21
353.249829
 31
0.0
  0
LINE
  5
463
330
20A
100
AcDbEntity
  8
7_ALL_FEATURES
  6
Continuous
 62
     7
100
AcDbLine
 10
462.419736
 20
306.211006
 30
0.0
 11
462.462634
 21
303.711008
 31
0.0
  0
LWPOLYLINE
  5
464
330
20A
100
AcDbEntity
  8
7_ALL_FEATURES
  6
Continuous
 62
     7
100
AcDbPolyline
 90
        4
 70
     0
 43
0.0
 10
462.419736
 20
306.211006
 10
462.433991
 20
305.380253
 10
462.44829
 20
304.546911
 10
462.462634
 20
303.711008
  0
DIMENSION
  5
465
330
20A
100
AcDbEntity
  8
0
  6
Continuous
 62
     2
100
AcDbDimension
280
     0
  2
*D1
 10
195.00677
 20
137.362289
 30
0.0
 11
206.685397
 21
144.78138
 31
0.0
 70
   163
  1
%%c<>
 71
     1
 42
116.705009
 73
     0
 74
     0
 75
     0
  3
DIMSTYLE_1
100
AcDbDiametricDimension
 15
87.633119
 25
91.635292
 35
0.0
 40
0.0
  0
DIMENSION
  5
466
330
20A
100
AcDbEntity
  8
0
  6
Continuous
 62
     2
100
AcDbDimension
280
     0
  2
*D2
 10
216.00111
 20
258.710969
 30
0.0
 11
216.00111
 21
316.121023
 31
0.0
 70
   160
 71
     2
 42
114.547812
 73
     0
 74
     0
 75
     0
  3
DIMSTYLE_2
100
AcDbAlignedDimension
 13
201.235655
 23
373.258781
 33
0.0
 14
202.335643
 24
258.710969
 34
0.0
 50
270.0
100
AcDbRotatedDimension
  0
INSERT
  5
467
330
20A
100
AcDbEntity
  8
0
  6
Continuous
 62
     2
100
AcDbBlockReference
  2
LOGO2_BL0
 10
507.922935
 20
36.880038
 30
0.0
  0
ACAD_TABLE
  5
468
102
{ACAD_XDICTIONARY
360
4BF
102
}
330
20A
100
AcDbEntity
  8
0
  6
Continuous
 62
     2
160
              3592
310
080E000019000000880000001D000000000000000000F03F00000000000000000000000000000000B88561DA8CE17E400000000000000000000000000000F03F0000000000000000231C6715A530494000000000000000000000000000000000000000000000F03F0000000000000000000000000000000000000000000000
310
000000000000000000000000000000F03F54000000200000000200000000000000000000000000000000000000000000000000000000000000008056400000000000000000000000000000000000000000000000000000000000000000000000000000F03F5400000020000000020000000000000000000000000000000000
310
00000000000000000000000000000000000000000000000044C0000000000000000000000000000000000000000000000000000000000000F03F5400000020000000020000000000000000003E4000000000000018C00000000000000000000000000080564000000000000018C00000000000000000000000000000000000
310
00000000000000000000000000F03F5400000020000000020000000000000000003E4000000000000028C00000000000000000000000000080564000000000000028C0000000000000000000000000000000000000000000000000000000000000F03F5400000020000000020000000000000000003E4000000000000036C0
310
0000000000000000000000000080564000000000000036C0000000000000000000000000000000000000000000000000000000000000F03F54000000200000000200000000000000000000000000000000003BC0000000000000000000000000008056400000000000003BC000000000000000000000000000000000000000
310
0000000000000000000000F03F540000002000000002000000000000000000000000000000000044C00000000000000000000000000080564000000000000044C0000000000000000000000000000000000000000000000000000000000000F03F5400000020000000020000000000000000003E4000000000000000000000
310
0000000000000000000000003E400000000000003BC0000000000000000000000000000000000000000000000000000000000000F03F540000002000000002000000000000000080514000000000000000000000000000000000000000000080514000000000000028C0000000000000000000000000000000000000000000
310
000000000000000000F03F540000002000000002000000000000000080564000000000000000000000000000000000000000000080564000000000000044C0000000000000000000000000000000000000000000000000000000000000F03F0C000000100000000B000000BC00000026000000CDCCCCCCCC7C3F4000000000
310
000012C0000000000000000000000000000000000000000000000000000000000000F03F000000000000F03F00000000000000000000000000000000310036003900380033003900000000000C000000010000000000000000000840333333333333EB3F0000000000000000000000000000F03F0000000000000000000000
310
0000000000000000000000000000000000000000000000000000000000740078007400000000000000BC000000260000003333333333DF514000000000000015C0000000000000000000000000000000000000000000000000000000000000F03F000000000000F03F00000000000000000000000000000000520065007600
310
3A0030003000000000000C000000010000000000000000000C40333333333333EB3F0000000000000000000000000000F03F00000000000000000000000000000000000000000000000000000000000000000000000000000000740078007400000000000000C000000026000000CDCCCCCCCC7C3F4000000000008026C000
310
0000000000000000000000000000000000000000000000000000000000F03F000000000000F03F000000000000000000000000000000005300630061006C0065003A0031003A003100000012000000010000000000000000000C40333333333333EB3F0000000000000000000000000000F03F000000000000000000000000
310
00000000000000000000000000000000000000000000000000000000740078007400000000000000B4000000260000003333333333DF514000000000008025C0000000000000000000000000000000000000000000000000000000000000F03F000000000000F03F0000000000000000000000000000000041003200000000
310
0004000000010000000000000000000C40333333333333EB3F0000000000000000000000000000F03F00000000000000000000000000000000000000000000000000000000000000000000000000000000740078007400000000000000F800000026000000CDCCCCCCCC7C3F4000000000000032C000000000000000000000
310
0000000000000000000000000000000000000000F03F000000000000F03F0000000000000000000000000000000057004300300031003000350020002D0020004300410053005300410046004F0052004D0041002000D800310031003700580031003200300020004200520049004700480054002000330000004A00000001
310
0000000000000000000040333333333333EB3F0000000000000000000000000000F03F00000000000000000000000000000000000000000000000000000000000000000000000000000000740078007400000000000000C800000026000000CDCCCCCCCC7C3F400000000000C039C000000000000000000000000000000000
310
0000000000000000000000000000F03F000000000000F03F0000000000000000000000000000000044004100540045003A00320034002E00300036002E003100390000001A000000010000000000000000000440333333333333EB3F0000000000000000000000000000F03F00000000000000000000000000000000000000
310
0000000000000000000000000000000000000000007400780074000000000000001801000026000000CDCCCCCCCCCCF73F0000000000903DC0000000000000000000000000000000000000000000000000000000000000F03F000000000000F03F0000000000000000000000000000000041006E007900200069006E007400
310
65006700720061006C0020006F00720020007000610072007400690061006C00200072006500700072006F00640075006300740069006F006E00730020006100720065002000700072006F0068006900620069007400650064000000000068000000010000000000000000000240333333333333EB3F000000000000000000
310
0000000000F03F00000000000000000000000000000000000000000000000000000000000000000000000000000000740078007400000000000000F000000026000000CDCCCCCCCCCCF73F00000000007840C0000000000000000000000000000000000000000000000000000000000000F03F000000000000F03F00000000
310
00000000000000000000000077006900740068006F007500740020007000720069006F007200200061007500740068006F007200690073006100740069006F006E0020006F00660020004C002000000042000000010000000000000000000240333333333333EB3F0000000000000000000000000000F03F00000000000000
310
000000000000000000000000000000000000000000000000000000000000000000740078007400000000000000B8000000260000000000000000C04D4000000000007840C0000000000000000000000000000000000000000000000000000000000000F03F000000000000F03F000000000000000000000000000000002000
310
0000020000000100000000000000000002407521567F8461C83F0000000000000000000000000000F03F000000000000000000000000000000000000000000000000000000000000000000000000000000007400780074002E00730068007800000000000000E000000026000000CB811E6ADBF64D4000000000007840C000
310
0000000000000000000000000000000000000000000000000000000000F03F000000000000F03F00000000000000000000000000000000260020004C0020004C007500630065002000260020004C006900670068007400200073002E0072002E006C002E002C00000000003000000001000000000000000000024033333333
310
3333EB3F0000000000000000000000000000F03F00000000000000000000000000000000000000000000000000000000000000000000000000000000740078007400000000000000F800000026000000CDCCCCCCCCCCF73F00000000002842C0000000000000000000000000000000000000000000000000000000000000F0
310
3F000000000000F03F0000000000000000000000000000000069006E0020006100630063006F007200640061006E006300650020007700690074006800200074006800650020006C0061007700200069006E00200066006F007200630065002E000000000048000000010000000000000000000240333333333333EB3F0000
310
000000000000000000000000F03F00000000000000000000000000000000000000000000000000000000000000000000000000000000740078007400000000000000D800000026000000CDCCCCCCCCCCF73F0000000000D843C0000000000000000000000000000000000000000000000000000000000000F03F0000000000
310
00F03F0000000000000000000000000000000041006C006C0020007200690067006800740073002000720065007300650072007600650064002E000000000028000000010000000000000000000240333333333333EB3F0000000000000000000000000000F03F000000000000000000000000000000000000000000000000
310
00000000000000000000000000000000740078007400000000000000080000001F000000
100
AcDbBlockReference
  2
*T4
 10
494.096888
 20
50.380038
 30
0.0
100
AcDbTable
342
491
343
210
 11
1.0
 21
0.0
 31
0.0
 90
       22
 91
        5
 92
        5
 93
        0
 94
        0
 95
        0
 96
        0
141
6.0
141
6.0
141
10.0
141
5.0
141
13.0
142
10.0
142
10.0
142
10.0
142
40.0
142
20.0
171
     1
172
     0
173
     0
174
     0
175
     3
176
     4
 91
       32
178
     0
145
0.0
140
3.5
 92
        0
301
CELL_VALUE
 93
        2
 90
        4
  1
 
 94
        0
300

302
 
304
ACVALUE_END
171
     1
172
     0
173
     1
174
     0
175
     1
176
     1
 91
        0
178
     0
145
0.0
 92
        0
301
CELL_VALUE
 93
        3
 90
        0
 91
        0
 94
        0
300

302

304
ACVALUE_END
171
     1
172
     0
173
     1
174
     0
175
     1
176
     1
 91
        0
178
     0
145
0.0
 92
        0
301
CELL_VALUE
 93
        3
 90
        0
 91
        0
 94
        0
300

302

304
ACVALUE_END
171
     1
172
     0
173
     0
174
     0
175
     1
176
     1
 91
       49
178
     0
145
0.0
170
     4
  7
TEXTSTYLE_3
140
3.0
 92
        0
301
CELL_VALUE
 93
        2
 90
        4
  1
169839
 94
        0
300

302
169839
304
ACVALUE_END
171
     1
172
     0
173
     0
174
     0
175
     1
176
     1
 91
       49
178
     0
145
0.0
170
     1
  7
TEXTSTYLE_3
140
3.5
 92
        0
301
CELL_VALUE
 93
        2
 90
        4
  1
Rev:00
 94
        0
300

302
Rev:00
304
ACVALUE_END
171
     1
172
     0
173
     1
174
     0
175
     1
176
     1
 91
        0
178
     0
145
0.0
 92
        0
301
CELL_VALUE
 93
        3
 90
        0
 91
        0
 94
        0
300

302

304
ACVALUE_END
171
     1
172
     0
173
     1
174
     0
175
     1
176
     1
 91
        0
178
     0
145
0.0
 92
        0
301
CELL_VALUE
 93
        3
 90
        0
 91
        0
 94
        0
300

302

304
ACVALUE_END
171
     1
172
     0
173
     1
174
     0
175
     1
176
     1
 91
        0
178
     0
145
0.0
 92
        0
301
CELL_VALUE
 93
        3
 90
        0
 91
        0
 94
        0
300

302

304
ACVALUE_END
171
     1
172
     0
173
     0
174
     0
175
     1
176
     1
 91
       49
178
     0
145
0.0
170
     1
  7
TEXTSTYLE_3
140
3.5
 92
        0
301
CELL_VALUE
 93
        2
 90
        4
  1
Scale:1:1
 94
        0
300

302
Scale:1:1
304
ACVALUE_END
171
     1
172
     0
173
     0
174
     0
175
     1
176
     1
 91
       49
178
     0
145
0.0
170
     4
  7
TEXTSTYLE_3
140
3.5
 92
        0
301
CELL_VALUE
 93
        2
 90
        4
  1
A2
 94
        0
300

302
A2
304
ACVALUE_END
171
     1
172
     0
173
     1
174
     0
175
     1
176
     1
 91
        0
178
     0
145
0.0
 92
        0
301
CELL_VALUE
 93
        3
 90
        0
 91
        0
 94
        0
300

302

304
ACVALUE_END
171
     1
172
     0
173
     1
174
     0
175
     1
176
     1
 91
        0
178
     0
145
0.0
 92
        0
301
CELL_VALUE
 93
        3
 90
        0
 91
        0
 94
        0
300

302

304
ACVALUE_END
171
     1
172
     0
173
     1
174
     0
175
     1
176
     1
 91
        0
178
     0
145
0.0
 92
        0
301
CELL_VALUE
 93
        3
 90
        0
 91
        0
 94
        0
300

302

304
ACVALUE_END
171
     1
172
     0
173
     0
174
     0
175
     2
176
     1
 91
       49
178
     0
145
0.0
170
     4
  7
TEXTSTYLE_3
140
2.0
 92
        0
301
CELL_VALUE
 93
        2
 90
        4
  1
WC0105 - CASSAFORMA Ø117X120 BRIGHT 3
 94
        0
300

302
WC0105 - CASSAFORMA Ø117X120 BRIGHT 3
304
ACVALUE_END
171
     1
172
     0
173
     1
174
     0
175
     1
176
     1
 91
        0
178
     0
145
0.0
 92
        0
301
CELL_VALUE
 93
        3
 90
        0
 91
        0
 94
        0
300

302

304
ACVALUE_END
171
     1
172
     0
173
     1
174
     0
175
     1
176
     1
 91
        0
178
     0
145
0.0
 92
        0
301
CELL_VALUE
 93
        3
 90
        0
 91
        0
 94
        0
300

302

304
ACVALUE_END
171
     1
172
     0
173
     1
174
     0
175
     1
176
     1
 91
        0
178
     0
145
0.0
 92
        0
301
CELL_VALUE
 93
        3
 90
        0
 91
        0
 94
        0
300

302

304
ACVALUE_END
171
     1
172
     0
173
     1
174
     0
175
     1
176
     1
 91
        0
178
     0
145
0.0
 92
        0
301
CELL_VALUE
 93
        3
 90
        0
 91
        0
 94
        0
300

302

304
ACVALUE_END
171
     1
172
     0
173
     0
174
     0
175
     2
176
     1
 91
       49
178
     0
145
0.0
170
     4
  7
TEXTSTYLE_3
140
2.5
 92
        0
301
CELL_VALUE
 93
        2
 90
        4
  1
DATE:24.06.19
 94
        0
300

302
DATE:24.06.19
304
ACVALUE_END
171
     1
172
     0
173
     1
174
     0
175
     1
176
     1
 91
        0
178
     0
145
0.0
 92
        0
301
CELL_VALUE
 93
        3
 90
        0
 91
        0
 94
        0
300

302

304
ACVALUE_END
171
     1
172
     0
173
     0
174
     0
175
     5
176
     1
 91
       49
178
     0
145
0.0
170
     4
  7
TEXTSTYLE_3
140
2.25
 92
        0
301
CELL_VALUE
 93
        2
 90
        4
  1
Any integral or partial reproductions are prohibited \Pwithout prior authorisation of L {\Ftxt.shx;\W0.190476;\H2.250000; }& L Luce & Light s.r.l., \Pin accordance with the law in force. \PAll rights reserved.
 94
        0
300

302
Any integral or partial reproductions are prohibited \Pwithout prior authorisation of L {\Ftxt.shx;\W0.190476;\H2.250000; }& L Luce & Light s.r.l., \Pin accordance with the law in force. \PAll rights reserved.
304
ACVALUE_END
171
     1
172
     0
173
     1
174
     0
175
     1
176
     1
 91
        0
178
     0
145
0.0
 92
        0
301
CELL_VALUE
 93
        3
 90
        0
 91
        0
 94
        0
300

302

304
ACVALUE_END
171
     1
172
     0
173
     1
174
     0
175
     1
176
     1
 91
        0
178
     0
145
0.0
 92
        0
301
CELL_VALUE
 93
        3
 90
        0
 91
        0
 94
        0
300

302

304
ACVALUE_END
171
     1
172
     0
173
     1
174
     0
175
     1
176
     1
 91
        0
178
     0
145
0.0
 92
        0
301
CELL_VALUE
 93
        3
 90
        0
 91
        0
 94
        0
300

302

304
ACVALUE_END
171
     1
172
     0
173
     1
174
     0
175
     1
176
     1
 91
        0
178
     0
145
0.0
 92
        0
301
CELL_VALUE
 93
        3
 90
        0
 91
        0
 94
        0
300

302

304
ACVALUE_END
  0
ENDSEC
  0
SECTION
  2
OBJECTS
  0
DICTIONARY
  5
C
330
0
100
AcDbDictionary
281
     1
  3
ACAD_DETAILVIEWSTYLE
350
4F8
  3
ACAD_GROUP
350
D
  3
ACAD_IMAGE_DICT
350
4B8
  3
ACAD_LAYOUT
350
1A
  3
ACAD_MATERIAL
350
4AC
  3
ACAD_MLEADERSTYLE
350
4F7
  3
ACAD_MLINESTYLE
350
17
  3
ACAD_PLOTSETTINGS
350
19
  3
ACAD_PLOTSTYLENAME
350
E
  3
ACAD_SCALELIST
350
46E
  3
ACAD_SECTIONVIEWSTYLE
350
4F9
  3
ACAD_TABLESTYLE
350
490
  3
ACAD_VISUALSTYLE
350
493
  3
ACDB_RECOMPOSE_DATA
350
4F5
  3
AcDbVariableDictionary
350
4C1
  3
HOST_DOC_SETTINGS
350
4B6
  3
MCS_STREAM_DICT
350
4B2
  0
SUN
  5
4B5
330
1F4
100
AcDbSun
 90
        1
290
     0
 63
     7
421
 16777215
 40
1.0
291
     1
 91
  2455826
 92
 54000000
292
     0
 70
     2
 71
   256
280
     1
  0
DICTIONARY
  5
4BF
330
468
100
AcDbDictionary
280
     1
281
     1
  3
ACAD_XREC_ROUNDTRIP
360
4C0
  0
DICTIONARY
  5
4F8
102
{ACAD_REACTORS
330
C
102
}
330
C
100
AcDbDictionary
281
     1
  0
DICTIONARY
  5
D
102
{ACAD_REACTORS
330
C
102
}
330
C
100
AcDbDictionary
281
     1
  0
DICTIONARY
  5
4B8
102
{ACAD_REACTORS
330
C
102
}
330
C
100
AcDbDictionary
281
     1
  0
DICTIONARY
  5
1A
102
{ACAD_REACTORS
330
C
102
}
330
C
100
AcDbDictionary
281
     1
  3
Layout1
350
46B
  3
Model
350
46A
  0
DICTIONARY
  5
4AC
102
{ACAD_REACTORS
330
C
102
}
330
C
100
AcDbDictionary
281
     1
  3
ByBlock
350
4AE
  3
ByLayer
350
4AD
  3
Global
350
4AF
  0
DICTIONARY
  5
4F7
102
{ACAD_REACTORS
330
C
102
}
330
C
100
AcDbDictionary
281
     1
  0
DICTIONARY
  5
17
102
{ACAD_REACTORS
330
C
102
}
330
C
100
AcDbDictionary
281
     1
  3
Standard
350
18
  0
DICTIONARY
  5
19
102
{ACAD_REACTORS
330
C
102
}
330
C
100
AcDbDictionary
281
     1
  0
ACDBDICTIONARYWDFLT
  5
E
102
{ACAD_REACTORS
330
C
102
}
330
C
100
AcDbDictionary
281
     1
  3
Normal
350
F
100
AcDbDictionaryWithDefault
340
F
  0
DICTIONARY
  5
46E
102
{ACAD_REACTORS
330
C
102
}
330
C
100
AcDbDictionary
281
     1
  3
A0
350
46F
  3
A1
350
470
  3
A2
350
471
  3
A3
350
472
  3
A4
350
473
  3
A5
350
474
  3
A6
350
475
  3
A7
350
476
  3
A8
350
477
  3
A9
350
478
  3
B0
350
479
  3
B1
350
47A
  3
B2
350
47B
  3
B3
350
47C
  3
B4
350
47D
  3
B5
350
47E
  3
B6
350
47F
  3
B7
350
480
  3
B8
350
481
  3
B9
350
482
  3
C0
350
483
  3
C1
350
484
  3
C2
350
485
  3
C3
350
486
  3
C4
350
487
  3
C5
350
488
  3
C6
350
489
  3
C7
350
48A
  3
C8
350
48B
  3
C9
350
48C
  3
D0
350
48D
  3
D1
350
48E
  3
D2
350
48F
  0
DICTIONARY
  5
4F9
102
{ACAD_REACTORS
330
C
102
}
330
C
100
AcDbDictionary
281
     1
  0
DICTIONARY
  5
490
102
{ACAD_REACTORS
330
C
102
}
330
C
100
AcDbDictionary
281
     1
  3
Standard
350
491
  0
DICTIONARY
  5
493
102
{ACAD_REACTORS
330
C
102
}
330
C
100
AcDbDictionary
281
     1
  3
2dWireframe
350
498
  3
Basic
350
49B
  3
Brighten
350
49F
  3
ColorChange
350
4A3
  3
Conceptual
350
49D
  3
Dim
350
49E
  3
EdgeColorOff
350
4A6
  3
Facepattern
350
4A2
  3
Flat
350
494
  3
FlatWithEdges
350
495
  3
Gouraud
350
496
  3
GouraudWithEdges
350
497
  3
Hidden
350
49A
  3
JitterOff
350
4A4
  3
Linepattern
350
4A1
  3
OverhangOff
350
4A5
  3
Realistic
350
49C
  3
Shaded
350
4AB
  3
Shaded with edges
350
4AA
  3
Shades of Gray
350
4A7
  3
Sketchy
350
4A8
  3
Thicken
350
4A0
  3
Wireframe
350
499
  3
X-Ray
350
4A9
  0
XRECORD
  5
4F5
102
{ACAD_REACTORS
330
C
102
}
330
C
100
AcDbXrecord
280
     1
 90
        1
330
468
330
491
  0
DICTIONARY
  5
4C1
102
{ACAD_REACTORS
330
C
102
}
330
C
100
AcDbDictionary
281
     1
  3
CANNOSCALE
350
4C2
  3
CTABLESTYLE
350
4F6
  0
DICTIONARY
  5
4B6
102
{ACAD_REACTORS
330
C
102
}
330
C
100
AcDbDictionary
281
     1
  3
NCDocParameters
350
4B7
  0
DICTIONARY
  5
4B2
102
{ACAD_REACTORS
330
C
102
}
330
C
100
AcDbDictionary
281
     1
  3
MC_VERSION_DATA
350
4BB
  3
MCS_DOCUMENT_ID
350
4B3
  3
MCS_PARAMS_DATA
350
4B9
  0
XRECORD
  5
4C0
102
{ACAD_REACTORS
330
4BF
102
}
330
4BF
100
AcDbXrecord
280
     1
102
ACAD_ROUNDTRIP_2008_TABLE_ENTITY
360
4BD
 70
     2
 90
        1
 10
0.0
 20
0.0
 30
0.0
 90
        0
 90
        4
361
4BE
  0
LAYOUT
  5
46B
102
{ACAD_REACTORS
330
1A
102
}
330
1A
100
AcDbPlotSettings
  1

  2
none_device
  4
ISO_A2_(594.00_x_420.00_MM)
  6

 40
0.0
 41
0.0
 42
0.0
 43
0.0
 44
594.0
 45
420.0
 46
0.0
 47
0.0
 48
0.0
 49
0.0
140
0.0
141
0.0
142
1.0
143
1.0
 70
     0
 72
     1
 73
     0
 74
     0
  7

 75
     0
 76
     0
 77
     2
 78
   300
147
1.0
148
0.0
149
0.0
100
AcDbLayout
  1
Layout1
 70
     0
 71
     1
 10
0.0
 20
0.0
 11
594.0
 21
420.0
 12
0.0
 22
0.0
 32
0.0
 14
0.0
 24
0.0
 34
0.0
 15
0.0
 25
0.0
 35
0.0
146
0.0
 13
0.0
 23
0.0
 33
0.0
 16
1.0
 26
0.0
 36
0.0
 17
0.0
 27
1.0
 37
0.0
 76
     0
330
20B
  0
LAYOUT
  5
46A
102
{ACAD_REACTORS
330
1A
102
}
330
1A
100
AcDbPlotSettings
  1

  2
none_device
  4
ISO_A2_(594.00_x_420.00_MM)
  6

 40
0.0
 41
0.0
 42
0.0
 43
0.0
 44
594.0
 45
420.0
 46
0.0
 47
0.0
 48
0.0
 49
0.0
140
0.0
141
0.0
142
1.0
143
1.0
 70
  1024
 72
     1
 73
     0
 74
     0
  7

 75
     0
 76
     0
 77
     2
 78
   300
147
1.0
148
0.0
149
0.0
100
AcDbLayout
  1
Model
 70
     0
 71
     0
 10
0.0
 20
0.0
 11
594.0
 21
420.0
 12
0.0
 22
0.0
 32
0.0
 14
0.0
 24
0.0
 34
0.0
 15
0.0
 25
0.0
 35
0.0
146
0.0
 13
0.0
 23
0.0
 33
0.0
 16
1.0
 26
0.0
 36
0.0
 17
0.0
 27
1.0
 37
0.0
 76
     0
330
20A
331
1F4
  0
MATERIAL
  5
4AE
102
{ACAD_REACTORS
330
4AC
102
}
330
4AC
100
AcDbMaterial
  1
ByBlock
 72
     1
 94
      127
  0
MATERIAL
  5
4AD
102
{ACAD_REACTORS
330
4AC
102
}
330
4AC
100
AcDbMaterial
  1
ByLayer
 72
     1
 94
      127
  0
MATERIAL
  5
4AF
102
{ACAD_REACTORS
330
4AC
102
}
330
4AC
100
AcDbMaterial
  1
Global
 72
     1
 94
      127
  0
MLINESTYLE
  5
18
102
{ACAD_REACTORS
330
17
102
}
330
17
100
AcDbMlineStyle
  2
STANDARD
 70
     0
  3

 62
   256
 51
90.0
 52
90.0
 71
     2
 49
0.5
 62
   256
  6
BYLAYER
 49
-0.5
 62
   256
  6
BYLAYER
  0
ACDBPLACEHOLDER
  5
F
102
{ACAD_REACTORS
330
E
102
}
330
E
  0
SCALE
  5
46F
102
{ACAD_REACTORS
330
46E
102
}
330
46E
100
AcDbScale
 70
     0
300
1:1
140
1.0
141
1.0
290
     1
  0
SCALE
  5
470
102
{ACAD_REACTORS
330
46E
102
}
330
46E
100
AcDbScale
 70
     0
300
1:2
140
1.0
141
2.0
290
     0
  0
SCALE
  5
471
102
{ACAD_REACTORS
330
46E
102
}
330
46E
100
AcDbScale
 70
     0
300
1:4
140
1.0
141
4.0
290
     0
  0
SCALE
  5
472
102
{ACAD_REACTORS
330
46E
102
}
330
46E
100
AcDbScale
 70
     0
300
1:5
140
1.0
141
5.0
290
     0
  0
SCALE
  5
473
102
{ACAD_REACTORS
330
46E
102
}
330
46E
100
AcDbScale
 70
     0
300
1:8
140
1.0
141
8.0
290
     0
  0
SCALE
  5
474
102
{ACAD_REACTORS
330
46E
102
}
330
46E
100
AcDbScale
 70
     0
300
1:10
140
1.0
141
10.0
290
     0
  0
SCALE
  5
475
102
{ACAD_REACTORS
330
46E
102
}
330
46E
100
AcDbScale
 70
     0
300
1:16
140
1.0
141
16.0
290
     0
  0
SCALE
  5
476
102
{ACAD_REACTORS
330
46E
102
}
330
46E
100
AcDbScale
 70
     0
300
1:20
140
1.0
141
20.0
290
     0
  0
SCALE
  5
477
102
{ACAD_REACTORS
330
46E
102
}
330
46E
100
AcDbScale
 70
     0
300
1:30
140
1.0
141
30.0
290
     0
  0
SCALE
  5
478
102
{ACAD_REACTORS
330
46E
102
}
330
46E
100
AcDbScale
 70
     0
300
1:40
140
1.0
141
40.0
290
     0
  0
SCALE
  5
479
102
{ACAD_REACTORS
330
46E
102
}
330
46E
100
AcDbScale
 70
     0
300
1:50
140
1.0
141
50.0
290
     0
  0
SCALE
  5
47A
102
{ACAD_REACTORS
330
46E
102
}
330
46E
100
AcDbScale
 70
     0
300
1:100
140
1.0
141
100.0
290
     0
  0
SCALE
  5
47B
102
{ACAD_REACTORS
330
46E
102
}
330
46E
100
AcDbScale
 70
     0
300
2:1
140
2.0
141
1.0
290
     0
  0
SCALE
  5
47C
102
{ACAD_REACTORS
330
46E
102
}
330
46E
100
AcDbScale
 70
     0
300
4:1
140
4.0
141
1.0
290
     0
  0
SCALE
  5
47D
102
{ACAD_REACTORS
330
46E
102
}
330
46E
100
AcDbScale
 70
     0
300
8:1
140
8.0
141
1.0
290
     0
  0
SCALE
  5
47E
102
{ACAD_REACTORS
330
46E
102
}
330
46E
100
AcDbScale
 70
     0
300
10:1
140
10.0
141
1.0
290
     0
  0
SCALE
  5
47F
102
{ACAD_REACTORS
330
46E
102
}
330
46E
100
AcDbScale
 70
     0
300
100:1
140
100.0
141
1.0
290
     0
  0
SCALE
  5
480
102
{ACAD_REACTORS
330
46E
102
}
330
46E
100
AcDbScale
 70
     0
300
1/128" = 1'-0"
140
0.007812
141
12.0
290
     0
  0
SCALE
  5
481
102
{ACAD_REACTORS
330
46E
102
}
330
46E
100
AcDbScale
 70
     0
300
1/64" = 1'-0"
140
0.015625
141
12.0
290
     0
  0
SCALE
  5
482
102
{ACAD_REACTORS
330
46E
102
}
330
46E
100
AcDbScale
 70
     0
300
1/32" = 1'-0"
140
0.03125
141
12.0
290
     0
  0
SCALE
  5
483
102
{ACAD_REACTORS
330
46E
102
}
330
46E
100
AcDbScale
 70
     0
300
1/16" = 1'-0"
140
0.0625
141
12.0
290
     0
  0
SCALE
  5
484
102
{ACAD_REACTORS
330
46E
102
}
330
46E
100
AcDbScale
 70
     0
300
3/32" = 1'-0"
140
0.09375
141
12.0
290
     0
  0
SCALE
  5
485
102
{ACAD_REACTORS
330
46E
102
}
330
46E
100
AcDbScale
 70
     0
300
1/8" = 1'-0"
140
0.125
141
12.0
290
     0
  0
SCALE
  5
486
102
{ACAD_REACTORS
330
46E
102
}
330
46E
100
AcDbScale
 70
     0
300
3/16" = 1'-0"
140
0.1875
141
12.0
290
     0
  0
SCALE
  5
487
102
{ACAD_REACTORS
330
46E
102
}
330
46E
100
AcDbScale
 70
     0
300
1/4" = 1'-0"
140
0.25
141
12.0
290
     0
  0
SCALE
  5
488
102
{ACAD_REACTORS
330
46E
102
}
330
46E
100
AcDbScale
 70
     0
300
3/8" = 1'-0"
140
0.375
141
12.0
290
     0
  0
SCALE
  5
489
102
{ACAD_REACTORS
330
46E
102
}
330
46E
100
AcDbScale
 70
     0
300
1/2" = 1'-0"
140
0.5
141
12.0
290
     0
  0
SCALE
  5
48A
102
{ACAD_REACTORS
330
46E
102
}
330
46E
100
AcDbScale
 70
     0
300
3/4" = 1'-0"
140
0.75
141
12.0
290
     0
  0
SCALE
  5
48B
102
{ACAD_REACTORS
330
46E
102
}
330
46E
100
AcDbScale
 70
     0
300
1" = 1'-0"
140
1.0
141
12.0
290
     0
  0
SCALE
  5
48C
102
{ACAD_REACTORS
330
46E
102
}
330
46E
100
AcDbScale
 70
     0
300
1-1/2" = 1'-0"
140
1.5
141
12.0
290
     0
  0
SCALE
  5
48D
102
{ACAD_REACTORS
330
46E
102
}
330
46E
100
AcDbScale
 70
     0
300
3" = 1'-0"
140
3.0
141
12.0
290
     0
  0
SCALE
  5
48E
102
{ACAD_REACTORS
330
46E
102
}
330
46E
100
AcDbScale
 70
     0
300
6" = 1'-0"
140
6.0
141
12.0
290
     0
  0
SCALE
  5
48F
102
{ACAD_REACTORS
330
46E
102
}
330
46E
100
AcDbScale
 70
     0
300
1'-0" = 1'-0"
140
12.0
141
12.0
290
     0
  0
TABLESTYLE
  5
491
102
{ACAD_REACTORS
330
490
102
}
102
{ACAD_XDICTIONARY
360
4C3
102
}
330
490
100
AcDbTableStyle
  3
Standard
 70
     0
 71
     0
 40
0.06
 41
0.06
280
     0
281
     0
  7
STANDARD
140
4.5
170
     2
 62
     0
 63
   257
283
     0
 90
        4
 91
        0
  1

274
    -2
284
     1
 64
     0
275
    -2
285
     1
 65
     0
276
    -2
286
     1
 66
     0
277
    -2
287
     1
 67
     0
278
    -2
288
     1
 68
     0
279
    -2
289
     1
 69
     0
  7
STANDARD
140
6.0
170
     5
 62
     0
 63
   257
283
     0
 90
        4
 91
        0
  1

274
    -2
284
     1
 64
     0
275
    -2
285
     1
 65
     0
276
    -2
286
     1
 66
     0
277
    -2
287
     1
 67
     0
278
    -2
288
     1
 68
     0
279
    -2
289
     1
 69
     0
  7
STANDARD
140
4.5
170
     5
 62
     0
 63
   257
283
     0
 90
        4
 91
        0
  1

274
    -2
284
     1
 64
     0
275
    -2
285
     1
 65
     0
276
    -2
286
     1
 66
     0
277
    -2
287
     1
 67
     0
278
    -2
288
     1
 68
     0
279
    -2
289
     1
 69
     0
  0
VISUALSTYLE
  5
498
102
{ACAD_REACTORS
330
493
102
}
102
{ACAD_XDICTIONARY
360
4CD
102
}
330
493
100
AcDbVisualStyle
  2
2dWireframe
 70
     4
177
     2
291
     0
 71
     0
176
     1
 72
     2
176
     1
 73
     0
176
     1
 90
        0
176
     1
 40
0.6
176
     1
 41
30.0
176
     1
 62
     5
 63
     7
421
 16777215
176
     1
 74
     1
176
     1
 91
        4
176
     1
 64
     7
176
     1
 65
   257
176
     1
 75
     1
176
     1
175
     1
176
     1
 42
1.0
176
     1
 92
        0
176
     1
 66
   257
176
     1
 43
1.0
176
     1
 76
     1
176
     1
 77
     6
176
     1
 78
     2
176
     1
 67
     7
176
     1
 79
     5
176
     1
170
     0
176
     1
171
     0
176
     1
290
     0
176
     1
 93
        1
176
     1
 44
0.0
176
     1
173
     0
176
     1
  0
VISUALSTYLE
  5
49B
102
{ACAD_REACTORS
330
493
102
}
102
{ACAD_XDICTIONARY
360
4D3
102
}
330
493
100
AcDbVisualStyle
  2
Basic
 70
     7
177
     2
291
     1
 71
     1
176
     1
 72
     0
176
     1
 73
     1
176
     1
 90
        0
176
     1
 40
0.6
176
     1
 41
30.0
176
     1
 62
     5
 63
     7
421
 16777215
176
     1
 74
     0
176
     1
 91
        4
176
     1
 64
     7
176
     1
 65
   257
176
     1
 75
     1
176
     1
175
     1
176
     1
 42
1.0
176
     1
 92
        8
176
     1
 66
     7
176
     1
 43
1.0
176
     1
 76
     1
176
     1
 77
     6
176
     1
 78
     2
176
     1
 67
     7
176
     1
 79
     5
176
     1
170
     0
176
     1
171
     0
176
     1
290
     0
176
     1
 93
        1
176
     1
 44
0.0
176
     1
173
     0
176
     1
  0
VISUALSTYLE
  5
49F
102
{ACAD_REACTORS
330
493
102
}
102
{ACAD_XDICTIONARY
360
4DB
102
}
330
493
100
AcDbVisualStyle
  2
Brighten
 70
    12
177
     2
291
     1
 71
     2
176
     1
 72
     2
176
     1
 73
     0
176
     1
 90
        0
176
     1
 40
0.6
176
     1
 41
30.0
176
     1
 62
     5
 63
     7
421
 16777215
176
     1
 74
     1
176
     1
 91
        4
176
     1
 64
     7
176
     1
 65
   257
176
     1
 75
     1
176
     1
175
     1
176
     1
 42
1.0
176
     1
 92
        8
176
     1
 66
     7
176
     1
 43
1.0
176
     1
 76
     1
176
     1
 77
     6
176
     1
 78
     2
176
     1
 67
     7
176
     1
 79
     5
176
     1
170
     0
176
     1
171
     0
176
     1
290
     0
176
     1
 93
        1
176
     1
 44
50.0
176
     1
173
     0
176
     1
  0
VISUALSTYLE
  5
4A3
102
{ACAD_REACTORS
330
493
102
}
102
{ACAD_XDICTIONARY
360
4E3
102
}
330
493
100
AcDbVisualStyle
  2
ColorChange
 70
    16
177
     2
291
     1
 71
     2
176
     1
 72
     2
176
     1
 73
     3
176
     1
 90
        0
176
     1
 40
0.6
176
     1
 41
30.0
176
     1
 62
     5
 63
     8
421
  8421504
176
     1
 74
     1
176
     1
 91
        4
176
     1
 64
     7
176
     1
 65
   257
176
     1
 75
     1
176
     1
175
     1
176
     1
 42
1.0
176
     1
 92
        8
176
     1
 66
     8
424
  8421504
176
     1
 43
1.0
176
     1
 76
     1
176
     1
 77
     6
176
     1
 78
     2
176
     1
 67
     7
176
     1
 79
     5
176
     1
170
     0
176
     1
171
     0
176
     1
290
     0
176
     1
 93
        1
176
     1
 44
0.0
176
     1
173
     0
176
     1
  0
VISUALSTYLE
  5
49D
102
{ACAD_REACTORS
330
493
102
}
102
{ACAD_XDICTIONARY
360
4D7
102
}
330
493
100
AcDbVisualStyle
  2
Conceptual
 70
     9
177
     2
291
     0
 71
     3
176
     1
 72
     2
176
     1
 73
     0
176
     1
 90
        0
176
     1
 40
0.6
176
     1
 41
30.0
176
     1
 62
     5
 63
     7
421
 16777215
176
     1
 74
     2
176
     1
 91
        2
176
     1
 64
     7
176
     1
 65
   257
176
     1
 75
     1
176
     1
175
     1
176
     1
 42
179.0
176
     1
 92
        8
176
     1
 66
     7
176
     1
 43
1.0
176
     1
 76
     1
176
     1
 77
     6
176
     1
 78
     2
176
     1
 67
     7
176
     1
 79
     3
176
     1
170
     0
176
     1
171
     0
176
     1
290
     0
176
     1
 93
        1
176
     1
 44
0.0
176
     1
173
     0
176
     1
  0
VISUALSTYLE
  5
49E
102
{ACAD_REACTORS
330
493
102
}
102
{ACAD_XDICTIONARY
360
4D9
102
}
330
493
100
AcDbVisualStyle
  2
Dim
 70
    11
177
     2
291
     1
 71
     2
176
     1
 72
     2
176
     1
 73
     0
176
     1
 90
        0
176
     1
 40
0.6
176
     1
 41
30.0
176
     1
 62
     5
 63
     7
421
 16777215
176
     1
 74
     1
176
     1
 91
        4
176
     1
 64
     7
176
     1
 65
   257
176
     1
 75
     1
176
     1
175
     1
176
     1
 42
1.0
176
     1
 92
        8
176
     1
 66
     7
176
     1
 43
1.0
176
     1
 76
     1
176
     1
 77
     6
176
     1
 78
     2
176
     1
 67
     7
176
     1
 79
     5
176
     1
170
     0
176
     1
171
     0
176
     1
290
     0
176
     1
 93
        1
176
     1
 44
-50.0
176
     1
173
     0
176
     1
  0
VISUALSTYLE
  5
4A6
102
{ACAD_REACTORS
330
493
102
}
102
{ACAD_XDICTIONARY
360
4E9
102
}
330
493
100
AcDbVisualStyle
  2
EdgeColorOff
 70
    22
177
     2
291
     1
 71
     2
176
     0
 72
     2
176
     0
 73
     0
176
     0
 90
        0
176
     0
 40
0.6
176
     0
 41
30.0
176
     0
 62
     5
 63
     7
421
 16777215
176
     0
 74
     1
176
     0
 91
        4
176
     0
 64
     7
176
     0
 65
   257
176
     0
 75
     1
176
     0
175
     1
176
     0
 42
1.0
176
     0
 92
        8
176
     2
 66
     7
176
     0
 43
1.0
176
     0
 76
     1
176
     0
 77
     6
176
     0
 78
     2
176
     0
 67
     7
176
     0
 79
     5
176
     0
170
     0
176
     0
171
     0
176
     0
290
     0
176
     0
 93
        1
176
     0
 44
0.0
176
     0
173
     0
176
     0
  0
VISUALSTYLE
  5
4A2
102
{ACAD_REACTORS
330
493
102
}
102
{ACAD_XDICTIONARY
360
4E1
102
}
330
493
100
AcDbVisualStyle
  2
Facepattern
 70
    15
177
     2
291
     1
 71
     2
176
     1
 72
     2
176
     1
 73
     0
176
     1
 90
        0
176
     1
 40
0.6
176
     1
 41
30.0
176
     1
 62
     5
 63
     7
421
 16777215
176
     1
 74
     1
176
     1
 91
        4
176
     1
 64
     7
176
     1
 65
   257
176
     1
 75
     1
176
     1
175
     1
176
     1
 42
1.0
176
     1
 92
        8
176
     1
 66
     7
176
     1
 43
1.0
176
     1
 76
     1
176
     1
 77
     6
176
     1
 78
     2
176
     1
 67
     7
176
     1
 79
     5
176
     1
170
     0
176
     1
171
     0
176
     1
290
     0
176
     1
 93
        1
176
     1
 44
0.0
176
     1
173
     0
176
     1
  0
VISUALSTYLE
  5
494
102
{ACAD_REACTORS
330
493
102
}
102
{ACAD_XDICTIONARY
360
4C5
102
}
330
493
100
AcDbVisualStyle
  2
Flat
 70
     0
177
     2
291
     1
 71
     2
176
     1
 72
     1
176
     1
 73
     1
176
     1
 90
        2
176
     1
 40
0.6
176
     1
 41
30.0
176
     1
 62
     5
 63
     7
421
 16777215
176
     1
 74
     0
176
     1
 91
        0
176
     1
 64
     7
176
     1
 65
   257
176
     1
 75
     1
176
     1
175
     1
176
     1
 42
1.0
176
     1
 92
        8
176
     1
 66
     7
176
     1
 43
1.0
176
     1
 76
     1
176
     1
 77
     6
176
     1
 78
     2
176
     1
 67
     7
176
     1
 79
     5
176
     1
170
     0
176
     1
171
     0
176
     1
290
     0
176
     1
 93
       13
176
     1
 44
0.0
176
     1
173
     0
176
     1
  0
VISUALSTYLE
  5
495
102
{ACAD_REACTORS
330
493
102
}
102
{ACAD_XDICTIONARY
360
4C7
102
}
330
493
100
AcDbVisualStyle
  2
FlatWithEdges
 70
     1
177
     2
291
     1
 71
     2
176
     1
 72
     1
176
     1
 73
     1
176
     1
 90
        2
176
     1
 40
0.6
176
     1
 41
30.0
176
     1
 62
     5
 63
     7
421
 16777215
176
     1
 74
     1
176
     1
 91
        0
176
     1
 64
     7
176
     1
 65
   257
176
     1
 75
     1
176
     1
175
     1
176
     1
 42
1.0
176
     1
 92
        0
176
     1
 66
   257
176
     1
 43
1.0
176
     1
 76
     1
176
     1
 77
     6
176
     1
 78
     2
176
     1
 67
     7
176
     1
 79
     5
176
     1
170
     0
176
     1
171
     0
176
     1
290
     0
176
     1
 93
       13
176
     1
 44
0.0
176
     1
173
     0
176
     1
  0
VISUALSTYLE
  5
496
102
{ACAD_REACTORS
330
493
102
}
102
{ACAD_XDICTIONARY
360
4C9
102
}
330
493
100
AcDbVisualStyle
  2
Gouraud
 70
     2
177
     2
291
     1
 71
     2
176
     1
 72
     2
176
     1
 73
     1
176
     1
 90
        2
176
     1
 40
0.6
176
     1
 41
30.0
176
     1
 62
     5
 63
     7
421
 16777215
176
     1
 74
     0
176
     1
 91
        0
176
     1
 64
     7
176
     1
 65
   257
176
     1
 75
     1
176
     1
175
     1
176
     1
 42
1.0
176
     1
 92
        0
176
     1
 66
     7
176
     1
 43
1.0
176
     1
 76
     1
176
     1
 77
     6
176
     1
 78
     2
176
     1
 67
     7
176
     1
 79
     5
176
     1
170
     0
176
     1
171
     0
176
     1
290
     0
176
     1
 93
       13
176
     1
 44
0.0
176
     1
173
     0
176
     1
  0
VISUALSTYLE
  5
497
102
{ACAD_REACTORS
330
493
102
}
102
{ACAD_XDICTIONARY
360
4CB
102
}
330
493
100
AcDbVisualStyle
  2
GouraudWithEdges
 70
     3
177
     2
291
     1
 71
     2
176
     1
 72
     2
176
     1
 73
     1
176
     1
 90
        2
176
     1
 40
0.6
176
     1
 41
30.0
176
     1
 62
     5
 63
     7
421
 16777215
176
     1
 74
     1
176
     1
 91
        0
176
     1
 64
     7
176
     1
 65
   257
176
     1
 75
     1
176
     1
175
     1
176
     1
 42
1.0
176
     1
 92
        0
176
     1
 66
   257
176
     1
 43
1.0
176
     1
 76
     1
176
     1
 77
     6
176
     1
 78
     2
176
     1
 67
     7
176
     1
 79
     5
176
     1
170
     0
176
     1
171
     0
176
     1
290
     0
176
     1
 93
       13
176
     1
 44
0.0
176
     1
173
     0
176
     1
  0
VISUALSTYLE
  5
49A
102
{ACAD_REACTORS
330
493
102
}
102
{ACAD_XDICTIONARY
360
4D1
102
}
330
493
100
AcDbVisualStyle
  2
Hidden
 70
     6
177
     2
291
     0
 71
     1
176
     1
 72
     2
176
     1
 73
     2
176
     1
 90
        0
176
     1
 40
0.6
176
     1
 41
30.0
176
     1
 62
     5
 63
     7
421
 16777215
176
     1
 74
     2
176
     1
 91
        2
176
     1
 64
     7
176
     1
 65
   257
176
     1
 75
     2
176
     1
175
     1
176
     1
 42
40.0
176
     1
 92
        0
176
     1
 66
   257
176
     1
 43
1.0
176
     1
 76
     1
176
     1
 77
     6
176
     1
 78
     2
176
     1
 67
     7
176
     1
 79
     3
176
     1
170
     0
176
     1
171
     0
176
     1
290
     0
176
     1
 93
        1
176
     1
 44
0.0
176
     1
173
     0
176
     1
  0
VISUALSTYLE
  5
4A4
102
{ACAD_REACTORS
330
493
102
}
102
{ACAD_XDICTIONARY
360
4E5
102
}
330
493
100
AcDbVisualStyle
  2
JitterOff
 70
    20
177
     2
291
     1
 71
     2
176
     0
 72
     2
176
     0
 73
     0
176
     0
 90
        0
176
     0
 40
0.6
176
     0
 41
30.0
176
     0
 62
     5
 63
     7
421
 16777215
176
     0
 74
     1
176
     0
 91
        4
176
     0
 64
     7
176
     0
 65
   257
176
     0
 75
     1
176
     0
175
     1
176
     0
 42
1.0
176
     0
 92
       10
176
     2
 66
     7
176
     0
 43
1.0
176
     0
 76
     1
176
     0
 77
     6
176
     0
 78
     2
176
     0
 67
     7
176
     0
 79
     5
176
     0
170
     0
176
     0
171
     0
176
     0
290
     0
176
     0
 93
        1
176
     0
 44
0.0
176
     0
173
     0
176
     0
  0
VISUALSTYLE
  5
4A1
102
{ACAD_REACTORS
330
493
102
}
102
{ACAD_XDICTIONARY
360
4DF
102
}
330
493
100
AcDbVisualStyle
  2
Linepattern
 70
    14
177
     2
291
     1
 71
     2
176
     1
 72
     2
176
     1
 73
     0
176
     1
 90
        0
176
     1
 40
0.6
176
     1
 41
30.0
176
     1
 62
     5
 63
     7
421
 16777215
176
     1
 74
     1
176
     1
 91
        4
176
     1
 64
     7
176
     1
 65
   257
176
     1
 75
     7
176
     1
175
     7
176
     1
 42
1.0
176
     1
 92
        8
176
     1
 66
     7
176
     1
 43
1.0
176
     1
 76
     1
176
     1
 77
     6
176
     1
 78
     2
176
     1
 67
     7
176
     1
 79
     5
176
     1
170
     0
176
     1
171
     0
176
     1
290
     0
176
     1
 93
        1
176
     1
 44
0.0
176
     1
173
     0
176
     1
  0
VISUALSTYLE
  5
4A5
102
{ACAD_REACTORS
330
493
102
}
102
{ACAD_XDICTIONARY
360
4E7
102
}
330
493
100
AcDbVisualStyle
  2
OverhangOff
 70
    21
177
     2
291
     1
 71
     2
176
     0
 72
     2
176
     0
 73
     0
176
     0
 90
        0
176
     0
 40
0.6
176
     0
 41
30.0
176
     0
 62
     5
 63
     7
421
 16777215
176
     0
 74
     1
176
     0
 91
        4
176
     0
 64
     7
176
     0
 65
   257
176
     0
 75
     1
176
     0
175
     1
176
     0
 42
1.0
176
     0
 92
        9
176
     2
 66
     7
176
     0
 43
1.0
176
     0
 76
     1
176
     0
 77
     6
176
     0
 78
     2
176
     0
 67
     7
176
     0
 79
     5
176
     0
170
     0
176
     0
171
     0
176
     0
290
     0
176
     0
 93
        1
176
     0
 44
0.0
176
     0
173
     0
176
     0
  0
VISUALSTYLE
  5
49C
102
{ACAD_REACTORS
330
493
102
}
102
{ACAD_XDICTIONARY
360
4D5
102
}
330
493
100
AcDbVisualStyle
  2
Realistic
 70
     8
177
     2
291
     0
 71
     2
176
     1
 72
     3
176
     1
 73
     0
176
     1
 90
        2
176
     1
 40
0.6
176
     1
 41
30.0
176
     1
 62
     5
 63
     7
421
 16777215
176
     1
 74
     0
176
     1
 91
        0
176
     1
 64
     7
176
     1
 65
   257
176
     1
 75
     1
176
     1
175
     1
176
     1
 42
1.0
176
     1
 92
        8
176
     1
 66
   257
176
     1
 43
1.0
176
     1
 76
     1
176
     1
 77
     6
176
     1
 78
     2
176
     1
 67
     7
176
     1
 79
     3
176
     1
170
     0
176
     1
171
     0
176
     1
290
     0
176
     1
 93
       13
176
     1
 44
0.0
176
     1
173
     0
176
     1
  0
VISUALSTYLE
  5
4AB
102
{ACAD_REACTORS
330
493
102
}
102
{ACAD_XDICTIONARY
360
4F3
102
}
330
493
100
AcDbVisualStyle
  2
Shaded
 70
    27
177
     2
291
     0
 71
     2
176
     1
 72
     2
176
     1
 73
     1
176
     1
 90
        2
176
     1
 40
0.6
176
     1
 41
30.0
176
     1
 62
     5
 63
     7
421
 16777215
176
     1
 74
     0
176
     1
 91
        4
176
     1
 64
     7
176
     1
 65
   257
176
     1
 75
     1
176
     1
175
     1
176
     1
 42
1.0
176
     1
 92
        8
176
     1
 66
   257
176
     1
 43
1.0
176
     1
 76
     1
176
     1
 77
     6
176
     1
 78
     2
176
     1
 67
     8
425
  7895160
176
     1
 79
     3
176
     1
170
     0
176
     1
171
     0
176
     1
290
     0
176
     1
 93
        5
176
     1
 44
0.0
176
     1
173
     0
176
     1
  0
VISUALSTYLE
  5
4AA
102
{ACAD_REACTORS
330
493
102
}
102
{ACAD_XDICTIONARY
360
4F1
102
}
330
493
100
AcDbVisualStyle
  2
Shaded with edges
 70
    26
177
     2
291
     0
 71
     2
176
     1
 72
     2
176
     1
 73
     1
176
     1
 90
        2
176
     1
 40
0.6
176
     1
 41
30.0
176
     1
 62
     5
 63
     7
421
 16777215
176
     1
 74
     1
176
     1
 91
       10
176
     1
 64
     7
176
     1
 65
   257
176
     1
 75
     2
176
     1
175
     1
176
     1
 42
1.0
176
     1
 92
        8
176
     1
 66
   257
176
     1
 43
1.0
176
     1
 76
     1
176
     1
 77
     6
176
     1
 78
     2
176
     1
 67
     7
176
     1
 79
     3
176
     1
170
     0
176
     1
171
     0
176
     1
290
     0
176
     1
 93
        5
176
     1
 44
0.0
176
     1
173
     0
176
     1
  0
VISUALSTYLE
  5
4A7
102
{ACAD_REACTORS
330
493
102
}
102
{ACAD_XDICTIONARY
360
4EB
102
}
330
493
100
AcDbVisualStyle
  2
Shades of Gray
 70
    23
177
     2
291
     0
 71
     2
176
     1
 72
     2
176
     1
 73
     3
176
     1
 90
        0
176
     1
 40
0.6
176
     1
 41
30.0
176
     1
 62
     5
 63
     7
421
 16777215
176
     1
 74
     2
176
     1
 91
        2
176
     1
 64
     7
176
     1
 65
     7
176
     1
 75
     1
176
     1
175
     1
176
     1
 42
40.0
176
     1
 92
        8
176
     1
 66
     7
176
     1
 43
1.0
176
     1
 76
     1
176
     1
 77
     6
176
     1
 78
     2
176
     1
 67
     7
176
     1
 79
     3
176
     1
170
     0
176
     1
171
     0
176
     1
290
     0
176
     1
 93
        1
176
     1
 44
0.0
176
     1
173
     0
176
     1
  0
VISUALSTYLE
  5
4A8
102
{ACAD_REACTORS
330
493
102
}
102
{ACAD_XDICTIONARY
360
4ED
102
}
330
493
100
AcDbVisualStyle
  2
Sketchy
 70
    24
177
     2
291
     0
 71
     1
176
     1
 72
     2
176
     1
 73
     2
176
     1
 90
        0
176
     1
 40
0.6
176
     1
 41
30.0
176
     1
 62
     5
 63
     7
421
 16777215
176
     1
 74
     2
176
     1
 91
        2
176
     1
 64
     7
176
     1
 65
     7
176
     1
 75
     1
176
     1
175
     1
176
     1
 42
40.0
176
     1
 92
       11
176
     1
 66
     7
176
     1
 43
1.0
176
     1
 76
     1
176
     1
 77
     6
176
     1
 78
     2
176
     1
 67
     7
176
     1
 79
     6
176
     1
170
     0
176
     1
171
     0
176
     1
290
     0
176
     1
 93
        1
176
     1
 44
0.0
176
     1
173
     0
176
     1
  0
VISUALSTYLE
  5
4A0
102
{ACAD_REACTORS
330
493
102
}
102
{ACAD_XDICTIONARY
360
4DD
102
}
330
493
100
AcDbVisualStyle
  2
Thicken
 70
    13
177
     2
291
     1
 71
     2
176
     1
 72
     2
176
     1
 73
     0
176
     1
 90
        0
176
     1
 40
0.6
176
     1
 41
30.0
176
     1
 62
     5
 63
     7
421
 16777215
176
     1
 74
     1
176
     1
 91
        4
176
     1
 64
     7
176
     1
 65
   257
176
     1
 75
     1
176
     1
175
     1
176
     1
 42
1.0
176
     1
 92
       12
176
     1
 66
     7
176
     1
 43
1.0
176
     1
 76
     1
176
     1
 77
     6
176
     1
 78
     2
176
     1
 67
     7
176
     1
 79
     5
176
     1
170
     0
176
     1
171
     0
176
     1
290
     0
176
     1
 93
        1
176
     1
 44
0.0
176
     1
173
     0
176
     1
  0
VISUALSTYLE
  5
499
102
{ACAD_REACTORS
330
493
102
}
102
{ACAD_XDICTIONARY
360
4CF
102
}
330
493
100
AcDbVisualStyle
  2
Wireframe
 70
     5
177
     2
291
     0
 71
     0
176
     1
 72
     2
176
     1
 73
     0
176
     1
 90
        0
176
     1
 40
0.6
176
     1
 41
30.0
176
     1
 62
     5
 63
     7
421
 16777215
176
     1
 74
     1
176
     1
 91
        4
176
     1
 64
     7
176
     1
 65
   257
176
     1
 75
     1
176
     1
175
     1
176
     1
 42
1.0
176
     1
 92
        0
176
     1
 66
   257
176
     1
 43
1.0
176
     1
 76
     1
176
     1
 77
     6
176
     1
 78
     2
176
     1
 67
     7
176
     1
 79
     3
176
     1
170
     0
176
     1
171
     0
176
     1
290
     0
176
     1
 93
        1
176
     1
 44
0.0
176
     1
173
     0
176
     1
  0
VISUALSTYLE
  5
4A9
102
{ACAD_REACTORS
330
493
102
}
102
{ACAD_XDICTIONARY
360
4EF
102
}
330
493
100
AcDbVisualStyle
  2
X-Ray
 70
    25
177
     2
291
     0
 71
     2
176
     1
 72
     2
176
     1
 73
     1
176
     1
 90
        1
176
     1
 40
0.5
176
     1
 41
30.0
176
     1
 62
     5
 63
     7
421
 16777215
176
     1
 74
     1
176
     1
 91
        0
176
     1
 64
     7
176
     1
 65
   257
176
     1
 75
     1
176
     1
175
     1
176
     1
 42
1.0
176
     1
 92
        8
176
     1
 66
     7
176
     1
 43
1.0
176
     1
 76
     1
176
     1
 77
     6
176
     1
 78
     2
176
     1
 67
     7
176
     1
 79
     3
176
     1
170
     0
176
     1
171
     0
176
     1
290
     0
176
     1
 93
       13
176
     1
 44
0.0
176
     1
173
     0
176
     1
  0
DICTIONARYVAR
  5
4C2
102
{ACAD_REACTORS
330
4C1
102
}
330
4C1
100
DictionaryVariables
280
     0
  1
1:1
  0
DICTIONARYVAR
  5
4F6
102
{ACAD_REACTORS
330
4C1
102
}
330
4C1
100
DictionaryVariables
280
     0
  1
Standard
  0
CSACDOCUMENTOPTIONS
  5
4B7
102
{ACAD_REACTORS
330
4B6
102
}
330
4B6
  0
XRECORD
  5
4BB
102
{ACAD_REACTORS
330
4B2
102
}
330
4B2
100
AcDbXrecord
280
     1
300
MC_VERSION_DATA
 90
       95
310
0600000002000000570000001C000000E404000000000000000000007801936764E5D8CF7A8393818115C460606066E0646662626666706006F214793899F8DE3171E725E6E53B3BBA2878E6951050AF75FEFFFFFF520032DE0F3057000000
  0
XRECORD
  5
4B3
102
{ACAD_REACTORS
330
4B2
102
}
330
4B2
100
AcDbXrecord
280
     1
300
MCS_DOCUMENT_ID
 90
       60
310
0600000002000000150000001C000000E404000000000000000000007801E33DC7965C7822EA95EBEAD9EE9D55CB953FFD07020070610C4F15000000
  0
XRECORD
  5
4B9
102
{ACAD_REACTORS
330
4B2
102
}
330
4B2
100
AcDbXrecord
280
     1
300
MCS_PARAMS_DATA
 90
     3313
310
0600000002000000F64B00001C000000E404000000000000000000007801C55C5B905C45199EE99EBDCCE67E5DA218172C303B91307B4B8C459531245054850D55591F78B236BB49B9BAC9E6B22A082A9655BE5865596569A965F9209288CF16503EC8834088C10B092404211702988430422E9084CDAEFFD7A7FBF4DFA7CF
310
D9D99D9D39930798FF3F7DCEF7DFFAFBBBFBCC6CDBFC46297252EECB48F9CDF5ED5234493921A5206D76815820B252E4F3225F128D7D5F59BF69E3162948D9A2D485B3131313747328BF06593E960915079422437734AA3BDAA5CCD053F5ED4FD2557D257BAB94DF007A03479F859BB2B22193C9108EC1CDCADC0464C27506
310
28605703E48886E0B986E10F03BF91E33707F8E3140E7A9091C8268236920C1C662240B94888A1C8E07600AE99C32D5131CA8B3925D172EFE62D7D6D9DABBA8ADDD6F17CE16D13F0457AE8AC9268DE32DABF73B07FCFA013F9BF8491D7C17E2550D8E8FFCA8DFE4E98B3929B331718B291824FFF72EB941D9E8E2211D5A93C
310
784A44C557923911258BD0C8640531AEEC61A924855B11378280384364A422680C0A928DB9C10CD89D581114199665B722B26E4590C82B0222AB08FAA8A60626C028E0044F81BA246F5360E167F2D27C56A10E05C058C13C59DEC6207679103AFC5DEADF992F2B284F67B31C8EE359B64A9665A62453228F64269D98455E3B
310
A4B35817F7EC92C86FB8EFFE8DBD5BEEDBDCAB0CD3B5FC8E99065A7E55D536E39DE7826237F1C8BBBCB3CFADFC93302087C80397EE69C2FF69CA32234F0763E41851010DA578E8294D435524988818E84710A7B2643B4F7C034F6CE5C9368F203BE8094C6268541D70D35EE4B585DAE170F4942EB8D2D422560A9917F34B62
310
CE86919D9F1F6DDBB36DD770FFC0B6BC682E898607BEB5737424F8D83B323AF07529CFC0B69BB96D9FD3CFF9B410ED79B1A42416161FEA29AEEDEEEC5ADF532C76DEF3C5AEEEB5CAECF97A60330D2C1C3579EAD0DA7621F20269BD6768746FDBF0D0DE51F3B0EE356B3ABBD6F474F7740D76770EACED08FCFC92BEAF13F701
310
B5AF7FEBF0B6B691ED6D7D23C3DBF6F4EF840FDA9AD583C58E81E240FFEAADDD5BD70EAC0E669D2A25F27FB610851F9335859F059541B9E5971EC7A5A7E83F2CE53DB9A4040555A2661A4DDBF2C560B2E54E7D5483931EF871F7C88E5DFDA3435B878687461F6EDB313248FE3596847C70DBDEBC682809D13B22E56A5856E4
310
E9998738519B6E2A89DCE6EDDBDB542AF4E4380F8F61A4965F57116093E5A052A06AF588670205D9A715FB49B140D81A90855F902680EBB8B3A3187EEA96F2B224E392BAF898328CB1AD47DA34C1601A1B421AD816D190715CC3F276A5DE067C546F03AED6DB808FEB6DC0B57A1BB00853B49EB3E0937A47E07ABD0D188301
310
71CB797197D3603B1D06BFCB6DB024827C0C834324E60945463B3712E196397079076E990B47228783C8E09631B8F129C211385B3E540C97413DC70673C524DEAD70BD23917B079179B782793791AE77D944EFDCDC5529988B13E1069D6092C472A7F777A6F648E4C184C88239C8822913E16AE29D48176E29E0727C316496
310
EF2A967C95165E504B0C2B218EEE82DD5C63513CD614C5091F6D6FA7551865CC5C5030A1E0A3E84BEC86CFD04EC5DD01AA74CBDB05AB8C403295A124BB2908C4B032B4682A032283FB103E391B4E03172C7199C4E0F88E871E8855ADA1482D3238FA1846E0B807A77785BFF935FE1D74369F5647D0D171CA5F4F09337C2559
310
105132935A503D6DBC7A94B54D2B6DF1E0339960F436A97441791E5EC104D40283580888C4FDED577B1FD8B4B9AF6FE30605D8AAD7F1F34A62F6DD5BBEC62E92057A31FEA25A9DB3F5FBD3C1729D9CD723B0BF0DE8402BB05A67160DDE4416E59079C0D9EAA575B7321F67115FC018C76AB5B3A33D06B68CBD9BFBDC93C073
310
800CC384FD360C544F539B6F02B1820953BE9D01DE01C0D85A6C50369A5AC4065C7760793B965800321749E4B50891C0C2AB0CAE9808178444974C70F875952A9381563C01BE9D08EAFA481283ABD8C7EF7870DAABE068E68833DFAC8EA0A3E3F87C0B07AA507B2311F0889285BDC333294C4E2DB27C67BA70ABD2857B688A
310
70552AA7873DB8489E55063D5D2DCBE9BB9E49F1E554A5083C922EDCA3E9C27D2F5DB8EF7B705EE9D87E1E920E88313AAE6AECF4FBD668D3D30DB4E51ADA9BEDB0D7AFCEB4DDED85F7C4ECF6551B3BCE2AFF6E835E49458EC94883D6E73C45753FAE614C3C0A0362777435D915EC025C33F7578776011DE6F3D066954C59D6
310
D76F86AC9CD58A53F4122CF0552BAE070AEA3B5AF15752304F1F47569D50AB71F41A31FA5A51C904CD43C6B0F51D2ACEFC112ACC4CC1B0FF086CE7AD5A4D096A005126387AAD451EE384D9C035A925859E39C1AA865EE9A9B8DA21CEE289167F7CF1D4C4BC7A125EC5AED5D8BB0B5A9D9144D134CFA71BF85A8D44BE568348
310
F6AA55A2F3CAEA4F6982FD21118CC249D3CBF852A586F244BA70FBD285DB9F085793EDE56E143F0AD06C6B4CB2242BDD3DD1419166C2865E81F9CE1648F3CBD84597B22E28992A3DDCE24C77F3F311A01C8A722828EC3CF15F7D987933F818F8E59BC138E5CD4CE8AC24C94E68BA32F5C3CBAB808B6B06B9936E642F9F804C
310
903AF2F3709D37832318A078E4B37AEBDCFAA66859945B9EBB25776BAE2DD3995995E9CA1433DDFA4DAC7ECE6FE93696E96BB06712968ED2661884A9EE40230F60D0D73DE8C858453B9E8E4212D5A9B0784A762662599FEDD18C9299F4094C728A91F536658E91CDA6DFC8E89F363B15B4CB31404FD2581CF722BBF229B517
310
430944E56AB2E2A8E3461950730F2B7ECA7BC570E389706E8BA9D241C744225C40C29385944F707279EA277D998065D9EAD604B1263E66D38513E9C2490F4EE7CC6E8AA89C3D9DA588701CA708AB6414C194931EE3FC0D4515D71A4FBFE712F8CB4A26532A6E8DCF01CA61A3745BE3F3C09F6E6B442F0CD7BAD36A8D2F002E
310
AE359E3BE646F6B8926D6BBC0CD9926FBEF08C5220B9BAE91D0E14769FF44B52301E3C00E8FA74C117BD24F396E22C7F1005F2DA2902EB76053DE720B0D3EE397F2F036AE8B24A3DE750225C4DF8F8A544B81AF69C7F2482D6C4C77F067093EF36FE359541FF8E0E8A50399BA22F63681CEF0EBDEBB2C3834A9E09EF1E0654
310
1D79F708F0A7CBBB956F495E015C1CEFEE3EEC46B65FC996771F856C09285F58A7148C77872F6104D6DC9A8897D30896D457015D1FDE3DEA25B91CEFF2EBD6EB0A68F718A0D3A6DDD7CA805699768F27C2D584925E4F84AB9476A39B03E744D09CD6610FF59F44E89A78FA46BA70DDDE0ADC144A4DBCEBF1E0221D416DC23D
310
1D715254A766A8A7AC60C1FF26021ED7783E889CD89C52F24C1ACF0940D5B1F19C047E7A8DE714E0E21ACFD5436EE339AB64DB78E44B91C6730003ECCB897CE1D28548E3798246B0C6731AD0536D3CB3E90740046E0B5FD5161351555C247A084506FA9607AAEBD39C44F1E2B63A5BDCA18E17B755B2E2664A322602C34C3A
310
0393625B51C09BC60D77315EF1E1C8DB80730A9C37D5B8CD0EBF3EA3A6FB4EA2A7C18B1B2746D53A5F7BB70C687C78291FE10E3A386EE3054657F9CB297E9CF703B0E71DFC4DA3397B4068C3CF33A1A81F02C2C920DB8E7ABF712005813923946BAE06DE453454B45CC32AF6311810C751E3F85A979E7874424F9299B34AB2
310
210DC430A45A3473162283FB2F3218C7FE178FBB1CF59692CDAD957C0DECAC3739580882F7E26636C4FC0874E66F42CE013F2EB274A4C323CBB88082C5B980AE4CFD4DC879C0C5B1FFF5E7DDC89E57324556799F2F34BC006EC70CD18A8318C0D9FF0AB6807CDBB19F46B0A4BE07E8B4D9FF8207EA504E3D7E65FA3E4C7226
310
B329B0E8D703AAFEBAA304E869379E693123CD68457958A4FF2F11AE86ECFF4119D078F6E7138AD87FF2370F86D6E1E38789702D76FED2134932CCA824CB8C811832A3160D33426421BD980847AF6F0C11D33DEECB1CFE9B7175D1F926045DE5BD8DBFBDBE94081764D0049324E6DDB40A8607F372225C4D16463974B5B836
310
F393232E193EA2E499B49986C93A780A6DA631A981D7A6CD34012EAECDFCFC5937B23F52B26D33BF83CCDBCC56A5C0ECD07DE7A7A7226D661D8D6033A419D0536D33E07F56B8C4CA7C0D48229F9610695A461A0883CE7B494E8DD95B004DF38E8247AB09FE45AC1A52EDAC32A0861DD8DA85D8A76276989D08579353913989
310
700119397510D9BB4CAB9DF096393711B4263ECE4B176E7EBA700B3C389DB3F0B5335AA6A7234288EA142D784A9083AFB414616018456CF24C3293C4CD2F49D3E5A5F0410CEE7E0F2E6A6FEA11580893E29AEE529C2FC11C4DF48D4AA628982DB44A422820F8563073C8F989CF2240392BED74F7768B819FDEDE6E09E0E29A
310
EE72FA030B3CB273954C91D5916E87CC9BEEFB4FAB1E6B73B10CFB6CBEB73B4423589D2D05F4CC9AAE2E4C768646F0614DBB4BD40606DDEA2539B5A67B13A0D36EBACBCA809A9055A7E9E24B8E0D79912B896C91FE0C1655C17843E129FA335B3277F4E8510807513CB9CC44868E210AF7FE19028691B0917E39482B125CF8
310
D4FF01F0B312DAF64B0000
  0
TABLECONTENT
  5
4BD
330
4C0
100
AcDbLinkedData
  1

300

100
AcDbLinkedTableData
 90
        5
300
COLUMN
  1
LINKEDTABLEDATACOLUMN_BEGIN
300

 91
        0
301
CUSTOMDATA
  1
DATAMAP_BEGIN
 90
        0
309
DATAMAP_END
309
LINKEDTABLEDATACOLUMN_END
  1
FORMATTEDTABLEDATACOLUMN_BEGIN
300
COLUMNTABLEFORMAT
  1
TABLEFORMAT_BEGIN
 90
        3
170
     0
309
TABLEFORMAT_END
309
FORMATTEDTABLEDATACOLUMN_END
  1
TABLECOLUMN_BEGIN
 90
        0
 40
10.0
309
TABLECOLUMN_END
300
COLUMN
  1
LINKEDTABLEDATACOLUMN_BEGIN
300

 91
        0
301
CUSTOMDATA
  1
DATAMAP_BEGIN
 90
        0
309
DATAMAP_END
309
LINKEDTABLEDATACOLUMN_END
  1
FORMATTEDTABLEDATACOLUMN_BEGIN
300
COLUMNTABLEFORMAT
  1
TABLEFORMAT_BEGIN
 90
        3
170
     0
309
TABLEFORMAT_END
309
FORMATTEDTABLEDATACOLUMN_END
  1
TABLECOLUMN_BEGIN
 90
        0
 40
10.0
309
TABLECOLUMN_END
300
COLUMN
  1
LINKEDTABLEDATACOLUMN_BEGIN
300

 91
        0
301
CUSTOMDATA
  1
DATAMAP_BEGIN
 90
        0
309
DATAMAP_END
309
LINKEDTABLEDATACOLUMN_END
  1
FORMATTEDTABLEDATACOLUMN_BEGIN
300
COLUMNTABLEFORMAT
  1
TABLEFORMAT_BEGIN
 90
        3
170
     0
309
TABLEFORMAT_END
309
FORMATTEDTABLEDATACOLUMN_END
  1
TABLECOLUMN_BEGIN
 90
        0
 40
10.0
309
TABLECOLUMN_END
300
COLUMN
  1
LINKEDTABLEDATACOLUMN_BEGIN
300

 91
        0
301
CUSTOMDATA
  1
DATAMAP_BEGIN
 90
        0
309
DATAMAP_END
309
LINKEDTABLEDATACOLUMN_END
  1
FORMATTEDTABLEDATACOLUMN_BEGIN
300
COLUMNTABLEFORMAT
  1
TABLEFORMAT_BEGIN
 90
        3
170
     0
309
TABLEFORMAT_END
309
FORMATTEDTABLEDATACOLUMN_END
  1
TABLECOLUMN_BEGIN
 90
        0
 40
40.0
309
TABLECOLUMN_END
300
COLUMN
  1
LINKEDTABLEDATACOLUMN_BEGIN
300

 91
        0
301
CUSTOMDATA
  1
DATAMAP_BEGIN
 90
        0
309
DATAMAP_END
309
LINKEDTABLEDATACOLUMN_END
  1
FORMATTEDTABLEDATACOLUMN_BEGIN
300
COLUMNTABLEFORMAT
  1
TABLEFORMAT_BEGIN
 90
        3
170
     0
309
TABLEFORMAT_END
309
FORMATTEDTABLEDATACOLUMN_END
  1
TABLECOLUMN_BEGIN
 90
        0
 40
20.0
309
TABLECOLUMN_END
 91
        5
301
ROW
  1
LINKEDTABLEDATAROW_BEGIN
 90
        5
300
CELL
  1
LINKEDTABLEDATACELL_BEGIN
 90
        0
300

 91
        0
301
CUSTOMDATA
  1
DATAMAP_BEGIN
 90
        1
300
ACAD_ROUNDTRIP_2008_CELL_CHECKSUM
301
DATAMAP_VALUE
 93
        2
 90
        2
140
32.0
 94
        0
300

302

304
ACVALUE_END
309
DATAMAP_END
 92
        0
 95
        1
302
CONTENT
  1
CELLCONTENT_BEGIN
 90
        1
300
VALUE
 93
        2
 90
        4
  1
 
 94
        0
300

302
 
304
ACVALUE_END
 91
        0
309
CELLCONTENT_END
  1
FORMATTEDCELLCONTENT_BEGIN
170
     1
300
CONTENTFORMAT
  1
CONTENTFORMAT_BEGIN
 90
      132
 91
        0
 92
      512
 93
        0
300

 40
0.0
140
1.0
 94
        1
 62
     0
340
0
144
3.5
309
CONTENTFORMAT_END
309
FORMATTEDCELLCONTENT_END
309
LINKEDTABLEDATACELL_END
  1
FORMATTEDTABLEDATACELL_BEGIN
300
CELLTABLEFORMAT
  1
TABLEFORMAT_BEGIN
 90
        1
170
     1
 91
        0
 92
        0
 62
   257
 93
        1
300
CONTENTFORMAT
  1
CONTENTFORMAT_BEGIN
 90
        0
 91
        0
 92
      512
 93
        0
300

 40
0.0
140
1.0
 94
        1
 62
     0
340
0
144
0.18
309
CONTENTFORMAT_END
171
     0
 94
        0
309
TABLEFORMAT_END
309
FORMATTEDTABLEDATACELL_END
  1
TABLECELL_BEGIN
 90
        0
 91
        0
309
TABLECELL_END
300
CELL
  1
LINKEDTABLEDATACELL_BEGIN
 90
        0
300

 91
        0
301
CUSTOMDATA
  1
DATAMAP_BEGIN
 90
        0
309
DATAMAP_END
 92
        0
 95
        0
309
LINKEDTABLEDATACELL_END
  1
FORMATTEDTABLEDATACELL_BEGIN
300
CELLTABLEFORMAT
  1
TABLEFORMAT_BEGIN
 90
        1
170
     1
 91
        0
 92
        0
 62
   257
 93
        1
300
CONTENTFORMAT
  1
CONTENTFORMAT_BEGIN
 90
        0
 91
        0
 92
      512
 93
        0
300

 40
0.0
140
1.0
 94
        1
 62
     0
340
0
144
0.18
309
CONTENTFORMAT_END
171
     0
 94
        0
309
TABLEFORMAT_END
309
FORMATTEDTABLEDATACELL_END
  1
TABLECELL_BEGIN
 90
        0
 91
        0
309
TABLECELL_END
300
CELL
  1
LINKEDTABLEDATACELL_BEGIN
 90
        0
300

 91
        0
301
CUSTOMDATA
  1
DATAMAP_BEGIN
 90
        0
309
DATAMAP_END
 92
        0
 95
        0
309
LINKEDTABLEDATACELL_END
  1
FORMATTEDTABLEDATACELL_BEGIN
300
CELLTABLEFORMAT
  1
TABLEFORMAT_BEGIN
 90
        1
170
     1
 91
        0
 92
        0
 62
   257
 93
        1
300
CONTENTFORMAT
  1
CONTENTFORMAT_BEGIN
 90
        0
 91
        0
 92
      512
 93
        0
300

 40
0.0
140
1.0
 94
        1
 62
     0
340
0
144
0.18
309
CONTENTFORMAT_END
171
     0
 94
        0
309
TABLEFORMAT_END
309
FORMATTEDTABLEDATACELL_END
  1
TABLECELL_BEGIN
 90
        0
 91
        0
309
TABLECELL_END
300
CELL
  1
LINKEDTABLEDATACELL_BEGIN
 90
        0
300

 91
        0
301
CUSTOMDATA
  1
DATAMAP_BEGIN
 90
        1
300
ACAD_ROUNDTRIP_2008_CELL_CHECKSUM
301
DATAMAP_VALUE
 93
        2
 90
        2
140
1149.0
 94
        0
300

302

304
ACVALUE_END
309
DATAMAP_END
 92
        0
 95
        1
302
CONTENT
  1
CELLCONTENT_BEGIN
 90
        1
300
VALUE
 93
        2
 90
        4
  1
169839
 94
        0
300

302
169839
304
ACVALUE_END
 91
        0
309
CELLCONTENT_END
  1
FORMATTEDCELLCONTENT_BEGIN
170
     1
300
CONTENTFORMAT
  1
CONTENTFORMAT_BEGIN
 90
      196
 91
        0
 92
      512
 93
        0
300

 40
0.0
140
1.0
 94
        1
 62
     0
340
208
144
3.0
309
CONTENTFORMAT_END
309
FORMATTEDCELLCONTENT_END
309
LINKEDTABLEDATACELL_END
  1
FORMATTEDTABLEDATACELL_BEGIN
300
CELLTABLEFORMAT
  1
TABLEFORMAT_BEGIN
 90
        1
170
     1
 91
       16
 92
        0
 62
   257
 93
        1
300
CONTENTFORMAT
  1
CONTENTFORMAT_BEGIN
 90
       16
 91
        0
 92
      512
 93
        0
300

 40
0.0
140
1.0
 94
        4
 62
     0
340
0
144
0.18
309
CONTENTFORMAT_END
171
     0
 94
        4
 95
        1
302
GRIDFORMAT
  1
GRIDFORMAT_BEGIN
 90
       26
 91
        1
 62
     0
 92
       -2
340
0
 93
        0
 40
0.045
309
GRIDFORMAT_END
 95
        4
302
GRIDFORMAT
  1
GRIDFORMAT_BEGIN
 90
       26
 91
        1
 62
     0
 92
       -2
340
0
 93
        0
 40
0.045
309
GRIDFORMAT_END
 95
        8
302
GRIDFORMAT
  1
GRIDFORMAT_BEGIN
 90
       26
 91
        1
 62
     0
 92
       -2
340
0
 93
        0
 40
0.045
309
GRIDFORMAT_END
 95
       32
302
GRIDFORMAT
  1
GRIDFORMAT_BEGIN
 90
       26
 91
        1
 62
     0
 92
       -2
340
0
 93
        0
 40
0.045
309
GRIDFORMAT_END
309
TABLEFORMAT_END
309
FORMATTEDTABLEDATACELL_END
  1
TABLECELL_BEGIN
 90
        0
 91
        0
309
TABLECELL_END
300
CELL
  1
LINKEDTABLEDATACELL_BEGIN
 90
        0
300

 91
        0
301
CUSTOMDATA
  1
DATAMAP_BEGIN
 90
        1
300
ACAD_ROUNDTRIP_2008_CELL_CHECKSUM
301
DATAMAP_VALUE
 93
        2
 90
        2
140
1398.0
 94
        0
300

302

304
ACVALUE_END
309
DATAMAP_END
 92
        0
 95
        1
302
CONTENT
  1
CELLCONTENT_BEGIN
 90
        1
300
VALUE
 93
        2
 90
        4
  1
Rev:00
 94
        0
300

302
Rev:00
304
ACVALUE_END
 91
        0
309
CELLCONTENT_END
  1
FORMATTEDCELLCONTENT_BEGIN
170
     1
300
CONTENTFORMAT
  1
CONTENTFORMAT_BEGIN
 90
      196
 91
        0
 92
      512
 93
        0
300

 40
0.0
140
1.0
 94
        1
 62
     0
340
208
144
3.5
309
CONTENTFORMAT_END
309
FORMATTEDCELLCONTENT_END
309
LINKEDTABLEDATACELL_END
  1
FORMATTEDTABLEDATACELL_BEGIN
300
CELLTABLEFORMAT
  1
TABLEFORMAT_BEGIN
 90
        1
170
     1
 91
       16
 92
        0
 62
   257
 93
        1
300
CONTENTFORMAT
  1
CONTENTFORMAT_BEGIN
 90
       16
 91
        0
 92
      512
 93
        0
300

 40
0.0
140
1.0
 94
        1
 62
     0
340
0
144
0.18
309
CONTENTFORMAT_END
171
     0
 94
        4
 95
        1
302
GRIDFORMAT
  1
GRIDFORMAT_BEGIN
 90
       26
 91
        1
 62
     0
 92
       -2
340
0
 93
        0
 40
0.045
309
GRIDFORMAT_END
 95
        4
302
GRIDFORMAT
  1
GRIDFORMAT_BEGIN
 90
       26
 91
        1
 62
     0
 92
       -2
340
0
 93
        0
 40
0.045
309
GRIDFORMAT_END
 95
        8
302
GRIDFORMAT
  1
GRIDFORMAT_BEGIN
 90
       26
 91
        1
 62
     0
 92
       -2
340
0
 93
        0
 40
0.045
309
GRIDFORMAT_END
 95
       32
302
GRIDFORMAT
  1
GRIDFORMAT_BEGIN
 90
       26
 91
        1
 62
     0
 92
       -2
340
0
 93
        0
 40
0.045
309
GRIDFORMAT_END
309
TABLEFORMAT_END
309
FORMATTEDTABLEDATACELL_END
  1
TABLECELL_BEGIN
 90
        0
 91
        0
309
TABLECELL_END
 91
        0
301
CUSTOMDATA
  1
DATAMAP_BEGIN
 90
        0
309
DATAMAP_END
309
LINKEDTABLEDATAROW_END
  1
FORMATTEDTABLEDATAROW_BEGIN
300
ROWTABLEFORMAT
  1
TABLEFORMAT_BEGIN
 90
        2
170
     0
309
TABLEFORMAT_END
309
FORMATTEDTABLEDATAROW_END
  1
TABLEROW_BEGIN
 90
        1
 40
6.0
309
TABLEROW_END
301
ROW
  1
LINKEDTABLEDATAROW_BEGIN
 90
        5
300
CELL
  1
LINKEDTABLEDATACELL_BEGIN
 90
        0
300

 91
        0
301
CUSTOMDATA
  1
DATAMAP_BEGIN
 90
        0
309
DATAMAP_END
 92
        0
 95
        0
309
LINKEDTABLEDATACELL_END
  1
FORMATTEDTABLEDATACELL_BEGIN
300
CELLTABLEFORMAT
  1
TABLEFORMAT_BEGIN
 90
        1
170
     1
 91
        0
 92
        0
 62
   257
 93
        1
300
CONTENTFORMAT
  1
CONTENTFORMAT_BEGIN
 90
        0
 91
        0
 92
      512
 93
        0
300

 40
0.0
140
1.0
 94
        1
 62
     0
340
0
144
0.18
309
CONTENTFORMAT_END
171
     0
 94
        0
309
TABLEFORMAT_END
309
FORMATTEDTABLEDATACELL_END
  1
TABLECELL_BEGIN
 90
        0
 91
        0
309
TABLECELL_END
300
CELL
  1
LINKEDTABLEDATACELL_BEGIN
 90
        0
300

 91
        0
301
CUSTOMDATA
  1
DATAMAP_BEGIN
 90
        0
309
DATAMAP_END
 92
        0
 95
        0
309
LINKEDTABLEDATACELL_END
  1
FORMATTEDTABLEDATACELL_BEGIN
300
CELLTABLEFORMAT
  1
TABLEFORMAT_BEGIN
 90
        1
170
     1
 91
        0
 92
        0
 62
   257
 93
        1
300
CONTENTFORMAT
  1
CONTENTFORMAT_BEGIN
 90
        0
 91
        0
 92
      512
 93
        0
300

 40
0.0
140
1.0
 94
        1
 62
     0
340
0
144
0.18
309
CONTENTFORMAT_END
171
     0
 94
        0
309
TABLEFORMAT_END
309
FORMATTEDTABLEDATACELL_END
  1
TABLECELL_BEGIN
 90
        0
 91
        0
309
TABLECELL_END
300
CELL
  1
LINKEDTABLEDATACELL_BEGIN
 90
        0
300

 91
        0
301
CUSTOMDATA
  1
DATAMAP_BEGIN
 90
        0
309
DATAMAP_END
 92
        0
 95
        0
309
LINKEDTABLEDATACELL_END
  1
FORMATTEDTABLEDATACELL_BEGIN
300
CELLTABLEFORMAT
  1
TABLEFORMAT_BEGIN
 90
        1
170
     1
 91
        0
 92
        0
 62
   257
 93
        1
300
CONTENTFORMAT
  1
CONTENTFORMAT_BEGIN
 90
        0
 91
        0
 92
      512
 93
        0
300

 40
0.0
140
1.0
 94
        1
 62
     0
340
0
144
0.18
309
CONTENTFORMAT_END
171
     0
 94
        0
309
TABLEFORMAT_END
309
FORMATTEDTABLEDATACELL_END
  1
TABLECELL_BEGIN
 90
        0
 91
        0
309
TABLECELL_END
300
CELL
  1
LINKEDTABLEDATACELL_BEGIN
 90
        0
300

 91
        0
301
CUSTOMDATA
  1
DATAMAP_BEGIN
 90
        1
300
ACAD_ROUNDTRIP_2008_CELL_CHECKSUM
301
DATAMAP_VALUE
 93
        2
 90
        2
140
3105.0
 94
        0
300

302

304
ACVALUE_END
309
DATAMAP_END
 92
        0
 95
        1
302
CONTENT
  1
CELLCONTENT_BEGIN
 90
        1
300
VALUE
 93
        2
 90
        4
  1
Scale:1:1
 94
        0
300

302
Scale:1:1
304
ACVALUE_END
 91
        0
309
CELLCONTENT_END
  1
FORMATTEDCELLCONTENT_BEGIN
170
     1
300
CONTENTFORMAT
  1
CONTENTFORMAT_BEGIN
 90
      196
 91
        0
 92
      512
 93
        0
300

 40
0.0
140
1.0
 94
        1
 62
     0
340
208
144
3.5
309
CONTENTFORMAT_END
309
FORMATTEDCELLCONTENT_END
309
LINKEDTABLEDATACELL_END
  1
FORMATTEDTABLEDATACELL_BEGIN
300
CELLTABLEFORMAT
  1
TABLEFORMAT_BEGIN
 90
        1
170
     1
 91
       16
 92
        0
 62
   257
 93
        1
300
CONTENTFORMAT
  1
CONTENTFORMAT_BEGIN
 90
       16
 91
        0
 92
      512
 93
        0
300

 40
0.0
140
1.0
 94
        1
 62
     0
340
0
144
0.18
309
CONTENTFORMAT_END
171
     0
 94
        4
 95
        1
302
GRIDFORMAT
  1
GRIDFORMAT_BEGIN
 90
       26
 91
        1
 62
     0
 92
       -2
340
0
 93
        0
 40
0.045
309
GRIDFORMAT_END
 95
        4
302
GRIDFORMAT
  1
GRIDFORMAT_BEGIN
 90
       26
 91
        1
 62
     0
 92
       -2
340
0
 93
        0
 40
0.045
309
GRIDFORMAT_END
 95
        8
302
GRIDFORMAT
  1
GRIDFORMAT_BEGIN
 90
       26
 91
        1
 62
     0
 92
       -2
340
0
 93
        0
 40
0.045
309
GRIDFORMAT_END
 95
       32
302
GRIDFORMAT
  1
GRIDFORMAT_BEGIN
 90
       26
 91
        1
 62
     0
 92
       -2
340
0
 93
        0
 40
0.045
309
GRIDFORMAT_END
309
TABLEFORMAT_END
309
FORMATTEDTABLEDATACELL_END
  1
TABLECELL_BEGIN
 90
        0
 91
        0
309
TABLECELL_END
300
CELL
  1
LINKEDTABLEDATACELL_BEGIN
 90
        0
300

 91
        0
301
CUSTOMDATA
  1
DATAMAP_BEGIN
 90
        1
300
ACAD_ROUNDTRIP_2008_CELL_CHECKSUM
301
DATAMAP_VALUE
 93
        2
 90
        2
140
165.0
 94
        0
300

302

304
ACVALUE_END
309
DATAMAP_END
 92
        0
 95
        1
302
CONTENT
  1
CELLCONTENT_BEGIN
 90
        1
300
VALUE
 93
        2
 90
        4
  1
A2
 94
        0
300

302
A2
304
ACVALUE_END
 91
        0
309
CELLCONTENT_END
  1
FORMATTEDCELLCONTENT_BEGIN
170
     1
300
CONTENTFORMAT
  1
CONTENTFORMAT_BEGIN
 90
      196
 91
        0
 92
      512
 93
        0
300

 40
0.0
140
1.0
 94
        1
 62
     0
340
208
144
3.5
309
CONTENTFORMAT_END
309
FORMATTEDCELLCONTENT_END
309
LINKEDTABLEDATACELL_END
  1
FORMATTEDTABLEDATACELL_BEGIN
300
CELLTABLEFORMAT
  1
TABLEFORMAT_BEGIN
 90
        1
170
     1
 91
       16
 92
        0
 62
   257
 93
        1
300
CONTENTFORMAT
  1
CONTENTFORMAT_BEGIN
 90
       16
 91
        0
 92
      512
 93
        0
300

 40
0.0
140
1.0
 94
        4
 62
     0
340
0
144
0.18
309
CONTENTFORMAT_END
171
     0
 94
        4
 95
        1
302
GRIDFORMAT
  1
GRIDFORMAT_BEGIN
 90
       26
 91
        1
 62
     0
 92
       -2
340
0
 93
        0
 40
0.045
309
GRIDFORMAT_END
 95
        4
302
GRIDFORMAT
  1
GRIDFORMAT_BEGIN
 90
       26
 91
        1
 62
     0
 92
       -2
340
0
 93
        0
 40
0.045
309
GRIDFORMAT_END
 95
        8
302
GRIDFORMAT
  1
GRIDFORMAT_BEGIN
 90
       26
 91
        1
 62
     0
 92
       -2
340
0
 93
        0
 40
0.045
309
GRIDFORMAT_END
 95
       32
302
GRIDFORMAT
  1
GRIDFORMAT_BEGIN
 90
       26
 91
        1
 62
     0
 92
       -2
340
0
 93
        0
 40
0.045
309
GRIDFORMAT_END
309
TABLEFORMAT_END
309
FORMATTEDTABLEDATACELL_END
  1
TABLECELL_BEGIN
 90
        0
 91
        0
309
TABLECELL_END
 91
        0
301
CUSTOMDATA
  1
DATAMAP_BEGIN
 90
        0
309
DATAMAP_END
309
LINKEDTABLEDATAROW_END
  1
FORMATTEDTABLEDATAROW_BEGIN
300
ROWTABLEFORMAT
  1
TABLEFORMAT_BEGIN
 90
        2
170
     0
309
TABLEFORMAT_END
309
FORMATTEDTABLEDATAROW_END
  1
TABLEROW_BEGIN
 90
        2
 40
6.0
309
TABLEROW_END
301
ROW
  1
LINKEDTABLEDATAROW_BEGIN
 90
        5
300
CELL
  1
LINKEDTABLEDATACELL_BEGIN
 90
        0
300

 91
        0
301
CUSTOMDATA
  1
DATAMAP_BEGIN
 90
        0
309
DATAMAP_END
 92
        0
 95
        0
309
LINKEDTABLEDATACELL_END
  1
FORMATTEDTABLEDATACELL_BEGIN
300
CELLTABLEFORMAT
  1
TABLEFORMAT_BEGIN
 90
        1
170
     1
 91
        0
 92
        0
 62
   257
 93
        1
300
CONTENTFORMAT
  1
CONTENTFORMAT_BEGIN
 90
        0
 91
        0
 92
      512
 93
        0
300

 40
0.0
140
1.0
 94
        1
 62
     0
340
0
144
0.18
309
CONTENTFORMAT_END
171
     0
 94
        0
309
TABLEFORMAT_END
309
FORMATTEDTABLEDATACELL_END
  1
TABLECELL_BEGIN
 90
        0
 91
        0
309
TABLECELL_END
300
CELL
  1
LINKEDTABLEDATACELL_BEGIN
 90
        0
300

 91
        0
301
CUSTOMDATA
  1
DATAMAP_BEGIN
 90
        0
309
DATAMAP_END
 92
        0
 95
        0
309
LINKEDTABLEDATACELL_END
  1
FORMATTEDTABLEDATACELL_BEGIN
300
CELLTABLEFORMAT
  1
TABLEFORMAT_BEGIN
 90
        1
170
     1
 91
        0
 92
        0
 62
   257
 93
        1
300
CONTENTFORMAT
  1
CONTENTFORMAT_BEGIN
 90
        0
 91
        0
 92
      512
 93
        0
300

 40
0.0
140
1.0
 94
        1
 62
     0
340
0
144
0.18
309
CONTENTFORMAT_END
171
     0
 94
        0
309
TABLEFORMAT_END
309
FORMATTEDTABLEDATACELL_END
  1
TABLECELL_BEGIN
 90
        0
 91
        0
309
TABLECELL_END
300
CELL
  1
LINKEDTABLEDATACELL_BEGIN
 90
        0
300

 91
        0
301
CUSTOMDATA
  1
DATAMAP_BEGIN
 90
        0
309
DATAMAP_END
 92
        0
 95
        0
309
LINKEDTABLEDATACELL_END
  1
FORMATTEDTABLEDATACELL_BEGIN
300
CELLTABLEFORMAT
  1
TABLEFORMAT_BEGIN
 90
        1
170
     1
 91
        0
 92
        0
 62
   257
 93
        1
300
CONTENTFORMAT
  1
CONTENTFORMAT_BEGIN
 90
        0
 91
        0
 92
      512
 93
        0
300

 40
0.0
140
1.0
 94
        1
 62
     0
340
0
144
0.18
309
CONTENTFORMAT_END
171
     0
 94
        0
309
TABLEFORMAT_END
309
FORMATTEDTABLEDATACELL_END
  1
TABLECELL_BEGIN
 90
        0
 91
        0
309
TABLECELL_END
300
CELL
  1
LINKEDTABLEDATACELL_BEGIN
 90
        0
300

 91
        0
301
CUSTOMDATA
  1
DATAMAP_BEGIN
 90
        1
300
ACAD_ROUNDTRIP_2008_CELL_CHECKSUM
301
DATAMAP_VALUE
 93
        2
 90
        2
140
46115.0
 94
        0
300

302

304
ACVALUE_END
309
DATAMAP_END
 92
        0
 95
        1
302
CONTENT
  1
CELLCONTENT_BEGIN
 90
        1
300
VALUE
 93
        2
 90
        4
  1
WC0105 - CASSAFORMA Ø117X120 BRIGHT 3
 94
        0
300

302
WC0105 - CASSAFORMA Ø117X120 BRIGHT 3
304
ACVALUE_END
 91
        0
309
CELLCONTENT_END
  1
FORMATTEDCELLCONTENT_BEGIN
170
     1
300
CONTENTFORMAT
  1
CONTENTFORMAT_BEGIN
 90
      196
 91
        0
 92
      512
 93
        0
300

 40
0.0
140
1.0
 94
        1
 62
     0
340
208
144
2.0
309
CONTENTFORMAT_END
309
FORMATTEDCELLCONTENT_END
309
LINKEDTABLEDATACELL_END
  1
FORMATTEDTABLEDATACELL_BEGIN
300
CELLTABLEFORMAT
  1
TABLEFORMAT_BEGIN
 90
        1
170
     1
 91
       16
 92
        0
 62
   257
 93
        1
300
CONTENTFORMAT
  1
CONTENTFORMAT_BEGIN
 90
       16
 91
        0
 92
      512
 93
        0
300

 40
0.0
140
1.0
 94
        4
 62
     0
340
0
144
0.18
309
CONTENTFORMAT_END
171
     0
 94
        4
 95
        1
302
GRIDFORMAT
  1
GRIDFORMAT_BEGIN
 90
       26
 91
        1
 62
     0
 92
       -2
340
0
 93
        0
 40
0.045
309
GRIDFORMAT_END
 95
        4
302
GRIDFORMAT
  1
GRIDFORMAT_BEGIN
 90
       26
 91
        1
 62
     0
 92
       -2
340
0
 93
        0
 40
0.045
309
GRIDFORMAT_END
 95
        8
302
GRIDFORMAT
  1
GRIDFORMAT_BEGIN
 90
       26
 91
        1
 62
     0
 92
       -2
340
0
 93
        0
 40
0.045
309
GRIDFORMAT_END
 95
       32
302
GRIDFORMAT
  1
GRIDFORMAT_BEGIN
 90
       26
 91
        1
 62
     0
 92
       -2
340
0
 93
        0
 40
0.045
309
GRIDFORMAT_END
309
TABLEFORMAT_END
309
FORMATTEDTABLEDATACELL_END
  1
TABLECELL_BEGIN
 90
        0
 91
        0
309
TABLECELL_END
300
CELL
  1
LINKEDTABLEDATACELL_BEGIN
 90
        0
300

 91
        0
301
CUSTOMDATA
  1
DATAMAP_BEGIN
 90
        0
309
DATAMAP_END
 92
        0
 95
        0
309
LINKEDTABLEDATACELL_END
  1
FORMATTEDTABLEDATACELL_BEGIN
300
CELLTABLEFORMAT
  1
TABLEFORMAT_BEGIN
 90
        1
170
     1
 91
        0
 92
        0
 62
   257
 93
        1
300
CONTENTFORMAT
  1
CONTENTFORMAT_BEGIN
 90
        0
 91
        0
 92
      512
 93
        0
300

 40
0.0
140
1.0
 94
        1
 62
     0
340
0
144
0.18
309
CONTENTFORMAT_END
171
     0
 94
        0
309
TABLEFORMAT_END
309
FORMATTEDTABLEDATACELL_END
  1
TABLECELL_BEGIN
 90
        0
 91
        0
309
TABLECELL_END
 91
        0
301
CUSTOMDATA
  1
DATAMAP_BEGIN
 90
        0
309
DATAMAP_END
309
LINKEDTABLEDATAROW_END
  1
FORMATTEDTABLEDATAROW_BEGIN
300
ROWTABLEFORMAT
  1
TABLEFORMAT_BEGIN
 90
        2
170
     0
309
TABLEFORMAT_END
309
FORMATTEDTABLEDATAROW_END
  1
TABLEROW_BEGIN
 90
        3
 40
10.0
309
TABLEROW_END
301
ROW
  1
LINKEDTABLEDATAROW_BEGIN
 90
        5
300
CELL
  1
LINKEDTABLEDATACELL_BEGIN
 90
        0
300

 91
        0
301
CUSTOMDATA
  1
DATAMAP_BEGIN
 90
        0
309
DATAMAP_END
 92
        0
 95
        0
309
LINKEDTABLEDATACELL_END
  1
FORMATTEDTABLEDATACELL_BEGIN
300
CELLTABLEFORMAT
  1
TABLEFORMAT_BEGIN
 90
        1
170
     1
 91
        0
 92
        0
 62
   257
 93
        1
300
CONTENTFORMAT
  1
CONTENTFORMAT_BEGIN
 90
        0
 91
        0
 92
      512
 93
        0
300

 40
0.0
140
1.0
 94
        1
 62
     0
340
0
144
0.18
309
CONTENTFORMAT_END
171
     0
 94
        0
309
TABLEFORMAT_END
309
FORMATTEDTABLEDATACELL_END
  1
TABLECELL_BEGIN
 90
        0
 91
        0
309
TABLECELL_END
300
CELL
  1
LINKEDTABLEDATACELL_BEGIN
 90
        0
300

 91
        0
301
CUSTOMDATA
  1
DATAMAP_BEGIN
 90
        0
309
DATAMAP_END
 92
        0
 95
        0
309
LINKEDTABLEDATACELL_END
  1
FORMATTEDTABLEDATACELL_BEGIN
300
CELLTABLEFORMAT
  1
TABLEFORMAT_BEGIN
 90
        1
170
     1
 91
        0
 92
        0
 62
   257
 93
        1
300
CONTENTFORMAT
  1
CONTENTFORMAT_BEGIN
 90
        0
 91
        0
 92
      512
 93
        0
300

 40
0.0
140
1.0
 94
        1
 62
     0
340
0
144
0.18
309
CONTENTFORMAT_END
171
     0
 94
        0
309
TABLEFORMAT_END
309
FORMATTEDTABLEDATACELL_END
  1
TABLECELL_BEGIN
 90
        0
 91
        0
309
TABLECELL_END
300
CELL
  1
LINKEDTABLEDATACELL_BEGIN
 90
        0
300

 91
        0
301
CUSTOMDATA
  1
DATAMAP_BEGIN
 90
        0
309
DATAMAP_END
 92
        0
 95
        0
309
LINKEDTABLEDATACELL_END
  1
FORMATTEDTABLEDATACELL_BEGIN
300
CELLTABLEFORMAT
  1
TABLEFORMAT_BEGIN
 90
        1
170
     1
 91
        0
 92
        0
 62
   257
 93
        1
300
CONTENTFORMAT
  1
CONTENTFORMAT_BEGIN
 90
        0
 91
        0
 92
      512
 93
        0
300

 40
0.0
140
1.0
 94
        1
 62
     0
340
0
144
0.18
309
CONTENTFORMAT_END
171
     0
 94
        0
309
TABLEFORMAT_END
309
FORMATTEDTABLEDATACELL_END
  1
TABLECELL_BEGIN
 90
        0
 91
        0
309
TABLECELL_END
300
CELL
  1
LINKEDTABLEDATACELL_BEGIN
 90
        0
300

 91
        0
301
CUSTOMDATA
  1
DATAMAP_BEGIN
 90
        1
300
ACAD_ROUNDTRIP_2008_CELL_CHECKSUM
301
DATAMAP_VALUE
 93
        2
 90
        2
140
4855.0
 94
        0
300

302

304
ACVALUE_END
309
DATAMAP_END
 92
        0
 95
        1
302
CONTENT
  1
CELLCONTENT_BEGIN
 90
        1
300
VALUE
 93
        2
 90
        4
  1
DATE:24.06.19
 94
        0
300

302
DATE:24.06.19
304
ACVALUE_END
 91
        0
309
CELLCONTENT_END
  1
FORMATTEDCELLCONTENT_BEGIN
170
     1
300
CONTENTFORMAT
  1
CONTENTFORMAT_BEGIN
 90
      196
 91
        0
 92
      512
 93
        0
300

 40
0.0
140
1.0
 94
        1
 62
     0
340
208
144
2.5
309
CONTENTFORMAT_END
309
FORMATTEDCELLCONTENT_END
309
LINKEDTABLEDATACELL_END
  1
FORMATTEDTABLEDATACELL_BEGIN
300
CELLTABLEFORMAT
  1
TABLEFORMAT_BEGIN
 90
        1
170
     1
 91
       16
 92
        0
 62
   257
 93
        1
300
CONTENTFORMAT
  1
CONTENTFORMAT_BEGIN
 90
       16
 91
        0
 92
      512
 93
        0
300

 40
0.0
140
1.0
 94
        4
 62
     0
340
0
144
0.18
309
CONTENTFORMAT_END
171
     0
 94
        4
 95
        1
302
GRIDFORMAT
  1
GRIDFORMAT_BEGIN
 90
       26
 91
        1
 62
     0
 92
       -2
340
0
 93
        0
 40
0.045
309
GRIDFORMAT_END
 95
        4
302
GRIDFORMAT
  1
GRIDFORMAT_BEGIN
 90
       26
 91
        1
 62
     0
 92
       -2
340
0
 93
        0
 40
0.045
309
GRIDFORMAT_END
 95
        8
302
GRIDFORMAT
  1
GRIDFORMAT_BEGIN
 90
       26
 91
        1
 62
     0
 92
       -2
340
0
 93
        0
 40
0.045
309
GRIDFORMAT_END
 95
       32
302
GRIDFORMAT
  1
GRIDFORMAT_BEGIN
 90
       26
 91
        1
 62
     0
 92
       -2
340
0
 93
        0
 40
0.045
309
GRIDFORMAT_END
309
TABLEFORMAT_END
309
FORMATTEDTABLEDATACELL_END
  1
TABLECELL_BEGIN
 90
        0
 91
        0
309
TABLECELL_END
300
CELL
  1
LINKEDTABLEDATACELL_BEGIN
 90
        0
300

 91
        0
301
CUSTOMDATA
  1
DATAMAP_BEGIN
 90
        0
309
DATAMAP_END
 92
        0
 95
        0
309
LINKEDTABLEDATACELL_END
  1
FORMATTEDTABLEDATACELL_BEGIN
300
CELLTABLEFORMAT
  1
TABLEFORMAT_BEGIN
 90
        1
170
     1
 91
        0
 92
        0
 62
   257
 93
        1
300
CONTENTFORMAT
  1
CONTENTFORMAT_BEGIN
 90
        0
 91
        0
 92
      512
 93
        0
300

 40
0.0
140
1.0
 94
        1
 62
     0
340
0
144
0.18
309
CONTENTFORMAT_END
171
     0
 94
        0
309
TABLEFORMAT_END
309
FORMATTEDTABLEDATACELL_END
  1
TABLECELL_BEGIN
 90
        0
 91
        0
309
TABLECELL_END
 91
        0
301
CUSTOMDATA
  1
DATAMAP_BEGIN
 90
        0
309
DATAMAP_END
309
LINKEDTABLEDATAROW_END
  1
FORMATTEDTABLEDATAROW_BEGIN
300
ROWTABLEFORMAT
  1
TABLEFORMAT_BEGIN
 90
        2
170
     0
309
TABLEFORMAT_END
309
FORMATTEDTABLEDATAROW_END
  1
TABLEROW_BEGIN
 90
        3
 40
5.0
309
TABLEROW_END
301
ROW
  1
LINKEDTABLEDATAROW_BEGIN
 90
        5
300
CELL
  1
LINKEDTABLEDATACELL_BEGIN
 90
        0
300

 91
        0
301
CUSTOMDATA
  1
DATAMAP_BEGIN
 90
        1
300
ACAD_ROUNDTRIP_2008_CELL_CHECKSUM
301
DATAMAP_VALUE
 93
        2
 90
        2
140
1878387.0
 94
        0
300

302

304
ACVALUE_END
309
DATAMAP_END
 92
        0
 95
        1
302
CONTENT
  1
CELLCONTENT_BEGIN
 90
        1
300
VALUE
 93
        2
 90
        4
  1
Any integral or partial reproductions are prohibited \Pwithout prior authorisation of L {\Ftxt.shx;\W0.190476;\H2.250000; }& L Luce & Light s.r.l., \Pin accordance with the law in force. \PAll rights reserved.
 94
        0
300

302
Any integral or partial reproductions are prohibited \Pwithout prior authorisation of L {\Ftxt.shx;\W0.190476;\H2.250000; }& L Luce & Light s.r.l., \Pin accordance with the law in force. \PAll rights reserved.
304
ACVALUE_END
 91
        0
309
CELLCONTENT_END
  1
FORMATTEDCELLCONTENT_BEGIN
170
     1
300
CONTENTFORMAT
  1
CONTENTFORMAT_BEGIN
 90
      196
 91
        0
 92
      512
 93
        0
300

 40
0.0
140
1.0
 94
        1
 62
     0
340
208
144
2.25
309
CONTENTFORMAT_END
309
FORMATTEDCELLCONTENT_END
309
LINKEDTABLEDATACELL_END
  1
FORMATTEDTABLEDATACELL_BEGIN
300
CELLTABLEFORMAT
  1
TABLEFORMAT_BEGIN
 90
        1
170
     1
 91
       16
 92
        0
 62
   257
 93
        1
300
CONTENTFORMAT
  1
CONTENTFORMAT_BEGIN
 90
       16
 91
        0
 92
      512
 93
        0
300

 40
0.0
140
1.0
 94
        4
 62
     0
340
0
144
0.18
309
CONTENTFORMAT_END
171
     0
 94
        4
 95
        1
302
GRIDFORMAT
  1
GRIDFORMAT_BEGIN
 90
       26
 91
        1
 62
     0
 92
       -2
340
0
 93
        0
 40
0.045
309
GRIDFORMAT_END
 95
        4
302
GRIDFORMAT
  1
GRIDFORMAT_BEGIN
 90
       26
 91
        1
 62
     0
 92
       -2
340
0
 93
        0
 40
0.045
309
GRIDFORMAT_END
 95
        8
302
GRIDFORMAT
  1
GRIDFORMAT_BEGIN
 90
       26
 91
        1
 62
     0
 92
       -2
340
0
 93
        0
 40
0.045
309
GRIDFORMAT_END
 95
       32
302
GRIDFORMAT
  1
GRIDFORMAT_BEGIN
 90
       26
 91
        1
 62
     0
 92
       -2
340
0
 93
        0
 40
0.045
309
GRIDFORMAT_END
309
TABLEFORMAT_END
309
FORMATTEDTABLEDATACELL_END
  1
TABLECELL_BEGIN
 90
        0
 91
        0
309
TABLECELL_END
300
CELL
  1
LINKEDTABLEDATACELL_BEGIN
 90
        0
300

 91
        0
301
CUSTOMDATA
  1
DATAMAP_BEGIN
 90
        0
309
DATAMAP_END
 92
        0
 95
        0
309
LINKEDTABLEDATACELL_END
  1
FORMATTEDTABLEDATACELL_BEGIN
300
CELLTABLEFORMAT
  1
TABLEFORMAT_BEGIN
 90
        1
170
     1
 91
        0
 92
        0
 62
   257
 93
        1
300
CONTENTFORMAT
  1
CONTENTFORMAT_BEGIN
 90
        0
 91
        0
 92
      512
 93
        0
300

 40
0.0
140
1.0
 94
        1
 62
     0
340
0
144
0.18
309
CONTENTFORMAT_END
171
     0
 94
        0
309
TABLEFORMAT_END
309
FORMATTEDTABLEDATACELL_END
  1
TABLECELL_BEGIN
 90
        0
 91
        0
309
TABLECELL_END
300
CELL
  1
LINKEDTABLEDATACELL_BEGIN
 90
        0
300

 91
        0
301
CUSTOMDATA
  1
DATAMAP_BEGIN
 90
        0
309
DATAMAP_END
 92
        0
 95
        0
309
LINKEDTABLEDATACELL_END
  1
FORMATTEDTABLEDATACELL_BEGIN
300
CELLTABLEFORMAT
  1
TABLEFORMAT_BEGIN
 90
        1
170
     1
 91
        0
 92
        0
 62
   257
 93
        1
300
CONTENTFORMAT
  1
CONTENTFORMAT_BEGIN
 90
        0
 91
        0
 92
      512
 93
        0
300

 40
0.0
140
1.0
 94
        1
 62
     0
340
0
144
0.18
309
CONTENTFORMAT_END
171
     0
 94
        0
309
TABLEFORMAT_END
309
FORMATTEDTABLEDATACELL_END
  1
TABLECELL_BEGIN
 90
        0
 91
        0
309
TABLECELL_END
300
CELL
  1
LINKEDTABLEDATACELL_BEGIN
 90
        0
300

 91
        0
301
CUSTOMDATA
  1
DATAMAP_BEGIN
 90
        0
309
DATAMAP_END
 92
        0
 95
        0
309
LINKEDTABLEDATACELL_END
  1
FORMATTEDTABLEDATACELL_BEGIN
300
CELLTABLEFORMAT
  1
TABLEFORMAT_BEGIN
 90
        1
170
     1
 91
        0
 92
        0
 62
   257
 93
        1
300
CONTENTFORMAT
  1
CONTENTFORMAT_BEGIN
 90
        0
 91
        0
 92
      512
 93
        0
300

 40
0.0
140
1.0
 94
        1
 62
     0
340
0
144
0.18
309
CONTENTFORMAT_END
171
     0
 94
        0
309
TABLEFORMAT_END
309
FORMATTEDTABLEDATACELL_END
  1
TABLECELL_BEGIN
 90
        0
 91
        0
309
TABLECELL_END
300
CELL
  1
LINKEDTABLEDATACELL_BEGIN
 90
        0
300

 91
        0
301
CUSTOMDATA
  1
DATAMAP_BEGIN
 90
        0
309
DATAMAP_END
 92
        0
 95
        0
309
LINKEDTABLEDATACELL_END
  1
FORMATTEDTABLEDATACELL_BEGIN
300
CELLTABLEFORMAT
  1
TABLEFORMAT_BEGIN
 90
        1
170
     1
 91
        0
 92
        0
 62
   257
 93
        1
300
CONTENTFORMAT
  1
CONTENTFORMAT_BEGIN
 90
        0
 91
        0
 92
      512
 93
        0
300

 40
0.0
140
1.0
 94
        1
 62
     0
340
0
144
0.18
309
CONTENTFORMAT_END
171
     0
 94
        0
309
TABLEFORMAT_END
309
FORMATTEDTABLEDATACELL_END
  1
TABLECELL_BEGIN
 90
        0
 91
        0
309
TABLECELL_END
 91
        0
301
CUSTOMDATA
  1
DATAMAP_BEGIN
 90
        0
309
DATAMAP_END
309
LINKEDTABLEDATAROW_END
  1
FORMATTEDTABLEDATAROW_BEGIN
300
ROWTABLEFORMAT
  1
TABLEFORMAT_BEGIN
 90
        2
170
     0
309
TABLEFORMAT_END
309
FORMATTEDTABLEDATAROW_END
  1
TABLEROW_BEGIN
 90
        3
 40
13.0
309
TABLEROW_END
100
AcDbFormattedTableData
300
TABLEFORMAT
  1
TABLEFORMAT_BEGIN
 90
        4
170
     1
 91
    15360
 92
        0
 62
   257
 93
        1
300
CONTENTFORMAT
  1
CONTENTFORMAT_BEGIN
 90
        0
 91
        0
 92
      512
 93
        0
300

 40
0.0
140
1.0
 94
        1
 62
     0
340
0
144
0.18
309
CONTENTFORMAT_END
171
     1
301
MARGIN
  1
CELLMARGIN_BEGIN
 40
0.06
 40
0.06
 40
0.06
 40
0.06
 40
0.06
 40
0.06
309
CELLMARGIN_END
 94
        0
309
TABLEFORMAT_END
 90
        4
 91
        0
 92
        0
 93
        3
 94
        2
 91
        2
 92
        3
 93
        2
 94
        4
 91
        3
 92
        3
 93
        3
 94
        4
 91
        4
 92
        0
 93
        4
 94
        4
100
AcDbTableContent
340
491
  0
TABLEGEOMETRY
  5
4BE
330
4C0
100
AcDbTableGeometry
 90
        5
 91
        5
 92
       25
 93
        0
 40
0.0
 41
0.0
330
0
 94
        0
 93
        0
 40
0.0
 41
0.0
330
0
 94
        0
 93
        0
 40
0.0
 41
0.0
330
0
 94
        0
 93
        0
 40
0.0
 41
0.0
330
0
 94
        0
 93
        0
 40
0.0
 41
0.0
330
0
 94
        0
 93
        0
 40
0.0
 41
0.0
330
0
 94
        0
 93
        0
 40
0.0
 41
0.0
330
0
 94
        0
 93
        0
 40
0.0
 41
0.0
330
0
 94
        0
 93
        0
 40
0.0
 41
0.0
330
0
 94
        0
 93
        0
 40
0.0
 41
0.0
330
0
 94
        0
 93
        0
 40
0.0
 41
0.0
330
0
 94
        0
 93
        0
 40
0.0
 41
0.0
330
0
 94
        0
 93
        0
 40
0.0
 41
0.0
330
0
 94
        0
 93
        0
 40
0.0
 41
0.0
330
0
 94
        0
 93
        0
 40
0.0
 41
0.0
330
0
 94
        0
 93
        0
 40
0.0
 41
0.0
330
0
 94
        0
 93
        0
 40
0.0
 41
0.0
330
0
 94
        0
 93
        0
 40
0.0
 41
0.0
330
0
 94
        0
 93
        0
 40
0.0
 41
0.0
330
0
 94
        0
 93
        0
 40
0.0
 41
0.0
330
0
 94
        0
 93
        0
 40
0.0
 41
0.0
330
0
 94
        0
 93
        0
 40
0.0
 41
0.0
330
0
 94
        0
 93
        0
 40
0.0
 41
0.0
330
0
 94
        0
 93
        0
 40
0.0
 41
0.0
330
0
 94
        0
 93
        0
 40
0.0
 41
0.0
330
0
 94
        0
  0
DICTIONARY
  5
4C3
330
491
100
AcDbDictionary
280
     1
281
     1
  3
ACAD_ROUNDTRIP_2008_TABLESTYLE_CELLSTYLEMAP
360
4C4
  0
DICTIONARY
  5
4CD
330
498
100
AcDbDictionary
280
     1
281
     1
  3
ACAD_XREC_ROUNDTRIP
360
4CE
  0
DICTIONARY
  5
4D3
330
49B
100
AcDbDictionary
280
     1
281
     1
  3
ACAD_XREC_ROUNDTRIP
360
4D4
  0
DICTIONARY
  5
4DB
330
49F
100
AcDbDictionary
280
     1
281
     1
  3
ACAD_XREC_ROUNDTRIP
360
4DC
  0
DICTIONARY
  5
4E3
330
4A3
100
AcDbDictionary
280
     1
281
     1
  3
ACAD_XREC_ROUNDTRIP
360
4E4
  0
DICTIONARY
  5
4D7
330
49D
100
AcDbDictionary
280
     1
281
     1
  3
ACAD_XREC_ROUNDTRIP
360
4D8
  0
DICTIONARY
  5
4D9
330
49E
100
AcDbDictionary
280
     1
281
     1
  3
ACAD_XREC_ROUNDTRIP
360
4DA
  0
DICTIONARY
  5
4E9
330
4A6
100
AcDbDictionary
280
     1
281
     1
  3
ACAD_XREC_ROUNDTRIP
360
4EA
  0
DICTIONARY
  5
4E1
330
4A2
100
AcDbDictionary
280
     1
281
     1
  3
ACAD_XREC_ROUNDTRIP
360
4E2
  0
DICTIONARY
  5
4C5
330
494
100
AcDbDictionary
280
     1
281
     1
  3
ACAD_XREC_ROUNDTRIP
360
4C6
  0
DICTIONARY
  5
4C7
330
495
100
AcDbDictionary
280
     1
281
     1
  3
ACAD_XREC_ROUNDTRIP
360
4C8
  0
DICTIONARY
  5
4C9
330
496
100
AcDbDictionary
280
     1
281
     1
  3
ACAD_XREC_ROUNDTRIP
360
4CA
  0
DICTIONARY
  5
4CB
330
497
100
AcDbDictionary
280
     1
281
     1
  3
ACAD_XREC_ROUNDTRIP
360
4CC
  0
DICTIONARY
  5
4D1
330
49A
100
AcDbDictionary
280
     1
281
     1
  3
ACAD_XREC_ROUNDTRIP
360
4D2
  0
DICTIONARY
  5
4E5
330
4A4
100
AcDbDictionary
280
     1
281
     1
  3
ACAD_XREC_ROUNDTRIP
360
4E6
  0
DICTIONARY
  5
4DF
330
4A1
100
AcDbDictionary
280
     1
281
     1
  3
ACAD_XREC_ROUNDTRIP
360
4E0
  0
DICTIONARY
  5
4E7
330
4A5
100
AcDbDictionary
280
     1
281
     1
  3
ACAD_XREC_ROUNDTRIP
360
4E8
  0
DICTIONARY
  5
4D5
330
49C
100
AcDbDictionary
280
     1
281
     1
  3
ACAD_XREC_ROUNDTRIP
360
4D6
  0
DICTIONARY
  5
4F3
330
4AB
100
AcDbDictionary
280
     1
281
     1
  3
ACAD_XREC_ROUNDTRIP
360
4F4
  0
DICTIONARY
  5
4F1
330
4AA
100
AcDbDictionary
280
     1
281
     1
  3
ACAD_XREC_ROUNDTRIP
360
4F2
  0
DICTIONARY
  5
4EB
330
4A7
100
AcDbDictionary
280
     1
281
     1
  3
ACAD_XREC_ROUNDTRIP
360
4EC
  0
DICTIONARY
  5
4ED
330
4A8
100
AcDbDictionary
280
     1
281
     1
  3
ACAD_XREC_ROUNDTRIP
360
4EE
  0
DICTIONARY
  5
4DD
330
4A0
100
AcDbDictionary
280
     1
281
     1
  3
ACAD_XREC_ROUNDTRIP
360
4DE
  0
DICTIONARY
  5
4CF
330
499
100
AcDbDictionary
280
     1
281
     1
  3
ACAD_XREC_ROUNDTRIP
360
4D0
  0
DICTIONARY
  5
4EF
330
4A9
100
AcDbDictionary
280
     1
281
     1
  3
ACAD_XREC_ROUNDTRIP
360
4F0
  0
CELLSTYLEMAP
  5
4C4
102
{ACAD_REACTORS
330
4C3
102
}
330
4C3
100
AcDbCellStyleMap
 90
        3
300
CELLSTYLE
  1
TABLEFORMAT_BEGIN
 90
        5
170
     1
 91
        0
 92
        0
 62
   257
 93
        1
300
CONTENTFORMAT
  1
CONTENTFORMAT_BEGIN
 90
        0
 91
        0
 92
        4
 93
        0
300

 40
0.0
140
1.0
 94
        5
 62
     0
340
11
144
6.0
309
CONTENTFORMAT_END
171
     1
301
MARGIN
  1
CELLMARGIN_BEGIN
 40
1.5
 40
1.5
 40
1.5
 40
1.5
 40
1.5
 40
1.5
309
CELLMARGIN_END
 94
        6
 95
        1
302
GRIDFORMAT
  1
GRIDFORMAT_BEGIN
 90
        0
 91
        1
 62
     0
 92
       -2
340
14
 93
        0
 40
0.045
309
GRIDFORMAT_END
 95
        2
302
GRIDFORMAT
  1
GRIDFORMAT_BEGIN
 90
        0
 91
        1
 62
     0
 92
       -2
340
14
 93
        0
 40
0.045
309
GRIDFORMAT_END
 95
        4
302
GRIDFORMAT
  1
GRIDFORMAT_BEGIN
 90
        0
 91
        1
 62
     0
 92
       -2
340
14
 93
        0
 40
0.045
309
GRIDFORMAT_END
 95
        8
302
GRIDFORMAT
  1
GRIDFORMAT_BEGIN
 90
        0
 91
        1
 62
     0
 92
       -2
340
14
 93
        0
 40
0.045
309
GRIDFORMAT_END
 95
       16
302
GRIDFORMAT
  1
GRIDFORMAT_BEGIN
 90
        0
 91
        1
 62
     0
 92
       -2
340
14
 93
        0
 40
0.045
309
GRIDFORMAT_END
 95
       32
302
GRIDFORMAT
  1
GRIDFORMAT_BEGIN
 90
        0
 91
        1
 62
     0
 92
       -2
340
14
 93
        0
 40
0.045
309
GRIDFORMAT_END
309
TABLEFORMAT_END
  1
CELLSTYLE_BEGIN
 90
        1
 91
        1
300
_TITLE
309
CELLSTYLE_END
300
CELLSTYLE
  1
TABLEFORMAT_BEGIN
 90
        5
170
     1
 91
        0
 92
        0
 62
   257
 93
        1
300
CONTENTFORMAT
  1
CONTENTFORMAT_BEGIN
 90
        0
 91
        0
 92
        4
 93
        0
300

 40
0.0
140
1.0
 94
        5
 62
     0
340
11
144
4.5
309
CONTENTFORMAT_END
171
     1
301
MARGIN
  1
CELLMARGIN_BEGIN
 40
1.5
 40
1.5
 40
1.5
 40
1.5
 40
1.5
 40
1.5
309
CELLMARGIN_END
 94
        6
 95
        1
302
GRIDFORMAT
  1
GRIDFORMAT_BEGIN
 90
        0
 91
        1
 62
     0
 92
       -2
340
14
 93
        0
 40
0.045
309
GRIDFORMAT_END
 95
        2
302
GRIDFORMAT
  1
GRIDFORMAT_BEGIN
 90
        0
 91
        1
 62
     0
 92
       -2
340
14
 93
        0
 40
0.045
309
GRIDFORMAT_END
 95
        4
302
GRIDFORMAT
  1
GRIDFORMAT_BEGIN
 90
        0
 91
        1
 62
     0
 92
       -2
340
14
 93
        0
 40
0.045
309
GRIDFORMAT_END
 95
        8
302
GRIDFORMAT
  1
GRIDFORMAT_BEGIN
 90
        0
 91
        1
 62
     0
 92
       -2
340
14
 93
        0
 40
0.045
309
GRIDFORMAT_END
 95
       16
302
GRIDFORMAT
  1
GRIDFORMAT_BEGIN
 90
        0
 91
        1
 62
     0
 92
       -2
340
14
 93
        0
 40
0.045
309
GRIDFORMAT_END
 95
       32
302
GRIDFORMAT
  1
GRIDFORMAT_BEGIN
 90
        0
 91
        1
 62
     0
 92
       -2
340
14
 93
        0
 40
0.045
309
GRIDFORMAT_END
309
TABLEFORMAT_END
  1
CELLSTYLE_BEGIN
 90
        2
 91
        1
300
_HEADER
309
CELLSTYLE_END
300
CELLSTYLE
  1
TABLEFORMAT_BEGIN
 90
        5
170
     1
 91
        0
 92
        0
 62
   257
 93
        1
300
CONTENTFORMAT
  1
CONTENTFORMAT_BEGIN
 90
        0
 91
        0
 92
        4
 93
        0
300

 40
0.0
140
1.0
 94
        2
 62
     0
340
11
144
4.5
309
CONTENTFORMAT_END
171
     1
301
MARGIN
  1
CELLMARGIN_BEGIN
 40
1.5
 40
1.5
 40
1.5
 40
1.5
 40
1.5
 40
1.5
309
CELLMARGIN_END
 94
        6
 95
        1
302
GRIDFORMAT
  1
GRIDFORMAT_BEGIN
 90
        0
 91
        1
 62
     0
 92
       -2
340
14
 93
        0
 40
0.045
309
GRIDFORMAT_END
 95
        2
302
GRIDFORMAT
  1
GRIDFORMAT_BEGIN
 90
        0
 91
        1
 62
     0
 92
       -2
340
14
 93
        0
 40
0.045
309
GRIDFORMAT_END
 95
        4
302
GRIDFORMAT
  1
GRIDFORMAT_BEGIN
 90
        0
 91
        1
 62
     0
 92
       -2
340
14
 93
        0
 40
0.045
309
GRIDFORMAT_END
 95
        8
302
GRIDFORMAT
  1
GRIDFORMAT_BEGIN
 90
        0
 91
        1
 62
     0
 92
       -2
340
14
 93
        0
 40
0.045
309
GRIDFORMAT_END
 95
       16
302
GRIDFORMAT
  1
GRIDFORMAT_BEGIN
 90
        0
 91
        1
 62
     0
 92
       -2
340
14
 93
        0
 40
0.045
309
GRIDFORMAT_END
 95
       32
302
GRIDFORMAT
  1
GRIDFORMAT_BEGIN
 90
        0
 91
        1
 62
     0
 92
       -2
340
14
 93
        0
 40
0.045
309
GRIDFORMAT_END
309
TABLEFORMAT_END
  1
CELLSTYLE_BEGIN
 90
        3
 91
        2
300
_DATA
309
CELLSTYLE_END
  0
XRECORD
  5
4CE
102
{ACAD_REACTORS
330
4CD
102
}
330
4CD
100
AcDbXrecord
280
     1
102
RTVSPost2010Prop28
280
     1
102
RTVSPost2010PropOp28
 70
     1
102
RTVSPost2010Prop29
280
     1
102
RTVSPost2010PropOp29
 70
     1
102
RTVSPost2010Prop30
280
     0
102
RTVSPost2010PropOp30
 70
     1
102
RTVSPost2010Prop31
280
     0
102
RTVSPost2010PropOp31
 70
     1
102
RTVSPost2010Prop32
280
     0
102
RTVSPost2010PropOp32
 70
     1
102
RTVSPost2010Prop33
280
     0
102
RTVSPost2010PropOp33
 70
     1
102
RTVSPost2010Prop34
280
     0
102
RTVSPost2010PropOp34
 70
     1
102
RTVSPost2010Prop35
280
     0
102
RTVSPost2010PropOp35
 70
     1
102
RTVSPost2010Prop36
280
     0
102
RTVSPost2010PropOp36
 70
     1
102
RTVSPost2010Prop37
 90
       50
102
RTVSPost2010PropOp37
 70
     1
102
RTVSPost2010Prop38
140
0.0
102
RTVSPost2010PropOp38
 70
     1
102
RTVSPost2010Prop39
140
1.0
102
RTVSPost2010PropOp39
 70
     1
102
RTVSPost2010Prop40
 90
        0
102
RTVSPost2010PropOp40
 70
     1
102
RTVSPost2010Prop41ColorIndex
 90
       18
102
RTVSPost2010Prop41ColorRGB
 90
        0
102
RTVSPost2010PropOp41
 70
     1
102
RTVSPost2010Prop42
 90
       50
102
RTVSPost2010PropOp42
 70
     1
102
RTVSPost2010Prop43
 90
        3
102
RTVSPost2010PropOp43
 70
     1
102
RTVSPost2010Prop44ColorIndex
 90
        5
102
RTVSPost2010Prop44ColorRGB
 90
      255
102
RTVSPost2010PropOp44
 70
     1
102
RTVSPost2010Prop45
280
     0
102
RTVSPost2010PropOp45
 70
     1
102
RTVSPost2010Prop46
 90
       50
102
RTVSPost2010PropOp46
 70
     1
102
RTVSPost2010Prop47
 90
       50
102
RTVSPost2010PropOp47
 70
     1
102
RTVSPost2010Prop48
 90
       50
102
RTVSPost2010PropOp48
 70
     1
102
RTVSPost2010Prop49
280
     0
102
RTVSPost2010PropOp49
 70
     1
102
RTVSPost2010Prop50
 90
       50
102
RTVSPost2010PropOp50
 70
     1
102
RTVSPost2010Prop51ColorIndex
 90
      256
102
RTVSPost2010Prop51ColorRGB
 90
-16777216
102
RTVSPost2010PropOp51
 70
     0
102
RTVSPost2010Prop52
140
1.0
102
RTVSPost2010PropOp52
 70
     0
102
RTVSPost2010Prop53
 90
        2
102
RTVSPost2010PropOp53
 70
     1
102
RTVSPost2010Prop54
  1
strokes_ogs.tif
102
RTVSPost2010PropOp54
 70
     1
102
RTVSPost2010Prop55
280
     0
102
RTVSPost2010PropOp55
 70
     1
102
RTVSPost2010Prop56
140
1.0
102
RTVSPost2010PropOp56
 70
     1
102
RTVSPost2010Prop57
140
1.0
102
RTVSPost2010PropOp57
 70
     1
  0
XRECORD
  5
4D4
102
{ACAD_REACTORS
330
4D3
102
}
330
4D3
100
AcDbXrecord
280
     1
102
RTVSPost2010Prop28
280
     0
102
RTVSPost2010PropOp28
 70
     1
102
RTVSPost2010Prop29
280
     1
102
RTVSPost2010PropOp29
 70
     1
102
RTVSPost2010Prop30
280
     1
102
RTVSPost2010PropOp30
 70
     1
102
RTVSPost2010Prop31
280
     0
102
RTVSPost2010PropOp31
 70
     1
102
RTVSPost2010Prop32
280
     0
102
RTVSPost2010PropOp32
 70
     1
102
RTVSPost2010Prop33
280
     0
102
RTVSPost2010PropOp33
 70
     1
102
RTVSPost2010Prop34
280
     0
102
RTVSPost2010PropOp34
 70
     1
102
RTVSPost2010Prop35
280
     0
102
RTVSPost2010PropOp35
 70
     1
102
RTVSPost2010Prop36
280
     0
102
RTVSPost2010PropOp36
 70
     1
102
RTVSPost2010Prop37
 90
       50
102
RTVSPost2010PropOp37
 70
     1
102
RTVSPost2010Prop38
140
0.0
102
RTVSPost2010PropOp38
 70
     1
102
RTVSPost2010Prop39
140
1.0
102
RTVSPost2010PropOp39
 70
     1
102
RTVSPost2010Prop40
 90
        0
102
RTVSPost2010PropOp40
 70
     1
102
RTVSPost2010Prop41ColorIndex
 90
       18
102
RTVSPost2010Prop41ColorRGB
 90
        0
102
RTVSPost2010PropOp41
 70
     1
102
RTVSPost2010Prop42
 90
       50
102
RTVSPost2010PropOp42
 70
     1
102
RTVSPost2010Prop43
 90
        3
102
RTVSPost2010PropOp43
 70
     1
102
RTVSPost2010Prop44ColorIndex
 90
        5
102
RTVSPost2010Prop44ColorRGB
 90
      255
102
RTVSPost2010PropOp44
 70
     1
102
RTVSPost2010Prop45
280
     0
102
RTVSPost2010PropOp45
 70
     1
102
RTVSPost2010Prop46
 90
       50
102
RTVSPost2010PropOp46
 70
     1
102
RTVSPost2010Prop47
 90
       50
102
RTVSPost2010PropOp47
 70
     1
102
RTVSPost2010Prop48
 90
       50
102
RTVSPost2010PropOp48
 70
     1
102
RTVSPost2010Prop49
280
     0
102
RTVSPost2010PropOp49
 70
     1
102
RTVSPost2010Prop50
 90
       50
102
RTVSPost2010PropOp50
 70
     1
102
RTVSPost2010Prop51ColorIndex
 90
      256
102
RTVSPost2010Prop51ColorRGB
 90
-16777216
102
RTVSPost2010PropOp51
 70
     0
102
RTVSPost2010Prop52
140
1.0
102
RTVSPost2010PropOp52
 70
     0
102
RTVSPost2010Prop53
 90
        2
102
RTVSPost2010PropOp53
 70
     1
102
RTVSPost2010Prop54
  1
strokes_ogs.tif
102
RTVSPost2010PropOp54
 70
     1
102
RTVSPost2010Prop55
280
     0
102
RTVSPost2010PropOp55
 70
     1
102
RTVSPost2010Prop56
140
1.0
102
RTVSPost2010PropOp56
 70
     1
102
RTVSPost2010Prop57
140
1.0
102
RTVSPost2010PropOp57
 70
     1
  0
XRECORD
  5
4DC
102
{ACAD_REACTORS
330
4DB
102
}
330
4DB
100
AcDbXrecord
280
     1
102
RTVSPost2010Prop28
280
     0
102
RTVSPost2010PropOp28
 70
     1
102
RTVSPost2010Prop29
280
     1
102
RTVSPost2010PropOp29
 70
     1
102
RTVSPost2010Prop30
280
     1
102
RTVSPost2010PropOp30
 70
     1
102
RTVSPost2010Prop31
280
     0
102
RTVSPost2010PropOp31
 70
     1
102
RTVSPost2010Prop32
280
     0
102
RTVSPost2010PropOp32
 70
     1
102
RTVSPost2010Prop33
280
     0
102
RTVSPost2010PropOp33
 70
     1
102
RTVSPost2010Prop34
280
     0
102
RTVSPost2010PropOp34
 70
     1
102
RTVSPost2010Prop35
280
     0
102
RTVSPost2010PropOp35
 70
     1
102
RTVSPost2010Prop36
280
     0
102
RTVSPost2010PropOp36
 70
     1
102
RTVSPost2010Prop37
 90
       50
102
RTVSPost2010PropOp37
 70
     1
102
RTVSPost2010Prop38
140
0.0
102
RTVSPost2010PropOp38
 70
     1
102
RTVSPost2010Prop39
140
1.0
102
RTVSPost2010PropOp39
 70
     1
102
RTVSPost2010Prop40
 90
        0
102
RTVSPost2010PropOp40
 70
     1
102
RTVSPost2010Prop41ColorIndex
 90
       18
102
RTVSPost2010Prop41ColorRGB
 90
        0
102
RTVSPost2010PropOp41
 70
     1
102
RTVSPost2010Prop42
 90
       50
102
RTVSPost2010PropOp42
 70
     1
102
RTVSPost2010Prop43
 90
        3
102
RTVSPost2010PropOp43
 70
     1
102
RTVSPost2010Prop44ColorIndex
 90
        5
102
RTVSPost2010Prop44ColorRGB
 90
      255
102
RTVSPost2010PropOp44
 70
     1
102
RTVSPost2010Prop45
280
     0
102
RTVSPost2010PropOp45
 70
     1
102
RTVSPost2010Prop46
 90
       50
102
RTVSPost2010PropOp46
 70
     1
102
RTVSPost2010Prop47
 90
       50
102
RTVSPost2010PropOp47
 70
     1
102
RTVSPost2010Prop48
 90
       50
102
RTVSPost2010PropOp48
 70
     1
102
RTVSPost2010Prop49
280
     0
102
RTVSPost2010PropOp49
 70
     1
102
RTVSPost2010Prop50
 90
       50
102
RTVSPost2010PropOp50
 70
     1
102
RTVSPost2010Prop51ColorIndex
 90
      256
102
RTVSPost2010Prop51ColorRGB
 90
-16777216
102
RTVSPost2010PropOp51
 70
     0
102
RTVSPost2010Prop52
140
1.0
102
RTVSPost2010PropOp52
 70
     0
102
RTVSPost2010Prop53
 90
        2
102
RTVSPost2010PropOp53
 70
     1
102
RTVSPost2010Prop54
  1
strokes_ogs.tif
102
RTVSPost2010PropOp54
 70
     1
102
RTVSPost2010Prop55
280
     0
102
RTVSPost2010PropOp55
 70
     1
102
RTVSPost2010Prop56
140
1.0
102
RTVSPost2010PropOp56
 70
     1
102
RTVSPost2010Prop57
140
1.0
102
RTVSPost2010PropOp57
 70
     1
  0
XRECORD
  5
4E4
102
{ACAD_REACTORS
330
4E3
102
}
330
4E3
100
AcDbXrecord
280
     1
102
RTVSPost2010Prop28
280
     0
102
RTVSPost2010PropOp28
 70
     1
102
RTVSPost2010Prop29
280
     1
102
RTVSPost2010PropOp29
 70
     1
102
RTVSPost2010Prop30
280
     1
102
RTVSPost2010PropOp30
 70
     1
102
RTVSPost2010Prop31
280
     0
102
RTVSPost2010PropOp31
 70
     1
102
RTVSPost2010Prop32
280
     0
102
RTVSPost2010PropOp32
 70
     1
102
RTVSPost2010Prop33
280
     0
102
RTVSPost2010PropOp33
 70
     1
102
RTVSPost2010Prop34
280
     0
102
RTVSPost2010PropOp34
 70
     1
102
RTVSPost2010Prop35
280
     0
102
RTVSPost2010PropOp35
 70
     1
102
RTVSPost2010Prop36
280
     0
102
RTVSPost2010PropOp36
 70
     1
102
RTVSPost2010Prop37
 90
       50
102
RTVSPost2010PropOp37
 70
     1
102
RTVSPost2010Prop38
140
0.0
102
RTVSPost2010PropOp38
 70
     1
102
RTVSPost2010Prop39
140
1.0
102
RTVSPost2010PropOp39
 70
     1
102
RTVSPost2010Prop40
 90
        0
102
RTVSPost2010PropOp40
 70
     1
102
RTVSPost2010Prop41ColorIndex
 90
       18
102
RTVSPost2010Prop41ColorRGB
 90
        0
102
RTVSPost2010PropOp41
 70
     1
102
RTVSPost2010Prop42
 90
       50
102
RTVSPost2010PropOp42
 70
     1
102
RTVSPost2010Prop43
 90
        3
102
RTVSPost2010PropOp43
 70
     1
102
RTVSPost2010Prop44ColorIndex
 90
        5
102
RTVSPost2010Prop44ColorRGB
 90
      255
102
RTVSPost2010PropOp44
 70
     1
102
RTVSPost2010Prop45
280
     0
102
RTVSPost2010PropOp45
 70
     1
102
RTVSPost2010Prop46
 90
       50
102
RTVSPost2010PropOp46
 70
     1
102
RTVSPost2010Prop47
 90
       50
102
RTVSPost2010PropOp47
 70
     1
102
RTVSPost2010Prop48
 90
       50
102
RTVSPost2010PropOp48
 70
     1
102
RTVSPost2010Prop49
280
     0
102
RTVSPost2010PropOp49
 70
     1
102
RTVSPost2010Prop50
 90
       50
102
RTVSPost2010PropOp50
 70
     1
102
RTVSPost2010Prop51ColorIndex
 90
      256
102
RTVSPost2010Prop51ColorRGB
 90
-16777216
102
RTVSPost2010PropOp51
 70
     0
102
RTVSPost2010Prop52
140
1.0
102
RTVSPost2010PropOp52
 70
     0
102
RTVSPost2010Prop53
 90
        2
102
RTVSPost2010PropOp53
 70
     1
102
RTVSPost2010Prop54
  1
strokes_ogs.tif
102
RTVSPost2010PropOp54
 70
     1
102
RTVSPost2010Prop55
280
     0
102
RTVSPost2010PropOp55
 70
     1
102
RTVSPost2010Prop56
140
1.0
102
RTVSPost2010PropOp56
 70
     1
102
RTVSPost2010Prop57
140
1.0
102
RTVSPost2010PropOp57
 70
     1
  0
XRECORD
  5
4D8
102
{ACAD_REACTORS
330
4D7
102
}
330
4D7
100
AcDbXrecord
280
     1
102
RTVSPost2010Prop28
280
     0
102
RTVSPost2010PropOp28
 70
     1
102
RTVSPost2010Prop29
280
     1
102
RTVSPost2010PropOp29
 70
     1
102
RTVSPost2010Prop30
280
     1
102
RTVSPost2010PropOp30
 70
     1
102
RTVSPost2010Prop31
280
     0
102
RTVSPost2010PropOp31
 70
     1
102
RTVSPost2010Prop32
280
     0
102
RTVSPost2010PropOp32
 70
     1
102
RTVSPost2010Prop33
280
     0
102
RTVSPost2010PropOp33
 70
     1
102
RTVSPost2010Prop34
280
     0
102
RTVSPost2010PropOp34
 70
     1
102
RTVSPost2010Prop35
280
     0
102
RTVSPost2010PropOp35
 70
     1
102
RTVSPost2010Prop36
280
     0
102
RTVSPost2010PropOp36
 70
     1
102
RTVSPost2010Prop37
 90
       50
102
RTVSPost2010PropOp37
 70
     1
102
RTVSPost2010Prop38
140
0.0
102
RTVSPost2010PropOp38
 70
     1
102
RTVSPost2010Prop39
140
1.0
102
RTVSPost2010PropOp39
 70
     1
102
RTVSPost2010Prop40
 90
        0
102
RTVSPost2010PropOp40
 70
     1
102
RTVSPost2010Prop41ColorIndex
 90
       18
102
RTVSPost2010Prop41ColorRGB
 90
        0
102
RTVSPost2010PropOp41
 70
     1
102
RTVSPost2010Prop42
 90
       50
102
RTVSPost2010PropOp42
 70
     1
102
RTVSPost2010Prop43
 90
        3
102
RTVSPost2010PropOp43
 70
     1
102
RTVSPost2010Prop44ColorIndex
 90
        5
102
RTVSPost2010Prop44ColorRGB
 90
      255
102
RTVSPost2010PropOp44
 70
     1
102
RTVSPost2010Prop45
280
     0
102
RTVSPost2010PropOp45
 70
     1
102
RTVSPost2010Prop46
 90
       50
102
RTVSPost2010PropOp46
 70
     1
102
RTVSPost2010Prop47
 90
       50
102
RTVSPost2010PropOp47
 70
     1
102
RTVSPost2010Prop48
 90
       50
102
RTVSPost2010PropOp48
 70
     1
102
RTVSPost2010Prop49
280
     0
102
RTVSPost2010PropOp49
 70
     1
102
RTVSPost2010Prop50
 90
       50
102
RTVSPost2010PropOp50
 70
     1
102
RTVSPost2010Prop51ColorIndex
 90
      256
102
RTVSPost2010Prop51ColorRGB
 90
-16777216
102
RTVSPost2010PropOp51
 70
     0
102
RTVSPost2010Prop52
140
1.0
102
RTVSPost2010PropOp52
 70
     0
102
RTVSPost2010Prop53
 90
        2
102
RTVSPost2010PropOp53
 70
     1
102
RTVSPost2010Prop54
  1
strokes_ogs.tif
102
RTVSPost2010PropOp54
 70
     1
102
RTVSPost2010Prop55
280
     0
102
RTVSPost2010PropOp55
 70
     1
102
RTVSPost2010Prop56
140
1.0
102
RTVSPost2010PropOp56
 70
     1
102
RTVSPost2010Prop57
140
1.0
102
RTVSPost2010PropOp57
 70
     1
  0
XRECORD
  5
4DA
102
{ACAD_REACTORS
330
4D9
102
}
330
4D9
100
AcDbXrecord
280
     1
102
RTVSPost2010Prop28
280
     0
102
RTVSPost2010PropOp28
 70
     1
102
RTVSPost2010Prop29
280
     1
102
RTVSPost2010PropOp29
 70
     1
102
RTVSPost2010Prop30
280
     1
102
RTVSPost2010PropOp30
 70
     1
102
RTVSPost2010Prop31
280
     0
102
RTVSPost2010PropOp31
 70
     1
102
RTVSPost2010Prop32
280
     0
102
RTVSPost2010PropOp32
 70
     1
102
RTVSPost2010Prop33
280
     0
102
RTVSPost2010PropOp33
 70
     1
102
RTVSPost2010Prop34
280
     0
102
RTVSPost2010PropOp34
 70
     1
102
RTVSPost2010Prop35
280
     0
102
RTVSPost2010PropOp35
 70
     1
102
RTVSPost2010Prop36
280
     0
102
RTVSPost2010PropOp36
 70
     1
102
RTVSPost2010Prop37
 90
       50
102
RTVSPost2010PropOp37
 70
     1
102
RTVSPost2010Prop38
140
0.0
102
RTVSPost2010PropOp38
 70
     1
102
RTVSPost2010Prop39
140
1.0
102
RTVSPost2010PropOp39
 70
     1
102
RTVSPost2010Prop40
 90
        0
102
RTVSPost2010PropOp40
 70
     1
102
RTVSPost2010Prop41ColorIndex
 90
       18
102
RTVSPost2010Prop41ColorRGB
 90
        0
102
RTVSPost2010PropOp41
 70
     1
102
RTVSPost2010Prop42
 90
       50
102
RTVSPost2010PropOp42
 70
     1
102
RTVSPost2010Prop43
 90
        3
102
RTVSPost2010PropOp43
 70
     1
102
RTVSPost2010Prop44ColorIndex
 90
        5
102
RTVSPost2010Prop44ColorRGB
 90
      255
102
RTVSPost2010PropOp44
 70
     1
102
RTVSPost2010Prop45
280
     0
102
RTVSPost2010PropOp45
 70
     1
102
RTVSPost2010Prop46
 90
       50
102
RTVSPost2010PropOp46
 70
     1
102
RTVSPost2010Prop47
 90
       50
102
RTVSPost2010PropOp47
 70
     1
102
RTVSPost2010Prop48
 90
       50
102
RTVSPost2010PropOp48
 70
     1
102
RTVSPost2010Prop49
280
     0
102
RTVSPost2010PropOp49
 70
     1
102
RTVSPost2010Prop50
 90
       50
102
RTVSPost2010PropOp50
 70
     1
102
RTVSPost2010Prop51ColorIndex
 90
      256
102
RTVSPost2010Prop51ColorRGB
 90
-16777216
102
RTVSPost2010PropOp51
 70
     0
102
RTVSPost2010Prop52
140
1.0
102
RTVSPost2010PropOp52
 70
     0
102
RTVSPost2010Prop53
 90
        2
102
RTVSPost2010PropOp53
 70
     1
102
RTVSPost2010Prop54
  1
strokes_ogs.tif
102
RTVSPost2010PropOp54
 70
     1
102
RTVSPost2010Prop55
280
     0
102
RTVSPost2010PropOp55
 70
     1
102
RTVSPost2010Prop56
140
1.0
102
RTVSPost2010PropOp56
 70
     1
102
RTVSPost2010Prop57
140
1.0
102
RTVSPost2010PropOp57
 70
     1
  0
XRECORD
  5
4EA
102
{ACAD_REACTORS
330
4E9
102
}
330
4E9
100
AcDbXrecord
280
     1
102
RTVSPost2010Prop28
280
     0
102
RTVSPost2010PropOp28
 70
     0
102
RTVSPost2010Prop29
280
     1
102
RTVSPost2010PropOp29
 70
     0
102
RTVSPost2010Prop30
280
     1
102
RTVSPost2010PropOp30
 70
     0
102
RTVSPost2010Prop31
280
     0
102
RTVSPost2010PropOp31
 70
     0
102
RTVSPost2010Prop32
280
     0
102
RTVSPost2010PropOp32
 70
     0
102
RTVSPost2010Prop33
280
     0
102
RTVSPost2010PropOp33
 70
     0
102
RTVSPost2010Prop34
280
     0
102
RTVSPost2010PropOp34
 70
     0
102
RTVSPost2010Prop35
280
     0
102
RTVSPost2010PropOp35
 70
     0
102
RTVSPost2010Prop36
280
     0
102
RTVSPost2010PropOp36
 70
     0
102
RTVSPost2010Prop37
 90
       50
102
RTVSPost2010PropOp37
 70
     0
102
RTVSPost2010Prop38
140
0.0
102
RTVSPost2010PropOp38
 70
     0
102
RTVSPost2010Prop39
140
1.0
102
RTVSPost2010PropOp39
 70
     0
102
RTVSPost2010Prop40
 90
        0
102
RTVSPost2010PropOp40
 70
     0
102
RTVSPost2010Prop41ColorIndex
 90
       18
102
RTVSPost2010Prop41ColorRGB
 90
        0
102
RTVSPost2010PropOp41
 70
     0
102
RTVSPost2010Prop42
 90
       50
102
RTVSPost2010PropOp42
 70
     0
102
RTVSPost2010Prop43
 90
        3
102
RTVSPost2010PropOp43
 70
     0
102
RTVSPost2010Prop44ColorIndex
 90
        5
102
RTVSPost2010Prop44ColorRGB
 90
      255
102
RTVSPost2010PropOp44
 70
     0
102
RTVSPost2010Prop45
280
     0
102
RTVSPost2010PropOp45
 70
     0
102
RTVSPost2010Prop46
 90
       50
102
RTVSPost2010PropOp46
 70
     0
102
RTVSPost2010Prop47
 90
       50
102
RTVSPost2010PropOp47
 70
     0
102
RTVSPost2010Prop48
 90
       50
102
RTVSPost2010PropOp48
 70
     0
102
RTVSPost2010Prop49
280
     0
102
RTVSPost2010PropOp49
 70
     0
102
RTVSPost2010Prop50
 90
       50
102
RTVSPost2010PropOp50
 70
     0
102
RTVSPost2010Prop51ColorIndex
 90
      256
102
RTVSPost2010Prop51ColorRGB
 90
-16777216
102
RTVSPost2010PropOp51
 70
     0
102
RTVSPost2010Prop52
140
1.0
102
RTVSPost2010PropOp52
 70
     0
102
RTVSPost2010Prop53
 90
        2
102
RTVSPost2010PropOp53
 70
     0
102
RTVSPost2010Prop54
  1
strokes_ogs.tif
102
RTVSPost2010PropOp54
 70
     0
102
RTVSPost2010Prop55
280
     0
102
RTVSPost2010PropOp55
 70
     0
102
RTVSPost2010Prop56
140
1.0
102
RTVSPost2010PropOp56
 70
     0
102
RTVSPost2010Prop57
140
1.0
102
RTVSPost2010PropOp57
 70
     0
  0
XRECORD
  5
4E2
102
{ACAD_REACTORS
330
4E1
102
}
330
4E1
100
AcDbXrecord
280
     1
102
RTVSPost2010Prop28
280
     0
102
RTVSPost2010PropOp28
 70
     1
102
RTVSPost2010Prop29
280
     1
102
RTVSPost2010PropOp29
 70
     1
102
RTVSPost2010Prop30
280
     1
102
RTVSPost2010PropOp30
 70
     1
102
RTVSPost2010Prop31
280
     0
102
RTVSPost2010PropOp31
 70
     1
102
RTVSPost2010Prop32
280
     0
102
RTVSPost2010PropOp32
 70
     1
102
RTVSPost2010Prop33
280
     0
102
RTVSPost2010PropOp33
 70
     1
102
RTVSPost2010Prop34
280
     0
102
RTVSPost2010PropOp34
 70
     1
102
RTVSPost2010Prop35
280
     0
102
RTVSPost2010PropOp35
 70
     1
102
RTVSPost2010Prop36
280
     0
102
RTVSPost2010PropOp36
 70
     1
102
RTVSPost2010Prop37
 90
       50
102
RTVSPost2010PropOp37
 70
     1
102
RTVSPost2010Prop38
140
0.0
102
RTVSPost2010PropOp38
 70
     1
102
RTVSPost2010Prop39
140
1.0
102
RTVSPost2010PropOp39
 70
     1
102
RTVSPost2010Prop40
 90
        0
102
RTVSPost2010PropOp40
 70
     1
102
RTVSPost2010Prop41ColorIndex
 90
       18
102
RTVSPost2010Prop41ColorRGB
 90
        0
102
RTVSPost2010PropOp41
 70
     1
102
RTVSPost2010Prop42
 90
       50
102
RTVSPost2010PropOp42
 70
     1
102
RTVSPost2010Prop43
 90
        3
102
RTVSPost2010PropOp43
 70
     1
102
RTVSPost2010Prop44ColorIndex
 90
        5
102
RTVSPost2010Prop44ColorRGB
 90
      255
102
RTVSPost2010PropOp44
 70
     1
102
RTVSPost2010Prop45
280
     0
102
RTVSPost2010PropOp45
 70
     1
102
RTVSPost2010Prop46
 90
       50
102
RTVSPost2010PropOp46
 70
     1
102
RTVSPost2010Prop47
 90
       50
102
RTVSPost2010PropOp47
 70
     1
102
RTVSPost2010Prop48
 90
       50
102
RTVSPost2010PropOp48
 70
     1
102
RTVSPost2010Prop49
280
     0
102
RTVSPost2010PropOp49
 70
     1
102
RTVSPost2010Prop50
 90
       50
102
RTVSPost2010PropOp50
 70
     1
102
RTVSPost2010Prop51ColorIndex
 90
      256
102
RTVSPost2010Prop51ColorRGB
 90
-16777216
102
RTVSPost2010PropOp51
 70
     0
102
RTVSPost2010Prop52
140
1.0
102
RTVSPost2010PropOp52
 70
     0
102
RTVSPost2010Prop53
 90
        2
102
RTVSPost2010PropOp53
 70
     1
102
RTVSPost2010Prop54
  1
strokes_ogs.tif
102
RTVSPost2010PropOp54
 70
     1
102
RTVSPost2010Prop55
280
     0
102
RTVSPost2010PropOp55
 70
     1
102
RTVSPost2010Prop56
140
1.0
102
RTVSPost2010PropOp56
 70
     1
102
RTVSPost2010Prop57
140
1.0
102
RTVSPost2010PropOp57
 70
     1
  0
XRECORD
  5
4C6
102
{ACAD_REACTORS
330
4C5
102
}
330
4C5
100
AcDbXrecord
280
     1
102
RTVSPost2010Prop28
280
     0
102
RTVSPost2010PropOp28
 70
     1
102
RTVSPost2010Prop29
280
     1
102
RTVSPost2010PropOp29
 70
     1
102
RTVSPost2010Prop30
280
     1
102
RTVSPost2010PropOp30
 70
     1
102
RTVSPost2010Prop31
280
     0
102
RTVSPost2010PropOp31
 70
     1
102
RTVSPost2010Prop32
280
     0
102
RTVSPost2010PropOp32
 70
     1
102
RTVSPost2010Prop33
280
     0
102
RTVSPost2010PropOp33
 70
     1
102
RTVSPost2010Prop34
280
     0
102
RTVSPost2010PropOp34
 70
     1
102
RTVSPost2010Prop35
280
     0
102
RTVSPost2010PropOp35
 70
     1
102
RTVSPost2010Prop36
280
     0
102
RTVSPost2010PropOp36
 70
     1
102
RTVSPost2010Prop37
 90
       50
102
RTVSPost2010PropOp37
 70
     1
102
RTVSPost2010Prop38
140
0.0
102
RTVSPost2010PropOp38
 70
     1
102
RTVSPost2010Prop39
140
1.0
102
RTVSPost2010PropOp39
 70
     1
102
RTVSPost2010Prop40
 90
        0
102
RTVSPost2010PropOp40
 70
     1
102
RTVSPost2010Prop41ColorIndex
 90
       18
102
RTVSPost2010Prop41ColorRGB
 90
        0
102
RTVSPost2010PropOp41
 70
     1
102
RTVSPost2010Prop42
 90
       50
102
RTVSPost2010PropOp42
 70
     1
102
RTVSPost2010Prop43
 90
        3
102
RTVSPost2010PropOp43
 70
     1
102
RTVSPost2010Prop44ColorIndex
 90
        5
102
RTVSPost2010Prop44ColorRGB
 90
      255
102
RTVSPost2010PropOp44
 70
     1
102
RTVSPost2010Prop45
280
     0
102
RTVSPost2010PropOp45
 70
     1
102
RTVSPost2010Prop46
 90
       50
102
RTVSPost2010PropOp46
 70
     1
102
RTVSPost2010Prop47
 90
       50
102
RTVSPost2010PropOp47
 70
     1
102
RTVSPost2010Prop48
 90
       50
102
RTVSPost2010PropOp48
 70
     1
102
RTVSPost2010Prop49
280
     0
102
RTVSPost2010PropOp49
 70
     1
102
RTVSPost2010Prop50
 90
       50
102
RTVSPost2010PropOp50
 70
     1
102
RTVSPost2010Prop51ColorIndex
 90
      256
102
RTVSPost2010Prop51ColorRGB
 90
-16777216
102
RTVSPost2010PropOp51
 70
     0
102
RTVSPost2010Prop52
140
1.0
102
RTVSPost2010PropOp52
 70
     0
102
RTVSPost2010Prop53
 90
        2
102
RTVSPost2010PropOp53
 70
     1
102
RTVSPost2010Prop54
  1
strokes_ogs.tif
102
RTVSPost2010PropOp54
 70
     1
102
RTVSPost2010Prop55
280
     0
102
RTVSPost2010PropOp55
 70
     1
102
RTVSPost2010Prop56
140
1.0
102
RTVSPost2010PropOp56
 70
     1
102
RTVSPost2010Prop57
140
1.0
102
RTVSPost2010PropOp57
 70
     1
  0
XRECORD
  5
4C8
102
{ACAD_REACTORS
330
4C7
102
}
330
4C7
100
AcDbXrecord
280
     1
102
RTVSPost2010Prop28
280
     0
102
RTVSPost2010PropOp28
 70
     1
102
RTVSPost2010Prop29
280
     1
102
RTVSPost2010PropOp29
 70
     1
102
RTVSPost2010Prop30
280
     1
102
RTVSPost2010PropOp30
 70
     1
102
RTVSPost2010Prop31
280
     0
102
RTVSPost2010PropOp31
 70
     1
102
RTVSPost2010Prop32
280
     0
102
RTVSPost2010PropOp32
 70
     1
102
RTVSPost2010Prop33
280
     0
102
RTVSPost2010PropOp33
 70
     1
102
RTVSPost2010Prop34
280
     0
102
RTVSPost2010PropOp34
 70
     1
102
RTVSPost2010Prop35
280
     0
102
RTVSPost2010PropOp35
 70
     1
102
RTVSPost2010Prop36
280
     0
102
RTVSPost2010PropOp36
 70
     1
102
RTVSPost2010Prop37
 90
       50
102
RTVSPost2010PropOp37
 70
     1
102
RTVSPost2010Prop38
140
0.0
102
RTVSPost2010PropOp38
 70
     1
102
RTVSPost2010Prop39
140
1.0
102
RTVSPost2010PropOp39
 70
     1
102
RTVSPost2010Prop40
 90
        0
102
RTVSPost2010PropOp40
 70
     1
102
RTVSPost2010Prop41ColorIndex
 90
       18
102
RTVSPost2010Prop41ColorRGB
 90
        0
102
RTVSPost2010PropOp41
 70
     1
102
RTVSPost2010Prop42
 90
       50
102
RTVSPost2010PropOp42
 70
     1
102
RTVSPost2010Prop43
 90
        3
102
RTVSPost2010PropOp43
 70
     1
102
RTVSPost2010Prop44ColorIndex
 90
        5
102
RTVSPost2010Prop44ColorRGB
 90
      255
102
RTVSPost2010PropOp44
 70
     1
102
RTVSPost2010Prop45
280
     0
102
RTVSPost2010PropOp45
 70
     1
102
RTVSPost2010Prop46
 90
       50
102
RTVSPost2010PropOp46
 70
     1
102
RTVSPost2010Prop47
 90
       50
102
RTVSPost2010PropOp47
 70
     1
102
RTVSPost2010Prop48
 90
       50
102
RTVSPost2010PropOp48
 70
     1
102
RTVSPost2010Prop49
280
     0
102
RTVSPost2010PropOp49
 70
     1
102
RTVSPost2010Prop50
 90
       50
102
RTVSPost2010PropOp50
 70
     1
102
RTVSPost2010Prop51ColorIndex
 90
      256
102
RTVSPost2010Prop51ColorRGB
 90
-16777216
102
RTVSPost2010PropOp51
 70
     0
102
RTVSPost2010Prop52
140
1.0
102
RTVSPost2010PropOp52
 70
     0
102
RTVSPost2010Prop53
 90
        2
102
RTVSPost2010PropOp53
 70
     1
102
RTVSPost2010Prop54
  1
strokes_ogs.tif
102
RTVSPost2010PropOp54
 70
     1
102
RTVSPost2010Prop55
280
     0
102
RTVSPost2010PropOp55
 70
     1
102
RTVSPost2010Prop56
140
1.0
102
RTVSPost2010PropOp56
 70
     1
102
RTVSPost2010Prop57
140
1.0
102
RTVSPost2010PropOp57
 70
     1
  0
XRECORD
  5
4CA
102
{ACAD_REACTORS
330
4C9
102
}
330
4C9
100
AcDbXrecord
280
     1
102
RTVSPost2010Prop28
280
     0
102
RTVSPost2010PropOp28
 70
     1
102
RTVSPost2010Prop29
280
     1
102
RTVSPost2010PropOp29
 70
     1
102
RTVSPost2010Prop30
280
     1
102
RTVSPost2010PropOp30
 70
     1
102
RTVSPost2010Prop31
280
     0
102
RTVSPost2010PropOp31
 70
     1
102
RTVSPost2010Prop32
280
     0
102
RTVSPost2010PropOp32
 70
     1
102
RTVSPost2010Prop33
280
     0
102
RTVSPost2010PropOp33
 70
     1
102
RTVSPost2010Prop34
280
     0
102
RTVSPost2010PropOp34
 70
     1
102
RTVSPost2010Prop35
280
     0
102
RTVSPost2010PropOp35
 70
     1
102
RTVSPost2010Prop36
280
     0
102
RTVSPost2010PropOp36
 70
     1
102
RTVSPost2010Prop37
 90
       50
102
RTVSPost2010PropOp37
 70
     1
102
RTVSPost2010Prop38
140
0.0
102
RTVSPost2010PropOp38
 70
     1
102
RTVSPost2010Prop39
140
1.0
102
RTVSPost2010PropOp39
 70
     1
102
RTVSPost2010Prop40
 90
        0
102
RTVSPost2010PropOp40
 70
     1
102
RTVSPost2010Prop41ColorIndex
 90
       18
102
RTVSPost2010Prop41ColorRGB
 90
        0
102
RTVSPost2010PropOp41
 70
     1
102
RTVSPost2010Prop42
 90
       50
102
RTVSPost2010PropOp42
 70
     1
102
RTVSPost2010Prop43
 90
        3
102
RTVSPost2010PropOp43
 70
     1
102
RTVSPost2010Prop44ColorIndex
 90
        5
102
RTVSPost2010Prop44ColorRGB
 90
      255
102
RTVSPost2010PropOp44
 70
     1
102
RTVSPost2010Prop45
280
     0
102
RTVSPost2010PropOp45
 70
     1
102
RTVSPost2010Prop46
 90
       50
102
RTVSPost2010PropOp46
 70
     1
102
RTVSPost2010Prop47
 90
       50
102
RTVSPost2010PropOp47
 70
     1
102
RTVSPost2010Prop48
 90
       50
102
RTVSPost2010PropOp48
 70
     1
102
RTVSPost2010Prop49
280
     0
102
RTVSPost2010PropOp49
 70
     1
102
RTVSPost2010Prop50
 90
       50
102
RTVSPost2010PropOp50
 70
     1
102
RTVSPost2010Prop51ColorIndex
 90
      256
102
RTVSPost2010Prop51ColorRGB
 90
-16777216
102
RTVSPost2010PropOp51
 70
     0
102
RTVSPost2010Prop52
140
1.0
102
RTVSPost2010PropOp52
 70
     0
102
RTVSPost2010Prop53
 90
        2
102
RTVSPost2010PropOp53
 70
     1
102
RTVSPost2010Prop54
  1
strokes_ogs.tif
102
RTVSPost2010PropOp54
 70
     1
102
RTVSPost2010Prop55
280
     0
102
RTVSPost2010PropOp55
 70
     1
102
RTVSPost2010Prop56
140
1.0
102
RTVSPost2010PropOp56
 70
     1
102
RTVSPost2010Prop57
140
1.0
102
RTVSPost2010PropOp57
 70
     1
  0
XRECORD
  5
4CC
102
{ACAD_REACTORS
330
4CB
102
}
330
4CB
100
AcDbXrecord
280
     1
102
RTVSPost2010Prop28
280
     0
102
RTVSPost2010PropOp28
 70
     1
102
RTVSPost2010Prop29
280
     1
102
RTVSPost2010PropOp29
 70
     1
102
RTVSPost2010Prop30
280
     1
102
RTVSPost2010PropOp30
 70
     1
102
RTVSPost2010Prop31
280
     0
102
RTVSPost2010PropOp31
 70
     1
102
RTVSPost2010Prop32
280
     0
102
RTVSPost2010PropOp32
 70
     1
102
RTVSPost2010Prop33
280
     0
102
RTVSPost2010PropOp33
 70
     1
102
RTVSPost2010Prop34
280
     0
102
RTVSPost2010PropOp34
 70
     1
102
RTVSPost2010Prop35
280
     0
102
RTVSPost2010PropOp35
 70
     1
102
RTVSPost2010Prop36
280
     0
102
RTVSPost2010PropOp36
 70
     1
102
RTVSPost2010Prop37
 90
       50
102
RTVSPost2010PropOp37
 70
     1
102
RTVSPost2010Prop38
140
0.0
102
RTVSPost2010PropOp38
 70
     1
102
RTVSPost2010Prop39
140
1.0
102
RTVSPost2010PropOp39
 70
     1
102
RTVSPost2010Prop40
 90
        0
102
RTVSPost2010PropOp40
 70
     1
102
RTVSPost2010Prop41ColorIndex
 90
       18
102
RTVSPost2010Prop41ColorRGB
 90
        0
102
RTVSPost2010PropOp41
 70
     1
102
RTVSPost2010Prop42
 90
       50
102
RTVSPost2010PropOp42
 70
     1
102
RTVSPost2010Prop43
 90
        3
102
RTVSPost2010PropOp43
 70
     1
102
RTVSPost2010Prop44ColorIndex
 90
        5
102
RTVSPost2010Prop44ColorRGB
 90
      255
102
RTVSPost2010PropOp44
 70
     1
102
RTVSPost2010Prop45
280
     0
102
RTVSPost2010PropOp45
 70
     1
102
RTVSPost2010Prop46
 90
       50
102
RTVSPost2010PropOp46
 70
     1
102
RTVSPost2010Prop47
 90
       50
102
RTVSPost2010PropOp47
 70
     1
102
RTVSPost2010Prop48
 90
       50
102
RTVSPost2010PropOp48
 70
     1
102
RTVSPost2010Prop49
280
     0
102
RTVSPost2010PropOp49
 70
     1
102
RTVSPost2010Prop50
 90
       50
102
RTVSPost2010PropOp50
 70
     1
102
RTVSPost2010Prop51ColorIndex
 90
      256
102
RTVSPost2010Prop51ColorRGB
 90
-16777216
102
RTVSPost2010PropOp51
 70
     0
102
RTVSPost2010Prop52
140
1.0
102
RTVSPost2010PropOp52
 70
     0
102
RTVSPost2010Prop53
 90
        2
102
RTVSPost2010PropOp53
 70
     1
102
RTVSPost2010Prop54
  1
strokes_ogs.tif
102
RTVSPost2010PropOp54
 70
     1
102
RTVSPost2010Prop55
280
     0
102
RTVSPost2010PropOp55
 70
     1
102
RTVSPost2010Prop56
140
1.0
102
RTVSPost2010PropOp56
 70
     1
102
RTVSPost2010Prop57
140
1.0
102
RTVSPost2010PropOp57
 70
     1
  0
XRECORD
  5
4D2
102
{ACAD_REACTORS
330
4D1
102
}
330
4D1
100
AcDbXrecord
280
     1
102
RTVSPost2010Prop28
280
     0
102
RTVSPost2010PropOp28
 70
     1
102
RTVSPost2010Prop29
280
     1
102
RTVSPost2010PropOp29
 70
     1
102
RTVSPost2010Prop30
280
     1
102
RTVSPost2010PropOp30
 70
     1
102
RTVSPost2010Prop31
280
     0
102
RTVSPost2010PropOp31
 70
     1
102
RTVSPost2010Prop32
280
     0
102
RTVSPost2010PropOp32
 70
     1
102
RTVSPost2010Prop33
280
     0
102
RTVSPost2010PropOp33
 70
     1
102
RTVSPost2010Prop34
280
     0
102
RTVSPost2010PropOp34
 70
     1
102
RTVSPost2010Prop35
280
     0
102
RTVSPost2010PropOp35
 70
     1
102
RTVSPost2010Prop36
280
     0
102
RTVSPost2010PropOp36
 70
     1
102
RTVSPost2010Prop37
 90
       50
102
RTVSPost2010PropOp37
 70
     1
102
RTVSPost2010Prop38
140
0.0
102
RTVSPost2010PropOp38
 70
     1
102
RTVSPost2010Prop39
140
1.0
102
RTVSPost2010PropOp39
 70
     1
102
RTVSPost2010Prop40
 90
        0
102
RTVSPost2010PropOp40
 70
     1
102
RTVSPost2010Prop41ColorIndex
 90
       18
102
RTVSPost2010Prop41ColorRGB
 90
        0
102
RTVSPost2010PropOp41
 70
     1
102
RTVSPost2010Prop42
 90
       50
102
RTVSPost2010PropOp42
 70
     1
102
RTVSPost2010Prop43
 90
        3
102
RTVSPost2010PropOp43
 70
     1
102
RTVSPost2010Prop44ColorIndex
 90
        5
102
RTVSPost2010Prop44ColorRGB
 90
      255
102
RTVSPost2010PropOp44
 70
     1
102
RTVSPost2010Prop45
280
     0
102
RTVSPost2010PropOp45
 70
     1
102
RTVSPost2010Prop46
 90
       50
102
RTVSPost2010PropOp46
 70
     1
102
RTVSPost2010Prop47
 90
       50
102
RTVSPost2010PropOp47
 70
     1
102
RTVSPost2010Prop48
 90
       50
102
RTVSPost2010PropOp48
 70
     1
102
RTVSPost2010Prop49
280
     0
102
RTVSPost2010PropOp49
 70
     1
102
RTVSPost2010Prop50
 90
       50
102
RTVSPost2010PropOp50
 70
     1
102
RTVSPost2010Prop51ColorIndex
 90
      256
102
RTVSPost2010Prop51ColorRGB
 90
-16777216
102
RTVSPost2010PropOp51
 70
     0
102
RTVSPost2010Prop52
140
1.0
102
RTVSPost2010PropOp52
 70
     0
102
RTVSPost2010Prop53
 90
        2
102
RTVSPost2010PropOp53
 70
     1
102
RTVSPost2010Prop54
  1
strokes_ogs.tif
102
RTVSPost2010PropOp54
 70
     1
102
RTVSPost2010Prop55
280
     0
102
RTVSPost2010PropOp55
 70
     1
102
RTVSPost2010Prop56
140
1.0
102
RTVSPost2010PropOp56
 70
     1
102
RTVSPost2010Prop57
140
1.0
102
RTVSPost2010PropOp57
 70
     1
  0
XRECORD
  5
4E6
102
{ACAD_REACTORS
330
4E5
102
}
330
4E5
100
AcDbXrecord
280
     1
102
RTVSPost2010Prop28
280
     0
102
RTVSPost2010PropOp28
 70
     0
102
RTVSPost2010Prop29
280
     1
102
RTVSPost2010PropOp29
 70
     0
102
RTVSPost2010Prop30
280
     1
102
RTVSPost2010PropOp30
 70
     0
102
RTVSPost2010Prop31
280
     0
102
RTVSPost2010PropOp31
 70
     0
102
RTVSPost2010Prop32
280
     0
102
RTVSPost2010PropOp32
 70
     0
102
RTVSPost2010Prop33
280
     0
102
RTVSPost2010PropOp33
 70
     0
102
RTVSPost2010Prop34
280
     0
102
RTVSPost2010PropOp34
 70
     0
102
RTVSPost2010Prop35
280
     0
102
RTVSPost2010PropOp35
 70
     0
102
RTVSPost2010Prop36
280
     0
102
RTVSPost2010PropOp36
 70
     0
102
RTVSPost2010Prop37
 90
       50
102
RTVSPost2010PropOp37
 70
     0
102
RTVSPost2010Prop38
140
0.0
102
RTVSPost2010PropOp38
 70
     0
102
RTVSPost2010Prop39
140
1.0
102
RTVSPost2010PropOp39
 70
     0
102
RTVSPost2010Prop40
 90
        0
102
RTVSPost2010PropOp40
 70
     0
102
RTVSPost2010Prop41ColorIndex
 90
       18
102
RTVSPost2010Prop41ColorRGB
 90
        0
102
RTVSPost2010PropOp41
 70
     0
102
RTVSPost2010Prop42
 90
       50
102
RTVSPost2010PropOp42
 70
     0
102
RTVSPost2010Prop43
 90
        3
102
RTVSPost2010PropOp43
 70
     0
102
RTVSPost2010Prop44ColorIndex
 90
        5
102
RTVSPost2010Prop44ColorRGB
 90
      255
102
RTVSPost2010PropOp44
 70
     0
102
RTVSPost2010Prop45
280
     0
102
RTVSPost2010PropOp45
 70
     0
102
RTVSPost2010Prop46
 90
       50
102
RTVSPost2010PropOp46
 70
     0
102
RTVSPost2010Prop47
 90
       50
102
RTVSPost2010PropOp47
 70
     0
102
RTVSPost2010Prop48
 90
       50
102
RTVSPost2010PropOp48
 70
     0
102
RTVSPost2010Prop49
280
     0
102
RTVSPost2010PropOp49
 70
     0
102
RTVSPost2010Prop50
 90
       50
102
RTVSPost2010PropOp50
 70
     0
102
RTVSPost2010Prop51ColorIndex
 90
      256
102
RTVSPost2010Prop51ColorRGB
 90
-16777216
102
RTVSPost2010PropOp51
 70
     0
102
RTVSPost2010Prop52
140
1.0
102
RTVSPost2010PropOp52
 70
     0
102
RTVSPost2010Prop53
 90
        2
102
RTVSPost2010PropOp53
 70
     0
102
RTVSPost2010Prop54
  1
strokes_ogs.tif
102
RTVSPost2010PropOp54
 70
     0
102
RTVSPost2010Prop55
280
     0
102
RTVSPost2010PropOp55
 70
     0
102
RTVSPost2010Prop56
140
1.0
102
RTVSPost2010PropOp56
 70
     0
102
RTVSPost2010Prop57
140
1.0
102
RTVSPost2010PropOp57
 70
     0
  0
XRECORD
  5
4E0
102
{ACAD_REACTORS
330
4DF
102
}
330
4DF
100
AcDbXrecord
280
     1
102
RTVSPost2010Prop28
280
     0
102
RTVSPost2010PropOp28
 70
     1
102
RTVSPost2010Prop29
280
     1
102
RTVSPost2010PropOp29
 70
     1
102
RTVSPost2010Prop30
280
     1
102
RTVSPost2010PropOp30
 70
     1
102
RTVSPost2010Prop31
280
     0
102
RTVSPost2010PropOp31
 70
     1
102
RTVSPost2010Prop32
280
     0
102
RTVSPost2010PropOp32
 70
     1
102
RTVSPost2010Prop33
280
     0
102
RTVSPost2010PropOp33
 70
     1
102
RTVSPost2010Prop34
280
     0
102
RTVSPost2010PropOp34
 70
     1
102
RTVSPost2010Prop35
280
     0
102
RTVSPost2010PropOp35
 70
     1
102
RTVSPost2010Prop36
280
     0
102
RTVSPost2010PropOp36
 70
     1
102
RTVSPost2010Prop37
 90
       50
102
RTVSPost2010PropOp37
 70
     1
102
RTVSPost2010Prop38
140
0.0
102
RTVSPost2010PropOp38
 70
     1
102
RTVSPost2010Prop39
140
1.0
102
RTVSPost2010PropOp39
 70
     1
102
RTVSPost2010Prop40
 90
        0
102
RTVSPost2010PropOp40
 70
     1
102
RTVSPost2010Prop41ColorIndex
 90
       18
102
RTVSPost2010Prop41ColorRGB
 90
        0
102
RTVSPost2010PropOp41
 70
     1
102
RTVSPost2010Prop42
 90
       50
102
RTVSPost2010PropOp42
 70
     1
102
RTVSPost2010Prop43
 90
        3
102
RTVSPost2010PropOp43
 70
     1
102
RTVSPost2010Prop44ColorIndex
 90
        5
102
RTVSPost2010Prop44ColorRGB
 90
      255
102
RTVSPost2010PropOp44
 70
     1
102
RTVSPost2010Prop45
280
     0
102
RTVSPost2010PropOp45
 70
     1
102
RTVSPost2010Prop46
 90
       50
102
RTVSPost2010PropOp46
 70
     1
102
RTVSPost2010Prop47
 90
       50
102
RTVSPost2010PropOp47
 70
     1
102
RTVSPost2010Prop48
 90
       50
102
RTVSPost2010PropOp48
 70
     1
102
RTVSPost2010Prop49
280
     0
102
RTVSPost2010PropOp49
 70
     1
102
RTVSPost2010Prop50
 90
       50
102
RTVSPost2010PropOp50
 70
     1
102
RTVSPost2010Prop51ColorIndex
 90
      256
102
RTVSPost2010Prop51ColorRGB
 90
-16777216
102
RTVSPost2010PropOp51
 70
     0
102
RTVSPost2010Prop52
140
1.0
102
RTVSPost2010PropOp52
 70
     0
102
RTVSPost2010Prop53
 90
        2
102
RTVSPost2010PropOp53
 70
     1
102
RTVSPost2010Prop54
  1
strokes_ogs.tif
102
RTVSPost2010PropOp54
 70
     1
102
RTVSPost2010Prop55
280
     0
102
RTVSPost2010PropOp55
 70
     1
102
RTVSPost2010Prop56
140
1.0
102
RTVSPost2010PropOp56
 70
     1
102
RTVSPost2010Prop57
140
1.0
102
RTVSPost2010PropOp57
 70
     1
  0
XRECORD
  5
4E8
102
{ACAD_REACTORS
330
4E7
102
}
330
4E7
100
AcDbXrecord
280
     1
102
RTVSPost2010Prop28
280
     0
102
RTVSPost2010PropOp28
 70
     0
102
RTVSPost2010Prop29
280
     1
102
RTVSPost2010PropOp29
 70
     0
102
RTVSPost2010Prop30
280
     1
102
RTVSPost2010PropOp30
 70
     0
102
RTVSPost2010Prop31
280
     0
102
RTVSPost2010PropOp31
 70
     0
102
RTVSPost2010Prop32
280
     0
102
RTVSPost2010PropOp32
 70
     0
102
RTVSPost2010Prop33
280
     0
102
RTVSPost2010PropOp33
 70
     0
102
RTVSPost2010Prop34
280
     0
102
RTVSPost2010PropOp34
 70
     0
102
RTVSPost2010Prop35
280
     0
102
RTVSPost2010PropOp35
 70
     0
102
RTVSPost2010Prop36
280
     0
102
RTVSPost2010PropOp36
 70
     0
102
RTVSPost2010Prop37
 90
       50
102
RTVSPost2010PropOp37
 70
     0
102
RTVSPost2010Prop38
140
0.0
102
RTVSPost2010PropOp38
 70
     0
102
RTVSPost2010Prop39
140
1.0
102
RTVSPost2010PropOp39
 70
     0
102
RTVSPost2010Prop40
 90
        0
102
RTVSPost2010PropOp40
 70
     0
102
RTVSPost2010Prop41ColorIndex
 90
       18
102
RTVSPost2010Prop41ColorRGB
 90
        0
102
RTVSPost2010PropOp41
 70
     0
102
RTVSPost2010Prop42
 90
       50
102
RTVSPost2010PropOp42
 70
     0
102
RTVSPost2010Prop43
 90
        3
102
RTVSPost2010PropOp43
 70
     0
102
RTVSPost2010Prop44ColorIndex
 90
        5
102
RTVSPost2010Prop44ColorRGB
 90
      255
102
RTVSPost2010PropOp44
 70
     0
102
RTVSPost2010Prop45
280
     0
102
RTVSPost2010PropOp45
 70
     0
102
RTVSPost2010Prop46
 90
       50
102
RTVSPost2010PropOp46
 70
     0
102
RTVSPost2010Prop47
 90
       50
102
RTVSPost2010PropOp47
 70
     0
102
RTVSPost2010Prop48
 90
       50
102
RTVSPost2010PropOp48
 70
     0
102
RTVSPost2010Prop49
280
     0
102
RTVSPost2010PropOp49
 70
     0
102
RTVSPost2010Prop50
 90
       50
102
RTVSPost2010PropOp50
 70
     0
102
RTVSPost2010Prop51ColorIndex
 90
      256
102
RTVSPost2010Prop51ColorRGB
 90
-16777216
102
RTVSPost2010PropOp51
 70
     0
102
RTVSPost2010Prop52
140
1.0
102
RTVSPost2010PropOp52
 70
     0
102
RTVSPost2010Prop53
 90
        2
102
RTVSPost2010PropOp53
 70
     0
102
RTVSPost2010Prop54
  1
strokes_ogs.tif
102
RTVSPost2010PropOp54
 70
     0
102
RTVSPost2010Prop55
280
     0
102
RTVSPost2010PropOp55
 70
     0
102
RTVSPost2010Prop56
140
1.0
102
RTVSPost2010PropOp56
 70
     0
102
RTVSPost2010Prop57
140
1.0
102
RTVSPost2010PropOp57
 70
     0
  0
XRECORD
  5
4D6
102
{ACAD_REACTORS
330
4D5
102
}
330
4D5
100
AcDbXrecord
280
     1
102
RTVSPost2010Prop28
280
     0
102
RTVSPost2010PropOp28
 70
     1
102
RTVSPost2010Prop29
280
     1
102
RTVSPost2010PropOp29
 70
     1
102
RTVSPost2010Prop30
280
     1
102
RTVSPost2010PropOp30
 70
     1
102
RTVSPost2010Prop31
280
     0
102
RTVSPost2010PropOp31
 70
     1
102
RTVSPost2010Prop32
280
     0
102
RTVSPost2010PropOp32
 70
     1
102
RTVSPost2010Prop33
280
     0
102
RTVSPost2010PropOp33
 70
     1
102
RTVSPost2010Prop34
280
     0
102
RTVSPost2010PropOp34
 70
     1
102
RTVSPost2010Prop35
280
     0
102
RTVSPost2010PropOp35
 70
     1
102
RTVSPost2010Prop36
280
     0
102
RTVSPost2010PropOp36
 70
     1
102
RTVSPost2010Prop37
 90
       50
102
RTVSPost2010PropOp37
 70
     1
102
RTVSPost2010Prop38
140
0.0
102
RTVSPost2010PropOp38
 70
     1
102
RTVSPost2010Prop39
140
1.0
102
RTVSPost2010PropOp39
 70
     1
102
RTVSPost2010Prop40
 90
        0
102
RTVSPost2010PropOp40
 70
     1
102
RTVSPost2010Prop41ColorIndex
 90
       18
102
RTVSPost2010Prop41ColorRGB
 90
        0
102
RTVSPost2010PropOp41
 70
     1
102
RTVSPost2010Prop42
 90
       50
102
RTVSPost2010PropOp42
 70
     1
102
RTVSPost2010Prop43
 90
        3
102
RTVSPost2010PropOp43
 70
     1
102
RTVSPost2010Prop44ColorIndex
 90
        5
102
RTVSPost2010Prop44ColorRGB
 90
      255
102
RTVSPost2010PropOp44
 70
     1
102
RTVSPost2010Prop45
280
     0
102
RTVSPost2010PropOp45
 70
     1
102
RTVSPost2010Prop46
 90
       50
102
RTVSPost2010PropOp46
 70
     1
102
RTVSPost2010Prop47
 90
       50
102
RTVSPost2010PropOp47
 70
     1
102
RTVSPost2010Prop48
 90
       50
102
RTVSPost2010PropOp48
 70
     1
102
RTVSPost2010Prop49
280
     0
102
RTVSPost2010PropOp49
 70
     1
102
RTVSPost2010Prop50
 90
       50
102
RTVSPost2010PropOp50
 70
     1
102
RTVSPost2010Prop51ColorIndex
 90
      256
102
RTVSPost2010Prop51ColorRGB
 90
-16777216
102
RTVSPost2010PropOp51
 70
     0
102
RTVSPost2010Prop52
140
1.0
102
RTVSPost2010PropOp52
 70
     0
102
RTVSPost2010Prop53
 90
        2
102
RTVSPost2010PropOp53
 70
     1
102
RTVSPost2010Prop54
  1
strokes_ogs.tif
102
RTVSPost2010PropOp54
 70
     1
102
RTVSPost2010Prop55
280
     0
102
RTVSPost2010PropOp55
 70
     1
102
RTVSPost2010Prop56
140
1.0
102
RTVSPost2010PropOp56
 70
     1
102
RTVSPost2010Prop57
140
1.0
102
RTVSPost2010PropOp57
 70
     1
  0
XRECORD
  5
4F4
102
{ACAD_REACTORS
330
4F3
102
}
330
4F3
100
AcDbXrecord
280
     1
102
RTVSPost2010Prop28
280
     0
102
RTVSPost2010PropOp28
 70
     1
102
RTVSPost2010Prop29
280
     1
102
RTVSPost2010PropOp29
 70
     1
102
RTVSPost2010Prop30
280
     1
102
RTVSPost2010PropOp30
 70
     1
102
RTVSPost2010Prop31
280
     0
102
RTVSPost2010PropOp31
 70
     1
102
RTVSPost2010Prop32
280
     0
102
RTVSPost2010PropOp32
 70
     1
102
RTVSPost2010Prop33
280
     0
102
RTVSPost2010PropOp33
 70
     1
102
RTVSPost2010Prop34
280
     0
102
RTVSPost2010PropOp34
 70
     1
102
RTVSPost2010Prop35
280
     0
102
RTVSPost2010PropOp35
 70
     1
102
RTVSPost2010Prop36
280
     0
102
RTVSPost2010PropOp36
 70
     1
102
RTVSPost2010Prop37
 90
       50
102
RTVSPost2010PropOp37
 70
     1
102
RTVSPost2010Prop38
140
0.0
102
RTVSPost2010PropOp38
 70
     1
102
RTVSPost2010Prop39
140
1.0
102
RTVSPost2010PropOp39
 70
     1
102
RTVSPost2010Prop40
 90
        0
102
RTVSPost2010PropOp40
 70
     1
102
RTVSPost2010Prop41ColorIndex
 90
       18
102
RTVSPost2010Prop41ColorRGB
 90
        0
102
RTVSPost2010PropOp41
 70
     1
102
RTVSPost2010Prop42
 90
       50
102
RTVSPost2010PropOp42
 70
     1
102
RTVSPost2010Prop43
 90
        3
102
RTVSPost2010PropOp43
 70
     1
102
RTVSPost2010Prop44ColorIndex
 90
        5
102
RTVSPost2010Prop44ColorRGB
 90
      255
102
RTVSPost2010PropOp44
 70
     1
102
RTVSPost2010Prop45
280
     0
102
RTVSPost2010PropOp45
 70
     1
102
RTVSPost2010Prop46
 90
       50
102
RTVSPost2010PropOp46
 70
     1
102
RTVSPost2010Prop47
 90
       50
102
RTVSPost2010PropOp47
 70
     1
102
RTVSPost2010Prop48
 90
       50
102
RTVSPost2010PropOp48
 70
     1
102
RTVSPost2010Prop49
280
     0
102
RTVSPost2010PropOp49
 70
     1
102
RTVSPost2010Prop50
 90
       50
102
RTVSPost2010PropOp50
 70
     1
102
RTVSPost2010Prop51ColorIndex
 90
      256
102
RTVSPost2010Prop51ColorRGB
 90
-16777216
102
RTVSPost2010PropOp51
 70
     0
102
RTVSPost2010Prop52
140
1.0
102
RTVSPost2010PropOp52
 70
     0
102
RTVSPost2010Prop53
 90
        2
102
RTVSPost2010PropOp53
 70
     1
102
RTVSPost2010Prop54
  1
strokes_ogs.tif
102
RTVSPost2010PropOp54
 70
     1
102
RTVSPost2010Prop55
280
     0
102
RTVSPost2010PropOp55
 70
     1
102
RTVSPost2010Prop56
140
1.0
102
RTVSPost2010PropOp56
 70
     1
102
RTVSPost2010Prop57
140
1.0
102
RTVSPost2010PropOp57
 70
     1
  0
XRECORD
  5
4F2
102
{ACAD_REACTORS
330
4F1
102
}
330
4F1
100
AcDbXrecord
280
     1
102
RTVSPost2010Prop28
280
     0
102
RTVSPost2010PropOp28
 70
     1
102
RTVSPost2010Prop29
280
     1
102
RTVSPost2010PropOp29
 70
     1
102
RTVSPost2010Prop30
280
     1
102
RTVSPost2010PropOp30
 70
     1
102
RTVSPost2010Prop31
280
     0
102
RTVSPost2010PropOp31
 70
     1
102
RTVSPost2010Prop32
280
     0
102
RTVSPost2010PropOp32
 70
     1
102
RTVSPost2010Prop33
280
     0
102
RTVSPost2010PropOp33
 70
     1
102
RTVSPost2010Prop34
280
     0
102
RTVSPost2010PropOp34
 70
     1
102
RTVSPost2010Prop35
280
     0
102
RTVSPost2010PropOp35
 70
     1
102
RTVSPost2010Prop36
280
     0
102
RTVSPost2010PropOp36
 70
     1
102
RTVSPost2010Prop37
 90
       50
102
RTVSPost2010PropOp37
 70
     1
102
RTVSPost2010Prop38
140
0.0
102
RTVSPost2010PropOp38
 70
     1
102
RTVSPost2010Prop39
140
1.0
102
RTVSPost2010PropOp39
 70
     1
102
RTVSPost2010Prop40
 90
        0
102
RTVSPost2010PropOp40
 70
     1
102
RTVSPost2010Prop41ColorIndex
 90
       18
102
RTVSPost2010Prop41ColorRGB
 90
        0
102
RTVSPost2010PropOp41
 70
     1
102
RTVSPost2010Prop42
 90
       50
102
RTVSPost2010PropOp42
 70
     1
102
RTVSPost2010Prop43
 90
        3
102
RTVSPost2010PropOp43
 70
     1
102
RTVSPost2010Prop44ColorIndex
 90
        5
102
RTVSPost2010Prop44ColorRGB
 90
      255
102
RTVSPost2010PropOp44
 70
     1
102
RTVSPost2010Prop45
280
     0
102
RTVSPost2010PropOp45
 70
     1
102
RTVSPost2010Prop46
 90
       50
102
RTVSPost2010PropOp46
 70
     1
102
RTVSPost2010Prop47
 90
       50
102
RTVSPost2010PropOp47
 70
     1
102
RTVSPost2010Prop48
 90
       50
102
RTVSPost2010PropOp48
 70
     1
102
RTVSPost2010Prop49
280
     0
102
RTVSPost2010PropOp49
 70
     1
102
RTVSPost2010Prop50
 90
       50
102
RTVSPost2010PropOp50
 70
     1
102
RTVSPost2010Prop51ColorIndex
 90
      256
102
RTVSPost2010Prop51ColorRGB
 90
-16777216
102
RTVSPost2010PropOp51
 70
     0
102
RTVSPost2010Prop52
140
1.0
102
RTVSPost2010PropOp52
 70
     0
102
RTVSPost2010Prop53
 90
        2
102
RTVSPost2010PropOp53
 70
     1
102
RTVSPost2010Prop54
  1
strokes_ogs.tif
102
RTVSPost2010PropOp54
 70
     1
102
RTVSPost2010Prop55
280
     0
102
RTVSPost2010PropOp55
 70
     1
102
RTVSPost2010Prop56
140
1.0
102
RTVSPost2010PropOp56
 70
     1
102
RTVSPost2010Prop57
140
1.0
102
RTVSPost2010PropOp57
 70
     1
  0
XRECORD
  5
4EC
102
{ACAD_REACTORS
330
4EB
102
}
330
4EB
100
AcDbXrecord
280
     1
102
RTVSPost2010Prop28
280
     0
102
RTVSPost2010PropOp28
 70
     1
102
RTVSPost2010Prop29
280
     1
102
RTVSPost2010PropOp29
 70
     1
102
RTVSPost2010Prop30
280
     1
102
RTVSPost2010PropOp30
 70
     1
102
RTVSPost2010Prop31
280
     0
102
RTVSPost2010PropOp31
 70
     1
102
RTVSPost2010Prop32
280
     0
102
RTVSPost2010PropOp32
 70
     1
102
RTVSPost2010Prop33
280
     0
102
RTVSPost2010PropOp33
 70
     1
102
RTVSPost2010Prop34
280
     0
102
RTVSPost2010PropOp34
 70
     1
102
RTVSPost2010Prop35
280
     0
102
RTVSPost2010PropOp35
 70
     1
102
RTVSPost2010Prop36
280
     0
102
RTVSPost2010PropOp36
 70
     1
102
RTVSPost2010Prop37
 90
       50
102
RTVSPost2010PropOp37
 70
     1
102
RTVSPost2010Prop38
140
0.0
102
RTVSPost2010PropOp38
 70
     1
102
RTVSPost2010Prop39
140
1.0
102
RTVSPost2010PropOp39
 70
     1
102
RTVSPost2010Prop40
 90
        0
102
RTVSPost2010PropOp40
 70
     1
102
RTVSPost2010Prop41ColorIndex
 90
       18
102
RTVSPost2010Prop41ColorRGB
 90
        0
102
RTVSPost2010PropOp41
 70
     1
102
RTVSPost2010Prop42
 90
       50
102
RTVSPost2010PropOp42
 70
     1
102
RTVSPost2010Prop43
 90
        3
102
RTVSPost2010PropOp43
 70
     1
102
RTVSPost2010Prop44ColorIndex
 90
        5
102
RTVSPost2010Prop44ColorRGB
 90
      255
102
RTVSPost2010PropOp44
 70
     1
102
RTVSPost2010Prop45
280
     0
102
RTVSPost2010PropOp45
 70
     1
102
RTVSPost2010Prop46
 90
       50
102
RTVSPost2010PropOp46
 70
     1
102
RTVSPost2010Prop47
 90
       50
102
RTVSPost2010PropOp47
 70
     1
102
RTVSPost2010Prop48
 90
       50
102
RTVSPost2010PropOp48
 70
     1
102
RTVSPost2010Prop49
280
     0
102
RTVSPost2010PropOp49
 70
     1
102
RTVSPost2010Prop50
 90
       50
102
RTVSPost2010PropOp50
 70
     1
102
RTVSPost2010Prop51ColorIndex
 90
      256
102
RTVSPost2010Prop51ColorRGB
 90
-16777216
102
RTVSPost2010PropOp51
 70
     0
102
RTVSPost2010Prop52
140
1.0
102
RTVSPost2010PropOp52
 70
     0
102
RTVSPost2010Prop53
 90
        2
102
RTVSPost2010PropOp53
 70
     1
102
RTVSPost2010Prop54
  1
strokes_ogs.tif
102
RTVSPost2010PropOp54
 70
     1
102
RTVSPost2010Prop55
280
     0
102
RTVSPost2010PropOp55
 70
     1
102
RTVSPost2010Prop56
140
1.0
102
RTVSPost2010PropOp56
 70
     1
102
RTVSPost2010Prop57
140
1.0
102
RTVSPost2010PropOp57
 70
     1
  0
XRECORD
  5
4EE
102
{ACAD_REACTORS
330
4ED
102
}
330
4ED
100
AcDbXrecord
280
     1
102
RTVSPost2010Prop28
280
     0
102
RTVSPost2010PropOp28
 70
     1
102
RTVSPost2010Prop29
280
     1
102
RTVSPost2010PropOp29
 70
     1
102
RTVSPost2010Prop30
280
     1
102
RTVSPost2010PropOp30
 70
     1
102
RTVSPost2010Prop31
280
     0
102
RTVSPost2010PropOp31
 70
     1
102
RTVSPost2010Prop32
280
     0
102
RTVSPost2010PropOp32
 70
     1
102
RTVSPost2010Prop33
280
     0
102
RTVSPost2010PropOp33
 70
     1
102
RTVSPost2010Prop34
280
     0
102
RTVSPost2010PropOp34
 70
     1
102
RTVSPost2010Prop35
280
     0
102
RTVSPost2010PropOp35
 70
     1
102
RTVSPost2010Prop36
280
     0
102
RTVSPost2010PropOp36
 70
     1
102
RTVSPost2010Prop37
 90
       50
102
RTVSPost2010PropOp37
 70
     1
102
RTVSPost2010Prop38
140
0.0
102
RTVSPost2010PropOp38
 70
     1
102
RTVSPost2010Prop39
140
1.0
102
RTVSPost2010PropOp39
 70
     1
102
RTVSPost2010Prop40
 90
        0
102
RTVSPost2010PropOp40
 70
     1
102
RTVSPost2010Prop41ColorIndex
 90
       18
102
RTVSPost2010Prop41ColorRGB
 90
        0
102
RTVSPost2010PropOp41
 70
     1
102
RTVSPost2010Prop42
 90
       50
102
RTVSPost2010PropOp42
 70
     1
102
RTVSPost2010Prop43
 90
        3
102
RTVSPost2010PropOp43
 70
     1
102
RTVSPost2010Prop44ColorIndex
 90
        5
102
RTVSPost2010Prop44ColorRGB
 90
      255
102
RTVSPost2010PropOp44
 70
     1
102
RTVSPost2010Prop45
280
     0
102
RTVSPost2010PropOp45
 70
     1
102
RTVSPost2010Prop46
 90
       50
102
RTVSPost2010PropOp46
 70
     1
102
RTVSPost2010Prop47
 90
       50
102
RTVSPost2010PropOp47
 70
     1
102
RTVSPost2010Prop48
 90
       50
102
RTVSPost2010PropOp48
 70
     1
102
RTVSPost2010Prop49
280
     0
102
RTVSPost2010PropOp49
 70
     1
102
RTVSPost2010Prop50
 90
       50
102
RTVSPost2010PropOp50
 70
     1
102
RTVSPost2010Prop51ColorIndex
 90
      256
102
RTVSPost2010Prop51ColorRGB
 90
-16777216
102
RTVSPost2010PropOp51
 70
     0
102
RTVSPost2010Prop52
140
1.0
102
RTVSPost2010PropOp52
 70
     0
102
RTVSPost2010Prop53
 90
        2
102
RTVSPost2010PropOp53
 70
     1
102
RTVSPost2010Prop54
  1
strokes_ogs.tif
102
RTVSPost2010PropOp54
 70
     1
102
RTVSPost2010Prop55
280
     0
102
RTVSPost2010PropOp55
 70
     1
102
RTVSPost2010Prop56
140
1.0
102
RTVSPost2010PropOp56
 70
     1
102
RTVSPost2010Prop57
140
1.0
102
RTVSPost2010PropOp57
 70
     1
  0
XRECORD
  5
4DE
102
{ACAD_REACTORS
330
4DD
102
}
330
4DD
100
AcDbXrecord
280
     1
102
RTVSPost2010Prop28
280
     0
102
RTVSPost2010PropOp28
 70
     1
102
RTVSPost2010Prop29
280
     1
102
RTVSPost2010PropOp29
 70
     1
102
RTVSPost2010Prop30
280
     1
102
RTVSPost2010PropOp30
 70
     1
102
RTVSPost2010Prop31
280
     0
102
RTVSPost2010PropOp31
 70
     1
102
RTVSPost2010Prop32
280
     0
102
RTVSPost2010PropOp32
 70
     1
102
RTVSPost2010Prop33
280
     0
102
RTVSPost2010PropOp33
 70
     1
102
RTVSPost2010Prop34
280
     0
102
RTVSPost2010PropOp34
 70
     1
102
RTVSPost2010Prop35
280
     0
102
RTVSPost2010PropOp35
 70
     1
102
RTVSPost2010Prop36
280
     0
102
RTVSPost2010PropOp36
 70
     1
102
RTVSPost2010Prop37
 90
       50
102
RTVSPost2010PropOp37
 70
     1
102
RTVSPost2010Prop38
140
0.0
102
RTVSPost2010PropOp38
 70
     1
102
RTVSPost2010Prop39
140
1.0
102
RTVSPost2010PropOp39
 70
     1
102
RTVSPost2010Prop40
 90
        0
102
RTVSPost2010PropOp40
 70
     1
102
RTVSPost2010Prop41ColorIndex
 90
       18
102
RTVSPost2010Prop41ColorRGB
 90
        0
102
RTVSPost2010PropOp41
 70
     1
102
RTVSPost2010Prop42
 90
       50
102
RTVSPost2010PropOp42
 70
     1
102
RTVSPost2010Prop43
 90
        3
102
RTVSPost2010PropOp43
 70
     1
102
RTVSPost2010Prop44ColorIndex
 90
        5
102
RTVSPost2010Prop44ColorRGB
 90
      255
102
RTVSPost2010PropOp44
 70
     1
102
RTVSPost2010Prop45
280
     0
102
RTVSPost2010PropOp45
 70
     1
102
RTVSPost2010Prop46
 90
       50
102
RTVSPost2010PropOp46
 70
     1
102
RTVSPost2010Prop47
 90
       50
102
RTVSPost2010PropOp47
 70
     1
102
RTVSPost2010Prop48
 90
       50
102
RTVSPost2010PropOp48
 70
     1
102
RTVSPost2010Prop49
280
     0
102
RTVSPost2010PropOp49
 70
     1
102
RTVSPost2010Prop50
 90
       50
102
RTVSPost2010PropOp50
 70
     1
102
RTVSPost2010Prop51ColorIndex
 90
      256
102
RTVSPost2010Prop51ColorRGB
 90
-16777216
102
RTVSPost2010PropOp51
 70
     0
102
RTVSPost2010Prop52
140
1.0
102
RTVSPost2010PropOp52
 70
     0
102
RTVSPost2010Prop53
 90
        2
102
RTVSPost2010PropOp53
 70
     1
102
RTVSPost2010Prop54
  1
strokes_ogs.tif
102
RTVSPost2010PropOp54
 70
     1
102
RTVSPost2010Prop55
280
     0
102
RTVSPost2010PropOp55
 70
     1
102
RTVSPost2010Prop56
140
1.0
102
RTVSPost2010PropOp56
 70
     1
102
RTVSPost2010Prop57
140
1.0
102
RTVSPost2010PropOp57
 70
     1
  0
XRECORD
  5
4D0
102
{ACAD_REACTORS
330
4CF
102
}
330
4CF
100
AcDbXrecord
280
     1
102
RTVSPost2010Prop28
280
     0
102
RTVSPost2010PropOp28
 70
     1
102
RTVSPost2010Prop29
280
     1
102
RTVSPost2010PropOp29
 70
     1
102
RTVSPost2010Prop30
280
     1
102
RTVSPost2010PropOp30
 70
     1
102
RTVSPost2010Prop31
280
     0
102
RTVSPost2010PropOp31
 70
     1
102
RTVSPost2010Prop32
280
     0
102
RTVSPost2010PropOp32
 70
     1
102
RTVSPost2010Prop33
280
     0
102
RTVSPost2010PropOp33
 70
     1
102
RTVSPost2010Prop34
280
     0
102
RTVSPost2010PropOp34
 70
     1
102
RTVSPost2010Prop35
280
     0
102
RTVSPost2010PropOp35
 70
     1
102
RTVSPost2010Prop36
280
     0
102
RTVSPost2010PropOp36
 70
     1
102
RTVSPost2010Prop37
 90
       50
102
RTVSPost2010PropOp37
 70
     1
102
RTVSPost2010Prop38
140
0.0
102
RTVSPost2010PropOp38
 70
     1
102
RTVSPost2010Prop39
140
1.0
102
RTVSPost2010PropOp39
 70
     1
102
RTVSPost2010Prop40
 90
        0
102
RTVSPost2010PropOp40
 70
     1
102
RTVSPost2010Prop41ColorIndex
 90
       18
102
RTVSPost2010Prop41ColorRGB
 90
        0
102
RTVSPost2010PropOp41
 70
     1
102
RTVSPost2010Prop42
 90
       50
102
RTVSPost2010PropOp42
 70
     1
102
RTVSPost2010Prop43
 90
        3
102
RTVSPost2010PropOp43
 70
     1
102
RTVSPost2010Prop44ColorIndex
 90
        5
102
RTVSPost2010Prop44ColorRGB
 90
      255
102
RTVSPost2010PropOp44
 70
     1
102
RTVSPost2010Prop45
280
     0
102
RTVSPost2010PropOp45
 70
     1
102
RTVSPost2010Prop46
 90
       50
102
RTVSPost2010PropOp46
 70
     1
102
RTVSPost2010Prop47
 90
       50
102
RTVSPost2010PropOp47
 70
     1
102
RTVSPost2010Prop48
 90
       50
102
RTVSPost2010PropOp48
 70
     1
102
RTVSPost2010Prop49
280
     0
102
RTVSPost2010PropOp49
 70
     1
102
RTVSPost2010Prop50
 90
       50
102
RTVSPost2010PropOp50
 70
     1
102
RTVSPost2010Prop51ColorIndex
 90
      256
102
RTVSPost2010Prop51ColorRGB
 90
-16777216
102
RTVSPost2010PropOp51
 70
     0
102
RTVSPost2010Prop52
140
1.0
102
RTVSPost2010PropOp52
 70
     0
102
RTVSPost2010Prop53
 90
        2
102
RTVSPost2010PropOp53
 70
     1
102
RTVSPost2010Prop54
  1
strokes_ogs.tif
102
RTVSPost2010PropOp54
 70
     1
102
RTVSPost2010Prop55
280
     0
102
RTVSPost2010PropOp55
 70
     1
102
RTVSPost2010Prop56
140
1.0
102
RTVSPost2010PropOp56
 70
     1
102
RTVSPost2010Prop57
140
1.0
102
RTVSPost2010PropOp57
 70
     1
  0
XRECORD
  5
4F0
102
{ACAD_REACTORS
330
4EF
102
}
330
4EF
100
AcDbXrecord
280
     1
102
RTVSPost2010Prop28
280
     0
102
RTVSPost2010PropOp28
 70
     1
102
RTVSPost2010Prop29
280
     1
102
RTVSPost2010PropOp29
 70
     1
102
RTVSPost2010Prop30
280
     1
102
RTVSPost2010PropOp30
 70
     1
102
RTVSPost2010Prop31
280
     0
102
RTVSPost2010PropOp31
 70
     1
102
RTVSPost2010Prop32
280
     0
102
RTVSPost2010PropOp32
 70
     1
102
RTVSPost2010Prop33
280
     0
102
RTVSPost2010PropOp33
 70
     1
102
RTVSPost2010Prop34
280
     0
102
RTVSPost2010PropOp34
 70
     1
102
RTVSPost2010Prop35
280
     0
102
RTVSPost2010PropOp35
 70
     1
102
RTVSPost2010Prop36
280
     0
102
RTVSPost2010PropOp36
 70
     1
102
RTVSPost2010Prop37
 90
       50
102
RTVSPost2010PropOp37
 70
     1
102
RTVSPost2010Prop38
140
0.0
102
RTVSPost2010PropOp38
 70
     1
102
RTVSPost2010Prop39
140
1.0
102
RTVSPost2010PropOp39
 70
     1
102
RTVSPost2010Prop40
 90
        0
102
RTVSPost2010PropOp40
 70
     1
102
RTVSPost2010Prop41ColorIndex
 90
       18
102
RTVSPost2010Prop41ColorRGB
 90
        0
102
RTVSPost2010PropOp41
 70
     1
102
RTVSPost2010Prop42
 90
       50
102
RTVSPost2010PropOp42
 70
     1
102
RTVSPost2010Prop43
 90
        3
102
RTVSPost2010PropOp43
 70
     1
102
RTVSPost2010Prop44ColorIndex
 90
        5
102
RTVSPost2010Prop44ColorRGB
 90
      255
102
RTVSPost2010PropOp44
 70
     1
102
RTVSPost2010Prop45
280
     0
102
RTVSPost2010PropOp45
 70
     1
102
RTVSPost2010Prop46
 90
       50
102
RTVSPost2010PropOp46
 70
     1
102
RTVSPost2010Prop47
 90
       50
102
RTVSPost2010PropOp47
 70
     1
102
RTVSPost2010Prop48
 90
       50
102
RTVSPost2010PropOp48
 70
     1
102
RTVSPost2010Prop49
280
     0
102
RTVSPost2010PropOp49
 70
     1
102
RTVSPost2010Prop50
 90
       50
102
RTVSPost2010PropOp50
 70
     1
102
RTVSPost2010Prop51ColorIndex
 90
      256
102
RTVSPost2010Prop51ColorRGB
 90
-16777216
102
RTVSPost2010PropOp51
 70
     0
102
RTVSPost2010Prop52
140
1.0
102
RTVSPost2010PropOp52
 70
     0
102
RTVSPost2010Prop53
 90
        2
102
RTVSPost2010PropOp53
 70
     1
102
RTVSPost2010Prop54
  1
strokes_ogs.tif
102
RTVSPost2010PropOp54
 70
     1
102
RTVSPost2010Prop55
280
     0
102
RTVSPost2010PropOp55
 70
     1
102
RTVSPost2010Prop56
140
1.0
102
RTVSPost2010PropOp56
 70
     1
102
RTVSPost2010Prop57
140
1.0
102
RTVSPost2010PropOp57
 70
     1
  0
ENDSEC
  0
EOF
