  0
SECTION
  2
HEADER
  9
$ACADVER
  1
AC1027
  9
$ACADMAINTVER
 70
   105
  9
$DWGCODEPAGE
  3
ANSI_1252
  9
$REQUIREDVERSIONS
160
                 0
  9
$LASTSAVEDBY
  1
andrea.zolin
  9
$INSBASE
 10
0.0
 20
0.0
 30
0.0
  9
$EXTMIN
 10
0.0
 20
0.0
 30
0.0
  9
$EXTMAX
 10
297.0
 20
420.0
 30
0.0
  9
$LIMMIN
 10
0.0
 20
0.0
  9
$LIMMAX
 10
297.0
 20
420.0
  9
$ORTHOMODE
 70
     0
  9
$REGENMODE
 70
     1
  9
$FILLMODE
 70
     1
  9
$QTEXTMODE
 70
     0
  9
$MIRRTEXT
 70
     1
  9
$LTSCALE
 40
27.3777777778
  9
$ATTMODE
 70
     1
  9
$TEXTSIZE
 40
0.2
  9
$TRACEWID
 40
0.05
  9
$TEXTSTYLE
  7
STANDARD
  9
$CLAYER
  8
0
  9
$CELTYPE
  6
BYLAYER
  9
$CECOLOR
 62
   256
  9
$CELTSCALE
 40
1.0
  9
$DISPSILH
 70
     0
  9
$DIMSCALE
 40
1.0
  9
$DIMASZ
 40
2.5
  9
$DIMEXO
 40
0.75
  9
$DIMDLI
 40
18.9155555556
  9
$DIMRND
 40
0.0
  9
$DIMDLE
 40
0.0
  9
$DIMEXE
 40
0.75
  9
$DIMTP
 40
0.01
  9
$DIMTM
 40
0.01
  9
$DIMTXT
 40
3.0
  9
$DIMCEN
 40
4.48
  9
$DIMTSZ
 40
0.0
  9
$DIMTOL
 70
     1
  9
$DIMLIM
 70
     0
  9
$DIMTIH
 70
     1
  9
$DIMTOH
 70
     1
  9
$DIMSE1
 70
     0
  9
$DIMSE2
 70
     0
  9
$DIMTAD
 70
     0
  9
$DIMZIN
 70
     0
  9
$DIMBLK
  1
CLOSED
  9
$DIMASO
 70
     1
  9
$DIMSHO
 70
     1
  9
$DIMPOST
  1

  9
$DIMAPOST
  1

  9
$DIMALT
 70
     0
  9
$DIMALTD
 70
     2
  9
$DIMALTF
 40
25.4
  9
$DIMLFAC
 40
1.0
  9
$DIMTOFL
 70
     0
  9
$DIMTVP
 40
0.0
  9
$DIMTIX
 70
     0
  9
$DIMSOXD
 70
     0
  9
$DIMSAH
 70
     0
  9
$DIMBLK1
  1

  9
$DIMBLK2
  1

  9
$DIMSTYLE
  2
STANDARD
  9
$DIMCLRD
 70
     0
  9
$DIMCLRE
 70
     0
  9
$DIMCLRT
 70
     0
  9
$DIMTFAC
 40
1.0
  9
$DIMGAP
 40
0.625
  9
$DIMJUST
 70
     0
  9
$DIMSD1
 70
     0
  9
$DIMSD2
 70
     0
  9
$DIMTOLJ
 70
     1
  9
$DIMTZIN
 70
     0
  9
$DIMALTZ
 70
     0
  9
$DIMALTTZ
 70
     0
  9
$DIMUPT
 70
     0
  9
$DIMDEC
 70
     4
  9
$DIMTDEC
 70
     4
  9
$DIMALTU
 70
     2
  9
$DIMALTTD
 70
     2
  9
$DIMTXSTY
  7
STANDARD
  9
$DIMAUNIT
 70
     0
  9
$DIMADEC
 70
     0
  9
$DIMALTRND
 40
0.0
  9
$DIMAZIN
 70
     0
  9
$DIMDSEP
 70
    46
  9
$DIMATFIT
 70
     3
  9
$DIMFRAC
 70
     0
  9
$DIMLDRBLK
  1

  9
$DIMLUNIT
 70
     2
  9
$DIMLWD
 70
    -2
  9
$DIMLWE
 70
    -2
  9
$DIMTMOVE
 70
     2
  9
$DIMFXL
 40
1.0
  9
$DIMFXLON
 70
     0
  9
$DIMJOGANG
 40
0.7853981633974483
  9
$DIMTFILL
 70
     0
  9
$DIMTFILLCLR
 70
     0
  9
$DIMARCSYM
 70
     0
  9
$DIMLTYPE
  6

  9
$DIMLTEX1
  6

  9
$DIMLTEX2
  6

  9
$DIMTXTDIRECTION
 70
     0
  9
$LUNITS
 70
     2
  9
$LUPREC
 70
     4
  9
$SKETCHINC
 40
0.1
  9
$FILLETRAD
 40
0.5
  9
$AUNITS
 70
     0
  9
$AUPREC
 70
     0
  9
$MENU
  1
.
  9
$ELEVATION
 40
0.0
  9
$PELEVATION
 40
0.0
  9
$THICKNESS
 40
0.0
  9
$LIMCHECK
 70
     0
  9
$CHAMFERA
 40
0.0
  9
$CHAMFERB
 40
0.0
  9
$CHAMFERC
 40
0.0
  9
$CHAMFERD
 40
0.0
  9
$SKPOLY
 70
     0
  9
$TDCREATE
 40
2447893.041666667
  9
$TDUCREATE
 40
0.0
  9
$TDUPDATE
 40
2458473.674208229
  9
$TDUUPDATE
 40
2458473.632541562
  9
$TDINDWG
 40
0.0001315046
  9
$TDUSRTIMER
 40
0.0001315046
  9
$USRTIMER
 70
     1
  9
$ANGBASE
 50
0.0
  9
$ANGDIR
 70
     0
  9
$PDMODE
 70
     3
  9
$PDSIZE
 40
0.3125
  9
$PLINEWID
 40
0.0
  9
$SPLFRAME
 70
     0
  9
$SPLINETYPE
 70
     6
  9
$SPLINESEGS
 70
     8
  9
$HANDSEED
  5
416
  9
$SURFTAB1
 70
     6
  9
$SURFTAB2
 70
     6
  9
$SURFTYPE
 70
     6
  9
$SURFU
 70
     6
  9
$SURFV
 70
     6
  9
$UCSBASE
  2

  9
$UCSNAME
  2

  9
$UCSORG
 10
0.0
 20
0.0
 30
0.0
  9
$UCSXDIR
 10
1.0
 20
0.0
 30
0.0
  9
$UCSYDIR
 10
0.0
 20
1.0
 30
0.0
  9
$UCSORTHOREF
  2

  9
$UCSORTHOVIEW
 70
     0
  9
$UCSORGTOP
 10
0.0
 20
0.0
 30
0.0
  9
$UCSORGBOTTOM
 10
0.0
 20
0.0
 30
0.0
  9
$UCSORGLEFT
 10
0.0
 20
0.0
 30
0.0
  9
$UCSORGRIGHT
 10
0.0
 20
0.0
 30
0.0
  9
$UCSORGFRONT
 10
0.0
 20
0.0
 30
0.0
  9
$UCSORGBACK
 10
0.0
 20
0.0
 30
0.0
  9
$PUCSBASE
  2

  9
$PUCSNAME
  2

  9
$PUCSORG
 10
0.0
 20
0.0
 30
0.0
  9
$PUCSXDIR
 10
1.0
 20
0.0
 30
0.0
  9
$PUCSYDIR
 10
0.0
 20
1.0
 30
0.0
  9
$PUCSORTHOREF
  2

  9
$PUCSORTHOVIEW
 70
     0
  9
$PUCSORGTOP
 10
0.0
 20
0.0
 30
0.0
  9
$PUCSORGBOTTOM
 10
0.0
 20
0.0
 30
0.0
  9
$PUCSORGLEFT
 10
0.0
 20
0.0
 30
0.0
  9
$PUCSORGRIGHT
 10
0.0
 20
0.0
 30
0.0
  9
$PUCSORGFRONT
 10
0.0
 20
0.0
 30
0.0
  9
$PUCSORGBACK
 10
0.0
 20
0.0
 30
0.0
  9
$USERI1
 70
     0
  9
$USERI2
 70
     0
  9
$USERI3
 70
     0
  9
$USERI4
 70
     0
  9
$USERI5
 70
     0
  9
$USERR1
 40
0.0
  9
$USERR2
 40
0.0
  9
$USERR3
 40
0.0
  9
$USERR4
 40
0.0
  9
$USERR5
 40
0.0
  9
$WORLDVIEW
 70
     1
  9
$SHADEDGE
 70
     3
  9
$SHADEDIF
 70
    70
  9
$TILEMODE
 70
     0
  9
$MAXACTVP
 70
    64
  9
$PINSBASE
 10
0.0
 20
0.0
 30
0.0
  9
$PLIMCHECK
 70
     0
  9
$PEXTMIN
 10
0.0
 20
0.0
 30
0.0
  9
$PEXTMAX
 10
302.8888288288667
 20
420.0
 30
0.0
  9
$PLIMMIN
 10
-12.2568093385214
 20
-32.68482490272373
  9
$PLIMMAX
 10
674.1245136186769
 20
452.6848249027237
  9
$UNITMODE
 70
     0
  9
$VISRETAIN
 70
     1
  9
$PLINEGEN
 70
     0
  9
$PSLTSCALE
 70
     1
  9
$TREEDEPTH
 70
  3020
  9
$CMLSTYLE
  2
STANDARD
  9
$CMLJUST
 70
     0
  9
$CMLSCALE
 40
1.0
  9
$PROXYGRAPHICS
 70
     1
  9
$MEASUREMENT
 70
     1
  9
$CELWEIGHT
370
    -1
  9
$ENDCAPS
280
     0
  9
$JOINSTYLE
280
     0
  9
$LWDISPLAY
290
     0
  9
$INSUNITS
 70
     0
  9
$HYPERLINKBASE
  1

  9
$STYLESHEET
  1

  9
$XEDIT
290
     1
  9
$CEPSNTYPE
380
     0
  9
$PSTYLEMODE
290
     1
  9
$FINGERPRINTGUID
  2
{4CE49C8E-8E27-4D64-9D1C-089086EA8FA2}
  9
$VERSIONGUID
  2
{FAEB1C32-E019-11D5-929B-00C0DF256EC4}
  9
$EXTNAMES
290
     1
  9
$PSVPSCALE
 40
0.0
  9
$OLESTARTUP
290
     0
  9
$SORTENTS
280
   127
  9
$INDEXCTL
280
     0
  9
$HIDETEXT
280
     1
  9
$XCLIPFRAME
280
     2
  9
$HALOGAP
280
     0
  9
$OBSCOLOR
 70
   257
  9
$OBSLTYPE
280
     0
  9
$INTERSECTIONDISPLAY
280
     0
  9
$INTERSECTIONCOLOR
 70
   257
  9
$DIMASSOC
280
     2
  9
$PROJECTNAME
  1

  9
$CAMERADISPLAY
290
     0
  9
$LENSLENGTH
 40
50.0
  9
$CAMERAHEIGHT
 40
0.0
  9
$STEPSPERSEC
 40
2.0
  9
$STEPSIZE
 40
6.0
  9
$3DDWFPREC
 40
2.0
  9
$PSOLWIDTH
 40
0.25
  9
$PSOLHEIGHT
 40
4.0
  9
$LOFTANG1
 40
1.570796326794897
  9
$LOFTANG2
 40
1.570796326794897
  9
$LOFTMAG1
 40
0.0
  9
$LOFTMAG2
 40
0.0
  9
$LOFTPARAM
 70
     7
  9
$LOFTNORMALS
280
     1
  9
$LATITUDE
 40
37.795
  9
$LONGITUDE
 40
-122.394
  9
$NORTHDIRECTION
 40
0.0
  9
$TIMEZONE
 70
 -8000
  9
$LIGHTGLYPHDISPLAY
280
     1
  9
$TILEMODELIGHTSYNCH
280
     1
  9
$SOLIDHIST
280
     0
  9
$SHOWHIST
280
     1
  9
$DWFFRAME
280
     2
  9
$DGNFRAME
280
     2
  9
$REALWORLDSCALE
290
     1
  9
$INTERFERECOLOR
 62
   256
  9
$CSHADOW
280
     0
  9
$SHADOWPLANELOCATION
 40
0.0
  0
ENDSEC
  0
SECTION
  2
CLASSES
  0
CLASS
  1
ACDBDICTIONARYWDFLT
  2
AcDbDictionaryWithDefault
  3
ObjectDBX Classes
 90
        0
 91
        4
280
     0
281
     0
  0
CLASS
  1
SCALE
  2
AcDbScale
  3
ObjectDBX Classes
 90
     1153
 91
        4
280
     0
281
     0
  0
CLASS
  1
VISUALSTYLE
  2
AcDbVisualStyle
  3
ObjectDBX Classes
 90
     4095
 91
        4
280
     0
281
     0
  0
CLASS
  1
MATERIAL
  2
AcDbMaterial
  3
ObjectDBX Classes
 90
     1153
 91
        4
280
     0
281
     0
  0
CLASS
  1
TABLESTYLE
  2
AcDbTableStyle
  3
ObjectDBX Classes
 90
     4095
 91
        4
280
     0
281
     0
  0
CLASS
  1
MLEADERSTYLE
  2
AcDbMLeaderStyle
  3
ACDB_MLEADERSTYLE_CLASS
 90
     4095
 91
        4
280
     0
281
     0
  0
CLASS
  1
DICTIONARYVAR
  2
AcDbDictionaryVar
  3
ObjectDBX Classes
 90
        0
 91
        4
280
     0
281
     0
  0
CLASS
  1
CELLSTYLEMAP
  2
AcDbCellStyleMap
  3
ObjectDBX Classes
 90
     1152
 91
        4
280
     0
281
     0
  0
ENDSEC
  0
SECTION
  2
TABLES
  0
TABLE
  2
VPORT
  5
8
330
0
100
AcDbSymbolTable
 70
     1
  0
VPORT
  5
1F4
330
8
100
AcDbSymbolTableRecord
100
AcDbViewportTableRecord
  2
*ACTIVE
 70
     0
 10
0.0
 20
0.0
 11
1.0
 21
1.0
 12
148.5
 22
210.0
 13
0.0
 23
0.0
 14
1.0
 24
1.0
 15
0.0
 25
0.0
 16
0.0
 26
0.0
 36
1.0
 17
0.0
 27
0.0
 37
0.0
 40
420.0
 41
0.7071428571
 42
50.0
 43
0.0
 44
0.0
 50
0.0
 51
0.0
 71
     0
 72
   100
 73
     1
 74
     1
 75
     0
 76
     0
 77
     0
 78
     0
281
     0
 65
     1
110
0.0
120
0.0
130
0.0
111
1.0
121
0.0
131
0.0
112
0.0
122
1.0
132
0.0
 79
     0
146
0.0
348
3EF
 60
     3
 61
     5
292
     1
282
     1
141
0.0
142
0.0
 63
   256
  0
ENDTAB
  0
TABLE
  2
LTYPE
  5
5
330
0
100
AcDbSymbolTable
 70
     6
  0
LTYPE
  5
14
330
5
100
AcDbSymbolTableRecord
100
AcDbLinetypeTableRecord
  2
BYBLOCK
 70
     0
  3

 72
    65
 73
     0
 40
0.0
  0
LTYPE
  5
15
330
5
100
AcDbSymbolTableRecord
100
AcDbLinetypeTableRecord
  2
BYLAYER
 70
     0
  3

 72
    65
 73
     0
 40
0.0
  0
LTYPE
  5
16
330
5
100
AcDbSymbolTableRecord
100
AcDbLinetypeTableRecord
  2
CONTINUOUS
 70
     0
  3
Solid line
 72
    65
 73
     0
 40
0.0
  0
LTYPE
  5
1F5
330
5
100
AcDbSymbolTableRecord
100
AcDbLinetypeTableRecord
  2
CENTER
 70
     0
  3
____ _ ____ _ ____ _ ____ _ ____ _ ____ _ ____
 72
    65
 73
     4
 40
0.6
 49
0.375
 74
     0
 49
-0.075
 74
     0
 49
0.075
 74
     0
 49
-0.075
 74
     0
  0
LTYPE
  5
1F6
330
5
100
AcDbSymbolTableRecord
100
AcDbLinetypeTableRecord
  2
HIDDEN
 70
     0
  3
- - - - - - - - - - - - - - - - - - - -
 72
    65
 73
     2
 40
0.2
 49
0.1
 74
     0
 49
-0.1
 74
     0
  0
LTYPE
  5
1F7
330
5
100
AcDbSymbolTableRecord
100
AcDbLinetypeTableRecord
  2
PHANTOM
 70
     0
  3
_____ _ _ _____ _ _ _____ _ _ _____
 72
    65
 73
     6
 40
0.8
 49
0.45
 74
     0
 49
-0.05
 74
     0
 49
0.1
 74
     0
 49
-0.05
 74
     0
 49
0.1
 74
     0
 49
-0.05
 74
     0
  0
LTYPE
  5
1F8
330
5
100
AcDbSymbolTableRecord
100
AcDbLinetypeTableRecord
  2
DOT
 70
     0
  3
. . . . . . . . . . . . . . . . . . . .
 72
    65
 73
     2
 40
0.2
 49
0.1
 74
     0
 49
-0.1
 74
     0
  0
LTYPE
  5
1F9
330
5
100
AcDbSymbolTableRecord
100
AcDbLinetypeTableRecord
  2
DASHED
 70
     0
  3
- - - - - - - - - - - - - - - - - - - -
 72
    65
 73
     2
 40
0.2
 49
0.1
 74
     0
 49
-0.1
 74
     0
  0
ENDTAB
  0
TABLE
  2
LAYER
  5
2
330
0
100
AcDbSymbolTable
 70
    34
  0
LAYER
  5
10
330
2
100
AcDbSymbolTableRecord
100
AcDbLayerTableRecord
  2
0
 70
     0
 62
     7
  6
CONTINUOUS
370
    -3
390
3C4
347
406
348
0
  0
LAYER
  5
1FA
330
2
100
AcDbSymbolTableRecord
100
AcDbLayerTableRecord
  2
DEFAULT_1
 70
     0
 62
     7
  6
CENTER
370
    -3
390
3C4
347
406
348
0
  0
LAYER
  5
1FB
330
2
100
AcDbSymbolTableRecord
100
AcDbLayerTableRecord
  2
DEFAULT_2
 70
     0
 62
     8
  6
HIDDEN
370
    -3
390
3C4
347
406
348
0
  0
LAYER
  5
1FC
330
2
100
AcDbSymbolTableRecord
100
AcDbLayerTableRecord
  2
DEFAULT_3
 70
     0
 62
     7
  6
PHANTOM
370
    -3
390
3C4
347
406
348
0
  0
LAYER
  5
1FD
330
2
100
AcDbSymbolTableRecord
100
AcDbLayerTableRecord
  2
01_ALL_DTM_PLN
 70
     0
 62
     7
  6
CONTINUOUS
370
    -3
390
3C4
347
406
348
0
  0
LAYER
  5
1FE
330
2
100
AcDbSymbolTableRecord
100
AcDbLayerTableRecord
  2
01__ASM_ALL_DTM_PLN
 70
     0
 62
     7
  6
CONTINUOUS
370
    -3
390
3C4
347
406
348
0
  0
LAYER
  5
1FF
330
2
100
AcDbSymbolTableRecord
100
AcDbLayerTableRecord
  2
01__ASM_DEF_DTM_PLN
 70
     0
 62
     7
  6
CONTINUOUS
370
    -3
390
3C4
347
406
348
0
  0
LAYER
  5
200
330
2
100
AcDbSymbolTableRecord
100
AcDbLayerTableRecord
  2
01___PRT_ALL_DTM_PLN
 70
     0
 62
     7
  6
CONTINUOUS
370
    -3
390
3C4
347
406
348
0
  0
LAYER
  5
201
330
2
100
AcDbSymbolTableRecord
100
AcDbLayerTableRecord
  2
01___PRT_DEF_DTM_PLN
 70
     0
 62
     7
  6
CONTINUOUS
370
    -3
390
3C4
347
406
348
0
  0
LAYER
  5
202
330
2
100
AcDbSymbolTableRecord
100
AcDbLayerTableRecord
  2
02_ALL_AXES
 70
     0
 62
     7
  6
CONTINUOUS
370
    -3
390
3C4
347
406
348
0
  0
LAYER
  5
203
330
2
100
AcDbSymbolTableRecord
100
AcDbLayerTableRecord
  2
02__ASM_ALL_AXES
 70
     0
 62
     7
  6
CONTINUOUS
370
    -3
390
3C4
347
406
348
0
  0
LAYER
  5
204
330
2
100
AcDbSymbolTableRecord
100
AcDbLayerTableRecord
  2
02___PRT_ALL_AXES
 70
     0
 62
     7
  6
CONTINUOUS
370
    -3
390
3C4
347
406
348
0
  0
LAYER
  5
205
330
2
100
AcDbSymbolTableRecord
100
AcDbLayerTableRecord
  2
03_ALL_CURVES
 70
     0
 62
     7
  6
CONTINUOUS
370
    -3
390
3C4
347
406
348
0
  0
LAYER
  5
206
330
2
100
AcDbSymbolTableRecord
100
AcDbLayerTableRecord
  2
03__ASM_ALL_CURVES
 70
     0
 62
     7
  6
CONTINUOUS
370
    -3
390
3C4
347
406
348
0
  0
LAYER
  5
207
330
2
100
AcDbSymbolTableRecord
100
AcDbLayerTableRecord
  2
03___PRT_ALL_CURVES
 70
     0
 62
     7
  6
CONTINUOUS
370
    -3
390
3C4
347
406
348
0
  0
LAYER
  5
208
330
2
100
AcDbSymbolTableRecord
100
AcDbLayerTableRecord
  2
04_ALL_DTM_PNT
 70
     0
 62
     7
  6
CONTINUOUS
370
    -3
390
3C4
347
406
348
0
  0
LAYER
  5
209
330
2
100
AcDbSymbolTableRecord
100
AcDbLayerTableRecord
  2
04__ASM_ALL_DTM_PNT
 70
     0
 62
     7
  6
CONTINUOUS
370
    -3
390
3C4
347
406
348
0
  0
LAYER
  5
20A
330
2
100
AcDbSymbolTableRecord
100
AcDbLayerTableRecord
  2
04___PRT_ALL_DTM_PNT
 70
     0
 62
     7
  6
CONTINUOUS
370
    -3
390
3C4
347
406
348
0
  0
LAYER
  5
20B
330
2
100
AcDbSymbolTableRecord
100
AcDbLayerTableRecord
  2
05_ALL_DTM_CSYS
 70
     0
 62
     7
  6
CONTINUOUS
370
    -3
390
3C4
347
406
348
0
  0
LAYER
  5
20C
330
2
100
AcDbSymbolTableRecord
100
AcDbLayerTableRecord
  2
05__ASM_ALL_DTM_CSYS
 70
     0
 62
     7
  6
CONTINUOUS
370
    -3
390
3C4
347
406
348
0
  0
LAYER
  5
20D
330
2
100
AcDbSymbolTableRecord
100
AcDbLayerTableRecord
  2
05__ASM_DEF_DTM_CSYS
 70
     0
 62
     7
  6
CONTINUOUS
370
    -3
390
3C4
347
406
348
0
  0
LAYER
  5
20E
330
2
100
AcDbSymbolTableRecord
100
AcDbLayerTableRecord
  2
05___PRT_ALL_DTM_CSYS
 70
     0
 62
     7
  6
CONTINUOUS
370
    -3
390
3C4
347
406
348
0
  0
LAYER
  5
20F
330
2
100
AcDbSymbolTableRecord
100
AcDbLayerTableRecord
  2
05___PRT_DEF_DTM_CSYS
 70
     0
 62
     7
  6
CONTINUOUS
370
    -3
390
3C4
347
406
348
0
  0
LAYER
  5
210
330
2
100
AcDbSymbolTableRecord
100
AcDbLayerTableRecord
  2
06_ALL_SURFS
 70
     0
 62
     7
  6
CONTINUOUS
370
    -3
390
3C4
347
406
348
0
  0
LAYER
  5
211
330
2
100
AcDbSymbolTableRecord
100
AcDbLayerTableRecord
  2
06__ASM_ALL_SURFS
 70
     0
 62
     7
  6
CONTINUOUS
370
    -3
390
3C4
347
406
348
0
  0
LAYER
  5
212
330
2
100
AcDbSymbolTableRecord
100
AcDbLayerTableRecord
  2
06___PRT_ALL_SURFS
 70
     0
 62
     7
  6
CONTINUOUS
370
    -3
390
3C4
347
406
348
0
  0
LAYER
  5
213
330
2
100
AcDbSymbolTableRecord
100
AcDbLayerTableRecord
  2
07__ASM_ALL_SKELETONS
 70
     0
 62
     7
  6
CONTINUOUS
370
    -3
390
3C4
347
406
348
0
  0
LAYER
  5
214
330
2
100
AcDbSymbolTableRecord
100
AcDbLayerTableRecord
  2
1_ALL_PLANES
 70
     0
 62
     7
  6
CONTINUOUS
370
    -3
390
3C4
347
406
348
0
  0
LAYER
  5
215
330
2
100
AcDbSymbolTableRecord
100
AcDbLayerTableRecord
  2
2_ALL_CSYS
 70
     0
 62
     7
  6
CONTINUOUS
370
    -3
390
3C4
347
406
348
0
  0
LAYER
  5
216
330
2
100
AcDbSymbolTableRecord
100
AcDbLayerTableRecord
  2
3_ALL_AXES
 70
     0
 62
     7
  6
CONTINUOUS
370
    -3
390
3C4
347
406
348
0
  0
LAYER
  5
217
330
2
100
AcDbSymbolTableRecord
100
AcDbLayerTableRecord
  2
5_ALL_CURVES
 70
     0
 62
     7
  6
CONTINUOUS
370
    -3
390
3C4
347
406
348
0
  0
LAYER
  5
218
330
2
100
AcDbSymbolTableRecord
100
AcDbLayerTableRecord
  2
7_ALL_FEATURES
 70
     0
 62
     7
  6
CONTINUOUS
370
    -3
390
3C4
347
406
348
0
  0
LAYER
  5
219
330
2
100
AcDbSymbolTableRecord
100
AcDbLayerTableRecord
  2
8_ALL_NOTES_BALLOONS_SYMBOLS_GT
 70
     0
 62
     7
  6
CONTINUOUS
370
    -3
390
3C4
347
406
348
0
  0
LAYER
  5
21A
330
2
100
AcDbSymbolTableRecord
100
AcDbLayerTableRecord
  2
9_SOLID
 70
     0
 62
     7
  6
CONTINUOUS
370
    -3
390
3C4
347
406
348
0
  0
ENDTAB
  0
TABLE
  2
STYLE
  5
3
330
0
100
AcDbSymbolTable
 70
     4
  0
STYLE
  5
11
330
3
100
AcDbSymbolTableRecord
100
AcDbTextStyleTableRecord
  2
STANDARD
 70
     0
 40
0.0
 41
0.85
 50
0.0
 71
     0
 42
0.2
  3
txt
  4

  0
STYLE
  5
21B
330
3
100
AcDbSymbolTableRecord
100
AcDbTextStyleTableRecord
  2
TEXTSTYLE_1
 70
     0
 40
0.0
 41
0.8
 50
0.0
 71
     0
 42
0.2
  3
gdt
  4

  0
STYLE
  5
21C
330
3
100
AcDbSymbolTableRecord
100
AcDbTextStyleTableRecord
  2
TEXTSTYLE_2
 70
     0
 40
0.0
 41
0.85
 50
0.0
 71
     0
 42
0.2
  3
gdt
  4

  0
STYLE
  5
21D
330
3
100
AcDbSymbolTableRecord
100
AcDbTextStyleTableRecord
  2
TEXTSTYLE_3
 70
     0
 40
0.0
 41
2.0
 50
0.0
 71
     0
 42
0.2
  3
txt
  4

  0
ENDTAB
  0
TABLE
  2
VIEW
  5
6
330
0
100
AcDbSymbolTable
 70
     0
  0
ENDTAB
  0
TABLE
  2
UCS
  5
7
330
0
100
AcDbSymbolTable
 70
     0
  0
ENDTAB
  0
TABLE
  2
APPID
  5
9
330
0
100
AcDbSymbolTable
 70
     1
  0
APPID
  5
21E
330
9
100
AcDbSymbolTableRecord
100
AcDbRegAppTableRecord
  2
ACAD
 70
     0
  0
ENDTAB
  0
TABLE
  2
DIMSTYLE
  5
A
330
0
100
AcDbSymbolTable
 70
     3
100
AcDbDimStyleTable
  0
DIMSTYLE
105
224
330
A
100
AcDbSymbolTableRecord
100
AcDbDimStyleTableRecord
  2
STANDARD
 70
     0
 41
2.5
 42
0.75
 44
0.75
 47
0.01
 48
0.01
 71
     1
 73
     0
 74
     0
 77
     1
 78
     8
 79
     2
140
3.0
147
0.625
171
     1
178
     0
179
     2
271
     2
272
     2
284
     8
340
11
341
21F
342
21F
343
21F
344
21F
  0
DIMSTYLE
105
225
330
A
100
AcDbSymbolTableRecord
100
AcDbDimStyleTableRecord
  2
DIMSTYLE_1
 70
     0
  3
<>
 41
2.5
 42
0.75
 44
0.75
 47
0.3
 48
0.3
 73
     0
 74
     0
 77
     1
 78
     8
 79
     2
140
3.0
147
0.625
171
     1
172
     1
178
     0
179
     2
271
     2
272
     2
284
     8
288
     1
340
11
341
21F
342
21F
343
21F
344
21F
  0
DIMSTYLE
105
226
330
A
100
AcDbSymbolTableRecord
100
AcDbDimStyleTableRecord
  2
DIMSTYLE_2
 70
     0
 41
2.5
 42
0.75
 44
0.75
 47
0.3
 48
0.3
 73
     0
 74
     0
 77
     1
 78
     8
 79
     2
140
3.0
147
0.75
171
     1
178
     0
179
     2
271
     2
272
     2
284
     8
340
11
341
21F
342
21F
343
21F
344
21F
  0
ENDTAB
  0
TABLE
  2
BLOCK_RECORD
  5
1
330
0
100
AcDbSymbolTable
 70
     5
  0
BLOCK_RECORD
  5
1F
330
1
100
AcDbSymbolTableRecord
100
AcDbBlockTableRecord
  2
*MODEL_SPACE
340
3E8
 70
     0
280
     1
281
     0
  0
BLOCK_RECORD
  5
1B
330
1
100
AcDbSymbolTableRecord
100
AcDbBlockTableRecord
  2
*PAPER_SPACE
340
3E9
 70
     0
280
     1
281
     0
  0
BLOCK_RECORD
  5
21F
330
1
100
AcDbSymbolTableRecord
100
AcDbBlockTableRecord
  2
_CLOSED
340
0
102
{BLKREFS
331
276
331
27E
331
27F
102
}
 70
     0
280
     1
281
     0
  0
BLOCK_RECORD
  5
220
330
1
100
AcDbSymbolTableRecord
100
AcDbBlockTableRecord
  2
*D1
340
0
 70
     0
280
     1
281
     0
  0
BLOCK_RECORD
  5
221
330
1
100
AcDbSymbolTableRecord
100
AcDbBlockTableRecord
  2
*D2
340
0
 70
     0
280
     1
281
     0
  0
BLOCK_RECORD
  5
222
330
1
100
AcDbSymbolTableRecord
100
AcDbBlockTableRecord
  2
LOGO2_BL1
340
0
102
{BLKREFS
331
3AC
102
}
 70
     0
280
     1
281
     0
  0
BLOCK_RECORD
  5
223
330
1
100
AcDbSymbolTableRecord
100
AcDbBlockTableRecord
  2
PROIEZIONE_EU_BL0
340
0
102
{BLKREFS
331
3A9
102
}
 70
     0
280
     1
281
     0
  0
ENDTAB
  0
ENDSEC
  0
SECTION
  2
BLOCKS
  0
BLOCK
  5
20
330
1F
100
AcDbEntity
  8
0
100
AcDbBlockBegin
  2
*MODEL_SPACE
 70
     0
 10
0.0
 20
0.0
 30
0.0
  3
*MODEL_SPACE
  1

  0
ENDBLK
  5
21
330
1F
100
AcDbEntity
  8
0
100
AcDbBlockEnd
  0
BLOCK
  5
1C
330
1B
100
AcDbEntity
 67
     1
  8
0
100
AcDbBlockBegin
  2
*PAPER_SPACE
 70
     0
 10
0.0
 20
0.0
 30
0.0
  3
*PAPER_SPACE
  1

  0
ENDBLK
  5
1D
330
1B
100
AcDbEntity
 67
     1
  8
0
100
AcDbBlockEnd
  0
BLOCK
  5
26D
330
21F
100
AcDbEntity
  8
0
100
AcDbBlockBegin
  2
_CLOSED
 70
     0
 10
0.0
 20
0.0
 30
0.0
  3
_CLOSED
  1

  0
LINE
  5
26E
330
21F
100
AcDbEntity
  8
0
  6
ByBlock
 62
     0
100
AcDbLine
 10
0.0
 20
0.0
 30
0.0
 11
-1.0
 21
0.2
 31
0.0
  0
LINE
  5
26F
330
21F
100
AcDbEntity
  8
0
  6
ByBlock
 62
     0
100
AcDbLine
 10
-1.0
 20
0.2
 30
0.0
 11
-1.0
 21
-0.2
 31
0.0
  0
LINE
  5
270
330
21F
100
AcDbEntity
  8
0
  6
ByBlock
 62
     0
100
AcDbLine
 10
-1.0
 20
-0.2
 30
0.0
 11
0.0
 21
0.0
 31
0.0
  0
LINE
  5
271
330
21F
100
AcDbEntity
  8
0
  6
ByBlock
 62
     0
100
AcDbLine
 10
-1.0
 20
0.0
 30
0.0
 11
0.0
 21
0.0
 31
0.0
  0
ENDBLK
  5
272
330
21F
100
AcDbEntity
  8
0
  6
ByBlock
 62
     0
100
AcDbBlockEnd
  0
BLOCK
  5
273
330
220
100
AcDbEntity
  8
0
100
AcDbBlockBegin
  2
*D1
 70
     1
 10
0.0
 20
0.0
 30
0.0
  3
*D1
  1

  0
MTEXT
  5
274
330
220
100
AcDbEntity
  8
0
  6
Continuous
 62
     2
100
AcDbMText
 10
44.9800959591
 20
374.4855537507
 30
0.0
 40
3.0
 41
15.6428571429
 46
0.0
 71
     3
 72
     1
  1
{\Fgdt;n}\Ftxt;107
  7
TEXTSTYLE_2
 11
0.8946033885
 21
-0.4468610269
 31
0.0
 73
     1
 44
1.0
  0
LINE
  5
275
330
220
100
AcDbEntity
  8
0
  6
Continuous
 62
     2
100
AcDbLine
 10
49.6044066275
 20
367.9838745831
 30
0.0
 11
33.9749317714
 21
375.7909131816
 31
0.0
  0
INSERT
  5
276
330
220
100
AcDbEntity
  8
0
  6
Continuous
 62
     2
100
AcDbBlockReference
  2
_CLOSED
 10
49.6044066275
 20
367.9838745831
 30
0.0
 41
2.5
 42
2.5
 43
2.5
 50
333.4575316594
  0
ENDBLK
  5
277
330
220
100
AcDbEntity
  8
0
  6
ByBlock
 62
     0
100
AcDbBlockEnd
  0
BLOCK
  5
278
330
221
100
AcDbEntity
  8
0
100
AcDbBlockBegin
  2
*D2
 70
     1
 10
0.0
 20
0.0
 30
0.0
  3
*D2
  1

  0
MTEXT
  5
279
330
221
100
AcDbEntity
  8
0
  6
Continuous
 62
     2
100
AcDbMText
 10
25.5622932774
 20
211.3930532095
 30
0.0
 40
3.0
 41
9.6428571429
 46
0.0
 71
     2
 72
     1
  1
100
 11
0.0
 21
1.0
 31
0.0
 73
     1
 44
1.0
  0
LINE
  5
27A
330
221
100
AcDbEntity
  8
0
  6
Continuous
 62
     2
100
AcDbLine
 10
39.0092140751
 20
161.3930532095
 30
0.0
 11
28.5622932774
 21
161.3930532095
 31
0.0
  0
LINE
  5
27B
330
221
100
AcDbEntity
  8
0
  6
Continuous
 62
     2
100
AcDbLine
 10
39.242757375
 20
261.3930532095
 30
0.0
 11
28.5622932774
 21
261.3930532095
 31
0.0
  0
LINE
  5
27C
330
221
100
AcDbEntity
  8
0
  6
Continuous
 62
     2
100
AcDbLine
 10
29.3122932774
 20
161.3930532095
 30
0.0
 11
29.3122932774
 21
211.3930532095
 31
0.0
  0
LINE
  5
27D
330
221
100
AcDbEntity
  8
0
  6
Continuous
 62
     2
100
AcDbLine
 10
29.3122932774
 20
261.3930532095
 30
0.0
 11
29.3122932774
 21
211.3930532095
 31
0.0
  0
INSERT
  5
27E
330
221
100
AcDbEntity
  8
0
  6
Continuous
 62
     2
100
AcDbBlockReference
  2
_CLOSED
 10
29.3122932774
 20
161.3930532095
 30
0.0
 41
2.5
 42
2.5
 43
2.5
 50
270.0
  0
INSERT
  5
27F
330
221
100
AcDbEntity
  8
0
  6
Continuous
 62
     2
100
AcDbBlockReference
  2
_CLOSED
 10
29.3122932774
 20
261.3930532095
 30
0.0
 41
2.5
 42
2.5
 43
2.5
 50
90.0
  0
ENDBLK
  5
280
330
221
100
AcDbEntity
  8
0
  6
ByBlock
 62
     0
100
AcDbBlockEnd
  0
BLOCK
  5
227
330
222
100
AcDbEntity
  8
0
100
AcDbBlockBegin
  2
LOGO2_BL1
 70
     0
 10
179.175709207
 20
34.9949324324
 30
0.0
  3
LOGO2_BL1
  1

  0
LINE
  5
228
330
222
100
AcDbEntity
  8
0
  6
Continuous
 62
     7
100
AcDbLine
 10
170.9186344352
 20
38.1904237713
 30
0.0
 11
169.6142935058
 21
38.1904237713
 31
0.0
  0
LINE
  5
229
330
222
100
AcDbEntity
  8
0
  6
Continuous
 62
     7
100
AcDbLine
 10
169.6142935058
 20
38.1904237713
 30
0.0
 11
169.6142935058
 21
27.7313577114
 31
0.0
  0
LINE
  5
22A
330
222
100
AcDbEntity
  8
0
  6
Continuous
 62
     7
100
AcDbLine
 10
169.6142935058
 20
27.7313577114
 30
0.0
 11
174.0953483941
 21
27.7313577114
 31
0.0
  0
LINE
  5
22B
330
222
100
AcDbEntity
  8
0
  6
Continuous
 62
     7
100
AcDbLine
 10
174.0953483941
 20
27.7313577114
 30
0.0
 11
174.0953483941
 21
28.9242120365
 31
0.0
  0
LINE
  5
22C
330
222
100
AcDbEntity
  8
0
  6
Continuous
 62
     7
100
AcDbLine
 10
174.0953483941
 20
28.9242120365
 30
0.0
 11
170.9186344352
 21
28.9242120365
 31
0.0
  0
LINE
  5
22D
330
222
100
AcDbEntity
  8
0
  6
Continuous
 62
     7
100
AcDbLine
 10
170.9186344352
 20
28.9242120365
 30
0.0
 11
170.9186344352
 21
38.1904237713
 31
0.0
  0
LINE
  5
22E
330
222
100
AcDbEntity
  8
0
  6
Continuous
 62
     7
100
AcDbLine
 10
185.8549606515
 20
38.1904237713
 30
0.0
 11
184.5511431334
 21
38.1904237713
 31
0.0
  0
LINE
  5
22F
330
222
100
AcDbEntity
  8
0
  6
Continuous
 62
     7
100
AcDbLine
 10
184.5511431334
 20
38.1904237713
 30
0.0
 11
184.5511431334
 21
27.7313577114
 31
0.0
  0
LINE
  5
230
330
222
100
AcDbEntity
  8
0
  6
Continuous
 62
     7
100
AcDbLine
 10
184.5511431334
 20
27.7313577114
 30
0.0
 11
189.0323288745
 21
27.7313577114
 31
0.0
  0
LINE
  5
231
330
222
100
AcDbEntity
  8
0
  6
Continuous
 62
     7
100
AcDbLine
 10
189.0323288745
 20
27.7313577114
 30
0.0
 11
189.0323288745
 21
28.9242120365
 31
0.0
  0
LINE
  5
232
330
222
100
AcDbEntity
  8
0
  6
Continuous
 62
     7
100
AcDbLine
 10
189.0323288745
 20
28.9242120365
 30
0.0
 11
185.8549606515
 21
28.9242120365
 31
0.0
  0
LINE
  5
233
330
222
100
AcDbEntity
  8
0
  6
Continuous
 62
     7
100
AcDbLine
 10
185.8549606515
 20
28.9242120365
 30
0.0
 11
185.8549606515
 21
38.1904237713
 31
0.0
  0
LWPOLYLINE
  5
234
330
222
100
AcDbEntity
  8
0
  6
Continuous
 62
     7
100
AcDbPolyline
 90
        2
 70
     0
 43
0.2
 10
167.9686884167
 20
24.3878064045
 10
167.9686884167
 20
22.5307431551
  0
LWPOLYLINE
  5
235
330
222
100
AcDbEntity
  8
0
  6
Continuous
 62
     7
100
AcDbPolyline
 90
        2
 70
     0
 43
0.2
 10
167.9686884167
 20
22.5307431551
 10
168.7644044271
 20
22.5307431551
  0
LWPOLYLINE
  5
236
330
222
100
AcDbEntity
  8
0
  6
Continuous
 62
     7
100
AcDbPolyline
 90
        2
 70
     0
 43
0.2
 10
168.7644044271
 20
22.5307431551
 10
168.7644044271
 20
22.7427247267
  0
LWPOLYLINE
  5
237
330
222
100
AcDbEntity
  8
0
  6
Continuous
 62
     7
100
AcDbPolyline
 90
        2
 70
     0
 43
0.2
 10
168.7644044271
 20
22.7427247267
 10
168.2002979116
 20
22.7427247267
  0
LWPOLYLINE
  5
238
330
222
100
AcDbEntity
  8
0
  6
Continuous
 62
     7
100
AcDbPolyline
 90
        2
 70
     0
 43
0.2
 10
168.2002979116
 20
22.7427247267
 10
168.2002979116
 20
24.3878064045
  0
LWPOLYLINE
  5
239
330
222
100
AcDbEntity
  8
0
  6
Continuous
 62
     7
100
AcDbPolyline
 90
        2
 70
     0
 43
0.2
 10
168.2002979116
 20
24.3878064045
 10
167.9686884167
 20
24.3878064045
  0
SPLINE
  5
23A
330
222
100
AcDbEntity
  8
0
  6
Continuous
 62
     7
100
AcDbSpline
 70
     3
 71
     3
 72
    35
 73
    31
 74
     0
 42
0.000000001
 43
0.0000001
 40
0.0
 40
0.0
 40
0.0
 40
0.0
 40
1.0
 40
1.0
 40
1.0
 40
2.0
 40
2.0
 40
2.0
 40
3.0
 40
3.0
 40
3.0
 40
4.0
 40
4.0
 40
4.0
 40
5.0
 40
5.0
 40
5.0
 40
6.0
 40
6.0
 40
6.0
 40
7.0
 40
7.0
 40
7.0
 40
8.0
 40
8.0
 40
8.0
 40
9.0
 40
9.0
 40
9.0
 40
10.0
 40
10.0
 40
10.0
 40
10.0
 10
170.1626976826
 20
23.683294811
 30
0.0
 10
170.1626976826
 20
23.683294811
 30
0.0
 10
170.1626976826
 20
23.0211795319
 30
0.0
 10
170.1626976826
 20
23.0211795319
 30
0.0
 10
170.1626976826
 20
22.7060859366
 30
0.0
 10
170.3105613715
 20
22.4914873085
 30
0.0
 10
170.6506478558
 20
22.4914873085
 30
0.0
 10
170.9902109288
 20
22.4914873085
 30
0.0
 10
171.1383363232
 20
22.7060859366
 30
0.0
 10
171.1383363232
 20
23.0211795319
 30
0.0
 10
171.1383363232
 20
23.0211795319
 30
0.0
 10
171.1383363232
 20
23.683294811
 30
0.0
 10
171.1383363232
 20
23.683294811
 30
0.0
 10
171.1383363232
 20
23.683294811
 30
0.0
 10
170.9162790844
 20
23.683294811
 30
0.0
 10
170.9162790844
 20
23.683294811
 30
0.0
 10
170.9162790844
 20
23.683294811
 30
0.0
 10
170.9162790844
 20
23.0463032737
 30
0.0
 10
170.9162790844
 20
23.0463032737
 30
0.0
 10
170.9162790844
 20
22.8604922665
 30
0.0
 10
170.8695646269
 20
22.697711356
 30
0.0
 10
170.6506478558
 20
22.697711356
 30
0.0
 10
170.4312076733
 20
22.697711356
 30
0.0
 10
170.3844932159
 20
22.8604922665
 30
0.0
 10
170.3844932159
 20
23.0463032737
 30
0.0
 10
170.3844932159
 20
23.0463032737
 30
0.0
 10
170.3844932159
 20
23.683294811
 30
0.0
 10
170.3844932159
 20
23.683294811
 30
0.0
 10
170.3844932159
 20
23.683294811
 30
0.0
 10
170.1626976826
 20
23.683294811
 30
0.0
 10
170.1626976826
 20
23.683294811
 30
0.0
  0
SPLINE
  5
23B
330
222
100
AcDbEntity
  8
0
  6
Continuous
 62
     7
100
AcDbSpline
 70
     3
 71
     3
 72
    35
 73
    31
 74
     0
 42
0.000000001
 43
0.0000001
 40
0.0
 40
0.0
 40
0.0
 40
0.0
 40
1.0
 40
1.0
 40
1.0
 40
2.0
 40
2.0
 40
2.0
 40
3.0
 40
3.0
 40
3.0
 40
4.0
 40
4.0
 40
4.0
 40
5.0
 40
5.0
 40
5.0
 40
6.0
 40
6.0
 40
6.0
 40
7.0
 40
7.0
 40
7.0
 40
8.0
 40
8.0
 40
8.0
 40
9.0
 40
9.0
 40
9.0
 40
10.0
 40
10.0
 40
10.0
 40
10.0
 10
173.5614688804
 20
23.6419453193
 30
0.0
 10
173.4730123728
 20
23.6932396255
 30
0.0
 10
173.3595629761
 20
23.7183633673
 30
0.0
 10
173.2559275411
 20
23.7183633673
 30
0.0
 10
172.901054688
 20
23.7183633673
 30
0.0
 10
172.6256094977
 20
23.4545640782
 30
0.0
 10
172.6256094977
 20
23.0970741686
 30
0.0
 10
172.6256094977
 20
22.7521461299
 30
0.0
 10
172.9040643029
 20
22.4920107198
 30
0.0
 10
173.2436273759
 20
22.4920107198
 30
0.0
 10
173.3595629761
 20
22.4920107198
 30
0.0
 10
173.4603196491
 20
22.5139939939
 30
0.0
 10
173.5614688804
 20
22.5679053566
 30
0.0
 10
173.5614688804
 20
22.5679053566
 30
0.0
 10
173.5614688804
 20
22.850547452
 30
0.0
 10
173.5614688804
 20
22.850547452
 30
0.0
 10
173.4775922216
 20
22.7573802428
 30
0.0
 10
173.3740876394
 20
22.6982347673
 30
0.0
 10
173.2459827267
 20
22.6982347673
 30
0.0
 10
173.0122795866
 20
22.6982347673
 30
0.0
 10
172.8470124725
 20
22.870437081
 30
0.0
 10
172.8470124725
 20
23.1070189831
 30
0.0
 10
172.8470124725
 20
23.3190005547
 30
0.0
 10
173.0147657903
 20
23.5110924973
 30
0.0
 10
173.2315889163
 20
23.5110924973
 30
0.0
 10
173.3644045306
 20
23.5110924973
 30
0.0
 10
173.4730123728
 20
23.4571811347
 30
0.0
 10
173.5614688804
 20
23.3561627561
 30
0.0
 10
173.5614688804
 20
23.3561627561
 30
0.0
 10
173.5614688804
 20
23.6419453193
 30
0.0
 10
173.5614688804
 20
23.6419453193
 30
0.0
  0
SPLINE
  5
23C
330
222
100
AcDbEntity
  8
0
  6
Continuous
 62
     7
100
AcDbSpline
 70
     3
 71
     3
 72
    32
 73
    28
 74
     0
 42
0.000000001
 43
0.0000001
 40
0.0
 40
0.0
 40
0.0
 40
0.0
 40
1.0
 40
1.0
 40
1.0
 40
2.0
 40
2.0
 40
2.0
 40
3.0
 40
3.0
 40
3.0
 40
4.0
 40
4.0
 40
4.0
 40
5.0
 40
5.0
 40
5.0
 40
6.0
 40
6.0
 40
6.0
 40
7.0
 40
7.0
 40
7.0
 40
8.0
 40
8.0
 40
8.0
 40
9.0
 40
9.0
 40
9.0
 40
9.0
 10
176.0933401327
 20
23.0703801929
 30
0.0
 10
176.0933401327
 20
23.0703801929
 30
0.0
 10
176.0933401327
 20
23.1044019266
 30
0.0
 10
176.0933401327
 20
23.1044019266
 30
0.0
 10
176.0933401327
 20
23.4467129089
 30
0.0
 10
175.9204835549
 20
23.7183633673
 30
0.0
 10
175.5538339477
 20
23.7183633673
 30
0.0
 10
175.1822119333
 20
23.7183633673
 30
0.0
 10
174.9924753415
 20
23.4519470218
 30
0.0
 10
174.9924753415
 20
23.0970741686
 30
0.0
 10
174.9924753415
 20
22.7573802428
 30
0.0
 10
175.2065505582
 20
22.4914873085
 30
0.0
 10
175.5586755021
 20
22.4914873085
 30
0.0
 10
175.7826955333
 20
22.4914873085
 30
0.0
 10
175.9848631433
 20
22.6071612032
 30
0.0
 10
176.0933401327
 20
22.8065809038
 30
0.0
 10
176.0933401327
 20
22.8065809038
 30
0.0
 10
175.905697186
 20
22.9133568066
 30
0.0
 10
175.905697186
 20
22.9133568066
 30
0.0
 10
175.8222130856
 20
22.7746528153
 30
0.0
 10
175.7310086687
 20
22.6888133641
 30
0.0
 10
175.5614234114
 20
22.6888133641
 30
0.0
 10
175.3494418398
 20
22.6888133641
 30
0.0
 10
175.2164953727
 20
22.8735775487
 30
0.0
 10
175.2141400219
 20
23.0703801929
 30
0.0
 10
175.2141400219
 20
23.0703801929
 30
0.0
 10
176.0933401327
 20
23.0703801929
 30
0.0
 10
176.0933401327
 20
23.0703801929
 30
0.0
  0
SPLINE
  5
23D
330
222
100
AcDbEntity
  8
0
  6
Continuous
 62
     7
100
AcDbSpline
 70
     3
 71
     3
 72
    14
 73
    10
 74
     0
 42
0.000000001
 43
0.0000001
 40
0.0
 40
0.0
 40
0.0
 40
0.0
 40
1.0
 40
1.0
 40
1.0
 40
2.0
 40
2.0
 40
2.0
 40
3.0
 40
3.0
 40
3.0
 40
3.0
 10
175.2261784815
 20
23.2378718051
 30
0.0
 10
175.2537884269
 20
23.4027463607
 30
0.0
 10
175.381631634
 20
23.5257480134
 30
0.0
 10
175.5538339477
 20
23.5257480134
 30
0.0
 10
175.7310086687
 20
23.5257480134
 30
0.0
 10
175.8444580653
 20
23.4100741188
 30
0.0
 10
175.8716754523
 20
23.2378718051
 30
0.0
 10
175.8716754523
 20
23.2378718051
 30
0.0
 10
175.2261784815
 20
23.2378718051
 30
0.0
 10
175.2261784815
 20
23.2378718051
 30
0.0
  0
SPLINE
  5
23E
330
222
100
AcDbEntity
  8
0
  6
Continuous
 62
     7
100
AcDbSpline
 70
     3
 71
     3
 72
    20
 73
    16
 74
     0
 42
0.000000001
 43
0.0000001
 40
0.0
 40
0.0
 40
0.0
 40
0.0
 40
1.0
 40
1.0
 40
1.0
 40
2.0
 40
2.0
 40
2.0
 40
3.0
 40
3.0
 40
3.0
 40
4.0
 40
4.0
 40
4.0
 40
5.0
 40
5.0
 40
5.0
 40
5.0
 10
178.1173715829
 20
23.4472363202
 30
0.0
 10
178.1173715829
 20
23.4472363202
 30
0.0
 10
178.5285111495
 20
22.9447614838
 30
0.0
 10
178.5285111495
 20
22.9447614838
 30
0.0
 10
178.4124446964
 20
22.8290875892
 30
0.0
 10
178.2746566749
 20
22.6987581785
 30
0.0
 10
178.1027160668
 20
22.6987581785
 30
0.0
 10
177.9252796402
 20
22.6987581785
 30
0.0
 10
177.7577880281
 20
22.8631093229
 30
0.0
 10
177.7577880281
 20
23.0400223382
 30
0.0
 10
177.7577880281
 20
23.2179821761
 30
0.0
 10
177.9675451017
 20
23.3441242965
 30
0.0
 10
178.0951266031
 20
23.4320573929
 30
0.0
 10
178.0951266031
 20
23.4320573929
 30
0.0
 10
178.1173715829
 20
23.4472363202
 30
0.0
 10
178.1173715829
 20
23.4472363202
 30
0.0
  0
SPLINE
  5
23F
330
222
100
AcDbEntity
  8
0
  6
Continuous
 62
     7
100
AcDbSpline
 70
     3
 71
     3
 72
    23
 73
    19
 74
     0
 42
0.000000001
 43
0.0000001
 40
0.0
 40
0.0
 40
0.0
 40
0.0
 40
1.0
 40
1.0
 40
1.0
 40
2.0
 40
2.0
 40
2.0
 40
3.0
 40
3.0
 40
3.0
 40
4.0
 40
4.0
 40
4.0
 40
5.0
 40
5.0
 40
5.0
 40
6.0
 40
6.0
 40
6.0
 40
6.0
 10
178.1667030968
 20
23.7382529963
 30
0.0
 10
178.1667030968
 20
23.7382529963
 30
0.0
 10
178.1050714176
 20
23.8167646894
 30
0.0
 10
178.1050714176
 20
23.8167646894
 30
0.0
 10
178.051160055
 20
23.8853315681
 30
0.0
 10
177.9943699302
 20
23.9544218581
 30
0.0
 10
177.9943699302
 20
24.0481124787
 30
0.0
 10
177.9943699302
 20
24.166926841
 30
0.0
 10
178.0902850487
 20
24.2443917116
 30
0.0
 10
178.2012482418
 20
24.2443917116
 30
0.0
 10
178.3245116001
 20
24.2443917116
 30
0.0
 10
178.4178096621
 20
24.1732077765
 30
0.0
 10
178.4178096621
 20
24.0428783658
 30
0.0
 10
178.4178096621
 20
23.9078382535
 30
0.0
 10
178.2897047494
 20
23.8314202055
 30
0.0
 10
178.1961449817
 20
23.7576192139
 30
0.0
 10
178.1961449817
 20
23.7576192139
 30
0.0
 10
178.1667030968
 20
23.7382529963
 30
0.0
 10
178.1667030968
 20
23.7382529963
 30
0.0
  0
SPLINE
  5
240
330
222
100
AcDbEntity
  8
0
  6
Continuous
 62
     7
100
AcDbSpline
 70
     3
 71
     3
 72
    50
 73
    46
 74
     0
 42
0.000000001
 43
0.0000001
 40
0.0
 40
0.0
 40
0.0
 40
0.0
 40
1.0
 40
1.0
 40
1.0
 40
2.0
 40
2.0
 40
2.0
 40
3.0
 40
3.0
 40
3.0
 40
4.0
 40
4.0
 40
4.0
 40
5.0
 40
5.0
 40
5.0
 40
6.0
 40
6.0
 40
6.0
 40
7.0
 40
7.0
 40
7.0
 40
8.0
 40
8.0
 40
8.0
 40
9.0
 40
9.0
 40
9.0
 40
10.0
 40
10.0
 40
10.0
 40
11.0
 40
11.0
 40
11.0
 40
12.0
 40
12.0
 40
12.0
 40
13.0
 40
13.0
 40
13.0
 40
14.0
 40
14.0
 40
14.0
 40
15.0
 40
15.0
 40
15.0
 40
15.0
 10
178.8688593394
 20
22.5312665664
 30
0.0
 10
178.8688593394
 20
22.5312665664
 30
0.0
 10
179.1542493441
 20
22.5312665664
 30
0.0
 10
179.1542493441
 20
22.5312665664
 30
0.0
 10
179.1542493441
 20
22.5312665664
 30
0.0
 10
178.8218831764
 20
22.9421444274
 30
0.0
 10
178.8218831764
 20
22.9421444274
 30
0.0
 10
178.8218831764
 20
22.9421444274
 30
0.0
 10
179.0483894112
 20
23.2080373616
 30
0.0
 10
179.0483894112
 20
23.2080373616
 30
0.0
 10
179.0483894112
 20
23.2080373616
 30
0.0
 10
178.9001331639
 20
23.3608734577
 30
0.0
 10
178.9001331639
 20
23.3608734577
 30
0.0
 10
178.9001331639
 20
23.3608734577
 30
0.0
 10
178.6842260076
 20
23.1096360395
 30
0.0
 10
178.6842260076
 20
23.1096360395
 30
0.0
 10
178.6842260076
 20
23.1096360395
 30
0.0
 10
178.2971633603
 20
23.5775657309
 30
0.0
 10
178.2971633603
 20
23.5775657309
 30
0.0
 10
178.4526165128
 20
23.6916693916
 30
0.0
 10
178.6348944938
 20
23.8314202055
 30
0.0
 10
178.6348944938
 20
24.0407847206
 30
0.0
 10
178.6348944938
 20
24.2846943808
 30
0.0
 10
178.4328577366
 20
24.4281090737
 30
0.0
 10
178.2063515018
 20
24.4281090737
 30
0.0
 10
177.962180136
 20
24.4281090737
 30
0.0
 10
177.7778085099
 20
24.2773666228
 30
0.0
 10
177.7778085099
 20
24.0208950917
 30
0.0
 10
177.7778085099
 20
23.8633482941
 30
0.0
 10
177.8764715376
 20
23.7256911253
 30
0.0
 10
177.9818080593
 20
23.6147279323
 30
0.0
 10
177.9818080593
 20
23.6147279323
 30
0.0
 10
177.8662650175
 20
23.5309821263
 30
0.0
 10
177.8662650175
 20
23.5309821263
 30
0.0
 10
177.6885668853
 20
23.4027463607
 30
0.0
 10
177.5412266078
 20
23.2750340065
 30
0.0
 10
177.5412266078
 20
23.0379286931
 30
0.0
 10
177.5412266078
 20
22.7176009849
 30
0.0
 10
177.799791784
 20
22.4914873085
 30
0.0
 10
178.1101746777
 20
22.4914873085
 30
0.0
 10
178.3290914488
 20
22.4914873085
 30
0.0
 10
178.5262866515
 20
22.6165826064
 30
0.0
 10
178.6665608767
 20
22.7825039846
 30
0.0
 10
178.6665608767
 20
22.7825039846
 30
0.0
 10
178.8688593394
 20
22.5312665664
 30
0.0
 10
178.8688593394
 20
22.5312665664
 30
0.0
  0
LWPOLYLINE
  5
241
330
222
100
AcDbEntity
  8
0
  6
Continuous
 62
     7
100
AcDbPolyline
 90
        2
 70
     0
 43
0.2
 10
180.8043034292
 20
24.3878064045
 10
180.5729556399
 20
24.3878064045
  0
LWPOLYLINE
  5
242
330
222
100
AcDbEntity
  8
0
  6
Continuous
 62
     7
100
AcDbPolyline
 90
        2
 70
     0
 43
0.2
 10
180.5729556399
 20
24.3878064045
 10
180.5729556399
 20
22.5307431551
  0
LWPOLYLINE
  5
243
330
222
100
AcDbEntity
  8
0
  6
Continuous
 62
     7
100
AcDbPolyline
 90
        2
 70
     0
 43
0.2
 10
180.5729556399
 20
22.5307431551
 10
181.3682790918
 20
22.5307431551
  0
LWPOLYLINE
  5
244
330
222
100
AcDbEntity
  8
0
  6
Continuous
 62
     7
100
AcDbPolyline
 90
        2
 70
     0
 43
0.2
 10
181.3682790918
 20
22.5307431551
 10
181.3682790918
 20
22.7427247267
  0
LWPOLYLINE
  5
245
330
222
100
AcDbEntity
  8
0
  6
Continuous
 62
     7
100
AcDbPolyline
 90
        2
 70
     0
 43
0.2
 10
181.3682790918
 20
22.7427247267
 10
180.8043034292
 20
22.7427247267
  0
LWPOLYLINE
  5
246
330
222
100
AcDbEntity
  8
0
  6
Continuous
 62
     7
100
AcDbPolyline
 90
        2
 70
     0
 43
0.2
 10
180.8043034292
 20
22.7427247267
 10
180.8043034292
 20
24.3878064045
  0
LWPOLYLINE
  5
247
330
222
100
AcDbEntity
  8
0
  6
Continuous
 62
     7
100
AcDbPolyline
 90
        2
 70
     0
 43
0.2
 10
183.0473825033
 20
23.683294811
 10
182.8262412342
 20
23.683294811
  0
LWPOLYLINE
  5
248
330
222
100
AcDbEntity
  8
0
  6
Continuous
 62
     7
100
AcDbPolyline
 90
        2
 70
     0
 43
0.2
 10
182.8262412342
 20
23.683294811
 10
182.8262412342
 20
22.5312665664
  0
LWPOLYLINE
  5
249
330
222
100
AcDbEntity
  8
0
  6
Continuous
 62
     7
100
AcDbPolyline
 90
        2
 70
     0
 43
0.2
 10
182.8262412342
 20
22.5312665664
 10
183.0473825033
 20
22.5312665664
  0
LWPOLYLINE
  5
24A
330
222
100
AcDbEntity
  8
0
  6
Continuous
 62
     7
100
AcDbPolyline
 90
        2
 70
     0
 43
0.2
 10
183.0473825033
 20
22.5312665664
 10
183.0473825033
 20
23.683294811
  0
LWPOLYLINE
  5
24B
330
222
100
AcDbEntity
  8
0
  6
Continuous
 62
     7
100
AcDbPolyline
 90
        2
 70
     1
 43
0.2
 10
182.7843592261
 20
24.21324874
 42
1.0
 10
183.089526217
 20
24.21324874
 42
1.0
  0
SPLINE
  5
24C
330
222
100
AcDbEntity
  8
0
  6
Continuous
 62
     7
100
AcDbSpline
 70
     3
 71
     3
 72
    17
 73
    13
 74
     0
 42
0.000000001
 43
0.0000001
 40
0.0
 40
0.0
 40
0.0
 40
0.0
 40
1.0
 40
1.0
 40
1.0
 40
2.0
 40
2.0
 40
2.0
 40
3.0
 40
3.0
 40
3.0
 40
4.0
 40
4.0
 40
4.0
 40
4.0
 10
185.177666445
 20
22.6888133641
 30
0.0
 10
184.9437015993
 20
22.6888133641
 30
0.0
 10
184.8133721886
 20
22.8908501212
 30
0.0
 10
184.8133721886
 20
23.1070189831
 30
0.0
 10
184.8133721886
 20
23.3216176111
 30
0.0
 10
184.9491974178
 20
23.5205139005
 30
0.0
 10
185.177666445
 20
23.5205139005
 30
0.0
 10
185.4171271092
 20
23.5205139005
 30
0.0
 10
185.5526906327
 20
23.3315624256
 30
0.0
 10
185.5526906327
 20
23.1070189831
 30
0.0
 10
185.5526906327
 20
22.8809053067
 30
0.0
 10
185.41948246
 20
22.6888133641
 30
0.0
 10
185.177666445
 20
22.6888133641
 30
0.0
  0
SPLINE
  5
24D
330
222
100
AcDbEntity
  8
0
  6
Continuous
 62
     7
100
AcDbSpline
 70
     3
 71
     3
 72
    50
 73
    46
 74
     0
 42
0.000000001
 43
0.0000001
 40
0.0
 40
0.0
 40
0.0
 40
0.0
 40
1.0
 40
1.0
 40
1.0
 40
2.0
 40
2.0
 40
2.0
 40
3.0
 40
3.0
 40
3.0
 40
4.0
 40
4.0
 40
4.0
 40
5.0
 40
5.0
 40
5.0
 40
6.0
 40
6.0
 40
6.0
 40
7.0
 40
7.0
 40
7.0
 40
8.0
 40
8.0
 40
8.0
 40
9.0
 40
9.0
 40
9.0
 40
10.0
 40
10.0
 40
10.0
 40
11.0
 40
11.0
 40
11.0
 40
12.0
 40
12.0
 40
12.0
 40
13.0
 40
13.0
 40
13.0
 40
14.0
 40
14.0
 40
14.0
 40
15.0
 40
15.0
 40
15.0
 40
15.0
 10
185.7617934422
 20
23.6838182223
 30
0.0
 10
185.7617934422
 20
23.6838182223
 30
0.0
 10
185.5401287618
 20
23.6838182223
 30
0.0
 10
185.5401287618
 20
23.6838182223
 30
0.0
 10
185.5401287618
 20
23.6838182223
 30
0.0
 10
185.5401287618
 20
23.4864921668
 30
0.0
 10
185.5401287618
 20
23.4864921668
 30
0.0
 10
185.5401287618
 20
23.4864921668
 30
0.0
 10
185.5354180602
 20
23.4864921668
 30
0.0
 10
185.5354180602
 20
23.4864921668
 30
0.0
 10
185.4440827905
 20
23.6293834484
 30
0.0
 10
185.3061639161
 20
23.717839956
 30
0.0
 10
185.1334381911
 20
23.717839956
 30
0.0
 10
184.8010720233
 20
23.717839956
 30
0.0
 10
184.5919692138
 20
23.4299637477
 30
0.0
 10
184.5919692138
 20
23.1143467411
 30
0.0
 10
184.5919692138
 20
22.7845976298
 30
0.0
 10
184.7890335637
 20
22.4914873085
 30
0.0
 10
185.1439064169
 20
22.4914873085
 30
0.0
 10
185.3061639161
 20
22.4914873085
 30
0.0
 10
185.4461764356
 20
22.5799438162
 30
0.0
 10
185.5354180602
 20
22.7107966382
 30
0.0
 10
185.5354180602
 20
22.7107966382
 30
0.0
 10
185.5401287618
 20
22.7107966382
 30
0.0
 10
185.5401287618
 20
22.7107966382
 30
0.0
 10
185.5401287618
 20
22.7107966382
 30
0.0
 10
185.5401287618
 20
22.4914873085
 30
0.0
 10
185.5401287618
 20
22.4914873085
 30
0.0
 10
185.5401287618
 20
22.2549054064
 30
0.0
 10
185.4836003427
 20
22.0680475767
 30
0.0
 10
185.2103796504
 20
22.0680475767
 30
0.0
 10
185.0080811877
 20
22.0680475767
 30
0.0
 10
184.8654516117
 20
22.1863385277
 30
0.0
 10
184.8654516117
 20
22.3925625751
 30
0.0
 10
184.8654516117
 20
22.3925625751
 30
0.0
 10
184.6437869313
 20
22.3925625751
 30
0.0
 10
184.6437869313
 20
22.3925625751
 30
0.0
 10
184.6487593386
 20
22.0680475767
 30
0.0
 10
184.8798454222
 20
21.8712449324
 30
0.0
 10
185.2001731303
 20
21.8712449324
 30
0.0
 10
185.6482131928
 20
21.8712449324
 30
0.0
 10
185.7617934422
 20
22.1565040843
 30
0.0
 10
185.7617934422
 20
22.5532498405
 30
0.0
 10
185.7617934422
 20
22.5532498405
 30
0.0
 10
185.7617934422
 20
23.6838182223
 30
0.0
 10
185.7617934422
 20
23.6838182223
 30
0.0
  0
SPLINE
  5
24E
330
222
100
AcDbEntity
  8
0
  6
Continuous
 62
     7
100
AcDbSpline
 70
     3
 71
     3
 72
    44
 73
    40
 74
     0
 42
0.000000001
 43
0.0000001
 40
0.0
 40
0.0
 40
0.0
 40
0.0
 40
1.0
 40
1.0
 40
1.0
 40
2.0
 40
2.0
 40
2.0
 40
3.0
 40
3.0
 40
3.0
 40
4.0
 40
4.0
 40
4.0
 40
5.0
 40
5.0
 40
5.0
 40
6.0
 40
6.0
 40
6.0
 40
7.0
 40
7.0
 40
7.0
 40
8.0
 40
8.0
 40
8.0
 40
9.0
 40
9.0
 40
9.0
 40
10.0
 40
10.0
 40
10.0
 40
11.0
 40
11.0
 40
11.0
 40
12.0
 40
12.0
 40
12.0
 40
13.0
 40
13.0
 40
13.0
 40
13.0
 10
187.3307187776
 20
24.6688782661
 30
0.0
 10
187.3307187776
 20
24.6688782661
 30
0.0
 10
187.3307187776
 20
22.5307431551
 30
0.0
 10
187.3307187776
 20
22.5307431551
 30
0.0
 10
187.3307187776
 20
22.5307431551
 30
0.0
 10
187.5521217524
 20
22.5307431551
 30
0.0
 10
187.5521217524
 20
22.5307431551
 30
0.0
 10
187.5521217524
 20
22.5307431551
 30
0.0
 10
187.5521217524
 20
23.0604353785
 30
0.0
 10
187.5521217524
 20
23.0604353785
 30
0.0
 10
187.5521217524
 20
23.2703233049
 30
0.0
 10
187.5521217524
 20
23.5210373118
 30
0.0
 10
187.8373809043
 20
23.5210373118
 30
0.0
 10
188.0642796976
 20
23.5210373118
 30
0.0
 10
188.0912353789
 20
23.3880908447
 30
0.0
 10
188.0912353789
 20
23.1918116117
 30
0.0
 10
188.0912353789
 20
23.1918116117
 30
0.0
 10
188.0912353789
 20
22.5307431551
 30
0.0
 10
188.0912353789
 20
22.5307431551
 30
0.0
 10
188.0912353789
 20
22.5307431551
 30
0.0
 10
188.3131617649
 20
22.5307431551
 30
0.0
 10
188.3131617649
 20
22.5307431551
 30
0.0
 10
188.3131617649
 20
22.5307431551
 30
0.0
 10
188.3131617649
 20
23.2179821761
 30
0.0
 10
188.3131617649
 20
23.2179821761
 30
0.0
 10
188.3131617649
 20
23.4985306264
 30
0.0
 10
188.2291542532
 20
23.7183633673
 30
0.0
 10
187.9041158435
 20
23.7183633673
 30
0.0
 10
187.7643650296
 20
23.7183633673
 30
0.0
 10
187.6261844496
 20
23.6518901338
 30
0.0
 10
187.556832454
 20
23.5288884811
 30
0.0
 10
187.556832454
 20
23.5288884811
 30
0.0
 10
187.5521217524
 20
23.5288884811
 30
0.0
 10
187.5521217524
 20
23.5288884811
 30
0.0
 10
187.5521217524
 20
23.5288884811
 30
0.0
 10
187.5521217524
 20
24.6688782661
 30
0.0
 10
187.5521217524
 20
24.6688782661
 30
0.0
 10
187.5521217524
 20
24.6688782661
 30
0.0
 10
187.3307187776
 20
24.6688782661
 30
0.0
 10
187.3307187776
 20
24.6688782661
 30
0.0
  0
LWPOLYLINE
  5
24F
330
222
100
AcDbEntity
  8
0
  6
Continuous
 62
     7
100
AcDbPolyline
 90
        2
 70
     0
 43
0.2
 10
190.1529524418
 20
23.4765473523
 10
190.3693830093
 20
23.4765473523
  0
LWPOLYLINE
  5
250
330
222
100
AcDbEntity
  8
0
  6
Continuous
 62
     7
100
AcDbPolyline
 90
        2
 70
     0
 43
0.2
 10
190.3693830093
 20
23.4765473523
 10
190.3693830093
 20
23.683294811
  0
LWPOLYLINE
  5
251
330
222
100
AcDbEntity
  8
0
  6
Continuous
 62
     7
100
AcDbPolyline
 90
        2
 70
     0
 43
0.2
 10
190.3693830093
 20
23.683294811
 10
190.1529524418
 20
23.683294811
  0
LWPOLYLINE
  5
252
330
222
100
AcDbEntity
  8
0
  6
Continuous
 62
     7
100
AcDbPolyline
 90
        2
 70
     0
 43
0.2
 10
190.1529524418
 20
23.683294811
 10
190.1529524418
 20
24.1240071154
  0
LWPOLYLINE
  5
253
330
222
100
AcDbEntity
  8
0
  6
Continuous
 62
     7
100
AcDbPolyline
 90
        2
 70
     0
 43
0.2
 10
190.1529524418
 20
24.1240071154
 10
189.9312877614
 20
24.1240071154
  0
LWPOLYLINE
  5
254
330
222
100
AcDbEntity
  8
0
  6
Continuous
 62
     7
100
AcDbPolyline
 90
        2
 70
     0
 43
0.2
 10
189.9312877614
 20
24.1240071154
 10
189.9312877614
 20
23.683294811
  0
LWPOLYLINE
  5
255
330
222
100
AcDbEntity
  8
0
  6
Continuous
 62
     7
100
AcDbPolyline
 90
        2
 70
     0
 43
0.2
 10
189.9312877614
 20
23.683294811
 10
189.8106414595
 20
23.683294811
  0
LWPOLYLINE
  5
256
330
222
100
AcDbEntity
  8
0
  6
Continuous
 62
     7
100
AcDbPolyline
 90
        2
 70
     0
 43
0.2
 10
189.8106414595
 20
23.683294811
 10
189.8106414595
 20
23.4765473523
  0
LWPOLYLINE
  5
257
330
222
100
AcDbEntity
  8
0
  6
Continuous
 62
     7
100
AcDbPolyline
 90
        2
 70
     0
 43
0.2
 10
189.8106414595
 20
23.4765473523
 10
189.9312877614
 20
23.4765473523
  0
LWPOLYLINE
  5
258
330
222
100
AcDbEntity
  8
0
  6
Continuous
 62
     7
100
AcDbPolyline
 90
        2
 70
     0
 43
0.2
 10
189.9312877614
 20
23.4765473523
 10
189.9312877614
 20
22.5307431551
  0
LWPOLYLINE
  5
259
330
222
100
AcDbEntity
  8
0
  6
Continuous
 62
     7
100
AcDbPolyline
 90
        2
 70
     0
 43
0.2
 10
189.9312877614
 20
22.5307431551
 10
190.1529524418
 20
22.5307431551
  0
LWPOLYLINE
  5
25A
330
222
100
AcDbEntity
  8
0
  6
Continuous
 62
     7
100
AcDbPolyline
 90
        2
 70
     0
 43
0.2
 10
190.1529524418
 20
22.5307431551
 10
190.1529524418
 20
23.4765473523
  0
SPLINE
  5
25B
330
222
100
AcDbEntity
  8
0
  6
Continuous
 62
     7
100
AcDbSpline
 70
     3
 71
     3
 72
    20
 73
    16
 74
     0
 42
0.000000001
 43
0.0000001
 40
0.0
 40
0.0
 40
0.0
 40
0.0
 40
1.0
 40
1.0
 40
1.0
 40
2.0
 40
2.0
 40
2.0
 40
3.0
 40
3.0
 40
3.0
 40
4.0
 40
4.0
 40
4.0
 40
5.0
 40
5.0
 40
5.0
 40
5.0
 10
177.9349627491
 20
32.8916695985
 30
0.0
 10
177.9349627491
 20
32.8916695985
 30
0.0
 10
180.2513194035
 20
30.0621081763
 30
0.0
 10
180.2513194035
 20
30.0621081763
 30
0.0
 10
179.5996723501
 20
29.4099377116
 30
0.0
 10
178.8227991461
 20
28.6740214409
 30
0.0
 10
177.8516095015
 20
28.6740214409
 30
0.0
 10
176.853071617
 20
28.6740214409
 30
0.0
 10
175.9097536235
 20
29.6035998881
 30
0.0
 10
175.9097536235
 20
30.6027920367
 30
0.0
 10
175.9097536235
 20
31.6019841852
 30
0.0
 10
177.0886066966
 20
32.3085894238
 30
0.0
 10
177.8101291569
 20
32.8084472038
 30
0.0
 10
177.8101291569
 20
32.8084472038
 30
0.0
 10
177.9349627491
 20
32.8916695985
 30
0.0
 10
177.9349627491
 20
32.8916695985
 30
0.0
  0
SPLINE
  5
25C
330
222
100
AcDbEntity
  8
0
  6
Continuous
 62
     7
100
AcDbSpline
 70
     3
 71
     3
 72
    23
 73
    19
 74
     0
 42
0.000000001
 43
0.0000001
 40
0.0
 40
0.0
 40
0.0
 40
0.0
 40
1.0
 40
1.0
 40
1.0
 40
2.0
 40
2.0
 40
2.0
 40
3.0
 40
3.0
 40
3.0
 40
4.0
 40
4.0
 40
4.0
 40
5.0
 40
5.0
 40
5.0
 40
6.0
 40
6.0
 40
6.0
 40
6.0
 10
178.2123707316
 20
34.5294235183
 30
0.0
 10
178.2123707316
 20
34.5294235183
 30
0.0
 10
177.8658724591
 20
34.9727528791
 30
0.0
 10
177.8658724591
 20
34.9727528791
 30
0.0
 10
177.5600694141
 20
35.3608623491
 30
0.0
 10
177.241181087
 20
35.7493643775
 30
0.0
 10
177.241181087
 20
36.2763086915
 30
0.0
 10
177.241181087
 20
36.9424804082
 30
0.0
 10
177.7825192115
 20
37.3862023275
 30
0.0
 10
178.4064254666
 20
37.3862023275
 30
0.0
 10
179.1002071287
 20
37.3862023275
 30
0.0
 10
179.6274131484
 20
36.9839607527
 30
0.0
 10
179.6274131484
 20
36.2489604517
 30
0.0
 10
179.6274131484
 20
35.4856959412
 30
0.0
 10
178.9061523937
 20
35.0555827154
 30
0.0
 10
178.3790772268
 20
34.6398633
 30
0.0
 10
178.3790772268
 20
34.6398633
 30
0.0
 10
178.2123707316
 20
34.5294235183
 30
0.0
 10
178.2123707316
 20
34.5294235183
 30
0.0
  0
SPLINE
  5
25D
330
222
100
AcDbEntity
  8
0
  6
Continuous
 62
     7
100
AcDbSpline
 70
     3
 71
     3
 72
    50
 73
    46
 74
     0
 42
0.000000001
 43
0.0000001
 40
0.0
 40
0.0
 40
0.0
 40
0.0
 40
1.0
 40
1.0
 40
1.0
 40
2.0
 40
2.0
 40
2.0
 40
3.0
 40
3.0
 40
3.0
 40
4.0
 40
4.0
 40
4.0
 40
5.0
 40
5.0
 40
5.0
 40
6.0
 40
6.0
 40
6.0
 40
7.0
 40
7.0
 40
7.0
 40
8.0
 40
8.0
 40
8.0
 40
9.0
 40
9.0
 40
9.0
 40
10.0
 40
10.0
 40
10.0
 40
11.0
 40
11.0
 40
11.0
 40
12.0
 40
12.0
 40
12.0
 40
13.0
 40
13.0
 40
13.0
 40
14.0
 40
14.0
 40
14.0
 40
15.0
 40
15.0
 40
15.0
 40
15.0
 10
182.1659578946
 20
27.7308343001
 30
0.0
 10
182.1659578946
 20
27.7308343001
 30
0.0
 10
183.7751858991
 20
27.7308343001
 30
0.0
 10
183.7751858991
 20
27.7308343001
 30
0.0
 10
183.7751858991
 20
27.7308343001
 30
0.0
 10
181.9021586055
 20
30.0479760715
 30
0.0
 10
181.9021586055
 20
30.0479760715
 30
0.0
 10
181.9021586055
 20
30.0479760715
 30
0.0
 10
183.1784970309
 20
31.5454557661
 30
0.0
 10
183.1784970309
 20
31.5454557661
 30
0.0
 10
183.1784970309
 20
31.5454557661
 30
0.0
 10
182.3462730832
 20
32.4064673347
 30
0.0
 10
182.3462730832
 20
32.4064673347
 30
0.0
 10
182.3462730832
 20
32.4064673347
 30
0.0
 10
181.1256779599
 20
30.9911632123
 30
0.0
 10
181.1256779599
 20
30.9911632123
 30
0.0
 10
181.1256779599
 20
30.9911632123
 30
0.0
 10
178.9477635911
 20
33.6265390467
 30
0.0
 10
178.9477635911
 20
33.6265390467
 30
0.0
 10
179.8213370305
 20
34.2645774066
 30
0.0
 10
180.8480082717
 20
35.0555827154
 30
0.0
 10
180.8480082717
 20
36.2344357885
 30
0.0
 10
180.8480082717
 20
37.6081287135
 30
0.0
 10
179.7101121319
 20
38.412611863
 30
0.0
 10
178.434820529
 20
38.412611863
 30
0.0
 10
177.0613893096
 20
38.412611863
 30
0.0
 10
176.0204551108
 20
37.5663866633
 30
0.0
 10
176.0204551108
 20
36.1237343011
 30
0.0
 10
176.0204551108
 20
35.2361596097
 30
0.0
 10
176.5757944873
 20
34.4592864057
 30
0.0
 10
177.1719599442
 20
33.8348567393
 30
0.0
 10
177.1719599442
 20
33.8348567393
 30
0.0
 10
176.5200511851
 20
33.3632631689
 30
0.0
 10
176.5200511851
 20
33.3632631689
 30
0.0
 10
175.5215133007
 20
32.6420024142
 30
0.0
 10
174.6886350889
 20
31.9207416595
 30
0.0
 10
174.6886350889
 20
30.5891833432
 30
0.0
 10
174.6886350889
 20
28.7855080452
 30
0.0
 10
176.1456812615
 20
27.5089079141
 30
0.0
 10
177.8932206988
 20
27.5089079141
 30
0.0
 10
179.1280787798
 20
27.5089079141
 30
0.0
 10
180.2374490044
 20
28.2170833866
 30
0.0
 10
181.0283234604
 20
29.1456150112
 30
0.0
 10
181.0283234604
 20
29.1456150112
 30
0.0
 10
182.1659578946
 20
27.7308343001
 30
0.0
 10
182.1659578946
 20
27.7308343001
 30
0.0
  0
LINE
  5
25E
330
222
100
AcDbEntity
  8
0
  6
Continuous
 62
     7
100
AcDbLine
 10
167.9688192695
 20
25.7047092048
 30
0.0
 11
190.3827299972
 21
25.7047092048
 31
0.0
  0
LINE
  5
25F
330
222
100
AcDbEntity
  8
0
  6
Continuous
 62
     7
100
AcDbLine
 10
190.3827299972
 20
25.7047092048
 30
0.0
 11
190.3827299972
 21
48.1186199324
 31
0.0
  0
LINE
  5
260
330
222
100
AcDbEntity
  8
0
  6
Continuous
 62
     7
100
AcDbLine
 10
190.3827299972
 20
48.1186199324
 30
0.0
 11
167.9688192695
 21
48.1186199324
 31
0.0
  0
LINE
  5
261
330
222
100
AcDbEntity
  8
0
  6
Continuous
 62
     7
100
AcDbLine
 10
167.9688192695
 20
48.1186199324
 30
0.0
 11
167.9688192695
 21
25.7047092048
 31
0.0
  0
ENDBLK
  5
262
330
222
100
AcDbEntity
  8
0
  6
ByBlock
 62
     0
100
AcDbBlockEnd
  0
BLOCK
  5
263
330
223
100
AcDbEntity
  8
0
100
AcDbBlockBegin
  2
PROIEZIONE_EU_BL0
 70
     0
 10
180.3496621622
 20
60.6199324324
 30
0.0
  3
PROIEZIONE_EU_BL0
  1

  0
LWPOLYLINE
  5
264
330
223
100
AcDbEntity
  8
DEFAULT_1
  6
CENTER
 62
     7
100
AcDbPolyline
 90
        2
 70
     0
 43
0.25
 10
186.4762828238
 20
65.6196265643
 10
186.4763238062
 20
55.6202383005
  0
LWPOLYLINE
  5
265
330
223
100
AcDbEntity
  8
DEFAULT_1
  6
CENTER
 62
     7
100
AcDbPolyline
 90
        2
 70
     0
 43
0.25
 10
192.4763126489
 20
60.6202035675
 10
168.2230116754
 20
60.6199329071
  0
LWPOLYLINE
  5
266
330
223
100
AcDbEntity
  8
0
  6
Continuous
 62
     7
100
AcDbPolyline
 90
        2
 70
     1
 43
0.25
 10
182.929172648
 20
60.6013846782
 42
1.0
 10
190.0355017467
 20
60.6013846782
 42
1.0
  0
LWPOLYLINE
  5
267
330
223
100
AcDbEntity
  8
0
  6
Continuous
 62
     7
100
AcDbPolyline
 90
        2
 70
     1
 43
0.25
 10
184.4789164764
 20
60.6192827228
 42
1.0
 10
188.4906682265
 20
60.6192827228
 42
1.0
  0
LWPOLYLINE
  5
268
330
223
100
AcDbEntity
  8
0
  6
Continuous
 62
     7
100
AcDbPolyline
 90
        2
 70
     0
 43
0.25
 10
180.4763104429
 20
64.1951359276
 10
180.4763100883
 20
57.0949330193
  0
LWPOLYLINE
  5
269
330
223
100
AcDbEntity
  8
0
  6
Continuous
 62
     7
100
AcDbPolyline
 90
        2
 70
     0
 43
0.25
 10
180.4763385247
 20
57.094904583
 10
170.4817812535
 20
58.6149979958
  0
LWPOLYLINE
  5
26A
330
223
100
AcDbEntity
  8
0
  6
Continuous
 62
     7
100
AcDbPolyline
 90
        2
 70
     0
 43
0.25
 10
170.4794712679
 20
58.6143204542
 10
170.4768043638
 20
62.6199590657
  0
LWPOLYLINE
  5
26B
330
223
100
AcDbEntity
  8
0
  6
Continuous
 62
     7
100
AcDbPolyline
 90
        2
 70
     0
 43
0.25
 10
170.4767960878
 20
62.6199507896
 10
180.4765393251
 20
64.1951080097
  0
ENDBLK
  5
26C
330
223
100
AcDbEntity
  8
0
  6
ByBlock
 62
     0
100
AcDbBlockEnd
  0
ENDSEC
  0
SECTION
  2
ENTITIES
  0
LINE
  5
281
330
1B
100
AcDbEntity
 67
     1
  8
0
  6
Continuous
 62
     7
100
AcDbLine
 10
0.0
 20
0.0
 30
0.0
 11
297.0
 21
0.0
 31
0.0
  0
LINE
  5
282
330
1B
100
AcDbEntity
 67
     1
  8
0
  6
Continuous
 62
     7
100
AcDbLine
 10
297.0
 20
0.0
 30
0.0
 11
297.0
 21
420.0
 31
0.0
  0
LINE
  5
283
330
1B
100
AcDbEntity
 67
     1
  8
0
  6
Continuous
 62
     7
100
AcDbLine
 10
0.0
 20
420.0
 30
0.0
 11
297.0
 21
420.0
 31
0.0
  0
LINE
  5
284
330
1B
100
AcDbEntity
 67
     1
  8
0
  6
Continuous
 62
     7
100
AcDbLine
 10
0.0
 20
0.0
 30
0.0
 11
0.0
 21
420.0
 31
0.0
  0
VIEWPORT
  5
285
330
1B
100
AcDbEntity
 67
     1
  8
0
100
AcDbViewport
 10
0.0
 20
0.0
 30
0.0
 40
700.1089494163423
 41
495.0770428015564
 68
     1
 69
     1
 12
330.9338521400778
 22
210.0
 13
0.0
 23
0.0
 14
1.0
 24
1.0
 15
0.0
 25
0.0
 16
0.0
 26
0.0
 36
1.0
 17
0.0
 27
0.0
 37
0.0
 42
50.0
 43
0.0
 44
0.0
 45
495.0770428015564
 50
0.0
 51
0.0
 72
   100
 90
   557216
  1

281
     0
 71
     1
 74
     0
110
0.0
120
0.0
130
0.0
111
1.0
121
0.0
131
0.0
112
0.0
122
1.0
132
0.0
 79
     0
146
0.0
170
     0
 61
     5
348
3EF
292
     1
282
     1
141
0.0
142
0.0
 63
   256
  0
SPLINE
  5
286
330
1B
100
AcDbEntity
 67
     1
  8
7_ALL_FEATURES
  6
Continuous
 62
     7
100
AcDbSpline
 70
     0
 71
     3
 72
    25
 73
    21
 74
     0
 42
0.000000001
 43
0.0000001
 40
0.0
 40
0.0
 40
0.0
 40
0.0
 40
0.0006058081
 40
0.0017224112
 40
0.0056875189
 40
0.0120169823
 40
0.0207129621
 40
0.0317589787
 40
0.0451171399
 40
0.0607449956
 40
0.0785997264
 40
0.1207873129
 40
0.1712107527
 40
0.2293686672
 40
0.2947083718
 40
0.3666598104
 40
0.4446123444
 40
0.6159329595
 40
0.8031366174
 40
1.0
 40
1.0
 40
1.0
 40
1.0
 10
84.4656879099
 20
295.1177169378
 30
0.0
 10
84.4656879099
 20
295.1152531694
 30
0.0
 10
84.4706837637
 20
295.1091875156
 30
0.0
 10
84.4891686087
 20
295.0963391331
 30
0.0
 10
84.531720536
 20
295.0758954928
 30
0.0
 10
84.6028753158
 20
295.0468919058
 30
0.0
 10
84.7026280176
 20
295.0103826695
 30
0.0
 10
84.8299649494
 20
294.9669091484
 30
0.0
 10
84.9849173769
 20
294.9168517635
 30
0.0
 10
85.1669414661
 20
294.8606823758
 30
0.0
 10
85.4620119919
 20
294.773246308
 30
0.0
 10
85.8947309411
 20
294.6523749995
 30
0.0
 10
86.4882629129
 20
294.4983273451
 30
0.0
 10
87.1760759571
 20
294.3331749314
 30
0.0
 10
87.9524057858
 20
294.1622518549
 30
0.0
 10
88.8109264158
 20
293.9909679029
 30
0.0
 10
90.0971747472
 20
293.7619829232
 30
0.0
 10
91.8549504749
 20
293.5097017895
 30
0.0
 10
94.1041423683
 20
293.2937754177
 30
0.0
 10
95.6652383327
 20
293.2215747083
 30
0.0
 10
96.4656879099
 20
293.204764685
 30
0.0
  0
SPLINE
  5
287
330
1B
100
AcDbEntity
 67
     1
  8
7_ALL_FEATURES
  6
Continuous
 62
     7
100
AcDbSpline
 70
     0
 71
     3
 72
    25
 73
    21
 74
     0
 42
0.000000001
 43
0.0000001
 40
0.0
 40
0.0
 40
0.0
 40
0.0
 40
0.0006058081
 40
0.0017224112
 40
0.0056875189
 40
0.0120169823
 40
0.0207129621
 40
0.0317589787
 40
0.0451171399
 40
0.0607449956
 40
0.0785997264
 40
0.1207873129
 40
0.1712107527
 40
0.2293686672
 40
0.2947083718
 40
0.3666598104
 40
0.4446123444
 40
0.6159329595
 40
0.8031366174
 40
1.0
 40
1.0
 40
1.0
 40
1.0
 10
110.4656879099
 20
393.0359023501
 30
0.0
 10
110.4656879099
 20
393.0383661185
 30
0.0
 10
110.4606920562
 20
393.0444317723
 30
0.0
 10
110.4422072112
 20
393.0572801547
 30
0.0
 10
110.3996552838
 20
393.0777237951
 30
0.0
 10
110.328500504
 20
393.1067273821
 30
0.0
 10
110.2287478022
 20
393.1432366183
 30
0.0
 10
110.1014108705
 20
393.1867101394
 30
0.0
 10
109.946458443
 20
393.2367675243
 30
0.0
 10
109.7644343537
 20
393.2929369121
 30
0.0
 10
109.4693638279
 20
393.3803729799
 30
0.0
 10
109.0366448787
 20
393.5012442884
 30
0.0
 10
108.4431129069
 20
393.6552919428
 30
0.0
 10
107.7552998628
 20
393.8204443565
 30
0.0
 10
106.978970034
 20
393.9913674329
 30
0.0
 10
106.120449404
 20
394.1626513849
 30
0.0
 10
104.8342010726
 20
394.3916363647
 30
0.0
 10
103.0764253449
 20
394.6439174983
 30
0.0
 10
100.8272334515
 20
394.8598438701
 30
0.0
 10
99.2661374871
 20
394.9320445795
 30
0.0
 10
98.4656879099
 20
394.9488546028
 30
0.0
  0
SPLINE
  5
288
330
1B
100
AcDbEntity
 67
     1
  8
7_ALL_FEATURES
  6
Continuous
 62
     7
100
AcDbSpline
 70
     0
 71
     3
 72
    14
 73
    10
 74
     0
 42
0.000000001
 43
0.0000001
 40
0.0
 40
0.0
 40
0.0
 40
0.0
 40
0.0219899435
 40
0.0727314401
 40
0.1534167071
 40
0.2640854625
 40
0.4045632696
 40
0.5744030684
 40
1.0
 40
1.0
 40
1.0
 40
1.0
 10
83.4656879099
 20
295.3942382389
 30
0.0
 10
83.4656879099
 20
295.3872606943
 30
0.0
 10
83.4899053259
 20
295.3725664274
 30
0.0
 10
83.5285973763
 20
295.3507540902
 30
0.0
 10
83.6014512485
 20
295.3196911984
 30
0.0
 10
83.6983960718
 20
295.2812514492
 30
0.0
 10
83.8241701132
 20
295.2350854504
 30
0.0
 10
84.0444784197
 20
295.1582222938
 30
0.0
 10
84.2242693384
 20
295.0998017643
 30
0.0
 10
84.3530474355
 20
295.0591418745
 30
0.0
  0
ARC
  5
289
330
1B
100
AcDbEntity
 67
     1
  8
7_ALL_FEATURES
  6
Continuous
 62
     7
100
AcDbCircle
 10
91.247903032
 20
316.897395749
 30
0.0
 40
22.9008376699
100
AcDbArc
 50
252.4778554547
 51
252.6219625101
  0
LINE
  5
28A
330
1B
100
AcDbEntity
 67
     1
  8
7_ALL_FEATURES
  6
Continuous
 62
     7
100
AcDbLine
 10
84.4079955083
 20
295.0418694215
 30
0.0
 11
84.434754603
 21
295.0335119634
 31
0.0
  0
SPLINE
  5
28B
330
1B
100
AcDbEntity
 67
     1
  8
7_ALL_FEATURES
  6
Continuous
 62
     7
100
AcDbSpline
 70
     0
 71
     3
 72
    11
 73
     7
 74
     0
 42
0.000000001
 43
0.0000001
 40
0.0
 40
0.0
 40
0.0
 40
0.0
 40
0.1639280732
 40
0.3977067044
 40
0.6833832581
 40
1.0
 40
1.0
 40
1.0
 40
1.0
 10
84.434754603
 20
295.0335119634
 30
0.0
 10
85.0715327325
 20
294.8350433494
 30
0.0
 10
86.6341208547
 20
294.4103736115
 30
0.0
 10
89.3563546565
 20
293.8352707808
 30
0.0
 10
92.728530381
 20
293.3644925657
 30
0.0
 10
95.1777192949
 20
293.2141772795
 30
0.0
 10
96.4656879099
 20
293.1872580875
 30
0.0
  0
SPLINE
  5
28C
330
1B
100
AcDbEntity
 67
     1
  8
7_ALL_FEATURES
  6
Continuous
 62
     7
100
AcDbSpline
 70
     0
 71
     3
 72
    14
 73
    10
 74
     0
 42
0.000000001
 43
0.0000001
 40
0.0
 40
0.0
 40
0.0
 40
0.0
 40
0.0219899435
 40
0.0727314401
 40
0.1534167071
 40
0.2640854625
 40
0.4045632696
 40
0.5744030684
 40
1.0
 40
1.0
 40
1.0
 40
1.0
 10
111.4656879099
 20
392.759381049
 30
0.0
 10
111.4656879099
 20
392.7663585936
 30
0.0
 10
111.441470494
 20
392.7810528605
 30
0.0
 10
111.4027784436
 20
392.8028651976
 30
0.0
 10
111.3299245714
 20
392.8339280895
 30
0.0
 10
111.2329797481
 20
392.8723678387
 30
0.0
 10
111.1072057066
 20
392.9185338374
 30
0.0
 10
110.8868974001
 20
392.995396994
 30
0.0
 10
110.7071064814
 20
393.0538175236
 30
0.0
 10
110.5783283842
 20
393.0944774134
 30
0.0
  0
ARC
  5
28D
330
1B
100
AcDbEntity
 67
     1
  8
7_ALL_FEATURES
  6
Continuous
 62
     7
100
AcDbCircle
 10
103.6834727712
 20
371.256223486
 30
0.0
 40
22.9008377253
100
AcDbArc
 50
72.4778554551
 51
72.6219625099
  0
LINE
  5
28E
330
1B
100
AcDbEntity
 67
     1
  8
7_ALL_FEATURES
  6
Continuous
 62
     7
100
AcDbLine
 10
110.5233803116
 20
393.1117498663
 30
0.0
 11
110.4966212168
 21
393.1201073245
 31
0.0
  0
SPLINE
  5
28F
330
1B
100
AcDbEntity
 67
     1
  8
7_ALL_FEATURES
  6
Continuous
 62
     7
100
AcDbSpline
 70
     0
 71
     3
 72
    11
 73
     7
 74
     0
 42
0.000000001
 43
0.0000001
 40
0.0
 40
0.0
 40
0.0
 40
0.0
 40
0.1639280732
 40
0.3977067044
 40
0.6833832581
 40
1.0
 40
1.0
 40
1.0
 40
1.0
 10
110.4966212168
 20
393.1201073245
 30
0.0
 10
109.8598430873
 20
393.3185759385
 30
0.0
 10
108.2972549651
 20
393.7432456764
 30
0.0
 10
105.5750211633
 20
394.3183485071
 30
0.0
 10
102.2028454388
 20
394.7891267221
 30
0.0
 10
99.7536565249
 20
394.9394420083
 30
0.0
 10
98.4656879099
 20
394.9663612003
 30
0.0
  0
SPLINE
  5
290
330
1B
100
AcDbEntity
 67
     1
  8
7_ALL_FEATURES
  6
Continuous
 62
     7
100
AcDbSpline
 70
     0
 71
     3
 72
    25
 73
    21
 74
     0
 42
0.000000001
 43
0.0000001
 40
0.0
 40
0.0
 40
0.0
 40
0.0
 40
0.1968549102
 40
0.3840492356
 40
0.5553712679
 40
0.6333227924
 40
0.7052741115
 40
0.7706164922
 40
0.8287781265
 40
0.8792038082
 40
0.9213929812
 40
0.9392485964
 40
0.9548782755
 40
0.9682384306
 40
0.9792858166
 40
0.9879824004
 40
0.9943122523
 40
0.9982775559
 40
0.9993941918
 40
1.0
 40
1.0
 40
1.0
 40
1.0
 10
98.4656879099
 20
293.204764685
 30
0.0
 10
99.2661030031
 20
293.2215739841
 30
0.0
 10
100.8271267482
 20
293.2937670211
 30
0.0
 10
103.0762521893
 20
293.5096851388
 30
0.0
 10
104.833993875
 20
293.7619472765
 30
0.0
 10
106.1202443231
 20
293.9909264923
 30
0.0
 10
106.9787727292
 20
294.1622038951
 30
0.0
 10
107.7551245965
 20
294.3331456392
 30
0.0
 10
108.4429717196
 20
294.4983059667
 30
0.0
 10
109.0365366105
 20
294.6523486122
 30
0.0
 10
109.4692780014
 20
294.7732107439
 30
0.0
 10
109.7643670667
 20
294.8606458098
 30
0.0
 10
109.9464076175
 20
294.9168267742
 30
0.0
 10
110.1013775962
 20
294.966898466
 30
0.0
 10
110.2287281797
 20
295.0103817558
 30
0.0
 10
110.3284903352
 20
295.0468931261
 30
0.0
 10
110.3996501802
 20
295.0758968473
 30
0.0
 10
110.4422053106
 20
295.0963398521
 30
0.0
 10
110.4606915535
 20
295.1091875818
 30
0.0
 10
110.4656879099
 20
295.1152531694
 30
0.0
 10
110.4656879099
 20
295.1177169378
 30
0.0
  0
LINE
  5
291
330
1B
100
AcDbEntity
 67
     1
  8
7_ALL_FEATURES
  6
Continuous
 62
     7
100
AcDbLine
 10
110.4656879099
 20
295.1177169378
 30
0.0
 11
110.4656879099
 21
295.3525331512
 31
0.0
  0
LINE
  5
292
330
1B
100
AcDbEntity
 67
     1
  8
7_ALL_FEATURES
  6
Continuous
 62
     7
100
AcDbLine
 10
84.4656879099
 20
295.3525331512
 30
0.0
 11
84.4656879099
 21
295.1177169378
 31
0.0
  0
ARC
  5
293
330
1B
100
AcDbEntity
 67
     1
  8
7_ALL_FEATURES
  6
Continuous
 62
     7
100
AcDbCircle
 10
97.4656879099
 20
344.0768096439
 30
0.0
 40
50.428713247
100
AcDbArc
 50
284.938947723
 51
286.1181871851
  0
LINE
  5
294
330
1B
100
AcDbEntity
 67
     1
  8
7_ALL_FEATURES
  6
Continuous
 62
     7
100
AcDbLine
 10
83.4656879099
 20
395.1702085911
 30
0.0
 11
83.4656879099
 21
389.8852149862
 31
0.0
  0
ARC
  5
295
330
1B
100
AcDbEntity
 67
     1
  8
7_ALL_FEATURES
  6
Continuous
 62
     7
100
AcDbCircle
 10
83.5464543749
 20
391.4866953867
 30
0.0
 40
1.0
100
AcDbArc
 50
265.3673764829
 51
286.3651484475
  0
ARC
  5
296
330
1B
100
AcDbEntity
 67
     1
  8
7_ALL_FEATURES
  6
Continuous
 62
     7
100
AcDbCircle
 10
97.4656879099
 20
344.0768096439
 30
0.0
 40
48.4109535259
100
AcDbArc
 50
105.5770659003
 51
106.3618279949
  0
SPLINE
  5
297
330
1B
100
AcDbEntity
 67
     1
  8
7_ALL_FEATURES
  6
Continuous
 62
     7
100
AcDbSpline
 70
     0
 71
     3
 72
    11
 73
     7
 74
     0
 42
0.000000001
 43
0.0000001
 40
0.0
 40
0.0
 40
0.0
 40
0.0
 40
0.3164948559
 40
0.6021144262
 40
0.835923223
 40
1.0
 40
1.0
 40
1.0
 40
1.0
 10
98.4656879099
 20
293.1872580875
 30
0.0
 10
99.752684451
 20
293.2141569627
 30
0.0
 10
102.2002396262
 20
293.3642988714
 30
0.0
 10
105.5706052017
 20
293.8345303271
 30
0.0
 10
108.2923806889
 20
294.4092202621
 30
0.0
 10
109.8551494055
 20
294.8337075001
 30
0.0
 10
110.4923109456
 20
295.0321493492
 30
0.0
  0
LINE
  5
298
330
1B
100
AcDbEntity
 67
     1
  8
7_ALL_FEATURES
  6
Continuous
 62
     7
100
AcDbLine
 10
110.4923109456
 20
295.0321493492
 30
0.0
 11
110.5001142781
 21
295.0345811307
 31
0.0
  0
ARC
  5
299
330
1B
100
AcDbEntity
 67
     1
  8
7_ALL_FEATURES
  6
Continuous
 62
     7
100
AcDbCircle
 10
103.6654098523
 20
316.9552244485
 30
0.0
 40
22.9614413322
100
AcDbArc
 50
287.317116079
 51
287.536992022
  0
SPLINE
  5
29A
330
1B
100
AcDbEntity
 67
     1
  8
7_ALL_FEATURES
  6
Continuous
 62
     7
100
AcDbSpline
 70
     0
 71
     3
 72
    14
 73
    10
 74
     0
 42
0.000000001
 43
0.0000001
 40
0.0
 40
0.0
 40
0.0
 40
0.0
 40
0.4255962258
 40
0.5954358612
 40
0.7359056015
 40
0.846563653
 40
0.9272433047
 40
0.9779882433
 40
1.0
 40
1.0
 40
1.0
 40
1.0
 10
110.5841855102
 20
295.0609710598
 30
0.0
 10
110.7121224827
 20
295.1014038604
 30
0.0
 10
110.8907359866
 20
295.1595044029
 30
0.0
 10
111.1095957823
 20
295.2359483018
 30
0.0
 10
111.2345362126
 20
295.2818582707
 30
0.0
 10
111.3308407877
 20
295.3200786242
 30
0.0
 10
111.403198076
 20
295.3509736585
 30
0.0
 10
111.441653636
 20
295.3726625648
 30
0.0
 10
111.4656879099
 20
295.3872987814
 30
0.0
 10
111.4656879099
 20
295.3942382389
 30
0.0
  0
ARC
  5
29B
330
1B
100
AcDbEntity
 67
     1
  8
3_ALL_AXES
  6
Continuous
 62
     7
100
AcDbCircle
 10
97.4656879099
 20
397.5768096439
 30
0.0
 40
1.0
100
AcDbArc
 50
359.4645176309
 51
180.5354823691
  0
ARC
  5
29C
330
1B
100
AcDbEntity
 67
     1
  8
7_ALL_FEATURES
  6
Continuous
 62
     7
100
AcDbCircle
 10
97.4656879099
 20
344.0768096439
 30
0.0
 40
48.4109535259
100
AcDbArc
 50
74.4229340999
 51
105.5770659003
  0
ARC
  5
29D
330
1B
100
AcDbEntity
 67
     1
  8
7_ALL_FEATURES
  6
Continuous
 62
     7
100
AcDbCircle
 10
97.4656879099
 20
344.0768096439
 30
0.0
 40
48.4109535259
100
AcDbArc
 50
73.63819202320002
 51
74.4229340999
  0
ARC
  5
29E
330
1B
100
AcDbEntity
 67
     1
  8
7_ALL_FEATURES
  6
Continuous
 62
     7
100
AcDbCircle
 10
111.3849214449
 20
391.4866953867
 30
0.0
 40
1.0
100
AcDbArc
 50
253.6338824621
 51
270.0
  0
ARC
  5
29F
330
1B
100
AcDbEntity
 67
     1
  8
7_ALL_FEATURES
  6
Continuous
 62
     7
100
AcDbCircle
 10
111.3849214449
 20
391.4866953867
 30
0.0
 40
1.0
100
AcDbArc
 50
270.0
 51
274.6326235171
  0
ARC
  5
2A0
330
1B
100
AcDbEntity
 67
     1
  8
7_ALL_FEATURES
  6
Continuous
 62
     7
100
AcDbCircle
 10
97.4656879099
 20
344.0768096439
 30
0.0
 40
50.428713247
100
AcDbArc
 50
104.938947723
 51
106.1181871851
  0
SPLINE
  5
2A1
330
1B
100
AcDbEntity
 67
     1
  8
7_ALL_FEATURES
  6
Continuous
 62
     7
100
AcDbSpline
 70
     0
 71
     3
 72
    11
 73
     7
 74
     0
 42
0.000000001
 43
0.0000001
 40
0.0
 40
0.0
 40
0.0
 40
0.0
 40
0.3164948559
 40
0.6021144262
 40
0.835923223
 40
1.0
 40
1.0
 40
1.0
 40
1.0
 10
96.4656879099
 20
394.9663612003
 30
0.0
 10
95.1786913688
 20
394.9394623251
 30
0.0
 10
92.7311361936
 20
394.7893204165
 30
0.0
 10
89.360770618
 20
394.3190889607
 30
0.0
 10
86.6389951309
 20
393.7443990257
 30
0.0
 10
85.0762264143
 20
393.3199117877
 30
0.0
 10
84.4390648742
 20
393.1214699386
 30
0.0
  0
LINE
  5
2A2
330
1B
100
AcDbEntity
 67
     1
  8
7_ALL_FEATURES
  6
Continuous
 62
     7
100
AcDbLine
 10
84.4390648742
 20
393.1214699386
 30
0.0
 11
84.4312615417
 21
393.1190381571
 31
0.0
  0
ARC
  5
2A3
330
1B
100
AcDbEntity
 67
     1
  8
7_ALL_FEATURES
  6
Continuous
 62
     7
100
AcDbCircle
 10
91.2659659722
 20
371.1983948248
 30
0.0
 40
22.9614413475
100
AcDbArc
 50
107.3171160791
 51
107.5369920221
  0
SPLINE
  5
2A4
330
1B
100
AcDbEntity
 67
     1
  8
7_ALL_FEATURES
  6
Continuous
 62
     7
100
AcDbSpline
 70
     0
 71
     3
 72
    14
 73
    10
 74
     0
 42
0.000000001
 43
0.0000001
 40
0.0
 40
0.0
 40
0.0
 40
0.0
 40
0.4255962258
 40
0.5954358612
 40
0.7359056015
 40
0.846563653
 40
0.9272433047
 40
0.9779882433
 40
1.0
 40
1.0
 40
1.0
 40
1.0
 10
84.3471903096
 20
393.092648228
 30
0.0
 10
84.2192533372
 20
393.0522154274
 30
0.0
 10
84.0406398332
 20
392.994114885
 30
0.0
 10
83.8217800375
 20
392.917670986
 30
0.0
 10
83.6968396073
 20
392.8717610172
 30
0.0
 10
83.6005350322
 20
392.8335406637
 30
0.0
 10
83.5281777438
 20
392.8026456294
 30
0.0
 10
83.4897221839
 20
392.7809567231
 30
0.0
 10
83.4656879099
 20
392.7663205065
 30
0.0
 10
83.4656879099
 20
392.759381049
 30
0.0
  0
SPLINE
  5
2A5
330
1B
100
AcDbEntity
 67
     1
  8
7_ALL_FEATURES
  6
Continuous
 62
     7
100
AcDbSpline
 70
     0
 71
     3
 72
    25
 73
    21
 74
     0
 42
0.000000001
 43
0.0000001
 40
0.0
 40
0.0
 40
0.0
 40
0.0
 40
0.1968549102
 40
0.3840492356
 40
0.5553712679
 40
0.6333227924
 40
0.7052741115
 40
0.7706164922
 40
0.8287781265
 40
0.8792038082
 40
0.9213929812
 40
0.9392485964
 40
0.9548782755
 40
0.9682384306
 40
0.9792858166
 40
0.9879824004
 40
0.9943122523
 40
0.9982775559
 40
0.9993941918
 40
1.0
 40
1.0
 40
1.0
 40
1.0
 10
96.4656879099
 20
394.9488546028
 30
0.0
 10
95.6652728167
 20
394.9320453037
 30
0.0
 10
94.1042490716
 20
394.8598522668
 30
0.0
 10
91.8551236305
 20
394.6439341491
 30
0.0
 10
90.0973819448
 20
394.3916720113
 30
0.0
 10
88.8111314967
 20
394.1626927955
 30
0.0
 10
87.9526030907
 20
393.9914153927
 30
0.0
 10
87.1762512233
 20
393.8204736486
 30
0.0
 10
86.4884041002
 20
393.6553133212
 30
0.0
 10
85.8948392093
 20
393.5012706757
 30
0.0
 10
85.4620978184
 20
393.380408544
 30
0.0
 10
85.1670087531
 20
393.292973478
 30
0.0
 10
84.9849682023
 20
393.2367925136
 30
0.0
 10
84.8299982236
 20
393.1867208219
 30
0.0
 10
84.7026476401
 20
393.1432375321
 30
0.0
 10
84.6028854846
 20
393.1067261618
 30
0.0
 10
84.5317256396
 20
393.0777224405
 30
0.0
 10
84.4891705092
 20
393.0572794358
 30
0.0
 10
84.4706842663
 20
393.044431706
 30
0.0
 10
84.4656879099
 20
393.0383661185
 30
0.0
 10
84.4656879099
 20
393.0359023501
 30
0.0
  0
LINE
  5
2A6
330
1B
100
AcDbEntity
 67
     1
  8
7_ALL_FEATURES
  6
Continuous
 62
     7
100
AcDbLine
 10
111.4656879099
 20
298.2684043017
 30
0.0
 11
111.4656879099
 21
292.9834106967
 31
0.0
  0
ARC
  5
2A7
330
1B
100
AcDbEntity
 67
     1
  8
7_ALL_FEATURES
  6
Continuous
 62
     7
100
AcDbCircle
 10
97.4656879099
 20
344.0768096439
 30
0.0
 40
47.9
100
AcDbArc
 50
253.0057594543
 51
286.9942405456
  0
ARC
  5
2A8
330
1B
100
AcDbEntity
 67
     1
  8
7_ALL_FEATURES
  6
Continuous
 62
     7
100
AcDbCircle
 10
97.4656879099
 20
344.0768096439
 30
0.0
 40
47.9
100
AcDbArc
 50
73.0057594544
 51
106.9942405457
  0
LINE
  5
2A9
330
1B
100
AcDbEntity
 67
     1
  8
7_ALL_FEATURES
  6
Continuous
 62
     7
100
AcDbLine
 10
111.4656879099
 20
395.1702085911
 30
0.0
 11
111.4656879099
 21
389.8852149862
 31
0.0
  0
ARC
  5
2AA
330
1B
100
AcDbEntity
 67
     1
  8
7_ALL_FEATURES
  6
Continuous
 62
     7
100
AcDbCircle
 10
97.4656879099
 20
344.0768096439
 30
0.0
 40
15.0
100
AcDbArc
 50
280.0
 51
349.9999999999999
  0
LINE
  5
2AB
330
1B
100
AcDbEntity
 67
     1
  8
7_ALL_FEATURES
  6
Continuous
 62
     7
100
AcDbLine
 10
100.2440587526
 20
328.3198855957
 30
0.0
 11
100.0704105749
 21
329.3046933487
 31
0.0
  0
ARC
  5
2AC
330
1B
100
AcDbEntity
 67
     1
  8
7_ALL_FEATURES
  6
Continuous
 62
     7
100
AcDbCircle
 10
97.4656879099
 20
344.0768096439
 30
0.0
 40
16.0
100
AcDbArc
 50
280.0
 51
349.9999999999999
  0
LINE
  5
2AD
330
1B
100
AcDbEntity
 67
     1
  8
7_ALL_FEATURES
  6
Continuous
 62
     7
100
AcDbLine
 10
112.2378042051
 20
341.4720869789
 30
0.0
 11
113.2226119581
 21
341.2984388013
 31
0.0
  0
ARC
  5
2AE
330
1B
100
AcDbEntity
 67
     1
  8
7_ALL_FEATURES
  6
Continuous
 62
     7
100
AcDbCircle
 10
97.4656879099
 20
344.0768096439
 30
0.0
 40
15.0
100
AcDbArc
 50
10.0
 51
80.0
  0
LINE
  5
2AF
330
1B
100
AcDbEntity
 67
     1
  8
7_ALL_FEATURES
  6
Continuous
 62
     7
100
AcDbLine
 10
113.2226119581
 20
346.8551804866
 30
0.0
 11
112.2378042051
 21
346.6815323089
 31
0.0
  0
ARC
  5
2B0
330
1B
100
AcDbEntity
 67
     1
  8
7_ALL_FEATURES
  6
Continuous
 62
     7
100
AcDbCircle
 10
97.4656879099
 20
344.0768096439
 30
0.0
 40
16.0
100
AcDbArc
 50
10.0
 51
80.0
  0
LINE
  5
2B1
330
1B
100
AcDbEntity
 67
     1
  8
7_ALL_FEATURES
  6
Continuous
 62
     7
100
AcDbLine
 10
100.0704105749
 20
358.8489259391
 30
0.0
 11
100.2440587526
 21
359.8337336921
 31
0.0
  0
ARC
  5
2B2
330
1B
100
AcDbEntity
 67
     1
  8
7_ALL_FEATURES
  6
Continuous
 62
     7
100
AcDbCircle
 10
97.4656879099
 20
344.0768096439
 30
0.0
 40
15.0
100
AcDbArc
 50
100.0
 51
170.0
  0
LINE
  5
2B3
330
1B
100
AcDbEntity
 67
     1
  8
7_ALL_FEATURES
  6
Continuous
 62
     7
100
AcDbLine
 10
94.6873170673
 20
359.8337336921
 30
0.0
 11
94.8609652449
 21
358.8489259391
 31
0.0
  0
ARC
  5
2B4
330
1B
100
AcDbEntity
 67
     1
  8
7_ALL_FEATURES
  6
Continuous
 62
     7
100
AcDbCircle
 10
97.4656879099
 20
344.0768096439
 30
0.0
 40
16.0
100
AcDbArc
 50
100.0
 51
170.0
  0
LINE
  5
2B5
330
1B
100
AcDbEntity
 67
     1
  8
7_ALL_FEATURES
  6
Continuous
 62
     7
100
AcDbLine
 10
82.6935716147
 20
346.6815323089
 30
0.0
 11
81.7087638617
 21
346.8551804866
 31
0.0
  0
ARC
  5
2B6
330
1B
100
AcDbEntity
 67
     1
  8
7_ALL_FEATURES
  6
Continuous
 62
     7
100
AcDbCircle
 10
97.4656879099
 20
344.0768096439
 30
0.0
 40
15.0
100
AcDbArc
 50
190.0
 51
260.0
  0
LINE
  5
2B7
330
1B
100
AcDbEntity
 67
     1
  8
7_ALL_FEATURES
  6
Continuous
 62
     7
100
AcDbLine
 10
81.7087638617
 20
341.2984388013
 30
0.0
 11
82.6935716147
 21
341.4720869789
 31
0.0
  0
ARC
  5
2B8
330
1B
100
AcDbEntity
 67
     1
  8
7_ALL_FEATURES
  6
Continuous
 62
     7
100
AcDbCircle
 10
97.4656879099
 20
344.0768096439
 30
0.0
 40
16.0
100
AcDbArc
 50
190.0
 51
260.0
  0
LINE
  5
2B9
330
1B
100
AcDbEntity
 67
     1
  8
7_ALL_FEATURES
  6
Continuous
 62
     7
100
AcDbLine
 10
94.8609652449
 20
329.3046933487
 30
0.0
 11
94.6873170673
 21
328.3198855957
 31
0.0
  0
ARC
  5
2BA
330
1B
100
AcDbEntity
 67
     1
  8
3_ALL_AXES
  6
Continuous
 62
     7
100
AcDbCircle
 10
97.4656879099
 20
344.0768096439
 30
0.0
 40
53.5
100
AcDbArc
 50
270.8533039501
 51
285.229454264
  0
ARC
  5
2BB
330
1B
100
AcDbEntity
 67
     1
  8
3_ALL_AXES
  6
Continuous
 62
     7
100
AcDbCircle
 10
97.4656879099
 20
344.0768096439
 30
0.0
 40
53.5
100
AcDbArc
 50
285.229454264
 51
74.76948338330001
  0
ARC
  5
2BC
330
1B
100
AcDbEntity
 67
     1
  8
3_ALL_AXES
  6
Continuous
 62
     7
100
AcDbCircle
 10
97.4656879099
 20
344.0768096439
 30
0.0
 40
53.5
100
AcDbArc
 50
74.76948338330001
 51
88.92903525939998
  0
LINE
  5
2BD
330
1B
100
AcDbEntity
 67
     1
  8
7_ALL_FEATURES
  6
Continuous
 62
     7
100
AcDbLine
 10
111.4656879099
 20
292.9834106967
 30
0.0
 11
111.4656879099
 21
292.6938921116
 31
0.0
  0
LINE
  5
2BE
330
1B
100
AcDbEntity
 67
     1
  8
7_ALL_FEATURES
  6
Continuous
 62
     7
100
AcDbLine
 10
111.4656879099
 20
395.4597271762
 30
0.0
 11
111.4656879099
 21
395.1702085911
 31
0.0
  0
LINE
  5
2BF
330
1B
100
AcDbEntity
 67
     1
  8
7_ALL_FEATURES
  6
Continuous
 62
     7
100
AcDbLine
 10
84.4656879099
 20
393.0359023501
 30
0.0
 11
84.4656879099
 21
392.8010861367
 31
0.0
  0
LINE
  5
2C0
330
1B
100
AcDbEntity
 67
     1
  8
7_ALL_FEATURES
  6
Continuous
 62
     7
100
AcDbLine
 10
110.4656879099
 20
392.8010861367
 30
0.0
 11
110.4656879099
 21
393.0359023501
 31
0.0
  0
ARC
  5
2C1
330
1B
100
AcDbEntity
 67
     1
  8
3_ALL_AXES
  6
Continuous
 62
     7
100
AcDbCircle
 10
97.4656879099
 20
344.0768096439
 30
0.0
 40
53.5
100
AcDbArc
 50
269.1466960499
 51
270.8533039501
  0
ARC
  5
2C2
330
1B
100
AcDbEntity
 67
     1
  8
7_ALL_FEATURES
  6
Continuous
 62
     7
100
AcDbCircle
 10
97.4656879099
 20
344.0768096439
 30
0.0
 40
50.428713247
100
AcDbArc
 50
73.8818128149
 51
75.0610522771
  0
LINE
  5
2C3
330
1B
100
AcDbEntity
 67
     1
  8
7_ALL_FEATURES
  6
Continuous
 62
     7
100
AcDbLine
 10
83.4656879099
 20
395.1702085911
 30
0.0
 11
83.4656879099
 21
395.4597271762
 31
0.0
  0
LINE
  5
2C4
330
1B
100
AcDbEntity
 67
     1
  8
7_ALL_FEATURES
  6
Continuous
 62
     7
100
AcDbLine
 10
83.4656879099
 20
292.6938921116
 30
0.0
 11
83.4656879099
 21
292.9834106968
 31
0.0
  0
ARC
  5
2C5
330
1B
100
AcDbEntity
 67
     1
  8
3_ALL_AXES
  6
Continuous
 62
     7
100
AcDbCircle
 10
97.4656879099
 20
344.0768096439
 30
0.0
 40
53.5
100
AcDbArc
 50
91.07096474049999
 51
105.2305166167
  0
ARC
  5
2C6
330
1B
100
AcDbEntity
 67
     1
  8
3_ALL_AXES
  6
Continuous
 62
     7
100
AcDbCircle
 10
97.4656879099
 20
344.0768096439
 30
0.0
 40
53.5
100
AcDbArc
 50
105.2305166167
 51
254.7705457359
  0
ARC
  5
2C7
330
1B
100
AcDbEntity
 67
     1
  8
3_ALL_AXES
  6
Continuous
 62
     7
100
AcDbCircle
 10
97.4656879099
 20
344.0768096439
 30
0.0
 40
53.5
100
AcDbArc
 50
254.7705457359
 51
269.1466960499
  0
ARC
  5
2C8
330
1B
100
AcDbEntity
 67
     1
  8
7_ALL_FEATURES
  6
Continuous
 62
     7
100
AcDbCircle
 10
97.4656879099
 20
344.0768096439
 30
0.0
 40
50.428713247
100
AcDbArc
 50
253.8818128149
 51
255.061052277
  0
LINE
  5
2C9
330
1B
100
AcDbEntity
 67
     1
  8
7_ALL_FEATURES
  6
Continuous
 62
     7
100
AcDbLine
 10
83.4656879099
 20
298.2684043017
 30
0.0
 11
83.4656879099
 21
292.9834106968
 31
0.0
  0
ARC
  5
2CA
330
1B
100
AcDbEntity
 67
     1
  8
7_ALL_FEATURES
  6
Continuous
 62
     7
100
AcDbCircle
 10
83.5464543749
 20
296.6669239012
 30
0.0
 40
1.0
100
AcDbArc
 50
73.63485155429998
 51
94.6326235171
  0
ARC
  5
2CB
330
1B
100
AcDbEntity
 67
     1
  8
7_ALL_FEATURES
  6
Continuous
 62
     7
100
AcDbCircle
 10
97.4656879099
 20
344.0768096439
 30
0.0
 40
48.4109535259
100
AcDbArc
 50
253.6381720051
 51
254.4229340997
  0
ARC
  5
2CC
330
1B
100
AcDbEntity
 67
     1
  8
7_ALL_FEATURES
  6
Continuous
 62
     7
100
AcDbCircle
 10
97.4656879099
 20
344.0768096439
 30
0.0
 40
48.4109535259
100
AcDbArc
 50
254.4229340997
 51
285.5770659001001
  0
ARC
  5
2CD
330
1B
100
AcDbEntity
 67
     1
  8
7_ALL_FEATURES
  6
Continuous
 62
     7
100
AcDbCircle
 10
97.4656879099
 20
344.0768096439
 30
0.0
 40
48.4109535259
100
AcDbArc
 50
285.5770659001001
 51
286.3618079769001
  0
ARC
  5
2CE
330
1B
100
AcDbEntity
 67
     1
  8
7_ALL_FEATURES
  6
Continuous
 62
     7
100
AcDbCircle
 10
111.3849214449
 20
296.6669239012
 30
0.0
 40
1.0
100
AcDbArc
 50
90.0
 51
106.3661175356
  0
ARC
  5
2CF
330
1B
100
AcDbEntity
 67
     1
  8
7_ALL_FEATURES
  6
Continuous
 62
     7
100
AcDbCircle
 10
111.3849214449
 20
296.6669239012
 30
0.0
 40
1.0
100
AcDbArc
 50
85.36737648290001
 51
90.0
  0
ARC
  5
2D0
330
1B
100
AcDbEntity
 67
     1
  8
7_ALL_FEATURES
  6
Continuous
 62
     7
100
AcDbCircle
 10
97.4656879099
 20
344.0768096439
 30
0.0
 40
52.9767441051
100
AcDbArc
 50
285.3233965069
 51
74.6766034931
  0
SPLINE
  5
2D1
330
1B
100
AcDbEntity
 67
     1
  8
3_ALL_AXES
  6
Continuous
 62
     7
100
AcDbSpline
 70
     0
 71
     3
 72
    25
 73
    21
 74
     0
 42
0.000000001
 43
0.0000001
 40
0.0
 40
0.0
 40
0.0
 40
0.0
 40
0.0006075306
 40
0.0017287428
 40
0.0057091955
 40
0.0120609952
 40
0.0207856157
 40
0.0318660134
 40
0.0452631593
 40
0.0609332714
 40
0.0788322376
 40
0.1211109148
 40
0.1716219437
 40
0.2298567563
 40
0.2952564365
 40
0.3672463086
 40
0.4452122425
 40
0.6164762888
 40
0.8034902262
 40
1.0
 40
1.0
 40
1.0
 40
1.0
 10
111.4656879099
 20
395.4597271762
 30
0.0
 10
111.4656879099
 20
395.4624053039
 30
0.0
 10
111.4602585436
 20
395.4690036821
 30
0.0
 10
111.4402127627
 20
395.483071207
 30
0.0
 10
111.3940290346
 20
395.505545295
 30
0.0
 10
111.316814232
 20
395.5375273726
 30
0.0
 10
111.2085649586
 20
395.5778521639
 30
0.0
 10
111.0703953625
 20
395.625928177
 30
0.0
 10
110.9022734942
 20
395.6813236245
 30
0.0
 10
110.7047992997
 20
395.7435069976
 30
0.0
 10
110.3847549197
 20
395.8403071391
 30
0.0
 10
109.9154930342
 20
395.9741360171
 30
0.0
 10
109.2719210729
 20
396.1446848216
 30
0.0
 10
108.5262785013
 20
396.3274642421
 30
0.0
 10
107.6848422295
 20
396.5165079331
 30
0.0
 10
106.7544882458
 20
396.705754348
 30
0.0
 10
105.3611153799
 20
396.9584304693
 30
0.0
 10
103.4574330152
 20
397.2361532064
 30
0.0
 10
101.022300479
 20
397.4722781816
 30
0.0
 10
99.3325175384
 20
397.5501581779
 30
0.0
 10
98.4664271275
 20
397.5672004927
 30
0.0
  0
ARC
  5
2D2
330
1B
100
AcDbEntity
 67
     1
  8
3_ALL_AXES
  6
Continuous
 62
     7
100
AcDbCircle
 10
97.4656879099
 20
347.1234106837
 30
0.0
 40
47.8534002359
100
AcDbArc
 50
88.80259396110002
 51
91.19740603899999
  0
ARC
  5
2D3
330
1B
100
AcDbEntity
 67
     1
  8
7_ALL_FEATURES
  6
Continuous
 62
     7
100
AcDbCircle
 10
97.4656879099
 20
344.0768096439
 30
0.0
 40
52.9767441051
100
AcDbArc
 50
105.3233965069
 51
254.6766034931
  0
ARC
  5
2D4
330
1B
100
AcDbEntity
 67
     1
  8
7_ALL_FEATURES
  6
Continuous
 62
     7
100
AcDbCircle
 10
97.4656879099
 20
344.0768096439
 30
0.0
 40
50.411258182
100
AcDbArc
 50
253.8760797186
 51
270.0
  0
ARC
  5
2D5
330
1B
100
AcDbEntity
 67
     1
  8
7_ALL_FEATURES
  6
Continuous
 62
     7
100
AcDbCircle
 10
97.4651741998
 20
341.0013203472
 30
0.0
 40
47.8245075523
100
AcDbArc
 50
268.8024860361
 51
269.2015328948
  0
ARC
  5
2D6
330
1B
100
AcDbEntity
 67
     1
  8
7_ALL_FEATURES
  6
Continuous
 62
     7
100
AcDbCircle
 10
97.4659867336
 20
341.0623556043
 30
0.0
 40
47.8855482056
100
AcDbArc
 50
269.2015784791
 51
269.6005216822
  0
ARC
  5
2D7
330
1B
100
AcDbEntity
 67
     1
  8
7_ALL_FEATURES
  6
Continuous
 62
     7
100
AcDbCircle
 10
97.4658062002
 20
341.0117374531
 30
0.0
 40
47.8349300264
100
AcDbArc
 50
269.6003151984
 51
269.9998583142
  0
SPLINE
  5
2D8
330
1B
100
AcDbEntity
 67
     1
  8
7_ALL_FEATURES
  6
Continuous
 62
     7
100
AcDbSpline
 70
     0
 71
     3
 72
    25
 73
    21
 74
     0
 42
0.000000001
 43
0.0000001
 40
0.0
 40
0.0
 40
0.0
 40
0.0
 40
0.1958192917
 40
0.3825499702
 40
0.5538214181
 40
0.6318602631
 40
0.7039542315
 40
0.7694802698
 40
0.8278524792
 40
0.8785002719
 40
0.9209066159
 40
0.9388635593
 40
0.9545866788
 40
0.9680306135
 40
0.9791503051
 40
0.9879055473
 40
0.9942787385
 40
0.998270837
 40
0.9993938377
 40
1.0
 40
1.0
 40
1.0
 40
1.0
 10
98.2624320007
 20
290.5827426939
 30
0.0
 10
99.1388508961
 20
290.5966682543
 30
0.0
 10
100.8506514958
 20
290.6688083451
 30
0.0
 10
103.3198048491
 20
290.9005009899
 30
0.0
 10
105.2526704656
 20
291.1775413591
 30
0.0
 10
106.6688702474
 20
291.4313856222
 30
0.0
 10
107.6152407947
 20
291.6221784624
 30
0.0
 10
108.4715429261
 20
291.8132560189
 30
0.0
 10
109.2306557949
 20
291.9983567325
 30
0.0
 10
109.8860705097
 20
292.1713317094
 30
0.0
 10
110.3640759428
 20
292.3072106502
 30
0.0
 10
110.6901570811
 20
292.4055570948
 30
0.0
 10
110.8913980837
 20
292.4687614831
 30
0.0
 10
111.0627472041
 20
292.5250785755
 30
0.0
 10
111.2035788236
 20
292.5739554085
 30
0.0
 10
111.3139228094
 20
292.6149435285
 30
0.0
 10
111.3926212618
 20
292.6474314539
 30
0.0
 10
111.4397107228
 20
292.6702468777
 30
0.0
 10
111.4601321724
 20
292.6844977976
 30
0.0
 10
111.4656879099
 20
292.6911787981
 30
0.0
 10
111.4656879099
 20
292.6938921116
 30
0.0
  0
SPLINE
  5
2D9
330
1B
100
AcDbEntity
 67
     1
  8
3_ALL_AXES
  6
Continuous
 62
     7
100
AcDbSpline
 70
     0
 71
     3
 72
    25
 73
    21
 74
     0
 42
0.000000001
 43
0.0000001
 40
0.0
 40
0.0
 40
0.0
 40
0.0
 40
0.196509521
 40
0.3835181256
 40
0.5547832491
 40
0.6327482315
 40
0.7047372798
 40
0.7701382376
 40
0.8283750564
 40
0.8788868291
 40
0.9211656248
 40
0.9390647943
 40
0.9547355038
 40
0.9681333824
 40
0.9792143851
 40
0.9879392613
 40
0.9942910298
 40
0.9982713371
 40
0.9993924896
 40
1.0
 40
1.0
 40
1.0
 40
1.0
 10
96.4649486894
 20
397.5672004996
 30
0.0
 10
95.5988593806
 20
397.5501582068
 30
0.0
 10
93.9091010285
 20
397.4722793816
 30
0.0
 10
91.4739880778
 20
397.2361585571
 30
0.0
 10
89.5703281335
 20
396.9584410684
 30
0.0
 10
88.1769576652
 20
396.7057689304
 30
0.0
 10
87.2466055162
 20
396.5165243052
 30
0.0
 10
86.4051589484
 20
396.327476995
 30
0.0
 10
85.6594982783
 20
396.1446968115
 30
0.0
 10
85.0159141426
 20
395.9741444343
 30
0.0
 10
84.5466478199
 20
395.8403140783
 30
0.0
 10
84.2265986983
 20
395.7435155967
 30
0.0
 10
84.0291180493
 20
395.6813301815
 30
0.0
 10
83.8609882295
 20
395.6259315978
 30
0.0
 10
83.722812201
 20
395.5778526767
 30
0.0
 10
83.614559592
 20
395.537526418
 30
0.0
 10
83.5373443853
 20
395.5055442498
 30
0.0
 10
83.491161726
 20
395.4830706487
 30
0.0
 10
83.4711167164
 20
395.4690034489
 30
0.0
 10
83.4656879099
 20
395.4624052148
 30
0.0
 10
83.4656879099
 20
395.4597271762
 30
0.0
  0
ARC
  5
2DA
330
1B
100
AcDbEntity
 67
     1
  8
7_ALL_FEATURES
  6
Continuous
 62
     7
100
AcDbCircle
 10
97.4656838219
 20
341.0262890609
 30
0.0
 40
47.849481634
100
AcDbArc
 50
270.0000048951
 51
271.1975090101
  0
ARC
  5
2DB
330
1B
100
AcDbEntity
 67
     1
  8
7_ALL_FEATURES
  6
Continuous
 62
     7
100
AcDbCircle
 10
97.4656879099
 20
344.0768096439
 30
0.0
 40
50.411258182
100
AcDbArc
 50
73.8760797187
 51
106.1239202814
  0
SPLINE
  5
2DC
330
1B
100
AcDbEntity
 67
     1
  8
7_ALL_FEATURES
  6
Continuous
 62
     7
100
AcDbSpline
 70
     0
 71
     3
 72
    25
 73
    21
 74
     0
 42
0.000000001
 43
0.0000001
 40
0.0
 40
0.0
 40
0.0
 40
0.0
 40
0.0006062231
 40
0.0017293572
 40
0.0057217624
 40
0.0120951045
 40
0.0208501089
 40
0.031969086
 40
0.0454121146
 40
0.0611344695
 40
0.079091111
 40
0.121497403
 40
0.1721445661
 40
0.2305147165
 40
0.2960394405
 40
0.3681343524
 40
0.4461742475
 40
0.6174446747
 40
0.8041808431
 40
1.0
 40
1.0
 40
1.0
 40
1.0
 10
83.4656879099
 20
292.6938921116
 30
0.0
 10
83.4656879099
 20
292.691178526
 30
0.0
 10
83.4712442067
 20
292.6844968138
 30
0.0
 10
83.4916659792
 20
292.6702427392
 30
0.0
 10
83.5387563002
 20
292.6474225003
 30
0.0
 10
83.6174541473
 20
292.6149305864
 30
0.0
 10
83.7277948024
 20
292.5739435854
 30
0.0
 10
83.8686205478
 20
292.5250751356
 30
0.0
 10
84.039962129
 20
292.4687692935
 30
0.0
 10
84.2411970275
 20
292.4055749746
 30
0.0
 10
84.5672743148
 20
292.307233171
 30
0.0
 10
85.0452735226
 20
292.1713485812
 30
0.0
 10
85.7006745206
 20
291.9983693488
 30
0.0
 10
86.4597711849
 20
291.8132774102
 30
0.0
 10
87.3160644892
 20
291.6222104216
 30
0.0
 10
88.2624358741
 20
291.4314068293
 30
0.0
 10
89.6786379604
 20
291.1775487768
 30
0.0
 10
91.6115319637
 20
290.9005357785
 30
0.0
 10
94.0806988252
 20
290.6687785571
 30
0.0
 10
95.792525499
 20
290.5966682452
 30
0.0
 10
96.6689438192
 20
290.5827426939
 30
0.0
  0
ARC
  5
2DD
330
1B
100
AcDbEntity
 67
     1
  8
7_ALL_FEATURES
  6
Continuous
 62
     7
100
AcDbCircle
 10
97.4656879099
 20
344.0768096439
 30
0.0
 40
50.411258182
100
AcDbArc
 50
270.0
 51
286.1239202813
  0
LINE
  5
2DE
330
1B
100
AcDbEntity
 67
     1
  8
3_ALL_AXES
  6
Continuous
 62
     7
100
AcDbLine
 10
96.4656879099
 20
206.3930532095
 30
0.0
 11
96.4656879099
 21
191.3573443802
 31
0.0
  0
ARC
  5
2DF
330
1B
100
AcDbEntity
 67
     1
  8
3_ALL_AXES
  6
Continuous
 62
     7
100
AcDbCircle
 10
97.4656879099
 20
177.3930532095
 30
0.0
 40
14.0
100
AcDbArc
 50
85.9012790423
 51
94.0987211029
  0
LINE
  5
2E0
330
1B
100
AcDbEntity
 67
     1
  8
7_ALL_FEATURES
  6
Continuous
 62
     7
100
AcDbLine
 10
98.4658598786
 20
191.3572829815
 30
0.0
 11
98.4655159544
 21
190.3545642262
 31
0.0
  0
LINE
  5
2E1
330
1B
100
AcDbEntity
 67
     1
  8
3_ALL_AXES
  6
Continuous
 62
     7
100
AcDbLine
 10
98.4663483046
 20
206.3930532095
 30
0.0
 11
98.4610602464
 21
206.3930532095
 31
0.0
  0
LINE
  5
2E2
330
1B
100
AcDbEntity
 67
     1
  8
3_ALL_AXES
  6
Continuous
 62
     7
100
AcDbLine
 10
98.4610602464
 20
206.3930532095
 30
0.0
 11
96.4703155735
 21
206.3930532095
 31
0.0
  0
LINE
  5
2E3
330
1B
100
AcDbEntity
 67
     1
  8
3_ALL_AXES
  6
Continuous
 62
     7
100
AcDbLine
 10
96.4703155735
 20
206.3930532095
 30
0.0
 11
96.4650275153
 21
206.3930532095
 31
0.0
  0
LINE
  5
2E4
330
1B
100
AcDbEntity
 67
     1
  8
3_ALL_AXES
  6
Continuous
 62
     7
100
AcDbLine
 10
98.4656879099
 20
206.3930532095
 30
0.0
 11
98.4656879099
 21
191.35734438
 31
0.0
  0
LINE
  5
2E5
330
1B
100
AcDbEntity
 67
     1
  8
7_ALL_FEATURES
  6
Continuous
 62
     7
100
AcDbLine
 10
44.4889438048
 20
161.3930532095
 30
0.0
 11
43.9656879099
 21
191.3703633532
 31
0.0
  0
LINE
  5
2E6
330
1B
100
AcDbEntity
 67
     1
  8
3_ALL_AXES
  6
Continuous
 62
     7
100
AcDbLine
 10
43.9658537533
 20
206.3930532095
 30
0.0
 11
44.0312032494
 21
206.3930532095
 31
0.0
  0
LINE
  5
2E7
330
1B
100
AcDbEntity
 67
     1
  8
3_ALL_AXES
  6
Continuous
 62
     7
100
AcDbLine
 10
44.0312032494
 20
206.3930532095
 30
0.0
 11
44.4527361036
 21
206.3930532095
 31
0.0
  0
LINE
  5
2E8
330
1B
100
AcDbEntity
 67
     1
  8
3_ALL_AXES
  6
Continuous
 62
     7
100
AcDbLine
 10
44.4527361036
 20
206.3930532095
 30
0.0
 11
44.9464807891
 21
206.3930532095
 31
0.0
  0
LINE
  5
2E9
330
1B
100
AcDbEntity
 67
     1
  8
3_ALL_AXES
  6
Continuous
 62
     7
100
AcDbLine
 10
44.9464807891
 20
206.3930532095
 30
0.0
 11
45.2656879099
 21
206.3930532095
 31
0.0
  0
LINE
  5
2EA
330
1B
100
AcDbEntity
 67
     1
  8
3_ALL_AXES
  6
Continuous
 62
     7
100
AcDbLine
 10
45.2656879099
 20
206.3930532095
 30
0.0
 11
45.8234117906
 21
206.3930532095
 31
0.0
  0
LINE
  5
2EB
330
1B
100
AcDbEntity
 67
     1
  8
3_ALL_AXES
  6
Continuous
 62
     7
100
AcDbLine
 10
45.8234117906
 20
206.3930532095
 30
0.0
 11
46.7911426132
 21
206.3930532095
 31
0.0
  0
LINE
  5
2EC
330
1B
100
AcDbEntity
 67
     1
  8
3_ALL_AXES
  6
Continuous
 62
     7
100
AcDbLine
 10
46.7911426132
 20
206.3930532095
 30
0.0
 11
48.1706729277
 21
206.3930532095
 31
0.0
  0
LINE
  5
2ED
330
1B
100
AcDbEntity
 67
     1
  8
3_ALL_AXES
  6
Continuous
 62
     7
100
AcDbLine
 10
48.1706729277
 20
206.3930532095
 30
0.0
 11
49.5965904344
 21
206.3930532095
 31
0.0
  0
LINE
  5
2EE
330
1B
100
AcDbEntity
 67
     1
  8
3_ALL_AXES
  6
Continuous
 62
     7
100
AcDbLine
 10
49.5965904344
 20
206.3930532095
 30
0.0
 11
50.0106083349
 21
206.3930532095
 31
0.0
  0
LINE
  5
2EF
330
1B
100
AcDbEntity
 67
     1
  8
3_ALL_AXES
  6
Continuous
 62
     7
100
AcDbLine
 10
50.0106083349
 20
206.3930532095
 30
0.0
 11
51.5024231369
 21
206.3930532095
 31
0.0
  0
LINE
  5
2F0
330
1B
100
AcDbEntity
 67
     1
  8
3_ALL_AXES
  6
Continuous
 62
     7
100
AcDbLine
 10
51.5024231369
 20
206.3930532095
 30
0.0
 11
89.2005269995
 21
206.3930532095
 31
0.0
  0
LINE
  5
2F1
330
1B
100
AcDbEntity
 67
     1
  8
3_ALL_AXES
  6
Continuous
 62
     7
100
AcDbLine
 10
89.2005269995
 20
206.3930532095
 30
0.0
 11
96.4648898291
 21
206.3930532095
 31
0.0
  0
LINE
  5
2F2
330
1B
100
AcDbEntity
 67
     1
  8
7_ALL_FEATURES
  6
Continuous
 62
     7
100
AcDbLine
 10
43.9656879099
 20
206.3930532095
 30
0.0
 11
43.9656879099
 21
191.3703633532
 31
0.0
  0
LINE
  5
2F3
330
1B
100
AcDbEntity
 67
     1
  8
7_ALL_FEATURES
  6
Continuous
 62
     7
100
AcDbLine
 10
150.9656879099
 20
206.3930532095
 30
0.0
 11
150.9656879099
 21
191.3703633532
 31
0.0
  0
LINE
  5
2F4
330
1B
100
AcDbEntity
 67
     1
  8
7_ALL_FEATURES
  6
Continuous
 62
     7
100
AcDbLine
 10
150.4420150814
 20
161.3930532095
 30
0.0
 11
113.2226119581
 21
161.3930532095
 31
0.0
  0
LINE
  5
2F5
330
1B
100
AcDbEntity
 67
     1
  8
7_ALL_FEATURES
  6
Continuous
 62
     7
100
AcDbLine
 10
113.2226119581
 20
161.3930532095
 30
0.0
 11
112.2378042051
 21
161.3930532095
 31
0.0
  0
LINE
  5
2F6
330
1B
100
AcDbEntity
 67
     1
  8
7_ALL_FEATURES
  6
Continuous
 62
     7
100
AcDbLine
 10
112.2378042051
 20
161.3930532095
 30
0.0
 11
111.4656879099
 21
161.3930532095
 31
0.0
  0
LINE
  5
2F7
330
1B
100
AcDbEntity
 67
     1
  8
7_ALL_FEATURES
  6
Continuous
 62
     7
100
AcDbLine
 10
150.442432015
 20
161.3930532095
 30
0.0
 11
150.9656879099
 21
191.3703633532
 31
0.0
  0
ARC
  5
2F8
330
1B
100
AcDbEntity
 67
     1
  8
3_ALL_AXES
  6
Continuous
 62
     7
100
AcDbCircle
 10
97.4656879099
 20
177.3930532095
 30
0.0
 40
14.0
100
AcDbArc
 50
94.0990768123
 51
180.0
  0
ARC
  5
2F9
330
1B
100
AcDbEntity
 67
     1
  8
3_ALL_AXES
  6
Continuous
 62
     7
100
AcDbCircle
 10
97.4656879099
 20
177.3930532095
 30
0.0
 40
14.0
100
AcDbArc
 50
0.0
 51
85.9009231998
  0
LINE
  5
2FA
330
1B
100
AcDbEntity
 67
     1
  8
7_ALL_FEATURES
  6
Continuous
 62
     7
100
AcDbLine
 10
83.4656879099
 20
161.3930532095
 30
0.0
 11
82.6935716147
 21
161.3930532095
 31
0.0
  0
LINE
  5
2FB
330
1B
100
AcDbEntity
 67
     1
  8
7_ALL_FEATURES
  6
Continuous
 62
     7
100
AcDbLine
 10
82.6935716147
 20
161.3930532095
 30
0.0
 11
81.7087638617
 21
161.3930532095
 31
0.0
  0
LINE
  5
2FC
330
1B
100
AcDbEntity
 67
     1
  8
7_ALL_FEATURES
  6
Continuous
 62
     7
100
AcDbLine
 10
81.7087638617
 20
161.3930532095
 30
0.0
 11
44.4893607384
 21
161.3930532095
 31
0.0
  0
LINE
  5
2FD
330
1B
100
AcDbEntity
 67
     1
  8
7_ALL_FEATURES
  6
Continuous
 62
     7
100
AcDbLine
 10
111.4656879099
 20
161.3930532095
 30
0.0
 11
83.4656879099
 21
161.3930532095
 31
0.0
  0
LINE
  5
2FE
330
1B
100
AcDbEntity
 67
     1
  8
7_ALL_FEATURES
  6
Continuous
 62
     7
100
AcDbLine
 10
111.4656879099
 20
177.3930532095
 30
0.0
 11
111.4656879099
 21
161.3930532095
 31
0.0
  0
LINE
  5
2FF
330
1B
100
AcDbEntity
 67
     1
  8
3_ALL_AXES
  6
Continuous
 62
     7
100
AcDbLine
 10
98.4664859907
 20
206.3930532095
 30
0.0
 11
105.7677571872
 21
206.3930532095
 31
0.0
  0
LINE
  5
300
330
1B
100
AcDbEntity
 67
     1
  8
3_ALL_AXES
  6
Continuous
 62
     7
100
AcDbLine
 10
105.7677571872
 20
206.3930532095
 30
0.0
 11
149.6656879099
 21
206.3930532095
 31
0.0
  0
LINE
  5
301
330
1B
100
AcDbEntity
 67
     1
  8
3_ALL_AXES
  6
Continuous
 62
     7
100
AcDbLine
 10
149.6656879099
 20
206.3930532095
 30
0.0
 11
150.9116527034
 21
206.3930532095
 31
0.0
  0
LINE
  5
302
330
1B
100
AcDbEntity
 67
     1
  8
3_ALL_AXES
  6
Continuous
 62
     7
100
AcDbLine
 10
150.9116527034
 20
206.3930532095
 30
0.0
 11
150.9655221861
 21
206.3930532095
 31
0.0
  0
LINE
  5
303
330
1B
100
AcDbEntity
 67
     1
  8
7_ALL_FEATURES
  6
Continuous
 62
     7
100
AcDbLine
 10
111.4656879099
 20
163.3930532095
 30
0.0
 11
83.4656879099
 21
163.3930532095
 31
0.0
  0
LINE
  5
304
330
1B
100
AcDbEntity
 67
     1
  8
7_ALL_FEATURES
  6
Continuous
 62
     7
100
AcDbLine
 10
83.4656879099
 20
164.3930532095
 30
0.0
 11
84.4656879099
 21
164.3930532095
 31
0.0
  0
LINE
  5
305
330
1B
100
AcDbEntity
 67
     1
  8
7_ALL_FEATURES
  6
Continuous
 62
     7
100
AcDbLine
 10
96.4658598655
 20
190.3545639598
 30
0.0
 11
96.4655159412
 21
191.3572829815
 31
0.0
  0
LINE
  5
306
330
1B
100
AcDbEntity
 67
     1
  8
7_ALL_FEATURES
  6
Continuous
 62
     7
100
AcDbLine
 10
83.4656879099
 20
161.3930532095
 30
0.0
 11
83.4656879099
 21
177.3930532095
 31
0.0
  0
ARC
  5
307
330
1B
100
AcDbEntity
 67
     1
  8
7_ALL_FEATURES
  6
Continuous
 62
     7
100
AcDbCircle
 10
97.4656879099
 20
177.3930532095
 30
0.0
 40
13.0
100
AcDbArc
 50
94.4117257858
 51
180.0
  0
LINE
  5
308
330
1B
100
AcDbEntity
 67
     1
  8
7_ALL_FEATURES
  6
Continuous
 62
     7
100
AcDbLine
 10
84.4656879099
 20
177.3930532095
 30
0.0
 11
84.4656879099
 21
164.3930532095
 31
0.0
  0
LINE
  5
309
330
1B
100
AcDbEntity
 67
     1
  8
7_ALL_FEATURES
  6
Continuous
 62
     7
100
AcDbLine
 10
110.4656879099
 20
164.3930532095
 30
0.0
 11
110.4656879099
 21
177.3930532095
 31
0.0
  0
ARC
  5
30A
330
1B
100
AcDbEntity
 67
     1
  8
7_ALL_FEATURES
  6
Continuous
 62
     7
100
AcDbCircle
 10
97.4656879099
 20
177.3930532095
 30
0.0
 40
13.0
100
AcDbArc
 50
0.0
 51
85.5882742143
  0
LINE
  5
30B
330
1B
100
AcDbEntity
 67
     1
  8
7_ALL_FEATURES
  6
Continuous
 62
     7
100
AcDbLine
 10
110.4656879099
 20
164.3930532095
 30
0.0
 11
111.4656879099
 21
164.3930532095
 31
0.0
  0
LINE
  5
30C
330
1B
100
AcDbEntity
 67
     1
  8
3_ALL_AXES
  6
Continuous
 62
     7
100
AcDbLine
 10
96.4657315828
 20
191.3703633532
 30
0.0
 11
43.9656879099
 21
191.3703633532
 31
0.0
  0
LINE
  5
30D
330
1B
100
AcDbEntity
 67
     1
  8
3_ALL_AXES
  6
Continuous
 62
     7
100
AcDbLine
 10
150.9656879099
 20
191.3703633532
 30
0.0
 11
98.4656442371
 21
191.3703633532
 31
0.0
  0
LINE
  5
30E
330
1B
100
AcDbEntity
 67
     1
  8
7_ALL_FEATURES
  6
Continuous
 62
     7
100
AcDbLine
 10
65.5332979155
 20
261.3930532095
 30
0.0
 11
62.9659685001
 21
261.3930532095
 31
0.0
  0
LINE
  5
30F
330
1B
100
AcDbEntity
 67
     1
  8
7_ALL_FEATURES
  6
Continuous
 62
     7
100
AcDbLine
 10
62.9659685001
 20
261.3930532095
 30
0.0
 11
61.4658714349
 21
261.3930532095
 31
0.0
  0
LINE
  5
310
330
1B
100
AcDbEntity
 67
     1
  8
7_ALL_FEATURES
  6
Continuous
 62
     7
100
AcDbLine
 10
97.1579669772
 20
212.3930532095
 30
0.0
 11
97.362446107
 21
212.3930532095
 31
0.0
  0
LINE
  5
311
330
1B
100
AcDbEntity
 67
     1
  8
7_ALL_FEATURES
  6
Continuous
 62
     7
100
AcDbLine
 10
97.362446107
 20
212.3930532095
 30
0.0
 11
97.7718516154
 21
212.3930532095
 31
0.0
  0
LINE
  5
312
330
1B
100
AcDbEntity
 67
     1
  8
7_ALL_FEATURES
  6
Continuous
 62
     7
100
AcDbLine
 10
97.7718516154
 20
212.3930532095
 30
0.0
 11
97.773307157
 21
212.3930532095
 31
0.0
  0
ARC
  5
313
330
1B
100
AcDbEntity
 67
     1
  8
7_ALL_FEATURES
  6
Continuous
 62
     7
100
AcDbCircle
 10
97.1580569143
 20
211.8930532095
 30
0.0
 40
0.5
100
AcDbArc
 50
90.0
 51
177.9999999999
  0
ARC
  5
314
330
1B
100
AcDbEntity
 67
     1
  8
7_ALL_FEATURES
  6
Continuous
 62
     7
100
AcDbCircle
 10
97.7733189056
 20
211.8930532095
 30
0.0
 40
0.5
100
AcDbArc
 50
2.0000000001
 51
90.0
  0
LINE
  5
315
330
1B
100
AcDbEntity
 67
     1
  8
7_ALL_FEATURES
  6
Continuous
 62
     7
100
AcDbLine
 10
97.7351213733
 20
212.3930532095
 30
0.0
 11
97.7546584555
 21
212.3930532095
 31
0.0
  0
LINE
  5
316
330
1B
100
AcDbEntity
 67
     1
  8
7_ALL_FEATURES
  6
Continuous
 62
     7
100
AcDbLine
 10
97.1589630655
 20
212.3930532095
 30
0.0
 11
97.4656879099
 21
212.3930532095
 31
0.0
  0
LINE
  5
317
330
1B
100
AcDbEntity
 67
     1
  8
7_ALL_FEATURES
  6
Continuous
 62
     7
100
AcDbLine
 10
97.4656879099
 20
212.3930532095
 30
0.0
 11
97.7351213733
 21
212.3930532095
 31
0.0
  0
LINE
  5
318
330
1B
100
AcDbEntity
 67
     1
  8
7_ALL_FEATURES
  6
Continuous
 62
     7
100
AcDbLine
 10
97.1767173643
 20
212.3930532095
 30
0.0
 11
97.1589630655
 21
212.3930532095
 31
0.0
  0
LINE
  5
319
330
1B
100
AcDbEntity
 67
     1
  8
7_ALL_FEATURES
  6
Continuous
 62
     7
100
AcDbLine
 10
96.4657285712
 20
206.3930532095
 30
0.0
 11
96.4703155735
 21
206.3930532095
 31
0.0
  0
LINE
  5
31A
330
1B
100
AcDbEntity
 67
     1
  8
7_ALL_FEATURES
  6
Continuous
 62
     7
100
AcDbLine
 10
96.4703155735
 20
206.3930532095
 30
0.0
 11
98.4610602464
 21
206.3930532095
 31
0.0
  0
LINE
  5
31B
330
1B
100
AcDbEntity
 67
     1
  8
7_ALL_FEATURES
  6
Continuous
 62
     7
100
AcDbLine
 10
98.4610602464
 20
206.3930532095
 30
0.0
 11
98.4656472487
 21
206.3930532095
 31
0.0
  0
LINE
  5
31C
330
1B
100
AcDbEntity
 67
     1
  8
7_ALL_FEATURES
  6
Continuous
 62
     7
100
AcDbLine
 10
96.4656879099
 20
206.3930532095
 30
0.0
 11
96.6583615008
 21
211.9105029578
 31
0.0
  0
LINE
  5
31D
330
1B
100
AcDbEntity
 67
     1
  8
7_ALL_FEATURES
  6
Continuous
 62
     7
100
AcDbLine
 10
98.4656879099
 20
206.3930532095
 30
0.0
 11
98.2730143191
 21
211.9105029578
 31
0.0
  0
LINE
  5
31E
330
1B
100
AcDbEntity
 67
     1
  8
7_ALL_FEATURES
  6
Continuous
 62
     7
100
AcDbLine
 10
133.4655043849
 20
261.3930532095
 30
0.0
 11
131.9654073197
 21
261.3930532095
 31
0.0
  0
LINE
  5
31F
330
1B
100
AcDbEntity
 67
     1
  8
7_ALL_FEATURES
  6
Continuous
 62
     7
100
AcDbLine
 10
131.9654073197
 20
261.3930532095
 30
0.0
 11
128.0675616546
 21
261.3930532095
 31
0.0
  0
LINE
  5
320
330
1B
100
AcDbEntity
 67
     1
  8
7_ALL_FEATURES
  6
Continuous
 62
     7
100
AcDbLine
 10
128.0675616546
 20
261.3930532095
 30
0.0
 11
127.8277799592
 21
261.3930532095
 31
0.0
  0
LINE
  5
321
330
1B
100
AcDbEntity
 67
     1
  8
7_ALL_FEATURES
  6
Continuous
 62
     7
100
AcDbLine
 10
127.8277799592
 20
261.3930532095
 30
0.0
 11
65.5332979155
 21
261.3930532095
 31
0.0
  0
LINE
  5
322
330
1B
100
AcDbEntity
 67
     1
  8
7_ALL_FEATURES
  6
Continuous
 62
     7
100
AcDbLine
 10
133.4656879099
 20
261.3930532095
 30
0.0
 11
133.9994690008
 21
230.8127549933
 31
0.0
  0
LINE
  5
323
330
1B
100
AcDbEntity
 67
     1
  8
7_ALL_FEATURES
  6
Continuous
 62
     7
100
AcDbLine
 10
61.4656879099
 20
261.3930532095
 30
0.0
 11
60.931906819
 21
230.8127549933
 31
0.0
  0
LINE
  5
324
330
1B
100
AcDbEntity
 67
     1
  8
7_ALL_FEATURES
  6
Continuous
 62
     7
100
AcDbLine
 10
50.0106083349
 20
206.3930532095
 30
0.0
 11
49.5965904344
 21
206.3930532095
 31
0.0
  0
LINE
  5
325
330
1B
100
AcDbEntity
 67
     1
  8
7_ALL_FEATURES
  6
Continuous
 62
     7
100
AcDbLine
 10
49.5965904344
 20
206.3930532095
 30
0.0
 11
48.1706729277
 21
206.3930532095
 31
0.0
  0
LINE
  5
326
330
1B
100
AcDbEntity
 67
     1
  8
7_ALL_FEATURES
  6
Continuous
 62
     7
100
AcDbLine
 10
48.1706729277
 20
206.3930532095
 30
0.0
 11
46.7911426132
 21
206.3930532095
 31
0.0
  0
LINE
  5
327
330
1B
100
AcDbEntity
 67
     1
  8
7_ALL_FEATURES
  6
Continuous
 62
     7
100
AcDbLine
 10
46.7911426132
 20
206.3930532095
 30
0.0
 11
45.8234117906
 21
206.3930532095
 31
0.0
  0
LINE
  5
328
330
1B
100
AcDbEntity
 67
     1
  8
7_ALL_FEATURES
  6
Continuous
 62
     7
100
AcDbLine
 10
45.8234117906
 20
206.3930532095
 30
0.0
 11
45.2656879099
 21
206.3930532095
 31
0.0
  0
LINE
  5
329
330
1B
100
AcDbEntity
 67
     1
  8
7_ALL_FEATURES
  6
Continuous
 62
     7
100
AcDbLine
 10
45.2656879099
 20
206.3930532095
 30
0.0
 11
45.1059767145
 21
206.3930532095
 31
0.0
  0
LINE
  5
32A
330
1B
100
AcDbEntity
 67
     1
  8
7_ALL_FEATURES
  6
Continuous
 62
     7
100
AcDbLine
 10
45.1059767145
 20
206.3930532095
 30
0.0
 11
44.9464807891
 21
206.3930532095
 31
0.0
  0
LINE
  5
32B
330
1B
100
AcDbEntity
 67
     1
  8
7_ALL_FEATURES
  6
Continuous
 62
     7
100
AcDbLine
 10
44.9464807891
 20
206.3930532095
 30
0.0
 11
44.4527361036
 21
206.3930532095
 31
0.0
  0
LINE
  5
32C
330
1B
100
AcDbEntity
 67
     1
  8
7_ALL_FEATURES
  6
Continuous
 62
     7
100
AcDbLine
 10
44.4527361036
 20
206.3930532095
 30
0.0
 11
44.0312032494
 21
206.3930532095
 31
0.0
  0
LINE
  5
32D
330
1B
100
AcDbEntity
 67
     1
  8
7_ALL_FEATURES
  6
Continuous
 62
     7
100
AcDbLine
 10
44.0312032494
 20
206.3930532095
 30
0.0
 11
43.9658396303
 21
206.3930532095
 31
0.0
  0
LINE
  5
32E
330
1B
100
AcDbEntity
 67
     1
  8
7_ALL_FEATURES
  6
Continuous
 62
     7
100
AcDbLine
 10
50.0106083349
 20
206.3930532095
 30
0.0
 11
51.5024231369
 21
206.3930532095
 31
0.0
  0
LINE
  5
32F
330
1B
100
AcDbEntity
 67
     1
  8
7_ALL_FEATURES
  6
Continuous
 62
     7
100
AcDbLine
 10
51.5024231369
 20
206.3930532095
 30
0.0
 11
89.2005269995
 21
206.3930532095
 31
0.0
  0
LINE
  5
330
330
1B
100
AcDbEntity
 67
     1
  8
7_ALL_FEATURES
  6
Continuous
 62
     7
100
AcDbLine
 10
89.2005269995
 20
206.3930532095
 30
0.0
 11
96.4657315828
 21
206.3930532095
 31
0.0
  0
LINE
  5
331
330
1B
100
AcDbEntity
 67
     1
  8
7_ALL_FEATURES
  6
Continuous
 62
     7
100
AcDbLine
 10
98.4656442371
 20
206.3930532095
 30
0.0
 11
105.7677571872
 21
206.3930532095
 31
0.0
  0
LINE
  5
332
330
1B
100
AcDbEntity
 67
     1
  8
7_ALL_FEATURES
  6
Continuous
 62
     7
100
AcDbLine
 10
105.7677571872
 20
206.3930532095
 30
0.0
 11
149.6656879099
 21
206.3930532095
 31
0.0
  0
LINE
  5
333
330
1B
100
AcDbEntity
 67
     1
  8
7_ALL_FEATURES
  6
Continuous
 62
     7
100
AcDbLine
 10
149.6656879099
 20
206.3930532095
 30
0.0
 11
150.9116527034
 21
206.3930532095
 31
0.0
  0
LINE
  5
334
330
1B
100
AcDbEntity
 67
     1
  8
7_ALL_FEATURES
  6
Continuous
 62
     7
100
AcDbLine
 10
150.9116527034
 20
206.3930532095
 30
0.0
 11
150.9655500574
 21
206.3930532095
 31
0.0
  0
LINE
  5
335
330
1B
100
AcDbEntity
 67
     1
  8
7_ALL_FEATURES
  6
Continuous
 62
     7
100
AcDbLine
 10
150.859377627
 20
212.4835652413
 30
0.0
 11
150.9656879099
 21
206.3930532095
 31
0.0
  0
LINE
  5
336
330
1B
100
AcDbEntity
 67
     1
  8
7_ALL_FEATURES
  6
Continuous
 62
     7
100
AcDbLine
 10
133.9994690008
 20
230.8127549933
 30
0.0
 11
150.859377627
 21
212.4835652413
 31
0.0
  0
LINE
  5
337
330
1B
100
AcDbEntity
 67
     1
  8
7_ALL_FEATURES
  6
Continuous
 62
     7
100
AcDbLine
 10
44.0719981929
 20
212.4835652413
 30
0.0
 11
43.9656879099
 21
206.3930532095
 31
0.0
  0
LINE
  5
338
330
1B
100
AcDbEntity
 67
     1
  8
7_ALL_FEATURES
  6
Continuous
 62
     7
100
AcDbLine
 10
60.931906819
 20
230.8127549933
 30
0.0
 11
44.0719981929
 21
212.4835652413
 31
0.0
  0
LINE
  5
339
330
1B
100
AcDbEntity
 67
     1
  8
7_ALL_FEATURES
  6
Continuous
 62
     9
100
AcDbLine
 10
96.6583665524
 20
211.9105029578
 30
0.0
 11
98.2730133911
 21
211.9105029578
 31
0.0
  0
LINE
  5
33A
330
1B
100
AcDbEntity
 67
     1
  8
7_ALL_FEATURES
  6
Continuous
 62
     7
100
AcDbLine
 10
133.9994690008
 20
230.8127549933
 30
0.0
 11
65.0598283054
 21
230.8127549933
 31
0.0
  0
LINE
  5
33B
330
1B
100
AcDbEntity
 67
     1
  8
7_ALL_FEATURES
  6
Continuous
 62
     7
100
AcDbLine
 10
50.1049067076
 20
212.4835652413
 30
0.0
 11
44.0719981929
 21
212.4835652413
 31
0.0
  0
LINE
  5
33C
330
1B
100
AcDbEntity
 67
     1
  8
7_ALL_FEATURES
  6
Continuous
 62
     7
100
AcDbLine
 10
50.1049067076
 20
212.4835652413
 30
0.0
 11
97.1579669772
 21
212.4835652413
 31
0.0
  0
LINE
  5
33D
330
1B
100
AcDbEntity
 67
     1
  8
7_ALL_FEATURES
  6
Continuous
 62
     7
100
AcDbLine
 10
97.1579669772
 20
212.4835652413
 30
0.0
 11
97.5673212438
 21
212.4835652413
 31
0.0
  0
LINE
  5
33E
330
1B
100
AcDbEntity
 67
     1
  8
7_ALL_FEATURES
  6
Continuous
 62
     7
100
AcDbLine
 10
97.5673212438
 20
212.4835652413
 30
0.0
 11
97.7351213733
 21
212.4835652413
 31
0.0
  0
LINE
  5
33F
330
1B
100
AcDbEntity
 67
     1
  8
7_ALL_FEATURES
  6
Continuous
 62
     7
100
AcDbLine
 10
97.7351213733
 20
212.4835652413
 30
0.0
 11
97.773307157
 21
212.4835652413
 31
0.0
  0
LINE
  5
340
330
1B
100
AcDbEntity
 67
     1
  8
7_ALL_FEATURES
  6
Continuous
 62
     7
100
AcDbLine
 10
97.773307157
 20
212.4835652413
 30
0.0
 11
150.8593776269
 21
212.4835652413
 31
0.0
  0
LINE
  5
341
330
1B
100
AcDbEntity
 67
     1
  8
7_ALL_FEATURES
  6
Continuous
 62
     7
100
AcDbLine
 10
65.0598283054
 20
230.8127549933
 30
0.0
 11
60.931906819
 21
230.8127549933
 31
0.0
  0
ARC
  5
342
330
1B
100
AcDbEntity
 67
     1
  8
3_ALL_AXES
  6
Continuous
 62
     7
100
AcDbCircle
 10
97.4656879099
 20
35.9928694101
 30
0.0
 40
1.0
100
AcDbArc
 50
358.4567670139
 51
0.539287676
  0
ARC
  5
343
330
1B
100
AcDbEntity
 67
     1
  8
3_ALL_AXES
  6
Continuous
 62
     7
100
AcDbCircle
 10
97.4656879099
 20
35.9928694101
 30
0.0
 40
1.0
100
AcDbArc
 50
181.5432329874
 51
358.4567670139
  0
ARC
  5
344
330
1B
100
AcDbEntity
 67
     1
  8
3_ALL_AXES
  6
Continuous
 62
     7
100
AcDbCircle
 10
97.4656879099
 20
35.9928694101
 30
0.0
 40
1.0
100
AcDbArc
 50
179.4607123084
 51
181.5432329874
  0
ARC
  5
345
330
1B
100
AcDbEntity
 67
     1
  8
3_ALL_AXES
  6
Continuous
 62
     7
100
AcDbCircle
 10
97.4656879099
 20
89.4928694101
 30
0.0
 40
53.5
100
AcDbArc
 50
271.0718675475
 51
278.9282004746
  0
ARC
  5
346
330
1B
100
AcDbEntity
 67
     1
  8
3_ALL_AXES
  6
Continuous
 62
     7
100
AcDbCircle
 10
97.4656879099
 20
89.4928694101
 30
0.0
 40
53.5
100
AcDbArc
 50
278.9282004746
 51
24.8645421857
  0
ARC
  5
347
330
1B
100
AcDbEntity
 67
     1
  8
3_ALL_AXES
  6
Continuous
 62
     7
100
AcDbCircle
 10
97.4656879099
 20
89.4928694101
 30
0.0
 40
53.5
100
AcDbArc
 50
24.8645421857
 51
27.5024868606
  0
ARC
  5
348
330
1B
100
AcDbEntity
 67
     1
  8
3_ALL_AXES
  6
Continuous
 62
     7
100
AcDbCircle
 10
97.4656879099
 20
89.4928694101
 30
0.0
 40
53.5
100
AcDbArc
 50
27.5024868606
 51
28.9460843655
  0
ARC
  5
349
330
1B
100
AcDbEntity
 67
     1
  8
3_ALL_AXES
  6
Continuous
 62
     7
100
AcDbCircle
 10
97.4656879099
 20
89.4928694101
 30
0.0
 40
53.5
100
AcDbArc
 50
28.9460843655
 51
92.07373571620002
  0
ARC
  5
34A
330
1B
100
AcDbEntity
 67
     1
  8
3_ALL_AXES
  6
Continuous
 62
     7
100
AcDbCircle
 10
97.4656879099
 20
89.4928694101
 30
0.0
 40
53.5
100
AcDbArc
 50
92.07373571620002
 51
93.9762352485
  0
ARC
  5
34B
330
1B
100
AcDbEntity
 67
     1
  8
7_ALL_FEATURES
  6
Continuous
 62
     7
100
AcDbCircle
 10
97.4656879099
 20
89.4928694101
 30
0.0
 40
15.0
100
AcDbArc
 50
100.0
 51
170.0
  0
LINE
  5
34C
330
1B
100
AcDbEntity
 67
     1
  8
7_ALL_FEATURES
  6
Continuous
 62
     7
100
AcDbLine
 10
82.6935716147
 20
92.0975920751
 30
0.0
 11
81.7087638617
 21
92.2712402528
 31
0.0
  0
ARC
  5
34D
330
1B
100
AcDbEntity
 67
     1
  8
7_ALL_FEATURES
  6
Continuous
 62
     7
100
AcDbCircle
 10
97.4656879099
 20
89.4928694101
 30
0.0
 40
16.0
100
AcDbArc
 50
100.0
 51
170.0
  0
LINE
  5
34E
330
1B
100
AcDbEntity
 67
     1
  8
7_ALL_FEATURES
  6
Continuous
 62
     7
100
AcDbLine
 10
94.6873170673
 20
105.2497934583
 30
0.0
 11
94.8609652449
 21
104.2649857053
 31
0.0
  0
ARC
  5
34F
330
1B
100
AcDbEntity
 67
     1
  8
7_ALL_FEATURES
  6
Continuous
 62
     7
100
AcDbCircle
 10
97.4656879099
 20
89.4928694101
 30
0.0
 40
15.0
100
AcDbArc
 50
190.0
 51
260.0
  0
LINE
  5
350
330
1B
100
AcDbEntity
 67
     1
  8
7_ALL_FEATURES
  6
Continuous
 62
     7
100
AcDbLine
 10
94.8609652449
 20
74.7207531149
 30
0.0
 11
94.6873170673
 21
73.7359453619
 31
0.0
  0
ARC
  5
351
330
1B
100
AcDbEntity
 67
     1
  8
7_ALL_FEATURES
  6
Continuous
 62
     7
100
AcDbCircle
 10
97.4656879099
 20
89.4928694101
 30
0.0
 40
16.0
100
AcDbArc
 50
190.0
 51
260.0
  0
LINE
  5
352
330
1B
100
AcDbEntity
 67
     1
  8
7_ALL_FEATURES
  6
Continuous
 62
     7
100
AcDbLine
 10
81.7087638617
 20
86.7144985675
 30
0.0
 11
82.6935716147
 21
86.8881467451
 31
0.0
  0
ARC
  5
353
330
1B
100
AcDbEntity
 67
     1
  8
7_ALL_FEATURES
  6
Continuous
 62
     7
100
AcDbCircle
 10
97.4656879099
 20
89.4928694101
 30
0.0
 40
15.0
100
AcDbArc
 50
280.0
 51
349.9999999999999
  0
LINE
  5
354
330
1B
100
AcDbEntity
 67
     1
  8
7_ALL_FEATURES
  6
Continuous
 62
     7
100
AcDbLine
 10
112.2378042051
 20
86.8881467451
 30
0.0
 11
113.2226119581
 21
86.7144985675
 31
0.0
  0
LINE
  5
355
330
1B
100
AcDbEntity
 67
     1
  8
7_ALL_FEATURES
  6
Continuous
 62
     7
100
AcDbLine
 10
113.2226119581
 20
92.2712402528
 30
0.0
 11
112.2378042051
 21
92.0975920751
 31
0.0
  0
ARC
  5
356
330
1B
100
AcDbEntity
 67
     1
  8
7_ALL_FEATURES
  6
Continuous
 62
     7
100
AcDbCircle
 10
97.4656879099
 20
89.4928694101
 30
0.0
 40
16.0
100
AcDbArc
 50
10.0
 51
80.0
  0
LINE
  5
357
330
1B
100
AcDbEntity
 67
     1
  8
7_ALL_FEATURES
  6
Continuous
 62
     7
100
AcDbLine
 10
100.0704105749
 20
104.2649857053
 30
0.0
 11
100.2440587526
 21
105.2497934583
 31
0.0
  0
ARC
  5
358
330
1B
100
AcDbEntity
 67
     1
  8
7_ALL_FEATURES
  6
Continuous
 62
     7
100
AcDbCircle
 10
97.4656879099
 20
89.4928694101
 30
0.0
 40
15.0
100
AcDbArc
 50
10.0
 51
80.0
  0
LINE
  5
359
330
1B
100
AcDbEntity
 67
     1
  8
7_ALL_FEATURES
  6
Continuous
 62
     7
100
AcDbLine
 10
100.2440587526
 20
73.7359453619
 30
0.0
 11
100.0704105749
 21
74.7207531149
 31
0.0
  0
ARC
  5
35A
330
1B
100
AcDbEntity
 67
     1
  8
7_ALL_FEATURES
  6
Continuous
 62
     7
100
AcDbCircle
 10
97.4656879099
 20
89.4928694101
 30
0.0
 40
16.0
100
AcDbArc
 50
280.0
 51
349.9999999999999
  0
ARC
  5
35B
330
1B
100
AcDbEntity
 67
     1
  8
3_ALL_AXES
  6
Continuous
 62
     7
100
AcDbCircle
 10
97.4656879099
 20
89.4928694101
 30
0.0
 40
53.5
100
AcDbArc
 50
93.9762352485
 51
95.9218844354
  0
ARC
  5
35C
330
1B
100
AcDbEntity
 67
     1
  8
3_ALL_AXES
  6
Continuous
 62
     7
100
AcDbCircle
 10
97.4656879099
 20
89.4928694101
 30
0.0
 40
53.5
100
AcDbArc
 50
95.9218844354
 51
206.3931465087
  0
ARC
  5
35D
330
1B
100
AcDbEntity
 67
     1
  8
3_ALL_AXES
  6
Continuous
 62
     7
100
AcDbCircle
 10
97.4656879099
 20
89.4928694101
 30
0.0
 40
53.5
100
AcDbArc
 50
206.3931465087
 51
207.4965642167
  0
ARC
  5
35E
330
1B
100
AcDbEntity
 67
     1
  8
3_ALL_AXES
  6
Continuous
 62
     7
100
AcDbCircle
 10
97.4656879099
 20
89.4928694101
 30
0.0
 40
53.5
100
AcDbArc
 50
207.4965642167
 51
210.572942709
  0
ARC
  5
35F
330
1B
100
AcDbEntity
 67
     1
  8
3_ALL_AXES
  6
Continuous
 62
     7
100
AcDbCircle
 10
97.4656879099
 20
89.4928694101
 30
0.0
 40
53.5
100
AcDbArc
 50
210.572942709
 51
261.1113868414
  0
ARC
  5
360
330
1B
100
AcDbEntity
 67
     1
  8
3_ALL_AXES
  6
Continuous
 62
     7
100
AcDbCircle
 10
97.4656879099
 20
89.4928694101
 30
0.0
 40
53.5
100
AcDbArc
 50
261.1113868414
 51
268.9281324525
  0
ARC
  5
361
330
1B
100
AcDbEntity
 67
     1
  8
7_ALL_FEATURES
  6
Continuous
 62
     7
100
AcDbCircle
 10
97.4656879099
 20
89.4928694101
 30
0.0
 40
34.5
100
AcDbArc
 50
27.5
 51
207.5
  0
ARC
  5
362
330
1B
100
AcDbEntity
 67
     1
  8
02___PRT_ALL_AXES
  6
Continuous
 62
     7
100
AcDbCircle
 10
87.7852889921
 20
116.8294726518
 30
0.0
 40
2.0
100
AcDbArc
 50
27.5
 51
207.5
  0
ARC
  5
363
330
1B
100
AcDbEntity
 67
     1
  8
02___PRT_ALL_AXES
  6
Continuous
 62
     7
100
AcDbCircle
 10
87.7852889921
 20
116.8294726518
 30
0.0
 40
2.0
100
AcDbArc
 50
207.5
 51
27.5
  0
ARC
  5
364
330
1B
100
AcDbEntity
 67
     1
  8
02___PRT_ALL_AXES
  6
Continuous
 62
     7
100
AcDbCircle
 10
94.1827947106
 20
118.3064532247
 30
0.0
 40
2.0
100
AcDbArc
 50
27.5
 51
207.5
  0
ARC
  5
365
330
1B
100
AcDbEntity
 67
     1
  8
02___PRT_ALL_AXES
  6
Continuous
 62
     7
100
AcDbCircle
 10
94.1827947106
 20
118.3064532247
 30
0.0
 40
2.0
100
AcDbArc
 50
207.5
 51
27.5
  0
ARC
  5
366
330
1B
100
AcDbEntity
 67
     1
  8
02___PRT_ALL_AXES
  6
Continuous
 62
     7
100
AcDbCircle
 10
100.7485811092
 20
118.3064532247
 30
0.0
 40
2.0
100
AcDbArc
 50
27.5
 51
207.5
  0
ARC
  5
367
330
1B
100
AcDbEntity
 67
     1
  8
02___PRT_ALL_AXES
  6
Continuous
 62
     7
100
AcDbCircle
 10
100.7485811092
 20
118.3064532247
 30
0.0
 40
2.0
100
AcDbArc
 50
207.5
 51
27.5
  0
ARC
  5
368
330
1B
100
AcDbEntity
 67
     1
  8
02___PRT_ALL_AXES
  6
Continuous
 62
     7
100
AcDbCircle
 10
107.1460868277
 20
116.8294726518
 30
0.0
 40
2.0
100
AcDbArc
 50
27.5
 51
207.5
  0
ARC
  5
369
330
1B
100
AcDbEntity
 67
     1
  8
02___PRT_ALL_AXES
  6
Continuous
 62
     7
100
AcDbCircle
 10
107.1460868277
 20
116.8294726518
 30
0.0
 40
2.0
100
AcDbArc
 50
207.5
 51
27.5
  0
ARC
  5
36A
330
1B
100
AcDbEntity
 67
     1
  8
02___PRT_ALL_AXES
  6
Continuous
 62
     7
100
AcDbCircle
 10
107.1460868277
 20
62.1562661685
 30
0.0
 40
2.0
100
AcDbArc
 50
207.5
 51
27.5
  0
ARC
  5
36B
330
1B
100
AcDbEntity
 67
     1
  8
02___PRT_ALL_AXES
  6
Continuous
 62
     7
100
AcDbCircle
 10
107.1460868277
 20
62.1562661685
 30
0.0
 40
2.0
100
AcDbArc
 50
27.5
 51
207.5
  0
ARC
  5
36C
330
1B
100
AcDbEntity
 67
     1
  8
02___PRT_ALL_AXES
  6
Continuous
 62
     7
100
AcDbCircle
 10
100.7485811092
 20
60.6792855955
 30
0.0
 40
2.0
100
AcDbArc
 50
207.5
 51
27.5
  0
ARC
  5
36D
330
1B
100
AcDbEntity
 67
     1
  8
02___PRT_ALL_AXES
  6
Continuous
 62
     7
100
AcDbCircle
 10
100.7485811092
 20
60.6792855955
 30
0.0
 40
2.0
100
AcDbArc
 50
27.5
 51
207.5
  0
ARC
  5
36E
330
1B
100
AcDbEntity
 67
     1
  8
02___PRT_ALL_AXES
  6
Continuous
 62
     7
100
AcDbCircle
 10
94.1827947107
 20
60.6792855955
 30
0.0
 40
2.0
100
AcDbArc
 50
207.5
 51
27.5
  0
ARC
  5
36F
330
1B
100
AcDbEntity
 67
     1
  8
02___PRT_ALL_AXES
  6
Continuous
 62
     7
100
AcDbCircle
 10
94.1827947107
 20
60.6792855955
 30
0.0
 40
2.0
100
AcDbArc
 50
27.5
 51
207.5
  0
ARC
  5
370
330
1B
100
AcDbEntity
 67
     1
  8
02___PRT_ALL_AXES
  6
Continuous
 62
     7
100
AcDbCircle
 10
87.7852889922
 20
62.1562661684
 30
0.0
 40
2.0
100
AcDbArc
 50
207.5
 51
27.5
  0
ARC
  5
371
330
1B
100
AcDbEntity
 67
     1
  8
02___PRT_ALL_AXES
  6
Continuous
 62
     7
100
AcDbCircle
 10
87.7852889922
 20
62.1562661684
 30
0.0
 40
2.0
100
AcDbArc
 50
27.5
 51
207.5
  0
ARC
  5
372
330
1B
100
AcDbEntity
 67
     1
  8
7_ALL_FEATURES
  6
Continuous
 62
     7
100
AcDbCircle
 10
97.4656879099
 20
89.4928694101
 30
0.0
 40
25.0
100
AcDbArc
 50
27.5
 51
207.5
  0
ARC
  5
373
330
1B
100
AcDbEntity
 67
     1
  8
7_ALL_FEATURES
  6
Continuous
 62
     7
100
AcDbCircle
 10
97.4656879099
 20
89.4928694101
 30
0.0
 40
25.0
100
AcDbArc
 50
207.5
 51
27.5
  0
ARC
  5
374
330
1B
100
AcDbEntity
 67
     1
  8
7_ALL_FEATURES
  6
Continuous
 62
     7
100
AcDbCircle
 10
97.4656879099
 20
89.4928694101
 30
0.0
 40
53.5
100
AcDbArc
 50
271.0709647406
 51
278.9281588637
  0
ARC
  5
375
330
1B
100
AcDbEntity
 67
     1
  8
7_ALL_FEATURES
  6
Continuous
 62
     7
100
AcDbCircle
 10
97.4656879099
 20
89.4928694101
 30
0.0
 40
53.5
100
AcDbArc
 50
278.9281588637
 51
24.8534617127
  0
ARC
  5
376
330
1B
100
AcDbEntity
 67
     1
  8
7_ALL_FEATURES
  6
Continuous
 62
     7
100
AcDbCircle
 10
97.4656879099
 20
89.4928694101
 30
0.0
 40
53.5
100
AcDbArc
 50
24.8534617127
 51
27.5
  0
ARC
  5
377
330
1B
100
AcDbEntity
 67
     1
  8
7_ALL_FEATURES
  6
Continuous
 62
     7
100
AcDbCircle
 10
97.4656879099
 20
89.4928694101
 30
0.0
 40
53.5
100
AcDbArc
 50
207.5
 51
210.5834566335
  0
ARC
  5
378
330
1B
100
AcDbEntity
 67
     1
  8
7_ALL_FEATURES
  6
Continuous
 62
     7
100
AcDbCircle
 10
97.4656879099
 20
89.4928694101
 30
0.0
 40
53.5
100
AcDbArc
 50
210.5834566335
 51
261.1114249886
  0
ARC
  5
379
330
1B
100
AcDbEntity
 67
     1
  8
7_ALL_FEATURES
  6
Continuous
 62
     7
100
AcDbCircle
 10
97.4656879099
 20
89.4928694101
 30
0.0
 40
53.5
100
AcDbArc
 50
261.1114249886
 51
268.9290352595
  0
ARC
  5
37A
330
1B
100
AcDbEntity
 67
     1
  8
7_ALL_FEATURES
  6
Continuous
 62
     7
100
AcDbCircle
 10
97.4656879099
 20
89.4928694101
 30
0.0
 40
34.5
100
AcDbArc
 50
207.5
 51
27.5
  0
ARC
  5
37B
330
1B
100
AcDbEntity
 67
     1
  8
7_ALL_FEATURES
  6
Continuous
 62
     7
100
AcDbCircle
 10
97.4656879099
 20
35.9928694101
 30
0.0
 40
1.0
100
AcDbArc
 50
179.4645176298
 51
181.4987619752
  0
ARC
  5
37C
330
1B
100
AcDbEntity
 67
     1
  8
7_ALL_FEATURES
  6
Continuous
 62
     7
100
AcDbCircle
 10
97.4656879099
 20
35.9928694101
 30
0.0
 40
1.0
100
AcDbArc
 50
181.4987619752
 51
358.5012380246001
  0
ARC
  5
37D
330
1B
100
AcDbEntity
 67
     1
  8
7_ALL_FEATURES
  6
Continuous
 62
     7
100
AcDbCircle
 10
97.4656879099
 20
35.9928694101
 30
0.0
 40
1.0
100
AcDbArc
 50
358.5012380246001
 51
0.5354823703
  0
ARC
  5
37E
330
1B
100
AcDbEntity
 67
     1
  8
7_ALL_FEATURES
  6
Continuous
 62
     7
100
AcDbCircle
 10
97.4656879099
 20
89.4928694101
 30
0.0
 40
53.5
100
AcDbArc
 50
206.385253961
 51
207.5
  0
ARC
  5
37F
330
1B
100
AcDbEntity
 67
     1
  8
7_ALL_FEATURES
  6
Continuous
 62
     7
100
AcDbCircle
 10
97.4656879099
 20
89.4928694101
 30
0.0
 40
53.5
100
AcDbArc
 50
95.921425463
 51
206.385253961
  0
ARC
  5
380
330
1B
100
AcDbEntity
 67
     1
  8
7_ALL_FEATURES
  6
Continuous
 62
     7
100
AcDbCircle
 10
97.4656879099
 20
89.4928694101
 30
0.0
 40
53.5
100
AcDbArc
 50
93.9758032268
 51
95.921425463
  0
ARC
  5
381
330
1B
100
AcDbEntity
 67
     1
  8
7_ALL_FEATURES
  6
Continuous
 62
     7
100
AcDbCircle
 10
97.4656879099
 20
89.4928694101
 30
0.0
 40
53.5
100
AcDbArc
 50
92.0736867815
 51
93.9758032268
  0
ARC
  5
382
330
1B
100
AcDbEntity
 67
     1
  8
7_ALL_FEATURES
  6
Continuous
 62
     7
100
AcDbCircle
 10
97.4656879099
 20
89.4928694101
 30
0.0
 40
53.5
100
AcDbArc
 50
28.95539709279999
 51
92.0736867815
  0
ARC
  5
383
330
1B
100
AcDbEntity
 67
     1
  8
7_ALL_FEATURES
  6
Continuous
 62
     7
100
AcDbCircle
 10
97.4656879099
 20
89.4928694101
 30
0.0
 40
53.5
100
AcDbArc
 50
27.5
 51
28.95539709279999
  0
ARC
  5
384
330
1B
100
AcDbEntity
 67
     1
  8
7_ALL_FEATURES
  6
Continuous
 62
     9
100
AcDbCircle
 10
97.4656879099
 20
35.9928694101
 30
0.0
 40
0.8073264092
100
AcDbArc
 50
172.7193530801
 51
358.026555129
  0
ARC
  5
385
330
1B
100
AcDbEntity
 67
     1
  8
7_ALL_FEATURES
  6
Continuous
 62
     9
100
AcDbCircle
 10
97.4656879099
 20
35.9928694101
 30
0.0
 40
0.3076309956
100
AcDbArc
 50
159.9412540687
 51
343.9224087608
  0
ARC
  5
386
330
1B
100
AcDbEntity
 67
     1
  8
7_ALL_FEATURES
  6
Continuous
 62
     7
100
AcDbCircle
 10
97.4656879099
 20
89.4928694101
 30
0.0
 40
53.393689717
100
AcDbArc
 50
27.5
 51
207.5
  0
ARC
  5
387
330
1B
100
AcDbEntity
 67
     1
  8
7_ALL_FEATURES
  6
Continuous
 62
     7
100
AcDbCircle
 10
97.4656879099
 20
89.4928694101
 30
0.0
 40
36.0
100
AcDbArc
 50
27.5
 51
207.5
  0
SPLINE
  5
388
330
1B
100
AcDbEntity
 67
     1
  8
7_ALL_FEATURES
  6
Continuous
 62
     7
100
AcDbSpline
 70
     0
 71
     3
 72
     9
 73
     5
 74
     0
 42
0.000000001
 43
0.0000001
 40
0.0
 40
0.0
 40
0.0
 40
0.0
 40
0.2551863466
 40
1.0
 40
1.0
 40
1.0
 40
1.0
 10
96.6648707272
 20
36.0951815342
 30
0.0
 10
96.6478371323
 20
36.0874784936
 30
0.0
 10
96.5811998593
 20
36.0570440205
 30
0.0
 10
96.5149412938
 20
36.0257857301
 30
0.0
 10
96.4657315828
 20
36.0022152045
 30
0.0
  0
ARC
  5
389
330
1B
100
AcDbEntity
 67
     1
  8
7_ALL_FEATURES
  6
Continuous
 62
     7
100
AcDbCircle
 10
97.4656879099
 20
89.4928694101
 30
0.0
 40
53.3952696104
100
AcDbArc
 50
269.6899187211
 51
270.3100812789
  0
SPLINE
  5
38A
330
1B
100
AcDbEntity
 67
     1
  8
7_ALL_FEATURES
  6
Continuous
 62
     7
100
AcDbSpline
 70
     0
 71
     3
 72
     9
 73
     5
 74
     0
 42
0.000000001
 43
0.0000001
 40
0.0
 40
0.0
 40
0.0
 40
0.0
 40
0.2453673318
 40
1.0
 40
1.0
 40
1.0
 40
1.0
 10
98.4656442371
 20
36.0022152045
 30
0.0
 10
98.4494328995
 20
36.0099801302
 30
0.0
 10
98.3833003615
 20
36.041494131
 30
0.0
 10
98.3168764213
 20
36.0724022918
 30
0.0
 10
98.2665050927
 20
36.0951815342
 30
0.0
  0
ARC
  5
38B
330
1B
100
AcDbEntity
 67
     1
  8
7_ALL_FEATURES
  6
Continuous
 62
     7
100
AcDbCircle
 10
97.4656879099
 20
89.4928694101
 30
0.0
 40
36.0
100
AcDbArc
 50
207.5
 51
27.5
  0
ARC
  5
38C
330
1B
100
AcDbEntity
 67
     1
  8
7_ALL_FEATURES
  6
Continuous
 62
     7
100
AcDbCircle
 10
97.4656879099
 20
89.4928694101
 30
0.0
 40
53.393689717
100
AcDbArc
 50
207.5
 51
27.5
  0
ARC
  5
38D
330
1B
100
AcDbEntity
 67
     1
  8
7_ALL_FEATURES
  6
Continuous
 62
     7
100
AcDbCircle
 10
97.4656879099
 20
89.4928694101
 30
0.0
 40
36.5337810909
100
AcDbArc
 50
27.5
 51
207.5
  0
SPLINE
  5
38E
330
1B
100
AcDbEntity
 67
     1
  8
7_ALL_FEATURES
  6
Continuous
 62
     7
100
AcDbSpline
 70
     0
 71
     3
 72
    14
 73
    10
 74
     0
 42
0.000000001
 43
0.0000001
 40
0.0
 40
0.0
 40
0.0
 40
0.0
 40
0.3712127568
 40
0.5409074026
 40
0.6913858606
 40
0.8167958395
 40
0.9123313421
 40
0.9741384179
 40
1.0
 40
1.0
 40
1.0
 40
1.0
 10
97.7546584555
 20
36.0983817471
 30
0.0
 10
97.8180063367
 20
36.0987245854
 30
0.0
 10
97.9103205393
 20
36.0991454825
 30
0.0
 10
98.0282908145
 20
36.0992508399
 30
0.0
 10
98.104373028
 20
36.0992351811
 30
0.0
 10
98.1676382067
 20
36.0985071135
 30
0.0
 10
98.2161805574
 20
36.0986142836
 30
0.0
 10
98.2468607
 20
36.0961284027
 30
0.0
 10
98.2624838
 20
36.0970000687
 30
0.0
 10
98.2665050927
 20
36.0951815342
 30
0.0
  0
ARC
  5
38F
330
1B
100
AcDbEntity
 67
     1
  8
7_ALL_FEATURES
  6
Continuous
 62
     7
100
AcDbCircle
 10
97.4656879099
 20
89.4928694101
 30
0.0
 40
36.5337810909
100
AcDbArc
 50
207.5
 51
27.5
  0
LINE
  5
390
330
1B
100
AcDbEntity
 67
     1
  8
7_ALL_FEATURES
  6
Continuous
 62
     9
100
AcDbLine
 10
98.2725354895
 20
35.965068075
 30
0.0
 11
98.2665050927
 21
36.0951815342
 31
0.0
  0
ARC
  5
391
330
1B
100
AcDbEntity
 67
     1
  8
7_ALL_FEATURES
  6
Continuous
 62
     9
100
AcDbCircle
 10
97.4656879099
 20
35.9928694101
 30
0.0
 40
0.3076309956
100
AcDbArc
 50
343.9224087608
 51
20.0587459314
  0
DIMENSION
  5
392
330
1B
100
AcDbEntity
 67
     1
  8
0
  6
Continuous
 62
     2
100
AcDbDimension
280
     0
  2
*D1
 10
49.6044066275
 20
367.9838745831
 30
0.0
 11
39.6450867503
 21
375.4737097368
 31
0.0
 70
   163
  1
%%c<>
 71
     5
 42
-1.0
 73
     0
 74
     0
 75
     0
  3
DIMSTYLE_1
100
AcDbDiametricDimension
 15
145.3269691924
 25
320.1697447048
 35
0.0
 40
0.0
  0
DIMENSION
  5
393
330
1B
100
AcDbEntity
 67
     1
  8
0
  6
Continuous
 62
     2
100
AcDbDimension
280
     0
  2
*D2
 10
29.3122932774
 20
261.3930532095
 30
0.0
 11
29.3122932774
 21
210.964478775
 31
0.0
 70
   160
 71
     5
 42
-1.0
 73
     0
 74
     0
 75
     0
  3
DIMSTYLE_2
100
AcDbAlignedDimension
 13
39.7592140751
 23
161.3930532095
 33
0.0
 14
39.992757375
 24
261.3930532095
 34
0.0
 50
90.0
100
AcDbRotatedDimension
  0
LINE
  5
394
330
1B
100
AcDbEntity
 67
     1
  8
0
  6
Continuous
 62
     2
100
AcDbLine
 10
165.3496621622
 20
68.9949324324
 30
0.0
 11
295.3496621622
 21
68.9949324324
 31
0.0
  0
LINE
  5
395
330
1B
100
AcDbEntity
 67
     1
  8
0
  6
Continuous
 62
     2
100
AcDbLine
 10
165.3496621622
 20
68.9949324324
 30
0.0
 11
165.3496621622
 21
2.9949324324
 31
0.0
  0
LINE
  5
396
330
1B
100
AcDbEntity
 67
     1
  8
0
  6
Continuous
 62
     2
100
AcDbLine
 10
195.3496621622
 20
60.9949324324
 30
0.0
 11
295.3496621622
 21
60.9949324324
 31
0.0
  0
LINE
  5
397
330
1B
100
AcDbEntity
 67
     1
  8
0
  6
Continuous
 62
     2
100
AcDbLine
 10
165.3496621622
 20
52.9949324324
 30
0.0
 11
295.3496621622
 21
52.9949324324
 31
0.0
  0
LINE
  5
398
330
1B
100
AcDbEntity
 67
     1
  8
0
  6
Continuous
 62
     2
100
AcDbLine
 10
195.3496621622
 20
46.9949324324
 30
0.0
 11
295.3496621622
 21
46.9949324324
 31
0.0
  0
LINE
  5
399
330
1B
100
AcDbEntity
 67
     1
  8
0
  6
Continuous
 62
     2
100
AcDbLine
 10
195.3496621622
 20
40.9949324324
 30
0.0
 11
295.3496621622
 21
40.9949324324
 31
0.0
  0
LINE
  5
39A
330
1B
100
AcDbEntity
 67
     1
  8
0
  6
Continuous
 62
     2
100
AcDbLine
 10
195.3496621622
 20
34.9949324324
 30
0.0
 11
295.3496621622
 21
34.9949324324
 31
0.0
  0
LINE
  5
39B
330
1B
100
AcDbEntity
 67
     1
  8
0
  6
Continuous
 62
     2
100
AcDbLine
 10
195.3496621622
 20
28.9949324324
 30
0.0
 11
295.3496621622
 21
28.9949324324
 31
0.0
  0
LINE
  5
39C
330
1B
100
AcDbEntity
 67
     1
  8
0
  6
Continuous
 62
     2
100
AcDbLine
 10
195.3496621622
 20
22.9949324324
 30
0.0
 11
295.3496621622
 21
22.9949324324
 31
0.0
  0
LINE
  5
39D
330
1B
100
AcDbEntity
 67
     1
  8
0
  6
Continuous
 62
     2
100
AcDbLine
 10
165.3496621622
 20
16.9949324324
 30
0.0
 11
295.3496621622
 21
16.9949324324
 31
0.0
  0
LINE
  5
39E
330
1B
100
AcDbEntity
 67
     1
  8
0
  6
Continuous
 62
     2
100
AcDbLine
 10
165.3496621622
 20
10.9949324324
 30
0.0
 11
295.3496621622
 21
10.9949324324
 31
0.0
  0
LINE
  5
39F
330
1B
100
AcDbEntity
 67
     1
  8
0
  6
Continuous
 62
     2
100
AcDbLine
 10
165.3496621622
 20
6.9949324324
 30
0.0
 11
295.3496621622
 21
6.9949324324
 31
0.0
  0
LINE
  5
3A0
330
1B
100
AcDbEntity
 67
     1
  8
0
  6
Continuous
 62
     2
100
AcDbLine
 10
165.3496621622
 20
2.9949324324
 30
0.0
 11
295.3496621622
 21
2.9949324324
 31
0.0
  0
LINE
  5
3A1
330
1B
100
AcDbEntity
 67
     1
  8
0
  6
Continuous
 62
     2
100
AcDbLine
 10
195.3496621622
 20
68.9949324324
 30
0.0
 11
195.3496621622
 21
10.9949324324
 31
0.0
  0
LINE
  5
3A2
330
1B
100
AcDbEntity
 67
     1
  8
0
  6
Continuous
 62
     2
100
AcDbLine
 10
215.3496621622
 20
52.9949324324
 30
0.0
 11
215.3496621622
 21
46.9949324324
 31
0.0
  0
LINE
  5
3A3
330
1B
100
AcDbEntity
 67
     1
  8
0
  6
Continuous
 62
     2
100
AcDbLine
 10
245.3496621622
 20
22.9949324324
 30
0.0
 11
245.3496621622
 21
10.9949324324
 31
0.0
  0
LINE
  5
3A4
330
1B
100
AcDbEntity
 67
     1
  8
0
  6
Continuous
 62
     2
100
AcDbLine
 10
255.3496621622
 20
52.9949324324
 30
0.0
 11
255.3496621622
 21
46.9949324324
 31
0.0
  0
LINE
  5
3A5
330
1B
100
AcDbEntity
 67
     1
  8
0
  6
Continuous
 62
     2
100
AcDbLine
 10
255.3496621622
 20
40.9949324324
 30
0.0
 11
255.3496621622
 21
34.9949324324
 31
0.0
  0
LINE
  5
3A6
330
1B
100
AcDbEntity
 67
     1
  8
0
  6
Continuous
 62
     2
100
AcDbLine
 10
275.3496621622
 20
52.9949324324
 30
0.0
 11
275.3496621622
 21
46.9949324324
 31
0.0
  0
LINE
  5
3A7
330
1B
100
AcDbEntity
 67
     1
  8
0
  6
Continuous
 62
     2
100
AcDbLine
 10
285.3496621622
 20
40.9949324324
 30
0.0
 11
285.3496621622
 21
34.9949324324
 31
0.0
  0
LINE
  5
3A8
330
1B
100
AcDbEntity
 67
     1
  8
0
  6
Continuous
 62
     2
100
AcDbLine
 10
295.3496621622
 20
68.9949324324
 30
0.0
 11
295.3496621622
 21
2.9949324324
 31
0.0
  0
INSERT
  5
3A9
330
1B
100
AcDbEntity
 67
     1
  8
0
  6
Continuous
 62
     2
100
AcDbBlockReference
  2
PROIEZIONE_EU_BL0
 10
180.3496621622
 20
60.6199324324
 30
0.0
  0
MTEXT
  5
3AA
330
1B
100
AcDbEntity
 67
     1
  8
9_SOLID
  6
Continuous
 62
     2
100
AcDbMText
 10
196.8371621622
 20
67.3699324324
 30
0.0
 40
1.9
 41
142.3642857143
 46
0.0
 71
     1
 72
     1
  1
EN: Chamfer/radii unlisted 0.3x45°. Remove sharp edges.\PGen. tol.: hole H11, shaft h11, lenght Js12. UNI EN 22768 Medium Grande.
 73
     1
 44
1.0
  0
MTEXT
  5
3AB
330
1B
100
AcDbEntity
 67
     1
  8
9_SOLID
  6
Continuous
 62
     2
100
AcDbMText
 10
196.8371621622
 20
59.3699324324
 30
0.0
 40
1.9
 41
148.2678571429
 46
0.0
 71
     1
 72
     1
  1
IT: Sm./rac. non quotati 0.3x45°. Eliminare spigoli taglienti.\PToll. gen.: foro H11, albero h11, lunghezza Js12. UNI EN 22768 Grado Medio.
 73
     1
 44
1.0
  0
INSERT
  5
3AC
330
1B
100
AcDbEntity
 67
     1
  8
0
  6
Continuous
 62
     2
100
AcDbBlockReference
  2
LOGO2_BL1
 10
179.175709207
 20
34.9949324324
 30
0.0
  0
MTEXT
  5
3AD
330
1B
100
AcDbEntity
 67
     1
  8
9_SOLID
  6
Continuous
 62
     2
100
AcDbMText
 10
196.8371621622
 20
51.2449324324
 30
0.0
 40
3.0
 41
22.6071428571
 46
0.0
 71
     1
 72
     1
  1
Pj: C20
 73
     1
 44
1.0
  0
MTEXT
  5
3AE
330
1B
100
AcDbEntity
 67
     1
  8
9_SOLID
  6
Continuous
 62
     2
100
AcDbMText
 10
216.8371621622
 20
51.2449324324
 30
0.0
 40
3.0
 41
38.0357142857
 46
0.0
 71
     1
 72
     1
  1
% Check: %
 73
     1
 44
1.0
  0
MTEXT
  5
3AF
330
1B
100
AcDbEntity
 67
     1
  8
9_SOLID
  6
Continuous
 62
     2
100
AcDbMText
 10
256.8371621622
 20
51.2449324324
 30
0.0
 40
3.0
 41
19.5
 46
0.0
 71
     1
 72
     1
  1
Rev:00
 73
     1
 44
1.0
  0
MTEXT
  5
3B0
330
1B
100
AcDbEntity
 67
     1
  8
9_SOLID
  6
Continuous
 62
     2
100
AcDbMText
 10
276.8371621622
 20
51.4949324324
 30
0.0
 40
3.0
 41
19.7142857143
 46
0.0
 71
     1
 72
     1
  1
Ver: A
 73
     1
 44
1.0
  0
MTEXT
  5
3B1
330
1B
100
AcDbEntity
 67
     1
  8
9_SOLID
  6
Continuous
 62
     2
100
AcDbMText
 10
196.8371621622
 20
45.2449324324
 30
0.0
 40
3.0
 41
65.6785714286
 46
0.0
 71
     1
 72
     1
  1
Neutral code: WC0103
 73
     1
 44
1.0
  0
MTEXT
  5
3B2
330
1B
100
AcDbEntity
 67
     1
  8
9_SOLID
  6
Continuous
 62
     2
100
AcDbMText
 10
196.8371621622
 20
39.2449324324
 30
0.0
 40
3.0
 41
42.1071428571
 46
0.0
 71
     1
 72
     1
  1
Code: WC0103
 73
     1
 44
1.0
  0
MTEXT
  5
3B3
330
1B
100
AcDbEntity
 67
     1
  8
9_SOLID
  6
Continuous
 62
     2
100
AcDbMText
 10
256.8371621622
 20
39.4949324324
 30
0.0
 40
3.0
 41
27.8571428571
 46
0.0
 71
     1
 72
     1
  1
Scale: 1:1
 73
     1
 44
1.0
  0
MTEXT
  5
3B4
330
1B
100
AcDbEntity
 67
     1
  8
9_SOLID
  6
Continuous
 62
     2
100
AcDbMText
 10
290.3496621622
 20
39.4949324324
 30
0.0
 40
3.0
 41
7.9285714286
 46
0.0
 71
     2
 72
     1
  1
A3
 73
     1
 44
1.0
  0
MTEXT
  5
3B5
330
1B
100
AcDbEntity
 67
     1
  8
9_SOLID
  6
Continuous
 62
     2
100
AcDbMText
 10
196.8371621622
 20
33.3699324324
 30
0.0
 40
2.75
 41
91.1133928571
 46
0.0
 71
     1
 72
     1
  1
It descr.: CASSAFORMA Ø107x100
 73
     1
 44
1.0
  0
MTEXT
  5
3B6
330
1B
100
AcDbEntity
 67
     1
  8
9_SOLID
  6
Continuous
 62
     2
100
AcDbMText
 10
196.8371621622
 20
27.4949324324
 30
0.0
 40
3.0
 41
33.9642857143
 46
0.0
 71
     1
 72
     1
  1
En descr.: 
 73
     1
 44
1.0
  0
MTEXT
  5
3B7
330
1B
100
AcDbEntity
 67
     1
  8
9_SOLID
  6
Continuous
 62
     2
100
AcDbMText
 10
196.8371621622
 20
21.4949324324
 30
0.0
 40
3.0
 41
19.0714285714
 46
0.0
 71
     1
 72
     1
  1
Des.: 
 73
     1
 44
1.0
  0
MTEXT
  5
3B8
330
1B
100
AcDbEntity
 67
     1
  8
9_SOLID
  6
Continuous
 62
     2
100
AcDbMText
 10
246.8371621622
 20
21.4949324324
 30
0.0
 40
3.0
 41
22.2857142857
 46
0.0
 71
     1
 72
     1
  1
Check: 
 73
     1
 44
1.0
  0
MTEXT
  5
3B9
330
1B
100
AcDbEntity
 67
     1
  8
9_SOLID
  6
Continuous
 62
     2
100
AcDbMText
 10
166.8371621622
 20
15.4949324324
 30
0.0
 40
3.0
 41
42.5357142857
 46
0.0
 71
     1
 72
     1
  1
Date: 17.12.18
 73
     1
 44
1.0
  0
MTEXT
  5
3BA
330
1B
100
AcDbEntity
 67
     1
  8
9_SOLID
  6
Continuous
 62
     2
100
AcDbMText
 10
196.8371621622
 20
15.4949324324
 30
0.0
 40
3.0
 41
18.2142857143
 46
0.0
 71
     1
 72
     1
  1
Mat.: 
 73
     1
 44
1.0
  0
MTEXT
  5
3BB
330
1B
100
AcDbEntity
 67
     1
  8
9_SOLID
  6
Continuous
 62
     2
100
AcDbMText
 10
246.8371621622
 20
14.9949324324
 30
0.0
 40
2.0
 41
42.3571428571
 46
0.0
 71
     1
 72
     1
  1
Disegno per catalogo
 73
     1
 44
1.0
  0
MTEXT
  5
3BC
330
1B
100
AcDbEntity
 67
     1
  8
9_SOLID
  6
Continuous
 62
     2
100
AcDbMText
 10
166.8371621622
 20
9.8949324324
 30
0.0
 40
1.8
 41
176.2071428571
 46
0.0
 71
     1
 72
     1
  1
It: A norma di legge si diffida da qualsiasi riproduzione senza nostra autorizzazione esplicita.
 73
     1
 44
1.0
  0
MTEXT
  5
3BD
330
1B
100
AcDbEntity
 67
     1
  8
9_SOLID
  6
Continuous
 62
     2
100
AcDbMText
 10
166.8371621622
 20
5.8949324324
 30
0.0
 40
1.8
 41
158.1428571429
 46
0.0
 71
     1
 72
     1
  1
En: According to the law, beware of any reproduction made without our authorization.
 73
     1
 44
1.0
  0
ENDSEC
  0
SECTION
  2
OBJECTS
  0
DICTIONARY
  5
3BE
330
0
100
AcDbDictionary
281
     1
  3
ACAD_DETAILVIEWSTYLE
350
414
  3
ACAD_GROUP
350
3BF
  3
ACAD_LAYOUT
350
3E7
  3
ACAD_MATERIAL
350
403
  3
ACAD_MLEADERSTYLE
350
409
  3
ACAD_MLINESTYLE
350
3C0
  3
ACAD_PLOTSETTINGS
350
3C2
  3
ACAD_PLOTSTYLENAME
350
3C3
  3
ACAD_SCALELIST
350
3C5
  3
ACAD_SECTIONVIEWSTYLE
350
415
  3
ACAD_TABLESTYLE
350
407
  3
ACAD_VISUALSTYLE
350
3EA
  3
ACDB_RECOMPOSE_DATA
350
410
  3
AcDbVariableDictionary
350
40C
  3
APPDATA
350
40B
  0
DICTIONARY
  5
414
102
{ACAD_REACTORS
330
3BE
102
}
330
3BE
100
AcDbDictionary
281
     1
  0
DICTIONARY
  5
3BF
102
{ACAD_REACTORS
330
3BE
102
}
330
3BE
100
AcDbDictionary
281
     1
  0
DICTIONARY
  5
3E7
102
{ACAD_REACTORS
330
3BE
102
}
330
3BE
100
AcDbDictionary
281
     1
  3
Foglio 1
350
3E9
  3
Model
350
3E8
  0
DICTIONARY
  5
403
102
{ACAD_REACTORS
330
3BE
102
}
330
3BE
100
AcDbDictionary
281
     1
  3
ByBlock
350
405
  3
ByLayer
350
404
  3
Global
350
406
  0
DICTIONARY
  5
409
102
{ACAD_REACTORS
330
3BE
102
}
330
3BE
100
AcDbDictionary
281
     1
  3
Standard
350
40A
  0
DICTIONARY
  5
3C0
102
{ACAD_REACTORS
330
3BE
102
}
330
3BE
100
AcDbDictionary
281
     1
  3
STANDARD
350
3C1
  0
DICTIONARY
  5
3C2
102
{ACAD_REACTORS
330
3BE
102
}
330
3BE
100
AcDbDictionary
281
     1
  0
ACDBDICTIONARYWDFLT
  5
3C3
102
{ACAD_REACTORS
330
3BE
102
}
330
3BE
100
AcDbDictionary
281
     1
  3
Normal
350
3C4
100
AcDbDictionaryWithDefault
340
3C4
  0
DICTIONARY
  5
3C5
102
{ACAD_REACTORS
330
3BE
102
}
330
3BE
100
AcDbDictionary
281
     1
  3
A0
350
3C6
  3
A1
350
3C7
  3
A2
350
3C8
  3
A3
350
3C9
  3
A4
350
3CA
  3
A5
350
3CB
  3
A6
350
3CC
  3
A7
350
3CD
  3
A8
350
3CE
  3
A9
350
3CF
  3
B0
350
3D0
  3
B1
350
3D1
  3
B2
350
3D2
  3
B3
350
3D3
  3
B4
350
3D4
  3
B5
350
3D5
  3
B6
350
3D6
  3
B7
350
3D7
  3
B8
350
3D8
  3
B9
350
3D9
  3
C0
350
3DA
  3
C1
350
3DB
  3
C2
350
3DC
  3
C3
350
3DD
  3
C4
350
3DE
  3
C5
350
3DF
  3
C6
350
3E0
  3
C7
350
3E1
  3
C8
350
3E2
  3
C9
350
3E3
  3
D0
350
3E4
  3
D1
350
3E5
  3
D2
350
3E6
  0
DICTIONARY
  5
415
102
{ACAD_REACTORS
330
3BE
102
}
330
3BE
100
AcDbDictionary
281
     1
  0
DICTIONARY
  5
407
102
{ACAD_REACTORS
330
3BE
102
}
330
3BE
100
AcDbDictionary
281
     1
  3
Standard
350
408
  0
DICTIONARY
  5
3EA
102
{ACAD_REACTORS
330
3BE
102
}
330
3BE
100
AcDbDictionary
281
     1
  3
2dWireframe
350
3EF
  3
Basic
350
3F2
  3
Brighten
350
3F6
  3
ColorChange
350
3FA
  3
Conceptual
350
3F4
  3
Dim
350
3F5
  3
EdgeColorOff
350
3FD
  3
Facepattern
350
3F9
  3
Flat
350
3EB
  3
FlatWithEdges
350
3EC
  3
Gouraud
350
3ED
  3
GouraudWithEdges
350
3EE
  3
Hidden
350
3F1
  3
JitterOff
350
3FB
  3
Linepattern
350
3F8
  3
OverhangOff
350
3FC
  3
Realistic
350
3F3
  3
Shaded
350
402
  3
Shaded with edges
350
401
  3
Shades of Gray
350
3FE
  3
Sketchy
350
3FF
  3
Thicken
350
3F7
  3
Wireframe
350
3F0
  3
X-Ray
350
400
  0
XRECORD
  5
410
102
{ACAD_REACTORS
330
3BE
102
}
330
3BE
100
AcDbXrecord
280
     1
 90
        1
330
408
  0
DICTIONARY
  5
40C
102
{ACAD_REACTORS
330
3BE
102
}
330
3BE
100
AcDbDictionary
281
     1
  3
CANNOSCALE
350
40D
  3
CMLEADERSTYLE
350
412
  3
CTABLESTYLE
350
411
  3
MSLTSCALE
350
413
  0
DICTIONARY
  5
40B
102
{ACAD_REACTORS
330
3BE
102
}
330
3BE
100
AcDbDictionary
281
     1
  0
LAYOUT
  5
3E9
102
{ACAD_REACTORS
330
3E7
102
}
330
3E7
100
AcDbPlotSettings
  1

  2
none_device
  4
ISO_A3_(420.00_x_297.00_MM)
  6

 40
7.5
 41
20.0
 42
7.5
 43
20.0
 44
420.0
 45
297.0
 46
0.0
 47
0.0
 48
0.0
 49
0.0
140
0.0
141
0.0
142
1.0
143
1.634241245136187
 70
   688
 72
     1
 73
     0
 74
     1
  7

 75
     0
 76
     0
 77
     2
 78
   300
147
0.611904761904762
148
0.0
149
0.0
100
AcDbLayout
  1
Foglio 1
 70
     1
 71
     1
 10
0.0
 20
0.0
 11
412.5
 21
277.0
 12
0.0
 22
0.0
 32
0.0
 14
0.0
 24
0.0
 34
0.0
 15
302.8888288288667
 25
420.0
 35
0.0
146
0.0
 13
0.0
 23
0.0
 33
0.0
 16
1.0
 26
0.0
 36
0.0
 17
0.0
 27
1.0
 37
0.0
 76
     0
330
1B
331
285
  0
LAYOUT
  5
3E8
102
{ACAD_REACTORS
330
3E7
102
}
330
3E7
100
AcDbPlotSettings
  1

  2
none_device
  4
Letter_(8.50_x_11.00_Inches)
  6

 40
6.35
 41
6.35
 42
6.35
 43
6.35
 44
215.9
 45
279.4
 46
0.0
 47
0.0
 48
0.0
 49
0.0
140
0.0
141
0.0
142
1.0
143
40.00000000000001
 70
  1712
 72
     0
 73
     0
 74
     0
  7

 75
     0
 76
     0
 77
     2
 78
   300
147
0.025
148
-0.0000002285997482
149
0.0
100
AcDbLayout
  1
Model
 70
     1
 71
     0
 10
0.0
 20
0.0
 11
297.0
 21
420.0
 12
0.0
 22
0.0
 32
0.0
 14
0.0
 24
0.0
 34
0.0
 15
297.0
 25
420.0
 35
0.0
146
0.0
 13
0.0
 23
0.0
 33
0.0
 16
1.0
 26
0.0
 36
0.0
 17
0.0
 27
1.0
 37
0.0
 76
     0
330
1F
331
1F4
  0
MATERIAL
  5
405
102
{ACAD_REACTORS
330
403
102
}
330
403
100
AcDbMaterial
  1
ByBlock
 72
     1
 94
      127
  0
MATERIAL
  5
404
102
{ACAD_REACTORS
330
403
102
}
330
403
100
AcDbMaterial
  1
ByLayer
 72
     1
 94
      127
  0
MATERIAL
  5
406
102
{ACAD_REACTORS
330
403
102
}
330
403
100
AcDbMaterial
  1
Global
 72
     1
 94
      127
  0
MLEADERSTYLE
  5
40A
102
{ACAD_REACTORS
330
409
102
}
330
409
100
AcDbMLeaderStyle
179
     2
170
     2
171
     1
172
     0
 90
        2
 40
0.0
 41
0.0
173
     1
 91
-1056964608
340
14
 92
       -2
290
     1
 42
2.0
291
     1
 43
8.0
  3
Standard
341
0
 44
4.0
300

342
11
174
     1
178
     1
175
     1
176
     0
 93
-1056964608
 45
4.0
292
     0
297
     0
 46
4.0
343
0
 94
-1056964608
 47
1.0
 49
1.0
140
1.0
293
     1
141
0.0
294
     1
177
     0
142
1.0
295
     0
296
     0
143
3.75
271
     0
272
     9
273
     9
298
     0
  0
MLINESTYLE
  5
3C1
102
{ACAD_REACTORS
330
3C0
102
}
330
3C0
100
AcDbMlineStyle
  2
STANDARD
 70
     0
  3

 62
   256
 51
90.0
 52
90.0
 71
     2
 49
0.5
 62
   256
  6
BYLAYER
 49
-0.5
 62
   256
  6
BYLAYER
  0
ACDBPLACEHOLDER
  5
3C4
102
{ACAD_REACTORS
330
3C3
102
}
330
3C3
  0
SCALE
  5
3C6
102
{ACAD_REACTORS
330
3C5
102
}
330
3C5
100
AcDbScale
 70
     0
300
1:1
140
1.0
141
1.0
290
     1
  0
SCALE
  5
3C7
102
{ACAD_REACTORS
330
3C5
102
}
330
3C5
100
AcDbScale
 70
     0
300
1:2
140
1.0
141
2.0
290
     0
  0
SCALE
  5
3C8
102
{ACAD_REACTORS
330
3C5
102
}
330
3C5
100
AcDbScale
 70
     0
300
1:4
140
1.0
141
4.0
290
     0
  0
SCALE
  5
3C9
102
{ACAD_REACTORS
330
3C5
102
}
330
3C5
100
AcDbScale
 70
     0
300
1:5
140
1.0
141
5.0
290
     0
  0
SCALE
  5
3CA
102
{ACAD_REACTORS
330
3C5
102
}
330
3C5
100
AcDbScale
 70
     0
300
1:8
140
1.0
141
8.0
290
     0
  0
SCALE
  5
3CB
102
{ACAD_REACTORS
330
3C5
102
}
330
3C5
100
AcDbScale
 70
     0
300
1:10
140
1.0
141
10.0
290
     0
  0
SCALE
  5
3CC
102
{ACAD_REACTORS
330
3C5
102
}
330
3C5
100
AcDbScale
 70
     0
300
1:16
140
1.0
141
16.0
290
     0
  0
SCALE
  5
3CD
102
{ACAD_REACTORS
330
3C5
102
}
330
3C5
100
AcDbScale
 70
     0
300
1:20
140
1.0
141
20.0
290
     0
  0
SCALE
  5
3CE
102
{ACAD_REACTORS
330
3C5
102
}
330
3C5
100
AcDbScale
 70
     0
300
1:30
140
1.0
141
30.0
290
     0
  0
SCALE
  5
3CF
102
{ACAD_REACTORS
330
3C5
102
}
330
3C5
100
AcDbScale
 70
     0
300
1:40
140
1.0
141
40.0
290
     0
  0
SCALE
  5
3D0
102
{ACAD_REACTORS
330
3C5
102
}
330
3C5
100
AcDbScale
 70
     0
300
1:50
140
1.0
141
50.0
290
     0
  0
SCALE
  5
3D1
102
{ACAD_REACTORS
330
3C5
102
}
330
3C5
100
AcDbScale
 70
     0
300
1:100
140
1.0
141
100.0
290
     0
  0
SCALE
  5
3D2
102
{ACAD_REACTORS
330
3C5
102
}
330
3C5
100
AcDbScale
 70
     0
300
2:1
140
2.0
141
1.0
290
     0
  0
SCALE
  5
3D3
102
{ACAD_REACTORS
330
3C5
102
}
330
3C5
100
AcDbScale
 70
     0
300
4:1
140
4.0
141
1.0
290
     0
  0
SCALE
  5
3D4
102
{ACAD_REACTORS
330
3C5
102
}
330
3C5
100
AcDbScale
 70
     0
300
8:1
140
8.0
141
1.0
290
     0
  0
SCALE
  5
3D5
102
{ACAD_REACTORS
330
3C5
102
}
330
3C5
100
AcDbScale
 70
     0
300
10:1
140
10.0
141
1.0
290
     0
  0
SCALE
  5
3D6
102
{ACAD_REACTORS
330
3C5
102
}
330
3C5
100
AcDbScale
 70
     0
300
100:1
140
100.0
141
1.0
290
     0
  0
SCALE
  5
3D7
102
{ACAD_REACTORS
330
3C5
102
}
330
3C5
100
AcDbScale
 70
     0
300
1/128" = 1'-0"
140
0.0078125
141
12.0
290
     0
  0
SCALE
  5
3D8
102
{ACAD_REACTORS
330
3C5
102
}
330
3C5
100
AcDbScale
 70
     0
300
1/64" = 1'-0"
140
0.015625
141
12.0
290
     0
  0
SCALE
  5
3D9
102
{ACAD_REACTORS
330
3C5
102
}
330
3C5
100
AcDbScale
 70
     0
300
1/32" = 1'-0"
140
0.03125
141
12.0
290
     0
  0
SCALE
  5
3DA
102
{ACAD_REACTORS
330
3C5
102
}
330
3C5
100
AcDbScale
 70
     0
300
1/16" = 1'-0"
140
0.0625
141
12.0
290
     0
  0
SCALE
  5
3DB
102
{ACAD_REACTORS
330
3C5
102
}
330
3C5
100
AcDbScale
 70
     0
300
3/32" = 1'-0"
140
0.09375
141
12.0
290
     0
  0
SCALE
  5
3DC
102
{ACAD_REACTORS
330
3C5
102
}
330
3C5
100
AcDbScale
 70
     0
300
1/8" = 1'-0"
140
0.125
141
12.0
290
     0
  0
SCALE
  5
3DD
102
{ACAD_REACTORS
330
3C5
102
}
330
3C5
100
AcDbScale
 70
     0
300
3/16" = 1'-0"
140
0.1875
141
12.0
290
     0
  0
SCALE
  5
3DE
102
{ACAD_REACTORS
330
3C5
102
}
330
3C5
100
AcDbScale
 70
     0
300
1/4" = 1'-0"
140
0.25
141
12.0
290
     0
  0
SCALE
  5
3DF
102
{ACAD_REACTORS
330
3C5
102
}
330
3C5
100
AcDbScale
 70
     0
300
3/8" = 1'-0"
140
0.375
141
12.0
290
     0
  0
SCALE
  5
3E0
102
{ACAD_REACTORS
330
3C5
102
}
330
3C5
100
AcDbScale
 70
     0
300
1/2" = 1'-0"
140
0.5
141
12.0
290
     0
  0
SCALE
  5
3E1
102
{ACAD_REACTORS
330
3C5
102
}
330
3C5
100
AcDbScale
 70
     0
300
3/4" = 1'-0"
140
0.75
141
12.0
290
     0
  0
SCALE
  5
3E2
102
{ACAD_REACTORS
330
3C5
102
}
330
3C5
100
AcDbScale
 70
     0
300
1" = 1'-0"
140
1.0
141
12.0
290
     0
  0
SCALE
  5
3E3
102
{ACAD_REACTORS
330
3C5
102
}
330
3C5
100
AcDbScale
 70
     0
300
1-1/2" = 1'-0"
140
1.5
141
12.0
290
     0
  0
SCALE
  5
3E4
102
{ACAD_REACTORS
330
3C5
102
}
330
3C5
100
AcDbScale
 70
     0
300
3" = 1'-0"
140
3.0
141
12.0
290
     0
  0
SCALE
  5
3E5
102
{ACAD_REACTORS
330
3C5
102
}
330
3C5
100
AcDbScale
 70
     0
300
6" = 1'-0"
140
6.0
141
12.0
290
     0
  0
SCALE
  5
3E6
102
{ACAD_REACTORS
330
3C5
102
}
330
3C5
100
AcDbScale
 70
     0
300
1'-0" = 1'-0"
140
12.0
141
12.0
290
     0
  0
TABLESTYLE
  5
408
102
{ACAD_REACTORS
330
407
102
}
102
{ACAD_XDICTIONARY
360
40E
102
}
330
407
100
AcDbTableStyle
  3
Standard
 70
     0
 71
     0
 40
0.06
 41
0.06
280
     0
281
     0
  7
STANDARD
140
4.5
170
     2
 62
     0
 63
   257
283
     0
 90
        4
 91
        0
  1

274
    -2
284
     1
 64
     0
275
    -2
285
     1
 65
     0
276
    -2
286
     1
 66
     0
277
    -2
287
     1
 67
     0
278
    -2
288
     1
 68
     0
279
    -2
289
     1
 69
     0
  7
STANDARD
140
6.0
170
     5
 62
     0
 63
   257
283
     0
 90
        4
 91
        0
  1

274
    -2
284
     1
 64
     0
275
    -2
285
     1
 65
     0
276
    -2
286
     1
 66
     0
277
    -2
287
     1
 67
     0
278
    -2
288
     1
 68
     0
279
    -2
289
     1
 69
     0
  7
STANDARD
140
4.5
170
     5
 62
     0
 63
   257
283
     0
 90
        4
 91
        0
  1

274
    -2
284
     1
 64
     0
275
    -2
285
     1
 65
     0
276
    -2
286
     1
 66
     0
277
    -2
287
     1
 67
     0
278
    -2
288
     1
 68
     0
279
    -2
289
     1
 69
     0
  0
VISUALSTYLE
  5
3EF
102
{ACAD_REACTORS
330
3EA
102
}
330
3EA
100
AcDbVisualStyle
  2
2dWireframe
 70
     4
177
     3
291
     0
 70
    58
 90
        0
176
     1
 90
        2
176
     1
 90
        0
176
     1
 90
        0
176
     1
 40
0.6
176
     1
 40
30.0
176
     1
 62
     7
420
 16777215
176
     1
 90
        1
176
     1
 90
        4
176
     1
 62
     7
176
     1
 62
   257
176
     1
 90
        1
176
     1
 90
        1
176
     1
 40
1.0
176
     1
 90
        0
176
     1
 62
   257
176
     1
 40
1.0
176
     1
 90
        1
176
     1
 90
        6
176
     1
 90
        2
176
     1
 62
     7
176
     1
 90
        5
176
     1
 90
        0
176
     1
 90
        0
176
     1
290
     0
176
     1
 90
        1
176
     1
 40
0.0
176
     1
 90
        0
176
     1
290
     1
176
     1
290
     1
176
     1
290
     0
176
     1
290
     0
176
     1
290
     0
176
     1
290
     0
176
     1
290
     0
176
     1
290
     0
176
     1
290
     0
176
     1
 90
       50
176
     1
 40
0.0
176
     1
 40
1.0
176
     1
 90
        0
176
     1
 62
    18
420
        0
176
     1
 90
       50
176
     1
 90
        3
176
     1
 62
     5
420
      255
176
     1
290
     0
176
     1
 90
       50
176
     1
 90
       50
176
     1
 90
       50
176
     1
290
     0
176
     1
 90
       50
176
     1
 62
   256
176
     0
 40
1.0
176
     0
 90
        2
176
     1
  1
strokes_ogs.tif
176
     1
290
     0
176
     1
 40
1.0
176
     1
 40
1.0
176
     1
  0
VISUALSTYLE
  5
3F2
102
{ACAD_REACTORS
330
3EA
102
}
330
3EA
100
AcDbVisualStyle
  2
Basic
 70
     7
177
     3
291
     1
 70
    58
 90
        1
176
     1
 90
        0
176
     1
 90
        1
176
     1
 90
        0
176
     1
 40
0.6
176
     1
 40
30.0
176
     1
 62
     7
420
 16777215
176
     1
 90
        0
176
     1
 90
        4
176
     1
 62
     7
176
     1
 62
   257
176
     1
 90
        1
176
     1
 90
        1
176
     1
 40
1.0
176
     1
 90
        8
176
     1
 62
     7
176
     1
 40
1.0
176
     1
 90
        1
176
     1
 90
        6
176
     1
 90
        2
176
     1
 62
     7
176
     1
 90
        5
176
     1
 90
        0
176
     1
 90
        0
176
     1
290
     0
176
     1
 90
        1
176
     1
 40
0.0
176
     1
 90
        0
176
     1
290
     0
176
     1
290
     1
176
     1
290
     1
176
     1
290
     0
176
     1
290
     0
176
     1
290
     0
176
     1
290
     0
176
     1
290
     0
176
     1
290
     0
176
     1
 90
       50
176
     1
 40
0.0
176
     1
 40
1.0
176
     1
 90
        0
176
     1
 62
    18
420
        0
176
     1
 90
       50
176
     1
 90
        3
176
     1
 62
     5
420
      255
176
     1
290
     0
176
     1
 90
       50
176
     1
 90
       50
176
     1
 90
       50
176
     1
290
     0
176
     1
 90
       50
176
     1
 62
   256
176
     0
 40
1.0
176
     0
 90
        2
176
     1
  1
strokes_ogs.tif
176
     1
290
     0
176
     1
 40
1.0
176
     1
 40
1.0
176
     1
  0
VISUALSTYLE
  5
3F6
102
{ACAD_REACTORS
330
3EA
102
}
330
3EA
100
AcDbVisualStyle
  2
Brighten
 70
    12
177
     3
291
     1
 70
    58
 90
        2
176
     1
 90
        2
176
     1
 90
        0
176
     1
 90
        0
176
     1
 40
0.6
176
     1
 40
30.0
176
     1
 62
     7
420
 16777215
176
     1
 90
        1
176
     1
 90
        4
176
     1
 62
     7
176
     1
 62
   257
176
     1
 90
        1
176
     1
 90
        1
176
     1
 40
1.0
176
     1
 90
        8
176
     1
 62
     7
176
     1
 40
1.0
176
     1
 90
        1
176
     1
 90
        6
176
     1
 90
        2
176
     1
 62
     7
176
     1
 90
        5
176
     1
 90
        0
176
     1
 90
        0
176
     1
290
     0
176
     1
 90
        1
176
     1
 40
50.0
176
     1
 90
        0
176
     1
290
     0
176
     1
290
     1
176
     1
290
     1
176
     1
290
     0
176
     1
290
     0
176
     1
290
     0
176
     1
290
     0
176
     1
290
     0
176
     1
290
     0
176
     1
 90
       50
176
     1
 40
0.0
176
     1
 40
1.0
176
     1
 90
        0
176
     1
 62
    18
420
        0
176
     1
 90
       50
176
     1
 90
        3
176
     1
 62
     5
420
      255
176
     1
290
     0
176
     1
 90
       50
176
     1
 90
       50
176
     1
 90
       50
176
     1
290
     0
176
     1
 90
       50
176
     1
 62
   256
176
     0
 40
1.0
176
     0
 90
        2
176
     1
  1
strokes_ogs.tif
176
     1
290
     0
176
     1
 40
1.0
176
     1
 40
1.0
176
     1
  0
VISUALSTYLE
  5
3FA
102
{ACAD_REACTORS
330
3EA
102
}
330
3EA
100
AcDbVisualStyle
  2
ColorChange
 70
    16
177
     3
291
     1
 70
    58
 90
        2
176
     1
 90
        2
176
     1
 90
        3
176
     1
 90
        0
176
     1
 40
0.6
176
     1
 40
30.0
176
     1
 62
     8
420
  8421504
176
     1
 90
        1
176
     1
 90
        4
176
     1
 62
     7
176
     1
 62
   257
176
     1
 90
        1
176
     1
 90
        1
176
     1
 40
1.0
176
     1
 90
        8
176
     1
 62
     8
420
  8421504
176
     1
 40
1.0
176
     1
 90
        1
176
     1
 90
        6
176
     1
 90
        2
176
     1
 62
     7
176
     1
 90
        5
176
     1
 90
        0
176
     1
 90
        0
176
     1
290
     0
176
     1
 90
        1
176
     1
 40
0.0
176
     1
 90
        0
176
     1
290
     0
176
     1
290
     1
176
     1
290
     1
176
     1
290
     0
176
     1
290
     0
176
     1
290
     0
176
     1
290
     0
176
     1
290
     0
176
     1
290
     0
176
     1
 90
       50
176
     1
 40
0.0
176
     1
 40
1.0
176
     1
 90
        0
176
     1
 62
    18
420
        0
176
     1
 90
       50
176
     1
 90
        3
176
     1
 62
     5
420
      255
176
     1
290
     0
176
     1
 90
       50
176
     1
 90
       50
176
     1
 90
       50
176
     1
290
     0
176
     1
 90
       50
176
     1
 62
   256
176
     0
 40
1.0
176
     0
 90
        2
176
     1
  1
strokes_ogs.tif
176
     1
290
     0
176
     1
 40
1.0
176
     1
 40
1.0
176
     1
  0
VISUALSTYLE
  5
3F4
102
{ACAD_REACTORS
330
3EA
102
}
330
3EA
100
AcDbVisualStyle
  2
Conceptual
 70
     9
177
     3
291
     0
 70
    58
 90
        3
176
     1
 90
        2
176
     1
 90
        0
176
     1
 90
        0
176
     1
 40
0.6
176
     1
 40
30.0
176
     1
 62
     7
420
 16777215
176
     1
 90
        2
176
     1
 90
        2
176
     1
 62
     7
176
     1
 62
   257
176
     1
 90
        1
176
     1
 90
        1
176
     1
 40
179.0
176
     1
 90
        8
176
     1
 62
     7
176
     1
 40
1.0
176
     1
 90
        1
176
     1
 90
        6
176
     1
 90
        2
176
     1
 62
     7
176
     1
 90
        3
176
     1
 90
        0
176
     1
 90
        0
176
     1
290
     0
176
     1
 90
        1
176
     1
 40
0.0
176
     1
 90
        0
176
     1
290
     0
176
     1
290
     1
176
     1
290
     1
176
     1
290
     0
176
     1
290
     0
176
     1
290
     0
176
     1
290
     0
176
     1
290
     0
176
     1
290
     0
176
     1
 90
       50
176
     1
 40
0.0
176
     1
 40
1.0
176
     1
 90
        0
176
     1
 62
    18
420
        0
176
     1
 90
       50
176
     1
 90
        3
176
     1
 62
     5
420
      255
176
     1
290
     0
176
     1
 90
       50
176
     1
 90
       50
176
     1
 90
       50
176
     1
290
     0
176
     1
 90
       50
176
     1
 62
   256
176
     0
 40
1.0
176
     0
 90
        2
176
     1
  1
strokes_ogs.tif
176
     1
290
     0
176
     1
 40
1.0
176
     1
 40
1.0
176
     1
  0
VISUALSTYLE
  5
3F5
102
{ACAD_REACTORS
330
3EA
102
}
330
3EA
100
AcDbVisualStyle
  2
Dim
 70
    11
177
     3
291
     1
 70
    58
 90
        2
176
     1
 90
        2
176
     1
 90
        0
176
     1
 90
        0
176
     1
 40
0.6
176
     1
 40
30.0
176
     1
 62
     7
420
 16777215
176
     1
 90
        1
176
     1
 90
        4
176
     1
 62
     7
176
     1
 62
   257
176
     1
 90
        1
176
     1
 90
        1
176
     1
 40
1.0
176
     1
 90
        8
176
     1
 62
     7
176
     1
 40
1.0
176
     1
 90
        1
176
     1
 90
        6
176
     1
 90
        2
176
     1
 62
     7
176
     1
 90
        5
176
     1
 90
        0
176
     1
 90
        0
176
     1
290
     0
176
     1
 90
        1
176
     1
 40
-50.0
176
     1
 90
        0
176
     1
290
     0
176
     1
290
     1
176
     1
290
     1
176
     1
290
     0
176
     1
290
     0
176
     1
290
     0
176
     1
290
     0
176
     1
290
     0
176
     1
290
     0
176
     1
 90
       50
176
     1
 40
0.0
176
     1
 40
1.0
176
     1
 90
        0
176
     1
 62
    18
420
        0
176
     1
 90
       50
176
     1
 90
        3
176
     1
 62
     5
420
      255
176
     1
290
     0
176
     1
 90
       50
176
     1
 90
       50
176
     1
 90
       50
176
     1
290
     0
176
     1
 90
       50
176
     1
 62
   256
176
     0
 40
1.0
176
     0
 90
        2
176
     1
  1
strokes_ogs.tif
176
     1
290
     0
176
     1
 40
1.0
176
     1
 40
1.0
176
     1
  0
VISUALSTYLE
  5
3FD
102
{ACAD_REACTORS
330
3EA
102
}
330
3EA
100
AcDbVisualStyle
  2
EdgeColorOff
 70
    22
177
     3
291
     1
 70
    58
 90
        2
176
     0
 90
        2
176
     0
 90
        0
176
     0
 90
        0
176
     0
 40
0.6
176
     0
 40
30.0
176
     0
 62
     7
420
 16777215
176
     0
 90
        1
176
     0
 90
        4
176
     0
 62
     7
176
     0
 62
   257
176
     0
 90
        1
176
     0
 90
        1
176
     0
 40
1.0
176
     0
 90
        8
176
     2
 62
     7
176
     0
 40
1.0
176
     0
 90
        1
176
     0
 90
        6
176
     0
 90
        2
176
     0
 62
     7
176
     0
 90
        5
176
     0
 90
        0
176
     0
 90
        0
176
     0
290
     0
176
     0
 90
        1
176
     0
 40
0.0
176
     0
 90
        0
176
     0
290
     0
176
     0
290
     1
176
     0
290
     1
176
     0
290
     0
176
     0
290
     0
176
     0
290
     0
176
     0
290
     0
176
     0
290
     0
176
     0
290
     0
176
     0
 90
       50
176
     0
 40
0.0
176
     0
 40
1.0
176
     0
 90
        0
176
     0
 62
    18
420
        0
176
     0
 90
       50
176
     0
 90
        3
176
     0
 62
     5
420
      255
176
     0
290
     0
176
     0
 90
       50
176
     0
 90
       50
176
     0
 90
       50
176
     0
290
     0
176
     0
 90
       50
176
     0
 62
   256
176
     0
 40
1.0
176
     0
 90
        2
176
     0
  1
strokes_ogs.tif
176
     0
290
     0
176
     0
 40
1.0
176
     0
 40
1.0
176
     0
  0
VISUALSTYLE
  5
3F9
102
{ACAD_REACTORS
330
3EA
102
}
330
3EA
100
AcDbVisualStyle
  2
Facepattern
 70
    15
177
     3
291
     1
 70
    58
 90
        2
176
     1
 90
        2
176
     1
 90
        0
176
     1
 90
        0
176
     1
 40
0.6
176
     1
 40
30.0
176
     1
 62
     7
420
 16777215
176
     1
 90
        1
176
     1
 90
        4
176
     1
 62
     7
176
     1
 62
   257
176
     1
 90
        1
176
     1
 90
        1
176
     1
 40
1.0
176
     1
 90
        8
176
     1
 62
     7
176
     1
 40
1.0
176
     1
 90
        1
176
     1
 90
        6
176
     1
 90
        2
176
     1
 62
     7
176
     1
 90
        5
176
     1
 90
        0
176
     1
 90
        0
176
     1
290
     0
176
     1
 90
        1
176
     1
 40
0.0
176
     1
 90
        0
176
     1
290
     0
176
     1
290
     1
176
     1
290
     1
176
     1
290
     0
176
     1
290
     0
176
     1
290
     0
176
     1
290
     0
176
     1
290
     0
176
     1
290
     0
176
     1
 90
       50
176
     1
 40
0.0
176
     1
 40
1.0
176
     1
 90
        0
176
     1
 62
    18
420
        0
176
     1
 90
       50
176
     1
 90
        3
176
     1
 62
     5
420
      255
176
     1
290
     0
176
     1
 90
       50
176
     1
 90
       50
176
     1
 90
       50
176
     1
290
     0
176
     1
 90
       50
176
     1
 62
   256
176
     0
 40
1.0
176
     0
 90
        2
176
     1
  1
strokes_ogs.tif
176
     1
290
     0
176
     1
 40
1.0
176
     1
 40
1.0
176
     1
  0
VISUALSTYLE
  5
3EB
102
{ACAD_REACTORS
330
3EA
102
}
330
3EA
100
AcDbVisualStyle
  2
Flat
 70
     0
177
     3
291
     1
 70
    58
 90
        2
176
     1
 90
        1
176
     1
 90
        1
176
     1
 90
        2
176
     1
 40
0.6
176
     1
 40
30.0
176
     1
 62
     7
420
 16777215
176
     1
 90
        0
176
     1
 90
        0
176
     1
 62
     7
176
     1
 62
   257
176
     1
 90
        1
176
     1
 90
        1
176
     1
 40
1.0
176
     1
 90
        8
176
     1
 62
     7
176
     1
 40
1.0
176
     1
 90
        1
176
     1
 90
        6
176
     1
 90
        2
176
     1
 62
     7
176
     1
 90
        5
176
     1
 90
        0
176
     1
 90
        0
176
     1
290
     0
176
     1
 90
       13
176
     1
 40
0.0
176
     1
 90
        0
176
     1
290
     0
176
     1
290
     1
176
     1
290
     1
176
     1
290
     0
176
     1
290
     0
176
     1
290
     0
176
     1
290
     0
176
     1
290
     0
176
     1
290
     0
176
     1
 90
       50
176
     1
 40
0.0
176
     1
 40
1.0
176
     1
 90
        0
176
     1
 62
    18
420
        0
176
     1
 90
       50
176
     1
 90
        3
176
     1
 62
     5
420
      255
176
     1
290
     0
176
     1
 90
       50
176
     1
 90
       50
176
     1
 90
       50
176
     1
290
     0
176
     1
 90
       50
176
     1
 62
   256
176
     0
 40
1.0
176
     0
 90
        2
176
     1
  1
strokes_ogs.tif
176
     1
290
     0
176
     1
 40
1.0
176
     1
 40
1.0
176
     1
  0
VISUALSTYLE
  5
3EC
102
{ACAD_REACTORS
330
3EA
102
}
330
3EA
100
AcDbVisualStyle
  2
FlatWithEdges
 70
     1
177
     3
291
     1
 70
    58
 90
        2
176
     1
 90
        1
176
     1
 90
        1
176
     1
 90
        2
176
     1
 40
0.6
176
     1
 40
30.0
176
     1
 62
     7
420
 16777215
176
     1
 90
        1
176
     1
 90
        0
176
     1
 62
     7
176
     1
 62
   257
176
     1
 90
        1
176
     1
 90
        1
176
     1
 40
1.0
176
     1
 90
        0
176
     1
 62
   257
176
     1
 40
1.0
176
     1
 90
        1
176
     1
 90
        6
176
     1
 90
        2
176
     1
 62
     7
176
     1
 90
        5
176
     1
 90
        0
176
     1
 90
        0
176
     1
290
     0
176
     1
 90
       13
176
     1
 40
0.0
176
     1
 90
        0
176
     1
290
     0
176
     1
290
     1
176
     1
290
     1
176
     1
290
     0
176
     1
290
     0
176
     1
290
     0
176
     1
290
     0
176
     1
290
     0
176
     1
290
     0
176
     1
 90
       50
176
     1
 40
0.0
176
     1
 40
1.0
176
     1
 90
        0
176
     1
 62
    18
420
        0
176
     1
 90
       50
176
     1
 90
        3
176
     1
 62
     5
420
      255
176
     1
290
     0
176
     1
 90
       50
176
     1
 90
       50
176
     1
 90
       50
176
     1
290
     0
176
     1
 90
       50
176
     1
 62
   256
176
     0
 40
1.0
176
     0
 90
        2
176
     1
  1
strokes_ogs.tif
176
     1
290
     0
176
     1
 40
1.0
176
     1
 40
1.0
176
     1
  0
VISUALSTYLE
  5
3ED
102
{ACAD_REACTORS
330
3EA
102
}
330
3EA
100
AcDbVisualStyle
  2
Gouraud
 70
     2
177
     3
291
     1
 70
    58
 90
        2
176
     1
 90
        2
176
     1
 90
        1
176
     1
 90
        2
176
     1
 40
0.6
176
     1
 40
30.0
176
     1
 62
     7
420
 16777215
176
     1
 90
        0
176
     1
 90
        0
176
     1
 62
     7
176
     1
 62
   257
176
     1
 90
        1
176
     1
 90
        1
176
     1
 40
1.0
176
     1
 90
        0
176
     1
 62
     7
176
     1
 40
1.0
176
     1
 90
        1
176
     1
 90
        6
176
     1
 90
        2
176
     1
 62
     7
176
     1
 90
        5
176
     1
 90
        0
176
     1
 90
        0
176
     1
290
     0
176
     1
 90
       13
176
     1
 40
0.0
176
     1
 90
        0
176
     1
290
     0
176
     1
290
     1
176
     1
290
     1
176
     1
290
     0
176
     1
290
     0
176
     1
290
     0
176
     1
290
     0
176
     1
290
     0
176
     1
290
     0
176
     1
 90
       50
176
     1
 40
0.0
176
     1
 40
1.0
176
     1
 90
        0
176
     1
 62
    18
420
        0
176
     1
 90
       50
176
     1
 90
        3
176
     1
 62
     5
420
      255
176
     1
290
     0
176
     1
 90
       50
176
     1
 90
       50
176
     1
 90
       50
176
     1
290
     0
176
     1
 90
       50
176
     1
 62
   256
176
     0
 40
1.0
176
     0
 90
        2
176
     1
  1
strokes_ogs.tif
176
     1
290
     0
176
     1
 40
1.0
176
     1
 40
1.0
176
     1
  0
VISUALSTYLE
  5
3EE
102
{ACAD_REACTORS
330
3EA
102
}
330
3EA
100
AcDbVisualStyle
  2
GouraudWithEdges
 70
     3
177
     3
291
     1
 70
    58
 90
        2
176
     1
 90
        2
176
     1
 90
        1
176
     1
 90
        2
176
     1
 40
0.6
176
     1
 40
30.0
176
     1
 62
     7
420
 16777215
176
     1
 90
        1
176
     1
 90
        0
176
     1
 62
     7
176
     1
 62
   257
176
     1
 90
        1
176
     1
 90
        1
176
     1
 40
1.0
176
     1
 90
        0
176
     1
 62
   257
176
     1
 40
1.0
176
     1
 90
        1
176
     1
 90
        6
176
     1
 90
        2
176
     1
 62
     7
176
     1
 90
        5
176
     1
 90
        0
176
     1
 90
        0
176
     1
290
     0
176
     1
 90
       13
176
     1
 40
0.0
176
     1
 90
        0
176
     1
290
     0
176
     1
290
     1
176
     1
290
     1
176
     1
290
     0
176
     1
290
     0
176
     1
290
     0
176
     1
290
     0
176
     1
290
     0
176
     1
290
     0
176
     1
 90
       50
176
     1
 40
0.0
176
     1
 40
1.0
176
     1
 90
        0
176
     1
 62
    18
420
        0
176
     1
 90
       50
176
     1
 90
        3
176
     1
 62
     5
420
      255
176
     1
290
     0
176
     1
 90
       50
176
     1
 90
       50
176
     1
 90
       50
176
     1
290
     0
176
     1
 90
       50
176
     1
 62
   256
176
     0
 40
1.0
176
     0
 90
        2
176
     1
  1
strokes_ogs.tif
176
     1
290
     0
176
     1
 40
1.0
176
     1
 40
1.0
176
     1
  0
VISUALSTYLE
  5
3F1
102
{ACAD_REACTORS
330
3EA
102
}
330
3EA
100
AcDbVisualStyle
  2
Hidden
 70
     6
177
     3
291
     0
 70
    58
 90
        1
176
     1
 90
        2
176
     1
 90
        2
176
     1
 90
        0
176
     1
 40
0.6
176
     1
 40
30.0
176
     1
 62
     7
420
 16777215
176
     1
 90
        2
176
     1
 90
        2
176
     1
 62
     7
176
     1
 62
   257
176
     1
 90
        2
176
     1
 90
        1
176
     1
 40
40.0
176
     1
 90
        0
176
     1
 62
   257
176
     1
 40
1.0
176
     1
 90
        1
176
     1
 90
        6
176
     1
 90
        2
176
     1
 62
     7
176
     1
 90
        3
176
     1
 90
        0
176
     1
 90
        0
176
     1
290
     0
176
     1
 90
        1
176
     1
 40
0.0
176
     1
 90
        0
176
     1
290
     0
176
     1
290
     1
176
     1
290
     1
176
     1
290
     0
176
     1
290
     0
176
     1
290
     0
176
     1
290
     0
176
     1
290
     0
176
     1
290
     0
176
     1
 90
       50
176
     1
 40
0.0
176
     1
 40
1.0
176
     1
 90
        0
176
     1
 62
    18
420
        0
176
     1
 90
       50
176
     1
 90
        3
176
     1
 62
     5
420
      255
176
     1
290
     0
176
     1
 90
       50
176
     1
 90
       50
176
     1
 90
       50
176
     1
290
     0
176
     1
 90
       50
176
     1
 62
   256
176
     0
 40
1.0
176
     0
 90
        2
176
     1
  1
strokes_ogs.tif
176
     1
290
     0
176
     1
 40
1.0
176
     1
 40
1.0
176
     1
  0
VISUALSTYLE
  5
3FB
102
{ACAD_REACTORS
330
3EA
102
}
330
3EA
100
AcDbVisualStyle
  2
JitterOff
 70
    20
177
     3
291
     1
 70
    58
 90
        2
176
     0
 90
        2
176
     0
 90
        0
176
     0
 90
        0
176
     0
 40
0.6
176
     0
 40
30.0
176
     0
 62
     7
420
 16777215
176
     0
 90
        1
176
     0
 90
        4
176
     0
 62
     7
176
     0
 62
   257
176
     0
 90
        1
176
     0
 90
        1
176
     0
 40
1.0
176
     0
 90
       10
176
     2
 62
     7
176
     0
 40
1.0
176
     0
 90
        1
176
     0
 90
        6
176
     0
 90
        2
176
     0
 62
     7
176
     0
 90
        5
176
     0
 90
        0
176
     0
 90
        0
176
     0
290
     0
176
     0
 90
        1
176
     0
 40
0.0
176
     0
 90
        0
176
     0
290
     0
176
     0
290
     1
176
     0
290
     1
176
     0
290
     0
176
     0
290
     0
176
     0
290
     0
176
     0
290
     0
176
     0
290
     0
176
     0
290
     0
176
     0
 90
       50
176
     0
 40
0.0
176
     0
 40
1.0
176
     0
 90
        0
176
     0
 62
    18
420
        0
176
     0
 90
       50
176
     0
 90
        3
176
     0
 62
     5
420
      255
176
     0
290
     0
176
     0
 90
       50
176
     0
 90
       50
176
     0
 90
       50
176
     0
290
     0
176
     0
 90
       50
176
     0
 62
   256
176
     0
 40
1.0
176
     0
 90
        2
176
     0
  1
strokes_ogs.tif
176
     0
290
     0
176
     0
 40
1.0
176
     0
 40
1.0
176
     0
  0
VISUALSTYLE
  5
3F8
102
{ACAD_REACTORS
330
3EA
102
}
330
3EA
100
AcDbVisualStyle
  2
Linepattern
 70
    14
177
     3
291
     1
 70
    58
 90
        2
176
     1
 90
        2
176
     1
 90
        0
176
     1
 90
        0
176
     1
 40
0.6
176
     1
 40
30.0
176
     1
 62
     7
420
 16777215
176
     1
 90
        1
176
     1
 90
        4
176
     1
 62
     7
176
     1
 62
   257
176
     1
 90
        7
176
     1
 90
        7
176
     1
 40
1.0
176
     1
 90
        8
176
     1
 62
     7
176
     1
 40
1.0
176
     1
 90
        1
176
     1
 90
        6
176
     1
 90
        2
176
     1
 62
     7
176
     1
 90
        5
176
     1
 90
        0
176
     1
 90
        0
176
     1
290
     0
176
     1
 90
        1
176
     1
 40
0.0
176
     1
 90
        0
176
     1
290
     0
176
     1
290
     1
176
     1
290
     1
176
     1
290
     0
176
     1
290
     0
176
     1
290
     0
176
     1
290
     0
176
     1
290
     0
176
     1
290
     0
176
     1
 90
       50
176
     1
 40
0.0
176
     1
 40
1.0
176
     1
 90
        0
176
     1
 62
    18
420
        0
176
     1
 90
       50
176
     1
 90
        3
176
     1
 62
     5
420
      255
176
     1
290
     0
176
     1
 90
       50
176
     1
 90
       50
176
     1
 90
       50
176
     1
290
     0
176
     1
 90
       50
176
     1
 62
   256
176
     0
 40
1.0
176
     0
 90
        2
176
     1
  1
strokes_ogs.tif
176
     1
290
     0
176
     1
 40
1.0
176
     1
 40
1.0
176
     1
  0
VISUALSTYLE
  5
3FC
102
{ACAD_REACTORS
330
3EA
102
}
330
3EA
100
AcDbVisualStyle
  2
OverhangOff
 70
    21
177
     3
291
     1
 70
    58
 90
        2
176
     0
 90
        2
176
     0
 90
        0
176
     0
 90
        0
176
     0
 40
0.6
176
     0
 40
30.0
176
     0
 62
     7
420
 16777215
176
     0
 90
        1
176
     0
 90
        4
176
     0
 62
     7
176
     0
 62
   257
176
     0
 90
        1
176
     0
 90
        1
176
     0
 40
1.0
176
     0
 90
        9
176
     2
 62
     7
176
     0
 40
1.0
176
     0
 90
        1
176
     0
 90
        6
176
     0
 90
        2
176
     0
 62
     7
176
     0
 90
        5
176
     0
 90
        0
176
     0
 90
        0
176
     0
290
     0
176
     0
 90
        1
176
     0
 40
0.0
176
     0
 90
        0
176
     0
290
     0
176
     0
290
     1
176
     0
290
     1
176
     0
290
     0
176
     0
290
     0
176
     0
290
     0
176
     0
290
     0
176
     0
290
     0
176
     0
290
     0
176
     0
 90
       50
176
     0
 40
0.0
176
     0
 40
1.0
176
     0
 90
        0
176
     0
 62
    18
420
        0
176
     0
 90
       50
176
     0
 90
        3
176
     0
 62
     5
420
      255
176
     0
290
     0
176
     0
 90
       50
176
     0
 90
       50
176
     0
 90
       50
176
     0
290
     0
176
     0
 90
       50
176
     0
 62
   256
176
     0
 40
1.0
176
     0
 90
        2
176
     0
  1
strokes_ogs.tif
176
     0
290
     0
176
     0
 40
1.0
176
     0
 40
1.0
176
     0
  0
VISUALSTYLE
  5
3F3
102
{ACAD_REACTORS
330
3EA
102
}
330
3EA
100
AcDbVisualStyle
  2
Realistic
 70
     8
177
     3
291
     0
 70
    58
 90
        2
176
     1
 90
        3
176
     1
 90
        0
176
     1
 90
        2
176
     1
 40
0.6
176
     1
 40
30.0
176
     1
 62
     7
420
 16777215
176
     1
 90
        0
176
     1
 90
        0
176
     1
 62
     7
176
     1
 62
   257
176
     1
 90
        1
176
     1
 90
        1
176
     1
 40
1.0
176
     1
 90
        8
176
     1
 62
   257
176
     1
 40
1.0
176
     1
 90
        1
176
     1
 90
        6
176
     1
 90
        2
176
     1
 62
     7
176
     1
 90
        3
176
     1
 90
        0
176
     1
 90
        0
176
     1
290
     0
176
     1
 90
       13
176
     1
 40
0.0
176
     1
 90
        0
176
     1
290
     0
176
     1
290
     1
176
     1
290
     1
176
     1
290
     0
176
     1
290
     0
176
     1
290
     0
176
     1
290
     0
176
     1
290
     0
176
     1
290
     0
176
     1
 90
       50
176
     1
 40
0.0
176
     1
 40
1.0
176
     1
 90
        0
176
     1
 62
    18
420
        0
176
     1
 90
       50
176
     1
 90
        3
176
     1
 62
     5
420
      255
176
     1
290
     0
176
     1
 90
       50
176
     1
 90
       50
176
     1
 90
       50
176
     1
290
     0
176
     1
 90
       50
176
     1
 62
   256
176
     0
 40
1.0
176
     0
 90
        2
176
     1
  1
strokes_ogs.tif
176
     1
290
     0
176
     1
 40
1.0
176
     1
 40
1.0
176
     1
  0
VISUALSTYLE
  5
402
102
{ACAD_REACTORS
330
3EA
102
}
330
3EA
100
AcDbVisualStyle
  2
Shaded
 70
    27
177
     3
291
     0
 70
    58
 90
        2
176
     1
 90
        2
176
     1
 90
        1
176
     1
 90
        2
176
     1
 40
0.6
176
     1
 40
30.0
176
     1
 62
     7
420
 16777215
176
     1
 90
        0
176
     1
 90
        4
176
     1
 62
     7
176
     1
 62
   257
176
     1
 90
        1
176
     1
 90
        1
176
     1
 40
1.0
176
     1
 90
        8
176
     1
 62
   257
176
     1
 40
1.0
176
     1
 90
        1
176
     1
 90
        6
176
     1
 90
        2
176
     1
 62
     8
420
  7895160
176
     1
 90
        3
176
     1
 90
        0
176
     1
 90
        0
176
     1
290
     0
176
     1
 90
        5
176
     1
 40
0.0
176
     1
 90
        0
176
     1
290
     0
176
     1
290
     1
176
     1
290
     1
176
     1
290
     0
176
     1
290
     0
176
     1
290
     0
176
     1
290
     0
176
     1
290
     0
176
     1
290
     0
176
     1
 90
       50
176
     1
 40
0.0
176
     1
 40
1.0
176
     1
 90
        0
176
     1
 62
    18
420
        0
176
     1
 90
       50
176
     1
 90
        3
176
     1
 62
     5
420
      255
176
     1
290
     0
176
     1
 90
       50
176
     1
 90
       50
176
     1
 90
       50
176
     1
290
     0
176
     1
 90
       50
176
     1
 62
   256
176
     0
 40
1.0
176
     0
 90
        2
176
     1
  1
strokes_ogs.tif
176
     1
290
     0
176
     1
 40
1.0
176
     1
 40
1.0
176
     1
  0
VISUALSTYLE
  5
401
102
{ACAD_REACTORS
330
3EA
102
}
330
3EA
100
AcDbVisualStyle
  2
Shaded with edges
 70
    26
177
     3
291
     0
 70
    58
 90
        2
176
     1
 90
        2
176
     1
 90
        1
176
     1
 90
        2
176
     1
 40
0.6
176
     1
 40
30.0
176
     1
 62
     7
420
 16777215
176
     1
 90
        1
176
     1
 90
       10
176
     1
 62
     7
176
     1
 62
   257
176
     1
 90
        2
176
     1
 90
        1
176
     1
 40
1.0
176
     1
 90
        8
176
     1
 62
   257
176
     1
 40
1.0
176
     1
 90
        1
176
     1
 90
        6
176
     1
 90
        2
176
     1
 62
     7
176
     1
 90
        3
176
     1
 90
        0
176
     1
 90
        0
176
     1
290
     0
176
     1
 90
        5
176
     1
 40
0.0
176
     1
 90
        0
176
     1
290
     0
176
     1
290
     1
176
     1
290
     1
176
     1
290
     0
176
     1
290
     0
176
     1
290
     0
176
     1
290
     0
176
     1
290
     0
176
     1
290
     0
176
     1
 90
       50
176
     1
 40
0.0
176
     1
 40
1.0
176
     1
 90
        0
176
     1
 62
    18
420
        0
176
     1
 90
       50
176
     1
 90
        3
176
     1
 62
     5
420
      255
176
     1
290
     0
176
     1
 90
       50
176
     1
 90
       50
176
     1
 90
       50
176
     1
290
     0
176
     1
 90
       50
176
     1
 62
   256
176
     0
 40
1.0
176
     0
 90
        2
176
     1
  1
strokes_ogs.tif
176
     1
290
     0
176
     1
 40
1.0
176
     1
 40
1.0
176
     1
  0
VISUALSTYLE
  5
3FE
102
{ACAD_REACTORS
330
3EA
102
}
330
3EA
100
AcDbVisualStyle
  2
Shades of Gray
 70
    23
177
     3
291
     0
 70
    58
 90
        2
176
     1
 90
        2
176
     1
 90
        3
176
     1
 90
        0
176
     1
 40
0.6
176
     1
 40
30.0
176
     1
 62
     7
420
 16777215
176
     1
 90
        2
176
     1
 90
        2
176
     1
 62
     7
176
     1
 62
     7
176
     1
 90
        1
176
     1
 90
        1
176
     1
 40
40.0
176
     1
 90
        8
176
     1
 62
     7
176
     1
 40
1.0
176
     1
 90
        1
176
     1
 90
        6
176
     1
 90
        2
176
     1
 62
     7
176
     1
 90
        3
176
     1
 90
        0
176
     1
 90
        0
176
     1
290
     0
176
     1
 90
        1
176
     1
 40
0.0
176
     1
 90
        0
176
     1
290
     0
176
     1
290
     1
176
     1
290
     1
176
     1
290
     0
176
     1
290
     0
176
     1
290
     0
176
     1
290
     0
176
     1
290
     0
176
     1
290
     0
176
     1
 90
       50
176
     1
 40
0.0
176
     1
 40
1.0
176
     1
 90
        0
176
     1
 62
    18
420
        0
176
     1
 90
       50
176
     1
 90
        3
176
     1
 62
     5
420
      255
176
     1
290
     0
176
     1
 90
       50
176
     1
 90
       50
176
     1
 90
       50
176
     1
290
     0
176
     1
 90
       50
176
     1
 62
   256
176
     0
 40
1.0
176
     0
 90
        2
176
     1
  1
strokes_ogs.tif
176
     1
290
     0
176
     1
 40
1.0
176
     1
 40
1.0
176
     1
  0
VISUALSTYLE
  5
3FF
102
{ACAD_REACTORS
330
3EA
102
}
330
3EA
100
AcDbVisualStyle
  2
Sketchy
 70
    24
177
     3
291
     0
 70
    58
 90
        1
176
     1
 90
        2
176
     1
 90
        2
176
     1
 90
        0
176
     1
 40
0.6
176
     1
 40
30.0
176
     1
 62
     7
420
 16777215
176
     1
 90
        2
176
     1
 90
        2
176
     1
 62
     7
176
     1
 62
     7
176
     1
 90
        1
176
     1
 90
        1
176
     1
 40
40.0
176
     1
 90
       11
176
     1
 62
     7
176
     1
 40
1.0
176
     1
 90
        1
176
     1
 90
        6
176
     1
 90
        2
176
     1
 62
     7
176
     1
 90
        6
176
     1
 90
        0
176
     1
 90
        0
176
     1
290
     0
176
     1
 90
        1
176
     1
 40
0.0
176
     1
 90
        0
176
     1
290
     0
176
     1
290
     1
176
     1
290
     1
176
     1
290
     0
176
     1
290
     0
176
     1
290
     0
176
     1
290
     0
176
     1
290
     0
176
     1
290
     0
176
     1
 90
       50
176
     1
 40
0.0
176
     1
 40
1.0
176
     1
 90
        0
176
     1
 62
    18
420
        0
176
     1
 90
       50
176
     1
 90
        3
176
     1
 62
     5
420
      255
176
     1
290
     0
176
     1
 90
       50
176
     1
 90
       50
176
     1
 90
       50
176
     1
290
     0
176
     1
 90
       50
176
     1
 62
   256
176
     0
 40
1.0
176
     0
 90
        2
176
     1
  1
strokes_ogs.tif
176
     1
290
     0
176
     1
 40
1.0
176
     1
 40
1.0
176
     1
  0
VISUALSTYLE
  5
3F7
102
{ACAD_REACTORS
330
3EA
102
}
330
3EA
100
AcDbVisualStyle
  2
Thicken
 70
    13
177
     3
291
     1
 70
    58
 90
        2
176
     1
 90
        2
176
     1
 90
        0
176
     1
 90
        0
176
     1
 40
0.6
176
     1
 40
30.0
176
     1
 62
     7
420
 16777215
176
     1
 90
        1
176
     1
 90
        4
176
     1
 62
     7
176
     1
 62
   257
176
     1
 90
        1
176
     1
 90
        1
176
     1
 40
1.0
176
     1
 90
       12
176
     1
 62
     7
176
     1
 40
1.0
176
     1
 90
        1
176
     1
 90
        6
176
     1
 90
        2
176
     1
 62
     7
176
     1
 90
        5
176
     1
 90
        0
176
     1
 90
        0
176
     1
290
     0
176
     1
 90
        1
176
     1
 40
0.0
176
     1
 90
        0
176
     1
290
     0
176
     1
290
     1
176
     1
290
     1
176
     1
290
     0
176
     1
290
     0
176
     1
290
     0
176
     1
290
     0
176
     1
290
     0
176
     1
290
     0
176
     1
 90
       50
176
     1
 40
0.0
176
     1
 40
1.0
176
     1
 90
        0
176
     1
 62
    18
420
        0
176
     1
 90
       50
176
     1
 90
        3
176
     1
 62
     5
420
      255
176
     1
290
     0
176
     1
 90
       50
176
     1
 90
       50
176
     1
 90
       50
176
     1
290
     0
176
     1
 90
       50
176
     1
 62
   256
176
     0
 40
1.0
176
     0
 90
        2
176
     1
  1
strokes_ogs.tif
176
     1
290
     0
176
     1
 40
1.0
176
     1
 40
1.0
176
     1
  0
VISUALSTYLE
  5
3F0
102
{ACAD_REACTORS
330
3EA
102
}
330
3EA
100
AcDbVisualStyle
  2
Wireframe
 70
     5
177
     3
291
     0
 70
    58
 90
        0
176
     1
 90
        2
176
     1
 90
        0
176
     1
 90
        0
176
     1
 40
0.6
176
     1
 40
30.0
176
     1
 62
     7
420
 16777215
176
     1
 90
        1
176
     1
 90
        4
176
     1
 62
     7
176
     1
 62
   257
176
     1
 90
        1
176
     1
 90
        1
176
     1
 40
1.0
176
     1
 90
        0
176
     1
 62
   257
176
     1
 40
1.0
176
     1
 90
        1
176
     1
 90
        6
176
     1
 90
        2
176
     1
 62
     7
176
     1
 90
        3
176
     1
 90
        0
176
     1
 90
        0
176
     1
290
     0
176
     1
 90
        1
176
     1
 40
0.0
176
     1
 90
        0
176
     1
290
     0
176
     1
290
     1
176
     1
290
     1
176
     1
290
     0
176
     1
290
     0
176
     1
290
     0
176
     1
290
     0
176
     1
290
     0
176
     1
290
     0
176
     1
 90
       50
176
     1
 40
0.0
176
     1
 40
1.0
176
     1
 90
        0
176
     1
 62
    18
420
        0
176
     1
 90
       50
176
     1
 90
        3
176
     1
 62
     5
420
      255
176
     1
290
     0
176
     1
 90
       50
176
     1
 90
       50
176
     1
 90
       50
176
     1
290
     0
176
     1
 90
       50
176
     1
 62
   256
176
     0
 40
1.0
176
     0
 90
        2
176
     1
  1
strokes_ogs.tif
176
     1
290
     0
176
     1
 40
1.0
176
     1
 40
1.0
176
     1
  0
VISUALSTYLE
  5
400
102
{ACAD_REACTORS
330
3EA
102
}
330
3EA
100
AcDbVisualStyle
  2
X-Ray
 70
    25
177
     3
291
     0
 70
    58
 90
        2
176
     1
 90
        2
176
     1
 90
        1
176
     1
 90
        1
176
     1
 40
0.5
176
     1
 40
30.0
176
     1
 62
     7
420
 16777215
176
     1
 90
        1
176
     1
 90
        0
176
     1
 62
     7
176
     1
 62
   257
176
     1
 90
        1
176
     1
 90
        1
176
     1
 40
1.0
176
     1
 90
        8
176
     1
 62
     7
176
     1
 40
1.0
176
     1
 90
        1
176
     1
 90
        6
176
     1
 90
        2
176
     1
 62
     7
176
     1
 90
        3
176
     1
 90
        0
176
     1
 90
        0
176
     1
290
     0
176
     1
 90
       13
176
     1
 40
0.0
176
     1
 90
        0
176
     1
290
     0
176
     1
290
     1
176
     1
290
     1
176
     1
290
     0
176
     1
290
     0
176
     1
290
     0
176
     1
290
     0
176
     1
290
     0
176
     1
290
     0
176
     1
 90
       50
176
     1
 40
0.0
176
     1
 40
1.0
176
     1
 90
        0
176
     1
 62
    18
420
        0
176
     1
 90
       50
176
     1
 90
        3
176
     1
 62
     5
420
      255
176
     1
290
     0
176
     1
 90
       50
176
     1
 90
       50
176
     1
 90
       50
176
     1
290
     0
176
     1
 90
       50
176
     1
 62
   256
176
     0
 40
1.0
176
     0
 90
        2
176
     1
  1
strokes_ogs.tif
176
     1
290
     0
176
     1
 40
1.0
176
     1
 40
1.0
176
     1
  0
DICTIONARYVAR
  5
40D
102
{ACAD_REACTORS
330
40C
102
}
330
40C
100
DictionaryVariables
280
     0
  1
1:1
  0
DICTIONARYVAR
  5
412
102
{ACAD_REACTORS
330
40C
102
}
330
40C
100
DictionaryVariables
280
     0
  1
Standard
  0
DICTIONARYVAR
  5
411
102
{ACAD_REACTORS
330
40C
102
}
330
40C
100
DictionaryVariables
280
     0
  1
Standard
  0
DICTIONARYVAR
  5
413
102
{ACAD_REACTORS
330
40C
102
}
330
40C
100
DictionaryVariables
280
     0
  1
0
  0
DICTIONARY
  5
40E
330
408
100
AcDbDictionary
280
     1
281
     1
  3
ACAD_ROUNDTRIP_2008_TABLESTYLE_CELLSTYLEMAP
360
40F
  0
CELLSTYLEMAP
  5
40F
102
{ACAD_REACTORS
330
40E
102
}
330
40E
100
AcDbCellStyleMap
 90
        3
300
CELLSTYLE
  1
TABLEFORMAT_BEGIN
 90
        5
170
     1
 91
        0
 92
    32768
 62
   257
 93
        1
300
CONTENTFORMAT
  1
CONTENTFORMAT_BEGIN
 90
        0
 91
        0
 92
        4
 93
        0
300

 40
0.0
140
1.0
 94
        5
 62
     0
340
11
144
6.0
309
CONTENTFORMAT_END
171
     1
301
MARGIN
  1
CELLMARGIN_BEGIN
 40
1.5
 40
1.5
 40
1.5
 40
1.5
 40
1.5
 40
1.5
309
CELLMARGIN_END
 94
        6
 95
        1
302
GRIDFORMAT
  1
GRIDFORMAT_BEGIN
 90
        0
 91
        1
 62
     0
 92
       -2
340
14
 93
        0
 40
0.045
309
GRIDFORMAT_END
 95
        2
302
GRIDFORMAT
  1
GRIDFORMAT_BEGIN
 90
        0
 91
        1
 62
     0
 92
       -2
340
14
 93
        0
 40
0.045
309
GRIDFORMAT_END
 95
        4
302
GRIDFORMAT
  1
GRIDFORMAT_BEGIN
 90
        0
 91
        1
 62
     0
 92
       -2
340
14
 93
        0
 40
0.045
309
GRIDFORMAT_END
 95
        8
302
GRIDFORMAT
  1
GRIDFORMAT_BEGIN
 90
        0
 91
        1
 62
     0
 92
       -2
340
14
 93
        0
 40
0.045
309
GRIDFORMAT_END
 95
       16
302
GRIDFORMAT
  1
GRIDFORMAT_BEGIN
 90
        0
 91
        1
 62
     0
 92
       -2
340
14
 93
        0
 40
0.045
309
GRIDFORMAT_END
 95
       32
302
GRIDFORMAT
  1
GRIDFORMAT_BEGIN
 90
        0
 91
        1
 62
     0
 92
       -2
340
14
 93
        0
 40
0.045
309
GRIDFORMAT_END
309
TABLEFORMAT_END
  1
CELLSTYLE_BEGIN
 90
        1
 91
        1
300
_TITLE
309
CELLSTYLE_END
300
CELLSTYLE
  1
TABLEFORMAT_BEGIN
 90
        5
170
     1
 91
        0
 92
        0
 62
   257
 93
        1
300
CONTENTFORMAT
  1
CONTENTFORMAT_BEGIN
 90
        0
 91
        0
 92
        4
 93
        0
300

 40
0.0
140
1.0
 94
        5
 62
     0
340
11
144
4.5
309
CONTENTFORMAT_END
171
     1
301
MARGIN
  1
CELLMARGIN_BEGIN
 40
1.5
 40
1.5
 40
1.5
 40
1.5
 40
1.5
 40
1.5
309
CELLMARGIN_END
 94
        6
 95
        1
302
GRIDFORMAT
  1
GRIDFORMAT_BEGIN
 90
        0
 91
        1
 62
     0
 92
       -2
340
14
 93
        0
 40
0.045
309
GRIDFORMAT_END
 95
        2
302
GRIDFORMAT
  1
GRIDFORMAT_BEGIN
 90
        0
 91
        1
 62
     0
 92
       -2
340
14
 93
        0
 40
0.045
309
GRIDFORMAT_END
 95
        4
302
GRIDFORMAT
  1
GRIDFORMAT_BEGIN
 90
        0
 91
        1
 62
     0
 92
       -2
340
14
 93
        0
 40
0.045
309
GRIDFORMAT_END
 95
        8
302
GRIDFORMAT
  1
GRIDFORMAT_BEGIN
 90
        0
 91
        1
 62
     0
 92
       -2
340
14
 93
        0
 40
0.045
309
GRIDFORMAT_END
 95
       16
302
GRIDFORMAT
  1
GRIDFORMAT_BEGIN
 90
        0
 91
        1
 62
     0
 92
       -2
340
14
 93
        0
 40
0.045
309
GRIDFORMAT_END
 95
       32
302
GRIDFORMAT
  1
GRIDFORMAT_BEGIN
 90
        0
 91
        1
 62
     0
 92
       -2
340
14
 93
        0
 40
0.045
309
GRIDFORMAT_END
309
TABLEFORMAT_END
  1
CELLSTYLE_BEGIN
 90
        2
 91
        1
300
_HEADER
309
CELLSTYLE_END
300
CELLSTYLE
  1
TABLEFORMAT_BEGIN
 90
        5
170
     1
 91
        0
 92
        0
 62
   257
 93
        1
300
CONTENTFORMAT
  1
CONTENTFORMAT_BEGIN
 90
        0
 91
        0
 92
        4
 93
        0
300

 40
0.0
140
1.0
 94
        2
 62
     0
340
11
144
4.5
309
CONTENTFORMAT_END
171
     1
301
MARGIN
  1
CELLMARGIN_BEGIN
 40
1.5
 40
1.5
 40
1.5
 40
1.5
 40
1.5
 40
1.5
309
CELLMARGIN_END
 94
        6
 95
        1
302
GRIDFORMAT
  1
GRIDFORMAT_BEGIN
 90
        0
 91
        1
 62
     0
 92
       -2
340
14
 93
        0
 40
0.045
309
GRIDFORMAT_END
 95
        2
302
GRIDFORMAT
  1
GRIDFORMAT_BEGIN
 90
        0
 91
        1
 62
     0
 92
       -2
340
14
 93
        0
 40
0.045
309
GRIDFORMAT_END
 95
        4
302
GRIDFORMAT
  1
GRIDFORMAT_BEGIN
 90
        0
 91
        1
 62
     0
 92
       -2
340
14
 93
        0
 40
0.045
309
GRIDFORMAT_END
 95
        8
302
GRIDFORMAT
  1
GRIDFORMAT_BEGIN
 90
        0
 91
        1
 62
     0
 92
       -2
340
14
 93
        0
 40
0.045
309
GRIDFORMAT_END
 95
       16
302
GRIDFORMAT
  1
GRIDFORMAT_BEGIN
 90
        0
 91
        1
 62
     0
 92
       -2
340
14
 93
        0
 40
0.045
309
GRIDFORMAT_END
 95
       32
302
GRIDFORMAT
  1
GRIDFORMAT_BEGIN
 90
        0
 91
        1
 62
     0
 92
       -2
340
14
 93
        0
 40
0.045
309
GRIDFORMAT_END
309
TABLEFORMAT_END
  1
CELLSTYLE_BEGIN
 90
        3
 91
        2
300
_DATA
309
CELLSTYLE_END
  0
ENDSEC
  0
EOF
