  0
SECTION
  2
HEADER
  9
$ACADVER
  1
AC1027
  9
$ACADMAINTVER
 70
   105
  9
$DWGCODEPAGE
  3
ANSI_1252
  9
$REQUIREDVERSIONS
160
                 0
  9
$LASTSAVEDBY
  1
andrea.zolin
  9
$INSBASE
 10
0.0
 20
0.0
 30
0.0
  9
$EXTMIN
 10
0.0
 20
0.0
 30
0.0
  9
$EXTMAX
 10
420.0
 20
297.0
 30
0.0
  9
$LIMMIN
 10
0.0
 20
0.0
  9
$LIMMAX
 10
420.0
 20
297.0
  9
$ORTHOMODE
 70
     0
  9
$REGENMODE
 70
     1
  9
$FILLMODE
 70
     1
  9
$QTEXTMODE
 70
     0
  9
$MIRRTEXT
 70
     1
  9
$LTSCALE
 40
23.1
  9
$ATTMODE
 70
     1
  9
$TEXTSIZE
 40
0.2
  9
$TRACEWID
 40
0.05
  9
$TEXTSTYLE
  7
STANDARD
  9
$CLAYER
  8
0
  9
$CELTYPE
  6
BYLAYER
  9
$CECOLOR
 62
   256
  9
$CELTSCALE
 40
1.0
  9
$DISPSILH
 70
     0
  9
$DIMSCALE
 40
1.0
  9
$DIMASZ
 40
2.5
  9
$DIMEXO
 40
0.75
  9
$DIMDLI
 40
15.96
  9
$DIMRND
 40
0.0
  9
$DIMDLE
 40
0.0
  9
$DIMEXE
 40
0.75
  9
$DIMTP
 40
0.01
  9
$DIMTM
 40
0.01
  9
$DIMTXT
 40
3.0
  9
$DIMCEN
 40
3.78
  9
$DIMTSZ
 40
0.0
  9
$DIMTOL
 70
     1
  9
$DIMLIM
 70
     0
  9
$DIMTIH
 70
     1
  9
$DIMTOH
 70
     1
  9
$DIMSE1
 70
     0
  9
$DIMSE2
 70
     0
  9
$DIMTAD
 70
     0
  9
$DIMZIN
 70
     0
  9
$DIMBLK
  1
CLOSED
  9
$DIMASO
 70
     1
  9
$DIMSHO
 70
     1
  9
$DIMPOST
  1

  9
$DIMAPOST
  1

  9
$DIMALT
 70
     0
  9
$DIMALTD
 70
     2
  9
$DIMALTF
 40
25.4
  9
$DIMLFAC
 40
1.0
  9
$DIMTOFL
 70
     0
  9
$DIMTVP
 40
0.0
  9
$DIMTIX
 70
     0
  9
$DIMSOXD
 70
     0
  9
$DIMSAH
 70
     0
  9
$DIMBLK1
  1

  9
$DIMBLK2
  1

  9
$DIMSTYLE
  2
STANDARD
  9
$DIMCLRD
 70
     0
  9
$DIMCLRE
 70
     0
  9
$DIMCLRT
 70
     0
  9
$DIMTFAC
 40
1.0
  9
$DIMGAP
 40
0.625
  9
$DIMJUST
 70
     0
  9
$DIMSD1
 70
     0
  9
$DIMSD2
 70
     0
  9
$DIMTOLJ
 70
     1
  9
$DIMTZIN
 70
     0
  9
$DIMALTZ
 70
     0
  9
$DIMALTTZ
 70
     0
  9
$DIMUPT
 70
     0
  9
$DIMDEC
 70
     4
  9
$DIMTDEC
 70
     4
  9
$DIMALTU
 70
     2
  9
$DIMALTTD
 70
     2
  9
$DIMTXSTY
  7
STANDARD
  9
$DIMAUNIT
 70
     0
  9
$DIMADEC
 70
     0
  9
$DIMALTRND
 40
0.0
  9
$DIMAZIN
 70
     0
  9
$DIMDSEP
 70
    46
  9
$DIMATFIT
 70
     3
  9
$DIMFRAC
 70
     0
  9
$DIMLDRBLK
  1

  9
$DIMLUNIT
 70
     2
  9
$DIMLWD
 70
    -2
  9
$DIMLWE
 70
    -2
  9
$DIMTMOVE
 70
     2
  9
$DIMFXL
 40
1.0
  9
$DIMFXLON
 70
     0
  9
$DIMJOGANG
 40
0.7853981633974483
  9
$DIMTFILL
 70
     0
  9
$DIMTFILLCLR
 70
     0
  9
$DIMARCSYM
 70
     0
  9
$DIMLTYPE
  6

  9
$DIMLTEX1
  6

  9
$DIMLTEX2
  6

  9
$DIMTXTDIRECTION
 70
     0
  9
$LUNITS
 70
     2
  9
$LUPREC
 70
     4
  9
$SKETCHINC
 40
0.1
  9
$FILLETRAD
 40
0.5
  9
$AUNITS
 70
     0
  9
$AUPREC
 70
     0
  9
$MENU
  1
.
  9
$ELEVATION
 40
0.0
  9
$PELEVATION
 40
0.0
  9
$THICKNESS
 40
0.0
  9
$LIMCHECK
 70
     0
  9
$CHAMFERA
 40
0.0
  9
$CHAMFERB
 40
0.0
  9
$CHAMFERC
 40
0.0
  9
$CHAMFERD
 40
0.0
  9
$SKPOLY
 70
     0
  9
$TDCREATE
 40
2447893.041666667
  9
$TDUCREATE
 40
0.0
  9
$TDUPDATE
 40
2458473.673423924
  9
$TDUUPDATE
 40
2458473.631757257
  9
$TDINDWG
 40
0.0001568171
  9
$TDUSRTIMER
 40
0.0001568171
  9
$USRTIMER
 70
     1
  9
$ANGBASE
 50
0.0
  9
$ANGDIR
 70
     0
  9
$PDMODE
 70
     3
  9
$PDSIZE
 40
0.3125
  9
$PLINEWID
 40
0.0
  9
$SPLFRAME
 70
     0
  9
$SPLINETYPE
 70
     6
  9
$SPLINESEGS
 70
     8
  9
$HANDSEED
  5
458
  9
$SURFTAB1
 70
     6
  9
$SURFTAB2
 70
     6
  9
$SURFTYPE
 70
     6
  9
$SURFU
 70
     6
  9
$SURFV
 70
     6
  9
$UCSBASE
  2

  9
$UCSNAME
  2

  9
$UCSORG
 10
0.0
 20
0.0
 30
0.0
  9
$UCSXDIR
 10
1.0
 20
0.0
 30
0.0
  9
$UCSYDIR
 10
0.0
 20
1.0
 30
0.0
  9
$UCSORTHOREF
  2

  9
$UCSORTHOVIEW
 70
     0
  9
$UCSORGTOP
 10
0.0
 20
0.0
 30
0.0
  9
$UCSORGBOTTOM
 10
0.0
 20
0.0
 30
0.0
  9
$UCSORGLEFT
 10
0.0
 20
0.0
 30
0.0
  9
$UCSORGRIGHT
 10
0.0
 20
0.0
 30
0.0
  9
$UCSORGFRONT
 10
0.0
 20
0.0
 30
0.0
  9
$UCSORGBACK
 10
0.0
 20
0.0
 30
0.0
  9
$PUCSBASE
  2

  9
$PUCSNAME
  2

  9
$PUCSORG
 10
0.0
 20
0.0
 30
0.0
  9
$PUCSXDIR
 10
1.0
 20
0.0
 30
0.0
  9
$PUCSYDIR
 10
0.0
 20
1.0
 30
0.0
  9
$PUCSORTHOREF
  2

  9
$PUCSORTHOVIEW
 70
     0
  9
$PUCSORGTOP
 10
0.0
 20
0.0
 30
0.0
  9
$PUCSORGBOTTOM
 10
0.0
 20
0.0
 30
0.0
  9
$PUCSORGLEFT
 10
0.0
 20
0.0
 30
0.0
  9
$PUCSORGRIGHT
 10
0.0
 20
0.0
 30
0.0
  9
$PUCSORGFRONT
 10
0.0
 20
0.0
 30
0.0
  9
$PUCSORGBACK
 10
0.0
 20
0.0
 30
0.0
  9
$USERI1
 70
     0
  9
$USERI2
 70
     0
  9
$USERI3
 70
     0
  9
$USERI4
 70
     0
  9
$USERI5
 70
     0
  9
$USERR1
 40
0.0
  9
$USERR2
 40
0.0
  9
$USERR3
 40
0.0
  9
$USERR4
 40
0.0
  9
$USERR5
 40
0.0
  9
$WORLDVIEW
 70
     1
  9
$SHADEDGE
 70
     3
  9
$SHADEDIF
 70
    70
  9
$TILEMODE
 70
     0
  9
$MAXACTVP
 70
    64
  9
$PINSBASE
 10
0.0
 20
0.0
 30
0.0
  9
$PLIMCHECK
 70
     0
  9
$PEXTMIN
 10
0.0
 20
0.0
 30
0.0
  9
$PEXTMAX
 10
420.0
 20
297.0
 30
0.0
  9
$PLIMMIN
 10
-8.667315175097276
 20
-23.11284046692607
  9
$PLIMMAX
 10
476.7023346303502
 20
320.1128404669261
  9
$UNITMODE
 70
     0
  9
$VISRETAIN
 70
     1
  9
$PLINEGEN
 70
     0
  9
$PSLTSCALE
 70
     1
  9
$TREEDEPTH
 70
  3020
  9
$CMLSTYLE
  2
STANDARD
  9
$CMLJUST
 70
     0
  9
$CMLSCALE
 40
1.0
  9
$PROXYGRAPHICS
 70
     1
  9
$MEASUREMENT
 70
     1
  9
$CELWEIGHT
370
    -1
  9
$ENDCAPS
280
     0
  9
$JOINSTYLE
280
     0
  9
$LWDISPLAY
290
     0
  9
$INSUNITS
 70
     0
  9
$HYPERLINKBASE
  1

  9
$STYLESHEET
  1

  9
$XEDIT
290
     1
  9
$CEPSNTYPE
380
     0
  9
$PSTYLEMODE
290
     1
  9
$FINGERPRINTGUID
  2
{F9ABD030-66DF-49EC-8A72-AF62E90A5F1B}
  9
$VERSIONGUID
  2
{FAEB1C32-E019-11D5-929B-00C0DF256EC4}
  9
$EXTNAMES
290
     1
  9
$PSVPSCALE
 40
0.0
  9
$OLESTARTUP
290
     0
  9
$SORTENTS
280
   127
  9
$INDEXCTL
280
     0
  9
$HIDETEXT
280
     1
  9
$XCLIPFRAME
280
     2
  9
$HALOGAP
280
     0
  9
$OBSCOLOR
 70
   257
  9
$OBSLTYPE
280
     0
  9
$INTERSECTIONDISPLAY
280
     0
  9
$INTERSECTIONCOLOR
 70
   257
  9
$DIMASSOC
280
     2
  9
$PROJECTNAME
  1

  9
$CAMERADISPLAY
290
     0
  9
$LENSLENGTH
 40
50.0
  9
$CAMERAHEIGHT
 40
0.0
  9
$STEPSPERSEC
 40
2.0
  9
$STEPSIZE
 40
6.0
  9
$3DDWFPREC
 40
2.0
  9
$PSOLWIDTH
 40
0.25
  9
$PSOLHEIGHT
 40
4.0
  9
$LOFTANG1
 40
1.570796326794897
  9
$LOFTANG2
 40
1.570796326794897
  9
$LOFTMAG1
 40
0.0
  9
$LOFTMAG2
 40
0.0
  9
$LOFTPARAM
 70
     7
  9
$LOFTNORMALS
280
     1
  9
$LATITUDE
 40
37.795
  9
$LONGITUDE
 40
-122.394
  9
$NORTHDIRECTION
 40
0.0
  9
$TIMEZONE
 70
 -8000
  9
$LIGHTGLYPHDISPLAY
280
     1
  9
$TILEMODELIGHTSYNCH
280
     1
  9
$SOLIDHIST
280
     0
  9
$SHOWHIST
280
     1
  9
$DWFFRAME
280
     2
  9
$DGNFRAME
280
     2
  9
$REALWORLDSCALE
290
     1
  9
$INTERFERECOLOR
 62
   256
  9
$CSHADOW
280
     0
  9
$SHADOWPLANELOCATION
 40
0.0
  0
ENDSEC
  0
SECTION
  2
CLASSES
  0
CLASS
  1
ACDBDICTIONARYWDFLT
  2
AcDbDictionaryWithDefault
  3
ObjectDBX Classes
 90
        0
 91
        4
280
     0
281
     0
  0
CLASS
  1
SCALE
  2
AcDbScale
  3
ObjectDBX Classes
 90
     1153
 91
        4
280
     0
281
     0
  0
CLASS
  1
VISUALSTYLE
  2
AcDbVisualStyle
  3
ObjectDBX Classes
 90
     4095
 91
        4
280
     0
281
     0
  0
CLASS
  1
MATERIAL
  2
AcDbMaterial
  3
ObjectDBX Classes
 90
     1153
 91
        4
280
     0
281
     0
  0
CLASS
  1
TABLESTYLE
  2
AcDbTableStyle
  3
ObjectDBX Classes
 90
     4095
 91
        4
280
     0
281
     0
  0
CLASS
  1
MLEADERSTYLE
  2
AcDbMLeaderStyle
  3
ACDB_MLEADERSTYLE_CLASS
 90
     4095
 91
        4
280
     0
281
     0
  0
CLASS
  1
DICTIONARYVAR
  2
AcDbDictionaryVar
  3
ObjectDBX Classes
 90
        0
 91
        4
280
     0
281
     0
  0
CLASS
  1
CELLSTYLEMAP
  2
AcDbCellStyleMap
  3
ObjectDBX Classes
 90
     1152
 91
        4
280
     0
281
     0
  0
ENDSEC
  0
SECTION
  2
TABLES
  0
TABLE
  2
VPORT
  5
8
330
0
100
AcDbSymbolTable
 70
     1
  0
VPORT
  5
1F4
330
8
100
AcDbSymbolTableRecord
100
AcDbViewportTableRecord
  2
*ACTIVE
 70
     0
 10
0.0
 20
0.0
 11
1.0
 21
1.0
 12
210.0
 22
148.5
 13
0.0
 23
0.0
 14
1.0
 24
1.0
 15
0.0
 25
0.0
 16
0.0
 26
0.0
 36
1.0
 17
0.0
 27
0.0
 37
0.0
 40
297.0
 41
1.4141414141
 42
50.0
 43
0.0
 44
0.0
 50
0.0
 51
0.0
 71
     0
 72
   100
 73
     1
 74
     1
 75
     0
 76
     0
 77
     0
 78
     0
281
     0
 65
     1
110
0.0
120
0.0
130
0.0
111
1.0
121
0.0
131
0.0
112
0.0
122
1.0
132
0.0
 79
     0
146
0.0
348
431
 60
     3
 61
     5
292
     1
282
     1
141
0.0
142
0.0
 63
   256
  0
ENDTAB
  0
TABLE
  2
LTYPE
  5
5
330
0
100
AcDbSymbolTable
 70
     6
  0
LTYPE
  5
14
330
5
100
AcDbSymbolTableRecord
100
AcDbLinetypeTableRecord
  2
BYBLOCK
 70
     0
  3

 72
    65
 73
     0
 40
0.0
  0
LTYPE
  5
15
330
5
100
AcDbSymbolTableRecord
100
AcDbLinetypeTableRecord
  2
BYLAYER
 70
     0
  3

 72
    65
 73
     0
 40
0.0
  0
LTYPE
  5
16
330
5
100
AcDbSymbolTableRecord
100
AcDbLinetypeTableRecord
  2
CONTINUOUS
 70
     0
  3
Solid line
 72
    65
 73
     0
 40
0.0
  0
LTYPE
  5
1F5
330
5
100
AcDbSymbolTableRecord
100
AcDbLinetypeTableRecord
  2
CENTER
 70
     0
  3
____ _ ____ _ ____ _ ____ _ ____ _ ____ _ ____
 72
    65
 73
     4
 40
0.6
 49
0.375
 74
     0
 49
-0.075
 74
     0
 49
0.075
 74
     0
 49
-0.075
 74
     0
  0
LTYPE
  5
1F6
330
5
100
AcDbSymbolTableRecord
100
AcDbLinetypeTableRecord
  2
HIDDEN
 70
     0
  3
- - - - - - - - - - - - - - - - - - - -
 72
    65
 73
     2
 40
0.2
 49
0.1
 74
     0
 49
-0.1
 74
     0
  0
LTYPE
  5
1F7
330
5
100
AcDbSymbolTableRecord
100
AcDbLinetypeTableRecord
  2
PHANTOM
 70
     0
  3
_____ _ _ _____ _ _ _____ _ _ _____
 72
    65
 73
     6
 40
0.8
 49
0.45
 74
     0
 49
-0.05
 74
     0
 49
0.1
 74
     0
 49
-0.05
 74
     0
 49
0.1
 74
     0
 49
-0.05
 74
     0
  0
LTYPE
  5
1F8
330
5
100
AcDbSymbolTableRecord
100
AcDbLinetypeTableRecord
  2
DOT
 70
     0
  3
. . . . . . . . . . . . . . . . . . . .
 72
    65
 73
     2
 40
0.2
 49
0.1
 74
     0
 49
-0.1
 74
     0
  0
LTYPE
  5
1F9
330
5
100
AcDbSymbolTableRecord
100
AcDbLinetypeTableRecord
  2
DASHED
 70
     0
  3
- - - - - - - - - - - - - - - - - - - -
 72
    65
 73
     2
 40
0.2
 49
0.1
 74
     0
 49
-0.1
 74
     0
  0
ENDTAB
  0
TABLE
  2
LAYER
  5
2
330
0
100
AcDbSymbolTable
 70
    13
  0
LAYER
  5
10
330
2
100
AcDbSymbolTableRecord
100
AcDbLayerTableRecord
  2
0
 70
     0
 62
     7
  6
CONTINUOUS
370
    -3
390
406
347
448
348
0
  0
LAYER
  5
1FA
330
2
100
AcDbSymbolTableRecord
100
AcDbLayerTableRecord
  2
DEFAULT_1
 70
     0
 62
     7
  6
CENTER
370
    -3
390
406
347
448
348
0
  0
LAYER
  5
1FB
330
2
100
AcDbSymbolTableRecord
100
AcDbLayerTableRecord
  2
DEFAULT_2
 70
     0
 62
     8
  6
HIDDEN
370
    -3
390
406
347
448
348
0
  0
LAYER
  5
1FC
330
2
100
AcDbSymbolTableRecord
100
AcDbLayerTableRecord
  2
DEFAULT_3
 70
     0
 62
     7
  6
PHANTOM
370
    -3
390
406
347
448
348
0
  0
LAYER
  5
1FD
330
2
100
AcDbSymbolTableRecord
100
AcDbLayerTableRecord
  2
1_ALL_PLANES
 70
     0
 62
     7
  6
CONTINUOUS
370
    -3
390
406
347
448
348
0
  0
LAYER
  5
1FE
330
2
100
AcDbSymbolTableRecord
100
AcDbLayerTableRecord
  2
3_ALL_AXES
 70
     0
 62
     7
  6
CONTINUOUS
370
    -3
390
406
347
448
348
0
  0
LAYER
  5
1FF
330
2
100
AcDbSymbolTableRecord
100
AcDbLayerTableRecord
  2
5_ALL_CURVES
 70
     0
 62
     7
  6
CONTINUOUS
370
    -3
390
406
347
448
348
0
  0
LAYER
  5
200
330
2
100
AcDbSymbolTableRecord
100
AcDbLayerTableRecord
  2
7_ALL_FEATURES
 70
     0
 62
     7
  6
CONTINUOUS
370
    -3
390
406
347
448
348
0
  0
LAYER
  5
201
330
2
100
AcDbSymbolTableRecord
100
AcDbLayerTableRecord
  2
8_ALL_NOTES_BALLOONS_SYMBOLS_GT
 70
     0
 62
     7
  6
CONTINUOUS
370
    -3
390
406
347
448
348
0
  0
LAYER
  5
202
330
2
100
AcDbSymbolTableRecord
100
AcDbLayerTableRecord
  2
9_SOLID
 70
     0
 62
     7
  6
CONTINUOUS
370
    -3
390
406
347
448
348
0
  0
LAYER
  5
203
330
2
100
AcDbSymbolTableRecord
100
AcDbLayerTableRecord
  2
INTFCLR_3
 70
     0
 62
     7
  6
CONTINUOUS
370
    -3
390
406
347
448
348
0
  0
LAYER
  5
204
330
2
100
AcDbSymbolTableRecord
100
AcDbLayerTableRecord
  2
INTF_1
 70
     0
 62
     7
  6
CONTINUOUS
370
    -3
390
406
347
448
348
0
  0
LAYER
  5
205
330
2
100
AcDbSymbolTableRecord
100
AcDbLayerTableRecord
  2
INTF_GREEN
 70
     0
 62
     7
  6
CONTINUOUS
370
    -3
390
406
347
448
348
0
  0
ENDTAB
  0
TABLE
  2
STYLE
  5
3
330
0
100
AcDbSymbolTable
 70
     6
  0
STYLE
  5
11
330
3
100
AcDbSymbolTableRecord
100
AcDbTextStyleTableRecord
  2
STANDARD
 70
     0
 40
0.0
 41
0.85
 50
0.0
 71
     0
 42
0.2
  3
txt
  4

  0
STYLE
  5
206
330
3
100
AcDbSymbolTableRecord
100
AcDbTextStyleTableRecord
  2
TEXTSTYLE_1
 70
     0
 40
0.0
 41
0.8
 50
0.0
 71
     0
 42
0.2
  3
gdt
  4

  0
STYLE
  5
207
330
3
100
AcDbSymbolTableRecord
100
AcDbTextStyleTableRecord
  2
TEXTSTYLE_2
 70
     0
 40
0.0
 41
0.9
 50
0.0
 71
     0
 42
0.2
  3
txt
  4

  0
STYLE
  5
208
330
3
100
AcDbSymbolTableRecord
100
AcDbTextStyleTableRecord
  2
TEXTSTYLE_3
 70
     0
 40
0.0
 41
0.9
 50
0.0
 71
     0
 42
0.2
  3
txt
  4

  0
STYLE
  5
209
330
3
100
AcDbSymbolTableRecord
100
AcDbTextStyleTableRecord
  2
TEXTSTYLE_4
 70
     0
 40
0.0
 41
0.85
 50
0.0
 71
     0
 42
0.2
  3
gdt
  4

  0
STYLE
  5
20A
330
3
100
AcDbSymbolTableRecord
100
AcDbTextStyleTableRecord
  2
TEXTSTYLE_5
 70
     0
 40
0.0
 41
2.0
 50
0.0
 71
     0
 42
0.2
  3
txt
  4

  0
ENDTAB
  0
TABLE
  2
VIEW
  5
6
330
0
100
AcDbSymbolTable
 70
     0
  0
ENDTAB
  0
TABLE
  2
UCS
  5
7
330
0
100
AcDbSymbolTable
 70
     0
  0
ENDTAB
  0
TABLE
  2
APPID
  5
9
330
0
100
AcDbSymbolTable
 70
     1
  0
APPID
  5
20B
330
9
100
AcDbSymbolTableRecord
100
AcDbRegAppTableRecord
  2
ACAD
 70
     0
  0
ENDTAB
  0
TABLE
  2
DIMSTYLE
  5
A
330
0
100
AcDbSymbolTable
 70
     3
100
AcDbDimStyleTable
  0
DIMSTYLE
105
211
330
A
100
AcDbSymbolTableRecord
100
AcDbDimStyleTableRecord
  2
STANDARD
 70
     0
 41
2.5
 42
0.75
 44
0.75
 47
0.01
 48
0.01
 71
     1
 73
     0
 74
     0
 77
     1
 78
     8
 79
     2
140
3.0
147
0.625
171
     1
178
     0
179
     2
271
     2
272
     2
284
     8
340
11
341
20C
342
20C
343
20C
344
20C
  0
DIMSTYLE
105
212
330
A
100
AcDbSymbolTableRecord
100
AcDbDimStyleTableRecord
  2
DIMSTYLE_1
 70
     0
  3
<>
 41
2.5
 42
0.75
 44
0.75
 47
0.3
 48
0.3
 73
     0
 74
     0
 77
     1
 78
     8
 79
     2
140
3.0
147
0.625
171
     1
172
     1
178
     0
179
     2
271
     2
272
     2
284
     8
288
     1
340
11
341
20C
342
20C
343
20C
344
20C
  0
DIMSTYLE
105
213
330
A
100
AcDbSymbolTableRecord
100
AcDbDimStyleTableRecord
  2
DIMSTYLE_2
 70
     0
 41
2.5
 42
0.75
 44
0.75
 47
0.3
 48
0.3
 73
     0
 74
     0
 77
     1
 78
     8
 79
     2
140
3.0
147
0.75
171
     1
178
     0
179
     2
271
     2
272
     2
284
     8
340
11
341
20C
342
20C
343
20C
344
20C
  0
ENDTAB
  0
TABLE
  2
BLOCK_RECORD
  5
1
330
0
100
AcDbSymbolTable
 70
     5
  0
BLOCK_RECORD
  5
1F
330
1
100
AcDbSymbolTableRecord
100
AcDbBlockTableRecord
  2
*MODEL_SPACE
340
42A
 70
     0
280
     1
281
     0
  0
BLOCK_RECORD
  5
1B
330
1
100
AcDbSymbolTableRecord
100
AcDbBlockTableRecord
  2
*PAPER_SPACE
340
42B
 70
     0
280
     1
281
     0
  0
BLOCK_RECORD
  5
20C
330
1
100
AcDbSymbolTableRecord
100
AcDbBlockTableRecord
  2
_CLOSED
340
0
102
{BLKREFS
331
263
331
26B
331
26C
102
}
 70
     0
280
     1
281
     0
  0
BLOCK_RECORD
  5
20D
330
1
100
AcDbSymbolTableRecord
100
AcDbBlockTableRecord
  2
*D1
340
0
 70
     0
280
     1
281
     0
  0
BLOCK_RECORD
  5
20E
330
1
100
AcDbSymbolTableRecord
100
AcDbBlockTableRecord
  2
*D2
340
0
 70
     0
280
     1
281
     0
  0
BLOCK_RECORD
  5
20F
330
1
100
AcDbSymbolTableRecord
100
AcDbBlockTableRecord
  2
LOGO2_BL1
340
0
102
{BLKREFS
331
3EE
102
}
 70
     0
280
     1
281
     0
  0
BLOCK_RECORD
  5
210
330
1
100
AcDbSymbolTableRecord
100
AcDbBlockTableRecord
  2
PROIEZIONE_EU_BL0
340
0
102
{BLKREFS
331
3EB
102
}
 70
     0
280
     1
281
     0
  0
ENDTAB
  0
ENDSEC
  0
SECTION
  2
BLOCKS
  0
BLOCK
  5
20
330
1F
100
AcDbEntity
  8
0
100
AcDbBlockBegin
  2
*MODEL_SPACE
 70
     0
 10
0.0
 20
0.0
 30
0.0
  3
*MODEL_SPACE
  1

  0
ENDBLK
  5
21
330
1F
100
AcDbEntity
  8
0
100
AcDbBlockEnd
  0
BLOCK
  5
1C
330
1B
100
AcDbEntity
 67
     1
  8
0
100
AcDbBlockBegin
  2
*PAPER_SPACE
 70
     0
 10
0.0
 20
0.0
 30
0.0
  3
*PAPER_SPACE
  1

  0
ENDBLK
  5
1D
330
1B
100
AcDbEntity
 67
     1
  8
0
100
AcDbBlockEnd
  0
BLOCK
  5
25A
330
20C
100
AcDbEntity
  8
0
100
AcDbBlockBegin
  2
_CLOSED
 70
     0
 10
0.0
 20
0.0
 30
0.0
  3
_CLOSED
  1

  0
LINE
  5
25B
330
20C
100
AcDbEntity
  8
0
  6
ByBlock
 62
     0
100
AcDbLine
 10
0.0
 20
0.0
 30
0.0
 11
-1.0
 21
0.2
 31
0.0
  0
LINE
  5
25C
330
20C
100
AcDbEntity
  8
0
  6
ByBlock
 62
     0
100
AcDbLine
 10
-1.0
 20
0.2
 30
0.0
 11
-1.0
 21
-0.2
 31
0.0
  0
LINE
  5
25D
330
20C
100
AcDbEntity
  8
0
  6
ByBlock
 62
     0
100
AcDbLine
 10
-1.0
 20
-0.2
 30
0.0
 11
0.0
 21
0.0
 31
0.0
  0
LINE
  5
25E
330
20C
100
AcDbEntity
  8
0
  6
ByBlock
 62
     0
100
AcDbLine
 10
-1.0
 20
0.0
 30
0.0
 11
0.0
 21
0.0
 31
0.0
  0
ENDBLK
  5
25F
330
20C
100
AcDbEntity
  8
0
  6
ByBlock
 62
     0
100
AcDbBlockEnd
  0
BLOCK
  5
260
330
20D
100
AcDbEntity
  8
0
100
AcDbBlockBegin
  2
*D1
 70
     1
 10
0.0
 20
0.0
 30
0.0
  3
*D1
  1

  0
MTEXT
  5
261
330
20D
100
AcDbEntity
  8
0
  6
Continuous
 62
     2
100
AcDbMText
 10
64.4762742925
 20
49.6006464738
 30
0.0
 40
3.0
 41
19.1785714286
 46
0.0
 71
     3
 72
     1
  1
{\Fgdt;n}\Ftxt;72,4
  7
TEXTSTYLE_4
 11
0.916201968
 21
0.4007168001
 31
0.0
 73
     1
 44
1.0
  0
LINE
  5
262
330
20D
100
AcDbEntity
  8
0
  6
Continuous
 62
     2
100
AcDbLine
 10
80.0417167124
 20
52.3154783175
 30
0.0
 11
54.2646657019
 21
41.0414385789
 31
0.0
  0
INSERT
  5
263
330
20D
100
AcDbEntity
  8
0
  6
Continuous
 62
     2
100
AcDbBlockReference
  2
_CLOSED
 10
80.0417167124
 20
52.3154783175
 30
0.0
 41
2.5
 42
2.5
 43
2.5
 50
23.6229967599
  0
ENDBLK
  5
264
330
20D
100
AcDbEntity
  8
0
  6
ByBlock
 62
     0
100
AcDbBlockEnd
  0
BLOCK
  5
265
330
20E
100
AcDbEntity
  8
0
100
AcDbBlockBegin
  2
*D2
 70
     1
 10
0.0
 20
0.0
 30
0.0
  3
*D2
  1

  0
MTEXT
  5
266
330
20E
100
AcDbEntity
  8
0
  6
Continuous
 62
     2
100
AcDbMText
 10
56.5232148838
 20
191.0041756194
 30
0.0
 40
3.0
 41
9.6428571429
 46
0.0
 71
     2
 72
     1
  1
120
 11
0.0
 21
1.0
 31
0.0
 73
     1
 44
1.0
  0
LINE
  5
267
330
20E
100
AcDbEntity
  8
0
  6
Continuous
 62
     2
100
AcDbLine
 10
67.6558238104
 20
131.0041756194
 30
0.0
 11
59.5232148838
 21
131.0041756194
 31
0.0
  0
LINE
  5
268
330
20E
100
AcDbEntity
  8
0
  6
Continuous
 62
     2
100
AcDbLine
 10
68.1014903507
 20
251.0041756194
 30
0.0
 11
59.5232148838
 21
251.0041756194
 31
0.0
  0
LINE
  5
269
330
20E
100
AcDbEntity
  8
0
  6
Continuous
 62
     2
100
AcDbLine
 10
60.2732148838
 20
131.0041756194
 30
0.0
 11
60.2732148838
 21
191.0041756194
 31
0.0
  0
LINE
  5
26A
330
20E
100
AcDbEntity
  8
0
  6
Continuous
 62
     2
100
AcDbLine
 10
60.2732148838
 20
251.0041756194
 30
0.0
 11
60.2732148838
 21
191.0041756194
 31
0.0
  0
INSERT
  5
26B
330
20E
100
AcDbEntity
  8
0
  6
Continuous
 62
     2
100
AcDbBlockReference
  2
_CLOSED
 10
60.2732148838
 20
131.0041756194
 30
0.0
 41
2.5
 42
2.5
 43
2.5
 50
270.0
  0
INSERT
  5
26C
330
20E
100
AcDbEntity
  8
0
  6
Continuous
 62
     2
100
AcDbBlockReference
  2
_CLOSED
 10
60.2732148838
 20
251.0041756194
 30
0.0
 41
2.5
 42
2.5
 43
2.5
 50
90.0
  0
ENDBLK
  5
26D
330
20E
100
AcDbEntity
  8
0
  6
ByBlock
 62
     0
100
AcDbBlockEnd
  0
BLOCK
  5
214
330
20F
100
AcDbEntity
  8
0
100
AcDbBlockBegin
  2
LOGO2_BL1
 70
     0
 10
293.4639271123
 20
42.6672297297
 30
0.0
  3
LOGO2_BL1
  1

  0
LINE
  5
215
330
20F
100
AcDbEntity
  8
0
  6
Continuous
 62
     7
100
AcDbLine
 10
285.2068523406
 20
45.8627210686
 30
0.0
 11
283.9025114112
 21
45.8627210686
 31
0.0
  0
LINE
  5
216
330
20F
100
AcDbEntity
  8
0
  6
Continuous
 62
     7
100
AcDbLine
 10
283.9025114112
 20
45.8627210686
 30
0.0
 11
283.9025114112
 21
35.4036550087
 31
0.0
  0
LINE
  5
217
330
20F
100
AcDbEntity
  8
0
  6
Continuous
 62
     7
100
AcDbLine
 10
283.9025114112
 20
35.4036550087
 30
0.0
 11
288.3835662995
 21
35.4036550087
 31
0.0
  0
LINE
  5
218
330
20F
100
AcDbEntity
  8
0
  6
Continuous
 62
     7
100
AcDbLine
 10
288.3835662995
 20
35.4036550087
 30
0.0
 11
288.3835662995
 21
36.5965093338
 31
0.0
  0
LINE
  5
219
330
20F
100
AcDbEntity
  8
0
  6
Continuous
 62
     7
100
AcDbLine
 10
288.3835662995
 20
36.5965093338
 30
0.0
 11
285.2068523406
 21
36.5965093338
 31
0.0
  0
LINE
  5
21A
330
20F
100
AcDbEntity
  8
0
  6
Continuous
 62
     7
100
AcDbLine
 10
285.2068523406
 20
36.5965093338
 30
0.0
 11
285.2068523406
 21
45.8627210686
 31
0.0
  0
LINE
  5
21B
330
20F
100
AcDbEntity
  8
0
  6
Continuous
 62
     7
100
AcDbLine
 10
300.1431785569
 20
45.8627210686
 30
0.0
 11
298.8393610388
 21
45.8627210686
 31
0.0
  0
LINE
  5
21C
330
20F
100
AcDbEntity
  8
0
  6
Continuous
 62
     7
100
AcDbLine
 10
298.8393610388
 20
45.8627210686
 30
0.0
 11
298.8393610388
 21
35.4036550087
 31
0.0
  0
LINE
  5
21D
330
20F
100
AcDbEntity
  8
0
  6
Continuous
 62
     7
100
AcDbLine
 10
298.8393610388
 20
35.4036550087
 30
0.0
 11
303.3205467799
 21
35.4036550087
 31
0.0
  0
LINE
  5
21E
330
20F
100
AcDbEntity
  8
0
  6
Continuous
 62
     7
100
AcDbLine
 10
303.3205467799
 20
35.4036550087
 30
0.0
 11
303.3205467799
 21
36.5965093338
 31
0.0
  0
LINE
  5
21F
330
20F
100
AcDbEntity
  8
0
  6
Continuous
 62
     7
100
AcDbLine
 10
303.3205467799
 20
36.5965093338
 30
0.0
 11
300.1431785569
 21
36.5965093338
 31
0.0
  0
LINE
  5
220
330
20F
100
AcDbEntity
  8
0
  6
Continuous
 62
     7
100
AcDbLine
 10
300.1431785569
 20
36.5965093338
 30
0.0
 11
300.1431785569
 21
45.8627210686
 31
0.0
  0
LWPOLYLINE
  5
221
330
20F
100
AcDbEntity
  8
0
  6
Continuous
 62
     7
100
AcDbPolyline
 90
        2
 70
     0
 43
0.2
 10
282.2569063221
 20
32.0601037018
 10
282.2569063221
 20
30.2030404524
  0
LWPOLYLINE
  5
222
330
20F
100
AcDbEntity
  8
0
  6
Continuous
 62
     7
100
AcDbPolyline
 90
        2
 70
     0
 43
0.2
 10
282.2569063221
 20
30.2030404524
 10
283.0526223325
 20
30.2030404524
  0
LWPOLYLINE
  5
223
330
20F
100
AcDbEntity
  8
0
  6
Continuous
 62
     7
100
AcDbPolyline
 90
        2
 70
     0
 43
0.2
 10
283.0526223325
 20
30.2030404524
 10
283.0526223325
 20
30.415022024
  0
LWPOLYLINE
  5
224
330
20F
100
AcDbEntity
  8
0
  6
Continuous
 62
     7
100
AcDbPolyline
 90
        2
 70
     0
 43
0.2
 10
283.0526223325
 20
30.415022024
 10
282.488515817
 20
30.415022024
  0
LWPOLYLINE
  5
225
330
20F
100
AcDbEntity
  8
0
  6
Continuous
 62
     7
100
AcDbPolyline
 90
        2
 70
     0
 43
0.2
 10
282.488515817
 20
30.415022024
 10
282.488515817
 20
32.0601037018
  0
LWPOLYLINE
  5
226
330
20F
100
AcDbEntity
  8
0
  6
Continuous
 62
     7
100
AcDbPolyline
 90
        2
 70
     0
 43
0.2
 10
282.488515817
 20
32.0601037018
 10
282.2569063221
 20
32.0601037018
  0
SPLINE
  5
227
330
20F
100
AcDbEntity
  8
0
  6
Continuous
 62
     7
100
AcDbSpline
 70
     3
 71
     3
 72
    35
 73
    31
 74
     0
 42
0.000000001
 43
0.0000001
 40
0.0
 40
0.0
 40
0.0
 40
0.0
 40
1.0
 40
1.0
 40
1.0
 40
2.0
 40
2.0
 40
2.0
 40
3.0
 40
3.0
 40
3.0
 40
4.0
 40
4.0
 40
4.0
 40
5.0
 40
5.0
 40
5.0
 40
6.0
 40
6.0
 40
6.0
 40
7.0
 40
7.0
 40
7.0
 40
8.0
 40
8.0
 40
8.0
 40
9.0
 40
9.0
 40
9.0
 40
10.0
 40
10.0
 40
10.0
 40
10.0
 10
284.450915588
 20
31.3555921083
 30
0.0
 10
284.450915588
 20
31.3555921083
 30
0.0
 10
284.450915588
 20
30.6934768292
 30
0.0
 10
284.450915588
 20
30.6934768292
 30
0.0
 10
284.450915588
 20
30.3783832339
 30
0.0
 10
284.5987792769
 20
30.1637846058
 30
0.0
 10
284.9388657612
 20
30.1637846058
 30
0.0
 10
285.2784288342
 20
30.1637846058
 30
0.0
 10
285.4265542286
 20
30.3783832339
 30
0.0
 10
285.4265542286
 20
30.6934768292
 30
0.0
 10
285.4265542286
 20
30.6934768292
 30
0.0
 10
285.4265542286
 20
31.3555921083
 30
0.0
 10
285.4265542286
 20
31.3555921083
 30
0.0
 10
285.4265542286
 20
31.3555921083
 30
0.0
 10
285.2044969898
 20
31.3555921083
 30
0.0
 10
285.2044969898
 20
31.3555921083
 30
0.0
 10
285.2044969898
 20
31.3555921083
 30
0.0
 10
285.2044969898
 20
30.718600571
 30
0.0
 10
285.2044969898
 20
30.718600571
 30
0.0
 10
285.2044969898
 20
30.5327895638
 30
0.0
 10
285.1577825323
 20
30.3700086533
 30
0.0
 10
284.9388657612
 20
30.3700086533
 30
0.0
 10
284.7194255787
 20
30.3700086533
 30
0.0
 10
284.6727111213
 20
30.5327895638
 30
0.0
 10
284.6727111213
 20
30.718600571
 30
0.0
 10
284.6727111213
 20
30.718600571
 30
0.0
 10
284.6727111213
 20
31.3555921083
 30
0.0
 10
284.6727111213
 20
31.3555921083
 30
0.0
 10
284.6727111213
 20
31.3555921083
 30
0.0
 10
284.450915588
 20
31.3555921083
 30
0.0
 10
284.450915588
 20
31.3555921083
 30
0.0
  0
SPLINE
  5
228
330
20F
100
AcDbEntity
  8
0
  6
Continuous
 62
     7
100
AcDbSpline
 70
     3
 71
     3
 72
    35
 73
    31
 74
     0
 42
0.000000001
 43
0.0000001
 40
0.0
 40
0.0
 40
0.0
 40
0.0
 40
1.0
 40
1.0
 40
1.0
 40
2.0
 40
2.0
 40
2.0
 40
3.0
 40
3.0
 40
3.0
 40
4.0
 40
4.0
 40
4.0
 40
5.0
 40
5.0
 40
5.0
 40
6.0
 40
6.0
 40
6.0
 40
7.0
 40
7.0
 40
7.0
 40
8.0
 40
8.0
 40
8.0
 40
9.0
 40
9.0
 40
9.0
 40
10.0
 40
10.0
 40
10.0
 40
10.0
 10
287.8496867858
 20
31.3142426166
 30
0.0
 10
287.7612302782
 20
31.3655369228
 30
0.0
 10
287.6477808815
 20
31.3906606646
 30
0.0
 10
287.5441454465
 20
31.3906606646
 30
0.0
 10
287.1892725934
 20
31.3906606646
 30
0.0
 10
286.9138274031
 20
31.1268613755
 30
0.0
 10
286.9138274031
 20
30.7693714659
 30
0.0
 10
286.9138274031
 20
30.4244434272
 30
0.0
 10
287.1922822083
 20
30.1643080171
 30
0.0
 10
287.5318452813
 20
30.1643080171
 30
0.0
 10
287.6477808815
 20
30.1643080171
 30
0.0
 10
287.7485375545
 20
30.1862912912
 30
0.0
 10
287.8496867858
 20
30.2402026539
 30
0.0
 10
287.8496867858
 20
30.2402026539
 30
0.0
 10
287.8496867858
 20
30.5228447493
 30
0.0
 10
287.8496867858
 20
30.5228447493
 30
0.0
 10
287.765810127
 20
30.4296775401
 30
0.0
 10
287.6623055448
 20
30.3705320645
 30
0.0
 10
287.5342006321
 20
30.3705320645
 30
0.0
 10
287.300497492
 20
30.3705320645
 30
0.0
 10
287.1352303779
 20
30.5427343783
 30
0.0
 10
287.1352303779
 20
30.7793162804
 30
0.0
 10
287.1352303779
 20
30.991297852
 30
0.0
 10
287.3029836957
 20
31.1833897946
 30
0.0
 10
287.5198068217
 20
31.1833897946
 30
0.0
 10
287.6526224359
 20
31.1833897946
 30
0.0
 10
287.7612302782
 20
31.129478432
 30
0.0
 10
287.8496867858
 20
31.0284600534
 30
0.0
 10
287.8496867858
 20
31.0284600534
 30
0.0
 10
287.8496867858
 20
31.3142426166
 30
0.0
 10
287.8496867858
 20
31.3142426166
 30
0.0
  0
SPLINE
  5
229
330
20F
100
AcDbEntity
  8
0
  6
Continuous
 62
     7
100
AcDbSpline
 70
     3
 71
     3
 72
    32
 73
    28
 74
     0
 42
0.000000001
 43
0.0000001
 40
0.0
 40
0.0
 40
0.0
 40
0.0
 40
1.0
 40
1.0
 40
1.0
 40
2.0
 40
2.0
 40
2.0
 40
3.0
 40
3.0
 40
3.0
 40
4.0
 40
4.0
 40
4.0
 40
5.0
 40
5.0
 40
5.0
 40
6.0
 40
6.0
 40
6.0
 40
7.0
 40
7.0
 40
7.0
 40
8.0
 40
8.0
 40
8.0
 40
9.0
 40
9.0
 40
9.0
 40
9.0
 10
290.3815580381
 20
30.7426774902
 30
0.0
 10
290.3815580381
 20
30.7426774902
 30
0.0
 10
290.3815580381
 20
30.7766992239
 30
0.0
 10
290.3815580381
 20
30.7766992239
 30
0.0
 10
290.3815580381
 20
31.1190102062
 30
0.0
 10
290.2087014603
 20
31.3906606646
 30
0.0
 10
289.8420518531
 20
31.3906606646
 30
0.0
 10
289.4704298387
 20
31.3906606646
 30
0.0
 10
289.2806932469
 20
31.1242443191
 30
0.0
 10
289.2806932469
 20
30.7693714659
 30
0.0
 10
289.2806932469
 20
30.4296775401
 30
0.0
 10
289.4947684636
 20
30.1637846058
 30
0.0
 10
289.8468934075
 20
30.1637846058
 30
0.0
 10
290.0709134387
 20
30.1637846058
 30
0.0
 10
290.2730810487
 20
30.2794585005
 30
0.0
 10
290.3815580381
 20
30.4788782011
 30
0.0
 10
290.3815580381
 20
30.4788782011
 30
0.0
 10
290.1939150914
 20
30.5856541039
 30
0.0
 10
290.1939150914
 20
30.5856541039
 30
0.0
 10
290.110430991
 20
30.4469501126
 30
0.0
 10
290.0192265741
 20
30.3611106614
 30
0.0
 10
289.8496413168
 20
30.3611106614
 30
0.0
 10
289.6376597452
 20
30.3611106614
 30
0.0
 10
289.5047132781
 20
30.545874846
 30
0.0
 10
289.5023579273
 20
30.7426774902
 30
0.0
 10
289.5023579273
 20
30.7426774902
 30
0.0
 10
290.3815580381
 20
30.7426774902
 30
0.0
 10
290.3815580381
 20
30.7426774902
 30
0.0
  0
SPLINE
  5
22A
330
20F
100
AcDbEntity
  8
0
  6
Continuous
 62
     7
100
AcDbSpline
 70
     3
 71
     3
 72
    14
 73
    10
 74
     0
 42
0.000000001
 43
0.0000001
 40
0.0
 40
0.0
 40
0.0
 40
0.0
 40
1.0
 40
1.0
 40
1.0
 40
2.0
 40
2.0
 40
2.0
 40
3.0
 40
3.0
 40
3.0
 40
3.0
 10
289.5143963869
 20
30.9101691023
 30
0.0
 10
289.5420063323
 20
31.075043658
 30
0.0
 10
289.6698495394
 20
31.1980453107
 30
0.0
 10
289.8420518531
 20
31.1980453107
 30
0.0
 10
290.0192265741
 20
31.1980453107
 30
0.0
 10
290.1326759707
 20
31.0823714161
 30
0.0
 10
290.1598933577
 20
30.9101691023
 30
0.0
 10
290.1598933577
 20
30.9101691023
 30
0.0
 10
289.5143963869
 20
30.9101691023
 30
0.0
 10
289.5143963869
 20
30.9101691023
 30
0.0
  0
SPLINE
  5
22B
330
20F
100
AcDbEntity
  8
0
  6
Continuous
 62
     7
100
AcDbSpline
 70
     3
 71
     3
 72
    20
 73
    16
 74
     0
 42
0.000000001
 43
0.0000001
 40
0.0
 40
0.0
 40
0.0
 40
0.0
 40
1.0
 40
1.0
 40
1.0
 40
2.0
 40
2.0
 40
2.0
 40
3.0
 40
3.0
 40
3.0
 40
4.0
 40
4.0
 40
4.0
 40
5.0
 40
5.0
 40
5.0
 40
5.0
 10
292.4055894883
 20
31.1195336175
 30
0.0
 10
292.4055894883
 20
31.1195336175
 30
0.0
 10
292.8167290549
 20
30.6170587811
 30
0.0
 10
292.8167290549
 20
30.6170587811
 30
0.0
 10
292.7006626018
 20
30.5013848865
 30
0.0
 10
292.5628745803
 20
30.3710554758
 30
0.0
 10
292.3909339722
 20
30.3710554758
 30
0.0
 10
292.2134975456
 20
30.3710554758
 30
0.0
 10
292.0460059335
 20
30.5354066202
 30
0.0
 10
292.0460059335
 20
30.7123196355
 30
0.0
 10
292.0460059335
 20
30.8902794734
 30
0.0
 10
292.2557630071
 20
31.0164215938
 30
0.0
 10
292.3833445085
 20
31.1043546901
 30
0.0
 10
292.3833445085
 20
31.1043546901
 30
0.0
 10
292.4055894883
 20
31.1195336175
 30
0.0
 10
292.4055894883
 20
31.1195336175
 30
0.0
  0
SPLINE
  5
22C
330
20F
100
AcDbEntity
  8
0
  6
Continuous
 62
     7
100
AcDbSpline
 70
     3
 71
     3
 72
    23
 73
    19
 74
     0
 42
0.000000001
 43
0.0000001
 40
0.0
 40
0.0
 40
0.0
 40
0.0
 40
1.0
 40
1.0
 40
1.0
 40
2.0
 40
2.0
 40
2.0
 40
3.0
 40
3.0
 40
3.0
 40
4.0
 40
4.0
 40
4.0
 40
5.0
 40
5.0
 40
5.0
 40
6.0
 40
6.0
 40
6.0
 40
6.0
 10
292.4549210022
 20
31.4105502935
 30
0.0
 10
292.4549210022
 20
31.4105502935
 30
0.0
 10
292.393289323
 20
31.4890619867
 30
0.0
 10
292.393289323
 20
31.4890619867
 30
0.0
 10
292.3393779604
 20
31.5576288654
 30
0.0
 10
292.2825878356
 20
31.6267191554
 30
0.0
 10
292.2825878356
 20
31.720409776
 30
0.0
 10
292.2825878356
 20
31.8392241383
 30
0.0
 10
292.3785029541
 20
31.9166890089
 30
0.0
 10
292.4894661472
 20
31.9166890089
 30
0.0
 10
292.6127295054
 20
31.9166890089
 30
0.0
 10
292.7060275675
 20
31.8455050738
 30
0.0
 10
292.7060275675
 20
31.7151756631
 30
0.0
 10
292.7060275675
 20
31.5801355508
 30
0.0
 10
292.5779226548
 20
31.5037175028
 30
0.0
 10
292.4843628871
 20
31.4299165112
 30
0.0
 10
292.4843628871
 20
31.4299165112
 30
0.0
 10
292.4549210022
 20
31.4105502935
 30
0.0
 10
292.4549210022
 20
31.4105502935
 30
0.0
  0
SPLINE
  5
22D
330
20F
100
AcDbEntity
  8
0
  6
Continuous
 62
     7
100
AcDbSpline
 70
     3
 71
     3
 72
    50
 73
    46
 74
     0
 42
0.000000001
 43
0.0000001
 40
0.0
 40
0.0
 40
0.0
 40
0.0
 40
1.0
 40
1.0
 40
1.0
 40
2.0
 40
2.0
 40
2.0
 40
3.0
 40
3.0
 40
3.0
 40
4.0
 40
4.0
 40
4.0
 40
5.0
 40
5.0
 40
5.0
 40
6.0
 40
6.0
 40
6.0
 40
7.0
 40
7.0
 40
7.0
 40
8.0
 40
8.0
 40
8.0
 40
9.0
 40
9.0
 40
9.0
 40
10.0
 40
10.0
 40
10.0
 40
11.0
 40
11.0
 40
11.0
 40
12.0
 40
12.0
 40
12.0
 40
13.0
 40
13.0
 40
13.0
 40
14.0
 40
14.0
 40
14.0
 40
15.0
 40
15.0
 40
15.0
 40
15.0
 10
293.1570772448
 20
30.2035638637
 30
0.0
 10
293.1570772448
 20
30.2035638637
 30
0.0
 10
293.4424672495
 20
30.2035638637
 30
0.0
 10
293.4424672495
 20
30.2035638637
 30
0.0
 10
293.4424672495
 20
30.2035638637
 30
0.0
 10
293.1101010817
 20
30.6144417247
 30
0.0
 10
293.1101010817
 20
30.6144417247
 30
0.0
 10
293.1101010817
 20
30.6144417247
 30
0.0
 10
293.3366073166
 20
30.8803346589
 30
0.0
 10
293.3366073166
 20
30.8803346589
 30
0.0
 10
293.3366073166
 20
30.8803346589
 30
0.0
 10
293.1883510693
 20
31.033170755
 30
0.0
 10
293.1883510693
 20
31.033170755
 30
0.0
 10
293.1883510693
 20
31.033170755
 30
0.0
 10
292.972443913
 20
30.7819333368
 30
0.0
 10
292.972443913
 20
30.7819333368
 30
0.0
 10
292.972443913
 20
30.7819333368
 30
0.0
 10
292.5853812657
 20
31.2498630282
 30
0.0
 10
292.5853812657
 20
31.2498630282
 30
0.0
 10
292.7408344182
 20
31.3639666889
 30
0.0
 10
292.9231123992
 20
31.5037175028
 30
0.0
 10
292.9231123992
 20
31.7130820179
 30
0.0
 10
292.9231123992
 20
31.9569916781
 30
0.0
 10
292.721075642
 20
32.100406371
 30
0.0
 10
292.4945694072
 20
32.100406371
 30
0.0
 10
292.2503980414
 20
32.100406371
 30
0.0
 10
292.0660264153
 20
31.9496639201
 30
0.0
 10
292.0660264153
 20
31.693192389
 30
0.0
 10
292.0660264153
 20
31.5356455913
 30
0.0
 10
292.164689443
 20
31.3979884226
 30
0.0
 10
292.2700259647
 20
31.2870252296
 30
0.0
 10
292.2700259647
 20
31.2870252296
 30
0.0
 10
292.1544829229
 20
31.2032794236
 30
0.0
 10
292.1544829229
 20
31.2032794236
 30
0.0
 10
291.9767847907
 20
31.075043658
 30
0.0
 10
291.8294445132
 20
30.9473313038
 30
0.0
 10
291.8294445132
 20
30.7102259904
 30
0.0
 10
291.8294445132
 20
30.3898982822
 30
0.0
 10
292.0880096894
 20
30.1637846058
 30
0.0
 10
292.3983925831
 20
30.1637846058
 30
0.0
 10
292.6173093542
 20
30.1637846058
 30
0.0
 10
292.8145045569
 20
30.2888799036
 30
0.0
 10
292.9547787821
 20
30.4548012819
 30
0.0
 10
292.9547787821
 20
30.4548012819
 30
0.0
 10
293.1570772448
 20
30.2035638637
 30
0.0
 10
293.1570772448
 20
30.2035638637
 30
0.0
  0
LWPOLYLINE
  5
22E
330
20F
100
AcDbEntity
  8
0
  6
Continuous
 62
     7
100
AcDbPolyline
 90
        2
 70
     0
 43
0.2
 10
295.0925213346
 20
32.0601037018
 10
294.8611735453
 20
32.0601037018
  0
LWPOLYLINE
  5
22F
330
20F
100
AcDbEntity
  8
0
  6
Continuous
 62
     7
100
AcDbPolyline
 90
        2
 70
     0
 43
0.2
 10
294.8611735453
 20
32.0601037018
 10
294.8611735453
 20
30.2030404524
  0
LWPOLYLINE
  5
230
330
20F
100
AcDbEntity
  8
0
  6
Continuous
 62
     7
100
AcDbPolyline
 90
        2
 70
     0
 43
0.2
 10
294.8611735453
 20
30.2030404524
 10
295.6564969972
 20
30.2030404524
  0
LWPOLYLINE
  5
231
330
20F
100
AcDbEntity
  8
0
  6
Continuous
 62
     7
100
AcDbPolyline
 90
        2
 70
     0
 43
0.2
 10
295.6564969972
 20
30.2030404524
 10
295.6564969972
 20
30.415022024
  0
LWPOLYLINE
  5
232
330
20F
100
AcDbEntity
  8
0
  6
Continuous
 62
     7
100
AcDbPolyline
 90
        2
 70
     0
 43
0.2
 10
295.6564969972
 20
30.415022024
 10
295.0925213346
 20
30.415022024
  0
LWPOLYLINE
  5
233
330
20F
100
AcDbEntity
  8
0
  6
Continuous
 62
     7
100
AcDbPolyline
 90
        2
 70
     0
 43
0.2
 10
295.0925213346
 20
30.415022024
 10
295.0925213346
 20
32.0601037018
  0
LWPOLYLINE
  5
234
330
20F
100
AcDbEntity
  8
0
  6
Continuous
 62
     7
100
AcDbPolyline
 90
        2
 70
     0
 43
0.2
 10
297.3356004087
 20
31.3555921083
 10
297.1144591396
 20
31.3555921083
  0
LWPOLYLINE
  5
235
330
20F
100
AcDbEntity
  8
0
  6
Continuous
 62
     7
100
AcDbPolyline
 90
        2
 70
     0
 43
0.2
 10
297.1144591396
 20
31.3555921083
 10
297.1144591396
 20
30.2035638637
  0
LWPOLYLINE
  5
236
330
20F
100
AcDbEntity
  8
0
  6
Continuous
 62
     7
100
AcDbPolyline
 90
        2
 70
     0
 43
0.2
 10
297.1144591396
 20
30.2035638637
 10
297.3356004087
 20
30.2035638637
  0
LWPOLYLINE
  5
237
330
20F
100
AcDbEntity
  8
0
  6
Continuous
 62
     7
100
AcDbPolyline
 90
        2
 70
     0
 43
0.2
 10
297.3356004087
 20
30.2035638637
 10
297.3356004087
 20
31.3555921083
  0
LWPOLYLINE
  5
238
330
20F
100
AcDbEntity
  8
0
  6
Continuous
 62
     7
100
AcDbPolyline
 90
        2
 70
     1
 43
0.2
 10
297.0725771315
 20
31.8855460373
 42
1.0
 10
297.3777441224
 20
31.8855460373
 42
1.0
  0
SPLINE
  5
239
330
20F
100
AcDbEntity
  8
0
  6
Continuous
 62
     7
100
AcDbSpline
 70
     3
 71
     3
 72
    17
 73
    13
 74
     0
 42
0.000000001
 43
0.0000001
 40
0.0
 40
0.0
 40
0.0
 40
0.0
 40
1.0
 40
1.0
 40
1.0
 40
2.0
 40
2.0
 40
2.0
 40
3.0
 40
3.0
 40
3.0
 40
4.0
 40
4.0
 40
4.0
 40
4.0
 10
299.4658843504
 20
30.3611106614
 30
0.0
 10
299.2319195047
 20
30.3611106614
 30
0.0
 10
299.101590094
 20
30.5631474185
 30
0.0
 10
299.101590094
 20
30.7793162804
 30
0.0
 10
299.101590094
 20
30.9939149084
 30
0.0
 10
299.2374153232
 20
31.1928111978
 30
0.0
 10
299.4658843504
 20
31.1928111978
 30
0.0
 10
299.7053450146
 20
31.1928111978
 30
0.0
 10
299.8409085381
 20
31.0038597229
 30
0.0
 10
299.8409085381
 20
30.7793162804
 30
0.0
 10
299.8409085381
 20
30.553202604
 30
0.0
 10
299.7077003654
 20
30.3611106614
 30
0.0
 10
299.4658843504
 20
30.3611106614
 30
0.0
  0
SPLINE
  5
23A
330
20F
100
AcDbEntity
  8
0
  6
Continuous
 62
     7
100
AcDbSpline
 70
     3
 71
     3
 72
    50
 73
    46
 74
     0
 42
0.000000001
 43
0.0000001
 40
0.0
 40
0.0
 40
0.0
 40
0.0
 40
1.0
 40
1.0
 40
1.0
 40
2.0
 40
2.0
 40
2.0
 40
3.0
 40
3.0
 40
3.0
 40
4.0
 40
4.0
 40
4.0
 40
5.0
 40
5.0
 40
5.0
 40
6.0
 40
6.0
 40
6.0
 40
7.0
 40
7.0
 40
7.0
 40
8.0
 40
8.0
 40
8.0
 40
9.0
 40
9.0
 40
9.0
 40
10.0
 40
10.0
 40
10.0
 40
11.0
 40
11.0
 40
11.0
 40
12.0
 40
12.0
 40
12.0
 40
13.0
 40
13.0
 40
13.0
 40
14.0
 40
14.0
 40
14.0
 40
15.0
 40
15.0
 40
15.0
 40
15.0
 10
300.0500113476
 20
31.3561155196
 30
0.0
 10
300.0500113476
 20
31.3561155196
 30
0.0
 10
299.8283466672
 20
31.3561155196
 30
0.0
 10
299.8283466672
 20
31.3561155196
 30
0.0
 10
299.8283466672
 20
31.3561155196
 30
0.0
 10
299.8283466672
 20
31.1587894641
 30
0.0
 10
299.8283466672
 20
31.1587894641
 30
0.0
 10
299.8283466672
 20
31.1587894641
 30
0.0
 10
299.8236359656
 20
31.1587894641
 30
0.0
 10
299.8236359656
 20
31.1587894641
 30
0.0
 10
299.7323006959
 20
31.3016807457
 30
0.0
 10
299.5943818215
 20
31.3901372533
 30
0.0
 10
299.4216560965
 20
31.3901372533
 30
0.0
 10
299.0892899287
 20
31.3901372533
 30
0.0
 10
298.8801871192
 20
31.102261045
 30
0.0
 10
298.8801871192
 20
30.7866440384
 30
0.0
 10
298.8801871192
 20
30.456894927
 30
0.0
 10
299.0772514691
 20
30.1637846058
 30
0.0
 10
299.4321243223
 20
30.1637846058
 30
0.0
 10
299.5943818215
 20
30.1637846058
 30
0.0
 10
299.734394341
 20
30.2522411135
 30
0.0
 10
299.8236359656
 20
30.3830939355
 30
0.0
 10
299.8236359656
 20
30.3830939355
 30
0.0
 10
299.8283466672
 20
30.3830939355
 30
0.0
 10
299.8283466672
 20
30.3830939355
 30
0.0
 10
299.8283466672
 20
30.3830939355
 30
0.0
 10
299.8283466672
 20
30.1637846058
 30
0.0
 10
299.8283466672
 20
30.1637846058
 30
0.0
 10
299.8283466672
 20
29.9272027037
 30
0.0
 10
299.7718182481
 20
29.740344874
 30
0.0
 10
299.4985975558
 20
29.740344874
 30
0.0
 10
299.2962990931
 20
29.740344874
 30
0.0
 10
299.1536695171
 20
29.858635825
 30
0.0
 10
299.1536695171
 20
30.0648598724
 30
0.0
 10
299.1536695171
 20
30.0648598724
 30
0.0
 10
298.9320048367
 20
30.0648598724
 30
0.0
 10
298.9320048367
 20
30.0648598724
 30
0.0
 10
298.936977244
 20
29.740344874
 30
0.0
 10
299.1680633276
 20
29.5435422297
 30
0.0
 10
299.4883910357
 20
29.5435422297
 30
0.0
 10
299.9364310982
 20
29.5435422297
 30
0.0
 10
300.0500113476
 20
29.8288013816
 30
0.0
 10
300.0500113476
 20
30.2255471378
 30
0.0
 10
300.0500113476
 20
30.2255471378
 30
0.0
 10
300.0500113476
 20
31.3561155196
 30
0.0
 10
300.0500113476
 20
31.3561155196
 30
0.0
  0
SPLINE
  5
23B
330
20F
100
AcDbEntity
  8
0
  6
Continuous
 62
     7
100
AcDbSpline
 70
     3
 71
     3
 72
    44
 73
    40
 74
     0
 42
0.000000001
 43
0.0000001
 40
0.0
 40
0.0
 40
0.0
 40
0.0
 40
1.0
 40
1.0
 40
1.0
 40
2.0
 40
2.0
 40
2.0
 40
3.0
 40
3.0
 40
3.0
 40
4.0
 40
4.0
 40
4.0
 40
5.0
 40
5.0
 40
5.0
 40
6.0
 40
6.0
 40
6.0
 40
7.0
 40
7.0
 40
7.0
 40
8.0
 40
8.0
 40
8.0
 40
9.0
 40
9.0
 40
9.0
 40
10.0
 40
10.0
 40
10.0
 40
11.0
 40
11.0
 40
11.0
 40
12.0
 40
12.0
 40
12.0
 40
13.0
 40
13.0
 40
13.0
 40
13.0
 10
301.618936683
 20
32.3411755634
 30
0.0
 10
301.618936683
 20
32.3411755634
 30
0.0
 10
301.618936683
 20
30.2030404524
 30
0.0
 10
301.618936683
 20
30.2030404524
 30
0.0
 10
301.618936683
 20
30.2030404524
 30
0.0
 10
301.8403396578
 20
30.2030404524
 30
0.0
 10
301.8403396578
 20
30.2030404524
 30
0.0
 10
301.8403396578
 20
30.2030404524
 30
0.0
 10
301.8403396578
 20
30.7327326758
 30
0.0
 10
301.8403396578
 20
30.7327326758
 30
0.0
 10
301.8403396578
 20
30.9426206022
 30
0.0
 10
301.8403396578
 20
31.1933346091
 30
0.0
 10
302.1255988097
 20
31.1933346091
 30
0.0
 10
302.352497603
 20
31.1933346091
 30
0.0
 10
302.3794532843
 20
31.060388142
 30
0.0
 10
302.3794532843
 20
30.864108909
 30
0.0
 10
302.3794532843
 20
30.864108909
 30
0.0
 10
302.3794532843
 20
30.2030404524
 30
0.0
 10
302.3794532843
 20
30.2030404524
 30
0.0
 10
302.3794532843
 20
30.2030404524
 30
0.0
 10
302.6013796703
 20
30.2030404524
 30
0.0
 10
302.6013796703
 20
30.2030404524
 30
0.0
 10
302.6013796703
 20
30.2030404524
 30
0.0
 10
302.6013796703
 20
30.8902794734
 30
0.0
 10
302.6013796703
 20
30.8902794734
 30
0.0
 10
302.6013796703
 20
31.1708279237
 30
0.0
 10
302.5173721586
 20
31.3906606646
 30
0.0
 10
302.1923337489
 20
31.3906606646
 30
0.0
 10
302.052582935
 20
31.3906606646
 30
0.0
 10
301.914402355
 20
31.324187431
 30
0.0
 10
301.8450503594
 20
31.2011857784
 30
0.0
 10
301.8450503594
 20
31.2011857784
 30
0.0
 10
301.8403396578
 20
31.2011857784
 30
0.0
 10
301.8403396578
 20
31.2011857784
 30
0.0
 10
301.8403396578
 20
31.2011857784
 30
0.0
 10
301.8403396578
 20
32.3411755634
 30
0.0
 10
301.8403396578
 20
32.3411755634
 30
0.0
 10
301.8403396578
 20
32.3411755634
 30
0.0
 10
301.618936683
 20
32.3411755634
 30
0.0
 10
301.618936683
 20
32.3411755634
 30
0.0
  0
LWPOLYLINE
  5
23C
330
20F
100
AcDbEntity
  8
0
  6
Continuous
 62
     7
100
AcDbPolyline
 90
        2
 70
     0
 43
0.2
 10
304.4411703472
 20
31.1488446496
 10
304.6576009147
 20
31.1488446496
  0
LWPOLYLINE
  5
23D
330
20F
100
AcDbEntity
  8
0
  6
Continuous
 62
     7
100
AcDbPolyline
 90
        2
 70
     0
 43
0.2
 10
304.6576009147
 20
31.1488446496
 10
304.6576009147
 20
31.3555921083
  0
LWPOLYLINE
  5
23E
330
20F
100
AcDbEntity
  8
0
  6
Continuous
 62
     7
100
AcDbPolyline
 90
        2
 70
     0
 43
0.2
 10
304.6576009147
 20
31.3555921083
 10
304.4411703472
 20
31.3555921083
  0
LWPOLYLINE
  5
23F
330
20F
100
AcDbEntity
  8
0
  6
Continuous
 62
     7
100
AcDbPolyline
 90
        2
 70
     0
 43
0.2
 10
304.4411703472
 20
31.3555921083
 10
304.4411703472
 20
31.7963044127
  0
LWPOLYLINE
  5
240
330
20F
100
AcDbEntity
  8
0
  6
Continuous
 62
     7
100
AcDbPolyline
 90
        2
 70
     0
 43
0.2
 10
304.4411703472
 20
31.7963044127
 10
304.2195056668
 20
31.7963044127
  0
LWPOLYLINE
  5
241
330
20F
100
AcDbEntity
  8
0
  6
Continuous
 62
     7
100
AcDbPolyline
 90
        2
 70
     0
 43
0.2
 10
304.2195056668
 20
31.7963044127
 10
304.2195056668
 20
31.3555921083
  0
LWPOLYLINE
  5
242
330
20F
100
AcDbEntity
  8
0
  6
Continuous
 62
     7
100
AcDbPolyline
 90
        2
 70
     0
 43
0.2
 10
304.2195056668
 20
31.3555921083
 10
304.0988593649
 20
31.3555921083
  0
LWPOLYLINE
  5
243
330
20F
100
AcDbEntity
  8
0
  6
Continuous
 62
     7
100
AcDbPolyline
 90
        2
 70
     0
 43
0.2
 10
304.0988593649
 20
31.3555921083
 10
304.0988593649
 20
31.1488446496
  0
LWPOLYLINE
  5
244
330
20F
100
AcDbEntity
  8
0
  6
Continuous
 62
     7
100
AcDbPolyline
 90
        2
 70
     0
 43
0.2
 10
304.0988593649
 20
31.1488446496
 10
304.2195056668
 20
31.1488446496
  0
LWPOLYLINE
  5
245
330
20F
100
AcDbEntity
  8
0
  6
Continuous
 62
     7
100
AcDbPolyline
 90
        2
 70
     0
 43
0.2
 10
304.2195056668
 20
31.1488446496
 10
304.2195056668
 20
30.2030404524
  0
LWPOLYLINE
  5
246
330
20F
100
AcDbEntity
  8
0
  6
Continuous
 62
     7
100
AcDbPolyline
 90
        2
 70
     0
 43
0.2
 10
304.2195056668
 20
30.2030404524
 10
304.4411703472
 20
30.2030404524
  0
LWPOLYLINE
  5
247
330
20F
100
AcDbEntity
  8
0
  6
Continuous
 62
     7
100
AcDbPolyline
 90
        2
 70
     0
 43
0.2
 10
304.4411703472
 20
30.2030404524
 10
304.4411703472
 20
31.1488446496
  0
SPLINE
  5
248
330
20F
100
AcDbEntity
  8
0
  6
Continuous
 62
     7
100
AcDbSpline
 70
     3
 71
     3
 72
    20
 73
    16
 74
     0
 42
0.000000001
 43
0.0000001
 40
0.0
 40
0.0
 40
0.0
 40
0.0
 40
1.0
 40
1.0
 40
1.0
 40
2.0
 40
2.0
 40
2.0
 40
3.0
 40
3.0
 40
3.0
 40
4.0
 40
4.0
 40
4.0
 40
5.0
 40
5.0
 40
5.0
 40
5.0
 10
292.2231806545
 20
40.5639668958
 30
0.0
 10
292.2231806545
 20
40.5639668958
 30
0.0
 10
294.5395373089
 20
37.7344054736
 30
0.0
 10
294.5395373089
 20
37.7344054736
 30
0.0
 10
293.8878902555
 20
37.0822350089
 30
0.0
 10
293.1110170515
 20
36.3463187382
 30
0.0
 10
292.1398274069
 20
36.3463187382
 30
0.0
 10
291.1412895224
 20
36.3463187382
 30
0.0
 10
290.1979715289
 20
37.2758971854
 30
0.0
 10
290.1979715289
 20
38.275089334
 30
0.0
 10
290.1979715289
 20
39.2742814825
 30
0.0
 10
291.376824602
 20
39.9808867211
 30
0.0
 10
292.0983470623
 20
40.480744501
 30
0.0
 10
292.0983470623
 20
40.480744501
 30
0.0
 10
292.2231806545
 20
40.5639668958
 30
0.0
 10
292.2231806545
 20
40.5639668958
 30
0.0
  0
SPLINE
  5
249
330
20F
100
AcDbEntity
  8
0
  6
Continuous
 62
     7
100
AcDbSpline
 70
     3
 71
     3
 72
    23
 73
    19
 74
     0
 42
0.000000001
 43
0.0000001
 40
0.0
 40
0.0
 40
0.0
 40
0.0
 40
1.0
 40
1.0
 40
1.0
 40
2.0
 40
2.0
 40
2.0
 40
3.0
 40
3.0
 40
3.0
 40
4.0
 40
4.0
 40
4.0
 40
5.0
 40
5.0
 40
5.0
 40
6.0
 40
6.0
 40
6.0
 40
6.0
 10
292.500588637
 20
42.2017208156
 30
0.0
 10
292.500588637
 20
42.2017208156
 30
0.0
 10
292.1540903645
 20
42.6450501764
 30
0.0
 10
292.1540903645
 20
42.6450501764
 30
0.0
 10
291.8482873195
 20
43.0331596463
 30
0.0
 10
291.5293989924
 20
43.4216616748
 30
0.0
 10
291.5293989924
 20
43.9486059888
 30
0.0
 10
291.5293989924
 20
44.6147777055
 30
0.0
 10
292.0707371169
 20
45.0584996248
 30
0.0
 10
292.694643372
 20
45.0584996248
 30
0.0
 10
293.3884250341
 20
45.0584996248
 30
0.0
 10
293.9156310538
 20
44.65625805
 30
0.0
 10
293.9156310538
 20
43.921257749
 30
0.0
 10
293.9156310538
 20
43.1579932385
 30
0.0
 10
293.1943702991
 20
42.7278800127
 30
0.0
 10
292.6672951322
 20
42.3121605973
 30
0.0
 10
292.6672951322
 20
42.3121605973
 30
0.0
 10
292.500588637
 20
42.2017208156
 30
0.0
 10
292.500588637
 20
42.2017208156
 30
0.0
  0
SPLINE
  5
24A
330
20F
100
AcDbEntity
  8
0
  6
Continuous
 62
     7
100
AcDbSpline
 70
     3
 71
     3
 72
    50
 73
    46
 74
     0
 42
0.000000001
 43
0.0000001
 40
0.0
 40
0.0
 40
0.0
 40
0.0
 40
1.0
 40
1.0
 40
1.0
 40
2.0
 40
2.0
 40
2.0
 40
3.0
 40
3.0
 40
3.0
 40
4.0
 40
4.0
 40
4.0
 40
5.0
 40
5.0
 40
5.0
 40
6.0
 40
6.0
 40
6.0
 40
7.0
 40
7.0
 40
7.0
 40
8.0
 40
8.0
 40
8.0
 40
9.0
 40
9.0
 40
9.0
 40
10.0
 40
10.0
 40
10.0
 40
11.0
 40
11.0
 40
11.0
 40
12.0
 40
12.0
 40
12.0
 40
13.0
 40
13.0
 40
13.0
 40
14.0
 40
14.0
 40
14.0
 40
15.0
 40
15.0
 40
15.0
 40
15.0
 10
296.4541758
 20
35.4031315974
 30
0.0
 10
296.4541758
 20
35.4031315974
 30
0.0
 10
298.0634038045
 20
35.4031315974
 30
0.0
 10
298.0634038045
 20
35.4031315974
 30
0.0
 10
298.0634038045
 20
35.4031315974
 30
0.0
 10
296.1903765109
 20
37.7202733688
 30
0.0
 10
296.1903765109
 20
37.7202733688
 30
0.0
 10
296.1903765109
 20
37.7202733688
 30
0.0
 10
297.4667149363
 20
39.2177530634
 30
0.0
 10
297.4667149363
 20
39.2177530634
 30
0.0
 10
297.4667149363
 20
39.2177530634
 30
0.0
 10
296.6344909886
 20
40.078764632
 30
0.0
 10
296.6344909886
 20
40.078764632
 30
0.0
 10
296.6344909886
 20
40.078764632
 30
0.0
 10
295.4138958653
 20
38.6634605096
 30
0.0
 10
295.4138958653
 20
38.6634605096
 30
0.0
 10
295.4138958653
 20
38.6634605096
 30
0.0
 10
293.2359814965
 20
41.298836344
 30
0.0
 10
293.2359814965
 20
41.298836344
 30
0.0
 10
294.1095549359
 20
41.9368747039
 30
0.0
 10
295.1362261771
 20
42.7278800127
 30
0.0
 10
295.1362261771
 20
43.9067330858
 30
0.0
 10
295.1362261771
 20
45.2804260108
 30
0.0
 10
293.9983300373
 20
46.0849091603
 30
0.0
 10
292.7230384344
 20
46.0849091603
 30
0.0
 10
291.349607215
 20
46.0849091603
 30
0.0
 10
290.3086730162
 20
45.2386839606
 30
0.0
 10
290.3086730162
 20
43.7960315984
 30
0.0
 10
290.3086730162
 20
42.908456907
 30
0.0
 10
290.8640123927
 20
42.131583703
 30
0.0
 10
291.4601778496
 20
41.5071540366
 30
0.0
 10
291.4601778496
 20
41.5071540366
 30
0.0
 10
290.8082690905
 20
41.0355604662
 30
0.0
 10
290.8082690905
 20
41.0355604662
 30
0.0
 10
289.8097312061
 20
40.3142997115
 30
0.0
 10
288.9768529943
 20
39.5930389568
 30
0.0
 10
288.9768529943
 20
38.2614806405
 30
0.0
 10
288.9768529943
 20
36.4578053425
 30
0.0
 10
290.4338991669
 20
35.1812052114
 30
0.0
 10
292.1814386042
 20
35.1812052114
 30
0.0
 10
293.4162966852
 20
35.1812052114
 30
0.0
 10
294.5256669098
 20
35.8893806839
 30
0.0
 10
295.3165413658
 20
36.8179123085
 30
0.0
 10
295.3165413658
 20
36.8179123085
 30
0.0
 10
296.4541758
 20
35.4031315974
 30
0.0
 10
296.4541758
 20
35.4031315974
 30
0.0
  0
LINE
  5
24B
330
20F
100
AcDbEntity
  8
0
  6
Continuous
 62
     7
100
AcDbLine
 10
282.2570371749
 20
33.3770065021
 30
0.0
 11
304.6709479026
 21
33.3770065021
 31
0.0
  0
LINE
  5
24C
330
20F
100
AcDbEntity
  8
0
  6
Continuous
 62
     7
100
AcDbLine
 10
304.6709479026
 20
33.3770065021
 30
0.0
 11
304.6709479026
 21
55.7909172297
 31
0.0
  0
LINE
  5
24D
330
20F
100
AcDbEntity
  8
0
  6
Continuous
 62
     7
100
AcDbLine
 10
304.6709479026
 20
55.7909172297
 30
0.0
 11
282.2570371749
 21
55.7909172297
 31
0.0
  0
LINE
  5
24E
330
20F
100
AcDbEntity
  8
0
  6
Continuous
 62
     7
100
AcDbLine
 10
282.2570371749
 20
55.7909172297
 30
0.0
 11
282.2570371749
 21
33.3770065021
 31
0.0
  0
ENDBLK
  5
24F
330
20F
100
AcDbEntity
  8
0
  6
ByBlock
 62
     0
100
AcDbBlockEnd
  0
BLOCK
  5
250
330
210
100
AcDbEntity
  8
0
100
AcDbBlockBegin
  2
PROIEZIONE_EU_BL0
 70
     0
 10
294.6378800676
 20
68.2922297297
 30
0.0
  3
PROIEZIONE_EU_BL0
  1

  0
LWPOLYLINE
  5
251
330
210
100
AcDbEntity
  8
DEFAULT_1
  6
CENTER
 62
     7
100
AcDbPolyline
 90
        2
 70
     0
 43
0.25
 10
300.7645007292
 20
73.2919238616
 10
300.7645417116
 20
63.2925355978
  0
LWPOLYLINE
  5
252
330
210
100
AcDbEntity
  8
DEFAULT_1
  6
CENTER
 62
     7
100
AcDbPolyline
 90
        2
 70
     0
 43
0.25
 10
306.7645305543
 20
68.2925008648
 10
282.5112295808
 20
68.2922302044
  0
LWPOLYLINE
  5
253
330
210
100
AcDbEntity
  8
0
  6
Continuous
 62
     7
100
AcDbPolyline
 90
        2
 70
     1
 43
0.25
 10
297.2173905534
 20
68.2736819755
 42
1.0
 10
304.3237196521
 20
68.2736819755
 42
1.0
  0
LWPOLYLINE
  5
254
330
210
100
AcDbEntity
  8
0
  6
Continuous
 62
     7
100
AcDbPolyline
 90
        2
 70
     1
 43
0.25
 10
298.7671343818
 20
68.2915800201
 42
1.0
 10
302.7788861319
 20
68.2915800201
 42
1.0
  0
LWPOLYLINE
  5
255
330
210
100
AcDbEntity
  8
0
  6
Continuous
 62
     7
100
AcDbPolyline
 90
        2
 70
     0
 43
0.25
 10
294.7645283483
 20
71.8674332249
 10
294.7645279937
 20
64.7672303166
  0
LWPOLYLINE
  5
256
330
210
100
AcDbEntity
  8
0
  6
Continuous
 62
     7
100
AcDbPolyline
 90
        2
 70
     0
 43
0.25
 10
294.7645564301
 20
64.7672018802
 10
284.7699991589
 20
66.2872952931
  0
LWPOLYLINE
  5
257
330
210
100
AcDbEntity
  8
0
  6
Continuous
 62
     7
100
AcDbPolyline
 90
        2
 70
     0
 43
0.25
 10
284.7676891733
 20
66.2866177515
 10
284.7650222692
 20
70.292256363
  0
LWPOLYLINE
  5
258
330
210
100
AcDbEntity
  8
0
  6
Continuous
 62
     7
100
AcDbPolyline
 90
        2
 70
     0
 43
0.25
 10
284.7650139932
 20
70.2922480869
 10
294.7647572304
 20
71.867405307
  0
ENDBLK
  5
259
330
210
100
AcDbEntity
  8
0
  6
ByBlock
 62
     0
100
AcDbBlockEnd
  0
ENDSEC
  0
SECTION
  2
ENTITIES
  0
LINE
  5
26E
330
1B
100
AcDbEntity
 67
     1
  8
0
  6
Continuous
 62
     7
100
AcDbLine
 10
0.0
 20
0.0
 30
0.0
 11
420.0
 21
0.0
 31
0.0
  0
LINE
  5
26F
330
1B
100
AcDbEntity
 67
     1
  8
0
  6
Continuous
 62
     7
100
AcDbLine
 10
420.0
 20
0.0
 30
0.0
 11
420.0
 21
297.0
 31
0.0
  0
LINE
  5
270
330
1B
100
AcDbEntity
 67
     1
  8
0
  6
Continuous
 62
     7
100
AcDbLine
 10
0.0
 20
297.0
 30
0.0
 11
420.0
 21
297.0
 31
0.0
  0
LINE
  5
271
330
1B
100
AcDbEntity
 67
     1
  8
0
  6
Continuous
 62
     7
100
AcDbLine
 10
0.0
 20
0.0
 30
0.0
 11
0.0
 21
297.0
 31
0.0
  0
LWPOLYLINE
  5
272
330
1B
100
AcDbEntity
 67
     1
  8
0
  6
Continuous
 62
     7
100
AcDbPolyline
 90
        2
 70
     0
 43
0.5
 10
410.0
 20
10.0318435754
 10
410.0
 20
287.0
  0
LWPOLYLINE
  5
273
330
1B
100
AcDbEntity
 67
     1
  8
0
  6
Continuous
 62
     7
100
AcDbPolyline
 90
        2
 70
     0
 43
0.5
 10
10.0536312849
 20
10.0318435754
 10
10.0536312849
 20
287.0
  0
LWPOLYLINE
  5
274
330
1B
100
AcDbEntity
 67
     1
  8
0
  6
Continuous
 62
     7
100
AcDbPolyline
 90
        2
 70
     0
 43
0.5
 10
10.0536312849
 20
10.0318435754
 10
410.0
 20
10.0318435754
  0
LWPOLYLINE
  5
275
330
1B
100
AcDbEntity
 67
     1
  8
0
  6
Continuous
 62
     7
100
AcDbPolyline
 90
        2
 70
     0
 43
0.1
 10
210.0
 20
10.0
 10
210.0
 20
0.0
  0
LWPOLYLINE
  5
276
330
1B
100
AcDbEntity
 67
     1
  8
0
  6
Continuous
 62
     7
100
AcDbPolyline
 90
        2
 70
     0
 43
0.1
 10
210.0
 20
287.0
 10
210.0
 20
297.0
  0
LWPOLYLINE
  5
277
330
1B
100
AcDbEntity
 67
     1
  8
0
  6
Continuous
 62
     7
100
AcDbPolyline
 90
        2
 70
     0
 43
0.1
 10
410.0
 20
148.5
 10
420.0
 20
148.5
  0
LWPOLYLINE
  5
278
330
1B
100
AcDbEntity
 67
     1
  8
0
  6
Continuous
 62
     7
100
AcDbPolyline
 90
        2
 70
     0
 43
0.1
 10
10.0
 20
148.5
 10
0.0
 20
148.5
  0
LWPOLYLINE
  5
279
330
1B
100
AcDbEntity
 67
     1
  8
0
  6
Continuous
 62
     7
100
AcDbPolyline
 90
        2
 70
     0
 43
0.5
 10
10.0536312849
 20
287.0
 10
410.0
 20
287.0
  0
LWPOLYLINE
  5
27A
330
1B
100
AcDbEntity
 67
     1
  8
0
  6
Continuous
 62
     7
100
AcDbPolyline
 90
        2
 70
     0
 43
0.1
 10
0.0
 20
290.0
 10
420.0
 20
290.0
  0
LWPOLYLINE
  5
27B
330
1B
100
AcDbEntity
 67
     1
  8
0
  6
Continuous
 62
     7
100
AcDbPolyline
 90
        2
 70
     0
 43
0.1
 10
7.0536312849
 20
0.0
 10
7.0536312849
 20
297.0
  0
LWPOLYLINE
  5
27C
330
1B
100
AcDbEntity
 67
     1
  8
0
  6
Continuous
 62
     7
100
AcDbPolyline
 90
        2
 70
     0
 43
0.1
 10
413.0
 20
0.0
 10
413.0
 20
297.0
  0
LWPOLYLINE
  5
27D
330
1B
100
AcDbEntity
 67
     1
  8
0
  6
Continuous
 62
     7
100
AcDbPolyline
 90
        2
 70
     0
 43
0.1
 10
0.0
 20
7.0318435754
 10
420.0
 20
7.0318435754
  0
LWPOLYLINE
  5
27E
330
1B
100
AcDbEntity
 67
     1
  8
0
  6
Continuous
 62
     7
100
AcDbPolyline
 90
        2
 70
     0
 43
0.1
 10
10.0
 20
202.9681564246
 10
0.0
 20
202.9681564246
  0
LINE
  5
27F
330
1B
100
AcDbEntity
 67
     1
  8
0
  6
Continuous
 62
     7
100
AcDbLine
 10
0.0
 20
99.9681564246
 30
0.0
 11
7.0
 21
99.9681564246
 31
0.0
  0
LINE
  5
280
330
1B
100
AcDbEntity
 67
     1
  8
0
  6
Continuous
 62
     7
100
AcDbLine
 10
0.0
 20
199.9681564246
 30
0.0
 11
7.0
 21
199.9681564246
 31
0.0
  0
LWPOLYLINE
  5
281
330
1B
100
AcDbEntity
 67
     1
  8
0
  6
Continuous
 62
     7
100
AcDbPolyline
 90
        2
 70
     0
 43
0.1
 10
410.0
 20
210.0
 10
420.0
 20
210.0
  0
LINE
  5
282
330
1B
100
AcDbEntity
 67
     1
  8
0
  6
Continuous
 62
     7
100
AcDbLine
 10
413.0
 20
107.0
 30
0.0
 11
420.0
 21
107.0
 31
0.0
  0
LWPOLYLINE
  5
283
330
1B
100
AcDbEntity
 67
     1
  8
0
  6
Continuous
 62
     7
100
AcDbPolyline
 90
        2
 70
     0
 43
0.1
 10
123.0
 20
10.0
 10
123.0
 20
0.0
  0
LINE
  5
284
330
1B
100
AcDbEntity
 67
     1
  8
0
  6
Continuous
 62
     7
100
AcDbLine
 10
210.0
 20
0.0
 30
0.0
 11
210.0
 21
10.0
 31
0.0
  0
LINE
  5
285
330
1B
100
AcDbEntity
 67
     1
  8
0
  6
Continuous
 62
     7
100
AcDbLine
 10
313.0
 20
7.0
 30
0.0
 11
313.0
 21
0.0
 31
0.0
  0
LINE
  5
286
330
1B
100
AcDbEntity
 67
     1
  8
0
  6
Continuous
 62
     7
100
AcDbLine
 10
113.0
 20
7.0
 30
0.0
 11
113.0
 21
0.0
 31
0.0
  0
LWPOLYLINE
  5
287
330
1B
100
AcDbEntity
 67
     1
  8
0
  6
Continuous
 62
     7
100
AcDbPolyline
 90
        2
 70
     0
 43
0.1
 10
123.0
 20
287.0
 10
123.0
 20
297.0
  0
LINE
  5
288
330
1B
100
AcDbEntity
 67
     1
  8
0
  6
Continuous
 62
     7
100
AcDbLine
 10
210.0
 20
287.0
 30
0.0
 11
210.0
 21
297.0
 31
0.0
  0
LINE
  5
289
330
1B
100
AcDbEntity
 67
     1
  8
0
  6
Continuous
 62
     7
100
AcDbLine
 10
313.0
 20
297.0
 30
0.0
 11
313.0
 21
290.0
 31
0.0
  0
LINE
  5
28A
330
1B
100
AcDbEntity
 67
     1
  8
0
  6
Continuous
 62
     7
100
AcDbLine
 10
113.0
 20
297.0
 30
0.0
 11
113.0
 21
290.0
 31
0.0
  0
MTEXT
  5
28B
330
1B
100
AcDbEntity
 67
     1
  8
0
  6
Continuous
 62
     2
100
AcDbMText
 10
1.6467220993
 20
53.595027386
 30
0.0
 40
4.0
 41
3.4285714286
 46
0.0
 71
     1
 72
     1
  1
1
  7
TEXTSTYLE_2
 73
     1
 44
1.0
  0
MTEXT
  5
28C
330
1B
100
AcDbEntity
 67
     1
  8
0
  6
Continuous
 62
     2
100
AcDbMText
 10
1.6467220993
 20
153.595027386
 30
0.0
 40
4.0
 41
4.7142857143
 46
0.0
 71
     1
 72
     1
  1
2
  7
TEXTSTYLE_2
 73
     1
 44
1.0
  0
MTEXT
  5
28D
330
1B
100
AcDbEntity
 67
     1
  8
0
  6
Continuous
 62
     2
100
AcDbMText
 10
1.6467220993
 20
253.595027386
 30
0.0
 40
4.0
 41
4.2857142857
 46
0.0
 71
     1
 72
     1
  1
3
  7
TEXTSTYLE_2
 73
     1
 44
1.0
  0
MTEXT
  5
28E
330
1B
100
AcDbEntity
 67
     1
  8
0
  6
Continuous
 62
     2
100
AcDbMText
 10
414.6467220993
 20
60.6268709614
 30
0.0
 40
4.0
 41
3.4285714286
 46
0.0
 71
     1
 72
     1
  1
1
  7
TEXTSTYLE_2
 73
     1
 44
1.0
  0
MTEXT
  5
28F
330
1B
100
AcDbEntity
 67
     1
  8
0
  6
Continuous
 62
     2
100
AcDbMText
 10
414.6467220993
 20
160.6268709614
 30
0.0
 40
4.0
 41
4.7142857143
 46
0.0
 71
     1
 72
     1
  1
2
  7
TEXTSTYLE_2
 73
     1
 44
1.0
  0
MTEXT
  5
290
330
1B
100
AcDbEntity
 67
     1
  8
0
  6
Continuous
 62
     2
100
AcDbMText
 10
414.6467220993
 20
260.6268709614
 30
0.0
 40
4.0
 41
4.2857142857
 46
0.0
 71
     1
 72
     1
  1
3
  7
TEXTSTYLE_2
 73
     1
 44
1.0
  0
MTEXT
  5
291
330
1B
100
AcDbEntity
 67
     1
  8
0
  6
Continuous
 62
     2
100
AcDbMText
 10
362.154890719
 20
5.35876025
 30
0.0
 40
4.0
 41
3.6
 46
0.0
 71
     1
 72
     1
  1
A
  7
TEXTSTYLE_3
 73
     1
 44
1.0
  0
MTEXT
  5
292
330
1B
100
AcDbEntity
 67
     1
  8
0
  6
Continuous
 62
     2
100
AcDbMText
 10
262.154890719
 20
5.35876025
 30
0.0
 40
4.0
 41
3.6
 46
0.0
 71
     1
 72
     1
  1
B
  7
TEXTSTYLE_3
 73
     1
 44
1.0
  0
MTEXT
  5
293
330
1B
100
AcDbEntity
 67
     1
  8
0
  6
Continuous
 62
     2
100
AcDbMText
 10
162.154890719
 20
5.35876025
 30
0.0
 40
4.0
 41
3.6
 46
0.0
 71
     1
 72
     1
  1
C
  7
TEXTSTYLE_3
 73
     1
 44
1.0
  0
MTEXT
  5
294
330
1B
100
AcDbEntity
 67
     1
  8
0
  6
Continuous
 62
     2
100
AcDbMText
 10
55.7978688212
 20
5.5353441916
 30
0.0
 40
4.0
 41
3.6
 46
0.0
 71
     1
 72
     1
  1
D
  7
TEXTSTYLE_3
 73
     1
 44
1.0
  0
MTEXT
  5
295
330
1B
100
AcDbEntity
 67
     1
  8
0
  6
Continuous
 62
     2
100
AcDbMText
 10
362.154890719
 20
295.35876025
 30
0.0
 40
4.0
 41
3.6
 46
0.0
 71
     1
 72
     1
  1
A
  7
TEXTSTYLE_3
 73
     1
 44
1.0
  0
MTEXT
  5
296
330
1B
100
AcDbEntity
 67
     1
  8
0
  6
Continuous
 62
     2
100
AcDbMText
 10
262.154890719
 20
295.35876025
 30
0.0
 40
4.0
 41
3.6
 46
0.0
 71
     1
 72
     1
  1
B
  7
TEXTSTYLE_3
 73
     1
 44
1.0
  0
MTEXT
  5
297
330
1B
100
AcDbEntity
 67
     1
  8
0
  6
Continuous
 62
     2
100
AcDbMText
 10
162.154890719
 20
295.35876025
 30
0.0
 40
4.0
 41
3.6
 46
0.0
 71
     1
 72
     1
  1
C
  7
TEXTSTYLE_3
 73
     1
 44
1.0
  0
MTEXT
  5
298
330
1B
100
AcDbEntity
 67
     1
  8
0
  6
Continuous
 62
     2
100
AcDbMText
 10
53.9878834197
 20
295.579490177
 30
0.0
 40
4.0
 41
3.6
 46
0.0
 71
     1
 72
     1
  1
D
  7
TEXTSTYLE_3
 73
     1
 44
1.0
  0
VIEWPORT
  5
299
330
1B
100
AcDbEntity
 67
     1
  8
0
100
AcDbViewport
 10
0.0
 20
0.0
 30
0.0
 40
495.0770428015564
 41
350.0901945525292
 68
     1
 69
     1
 12
234.0175097276264
 22
148.5
 13
0.0
 23
0.0
 14
1.0
 24
1.0
 15
0.0
 25
0.0
 16
0.0
 26
0.0
 36
1.0
 17
0.0
 27
0.0
 37
0.0
 42
50.0
 43
0.0
 44
0.0
 45
350.0901945525292
 50
0.0
 51
0.0
 72
   100
 90
   557216
  1

281
     0
 71
     1
 74
     0
110
0.0
120
0.0
130
0.0
111
1.0
121
0.0
131
0.0
112
0.0
122
1.0
132
0.0
 79
     0
146
0.0
170
     0
 61
     5
348
431
292
     1
282
     1
141
0.0
142
0.0
 63
   256
  0
LINE
  5
29A
330
1B
100
AcDbEntity
 67
     1
  8
7_ALL_FEATURES
  6
Continuous
 62
     7
100
AcDbLine
 10
149.5079564309
 20
251.0041756194
 30
0.0
 11
148.9493980409
 21
219.0041756194
 31
0.0
  0
LINE
  5
29B
330
1B
100
AcDbEntity
 67
     1
  8
3_ALL_AXES
  6
Continuous
 62
     7
100
AcDbLine
 10
76.9083396509
 20
251.0041756194
 30
0.0
 11
77.4668980409
 21
219.0041756194
 31
0.0
  0
LINE
  5
29C
330
1B
100
AcDbEntity
 67
     1
  8
7_ALL_FEATURES
  6
Continuous
 62
     7
100
AcDbLine
 10
138.2659914479
 20
154.0041756194
 30
0.0
 11
137.8731050651
 21
131.49544654
 31
0.0
  0
ARC
  5
29D
330
1B
100
AcDbEntity
 67
     1
  8
7_ALL_FEATURES
  6
Continuous
 62
     7
100
AcDbCircle
 10
89.0425262793
 20
131.5041756173
 30
0.0
 40
0.5
100
AcDbArc
 50
181.0009505015
 51
270.0
  0
LINE
  5
29E
330
1B
100
AcDbEntity
 67
     1
  8
7_ALL_FEATURES
  6
Continuous
 62
     7
100
AcDbLine
 10
89.3193368894
 20
131.0041756177
 30
0.0
 11
89.1228955464
 21
131.0041756171
 31
0.0
  0
LINE
  5
29F
330
1B
100
AcDbEntity
 67
     1
  8
7_ALL_FEATURES
  6
Continuous
 62
     7
100
AcDbLine
 10
101.4044526381
 20
131.0041756194
 30
0.0
 11
89.3299678429
 21
131.0041756194
 31
0.0
  0
LINE
  5
2A0
330
1B
100
AcDbEntity
 67
     1
  8
7_ALL_FEATURES
  6
Continuous
 62
     7
100
AcDbLine
 10
89.3299678429
 20
131.0041756194
 30
0.0
 11
89.0425274217
 21
131.0041756194
 31
0.0
  0
LINE
  5
2A1
330
1B
100
AcDbEntity
 67
     1
  8
7_ALL_FEATURES
  6
Continuous
 62
     7
100
AcDbLine
 10
106.5328783579
 20
131.0041756194
 30
0.0
 11
101.4044526381
 21
131.0041756194
 31
0.0
  0
LINE
  5
2A2
330
1B
100
AcDbEntity
 67
     1
  8
7_ALL_FEATURES
  6
Continuous
 62
     7
100
AcDbLine
 10
119.883139614
 20
131.0041756194
 30
0.0
 11
106.5328783579
 21
131.0041756194
 31
0.0
  0
LINE
  5
2A3
330
1B
100
AcDbEntity
 67
     1
  8
7_ALL_FEATURES
  6
Continuous
 62
     7
100
AcDbLine
 10
125.011604843
 20
131.0041756194
 30
0.0
 11
119.883139614
 21
131.0041756194
 31
0.0
  0
LINE
  5
2A4
330
1B
100
AcDbEntity
 67
     1
  8
7_ALL_FEATURES
  6
Continuous
 62
     7
100
AcDbLine
 10
101.4053706743
 20
131.0041756219
 30
0.0
 11
89.3193368894
 21
131.0041756177
 31
0.0
  0
LINE
  5
2A5
330
1B
100
AcDbEntity
 67
     1
  8
7_ALL_FEATURES
  6
Continuous
 62
     7
100
AcDbLine
 10
137.3734905502
 20
131.0041756194
 30
0.0
 11
125.011604843
 21
131.0041756194
 31
0.0
  0
ARC
  5
2A6
330
1B
100
AcDbEntity
 67
     1
  8
7_ALL_FEATURES
  6
Continuous
 62
     7
100
AcDbCircle
 10
137.3734916927
 20
131.5041756193
 30
0.0
 40
0.5
100
AcDbArc
 50
270.0
 51
358.9990492653
  0
LINE
  5
2A7
330
1B
100
AcDbEntity
 67
     1
  8
7_ALL_FEATURES
  6
Continuous
 62
     7
100
AcDbLine
 10
106.2771105628
 20
146.0041756194
 30
0.0
 11
105.4480276591
 21
146.0041756194
 31
0.0
  0
LINE
  5
2A8
330
1B
100
AcDbEntity
 67
     1
  8
7_ALL_FEATURES
  6
Continuous
 62
     7
100
AcDbLine
 10
137.2931224257
 20
131.0041756195
 30
0.0
 11
125.0106470681
 21
131.0041756215
 31
0.0
  0
LINE
  5
2A9
330
1B
100
AcDbEntity
 67
     1
  8
7_ALL_FEATURES
  6
Continuous
 62
     7
100
AcDbLine
 10
88.150026524
 20
154.0041756194
 30
0.0
 11
88.5429129069
 21
131.49544654
 31
0.0
  0
LINE
  5
2AA
330
1B
100
AcDbEntity
 67
     1
  8
7_ALL_FEATURES
  6
Continuous
 62
     7
100
AcDbLine
 10
148.8332477152
 20
219.0041756194
 30
0.0
 11
148.9332944847
 21
219.0041756194
 31
0.0
  0
LINE
  5
2AB
330
1B
100
AcDbEntity
 67
     1
  8
7_ALL_FEATURES
  6
Continuous
 62
     7
100
AcDbLine
 10
149.4916012127
 20
251.0041756194
 30
0.0
 11
149.3915544454
 21
251.0041756194
 31
0.0
  0
LINE
  5
2AC
330
1B
100
AcDbEntity
 67
     1
  8
3_ALL_AXES
  6
Continuous
 62
     7
100
AcDbLine
 10
77.0244633273
 20
251.0041756194
 30
0.0
 11
76.9246946438
 21
251.0041756194
 31
0.0
  0
LINE
  5
2AD
330
1B
100
AcDbEntity
 67
     1
  8
3_ALL_AXES
  6
Continuous
 62
     7
100
AcDbLine
 10
77.4830013718
 20
219.0041756194
 30
0.0
 11
77.5827700575
 21
219.0041756194
 31
0.0
  0
LINE
  5
2AE
330
1B
100
AcDbEntity
 67
     1
  8
7_ALL_FEATURES
  6
Continuous
 62
     7
100
AcDbLine
 10
101.4262694416
 20
151.0041756194
 30
0.0
 11
106.2549618637
 21
151.0041756194
 31
0.0
  0
LINE
  5
2AF
330
1B
100
AcDbEntity
 67
     1
  8
7_ALL_FEATURES
  6
Continuous
 62
     7
100
AcDbLine
 10
106.2549618637
 20
151.0041756194
 30
0.0
 11
113.208008986
 21
151.0041756194
 31
0.0
  0
LINE
  5
2B0
330
1B
100
AcDbEntity
 67
     1
  8
7_ALL_FEATURES
  6
Continuous
 62
     7
100
AcDbLine
 10
113.208008986
 20
151.0041756194
 30
0.0
 11
120.1610561082
 21
151.0041756194
 31
0.0
  0
LINE
  5
2B1
330
1B
100
AcDbEntity
 67
     1
  8
7_ALL_FEATURES
  6
Continuous
 62
     7
100
AcDbLine
 10
120.1610561082
 20
151.0041756194
 30
0.0
 11
124.9897485303
 21
151.0041756194
 31
0.0
  0
LINE
  5
2B2
330
1B
100
AcDbEntity
 67
     1
  8
7_ALL_FEATURES
  6
Continuous
 62
     7
100
AcDbLine
 10
88.0534916467
 20
175.9219517029
 30
0.0
 11
93.7680973746
 21
154.0041756194
 31
0.0
  0
LINE
  5
2B3
330
1B
100
AcDbEntity
 67
     1
  8
7_ALL_FEATURES
  6
Continuous
 62
     7
100
AcDbLine
 10
93.7680973746
 20
154.0041756194
 30
0.0
 11
94.4752041559
 21
154.0041756193
 31
0.0
  0
LINE
  5
2B4
330
1B
100
AcDbEntity
 67
     1
  8
7_ALL_FEATURES
  6
Continuous
 62
     7
100
AcDbLine
 10
131.9408138161
 20
154.0041756194
 30
0.0
 11
132.6479205973
 21
154.0041756193
 31
0.0
  0
LINE
  5
2B5
330
1B
100
AcDbEntity
 67
     1
  8
7_ALL_FEATURES
  6
Continuous
 62
     7
100
AcDbLine
 10
132.6479205973
 20
154.0041756193
 30
0.0
 11
138.362324813
 21
175.9212816377
 31
0.0
  0
LINE
  5
2B6
330
1B
100
AcDbEntity
 67
     1
  8
7_ALL_FEATURES
  6
Continuous
 62
     7
100
AcDbLine
 10
148.0905950281
 20
175.9219517029
 30
0.0
 11
140.2001956381
 21
154.0041756194
 31
0.0
  0
LINE
  5
2B7
330
1B
100
AcDbEntity
 67
     1
  8
7_ALL_FEATURES
  6
Continuous
 62
     7
100
AcDbLine
 10
95.8460793856
 20
154.0041756194
 30
0.0
 11
94.475204156
 21
154.0041756194
 31
0.0
  0
LINE
  5
2B8
330
1B
100
AcDbEntity
 67
     1
  8
3_ALL_AXES
  6
Continuous
 62
     7
100
AcDbLine
 10
79.6116856296
 20
219.0041756194
 30
0.0
 11
77.5828046606
 21
219.0041756194
 31
0.0
  0
LINE
  5
2B9
330
1B
100
AcDbEntity
 67
     1
  8
7_ALL_FEATURES
  6
Continuous
 62
     7
100
AcDbLine
 10
86.8319574584
 20
219.0041756194
 30
0.0
 11
79.6116856296
 21
219.0041756194
 31
0.0
  0
LINE
  5
2BA
330
1B
100
AcDbEntity
 67
     1
  8
7_ALL_FEATURES
  6
Continuous
 62
     7
100
AcDbLine
 10
87.2625596836
 20
219.0041756194
 30
0.0
 11
86.8319574584
 21
219.0041756194
 31
0.0
  0
LINE
  5
2BB
330
1B
100
AcDbEntity
 67
     1
  8
7_ALL_FEATURES
  6
Continuous
 62
     7
100
AcDbLine
 10
88.1550135453
 20
154.0041756194
 30
0.0
 11
86.2158223343
 21
154.0041756194
 31
0.0
  0
LINE
  5
2BC
330
1B
100
AcDbEntity
 67
     1
  8
7_ALL_FEATURES
  6
Continuous
 62
     7
100
AcDbLine
 10
86.215822334
 20
154.0041756192
 30
0.0
 11
78.3254229438
 21
175.9219517029
 31
0.0
  0
LINE
  5
2BD
330
1B
100
AcDbEntity
 67
     1
  8
7_ALL_FEATURES
  6
Continuous
 62
     7
100
AcDbLine
 10
140.2001956381
 20
154.0041756194
 30
0.0
 11
138.2613179535
 21
154.0041756194
 31
0.0
  0
LINE
  5
2BE
330
1B
100
AcDbEntity
 67
     1
  8
7_ALL_FEATURES
  6
Continuous
 62
     7
100
AcDbLine
 10
148.8332134647
 20
219.0041756194
 30
0.0
 11
148.7346463945
 21
219.0041756194
 31
0.0
  0
LINE
  5
2BF
330
1B
100
AcDbEntity
 67
     1
  8
7_ALL_FEATURES
  6
Continuous
 62
     7
100
AcDbLine
 10
148.7346463945
 20
219.0041756194
 30
0.0
 11
146.8045775045
 21
219.0041756194
 31
0.0
  0
LINE
  5
2C0
330
1B
100
AcDbEntity
 67
     1
  8
7_ALL_FEATURES
  6
Continuous
 62
     7
100
AcDbLine
 10
139.5840605124
 20
219.0041756194
 30
0.0
 11
139.1534939418
 21
219.0041756194
 31
0.0
  0
LINE
  5
2C1
330
1B
100
AcDbEntity
 67
     1
  8
7_ALL_FEATURES
  6
Continuous
 62
     7
100
AcDbLine
 10
146.8045775045
 20
219.0041756194
 30
0.0
 11
139.5840605124
 21
219.0041756194
 31
0.0
  0
LINE
  5
2C2
330
1B
100
AcDbEntity
 67
     1
  8
7_ALL_FEATURES
  6
Continuous
 62
     7
100
AcDbLine
 10
131.9408138161
 20
154.0041756194
 30
0.0
 11
130.5699385864
 21
154.0041756194
 31
0.0
  0
LINE
  5
2C3
330
1B
100
AcDbEntity
 67
     1
  8
7_ALL_FEATURES
  6
Continuous
 62
     7
100
AcDbLine
 10
113.708008986
 20
154.0041756193
 30
0.0
 11
113.9025765891
 21
175.9218021052
 31
0.0
  0
LINE
  5
2C4
330
1B
100
AcDbEntity
 67
     1
  8
7_ALL_FEATURES
  6
Continuous
 62
     7
100
AcDbLine
 10
112.708008986
 20
154.0041756194
 30
0.0
 11
113.708008986
 21
154.0041756193
 31
0.0
  0
LINE
  5
2C5
330
1B
100
AcDbEntity
 67
     1
  8
7_ALL_FEATURES
  6
Continuous
 62
     7
100
AcDbLine
 10
112.5134413829
 20
175.9218021054
 30
0.0
 11
112.708008986
 21
154.0041756194
 31
0.0
  0
LINE
  5
2C6
330
1B
100
AcDbEntity
 67
     1
  8
7_ALL_FEATURES
  6
Continuous
 62
     7
100
AcDbLine
 10
77.0244633273
 20
251.0041756194
 30
0.0
 11
149.3915544454
 21
251.0041756194
 31
0.0
  0
LINE
  5
2C7
330
1B
100
AcDbEntity
 67
     1
  8
3_ALL_AXES
  6
Continuous
 62
     7
100
AcDbLine
 10
86.9783646661
 20
234.5041756194
 30
0.0
 11
86.6872633304
 21
234.5041756194
 31
0.0
  0
LINE
  5
2C8
330
1B
100
AcDbEntity
 67
     1
  8
3_ALL_AXES
  6
Continuous
 62
     7
100
AcDbLine
 10
86.6872633304
 20
234.5041756194
 30
0.0
 11
79.4944410942
 21
234.5041756194
 31
0.0
  0
SPLINE
  5
2C9
330
1B
100
AcDbEntity
 67
     1
  8
7_ALL_FEATURES
  6
Continuous
 62
     7
100
AcDbSpline
 70
     0
 71
     3
 72
     8
 73
     4
 74
     0
 42
0.000000001
 43
0.0000001
 40
0.0
 40
0.0
 40
0.0
 40
0.0
 40
1.0
 40
1.0
 40
1.0
 40
1.0
 10
86.9785039809
 20
234.5041821246
 30
0.0
 10
87.3361191773
 20
214.9767588947
 30
0.0
 10
87.6943149877
 20
195.4493462746
 30
0.0
 10
88.0534916466
 20
175.9219517029
 30
0.0
  0
LINE
  5
2CA
330
1B
100
AcDbEntity
 67
     1
  8
7_ALL_FEATURES
  6
Continuous
 62
     7
100
AcDbLine
 10
88.6789415385
 20
234.5041756194
 30
0.0
 11
112.002358173
 21
234.5041756194
 31
0.0
  0
LINE
  5
2CB
330
1B
100
AcDbEntity
 67
     1
  8
7_ALL_FEATURES
  6
Continuous
 62
     7
100
AcDbLine
 10
112.0054958548
 20
234.5042070223
 30
0.0
 11
112.5167305565
 21
175.9225126569
 31
0.0
  0
LINE
  5
2CC
330
1B
100
AcDbEntity
 67
     1
  8
7_ALL_FEATURES
  6
Continuous
 62
     7
100
AcDbLine
 10
113.8992874155
 20
175.9225126579
 30
0.0
 11
114.4105221172
 21
234.5042070223
 31
0.0
  0
LINE
  5
2CD
330
1B
100
AcDbEntity
 67
     1
  8
7_ALL_FEATURES
  6
Continuous
 62
     7
100
AcDbLine
 10
114.4136597989
 20
234.5041756194
 30
0.0
 11
137.7370764334
 21
234.5041756194
 31
0.0
  0
LINE
  5
2CE
330
1B
100
AcDbEntity
 67
     1
  8
7_ALL_FEATURES
  6
Continuous
 62
     7
100
AcDbLine
 10
139.4376864246
 20
234.5041756194
 30
0.0
 11
139.7287546415
 21
234.5041756194
 31
0.0
  0
LINE
  5
2CF
330
1B
100
AcDbEntity
 67
     1
  8
7_ALL_FEATURES
  6
Continuous
 62
     7
100
AcDbLine
 10
139.7287546415
 20
234.5041756194
 30
0.0
 11
146.9215737626
 21
234.5041756194
 31
0.0
  0
SPLINE
  5
2D0
330
1B
100
AcDbEntity
 67
     1
  8
7_ALL_FEATURES
  6
Continuous
 62
     7
100
AcDbSpline
 70
     0
 71
     3
 72
     8
 73
     4
 74
     0
 42
0.000000001
 43
0.0000001
 40
0.0
 40
0.0
 40
0.0
 40
0.0
 40
1.0
 40
1.0
 40
1.0
 40
1.0
 10
138.3623516177
 20
175.9212813069
 30
0.0
 10
138.7215324953
 20
195.4488992217
 30
0.0
 10
139.0800664798
 20
214.9765290559
 30
0.0
 10
139.4376864244
 20
234.5041756194
 30
0.0
  0
SPLINE
  5
2D1
330
1B
100
AcDbEntity
 67
     1
  8
7_ALL_FEATURES
  6
Continuous
 62
     7
100
AcDbSpline
 70
     0
 71
     3
 72
    15
 73
    11
 74
     0
 42
0.000000001
 43
0.0000001
 40
0.0
 40
0.0
 40
0.0
 40
0.0
 40
0.1303895615
 40
0.2598107059
 40
0.3879386442
 40
0.5144949685
 40
0.6394614147
 40
0.7628714955
 40
0.8834130864
 40
1.0
 40
1.0
 40
1.0
 40
1.0
 10
121.100915037
 20
146.0042303807
 30
0.0
 10
121.2838222501
 20
146.0048343922
 30
0.0
 10
121.6482781664
 20
146.0157848648
 30
0.0
 10
122.1912588902
 20
146.0527627841
 30
0.0
 10
122.7281703028
 20
146.0983329764
 30
0.0
 10
123.2577636412
 20
146.155089142
 30
0.0
 10
123.7780973623
 20
146.2341888592
 30
0.0
 10
124.2835202203
 20
146.3461654264
 30
0.0
 10
124.7783408855
 20
146.4503595965
 30
0.0
 10
125.1107254913
 20
146.4857175936
 30
0.0
 10
125.2742701636
 20
146.4863999711
 30
0.0
  0
SPLINE
  5
2D2
330
1B
100
AcDbEntity
 67
     1
  8
7_ALL_FEATURES
  6
Continuous
 62
     7
100
AcDbSpline
 70
     0
 71
     3
 72
    14
 73
    10
 74
     0
 42
0.000000001
 43
0.0000001
 40
0.0
 40
0.0
 40
0.0
 40
0.0
 40
0.2591897785
 40
0.3870714478
 40
0.5134988033
 40
0.6382466209
 40
0.7610440543
 40
0.8818134646
 40
1.0
 40
1.0
 40
1.0
 40
1.0
 10
104.930612986
 20
146.0144059315
 30
0.0
 10
104.6311158449
 20
146.027542335
 30
0.0
 10
104.1845264997
 20
146.064023586
 30
0.0
 10
103.5947335888
 20
146.1339067246
 30
0.0
 10
103.1603816798
 20
146.1938846908
 30
0.0
 10
102.7331951019
 20
146.2616786045
 30
0.0
 10
102.3125439108
 20
146.3294997387
 30
0.0
 10
101.9015340407
 20
146.4068836717
 30
0.0
 10
101.6298141553
 20
146.4601799967
 30
0.0
 10
101.4938527931
 20
146.4743461386
 30
0.0
  0
SPLINE
  5
2D3
330
1B
100
AcDbEntity
 67
     1
  8
3_ALL_AXES
  6
Continuous
 62
     7
100
AcDbSpline
 70
     0
 71
     3
 72
     8
 73
     4
 74
     0
 42
0.000000001
 43
0.0000001
 40
0.0
 40
0.0
 40
0.0
 40
0.0
 40
1.0
 40
1.0
 40
1.0
 40
1.0
 10
78.3254229438
 20
175.9219517029
 30
0.0
 10
78.0771914863
 20
190.2826811539
 30
0.0
 10
77.8298130759
 20
204.6434253516
 30
0.0
 10
77.5827888649
 20
219.0041756196
 30
0.0
  0
SPLINE
  5
2D4
330
1B
100
AcDbEntity
 67
     1
  8
7_ALL_FEATURES
  6
Continuous
 62
     7
100
AcDbSpline
 70
     0
 71
     3
 72
    14
 73
    10
 74
     0
 42
0.000000001
 43
0.0000001
 40
0.0
 40
0.0
 40
0.0
 40
0.0
 40
0.1170875439
 40
0.2377185883
 40
0.3609371465
 40
0.4856030628
 40
0.6119024102
 40
0.7399956216
 40
1.0
 40
1.0
 40
1.0
 40
1.0
 10
101.1415957074
 20
146.4863998418
 30
0.0
 10
101.2907783737
 20
146.4858009075
 30
0.0
 10
101.5934691591
 20
146.4551207047
 30
0.0
 10
102.0441551799
 20
146.3638916984
 30
0.0
 10
102.5033754044
 20
146.2654324929
 30
0.0
 10
102.9749572869
 20
146.1937203368
 30
0.0
 10
103.4547406849
 20
146.1380945482
 30
0.0
 10
104.1066099531
 20
146.0707905894
 30
0.0
 10
104.5995828524
 20
146.0272034695
 30
0.0
 10
104.930612986
 20
146.0144059315
 30
0.0
  0
LINE
  5
2D5
330
1B
100
AcDbEntity
 67
     1
  8
7_ALL_FEATURES
  6
Continuous
 62
     9
100
AcDbLine
 10
86.8319574584
 20
219.0041756194
 30
0.0
 11
86.6872633304
 21
234.5041756194
 31
0.0
  0
SPLINE
  5
2D6
330
1B
100
AcDbEntity
 67
     1
  8
7_ALL_FEATURES
  6
Continuous
 62
     7
100
AcDbSpline
 70
     0
 71
     3
 72
     9
 73
     5
 74
     0
 42
0.000000001
 43
0.0000001
 40
0.0
 40
0.0
 40
0.0
 40
0.0
 40
0.4993176493
 40
1.0
 40
1.0
 40
1.0
 40
1.0
 10
101.1417078464
 20
146.4864052437
 30
0.0
 10
101.1903848249
 20
146.4864052439
 30
0.0
 10
101.2874868186
 20
146.4734245222
 30
0.0
 10
101.3851023855
 20
146.4777414351
 30
0.0
 10
101.4339124041
 20
146.4777496938
 30
0.0
  0
SPLINE
  5
2D7
330
1B
100
AcDbEntity
 67
     1
  8
7_ALL_FEATURES
  6
Continuous
 62
     7
100
AcDbSpline
 70
     0
 71
     3
 72
     9
 73
     5
 74
     0
 42
0.000000001
 43
0.0000001
 40
0.0
 40
0.0
 40
0.0
 40
0.0
 40
0.512681328
 40
1.0
 40
1.0
 40
1.0
 40
1.0
 10
101.4938527931
 20
146.4743461386
 30
0.0
 10
101.4867973107
 20
146.4836587542
 30
0.0
 10
101.4681462633
 20
146.5023208797
 30
0.0
 10
101.4427303604
 20
146.49318004
 30
0.0
 10
101.4337864004
 20
146.4865968524
 30
0.0
  0
LINE
  5
2D8
330
1B
100
AcDbEntity
 67
     1
  8
7_ALL_FEATURES
  6
Continuous
 62
     9
100
AcDbLine
 10
124.9897485303
 20
151.0041756194
 30
0.0
 11
124.9821227995
 21
146.4877683221
 31
0.0
  0
SPLINE
  5
2D9
330
1B
100
AcDbEntity
 67
     1
  8
7_ALL_FEATURES
  6
Continuous
 62
     7
100
AcDbSpline
 70
     0
 71
     3
 72
     8
 73
     4
 74
     0
 42
0.000000001
 43
0.0000001
 40
0.0
 40
0.0
 40
0.0
 40
0.0
 40
1.0
 40
1.0
 40
1.0
 40
1.0
 10
95.3651719271
 20
234.5041756194
 30
0.0
 10
95.5235873761
 20
207.6708302587
 30
0.0
 10
95.6840448984
 20
180.8374968857
 30
0.0
 10
95.8464140349
 20
154.0041751576
 30
0.0
  0
SPLINE
  5
2DA
330
1B
100
AcDbEntity
 67
     1
  8
7_ALL_FEATURES
  6
Continuous
 62
     7
100
AcDbSpline
 70
     0
 71
     3
 72
     8
 73
     4
 74
     0
 42
0.000000001
 43
0.0000001
 40
0.0
 40
0.0
 40
0.0
 40
0.0
 40
1.0
 40
1.0
 40
1.0
 40
1.0
 10
130.5696039371
 20
154.0041751576
 30
0.0
 10
130.7319730735
 20
180.8374968857
 30
0.0
 10
130.8924305958
 20
207.6708302587
 30
0.0
 10
131.0508460448
 20
234.5041756194
 30
0.0
  0
LINE
  5
2DB
330
1B
100
AcDbEntity
 67
     1
  8
7_ALL_FEATURES
  6
Continuous
 62
     7
100
AcDbLine
 10
88.5429129135
 20
131.4954461565
 30
0.0
 11
101.1613545527
 21
131.4954547395
 31
0.0
  0
SPLINE
  5
2DC
330
1B
100
AcDbEntity
 67
     1
  8
7_ALL_FEATURES
  6
Continuous
 62
     9
100
AcDbSpline
 70
     0
 71
     3
 72
     9
 73
     5
 74
     0
 42
0.000000001
 43
0.0000001
 40
0.0
 40
0.0
 40
0.0
 40
0.0
 40
0.2499464267
 40
1.0
 40
1.0
 40
1.0
 40
1.0
 10
101.1613545527
 20
131.4954547395
 30
0.0
 10
101.1597720365
 20
132.7444327534
 30
0.0
 10
101.1540021961
 20
137.7414162073
 30
0.0
 10
101.1486135049
 20
142.738401017
 30
0.0
 10
101.1416319985
 20
146.4864023854
 30
0.0
  0
LINE
  5
2DD
330
1B
100
AcDbEntity
 67
     1
  8
7_ALL_FEATURES
  6
Continuous
 62
     7
100
AcDbLine
 10
148.9332944847
 20
219.0041756194
 30
0.0
 11
149.4916012127
 21
251.0041756194
 31
0.0
  0
SPLINE
  5
2DE
330
1B
100
AcDbEntity
 67
     1
  8
7_ALL_FEATURES
  6
Continuous
 62
     7
100
AcDbSpline
 70
     0
 71
     3
 72
     8
 73
     4
 74
     0
 42
0.000000001
 43
0.0000001
 40
0.0
 40
0.0
 40
0.0
 40
0.0
 40
1.0
 40
1.0
 40
1.0
 40
1.0
 10
138.2613179535
 20
154.0041756194
 30
0.0
 10
138.3875633238
 20
161.3082856408
 30
0.0
 10
138.5133660995
 20
168.6124033101
 30
0.0
 10
138.6390692917
 20
175.9165226824
 30
0.0
  0
SPLINE
  5
2DF
330
1B
100
AcDbEntity
 67
     1
  8
7_ALL_FEATURES
  6
Continuous
 62
     7
100
AcDbSpline
 70
     0
 71
     3
 72
     8
 73
     4
 74
     0
 42
0.000000001
 43
0.0000001
 40
0.0
 40
0.0
 40
0.0
 40
0.0
 40
1.0
 40
1.0
 40
1.0
 40
1.0
 10
138.6390692917
 20
175.9165226824
 30
0.0
 10
138.8862472685
 20
190.2790652424
 30
0.0
 10
139.1333407496
 20
204.6416092981
 30
0.0
 10
139.3791341698
 20
219.0041756194
 30
0.0
  0
SPLINE
  5
2E0
330
1B
100
AcDbEntity
 67
     1
  8
7_ALL_FEATURES
  6
Continuous
 62
     7
100
AcDbSpline
 70
     0
 71
     3
 72
    11
 73
     7
 74
     0
 42
0.000000001
 43
0.0000001
 40
0.0
 40
0.0
 40
0.0
 40
0.0
 40
0.1692336849
 40
0.3934992001
 40
0.6783244442
 40
1.0
 40
1.0
 40
1.0
 40
1.0
 10
125.0116048357
 20
131.004179467
 30
0.0
 10
125.0448039013
 20
131.0044460203
 30
0.0
 10
125.1205644254
 20
131.0417466042
 30
0.0
 10
125.1933691771
 20
131.1565071946
 30
0.0
 10
125.2426164571
 20
131.3130182925
 30
0.0
 10
125.2544540281
 20
131.4323473177
 30
0.0
 10
125.2551400958
 20
131.4954496542
 30
0.0
  0
LINE
  5
2E1
330
1B
100
AcDbEntity
 67
     1
  8
3_ALL_AXES
  6
Continuous
 62
     7
100
AcDbLine
 10
76.9246946438
 20
251.0041756194
 30
0.0
 11
77.4830013718
 21
219.0041756194
 31
0.0
  0
SPLINE
  5
2E2
330
1B
100
AcDbEntity
 67
     1
  8
7_ALL_FEATURES
  6
Continuous
 62
     7
100
AcDbSpline
 70
     0
 71
     3
 72
    12
 73
     8
 74
     0
 42
0.000000001
 43
0.0000001
 40
0.0
 40
0.0
 40
0.0
 40
0.0
 40
0.3210775821
 40
0.6057350954
 40
0.726403771
 40
0.8310206073
 40
1.0
 40
1.0
 40
1.0
 40
1.0
 10
101.1611903924
 20
131.4954488682
 30
0.0
 10
101.1617234758
 20
131.4323895058
 30
0.0
 10
101.1735729883
 20
131.3133055401
 30
0.0
 10
101.2159035286
 20
131.1753867616
 30
0.0
 10
101.2671054537
 20
131.0885432664
 30
0.0
 10
101.3179801562
 20
131.0302280693
 30
0.0
 10
101.371265016
 20
131.0044363657
 30
0.0
 10
101.4044526542
 20
131.0041844885
 30
0.0
  0
LINE
  5
2E3
330
1B
100
AcDbEntity
 67
     1
  8
7_ALL_FEATURES
  6
Continuous
 62
     9
100
AcDbLine
 10
106.5328783579
 20
131.0041756194
 30
0.0
 11
106.5328783593
 21
131.4954494162
 31
0.0
  0
LINE
  5
2E4
330
1B
100
AcDbEntity
 67
     1
  8
7_ALL_FEATURES
  6
Continuous
 62
     9
100
AcDbLine
 10
119.8831396126
 20
131.4954494162
 30
0.0
 11
119.883139614
 21
131.0041756194
 31
0.0
  0
ARC
  5
2E5
330
1B
100
AcDbEntity
 67
     1
  8
7_ALL_FEATURES
  6
Continuous
 62
     9
100
AcDbCircle
 10
122.5684534911
 20
711.524880715
 30
0.0
 40
580.0356472524
100
AcDbArc
 50
269.7347444037
 51
270.2653762232
  0
LINE
  5
2E6
330
1B
100
AcDbEntity
 67
     1
  8
7_ALL_FEATURES
  6
Continuous
 62
     9
100
AcDbLine
 10
119.9488680574
 20
146.0041756177
 30
0.0
 11
119.8831396126
 21
131.4954494162
 31
0.0
  0
SPLINE
  5
2E7
330
1B
100
AcDbEntity
 67
     1
  8
7_ALL_FEATURES
  6
Continuous
 62
     9
100
AcDbSpline
 70
     0
 71
     3
 72
     8
 73
     4
 74
     0
 42
0.000000001
 43
0.0000001
 40
0.0
 40
0.0
 40
0.0
 40
0.0
 40
1.0
 40
1.0
 40
1.0
 40
1.0
 10
120.1391469344
 20
146.00418926
 30
0.0
 10
120.4594673624
 20
146.0052903802
 30
0.0
 10
120.7797922973
 20
146.0037605988
 30
0.0
 10
121.1001138588
 20
146.0044580046
 30
0.0
  0
LINE
  5
2E8
330
1B
100
AcDbEntity
 67
     1
  8
7_ALL_FEATURES
  6
Continuous
 62
     7
100
AcDbLine
 10
94.4752041559
 20
154.0041756193
 30
0.0
 11
89.0311000539
 21
175.9219517029
 31
0.0
  0
LINE
  5
2E9
330
1B
100
AcDbEntity
 67
     1
  8
7_ALL_FEATURES
  6
Continuous
 62
     7
100
AcDbLine
 10
137.3847782888
 20
175.9212816376
 30
0.0
 11
131.9408138161
 21
154.0041756194
 31
0.0
  0
LINE
  5
2EA
330
1B
100
AcDbEntity
 67
     1
  8
7_ALL_FEATURES
  6
Continuous
 62
     9
100
AcDbLine
 10
101.4339124041
 20
146.4777496938
 30
0.0
 11
101.4262694416
 21
151.0041756194
 31
0.0
  0
LINE
  5
2EB
330
1B
100
AcDbEntity
 67
     1
  8
7_ALL_FEATURES
  6
Continuous
 62
     7
100
AcDbLine
 10
125.2549885238
 20
131.4954550709
 30
0.0
 11
137.8731050584
 21
131.4954461565
 31
0.0
  0
SPLINE
  5
2EC
330
1B
100
AcDbEntity
 67
     1
  8
7_ALL_FEATURES
  6
Continuous
 62
     9
100
AcDbSpline
 70
     0
 71
     3
 72
     9
 73
     5
 74
     0
 42
0.000000001
 43
0.0000001
 40
0.0
 40
0.0
 40
0.0
 40
0.0
 40
0.2499446624
 40
1.0
 40
1.0
 40
1.0
 40
1.0
 10
125.2742338768
 20
146.4864025243
 30
0.0
 10
125.2719453859
 20
145.2374344712
 30
0.0
 10
125.2641401943
 20
140.2404536654
 30
0.0
 10
125.2597374434
 20
135.2434685958
 30
0.0
 10
125.2549885238
 20
131.4954550709
 30
0.0
  0
LINE
  5
2ED
330
1B
100
AcDbEntity
 67
     1
  8
7_ALL_FEATURES
  6
Continuous
 62
     9
100
AcDbLine
 10
106.2768441256
 20
146.0039309897
 30
0.0
 11
106.2549618637
 21
151.0041756194
 31
0.0
  0
LINE
  5
2EE
330
1B
100
AcDbEntity
 67
     1
  8
7_ALL_FEATURES
  6
Continuous
 62
     9
100
AcDbLine
 10
139.7287546415
 20
234.5041756194
 30
0.0
 11
139.5840605124
 21
219.0041756194
 31
0.0
  0
SPLINE
  5
2EF
330
1B
100
AcDbEntity
 67
     1
  8
7_ALL_FEATURES
  6
Continuous
 62
     7
100
AcDbSpline
 70
     0
 71
     3
 72
     8
 73
     4
 74
     0
 42
0.000000001
 43
0.0000001
 40
0.0
 40
0.0
 40
0.0
 40
0.0
 40
1.0
 40
1.0
 40
1.0
 40
1.0
 10
87.0372063695
 20
219.0041754403
 30
0.0
 10
87.2829966493
 20
204.6418354494
 30
0.0
 10
87.529554759
 20
190.2795085755
 30
0.0
 10
87.7769305222
 20
175.9171958054
 30
0.0
  0
SPLINE
  5
2F0
330
1B
100
AcDbEntity
 67
     1
  8
7_ALL_FEATURES
  6
Continuous
 62
     7
100
AcDbSpline
 70
     0
 71
     3
 72
     8
 73
     4
 74
     0
 42
0.000000001
 43
0.0000001
 40
0.0
 40
0.0
 40
0.0
 40
0.0
 40
1.0
 40
1.0
 40
1.0
 40
1.0
 10
87.7769305222
 20
175.9171958054
 30
0.0
 10
87.902740158
 20
168.6128531531
 30
0.0
 10
88.0287640767
 20
161.3085141881
 30
0.0
 10
88.1550135453
 20
154.0041791247
 30
0.0
  0
LINE
  5
2F1
330
1B
100
AcDbEntity
 67
     1
  8
7_ALL_FEATURES
  6
Continuous
 62
     9
100
AcDbLine
 10
120.1610561082
 20
151.0041756194
 30
0.0
 11
120.1391747931
 21
146.0041471642
 31
0.0
  0
LINE
  5
2F2
330
1B
100
AcDbEntity
 67
     1
  8
7_ALL_FEATURES
  6
Continuous
 62
     9
100
AcDbLine
 10
119.9488680574
 20
146.0041756177
 30
0.0
 11
120.1391747931
 21
146.0041471642
 31
0.0
  0
LINE
  5
2F3
330
1B
100
AcDbEntity
 67
     1
  8
7_ALL_FEATURES
  6
Continuous
 62
     9
100
AcDbLine
 10
119.8831396126
 20
131.4954494162
 30
0.0
 11
106.5328783593
 21
131.4954494162
 31
0.0
  0
LINE
  5
2F4
330
1B
100
AcDbEntity
 67
     1
  8
7_ALL_FEATURES
  6
Continuous
 62
     7
100
AcDbLine
 10
106.4671494838
 20
146.0040803104
 30
0.0
 11
106.2768441256
 21
146.0039309897
 31
0.0
  0
ARC
  5
2F5
330
1B
100
AcDbEntity
 67
     1
  8
7_ALL_FEATURES
  6
Continuous
 62
     7
100
AcDbCircle
 10
105.5077877602
 20
176.4526236247
 30
0.0
 40
30.4486088224
100
AcDbArc
 50
269.7632550574999
 51
269.8875478611
  0
SPLINE
  5
2F6
330
1B
100
AcDbEntity
 67
     1
  8
7_ALL_FEATURES
  6
Continuous
 62
     7
100
AcDbSpline
 70
     0
 71
     3
 72
     8
 73
     4
 74
     0
 42
0.000000001
 43
0.0000001
 40
0.0
 40
0.0
 40
0.0
 40
0.0
 40
1.0
 40
1.0
 40
1.0
 40
1.0
 10
148.8332291071
 20
219.0041756196
 30
0.0
 10
148.5862048961
 20
204.6434253516
 30
0.0
 10
148.3388264856
 20
190.2826811539
 30
0.0
 10
148.0905950281
 20
175.9219517029
 30
0.0
  0
LINE
  5
2F7
330
1B
100
AcDbEntity
 67
     1
  8
7_ALL_FEATURES
  6
Continuous
 62
     9
100
AcDbLine
 10
106.5328783593
 20
131.4954494162
 30
0.0
 11
106.4671494838
 21
146.0040803104
 31
0.0
  0
ARC
  5
2F8
330
1B
100
AcDbEntity
 67
     1
  8
7_ALL_FEATURES
  6
Continuous
 62
     9
100
AcDbCircle
 10
103.8476538834
 20
673.7931303271
 30
0.0
 40
542.3043289076
100
AcDbArc
 50
269.7161847417
 51
270.2837016966
  0
LINE
  5
2F9
330
1B
100
AcDbEntity
 67
     1
  8
3_ALL_AXES
  6
Continuous
 62
     7
100
AcDbLine
 10
77.0244633273
 20
251.0041756194
 30
0.0
 11
77.5827700575
 21
219.0041756194
 31
0.0
  0
LINE
  5
2FA
330
1B
100
AcDbEntity
 67
     1
  8
7_ALL_FEATURES
  6
Continuous
 62
     9
100
AcDbLine
 10
79.6190479566
 20
219.0041291519
 30
0.0
 11
79.4944440865
 21
234.504165029
 31
0.0
  0
ARC
  5
2FB
330
1B
100
AcDbEntity
 67
     1
  8
7_ALL_FEATURES
  6
Continuous
 62
     7
100
AcDbCircle
 10
105.3563715449
 20
155.2422754964
 30
0.0
 40
9.2376862394
100
AcDbArc
 50
267.3583414076
 51
268.5412334297
  0
ARC
  5
2FC
330
1B
100
AcDbEntity
 67
     1
  8
7_ALL_FEATURES
  6
Continuous
 62
     9
100
AcDbCircle
 10
105.4374605729
 20
158.6585299451
 30
0.0
 40
12.6548992004
100
AcDbArc
 50
268.5679761245
 51
269.4497746361001
  0
SPLINE
  5
2FD
330
1B
100
AcDbEntity
 67
     1
  8
3_ALL_AXES
  6
Continuous
 62
     7
100
AcDbSpline
 70
     0
 71
     3
 72
     9
 73
     5
 74
     0
 42
0.000000001
 43
0.0000001
 40
0.0
 40
0.0
 40
0.0
 40
0.0
 40
0.5049813109
 40
1.0
 40
1.0
 40
1.0
 40
1.0
 10
89.0311000539
 20
175.9219517029
 30
0.0
 10
88.8669420859
 20
175.9351085699
 30
0.0
 10
88.5406843232
 20
175.9469697976
 30
0.0
 10
88.2143663881
 20
175.9353939383
 30
0.0
 10
88.0534916467
 20
175.9219517029
 30
0.0
  0
SPLINE
  5
2FE
330
1B
100
AcDbEntity
 67
     1
  8
7_ALL_FEATURES
  6
Continuous
 62
     7
100
AcDbSpline
 70
     0
 71
     3
 72
     8
 73
     4
 74
     0
 42
0.000000001
 43
0.0000001
 40
0.0
 40
0.0
 40
0.0
 40
0.0
 40
1.0
 40
1.0
 40
1.0
 40
1.0
 10
89.0311000539
 20
175.9219517029
 30
0.0
 10
88.9129237042
 20
195.4493549091
 30
0.0
 10
88.7955566131
 20
214.9767630271
 30
0.0
 10
88.6789415384
 20
234.5041756194
 30
0.0
  0
SPLINE
  5
2FF
330
1B
100
AcDbEntity
 67
     1
  8
3_ALL_AXES
  6
Continuous
 62
     7
100
AcDbSpline
 70
     0
 71
     3
 72
     9
 73
     5
 74
     0
 42
0.000000001
 43
0.0000001
 40
0.0
 40
0.0
 40
0.0
 40
0.0
 40
0.4999999972
 40
1.0
 40
1.0
 40
1.0
 40
1.0
 10
113.9025765891
 20
175.9218021052
 30
0.0
 10
113.6713589375
 20
175.9353064631
 30
0.0
 10
113.2080089873
 20
175.9468506322
 30
0.0
 10
112.7446590371
 20
175.9353064635
 30
0.0
 10
112.5134413829
 20
175.9218021054
 30
0.0
  0
LINE
  5
300
330
1B
100
AcDbEntity
 67
     1
  8
7_ALL_FEATURES
  6
Continuous
 62
     7
100
AcDbLine
 10
105.3819741547
 20
146.0039641129
 30
0.0
 11
105.3489835683
 21
146.0041210901
 31
0.0
  0
LINE
  5
301
330
1B
100
AcDbEntity
 67
     1
  8
7_ALL_FEATURES
  6
Continuous
 62
     7
100
AcDbLine
 10
105.3489835683
 20
146.0041210901
 30
0.0
 11
105.3159349046
 21
146.0043196011
 31
0.0
  0
SPLINE
  5
302
330
1B
100
AcDbEntity
 67
     1
  8
7_ALL_FEATURES
  6
Continuous
 62
     7
100
AcDbSpline
 70
     0
 71
     3
 72
    13
 73
     9
 74
     0
 42
0.000000001
 43
0.0000001
 40
0.0
 40
0.0
 40
0.0
 40
0.0
 40
0.2377715804
 40
0.3609531866
 40
0.485643021
 40
0.6121108951
 40
0.7402212033
 40
1.0
 40
1.0
 40
1.0
 40
1.0
 10
124.9822429823
 20
146.4877619227
 30
0.0
 10
124.6718643646
 20
146.4877624499
 30
0.0
 10
124.2105053292
 20
146.3573075802
 30
0.0
 10
123.5899185918
 20
146.2342993901
 30
0.0
 10
123.1049677329
 20
146.1703028926
 30
0.0
 10
122.6136273018
 20
146.1104593314
 30
0.0
 10
121.9463189294
 20
146.0364389289
 30
0.0
 10
121.4400190665
 20
146.0054038988
 30
0.0
 10
121.100915037
 20
146.0042303807
 30
0.0
  0
LINE
  5
303
330
1B
100
AcDbEntity
 67
     1
  8
7_ALL_FEATURES
  6
Continuous
 62
     7
100
AcDbLine
 10
149.3915544454
 20
251.0041756194
 30
0.0
 11
148.8332477152
 21
219.0041756194
 31
0.0
  0
LINE
  5
304
330
1B
100
AcDbEntity
 67
     1
  8
7_ALL_FEATURES
  6
Continuous
 62
     9
100
AcDbLine
 10
146.9215738856
 20
234.504165045
 30
0.0
 11
146.7972137757
 21
219.0041287788
 31
0.0
  0
LINE
  5
305
330
1B
100
AcDbEntity
 67
     1
  8
7_ALL_FEATURES
  6
Continuous
 62
     7
100
AcDbLine
 10
125.2741580249
 20
146.4864053729
 30
0.0
 11
124.9821227995
 21
146.4877683221
 31
0.0
  0
SPLINE
  5
306
330
1B
100
AcDbEntity
 67
     1
  8
3_ALL_AXES
  6
Continuous
 62
     7
100
AcDbSpline
 70
     0
 71
     3
 72
     9
 73
     5
 74
     0
 42
0.000000001
 43
0.0000001
 40
0.0
 40
0.0
 40
0.0
 40
0.0
 40
0.2462984983
 40
1.0
 40
1.0
 40
1.0
 40
1.0
 10
138.362324813
 20
175.9212816377
 30
0.0
 10
138.2822967594
 20
175.9279682243
 30
0.0
 10
137.9568203199
 20
175.9482154599
 30
0.0
 10
137.6297411519
 20
175.9409138948
 30
0.0
 10
137.3847782888
 20
175.9212816376
 30
0.0
  0
SPLINE
  5
307
330
1B
100
AcDbEntity
 67
     1
  8
7_ALL_FEATURES
  6
Continuous
 62
     7
100
AcDbSpline
 70
     0
 71
     3
 72
     8
 73
     4
 74
     0
 42
0.000000001
 43
0.0000001
 40
0.0
 40
0.0
 40
0.0
 40
0.0
 40
1.0
 40
1.0
 40
1.0
 40
1.0
 10
137.7370764336
 20
234.5041756194
 30
0.0
 10
137.6204600224
 20
214.9765392362
 30
0.0
 10
137.5029292989
 20
195.4489083031
 30
0.0
 10
137.3847514842
 20
175.9212813068
 30
0.0
  0
LINE
  5
308
330
1B
100
AcDbEntity
 67
     1
  8
7_ALL_FEATURES
  6
Continuous
 62
     7
100
AcDbLine
 10
149.4916012127
 20
65.7349361411
 30
0.0
 11
149.3915544454
 21
65.7379404138
 31
0.0
  0
LINE
  5
309
330
1B
100
AcDbEntity
 67
     1
  8
7_ALL_FEATURES
  6
Continuous
 62
     7
100
AcDbLine
 10
149.4916012127
 20
67.9140398617
 30
0.0
 11
149.391364997
 21
67.9110299001
 31
0.0
  0
ARC
  5
30A
330
1B
100
AcDbEntity
 67
     1
  8
3_ALL_AXES
  6
Continuous
 62
     7
100
AcDbCircle
 10
113.2078980409
 20
66.8244880014
 30
0.0
 40
36.29955839
100
AcDbArc
 50
178.28
 51
181.72
  0
LINE
  5
30B
330
1B
100
AcDbEntity
 67
     1
  8
3_ALL_AXES
  6
Continuous
 62
     7
100
AcDbLine
 10
77.0244633273
 20
65.7379470709
 30
0.0
 11
76.9246946438
 21
65.7349511486
 31
0.0
  0
LINE
  5
30C
330
1B
100
AcDbEntity
 67
     1
  8
3_ALL_AXES
  6
Continuous
 62
     7
100
AcDbLine
 10
77.0246527746
 20
67.911023243
 30
0.0
 11
76.9246946438
 21
67.9140248541
 31
0.0
  0
ARC
  5
30D
330
1B
100
AcDbEntity
 67
     1
  8
7_ALL_FEATURES
  6
Continuous
 62
     7
100
AcDbCircle
 10
86.4155025432
 20
55.7235111684
 30
0.0
 40
1.9997328962
100
AcDbArc
 50
90.0000000029
 51
112.49999988
  0
ARC
  5
30E
330
1B
100
AcDbEntity
 67
     1
  8
7_ALL_FEATURES
  6
Continuous
 62
     7
100
AcDbCircle
 10
86.415502543
 20
55.7235111684
 30
0.0
 40
2.0
100
AcDbArc
 50
270.0000081672
 51
89.9674134498
  0
ARC
  5
30F
330
1B
100
AcDbEntity
 67
     1
  8
7_ALL_FEATURES
  6
Continuous
 62
     7
100
AcDbCircle
 10
86.4155025432
 20
55.7235111684
 30
0.0
 40
1.9997328962
100
AcDbArc
 50
112.49999988
 51
269.9999999971
  0
ARC
  5
310
330
1B
100
AcDbEntity
 67
     1
  8
7_ALL_FEATURES
  6
Continuous
 62
     7
100
AcDbCircle
 10
140.0005154289
 20
55.7235111684
 30
0.0
 40
1.9997328962
100
AcDbArc
 50
90.0000000029
 51
112.4999999438
  0
ARC
  5
311
330
1B
100
AcDbEntity
 67
     1
  8
7_ALL_FEATURES
  6
Continuous
 62
     7
100
AcDbCircle
 10
140.0005154287
 20
55.7235111684
 30
0.0
 40
2.0
100
AcDbArc
 50
270.0000081672
 51
89.96741368699999
  0
ARC
  5
312
330
1B
100
AcDbEntity
 67
     1
  8
7_ALL_FEATURES
  6
Continuous
 62
     7
100
AcDbCircle
 10
140.0005154289
 20
55.7235111684
 30
0.0
 40
1.9997328962
100
AcDbArc
 50
112.4999999438
 51
269.9999999971
  0
ARC
  5
313
330
1B
100
AcDbEntity
 67
     1
  8
7_ALL_FEATURES
  6
Continuous
 62
     7
100
AcDbCircle
 10
141.9599099659
 20
70.6065902814
 30
0.0
 40
1.9997328962
100
AcDbArc
 50
90.0000000029
 51
112.5000000292
  0
ARC
  5
314
330
1B
100
AcDbEntity
 67
     1
  8
7_ALL_FEATURES
  6
Continuous
 62
     7
100
AcDbCircle
 10
141.9599099657
 20
70.6065902814
 30
0.0
 40
2.0
100
AcDbArc
 50
270.0000081671
 51
89.96741375590001
  0
ARC
  5
315
330
1B
100
AcDbEntity
 67
     1
  8
7_ALL_FEATURES
  6
Continuous
 62
     7
100
AcDbCircle
 10
141.9599099659
 20
70.6065902814
 30
0.0
 40
1.9997328962
100
AcDbArc
 50
112.5000000292
 51
269.9999999971
  0
ARC
  5
316
330
1B
100
AcDbEntity
 67
     1
  8
7_ALL_FEATURES
  6
Continuous
 62
     7
100
AcDbCircle
 10
141.9599099659
 20
63.0360711327
 30
0.0
 40
1.9997328962
100
AcDbArc
 50
90.0000000029
 51
112.5000000321
  0
ARC
  5
317
330
1B
100
AcDbEntity
 67
     1
  8
7_ALL_FEATURES
  6
Continuous
 62
     7
100
AcDbCircle
 10
141.9599099657
 20
63.0360711327
 30
0.0
 40
2.0
100
AcDbArc
 50
270.0000081671
 51
89.96741359030001
  0
ARC
  5
318
330
1B
100
AcDbEntity
 67
     1
  8
7_ALL_FEATURES
  6
Continuous
 62
     7
100
AcDbCircle
 10
141.9599099659
 20
63.0360711327
 30
0.0
 40
1.9997328962
100
AcDbArc
 50
112.5000000321
 51
269.9999999971
  0
ARC
  5
319
330
1B
100
AcDbEntity
 67
     1
  8
7_ALL_FEATURES
  6
Continuous
 62
     7
100
AcDbCircle
 10
140.0005154289
 20
77.9191502456
 30
0.0
 40
1.9997328962
100
AcDbArc
 50
90.0000000029
 51
112.4999999703
  0
ARC
  5
31A
330
1B
100
AcDbEntity
 67
     1
  8
7_ALL_FEATURES
  6
Continuous
 62
     7
100
AcDbCircle
 10
140.0005154287
 20
77.9191502456
 30
0.0
 40
2.0
100
AcDbArc
 50
270.0000081668999
 51
89.9674139818
  0
ARC
  5
31B
330
1B
100
AcDbEntity
 67
     1
  8
7_ALL_FEATURES
  6
Continuous
 62
     7
100
AcDbCircle
 10
140.0005154289
 20
77.9191502456
 30
0.0
 40
1.9997328962
100
AcDbArc
 50
112.4999999703
 51
269.9999999971
  0
ARC
  5
31C
330
1B
100
AcDbEntity
 67
     1
  8
7_ALL_FEATURES
  6
Continuous
 62
     7
100
AcDbCircle
 10
86.4155025432
 20
77.9191502456
 30
0.0
 40
1.9997328962
100
AcDbArc
 50
90.0000000029
 51
112.4999999065
  0
ARC
  5
31D
330
1B
100
AcDbEntity
 67
     1
  8
7_ALL_FEATURES
  6
Continuous
 62
     7
100
AcDbCircle
 10
86.415502543
 20
77.9191502456
 30
0.0
 40
2.0
100
AcDbArc
 50
270.000008167
 51
89.967413943
  0
ARC
  5
31E
330
1B
100
AcDbEntity
 67
     1
  8
7_ALL_FEATURES
  6
Continuous
 62
     7
100
AcDbCircle
 10
86.4155025432
 20
77.9191502456
 30
0.0
 40
1.9997328962
100
AcDbArc
 50
112.4999999065
 51
269.9999999971
  0
ARC
  5
31F
330
1B
100
AcDbEntity
 67
     1
  8
7_ALL_FEATURES
  6
Continuous
 62
     7
100
AcDbCircle
 10
84.4561080062
 20
70.6065902814
 30
0.0
 40
1.9997328962
100
AcDbArc
 50
90.0000000029
 51
112.5000000032
  0
ARC
  5
320
330
1B
100
AcDbEntity
 67
     1
  8
7_ALL_FEATURES
  6
Continuous
 62
     7
100
AcDbCircle
 10
84.456108006
 20
70.6065902814
 30
0.0
 40
2.0
100
AcDbArc
 50
270.0000081671
 51
89.9674138543
  0
ARC
  5
321
330
1B
100
AcDbEntity
 67
     1
  8
7_ALL_FEATURES
  6
Continuous
 62
     7
100
AcDbCircle
 10
84.4561080062
 20
70.6065902814
 30
0.0
 40
1.9997328962
100
AcDbArc
 50
112.5000000032
 51
269.9999999971
  0
ARC
  5
322
330
1B
100
AcDbEntity
 67
     1
  8
7_ALL_FEATURES
  6
Continuous
 62
     7
100
AcDbCircle
 10
84.4561080062
 20
63.0360711327
 30
0.0
 40
1.9997328962
100
AcDbArc
 50
90.0000000029
 51
112.5000000061
  0
ARC
  5
323
330
1B
100
AcDbEntity
 67
     1
  8
7_ALL_FEATURES
  6
Continuous
 62
     7
100
AcDbCircle
 10
84.456108006
 20
63.0360711327
 30
0.0
 40
2.0
100
AcDbArc
 50
270.0000081671
 51
89.9674136887
  0
ARC
  5
324
330
1B
100
AcDbEntity
 67
     1
  8
7_ALL_FEATURES
  6
Continuous
 62
     7
100
AcDbCircle
 10
84.4561080062
 20
63.0360711327
 30
0.0
 40
1.9997328962
100
AcDbArc
 50
112.5000000061
 51
269.9999999971
  0
ARC
  5
325
330
1B
100
AcDbEntity
 67
     1
  8
7_ALL_FEATURES
  6
Continuous
 62
     7
100
AcDbCircle
 10
113.2078980409
 20
66.8244880014
 30
0.0
 40
36.30005839
100
AcDbArc
 50
358.28
 51
1.72
  0
ARC
  5
326
330
1B
100
AcDbEntity
 67
     1
  8
7_ALL_FEATURES
  6
Continuous
 62
     7
100
AcDbCircle
 10
113.2080089842
 20
66.8213307093
 30
0.0
 40
36.199761003
100
AcDbArc
 50
181.7149997239
 51
358.284989735
  0
ARC
  5
327
330
1B
100
AcDbEntity
 67
     1
  8
7_ALL_FEATURES
  6
Continuous
 62
     7
100
AcDbCircle
 10
113.2080089842
 20
66.8213307093
 30
0.0
 40
36.199761003
100
AcDbArc
 50
1.7250002761
 51
178.275010265
  0
SPLINE
  5
328
330
1B
100
AcDbEntity
 67
     1
  8
3_ALL_AXES
  6
Continuous
 62
     7
100
AcDbSpline
 70
     0
 71
     3
 72
     9
 73
     5
 74
     0
 42
0.000000001
 43
0.0000001
 40
0.0
 40
0.0
 40
0.0
 40
0.0
 40
0.501693719
 40
1.0
 40
1.0
 40
1.0
 40
1.0
 10
118.4684195908
 20
44.2435517798
 30
0.0
 10
118.4683590404
 20
44.2022117706
 30
0.0
 10
118.4650522271
 20
44.1198181951
 30
0.0
 10
118.4689326387
 20
44.0374343913
 30
0.0
 10
118.4687725113
 20
43.9963737782
 30
0.0
  0
SPLINE
  5
329
330
1B
100
AcDbEntity
 67
     1
  8
3_ALL_AXES
  6
Continuous
 62
     7
100
AcDbSpline
 70
     0
 71
     3
 72
     8
 73
     4
 74
     0
 42
0.000000001
 43
0.0000001
 40
0.0
 40
0.0
 40
0.0
 40
0.0
 40
1.0
 40
1.0
 40
1.0
 40
1.0
 10
118.4688268468
 20
43.9747934895
 30
0.0
 10
118.4695952851
 20
43.98194578
 30
0.0
 10
118.4696203204
 20
43.9892304613
 30
0.0
 10
118.4687725113
 20
43.9963737782
 30
0.0
  0
SPLINE
  5
32A
330
1B
100
AcDbEntity
 67
     1
  8
3_ALL_AXES
  6
Continuous
 62
     7
100
AcDbSpline
 70
     0
 71
     3
 72
     9
 73
     5
 74
     0
 42
0.000000001
 43
0.0000001
 40
0.0
 40
0.0
 40
0.0
 40
0.0
 40
0.2387040598
 40
1.0
 40
1.0
 40
1.0
 40
1.0
 10
118.4688268468
 20
43.9747934895
 30
0.0
 10
118.4682134442
 20
43.9678613201
 30
0.0
 10
118.4645792034
 20
43.9389251216
 30
0.0
 10
118.4569570758
 20
43.910484973
 30
0.0
 10
118.4490146465
 20
43.8897596537
 30
0.0
  0
ARC
  5
32B
330
1B
100
AcDbEntity
 67
     1
  8
3_ALL_AXES
  6
Continuous
 62
     7
100
AcDbCircle
 10
113.2080089848
 20
66.821330707
 30
0.0
 40
23.5228631616
100
AcDbArc
 50
269.9998584607
 51
282.9147776317
  0
ARC
  5
32C
330
1B
100
AcDbEntity
 67
     1
  8
3_ALL_AXES
  6
Continuous
 62
     7
100
AcDbCircle
 10
113.2080089847
 20
66.821330707
 30
0.0
 40
24.9890701626
100
AcDbArc
 50
269.9999998214001
 51
89.99342918
  0
ARC
  5
32D
330
1B
100
AcDbEntity
 67
     1
  8
3_ALL_AXES
  6
Continuous
 62
     7
100
AcDbCircle
 10
113.2080089848
 20
66.821330707
 30
0.0
 40
23.5228631616
100
AcDbArc
 50
77.10192427830002
 51
90.0001416244
  0
SPLINE
  5
32E
330
1B
100
AcDbEntity
 67
     1
  8
3_ALL_AXES
  6
Continuous
 62
     7
100
AcDbSpline
 70
     0
 71
     3
 72
     9
 73
     5
 74
     0
 42
0.000000001
 43
0.0000001
 40
0.0
 40
0.0
 40
0.0
 40
0.0
 40
0.240018146
 40
1.0
 40
1.0
 40
1.0
 40
1.0
 10
118.4677017219
 20
89.6472166621
 30
0.0
 10
118.4667114926
 20
89.6559913024
 30
0.0
 10
118.4614039128
 20
89.6923970182
 30
0.0
 10
118.4520731826
 20
89.7282941627
 30
0.0
 10
118.4422087283
 20
89.7544561888
 30
0.0
  0
SPLINE
  5
32F
330
1B
100
AcDbEntity
 67
     1
  8
3_ALL_AXES
  6
Continuous
 62
     7
100
AcDbSpline
 70
     0
 71
     3
 72
     9
 73
     5
 74
     0
 42
0.000000001
 43
0.0000001
 40
0.0
 40
0.0
 40
0.0
 40
0.0
 40
0.4922367253
 40
1.0
 40
1.0
 40
1.0
 40
1.0
 10
118.4675867222
 20
89.6465609076
 30
0.0
 10
118.4676662907
 20
89.6466437177
 30
0.0
 10
118.4677941157
 20
89.6468608803
 30
0.0
 10
118.4677463564
 20
89.6471069281
 30
0.0
 10
118.4677017219
 20
89.6472166621
 30
0.0
  0
ARC
  5
330
330
1B
100
AcDbEntity
 67
     1
  8
3_ALL_AXES
  6
Continuous
 62
     7
100
AcDbCircle
 10
113.2080089871
 20
66.821330707
 30
0.0
 40
23.5228631616
100
AcDbArc
 50
90.00014163
 51
102.8986578676
  0
ARC
  5
331
330
1B
100
AcDbEntity
 67
     1
  8
3_ALL_AXES
  6
Continuous
 62
     7
100
AcDbCircle
 10
113.2080089873
 20
66.821330707
 30
0.0
 40
24.9890701626
100
AcDbArc
 50
89.9934291858
 51
269.9999998156
  0
ARC
  5
332
330
1B
100
AcDbEntity
 67
     1
  8
3_ALL_AXES
  6
Continuous
 62
     7
100
AcDbCircle
 10
113.2080089871
 20
66.821330707
 30
0.0
 40
23.5228631616
100
AcDbArc
 50
257.0846459933
 51
269.9998584551
  0
SPLINE
  5
333
330
1B
100
AcDbEntity
 67
     1
  8
3_ALL_AXES
  6
Continuous
 62
     7
100
AcDbSpline
 70
     0
 71
     3
 72
     9
 73
     5
 74
     0
 42
0.000000001
 43
0.0000001
 40
0.0
 40
0.0
 40
0.0
 40
0.0
 40
0.2387569265
 40
1.0
 40
1.0
 40
1.0
 40
1.0
 10
107.9470605745
 20
43.9743328272
 30
0.0
 10
107.9476780633
 20
43.9674415933
 30
0.0
 10
107.9513130757
 20
43.9386833751
 30
0.0
 10
107.9588737786
 20
43.9104119402
 30
0.0
 10
107.9667686447
 20
43.8898132912
 30
0.0
  0
SPLINE
  5
334
330
1B
100
AcDbEntity
 67
     1
  8
3_ALL_AXES
  6
Continuous
 62
     7
100
AcDbSpline
 70
     0
 71
     3
 72
     8
 73
     4
 74
     0
 42
0.000000001
 43
0.0000001
 40
0.0
 40
0.0
 40
0.0
 40
0.0
 40
1.0
 40
1.0
 40
1.0
 40
1.0
 10
107.9470605745
 20
43.9743328272
 30
0.0
 10
107.9461493194
 20
43.9816000308
 30
0.0
 10
107.946250384
 20
43.989094792
 30
0.0
 10
107.9475686464
 20
43.9962992918
 30
0.0
  0
SPLINE
  5
335
330
1B
100
AcDbEntity
 67
     1
  8
3_ALL_AXES
  6
Continuous
 62
     7
100
AcDbSpline
 70
     0
 71
     3
 72
     9
 73
     5
 74
     0
 42
0.000000001
 43
0.0000001
 40
0.0
 40
0.0
 40
0.0
 40
0.0
 40
0.4982745899
 40
1.0
 40
1.0
 40
1.0
 40
1.0
 10
107.9475686464
 20
43.9962992918
 30
0.0
 10
107.9474087706
 20
44.0373829886
 30
0.0
 10
107.9509782853
 20
44.1198276688
 30
0.0
 10
107.947315665
 20
44.2022632465
 30
0.0
 10
107.9472552065
 20
44.2436317391
 30
0.0
  0
ARC
  5
336
330
1B
100
AcDbEntity
 67
     1
  8
7_ALL_FEATURES
  6
Continuous
 62
     7
100
AcDbCircle
 10
113.2080089871
 20
66.821330707
 30
0.0
 40
23.1824936792
100
AcDbArc
 50
103.1148549028
 51
256.8846014551
  0
SPLINE
  5
337
330
1B
100
AcDbEntity
 67
     1
  8
3_ALL_AXES
  6
Continuous
 62
     7
100
AcDbSpline
 70
     0
 71
     3
 72
     9
 73
     5
 74
     0
 42
0.000000001
 43
0.0000001
 40
0.0
 40
0.0
 40
0.0
 40
0.0
 40
0.5011438782
 40
1.0
 40
1.0
 40
1.0
 40
1.0
 10
107.9478126049
 20
89.3991595453
 30
0.0
 10
107.9478731411
 20
89.4404723876
 30
0.0
 10
107.9502413682
 20
89.5229025127
 30
0.0
 10
107.9478342039
 20
89.6053364624
 30
0.0
 10
107.947995254
 20
89.6464604375
 30
0.0
  0
LINE
  5
338
330
1B
100
AcDbEntity
 67
     1
  8
3_ALL_AXES
  6
Continuous
 62
     7
100
AcDbLine
 10
107.9482620979
 20
89.6476949213
 30
0.0
 11
107.947995254
 21
89.6464604375
 31
0.0
  0
SPLINE
  5
339
330
1B
100
AcDbEntity
 67
     1
  8
3_ALL_AXES
  6
Continuous
 62
     7
100
AcDbSpline
 70
     0
 71
     3
 72
     9
 73
     5
 74
     0
 42
0.000000001
 43
0.0000001
 40
0.0
 40
0.0
 40
0.0
 40
0.0
 40
0.2634241233
 40
1.0
 40
1.0
 40
1.0
 40
1.0
 10
107.9735745814
 20
89.7544026288
 30
0.0
 10
107.9701664499
 20
89.7453784318
 30
0.0
 10
107.9581138572
 20
89.7107771279
 30
0.0
 10
107.9512226894
 20
89.6745045979
 30
0.0
 10
107.9482620979
 20
89.6476949213
 30
0.0
  0
ARC
  5
33A
330
1B
100
AcDbEntity
 67
     1
  8
3_ALL_AXES
  6
Continuous
 62
     7
100
AcDbCircle
 10
113.2078980409
 20
111.7045496181
 30
0.0
 40
22.577
100
AcDbArc
 50
256.5513858449
 51
283.4485880786
  0
ARC
  5
33B
330
1B
100
AcDbEntity
 67
     1
  8
3_ALL_AXES
  6
Continuous
 62
     7
100
AcDbCircle
 10
113.2078980409
 20
21.9111255915
 30
0.0
 40
22.6039862044
100
AcDbArc
 50
76.5504653338
 51
103.4495547799
  0
ARC
  5
33C
330
1B
100
AcDbEntity
 67
     1
  8
3_ALL_AXES
  6
Continuous
 62
     9
100
AcDbCircle
 10
113.208008986
 20
111.6871758501
 30
0.0
 40
22.6591202294
100
AcDbArc
 50
282.5141255154
 51
283.4210838477
  0
ARC
  5
33D
330
1B
100
AcDbEntity
 67
     1
  8
3_ALL_AXES
  6
Continuous
 62
     9
100
AcDbCircle
 10
113.208008986
 20
111.6871758501
 30
0.0
 40
22.6591201987
100
AcDbArc
 50
280.1699328158001
 51
282.5141255154
  0
ARC
  5
33E
330
1B
100
AcDbEntity
 67
     1
  8
3_ALL_AXES
  6
Continuous
 62
     9
100
AcDbCircle
 10
113.208008986
 20
111.6871758501
 30
0.0
 40
22.6591201619
100
AcDbArc
 50
277.8315819515
 51
280.1699328158001
  0
ARC
  5
33F
330
1B
100
AcDbEntity
 67
     1
  8
3_ALL_AXES
  6
Continuous
 62
     9
100
AcDbCircle
 10
113.208008986
 20
111.6871758501
 30
0.0
 40
22.6591201045
100
AcDbArc
 50
266.3901070332
 51
277.8315819515
  0
ARC
  5
340
330
1B
100
AcDbEntity
 67
     1
  8
3_ALL_AXES
  6
Continuous
 62
     9
100
AcDbCircle
 10
113.208008986
 20
111.6871758501
 30
0.0
 40
22.6591201226
100
AcDbArc
 50
264.224896326
 51
266.3901070332
  0
ARC
  5
341
330
1B
100
AcDbEntity
 67
     1
  8
3_ALL_AXES
  6
Continuous
 62
     9
100
AcDbCircle
 10
113.208008986
 20
111.6871758501
 30
0.0
 40
22.6591201451
100
AcDbArc
 50
261.8618045861
 51
264.224896326
  0
ARC
  5
342
330
1B
100
AcDbEntity
 67
     1
  8
3_ALL_AXES
  6
Continuous
 62
     9
100
AcDbCircle
 10
113.208008986
 20
111.6871758501
 30
0.0
 40
22.6591201792
100
AcDbArc
 50
259.2688077585
 51
261.8618045861
  0
ARC
  5
343
330
1B
100
AcDbEntity
 67
     1
  8
3_ALL_AXES
  6
Continuous
 62
     9
100
AcDbCircle
 10
113.208008986
 20
111.6871758501
 30
0.0
 40
22.6591202262
100
AcDbArc
 50
256.577151656
 51
259.2688077585
  0
ARC
  5
344
330
1B
100
AcDbEntity
 67
     1
  8
7_ALL_FEATURES
  6
Continuous
 62
     7
100
AcDbCircle
 10
113.208008986
 20
21.9554855632
 30
0.0
 40
22.8999999989
100
AcDbArc
 50
76.7198354047
 51
103.2801645994
  0
ARC
  5
345
330
1B
100
AcDbEntity
 67
     1
  8
7_ALL_FEATURES
  6
Continuous
 62
     7
100
AcDbCircle
 10
113.2080089858
 20
111.6871758517
 30
0.0
 40
22.8999999997
100
AcDbArc
 50
256.7203079614
 51
283.2795639144001
  0
ARC
  5
346
330
1B
100
AcDbEntity
 67
     1
  8
3_ALL_AXES
  6
Continuous
 62
     9
100
AcDbCircle
 10
113.208008986
 20
21.9554855613
 30
0.0
 40
22.6591204564
100
AcDbArc
 50
102.5141231142
 51
103.4210837003
  0
ARC
  5
347
330
1B
100
AcDbEntity
 67
     1
  8
3_ALL_AXES
  6
Continuous
 62
     9
100
AcDbCircle
 10
113.208008986
 20
21.9554855613
 30
0.0
 40
22.6591203747
100
AcDbArc
 50
100.1699321235
 51
102.5141231142
  0
ARC
  5
348
330
1B
100
AcDbEntity
 67
     1
  8
3_ALL_AXES
  6
Continuous
 62
     9
100
AcDbCircle
 10
113.208008986
 20
21.9554855613
 30
0.0
 40
22.659120276
100
AcDbArc
 50
97.8315817483
 51
100.1699321235
  0
ARC
  5
349
330
1B
100
AcDbEntity
 67
     1
  8
3_ALL_AXES
  6
Continuous
 62
     9
100
AcDbCircle
 10
113.208008986
 20
21.9554855613
 30
0.0
 40
22.6591201152
100
AcDbArc
 50
86.3901070814
 51
97.8315817483
  0
ARC
  5
34A
330
1B
100
AcDbEntity
 67
     1
  8
3_ALL_AXES
  6
Continuous
 62
     9
100
AcDbCircle
 10
113.208008986
 20
21.9554855613
 30
0.0
 40
22.6591201472
100
AcDbArc
 50
84.2248964129
 51
86.3901070814
  0
ARC
  5
34B
330
1B
100
AcDbEntity
 67
     1
  8
3_ALL_AXES
  6
Continuous
 62
     9
100
AcDbCircle
 10
113.208008986
 20
21.9554855613
 30
0.0
 40
22.6591201999
100
AcDbArc
 50
81.8618047917
 51
84.2248964129
  0
ARC
  5
34C
330
1B
100
AcDbEntity
 67
     1
  8
3_ALL_AXES
  6
Continuous
 62
     9
100
AcDbCircle
 10
113.208008986
 20
21.9554855613
 30
0.0
 40
22.6591202816
100
AcDbArc
 50
79.26880858940001
 51
81.8618047917
  0
ARC
  5
34D
330
1B
100
AcDbEntity
 67
     1
  8
7_ALL_FEATURES
  6
Continuous
 62
     7
100
AcDbCircle
 10
113.2080089843
 20
66.821330707
 30
0.0
 40
34.437718277
100
AcDbArc
 50
85.7929454255
 51
90.00409116020002
  0
ARC
  5
34E
330
1B
100
AcDbEntity
 67
     1
  8
7_ALL_FEATURES
  6
Continuous
 62
     7
100
AcDbCircle
 10
113.2080089877
 20
66.821330707
 30
0.0
 40
34.4379455342
100
AcDbArc
 50
90.004091166
 51
269.9999984566999
  0
ARC
  5
34F
330
1B
100
AcDbEntity
 67
     1
  8
7_ALL_FEATURES
  6
Continuous
 62
     7
100
AcDbCircle
 10
113.2080089843
 20
66.821330707
 30
0.0
 40
34.4377181712
100
AcDbArc
 50
269.9999984624
 51
85.7929454255
  0
ARC
  5
350
330
1B
100
AcDbEntity
 67
     1
  8
3_ALL_AXES
  6
Continuous
 62
     9
100
AcDbCircle
 10
113.208008986
 20
21.9554855613
 30
0.0
 40
22.6591203962
100
AcDbArc
 50
76.5771517887
 51
79.26880858940001
  0
ARC
  5
351
330
1B
100
AcDbEntity
 67
     1
  8
7_ALL_FEATURES
  6
Continuous
 62
     7
100
AcDbCircle
 10
113.2080089843
 20
66.821330707
 30
0.0
 40
34.6995424155
100
AcDbArc
 50
270.0000011714
 51
90.00000005070001
  0
ARC
  5
352
330
1B
100
AcDbEntity
 67
     1
  8
3_ALL_AXES
  6
Continuous
 62
     7
100
AcDbCircle
 10
113.2080089877
 20
66.821330707
 30
0.0
 40
34.699771508
100
AcDbArc
 50
90.00000005630001
 51
270.0000011657
  0
SPLINE
  5
353
330
1B
100
AcDbEntity
 67
     1
  8
3_ALL_AXES
  6
Continuous
 62
     7
100
AcDbSpline
 70
     0
 71
     3
 72
     9
 73
     5
 74
     0
 42
0.000000001
 43
0.0000001
 40
0.0
 40
0.0
 40
0.0
 40
0.0
 40
0.4987632438
 40
1.0
 40
1.0
 40
1.0
 40
1.0
 10
118.4675867222
 20
89.6465609076
 30
0.0
 10
118.4677476544
 20
89.6054056051
 30
0.0
 10
118.4656881361
 20
89.522885693
 30
0.0
 10
118.4687023199
 20
89.4403893507
 30
0.0
 10
118.4687627655
 20
89.399029675
 30
0.0
  0
ARC
  5
354
330
1B
100
AcDbEntity
 67
     1
  8
7_ALL_FEATURES
  6
Continuous
 62
     7
100
AcDbCircle
 10
113.2080089848
 20
66.821330707
 30
0.0
 40
23.1824936792
100
AcDbArc
 50
283.1153985431
 51
76.8852924956
  0
LINE
  5
355
330
1B
100
AcDbEntity
 67
     1
  8
7_ALL_FEATURES
  6
Continuous
 62
     7
100
AcDbLine
 10
206.9408739603
 20
154.0041756194
 30
0.0
 11
206.993238496
 21
151.0041756194
 31
0.0
  0
LINE
  5
356
330
1B
100
AcDbEntity
 67
     1
  8
7_ALL_FEATURES
  6
Continuous
 62
     7
100
AcDbLine
 10
208.8536203123
 20
146.0041756191
 30
0.0
 11
208.8535580983
 21
146.0041756437
 31
0.0
  0
LINE
  5
357
330
1B
100
AcDbEntity
 67
     1
  8
7_ALL_FEATURES
  6
Continuous
 62
     7
100
AcDbLine
 10
257.0568388866
 20
154.0041756194
 30
0.0
 11
257.0044743509
 21
151.0041756194
 31
0.0
  0
LINE
  5
358
330
1B
100
AcDbEntity
 67
     1
  8
7_ALL_FEATURES
  6
Continuous
 62
     7
100
AcDbLine
 10
208.8211833813
 20
146.0042858074
 30
0.0
 11
208.8218334896
 21
145.9670411251
 31
0.0
  0
LINE
  5
359
330
1B
100
AcDbEntity
 67
     1
  8
7_ALL_FEATURES
  6
Continuous
 62
     7
100
AcDbLine
 10
208.8535583571
 20
146.0041756194
 30
0.0
 11
208.8245917902
 21
146.0041756194
 31
0.0
  0
LINE
  5
35A
330
1B
100
AcDbEntity
 67
     1
  8
7_ALL_FEATURES
  6
Continuous
 62
     7
100
AcDbLine
 10
208.8245917902
 20
146.0041756194
 30
0.0
 11
208.8218334896
 21
146.0041756194
 31
0.0
  0
LINE
  5
35B
330
1B
100
AcDbEntity
 67
     1
  8
7_ALL_FEATURES
  6
Continuous
 62
     7
100
AcDbLine
 10
208.8218334896
 20
146.0041756194
 30
0.0
 11
208.8211853046
 21
146.0041756194
 31
0.0
  0
LINE
  5
35C
330
1B
100
AcDbEntity
 67
     1
  8
7_ALL_FEATURES
  6
Continuous
 62
     7
100
AcDbLine
 10
208.8211853046
 20
146.0041756194
 30
0.0
 11
208.8187440086
 21
146.0041756194
 31
0.0
  0
LINE
  5
35D
330
1B
100
AcDbEntity
 67
     1
  8
7_ALL_FEATURES
  6
Continuous
 62
     7
100
AcDbLine
 10
195.7993736271
 20
251.0041756194
 30
0.0
 11
197.2990849125
 21
251.0041756194
 31
0.0
  0
LINE
  5
35E
330
1B
100
AcDbEntity
 67
     1
  8
7_ALL_FEATURES
  6
Continuous
 62
     7
100
AcDbLine
 10
197.2990849125
 20
251.0041756194
 30
0.0
 11
230.9091638875
 21
251.0041756194
 31
0.0
  0
LINE
  5
35F
330
1B
100
AcDbEntity
 67
     1
  8
7_ALL_FEATURES
  6
Continuous
 62
     7
100
AcDbLine
 10
208.8148707158
 20
146.0041756194
 30
0.0
 11
208.8148750686
 21
146.0041756194
 31
0.0
  0
LINE
  5
360
330
1B
100
AcDbEntity
 67
     1
  8
7_ALL_FEATURES
  6
Continuous
 62
     7
100
AcDbLine
 10
195.7990954182
 20
251.0041756194
 30
0.0
 11
196.0871082505
 21
234.5038225697
 31
0.0
  0
LINE
  5
361
330
1B
100
AcDbEntity
 67
     1
  8
7_ALL_FEATURES
  6
Continuous
 62
     7
100
AcDbLine
 10
268.1986174242
 20
251.0041756194
 30
0.0
 11
267.9106045919
 21
234.50382257
 31
0.0
  0
ARC
  5
362
330
1B
100
AcDbEntity
 67
     1
  8
7_ALL_FEATURES
  6
Continuous
 62
     7
100
AcDbCircle
 10
209.57435991
 20
131.5041756193
 30
0.0
 40
0.5
100
AcDbArc
 50
180.9999999935
 51
269.9999999954
  0
ARC
  5
363
330
1B
100
AcDbEntity
 67
     1
  8
7_ALL_FEATURES
  6
Continuous
 62
     7
100
AcDbCircle
 10
209.5743339808
 20
131.5041810299
 30
0.0
 40
0.4999999774
100
AcDbArc
 50
247.7881605156
 51
270.0029712362
  0
LINE
  5
364
330
1B
100
AcDbEntity
 67
     1
  8
7_ALL_FEATURES
  6
Continuous
 62
     7
100
AcDbLine
 10
210.9099858832
 20
131.0041756194
 30
0.0
 11
209.57435991
 21
131.0041756194
 31
0.0
  0
LINE
  5
365
330
1B
100
AcDbEntity
 67
     1
  8
7_ALL_FEATURES
  6
Continuous
 62
     7
100
AcDbLine
 10
253.0876558357
 20
131.0041756194
 30
0.0
 11
210.9099858832
 21
131.0041756194
 31
0.0
  0
LINE
  5
366
330
1B
100
AcDbEntity
 67
     1
  8
7_ALL_FEATURES
  6
Continuous
 62
     7
100
AcDbLine
 10
254.4233529369
 20
131.0041756194
 30
0.0
 11
253.0876558357
 21
131.0041756194
 31
0.0
  0
LINE
  5
367
330
1B
100
AcDbEntity
 67
     1
  8
7_ALL_FEATURES
  6
Continuous
 62
     7
100
AcDbLine
 10
247.2512090442
 20
219.0041756194
 30
0.0
 11
243.9123802563
 21
219.0041756194
 31
0.0
  0
LWPOLYLINE
  5
368
330
1B
100
AcDbEntity
 67
     1
  8
7_ALL_FEATURES
  6
Continuous
 62
     7
100
AcDbPolyline
 90
        4
 70
     0
 43
0.0
 10
247.2513341749
 20
219.0041756194
 10
247.383578238
 20
224.164311406
 10
247.5193281732
 20
229.4935548371
 10
247.6475866535
 20
234.5041756194
  0
ARC
  5
369
330
1B
100
AcDbEntity
 67
     1
  8
7_ALL_FEATURES
  6
Continuous
 62
     7
100
AcDbCircle
 10
254.4233529369
 20
131.5041756194
 30
0.0
 40
0.5
100
AcDbArc
 50
270.000000003
 51
358.9999999966
  0
ARC
  5
36A
330
1B
100
AcDbEntity
 67
     1
  8
7_ALL_FEATURES
  6
Continuous
 62
     7
100
AcDbCircle
 10
254.423378866
 20
131.5041810271
 30
0.0
 40
0.4999999778
100
AcDbArc
 50
269.9970287797
 51
291.5866538038
  0
LINE
  5
36B
330
1B
100
AcDbEntity
 67
     1
  8
7_ALL_FEATURES
  6
Continuous
 62
     7
100
AcDbLine
 10
216.7466077118
 20
219.0041756194
 30
0.0
 11
220.0854930592
 21
219.0041756194
 31
0.0
  0
LINE
  5
36C
330
1B
100
AcDbEntity
 67
     1
  8
7_ALL_FEATURES
  6
Continuous
 62
     7
100
AcDbLine
 10
255.1765275424
 20
146.0041756177
 30
0.0
 11
255.1758748952
 21
145.9667854833
 31
0.0
  0
LWPOLYLINE
  5
36D
330
1B
100
AcDbEntity
 67
     1
  8
7_ALL_FEATURES
  6
Continuous
 62
     7
100
AcDbPolyline
 90
        4
 70
     0
 43
0.0
 10
216.3501565867
 20
234.5041756194
 10
216.4784396041
 20
229.4935072265
 10
216.6142156276
 20
224.1642661523
 10
216.7464833332
 20
219.0041756194
  0
LINE
  5
36E
330
1B
100
AcDbEntity
 67
     1
  8
7_ALL_FEATURES
  6
Continuous
 62
     7
100
AcDbLine
 10
257.0568388866
 20
154.0041756194
 30
0.0
 11
257.0044743509
 21
151.0041756194
 31
0.0
  0
LINE
  5
36F
330
1B
100
AcDbEntity
 67
     1
  8
7_ALL_FEATURES
  6
Continuous
 62
     7
100
AcDbLine
 10
255.1695242306
 20
146.0041756194
 30
0.0
 11
255.1429588915
 21
146.0041756194
 31
0.0
  0
LINE
  5
370
330
1B
100
AcDbEntity
 67
     1
  8
7_ALL_FEATURES
  6
Continuous
 62
     7
100
AcDbLine
 10
255.1765232724
 20
146.0039309897
 30
0.0
 11
255.263802867
 21
151.0041756194
 31
0.0
  0
LINE
  5
371
330
1B
100
AcDbEntity
 67
     1
  8
7_ALL_FEATURES
  6
Continuous
 62
     7
100
AcDbLine
 10
255.0847348148
 20
140.7453737769
 30
0.0
 11
255.1765258788
 21
146.0040803104
 31
0.0
  0
LINE
  5
372
330
1B
100
AcDbEntity
 67
     1
  8
7_ALL_FEATURES
  6
Continuous
 62
     7
100
AcDbLine
 10
255.263802867
 20
151.0041756194
 30
0.0
 11
255.1765270457
 21
146.0041471642
 31
0.0
  0
LWPOLYLINE
  5
373
330
1B
100
AcDbEntity
 67
     1
  8
7_ALL_FEATURES
  6
Continuous
 62
     7
100
AcDbPolyline
 90
        5
 70
     0
 43
0.0
 10
254.9820779298
 20
134.9538019346
 10
255.0085525821
 20
136.5508562838
 10
255.0331965678
 20
138.0536526175
 10
255.0560292164
 20
139.4567425175
 10
255.077078332
 20
140.7455117924
  0
LINE
  5
374
330
1B
100
AcDbEntity
 67
     1
  8
7_ALL_FEATURES
  6
Continuous
 62
     7
100
AcDbLine
 10
254.9232767845
 20
131.4954494162
 30
0.0
 11
255.0847348148
 21
140.7453737769
 31
0.0
  0
LINE
  5
375
330
1B
100
AcDbEntity
 67
     1
  8
7_ALL_FEATURES
  6
Continuous
 62
     7
100
AcDbLine
 10
254.9724400655
 20
134.3120119003
 30
0.0
 11
254.9232767845
 21
131.4954494162
 31
0.0
  0
LINE
  5
376
330
1B
100
AcDbEntity
 67
     1
  8
7_ALL_FEATURES
  6
Continuous
 62
     7
100
AcDbLine
 10
254.9724400632
 20
134.3120117638
 30
0.0
 11
254.9837032391
 21
134.9537734098
 31
0.0
  0
LWPOLYLINE
  5
377
330
1B
100
AcDbEntity
 67
     1
  8
7_ALL_FEATURES
  6
Continuous
 62
     7
100
AcDbPolyline
 90
        4
 70
     0
 43
0.0
 10
254.9837032391
 20
134.9537734098
 10
255.0164542326
 20
136.8198839641
 10
255.0582708788
 20
139.2061353236
 10
255.084979954
 20
140.7453695232
  0
LWPOLYLINE
  5
378
330
1B
100
AcDbEntity
 67
     1
  8
7_ALL_FEATURES
  6
Continuous
 62
     7
100
AcDbPolyline
 90
        3
 70
     0
 43
0.0
 10
255.084979954
 20
140.7453695232
 10
255.0968675829
 20
141.4304492174
 10
255.1324586964
 20
143.47947878
  0
LINE
  5
379
330
1B
100
AcDbEntity
 67
     1
  8
7_ALL_FEATURES
  6
Continuous
 62
     7
100
AcDbLine
 10
255.1758748952
 20
145.9667854833
 30
0.0
 11
255.1324588153
 21
143.4794799324
 31
0.0
  0
LINE
  5
37A
330
1B
100
AcDbEntity
 67
     1
  8
7_ALL_FEATURES
  6
Continuous
 62
     7
100
AcDbLine
 10
255.1324588153
 20
143.4794799324
 30
0.0
 11
255.0847348148
 21
140.7453737769
 31
0.0
  0
LINE
  5
37B
330
1B
100
AcDbEntity
 67
     1
  8
7_ALL_FEATURES
  6
Continuous
 62
     7
100
AcDbLine
 10
255.0847348148
 20
140.7453737769
 30
0.0
 11
254.9836420757
 21
134.9537746323
 31
0.0
  0
LINE
  5
37C
330
1B
100
AcDbEntity
 67
     1
  8
7_ALL_FEATURES
  6
Continuous
 62
     7
100
AcDbLine
 10
254.9836420757
 20
134.9537746323
 30
0.0
 11
254.9724400655
 21
134.3120119003
 31
0.0
  0
LINE
  5
37D
330
1B
100
AcDbEntity
 67
     1
  8
7_ALL_FEATURES
  6
Continuous
 62
     7
100
AcDbLine
 10
255.1324586964
 20
143.47947878
 30
0.0
 11
255.1331620445
 21
143.5197679067
 31
0.0
  0
LWPOLYLINE
  5
37E
330
1B
100
AcDbEntity
 67
     1
  8
7_ALL_FEATURES
  6
Continuous
 62
     7
100
AcDbPolyline
 90
        4
 70
     0
 43
0.0
 10
255.1331620445
 20
143.5197679067
 10
255.1501583801
 20
144.4933505643
 10
255.1663514529
 20
145.4205655794
 10
255.1758748965
 20
145.9667855612
  0
LINE
  5
37F
330
1B
100
AcDbEntity
 67
     1
  8
7_ALL_FEATURES
  6
Continuous
 62
     7
100
AcDbLine
 10
209.0253038296
 20
134.3102331512
 30
0.0
 11
209.0744360625
 21
131.4954494162
 31
0.0
  0
LWPOLYLINE
  5
380
330
1B
100
AcDbEntity
 67
     1
  8
7_ALL_FEATURES
  6
Continuous
 62
     7
100
AcDbPolyline
 90
        5
 70
     0
 43
0.0
 10
208.8651947522
 20
143.4828849503
 10
208.9008026401
 20
141.4327677578
 10
208.9394188146
 20
139.2072336211
 10
208.9812603109
 20
136.819674226
 10
209.025303832
 20
134.3102330148
  0
LINE
  5
381
330
1B
100
AcDbEntity
 67
     1
  8
7_ALL_FEATURES
  6
Continuous
 62
     7
100
AcDbLine
 10
208.8651945653
 20
143.4828867622
 30
0.0
 11
209.0253038296
 21
134.3102331512
 31
0.0
  0
LINE
  5
382
330
1B
100
AcDbEntity
 67
     1
  8
7_ALL_FEATURES
  6
Continuous
 62
     7
100
AcDbLine
 10
208.8218334896
 20
145.9670411251
 30
0.0
 11
208.8651945653
 21
143.4828867622
 31
0.0
  0
LWPOLYLINE
  5
383
330
1B
100
AcDbEntity
 67
     1
  8
7_ALL_FEATURES
  6
Continuous
 62
     7
100
AcDbPolyline
 90
        4
 70
     0
 43
0.0
 10
208.8218334899
 20
145.9670411058
 10
208.8313456255
 20
145.4214697654
 10
208.847517788
 20
144.4954498915
 10
208.8651947522
 20
143.4828849503
  0
LINE
  5
384
330
1B
100
AcDbEntity
 67
     1
  8
3_ALL_AXES
  6
Continuous
 62
     7
100
AcDbLine
 10
230.9229274927
 20
219.0041756194
 30
0.0
 11
233.0684707655
 21
219.0041756194
 31
0.0
  0
LINE
  5
385
330
1B
100
AcDbEntity
 67
     1
  8
3_ALL_AXES
  6
Continuous
 62
     7
100
AcDbLine
 10
230.9061622764
 20
251.0041756194
 30
0.0
 11
233.0852359819
 21
251.0041756194
 31
0.0
  0
LINE
  5
386
330
1B
100
AcDbEntity
 67
     1
  8
3_ALL_AXES
  6
Continuous
 62
     7
100
AcDbLine
 10
233.0852359819
 20
251.0041756194
 30
0.0
 11
233.0684707655
 21
219.0041756194
 31
0.0
  0
LINE
  5
387
330
1B
100
AcDbEntity
 67
     1
  8
3_ALL_AXES
  6
Continuous
 62
     7
100
AcDbLine
 10
230.9061622764
 20
251.0041756194
 30
0.0
 11
230.9229274927
 21
219.0041756194
 31
0.0
  0
LINE
  5
388
330
1B
100
AcDbEntity
 67
     1
  8
7_ALL_FEATURES
  6
Continuous
 62
     7
100
AcDbLine
 10
206.9869239074
 20
151.0041756194
 30
0.0
 11
208.7275953912
 21
151.0041756194
 31
0.0
  0
LINE
  5
389
330
1B
100
AcDbEntity
 67
     1
  8
7_ALL_FEATURES
  6
Continuous
 62
     7
100
AcDbLine
 10
208.7275953912
 20
151.0041756194
 30
0.0
 11
209.9320566693
 21
151.0041756194
 31
0.0
  0
LINE
  5
38A
330
1B
100
AcDbEntity
 67
     1
  8
7_ALL_FEATURES
  6
Continuous
 62
     7
100
AcDbLine
 10
208.8148707158
 20
146.0041756194
 30
0.0
 11
208.7275953912
 21
151.0041756194
 31
0.0
  0
LINE
  5
38B
330
1B
100
AcDbEntity
 67
     1
  8
7_ALL_FEATURES
  6
Continuous
 62
     7
100
AcDbLine
 10
208.7275953912
 20
151.0041756194
 30
0.0
 11
208.8148707158
 21
146.0041756194
 31
0.0
  0
LINE
  5
38C
330
1B
100
AcDbEntity
 67
     1
  8
7_ALL_FEATURES
  6
Continuous
 62
     7
100
AcDbLine
 10
254.0549562875
 20
151.0041756194
 30
0.0
 11
255.263802867
 21
151.0041756194
 31
0.0
  0
LINE
  5
38D
330
1B
100
AcDbEntity
 67
     1
  8
7_ALL_FEATURES
  6
Continuous
 62
     7
100
AcDbLine
 10
255.263802867
 20
151.0041756194
 30
0.0
 11
257.0044743508
 21
151.0041756194
 31
0.0
  0
LINE
  5
38E
330
1B
100
AcDbEntity
 67
     1
  8
7_ALL_FEATURES
  6
Continuous
 62
     7
100
AcDbLine
 10
258.9910430755
 20
154.0041756194
 30
0.0
 11
257.052165391
 21
154.0041756194
 31
0.0
  0
LINE
  5
38F
330
1B
100
AcDbEntity
 67
     1
  8
7_ALL_FEATURES
  6
Continuous
 62
     7
100
AcDbLine
 10
250.7316612536
 20
154.0041756194
 30
0.0
 11
251.4387680348
 21
154.0041756193
 31
0.0
  0
LINE
  5
390
330
1B
100
AcDbEntity
 67
     1
  8
7_ALL_FEATURES
  6
Continuous
 62
     7
100
AcDbLine
 10
251.4387680348
 20
154.0041756193
 30
0.0
 11
257.1533737628
 21
175.9219517029
 31
0.0
  0
LINE
  5
391
330
1B
100
AcDbEntity
 67
     1
  8
7_ALL_FEATURES
  6
Continuous
 62
     7
100
AcDbLine
 10
250.7316612536
 20
154.0041756194
 30
0.0
 11
249.3602748644
 21
154.0041756194
 31
0.0
  0
LINE
  5
392
330
1B
100
AcDbEntity
 67
     1
  8
7_ALL_FEATURES
  6
Continuous
 62
     7
100
AcDbLine
 10
205.0066697714
 20
154.0041756193
 30
0.0
 11
197.1163094034
 21
175.9218433081
 31
0.0
  0
LINE
  5
393
330
1B
100
AcDbEntity
 67
     1
  8
3_ALL_AXES
  6
Continuous
 62
     7
100
AcDbLine
 10
243.9123802563
 20
219.0041756194
 30
0.0
 11
233.0661028589
 21
219.0041756194
 31
0.0
  0
LINE
  5
394
330
1B
100
AcDbEntity
 67
     1
  8
3_ALL_AXES
  6
Continuous
 62
     7
100
AcDbLine
 10
230.9316099878
 20
219.0041756194
 30
0.0
 11
220.0854930592
 21
219.0041756194
 31
0.0
  0
LINE
  5
395
330
1B
100
AcDbEntity
 67
     1
  8
7_ALL_FEATURES
  6
Continuous
 62
     7
100
AcDbLine
 10
214.6374379825
 20
154.0041756194
 30
0.0
 11
213.2660515935
 21
154.0041756194
 31
0.0
  0
LINE
  5
396
330
1B
100
AcDbEntity
 67
     1
  8
3_ALL_AXES
  6
Continuous
 62
     7
100
AcDbLine
 10
232.6901299577
 20
175.9219517029
 30
0.0
 11
233.0661028299
 21
219.0041756196
 31
0.0
  0
LINE
  5
397
330
1B
100
AcDbEntity
 67
     1
  8
3_ALL_AXES
  6
Continuous
 62
     7
100
AcDbLine
 10
230.9316100171
 20
219.0041756196
 30
0.0
 11
231.3075828894
 21
175.9219517029
 31
0.0
  0
LINE
  5
398
330
1B
100
AcDbEntity
 67
     1
  8
7_ALL_FEATURES
  6
Continuous
 62
     7
100
AcDbLine
 10
232.4988564235
 20
154.0041756192
 30
0.0
 11
232.6901299575
 21
175.9219517029
 31
0.0
  0
LINE
  5
399
330
1B
100
AcDbEntity
 67
     1
  8
7_ALL_FEATURES
  6
Continuous
 62
     7
100
AcDbLine
 10
231.4988564235
 20
154.0041756194
 30
0.0
 11
232.4988564235
 21
154.0041756192
 31
0.0
  0
LINE
  5
39A
330
1B
100
AcDbEntity
 67
     1
  8
7_ALL_FEATURES
  6
Continuous
 62
     7
100
AcDbLine
 10
231.3075828894
 20
175.9219517029
 30
0.0
 11
231.4988564235
 21
154.0041756194
 31
0.0
  0
LINE
  5
39B
330
1B
100
AcDbEntity
 67
     1
  8
7_ALL_FEATURES
  6
Continuous
 62
     7
100
AcDbLine
 10
212.5589448121
 20
154.0041756194
 30
0.0
 11
213.2660515933
 21
154.0041756193
 31
0.0
  0
LINE
  5
39C
330
1B
100
AcDbEntity
 67
     1
  8
7_ALL_FEATURES
  6
Continuous
 62
     7
100
AcDbLine
 10
206.8445405935
 20
175.9212816473
 30
0.0
 11
212.5589448121
 21
154.0041756194
 31
0.0
  0
LINE
  5
39D
330
1B
100
AcDbEntity
 67
     1
  8
7_ALL_FEATURES
  6
Continuous
 62
     7
100
AcDbLine
 10
233.0822400596
 20
251.0041756194
 30
0.0
 11
266.6976794889
 21
251.0041756194
 31
0.0
  0
LINE
  5
39E
330
1B
100
AcDbEntity
 67
     1
  8
7_ALL_FEATURES
  6
Continuous
 62
     7
100
AcDbLine
 10
266.6976794889
 20
251.0041756194
 30
0.0
 11
268.1982248234
 21
251.0041756194
 31
0.0
  0
LINE
  5
39F
330
1B
100
AcDbEntity
 67
     1
  8
3_ALL_AXES
  6
Continuous
 62
     7
100
AcDbLine
 10
256.5276051702
 20
234.5041756194
 30
0.0
 11
247.6475866535
 21
234.5041756194
 31
0.0
  0
LINE
  5
3A0
330
1B
100
AcDbEntity
 67
     1
  8
3_ALL_AXES
  6
Continuous
 62
     7
100
AcDbLine
 10
247.6475866535
 20
234.5041756194
 30
0.0
 11
244.370172674
 21
234.5041756194
 31
0.0
  0
LINE
  5
3A1
330
1B
100
AcDbEntity
 67
     1
  8
7_ALL_FEATURES
  6
Continuous
 62
     7
100
AcDbLine
 10
206.945547456
 20
154.0041756194
 30
0.0
 11
205.0066697716
 21
154.0041756194
 31
0.0
  0
SPLINE
  5
3A2
330
1B
100
AcDbEntity
 67
     1
  8
7_ALL_FEATURES
  6
Continuous
 62
     7
100
AcDbSpline
 70
     0
 71
     3
 72
     8
 73
     4
 74
     0
 42
0.000000001
 43
0.0000001
 40
0.0
 40
0.0
 40
0.0
 40
0.0
 40
1.0
 40
1.0
 40
1.0
 40
1.0
 10
257.1533737628
 20
175.9219517029
 30
0.0
 10
257.5125504025
 20
195.4493451613
 30
0.0
 10
257.8709180285
 20
214.9767535147
 30
0.0
 10
258.2285338626
 20
234.5041756194
 30
0.0
  0
LINE
  5
3A3
330
1B
100
AcDbEntity
 67
     1
  8
7_ALL_FEATURES
  6
Continuous
 62
     7
100
AcDbLine
 10
258.2285338627
 20
234.5041756194
 30
0.0
 11
258.4349517338
 21
234.5041756194
 31
0.0
  0
LINE
  5
3A4
330
1B
100
AcDbEntity
 67
     1
  8
7_ALL_FEATURES
  6
Continuous
 62
     7
100
AcDbLine
 10
258.4349517338
 20
234.5041756194
 30
0.0
 11
267.8903782756
 21
234.5041756194
 31
0.0
  0
LINE
  5
3A5
330
1B
100
AcDbEntity
 67
     1
  8
7_ALL_FEATURES
  6
Continuous
 62
     7
100
AcDbLine
 10
196.107334586
 20
234.5041756194
 30
0.0
 11
205.5627611131
 21
234.5041756194
 31
0.0
  0
LINE
  5
3A6
330
1B
100
AcDbEntity
 67
     1
  8
7_ALL_FEATURES
  6
Continuous
 62
     7
100
AcDbLine
 10
205.5627611131
 20
234.5041756194
 30
0.0
 11
205.7691789843
 21
234.5041756194
 31
0.0
  0
SPLINE
  5
3A7
330
1B
100
AcDbEntity
 67
     1
  8
7_ALL_FEATURES
  6
Continuous
 62
     7
100
AcDbSpline
 70
     0
 71
     3
 72
     8
 73
     4
 74
     0
 42
0.000000001
 43
0.0000001
 40
0.0
 40
0.0
 40
0.0
 40
0.0
 40
1.0
 40
1.0
 40
1.0
 40
1.0
 10
205.7691789844
 20
234.5041756194
 30
0.0
 10
206.126798929
 20
214.9765290592
 30
0.0
 10
206.4853329104
 20
195.4488992281
 30
0.0
 10
206.8445137892
 20
175.9212813165
 30
0.0
  0
LINE
  5
3A8
330
1B
100
AcDbEntity
 67
     1
  8
7_ALL_FEATURES
  6
Continuous
 62
     7
100
AcDbLine
 10
207.4697889769
 20
234.5041756194
 30
0.0
 11
216.3501565867
 21
234.5041756194
 31
0.0
  0
LINE
  5
3A9
330
1B
100
AcDbEntity
 67
     1
  8
7_ALL_FEATURES
  6
Continuous
 62
     7
100
AcDbLine
 10
216.3501565867
 20
234.5041756194
 30
0.0
 11
219.6271889101
 21
234.5041756194
 31
0.0
  0
LINE
  5
3AA
330
1B
100
AcDbEntity
 67
     1
  8
7_ALL_FEATURES
  6
Continuous
 62
     7
100
AcDbLine
 10
266.8813886105
 20
175.9218021054
 30
0.0
 11
258.9910430755
 21
154.0041756194
 31
0.0
  0
SPLINE
  5
3AB
330
1B
100
AcDbEntity
 67
     1
  8
7_ALL_FEATURES
  6
Continuous
 62
     7
100
AcDbSpline
 70
     0
 71
     3
 72
    14
 73
    10
 74
     0
 42
0.000000001
 43
0.0000001
 40
0.0
 40
0.0
 40
0.0
 40
0.0
 40
0.0633319676
 40
0.146394347
 40
0.3670104485
 40
0.5027003465
 40
0.6537116718
 40
0.8208913783
 40
1.0
 40
1.0
 40
1.0
 40
1.0
 10
255.0879081584
 20
146.0144059315
 30
0.0
 10
255.0642518886
 20
146.0222837714
 30
0.0
 10
255.011115956
 20
146.0449020261
 30
0.0
 10
254.8806235035
 20
146.1068212264
 30
0.0
 10
254.724735133
 20
146.1818613164
 30
0.0
 10
254.5434627597
 20
146.2657262072
 30
0.0
 10
254.3781205175
 20
146.3338203598
 30
0.0
 10
254.1985020535
 20
146.4106616218
 30
0.0
 10
254.070406574
 20
146.4606282595
 30
0.0
 10
254.001239555
 20
146.4743461386
 30
0.0
  0
SPLINE
  5
3AC
330
1B
100
AcDbEntity
 67
     1
  8
7_ALL_FEATURES
  6
Continuous
 62
     7
100
AcDbSpline
 70
     0
 71
     3
 72
    14
 73
    10
 74
     0
 42
0.000000001
 43
0.0000001
 40
0.0
 40
0.0
 40
0.0
 40
0.0
 40
0.1728121391
 40
0.3393670666
 40
0.4950733988
 40
0.6321148365
 40
0.8503652431
 40
0.9332237396
 40
1.0
 40
1.0
 40
1.0
 40
1.0
 10
253.8107025351
 20
146.4863998418
 30
0.0
 10
253.8894781102
 20
146.4858279751
 30
0.0
 10
254.0443284237
 20
146.4574842894
 30
0.0
 10
254.2521344435
 20
146.3682188862
 30
0.0
 10
254.4379776641
 20
146.271649164
 30
0.0
 10
254.6527399945
 20
146.1809961327
 30
0.0
 10
254.8415377292
 20
146.1149636266
 30
0.0
 10
254.9943580752
 20
146.0462051838
 30
0.0
 10
255.0583335837
 20
146.0216145858
 30
0.0
 10
255.0879081584
 20
146.0144059315
 30
0.0
  0
SPLINE
  5
3AD
330
1B
100
AcDbEntity
 67
     1
  8
7_ALL_FEATURES
  6
Continuous
 62
     7
100
AcDbSpline
 70
     0
 71
     3
 72
     9
 73
     5
 74
     0
 42
0.000000001
 43
0.0000001
 40
0.0
 40
0.0
 40
0.0
 40
0.0
 40
0.5037703922
 40
1.0
 40
1.0
 40
1.0
 40
1.0
 10
253.8104998272
 20
146.4864052437
 30
0.0
 10
253.8372680244
 20
146.4864052439
 30
0.0
 10
253.8897063275
 20
146.4735012399
 30
0.0
 10
253.9430721758
 20
146.4777413688
 30
0.0
 10
253.9694396868
 20
146.4777496938
 30
0.0
  0
LINE
  5
3AE
330
1B
100
AcDbEntity
 67
     1
  8
7_ALL_FEATURES
  6
Continuous
 62
     7
100
AcDbLine
 10
210.187742056
 20
146.4866022951
 30
0.0
 11
210.0173556438
 21
146.4880275621
 31
0.0
  0
SPLINE
  5
3AF
330
1B
100
AcDbEntity
 67
     1
  8
7_ALL_FEATURES
  6
Continuous
 62
     7
100
AcDbSpline
 70
     0
 71
     3
 72
    15
 73
    11
 74
     0
 42
0.000000001
 43
0.0000001
 40
0.0
 40
0.0
 40
0.0
 40
0.0
 40
0.1813060495
 40
0.358520665
 40
0.5181987345
 40
0.6541508615
 40
0.7705696339
 40
0.8687256707
 40
0.9458882549
 40
1.0
 40
1.0
 40
1.0
 40
1.0
 10
210.0171277923
 20
146.4880211311
 30
0.0
 10
209.9417169193
 20
146.4880213604
 30
0.0
 10
209.7925504951
 20
146.4506425556
 30
0.0
 10
209.6051882901
 20
146.3442843383
 30
0.0
 10
209.4329473979
 20
146.2488622149
 30
0.0
 10
209.2749122328
 20
146.1821806568
 30
0.0
 10
209.1406853193
 20
146.1252795656
 30
0.0
 10
209.0319248684
 20
146.0712151398
 30
0.0
 10
208.9461765221
 20
146.0297964954
 30
0.0
 10
208.8946504116
 20
146.0102117099
 30
0.0
 10
208.8725195063
 20
146.0061156358
 30
0.0
  0
SPLINE
  5
3B0
330
1B
100
AcDbEntity
 67
     1
  8
7_ALL_FEATURES
  6
Continuous
 62
     7
100
AcDbSpline
 70
     0
 71
     3
 72
     8
 73
     4
 74
     0
 42
0.000000001
 43
0.0000001
 40
0.0
 40
0.0
 40
0.0
 40
0.0
 40
1.0
 40
1.0
 40
1.0
 40
1.0
 10
208.8725195063
 20
146.0061156358
 30
0.0
 10
208.8662915277
 20
146.0049629372
 30
0.0
 10
208.8599512965
 20
146.0041753514
 30
0.0
 10
208.8536175432
 20
146.0041756171
 30
0.0
  0
SPLINE
  5
3B1
330
1B
100
AcDbEntity
 67
     1
  8
7_ALL_FEATURES
  6
Continuous
 62
     7
100
AcDbSpline
 70
     0
 71
     3
 72
    10
 73
     6
 74
     0
 42
0.000000001
 43
0.0000001
 40
0.0
 40
0.0
 40
0.0
 40
0.0
 40
0.5518411125
 40
0.7472963356
 40
1.0
 40
1.0
 40
1.0
 40
1.0
 10
254.001239555
 20
146.4743461386
 30
0.0
 10
253.9985509872
 20
146.4823560475
 30
0.0
 10
253.9939428446
 20
146.4974004203
 30
0.0
 10
253.9767572811
 20
146.4952290463
 30
0.0
 10
253.9721709251
 20
146.4896654152
 30
0.0
 10
253.9698143036
 20
146.4865968524
 30
0.0
  0
ARC
  5
3B2
330
1B
100
AcDbEntity
 67
     1
  8
7_ALL_FEATURES
  6
Continuous
 62
     7
100
AcDbCircle
 10
227.9608780775
 20
24.3901261584
 30
0.0
 40
151.605606678
100
AcDbArc
 50
88.21240029270001
 51
88.4737591977
  0
ARC
  5
3B3
330
1B
100
AcDbEntity
 67
     1
  8
7_ALL_FEATURES
  6
Continuous
 62
     7
100
AcDbCircle
 10
234.4115189398
 20
80.5765989403
 30
0.0
 40
95.395863183
100
AcDbArc
 50
91.44922362129999
 51
91.86458641310001
  0
LINE
  5
3B4
330
1B
100
AcDbEntity
 67
     1
  8
7_ALL_FEATURES
  6
Continuous
 62
     7
100
AcDbLine
 10
256.1757653556
 20
175.9219517029
 30
0.0
 11
250.7316612536
 21
154.0041756194
 31
0.0
  0
LINE
  5
3B5
330
1B
100
AcDbEntity
 67
     1
  8
7_ALL_FEATURES
  6
Continuous
 62
     7
100
AcDbLine
 10
257.0521658104
 20
154.0041999242
 30
0.0
 11
257.4299952764
 21
175.9171839206
 31
0.0
  0
SPLINE
  5
3B6
330
1B
100
AcDbEntity
 67
     1
  8
7_ALL_FEATURES
  6
Continuous
 62
     7
100
AcDbSpline
 70
     0
 71
     3
 72
     8
 73
     4
 74
     0
 42
0.000000001
 43
0.0000001
 40
0.0
 40
0.0
 40
0.0
 40
0.0
 40
1.0
 40
1.0
 40
1.0
 40
1.0
 10
257.4299952764
 20
175.9171839206
 30
0.0
 10
257.7660821505
 20
195.4461679424
 30
0.0
 10
258.1014929483
 20
214.9751636829
 30
0.0
 10
258.4349517338
 20
234.5041927563
 30
0.0
  0
LINE
  5
3B7
330
1B
100
AcDbEntity
 67
     1
  8
7_ALL_FEATURES
  6
Continuous
 62
     9
100
AcDbLine
 10
253.9694396868
 20
146.4777496938
 30
0.0
 11
254.0549562875
 21
151.0041756194
 31
0.0
  0
SPLINE
  5
3B8
330
1B
100
AcDbEntity
 67
     1
  8
7_ALL_FEATURES
  6
Continuous
 62
     9
100
AcDbSpline
 70
     0
 71
     3
 72
    20
 73
    16
 74
     0
 42
0.000000001
 43
0.0000001
 40
0.0
 40
0.0
 40
0.0
 40
0.0
 40
0.00118696
 40
0.004340133
 40
0.0166959668
 40
0.0370551882
 40
0.0653193911
 40
0.1014012626
 40
0.1452664621
 40
0.196893617
 40
0.2562609732
 40
0.3980013522
 40
0.5696761639
 40
0.7704562923
 40
1.0
 40
1.0
 40
1.0
 40
1.0
 10
209.0744360625
 20
131.4954494162
 30
0.0
 10
209.0744500477
 20
131.4948949526
 30
0.0
 10
209.0772727582
 20
131.4944845307
 30
0.0
 10
209.0837940956
 20
131.4932242917
 30
0.0
 10
209.1017670264
 20
131.4924873045
 30
0.0
 10
209.1295271254
 20
131.4913261845
 30
0.0
 10
209.1694138122
 20
131.4905588631
 30
0.0
 10
209.2198531653
 20
131.4898635604
 30
0.0
 10
209.2813767276
 20
131.4893944469
 30
0.0
 10
209.3537239907
 20
131.489104316
 30
0.0
 10
209.4718277299
 20
131.4889803535
 30
0.0
 10
209.6460168104
 20
131.4893993148
 30
0.0
 10
209.8862873047
 20
131.4906472396
 30
0.0
 10
210.1675801279
 20
131.4926797397
 30
0.0
 10
210.3686533024
 20
131.4944477278
 30
0.0
 10
210.4759092292
 20
131.4954550709
 30
0.0
  0
SPLINE
  5
3B9
330
1B
100
AcDbEntity
 67
     1
  8
7_ALL_FEATURES
  6
Continuous
 62
     7
100
AcDbSpline
 70
     0
 71
     3
 72
     8
 73
     4
 74
     0
 42
0.000000001
 43
0.0000001
 40
0.0
 40
0.0
 40
0.0
 40
0.0
 40
1.0
 40
1.0
 40
1.0
 40
1.0
 10
205.5627611131
 20
234.5041927563
 30
0.0
 10
205.8962237309
 20
214.9749392396
 30
0.0
 10
206.2316383442
 20
195.4457190555
 30
0.0
 10
206.5677291219
 20
175.9165105917
 30
0.0
  0
LINE
  5
3BA
330
1B
100
AcDbEntity
 67
     1
  8
7_ALL_FEATURES
  6
Continuous
 62
     7
100
AcDbLine
 10
206.5677291219
 20
175.9165105917
 30
0.0
 11
206.9455470365
 21
154.0041999242
 31
0.0
  0
LINE
  5
3BB
330
1B
100
AcDbEntity
 67
     1
  8
7_ALL_FEATURES
  6
Continuous
 62
     7
100
AcDbLine
 10
213.2660515933
 20
154.0041756193
 30
0.0
 11
207.8220871186
 21
175.921281647
 31
0.0
  0
SPLINE
  5
3BC
330
1B
100
AcDbEntity
 67
     1
  8
7_ALL_FEATURES
  6
Continuous
 62
     9
100
AcDbSpline
 70
     0
 71
     3
 72
     9
 73
     5
 74
     0
 42
0.000000001
 43
0.0000001
 40
0.0
 40
0.0
 40
0.0
 40
0.0
 40
0.2499460664
 40
1.0
 40
1.0
 40
1.0
 40
1.0
 10
253.521985579
 20
131.4954547395
 30
0.0
 10
253.5460829865
 20
132.7444299415
 30
0.0
 10
253.6416951417
 20
137.7414240163
 30
0.0
 10
253.736363043
 20
142.7384371045
 30
0.0
 10
253.8106369316
 20
146.4864023854
 30
0.0
  0
LINE
  5
3BD
330
1B
100
AcDbEntity
 67
     1
  8
7_ALL_FEATURES
  6
Continuous
 62
     7
100
AcDbLine
 10
210.4759092279
 20
131.4954550709
 30
0.0
 11
253.521985579
 21
131.4954547395
 31
0.0
  0
LINE
  5
3BE
330
1B
100
AcDbEntity
 67
     1
  8
7_ALL_FEATURES
  6
Continuous
 62
     9
100
AcDbLine
 10
243.9264178209
 20
219.0041291519
 30
0.0
 11
244.3701792143
 21
234.504165029
 31
0.0
  0
SPLINE
  5
3BF
330
1B
100
AcDbEntity
 67
     1
  8
7_ALL_FEATURES
  6
Continuous
 62
     7
100
AcDbSpline
 70
     0
 71
     3
 72
    15
 73
    11
 74
     0
 42
0.000000001
 43
0.0000001
 40
0.0
 40
0.0
 40
0.0
 40
0.0
 40
0.0523913951
 40
0.1275642845
 40
0.2231889413
 40
0.3391464764
 40
0.4778376946
 40
0.6400945957
 40
0.8160858851
 40
1.0
 40
1.0
 40
1.0
 40
1.0
 10
208.8816127938
 20
146.0041756191
 30
0.0
 10
208.9060734531
 20
146.0041756377
 30
0.0
 10
208.9645959359
 20
146.0204684361
 30
0.0
 10
209.0614129697
 20
146.0574865755
 30
0.0
 10
209.1869857529
 20
146.1045177322
 30
0.0
 10
209.3392991875
 20
146.1639330025
 30
0.0
 10
209.5160214199
 20
146.2461064856
 30
0.0
 10
209.7102605403
 20
146.3550253917
 30
0.0
 10
209.9331794138
 20
146.4554712188
 30
0.0
 10
210.1016698698
 20
146.4865699046
 30
0.0
 10
210.1875362658
 20
146.4865968008
 30
0.0
  0
SPLINE
  5
3C0
330
1B
100
AcDbEntity
 67
     1
  8
7_ALL_FEATURES
  6
Continuous
 62
     7
100
AcDbSpline
 70
     0
 71
     3
 72
     8
 73
     4
 74
     0
 42
0.000000001
 43
0.0000001
 40
0.0
 40
0.0
 40
0.0
 40
0.0
 40
1.0
 40
1.0
 40
1.0
 40
1.0
 10
256.5277513567
 20
234.5041821246
 30
0.0
 10
256.4111369293
 20
214.9767677056
 30
0.0
 10
256.293941715
 20
195.4493567318
 30
0.0
 10
256.1757653555
 20
175.9219517029
 30
0.0
  0
SPLINE
  5
3C1
330
1B
100
AcDbEntity
 67
     1
  8
3_ALL_AXES
  6
Continuous
 62
     7
100
AcDbSpline
 70
     0
 71
     3
 72
     9
 73
     5
 74
     0
 42
0.000000001
 43
0.0000001
 40
0.0
 40
0.0
 40
0.0
 40
0.0
 40
0.4950186895
 40
1.0
 40
1.0
 40
1.0
 40
1.0
 10
257.1533737628
 20
175.9219517029
 30
0.0
 10
256.9924990206
 20
175.9353939305
 30
0.0
 10
256.6661810868
 20
175.946969798
 30
0.0
 10
256.3399233229
 20
175.9351085772
 30
0.0
 10
256.1757653556
 20
175.9219517029
 30
0.0
  0
SPLINE
  5
3C2
330
1B
100
AcDbEntity
 67
     1
  8
7_ALL_FEATURES
  6
Continuous
 62
     7
100
AcDbSpline
 70
     0
 71
     3
 72
     8
 73
     4
 74
     0
 42
0.000000001
 43
0.0000001
 40
0.0
 40
0.0
 40
0.0
 40
0.0
 40
1.0
 40
1.0
 40
1.0
 40
1.0
 10
214.1560193647
 20
234.5041756194
 30
0.0
 10
214.3144347978
 20
207.6708329157
 30
0.0
 10
214.4749068781
 20
180.8375022872
 30
0.0
 10
214.6372714992
 20
154.0041831888
 30
0.0
  0
SPLINE
  5
3C3
330
1B
100
AcDbEntity
 67
     1
  8
7_ALL_FEATURES
  6
Continuous
 62
     7
100
AcDbSpline
 70
     0
 71
     3
 72
     8
 73
     4
 74
     0
 42
0.000000001
 43
0.0000001
 40
0.0
 40
0.0
 40
0.0
 40
0.0
 40
1.0
 40
1.0
 40
1.0
 40
1.0
 10
267.8907096765
 20
234.5042070223
 30
0.0
 10
267.5554085524
 20
214.9769563372
 30
0.0
 10
267.2189575683
 20
195.4497253677
 30
0.0
 10
266.8814521449
 20
175.9225126569
 30
0.0
  0
SPLINE
  5
3C4
330
1B
100
AcDbEntity
 67
     1
  8
7_ALL_FEATURES
  6
Continuous
 62
     7
100
AcDbSpline
 70
     0
 71
     3
 72
     8
 73
     4
 74
     0
 42
0.000000001
 43
0.0000001
 40
0.0
 40
0.0
 40
0.0
 40
0.0
 40
1.0
 40
1.0
 40
1.0
 40
1.0
 10
249.3604413478
 20
154.0041831888
 30
0.0
 10
249.5228059688
 20
180.8375022872
 30
0.0
 10
249.6832780492
 20
207.6708329157
 30
0.0
 10
249.8416934824
 20
234.5041756194
 30
0.0
  0
SPLINE
  5
3C5
330
1B
100
AcDbEntity
 67
     1
  8
7_ALL_FEATURES
  6
Continuous
 62
     9
100
AcDbSpline
 70
     0
 71
     3
 72
     9
 73
     5
 74
     0
 42
0.000000001
 43
0.0000001
 40
0.0
 40
0.0
 40
0.0
 40
0.0
 40
0.2499448019
 40
1.0
 40
1.0
 40
1.0
 40
1.0
 10
210.1876048443
 20
146.4865995579
 30
0.0
 10
210.2114960553
 20
145.2376108725
 30
0.0
 10
210.3072624979
 20
140.2405562699
 30
0.0
 10
210.4035951695
 20
135.2435125416
 30
0.0
 10
210.4759092279
 20
131.4954550709
 30
0.0
  0
LINE
  5
3C6
330
1B
100
AcDbEntity
 67
     1
  8
7_ALL_FEATURES
  6
Continuous
 62
     7
100
AcDbLine
 10
255.1429571129
 20
146.0040734468
 30
0.0
 11
255.1395965517
 21
146.0042747302
 31
0.0
  0
SPLINE
  5
3C7
330
1B
100
AcDbEntity
 67
     1
  8
7_ALL_FEATURES
  6
Continuous
 62
     7
100
AcDbSpline
 70
     0
 71
     3
 72
    11
 73
     7
 74
     0
 42
0.000000001
 43
0.0000001
 40
0.0
 40
0.0
 40
0.0
 40
0.0
 40
0.234164667
 40
0.4780581442
 40
0.7347032291
 40
1.0
 40
1.0
 40
1.0
 40
1.0
 10
210.9099859141
 20
131.0041847944
 30
0.0
 10
210.8536910105
 20
131.0044344806
 30
0.0
 10
210.7374655321
 20
131.0316084124
 30
0.0
 10
210.594332904
 20
131.1430173821
 30
0.0
 10
210.4994439306
 20
131.305394014
 30
0.0
 10
210.476493234
 20
131.4316753169
 30
0.0
 10
210.4756159035
 20
131.4954491997
 30
0.0
  0
SPLINE
  5
3C8
330
1B
100
AcDbEntity
 67
     1
  8
7_ALL_FEATURES
  6
Continuous
 62
     7
100
AcDbSpline
 70
     0
 71
     3
 72
     8
 73
     4
 74
     0
 42
0.000000001
 43
0.0000001
 40
0.0
 40
0.0
 40
0.0
 40
0.0
 40
1.0
 40
1.0
 40
1.0
 40
1.0
 10
197.1162608563
 20
175.9225037101
 30
0.0
 10
196.778746876
 20
195.4497192562
 30
0.0
 10
196.4423043457
 20
214.9769533549
 30
0.0
 10
196.1070031704
 20
234.5042070223
 30
0.0
  0
SPLINE
  5
3C9
330
1B
100
AcDbEntity
 67
     1
  8
7_ALL_FEATURES
  6
Continuous
 62
     9
100
AcDbSpline
 70
     0
 71
     3
 72
    20
 73
    16
 74
     0
 42
0.000000001
 43
0.0000001
 40
0.0
 40
0.0
 40
0.0
 40
0.0
 40
0.2295568091
 40
0.4303428572
 40
0.6019987578
 40
0.7437550493
 40
0.8031096383
 40
0.8547245878
 40
0.8985929527
 40
0.9346848967
 40
0.9629472599
 40
0.9833036225
 40
0.9956583563
 40
0.9988116229
 40
1.0
 40
1.0
 40
1.0
 40
1.0
 10
253.5219855833
 20
131.4954547394
 30
0.0
 10
253.6292339915
 20
131.4944534943
 30
0.0
 10
253.830290442
 20
131.4926936512
 30
0.0
 10
254.1115474051
 20
131.490662729
 30
0.0
 10
254.3517885464
 20
131.4894104559
 30
0.0
 10
254.5259480073
 20
131.4889823105
 30
0.0
 10
254.6440324126
 20
131.4890999806
 30
0.0
 10
254.7163603273
 20
131.4893860802
 30
0.0
 10
254.7778763705
 20
131.4898518264
 30
0.0
 10
254.8283151058
 20
131.490543557
 30
0.0
 10
254.8681979588
 20
131.4913120528
 30
0.0
 10
254.8959547638
 20
131.4924711507
 30
0.0
 10
254.9139182644
 20
131.4932175572
 30
0.0
 10
254.9204434248
 20
131.4944762358
 30
0.0
 10
254.9232628105
 20
131.4948943608
 30
0.0
 10
254.9232767845
 20
131.4954494162
 30
0.0
  0
ARC
  5
3CA
330
1B
100
AcDbEntity
 67
     1
  8
7_ALL_FEATURES
  6
Continuous
 62
     7
100
AcDbCircle
 10
255.1860794223
 20
146.3489466938
 30
0.0
 40
0.3486475566
100
AcDbArc
 50
253.6456300244
 51
258.2675515273999
  0
SPLINE
  5
3CB
330
1B
100
AcDbEntity
 67
     1
  8
3_ALL_AXES
  6
Continuous
 62
     7
100
AcDbSpline
 70
     0
 71
     3
 72
     9
 73
     5
 74
     0
 42
0.000000001
 43
0.0000001
 40
0.0
 40
0.0
 40
0.0
 40
0.0
 40
0.2540887153
 40
1.0
 40
1.0
 40
1.0
 40
1.0
 10
207.8220871186
 20
175.921281647
 30
0.0
 10
207.7395060325
 20
175.9279000135
 30
0.0
 10
207.4140356766
 20
175.9476614889
 30
0.0
 10
207.0869011913
 20
175.941531599
 30
0.0
 10
206.8445405935
 20
175.9212816473
 30
0.0
  0
LINE
  5
3CC
330
1B
100
AcDbEntity
 67
     1
  8
7_ALL_FEATURES
  6
Continuous
 62
     9
100
AcDbLine
 10
255.1350260823
 20
146.0042142722
 30
0.0
 11
255.1261922519
 21
146.0055325324
 31
0.0
  0
ARC
  5
3CD
330
1B
100
AcDbEntity
 67
     1
  8
7_ALL_FEATURES
  6
Continuous
 62
     9
100
AcDbCircle
 10
255.1818104965
 20
146.3346532239
 30
0.0
 40
0.3337870859
100
AcDbArc
 50
258.4861149614
 51
260.4081838506
  0
SPLINE
  5
3CE
330
1B
100
AcDbEntity
 67
     1
  8
7_ALL_FEATURES
  6
Continuous
 62
     7
100
AcDbSpline
 70
     0
 71
     3
 72
     8
 73
     4
 74
     0
 42
0.000000001
 43
0.0000001
 40
0.0
 40
0.0
 40
0.0
 40
0.0
 40
1.0
 40
1.0
 40
1.0
 40
1.0
 10
207.822113923
 20
175.9212813162
 30
0.0
 10
207.7039361095
 20
195.4489083093
 30
0.0
 10
207.586405388
 20
214.9765392393
 30
0.0
 10
207.4697889769
 20
234.5041756194
 30
0.0
  0
LINE
  5
3CF
330
1B
100
AcDbEntity
 67
     1
  8
7_ALL_FEATURES
  6
Continuous
 62
     9
100
AcDbLine
 10
219.6275336281
 20
234.504165029
 30
0.0
 11
220.0716228988
 21
219.0041288493
 31
0.0
  0
ARC
  5
3D0
330
1B
100
AcDbEntity
 67
     1
  8
7_ALL_FEATURES
  6
Continuous
 62
     7
100
AcDbCircle
 10
255.1572133321
 20
146.2579652871
 30
0.0
 40
0.2546117491
100
AcDbArc
 50
265.5499849037
 51
266.0312414348
  0
ARC
  5
3D1
330
1B
100
AcDbEntity
 67
     1
  8
7_ALL_FEATURES
  6
Continuous
 62
     7
100
AcDbCircle
 10
255.1618633063
 20
146.3178621965
 30
0.0
 40
0.314688882
100
AcDbArc
 50
265.1081235845
 51
265.5520616403
  0
SPLINE
  5
3D2
330
1B
100
AcDbEntity
 67
     1
  8
7_ALL_FEATURES
  6
Continuous
 62
     7
100
AcDbSpline
 70
     0
 71
     3
 72
    11
 73
     7
 74
     0
 42
0.000000001
 43
0.0000001
 40
0.0
 40
0.0
 40
0.0
 40
0.0
 40
0.2653710068
 40
0.522090249
 40
0.7658796809
 40
1.0
 40
1.0
 40
1.0
 40
1.0
 10
253.5222789003
 20
131.4954488682
 30
0.0
 10
253.5213037117
 20
131.4316495311
 30
0.0
 10
253.4982191083
 20
131.3053609172
 30
0.0
 10
253.4033330638
 20
131.1429427301
 30
0.0
 10
253.2601569184
 20
131.0315697027
 30
0.0
 10
253.1439480573
 20
131.0044236645
 30
0.0
 10
253.0876558071
 20
131.0041844885
 30
0.0
  0
LINE
  5
3D3
330
1B
100
AcDbEntity
 67
     1
  8
7_ALL_FEATURES
  6
Continuous
 62
     9
100
AcDbLine
 10
209.9320566693
 20
151.0041756194
 30
0.0
 11
210.0173556438
 21
146.4880275621
 31
0.0
  0
DIMENSION
  5
3D4
330
1B
100
AcDbEntity
 67
     1
  8
0
  6
Continuous
 62
     2
100
AcDbDimension
280
     0
  2
*D1
 10
80.0417167124
 20
52.3154783175
 30
0.0
 11
59.2202011972
 21
45.6646182643
 31
0.0
 70
   163
  1
%%c<>
 71
     5
 42
-1.0
 73
     0
 74
     0
 75
     0
  3
DIMSTYLE_1
100
AcDbDiametricDimension
 15
146.374301256
 25
81.3271831011
 35
0.0
 40
0.0
  0
DIMENSION
  5
3D5
330
1B
100
AcDbEntity
 67
     1
  8
0
  6
Continuous
 62
     2
100
AcDbDimension
280
     0
  2
*D2
 10
60.2732148838
 20
251.0041756194
 30
0.0
 11
60.2732148838
 21
190.5756033965
 31
0.0
 70
   160
 71
     5
 42
-1.0
 73
     0
 74
     0
 75
     0
  3
DIMSTYLE_2
100
AcDbAlignedDimension
 13
68.4058238104
 23
131.0041756194
 33
0.0
 14
68.8514903507
 24
251.0041756194
 34
0.0
 50
90.0
100
AcDbRotatedDimension
  0
LINE
  5
3D6
330
1B
100
AcDbEntity
 67
     1
  8
0
  6
Continuous
 62
     2
100
AcDbLine
 10
279.6378800676
 20
76.6672297297
 30
0.0
 11
409.6378800676
 21
76.6672297297
 31
0.0
  0
LINE
  5
3D7
330
1B
100
AcDbEntity
 67
     1
  8
0
  6
Continuous
 62
     2
100
AcDbLine
 10
279.6378800676
 20
76.6672297297
 30
0.0
 11
279.6378800676
 21
10.6672297297
 31
0.0
  0
LINE
  5
3D8
330
1B
100
AcDbEntity
 67
     1
  8
0
  6
Continuous
 62
     2
100
AcDbLine
 10
309.6378800676
 20
68.6672297297
 30
0.0
 11
409.6378800676
 21
68.6672297297
 31
0.0
  0
LINE
  5
3D9
330
1B
100
AcDbEntity
 67
     1
  8
0
  6
Continuous
 62
     2
100
AcDbLine
 10
279.6378800676
 20
60.6672297297
 30
0.0
 11
409.6378800676
 21
60.6672297297
 31
0.0
  0
LINE
  5
3DA
330
1B
100
AcDbEntity
 67
     1
  8
0
  6
Continuous
 62
     2
100
AcDbLine
 10
309.6378800676
 20
54.6672297297
 30
0.0
 11
409.6378800676
 21
54.6672297297
 31
0.0
  0
LINE
  5
3DB
330
1B
100
AcDbEntity
 67
     1
  8
0
  6
Continuous
 62
     2
100
AcDbLine
 10
309.6378800676
 20
48.6672297297
 30
0.0
 11
409.6378800676
 21
48.6672297297
 31
0.0
  0
LINE
  5
3DC
330
1B
100
AcDbEntity
 67
     1
  8
0
  6
Continuous
 62
     2
100
AcDbLine
 10
309.6378800676
 20
42.6672297297
 30
0.0
 11
409.6378800676
 21
42.6672297297
 31
0.0
  0
LINE
  5
3DD
330
1B
100
AcDbEntity
 67
     1
  8
0
  6
Continuous
 62
     2
100
AcDbLine
 10
309.6378800676
 20
36.6672297297
 30
0.0
 11
409.6378800676
 21
36.6672297297
 31
0.0
  0
LINE
  5
3DE
330
1B
100
AcDbEntity
 67
     1
  8
0
  6
Continuous
 62
     2
100
AcDbLine
 10
309.6378800676
 20
30.6672297297
 30
0.0
 11
409.6378800676
 21
30.6672297297
 31
0.0
  0
LINE
  5
3DF
330
1B
100
AcDbEntity
 67
     1
  8
0
  6
Continuous
 62
     2
100
AcDbLine
 10
279.6378800676
 20
24.6672297297
 30
0.0
 11
409.6378800676
 21
24.6672297297
 31
0.0
  0
LINE
  5
3E0
330
1B
100
AcDbEntity
 67
     1
  8
0
  6
Continuous
 62
     2
100
AcDbLine
 10
279.6378800676
 20
18.6672297297
 30
0.0
 11
409.6378800676
 21
18.6672297297
 31
0.0
  0
LINE
  5
3E1
330
1B
100
AcDbEntity
 67
     1
  8
0
  6
Continuous
 62
     2
100
AcDbLine
 10
279.6378800676
 20
14.6672297297
 30
0.0
 11
409.6378800676
 21
14.6672297297
 31
0.0
  0
LINE
  5
3E2
330
1B
100
AcDbEntity
 67
     1
  8
0
  6
Continuous
 62
     2
100
AcDbLine
 10
279.6378800676
 20
10.6672297297
 30
0.0
 11
409.6378800676
 21
10.6672297297
 31
0.0
  0
LINE
  5
3E3
330
1B
100
AcDbEntity
 67
     1
  8
0
  6
Continuous
 62
     2
100
AcDbLine
 10
309.6378800676
 20
76.6672297297
 30
0.0
 11
309.6378800676
 21
18.6672297297
 31
0.0
  0
LINE
  5
3E4
330
1B
100
AcDbEntity
 67
     1
  8
0
  6
Continuous
 62
     2
100
AcDbLine
 10
329.6378800676
 20
60.6672297297
 30
0.0
 11
329.6378800676
 21
54.6672297297
 31
0.0
  0
LINE
  5
3E5
330
1B
100
AcDbEntity
 67
     1
  8
0
  6
Continuous
 62
     2
100
AcDbLine
 10
359.6378800676
 20
30.6672297297
 30
0.0
 11
359.6378800676
 21
18.6672297297
 31
0.0
  0
LINE
  5
3E6
330
1B
100
AcDbEntity
 67
     1
  8
0
  6
Continuous
 62
     2
100
AcDbLine
 10
369.6378800676
 20
60.6672297297
 30
0.0
 11
369.6378800676
 21
54.6672297297
 31
0.0
  0
LINE
  5
3E7
330
1B
100
AcDbEntity
 67
     1
  8
0
  6
Continuous
 62
     2
100
AcDbLine
 10
369.6378800676
 20
48.6672297297
 30
0.0
 11
369.6378800676
 21
42.6672297297
 31
0.0
  0
LINE
  5
3E8
330
1B
100
AcDbEntity
 67
     1
  8
0
  6
Continuous
 62
     2
100
AcDbLine
 10
389.6378800676
 20
60.6672297297
 30
0.0
 11
389.6378800676
 21
54.6672297297
 31
0.0
  0
LINE
  5
3E9
330
1B
100
AcDbEntity
 67
     1
  8
0
  6
Continuous
 62
     2
100
AcDbLine
 10
399.6378800676
 20
48.6672297297
 30
0.0
 11
399.6378800676
 21
42.6672297297
 31
0.0
  0
LINE
  5
3EA
330
1B
100
AcDbEntity
 67
     1
  8
0
  6
Continuous
 62
     2
100
AcDbLine
 10
409.6378800676
 20
76.6672297297
 30
0.0
 11
409.6378800676
 21
10.6672297297
 31
0.0
  0
INSERT
  5
3EB
330
1B
100
AcDbEntity
 67
     1
  8
0
  6
Continuous
 62
     2
100
AcDbBlockReference
  2
PROIEZIONE_EU_BL0
 10
294.6378800676
 20
68.2922297297
 30
0.0
  0
MTEXT
  5
3EC
330
1B
100
AcDbEntity
 67
     1
  8
9_SOLID
  6
Continuous
 62
     2
100
AcDbMText
 10
311.1253800676
 20
75.0422297297
 30
0.0
 40
1.9
 41
142.3642857143
 46
0.0
 71
     1
 72
     1
  1
EN: Chamfer/radii unlisted 0.3x45°. Remove sharp edges.\PGen. tol.: hole H11, shaft h11, lenght Js12. UNI EN 22768 Medium Grande.
 73
     1
 44
1.0
  0
MTEXT
  5
3ED
330
1B
100
AcDbEntity
 67
     1
  8
9_SOLID
  6
Continuous
 62
     2
100
AcDbMText
 10
311.1253800676
 20
67.0422297297
 30
0.0
 40
1.9
 41
148.2678571429
 46
0.0
 71
     1
 72
     1
  1
IT: Sm./rac. non quotati 0.3x45°. Eliminare spigoli taglienti.\PToll. gen.: foro H11, albero h11, lunghezza Js12. UNI EN 22768 Grado Medio.
 73
     1
 44
1.0
  0
INSERT
  5
3EE
330
1B
100
AcDbEntity
 67
     1
  8
0
  6
Continuous
 62
     2
100
AcDbBlockReference
  2
LOGO2_BL1
 10
293.4639271123
 20
42.6672297297
 30
0.0
  0
MTEXT
  5
3EF
330
1B
100
AcDbEntity
 67
     1
  8
9_SOLID
  6
Continuous
 62
     2
100
AcDbMText
 10
311.1253800676
 20
58.9172297297
 30
0.0
 40
3.0
 41
22.6071428571
 46
0.0
 71
     1
 72
     1
  1
Pj: C20
 73
     1
 44
1.0
  0
MTEXT
  5
3F0
330
1B
100
AcDbEntity
 67
     1
  8
9_SOLID
  6
Continuous
 62
     2
100
AcDbMText
 10
331.1253800676
 20
58.9172297297
 30
0.0
 40
3.0
 41
38.0357142857
 46
0.0
 71
     1
 72
     1
  1
% Check: %
 73
     1
 44
1.0
  0
MTEXT
  5
3F1
330
1B
100
AcDbEntity
 67
     1
  8
9_SOLID
  6
Continuous
 62
     2
100
AcDbMText
 10
371.1253800676
 20
58.9172297297
 30
0.0
 40
3.0
 41
19.5
 46
0.0
 71
     1
 72
     1
  1
Rev:00
 73
     1
 44
1.0
  0
MTEXT
  5
3F2
330
1B
100
AcDbEntity
 67
     1
  8
9_SOLID
  6
Continuous
 62
     2
100
AcDbMText
 10
391.1253800676
 20
59.1672297297
 30
0.0
 40
3.0
 41
19.7142857143
 46
0.0
 71
     1
 72
     1
  1
Ver: A
 73
     1
 44
1.0
  0
MTEXT
  5
3F3
330
1B
100
AcDbEntity
 67
     1
  8
9_SOLID
  6
Continuous
 62
     2
100
AcDbMText
 10
311.1253800676
 20
52.9172297297
 30
0.0
 40
3.0
 41
66.0
 46
0.0
 71
     1
 72
     1
  1
Neutral code: WC0100
 73
     1
 44
1.0
  0
MTEXT
  5
3F4
330
1B
100
AcDbEntity
 67
     1
  8
9_SOLID
  6
Continuous
 62
     2
100
AcDbMText
 10
311.1253800676
 20
46.9172297297
 30
0.0
 40
3.0
 41
19.3928571429
 46
0.0
 71
     1
 72
     1
  1
Code: 
 73
     1
 44
1.0
  0
MTEXT
  5
3F5
330
1B
100
AcDbEntity
 67
     1
  8
9_SOLID
  6
Continuous
 62
     2
100
AcDbMText
 10
371.1253800676
 20
47.1672297297
 30
0.0
 40
3.0
 41
27.8571428571
 46
0.0
 71
     1
 72
     1
  1
Scale: 1:1
 73
     1
 44
1.0
  0
MTEXT
  5
3F6
330
1B
100
AcDbEntity
 67
     1
  8
9_SOLID
  6
Continuous
 62
     2
100
AcDbMText
 10
404.6378800676
 20
47.1672297297
 30
0.0
 40
3.0
 41
7.9285714286
 46
0.0
 71
     2
 72
     1
  1
A3
 73
     1
 44
1.0
  0
MTEXT
  5
3F7
330
1B
100
AcDbEntity
 67
     1
  8
9_SOLID
  6
Continuous
 62
     2
100
AcDbMText
 10
311.1253800676
 20
41.1672297297
 30
0.0
 40
3.0
 41
96.825
 46
0.0
 71
     1
 72
     1
  1
It descr.: CASSAFORMA Ø72x120
 73
     1
 44
1.0
  0
MTEXT
  5
3F8
330
1B
100
AcDbEntity
 67
     1
  8
9_SOLID
  6
Continuous
 62
     2
100
AcDbMText
 10
311.1253800676
 20
35.1672297297
 30
0.0
 40
3.0
 41
33.9642857143
 46
0.0
 71
     1
 72
     1
  1
En descr.: 
 73
     1
 44
1.0
  0
MTEXT
  5
3F9
330
1B
100
AcDbEntity
 67
     1
  8
9_SOLID
  6
Continuous
 62
     2
100
AcDbMText
 10
311.1253800676
 20
29.1672297297
 30
0.0
 40
3.0
 41
19.0714285714
 46
0.0
 71
     1
 72
     1
  1
Des.: 
 73
     1
 44
1.0
  0
MTEXT
  5
3FA
330
1B
100
AcDbEntity
 67
     1
  8
9_SOLID
  6
Continuous
 62
     2
100
AcDbMText
 10
361.1253800676
 20
29.1672297297
 30
0.0
 40
3.0
 41
22.2857142857
 46
0.0
 71
     1
 72
     1
  1
Check: 
 73
     1
 44
1.0
  0
MTEXT
  5
3FB
330
1B
100
AcDbEntity
 67
     1
  8
9_SOLID
  6
Continuous
 62
     2
100
AcDbMText
 10
281.1253800676
 20
23.1672297297
 30
0.0
 40
3.0
 41
42.5357142857
 46
0.0
 71
     1
 72
     1
  1
Date: 17.12.18
 73
     1
 44
1.0
  0
MTEXT
  5
3FC
330
1B
100
AcDbEntity
 67
     1
  8
9_SOLID
  6
Continuous
 62
     2
100
AcDbMText
 10
311.1253800676
 20
23.1672297297
 30
0.0
 40
3.0
 41
18.2142857143
 46
0.0
 71
     1
 72
     1
  1
Mat.: 
 73
     1
 44
1.0
  0
MTEXT
  5
3FD
330
1B
100
AcDbEntity
 67
     1
  8
9_SOLID
  6
Continuous
 62
     2
100
AcDbMText
 10
361.1253800676
 20
22.6672297297
 30
0.0
 40
2.0
 41
42.3571428571
 46
0.0
 71
     1
 72
     1
  1
Disegno per catalogo
 73
     1
 44
1.0
  0
MTEXT
  5
3FE
330
1B
100
AcDbEntity
 67
     1
  8
9_SOLID
  6
Continuous
 62
     2
100
AcDbMText
 10
281.1253800676
 20
17.5672297297
 30
0.0
 40
1.8
 41
176.2071428571
 46
0.0
 71
     1
 72
     1
  1
It: A norma di legge si diffida da qualsiasi riproduzione senza nostra autorizzazione esplicita.
 73
     1
 44
1.0
  0
MTEXT
  5
3FF
330
1B
100
AcDbEntity
 67
     1
  8
9_SOLID
  6
Continuous
 62
     2
100
AcDbMText
 10
281.1253800676
 20
13.5672297297
 30
0.0
 40
1.8
 41
158.1428571429
 46
0.0
 71
     1
 72
     1
  1
En: According to the law, beware of any reproduction made without our authorization.
 73
     1
 44
1.0
  0
ENDSEC
  0
SECTION
  2
OBJECTS
  0
DICTIONARY
  5
400
330
0
100
AcDbDictionary
281
     1
  3
ACAD_DETAILVIEWSTYLE
350
456
  3
ACAD_GROUP
350
401
  3
ACAD_LAYOUT
350
429
  3
ACAD_MATERIAL
350
445
  3
ACAD_MLEADERSTYLE
350
44B
  3
ACAD_MLINESTYLE
350
402
  3
ACAD_PLOTSETTINGS
350
404
  3
ACAD_PLOTSTYLENAME
350
405
  3
ACAD_SCALELIST
350
407
  3
ACAD_SECTIONVIEWSTYLE
350
457
  3
ACAD_TABLESTYLE
350
449
  3
ACAD_VISUALSTYLE
350
42C
  3
ACDB_RECOMPOSE_DATA
350
452
  3
AcDbVariableDictionary
350
44E
  3
APPDATA
350
44D
  0
DICTIONARY
  5
456
102
{ACAD_REACTORS
330
400
102
}
330
400
100
AcDbDictionary
281
     1
  0
DICTIONARY
  5
401
102
{ACAD_REACTORS
330
400
102
}
330
400
100
AcDbDictionary
281
     1
  0
DICTIONARY
  5
429
102
{ACAD_REACTORS
330
400
102
}
330
400
100
AcDbDictionary
281
     1
  3
Foglio 1
350
42B
  3
Model
350
42A
  0
DICTIONARY
  5
445
102
{ACAD_REACTORS
330
400
102
}
330
400
100
AcDbDictionary
281
     1
  3
ByBlock
350
447
  3
ByLayer
350
446
  3
Global
350
448
  0
DICTIONARY
  5
44B
102
{ACAD_REACTORS
330
400
102
}
330
400
100
AcDbDictionary
281
     1
  3
Standard
350
44C
  0
DICTIONARY
  5
402
102
{ACAD_REACTORS
330
400
102
}
330
400
100
AcDbDictionary
281
     1
  3
STANDARD
350
403
  0
DICTIONARY
  5
404
102
{ACAD_REACTORS
330
400
102
}
330
400
100
AcDbDictionary
281
     1
  0
ACDBDICTIONARYWDFLT
  5
405
102
{ACAD_REACTORS
330
400
102
}
330
400
100
AcDbDictionary
281
     1
  3
Normal
350
406
100
AcDbDictionaryWithDefault
340
406
  0
DICTIONARY
  5
407
102
{ACAD_REACTORS
330
400
102
}
330
400
100
AcDbDictionary
281
     1
  3
A0
350
408
  3
A1
350
409
  3
A2
350
40A
  3
A3
350
40B
  3
A4
350
40C
  3
A5
350
40D
  3
A6
350
40E
  3
A7
350
40F
  3
A8
350
410
  3
A9
350
411
  3
B0
350
412
  3
B1
350
413
  3
B2
350
414
  3
B3
350
415
  3
B4
350
416
  3
B5
350
417
  3
B6
350
418
  3
B7
350
419
  3
B8
350
41A
  3
B9
350
41B
  3
C0
350
41C
  3
C1
350
41D
  3
C2
350
41E
  3
C3
350
41F
  3
C4
350
420
  3
C5
350
421
  3
C6
350
422
  3
C7
350
423
  3
C8
350
424
  3
C9
350
425
  3
D0
350
426
  3
D1
350
427
  3
D2
350
428
  0
DICTIONARY
  5
457
102
{ACAD_REACTORS
330
400
102
}
330
400
100
AcDbDictionary
281
     1
  0
DICTIONARY
  5
449
102
{ACAD_REACTORS
330
400
102
}
330
400
100
AcDbDictionary
281
     1
  3
Standard
350
44A
  0
DICTIONARY
  5
42C
102
{ACAD_REACTORS
330
400
102
}
330
400
100
AcDbDictionary
281
     1
  3
2dWireframe
350
431
  3
Basic
350
434
  3
Brighten
350
438
  3
ColorChange
350
43C
  3
Conceptual
350
436
  3
Dim
350
437
  3
EdgeColorOff
350
43F
  3
Facepattern
350
43B
  3
Flat
350
42D
  3
FlatWithEdges
350
42E
  3
Gouraud
350
42F
  3
GouraudWithEdges
350
430
  3
Hidden
350
433
  3
JitterOff
350
43D
  3
Linepattern
350
43A
  3
OverhangOff
350
43E
  3
Realistic
350
435
  3
Shaded
350
444
  3
Shaded with edges
350
443
  3
Shades of Gray
350
440
  3
Sketchy
350
441
  3
Thicken
350
439
  3
Wireframe
350
432
  3
X-Ray
350
442
  0
XRECORD
  5
452
102
{ACAD_REACTORS
330
400
102
}
330
400
100
AcDbXrecord
280
     1
 90
        1
330
44A
  0
DICTIONARY
  5
44E
102
{ACAD_REACTORS
330
400
102
}
330
400
100
AcDbDictionary
281
     1
  3
CANNOSCALE
350
44F
  3
CMLEADERSTYLE
350
454
  3
CTABLESTYLE
350
453
  3
MSLTSCALE
350
455
  0
DICTIONARY
  5
44D
102
{ACAD_REACTORS
330
400
102
}
330
400
100
AcDbDictionary
281
     1
  0
LAYOUT
  5
42B
102
{ACAD_REACTORS
330
429
102
}
330
429
100
AcDbPlotSettings
  1

  2
none_device
  4
ISO_A3_(420.00_x_297.00_MM)
  6

 40
7.5
 41
20.0
 42
7.5
 43
20.0
 44
420.0
 45
297.0
 46
0.0
 47
0.0
 48
0.0
 49
0.0
140
0.0
141
0.0
142
1.0
143
1.155642023346303
 70
   688
 72
     1
 73
     0
 74
     1
  7

 75
     0
 76
     0
 77
     2
 78
   300
147
0.8653198653198654
148
0.0
149
0.0
100
AcDbLayout
  1
Foglio 1
 70
     1
 71
     1
 10
0.0
 20
0.0
 11
412.5
 21
277.0
 12
0.0
 22
0.0
 32
0.0
 14
0.0
 24
0.0
 34
0.0
 15
420.0
 25
297.0
 35
0.0
146
0.0
 13
0.0
 23
0.0
 33
0.0
 16
1.0
 26
0.0
 36
0.0
 17
0.0
 27
1.0
 37
0.0
 76
     0
330
1B
331
299
  0
LAYOUT
  5
42A
102
{ACAD_REACTORS
330
429
102
}
330
429
100
AcDbPlotSettings
  1

  2
none_device
  4
Letter_(8.50_x_11.00_Inches)
  6

 40
6.35
 41
6.35
 42
6.35
 43
6.35
 44
215.9
 45
279.4
 46
0.0
 47
0.0
 48
0.0
 49
0.0
140
0.0
141
0.0
142
1.0
143
52.49999999846251
 70
  1712
 72
     0
 73
     0
 74
     0
  7

 75
     0
 76
     0
 77
     2
 78
   300
147
0.0190476190481769
148
-0.0000001562100806
149
0.0
100
AcDbLayout
  1
Model
 70
     1
 71
     0
 10
0.0
 20
0.0
 11
420.0
 21
297.0
 12
0.0
 22
0.0
 32
0.0
 14
0.0
 24
0.0
 34
0.0
 15
420.0
 25
297.0
 35
0.0
146
0.0
 13
0.0
 23
0.0
 33
0.0
 16
1.0
 26
0.0
 36
0.0
 17
0.0
 27
1.0
 37
0.0
 76
     0
330
1F
331
1F4
  0
MATERIAL
  5
447
102
{ACAD_REACTORS
330
445
102
}
330
445
100
AcDbMaterial
  1
ByBlock
 72
     1
 94
      127
  0
MATERIAL
  5
446
102
{ACAD_REACTORS
330
445
102
}
330
445
100
AcDbMaterial
  1
ByLayer
 72
     1
 94
      127
  0
MATERIAL
  5
448
102
{ACAD_REACTORS
330
445
102
}
330
445
100
AcDbMaterial
  1
Global
 72
     1
 94
      127
  0
MLEADERSTYLE
  5
44C
102
{ACAD_REACTORS
330
44B
102
}
330
44B
100
AcDbMLeaderStyle
179
     2
170
     2
171
     1
172
     0
 90
        2
 40
0.0
 41
0.0
173
     1
 91
-1056964608
340
14
 92
       -2
290
     1
 42
2.0
291
     1
 43
8.0
  3
Standard
341
0
 44
4.0
300

342
11
174
     1
178
     1
175
     1
176
     0
 93
-1056964608
 45
4.0
292
     0
297
     0
 46
4.0
343
0
 94
-1056964608
 47
1.0
 49
1.0
140
1.0
293
     1
141
0.0
294
     1
177
     0
142
1.0
295
     0
296
     0
143
3.75
271
     0
272
     9
273
     9
298
     0
  0
MLINESTYLE
  5
403
102
{ACAD_REACTORS
330
402
102
}
330
402
100
AcDbMlineStyle
  2
STANDARD
 70
     0
  3

 62
   256
 51
90.0
 52
90.0
 71
     2
 49
0.5
 62
   256
  6
BYLAYER
 49
-0.5
 62
   256
  6
BYLAYER
  0
ACDBPLACEHOLDER
  5
406
102
{ACAD_REACTORS
330
405
102
}
330
405
  0
SCALE
  5
408
102
{ACAD_REACTORS
330
407
102
}
330
407
100
AcDbScale
 70
     0
300
1:1
140
1.0
141
1.0
290
     1
  0
SCALE
  5
409
102
{ACAD_REACTORS
330
407
102
}
330
407
100
AcDbScale
 70
     0
300
1:2
140
1.0
141
2.0
290
     0
  0
SCALE
  5
40A
102
{ACAD_REACTORS
330
407
102
}
330
407
100
AcDbScale
 70
     0
300
1:4
140
1.0
141
4.0
290
     0
  0
SCALE
  5
40B
102
{ACAD_REACTORS
330
407
102
}
330
407
100
AcDbScale
 70
     0
300
1:5
140
1.0
141
5.0
290
     0
  0
SCALE
  5
40C
102
{ACAD_REACTORS
330
407
102
}
330
407
100
AcDbScale
 70
     0
300
1:8
140
1.0
141
8.0
290
     0
  0
SCALE
  5
40D
102
{ACAD_REACTORS
330
407
102
}
330
407
100
AcDbScale
 70
     0
300
1:10
140
1.0
141
10.0
290
     0
  0
SCALE
  5
40E
102
{ACAD_REACTORS
330
407
102
}
330
407
100
AcDbScale
 70
     0
300
1:16
140
1.0
141
16.0
290
     0
  0
SCALE
  5
40F
102
{ACAD_REACTORS
330
407
102
}
330
407
100
AcDbScale
 70
     0
300
1:20
140
1.0
141
20.0
290
     0
  0
SCALE
  5
410
102
{ACAD_REACTORS
330
407
102
}
330
407
100
AcDbScale
 70
     0
300
1:30
140
1.0
141
30.0
290
     0
  0
SCALE
  5
411
102
{ACAD_REACTORS
330
407
102
}
330
407
100
AcDbScale
 70
     0
300
1:40
140
1.0
141
40.0
290
     0
  0
SCALE
  5
412
102
{ACAD_REACTORS
330
407
102
}
330
407
100
AcDbScale
 70
     0
300
1:50
140
1.0
141
50.0
290
     0
  0
SCALE
  5
413
102
{ACAD_REACTORS
330
407
102
}
330
407
100
AcDbScale
 70
     0
300
1:100
140
1.0
141
100.0
290
     0
  0
SCALE
  5
414
102
{ACAD_REACTORS
330
407
102
}
330
407
100
AcDbScale
 70
     0
300
2:1
140
2.0
141
1.0
290
     0
  0
SCALE
  5
415
102
{ACAD_REACTORS
330
407
102
}
330
407
100
AcDbScale
 70
     0
300
4:1
140
4.0
141
1.0
290
     0
  0
SCALE
  5
416
102
{ACAD_REACTORS
330
407
102
}
330
407
100
AcDbScale
 70
     0
300
8:1
140
8.0
141
1.0
290
     0
  0
SCALE
  5
417
102
{ACAD_REACTORS
330
407
102
}
330
407
100
AcDbScale
 70
     0
300
10:1
140
10.0
141
1.0
290
     0
  0
SCALE
  5
418
102
{ACAD_REACTORS
330
407
102
}
330
407
100
AcDbScale
 70
     0
300
100:1
140
100.0
141
1.0
290
     0
  0
SCALE
  5
419
102
{ACAD_REACTORS
330
407
102
}
330
407
100
AcDbScale
 70
     0
300
1/128" = 1'-0"
140
0.0078125
141
12.0
290
     0
  0
SCALE
  5
41A
102
{ACAD_REACTORS
330
407
102
}
330
407
100
AcDbScale
 70
     0
300
1/64" = 1'-0"
140
0.015625
141
12.0
290
     0
  0
SCALE
  5
41B
102
{ACAD_REACTORS
330
407
102
}
330
407
100
AcDbScale
 70
     0
300
1/32" = 1'-0"
140
0.03125
141
12.0
290
     0
  0
SCALE
  5
41C
102
{ACAD_REACTORS
330
407
102
}
330
407
100
AcDbScale
 70
     0
300
1/16" = 1'-0"
140
0.0625
141
12.0
290
     0
  0
SCALE
  5
41D
102
{ACAD_REACTORS
330
407
102
}
330
407
100
AcDbScale
 70
     0
300
3/32" = 1'-0"
140
0.09375
141
12.0
290
     0
  0
SCALE
  5
41E
102
{ACAD_REACTORS
330
407
102
}
330
407
100
AcDbScale
 70
     0
300
1/8" = 1'-0"
140
0.125
141
12.0
290
     0
  0
SCALE
  5
41F
102
{ACAD_REACTORS
330
407
102
}
330
407
100
AcDbScale
 70
     0
300
3/16" = 1'-0"
140
0.1875
141
12.0
290
     0
  0
SCALE
  5
420
102
{ACAD_REACTORS
330
407
102
}
330
407
100
AcDbScale
 70
     0
300
1/4" = 1'-0"
140
0.25
141
12.0
290
     0
  0
SCALE
  5
421
102
{ACAD_REACTORS
330
407
102
}
330
407
100
AcDbScale
 70
     0
300
3/8" = 1'-0"
140
0.375
141
12.0
290
     0
  0
SCALE
  5
422
102
{ACAD_REACTORS
330
407
102
}
330
407
100
AcDbScale
 70
     0
300
1/2" = 1'-0"
140
0.5
141
12.0
290
     0
  0
SCALE
  5
423
102
{ACAD_REACTORS
330
407
102
}
330
407
100
AcDbScale
 70
     0
300
3/4" = 1'-0"
140
0.75
141
12.0
290
     0
  0
SCALE
  5
424
102
{ACAD_REACTORS
330
407
102
}
330
407
100
AcDbScale
 70
     0
300
1" = 1'-0"
140
1.0
141
12.0
290
     0
  0
SCALE
  5
425
102
{ACAD_REACTORS
330
407
102
}
330
407
100
AcDbScale
 70
     0
300
1-1/2" = 1'-0"
140
1.5
141
12.0
290
     0
  0
SCALE
  5
426
102
{ACAD_REACTORS
330
407
102
}
330
407
100
AcDbScale
 70
     0
300
3" = 1'-0"
140
3.0
141
12.0
290
     0
  0
SCALE
  5
427
102
{ACAD_REACTORS
330
407
102
}
330
407
100
AcDbScale
 70
     0
300
6" = 1'-0"
140
6.0
141
12.0
290
     0
  0
SCALE
  5
428
102
{ACAD_REACTORS
330
407
102
}
330
407
100
AcDbScale
 70
     0
300
1'-0" = 1'-0"
140
12.0
141
12.0
290
     0
  0
TABLESTYLE
  5
44A
102
{ACAD_REACTORS
330
449
102
}
102
{ACAD_XDICTIONARY
360
450
102
}
330
449
100
AcDbTableStyle
  3
Standard
 70
     0
 71
     0
 40
0.06
 41
0.06
280
     0
281
     0
  7
STANDARD
140
4.5
170
     2
 62
     0
 63
   257
283
     0
 90
        4
 91
        0
  1

274
    -2
284
     1
 64
     0
275
    -2
285
     1
 65
     0
276
    -2
286
     1
 66
     0
277
    -2
287
     1
 67
     0
278
    -2
288
     1
 68
     0
279
    -2
289
     1
 69
     0
  7
STANDARD
140
6.0
170
     5
 62
     0
 63
   257
283
     0
 90
        4
 91
        0
  1

274
    -2
284
     1
 64
     0
275
    -2
285
     1
 65
     0
276
    -2
286
     1
 66
     0
277
    -2
287
     1
 67
     0
278
    -2
288
     1
 68
     0
279
    -2
289
     1
 69
     0
  7
STANDARD
140
4.5
170
     5
 62
     0
 63
   257
283
     0
 90
        4
 91
        0
  1

274
    -2
284
     1
 64
     0
275
    -2
285
     1
 65
     0
276
    -2
286
     1
 66
     0
277
    -2
287
     1
 67
     0
278
    -2
288
     1
 68
     0
279
    -2
289
     1
 69
     0
  0
VISUALSTYLE
  5
431
102
{ACAD_REACTORS
330
42C
102
}
330
42C
100
AcDbVisualStyle
  2
2dWireframe
 70
     4
177
     3
291
     0
 70
    58
 90
        0
176
     1
 90
        2
176
     1
 90
        0
176
     1
 90
        0
176
     1
 40
0.6
176
     1
 40
30.0
176
     1
 62
     7
420
 16777215
176
     1
 90
        1
176
     1
 90
        4
176
     1
 62
     7
176
     1
 62
   257
176
     1
 90
        1
176
     1
 90
        1
176
     1
 40
1.0
176
     1
 90
        0
176
     1
 62
   257
176
     1
 40
1.0
176
     1
 90
        1
176
     1
 90
        6
176
     1
 90
        2
176
     1
 62
     7
176
     1
 90
        5
176
     1
 90
        0
176
     1
 90
        0
176
     1
290
     0
176
     1
 90
        1
176
     1
 40
0.0
176
     1
 90
        0
176
     1
290
     1
176
     1
290
     1
176
     1
290
     0
176
     1
290
     0
176
     1
290
     0
176
     1
290
     0
176
     1
290
     0
176
     1
290
     0
176
     1
290
     0
176
     1
 90
       50
176
     1
 40
0.0
176
     1
 40
1.0
176
     1
 90
        0
176
     1
 62
    18
420
        0
176
     1
 90
       50
176
     1
 90
        3
176
     1
 62
     5
420
      255
176
     1
290
     0
176
     1
 90
       50
176
     1
 90
       50
176
     1
 90
       50
176
     1
290
     0
176
     1
 90
       50
176
     1
 62
   256
176
     0
 40
1.0
176
     0
 90
        2
176
     1
  1
strokes_ogs.tif
176
     1
290
     0
176
     1
 40
1.0
176
     1
 40
1.0
176
     1
  0
VISUALSTYLE
  5
434
102
{ACAD_REACTORS
330
42C
102
}
330
42C
100
AcDbVisualStyle
  2
Basic
 70
     7
177
     3
291
     1
 70
    58
 90
        1
176
     1
 90
        0
176
     1
 90
        1
176
     1
 90
        0
176
     1
 40
0.6
176
     1
 40
30.0
176
     1
 62
     7
420
 16777215
176
     1
 90
        0
176
     1
 90
        4
176
     1
 62
     7
176
     1
 62
   257
176
     1
 90
        1
176
     1
 90
        1
176
     1
 40
1.0
176
     1
 90
        8
176
     1
 62
     7
176
     1
 40
1.0
176
     1
 90
        1
176
     1
 90
        6
176
     1
 90
        2
176
     1
 62
     7
176
     1
 90
        5
176
     1
 90
        0
176
     1
 90
        0
176
     1
290
     0
176
     1
 90
        1
176
     1
 40
0.0
176
     1
 90
        0
176
     1
290
     0
176
     1
290
     1
176
     1
290
     1
176
     1
290
     0
176
     1
290
     0
176
     1
290
     0
176
     1
290
     0
176
     1
290
     0
176
     1
290
     0
176
     1
 90
       50
176
     1
 40
0.0
176
     1
 40
1.0
176
     1
 90
        0
176
     1
 62
    18
420
        0
176
     1
 90
       50
176
     1
 90
        3
176
     1
 62
     5
420
      255
176
     1
290
     0
176
     1
 90
       50
176
     1
 90
       50
176
     1
 90
       50
176
     1
290
     0
176
     1
 90
       50
176
     1
 62
   256
176
     0
 40
1.0
176
     0
 90
        2
176
     1
  1
strokes_ogs.tif
176
     1
290
     0
176
     1
 40
1.0
176
     1
 40
1.0
176
     1
  0
VISUALSTYLE
  5
438
102
{ACAD_REACTORS
330
42C
102
}
330
42C
100
AcDbVisualStyle
  2
Brighten
 70
    12
177
     3
291
     1
 70
    58
 90
        2
176
     1
 90
        2
176
     1
 90
        0
176
     1
 90
        0
176
     1
 40
0.6
176
     1
 40
30.0
176
     1
 62
     7
420
 16777215
176
     1
 90
        1
176
     1
 90
        4
176
     1
 62
     7
176
     1
 62
   257
176
     1
 90
        1
176
     1
 90
        1
176
     1
 40
1.0
176
     1
 90
        8
176
     1
 62
     7
176
     1
 40
1.0
176
     1
 90
        1
176
     1
 90
        6
176
     1
 90
        2
176
     1
 62
     7
176
     1
 90
        5
176
     1
 90
        0
176
     1
 90
        0
176
     1
290
     0
176
     1
 90
        1
176
     1
 40
50.0
176
     1
 90
        0
176
     1
290
     0
176
     1
290
     1
176
     1
290
     1
176
     1
290
     0
176
     1
290
     0
176
     1
290
     0
176
     1
290
     0
176
     1
290
     0
176
     1
290
     0
176
     1
 90
       50
176
     1
 40
0.0
176
     1
 40
1.0
176
     1
 90
        0
176
     1
 62
    18
420
        0
176
     1
 90
       50
176
     1
 90
        3
176
     1
 62
     5
420
      255
176
     1
290
     0
176
     1
 90
       50
176
     1
 90
       50
176
     1
 90
       50
176
     1
290
     0
176
     1
 90
       50
176
     1
 62
   256
176
     0
 40
1.0
176
     0
 90
        2
176
     1
  1
strokes_ogs.tif
176
     1
290
     0
176
     1
 40
1.0
176
     1
 40
1.0
176
     1
  0
VISUALSTYLE
  5
43C
102
{ACAD_REACTORS
330
42C
102
}
330
42C
100
AcDbVisualStyle
  2
ColorChange
 70
    16
177
     3
291
     1
 70
    58
 90
        2
176
     1
 90
        2
176
     1
 90
        3
176
     1
 90
        0
176
     1
 40
0.6
176
     1
 40
30.0
176
     1
 62
     8
420
  8421504
176
     1
 90
        1
176
     1
 90
        4
176
     1
 62
     7
176
     1
 62
   257
176
     1
 90
        1
176
     1
 90
        1
176
     1
 40
1.0
176
     1
 90
        8
176
     1
 62
     8
420
  8421504
176
     1
 40
1.0
176
     1
 90
        1
176
     1
 90
        6
176
     1
 90
        2
176
     1
 62
     7
176
     1
 90
        5
176
     1
 90
        0
176
     1
 90
        0
176
     1
290
     0
176
     1
 90
        1
176
     1
 40
0.0
176
     1
 90
        0
176
     1
290
     0
176
     1
290
     1
176
     1
290
     1
176
     1
290
     0
176
     1
290
     0
176
     1
290
     0
176
     1
290
     0
176
     1
290
     0
176
     1
290
     0
176
     1
 90
       50
176
     1
 40
0.0
176
     1
 40
1.0
176
     1
 90
        0
176
     1
 62
    18
420
        0
176
     1
 90
       50
176
     1
 90
        3
176
     1
 62
     5
420
      255
176
     1
290
     0
176
     1
 90
       50
176
     1
 90
       50
176
     1
 90
       50
176
     1
290
     0
176
     1
 90
       50
176
     1
 62
   256
176
     0
 40
1.0
176
     0
 90
        2
176
     1
  1
strokes_ogs.tif
176
     1
290
     0
176
     1
 40
1.0
176
     1
 40
1.0
176
     1
  0
VISUALSTYLE
  5
436
102
{ACAD_REACTORS
330
42C
102
}
330
42C
100
AcDbVisualStyle
  2
Conceptual
 70
     9
177
     3
291
     0
 70
    58
 90
        3
176
     1
 90
        2
176
     1
 90
        0
176
     1
 90
        0
176
     1
 40
0.6
176
     1
 40
30.0
176
     1
 62
     7
420
 16777215
176
     1
 90
        2
176
     1
 90
        2
176
     1
 62
     7
176
     1
 62
   257
176
     1
 90
        1
176
     1
 90
        1
176
     1
 40
179.0
176
     1
 90
        8
176
     1
 62
     7
176
     1
 40
1.0
176
     1
 90
        1
176
     1
 90
        6
176
     1
 90
        2
176
     1
 62
     7
176
     1
 90
        3
176
     1
 90
        0
176
     1
 90
        0
176
     1
290
     0
176
     1
 90
        1
176
     1
 40
0.0
176
     1
 90
        0
176
     1
290
     0
176
     1
290
     1
176
     1
290
     1
176
     1
290
     0
176
     1
290
     0
176
     1
290
     0
176
     1
290
     0
176
     1
290
     0
176
     1
290
     0
176
     1
 90
       50
176
     1
 40
0.0
176
     1
 40
1.0
176
     1
 90
        0
176
     1
 62
    18
420
        0
176
     1
 90
       50
176
     1
 90
        3
176
     1
 62
     5
420
      255
176
     1
290
     0
176
     1
 90
       50
176
     1
 90
       50
176
     1
 90
       50
176
     1
290
     0
176
     1
 90
       50
176
     1
 62
   256
176
     0
 40
1.0
176
     0
 90
        2
176
     1
  1
strokes_ogs.tif
176
     1
290
     0
176
     1
 40
1.0
176
     1
 40
1.0
176
     1
  0
VISUALSTYLE
  5
437
102
{ACAD_REACTORS
330
42C
102
}
330
42C
100
AcDbVisualStyle
  2
Dim
 70
    11
177
     3
291
     1
 70
    58
 90
        2
176
     1
 90
        2
176
     1
 90
        0
176
     1
 90
        0
176
     1
 40
0.6
176
     1
 40
30.0
176
     1
 62
     7
420
 16777215
176
     1
 90
        1
176
     1
 90
        4
176
     1
 62
     7
176
     1
 62
   257
176
     1
 90
        1
176
     1
 90
        1
176
     1
 40
1.0
176
     1
 90
        8
176
     1
 62
     7
176
     1
 40
1.0
176
     1
 90
        1
176
     1
 90
        6
176
     1
 90
        2
176
     1
 62
     7
176
     1
 90
        5
176
     1
 90
        0
176
     1
 90
        0
176
     1
290
     0
176
     1
 90
        1
176
     1
 40
-50.0
176
     1
 90
        0
176
     1
290
     0
176
     1
290
     1
176
     1
290
     1
176
     1
290
     0
176
     1
290
     0
176
     1
290
     0
176
     1
290
     0
176
     1
290
     0
176
     1
290
     0
176
     1
 90
       50
176
     1
 40
0.0
176
     1
 40
1.0
176
     1
 90
        0
176
     1
 62
    18
420
        0
176
     1
 90
       50
176
     1
 90
        3
176
     1
 62
     5
420
      255
176
     1
290
     0
176
     1
 90
       50
176
     1
 90
       50
176
     1
 90
       50
176
     1
290
     0
176
     1
 90
       50
176
     1
 62
   256
176
     0
 40
1.0
176
     0
 90
        2
176
     1
  1
strokes_ogs.tif
176
     1
290
     0
176
     1
 40
1.0
176
     1
 40
1.0
176
     1
  0
VISUALSTYLE
  5
43F
102
{ACAD_REACTORS
330
42C
102
}
330
42C
100
AcDbVisualStyle
  2
EdgeColorOff
 70
    22
177
     3
291
     1
 70
    58
 90
        2
176
     0
 90
        2
176
     0
 90
        0
176
     0
 90
        0
176
     0
 40
0.6
176
     0
 40
30.0
176
     0
 62
     7
420
 16777215
176
     0
 90
        1
176
     0
 90
        4
176
     0
 62
     7
176
     0
 62
   257
176
     0
 90
        1
176
     0
 90
        1
176
     0
 40
1.0
176
     0
 90
        8
176
     2
 62
     7
176
     0
 40
1.0
176
     0
 90
        1
176
     0
 90
        6
176
     0
 90
        2
176
     0
 62
     7
176
     0
 90
        5
176
     0
 90
        0
176
     0
 90
        0
176
     0
290
     0
176
     0
 90
        1
176
     0
 40
0.0
176
     0
 90
        0
176
     0
290
     0
176
     0
290
     1
176
     0
290
     1
176
     0
290
     0
176
     0
290
     0
176
     0
290
     0
176
     0
290
     0
176
     0
290
     0
176
     0
290
     0
176
     0
 90
       50
176
     0
 40
0.0
176
     0
 40
1.0
176
     0
 90
        0
176
     0
 62
    18
420
        0
176
     0
 90
       50
176
     0
 90
        3
176
     0
 62
     5
420
      255
176
     0
290
     0
176
     0
 90
       50
176
     0
 90
       50
176
     0
 90
       50
176
     0
290
     0
176
     0
 90
       50
176
     0
 62
   256
176
     0
 40
1.0
176
     0
 90
        2
176
     0
  1
strokes_ogs.tif
176
     0
290
     0
176
     0
 40
1.0
176
     0
 40
1.0
176
     0
  0
VISUALSTYLE
  5
43B
102
{ACAD_REACTORS
330
42C
102
}
330
42C
100
AcDbVisualStyle
  2
Facepattern
 70
    15
177
     3
291
     1
 70
    58
 90
        2
176
     1
 90
        2
176
     1
 90
        0
176
     1
 90
        0
176
     1
 40
0.6
176
     1
 40
30.0
176
     1
 62
     7
420
 16777215
176
     1
 90
        1
176
     1
 90
        4
176
     1
 62
     7
176
     1
 62
   257
176
     1
 90
        1
176
     1
 90
        1
176
     1
 40
1.0
176
     1
 90
        8
176
     1
 62
     7
176
     1
 40
1.0
176
     1
 90
        1
176
     1
 90
        6
176
     1
 90
        2
176
     1
 62
     7
176
     1
 90
        5
176
     1
 90
        0
176
     1
 90
        0
176
     1
290
     0
176
     1
 90
        1
176
     1
 40
0.0
176
     1
 90
        0
176
     1
290
     0
176
     1
290
     1
176
     1
290
     1
176
     1
290
     0
176
     1
290
     0
176
     1
290
     0
176
     1
290
     0
176
     1
290
     0
176
     1
290
     0
176
     1
 90
       50
176
     1
 40
0.0
176
     1
 40
1.0
176
     1
 90
        0
176
     1
 62
    18
420
        0
176
     1
 90
       50
176
     1
 90
        3
176
     1
 62
     5
420
      255
176
     1
290
     0
176
     1
 90
       50
176
     1
 90
       50
176
     1
 90
       50
176
     1
290
     0
176
     1
 90
       50
176
     1
 62
   256
176
     0
 40
1.0
176
     0
 90
        2
176
     1
  1
strokes_ogs.tif
176
     1
290
     0
176
     1
 40
1.0
176
     1
 40
1.0
176
     1
  0
VISUALSTYLE
  5
42D
102
{ACAD_REACTORS
330
42C
102
}
330
42C
100
AcDbVisualStyle
  2
Flat
 70
     0
177
     3
291
     1
 70
    58
 90
        2
176
     1
 90
        1
176
     1
 90
        1
176
     1
 90
        2
176
     1
 40
0.6
176
     1
 40
30.0
176
     1
 62
     7
420
 16777215
176
     1
 90
        0
176
     1
 90
        0
176
     1
 62
     7
176
     1
 62
   257
176
     1
 90
        1
176
     1
 90
        1
176
     1
 40
1.0
176
     1
 90
        8
176
     1
 62
     7
176
     1
 40
1.0
176
     1
 90
        1
176
     1
 90
        6
176
     1
 90
        2
176
     1
 62
     7
176
     1
 90
        5
176
     1
 90
        0
176
     1
 90
        0
176
     1
290
     0
176
     1
 90
       13
176
     1
 40
0.0
176
     1
 90
        0
176
     1
290
     0
176
     1
290
     1
176
     1
290
     1
176
     1
290
     0
176
     1
290
     0
176
     1
290
     0
176
     1
290
     0
176
     1
290
     0
176
     1
290
     0
176
     1
 90
       50
176
     1
 40
0.0
176
     1
 40
1.0
176
     1
 90
        0
176
     1
 62
    18
420
        0
176
     1
 90
       50
176
     1
 90
        3
176
     1
 62
     5
420
      255
176
     1
290
     0
176
     1
 90
       50
176
     1
 90
       50
176
     1
 90
       50
176
     1
290
     0
176
     1
 90
       50
176
     1
 62
   256
176
     0
 40
1.0
176
     0
 90
        2
176
     1
  1
strokes_ogs.tif
176
     1
290
     0
176
     1
 40
1.0
176
     1
 40
1.0
176
     1
  0
VISUALSTYLE
  5
42E
102
{ACAD_REACTORS
330
42C
102
}
330
42C
100
AcDbVisualStyle
  2
FlatWithEdges
 70
     1
177
     3
291
     1
 70
    58
 90
        2
176
     1
 90
        1
176
     1
 90
        1
176
     1
 90
        2
176
     1
 40
0.6
176
     1
 40
30.0
176
     1
 62
     7
420
 16777215
176
     1
 90
        1
176
     1
 90
        0
176
     1
 62
     7
176
     1
 62
   257
176
     1
 90
        1
176
     1
 90
        1
176
     1
 40
1.0
176
     1
 90
        0
176
     1
 62
   257
176
     1
 40
1.0
176
     1
 90
        1
176
     1
 90
        6
176
     1
 90
        2
176
     1
 62
     7
176
     1
 90
        5
176
     1
 90
        0
176
     1
 90
        0
176
     1
290
     0
176
     1
 90
       13
176
     1
 40
0.0
176
     1
 90
        0
176
     1
290
     0
176
     1
290
     1
176
     1
290
     1
176
     1
290
     0
176
     1
290
     0
176
     1
290
     0
176
     1
290
     0
176
     1
290
     0
176
     1
290
     0
176
     1
 90
       50
176
     1
 40
0.0
176
     1
 40
1.0
176
     1
 90
        0
176
     1
 62
    18
420
        0
176
     1
 90
       50
176
     1
 90
        3
176
     1
 62
     5
420
      255
176
     1
290
     0
176
     1
 90
       50
176
     1
 90
       50
176
     1
 90
       50
176
     1
290
     0
176
     1
 90
       50
176
     1
 62
   256
176
     0
 40
1.0
176
     0
 90
        2
176
     1
  1
strokes_ogs.tif
176
     1
290
     0
176
     1
 40
1.0
176
     1
 40
1.0
176
     1
  0
VISUALSTYLE
  5
42F
102
{ACAD_REACTORS
330
42C
102
}
330
42C
100
AcDbVisualStyle
  2
Gouraud
 70
     2
177
     3
291
     1
 70
    58
 90
        2
176
     1
 90
        2
176
     1
 90
        1
176
     1
 90
        2
176
     1
 40
0.6
176
     1
 40
30.0
176
     1
 62
     7
420
 16777215
176
     1
 90
        0
176
     1
 90
        0
176
     1
 62
     7
176
     1
 62
   257
176
     1
 90
        1
176
     1
 90
        1
176
     1
 40
1.0
176
     1
 90
        0
176
     1
 62
     7
176
     1
 40
1.0
176
     1
 90
        1
176
     1
 90
        6
176
     1
 90
        2
176
     1
 62
     7
176
     1
 90
        5
176
     1
 90
        0
176
     1
 90
        0
176
     1
290
     0
176
     1
 90
       13
176
     1
 40
0.0
176
     1
 90
        0
176
     1
290
     0
176
     1
290
     1
176
     1
290
     1
176
     1
290
     0
176
     1
290
     0
176
     1
290
     0
176
     1
290
     0
176
     1
290
     0
176
     1
290
     0
176
     1
 90
       50
176
     1
 40
0.0
176
     1
 40
1.0
176
     1
 90
        0
176
     1
 62
    18
420
        0
176
     1
 90
       50
176
     1
 90
        3
176
     1
 62
     5
420
      255
176
     1
290
     0
176
     1
 90
       50
176
     1
 90
       50
176
     1
 90
       50
176
     1
290
     0
176
     1
 90
       50
176
     1
 62
   256
176
     0
 40
1.0
176
     0
 90
        2
176
     1
  1
strokes_ogs.tif
176
     1
290
     0
176
     1
 40
1.0
176
     1
 40
1.0
176
     1
  0
VISUALSTYLE
  5
430
102
{ACAD_REACTORS
330
42C
102
}
330
42C
100
AcDbVisualStyle
  2
GouraudWithEdges
 70
     3
177
     3
291
     1
 70
    58
 90
        2
176
     1
 90
        2
176
     1
 90
        1
176
     1
 90
        2
176
     1
 40
0.6
176
     1
 40
30.0
176
     1
 62
     7
420
 16777215
176
     1
 90
        1
176
     1
 90
        0
176
     1
 62
     7
176
     1
 62
   257
176
     1
 90
        1
176
     1
 90
        1
176
     1
 40
1.0
176
     1
 90
        0
176
     1
 62
   257
176
     1
 40
1.0
176
     1
 90
        1
176
     1
 90
        6
176
     1
 90
        2
176
     1
 62
     7
176
     1
 90
        5
176
     1
 90
        0
176
     1
 90
        0
176
     1
290
     0
176
     1
 90
       13
176
     1
 40
0.0
176
     1
 90
        0
176
     1
290
     0
176
     1
290
     1
176
     1
290
     1
176
     1
290
     0
176
     1
290
     0
176
     1
290
     0
176
     1
290
     0
176
     1
290
     0
176
     1
290
     0
176
     1
 90
       50
176
     1
 40
0.0
176
     1
 40
1.0
176
     1
 90
        0
176
     1
 62
    18
420
        0
176
     1
 90
       50
176
     1
 90
        3
176
     1
 62
     5
420
      255
176
     1
290
     0
176
     1
 90
       50
176
     1
 90
       50
176
     1
 90
       50
176
     1
290
     0
176
     1
 90
       50
176
     1
 62
   256
176
     0
 40
1.0
176
     0
 90
        2
176
     1
  1
strokes_ogs.tif
176
     1
290
     0
176
     1
 40
1.0
176
     1
 40
1.0
176
     1
  0
VISUALSTYLE
  5
433
102
{ACAD_REACTORS
330
42C
102
}
330
42C
100
AcDbVisualStyle
  2
Hidden
 70
     6
177
     3
291
     0
 70
    58
 90
        1
176
     1
 90
        2
176
     1
 90
        2
176
     1
 90
        0
176
     1
 40
0.6
176
     1
 40
30.0
176
     1
 62
     7
420
 16777215
176
     1
 90
        2
176
     1
 90
        2
176
     1
 62
     7
176
     1
 62
   257
176
     1
 90
        2
176
     1
 90
        1
176
     1
 40
40.0
176
     1
 90
        0
176
     1
 62
   257
176
     1
 40
1.0
176
     1
 90
        1
176
     1
 90
        6
176
     1
 90
        2
176
     1
 62
     7
176
     1
 90
        3
176
     1
 90
        0
176
     1
 90
        0
176
     1
290
     0
176
     1
 90
        1
176
     1
 40
0.0
176
     1
 90
        0
176
     1
290
     0
176
     1
290
     1
176
     1
290
     1
176
     1
290
     0
176
     1
290
     0
176
     1
290
     0
176
     1
290
     0
176
     1
290
     0
176
     1
290
     0
176
     1
 90
       50
176
     1
 40
0.0
176
     1
 40
1.0
176
     1
 90
        0
176
     1
 62
    18
420
        0
176
     1
 90
       50
176
     1
 90
        3
176
     1
 62
     5
420
      255
176
     1
290
     0
176
     1
 90
       50
176
     1
 90
       50
176
     1
 90
       50
176
     1
290
     0
176
     1
 90
       50
176
     1
 62
   256
176
     0
 40
1.0
176
     0
 90
        2
176
     1
  1
strokes_ogs.tif
176
     1
290
     0
176
     1
 40
1.0
176
     1
 40
1.0
176
     1
  0
VISUALSTYLE
  5
43D
102
{ACAD_REACTORS
330
42C
102
}
330
42C
100
AcDbVisualStyle
  2
JitterOff
 70
    20
177
     3
291
     1
 70
    58
 90
        2
176
     0
 90
        2
176
     0
 90
        0
176
     0
 90
        0
176
     0
 40
0.6
176
     0
 40
30.0
176
     0
 62
     7
420
 16777215
176
     0
 90
        1
176
     0
 90
        4
176
     0
 62
     7
176
     0
 62
   257
176
     0
 90
        1
176
     0
 90
        1
176
     0
 40
1.0
176
     0
 90
       10
176
     2
 62
     7
176
     0
 40
1.0
176
     0
 90
        1
176
     0
 90
        6
176
     0
 90
        2
176
     0
 62
     7
176
     0
 90
        5
176
     0
 90
        0
176
     0
 90
        0
176
     0
290
     0
176
     0
 90
        1
176
     0
 40
0.0
176
     0
 90
        0
176
     0
290
     0
176
     0
290
     1
176
     0
290
     1
176
     0
290
     0
176
     0
290
     0
176
     0
290
     0
176
     0
290
     0
176
     0
290
     0
176
     0
290
     0
176
     0
 90
       50
176
     0
 40
0.0
176
     0
 40
1.0
176
     0
 90
        0
176
     0
 62
    18
420
        0
176
     0
 90
       50
176
     0
 90
        3
176
     0
 62
     5
420
      255
176
     0
290
     0
176
     0
 90
       50
176
     0
 90
       50
176
     0
 90
       50
176
     0
290
     0
176
     0
 90
       50
176
     0
 62
   256
176
     0
 40
1.0
176
     0
 90
        2
176
     0
  1
strokes_ogs.tif
176
     0
290
     0
176
     0
 40
1.0
176
     0
 40
1.0
176
     0
  0
VISUALSTYLE
  5
43A
102
{ACAD_REACTORS
330
42C
102
}
330
42C
100
AcDbVisualStyle
  2
Linepattern
 70
    14
177
     3
291
     1
 70
    58
 90
        2
176
     1
 90
        2
176
     1
 90
        0
176
     1
 90
        0
176
     1
 40
0.6
176
     1
 40
30.0
176
     1
 62
     7
420
 16777215
176
     1
 90
        1
176
     1
 90
        4
176
     1
 62
     7
176
     1
 62
   257
176
     1
 90
        7
176
     1
 90
        7
176
     1
 40
1.0
176
     1
 90
        8
176
     1
 62
     7
176
     1
 40
1.0
176
     1
 90
        1
176
     1
 90
        6
176
     1
 90
        2
176
     1
 62
     7
176
     1
 90
        5
176
     1
 90
        0
176
     1
 90
        0
176
     1
290
     0
176
     1
 90
        1
176
     1
 40
0.0
176
     1
 90
        0
176
     1
290
     0
176
     1
290
     1
176
     1
290
     1
176
     1
290
     0
176
     1
290
     0
176
     1
290
     0
176
     1
290
     0
176
     1
290
     0
176
     1
290
     0
176
     1
 90
       50
176
     1
 40
0.0
176
     1
 40
1.0
176
     1
 90
        0
176
     1
 62
    18
420
        0
176
     1
 90
       50
176
     1
 90
        3
176
     1
 62
     5
420
      255
176
     1
290
     0
176
     1
 90
       50
176
     1
 90
       50
176
     1
 90
       50
176
     1
290
     0
176
     1
 90
       50
176
     1
 62
   256
176
     0
 40
1.0
176
     0
 90
        2
176
     1
  1
strokes_ogs.tif
176
     1
290
     0
176
     1
 40
1.0
176
     1
 40
1.0
176
     1
  0
VISUALSTYLE
  5
43E
102
{ACAD_REACTORS
330
42C
102
}
330
42C
100
AcDbVisualStyle
  2
OverhangOff
 70
    21
177
     3
291
     1
 70
    58
 90
        2
176
     0
 90
        2
176
     0
 90
        0
176
     0
 90
        0
176
     0
 40
0.6
176
     0
 40
30.0
176
     0
 62
     7
420
 16777215
176
     0
 90
        1
176
     0
 90
        4
176
     0
 62
     7
176
     0
 62
   257
176
     0
 90
        1
176
     0
 90
        1
176
     0
 40
1.0
176
     0
 90
        9
176
     2
 62
     7
176
     0
 40
1.0
176
     0
 90
        1
176
     0
 90
        6
176
     0
 90
        2
176
     0
 62
     7
176
     0
 90
        5
176
     0
 90
        0
176
     0
 90
        0
176
     0
290
     0
176
     0
 90
        1
176
     0
 40
0.0
176
     0
 90
        0
176
     0
290
     0
176
     0
290
     1
176
     0
290
     1
176
     0
290
     0
176
     0
290
     0
176
     0
290
     0
176
     0
290
     0
176
     0
290
     0
176
     0
290
     0
176
     0
 90
       50
176
     0
 40
0.0
176
     0
 40
1.0
176
     0
 90
        0
176
     0
 62
    18
420
        0
176
     0
 90
       50
176
     0
 90
        3
176
     0
 62
     5
420
      255
176
     0
290
     0
176
     0
 90
       50
176
     0
 90
       50
176
     0
 90
       50
176
     0
290
     0
176
     0
 90
       50
176
     0
 62
   256
176
     0
 40
1.0
176
     0
 90
        2
176
     0
  1
strokes_ogs.tif
176
     0
290
     0
176
     0
 40
1.0
176
     0
 40
1.0
176
     0
  0
VISUALSTYLE
  5
435
102
{ACAD_REACTORS
330
42C
102
}
330
42C
100
AcDbVisualStyle
  2
Realistic
 70
     8
177
     3
291
     0
 70
    58
 90
        2
176
     1
 90
        3
176
     1
 90
        0
176
     1
 90
        2
176
     1
 40
0.6
176
     1
 40
30.0
176
     1
 62
     7
420
 16777215
176
     1
 90
        0
176
     1
 90
        0
176
     1
 62
     7
176
     1
 62
   257
176
     1
 90
        1
176
     1
 90
        1
176
     1
 40
1.0
176
     1
 90
        8
176
     1
 62
   257
176
     1
 40
1.0
176
     1
 90
        1
176
     1
 90
        6
176
     1
 90
        2
176
     1
 62
     7
176
     1
 90
        3
176
     1
 90
        0
176
     1
 90
        0
176
     1
290
     0
176
     1
 90
       13
176
     1
 40
0.0
176
     1
 90
        0
176
     1
290
     0
176
     1
290
     1
176
     1
290
     1
176
     1
290
     0
176
     1
290
     0
176
     1
290
     0
176
     1
290
     0
176
     1
290
     0
176
     1
290
     0
176
     1
 90
       50
176
     1
 40
0.0
176
     1
 40
1.0
176
     1
 90
        0
176
     1
 62
    18
420
        0
176
     1
 90
       50
176
     1
 90
        3
176
     1
 62
     5
420
      255
176
     1
290
     0
176
     1
 90
       50
176
     1
 90
       50
176
     1
 90
       50
176
     1
290
     0
176
     1
 90
       50
176
     1
 62
   256
176
     0
 40
1.0
176
     0
 90
        2
176
     1
  1
strokes_ogs.tif
176
     1
290
     0
176
     1
 40
1.0
176
     1
 40
1.0
176
     1
  0
VISUALSTYLE
  5
444
102
{ACAD_REACTORS
330
42C
102
}
330
42C
100
AcDbVisualStyle
  2
Shaded
 70
    27
177
     3
291
     0
 70
    58
 90
        2
176
     1
 90
        2
176
     1
 90
        1
176
     1
 90
        2
176
     1
 40
0.6
176
     1
 40
30.0
176
     1
 62
     7
420
 16777215
176
     1
 90
        0
176
     1
 90
        4
176
     1
 62
     7
176
     1
 62
   257
176
     1
 90
        1
176
     1
 90
        1
176
     1
 40
1.0
176
     1
 90
        8
176
     1
 62
   257
176
     1
 40
1.0
176
     1
 90
        1
176
     1
 90
        6
176
     1
 90
        2
176
     1
 62
     8
420
  7895160
176
     1
 90
        3
176
     1
 90
        0
176
     1
 90
        0
176
     1
290
     0
176
     1
 90
        5
176
     1
 40
0.0
176
     1
 90
        0
176
     1
290
     0
176
     1
290
     1
176
     1
290
     1
176
     1
290
     0
176
     1
290
     0
176
     1
290
     0
176
     1
290
     0
176
     1
290
     0
176
     1
290
     0
176
     1
 90
       50
176
     1
 40
0.0
176
     1
 40
1.0
176
     1
 90
        0
176
     1
 62
    18
420
        0
176
     1
 90
       50
176
     1
 90
        3
176
     1
 62
     5
420
      255
176
     1
290
     0
176
     1
 90
       50
176
     1
 90
       50
176
     1
 90
       50
176
     1
290
     0
176
     1
 90
       50
176
     1
 62
   256
176
     0
 40
1.0
176
     0
 90
        2
176
     1
  1
strokes_ogs.tif
176
     1
290
     0
176
     1
 40
1.0
176
     1
 40
1.0
176
     1
  0
VISUALSTYLE
  5
443
102
{ACAD_REACTORS
330
42C
102
}
330
42C
100
AcDbVisualStyle
  2
Shaded with edges
 70
    26
177
     3
291
     0
 70
    58
 90
        2
176
     1
 90
        2
176
     1
 90
        1
176
     1
 90
        2
176
     1
 40
0.6
176
     1
 40
30.0
176
     1
 62
     7
420
 16777215
176
     1
 90
        1
176
     1
 90
       10
176
     1
 62
     7
176
     1
 62
   257
176
     1
 90
        2
176
     1
 90
        1
176
     1
 40
1.0
176
     1
 90
        8
176
     1
 62
   257
176
     1
 40
1.0
176
     1
 90
        1
176
     1
 90
        6
176
     1
 90
        2
176
     1
 62
     7
176
     1
 90
        3
176
     1
 90
        0
176
     1
 90
        0
176
     1
290
     0
176
     1
 90
        5
176
     1
 40
0.0
176
     1
 90
        0
176
     1
290
     0
176
     1
290
     1
176
     1
290
     1
176
     1
290
     0
176
     1
290
     0
176
     1
290
     0
176
     1
290
     0
176
     1
290
     0
176
     1
290
     0
176
     1
 90
       50
176
     1
 40
0.0
176
     1
 40
1.0
176
     1
 90
        0
176
     1
 62
    18
420
        0
176
     1
 90
       50
176
     1
 90
        3
176
     1
 62
     5
420
      255
176
     1
290
     0
176
     1
 90
       50
176
     1
 90
       50
176
     1
 90
       50
176
     1
290
     0
176
     1
 90
       50
176
     1
 62
   256
176
     0
 40
1.0
176
     0
 90
        2
176
     1
  1
strokes_ogs.tif
176
     1
290
     0
176
     1
 40
1.0
176
     1
 40
1.0
176
     1
  0
VISUALSTYLE
  5
440
102
{ACAD_REACTORS
330
42C
102
}
330
42C
100
AcDbVisualStyle
  2
Shades of Gray
 70
    23
177
     3
291
     0
 70
    58
 90
        2
176
     1
 90
        2
176
     1
 90
        3
176
     1
 90
        0
176
     1
 40
0.6
176
     1
 40
30.0
176
     1
 62
     7
420
 16777215
176
     1
 90
        2
176
     1
 90
        2
176
     1
 62
     7
176
     1
 62
     7
176
     1
 90
        1
176
     1
 90
        1
176
     1
 40
40.0
176
     1
 90
        8
176
     1
 62
     7
176
     1
 40
1.0
176
     1
 90
        1
176
     1
 90
        6
176
     1
 90
        2
176
     1
 62
     7
176
     1
 90
        3
176
     1
 90
        0
176
     1
 90
        0
176
     1
290
     0
176
     1
 90
        1
176
     1
 40
0.0
176
     1
 90
        0
176
     1
290
     0
176
     1
290
     1
176
     1
290
     1
176
     1
290
     0
176
     1
290
     0
176
     1
290
     0
176
     1
290
     0
176
     1
290
     0
176
     1
290
     0
176
     1
 90
       50
176
     1
 40
0.0
176
     1
 40
1.0
176
     1
 90
        0
176
     1
 62
    18
420
        0
176
     1
 90
       50
176
     1
 90
        3
176
     1
 62
     5
420
      255
176
     1
290
     0
176
     1
 90
       50
176
     1
 90
       50
176
     1
 90
       50
176
     1
290
     0
176
     1
 90
       50
176
     1
 62
   256
176
     0
 40
1.0
176
     0
 90
        2
176
     1
  1
strokes_ogs.tif
176
     1
290
     0
176
     1
 40
1.0
176
     1
 40
1.0
176
     1
  0
VISUALSTYLE
  5
441
102
{ACAD_REACTORS
330
42C
102
}
330
42C
100
AcDbVisualStyle
  2
Sketchy
 70
    24
177
     3
291
     0
 70
    58
 90
        1
176
     1
 90
        2
176
     1
 90
        2
176
     1
 90
        0
176
     1
 40
0.6
176
     1
 40
30.0
176
     1
 62
     7
420
 16777215
176
     1
 90
        2
176
     1
 90
        2
176
     1
 62
     7
176
     1
 62
     7
176
     1
 90
        1
176
     1
 90
        1
176
     1
 40
40.0
176
     1
 90
       11
176
     1
 62
     7
176
     1
 40
1.0
176
     1
 90
        1
176
     1
 90
        6
176
     1
 90
        2
176
     1
 62
     7
176
     1
 90
        6
176
     1
 90
        0
176
     1
 90
        0
176
     1
290
     0
176
     1
 90
        1
176
     1
 40
0.0
176
     1
 90
        0
176
     1
290
     0
176
     1
290
     1
176
     1
290
     1
176
     1
290
     0
176
     1
290
     0
176
     1
290
     0
176
     1
290
     0
176
     1
290
     0
176
     1
290
     0
176
     1
 90
       50
176
     1
 40
0.0
176
     1
 40
1.0
176
     1
 90
        0
176
     1
 62
    18
420
        0
176
     1
 90
       50
176
     1
 90
        3
176
     1
 62
     5
420
      255
176
     1
290
     0
176
     1
 90
       50
176
     1
 90
       50
176
     1
 90
       50
176
     1
290
     0
176
     1
 90
       50
176
     1
 62
   256
176
     0
 40
1.0
176
     0
 90
        2
176
     1
  1
strokes_ogs.tif
176
     1
290
     0
176
     1
 40
1.0
176
     1
 40
1.0
176
     1
  0
VISUALSTYLE
  5
439
102
{ACAD_REACTORS
330
42C
102
}
330
42C
100
AcDbVisualStyle
  2
Thicken
 70
    13
177
     3
291
     1
 70
    58
 90
        2
176
     1
 90
        2
176
     1
 90
        0
176
     1
 90
        0
176
     1
 40
0.6
176
     1
 40
30.0
176
     1
 62
     7
420
 16777215
176
     1
 90
        1
176
     1
 90
        4
176
     1
 62
     7
176
     1
 62
   257
176
     1
 90
        1
176
     1
 90
        1
176
     1
 40
1.0
176
     1
 90
       12
176
     1
 62
     7
176
     1
 40
1.0
176
     1
 90
        1
176
     1
 90
        6
176
     1
 90
        2
176
     1
 62
     7
176
     1
 90
        5
176
     1
 90
        0
176
     1
 90
        0
176
     1
290
     0
176
     1
 90
        1
176
     1
 40
0.0
176
     1
 90
        0
176
     1
290
     0
176
     1
290
     1
176
     1
290
     1
176
     1
290
     0
176
     1
290
     0
176
     1
290
     0
176
     1
290
     0
176
     1
290
     0
176
     1
290
     0
176
     1
 90
       50
176
     1
 40
0.0
176
     1
 40
1.0
176
     1
 90
        0
176
     1
 62
    18
420
        0
176
     1
 90
       50
176
     1
 90
        3
176
     1
 62
     5
420
      255
176
     1
290
     0
176
     1
 90
       50
176
     1
 90
       50
176
     1
 90
       50
176
     1
290
     0
176
     1
 90
       50
176
     1
 62
   256
176
     0
 40
1.0
176
     0
 90
        2
176
     1
  1
strokes_ogs.tif
176
     1
290
     0
176
     1
 40
1.0
176
     1
 40
1.0
176
     1
  0
VISUALSTYLE
  5
432
102
{ACAD_REACTORS
330
42C
102
}
330
42C
100
AcDbVisualStyle
  2
Wireframe
 70
     5
177
     3
291
     0
 70
    58
 90
        0
176
     1
 90
        2
176
     1
 90
        0
176
     1
 90
        0
176
     1
 40
0.6
176
     1
 40
30.0
176
     1
 62
     7
420
 16777215
176
     1
 90
        1
176
     1
 90
        4
176
     1
 62
     7
176
     1
 62
   257
176
     1
 90
        1
176
     1
 90
        1
176
     1
 40
1.0
176
     1
 90
        0
176
     1
 62
   257
176
     1
 40
1.0
176
     1
 90
        1
176
     1
 90
        6
176
     1
 90
        2
176
     1
 62
     7
176
     1
 90
        3
176
     1
 90
        0
176
     1
 90
        0
176
     1
290
     0
176
     1
 90
        1
176
     1
 40
0.0
176
     1
 90
        0
176
     1
290
     0
176
     1
290
     1
176
     1
290
     1
176
     1
290
     0
176
     1
290
     0
176
     1
290
     0
176
     1
290
     0
176
     1
290
     0
176
     1
290
     0
176
     1
 90
       50
176
     1
 40
0.0
176
     1
 40
1.0
176
     1
 90
        0
176
     1
 62
    18
420
        0
176
     1
 90
       50
176
     1
 90
        3
176
     1
 62
     5
420
      255
176
     1
290
     0
176
     1
 90
       50
176
     1
 90
       50
176
     1
 90
       50
176
     1
290
     0
176
     1
 90
       50
176
     1
 62
   256
176
     0
 40
1.0
176
     0
 90
        2
176
     1
  1
strokes_ogs.tif
176
     1
290
     0
176
     1
 40
1.0
176
     1
 40
1.0
176
     1
  0
VISUALSTYLE
  5
442
102
{ACAD_REACTORS
330
42C
102
}
330
42C
100
AcDbVisualStyle
  2
X-Ray
 70
    25
177
     3
291
     0
 70
    58
 90
        2
176
     1
 90
        2
176
     1
 90
        1
176
     1
 90
        1
176
     1
 40
0.5
176
     1
 40
30.0
176
     1
 62
     7
420
 16777215
176
     1
 90
        1
176
     1
 90
        0
176
     1
 62
     7
176
     1
 62
   257
176
     1
 90
        1
176
     1
 90
        1
176
     1
 40
1.0
176
     1
 90
        8
176
     1
 62
     7
176
     1
 40
1.0
176
     1
 90
        1
176
     1
 90
        6
176
     1
 90
        2
176
     1
 62
     7
176
     1
 90
        3
176
     1
 90
        0
176
     1
 90
        0
176
     1
290
     0
176
     1
 90
       13
176
     1
 40
0.0
176
     1
 90
        0
176
     1
290
     0
176
     1
290
     1
176
     1
290
     1
176
     1
290
     0
176
     1
290
     0
176
     1
290
     0
176
     1
290
     0
176
     1
290
     0
176
     1
290
     0
176
     1
 90
       50
176
     1
 40
0.0
176
     1
 40
1.0
176
     1
 90
        0
176
     1
 62
    18
420
        0
176
     1
 90
       50
176
     1
 90
        3
176
     1
 62
     5
420
      255
176
     1
290
     0
176
     1
 90
       50
176
     1
 90
       50
176
     1
 90
       50
176
     1
290
     0
176
     1
 90
       50
176
     1
 62
   256
176
     0
 40
1.0
176
     0
 90
        2
176
     1
  1
strokes_ogs.tif
176
     1
290
     0
176
     1
 40
1.0
176
     1
 40
1.0
176
     1
  0
DICTIONARYVAR
  5
44F
102
{ACAD_REACTORS
330
44E
102
}
330
44E
100
DictionaryVariables
280
     0
  1
1:1
  0
DICTIONARYVAR
  5
454
102
{ACAD_REACTORS
330
44E
102
}
330
44E
100
DictionaryVariables
280
     0
  1
Standard
  0
DICTIONARYVAR
  5
453
102
{ACAD_REACTORS
330
44E
102
}
330
44E
100
DictionaryVariables
280
     0
  1
Standard
  0
DICTIONARYVAR
  5
455
102
{ACAD_REACTORS
330
44E
102
}
330
44E
100
DictionaryVariables
280
     0
  1
0
  0
DICTIONARY
  5
450
330
44A
100
AcDbDictionary
280
     1
281
     1
  3
ACAD_ROUNDTRIP_2008_TABLESTYLE_CELLSTYLEMAP
360
451
  0
CELLSTYLEMAP
  5
451
102
{ACAD_REACTORS
330
450
102
}
330
450
100
AcDbCellStyleMap
 90
        3
300
CELLSTYLE
  1
TABLEFORMAT_BEGIN
 90
        5
170
     1
 91
        0
 92
    32768
 62
   257
 93
        1
300
CONTENTFORMAT
  1
CONTENTFORMAT_BEGIN
 90
        0
 91
        0
 92
        4
 93
        0
300

 40
0.0
140
1.0
 94
        5
 62
     0
340
11
144
6.0
309
CONTENTFORMAT_END
171
     1
301
MARGIN
  1
CELLMARGIN_BEGIN
 40
1.5
 40
1.5
 40
1.5
 40
1.5
 40
1.5
 40
1.5
309
CELLMARGIN_END
 94
        6
 95
        1
302
GRIDFORMAT
  1
GRIDFORMAT_BEGIN
 90
        0
 91
        1
 62
     0
 92
       -2
340
14
 93
        0
 40
0.045
309
GRIDFORMAT_END
 95
        2
302
GRIDFORMAT
  1
GRIDFORMAT_BEGIN
 90
        0
 91
        1
 62
     0
 92
       -2
340
14
 93
        0
 40
0.045
309
GRIDFORMAT_END
 95
        4
302
GRIDFORMAT
  1
GRIDFORMAT_BEGIN
 90
        0
 91
        1
 62
     0
 92
       -2
340
14
 93
        0
 40
0.045
309
GRIDFORMAT_END
 95
        8
302
GRIDFORMAT
  1
GRIDFORMAT_BEGIN
 90
        0
 91
        1
 62
     0
 92
       -2
340
14
 93
        0
 40
0.045
309
GRIDFORMAT_END
 95
       16
302
GRIDFORMAT
  1
GRIDFORMAT_BEGIN
 90
        0
 91
        1
 62
     0
 92
       -2
340
14
 93
        0
 40
0.045
309
GRIDFORMAT_END
 95
       32
302
GRIDFORMAT
  1
GRIDFORMAT_BEGIN
 90
        0
 91
        1
 62
     0
 92
       -2
340
14
 93
        0
 40
0.045
309
GRIDFORMAT_END
309
TABLEFORMAT_END
  1
CELLSTYLE_BEGIN
 90
        1
 91
        1
300
_TITLE
309
CELLSTYLE_END
300
CELLSTYLE
  1
TABLEFORMAT_BEGIN
 90
        5
170
     1
 91
        0
 92
        0
 62
   257
 93
        1
300
CONTENTFORMAT
  1
CONTENTFORMAT_BEGIN
 90
        0
 91
        0
 92
        4
 93
        0
300

 40
0.0
140
1.0
 94
        5
 62
     0
340
11
144
4.5
309
CONTENTFORMAT_END
171
     1
301
MARGIN
  1
CELLMARGIN_BEGIN
 40
1.5
 40
1.5
 40
1.5
 40
1.5
 40
1.5
 40
1.5
309
CELLMARGIN_END
 94
        6
 95
        1
302
GRIDFORMAT
  1
GRIDFORMAT_BEGIN
 90
        0
 91
        1
 62
     0
 92
       -2
340
14
 93
        0
 40
0.045
309
GRIDFORMAT_END
 95
        2
302
GRIDFORMAT
  1
GRIDFORMAT_BEGIN
 90
        0
 91
        1
 62
     0
 92
       -2
340
14
 93
        0
 40
0.045
309
GRIDFORMAT_END
 95
        4
302
GRIDFORMAT
  1
GRIDFORMAT_BEGIN
 90
        0
 91
        1
 62
     0
 92
       -2
340
14
 93
        0
 40
0.045
309
GRIDFORMAT_END
 95
        8
302
GRIDFORMAT
  1
GRIDFORMAT_BEGIN
 90
        0
 91
        1
 62
     0
 92
       -2
340
14
 93
        0
 40
0.045
309
GRIDFORMAT_END
 95
       16
302
GRIDFORMAT
  1
GRIDFORMAT_BEGIN
 90
        0
 91
        1
 62
     0
 92
       -2
340
14
 93
        0
 40
0.045
309
GRIDFORMAT_END
 95
       32
302
GRIDFORMAT
  1
GRIDFORMAT_BEGIN
 90
        0
 91
        1
 62
     0
 92
       -2
340
14
 93
        0
 40
0.045
309
GRIDFORMAT_END
309
TABLEFORMAT_END
  1
CELLSTYLE_BEGIN
 90
        2
 91
        1
300
_HEADER
309
CELLSTYLE_END
300
CELLSTYLE
  1
TABLEFORMAT_BEGIN
 90
        5
170
     1
 91
        0
 92
        0
 62
   257
 93
        1
300
CONTENTFORMAT
  1
CONTENTFORMAT_BEGIN
 90
        0
 91
        0
 92
        4
 93
        0
300

 40
0.0
140
1.0
 94
        2
 62
     0
340
11
144
4.5
309
CONTENTFORMAT_END
171
     1
301
MARGIN
  1
CELLMARGIN_BEGIN
 40
1.5
 40
1.5
 40
1.5
 40
1.5
 40
1.5
 40
1.5
309
CELLMARGIN_END
 94
        6
 95
        1
302
GRIDFORMAT
  1
GRIDFORMAT_BEGIN
 90
        0
 91
        1
 62
     0
 92
       -2
340
14
 93
        0
 40
0.045
309
GRIDFORMAT_END
 95
        2
302
GRIDFORMAT
  1
GRIDFORMAT_BEGIN
 90
        0
 91
        1
 62
     0
 92
       -2
340
14
 93
        0
 40
0.045
309
GRIDFORMAT_END
 95
        4
302
GRIDFORMAT
  1
GRIDFORMAT_BEGIN
 90
        0
 91
        1
 62
     0
 92
       -2
340
14
 93
        0
 40
0.045
309
GRIDFORMAT_END
 95
        8
302
GRIDFORMAT
  1
GRIDFORMAT_BEGIN
 90
        0
 91
        1
 62
     0
 92
       -2
340
14
 93
        0
 40
0.045
309
GRIDFORMAT_END
 95
       16
302
GRIDFORMAT
  1
GRIDFORMAT_BEGIN
 90
        0
 91
        1
 62
     0
 92
       -2
340
14
 93
        0
 40
0.045
309
GRIDFORMAT_END
 95
       32
302
GRIDFORMAT
  1
GRIDFORMAT_BEGIN
 90
        0
 91
        1
 62
     0
 92
       -2
340
14
 93
        0
 40
0.045
309
GRIDFORMAT_END
309
TABLEFORMAT_END
  1
CELLSTYLE_BEGIN
 90
        3
 91
        2
300
_DATA
309
CELLSTYLE_END
  0
ENDSEC
  0
EOF
