999
DXF file: 452_c_060.dxf
999
Pro/ENGINEER 2016360 by Parametric Technology Corporation
  0
SECTION
  2
HEADER
  9
$ACADVER
  1
AC1014
  9
$DWGCODEPAGE
  3
ANSI_1252
  9
$EXTMAX
 10
297.0
 20
210.0
 30
0.0
  9
$EXTMIN
 10
0.0
 20
0.0
 30
0.0
  9
$LIMMIN
 10
0.0
 20
0.0
  9
$LIMMAX
 10
297.0
 20
210.0
  9
$VIEWCTR
 10
148.5
 20
105.0
  9
$VIEWSIZE
 40
210.0
  9
$CLAYER
  8
0
  9
$LTSCALE
 40
16.335
  9
$CELTYPE
  6
BYLAYER
  9
$DIMSCALE
 40
1.0
  9
$DIMASZ
 40
2.5
  9
$DIMEXO
 40
0.75
  9
$DIMDLI
 40
11.286
  9
$DIMEXE
 40
0.75
  9
$DIMCEN
 40
2.673
  9
$DIMLFAC
 40
1.0
  9
$DIMBLK
  1
_CLOSED
  9
$DIMALT
 70
0
  9
$DIMALTF
 40
25.4
  9
$DIMTXT
 40
3.0
  9
$DIMTOL
 70
1
  9
$DIMLIM
 70
0
  9
$DIMTFAC
 40
1.0
  9
$DIMTP
 40
0.01
  9
$DIMTM
 40
0.01
  9
$DIMGAP
 40
0.625
  9
$AUNITS
 70
0
  9
$PDMODE
 70
3
  9
$PDSIZE
 40
0.3125
  9
$HANDSEED
  5
2CE
  9
$TILEMODE
 70
1
  9
$MEASUREMENT
 70
1
  0
ENDSEC
  0
SECTION
  2
CLASSES
  0
ENDSEC
  0
SECTION
  2
TABLES
  0
TABLE
  2
VPORT
  5
8
100
AcDbSymbolTable
 70
2
  0
VPORT
  5
1F4
100
AcDbSymbolTableRecord
100
AcDbViewportTableRecord
  2
*ACTIVE
 70
0
 10
0.0
 20
0.0
 11
1.0
 21
1.0
 12
148.5
 22
105.0
 13
0.0
 23
0.0
 14
1.0
 24
1.0
 15
0.0
 25
0.0
 16
0.0
 26
0.0
 36
1.0
 17
0.0
 27
0.0
 37
0.0
 40
210.0
 41
1.4142857143
 42
50.0
 43
0.0
 44
0.0
 50
0.0
 51
0.0
 71
0
 72
100
 73
1
 74
1
 75
0
 76
0
 77
0
 78
0
  0
ENDTAB
  0
TABLE
  2
LTYPE
  5
5
100
AcDbSymbolTable
 70
6
  0
LTYPE
  5
14
100
AcDbSymbolTableRecord
100
AcDbLinetypeTableRecord
  2
BYBLOCK
 70
0
  3

 72
65
 73
0
 40
0.0
  0
LTYPE
  5
15
100
AcDbSymbolTableRecord
100
AcDbLinetypeTableRecord
  2
BYLAYER
 70
0
  3

 72
65
 73
0
 40
0.0
  0
LTYPE
  5
16
100
AcDbSymbolTableRecord
100
AcDbLinetypeTableRecord
  2
CONTINUOUS
 70
64
  3
Solid line
 72
65
 73
0
 40
0.0
  0
LTYPE
  5
1F5
100
AcDbSymbolTableRecord
100
AcDbLinetypeTableRecord
  2
CENTER
 70
64
  3
____ _ ____ _ ____ _ ____ _ ____ _ ____ _ ____
 72
65
 73
4
 40
0.6
 49
0.375
 74
0
 49
-0.075
 74
0
 49
0.075
 74
0
 49
-0.075
 74
0
  0
LTYPE
  5
1F6
100
AcDbSymbolTableRecord
100
AcDbLinetypeTableRecord
  2
HIDDEN
 70
64
  3
- - - - - - - - - - - - - - - - - - - -
 72
65
 73
2
 40
0.2
 49
0.1
 74
0
 49
-0.1
 74
0
  0
LTYPE
  5
1F7
100
AcDbSymbolTableRecord
100
AcDbLinetypeTableRecord
  2
PHANTOM
 70
64
  3
_____ _ _ _____ _ _ _____ _ _ _____
 72
65
 73
6
 40
0.8
 49
0.45
 74
0
 49
-0.05
 74
0
 49
0.1
 74
0
 49
-0.05
 74
0
 49
0.1
 74
0
 49
-0.05
 74
0
  0
LTYPE
  5
1F8
100
AcDbSymbolTableRecord
100
AcDbLinetypeTableRecord
  2
DOT
 70
64
  3
. . . . . . . . . . . . . . . . . . . .
 72
65
 73
2
 40
0.2
 49
0.1
 74
0
 49
-0.1
 74
0
  0
LTYPE
  5
1F9
100
AcDbSymbolTableRecord
100
AcDbLinetypeTableRecord
  2
DASHED
 70
64
  3
- - - - - - - - - - - - - - - - - - - -
 72
65
 73
2
 40
0.2
 49
0.1
 74
0
 49
-0.1
 74
0
  0
ENDTAB
  0
TABLE
  2
LAYER
  5
2
100
AcDbSymbolTable
 70
36
  0
LAYER
  5
10
100
AcDbSymbolTableRecord
100
AcDbLayerTableRecord
  2
0
 70
0
 62
7
  6
CONTINUOUS
  0
LAYER
  5
1FA
100
AcDbSymbolTableRecord
100
AcDbLayerTableRecord
  2
DEFAULT_1
 70
0
 62
7
  6
CENTER
  0
LAYER
  5
1FB
100
AcDbSymbolTableRecord
100
AcDbLayerTableRecord
  2
DEFAULT_2
 70
0
 62
8
  6
HIDDEN
  0
LAYER
  5
1FC
100
AcDbSymbolTableRecord
100
AcDbLayerTableRecord
  2
DEFAULT_3
 70
0
 62
7
  6
PHANTOM
  0
LAYER
  5
1FD
100
AcDbSymbolTableRecord
100
AcDbLayerTableRecord
  2
01_ALL_DTM_PLN
 70
0
 62
7
  6
CONTINUOUS
  0
LAYER
  5
1FE
100
AcDbSymbolTableRecord
100
AcDbLayerTableRecord
  2
01__ASM_ALL_DTM_PLN
 70
0
 62
7
  6
CONTINUOUS
  0
LAYER
  5
1FF
100
AcDbSymbolTableRecord
100
AcDbLayerTableRecord
  2
01__ASM_DEF_DTM_PLN
 70
0
 62
7
  6
CONTINUOUS
  0
LAYER
  5
200
100
AcDbSymbolTableRecord
100
AcDbLayerTableRecord
  2
01___PRT_ALL_DTM_PLN
 70
0
 62
7
  6
CONTINUOUS
  0
LAYER
  5
201
100
AcDbSymbolTableRecord
100
AcDbLayerTableRecord
  2
01___PRT_DEF_DTM_PLN
 70
0
 62
7
  6
CONTINUOUS
  0
LAYER
  5
202
100
AcDbSymbolTableRecord
100
AcDbLayerTableRecord
  2
02_ALL_AXES
 70
0
 62
7
  6
CONTINUOUS
  0
LAYER
  5
203
100
AcDbSymbolTableRecord
100
AcDbLayerTableRecord
  2
02__ASM_ALL_AXES
 70
0
 62
7
  6
CONTINUOUS
  0
LAYER
  5
204
100
AcDbSymbolTableRecord
100
AcDbLayerTableRecord
  2
02___PRT_ALL_AXES
 70
0
 62
7
  6
CONTINUOUS
  0
LAYER
  5
205
100
AcDbSymbolTableRecord
100
AcDbLayerTableRecord
  2
03_ALL_CURVES
 70
0
 62
7
  6
CONTINUOUS
  0
LAYER
  5
206
100
AcDbSymbolTableRecord
100
AcDbLayerTableRecord
  2
03__ASM_ALL_CURVES
 70
0
 62
7
  6
CONTINUOUS
  0
LAYER
  5
207
100
AcDbSymbolTableRecord
100
AcDbLayerTableRecord
  2
03___PRT_ALL_CURVES
 70
0
 62
7
  6
CONTINUOUS
  0
LAYER
  5
208
100
AcDbSymbolTableRecord
100
AcDbLayerTableRecord
  2
04_ALL_DTM_PNT
 70
0
 62
7
  6
CONTINUOUS
  0
LAYER
  5
209
100
AcDbSymbolTableRecord
100
AcDbLayerTableRecord
  2
04__ASM_ALL_DTM_PNT
 70
0
 62
7
  6
CONTINUOUS
  0
LAYER
  5
20A
100
AcDbSymbolTableRecord
100
AcDbLayerTableRecord
  2
04___PRT_ALL_DTM_PNT
 70
0
 62
7
  6
CONTINUOUS
  0
LAYER
  5
20B
100
AcDbSymbolTableRecord
100
AcDbLayerTableRecord
  2
05_ALL_DTM_CSYS
 70
0
 62
7
  6
CONTINUOUS
  0
LAYER
  5
20C
100
AcDbSymbolTableRecord
100
AcDbLayerTableRecord
  2
05__ASM_ALL_DTM_CSYS
 70
0
 62
7
  6
CONTINUOUS
  0
LAYER
  5
20D
100
AcDbSymbolTableRecord
100
AcDbLayerTableRecord
  2
05__ASM_DEF_DTM_CSYS
 70
0
 62
7
  6
CONTINUOUS
  0
LAYER
  5
20E
100
AcDbSymbolTableRecord
100
AcDbLayerTableRecord
  2
05___PRT_ALL_DTM_CSYS
 70
0
 62
7
  6
CONTINUOUS
  0
LAYER
  5
20F
100
AcDbSymbolTableRecord
100
AcDbLayerTableRecord
  2
05___PRT_DEF_DTM_CSYS
 70
0
 62
7
  6
CONTINUOUS
  0
LAYER
  5
210
100
AcDbSymbolTableRecord
100
AcDbLayerTableRecord
  2
06_ALL_SURFS
 70
0
 62
7
  6
CONTINUOUS
  0
LAYER
  5
211
100
AcDbSymbolTableRecord
100
AcDbLayerTableRecord
  2
06__ASM_ALL_SURFS
 70
0
 62
7
  6
CONTINUOUS
  0
LAYER
  5
212
100
AcDbSymbolTableRecord
100
AcDbLayerTableRecord
  2
06___PRT_ALL_SURFS
 70
0
 62
7
  6
CONTINUOUS
  0
LAYER
  5
213
100
AcDbSymbolTableRecord
100
AcDbLayerTableRecord
  2
07__ASM_ALL_SKELETONS
 70
0
 62
7
  6
CONTINUOUS
  0
LAYER
  5
214
100
AcDbSymbolTableRecord
100
AcDbLayerTableRecord
  2
1_ALL_PLANES
 70
0
 62
7
  6
CONTINUOUS
  0
LAYER
  5
215
100
AcDbSymbolTableRecord
100
AcDbLayerTableRecord
  2
2_ALL_CSYS
 70
0
 62
7
  6
CONTINUOUS
  0
LAYER
  5
216
100
AcDbSymbolTableRecord
100
AcDbLayerTableRecord
  2
3_ALL_AXES
 70
0
 62
7
  6
CONTINUOUS
  0
LAYER
  5
217
100
AcDbSymbolTableRecord
100
AcDbLayerTableRecord
  2
4_ALL_POINTS
 70
0
 62
7
  6
CONTINUOUS
  0
LAYER
  5
218
100
AcDbSymbolTableRecord
100
AcDbLayerTableRecord
  2
5_ALL_CURVES
 70
0
 62
7
  6
CONTINUOUS
  0
LAYER
  5
219
100
AcDbSymbolTableRecord
100
AcDbLayerTableRecord
  2
5__COSTRUZIONE
 70
0
 62
7
  6
CONTINUOUS
  0
LAYER
  5
21A
100
AcDbSymbolTableRecord
100
AcDbLayerTableRecord
  2
6_ALL_SURFS
 70
0
 62
7
  6
CONTINUOUS
  0
LAYER
  5
21B
100
AcDbSymbolTableRecord
100
AcDbLayerTableRecord
  2
7_ALL_FEATURES
 70
0
 62
7
  6
CONTINUOUS
  0
LAYER
  5
21C
100
AcDbSymbolTableRecord
100
AcDbLayerTableRecord
  2
9_SOLID
 70
0
 62
7
  6
CONTINUOUS
  0
LAYER
  5
21D
100
AcDbSymbolTableRecord
100
AcDbLayerTableRecord
  2
XXX_SOLIDO
 70
0
 62
7
  6
CONTINUOUS
  0
ENDTAB
  0
TABLE
  2
STYLE
  5
3
100
AcDbSymbolTable
 70
1
  0
STYLE
  5
11
100
AcDbSymbolTableRecord
100
AcDbTextStyleTableRecord
  2
STANDARD
 70
0
 40
0.0
 41
1.0
 50
0.0
 71
0
 42
0.2
  3
arial.ttf
  4

  0
STYLE
  5
21E
100
AcDbSymbolTableRecord
100
AcDbTextStyleTableRecord
  2
TEXTSTYLE_1
 70
0
 40
0.0
 41
0.8
 50
0.0
 71
0
 42
0.2
  3
gdt
  4

  0
STYLE
  5
21F
100
AcDbSymbolTableRecord
100
AcDbTextStyleTableRecord
  2
TEXTSTYLE_2
 70
0
 40
0.0
 41
0.85
 50
0.0
 71
0
 42
0.2
  3
txt
  4

  0
ENDTAB
  0
TABLE
  2
VIEW
  5
6
100
AcDbSymbolTable
 70
0
  0
ENDTAB
  0
TABLE
  2
UCS
  5
7
100
AcDbSymbolTable
 70
0
  0
ENDTAB
  0
TABLE
  2
APPID
  5
9
100
AcDbSymbolTable
 70
1
  0
APPID
  5
220
100
AcDbSymbolTableRecord
100
AcDbRegAppTableRecord
  2
ACAD
 70
0
  0
ENDTAB
  0
TABLE
  2
BLOCK_RECORD
  5
1
100
AcDbSymbolTable
 70
0
  0
BLOCK_RECORD
  5
1F
100
AcDbSymbolTableRecord
100
AcDbBlockTableRecord
  2
*MODEL_SPACE
  0
BLOCK_RECORD
  5
1B
100
AcDbSymbolTableRecord
100
AcDbBlockTableRecord
  2
*PAPER_SPACE
  0
BLOCK_RECORD
  5
221
100
AcDbSymbolTableRecord
100
AcDbBlockTableRecord
  2
_CLOSED
  0
BLOCK_RECORD
  5
222
100
AcDbSymbolTableRecord
100
AcDbBlockTableRecord
  2
*D0
  0
BLOCK_RECORD
  5
223
100
AcDbSymbolTableRecord
100
AcDbBlockTableRecord
  2
*D1
  0
BLOCK_RECORD
  5
224
100
AcDbSymbolTableRecord
100
AcDbBlockTableRecord
  2
*D2
  0
BLOCK_RECORD
  5
225
100
AcDbSymbolTableRecord
100
AcDbBlockTableRecord
  2
LOGO2_BL0
  0
ENDTAB
  0
TABLE
  2
DIMSTYLE
  5
A
100
AcDbSymbolTable
 70
1
  0
DIMSTYLE
105
226
100
AcDbSymbolTableRecord
100
AcDbDimStyleTableRecord
  2
STANDARD
 70
0
  3

  4

  5
_CLOSED
  6
_CLOSED
  7
_CLOSED
 40
1.0
 41
2.5
 42
0.75
 43
0.38
 44
0.75
 45
0.0
 46
0.0
 47
0.01
 48
0.01
140
3.0
141
0.09
142
0.0
143
25.4
144
1.0
145
0.0
146
1.0
147
0.625
 71
1.0
 72
0.0
 73
0
 74
0
 75
0
 76
0
 77
1
 78
8
 79
2
170
0
171
1
172
0
173
0
174
0
175
0
176
0
177
0
178
0
270
2
179
2
271
2
272
2
273
2
274
2
275
0
280
0
281
0
282
0
283
1
284
8
285
0
286
0
287
3
288
0
340
11
  0
DIMSTYLE
105
227
100
AcDbSymbolTableRecord
100
AcDbDimStyleTableRecord
  2
DIMSTYLE_1
 70
0
  3

  4

  5
_CLOSED
  6
_CLOSED
  7
_CLOSED
 40
1.0
 41
2.5
 42
0.75
 43
0.38
 44
0.75
 45
0.0
 46
0.0
 47
0.3
 48
0.3
140
3.0
141
0.09
142
0.0
143
25.4
144
1.0
145
0.0
146
1.0
147
0.75
 71
0.0
 72
0.0
 73
0
 74
0
 75
0
 76
0
 77
1
 78
8
 79
2
170
0
171
1
172
0
173
0
174
0
175
0
176
0
177
0
178
0
270
2
179
2
271
2
272
2
273
2
274
2
275
0
280
0
281
0
282
0
283
1
284
8
285
0
286
0
287
3
288
0
340
11
  0
ENDTAB
  0
ENDSEC
  0
SECTION
  2
BLOCKS
  0
BLOCK
  5
20
100
AcDbEntity
  8
0
100
AcDbBlockBegin
  2
*MODEL_SPACE
 70
0
 10
0.0
 20
0.0
 30
0.0
  3
*MODEL_SPACE
  1

  0
ENDBLK
  5
21
100
AcDbEntity
  8
0
100
AcDbBlockEnd
  0
BLOCK
  5
1C
100
AcDbEntity
  8
0
100
AcDbBlockBegin
  2
*PAPER_SPACE
 70
0
 10
0.0
 20
0.0
 30
0.0
  3
*PAPER_SPACE
  1

  0
ENDBLK
  5
1D
100
AcDbEntity
  8
0
100
AcDbBlockEnd
  0
BLOCK
  5
228
100
AcDbEntity
  8
0
100
AcDbBlockBegin
 62
2
  6
CONTINUOUS
  2
LOGO2_BL0
 70
64
 10
207.6164605391
 20
39.6725198453
  3
LOGO2_BL0
  1

  0
LINE
  5
229
100
AcDbEntity
  8
0
100
AcDbLine
 62
7
  6
CONTINUOUS
 10
199.3593857673
 20
42.8680111841
 11
198.055044838
 21
42.8680111841
  0
LINE
  5
22A
100
AcDbEntity
  8
0
100
AcDbLine
 62
7
  6
CONTINUOUS
 10
198.055044838
 20
42.8680111841
 11
198.055044838
 21
32.4089451242
  0
LINE
  5
22B
100
AcDbEntity
  8
0
100
AcDbLine
 62
7
  6
CONTINUOUS
 10
198.055044838
 20
32.4089451242
 11
202.5360997262
 21
32.4089451242
  0
LINE
  5
22C
100
AcDbEntity
  8
0
100
AcDbLine
 62
7
  6
CONTINUOUS
 10
202.5360997262
 20
32.4089451242
 11
202.5360997262
 21
33.6017994493
  0
LINE
  5
22D
100
AcDbEntity
  8
0
100
AcDbLine
 62
7
  6
CONTINUOUS
 10
202.5360997262
 20
33.6017994493
 11
199.3593857673
 21
33.6017994493
  0
LINE
  5
22E
100
AcDbEntity
  8
0
100
AcDbLine
 62
7
  6
CONTINUOUS
 10
199.3593857673
 20
33.6017994493
 11
199.3593857673
 21
42.8680111841
  0
LINE
  5
22F
100
AcDbEntity
  8
0
100
AcDbLine
 62
7
  6
CONTINUOUS
 10
214.2957119836
 20
42.8680111841
 11
212.9918944656
 21
42.8680111841
  0
LINE
  5
230
100
AcDbEntity
  8
0
100
AcDbLine
 62
7
  6
CONTINUOUS
 10
212.9918944656
 20
42.8680111841
 11
212.9918944656
 21
32.4089451242
  0
LINE
  5
231
100
AcDbEntity
  8
0
100
AcDbLine
 62
7
  6
CONTINUOUS
 10
212.9918944656
 20
32.4089451242
 11
217.4730802067
 21
32.4089451242
  0
LINE
  5
232
100
AcDbEntity
  8
0
100
AcDbLine
 62
7
  6
CONTINUOUS
 10
217.4730802067
 20
32.4089451242
 11
217.4730802067
 21
33.6017994493
  0
LINE
  5
233
100
AcDbEntity
  8
0
100
AcDbLine
 62
7
  6
CONTINUOUS
 10
217.4730802067
 20
33.6017994493
 11
214.2957119836
 21
33.6017994493
  0
LINE
  5
234
100
AcDbEntity
  8
0
100
AcDbLine
 62
7
  6
CONTINUOUS
 10
214.2957119836
 20
33.6017994493
 11
214.2957119836
 21
42.8680111841
  0
LWPOLYLINE
  5
235
100
AcDbEntity
  8
0
100
AcDbPolyline
 62
7
  6
CONTINUOUS
 90
2
 70
0
 43
0.2
 10
196.4094397489
 20
29.0653938173
 10
196.4094397489
 20
27.208330568
  0
LWPOLYLINE
  5
236
100
AcDbEntity
  8
0
100
AcDbPolyline
 62
7
  6
CONTINUOUS
 90
2
 70
0
 43
0.2
 10
196.4094397489
 20
27.208330568
 10
197.2051557593
 20
27.208330568
  0
LWPOLYLINE
  5
237
100
AcDbEntity
  8
0
100
AcDbPolyline
 62
7
  6
CONTINUOUS
 90
2
 70
0
 43
0.2
 10
197.2051557593
 20
27.208330568
 10
197.2051557593
 20
27.4203121396
  0
LWPOLYLINE
  5
238
100
AcDbEntity
  8
0
100
AcDbPolyline
 62
7
  6
CONTINUOUS
 90
2
 70
0
 43
0.2
 10
197.2051557593
 20
27.4203121396
 10
196.6410492438
 20
27.4203121396
  0
LWPOLYLINE
  5
239
100
AcDbEntity
  8
0
100
AcDbPolyline
 62
7
  6
CONTINUOUS
 90
2
 70
0
 43
0.2
 10
196.6410492438
 20
27.4203121396
 10
196.6410492438
 20
29.0653938173
  0
LWPOLYLINE
  5
23A
100
AcDbEntity
  8
0
100
AcDbPolyline
 62
7
  6
CONTINUOUS
 90
2
 70
0
 43
0.2
 10
196.6410492438
 20
29.0653938173
 10
196.4094397489
 20
29.0653938173
  0
SPLINE
  5
23B
100
AcDbEntity
  8
0
100
AcDbSpline
 62
7
  6
CONTINUOUS
 70
2
 71
3
 72
35
 73
31
 74
0
 42
0.0000001
 43
0.0000001
 44
0.0000000001
 40
0.0
 40
0.0
 40
0.0
 40
0.0
 40
1.0
 40
1.0
 40
1.0
 40
2.0
 40
2.0
 40
2.0
 40
3.0
 40
3.0
 40
3.0
 40
4.0
 40
4.0
 40
4.0
 40
5.0
 40
5.0
 40
5.0
 40
6.0
 40
6.0
 40
6.0
 40
7.0
 40
7.0
 40
7.0
 40
8.0
 40
8.0
 40
8.0
 40
9.0
 40
9.0
 40
9.0
 40
10.0
 40
10.0
 40
10.0
 40
10.0
 10
198.6034490148
 20
28.3608822239
 30
0.0
 10
198.6034490148
 20
28.3608822239
 30
0.0
 10
198.6034490148
 20
27.6987669447
 30
0.0
 10
198.6034490148
 20
27.6987669447
 30
0.0
 10
198.6034490148
 20
27.3836733494
 30
0.0
 10
198.7513127037
 20
27.1690747214
 30
0.0
 10
199.0913991879
 20
27.1690747214
 30
0.0
 10
199.430962261
 20
27.1690747214
 30
0.0
 10
199.5790876554
 20
27.3836733494
 30
0.0
 10
199.5790876554
 20
27.6987669447
 30
0.0
 10
199.5790876554
 20
27.6987669447
 30
0.0
 10
199.5790876554
 20
28.3608822239
 30
0.0
 10
199.5790876554
 20
28.3608822239
 30
0.0
 10
199.5790876554
 20
28.3608822239
 30
0.0
 10
199.3570304165
 20
28.3608822239
 30
0.0
 10
199.3570304165
 20
28.3608822239
 30
0.0
 10
199.3570304165
 20
28.3608822239
 30
0.0
 10
199.3570304165
 20
27.7238906865
 30
0.0
 10
199.3570304165
 20
27.7238906865
 30
0.0
 10
199.3570304165
 20
27.5380796793
 30
0.0
 10
199.3103159591
 20
27.3752987688
 30
0.0
 10
199.0913991879
 20
27.3752987688
 30
0.0
 10
198.8719590055
 20
27.3752987688
 30
0.0
 10
198.8252445481
 20
27.5380796793
 30
0.0
 10
198.8252445481
 20
27.7238906865
 30
0.0
 10
198.8252445481
 20
27.7238906865
 30
0.0
 10
198.8252445481
 20
28.3608822239
 30
0.0
 10
198.8252445481
 20
28.3608822239
 30
0.0
 10
198.8252445481
 20
28.3608822239
 30
0.0
 10
198.6034490148
 20
28.3608822239
 30
0.0
 10
198.6034490148
 20
28.3608822239
 30
0.0
  0
SPLINE
  5
23C
100
AcDbEntity
  8
0
100
AcDbSpline
 62
7
  6
CONTINUOUS
 70
2
 71
3
 72
35
 73
31
 74
0
 42
0.0000001
 43
0.0000001
 44
0.0000000001
 40
0.0
 40
0.0
 40
0.0
 40
0.0
 40
1.0
 40
1.0
 40
1.0
 40
2.0
 40
2.0
 40
2.0
 40
3.0
 40
3.0
 40
3.0
 40
4.0
 40
4.0
 40
4.0
 40
5.0
 40
5.0
 40
5.0
 40
6.0
 40
6.0
 40
6.0
 40
7.0
 40
7.0
 40
7.0
 40
8.0
 40
8.0
 40
8.0
 40
9.0
 40
9.0
 40
9.0
 40
10.0
 40
10.0
 40
10.0
 40
10.0
 10
202.0022202126
 20
28.3195327321
 30
0.0
 10
201.913763705
 20
28.3708270383
 30
0.0
 10
201.8003143083
 20
28.3959507801
 30
0.0
 10
201.6966788733
 20
28.3959507801
 30
0.0
 10
201.3418060201
 20
28.3959507801
 30
0.0
 10
201.0663608299
 20
28.1321514911
 30
0.0
 10
201.0663608299
 20
27.7746615814
 30
0.0
 10
201.0663608299
 20
27.4297335427
 30
0.0
 10
201.344815635
 20
27.1695981327
 30
0.0
 10
201.6843787081
 20
27.1695981327
 30
0.0
 10
201.8003143083
 20
27.1695981327
 30
0.0
 10
201.9010709812
 20
27.1915814068
 30
0.0
 10
202.0022202126
 20
27.2454927694
 30
0.0
 10
202.0022202126
 20
27.2454927694
 30
0.0
 10
202.0022202126
 20
27.5281348649
 30
0.0
 10
202.0022202126
 20
27.5281348649
 30
0.0
 10
201.9183435537
 20
27.4349676556
 30
0.0
 10
201.8148389716
 20
27.3758221801
 30
0.0
 10
201.6867340588
 20
27.3758221801
 30
0.0
 10
201.4530309188
 20
27.3758221801
 30
0.0
 10
201.2877638047
 20
27.5480244938
 30
0.0
 10
201.2877638047
 20
27.7846063959
 30
0.0
 10
201.2877638047
 20
27.9965879675
 30
0.0
 10
201.4555171224
 20
28.1886799102
 30
0.0
 10
201.6723402484
 20
28.1886799102
 30
0.0
 10
201.8051558627
 20
28.1886799102
 30
0.0
 10
201.913763705
 20
28.1347685475
 30
0.0
 10
202.0022202126
 20
28.0337501689
 30
0.0
 10
202.0022202126
 20
28.0337501689
 30
0.0
 10
202.0022202126
 20
28.3195327321
 30
0.0
 10
202.0022202126
 20
28.3195327321
 30
0.0
  0
SPLINE
  5
23D
100
AcDbEntity
  8
0
100
AcDbSpline
 62
7
  6
CONTINUOUS
 70
2
 71
3
 72
32
 73
28
 74
0
 42
0.0000001
 43
0.0000001
 44
0.0000000001
 40
0.0
 40
0.0
 40
0.0
 40
0.0
 40
1.0
 40
1.0
 40
1.0
 40
2.0
 40
2.0
 40
2.0
 40
3.0
 40
3.0
 40
3.0
 40
4.0
 40
4.0
 40
4.0
 40
5.0
 40
5.0
 40
5.0
 40
6.0
 40
6.0
 40
6.0
 40
7.0
 40
7.0
 40
7.0
 40
8.0
 40
8.0
 40
8.0
 40
9.0
 40
9.0
 40
9.0
 40
9.0
 10
204.5340914649
 20
27.7479676058
 30
0.0
 10
204.5340914649
 20
27.7479676058
 30
0.0
 10
204.5340914649
 20
27.7819893395
 30
0.0
 10
204.5340914649
 20
27.7819893395
 30
0.0
 10
204.5340914649
 20
28.1243003217
 30
0.0
 10
204.361234887
 20
28.3959507801
 30
0.0
 10
203.9945852799
 20
28.3959507801
 30
0.0
 10
203.6229632655
 20
28.3959507801
 30
0.0
 10
203.4332266736
 20
28.1295344346
 30
0.0
 10
203.4332266736
 20
27.7746615814
 30
0.0
 10
203.4332266736
 20
27.4349676556
 30
0.0
 10
203.6473018904
 20
27.1690747214
 30
0.0
 10
203.9994268343
 20
27.1690747214
 30
0.0
 10
204.2234468655
 20
27.1690747214
 30
0.0
 10
204.4256144755
 20
27.284748616
 30
0.0
 10
204.5340914649
 20
27.4841683167
 30
0.0
 10
204.5340914649
 20
27.4841683167
 30
0.0
 10
204.3464485182
 20
27.5909442194
 30
0.0
 10
204.3464485182
 20
27.5909442194
 30
0.0
 10
204.2629644177
 20
27.4522402281
 30
0.0
 10
204.1717600008
 20
27.3664007769
 30
0.0
 10
204.0021747436
 20
27.3664007769
 30
0.0
 10
203.790193172
 20
27.3664007769
 30
0.0
 10
203.6572467049
 20
27.5511649615
 30
0.0
 10
203.6548913541
 20
27.7479676058
 30
0.0
 10
203.6548913541
 20
27.7479676058
 30
0.0
 10
204.5340914649
 20
27.7479676058
 30
0.0
 10
204.5340914649
 20
27.7479676058
 30
0.0
  0
SPLINE
  5
23E
100
AcDbEntity
  8
0
100
AcDbSpline
 62
7
  6
CONTINUOUS
 70
2
 71
3
 72
14
 73
10
 74
0
 42
0.0000001
 43
0.0000001
 44
0.0000000001
 40
0.0
 40
0.0
 40
0.0
 40
0.0
 40
1.0
 40
1.0
 40
1.0
 40
2.0
 40
2.0
 40
2.0
 40
3.0
 40
3.0
 40
3.0
 40
3.0
 10
203.6669298137
 20
27.9154592179
 30
0.0
 10
203.6945397591
 20
28.0803337736
 30
0.0
 10
203.8223829662
 20
28.2033354262
 30
0.0
 10
203.9945852799
 20
28.2033354262
 30
0.0
 10
204.1717600008
 20
28.2033354262
 30
0.0
 10
204.2852093975
 20
28.0876615316
 30
0.0
 10
204.3124267844
 20
27.9154592179
 30
0.0
 10
204.3124267844
 20
27.9154592179
 30
0.0
 10
203.6669298137
 20
27.9154592179
 30
0.0
 10
203.6669298137
 20
27.9154592179
 30
0.0
  0
SPLINE
  5
23F
100
AcDbEntity
  8
0
100
AcDbSpline
 62
7
  6
CONTINUOUS
 70
2
 71
3
 72
20
 73
16
 74
0
 42
0.0000001
 43
0.0000001
 44
0.0000000001
 40
0.0
 40
0.0
 40
0.0
 40
0.0
 40
1.0
 40
1.0
 40
1.0
 40
2.0
 40
2.0
 40
2.0
 40
3.0
 40
3.0
 40
3.0
 40
4.0
 40
4.0
 40
4.0
 40
5.0
 40
5.0
 40
5.0
 40
5.0
 10
206.5581229151
 20
28.124823733
 30
0.0
 10
206.5581229151
 20
28.124823733
 30
0.0
 10
206.9692624817
 20
27.6223488967
 30
0.0
 10
206.9692624817
 20
27.6223488967
 30
0.0
 10
206.8531960286
 20
27.5066750021
 30
0.0
 10
206.7154080071
 20
27.3763455914
 30
0.0
 10
206.543467399
 20
27.3763455914
 30
0.0
 10
206.3660309724
 20
27.3763455914
 30
0.0
 10
206.1985393603
 20
27.5406967358
 30
0.0
 10
206.1985393603
 20
27.7176097511
 30
0.0
 10
206.1985393603
 20
27.8955695889
 30
0.0
 10
206.4082964339
 20
28.0217117093
 30
0.0
 10
206.5358779353
 20
28.1096448057
 30
0.0
 10
206.5358779353
 20
28.1096448057
 30
0.0
 10
206.5581229151
 20
28.124823733
 30
0.0
 10
206.5581229151
 20
28.124823733
 30
0.0
  0
SPLINE
  5
240
100
AcDbEntity
  8
0
100
AcDbSpline
 62
7
  6
CONTINUOUS
 70
2
 71
3
 72
23
 73
19
 74
0
 42
0.0000001
 43
0.0000001
 44
0.0000000001
 40
0.0
 40
0.0
 40
0.0
 40
0.0
 40
1.0
 40
1.0
 40
1.0
 40
2.0
 40
2.0
 40
2.0
 40
3.0
 40
3.0
 40
3.0
 40
4.0
 40
4.0
 40
4.0
 40
5.0
 40
5.0
 40
5.0
 40
6.0
 40
6.0
 40
6.0
 40
6.0
 10
206.6074544289
 20
28.4158404091
 30
0.0
 10
206.6074544289
 20
28.4158404091
 30
0.0
 10
206.5458227498
 20
28.4943521023
 30
0.0
 10
206.5458227498
 20
28.4943521023
 30
0.0
 10
206.4919113871
 20
28.562918981
 30
0.0
 10
206.4351212624
 20
28.632009271
 30
0.0
 10
206.4351212624
 20
28.7256998915
 30
0.0
 10
206.4351212624
 20
28.8445142539
 30
0.0
 10
206.5310363809
 20
28.9219791245
 30
0.0
 10
206.6419995739
 20
28.9219791245
 30
0.0
 10
206.7652629322
 20
28.9219791245
 30
0.0
 10
206.8585609943
 20
28.8507951893
 30
0.0
 10
206.8585609943
 20
28.7204657786
 30
0.0
 10
206.8585609943
 20
28.5854256664
 30
0.0
 10
206.7304560816
 20
28.5090076183
 30
0.0
 10
206.6368963139
 20
28.4352066267
 30
0.0
 10
206.6368963139
 20
28.4352066267
 30
0.0
 10
206.6074544289
 20
28.4158404091
 30
0.0
 10
206.6074544289
 20
28.4158404091
 30
0.0
  0
SPLINE
  5
241
100
AcDbEntity
  8
0
100
AcDbSpline
 62
7
  6
CONTINUOUS
 70
2
 71
3
 72
50
 73
46
 74
0
 42
0.0000001
 43
0.0000001
 44
0.0000000001
 40
0.0
 40
0.0
 40
0.0
 40
0.0
 40
1.0
 40
1.0
 40
1.0
 40
2.0
 40
2.0
 40
2.0
 40
3.0
 40
3.0
 40
3.0
 40
4.0
 40
4.0
 40
4.0
 40
5.0
 40
5.0
 40
5.0
 40
6.0
 40
6.0
 40
6.0
 40
7.0
 40
7.0
 40
7.0
 40
8.0
 40
8.0
 40
8.0
 40
9.0
 40
9.0
 40
9.0
 40
10.0
 40
10.0
 40
10.0
 40
11.0
 40
11.0
 40
11.0
 40
12.0
 40
12.0
 40
12.0
 40
13.0
 40
13.0
 40
13.0
 40
14.0
 40
14.0
 40
14.0
 40
15.0
 40
15.0
 40
15.0
 40
15.0
 10
207.3096106716
 20
27.2088539793
 30
0.0
 10
207.3096106716
 20
27.2088539793
 30
0.0
 10
207.5950006763
 20
27.2088539793
 30
0.0
 10
207.5950006763
 20
27.2088539793
 30
0.0
 10
207.5950006763
 20
27.2088539793
 30
0.0
 10
207.2626345085
 20
27.6197318402
 30
0.0
 10
207.2626345085
 20
27.6197318402
 30
0.0
 10
207.2626345085
 20
27.6197318402
 30
0.0
 10
207.4891407434
 20
27.8856247745
 30
0.0
 10
207.4891407434
 20
27.8856247745
 30
0.0
 10
207.4891407434
 20
27.8856247745
 30
0.0
 10
207.3408844961
 20
28.0384608705
 30
0.0
 10
207.3408844961
 20
28.0384608705
 30
0.0
 10
207.3408844961
 20
28.0384608705
 30
0.0
 10
207.1249773398
 20
27.7872234524
 30
0.0
 10
207.1249773398
 20
27.7872234524
 30
0.0
 10
207.1249773398
 20
27.7872234524
 30
0.0
 10
206.7379146924
 20
28.2551531437
 30
0.0
 10
206.7379146924
 20
28.2551531437
 30
0.0
 10
206.8933678449
 20
28.3692568045
 30
0.0
 10
207.0756458259
 20
28.5090076183
 30
0.0
 10
207.0756458259
 20
28.7183721335
 30
0.0
 10
207.0756458259
 20
28.9622817936
 30
0.0
 10
206.8736090688
 20
29.1056964865
 30
0.0
 10
206.647102834
 20
29.1056964865
 30
0.0
 10
206.4029314682
 20
29.1056964865
 30
0.0
 10
206.2185598421
 20
28.9549540356
 30
0.0
 10
206.2185598421
 20
28.6984825045
 30
0.0
 10
206.2185598421
 20
28.5409357069
 30
0.0
 10
206.3172228698
 20
28.4032785382
 30
0.0
 10
206.4225593915
 20
28.2923153452
 30
0.0
 10
206.4225593915
 20
28.2923153452
 30
0.0
 10
206.3070163497
 20
28.2085695391
 30
0.0
 10
206.3070163497
 20
28.2085695391
 30
0.0
 10
206.1293182175
 20
28.0803337736
 30
0.0
 10
205.9819779399
 20
27.9526214193
 30
0.0
 10
205.9819779399
 20
27.7155161059
 30
0.0
 10
205.9819779399
 20
27.3951883977
 30
0.0
 10
206.2405431161
 20
27.1690747214
 30
0.0
 10
206.5509260098
 20
27.1690747214
 30
0.0
 10
206.769842781
 20
27.1690747214
 30
0.0
 10
206.9670379837
 20
27.2941700192
 30
0.0
 10
207.1073122089
 20
27.4600913974
 30
0.0
 10
207.1073122089
 20
27.4600913974
 30
0.0
 10
207.3096106716
 20
27.2088539793
 30
0.0
 10
207.3096106716
 20
27.2088539793
 30
0.0
  0
LWPOLYLINE
  5
242
100
AcDbEntity
  8
0
100
AcDbPolyline
 62
7
  6
CONTINUOUS
 90
2
 70
0
 43
0.2
 10
209.2450547613
 20
29.0653938173
 10
209.0137069721
 20
29.0653938173
  0
LWPOLYLINE
  5
243
100
AcDbEntity
  8
0
100
AcDbPolyline
 62
7
  6
CONTINUOUS
 90
2
 70
0
 43
0.2
 10
209.0137069721
 20
29.0653938173
 10
209.0137069721
 20
27.208330568
  0
LWPOLYLINE
  5
244
100
AcDbEntity
  8
0
100
AcDbPolyline
 62
7
  6
CONTINUOUS
 90
2
 70
0
 43
0.2
 10
209.0137069721
 20
27.208330568
 10
209.809030424
 20
27.208330568
  0
LWPOLYLINE
  5
245
100
AcDbEntity
  8
0
100
AcDbPolyline
 62
7
  6
CONTINUOUS
 90
2
 70
0
 43
0.2
 10
209.809030424
 20
27.208330568
 10
209.809030424
 20
27.4203121396
  0
LWPOLYLINE
  5
246
100
AcDbEntity
  8
0
100
AcDbPolyline
 62
7
  6
CONTINUOUS
 90
2
 70
0
 43
0.2
 10
209.809030424
 20
27.4203121396
 10
209.2450547613
 20
27.4203121396
  0
LWPOLYLINE
  5
247
100
AcDbEntity
  8
0
100
AcDbPolyline
 62
7
  6
CONTINUOUS
 90
2
 70
0
 43
0.2
 10
209.2450547613
 20
27.4203121396
 10
209.2450547613
 20
29.0653938173
  0
LWPOLYLINE
  5
248
100
AcDbEntity
  8
0
100
AcDbPolyline
 62
7
  6
CONTINUOUS
 90
2
 70
0
 43
0.2
 10
211.4881338355
 20
28.3608822239
 10
211.2669925664
 20
28.3608822239
  0
LWPOLYLINE
  5
249
100
AcDbEntity
  8
0
100
AcDbPolyline
 62
7
  6
CONTINUOUS
 90
2
 70
0
 43
0.2
 10
211.2669925664
 20
28.3608822239
 10
211.2669925664
 20
27.2088539793
  0
LWPOLYLINE
  5
24A
100
AcDbEntity
  8
0
100
AcDbPolyline
 62
7
  6
CONTINUOUS
 90
2
 70
0
 43
0.2
 10
211.2669925664
 20
27.2088539793
 10
211.4881338355
 20
27.2088539793
  0
LWPOLYLINE
  5
24B
100
AcDbEntity
  8
0
100
AcDbPolyline
 62
7
  6
CONTINUOUS
 90
2
 70
0
 43
0.2
 10
211.4881338355
 20
27.2088539793
 10
211.4881338355
 20
28.3608822239
  0
SPLINE
  5
24C
100
AcDbEntity
  8
0
100
AcDbSpline
 62
7
  6
CONTINUOUS
 70
2
 71
3
 72
17
 73
13
 74
0
 42
0.0000001
 43
0.0000001
 44
0.0000000001
 40
0.0
 40
0.0
 40
0.0
 40
0.0
 40
1.0
 40
1.0
 40
1.0
 40
2.0
 40
2.0
 40
2.0
 40
3.0
 40
3.0
 40
3.0
 40
4.0
 40
4.0
 40
4.0
 40
4.0
 10
211.3776940538
 20
29.0434105432
 30
0.0
 10
211.2936865421
 20
29.0434105432
 30
0.0
 10
211.2251196633
 20
28.9743202532
 30
0.0
 10
211.2251196633
 20
28.888480802
 30
0.0
 10
211.2251196633
 20
28.8042115847
 30
0.0
 10
211.2936865421
 20
28.7382617624
 30
0.0
 10
211.3776940538
 20
28.7382617624
 30
0.0
 10
211.4614398598
 20
28.7382617624
 30
0.0
 10
211.5302684442
 20
28.8042115847
 30
0.0
 10
211.5302684442
 20
28.888480802
 30
0.0
 10
211.5302684442
 20
28.9743202532
 30
0.0
 10
211.4614398598
 20
29.0434105432
 30
0.0
 10
211.3776940538
 20
29.0434105432
 30
0.0
  0
SPLINE
  5
24D
100
AcDbEntity
  8
0
100
AcDbSpline
 62
7
  6
CONTINUOUS
 70
2
 71
3
 72
17
 73
13
 74
0
 42
0.0000001
 43
0.0000001
 44
0.0000000001
 40
0.0
 40
0.0
 40
0.0
 40
0.0
 40
1.0
 40
1.0
 40
1.0
 40
2.0
 40
2.0
 40
2.0
 40
3.0
 40
3.0
 40
3.0
 40
4.0
 40
4.0
 40
4.0
 40
4.0
 10
213.6184177771
 20
27.3664007769
 30
0.0
 10
213.3844529315
 20
27.3664007769
 30
0.0
 10
213.2541235208
 20
27.568437534
 30
0.0
 10
213.2541235208
 20
27.7846063959
 30
0.0
 10
213.2541235208
 20
27.9992050239
 30
0.0
 10
213.38994875
 20
28.1981013133
 30
0.0
 10
213.6184177771
 20
28.1981013133
 30
0.0
 10
213.8578784413
 20
28.1981013133
 30
0.0
 10
213.9934419649
 20
28.0091498384
 30
0.0
 10
213.9934419649
 20
27.7846063959
 30
0.0
 10
213.9934419649
 20
27.5584927196
 30
0.0
 10
213.8602337921
 20
27.3664007769
 30
0.0
 10
213.6184177771
 20
27.3664007769
 30
0.0
  0
SPLINE
  5
24E
100
AcDbEntity
  8
0
100
AcDbSpline
 62
7
  6
CONTINUOUS
 70
2
 71
3
 72
50
 73
46
 74
0
 42
0.0000001
 43
0.0000001
 44
0.0000000001
 40
0.0
 40
0.0
 40
0.0
 40
0.0
 40
1.0
 40
1.0
 40
1.0
 40
2.0
 40
2.0
 40
2.0
 40
3.0
 40
3.0
 40
3.0
 40
4.0
 40
4.0
 40
4.0
 40
5.0
 40
5.0
 40
5.0
 40
6.0
 40
6.0
 40
6.0
 40
7.0
 40
7.0
 40
7.0
 40
8.0
 40
8.0
 40
8.0
 40
9.0
 40
9.0
 40
9.0
 40
10.0
 40
10.0
 40
10.0
 40
11.0
 40
11.0
 40
11.0
 40
12.0
 40
12.0
 40
12.0
 40
13.0
 40
13.0
 40
13.0
 40
14.0
 40
14.0
 40
14.0
 40
15.0
 40
15.0
 40
15.0
 40
15.0
 10
214.2025447744
 20
28.3614056352
 30
0.0
 10
214.2025447744
 20
28.3614056352
 30
0.0
 10
213.980880094
 20
28.3614056352
 30
0.0
 10
213.980880094
 20
28.3614056352
 30
0.0
 10
213.980880094
 20
28.3614056352
 30
0.0
 10
213.980880094
 20
28.1640795796
 30
0.0
 10
213.980880094
 20
28.1640795796
 30
0.0
 10
213.980880094
 20
28.1640795796
 30
0.0
 10
213.9761693924
 20
28.1640795796
 30
0.0
 10
213.9761693924
 20
28.1640795796
 30
0.0
 10
213.8848341227
 20
28.3069708612
 30
0.0
 10
213.7469152483
 20
28.3954273689
 30
0.0
 10
213.5741895233
 20
28.3954273689
 30
0.0
 10
213.2418233555
 20
28.3954273689
 30
0.0
 10
213.032720546
 20
28.1075511605
 30
0.0
 10
213.032720546
 20
27.7919341539
 30
0.0
 10
213.032720546
 20
27.4621850426
 30
0.0
 10
213.2297848959
 20
27.1690747214
 30
0.0
 10
213.5846577491
 20
27.1690747214
 30
0.0
 10
213.7469152483
 20
27.1690747214
 30
0.0
 10
213.8869277678
 20
27.257531229
 30
0.0
 10
213.9761693924
 20
27.388384051
 30
0.0
 10
213.9761693924
 20
27.388384051
 30
0.0
 10
213.980880094
 20
27.388384051
 30
0.0
 10
213.980880094
 20
27.388384051
 30
0.0
 10
213.980880094
 20
27.388384051
 30
0.0
 10
213.980880094
 20
27.1690747214
 30
0.0
 10
213.980880094
 20
27.1690747214
 30
0.0
 10
213.980880094
 20
26.9324928193
 30
0.0
 10
213.9243516749
 20
26.7456349895
 30
0.0
 10
213.6511309826
 20
26.7456349895
 30
0.0
 10
213.4488325199
 20
26.7456349895
 30
0.0
 10
213.3062029439
 20
26.8639259406
 30
0.0
 10
213.3062029439
 20
27.070149988
 30
0.0
 10
213.3062029439
 20
27.070149988
 30
0.0
 10
213.0845382635
 20
27.070149988
 30
0.0
 10
213.0845382635
 20
27.070149988
 30
0.0
 10
213.0895106707
 20
26.7456349895
 30
0.0
 10
213.3205967543
 20
26.5488323453
 30
0.0
 10
213.6409244625
 20
26.5488323453
 30
0.0
 10
214.0889645249
 20
26.5488323453
 30
0.0
 10
214.2025447744
 20
26.8340914971
 30
0.0
 10
214.2025447744
 20
27.2308372534
 30
0.0
 10
214.2025447744
 20
27.2308372534
 30
0.0
 10
214.2025447744
 20
28.3614056352
 30
0.0
 10
214.2025447744
 20
28.3614056352
 30
0.0
  0
SPLINE
  5
24F
100
AcDbEntity
  8
0
100
AcDbSpline
 62
7
  6
CONTINUOUS
 70
2
 71
3
 72
44
 73
40
 74
0
 42
0.0000001
 43
0.0000001
 44
0.0000000001
 40
0.0
 40
0.0
 40
0.0
 40
0.0
 40
1.0
 40
1.0
 40
1.0
 40
2.0
 40
2.0
 40
2.0
 40
3.0
 40
3.0
 40
3.0
 40
4.0
 40
4.0
 40
4.0
 40
5.0
 40
5.0
 40
5.0
 40
6.0
 40
6.0
 40
6.0
 40
7.0
 40
7.0
 40
7.0
 40
8.0
 40
8.0
 40
8.0
 40
9.0
 40
9.0
 40
9.0
 40
10.0
 40
10.0
 40
10.0
 40
11.0
 40
11.0
 40
11.0
 40
12.0
 40
12.0
 40
12.0
 40
13.0
 40
13.0
 40
13.0
 40
13.0
 10
215.7714701098
 20
29.3464656789
 30
0.0
 10
215.7714701098
 20
29.3464656789
 30
0.0
 10
215.7714701098
 20
27.208330568
 30
0.0
 10
215.7714701098
 20
27.208330568
 30
0.0
 10
215.7714701098
 20
27.208330568
 30
0.0
 10
215.9928730846
 20
27.208330568
 30
0.0
 10
215.9928730846
 20
27.208330568
 30
0.0
 10
215.9928730846
 20
27.208330568
 30
0.0
 10
215.9928730846
 20
27.7380227913
 30
0.0
 10
215.9928730846
 20
27.7380227913
 30
0.0
 10
215.9928730846
 20
27.9479107177
 30
0.0
 10
215.9928730846
 20
28.1986247246
 30
0.0
 10
216.2781322364
 20
28.1986247246
 30
0.0
 10
216.5050310297
 20
28.1986247246
 30
0.0
 10
216.5319867111
 20
28.0656782575
 30
0.0
 10
216.5319867111
 20
27.8693990246
 30
0.0
 10
216.5319867111
 20
27.8693990246
 30
0.0
 10
216.5319867111
 20
27.208330568
 30
0.0
 10
216.5319867111
 20
27.208330568
 30
0.0
 10
216.5319867111
 20
27.208330568
 30
0.0
 10
216.7539130971
 20
27.208330568
 30
0.0
 10
216.7539130971
 20
27.208330568
 30
0.0
 10
216.7539130971
 20
27.208330568
 30
0.0
 10
216.7539130971
 20
27.8955695889
 30
0.0
 10
216.7539130971
 20
27.8955695889
 30
0.0
 10
216.7539130971
 20
28.1761180392
 30
0.0
 10
216.6699055854
 20
28.3959507801
 30
0.0
 10
216.3448671757
 20
28.3959507801
 30
0.0
 10
216.2051163618
 20
28.3959507801
 30
0.0
 10
216.0669357818
 20
28.3294775466
 30
0.0
 10
215.9975837861
 20
28.2064758939
 30
0.0
 10
215.9975837861
 20
28.2064758939
 30
0.0
 10
215.9928730846
 20
28.2064758939
 30
0.0
 10
215.9928730846
 20
28.2064758939
 30
0.0
 10
215.9928730846
 20
28.2064758939
 30
0.0
 10
215.9928730846
 20
29.3464656789
 30
0.0
 10
215.9928730846
 20
29.3464656789
 30
0.0
 10
215.9928730846
 20
29.3464656789
 30
0.0
 10
215.7714701098
 20
29.3464656789
 30
0.0
 10
215.7714701098
 20
29.3464656789
 30
0.0
  0
LWPOLYLINE
  5
250
100
AcDbEntity
  8
0
100
AcDbPolyline
 62
7
  6
CONTINUOUS
 90
2
 70
0
 43
0.2
 10
218.593703774
 20
28.1541347652
 10
218.8101343415
 20
28.1541347652
  0
LWPOLYLINE
  5
251
100
AcDbEntity
  8
0
100
AcDbPolyline
 62
7
  6
CONTINUOUS
 90
2
 70
0
 43
0.2
 10
218.8101343415
 20
28.1541347652
 10
218.8101343415
 20
28.3608822239
  0
LWPOLYLINE
  5
252
100
AcDbEntity
  8
0
100
AcDbPolyline
 62
7
  6
CONTINUOUS
 90
2
 70
0
 43
0.2
 10
218.8101343415
 20
28.3608822239
 10
218.593703774
 20
28.3608822239
  0
LWPOLYLINE
  5
253
100
AcDbEntity
  8
0
100
AcDbPolyline
 62
7
  6
CONTINUOUS
 90
2
 70
0
 43
0.2
 10
218.593703774
 20
28.3608822239
 10
218.593703774
 20
28.8015945282
  0
LWPOLYLINE
  5
254
100
AcDbEntity
  8
0
100
AcDbPolyline
 62
7
  6
CONTINUOUS
 90
2
 70
0
 43
0.2
 10
218.593703774
 20
28.8015945282
 10
218.3720390936
 20
28.8015945282
  0
LWPOLYLINE
  5
255
100
AcDbEntity
  8
0
100
AcDbPolyline
 62
7
  6
CONTINUOUS
 90
2
 70
0
 43
0.2
 10
218.3720390936
 20
28.8015945282
 10
218.3720390936
 20
28.3608822239
  0
LWPOLYLINE
  5
256
100
AcDbEntity
  8
0
100
AcDbPolyline
 62
7
  6
CONTINUOUS
 90
2
 70
0
 43
0.2
 10
218.3720390936
 20
28.3608822239
 10
218.2513927917
 20
28.3608822239
  0
LWPOLYLINE
  5
257
100
AcDbEntity
  8
0
100
AcDbPolyline
 62
7
  6
CONTINUOUS
 90
2
 70
0
 43
0.2
 10
218.2513927917
 20
28.3608822239
 10
218.2513927917
 20
28.1541347652
  0
LWPOLYLINE
  5
258
100
AcDbEntity
  8
0
100
AcDbPolyline
 62
7
  6
CONTINUOUS
 90
2
 70
0
 43
0.2
 10
218.2513927917
 20
28.1541347652
 10
218.3720390936
 20
28.1541347652
  0
LWPOLYLINE
  5
259
100
AcDbEntity
  8
0
100
AcDbPolyline
 62
7
  6
CONTINUOUS
 90
2
 70
0
 43
0.2
 10
218.3720390936
 20
28.1541347652
 10
218.3720390936
 20
27.208330568
  0
LWPOLYLINE
  5
25A
100
AcDbEntity
  8
0
100
AcDbPolyline
 62
7
  6
CONTINUOUS
 90
2
 70
0
 43
0.2
 10
218.3720390936
 20
27.208330568
 10
218.593703774
 20
27.208330568
  0
LWPOLYLINE
  5
25B
100
AcDbEntity
  8
0
100
AcDbPolyline
 62
7
  6
CONTINUOUS
 90
2
 70
0
 43
0.2
 10
218.593703774
 20
27.208330568
 10
218.593703774
 20
28.1541347652
  0
SPLINE
  5
25C
100
AcDbEntity
  8
0
100
AcDbSpline
 62
7
  6
CONTINUOUS
 70
2
 71
3
 72
20
 73
16
 74
0
 42
0.0000001
 43
0.0000001
 44
0.0000000001
 40
0.0
 40
0.0
 40
0.0
 40
0.0
 40
1.0
 40
1.0
 40
1.0
 40
2.0
 40
2.0
 40
2.0
 40
3.0
 40
3.0
 40
3.0
 40
4.0
 40
4.0
 40
4.0
 40
5.0
 40
5.0
 40
5.0
 40
5.0
 10
206.3757140812
 20
37.5692570114
 30
0.0
 10
206.3757140812
 20
37.5692570114
 30
0.0
 10
208.6920707357
 20
34.7396955891
 30
0.0
 10
208.6920707357
 20
34.7396955891
 30
0.0
 10
208.0404236823
 20
34.0875251244
 30
0.0
 10
207.2635504783
 20
33.3516088537
 30
0.0
 10
206.2923608336
 20
33.3516088537
 30
0.0
 10
205.2938229492
 20
33.3516088537
 30
0.0
 10
204.3505049556
 20
34.281187301
 30
0.0
 10
204.3505049556
 20
35.2803794495
 30
0.0
 10
204.3505049556
 20
36.279571598
 30
0.0
 10
205.5293580287
 20
36.9861768367
 30
0.0
 10
206.2508804891
 20
37.4860346166
 30
0.0
 10
206.2508804891
 20
37.4860346166
 30
0.0
 10
206.3757140812
 20
37.5692570114
 30
0.0
 10
206.3757140812
 20
37.5692570114
 30
0.0
  0
SPLINE
  5
25D
100
AcDbEntity
  8
0
100
AcDbSpline
 62
7
  6
CONTINUOUS
 70
2
 71
3
 72
23
 73
19
 74
0
 42
0.0000001
 43
0.0000001
 44
0.0000000001
 40
0.0
 40
0.0
 40
0.0
 40
0.0
 40
1.0
 40
1.0
 40
1.0
 40
2.0
 40
2.0
 40
2.0
 40
3.0
 40
3.0
 40
3.0
 40
4.0
 40
4.0
 40
4.0
 40
5.0
 40
5.0
 40
5.0
 40
6.0
 40
6.0
 40
6.0
 40
6.0
 10
206.6531220638
 20
39.2070109311
 30
0.0
 10
206.6531220638
 20
39.2070109311
 30
0.0
 10
206.3066237912
 20
39.6503402919
 30
0.0
 10
206.3066237912
 20
39.6503402919
 30
0.0
 10
206.0008207463
 20
40.0384497619
 30
0.0
 10
205.6819324192
 20
40.4269517903
 30
0.0
 10
205.6819324192
 20
40.9538961044
 30
0.0
 10
205.6819324192
 20
41.620067821
 30
0.0
 10
206.2232705436
 20
42.0637897403
 30
0.0
 10
206.8471767988
 20
42.0637897403
 30
0.0
 10
207.5409584609
 20
42.0637897403
 30
0.0
 10
208.0681644806
 20
41.6615481656
 30
0.0
 10
208.0681644806
 20
40.9265478646
 30
0.0
 10
208.0681644806
 20
40.163283354
 30
0.0
 10
207.3469037259
 20
39.7331701282
 30
0.0
 10
206.819828559
 20
39.3174507128
 30
0.0
 10
206.819828559
 20
39.3174507128
 30
0.0
 10
206.6531220638
 20
39.2070109311
 30
0.0
 10
206.6531220638
 20
39.2070109311
 30
0.0
  0
SPLINE
  5
25E
100
AcDbEntity
  8
0
100
AcDbSpline
 62
7
  6
CONTINUOUS
 70
2
 71
3
 72
50
 73
46
 74
0
 42
0.0000001
 43
0.0000001
 44
0.0000000001
 40
0.0
 40
0.0
 40
0.0
 40
0.0
 40
1.0
 40
1.0
 40
1.0
 40
2.0
 40
2.0
 40
2.0
 40
3.0
 40
3.0
 40
3.0
 40
4.0
 40
4.0
 40
4.0
 40
5.0
 40
5.0
 40
5.0
 40
6.0
 40
6.0
 40
6.0
 40
7.0
 40
7.0
 40
7.0
 40
8.0
 40
8.0
 40
8.0
 40
9.0
 40
9.0
 40
9.0
 40
10.0
 40
10.0
 40
10.0
 40
11.0
 40
11.0
 40
11.0
 40
12.0
 40
12.0
 40
12.0
 40
13.0
 40
13.0
 40
13.0
 40
14.0
 40
14.0
 40
14.0
 40
15.0
 40
15.0
 40
15.0
 40
15.0
 10
210.6067092267
 20
32.408421713
 30
0.0
 10
210.6067092267
 20
32.408421713
 30
0.0
 10
212.2159372313
 20
32.408421713
 30
0.0
 10
212.2159372313
 20
32.408421713
 30
0.0
 10
212.2159372313
 20
32.408421713
 30
0.0
 10
210.3429099376
 20
34.7255634844
 30
0.0
 10
210.3429099376
 20
34.7255634844
 30
0.0
 10
210.3429099376
 20
34.7255634844
 30
0.0
 10
211.6192483631
 20
36.223043179
 30
0.0
 10
211.6192483631
 20
36.223043179
 30
0.0
 10
211.6192483631
 20
36.223043179
 30
0.0
 10
210.7870244154
 20
37.0840547475
 30
0.0
 10
210.7870244154
 20
37.0840547475
 30
0.0
 10
210.7870244154
 20
37.0840547475
 30
0.0
 10
209.5664292921
 20
35.6687506251
 30
0.0
 10
209.5664292921
 20
35.6687506251
 30
0.0
 10
209.5664292921
 20
35.6687506251
 30
0.0
 10
207.3885149233
 20
38.3041264595
 30
0.0
 10
207.3885149233
 20
38.3041264595
 30
0.0
 10
208.2620883627
 20
38.9421648194
 30
0.0
 10
209.2887596039
 20
39.7331701282
 30
0.0
 10
209.2887596039
 20
40.9120232013
 30
0.0
 10
209.2887596039
 20
42.2857161264
 30
0.0
 10
208.150863464
 20
43.0901992758
 30
0.0
 10
206.8755718611
 20
43.0901992758
 30
0.0
 10
205.5021406418
 20
43.0901992758
 30
0.0
 10
204.461206443
 20
42.2439740762
 30
0.0
 10
204.461206443
 20
40.801321714
 30
0.0
 10
204.461206443
 20
39.9137470226
 30
0.0
 10
205.0165458195
 20
39.1368738185
 30
0.0
 10
205.6127112763
 20
38.5124441521
 30
0.0
 10
205.6127112763
 20
38.5124441521
 30
0.0
 10
204.9608025173
 20
38.0408505817
 30
0.0
 10
204.9608025173
 20
38.0408505817
 30
0.0
 10
203.9622646329
 20
37.319589827
 30
0.0
 10
203.129386421
 20
36.5983290724
 30
0.0
 10
203.129386421
 20
35.266770756
 30
0.0
 10
203.129386421
 20
33.463095458
 30
0.0
 10
204.5864325936
 20
32.1864953269
 30
0.0
 10
206.333972031
 20
32.1864953269
 30
0.0
 10
207.5688301119
 20
32.1864953269
 30
0.0
 10
208.6782003366
 20
32.8946707994
 30
0.0
 10
209.4690747925
 20
33.8232024241
 30
0.0
 10
209.4690747925
 20
33.8232024241
 30
0.0
 10
210.6067092267
 20
32.408421713
 30
0.0
 10
210.6067092267
 20
32.408421713
 30
0.0
  0
LINE
  5
25F
100
AcDbEntity
  8
0
100
AcDbLine
 62
7
  6
CONTINUOUS
 10
196.4095706017
 20
30.3822966176
 11
218.8234813294
 21
30.3822966176
  0
LINE
  5
260
100
AcDbEntity
  8
0
100
AcDbLine
 62
7
  6
CONTINUOUS
 10
218.8234813294
 20
30.3822966176
 11
218.8234813294
 21
52.7962073453
  0
LINE
  5
261
100
AcDbEntity
  8
0
100
AcDbLine
 62
7
  6
CONTINUOUS
 10
218.8234813294
 20
52.7962073453
 11
196.4095706017
 21
52.7962073453
  0
LINE
  5
262
100
AcDbEntity
  8
0
100
AcDbLine
 62
7
  6
CONTINUOUS
 10
196.4095706017
 20
52.7962073453
 11
196.4095706017
 21
30.3822966176
  0
ENDBLK
  5
263
100
AcDbEntity
  8
0
  6
BYBLOCK
 62
0
100
AcDbBlockEnd
  0
BLOCK
  5
264
100
AcDbEntity
  8
0
100
AcDbBlockBegin
  2
_CLOSED
 70
64
 10
0.0
 20
0.0
  3
_CLOSED
  1

  0
LINE
  5
265
100
AcDbEntity
  8
0
  6
BYBLOCK
 62
0
100
AcDbLine
 10
0.0
 20
0.0
 11
-1.0
 21
0.2
  0
LINE
  5
266
100
AcDbEntity
  8
0
  6
BYBLOCK
 62
0
100
AcDbLine
 10
-1.0
 20
0.2
 11
-1.0
 21
-0.2
  0
LINE
  5
267
100
AcDbEntity
  8
0
  6
BYBLOCK
 62
0
100
AcDbLine
 10
-1.0
 20
-0.2
 11
0.0
 21
0.0
  0
LINE
  5
268
100
AcDbEntity
  8
0
  6
BYBLOCK
 62
0
100
AcDbLine
 10
-1.0
 20
0.0
 11
0.0
 21
0.0
  0
ENDBLK
  5
269
100
AcDbEntity
  8
0
  6
BYBLOCK
 62
0
100
AcDbBlockEnd
  0
BLOCK
  5
26A
100
AcDbEntity
  8
0
100
AcDbBlockBegin
 62
2
  6
CONTINUOUS
  2
*D0
 70
65
 10
0.0
 20
0.0
  3
*D0
  1

  0
MTEXT
  5
26B
100
AcDbEntity
  8
0
100
AcDbMText
 62
2
  6
CONTINUOUS
  7
STANDARD
 71
2
 72
1
 10
193.0995550612
 20
163.3014756679
 30
0.0
 11
1.0
 21
0.0
 31
0.0
  1
81,67
 40
3.0
 41
10.4832713755
  0
LINE
  5
26C
100
AcDbEntity
  8
0
100
AcDbLine
 62
2
  6
CONTINUOUS
 10
152.2648295732
 20
153.4428182492
 11
152.2648295732
 21
160.3014756679
  0
LINE
  5
26D
100
AcDbEntity
  8
0
100
AcDbLine
 62
2
  6
CONTINUOUS
 10
233.9342805492
 20
153.3620852082
 11
233.9342805492
 21
160.3014756679
  0
LINE
  5
26E
100
AcDbEntity
  8
0
100
AcDbLine
 62
2
  6
CONTINUOUS
 10
152.2648295732
 20
159.5514756679
 11
193.0995550612
 21
159.5514756679
  0
LINE
  5
26F
100
AcDbEntity
  8
0
100
AcDbLine
 62
2
  6
CONTINUOUS
 10
233.9342805492
 20
159.5514756679
 11
193.0995550612
 21
159.5514756679
  0
INSERT
  5
270
100
AcDbEntity
  8
0
100
AcDbBlockReference
 62
2
  6
CONTINUOUS
  2
_CLOSED
 10
152.2648295732
 20
159.5514756679
 41
2.5
 42
2.5
 43
2.5
 50
180.0
  0
INSERT
  5
271
100
AcDbEntity
  8
0
100
AcDbBlockReference
 62
2
  6
CONTINUOUS
  2
_CLOSED
 10
233.9342805492
 20
159.5514756679
 41
2.5
 42
2.5
 43
2.5
  0
ENDBLK
  5
272
100
AcDbEntity
  8
0
  6
BYBLOCK
 62
0
100
AcDbBlockEnd
  0
BLOCK
  5
273
100
AcDbEntity
  8
0
100
AcDbBlockBegin
 62
2
  6
CONTINUOUS
  2
*D1
 70
65
 10
0.0
 20
0.0
  3
*D1
  1

  0
MTEXT
  5
274
100
AcDbEntity
  8
0
100
AcDbMText
 62
2
  6
CONTINUOUS
  7
STANDARD
 71
2
 72
1
 10
249.4076353682
 20
109.5418349344
 30
0.0
 11
0.0
 21
1.0
 31
0.0
  1
Ø59,5
 40
3.0
 41
11.4089219331
  0
LINE
  5
275
100
AcDbEntity
  8
0
100
AcDbLine
 62
2
  6
CONTINUOUS
 10
247.3174592525
 20
139.2918349344
 11
253.9076353682
 21
139.2918349344
  0
LINE
  5
276
100
AcDbEntity
  8
0
100
AcDbLine
 62
2
  6
CONTINUOUS
 10
247.3608649738
 20
79.7918349344
 11
253.9076353682
 21
79.7918349344
  0
LINE
  5
277
100
AcDbEntity
  8
0
100
AcDbLine
 62
2
  6
CONTINUOUS
 10
253.1576353682
 20
139.2918349344
 11
253.1576353682
 21
109.5418349344
  0
LINE
  5
278
100
AcDbEntity
  8
0
100
AcDbLine
 62
2
  6
CONTINUOUS
 10
253.1576353682
 20
79.7918349344
 11
253.1576353682
 21
109.5418349344
  0
INSERT
  5
279
100
AcDbEntity
  8
0
100
AcDbBlockReference
 62
2
  6
CONTINUOUS
  2
_CLOSED
 10
253.1576353682
 20
139.2918349344
 41
2.5
 42
2.5
 43
2.5
 50
90.0
  0
INSERT
  5
27A
100
AcDbEntity
  8
0
100
AcDbBlockReference
 62
2
  6
CONTINUOUS
  2
_CLOSED
 10
253.1576353682
 20
79.7918349344
 41
2.5
 42
2.5
 43
2.5
 50
270.0
  0
ENDBLK
  5
27B
100
AcDbEntity
  8
0
  6
BYBLOCK
 62
0
100
AcDbBlockEnd
  0
BLOCK
  5
27C
100
AcDbEntity
  8
0
100
AcDbBlockBegin
 62
2
  6
CONTINUOUS
  2
*D2
 70
65
 10
0.0
 20
0.0
  3
*D2
  1

  0
MTEXT
  5
27D
100
AcDbEntity
  8
0
100
AcDbMText
 62
2
  6
CONTINUOUS
  7
STANDARD
 71
2
 72
1
 10
172.4784430601
 20
73.5655927615
 30
0.0
 11
1.0
 21
0.0
 31
0.0
  1
40,43
 40
3.0
 41
10.4832713755
  0
LINE
  5
27E
100
AcDbEntity
  8
0
100
AcDbLine
 62
2
  6
CONTINUOUS
 10
192.692056547
 20
74.5662316085
 11
192.692056547
 21
69.0655927615
  0
LINE
  5
27F
100
AcDbEntity
  8
0
100
AcDbLine
 62
2
  6
CONTINUOUS
 10
152.2648295732
 20
74.8844483627
 11
152.2648295732
 21
69.0655927615
  0
LINE
  5
280
100
AcDbEntity
  8
0
100
AcDbLine
 62
2
  6
CONTINUOUS
 10
192.692056547
 20
69.8155927615
 11
172.4784430601
 21
69.8155927615
  0
LINE
  5
281
100
AcDbEntity
  8
0
100
AcDbLine
 62
2
  6
CONTINUOUS
 10
152.2648295732
 20
69.8155927615
 11
172.4784430601
 21
69.8155927615
  0
INSERT
  5
282
100
AcDbEntity
  8
0
100
AcDbBlockReference
 62
2
  6
CONTINUOUS
  2
_CLOSED
 10
192.692056547
 20
69.8155927615
 41
2.5
 42
2.5
 43
2.5
  0
INSERT
  5
283
100
AcDbEntity
  8
0
100
AcDbBlockReference
 62
2
  6
CONTINUOUS
  2
_CLOSED
 10
152.2648295732
 20
69.8155927615
 41
2.5
 42
2.5
 43
2.5
 50
180.0
  0
ENDBLK
  5
284
100
AcDbEntity
  8
0
  6
BYBLOCK
 62
0
100
AcDbBlockEnd
  0
ENDSEC
  0
SECTION
  2
ENTITIES
  0
DIMENSION
  5
285
100
AcDbEntity
  8
0
100
AcDbDimension
 62
2
  6
CONTINUOUS
  2
*D0
 10
233.9342805492
 20
159.5514756679
 11
193.082031189
 21
159.5514756679
 70
160
  3
DIMSTYLE_1
100
AcDbAlignedDimension
 13
152.2648295732
 23
152.6928182492
 14
233.9342805492
 24
152.6120852082
100
AcDbRotatedDimension
  0
DIMENSION
  5
286
100
AcDbEntity
  8
0
100
AcDbDimension
 62
2
  6
CONTINUOUS
  2
*D1
 10
253.1576353682
 20
79.7918349344
 11
253.1576353682
 21
109.5418349344
 70
160
  1
Ø<>
  3
DIMSTYLE_1
100
AcDbAlignedDimension
 13
246.5674592525
 23
139.2918349344
 14
246.6108649738
 24
79.7918349344
 50
270.0
100
AcDbRotatedDimension
  0
DIMENSION
  5
287
100
AcDbEntity
  8
0
100
AcDbDimension
 62
2
  6
CONTINUOUS
  2
*D2
 10
152.2648295732
 20
69.8155927615
 11
172.3995903625
 21
69.8155927615
 70
160
  3
DIMSTYLE_1
100
AcDbAlignedDimension
 13
192.692056547
 23
75.3162316085
 14
152.2648295732
 24
75.6344483627
 50
180.0
100
AcDbRotatedDimension
  0
LINE
  5
288
100
AcDbEntity
  8
0
100
AcDbLine
 62
2
  6
CONTINUOUS
 10
193.7904134944
 20
53.1725198453
 11
283.7904134944
 21
53.1725198453
  0
LINE
  5
289
100
AcDbEntity
  8
0
100
AcDbLine
 62
2
  6
CONTINUOUS
 10
193.7904134944
 20
53.1725198453
 11
193.7904134944
 21
13.1725198453
  0
LINE
  5
28A
100
AcDbEntity
  8
0
100
AcDbLine
 62
2
  6
CONTINUOUS
 10
223.7904134944
 20
47.1725198453
 11
283.7904134944
 21
47.1725198453
  0
LINE
  5
28B
100
AcDbEntity
  8
0
100
AcDbLine
 62
2
  6
CONTINUOUS
 10
223.7904134944
 20
41.1725198453
 11
283.7904134944
 21
41.1725198453
  0
LINE
  5
28C
100
AcDbEntity
  8
0
100
AcDbLine
 62
2
  6
CONTINUOUS
 10
223.7904134944
 20
31.1725198453
 11
283.7904134944
 21
31.1725198453
  0
LINE
  5
28D
100
AcDbEntity
  8
0
100
AcDbLine
 62
2
  6
CONTINUOUS
 10
193.7904134944
 20
26.1725198453
 11
283.7904134944
 21
26.1725198453
  0
LINE
  5
28E
100
AcDbEntity
  8
0
100
AcDbLine
 62
2
  6
CONTINUOUS
 10
193.7904134944
 20
13.1725198453
 11
283.7904134944
 21
13.1725198453
  0
LINE
  5
28F
100
AcDbEntity
  8
0
100
AcDbLine
 62
2
  6
CONTINUOUS
 10
223.7904134944
 20
53.1725198453
 11
223.7904134944
 21
26.1725198453
  0
LINE
  5
290
100
AcDbEntity
  8
0
100
AcDbLine
 62
2
  6
CONTINUOUS
 10
263.7904134944
 20
53.1725198453
 11
263.7904134944
 21
41.1725198453
  0
LINE
  5
291
100
AcDbEntity
  8
0
100
AcDbLine
 62
2
  6
CONTINUOUS
 10
283.7904134944
 20
53.1725198453
 11
283.7904134944
 21
13.1725198453
  0
INSERT
  5
292
100
AcDbEntity
  8
0
100
AcDbBlockReference
 62
2
  6
CONTINUOUS
  2
LOGO2_BL0
 10
207.6164605391
 20
39.6725198453
  0
MTEXT
  5
293
100
AcDbEntity
  8
9_SOLID
100
AcDbMText
 62
2
  6
CONTINUOUS
  7
TEXTSTYLE_2
 71
1
 72
1
 10
225.2779134944
 20
51.6725198453
 30
0.0
 11
1.0
 21
0.0
 31
0.0
  1
452_C_060
 40
3.0
 41
32.5714285714
  0
MTEXT
  5
294
100
AcDbEntity
  8
0
100
AcDbMText
 62
2
  6
CONTINUOUS
  7
TEXTSTYLE_2
 71
1
 72
1
 10
265.2779134944
 20
51.9225198453
 30
0.0
 11
1.0
 21
0.0
 31
0.0
  1
Rev:00
 40
3.5
 41
22.75
  0
MTEXT
  5
295
100
AcDbEntity
  8
9_SOLID
100
AcDbMText
 62
2
  6
CONTINUOUS
  7
TEXTSTYLE_2
 71
1
 72
1
 10
225.2779134944
 20
45.4225198453
 30
0.0
 11
1.0
 21
0.0
 31
0.0
  1
Scale:1:1
 40
3.5
 41
28.375
  0
MTEXT
  5
296
100
AcDbEntity
  8
9_SOLID
100
AcDbMText
 62
2
  6
CONTINUOUS
  7
TEXTSTYLE_2
 71
1
 72
1
 10
265.2779134944
 20
45.9225198453
 30
0.0
 11
1.0
 21
0.0
 31
0.0
  1
A4
 40
3.5
 41
9.625
  0
MTEXT
  5
297
100
AcDbEntity
  8
0
100
AcDbMText
 62
2
  6
CONTINUOUS
  7
TEXTSTYLE_2
 71
1
 72
1
 10
225.2779134944
 20
37.4225198453
 30
0.0
 11
1.0
 21
0.0
 31
0.0
  1
Cannocchiale asimmetrico Ginko 2
 40
2.5
 41
84.5535714286
  0
MTEXT
  5
298
100
AcDbEntity
  8
0
100
AcDbMText
 62
2
  6
CONTINUOUS
  7
TEXTSTYLE_2
 71
1
 72
1
 10
225.2779134944
 20
29.9225198453
 30
0.0
 11
1.0
 21
0.0
 31
0.0
  1
DATE:12/06/2018
 40
2.5
 41
42.2321428571
  0
MTEXT
  5
299
100
AcDbEntity
  8
9_SOLID
100
AcDbMText
 62
2
  6
CONTINUOUS
  7
TEXTSTYLE_2
 71
1
 72
1
 10
195.2779134944
 20
25.8600198453
 30
0.0
 11
1.0
 21
0.0
 31
0.0
  1
Any integral or partial reproductions are prohibited \Pwithout prior authorisation of L {\Ftxt.shx;\W0.190476;\H2.250000; }& L Luce & Light s.r.l., \Pin accordance with the law in force. \PAll rights reserved.
 40
2.25
 41
134.5982142857
  0
LWPOLYLINE
  5
29A
100
AcDbEntity
  8
0
100
AcDbPolyline
 62
7
  6
CONTINUOUS
 90
2
 70
0
 43
0.100000004
 10
10.0
 20
10.0
 10
10.0
 20
200.0
  0
LWPOLYLINE
  5
29B
100
AcDbEntity
  8
0
100
AcDbPolyline
 62
7
  6
CONTINUOUS
 90
2
 70
0
 43
0.100000004
 10
10.0
 20
10.0
 10
287.0
 20
10.0
  0
LWPOLYLINE
  5
29C
100
AcDbEntity
  8
0
100
AcDbPolyline
 62
7
  6
CONTINUOUS
 90
2
 70
0
 43
0.100000004
 10
10.0
 20
200.0
 10
287.0
 20
200.0
  0
LWPOLYLINE
  5
29D
100
AcDbEntity
  8
0
100
AcDbPolyline
 62
7
  6
CONTINUOUS
 90
2
 70
0
 43
0.100000004
 10
287.0
 20
10.0
 10
287.0
 20
200.0
  0
LINE
  5
29E
100
AcDbEntity
  8
7_ALL_FEATURES
100
AcDbLine
 62
7
  6
CONTINUOUS
 10
76.2769535601
 20
78.7918349344
 11
79.6769535601
 21
78.7918349344
  0
LINE
  5
29F
100
AcDbEntity
  8
7_ALL_FEATURES
100
AcDbLine
 62
7
  6
CONTINUOUS
 10
75.9769535601
 20
79.0918349344
 11
79.9769535601
 21
79.0918349344
  0
LINE
  5
2A0
100
AcDbEntity
  8
7_ALL_FEATURES
100
AcDbLine
 62
7
  6
CONTINUOUS
 10
75.9769535793
 20
79.0918349536
 11
76.2769535764
 21
78.7918349507
  0
LINE
  5
2A1
100
AcDbEntity
  8
7_ALL_FEATURES
100
AcDbLine
 62
9
  6
CONTINUOUS
 10
48.2268317731
 20
109.5417654565
 11
48.5268330004
 21
109.3696927566
  0
LINE
  5
2A2
100
AcDbEntity
  8
7_ALL_FEATURES
100
AcDbLine
 62
9
  6
CONTINUOUS
 10
51.4768467296
 20
109.5418967552
 11
51.1768455181
 21
109.3698240566
  0
LINE
  5
2A3
100
AcDbEntity
  8
7_ALL_FEATURES
100
AcDbLine
 62
7
  6
CONTINUOUS
 10
75.9769535601
 20
79.0918349344
 11
75.9769535601
 21
79.8591379545
  0
LINE
  5
2A4
100
AcDbEntity
  8
7_ALL_FEATURES
100
AcDbLine
 62
7
  6
CONTINUOUS
 10
79.9769535601
 20
79.0918349344
 11
79.9769535601
 21
79.8591379545
  0
LINE
  5
2A5
100
AcDbEntity
  8
7_ALL_FEATURES
100
AcDbLine
 62
9
  6
CONTINUOUS
 10
107.7270753459
 20
109.5417656517
 11
107.4270741197
 21
109.3696929485
  0
LINE
  5
2A6
100
AcDbEntity
  8
7_ALL_FEATURES
100
AcDbLine
 62
9
  6
CONTINUOUS
 10
104.4770603916
 20
109.541896594
 11
104.777061602
 21
109.3698238924
  0
LINE
  5
2A7
100
AcDbEntity
  8
7_ALL_FEATURES
100
AcDbLine
 62
7
  6
CONTINUOUS
 10
79.9769535409
 20
79.0918349536
 11
79.6769535437
 21
78.7918349507
  0
LINE
  5
2A8
100
AcDbEntity
  8
7_ALL_FEATURES
100
AcDbLine
 62
7
  6
CONTINUOUS
 10
152.2648295732
 20
138.9918349344
 11
152.5648295732
 21
139.2918349344
  0
LINE
  5
2A9
100
AcDbEntity
  8
7_ALL_FEATURES
100
AcDbLine
 62
7
  6
CONTINUOUS
 10
152.2648295732
 20
80.0918349344
 11
152.5648295732
 21
79.7918349344
  0
LINE
  5
2AA
100
AcDbEntity
  8
7_ALL_FEATURES
100
AcDbLine
 62
7
  6
CONTINUOUS
 10
155.5648296059
 20
78.7918349344
 11
155.2648295732
 21
79.0918349729
  0
LINE
  5
2AB
100
AcDbEntity
  8
7_ALL_FEATURES
100
AcDbLine
 62
7
  6
CONTINUOUS
 10
152.2648295732
 20
80.0921801091
 11
152.2648295732
 21
138.9914897598
  0
LINE
  5
2AC
100
AcDbEntity
  8
7_ALL_FEATURES
100
AcDbLine
 62
7
  6
CONTINUOUS
 10
152.5648295732
 20
79.7918349344
 11
152.5648295732
 21
139.2918349344
  0
LINE
  5
2AD
100
AcDbEntity
  8
3_ALL_AXES
100
AcDbLine
 62
7
  6
CONTINUOUS
 10
155.2648295732
 20
79.791987505
 11
155.2648295732
 21
79.0918349729
  0
LINE
  5
2AE
100
AcDbEntity
  8
3_ALL_AXES
100
AcDbLine
 62
7
  6
CONTINUOUS
 10
159.2648295732
 20
79.791987505
 11
159.2648295732
 21
79.0918349729
  0
LINE
  5
2AF
100
AcDbEntity
  8
7_ALL_FEATURES
100
AcDbLine
 62
7
  6
CONTINUOUS
 10
155.5648295733
 20
78.7918349344
 11
158.9648295731
 21
78.7918349344
  0
LINE
  5
2B0
100
AcDbEntity
  8
0
100
AcDbLine
 62
2
  6
CONTINUOUS
 10
159.2648295731
 20
79.7918349344
 11
159.2626653447
 21
79.7919798685
  0
LINE
  5
2B1
100
AcDbEntity
  8
0
100
AcDbLine
 62
2
  6
CONTINUOUS
 10
155.2671078953
 20
79.791987505
 11
155.2648295733
 21
79.7918349344
  0
LINE
  5
2B2
100
AcDbEntity
  8
7_ALL_FEATURES
100
AcDbLine
 62
7
  6
CONTINUOUS
 10
155.2648295732
 20
79.0918349345
 11
159.2648295732
 21
79.0918349345
  0
LINE
  5
2B3
100
AcDbEntity
  8
02___PRT_ALL_AXES
100
AcDbLine
 62
7
  6
CONTINUOUS
 10
192.446310936
 20
79.7918349344
 11
171.2648295732
 21
79.7918349344
  0
LINE
  5
2B4
100
AcDbEntity
  8
02___PRT_ALL_AXES
100
AcDbLine
 62
7
  6
CONTINUOUS
 10
165.2648295732
 20
79.7918349344
 11
159.262551251
 21
79.7918349344
  0
LINE
  5
2B5
100
AcDbEntity
  8
02___PRT_ALL_AXES
100
AcDbLine
 62
7
  6
CONTINUOUS
 10
155.2671078953
 20
79.7918349344
 11
152.5648295732
 21
79.7918349344
  0
LINE
  5
2B6
100
AcDbEntity
  8
02___PRT_ALL_AXES
100
AcDbLine
 62
7
  6
CONTINUOUS
 10
165.3666902366
 20
79.8019339323
 11
165.2648295732
 21
79.7918349344
  0
LINE
  5
2B7
100
AcDbEntity
  8
7_ALL_FEATURES
100
AcDbLine
 62
7
  6
CONTINUOUS
 10
158.9648295405
 20
78.7918349344
 11
159.2648295732
 21
79.0918349729
  0
LINE
  5
2B8
100
AcDbEntity
  8
7_ALL_FEATURES
100
AcDbLine
 62
9
  6
CONTINUOUS
 10
213.0675229615
 20
109.5417654565
 11
213.3132672383
 21
109.3696927566
  0
LINE
  5
2B9
100
AcDbEntity
  8
7_ALL_FEATURES
100
AcDbLine
 62
7
  6
CONTINUOUS
 10
192.446310936
 20
79.7918349344
 11
233.6885349366
 21
139.2918349344
  0
LINE
  5
2BA
100
AcDbEntity
  8
7_ALL_FEATURES
100
AcDbLine
 62
7
  6
CONTINUOUS
 10
192.692056547
 20
79.9197620023
 11
233.9342805492
 21
138.8197620047
  0
LINE
  5
2BB
100
AcDbEntity
  8
7_ALL_FEATURES
100
AcDbLine
 62
7
  6
CONTINUOUS
 10
192.446310936
 20
79.7918349344
 11
192.692056547
 21
79.9197620023
  0
LINE
  5
2BC
100
AcDbEntity
  8
02___PRT_ALL_AXES
100
AcDbLine
 62
7
  6
CONTINUOUS
 10
233.6885349366
 20
139.2918349344
 11
152.5648295732
 21
139.2918349344
  0
LINE
  5
2BD
100
AcDbEntity
  8
7_ALL_FEATURES
100
AcDbLine
 62
7
  6
CONTINUOUS
 10
233.9342805492
 20
138.8197620047
 11
233.6885349366
 21
139.2918349344
  0
CIRCLE
  5
2BE
100
AcDbEntity
  8
7_ALL_FEATURES
100
AcDbCircle
 62
7
  6
CONTINUOUS
 10
77.9769535601
 20
109.5418349344
 40
29.75
  0
CIRCLE
  5
2BF
100
AcDbEntity
  8
7_ALL_FEATURES
100
AcDbCircle
 62
7
  6
CONTINUOUS
 10
77.9769535601
 20
109.5418349344
 40
26.5
  0
CIRCLE
  5
2C0
100
AcDbEntity
  8
7_ALL_FEATURES
100
AcDbCircle
 62
7
  6
CONTINUOUS
 10
77.9769535601
 20
109.5418349344
 40
25.45
  0
CIRCLE
  5
2C1
100
AcDbEntity
  8
7_ALL_FEATURES
100
AcDbCircle
 62
7
  6
CONTINUOUS
 10
77.9769535601
 20
109.5418349344
 40
25.15
  0
ARC
  5
2C2
100
AcDbEntity
  8
0
100
AcDbCircle
 62
2
  6
CONTINUOUS
 10
157.2619615203
 20
50.0313703714
 40
29.8277817
100
AcDbArc
 50
86.1539879622
 51
89.9944907937
  0
ARC
  5
2C3
100
AcDbEntity
  8
0
100
AcDbCircle
 62
2
  6
CONTINUOUS
 10
157.2676940011
 20
50.0314859913
 40
29.8276660575
100
AcDbArc
 50
90.0055022645
 51
93.8458003351
  0
SPLINE
  5
2C4
100
AcDbEntity
  8
7_ALL_FEATURES
100
AcDbSpline
 62
7
  6
CONTINUOUS
 70
0
 71
3
 72
25
 73
21
 74
0
 42
0.0000001
 43
0.0000001
 44
0.0000000001
 40
0.0
 40
0.0
 40
0.0
 40
0.0
 40
0.0704982996
 40
0.1052950362
 40
0.1396229382
 40
0.206371812
 40
0.2701373467
 40
0.3308333468
 40
0.3888170527
 40
0.4449083123
 40
0.5000004649
 40
0.5550924387
 40
0.6111839135
 40
0.669167567
 40
0.7298635385
 40
0.7936291699
 40
0.8603782528
 40
0.8947063643
 40
0.9295030734
 40
1.0
 40
1.0
 40
1.0
 40
1.0
 10
104.7771696456
 20
109.3697618393
 30
0.0
 10
104.77940739
 20
111.3454358172
 30
0.0
 10
104.4457619624
 20
114.3096569086
 30
0.0
 10
103.3778701385
 20
118.0795297886
 30
0.0
 10
101.9465446294
 20
121.61534436
 30
0.0
 10
99.5392907505
 20
125.6013271227
 30
0.0
 10
95.8680184743
 20
129.5528185071
 30
0.0
 10
91.7015392779
 20
132.5699085307
 30
0.0
 10
87.2462919364
 20
134.6689319694
 30
0.0
 10
82.6424498441
 20
135.8991711603
 30
0.0
 10
77.9769179355
 20
136.3038447425
 30
0.0
 10
73.3113813755
 20
135.8991576996
 30
0.0
 10
68.707542766
 20
134.6689062964
 30
0.0
 10
64.2522984697
 20
132.5698675325
 30
0.0
 10
60.0858282476
 20
129.5527645091
 30
0.0
 10
56.4145618673
 20
125.6012568924
 30
0.0
 10
54.0073146418
 20
121.6152526247
 30
0.0
 10
52.5759992228
 20
118.0794224562
 30
0.0
 10
51.5081323331
 20
114.3095756255
 30
0.0
 10
51.1745132478
 20
111.3453973651
 30
0.0
 10
51.1767194262
 20
109.3697618281
 30
0.0
  0
SPLINE
  5
2C5
100
AcDbEntity
  8
7_ALL_FEATURES
100
AcDbSpline
 62
7
  6
CONTINUOUS
 70
0
 71
3
 72
25
 73
21
 74
0
 42
0.0000001
 43
0.0000001
 44
0.0000000001
 40
0.0
 40
0.0
 40
0.0
 40
0.0
 40
0.0704982996
 40
0.1052950362
 40
0.1396229382
 40
0.206371812
 40
0.2701373467
 40
0.3308333468
 40
0.3888170527
 40
0.4449083123
 40
0.5000004649
 40
0.5550924387
 40
0.6111839135
 40
0.669167567
 40
0.7298635385
 40
0.7936291699
 40
0.8603782528
 40
0.8947063643
 40
0.9295030734
 40
1.0
 40
1.0
 40
1.0
 40
1.0
 10
51.1767374745
 20
109.3697621677
 30
0.0
 10
51.1744997301
 20
107.3940881899
 30
0.0
 10
51.5081451578
 20
104.4298670984
 30
0.0
 10
52.5760369816
 20
100.6599942184
 30
0.0
 10
54.0073624908
 20
97.124179647
 30
0.0
 10
56.4146163696
 20
93.1381968843
 30
0.0
 10
60.0858886458
 20
89.1867054999
 30
0.0
 10
64.2523678422
 20
86.1696154763
 30
0.0
 10
68.7076151838
 20
84.0705920376
 30
0.0
 10
73.311457276
 20
82.8403528467
 30
0.0
 10
77.9769891847
 20
82.4356792645
 30
0.0
 10
82.6425257447
 20
82.8403663074
 30
0.0
 10
87.2463643541
 20
84.0706177107
 30
0.0
 10
91.7016086504
 20
86.1696564745
 30
0.0
 10
95.8680788725
 20
89.1867594979
 30
0.0
 10
99.5393452529
 20
93.1382671146
 30
0.0
 10
101.9465924784
 20
97.1242713823
 30
0.0
 10
103.3779078974
 20
100.6601015508
 30
0.0
 10
104.445774787
 20
104.4299483815
 30
0.0
 10
104.7793938723
 20
107.3941266419
 30
0.0
 10
104.777187694
 20
109.3697621789
 30
0.0
  0
SPLINE
  5
2C6
100
AcDbEntity
  8
7_ALL_FEATURES
100
AcDbSpline
 62
7
  6
CONTINUOUS
 70
0
 71
3
 72
25
 73
21
 74
0
 42
0.0000001
 43
0.0000001
 44
0.0000000001
 40
0.0
 40
0.0
 40
0.0
 40
0.0
 40
0.0702008151
 40
0.1049133789
 40
0.1391848301
 40
0.2058477837
 40
0.2696228368
 40
0.3304129524
 40
0.3885671872
 40
0.4447841518
 40
0.5000000246
 40
0.5552157922
 40
0.6114328755
 40
0.6695870215
 40
0.730377066
 40
0.7941519622
 40
0.8608148317
 40
0.8950860966
 40
0.9297985514
 40
1.0
 40
1.0
 40
1.0
 40
1.0
 10
48.5267124389
 20
109.3697618116
 30
0.0
 10
48.524148041
 20
111.5316316589
 30
0.0
 10
48.8880531667
 20
114.777019623
 30
0.0
 10
50.0533765154
 20
118.9079011876
 30
0.0
 10
51.6186368482
 20
122.7888471125
 30
0.0
 10
54.2550492766
 20
127.1693720071
 30
0.0
 10
58.2826480005
 20
131.5185703632
 30
0.0
 10
62.8631413293
 20
134.8458523244
 30
0.0
 10
67.7676245614
 20
137.16275088
 30
0.0
 10
72.8385368853
 20
138.5211655104
 30
0.0
 10
77.9769514834
 20
138.9677186718
 30
0.0
 10
83.115369764
 20
138.5211661672
 30
0.0
 10
88.1862798392
 20
137.1627515662
 30
0.0
 10
93.0907620224
 20
134.8458541696
 30
0.0
 10
97.6712483153
 20
131.5185792976
 30
0.0
 10
101.6988430578
 20
127.1693905835
 30
0.0
 10
104.3352522725
 20
122.7888796125
 30
0.0
 10
105.9005144224
 20
118.9079467001
 30
0.0
 10
107.0658464379
 20
114.7770584331
 30
0.0
 10
107.429773356
 20
111.5316511402
 30
0.0
 10
107.4271759818
 20
109.3697618242
 30
0.0
  0
SPLINE
  5
2C7
100
AcDbEntity
  8
7_ALL_FEATURES
100
AcDbSpline
 62
7
  6
CONTINUOUS
 70
0
 71
3
 72
25
 73
21
 74
0
 42
0.0000001
 43
0.0000001
 44
0.0000000001
 40
0.0
 40
0.0
 40
0.0
 40
0.0
 40
0.0702008151
 40
0.1049133789
 40
0.1391848301
 40
0.2058477837
 40
0.2696228368
 40
0.3304129524
 40
0.3885671872
 40
0.4447841518
 40
0.5000000246
 40
0.5552157922
 40
0.6114328755
 40
0.6695870215
 40
0.730377066
 40
0.7941519622
 40
0.8608148317
 40
0.8950860966
 40
0.9297985514
 40
1.0
 40
1.0
 40
1.0
 40
1.0
 10
107.4271946812
 20
109.3697621954
 30
0.0
 10
107.4297590791
 20
107.2078923481
 30
0.0
 10
107.0658539535
 20
103.962504384
 30
0.0
 10
105.9005306047
 20
99.8316228194
 30
0.0
 10
104.3352702719
 20
95.9506768945
 30
0.0
 10
101.6988578435
 20
91.5701519999
 30
0.0
 10
97.6712591197
 20
87.2209536438
 30
0.0
 10
93.0907657908
 20
83.8936716826
 30
0.0
 10
88.1862825588
 20
81.576773127
 30
0.0
 10
83.1153702348
 20
80.2183584966
 30
0.0
 10
77.9769556367
 20
79.7718053352
 30
0.0
 10
72.8385373562
 20
80.2183578398
 30
0.0
 10
67.7676272809
 20
81.5767724408
 30
0.0
 10
62.8631450978
 20
83.8936698374
 30
0.0
 10
58.2826588048
 20
87.2209447095
 30
0.0
 10
54.2550640624
 20
91.5701334235
 30
0.0
 10
51.6186548477
 20
95.9506443945
 30
0.0
 10
50.0533926978
 20
99.8315773069
 30
0.0
 10
48.8880606823
 20
103.9624655739
 30
0.0
 10
48.5241337642
 20
107.2078728668
 30
0.0
 10
48.5267311383
 20
109.3697621828
 30
0.0
  0
SPLINE
  5
2C8
100
AcDbEntity
  8
02___PRT_ALL_AXES
100
AcDbSpline
 62
7
  6
CONTINUOUS
 70
0
 71
3
 72
20
 73
16
 74
0
 42
0.0000001
 43
0.0000001
 44
0.0000000001
 40
0.0
 40
0.0
 40
0.0
 40
0.0
 40
0.1948196944
 40
0.3823020882
 40
0.5549988426
 40
0.706505905
 40
0.7724373415
 40
0.8309673648
 40
0.8815161119
 40
0.9235767231
 40
0.9567585483
 40
0.9806924325
 40
0.9891146175
 40
0.9951509943
 40
1.0
 40
1.0
 40
1.0
 40
1.0
 10
168.2648295732
 20
79.9434819397
 30
0.0
 10
168.4599783312
 20
79.9434819397
 30
0.0
 10
168.8429373298
 20
79.9396733336
 30
0.0
 10
169.3986654342
 20
79.9234101756
 30
0.0
 10
169.9106706726
 20
79.899083082
 30
0.0
 10
170.3006695806
 20
79.8741719037
 30
0.0
 10
170.5763646305
 20
79.8535549217
 30
0.0
 10
170.7510289442
 20
79.8394009047
 30
0.0
 10
170.9020695523
 20
79.8263171435
 30
0.0
 10
171.0269638612
 20
79.8149985639
 30
0.0
 10
171.127407194
 20
79.8053301801
 30
0.0
 10
171.1895027959
 20
79.799515804
 30
0.0
 10
171.2321616055
 20
79.7949571225
 30
0.0
 10
171.2436584386
 20
79.7943831839
 30
0.0
 10
171.269543177
 20
79.7906626321
 30
0.0
 10
171.2648295732
 20
79.7918349344
 30
0.0
  0
SPLINE
  5
2C9
100
AcDbEntity
  8
02___PRT_ALL_AXES
100
AcDbSpline
 62
7
  6
CONTINUOUS
 70
0
 71
3
 72
20
 73
16
 74
0
 42
0.0000001
 43
0.0000001
 44
0.0000000001
 40
0.0
 40
0.0
 40
0.0
 40
0.0
 40
0.0048490061
 40
0.010885383
 40
0.0193075681
 40
0.0432414522
 40
0.0764232773
 40
0.1184838881
 40
0.169032634
 40
0.2275626558
 40
0.2934940914
 40
0.445001154
 40
0.6176979092
 40
0.8051803047
 40
1.0
 40
1.0
 40
1.0
 40
1.0
 10
165.2648295732
 20
79.7918349344
 30
0.0
 10
165.2695431797
 20
79.7930072273
 30
0.0
 10
165.2805782596
 20
79.7930345936
 30
0.0
 10
165.2997261746
 20
79.795511395
 30
0.0
 10
165.3380504543
 20
79.7989920569
 30
0.0
 10
165.4033480886
 20
79.8056027944
 30
0.0
 10
165.502265677
 20
79.8148917179
 30
0.0
 10
165.6277436561
 20
79.8263554596
 30
0.0
 10
165.7785782281
 20
79.8393879792
 30
0.0
 10
165.9533109514
 20
79.8535590106
 30
0.0
 10
166.2289780252
 20
79.8741690351
 30
0.0
 10
166.618993129
 20
79.8990842418
 30
0.0
 10
167.1309922566
 20
79.9234098151
 30
0.0
 10
167.6867222595
 20
79.9396734443
 30
0.0
 10
168.0696808143
 20
79.9434819397
 30
0.0
 10
168.2648295732
 20
79.9434819397
 30
0.0
  0
ENDSEC
  0
SECTION
  2
OBJECTS
  0
DICTIONARY
  5
2CA
100
AcDbDictionary
  3
ACAD_GROUP
350
2CB
  3
ACAD_MLINESTYLE
350
2CC
  0
DICTIONARY
  5
2CB
102
{ACAD_REACTORS
330
2CA
102
}
100
AcDbDictionary
  0
DICTIONARY
  5
2CC
102
{ACAD_REACTORS
330
2CA
102
}
100
AcDbDictionary
  3
STANDARD
350
2CD
  0
MLINESTYLE
  5
2CD
102
{ACAD_REACTORS
330
2CC
102
}
100
AcDbMlineStyle
  2
STANDARD
 70
0
  3

 62
256
 51
90.0
 52
90.0
 71
2
 49
0.5
 62
256
  6
BYLAYER
 49
-0.5
 62
256
  6
BYLAYER
  0
ENDSEC
  0
EOF
