999
DXF file: 453_c_076.dxf
999
Pro/ENGINEER 2016360 by Parametric Technology Corporation
  0
SECTION
  2
HEADER
  9
$ACADVER
  1
AC1014
  9
$DWGCODEPAGE
  3
ANSI_1252
  9
$EXTMAX
 10
297.0
 20
210.0
 30
0.0
  9
$EXTMIN
 10
0.0
 20
0.0
 30
0.0
  9
$LIMMIN
 10
0.0
 20
0.0
  9
$LIMMAX
 10
297.0
 20
210.0
  9
$VIEWCTR
 10
148.5
 20
105.0
  9
$VIEWSIZE
 40
210.0
  9
$CLAYER
  8
0
  9
$LTSCALE
 40
16.335
  9
$CELTYPE
  6
BYLAYER
  9
$DIMSCALE
 40
1.0
  9
$DIMASZ
 40
2.5
  9
$DIMEXO
 40
0.75
  9
$DIMDLI
 40
11.286
  9
$DIMEXE
 40
0.75
  9
$DIMCEN
 40
2.673
  9
$DIMLFAC
 40
1.0
  9
$DIMBLK
  1
_CLOSED
  9
$DIMALT
 70
0
  9
$DIMALTF
 40
25.4
  9
$DIMTXT
 40
3.0
  9
$DIMTOL
 70
1
  9
$DIMLIM
 70
0
  9
$DIMTFAC
 40
1.0
  9
$DIMTP
 40
0.01
  9
$DIMTM
 40
0.01
  9
$DIMGAP
 40
0.625
  9
$AUNITS
 70
0
  9
$PDMODE
 70
3
  9
$PDSIZE
 40
0.3125
  9
$HANDSEED
  5
2E3
  9
$TILEMODE
 70
1
  9
$MEASUREMENT
 70
1
  0
ENDSEC
  0
SECTION
  2
CLASSES
  0
ENDSEC
  0
SECTION
  2
TABLES
  0
TABLE
  2
VPORT
  5
8
100
AcDbSymbolTable
 70
2
  0
VPORT
  5
1F4
100
AcDbSymbolTableRecord
100
AcDbViewportTableRecord
  2
*ACTIVE
 70
0
 10
0.0
 20
0.0
 11
1.0
 21
1.0
 12
148.5
 22
105.0
 13
0.0
 23
0.0
 14
1.0
 24
1.0
 15
0.0
 25
0.0
 16
0.0
 26
0.0
 36
1.0
 17
0.0
 27
0.0
 37
0.0
 40
210.0
 41
1.4142857143
 42
50.0
 43
0.0
 44
0.0
 50
0.0
 51
0.0
 71
0
 72
100
 73
1
 74
1
 75
0
 76
0
 77
0
 78
0
  0
ENDTAB
  0
TABLE
  2
LTYPE
  5
5
100
AcDbSymbolTable
 70
6
  0
LTYPE
  5
14
100
AcDbSymbolTableRecord
100
AcDbLinetypeTableRecord
  2
BYBLOCK
 70
0
  3

 72
65
 73
0
 40
0.0
  0
LTYPE
  5
15
100
AcDbSymbolTableRecord
100
AcDbLinetypeTableRecord
  2
BYLAYER
 70
0
  3

 72
65
 73
0
 40
0.0
  0
LTYPE
  5
16
100
AcDbSymbolTableRecord
100
AcDbLinetypeTableRecord
  2
CONTINUOUS
 70
64
  3
Solid line
 72
65
 73
0
 40
0.0
  0
LTYPE
  5
1F5
100
AcDbSymbolTableRecord
100
AcDbLinetypeTableRecord
  2
CENTER
 70
64
  3
____ _ ____ _ ____ _ ____ _ ____ _ ____ _ ____
 72
65
 73
4
 40
0.6
 49
0.375
 74
0
 49
-0.075
 74
0
 49
0.075
 74
0
 49
-0.075
 74
0
  0
LTYPE
  5
1F6
100
AcDbSymbolTableRecord
100
AcDbLinetypeTableRecord
  2
HIDDEN
 70
64
  3
- - - - - - - - - - - - - - - - - - - -
 72
65
 73
2
 40
0.2
 49
0.1
 74
0
 49
-0.1
 74
0
  0
LTYPE
  5
1F7
100
AcDbSymbolTableRecord
100
AcDbLinetypeTableRecord
  2
PHANTOM
 70
64
  3
_____ _ _ _____ _ _ _____ _ _ _____
 72
65
 73
6
 40
0.8
 49
0.45
 74
0
 49
-0.05
 74
0
 49
0.1
 74
0
 49
-0.05
 74
0
 49
0.1
 74
0
 49
-0.05
 74
0
  0
LTYPE
  5
1F8
100
AcDbSymbolTableRecord
100
AcDbLinetypeTableRecord
  2
DOT
 70
64
  3
. . . . . . . . . . . . . . . . . . . .
 72
65
 73
2
 40
0.2
 49
0.1
 74
0
 49
-0.1
 74
0
  0
LTYPE
  5
1F9
100
AcDbSymbolTableRecord
100
AcDbLinetypeTableRecord
  2
DASHED
 70
64
  3
- - - - - - - - - - - - - - - - - - - -
 72
65
 73
2
 40
0.2
 49
0.1
 74
0
 49
-0.1
 74
0
  0
ENDTAB
  0
TABLE
  2
LAYER
  5
2
100
AcDbSymbolTable
 70
36
  0
LAYER
  5
10
100
AcDbSymbolTableRecord
100
AcDbLayerTableRecord
  2
0
 70
0
 62
7
  6
CONTINUOUS
  0
LAYER
  5
1FA
100
AcDbSymbolTableRecord
100
AcDbLayerTableRecord
  2
DEFAULT_1
 70
0
 62
7
  6
CENTER
  0
LAYER
  5
1FB
100
AcDbSymbolTableRecord
100
AcDbLayerTableRecord
  2
DEFAULT_2
 70
0
 62
8
  6
HIDDEN
  0
LAYER
  5
1FC
100
AcDbSymbolTableRecord
100
AcDbLayerTableRecord
  2
DEFAULT_3
 70
0
 62
7
  6
PHANTOM
  0
LAYER
  5
1FD
100
AcDbSymbolTableRecord
100
AcDbLayerTableRecord
  2
01_ALL_DTM_PLN
 70
0
 62
7
  6
CONTINUOUS
  0
LAYER
  5
1FE
100
AcDbSymbolTableRecord
100
AcDbLayerTableRecord
  2
01__ASM_ALL_DTM_PLN
 70
0
 62
7
  6
CONTINUOUS
  0
LAYER
  5
1FF
100
AcDbSymbolTableRecord
100
AcDbLayerTableRecord
  2
01__ASM_DEF_DTM_PLN
 70
0
 62
7
  6
CONTINUOUS
  0
LAYER
  5
200
100
AcDbSymbolTableRecord
100
AcDbLayerTableRecord
  2
01___PRT_ALL_DTM_PLN
 70
0
 62
7
  6
CONTINUOUS
  0
LAYER
  5
201
100
AcDbSymbolTableRecord
100
AcDbLayerTableRecord
  2
01___PRT_DEF_DTM_PLN
 70
0
 62
7
  6
CONTINUOUS
  0
LAYER
  5
202
100
AcDbSymbolTableRecord
100
AcDbLayerTableRecord
  2
02_ALL_AXES
 70
0
 62
7
  6
CONTINUOUS
  0
LAYER
  5
203
100
AcDbSymbolTableRecord
100
AcDbLayerTableRecord
  2
02__ASM_ALL_AXES
 70
0
 62
7
  6
CONTINUOUS
  0
LAYER
  5
204
100
AcDbSymbolTableRecord
100
AcDbLayerTableRecord
  2
02___PRT_ALL_AXES
 70
0
 62
7
  6
CONTINUOUS
  0
LAYER
  5
205
100
AcDbSymbolTableRecord
100
AcDbLayerTableRecord
  2
03_ALL_CURVES
 70
0
 62
7
  6
CONTINUOUS
  0
LAYER
  5
206
100
AcDbSymbolTableRecord
100
AcDbLayerTableRecord
  2
03__ASM_ALL_CURVES
 70
0
 62
7
  6
CONTINUOUS
  0
LAYER
  5
207
100
AcDbSymbolTableRecord
100
AcDbLayerTableRecord
  2
03___PRT_ALL_CURVES
 70
0
 62
7
  6
CONTINUOUS
  0
LAYER
  5
208
100
AcDbSymbolTableRecord
100
AcDbLayerTableRecord
  2
04_ALL_DTM_PNT
 70
0
 62
7
  6
CONTINUOUS
  0
LAYER
  5
209
100
AcDbSymbolTableRecord
100
AcDbLayerTableRecord
  2
04__ASM_ALL_DTM_PNT
 70
0
 62
7
  6
CONTINUOUS
  0
LAYER
  5
20A
100
AcDbSymbolTableRecord
100
AcDbLayerTableRecord
  2
04___PRT_ALL_DTM_PNT
 70
0
 62
7
  6
CONTINUOUS
  0
LAYER
  5
20B
100
AcDbSymbolTableRecord
100
AcDbLayerTableRecord
  2
05_ALL_DTM_CSYS
 70
0
 62
7
  6
CONTINUOUS
  0
LAYER
  5
20C
100
AcDbSymbolTableRecord
100
AcDbLayerTableRecord
  2
05__ASM_ALL_DTM_CSYS
 70
0
 62
7
  6
CONTINUOUS
  0
LAYER
  5
20D
100
AcDbSymbolTableRecord
100
AcDbLayerTableRecord
  2
05__ASM_DEF_DTM_CSYS
 70
0
 62
7
  6
CONTINUOUS
  0
LAYER
  5
20E
100
AcDbSymbolTableRecord
100
AcDbLayerTableRecord
  2
05___PRT_ALL_DTM_CSYS
 70
0
 62
7
  6
CONTINUOUS
  0
LAYER
  5
20F
100
AcDbSymbolTableRecord
100
AcDbLayerTableRecord
  2
05___PRT_DEF_DTM_CSYS
 70
0
 62
7
  6
CONTINUOUS
  0
LAYER
  5
210
100
AcDbSymbolTableRecord
100
AcDbLayerTableRecord
  2
06_ALL_SURFS
 70
0
 62
7
  6
CONTINUOUS
  0
LAYER
  5
211
100
AcDbSymbolTableRecord
100
AcDbLayerTableRecord
  2
06__ASM_ALL_SURFS
 70
0
 62
7
  6
CONTINUOUS
  0
LAYER
  5
212
100
AcDbSymbolTableRecord
100
AcDbLayerTableRecord
  2
06___PRT_ALL_SURFS
 70
0
 62
7
  6
CONTINUOUS
  0
LAYER
  5
213
100
AcDbSymbolTableRecord
100
AcDbLayerTableRecord
  2
07__ASM_ALL_SKELETONS
 70
0
 62
7
  6
CONTINUOUS
  0
LAYER
  5
214
100
AcDbSymbolTableRecord
100
AcDbLayerTableRecord
  2
1_ALL_PLANES
 70
0
 62
7
  6
CONTINUOUS
  0
LAYER
  5
215
100
AcDbSymbolTableRecord
100
AcDbLayerTableRecord
  2
2_ALL_CSYS
 70
0
 62
7
  6
CONTINUOUS
  0
LAYER
  5
216
100
AcDbSymbolTableRecord
100
AcDbLayerTableRecord
  2
3_ALL_AXES
 70
0
 62
7
  6
CONTINUOUS
  0
LAYER
  5
217
100
AcDbSymbolTableRecord
100
AcDbLayerTableRecord
  2
4_ALL_POINTS
 70
0
 62
7
  6
CONTINUOUS
  0
LAYER
  5
218
100
AcDbSymbolTableRecord
100
AcDbLayerTableRecord
  2
5_ALL_CURVES
 70
0
 62
7
  6
CONTINUOUS
  0
LAYER
  5
219
100
AcDbSymbolTableRecord
100
AcDbLayerTableRecord
  2
6_ALL_SURFS
 70
0
 62
7
  6
CONTINUOUS
  0
LAYER
  5
21A
100
AcDbSymbolTableRecord
100
AcDbLayerTableRecord
  2
7_ALL_FEATURES
 70
0
 62
7
  6
CONTINUOUS
  0
LAYER
  5
21B
100
AcDbSymbolTableRecord
100
AcDbLayerTableRecord
  2
9_SOLID
 70
0
 62
7
  6
CONTINUOUS
  0
ENDTAB
  0
TABLE
  2
STYLE
  5
3
100
AcDbSymbolTable
 70
1
  0
STYLE
  5
11
100
AcDbSymbolTableRecord
100
AcDbTextStyleTableRecord
  2
STANDARD
 70
0
 40
0.0
 41
1.0
 50
0.0
 71
0
 42
0.2
  3
arial.ttf
  4

  0
STYLE
  5
21C
100
AcDbSymbolTableRecord
100
AcDbTextStyleTableRecord
  2
TEXTSTYLE_1
 70
0
 40
0.0
 41
0.8
 50
0.0
 71
0
 42
0.2
  3
gdt
  4

  0
STYLE
  5
21D
100
AcDbSymbolTableRecord
100
AcDbTextStyleTableRecord
  2
TEXTSTYLE_2
 70
0
 40
0.0
 41
0.85
 50
0.0
 71
0
 42
0.2
  3
txt
  4

  0
ENDTAB
  0
TABLE
  2
VIEW
  5
6
100
AcDbSymbolTable
 70
0
  0
ENDTAB
  0
TABLE
  2
UCS
  5
7
100
AcDbSymbolTable
 70
0
  0
ENDTAB
  0
TABLE
  2
APPID
  5
9
100
AcDbSymbolTable
 70
1
  0
APPID
  5
21E
100
AcDbSymbolTableRecord
100
AcDbRegAppTableRecord
  2
ACAD
 70
0
  0
ENDTAB
  0
TABLE
  2
BLOCK_RECORD
  5
1
100
AcDbSymbolTable
 70
0
  0
BLOCK_RECORD
  5
1F
100
AcDbSymbolTableRecord
100
AcDbBlockTableRecord
  2
*MODEL_SPACE
  0
BLOCK_RECORD
  5
1B
100
AcDbSymbolTableRecord
100
AcDbBlockTableRecord
  2
*PAPER_SPACE
  0
BLOCK_RECORD
  5
21F
100
AcDbSymbolTableRecord
100
AcDbBlockTableRecord
  2
_CLOSED
  0
BLOCK_RECORD
  5
220
100
AcDbSymbolTableRecord
100
AcDbBlockTableRecord
  2
*D0
  0
BLOCK_RECORD
  5
221
100
AcDbSymbolTableRecord
100
AcDbBlockTableRecord
  2
*D1
  0
BLOCK_RECORD
  5
222
100
AcDbSymbolTableRecord
100
AcDbBlockTableRecord
  2
*D2
  0
BLOCK_RECORD
  5
223
100
AcDbSymbolTableRecord
100
AcDbBlockTableRecord
  2
LOGO2_BL0
  0
ENDTAB
  0
TABLE
  2
DIMSTYLE
  5
A
100
AcDbSymbolTable
 70
1
  0
DIMSTYLE
105
224
100
AcDbSymbolTableRecord
100
AcDbDimStyleTableRecord
  2
STANDARD
 70
0
  3

  4

  5
_CLOSED
  6
_CLOSED
  7
_CLOSED
 40
1.0
 41
2.5
 42
0.75
 43
0.38
 44
0.75
 45
0.0
 46
0.0
 47
0.01
 48
0.01
140
3.0
141
0.09
142
0.0
143
25.4
144
1.0
145
0.0
146
1.0
147
0.625
 71
1.0
 72
0.0
 73
0
 74
0
 75
0
 76
0
 77
1
 78
8
 79
2
170
0
171
1
172
0
173
0
174
0
175
0
176
0
177
0
178
0
270
2
179
2
271
2
272
2
273
2
274
2
275
0
280
0
281
0
282
0
283
1
284
8
285
0
286
0
287
3
288
0
340
11
  0
DIMSTYLE
105
225
100
AcDbSymbolTableRecord
100
AcDbDimStyleTableRecord
  2
DIMSTYLE_1
 70
0
  3

  4

  5
_CLOSED
  6
_CLOSED
  7
_CLOSED
 40
1.0
 41
2.5
 42
0.75
 43
0.38
 44
0.75
 45
0.0
 46
0.0
 47
0.3
 48
0.3
140
3.0
141
0.09
142
0.0
143
25.4
144
1.0
145
0.0
146
1.0
147
0.75
 71
0.0
 72
0.0
 73
0
 74
0
 75
0
 76
0
 77
1
 78
8
 79
2
170
0
171
1
172
0
173
0
174
0
175
0
176
0
177
0
178
0
270
2
179
2
271
2
272
2
273
2
274
2
275
0
280
0
281
0
282
0
283
1
284
8
285
0
286
0
287
3
288
0
340
11
  0
ENDTAB
  0
ENDSEC
  0
SECTION
  2
BLOCKS
  0
BLOCK
  5
20
100
AcDbEntity
  8
0
100
AcDbBlockBegin
  2
*MODEL_SPACE
 70
0
 10
0.0
 20
0.0
 30
0.0
  3
*MODEL_SPACE
  1

  0
ENDBLK
  5
21
100
AcDbEntity
  8
0
100
AcDbBlockEnd
  0
BLOCK
  5
1C
100
AcDbEntity
  8
0
100
AcDbBlockBegin
  2
*PAPER_SPACE
 70
0
 10
0.0
 20
0.0
 30
0.0
  3
*PAPER_SPACE
  1

  0
ENDBLK
  5
1D
100
AcDbEntity
  8
0
100
AcDbBlockEnd
  0
BLOCK
  5
226
100
AcDbEntity
  8
0
100
AcDbBlockBegin
 62
2
  6
CONTINUOUS
  2
LOGO2_BL0
 70
64
 10
207.6164605391
 20
39.6725198453
  3
LOGO2_BL0
  1

  0
LINE
  5
227
100
AcDbEntity
  8
0
100
AcDbLine
 62
7
  6
CONTINUOUS
 10
199.3593857673
 20
42.8680111841
 11
198.055044838
 21
42.8680111841
  0
LINE
  5
228
100
AcDbEntity
  8
0
100
AcDbLine
 62
7
  6
CONTINUOUS
 10
198.055044838
 20
42.8680111841
 11
198.055044838
 21
32.4089451242
  0
LINE
  5
229
100
AcDbEntity
  8
0
100
AcDbLine
 62
7
  6
CONTINUOUS
 10
198.055044838
 20
32.4089451242
 11
202.5360997262
 21
32.4089451242
  0
LINE
  5
22A
100
AcDbEntity
  8
0
100
AcDbLine
 62
7
  6
CONTINUOUS
 10
202.5360997262
 20
32.4089451242
 11
202.5360997262
 21
33.6017994493
  0
LINE
  5
22B
100
AcDbEntity
  8
0
100
AcDbLine
 62
7
  6
CONTINUOUS
 10
202.5360997262
 20
33.6017994493
 11
199.3593857673
 21
33.6017994493
  0
LINE
  5
22C
100
AcDbEntity
  8
0
100
AcDbLine
 62
7
  6
CONTINUOUS
 10
199.3593857673
 20
33.6017994493
 11
199.3593857673
 21
42.8680111841
  0
LINE
  5
22D
100
AcDbEntity
  8
0
100
AcDbLine
 62
7
  6
CONTINUOUS
 10
214.2957119836
 20
42.8680111841
 11
212.9918944656
 21
42.8680111841
  0
LINE
  5
22E
100
AcDbEntity
  8
0
100
AcDbLine
 62
7
  6
CONTINUOUS
 10
212.9918944656
 20
42.8680111841
 11
212.9918944656
 21
32.4089451242
  0
LINE
  5
22F
100
AcDbEntity
  8
0
100
AcDbLine
 62
7
  6
CONTINUOUS
 10
212.9918944656
 20
32.4089451242
 11
217.4730802067
 21
32.4089451242
  0
LINE
  5
230
100
AcDbEntity
  8
0
100
AcDbLine
 62
7
  6
CONTINUOUS
 10
217.4730802067
 20
32.4089451242
 11
217.4730802067
 21
33.6017994493
  0
LINE
  5
231
100
AcDbEntity
  8
0
100
AcDbLine
 62
7
  6
CONTINUOUS
 10
217.4730802067
 20
33.6017994493
 11
214.2957119836
 21
33.6017994493
  0
LINE
  5
232
100
AcDbEntity
  8
0
100
AcDbLine
 62
7
  6
CONTINUOUS
 10
214.2957119836
 20
33.6017994493
 11
214.2957119836
 21
42.8680111841
  0
LWPOLYLINE
  5
233
100
AcDbEntity
  8
0
100
AcDbPolyline
 62
7
  6
CONTINUOUS
 90
2
 70
0
 43
0.2
 10
196.4094397489
 20
29.0653938173
 10
196.4094397489
 20
27.208330568
  0
LWPOLYLINE
  5
234
100
AcDbEntity
  8
0
100
AcDbPolyline
 62
7
  6
CONTINUOUS
 90
2
 70
0
 43
0.2
 10
196.4094397489
 20
27.208330568
 10
197.2051557593
 20
27.208330568
  0
LWPOLYLINE
  5
235
100
AcDbEntity
  8
0
100
AcDbPolyline
 62
7
  6
CONTINUOUS
 90
2
 70
0
 43
0.2
 10
197.2051557593
 20
27.208330568
 10
197.2051557593
 20
27.4203121396
  0
LWPOLYLINE
  5
236
100
AcDbEntity
  8
0
100
AcDbPolyline
 62
7
  6
CONTINUOUS
 90
2
 70
0
 43
0.2
 10
197.2051557593
 20
27.4203121396
 10
196.6410492438
 20
27.4203121396
  0
LWPOLYLINE
  5
237
100
AcDbEntity
  8
0
100
AcDbPolyline
 62
7
  6
CONTINUOUS
 90
2
 70
0
 43
0.2
 10
196.6410492438
 20
27.4203121396
 10
196.6410492438
 20
29.0653938173
  0
LWPOLYLINE
  5
238
100
AcDbEntity
  8
0
100
AcDbPolyline
 62
7
  6
CONTINUOUS
 90
2
 70
0
 43
0.2
 10
196.6410492438
 20
29.0653938173
 10
196.4094397489
 20
29.0653938173
  0
SPLINE
  5
239
100
AcDbEntity
  8
0
100
AcDbSpline
 62
7
  6
CONTINUOUS
 70
2
 71
3
 72
35
 73
31
 74
0
 42
0.0000001
 43
0.0000001
 44
0.0000000001
 40
0.0
 40
0.0
 40
0.0
 40
0.0
 40
1.0
 40
1.0
 40
1.0
 40
2.0
 40
2.0
 40
2.0
 40
3.0
 40
3.0
 40
3.0
 40
4.0
 40
4.0
 40
4.0
 40
5.0
 40
5.0
 40
5.0
 40
6.0
 40
6.0
 40
6.0
 40
7.0
 40
7.0
 40
7.0
 40
8.0
 40
8.0
 40
8.0
 40
9.0
 40
9.0
 40
9.0
 40
10.0
 40
10.0
 40
10.0
 40
10.0
 10
198.6034490148
 20
28.3608822239
 30
0.0
 10
198.6034490148
 20
28.3608822239
 30
0.0
 10
198.6034490148
 20
27.6987669447
 30
0.0
 10
198.6034490148
 20
27.6987669447
 30
0.0
 10
198.6034490148
 20
27.3836733494
 30
0.0
 10
198.7513127037
 20
27.1690747214
 30
0.0
 10
199.0913991879
 20
27.1690747214
 30
0.0
 10
199.430962261
 20
27.1690747214
 30
0.0
 10
199.5790876554
 20
27.3836733494
 30
0.0
 10
199.5790876554
 20
27.6987669447
 30
0.0
 10
199.5790876554
 20
27.6987669447
 30
0.0
 10
199.5790876554
 20
28.3608822239
 30
0.0
 10
199.5790876554
 20
28.3608822239
 30
0.0
 10
199.5790876554
 20
28.3608822239
 30
0.0
 10
199.3570304165
 20
28.3608822239
 30
0.0
 10
199.3570304165
 20
28.3608822239
 30
0.0
 10
199.3570304165
 20
28.3608822239
 30
0.0
 10
199.3570304165
 20
27.7238906865
 30
0.0
 10
199.3570304165
 20
27.7238906865
 30
0.0
 10
199.3570304165
 20
27.5380796793
 30
0.0
 10
199.3103159591
 20
27.3752987688
 30
0.0
 10
199.0913991879
 20
27.3752987688
 30
0.0
 10
198.8719590055
 20
27.3752987688
 30
0.0
 10
198.8252445481
 20
27.5380796793
 30
0.0
 10
198.8252445481
 20
27.7238906865
 30
0.0
 10
198.8252445481
 20
27.7238906865
 30
0.0
 10
198.8252445481
 20
28.3608822239
 30
0.0
 10
198.8252445481
 20
28.3608822239
 30
0.0
 10
198.8252445481
 20
28.3608822239
 30
0.0
 10
198.6034490148
 20
28.3608822239
 30
0.0
 10
198.6034490148
 20
28.3608822239
 30
0.0
  0
SPLINE
  5
23A
100
AcDbEntity
  8
0
100
AcDbSpline
 62
7
  6
CONTINUOUS
 70
2
 71
3
 72
35
 73
31
 74
0
 42
0.0000001
 43
0.0000001
 44
0.0000000001
 40
0.0
 40
0.0
 40
0.0
 40
0.0
 40
1.0
 40
1.0
 40
1.0
 40
2.0
 40
2.0
 40
2.0
 40
3.0
 40
3.0
 40
3.0
 40
4.0
 40
4.0
 40
4.0
 40
5.0
 40
5.0
 40
5.0
 40
6.0
 40
6.0
 40
6.0
 40
7.0
 40
7.0
 40
7.0
 40
8.0
 40
8.0
 40
8.0
 40
9.0
 40
9.0
 40
9.0
 40
10.0
 40
10.0
 40
10.0
 40
10.0
 10
202.0022202126
 20
28.3195327321
 30
0.0
 10
201.913763705
 20
28.3708270383
 30
0.0
 10
201.8003143083
 20
28.3959507801
 30
0.0
 10
201.6966788733
 20
28.3959507801
 30
0.0
 10
201.3418060201
 20
28.3959507801
 30
0.0
 10
201.0663608299
 20
28.1321514911
 30
0.0
 10
201.0663608299
 20
27.7746615814
 30
0.0
 10
201.0663608299
 20
27.4297335427
 30
0.0
 10
201.344815635
 20
27.1695981327
 30
0.0
 10
201.6843787081
 20
27.1695981327
 30
0.0
 10
201.8003143083
 20
27.1695981327
 30
0.0
 10
201.9010709812
 20
27.1915814068
 30
0.0
 10
202.0022202126
 20
27.2454927694
 30
0.0
 10
202.0022202126
 20
27.2454927694
 30
0.0
 10
202.0022202126
 20
27.5281348649
 30
0.0
 10
202.0022202126
 20
27.5281348649
 30
0.0
 10
201.9183435537
 20
27.4349676556
 30
0.0
 10
201.8148389716
 20
27.3758221801
 30
0.0
 10
201.6867340588
 20
27.3758221801
 30
0.0
 10
201.4530309188
 20
27.3758221801
 30
0.0
 10
201.2877638047
 20
27.5480244938
 30
0.0
 10
201.2877638047
 20
27.7846063959
 30
0.0
 10
201.2877638047
 20
27.9965879675
 30
0.0
 10
201.4555171224
 20
28.1886799102
 30
0.0
 10
201.6723402484
 20
28.1886799102
 30
0.0
 10
201.8051558627
 20
28.1886799102
 30
0.0
 10
201.913763705
 20
28.1347685475
 30
0.0
 10
202.0022202126
 20
28.0337501689
 30
0.0
 10
202.0022202126
 20
28.0337501689
 30
0.0
 10
202.0022202126
 20
28.3195327321
 30
0.0
 10
202.0022202126
 20
28.3195327321
 30
0.0
  0
SPLINE
  5
23B
100
AcDbEntity
  8
0
100
AcDbSpline
 62
7
  6
CONTINUOUS
 70
2
 71
3
 72
32
 73
28
 74
0
 42
0.0000001
 43
0.0000001
 44
0.0000000001
 40
0.0
 40
0.0
 40
0.0
 40
0.0
 40
1.0
 40
1.0
 40
1.0
 40
2.0
 40
2.0
 40
2.0
 40
3.0
 40
3.0
 40
3.0
 40
4.0
 40
4.0
 40
4.0
 40
5.0
 40
5.0
 40
5.0
 40
6.0
 40
6.0
 40
6.0
 40
7.0
 40
7.0
 40
7.0
 40
8.0
 40
8.0
 40
8.0
 40
9.0
 40
9.0
 40
9.0
 40
9.0
 10
204.5340914649
 20
27.7479676058
 30
0.0
 10
204.5340914649
 20
27.7479676058
 30
0.0
 10
204.5340914649
 20
27.7819893395
 30
0.0
 10
204.5340914649
 20
27.7819893395
 30
0.0
 10
204.5340914649
 20
28.1243003217
 30
0.0
 10
204.361234887
 20
28.3959507801
 30
0.0
 10
203.9945852799
 20
28.3959507801
 30
0.0
 10
203.6229632655
 20
28.3959507801
 30
0.0
 10
203.4332266736
 20
28.1295344346
 30
0.0
 10
203.4332266736
 20
27.7746615814
 30
0.0
 10
203.4332266736
 20
27.4349676556
 30
0.0
 10
203.6473018904
 20
27.1690747214
 30
0.0
 10
203.9994268343
 20
27.1690747214
 30
0.0
 10
204.2234468655
 20
27.1690747214
 30
0.0
 10
204.4256144755
 20
27.284748616
 30
0.0
 10
204.5340914649
 20
27.4841683167
 30
0.0
 10
204.5340914649
 20
27.4841683167
 30
0.0
 10
204.3464485182
 20
27.5909442194
 30
0.0
 10
204.3464485182
 20
27.5909442194
 30
0.0
 10
204.2629644177
 20
27.4522402281
 30
0.0
 10
204.1717600008
 20
27.3664007769
 30
0.0
 10
204.0021747436
 20
27.3664007769
 30
0.0
 10
203.790193172
 20
27.3664007769
 30
0.0
 10
203.6572467049
 20
27.5511649615
 30
0.0
 10
203.6548913541
 20
27.7479676058
 30
0.0
 10
203.6548913541
 20
27.7479676058
 30
0.0
 10
204.5340914649
 20
27.7479676058
 30
0.0
 10
204.5340914649
 20
27.7479676058
 30
0.0
  0
SPLINE
  5
23C
100
AcDbEntity
  8
0
100
AcDbSpline
 62
7
  6
CONTINUOUS
 70
2
 71
3
 72
14
 73
10
 74
0
 42
0.0000001
 43
0.0000001
 44
0.0000000001
 40
0.0
 40
0.0
 40
0.0
 40
0.0
 40
1.0
 40
1.0
 40
1.0
 40
2.0
 40
2.0
 40
2.0
 40
3.0
 40
3.0
 40
3.0
 40
3.0
 10
203.6669298137
 20
27.9154592179
 30
0.0
 10
203.6945397591
 20
28.0803337736
 30
0.0
 10
203.8223829662
 20
28.2033354262
 30
0.0
 10
203.9945852799
 20
28.2033354262
 30
0.0
 10
204.1717600008
 20
28.2033354262
 30
0.0
 10
204.2852093975
 20
28.0876615316
 30
0.0
 10
204.3124267844
 20
27.9154592179
 30
0.0
 10
204.3124267844
 20
27.9154592179
 30
0.0
 10
203.6669298137
 20
27.9154592179
 30
0.0
 10
203.6669298137
 20
27.9154592179
 30
0.0
  0
SPLINE
  5
23D
100
AcDbEntity
  8
0
100
AcDbSpline
 62
7
  6
CONTINUOUS
 70
2
 71
3
 72
20
 73
16
 74
0
 42
0.0000001
 43
0.0000001
 44
0.0000000001
 40
0.0
 40
0.0
 40
0.0
 40
0.0
 40
1.0
 40
1.0
 40
1.0
 40
2.0
 40
2.0
 40
2.0
 40
3.0
 40
3.0
 40
3.0
 40
4.0
 40
4.0
 40
4.0
 40
5.0
 40
5.0
 40
5.0
 40
5.0
 10
206.5581229151
 20
28.124823733
 30
0.0
 10
206.5581229151
 20
28.124823733
 30
0.0
 10
206.9692624817
 20
27.6223488967
 30
0.0
 10
206.9692624817
 20
27.6223488967
 30
0.0
 10
206.8531960286
 20
27.5066750021
 30
0.0
 10
206.7154080071
 20
27.3763455914
 30
0.0
 10
206.543467399
 20
27.3763455914
 30
0.0
 10
206.3660309724
 20
27.3763455914
 30
0.0
 10
206.1985393603
 20
27.5406967358
 30
0.0
 10
206.1985393603
 20
27.7176097511
 30
0.0
 10
206.1985393603
 20
27.8955695889
 30
0.0
 10
206.4082964339
 20
28.0217117093
 30
0.0
 10
206.5358779353
 20
28.1096448057
 30
0.0
 10
206.5358779353
 20
28.1096448057
 30
0.0
 10
206.5581229151
 20
28.124823733
 30
0.0
 10
206.5581229151
 20
28.124823733
 30
0.0
  0
SPLINE
  5
23E
100
AcDbEntity
  8
0
100
AcDbSpline
 62
7
  6
CONTINUOUS
 70
2
 71
3
 72
23
 73
19
 74
0
 42
0.0000001
 43
0.0000001
 44
0.0000000001
 40
0.0
 40
0.0
 40
0.0
 40
0.0
 40
1.0
 40
1.0
 40
1.0
 40
2.0
 40
2.0
 40
2.0
 40
3.0
 40
3.0
 40
3.0
 40
4.0
 40
4.0
 40
4.0
 40
5.0
 40
5.0
 40
5.0
 40
6.0
 40
6.0
 40
6.0
 40
6.0
 10
206.6074544289
 20
28.4158404091
 30
0.0
 10
206.6074544289
 20
28.4158404091
 30
0.0
 10
206.5458227498
 20
28.4943521023
 30
0.0
 10
206.5458227498
 20
28.4943521023
 30
0.0
 10
206.4919113871
 20
28.562918981
 30
0.0
 10
206.4351212624
 20
28.632009271
 30
0.0
 10
206.4351212624
 20
28.7256998915
 30
0.0
 10
206.4351212624
 20
28.8445142539
 30
0.0
 10
206.5310363809
 20
28.9219791245
 30
0.0
 10
206.6419995739
 20
28.9219791245
 30
0.0
 10
206.7652629322
 20
28.9219791245
 30
0.0
 10
206.8585609943
 20
28.8507951893
 30
0.0
 10
206.8585609943
 20
28.7204657786
 30
0.0
 10
206.8585609943
 20
28.5854256664
 30
0.0
 10
206.7304560816
 20
28.5090076183
 30
0.0
 10
206.6368963139
 20
28.4352066267
 30
0.0
 10
206.6368963139
 20
28.4352066267
 30
0.0
 10
206.6074544289
 20
28.4158404091
 30
0.0
 10
206.6074544289
 20
28.4158404091
 30
0.0
  0
SPLINE
  5
23F
100
AcDbEntity
  8
0
100
AcDbSpline
 62
7
  6
CONTINUOUS
 70
2
 71
3
 72
50
 73
46
 74
0
 42
0.0000001
 43
0.0000001
 44
0.0000000001
 40
0.0
 40
0.0
 40
0.0
 40
0.0
 40
1.0
 40
1.0
 40
1.0
 40
2.0
 40
2.0
 40
2.0
 40
3.0
 40
3.0
 40
3.0
 40
4.0
 40
4.0
 40
4.0
 40
5.0
 40
5.0
 40
5.0
 40
6.0
 40
6.0
 40
6.0
 40
7.0
 40
7.0
 40
7.0
 40
8.0
 40
8.0
 40
8.0
 40
9.0
 40
9.0
 40
9.0
 40
10.0
 40
10.0
 40
10.0
 40
11.0
 40
11.0
 40
11.0
 40
12.0
 40
12.0
 40
12.0
 40
13.0
 40
13.0
 40
13.0
 40
14.0
 40
14.0
 40
14.0
 40
15.0
 40
15.0
 40
15.0
 40
15.0
 10
207.3096106716
 20
27.2088539793
 30
0.0
 10
207.3096106716
 20
27.2088539793
 30
0.0
 10
207.5950006763
 20
27.2088539793
 30
0.0
 10
207.5950006763
 20
27.2088539793
 30
0.0
 10
207.5950006763
 20
27.2088539793
 30
0.0
 10
207.2626345085
 20
27.6197318402
 30
0.0
 10
207.2626345085
 20
27.6197318402
 30
0.0
 10
207.2626345085
 20
27.6197318402
 30
0.0
 10
207.4891407434
 20
27.8856247745
 30
0.0
 10
207.4891407434
 20
27.8856247745
 30
0.0
 10
207.4891407434
 20
27.8856247745
 30
0.0
 10
207.3408844961
 20
28.0384608705
 30
0.0
 10
207.3408844961
 20
28.0384608705
 30
0.0
 10
207.3408844961
 20
28.0384608705
 30
0.0
 10
207.1249773398
 20
27.7872234524
 30
0.0
 10
207.1249773398
 20
27.7872234524
 30
0.0
 10
207.1249773398
 20
27.7872234524
 30
0.0
 10
206.7379146924
 20
28.2551531437
 30
0.0
 10
206.7379146924
 20
28.2551531437
 30
0.0
 10
206.8933678449
 20
28.3692568045
 30
0.0
 10
207.0756458259
 20
28.5090076183
 30
0.0
 10
207.0756458259
 20
28.7183721335
 30
0.0
 10
207.0756458259
 20
28.9622817936
 30
0.0
 10
206.8736090688
 20
29.1056964865
 30
0.0
 10
206.647102834
 20
29.1056964865
 30
0.0
 10
206.4029314682
 20
29.1056964865
 30
0.0
 10
206.2185598421
 20
28.9549540356
 30
0.0
 10
206.2185598421
 20
28.6984825045
 30
0.0
 10
206.2185598421
 20
28.5409357069
 30
0.0
 10
206.3172228698
 20
28.4032785382
 30
0.0
 10
206.4225593915
 20
28.2923153452
 30
0.0
 10
206.4225593915
 20
28.2923153452
 30
0.0
 10
206.3070163497
 20
28.2085695391
 30
0.0
 10
206.3070163497
 20
28.2085695391
 30
0.0
 10
206.1293182175
 20
28.0803337736
 30
0.0
 10
205.9819779399
 20
27.9526214193
 30
0.0
 10
205.9819779399
 20
27.7155161059
 30
0.0
 10
205.9819779399
 20
27.3951883977
 30
0.0
 10
206.2405431161
 20
27.1690747214
 30
0.0
 10
206.5509260098
 20
27.1690747214
 30
0.0
 10
206.769842781
 20
27.1690747214
 30
0.0
 10
206.9670379837
 20
27.2941700192
 30
0.0
 10
207.1073122089
 20
27.4600913974
 30
0.0
 10
207.1073122089
 20
27.4600913974
 30
0.0
 10
207.3096106716
 20
27.2088539793
 30
0.0
 10
207.3096106716
 20
27.2088539793
 30
0.0
  0
LWPOLYLINE
  5
240
100
AcDbEntity
  8
0
100
AcDbPolyline
 62
7
  6
CONTINUOUS
 90
2
 70
0
 43
0.2
 10
209.2450547613
 20
29.0653938173
 10
209.0137069721
 20
29.0653938173
  0
LWPOLYLINE
  5
241
100
AcDbEntity
  8
0
100
AcDbPolyline
 62
7
  6
CONTINUOUS
 90
2
 70
0
 43
0.2
 10
209.0137069721
 20
29.0653938173
 10
209.0137069721
 20
27.208330568
  0
LWPOLYLINE
  5
242
100
AcDbEntity
  8
0
100
AcDbPolyline
 62
7
  6
CONTINUOUS
 90
2
 70
0
 43
0.2
 10
209.0137069721
 20
27.208330568
 10
209.809030424
 20
27.208330568
  0
LWPOLYLINE
  5
243
100
AcDbEntity
  8
0
100
AcDbPolyline
 62
7
  6
CONTINUOUS
 90
2
 70
0
 43
0.2
 10
209.809030424
 20
27.208330568
 10
209.809030424
 20
27.4203121396
  0
LWPOLYLINE
  5
244
100
AcDbEntity
  8
0
100
AcDbPolyline
 62
7
  6
CONTINUOUS
 90
2
 70
0
 43
0.2
 10
209.809030424
 20
27.4203121396
 10
209.2450547613
 20
27.4203121396
  0
LWPOLYLINE
  5
245
100
AcDbEntity
  8
0
100
AcDbPolyline
 62
7
  6
CONTINUOUS
 90
2
 70
0
 43
0.2
 10
209.2450547613
 20
27.4203121396
 10
209.2450547613
 20
29.0653938173
  0
LWPOLYLINE
  5
246
100
AcDbEntity
  8
0
100
AcDbPolyline
 62
7
  6
CONTINUOUS
 90
2
 70
0
 43
0.2
 10
211.4881338355
 20
28.3608822239
 10
211.2669925664
 20
28.3608822239
  0
LWPOLYLINE
  5
247
100
AcDbEntity
  8
0
100
AcDbPolyline
 62
7
  6
CONTINUOUS
 90
2
 70
0
 43
0.2
 10
211.2669925664
 20
28.3608822239
 10
211.2669925664
 20
27.2088539793
  0
LWPOLYLINE
  5
248
100
AcDbEntity
  8
0
100
AcDbPolyline
 62
7
  6
CONTINUOUS
 90
2
 70
0
 43
0.2
 10
211.2669925664
 20
27.2088539793
 10
211.4881338355
 20
27.2088539793
  0
LWPOLYLINE
  5
249
100
AcDbEntity
  8
0
100
AcDbPolyline
 62
7
  6
CONTINUOUS
 90
2
 70
0
 43
0.2
 10
211.4881338355
 20
27.2088539793
 10
211.4881338355
 20
28.3608822239
  0
SPLINE
  5
24A
100
AcDbEntity
  8
0
100
AcDbSpline
 62
7
  6
CONTINUOUS
 70
2
 71
3
 72
17
 73
13
 74
0
 42
0.0000001
 43
0.0000001
 44
0.0000000001
 40
0.0
 40
0.0
 40
0.0
 40
0.0
 40
1.0
 40
1.0
 40
1.0
 40
2.0
 40
2.0
 40
2.0
 40
3.0
 40
3.0
 40
3.0
 40
4.0
 40
4.0
 40
4.0
 40
4.0
 10
211.3776940538
 20
29.0434105432
 30
0.0
 10
211.2936865421
 20
29.0434105432
 30
0.0
 10
211.2251196633
 20
28.9743202532
 30
0.0
 10
211.2251196633
 20
28.888480802
 30
0.0
 10
211.2251196633
 20
28.8042115847
 30
0.0
 10
211.2936865421
 20
28.7382617624
 30
0.0
 10
211.3776940538
 20
28.7382617624
 30
0.0
 10
211.4614398598
 20
28.7382617624
 30
0.0
 10
211.5302684442
 20
28.8042115847
 30
0.0
 10
211.5302684442
 20
28.888480802
 30
0.0
 10
211.5302684442
 20
28.9743202532
 30
0.0
 10
211.4614398598
 20
29.0434105432
 30
0.0
 10
211.3776940538
 20
29.0434105432
 30
0.0
  0
SPLINE
  5
24B
100
AcDbEntity
  8
0
100
AcDbSpline
 62
7
  6
CONTINUOUS
 70
2
 71
3
 72
17
 73
13
 74
0
 42
0.0000001
 43
0.0000001
 44
0.0000000001
 40
0.0
 40
0.0
 40
0.0
 40
0.0
 40
1.0
 40
1.0
 40
1.0
 40
2.0
 40
2.0
 40
2.0
 40
3.0
 40
3.0
 40
3.0
 40
4.0
 40
4.0
 40
4.0
 40
4.0
 10
213.6184177771
 20
27.3664007769
 30
0.0
 10
213.3844529315
 20
27.3664007769
 30
0.0
 10
213.2541235208
 20
27.568437534
 30
0.0
 10
213.2541235208
 20
27.7846063959
 30
0.0
 10
213.2541235208
 20
27.9992050239
 30
0.0
 10
213.38994875
 20
28.1981013133
 30
0.0
 10
213.6184177771
 20
28.1981013133
 30
0.0
 10
213.8578784413
 20
28.1981013133
 30
0.0
 10
213.9934419649
 20
28.0091498384
 30
0.0
 10
213.9934419649
 20
27.7846063959
 30
0.0
 10
213.9934419649
 20
27.5584927196
 30
0.0
 10
213.8602337921
 20
27.3664007769
 30
0.0
 10
213.6184177771
 20
27.3664007769
 30
0.0
  0
SPLINE
  5
24C
100
AcDbEntity
  8
0
100
AcDbSpline
 62
7
  6
CONTINUOUS
 70
2
 71
3
 72
50
 73
46
 74
0
 42
0.0000001
 43
0.0000001
 44
0.0000000001
 40
0.0
 40
0.0
 40
0.0
 40
0.0
 40
1.0
 40
1.0
 40
1.0
 40
2.0
 40
2.0
 40
2.0
 40
3.0
 40
3.0
 40
3.0
 40
4.0
 40
4.0
 40
4.0
 40
5.0
 40
5.0
 40
5.0
 40
6.0
 40
6.0
 40
6.0
 40
7.0
 40
7.0
 40
7.0
 40
8.0
 40
8.0
 40
8.0
 40
9.0
 40
9.0
 40
9.0
 40
10.0
 40
10.0
 40
10.0
 40
11.0
 40
11.0
 40
11.0
 40
12.0
 40
12.0
 40
12.0
 40
13.0
 40
13.0
 40
13.0
 40
14.0
 40
14.0
 40
14.0
 40
15.0
 40
15.0
 40
15.0
 40
15.0
 10
214.2025447744
 20
28.3614056352
 30
0.0
 10
214.2025447744
 20
28.3614056352
 30
0.0
 10
213.980880094
 20
28.3614056352
 30
0.0
 10
213.980880094
 20
28.3614056352
 30
0.0
 10
213.980880094
 20
28.3614056352
 30
0.0
 10
213.980880094
 20
28.1640795796
 30
0.0
 10
213.980880094
 20
28.1640795796
 30
0.0
 10
213.980880094
 20
28.1640795796
 30
0.0
 10
213.9761693924
 20
28.1640795796
 30
0.0
 10
213.9761693924
 20
28.1640795796
 30
0.0
 10
213.8848341227
 20
28.3069708612
 30
0.0
 10
213.7469152483
 20
28.3954273689
 30
0.0
 10
213.5741895233
 20
28.3954273689
 30
0.0
 10
213.2418233555
 20
28.3954273689
 30
0.0
 10
213.032720546
 20
28.1075511605
 30
0.0
 10
213.032720546
 20
27.7919341539
 30
0.0
 10
213.032720546
 20
27.4621850426
 30
0.0
 10
213.2297848959
 20
27.1690747214
 30
0.0
 10
213.5846577491
 20
27.1690747214
 30
0.0
 10
213.7469152483
 20
27.1690747214
 30
0.0
 10
213.8869277678
 20
27.257531229
 30
0.0
 10
213.9761693924
 20
27.388384051
 30
0.0
 10
213.9761693924
 20
27.388384051
 30
0.0
 10
213.980880094
 20
27.388384051
 30
0.0
 10
213.980880094
 20
27.388384051
 30
0.0
 10
213.980880094
 20
27.388384051
 30
0.0
 10
213.980880094
 20
27.1690747214
 30
0.0
 10
213.980880094
 20
27.1690747214
 30
0.0
 10
213.980880094
 20
26.9324928193
 30
0.0
 10
213.9243516749
 20
26.7456349895
 30
0.0
 10
213.6511309826
 20
26.7456349895
 30
0.0
 10
213.4488325199
 20
26.7456349895
 30
0.0
 10
213.3062029439
 20
26.8639259406
 30
0.0
 10
213.3062029439
 20
27.070149988
 30
0.0
 10
213.3062029439
 20
27.070149988
 30
0.0
 10
213.0845382635
 20
27.070149988
 30
0.0
 10
213.0845382635
 20
27.070149988
 30
0.0
 10
213.0895106707
 20
26.7456349895
 30
0.0
 10
213.3205967543
 20
26.5488323453
 30
0.0
 10
213.6409244625
 20
26.5488323453
 30
0.0
 10
214.0889645249
 20
26.5488323453
 30
0.0
 10
214.2025447744
 20
26.8340914971
 30
0.0
 10
214.2025447744
 20
27.2308372534
 30
0.0
 10
214.2025447744
 20
27.2308372534
 30
0.0
 10
214.2025447744
 20
28.3614056352
 30
0.0
 10
214.2025447744
 20
28.3614056352
 30
0.0
  0
SPLINE
  5
24D
100
AcDbEntity
  8
0
100
AcDbSpline
 62
7
  6
CONTINUOUS
 70
2
 71
3
 72
44
 73
40
 74
0
 42
0.0000001
 43
0.0000001
 44
0.0000000001
 40
0.0
 40
0.0
 40
0.0
 40
0.0
 40
1.0
 40
1.0
 40
1.0
 40
2.0
 40
2.0
 40
2.0
 40
3.0
 40
3.0
 40
3.0
 40
4.0
 40
4.0
 40
4.0
 40
5.0
 40
5.0
 40
5.0
 40
6.0
 40
6.0
 40
6.0
 40
7.0
 40
7.0
 40
7.0
 40
8.0
 40
8.0
 40
8.0
 40
9.0
 40
9.0
 40
9.0
 40
10.0
 40
10.0
 40
10.0
 40
11.0
 40
11.0
 40
11.0
 40
12.0
 40
12.0
 40
12.0
 40
13.0
 40
13.0
 40
13.0
 40
13.0
 10
215.7714701098
 20
29.3464656789
 30
0.0
 10
215.7714701098
 20
29.3464656789
 30
0.0
 10
215.7714701098
 20
27.208330568
 30
0.0
 10
215.7714701098
 20
27.208330568
 30
0.0
 10
215.7714701098
 20
27.208330568
 30
0.0
 10
215.9928730846
 20
27.208330568
 30
0.0
 10
215.9928730846
 20
27.208330568
 30
0.0
 10
215.9928730846
 20
27.208330568
 30
0.0
 10
215.9928730846
 20
27.7380227913
 30
0.0
 10
215.9928730846
 20
27.7380227913
 30
0.0
 10
215.9928730846
 20
27.9479107177
 30
0.0
 10
215.9928730846
 20
28.1986247246
 30
0.0
 10
216.2781322364
 20
28.1986247246
 30
0.0
 10
216.5050310297
 20
28.1986247246
 30
0.0
 10
216.5319867111
 20
28.0656782575
 30
0.0
 10
216.5319867111
 20
27.8693990246
 30
0.0
 10
216.5319867111
 20
27.8693990246
 30
0.0
 10
216.5319867111
 20
27.208330568
 30
0.0
 10
216.5319867111
 20
27.208330568
 30
0.0
 10
216.5319867111
 20
27.208330568
 30
0.0
 10
216.7539130971
 20
27.208330568
 30
0.0
 10
216.7539130971
 20
27.208330568
 30
0.0
 10
216.7539130971
 20
27.208330568
 30
0.0
 10
216.7539130971
 20
27.8955695889
 30
0.0
 10
216.7539130971
 20
27.8955695889
 30
0.0
 10
216.7539130971
 20
28.1761180392
 30
0.0
 10
216.6699055854
 20
28.3959507801
 30
0.0
 10
216.3448671757
 20
28.3959507801
 30
0.0
 10
216.2051163618
 20
28.3959507801
 30
0.0
 10
216.0669357818
 20
28.3294775466
 30
0.0
 10
215.9975837861
 20
28.2064758939
 30
0.0
 10
215.9975837861
 20
28.2064758939
 30
0.0
 10
215.9928730846
 20
28.2064758939
 30
0.0
 10
215.9928730846
 20
28.2064758939
 30
0.0
 10
215.9928730846
 20
28.2064758939
 30
0.0
 10
215.9928730846
 20
29.3464656789
 30
0.0
 10
215.9928730846
 20
29.3464656789
 30
0.0
 10
215.9928730846
 20
29.3464656789
 30
0.0
 10
215.7714701098
 20
29.3464656789
 30
0.0
 10
215.7714701098
 20
29.3464656789
 30
0.0
  0
LWPOLYLINE
  5
24E
100
AcDbEntity
  8
0
100
AcDbPolyline
 62
7
  6
CONTINUOUS
 90
2
 70
0
 43
0.2
 10
218.593703774
 20
28.1541347652
 10
218.8101343415
 20
28.1541347652
  0
LWPOLYLINE
  5
24F
100
AcDbEntity
  8
0
100
AcDbPolyline
 62
7
  6
CONTINUOUS
 90
2
 70
0
 43
0.2
 10
218.8101343415
 20
28.1541347652
 10
218.8101343415
 20
28.3608822239
  0
LWPOLYLINE
  5
250
100
AcDbEntity
  8
0
100
AcDbPolyline
 62
7
  6
CONTINUOUS
 90
2
 70
0
 43
0.2
 10
218.8101343415
 20
28.3608822239
 10
218.593703774
 20
28.3608822239
  0
LWPOLYLINE
  5
251
100
AcDbEntity
  8
0
100
AcDbPolyline
 62
7
  6
CONTINUOUS
 90
2
 70
0
 43
0.2
 10
218.593703774
 20
28.3608822239
 10
218.593703774
 20
28.8015945282
  0
LWPOLYLINE
  5
252
100
AcDbEntity
  8
0
100
AcDbPolyline
 62
7
  6
CONTINUOUS
 90
2
 70
0
 43
0.2
 10
218.593703774
 20
28.8015945282
 10
218.3720390936
 20
28.8015945282
  0
LWPOLYLINE
  5
253
100
AcDbEntity
  8
0
100
AcDbPolyline
 62
7
  6
CONTINUOUS
 90
2
 70
0
 43
0.2
 10
218.3720390936
 20
28.8015945282
 10
218.3720390936
 20
28.3608822239
  0
LWPOLYLINE
  5
254
100
AcDbEntity
  8
0
100
AcDbPolyline
 62
7
  6
CONTINUOUS
 90
2
 70
0
 43
0.2
 10
218.3720390936
 20
28.3608822239
 10
218.2513927917
 20
28.3608822239
  0
LWPOLYLINE
  5
255
100
AcDbEntity
  8
0
100
AcDbPolyline
 62
7
  6
CONTINUOUS
 90
2
 70
0
 43
0.2
 10
218.2513927917
 20
28.3608822239
 10
218.2513927917
 20
28.1541347652
  0
LWPOLYLINE
  5
256
100
AcDbEntity
  8
0
100
AcDbPolyline
 62
7
  6
CONTINUOUS
 90
2
 70
0
 43
0.2
 10
218.2513927917
 20
28.1541347652
 10
218.3720390936
 20
28.1541347652
  0
LWPOLYLINE
  5
257
100
AcDbEntity
  8
0
100
AcDbPolyline
 62
7
  6
CONTINUOUS
 90
2
 70
0
 43
0.2
 10
218.3720390936
 20
28.1541347652
 10
218.3720390936
 20
27.208330568
  0
LWPOLYLINE
  5
258
100
AcDbEntity
  8
0
100
AcDbPolyline
 62
7
  6
CONTINUOUS
 90
2
 70
0
 43
0.2
 10
218.3720390936
 20
27.208330568
 10
218.593703774
 20
27.208330568
  0
LWPOLYLINE
  5
259
100
AcDbEntity
  8
0
100
AcDbPolyline
 62
7
  6
CONTINUOUS
 90
2
 70
0
 43
0.2
 10
218.593703774
 20
27.208330568
 10
218.593703774
 20
28.1541347652
  0
SPLINE
  5
25A
100
AcDbEntity
  8
0
100
AcDbSpline
 62
7
  6
CONTINUOUS
 70
2
 71
3
 72
20
 73
16
 74
0
 42
0.0000001
 43
0.0000001
 44
0.0000000001
 40
0.0
 40
0.0
 40
0.0
 40
0.0
 40
1.0
 40
1.0
 40
1.0
 40
2.0
 40
2.0
 40
2.0
 40
3.0
 40
3.0
 40
3.0
 40
4.0
 40
4.0
 40
4.0
 40
5.0
 40
5.0
 40
5.0
 40
5.0
 10
206.3757140812
 20
37.5692570114
 30
0.0
 10
206.3757140812
 20
37.5692570114
 30
0.0
 10
208.6920707357
 20
34.7396955891
 30
0.0
 10
208.6920707357
 20
34.7396955891
 30
0.0
 10
208.0404236823
 20
34.0875251244
 30
0.0
 10
207.2635504783
 20
33.3516088537
 30
0.0
 10
206.2923608336
 20
33.3516088537
 30
0.0
 10
205.2938229492
 20
33.3516088537
 30
0.0
 10
204.3505049556
 20
34.281187301
 30
0.0
 10
204.3505049556
 20
35.2803794495
 30
0.0
 10
204.3505049556
 20
36.279571598
 30
0.0
 10
205.5293580287
 20
36.9861768367
 30
0.0
 10
206.2508804891
 20
37.4860346166
 30
0.0
 10
206.2508804891
 20
37.4860346166
 30
0.0
 10
206.3757140812
 20
37.5692570114
 30
0.0
 10
206.3757140812
 20
37.5692570114
 30
0.0
  0
SPLINE
  5
25B
100
AcDbEntity
  8
0
100
AcDbSpline
 62
7
  6
CONTINUOUS
 70
2
 71
3
 72
23
 73
19
 74
0
 42
0.0000001
 43
0.0000001
 44
0.0000000001
 40
0.0
 40
0.0
 40
0.0
 40
0.0
 40
1.0
 40
1.0
 40
1.0
 40
2.0
 40
2.0
 40
2.0
 40
3.0
 40
3.0
 40
3.0
 40
4.0
 40
4.0
 40
4.0
 40
5.0
 40
5.0
 40
5.0
 40
6.0
 40
6.0
 40
6.0
 40
6.0
 10
206.6531220638
 20
39.2070109311
 30
0.0
 10
206.6531220638
 20
39.2070109311
 30
0.0
 10
206.3066237912
 20
39.6503402919
 30
0.0
 10
206.3066237912
 20
39.6503402919
 30
0.0
 10
206.0008207463
 20
40.0384497619
 30
0.0
 10
205.6819324192
 20
40.4269517903
 30
0.0
 10
205.6819324192
 20
40.9538961044
 30
0.0
 10
205.6819324192
 20
41.620067821
 30
0.0
 10
206.2232705436
 20
42.0637897403
 30
0.0
 10
206.8471767988
 20
42.0637897403
 30
0.0
 10
207.5409584609
 20
42.0637897403
 30
0.0
 10
208.0681644806
 20
41.6615481656
 30
0.0
 10
208.0681644806
 20
40.9265478646
 30
0.0
 10
208.0681644806
 20
40.163283354
 30
0.0
 10
207.3469037259
 20
39.7331701282
 30
0.0
 10
206.819828559
 20
39.3174507128
 30
0.0
 10
206.819828559
 20
39.3174507128
 30
0.0
 10
206.6531220638
 20
39.2070109311
 30
0.0
 10
206.6531220638
 20
39.2070109311
 30
0.0
  0
SPLINE
  5
25C
100
AcDbEntity
  8
0
100
AcDbSpline
 62
7
  6
CONTINUOUS
 70
2
 71
3
 72
50
 73
46
 74
0
 42
0.0000001
 43
0.0000001
 44
0.0000000001
 40
0.0
 40
0.0
 40
0.0
 40
0.0
 40
1.0
 40
1.0
 40
1.0
 40
2.0
 40
2.0
 40
2.0
 40
3.0
 40
3.0
 40
3.0
 40
4.0
 40
4.0
 40
4.0
 40
5.0
 40
5.0
 40
5.0
 40
6.0
 40
6.0
 40
6.0
 40
7.0
 40
7.0
 40
7.0
 40
8.0
 40
8.0
 40
8.0
 40
9.0
 40
9.0
 40
9.0
 40
10.0
 40
10.0
 40
10.0
 40
11.0
 40
11.0
 40
11.0
 40
12.0
 40
12.0
 40
12.0
 40
13.0
 40
13.0
 40
13.0
 40
14.0
 40
14.0
 40
14.0
 40
15.0
 40
15.0
 40
15.0
 40
15.0
 10
210.6067092267
 20
32.408421713
 30
0.0
 10
210.6067092267
 20
32.408421713
 30
0.0
 10
212.2159372313
 20
32.408421713
 30
0.0
 10
212.2159372313
 20
32.408421713
 30
0.0
 10
212.2159372313
 20
32.408421713
 30
0.0
 10
210.3429099376
 20
34.7255634844
 30
0.0
 10
210.3429099376
 20
34.7255634844
 30
0.0
 10
210.3429099376
 20
34.7255634844
 30
0.0
 10
211.6192483631
 20
36.223043179
 30
0.0
 10
211.6192483631
 20
36.223043179
 30
0.0
 10
211.6192483631
 20
36.223043179
 30
0.0
 10
210.7870244154
 20
37.0840547475
 30
0.0
 10
210.7870244154
 20
37.0840547475
 30
0.0
 10
210.7870244154
 20
37.0840547475
 30
0.0
 10
209.5664292921
 20
35.6687506251
 30
0.0
 10
209.5664292921
 20
35.6687506251
 30
0.0
 10
209.5664292921
 20
35.6687506251
 30
0.0
 10
207.3885149233
 20
38.3041264595
 30
0.0
 10
207.3885149233
 20
38.3041264595
 30
0.0
 10
208.2620883627
 20
38.9421648194
 30
0.0
 10
209.2887596039
 20
39.7331701282
 30
0.0
 10
209.2887596039
 20
40.9120232013
 30
0.0
 10
209.2887596039
 20
42.2857161264
 30
0.0
 10
208.150863464
 20
43.0901992758
 30
0.0
 10
206.8755718611
 20
43.0901992758
 30
0.0
 10
205.5021406418
 20
43.0901992758
 30
0.0
 10
204.461206443
 20
42.2439740762
 30
0.0
 10
204.461206443
 20
40.801321714
 30
0.0
 10
204.461206443
 20
39.9137470226
 30
0.0
 10
205.0165458195
 20
39.1368738185
 30
0.0
 10
205.6127112763
 20
38.5124441521
 30
0.0
 10
205.6127112763
 20
38.5124441521
 30
0.0
 10
204.9608025173
 20
38.0408505817
 30
0.0
 10
204.9608025173
 20
38.0408505817
 30
0.0
 10
203.9622646329
 20
37.319589827
 30
0.0
 10
203.129386421
 20
36.5983290724
 30
0.0
 10
203.129386421
 20
35.266770756
 30
0.0
 10
203.129386421
 20
33.463095458
 30
0.0
 10
204.5864325936
 20
32.1864953269
 30
0.0
 10
206.333972031
 20
32.1864953269
 30
0.0
 10
207.5688301119
 20
32.1864953269
 30
0.0
 10
208.6782003366
 20
32.8946707994
 30
0.0
 10
209.4690747925
 20
33.8232024241
 30
0.0
 10
209.4690747925
 20
33.8232024241
 30
0.0
 10
210.6067092267
 20
32.408421713
 30
0.0
 10
210.6067092267
 20
32.408421713
 30
0.0
  0
LINE
  5
25D
100
AcDbEntity
  8
0
100
AcDbLine
 62
7
  6
CONTINUOUS
 10
196.4095706017
 20
30.3822966176
 11
218.8234813294
 21
30.3822966176
  0
LINE
  5
25E
100
AcDbEntity
  8
0
100
AcDbLine
 62
7
  6
CONTINUOUS
 10
218.8234813294
 20
30.3822966176
 11
218.8234813294
 21
52.7962073453
  0
LINE
  5
25F
100
AcDbEntity
  8
0
100
AcDbLine
 62
7
  6
CONTINUOUS
 10
218.8234813294
 20
52.7962073453
 11
196.4095706017
 21
52.7962073453
  0
LINE
  5
260
100
AcDbEntity
  8
0
100
AcDbLine
 62
7
  6
CONTINUOUS
 10
196.4095706017
 20
52.7962073453
 11
196.4095706017
 21
30.3822966176
  0
ENDBLK
  5
261
100
AcDbEntity
  8
0
  6
BYBLOCK
 62
0
100
AcDbBlockEnd
  0
BLOCK
  5
262
100
AcDbEntity
  8
0
100
AcDbBlockBegin
  2
_CLOSED
 70
64
 10
0.0
 20
0.0
  3
_CLOSED
  1

  0
LINE
  5
263
100
AcDbEntity
  8
0
  6
BYBLOCK
 62
0
100
AcDbLine
 10
0.0
 20
0.0
 11
-1.0
 21
0.2
  0
LINE
  5
264
100
AcDbEntity
  8
0
  6
BYBLOCK
 62
0
100
AcDbLine
 10
-1.0
 20
0.2
 11
-1.0
 21
-0.2
  0
LINE
  5
265
100
AcDbEntity
  8
0
  6
BYBLOCK
 62
0
100
AcDbLine
 10
-1.0
 20
-0.2
 11
0.0
 21
0.0
  0
LINE
  5
266
100
AcDbEntity
  8
0
  6
BYBLOCK
 62
0
100
AcDbLine
 10
-1.0
 20
0.0
 11
0.0
 21
0.0
  0
ENDBLK
  5
267
100
AcDbEntity
  8
0
  6
BYBLOCK
 62
0
100
AcDbBlockEnd
  0
BLOCK
  5
268
100
AcDbEntity
  8
0
100
AcDbBlockBegin
 62
2
  6
CONTINUOUS
  2
*D0
 70
65
 10
0.0
 20
0.0
  3
*D0
  1

  0
MTEXT
  5
269
100
AcDbEntity
  8
0
100
AcDbMText
 62
2
  6
CONTINUOUS
  7
STANDARD
 71
2
 72
1
 10
206.4794215796
 20
188.9157035593
 30
0.0
 11
1.0
 21
0.0
 31
0.0
  1
92
 40
3.0
 41
4.6617100372
  0
LINE
  5
26A
100
AcDbEntity
  8
0
100
AcDbLine
 62
2
  6
CONTINUOUS
 10
160.4794215796
 20
180.755836
 11
160.4794215796
 21
185.9157035593
  0
LINE
  5
26B
100
AcDbEntity
  8
0
100
AcDbLine
 62
2
  6
CONTINUOUS
 10
252.4794215796
 20
180.7558360001
 11
252.4794215796
 21
185.9157035593
  0
LINE
  5
26C
100
AcDbEntity
  8
0
100
AcDbLine
 62
2
  6
CONTINUOUS
 10
160.4794215796
 20
185.1657035593
 11
206.4794215796
 21
185.1657035593
  0
LINE
  5
26D
100
AcDbEntity
  8
0
100
AcDbLine
 62
2
  6
CONTINUOUS
 10
252.4794215796
 20
185.1657035593
 11
206.4794215796
 21
185.1657035593
  0
INSERT
  5
26E
100
AcDbEntity
  8
0
100
AcDbBlockReference
 62
2
  6
CONTINUOUS
  2
_CLOSED
 10
160.4794215796
 20
185.1657035593
 41
2.5
 42
2.5
 43
2.5
 50
180.0
  0
INSERT
  5
26F
100
AcDbEntity
  8
0
100
AcDbBlockReference
 62
2
  6
CONTINUOUS
  2
_CLOSED
 10
252.4794215796
 20
185.1657035593
 41
2.5
 42
2.5
 43
2.5
  0
ENDBLK
  5
270
100
AcDbEntity
  8
0
  6
BYBLOCK
 62
0
100
AcDbBlockEnd
  0
BLOCK
  5
271
100
AcDbEntity
  8
0
100
AcDbBlockBegin
 62
2
  6
CONTINUOUS
  2
*D1
 70
65
 10
0.0
 20
0.0
  3
*D1
  1

  0
MTEXT
  5
272
100
AcDbEntity
  8
0
100
AcDbMText
 62
2
  6
CONTINUOUS
  7
STANDARD
 71
2
 72
1
 10
263.6544691113
 20
128.3953895764
 30
0.0
 11
0.0
 21
1.0
 31
0.0
  1
Ø84,95
 40
3.0
 41
13.7397769517
  0
LINE
  5
273
100
AcDbEntity
  8
0
100
AcDbLine
 62
2
  6
CONTINUOUS
 10
261.7925361513
 20
170.8718471235
 11
268.1544691113
 21
170.8718471235
  0
LINE
  5
274
100
AcDbEntity
  8
0
100
AcDbLine
 62
2
  6
CONTINUOUS
 10
261.5646174459
 20
85.9189320293
 11
268.1544691113
 21
85.9189320293
  0
LINE
  5
275
100
AcDbEntity
  8
0
100
AcDbLine
 62
2
  6
CONTINUOUS
 10
267.4044691113
 20
170.8718471235
 11
267.4044691113
 21
128.3953895764
  0
LINE
  5
276
100
AcDbEntity
  8
0
100
AcDbLine
 62
2
  6
CONTINUOUS
 10
267.4044691113
 20
85.9189320293
 11
267.4044691113
 21
128.3953895764
  0
INSERT
  5
277
100
AcDbEntity
  8
0
100
AcDbBlockReference
 62
2
  6
CONTINUOUS
  2
_CLOSED
 10
267.4044691113
 20
170.8718471235
 41
2.5
 42
2.5
 43
2.5
 50
90.0
  0
INSERT
  5
278
100
AcDbEntity
  8
0
100
AcDbBlockReference
 62
2
  6
CONTINUOUS
  2
_CLOSED
 10
267.4044691113
 20
85.9189320293
 41
2.5
 42
2.5
 43
2.5
 50
270.0
  0
ENDBLK
  5
279
100
AcDbEntity
  8
0
  6
BYBLOCK
 62
0
100
AcDbBlockEnd
  0
BLOCK
  5
27A
100
AcDbEntity
  8
0
100
AcDbBlockBegin
 62
2
  6
CONTINUOUS
  2
*D2
 70
65
 10
0.0
 20
0.0
  3
*D2
  1

  0
MTEXT
  5
27B
100
AcDbEntity
  8
0
100
AcDbMText
 62
2
  6
CONTINUOUS
  7
STANDARD
 71
2
 72
1
 10
176.7370858086
 20
69.4550781249
 30
0.0
 11
1.0
 21
0.0
 31
0.0
  1
32,52
 40
3.0
 41
10.4832713755
  0
LINE
  5
27C
100
AcDbEntity
  8
0
100
AcDbLine
 62
2
  6
CONTINUOUS
 10
160.4794215796
 20
72.6836675039
 11
160.4794215796
 21
64.9550781249
  0
LINE
  5
27D
100
AcDbEntity
  8
0
100
AcDbLine
 62
2
  6
CONTINUOUS
 10
192.9947500377
 20
72.723872185
 11
192.9947500377
 21
64.9550781249
  0
LINE
  5
27E
100
AcDbEntity
  8
0
100
AcDbLine
 62
2
  6
CONTINUOUS
 10
160.4794215796
 20
65.7050781249
 11
176.7370858086
 21
65.7050781249
  0
LINE
  5
27F
100
AcDbEntity
  8
0
100
AcDbLine
 62
2
  6
CONTINUOUS
 10
192.9947500377
 20
65.7050781249
 11
176.7370858086
 21
65.7050781249
  0
INSERT
  5
280
100
AcDbEntity
  8
0
100
AcDbBlockReference
 62
2
  6
CONTINUOUS
  2
_CLOSED
 10
160.4794215796
 20
65.7050781249
 41
2.5
 42
2.5
 43
2.5
 50
180.0
  0
INSERT
  5
281
100
AcDbEntity
  8
0
100
AcDbBlockReference
 62
2
  6
CONTINUOUS
  2
_CLOSED
 10
192.9947500377
 20
65.7050781249
 41
2.5
 42
2.5
 43
2.5
  0
ENDBLK
  5
282
100
AcDbEntity
  8
0
  6
BYBLOCK
 62
0
100
AcDbBlockEnd
  0
ENDSEC
  0
SECTION
  2
ENTITIES
  0
DIMENSION
  5
283
100
AcDbEntity
  8
0
100
AcDbDimension
 62
2
  6
CONTINUOUS
  2
*D0
 10
252.4794215796
 20
185.1657035593
 11
206.4546447144
 21
185.1657035593
 70
160
  3
DIMSTYLE_1
100
AcDbAlignedDimension
 13
160.4794215796
 23
180.005836
 14
252.4794215796
 24
180.0058360001
100
AcDbRotatedDimension
  0
DIMENSION
  5
284
100
AcDbEntity
  8
0
100
AcDbDimension
 62
2
  6
CONTINUOUS
  2
*D1
 10
267.4044691113
 20
85.9189320293
 11
267.4044691113
 21
128.3953895764
 70
160
  1
Ø<>
  3
DIMSTYLE_1
100
AcDbAlignedDimension
 13
261.0425361513
 23
170.8718471235
 14
260.8146174459
 24
85.9189320293
 50
270.0
100
AcDbRotatedDimension
  0
DIMENSION
  5
285
100
AcDbEntity
  8
0
100
AcDbDimension
 62
2
  6
CONTINUOUS
  2
*D2
 10
192.9947500377
 20
65.7050781249
 11
176.7139848633
 21
65.7050781249
 70
160
  3
DIMSTYLE_1
100
AcDbAlignedDimension
 13
160.4794215796
 23
73.4336675039
 14
192.9947500377
 24
73.473872185
100
AcDbRotatedDimension
  0
LINE
  5
286
100
AcDbEntity
  8
0
100
AcDbLine
 62
2
  6
CONTINUOUS
 10
193.7904134944
 20
53.1725198453
 11
283.7904134944
 21
53.1725198453
  0
LINE
  5
287
100
AcDbEntity
  8
0
100
AcDbLine
 62
2
  6
CONTINUOUS
 10
193.7904134944
 20
53.1725198453
 11
193.7904134944
 21
13.1725198453
  0
LINE
  5
288
100
AcDbEntity
  8
0
100
AcDbLine
 62
2
  6
CONTINUOUS
 10
223.7904134944
 20
47.1725198453
 11
283.7904134944
 21
47.1725198453
  0
LINE
  5
289
100
AcDbEntity
  8
0
100
AcDbLine
 62
2
  6
CONTINUOUS
 10
223.7904134944
 20
41.1725198453
 11
283.7904134944
 21
41.1725198453
  0
LINE
  5
28A
100
AcDbEntity
  8
0
100
AcDbLine
 62
2
  6
CONTINUOUS
 10
223.7904134944
 20
31.1725198453
 11
283.7904134944
 21
31.1725198453
  0
LINE
  5
28B
100
AcDbEntity
  8
0
100
AcDbLine
 62
2
  6
CONTINUOUS
 10
193.7904134944
 20
26.1725198453
 11
283.7904134944
 21
26.1725198453
  0
LINE
  5
28C
100
AcDbEntity
  8
0
100
AcDbLine
 62
2
  6
CONTINUOUS
 10
193.7904134944
 20
13.1725198453
 11
283.7904134944
 21
13.1725198453
  0
LINE
  5
28D
100
AcDbEntity
  8
0
100
AcDbLine
 62
2
  6
CONTINUOUS
 10
223.7904134944
 20
53.1725198453
 11
223.7904134944
 21
26.1725198453
  0
LINE
  5
28E
100
AcDbEntity
  8
0
100
AcDbLine
 62
2
  6
CONTINUOUS
 10
263.7904134944
 20
53.1725198453
 11
263.7904134944
 21
41.1725198453
  0
LINE
  5
28F
100
AcDbEntity
  8
0
100
AcDbLine
 62
2
  6
CONTINUOUS
 10
283.7904134944
 20
53.1725198453
 11
283.7904134944
 21
13.1725198453
  0
INSERT
  5
290
100
AcDbEntity
  8
0
100
AcDbBlockReference
 62
2
  6
CONTINUOUS
  2
LOGO2_BL0
 10
207.6164605391
 20
39.6725198453
  0
MTEXT
  5
291
100
AcDbEntity
  8
9_SOLID
100
AcDbMText
 62
2
  6
CONTINUOUS
  7
TEXTSTYLE_2
 71
1
 72
1
 10
225.2779134944
 20
51.6725198453
 30
0.0
 11
1.0
 21
0.0
 31
0.0
  1
453_C_076
 40
3.0
 41
32.25
  0
MTEXT
  5
292
100
AcDbEntity
  8
0
100
AcDbMText
 62
2
  6
CONTINUOUS
  7
TEXTSTYLE_2
 71
1
 72
1
 10
265.2779134944
 20
51.9225198453
 30
0.0
 11
1.0
 21
0.0
 31
0.0
  1
Rev:00
 40
3.5
 41
22.75
  0
MTEXT
  5
293
100
AcDbEntity
  8
9_SOLID
100
AcDbMText
 62
2
  6
CONTINUOUS
  7
TEXTSTYLE_2
 71
1
 72
1
 10
225.2779134944
 20
45.4225198453
 30
0.0
 11
1.0
 21
0.0
 31
0.0
  1
Scale:1:1
 40
3.5
 41
28.375
  0
MTEXT
  5
294
100
AcDbEntity
  8
9_SOLID
100
AcDbMText
 62
2
  6
CONTINUOUS
  7
TEXTSTYLE_2
 71
1
 72
1
 10
265.2779134944
 20
45.9225198453
 30
0.0
 11
1.0
 21
0.0
 31
0.0
  1
A4
 40
3.5
 41
9.625
  0
MTEXT
  5
295
100
AcDbEntity
  8
0
100
AcDbMText
 62
2
  6
CONTINUOUS
  7
TEXTSTYLE_2
 71
1
 72
1
 10
225.2779134944
 20
37.2975198453
 30
0.0
 11
1.0
 21
0.0
 31
0.0
  1
Cannocchiale asimmetrico >Ginko 3.0
 40
2.25
 41
82.3660714286
  0
MTEXT
  5
296
100
AcDbEntity
  8
0
100
AcDbMText
 62
2
  6
CONTINUOUS
  7
TEXTSTYLE_2
 71
1
 72
1
 10
225.2779134944
 20
29.9225198453
 30
0.0
 11
1.0
 21
0.0
 31
0.0
  1
DATE:12/06/2018
 40
2.5
 41
42.2321428571
  0
MTEXT
  5
297
100
AcDbEntity
  8
9_SOLID
100
AcDbMText
 62
2
  6
CONTINUOUS
  7
TEXTSTYLE_2
 71
1
 72
1
 10
195.2779134944
 20
25.8600198453
 30
0.0
 11
1.0
 21
0.0
 31
0.0
  1
Any integral or partial reproductions are prohibited \Pwithout prior authorisation of L {\Ftxt.shx;\W0.190476;\H2.250000; }& L Luce & Light s.r.l., \Pin accordance with the law in force. \PAll rights reserved.
 40
2.25
 41
134.5982142857
  0
LWPOLYLINE
  5
298
100
AcDbEntity
  8
0
100
AcDbPolyline
 62
7
  6
CONTINUOUS
 90
2
 70
0
 43
0.100000004
 10
10.0
 20
10.0
 10
10.0
 20
200.0
  0
LWPOLYLINE
  5
299
100
AcDbEntity
  8
0
100
AcDbPolyline
 62
7
  6
CONTINUOUS
 90
2
 70
0
 43
0.100000004
 10
10.0
 20
10.0
 10
287.0
 20
10.0
  0
LWPOLYLINE
  5
29A
100
AcDbEntity
  8
0
100
AcDbPolyline
 62
7
  6
CONTINUOUS
 90
2
 70
0
 43
0.100000004
 10
10.0
 20
200.0
 10
287.0
 20
200.0
  0
LWPOLYLINE
  5
29B
100
AcDbEntity
  8
0
100
AcDbPolyline
 62
7
  6
CONTINUOUS
 90
2
 70
0
 43
0.100000004
 10
287.0
 20
10.0
 10
287.0
 20
200.0
  0
LINE
  5
29C
100
AcDbEntity
  8
7_ALL_FEATURES
100
AcDbLine
 62
7
  6
CONTINUOUS
 10
75.8553630929
 20
73.4140608298
 11
75.2553630929
 21
73.4140608298
  0
LINE
  5
29D
100
AcDbEntity
  8
7_ALL_FEATURES
100
AcDbLine
 62
7
  6
CONTINUOUS
 10
74.523598387
 20
73.4140608298
 11
75.123598387
 21
73.4140608298
  0
LINE
  5
29E
100
AcDbEntity
  8
02___PRT_ALL_AXES
100
AcDbLine
 62
7
  6
CONTINUOUS
 10
75.8553630929
 20
75.4140608298
 11
76.8553630929
 21
75.4140608298
  0
LINE
  5
29F
100
AcDbEntity
  8
3_ALL_AXES
100
AcDbLine
 62
7
  6
CONTINUOUS
 10
72.523598387
 20
75.4640608298
 11
74.523598387
 21
75.4640608298
  0
LINE
  5
2A0
100
AcDbEntity
  8
3_ALL_AXES
100
AcDbLine
 62
7
  6
CONTINUOUS
 10
77.2353630929
 20
75.6140608298
 11
76.8553630929
 21
75.6140608298
  0
LINE
  5
2A1
100
AcDbEntity
  8
3_ALL_AXES
100
AcDbLine
 62
7
  6
CONTINUOUS
 10
75.123598387
 20
76.7240608298
 11
75.2553630929
 21
76.7240608298
  0
LINE
  5
2A2
100
AcDbEntity
  8
7_ALL_FEATURES
100
AcDbLine
 62
7
  6
CONTINUOUS
 10
72.523598387
 20
77.4140608298
 11
71.3553630929
 21
77.4140608298
  0
LINE
  5
2A3
100
AcDbEntity
  8
7_ALL_FEATURES
100
AcDbLine
 62
9
  6
CONTINUOUS
 10
75.8553630929
 20
78.9140608298
 11
75.2553630929
 21
78.9140608298
  0
LINE
  5
2A4
100
AcDbEntity
  8
7_ALL_FEATURES
100
AcDbLine
 62
9
  6
CONTINUOUS
 10
74.523598387
 20
78.9140608298
 11
75.123598387
 21
78.9140608298
  0
LINE
  5
2A5
100
AcDbEntity
  8
7_ALL_FEATURES
100
AcDbLine
 62
7
  6
CONTINUOUS
 10
72.523598387
 20
81.4140608298
 11
71.3553630929
 21
81.4140608298
  0
LINE
  5
2A6
100
AcDbEntity
  8
3_ALL_AXES
100
AcDbLine
 62
7
  6
CONTINUOUS
 10
75.123598387
 20
82.1040608298
 11
75.2553630929
 21
82.1040608298
  0
LINE
  5
2A7
100
AcDbEntity
  8
3_ALL_AXES
100
AcDbLine
 62
7
  6
CONTINUOUS
 10
77.2353630929
 20
83.2140608298
 11
76.8553630929
 21
83.2140608298
  0
LINE
  5
2A8
100
AcDbEntity
  8
3_ALL_AXES
100
AcDbLine
 62
7
  6
CONTINUOUS
 10
72.523598387
 20
83.3640608298
 11
74.523598387
 21
83.3640608298
  0
LINE
  5
2A9
100
AcDbEntity
  8
02___PRT_ALL_AXES
100
AcDbLine
 62
7
  6
CONTINUOUS
 10
75.8553630929
 20
83.4140608298
 11
76.8553630929
 21
83.4140608298
  0
LINE
  5
2AA
100
AcDbEntity
  8
7_ALL_FEATURES
100
AcDbLine
 62
3
  6
CONTINUOUS
 10
77.18948074
 20
85.9189320293
 11
75.2915857122
 21
85.8295202646
  0
LINE
  5
2AB
100
AcDbEntity
  8
7_ALL_FEATURES
100
AcDbLine
 62
7
  6
CONTINUOUS
 10
75.2633504181
 20
86.4288555365
 11
77.1612454458
 21
86.5182673012
  0
LINE
  5
2AC
100
AcDbEntity
  8
7_ALL_FEATURES
100
AcDbLine
 62
9
  6
CONTINUOUS
 10
75.123598387
 20
84.5204830615
 11
74.523598387
 21
84.5204830615
  0
LINE
  5
2AD
100
AcDbEntity
  8
7_ALL_FEATURES
100
AcDbLine
 62
9
  6
CONTINUOUS
 10
75.2553630929
 20
84.5204830615
 11
75.8553630929
 21
84.5204830615
  0
LINE
  5
2AE
100
AcDbEntity
  8
7_ALL_FEATURES
100
AcDbLine
 62
3
  6
CONTINUOUS
 10
73.18948074
 20
85.9189320293
 11
75.0873757677
 21
85.8295202646
  0
LINE
  5
2AF
100
AcDbEntity
  8
7_ALL_FEATURES
100
AcDbLine
 62
7
  6
CONTINUOUS
 10
73.2177160341
 20
86.5182673012
 11
75.1156110618
 21
86.4288555365
  0
LINE
  5
2B0
100
AcDbEntity
  8
7_ALL_FEATURES
100
AcDbLine
 62
7
  6
CONTINUOUS
 10
70.8553630929
 20
77.9140608298
 11
71.3553630929
 21
77.4140608298
  0
LINE
  5
2B1
100
AcDbEntity
  8
7_ALL_FEATURES
100
AcDbLine
 62
7
  6
CONTINUOUS
 10
70.8553630929
 20
80.9140608298
 11
70.8553630929
 21
77.9140608298
  0
LINE
  5
2B2
100
AcDbEntity
  8
7_ALL_FEATURES
100
AcDbLine
 62
7
  6
CONTINUOUS
 10
71.3553630929
 20
81.4140608298
 11
71.3553630929
 21
77.4140608298
  0
LINE
  5
2B3
100
AcDbEntity
  8
7_ALL_FEATURES
100
AcDbLine
 62
7
  6
CONTINUOUS
 10
75.2915857122
 20
85.8295202646
 11
75.2633504181
 21
86.4288555365
  0
LINE
  5
2B4
100
AcDbEntity
  8
7_ALL_FEATURES
100
AcDbLine
 62
9
  6
CONTINUOUS
 10
75.7910317721
 20
85.8530496763
 11
75.762796478
 21
86.4523849482
  0
LINE
  5
2B5
100
AcDbEntity
  8
7_ALL_FEATURES
100
AcDbLine
 62
7
  6
CONTINUOUS
 10
77.18948074
 20
85.9189320293
 11
77.1612454458
 21
86.5182673012
  0
LINE
  5
2B6
100
AcDbEntity
  8
3_ALL_AXES
100
AcDbLine
 62
7
  6
CONTINUOUS
 10
72.523598387
 20
83.3640608298
 11
72.523598387
 21
75.4640608298
  0
LINE
  5
2B7
100
AcDbEntity
  8
7_ALL_FEATURES
100
AcDbLine
 62
3
  6
CONTINUOUS
 10
74.523598387
 20
73.4140608298
 11
74.523598387
 21
84.5204830615
  0
LINE
  5
2B8
100
AcDbEntity
  8
7_ALL_FEATURES
100
AcDbLine
 62
7
  6
CONTINUOUS
 10
75.123598387
 20
84.5204830615
 11
75.123598387
 21
73.4140608298
  0
LINE
  5
2B9
100
AcDbEntity
  8
7_ALL_FEATURES
100
AcDbLine
 62
7
  6
CONTINUOUS
 10
75.2553630929
 20
73.4140608298
 11
75.2553630929
 21
84.5204830615
  0
LINE
  5
2BA
100
AcDbEntity
  8
7_ALL_FEATURES
100
AcDbLine
 62
7
  6
CONTINUOUS
 10
73.18948074
 20
85.9189320293
 11
73.2177160341
 21
86.5182673012
  0
LINE
  5
2BB
100
AcDbEntity
  8
7_ALL_FEATURES
100
AcDbLine
 62
3
  6
CONTINUOUS
 10
75.8553630929
 20
84.5204830615
 11
75.8553630929
 21
73.4140608298
  0
LINE
  5
2BC
100
AcDbEntity
  8
02___PRT_ALL_AXES
100
AcDbLine
 62
7
  6
CONTINUOUS
 10
76.8553630929
 20
83.4140608298
 11
76.8553630929
 21
75.4140608298
  0
LINE
  5
2BD
100
AcDbEntity
  8
3_ALL_AXES
100
AcDbLine
 62
7
  6
CONTINUOUS
 10
77.2353630929
 20
83.2140608298
 11
77.2353630929
 21
75.6140608298
  0
LINE
  5
2BE
100
AcDbEntity
  8
3_ALL_AXES
100
AcDbLine
 62
7
  6
CONTINUOUS
 10
79.0553630929
 20
81.3790608298
 11
79.0553630929
 21
77.4490608298
  0
LINE
  5
2BF
100
AcDbEntity
  8
7_ALL_FEATURES
100
AcDbLine
 62
9
  6
CONTINUOUS
 10
74.5879297078
 20
85.8530496763
 11
74.6161650019
 21
86.4523849482
  0
LINE
  5
2C0
100
AcDbEntity
  8
7_ALL_FEATURES
100
AcDbLine
 62
7
  6
CONTINUOUS
 10
75.0873757677
 20
85.8295202646
 11
75.1156110618
 21
86.4288555365
  0
LINE
  5
2C1
100
AcDbEntity
  8
7_ALL_FEATURES
100
AcDbLine
 62
7
  6
CONTINUOUS
 10
70.8553630929
 20
80.9140608298
 11
71.3553630929
 21
81.4140608298
  0
LINE
  5
2C2
100
AcDbEntity
  8
7_ALL_FEATURES
100
AcDbLine
 62
3
  6
CONTINUOUS
 10
165.9794215796
 20
73.4140608298
 11
167.4947500377
 21
73.4140608298
  0
LINE
  5
2C3
100
AcDbEntity
  8
7_ALL_FEATURES
100
AcDbLine
 62
3
  6
CONTINUOUS
 10
160.4794215796
 20
78.9140608298
 11
160.4794215796
 21
170.8718439941
  0
LINE
  5
2C4
100
AcDbEntity
  8
7_ALL_FEATURES
100
AcDbLine
 62
9
  6
CONTINUOUS
 10
160.4794215796
 20
84.5204830615
 11
172.9947500377
 21
84.5204830615
  0
LINE
  5
2C5
100
AcDbEntity
  8
7_ALL_FEATURES
100
AcDbLine
 62
3
  6
CONTINUOUS
 10
174.4947500377
 20
85.8295202646
 11
192.4947500377
 21
85.8295202646
  0
LINE
  5
2C6
100
AcDbEntity
  8
7_ALL_FEATURES
100
AcDbLine
 62
9
  6
CONTINUOUS
 10
160.4794215796
 20
85.9189320293
 11
172.9947500377
 21
85.9189320293
  0
LINE
  5
2C7
100
AcDbEntity
  8
7_ALL_FEATURES
100
AcDbLine
 62
3
  6
CONTINUOUS
 10
172.9947500377
 20
85.9189320293
 11
173.9947500377
 21
85.9189320293
  0
LINE
  5
2C8
100
AcDbEntity
  8
7_ALL_FEATURES
100
AcDbLine
 62
9
  6
CONTINUOUS
 10
173.9947500377
 20
85.9189320293
 11
192.9947500377
 21
85.9189320293
  0
LINE
  5
2C9
100
AcDbEntity
  8
7_ALL_FEATURES
100
AcDbLine
 62
3
  6
CONTINUOUS
 10
172.9947500377
 20
85.9189320293
 11
172.9947500377
 21
78.9140608298
  0
LINE
  5
2CA
100
AcDbEntity
  8
7_ALL_FEATURES
100
AcDbLine
 62
3
  6
CONTINUOUS
 10
173.9947500377
 20
85.9189320293
 11
173.9947500377
 21
85.8530496763
  0
LINE
  5
2CB
100
AcDbEntity
  8
7_ALL_FEATURES
100
AcDbLine
 62
3
  6
CONTINUOUS
 10
192.9947500377
 20
85.9189320293
 11
192.9947500377
 21
85.8530496763
  0
LINE
  5
2CC
100
AcDbEntity
  8
7_ALL_FEATURES
100
AcDbLine
 62
3
  6
CONTINUOUS
 10
252.4794215796
 20
170.8718471235
 11
192.9947500377
 21
85.9189320293
  0
LINE
  5
2CD
100
AcDbEntity
  8
7_ALL_FEATURES
100
AcDbLine
 62
7
  6
CONTINUOUS
 10
252.4794215796
 20
170.2718471235
 11
222.7206307652
 21
128.3718261311
  0
LINE
  5
2CE
100
AcDbEntity
  8
7_ALL_FEATURES
100
AcDbLine
 62
7
  6
CONTINUOUS
 10
252.4794215796
 20
170.2718471235
 11
252.4794215796
 21
170.8718471235
  0
LINE
  5
2CF
100
AcDbEntity
  8
7_ALL_FEATURES
100
AcDbLine
 62
3
  6
CONTINUOUS
 10
160.4794215796
 20
170.8718471235
 11
252.4794215796
 21
170.8718471235
  0
ARC
  5
2D0
100
AcDbEntity
  8
7_ALL_FEATURES
100
AcDbCircle
 62
3
  6
CONTINUOUS
 10
75.18948074
 20
128.3718471235
 40
42.5
100
AcDbArc
 50
272.6972681339
 51
267.3027318661
  0
ARC
  5
2D1
100
AcDbEntity
  8
7_ALL_FEATURES
100
AcDbCircle
 62
7
  6
CONTINUOUS
 10
75.18948074
 20
128.3718471235
 40
41.9
100
AcDbArc
 50
272.6972681339
 51
267.3027318661
  0
ARC
  5
2D2
100
AcDbEntity
  8
3_ALL_AXES
100
AcDbCircle
 62
7
  6
CONTINUOUS
 10
75.3827230012
 20
79.5565036272
 40
4.1
100
AcDbArc
 50
26.3930257743
 51
63.1366968699
  0
ARC
  5
2D3
100
AcDbEntity
  8
3_ALL_AXES
100
AcDbCircle
 62
7
  6
CONTINUOUS
 10
75.3827230012
 20
79.2716180325
 40
4.1
100
AcDbArc
 50
296.8633031301
 51
333.6069742257
  0
ARC
  5
2D4
100
AcDbEntity
  8
7_ALL_FEATURES
100
AcDbCircle
 62
7
  6
CONTINUOUS
 10
77.2553630929
 20
84.5204830615
 40
2.0
100
AcDbArc
 50
138.2686815881
 51
180.0
  0
ARC
  5
2D5
100
AcDbEntity
  8
7_ALL_FEATURES
100
AcDbCircle
 62
7
  6
CONTINUOUS
 10
73.123598387
 20
84.5204830615
 40
2.0
100
AcDbArc
 50
0.0
 51
41.7313184119
  0
ARC
  5
2D6
100
AcDbEntity
  8
7_ALL_FEATURES
100
AcDbCircle
 62
3
  6
CONTINUOUS
 10
77.2553630929
 20
84.5204830615
 40
1.4
100
AcDbArc
 50
92.6972681339
 51
180.0
  0
ARC
  5
2D7
100
AcDbEntity
  8
7_ALL_FEATURES
100
AcDbCircle
 62
3
  6
CONTINUOUS
 10
73.123598387
 20
84.5204830615
 40
1.4
100
AcDbArc
 50
0.0
 51
87.3027318661
  0
ARC
  5
2D8
100
AcDbEntity
  8
7_ALL_FEATURES
100
AcDbCircle
 62
3
  6
CONTINUOUS
 10
165.9794215796
 20
78.9140608298
 40
5.5
100
AcDbArc
 50
180.0
 51
270.0
  0
ARC
  5
2D9
100
AcDbEntity
  8
7_ALL_FEATURES
100
AcDbCircle
 62
3
  6
CONTINUOUS
 10
167.4947500377
 20
78.9140608298
 40
5.5
100
AcDbArc
 50
270.0
 51
360.0
  0
CIRCLE
  5
2DA
100
AcDbEntity
  8
3_ALL_AXES
100
AcDbCircle
 62
7
  6
CONTINUOUS
 10
166.7370858086
 20
79.4140608298
 40
3.95
  0
CIRCLE
  5
2DB
100
AcDbEntity
  8
7_ALL_FEATURES
100
AcDbCircle
 62
7
  6
CONTINUOUS
 10
166.7370858086
 20
79.4140608298
 40
2.0
  0
CIRCLE
  5
2DC
100
AcDbEntity
  8
7_ALL_FEATURES
100
AcDbCircle
 62
7
  6
CONTINUOUS
 10
166.7370858086
 20
79.4140608298
 40
1.5
  0
SPLINE
  5
2DD
100
AcDbEntity
  8
7_ALL_FEATURES
100
AcDbSpline
 62
3
  6
CONTINUOUS
 70
0
 71
3
 72
20
 73
16
 74
0
 42
0.0000001
 43
0.0000001
 44
0.0000000001
 40
0.0
 40
0.0
 40
0.0
 40
0.0
 40
0.1942714585
 40
0.3810895544
 40
0.5533010207
 40
0.7043101814
 40
0.7700241811
 40
0.8283539156
 40
0.8787473207
 40
0.9207345544
 40
0.9539391148
 40
0.9780988182
 40
0.9931421105
 40
0.9974069061
 40
1.0
 40
1.0
 40
1.0
 40
1.0
 10
192.4947500377
 20
85.8295202646
 30
0.0
 10
192.5272658435
 20
85.8295202646
 30
0.0
 10
192.5910503587
 20
85.8298104417
 30
0.0
 10
192.6836505031
 20
85.8311048117
 30
0.0
 10
192.768993147
 20
85.8332023115
 30
0.0
 10
192.8340477184
 20
85.8356333767
 30
0.0
 10
192.8800246039
 20
85.8379939966
 30
0.0
 10
192.909163708
 20
85.8398188371
 30
0.0
 10
192.9343169529
 20
85.8417594351
 30
0.0
 10
192.9552345235
 20
85.843789109
 30
0.0
 10
192.9717499197
 20
85.8458791746
 30
0.0
 10
192.9836601069
 20
85.8479675928
 30
0.0
 10
192.9907597938
 20
85.8498890715
 30
0.0
 10
192.9940043994
 20
85.8515634806
 30
0.0
 10
192.9947500377
 20
85.8526156623
 30
0.0
 10
192.9947500377
 20
85.8530496763
 30
0.0
  0
SPLINE
  5
2DE
100
AcDbEntity
  8
7_ALL_FEATURES
100
AcDbSpline
 62
3
  6
CONTINUOUS
 70
0
 71
3
 72
20
 73
16
 74
0
 42
0.0000001
 43
0.0000001
 44
0.0000000001
 40
0.0
 40
0.0
 40
0.0
 40
0.0
 40
0.0025930939
 40
0.0068578895
 40
0.0219011818
 40
0.0460608852
 40
0.0792654456
 40
0.1212526793
 40
0.1716460844
 40
0.2299758189
 40
0.2956898186
 40
0.4466989793
 40
0.6189104456
 40
0.8057285415
 40
1.0
 40
1.0
 40
1.0
 40
1.0
 10
173.9947500377
 20
85.8530496763
 30
0.0
 10
173.9947500377
 20
85.8526156623
 30
0.0
 10
173.995495676
 20
85.8515634806
 30
0.0
 10
173.9987402815
 20
85.8498890715
 30
0.0
 10
174.0058399685
 20
85.8479675928
 30
0.0
 10
174.0177501556
 20
85.8458791746
 30
0.0
 10
174.0342655519
 20
85.843789109
 30
0.0
 10
174.0551831225
 20
85.8417594351
 30
0.0
 10
174.0803363673
 20
85.8398188371
 30
0.0
 10
174.1094754714
 20
85.8379939966
 30
0.0
 10
174.1554523569
 20
85.8356333767
 30
0.0
 10
174.2205069283
 20
85.8332023115
 30
0.0
 10
174.3058495722
 20
85.8311048117
 30
0.0
 10
174.3984497166
 20
85.8298104417
 30
0.0
 10
174.4622342319
 20
85.8295202646
 30
0.0
 10
174.4947500377
 20
85.8295202646
 30
0.0
  0
ENDSEC
  0
SECTION
  2
OBJECTS
  0
DICTIONARY
  5
2DF
100
AcDbDictionary
  3
ACAD_GROUP
350
2E0
  3
ACAD_MLINESTYLE
350
2E1
  0
DICTIONARY
  5
2E0
102
{ACAD_REACTORS
330
2DF
102
}
100
AcDbDictionary
  0
DICTIONARY
  5
2E1
102
{ACAD_REACTORS
330
2DF
102
}
100
AcDbDictionary
  3
STANDARD
350
2E2
  0
MLINESTYLE
  5
2E2
102
{ACAD_REACTORS
330
2E1
102
}
100
AcDbMlineStyle
  2
STANDARD
 70
0
  3

 62
256
 51
90.0
 52
90.0
 71
2
 49
0.5
 62
256
  6
BYLAYER
 49
-0.5
 62
256
  6
BYLAYER
  0
ENDSEC
  0
EOF
