999
DXF file: 451_c_061.dxf
999
Pro/ENGINEER 2016360 by Parametric Technology Corporation
  0
SECTION
  2
HEADER
  9
$ACADVER
  1
AC1014
  9
$DWGCODEPAGE
  3
ANSI_1252
  9
$EXTMAX
 10
297.0
 20
210.0
 30
0.0
  9
$EXTMIN
 10
0.0
 20
0.0
 30
0.0
  9
$LIMMIN
 10
0.0
 20
0.0
  9
$LIMMAX
 10
297.0
 20
210.0
  9
$VIEWCTR
 10
148.5
 20
105.0
  9
$VIEWSIZE
 40
210.0
  9
$CLAYER
  8
0
  9
$LTSCALE
 40
16.335
  9
$CELTYPE
  6
BYLAYER
  9
$DIMSCALE
 40
1.0
  9
$DIMASZ
 40
2.5
  9
$DIMEXO
 40
0.75
  9
$DIMDLI
 40
11.286
  9
$DIMEXE
 40
0.75
  9
$DIMCEN
 40
2.673
  9
$DIMLFAC
 40
1.0
  9
$DIMBLK
  1
_CLOSED
  9
$DIMALT
 70
0
  9
$DIMALTF
 40
25.4
  9
$DIMTXT
 40
3.0
  9
$DIMTOL
 70
1
  9
$DIMLIM
 70
0
  9
$DIMTFAC
 40
1.0
  9
$DIMTP
 40
0.01
  9
$DIMTM
 40
0.01
  9
$DIMGAP
 40
0.625
  9
$AUNITS
 70
0
  9
$PDMODE
 70
3
  9
$PDSIZE
 40
0.3125
  9
$HANDSEED
  5
2BE
  9
$TILEMODE
 70
1
  9
$MEASUREMENT
 70
1
  0
ENDSEC
  0
SECTION
  2
CLASSES
  0
ENDSEC
  0
SECTION
  2
TABLES
  0
TABLE
  2
VPORT
  5
8
100
AcDbSymbolTable
 70
2
  0
VPORT
  5
1F4
100
AcDbSymbolTableRecord
100
AcDbViewportTableRecord
  2
*ACTIVE
 70
0
 10
0.0
 20
0.0
 11
1.0
 21
1.0
 12
148.5
 22
105.0
 13
0.0
 23
0.0
 14
1.0
 24
1.0
 15
0.0
 25
0.0
 16
0.0
 26
0.0
 36
1.0
 17
0.0
 27
0.0
 37
0.0
 40
210.0
 41
1.4142857143
 42
50.0
 43
0.0
 44
0.0
 50
0.0
 51
0.0
 71
0
 72
100
 73
1
 74
1
 75
0
 76
0
 77
0
 78
0
  0
ENDTAB
  0
TABLE
  2
LTYPE
  5
5
100
AcDbSymbolTable
 70
6
  0
LTYPE
  5
14
100
AcDbSymbolTableRecord
100
AcDbLinetypeTableRecord
  2
BYBLOCK
 70
0
  3

 72
65
 73
0
 40
0.0
  0
LTYPE
  5
15
100
AcDbSymbolTableRecord
100
AcDbLinetypeTableRecord
  2
BYLAYER
 70
0
  3

 72
65
 73
0
 40
0.0
  0
LTYPE
  5
16
100
AcDbSymbolTableRecord
100
AcDbLinetypeTableRecord
  2
CONTINUOUS
 70
64
  3
Solid line
 72
65
 73
0
 40
0.0
  0
LTYPE
  5
1F5
100
AcDbSymbolTableRecord
100
AcDbLinetypeTableRecord
  2
CENTER
 70
64
  3
____ _ ____ _ ____ _ ____ _ ____ _ ____ _ ____
 72
65
 73
4
 40
0.6
 49
0.375
 74
0
 49
-0.075
 74
0
 49
0.075
 74
0
 49
-0.075
 74
0
  0
LTYPE
  5
1F6
100
AcDbSymbolTableRecord
100
AcDbLinetypeTableRecord
  2
HIDDEN
 70
64
  3
- - - - - - - - - - - - - - - - - - - -
 72
65
 73
2
 40
0.2
 49
0.1
 74
0
 49
-0.1
 74
0
  0
LTYPE
  5
1F7
100
AcDbSymbolTableRecord
100
AcDbLinetypeTableRecord
  2
PHANTOM
 70
64
  3
_____ _ _ _____ _ _ _____ _ _ _____
 72
65
 73
6
 40
0.8
 49
0.45
 74
0
 49
-0.05
 74
0
 49
0.1
 74
0
 49
-0.05
 74
0
 49
0.1
 74
0
 49
-0.05
 74
0
  0
LTYPE
  5
1F8
100
AcDbSymbolTableRecord
100
AcDbLinetypeTableRecord
  2
DOT
 70
64
  3
. . . . . . . . . . . . . . . . . . . .
 72
65
 73
2
 40
0.2
 49
0.1
 74
0
 49
-0.1
 74
0
  0
LTYPE
  5
1F9
100
AcDbSymbolTableRecord
100
AcDbLinetypeTableRecord
  2
DASHED
 70
64
  3
- - - - - - - - - - - - - - - - - - - -
 72
65
 73
2
 40
0.2
 49
0.1
 74
0
 49
-0.1
 74
0
  0
ENDTAB
  0
TABLE
  2
LAYER
  5
2
100
AcDbSymbolTable
 70
36
  0
LAYER
  5
10
100
AcDbSymbolTableRecord
100
AcDbLayerTableRecord
  2
0
 70
0
 62
7
  6
CONTINUOUS
  0
LAYER
  5
1FA
100
AcDbSymbolTableRecord
100
AcDbLayerTableRecord
  2
DEFAULT_1
 70
0
 62
7
  6
CENTER
  0
LAYER
  5
1FB
100
AcDbSymbolTableRecord
100
AcDbLayerTableRecord
  2
DEFAULT_2
 70
0
 62
8
  6
HIDDEN
  0
LAYER
  5
1FC
100
AcDbSymbolTableRecord
100
AcDbLayerTableRecord
  2
DEFAULT_3
 70
0
 62
7
  6
PHANTOM
  0
LAYER
  5
1FD
100
AcDbSymbolTableRecord
100
AcDbLayerTableRecord
  2
01_ALL_DTM_PLN
 70
0
 62
7
  6
CONTINUOUS
  0
LAYER
  5
1FE
100
AcDbSymbolTableRecord
100
AcDbLayerTableRecord
  2
01__ASM_ALL_DTM_PLN
 70
0
 62
7
  6
CONTINUOUS
  0
LAYER
  5
1FF
100
AcDbSymbolTableRecord
100
AcDbLayerTableRecord
  2
01__ASM_DEF_DTM_PLN
 70
0
 62
7
  6
CONTINUOUS
  0
LAYER
  5
200
100
AcDbSymbolTableRecord
100
AcDbLayerTableRecord
  2
01___PRT_ALL_DTM_PLN
 70
0
 62
7
  6
CONTINUOUS
  0
LAYER
  5
201
100
AcDbSymbolTableRecord
100
AcDbLayerTableRecord
  2
01___PRT_DEF_DTM_PLN
 70
0
 62
7
  6
CONTINUOUS
  0
LAYER
  5
202
100
AcDbSymbolTableRecord
100
AcDbLayerTableRecord
  2
02_ALL_AXES
 70
0
 62
7
  6
CONTINUOUS
  0
LAYER
  5
203
100
AcDbSymbolTableRecord
100
AcDbLayerTableRecord
  2
02__ASM_ALL_AXES
 70
0
 62
7
  6
CONTINUOUS
  0
LAYER
  5
204
100
AcDbSymbolTableRecord
100
AcDbLayerTableRecord
  2
02___PRT_ALL_AXES
 70
0
 62
7
  6
CONTINUOUS
  0
LAYER
  5
205
100
AcDbSymbolTableRecord
100
AcDbLayerTableRecord
  2
03_ALL_CURVES
 70
0
 62
7
  6
CONTINUOUS
  0
LAYER
  5
206
100
AcDbSymbolTableRecord
100
AcDbLayerTableRecord
  2
03__ASM_ALL_CURVES
 70
0
 62
7
  6
CONTINUOUS
  0
LAYER
  5
207
100
AcDbSymbolTableRecord
100
AcDbLayerTableRecord
  2
03___PRT_ALL_CURVES
 70
0
 62
7
  6
CONTINUOUS
  0
LAYER
  5
208
100
AcDbSymbolTableRecord
100
AcDbLayerTableRecord
  2
04_ALL_DTM_PNT
 70
0
 62
7
  6
CONTINUOUS
  0
LAYER
  5
209
100
AcDbSymbolTableRecord
100
AcDbLayerTableRecord
  2
04__ASM_ALL_DTM_PNT
 70
0
 62
7
  6
CONTINUOUS
  0
LAYER
  5
20A
100
AcDbSymbolTableRecord
100
AcDbLayerTableRecord
  2
04___PRT_ALL_DTM_PNT
 70
0
 62
7
  6
CONTINUOUS
  0
LAYER
  5
20B
100
AcDbSymbolTableRecord
100
AcDbLayerTableRecord
  2
05_ALL_DTM_CSYS
 70
0
 62
7
  6
CONTINUOUS
  0
LAYER
  5
20C
100
AcDbSymbolTableRecord
100
AcDbLayerTableRecord
  2
05__ASM_ALL_DTM_CSYS
 70
0
 62
7
  6
CONTINUOUS
  0
LAYER
  5
20D
100
AcDbSymbolTableRecord
100
AcDbLayerTableRecord
  2
05__ASM_DEF_DTM_CSYS
 70
0
 62
7
  6
CONTINUOUS
  0
LAYER
  5
20E
100
AcDbSymbolTableRecord
100
AcDbLayerTableRecord
  2
05___PRT_ALL_DTM_CSYS
 70
0
 62
7
  6
CONTINUOUS
  0
LAYER
  5
20F
100
AcDbSymbolTableRecord
100
AcDbLayerTableRecord
  2
05___PRT_DEF_DTM_CSYS
 70
0
 62
7
  6
CONTINUOUS
  0
LAYER
  5
210
100
AcDbSymbolTableRecord
100
AcDbLayerTableRecord
  2
06_ALL_SURFS
 70
0
 62
7
  6
CONTINUOUS
  0
LAYER
  5
211
100
AcDbSymbolTableRecord
100
AcDbLayerTableRecord
  2
06__ASM_ALL_SURFS
 70
0
 62
7
  6
CONTINUOUS
  0
LAYER
  5
212
100
AcDbSymbolTableRecord
100
AcDbLayerTableRecord
  2
06___PRT_ALL_SURFS
 70
0
 62
7
  6
CONTINUOUS
  0
LAYER
  5
213
100
AcDbSymbolTableRecord
100
AcDbLayerTableRecord
  2
07__ASM_ALL_SKELETONS
 70
0
 62
7
  6
CONTINUOUS
  0
LAYER
  5
214
100
AcDbSymbolTableRecord
100
AcDbLayerTableRecord
  2
1_ALL_PLANES
 70
0
 62
7
  6
CONTINUOUS
  0
LAYER
  5
215
100
AcDbSymbolTableRecord
100
AcDbLayerTableRecord
  2
2_ALL_CSYS
 70
0
 62
7
  6
CONTINUOUS
  0
LAYER
  5
216
100
AcDbSymbolTableRecord
100
AcDbLayerTableRecord
  2
3_ALL_AXES
 70
0
 62
7
  6
CONTINUOUS
  0
LAYER
  5
217
100
AcDbSymbolTableRecord
100
AcDbLayerTableRecord
  2
4_ALL_POINTS
 70
0
 62
7
  6
CONTINUOUS
  0
LAYER
  5
218
100
AcDbSymbolTableRecord
100
AcDbLayerTableRecord
  2
5_ALL_CURVES
 70
0
 62
7
  6
CONTINUOUS
  0
LAYER
  5
219
100
AcDbSymbolTableRecord
100
AcDbLayerTableRecord
  2
5__COSTRUZIONE
 70
0
 62
7
  6
CONTINUOUS
  0
LAYER
  5
21A
100
AcDbSymbolTableRecord
100
AcDbLayerTableRecord
  2
6_ALL_SURFS
 70
0
 62
7
  6
CONTINUOUS
  0
LAYER
  5
21B
100
AcDbSymbolTableRecord
100
AcDbLayerTableRecord
  2
7_ALL_FEATURES
 70
0
 62
7
  6
CONTINUOUS
  0
LAYER
  5
21C
100
AcDbSymbolTableRecord
100
AcDbLayerTableRecord
  2
9_SOLID
 70
0
 62
7
  6
CONTINUOUS
  0
LAYER
  5
21D
100
AcDbSymbolTableRecord
100
AcDbLayerTableRecord
  2
XXX_SOLIDO
 70
0
 62
7
  6
CONTINUOUS
  0
ENDTAB
  0
TABLE
  2
STYLE
  5
3
100
AcDbSymbolTable
 70
1
  0
STYLE
  5
11
100
AcDbSymbolTableRecord
100
AcDbTextStyleTableRecord
  2
STANDARD
 70
0
 40
0.0
 41
1.0
 50
0.0
 71
0
 42
0.2
  3
arial.ttf
  4

  0
STYLE
  5
21E
100
AcDbSymbolTableRecord
100
AcDbTextStyleTableRecord
  2
TEXTSTYLE_1
 70
0
 40
0.0
 41
0.8
 50
0.0
 71
0
 42
0.2
  3
gdt
  4

  0
STYLE
  5
21F
100
AcDbSymbolTableRecord
100
AcDbTextStyleTableRecord
  2
TEXTSTYLE_2
 70
0
 40
0.0
 41
0.85
 50
0.0
 71
0
 42
0.2
  3
txt
  4

  0
ENDTAB
  0
TABLE
  2
VIEW
  5
6
100
AcDbSymbolTable
 70
0
  0
ENDTAB
  0
TABLE
  2
UCS
  5
7
100
AcDbSymbolTable
 70
0
  0
ENDTAB
  0
TABLE
  2
APPID
  5
9
100
AcDbSymbolTable
 70
1
  0
APPID
  5
220
100
AcDbSymbolTableRecord
100
AcDbRegAppTableRecord
  2
ACAD
 70
0
  0
ENDTAB
  0
TABLE
  2
BLOCK_RECORD
  5
1
100
AcDbSymbolTable
 70
0
  0
BLOCK_RECORD
  5
1F
100
AcDbSymbolTableRecord
100
AcDbBlockTableRecord
  2
*MODEL_SPACE
  0
BLOCK_RECORD
  5
1B
100
AcDbSymbolTableRecord
100
AcDbBlockTableRecord
  2
*PAPER_SPACE
  0
BLOCK_RECORD
  5
221
100
AcDbSymbolTableRecord
100
AcDbBlockTableRecord
  2
_CLOSED
  0
BLOCK_RECORD
  5
222
100
AcDbSymbolTableRecord
100
AcDbBlockTableRecord
  2
*D0
  0
BLOCK_RECORD
  5
223
100
AcDbSymbolTableRecord
100
AcDbBlockTableRecord
  2
*D1
  0
BLOCK_RECORD
  5
224
100
AcDbSymbolTableRecord
100
AcDbBlockTableRecord
  2
LOGO2_BL0
  0
ENDTAB
  0
TABLE
  2
DIMSTYLE
  5
A
100
AcDbSymbolTable
 70
1
  0
DIMSTYLE
105
225
100
AcDbSymbolTableRecord
100
AcDbDimStyleTableRecord
  2
STANDARD
 70
0
  3

  4

  5
_CLOSED
  6
_CLOSED
  7
_CLOSED
 40
1.0
 41
2.5
 42
0.75
 43
0.38
 44
0.75
 45
0.0
 46
0.0
 47
0.01
 48
0.01
140
3.0
141
0.09
142
0.0
143
25.4
144
1.0
145
0.0
146
1.0
147
0.625
 71
1.0
 72
0.0
 73
0
 74
0
 75
0
 76
0
 77
1
 78
8
 79
2
170
0
171
1
172
0
173
0
174
0
175
0
176
0
177
0
178
0
270
2
179
2
271
2
272
2
273
2
274
2
275
0
280
0
281
0
282
0
283
1
284
8
285
0
286
0
287
3
288
0
340
11
  0
DIMSTYLE
105
226
100
AcDbSymbolTableRecord
100
AcDbDimStyleTableRecord
  2
DIMSTYLE_1
 70
0
  3

  4

  5
_CLOSED
  6
_CLOSED
  7
_CLOSED
 40
1.0
 41
2.5
 42
0.75
 43
0.38
 44
0.75
 45
0.0
 46
0.0
 47
0.3
 48
0.3
140
3.0
141
0.09
142
0.0
143
25.4
144
1.0
145
0.0
146
1.0
147
0.75
 71
0.0
 72
0.0
 73
0
 74
0
 75
0
 76
0
 77
1
 78
8
 79
2
170
0
171
1
172
0
173
0
174
0
175
0
176
0
177
0
178
0
270
2
179
2
271
2
272
2
273
2
274
2
275
0
280
0
281
0
282
0
283
1
284
8
285
0
286
0
287
3
288
0
340
11
  0
ENDTAB
  0
ENDSEC
  0
SECTION
  2
BLOCKS
  0
BLOCK
  5
20
100
AcDbEntity
  8
0
100
AcDbBlockBegin
  2
*MODEL_SPACE
 70
0
 10
0.0
 20
0.0
 30
0.0
  3
*MODEL_SPACE
  1

  0
ENDBLK
  5
21
100
AcDbEntity
  8
0
100
AcDbBlockEnd
  0
BLOCK
  5
1C
100
AcDbEntity
  8
0
100
AcDbBlockBegin
  2
*PAPER_SPACE
 70
0
 10
0.0
 20
0.0
 30
0.0
  3
*PAPER_SPACE
  1

  0
ENDBLK
  5
1D
100
AcDbEntity
  8
0
100
AcDbBlockEnd
  0
BLOCK
  5
227
100
AcDbEntity
  8
0
100
AcDbBlockBegin
 62
2
  6
CONTINUOUS
  2
LOGO2_BL0
 70
64
 10
207.6164605391
 20
39.6725198453
  3
LOGO2_BL0
  1

  0
LINE
  5
228
100
AcDbEntity
  8
0
100
AcDbLine
 62
7
  6
CONTINUOUS
 10
199.3593857673
 20
42.8680111841
 11
198.055044838
 21
42.8680111841
  0
LINE
  5
229
100
AcDbEntity
  8
0
100
AcDbLine
 62
7
  6
CONTINUOUS
 10
198.055044838
 20
42.8680111841
 11
198.055044838
 21
32.4089451242
  0
LINE
  5
22A
100
AcDbEntity
  8
0
100
AcDbLine
 62
7
  6
CONTINUOUS
 10
198.055044838
 20
32.4089451242
 11
202.5360997262
 21
32.4089451242
  0
LINE
  5
22B
100
AcDbEntity
  8
0
100
AcDbLine
 62
7
  6
CONTINUOUS
 10
202.5360997262
 20
32.4089451242
 11
202.5360997262
 21
33.6017994493
  0
LINE
  5
22C
100
AcDbEntity
  8
0
100
AcDbLine
 62
7
  6
CONTINUOUS
 10
202.5360997262
 20
33.6017994493
 11
199.3593857673
 21
33.6017994493
  0
LINE
  5
22D
100
AcDbEntity
  8
0
100
AcDbLine
 62
7
  6
CONTINUOUS
 10
199.3593857673
 20
33.6017994493
 11
199.3593857673
 21
42.8680111841
  0
LINE
  5
22E
100
AcDbEntity
  8
0
100
AcDbLine
 62
7
  6
CONTINUOUS
 10
214.2957119836
 20
42.8680111841
 11
212.9918944656
 21
42.8680111841
  0
LINE
  5
22F
100
AcDbEntity
  8
0
100
AcDbLine
 62
7
  6
CONTINUOUS
 10
212.9918944656
 20
42.8680111841
 11
212.9918944656
 21
32.4089451242
  0
LINE
  5
230
100
AcDbEntity
  8
0
100
AcDbLine
 62
7
  6
CONTINUOUS
 10
212.9918944656
 20
32.4089451242
 11
217.4730802067
 21
32.4089451242
  0
LINE
  5
231
100
AcDbEntity
  8
0
100
AcDbLine
 62
7
  6
CONTINUOUS
 10
217.4730802067
 20
32.4089451242
 11
217.4730802067
 21
33.6017994493
  0
LINE
  5
232
100
AcDbEntity
  8
0
100
AcDbLine
 62
7
  6
CONTINUOUS
 10
217.4730802067
 20
33.6017994493
 11
214.2957119836
 21
33.6017994493
  0
LINE
  5
233
100
AcDbEntity
  8
0
100
AcDbLine
 62
7
  6
CONTINUOUS
 10
214.2957119836
 20
33.6017994493
 11
214.2957119836
 21
42.8680111841
  0
LWPOLYLINE
  5
234
100
AcDbEntity
  8
0
100
AcDbPolyline
 62
7
  6
CONTINUOUS
 90
2
 70
0
 43
0.2
 10
196.4094397489
 20
29.0653938173
 10
196.4094397489
 20
27.208330568
  0
LWPOLYLINE
  5
235
100
AcDbEntity
  8
0
100
AcDbPolyline
 62
7
  6
CONTINUOUS
 90
2
 70
0
 43
0.2
 10
196.4094397489
 20
27.208330568
 10
197.2051557593
 20
27.208330568
  0
LWPOLYLINE
  5
236
100
AcDbEntity
  8
0
100
AcDbPolyline
 62
7
  6
CONTINUOUS
 90
2
 70
0
 43
0.2
 10
197.2051557593
 20
27.208330568
 10
197.2051557593
 20
27.4203121396
  0
LWPOLYLINE
  5
237
100
AcDbEntity
  8
0
100
AcDbPolyline
 62
7
  6
CONTINUOUS
 90
2
 70
0
 43
0.2
 10
197.2051557593
 20
27.4203121396
 10
196.6410492438
 20
27.4203121396
  0
LWPOLYLINE
  5
238
100
AcDbEntity
  8
0
100
AcDbPolyline
 62
7
  6
CONTINUOUS
 90
2
 70
0
 43
0.2
 10
196.6410492438
 20
27.4203121396
 10
196.6410492438
 20
29.0653938173
  0
LWPOLYLINE
  5
239
100
AcDbEntity
  8
0
100
AcDbPolyline
 62
7
  6
CONTINUOUS
 90
2
 70
0
 43
0.2
 10
196.6410492438
 20
29.0653938173
 10
196.4094397489
 20
29.0653938173
  0
SPLINE
  5
23A
100
AcDbEntity
  8
0
100
AcDbSpline
 62
7
  6
CONTINUOUS
 70
2
 71
3
 72
35
 73
31
 74
0
 42
0.0000001
 43
0.0000001
 44
0.0000000001
 40
0.0
 40
0.0
 40
0.0
 40
0.0
 40
1.0
 40
1.0
 40
1.0
 40
2.0
 40
2.0
 40
2.0
 40
3.0
 40
3.0
 40
3.0
 40
4.0
 40
4.0
 40
4.0
 40
5.0
 40
5.0
 40
5.0
 40
6.0
 40
6.0
 40
6.0
 40
7.0
 40
7.0
 40
7.0
 40
8.0
 40
8.0
 40
8.0
 40
9.0
 40
9.0
 40
9.0
 40
10.0
 40
10.0
 40
10.0
 40
10.0
 10
198.6034490148
 20
28.3608822239
 30
0.0
 10
198.6034490148
 20
28.3608822239
 30
0.0
 10
198.6034490148
 20
27.6987669447
 30
0.0
 10
198.6034490148
 20
27.6987669447
 30
0.0
 10
198.6034490148
 20
27.3836733494
 30
0.0
 10
198.7513127037
 20
27.1690747214
 30
0.0
 10
199.0913991879
 20
27.1690747214
 30
0.0
 10
199.430962261
 20
27.1690747214
 30
0.0
 10
199.5790876554
 20
27.3836733494
 30
0.0
 10
199.5790876554
 20
27.6987669447
 30
0.0
 10
199.5790876554
 20
27.6987669447
 30
0.0
 10
199.5790876554
 20
28.3608822239
 30
0.0
 10
199.5790876554
 20
28.3608822239
 30
0.0
 10
199.5790876554
 20
28.3608822239
 30
0.0
 10
199.3570304165
 20
28.3608822239
 30
0.0
 10
199.3570304165
 20
28.3608822239
 30
0.0
 10
199.3570304165
 20
28.3608822239
 30
0.0
 10
199.3570304165
 20
27.7238906865
 30
0.0
 10
199.3570304165
 20
27.7238906865
 30
0.0
 10
199.3570304165
 20
27.5380796793
 30
0.0
 10
199.3103159591
 20
27.3752987688
 30
0.0
 10
199.0913991879
 20
27.3752987688
 30
0.0
 10
198.8719590055
 20
27.3752987688
 30
0.0
 10
198.8252445481
 20
27.5380796793
 30
0.0
 10
198.8252445481
 20
27.7238906865
 30
0.0
 10
198.8252445481
 20
27.7238906865
 30
0.0
 10
198.8252445481
 20
28.3608822239
 30
0.0
 10
198.8252445481
 20
28.3608822239
 30
0.0
 10
198.8252445481
 20
28.3608822239
 30
0.0
 10
198.6034490148
 20
28.3608822239
 30
0.0
 10
198.6034490148
 20
28.3608822239
 30
0.0
  0
SPLINE
  5
23B
100
AcDbEntity
  8
0
100
AcDbSpline
 62
7
  6
CONTINUOUS
 70
2
 71
3
 72
35
 73
31
 74
0
 42
0.0000001
 43
0.0000001
 44
0.0000000001
 40
0.0
 40
0.0
 40
0.0
 40
0.0
 40
1.0
 40
1.0
 40
1.0
 40
2.0
 40
2.0
 40
2.0
 40
3.0
 40
3.0
 40
3.0
 40
4.0
 40
4.0
 40
4.0
 40
5.0
 40
5.0
 40
5.0
 40
6.0
 40
6.0
 40
6.0
 40
7.0
 40
7.0
 40
7.0
 40
8.0
 40
8.0
 40
8.0
 40
9.0
 40
9.0
 40
9.0
 40
10.0
 40
10.0
 40
10.0
 40
10.0
 10
202.0022202126
 20
28.3195327321
 30
0.0
 10
201.913763705
 20
28.3708270383
 30
0.0
 10
201.8003143083
 20
28.3959507801
 30
0.0
 10
201.6966788733
 20
28.3959507801
 30
0.0
 10
201.3418060201
 20
28.3959507801
 30
0.0
 10
201.0663608299
 20
28.1321514911
 30
0.0
 10
201.0663608299
 20
27.7746615814
 30
0.0
 10
201.0663608299
 20
27.4297335427
 30
0.0
 10
201.344815635
 20
27.1695981327
 30
0.0
 10
201.6843787081
 20
27.1695981327
 30
0.0
 10
201.8003143083
 20
27.1695981327
 30
0.0
 10
201.9010709812
 20
27.1915814068
 30
0.0
 10
202.0022202126
 20
27.2454927694
 30
0.0
 10
202.0022202126
 20
27.2454927694
 30
0.0
 10
202.0022202126
 20
27.5281348649
 30
0.0
 10
202.0022202126
 20
27.5281348649
 30
0.0
 10
201.9183435537
 20
27.4349676556
 30
0.0
 10
201.8148389716
 20
27.3758221801
 30
0.0
 10
201.6867340588
 20
27.3758221801
 30
0.0
 10
201.4530309188
 20
27.3758221801
 30
0.0
 10
201.2877638047
 20
27.5480244938
 30
0.0
 10
201.2877638047
 20
27.7846063959
 30
0.0
 10
201.2877638047
 20
27.9965879675
 30
0.0
 10
201.4555171224
 20
28.1886799102
 30
0.0
 10
201.6723402484
 20
28.1886799102
 30
0.0
 10
201.8051558627
 20
28.1886799102
 30
0.0
 10
201.913763705
 20
28.1347685475
 30
0.0
 10
202.0022202126
 20
28.0337501689
 30
0.0
 10
202.0022202126
 20
28.0337501689
 30
0.0
 10
202.0022202126
 20
28.3195327321
 30
0.0
 10
202.0022202126
 20
28.3195327321
 30
0.0
  0
SPLINE
  5
23C
100
AcDbEntity
  8
0
100
AcDbSpline
 62
7
  6
CONTINUOUS
 70
2
 71
3
 72
32
 73
28
 74
0
 42
0.0000001
 43
0.0000001
 44
0.0000000001
 40
0.0
 40
0.0
 40
0.0
 40
0.0
 40
1.0
 40
1.0
 40
1.0
 40
2.0
 40
2.0
 40
2.0
 40
3.0
 40
3.0
 40
3.0
 40
4.0
 40
4.0
 40
4.0
 40
5.0
 40
5.0
 40
5.0
 40
6.0
 40
6.0
 40
6.0
 40
7.0
 40
7.0
 40
7.0
 40
8.0
 40
8.0
 40
8.0
 40
9.0
 40
9.0
 40
9.0
 40
9.0
 10
204.5340914649
 20
27.7479676058
 30
0.0
 10
204.5340914649
 20
27.7479676058
 30
0.0
 10
204.5340914649
 20
27.7819893395
 30
0.0
 10
204.5340914649
 20
27.7819893395
 30
0.0
 10
204.5340914649
 20
28.1243003217
 30
0.0
 10
204.361234887
 20
28.3959507801
 30
0.0
 10
203.9945852799
 20
28.3959507801
 30
0.0
 10
203.6229632655
 20
28.3959507801
 30
0.0
 10
203.4332266736
 20
28.1295344346
 30
0.0
 10
203.4332266736
 20
27.7746615814
 30
0.0
 10
203.4332266736
 20
27.4349676556
 30
0.0
 10
203.6473018904
 20
27.1690747214
 30
0.0
 10
203.9994268343
 20
27.1690747214
 30
0.0
 10
204.2234468655
 20
27.1690747214
 30
0.0
 10
204.4256144755
 20
27.284748616
 30
0.0
 10
204.5340914649
 20
27.4841683167
 30
0.0
 10
204.5340914649
 20
27.4841683167
 30
0.0
 10
204.3464485182
 20
27.5909442194
 30
0.0
 10
204.3464485182
 20
27.5909442194
 30
0.0
 10
204.2629644177
 20
27.4522402281
 30
0.0
 10
204.1717600008
 20
27.3664007769
 30
0.0
 10
204.0021747436
 20
27.3664007769
 30
0.0
 10
203.790193172
 20
27.3664007769
 30
0.0
 10
203.6572467049
 20
27.5511649615
 30
0.0
 10
203.6548913541
 20
27.7479676058
 30
0.0
 10
203.6548913541
 20
27.7479676058
 30
0.0
 10
204.5340914649
 20
27.7479676058
 30
0.0
 10
204.5340914649
 20
27.7479676058
 30
0.0
  0
SPLINE
  5
23D
100
AcDbEntity
  8
0
100
AcDbSpline
 62
7
  6
CONTINUOUS
 70
2
 71
3
 72
14
 73
10
 74
0
 42
0.0000001
 43
0.0000001
 44
0.0000000001
 40
0.0
 40
0.0
 40
0.0
 40
0.0
 40
1.0
 40
1.0
 40
1.0
 40
2.0
 40
2.0
 40
2.0
 40
3.0
 40
3.0
 40
3.0
 40
3.0
 10
203.6669298137
 20
27.9154592179
 30
0.0
 10
203.6945397591
 20
28.0803337736
 30
0.0
 10
203.8223829662
 20
28.2033354262
 30
0.0
 10
203.9945852799
 20
28.2033354262
 30
0.0
 10
204.1717600008
 20
28.2033354262
 30
0.0
 10
204.2852093975
 20
28.0876615316
 30
0.0
 10
204.3124267844
 20
27.9154592179
 30
0.0
 10
204.3124267844
 20
27.9154592179
 30
0.0
 10
203.6669298137
 20
27.9154592179
 30
0.0
 10
203.6669298137
 20
27.9154592179
 30
0.0
  0
SPLINE
  5
23E
100
AcDbEntity
  8
0
100
AcDbSpline
 62
7
  6
CONTINUOUS
 70
2
 71
3
 72
20
 73
16
 74
0
 42
0.0000001
 43
0.0000001
 44
0.0000000001
 40
0.0
 40
0.0
 40
0.0
 40
0.0
 40
1.0
 40
1.0
 40
1.0
 40
2.0
 40
2.0
 40
2.0
 40
3.0
 40
3.0
 40
3.0
 40
4.0
 40
4.0
 40
4.0
 40
5.0
 40
5.0
 40
5.0
 40
5.0
 10
206.5581229151
 20
28.124823733
 30
0.0
 10
206.5581229151
 20
28.124823733
 30
0.0
 10
206.9692624817
 20
27.6223488967
 30
0.0
 10
206.9692624817
 20
27.6223488967
 30
0.0
 10
206.8531960286
 20
27.5066750021
 30
0.0
 10
206.7154080071
 20
27.3763455914
 30
0.0
 10
206.543467399
 20
27.3763455914
 30
0.0
 10
206.3660309724
 20
27.3763455914
 30
0.0
 10
206.1985393603
 20
27.5406967358
 30
0.0
 10
206.1985393603
 20
27.7176097511
 30
0.0
 10
206.1985393603
 20
27.8955695889
 30
0.0
 10
206.4082964339
 20
28.0217117093
 30
0.0
 10
206.5358779353
 20
28.1096448057
 30
0.0
 10
206.5358779353
 20
28.1096448057
 30
0.0
 10
206.5581229151
 20
28.124823733
 30
0.0
 10
206.5581229151
 20
28.124823733
 30
0.0
  0
SPLINE
  5
23F
100
AcDbEntity
  8
0
100
AcDbSpline
 62
7
  6
CONTINUOUS
 70
2
 71
3
 72
23
 73
19
 74
0
 42
0.0000001
 43
0.0000001
 44
0.0000000001
 40
0.0
 40
0.0
 40
0.0
 40
0.0
 40
1.0
 40
1.0
 40
1.0
 40
2.0
 40
2.0
 40
2.0
 40
3.0
 40
3.0
 40
3.0
 40
4.0
 40
4.0
 40
4.0
 40
5.0
 40
5.0
 40
5.0
 40
6.0
 40
6.0
 40
6.0
 40
6.0
 10
206.6074544289
 20
28.4158404091
 30
0.0
 10
206.6074544289
 20
28.4158404091
 30
0.0
 10
206.5458227498
 20
28.4943521023
 30
0.0
 10
206.5458227498
 20
28.4943521023
 30
0.0
 10
206.4919113871
 20
28.562918981
 30
0.0
 10
206.4351212624
 20
28.632009271
 30
0.0
 10
206.4351212624
 20
28.7256998915
 30
0.0
 10
206.4351212624
 20
28.8445142539
 30
0.0
 10
206.5310363809
 20
28.9219791245
 30
0.0
 10
206.6419995739
 20
28.9219791245
 30
0.0
 10
206.7652629322
 20
28.9219791245
 30
0.0
 10
206.8585609943
 20
28.8507951893
 30
0.0
 10
206.8585609943
 20
28.7204657786
 30
0.0
 10
206.8585609943
 20
28.5854256664
 30
0.0
 10
206.7304560816
 20
28.5090076183
 30
0.0
 10
206.6368963139
 20
28.4352066267
 30
0.0
 10
206.6368963139
 20
28.4352066267
 30
0.0
 10
206.6074544289
 20
28.4158404091
 30
0.0
 10
206.6074544289
 20
28.4158404091
 30
0.0
  0
SPLINE
  5
240
100
AcDbEntity
  8
0
100
AcDbSpline
 62
7
  6
CONTINUOUS
 70
2
 71
3
 72
50
 73
46
 74
0
 42
0.0000001
 43
0.0000001
 44
0.0000000001
 40
0.0
 40
0.0
 40
0.0
 40
0.0
 40
1.0
 40
1.0
 40
1.0
 40
2.0
 40
2.0
 40
2.0
 40
3.0
 40
3.0
 40
3.0
 40
4.0
 40
4.0
 40
4.0
 40
5.0
 40
5.0
 40
5.0
 40
6.0
 40
6.0
 40
6.0
 40
7.0
 40
7.0
 40
7.0
 40
8.0
 40
8.0
 40
8.0
 40
9.0
 40
9.0
 40
9.0
 40
10.0
 40
10.0
 40
10.0
 40
11.0
 40
11.0
 40
11.0
 40
12.0
 40
12.0
 40
12.0
 40
13.0
 40
13.0
 40
13.0
 40
14.0
 40
14.0
 40
14.0
 40
15.0
 40
15.0
 40
15.0
 40
15.0
 10
207.3096106716
 20
27.2088539793
 30
0.0
 10
207.3096106716
 20
27.2088539793
 30
0.0
 10
207.5950006763
 20
27.2088539793
 30
0.0
 10
207.5950006763
 20
27.2088539793
 30
0.0
 10
207.5950006763
 20
27.2088539793
 30
0.0
 10
207.2626345085
 20
27.6197318402
 30
0.0
 10
207.2626345085
 20
27.6197318402
 30
0.0
 10
207.2626345085
 20
27.6197318402
 30
0.0
 10
207.4891407434
 20
27.8856247745
 30
0.0
 10
207.4891407434
 20
27.8856247745
 30
0.0
 10
207.4891407434
 20
27.8856247745
 30
0.0
 10
207.3408844961
 20
28.0384608705
 30
0.0
 10
207.3408844961
 20
28.0384608705
 30
0.0
 10
207.3408844961
 20
28.0384608705
 30
0.0
 10
207.1249773398
 20
27.7872234524
 30
0.0
 10
207.1249773398
 20
27.7872234524
 30
0.0
 10
207.1249773398
 20
27.7872234524
 30
0.0
 10
206.7379146924
 20
28.2551531437
 30
0.0
 10
206.7379146924
 20
28.2551531437
 30
0.0
 10
206.8933678449
 20
28.3692568045
 30
0.0
 10
207.0756458259
 20
28.5090076183
 30
0.0
 10
207.0756458259
 20
28.7183721335
 30
0.0
 10
207.0756458259
 20
28.9622817936
 30
0.0
 10
206.8736090688
 20
29.1056964865
 30
0.0
 10
206.647102834
 20
29.1056964865
 30
0.0
 10
206.4029314682
 20
29.1056964865
 30
0.0
 10
206.2185598421
 20
28.9549540356
 30
0.0
 10
206.2185598421
 20
28.6984825045
 30
0.0
 10
206.2185598421
 20
28.5409357069
 30
0.0
 10
206.3172228698
 20
28.4032785382
 30
0.0
 10
206.4225593915
 20
28.2923153452
 30
0.0
 10
206.4225593915
 20
28.2923153452
 30
0.0
 10
206.3070163497
 20
28.2085695391
 30
0.0
 10
206.3070163497
 20
28.2085695391
 30
0.0
 10
206.1293182175
 20
28.0803337736
 30
0.0
 10
205.9819779399
 20
27.9526214193
 30
0.0
 10
205.9819779399
 20
27.7155161059
 30
0.0
 10
205.9819779399
 20
27.3951883977
 30
0.0
 10
206.2405431161
 20
27.1690747214
 30
0.0
 10
206.5509260098
 20
27.1690747214
 30
0.0
 10
206.769842781
 20
27.1690747214
 30
0.0
 10
206.9670379837
 20
27.2941700192
 30
0.0
 10
207.1073122089
 20
27.4600913974
 30
0.0
 10
207.1073122089
 20
27.4600913974
 30
0.0
 10
207.3096106716
 20
27.2088539793
 30
0.0
 10
207.3096106716
 20
27.2088539793
 30
0.0
  0
LWPOLYLINE
  5
241
100
AcDbEntity
  8
0
100
AcDbPolyline
 62
7
  6
CONTINUOUS
 90
2
 70
0
 43
0.2
 10
209.2450547613
 20
29.0653938173
 10
209.0137069721
 20
29.0653938173
  0
LWPOLYLINE
  5
242
100
AcDbEntity
  8
0
100
AcDbPolyline
 62
7
  6
CONTINUOUS
 90
2
 70
0
 43
0.2
 10
209.0137069721
 20
29.0653938173
 10
209.0137069721
 20
27.208330568
  0
LWPOLYLINE
  5
243
100
AcDbEntity
  8
0
100
AcDbPolyline
 62
7
  6
CONTINUOUS
 90
2
 70
0
 43
0.2
 10
209.0137069721
 20
27.208330568
 10
209.809030424
 20
27.208330568
  0
LWPOLYLINE
  5
244
100
AcDbEntity
  8
0
100
AcDbPolyline
 62
7
  6
CONTINUOUS
 90
2
 70
0
 43
0.2
 10
209.809030424
 20
27.208330568
 10
209.809030424
 20
27.4203121396
  0
LWPOLYLINE
  5
245
100
AcDbEntity
  8
0
100
AcDbPolyline
 62
7
  6
CONTINUOUS
 90
2
 70
0
 43
0.2
 10
209.809030424
 20
27.4203121396
 10
209.2450547613
 20
27.4203121396
  0
LWPOLYLINE
  5
246
100
AcDbEntity
  8
0
100
AcDbPolyline
 62
7
  6
CONTINUOUS
 90
2
 70
0
 43
0.2
 10
209.2450547613
 20
27.4203121396
 10
209.2450547613
 20
29.0653938173
  0
LWPOLYLINE
  5
247
100
AcDbEntity
  8
0
100
AcDbPolyline
 62
7
  6
CONTINUOUS
 90
2
 70
0
 43
0.2
 10
211.4881338355
 20
28.3608822239
 10
211.2669925664
 20
28.3608822239
  0
LWPOLYLINE
  5
248
100
AcDbEntity
  8
0
100
AcDbPolyline
 62
7
  6
CONTINUOUS
 90
2
 70
0
 43
0.2
 10
211.2669925664
 20
28.3608822239
 10
211.2669925664
 20
27.2088539793
  0
LWPOLYLINE
  5
249
100
AcDbEntity
  8
0
100
AcDbPolyline
 62
7
  6
CONTINUOUS
 90
2
 70
0
 43
0.2
 10
211.2669925664
 20
27.2088539793
 10
211.4881338355
 20
27.2088539793
  0
LWPOLYLINE
  5
24A
100
AcDbEntity
  8
0
100
AcDbPolyline
 62
7
  6
CONTINUOUS
 90
2
 70
0
 43
0.2
 10
211.4881338355
 20
27.2088539793
 10
211.4881338355
 20
28.3608822239
  0
SPLINE
  5
24B
100
AcDbEntity
  8
0
100
AcDbSpline
 62
7
  6
CONTINUOUS
 70
2
 71
3
 72
17
 73
13
 74
0
 42
0.0000001
 43
0.0000001
 44
0.0000000001
 40
0.0
 40
0.0
 40
0.0
 40
0.0
 40
1.0
 40
1.0
 40
1.0
 40
2.0
 40
2.0
 40
2.0
 40
3.0
 40
3.0
 40
3.0
 40
4.0
 40
4.0
 40
4.0
 40
4.0
 10
211.3776940538
 20
29.0434105432
 30
0.0
 10
211.2936865421
 20
29.0434105432
 30
0.0
 10
211.2251196633
 20
28.9743202532
 30
0.0
 10
211.2251196633
 20
28.888480802
 30
0.0
 10
211.2251196633
 20
28.8042115847
 30
0.0
 10
211.2936865421
 20
28.7382617624
 30
0.0
 10
211.3776940538
 20
28.7382617624
 30
0.0
 10
211.4614398598
 20
28.7382617624
 30
0.0
 10
211.5302684442
 20
28.8042115847
 30
0.0
 10
211.5302684442
 20
28.888480802
 30
0.0
 10
211.5302684442
 20
28.9743202532
 30
0.0
 10
211.4614398598
 20
29.0434105432
 30
0.0
 10
211.3776940538
 20
29.0434105432
 30
0.0
  0
SPLINE
  5
24C
100
AcDbEntity
  8
0
100
AcDbSpline
 62
7
  6
CONTINUOUS
 70
2
 71
3
 72
17
 73
13
 74
0
 42
0.0000001
 43
0.0000001
 44
0.0000000001
 40
0.0
 40
0.0
 40
0.0
 40
0.0
 40
1.0
 40
1.0
 40
1.0
 40
2.0
 40
2.0
 40
2.0
 40
3.0
 40
3.0
 40
3.0
 40
4.0
 40
4.0
 40
4.0
 40
4.0
 10
213.6184177771
 20
27.3664007769
 30
0.0
 10
213.3844529315
 20
27.3664007769
 30
0.0
 10
213.2541235208
 20
27.568437534
 30
0.0
 10
213.2541235208
 20
27.7846063959
 30
0.0
 10
213.2541235208
 20
27.9992050239
 30
0.0
 10
213.38994875
 20
28.1981013133
 30
0.0
 10
213.6184177771
 20
28.1981013133
 30
0.0
 10
213.8578784413
 20
28.1981013133
 30
0.0
 10
213.9934419649
 20
28.0091498384
 30
0.0
 10
213.9934419649
 20
27.7846063959
 30
0.0
 10
213.9934419649
 20
27.5584927196
 30
0.0
 10
213.8602337921
 20
27.3664007769
 30
0.0
 10
213.6184177771
 20
27.3664007769
 30
0.0
  0
SPLINE
  5
24D
100
AcDbEntity
  8
0
100
AcDbSpline
 62
7
  6
CONTINUOUS
 70
2
 71
3
 72
50
 73
46
 74
0
 42
0.0000001
 43
0.0000001
 44
0.0000000001
 40
0.0
 40
0.0
 40
0.0
 40
0.0
 40
1.0
 40
1.0
 40
1.0
 40
2.0
 40
2.0
 40
2.0
 40
3.0
 40
3.0
 40
3.0
 40
4.0
 40
4.0
 40
4.0
 40
5.0
 40
5.0
 40
5.0
 40
6.0
 40
6.0
 40
6.0
 40
7.0
 40
7.0
 40
7.0
 40
8.0
 40
8.0
 40
8.0
 40
9.0
 40
9.0
 40
9.0
 40
10.0
 40
10.0
 40
10.0
 40
11.0
 40
11.0
 40
11.0
 40
12.0
 40
12.0
 40
12.0
 40
13.0
 40
13.0
 40
13.0
 40
14.0
 40
14.0
 40
14.0
 40
15.0
 40
15.0
 40
15.0
 40
15.0
 10
214.2025447744
 20
28.3614056352
 30
0.0
 10
214.2025447744
 20
28.3614056352
 30
0.0
 10
213.980880094
 20
28.3614056352
 30
0.0
 10
213.980880094
 20
28.3614056352
 30
0.0
 10
213.980880094
 20
28.3614056352
 30
0.0
 10
213.980880094
 20
28.1640795796
 30
0.0
 10
213.980880094
 20
28.1640795796
 30
0.0
 10
213.980880094
 20
28.1640795796
 30
0.0
 10
213.9761693924
 20
28.1640795796
 30
0.0
 10
213.9761693924
 20
28.1640795796
 30
0.0
 10
213.8848341227
 20
28.3069708612
 30
0.0
 10
213.7469152483
 20
28.3954273689
 30
0.0
 10
213.5741895233
 20
28.3954273689
 30
0.0
 10
213.2418233555
 20
28.3954273689
 30
0.0
 10
213.032720546
 20
28.1075511605
 30
0.0
 10
213.032720546
 20
27.7919341539
 30
0.0
 10
213.032720546
 20
27.4621850426
 30
0.0
 10
213.2297848959
 20
27.1690747214
 30
0.0
 10
213.5846577491
 20
27.1690747214
 30
0.0
 10
213.7469152483
 20
27.1690747214
 30
0.0
 10
213.8869277678
 20
27.257531229
 30
0.0
 10
213.9761693924
 20
27.388384051
 30
0.0
 10
213.9761693924
 20
27.388384051
 30
0.0
 10
213.980880094
 20
27.388384051
 30
0.0
 10
213.980880094
 20
27.388384051
 30
0.0
 10
213.980880094
 20
27.388384051
 30
0.0
 10
213.980880094
 20
27.1690747214
 30
0.0
 10
213.980880094
 20
27.1690747214
 30
0.0
 10
213.980880094
 20
26.9324928193
 30
0.0
 10
213.9243516749
 20
26.7456349895
 30
0.0
 10
213.6511309826
 20
26.7456349895
 30
0.0
 10
213.4488325199
 20
26.7456349895
 30
0.0
 10
213.3062029439
 20
26.8639259406
 30
0.0
 10
213.3062029439
 20
27.070149988
 30
0.0
 10
213.3062029439
 20
27.070149988
 30
0.0
 10
213.0845382635
 20
27.070149988
 30
0.0
 10
213.0845382635
 20
27.070149988
 30
0.0
 10
213.0895106707
 20
26.7456349895
 30
0.0
 10
213.3205967543
 20
26.5488323453
 30
0.0
 10
213.6409244625
 20
26.5488323453
 30
0.0
 10
214.0889645249
 20
26.5488323453
 30
0.0
 10
214.2025447744
 20
26.8340914971
 30
0.0
 10
214.2025447744
 20
27.2308372534
 30
0.0
 10
214.2025447744
 20
27.2308372534
 30
0.0
 10
214.2025447744
 20
28.3614056352
 30
0.0
 10
214.2025447744
 20
28.3614056352
 30
0.0
  0
SPLINE
  5
24E
100
AcDbEntity
  8
0
100
AcDbSpline
 62
7
  6
CONTINUOUS
 70
2
 71
3
 72
44
 73
40
 74
0
 42
0.0000001
 43
0.0000001
 44
0.0000000001
 40
0.0
 40
0.0
 40
0.0
 40
0.0
 40
1.0
 40
1.0
 40
1.0
 40
2.0
 40
2.0
 40
2.0
 40
3.0
 40
3.0
 40
3.0
 40
4.0
 40
4.0
 40
4.0
 40
5.0
 40
5.0
 40
5.0
 40
6.0
 40
6.0
 40
6.0
 40
7.0
 40
7.0
 40
7.0
 40
8.0
 40
8.0
 40
8.0
 40
9.0
 40
9.0
 40
9.0
 40
10.0
 40
10.0
 40
10.0
 40
11.0
 40
11.0
 40
11.0
 40
12.0
 40
12.0
 40
12.0
 40
13.0
 40
13.0
 40
13.0
 40
13.0
 10
215.7714701098
 20
29.3464656789
 30
0.0
 10
215.7714701098
 20
29.3464656789
 30
0.0
 10
215.7714701098
 20
27.208330568
 30
0.0
 10
215.7714701098
 20
27.208330568
 30
0.0
 10
215.7714701098
 20
27.208330568
 30
0.0
 10
215.9928730846
 20
27.208330568
 30
0.0
 10
215.9928730846
 20
27.208330568
 30
0.0
 10
215.9928730846
 20
27.208330568
 30
0.0
 10
215.9928730846
 20
27.7380227913
 30
0.0
 10
215.9928730846
 20
27.7380227913
 30
0.0
 10
215.9928730846
 20
27.9479107177
 30
0.0
 10
215.9928730846
 20
28.1986247246
 30
0.0
 10
216.2781322364
 20
28.1986247246
 30
0.0
 10
216.5050310297
 20
28.1986247246
 30
0.0
 10
216.5319867111
 20
28.0656782575
 30
0.0
 10
216.5319867111
 20
27.8693990246
 30
0.0
 10
216.5319867111
 20
27.8693990246
 30
0.0
 10
216.5319867111
 20
27.208330568
 30
0.0
 10
216.5319867111
 20
27.208330568
 30
0.0
 10
216.5319867111
 20
27.208330568
 30
0.0
 10
216.7539130971
 20
27.208330568
 30
0.0
 10
216.7539130971
 20
27.208330568
 30
0.0
 10
216.7539130971
 20
27.208330568
 30
0.0
 10
216.7539130971
 20
27.8955695889
 30
0.0
 10
216.7539130971
 20
27.8955695889
 30
0.0
 10
216.7539130971
 20
28.1761180392
 30
0.0
 10
216.6699055854
 20
28.3959507801
 30
0.0
 10
216.3448671757
 20
28.3959507801
 30
0.0
 10
216.2051163618
 20
28.3959507801
 30
0.0
 10
216.0669357818
 20
28.3294775466
 30
0.0
 10
215.9975837861
 20
28.2064758939
 30
0.0
 10
215.9975837861
 20
28.2064758939
 30
0.0
 10
215.9928730846
 20
28.2064758939
 30
0.0
 10
215.9928730846
 20
28.2064758939
 30
0.0
 10
215.9928730846
 20
28.2064758939
 30
0.0
 10
215.9928730846
 20
29.3464656789
 30
0.0
 10
215.9928730846
 20
29.3464656789
 30
0.0
 10
215.9928730846
 20
29.3464656789
 30
0.0
 10
215.7714701098
 20
29.3464656789
 30
0.0
 10
215.7714701098
 20
29.3464656789
 30
0.0
  0
LWPOLYLINE
  5
24F
100
AcDbEntity
  8
0
100
AcDbPolyline
 62
7
  6
CONTINUOUS
 90
2
 70
0
 43
0.2
 10
218.593703774
 20
28.1541347652
 10
218.8101343415
 20
28.1541347652
  0
LWPOLYLINE
  5
250
100
AcDbEntity
  8
0
100
AcDbPolyline
 62
7
  6
CONTINUOUS
 90
2
 70
0
 43
0.2
 10
218.8101343415
 20
28.1541347652
 10
218.8101343415
 20
28.3608822239
  0
LWPOLYLINE
  5
251
100
AcDbEntity
  8
0
100
AcDbPolyline
 62
7
  6
CONTINUOUS
 90
2
 70
0
 43
0.2
 10
218.8101343415
 20
28.3608822239
 10
218.593703774
 20
28.3608822239
  0
LWPOLYLINE
  5
252
100
AcDbEntity
  8
0
100
AcDbPolyline
 62
7
  6
CONTINUOUS
 90
2
 70
0
 43
0.2
 10
218.593703774
 20
28.3608822239
 10
218.593703774
 20
28.8015945282
  0
LWPOLYLINE
  5
253
100
AcDbEntity
  8
0
100
AcDbPolyline
 62
7
  6
CONTINUOUS
 90
2
 70
0
 43
0.2
 10
218.593703774
 20
28.8015945282
 10
218.3720390936
 20
28.8015945282
  0
LWPOLYLINE
  5
254
100
AcDbEntity
  8
0
100
AcDbPolyline
 62
7
  6
CONTINUOUS
 90
2
 70
0
 43
0.2
 10
218.3720390936
 20
28.8015945282
 10
218.3720390936
 20
28.3608822239
  0
LWPOLYLINE
  5
255
100
AcDbEntity
  8
0
100
AcDbPolyline
 62
7
  6
CONTINUOUS
 90
2
 70
0
 43
0.2
 10
218.3720390936
 20
28.3608822239
 10
218.2513927917
 20
28.3608822239
  0
LWPOLYLINE
  5
256
100
AcDbEntity
  8
0
100
AcDbPolyline
 62
7
  6
CONTINUOUS
 90
2
 70
0
 43
0.2
 10
218.2513927917
 20
28.3608822239
 10
218.2513927917
 20
28.1541347652
  0
LWPOLYLINE
  5
257
100
AcDbEntity
  8
0
100
AcDbPolyline
 62
7
  6
CONTINUOUS
 90
2
 70
0
 43
0.2
 10
218.2513927917
 20
28.1541347652
 10
218.3720390936
 20
28.1541347652
  0
LWPOLYLINE
  5
258
100
AcDbEntity
  8
0
100
AcDbPolyline
 62
7
  6
CONTINUOUS
 90
2
 70
0
 43
0.2
 10
218.3720390936
 20
28.1541347652
 10
218.3720390936
 20
27.208330568
  0
LWPOLYLINE
  5
259
100
AcDbEntity
  8
0
100
AcDbPolyline
 62
7
  6
CONTINUOUS
 90
2
 70
0
 43
0.2
 10
218.3720390936
 20
27.208330568
 10
218.593703774
 20
27.208330568
  0
LWPOLYLINE
  5
25A
100
AcDbEntity
  8
0
100
AcDbPolyline
 62
7
  6
CONTINUOUS
 90
2
 70
0
 43
0.2
 10
218.593703774
 20
27.208330568
 10
218.593703774
 20
28.1541347652
  0
SPLINE
  5
25B
100
AcDbEntity
  8
0
100
AcDbSpline
 62
7
  6
CONTINUOUS
 70
2
 71
3
 72
20
 73
16
 74
0
 42
0.0000001
 43
0.0000001
 44
0.0000000001
 40
0.0
 40
0.0
 40
0.0
 40
0.0
 40
1.0
 40
1.0
 40
1.0
 40
2.0
 40
2.0
 40
2.0
 40
3.0
 40
3.0
 40
3.0
 40
4.0
 40
4.0
 40
4.0
 40
5.0
 40
5.0
 40
5.0
 40
5.0
 10
206.3757140812
 20
37.5692570114
 30
0.0
 10
206.3757140812
 20
37.5692570114
 30
0.0
 10
208.6920707357
 20
34.7396955891
 30
0.0
 10
208.6920707357
 20
34.7396955891
 30
0.0
 10
208.0404236823
 20
34.0875251244
 30
0.0
 10
207.2635504783
 20
33.3516088537
 30
0.0
 10
206.2923608336
 20
33.3516088537
 30
0.0
 10
205.2938229492
 20
33.3516088537
 30
0.0
 10
204.3505049556
 20
34.281187301
 30
0.0
 10
204.3505049556
 20
35.2803794495
 30
0.0
 10
204.3505049556
 20
36.279571598
 30
0.0
 10
205.5293580287
 20
36.9861768367
 30
0.0
 10
206.2508804891
 20
37.4860346166
 30
0.0
 10
206.2508804891
 20
37.4860346166
 30
0.0
 10
206.3757140812
 20
37.5692570114
 30
0.0
 10
206.3757140812
 20
37.5692570114
 30
0.0
  0
SPLINE
  5
25C
100
AcDbEntity
  8
0
100
AcDbSpline
 62
7
  6
CONTINUOUS
 70
2
 71
3
 72
23
 73
19
 74
0
 42
0.0000001
 43
0.0000001
 44
0.0000000001
 40
0.0
 40
0.0
 40
0.0
 40
0.0
 40
1.0
 40
1.0
 40
1.0
 40
2.0
 40
2.0
 40
2.0
 40
3.0
 40
3.0
 40
3.0
 40
4.0
 40
4.0
 40
4.0
 40
5.0
 40
5.0
 40
5.0
 40
6.0
 40
6.0
 40
6.0
 40
6.0
 10
206.6531220638
 20
39.2070109311
 30
0.0
 10
206.6531220638
 20
39.2070109311
 30
0.0
 10
206.3066237912
 20
39.6503402919
 30
0.0
 10
206.3066237912
 20
39.6503402919
 30
0.0
 10
206.0008207463
 20
40.0384497619
 30
0.0
 10
205.6819324192
 20
40.4269517903
 30
0.0
 10
205.6819324192
 20
40.9538961044
 30
0.0
 10
205.6819324192
 20
41.620067821
 30
0.0
 10
206.2232705436
 20
42.0637897403
 30
0.0
 10
206.8471767988
 20
42.0637897403
 30
0.0
 10
207.5409584609
 20
42.0637897403
 30
0.0
 10
208.0681644806
 20
41.6615481656
 30
0.0
 10
208.0681644806
 20
40.9265478646
 30
0.0
 10
208.0681644806
 20
40.163283354
 30
0.0
 10
207.3469037259
 20
39.7331701282
 30
0.0
 10
206.819828559
 20
39.3174507128
 30
0.0
 10
206.819828559
 20
39.3174507128
 30
0.0
 10
206.6531220638
 20
39.2070109311
 30
0.0
 10
206.6531220638
 20
39.2070109311
 30
0.0
  0
SPLINE
  5
25D
100
AcDbEntity
  8
0
100
AcDbSpline
 62
7
  6
CONTINUOUS
 70
2
 71
3
 72
50
 73
46
 74
0
 42
0.0000001
 43
0.0000001
 44
0.0000000001
 40
0.0
 40
0.0
 40
0.0
 40
0.0
 40
1.0
 40
1.0
 40
1.0
 40
2.0
 40
2.0
 40
2.0
 40
3.0
 40
3.0
 40
3.0
 40
4.0
 40
4.0
 40
4.0
 40
5.0
 40
5.0
 40
5.0
 40
6.0
 40
6.0
 40
6.0
 40
7.0
 40
7.0
 40
7.0
 40
8.0
 40
8.0
 40
8.0
 40
9.0
 40
9.0
 40
9.0
 40
10.0
 40
10.0
 40
10.0
 40
11.0
 40
11.0
 40
11.0
 40
12.0
 40
12.0
 40
12.0
 40
13.0
 40
13.0
 40
13.0
 40
14.0
 40
14.0
 40
14.0
 40
15.0
 40
15.0
 40
15.0
 40
15.0
 10
210.6067092267
 20
32.408421713
 30
0.0
 10
210.6067092267
 20
32.408421713
 30
0.0
 10
212.2159372313
 20
32.408421713
 30
0.0
 10
212.2159372313
 20
32.408421713
 30
0.0
 10
212.2159372313
 20
32.408421713
 30
0.0
 10
210.3429099376
 20
34.7255634844
 30
0.0
 10
210.3429099376
 20
34.7255634844
 30
0.0
 10
210.3429099376
 20
34.7255634844
 30
0.0
 10
211.6192483631
 20
36.223043179
 30
0.0
 10
211.6192483631
 20
36.223043179
 30
0.0
 10
211.6192483631
 20
36.223043179
 30
0.0
 10
210.7870244154
 20
37.0840547475
 30
0.0
 10
210.7870244154
 20
37.0840547475
 30
0.0
 10
210.7870244154
 20
37.0840547475
 30
0.0
 10
209.5664292921
 20
35.6687506251
 30
0.0
 10
209.5664292921
 20
35.6687506251
 30
0.0
 10
209.5664292921
 20
35.6687506251
 30
0.0
 10
207.3885149233
 20
38.3041264595
 30
0.0
 10
207.3885149233
 20
38.3041264595
 30
0.0
 10
208.2620883627
 20
38.9421648194
 30
0.0
 10
209.2887596039
 20
39.7331701282
 30
0.0
 10
209.2887596039
 20
40.9120232013
 30
0.0
 10
209.2887596039
 20
42.2857161264
 30
0.0
 10
208.150863464
 20
43.0901992758
 30
0.0
 10
206.8755718611
 20
43.0901992758
 30
0.0
 10
205.5021406418
 20
43.0901992758
 30
0.0
 10
204.461206443
 20
42.2439740762
 30
0.0
 10
204.461206443
 20
40.801321714
 30
0.0
 10
204.461206443
 20
39.9137470226
 30
0.0
 10
205.0165458195
 20
39.1368738185
 30
0.0
 10
205.6127112763
 20
38.5124441521
 30
0.0
 10
205.6127112763
 20
38.5124441521
 30
0.0
 10
204.9608025173
 20
38.0408505817
 30
0.0
 10
204.9608025173
 20
38.0408505817
 30
0.0
 10
203.9622646329
 20
37.319589827
 30
0.0
 10
203.129386421
 20
36.5983290724
 30
0.0
 10
203.129386421
 20
35.266770756
 30
0.0
 10
203.129386421
 20
33.463095458
 30
0.0
 10
204.5864325936
 20
32.1864953269
 30
0.0
 10
206.333972031
 20
32.1864953269
 30
0.0
 10
207.5688301119
 20
32.1864953269
 30
0.0
 10
208.6782003366
 20
32.8946707994
 30
0.0
 10
209.4690747925
 20
33.8232024241
 30
0.0
 10
209.4690747925
 20
33.8232024241
 30
0.0
 10
210.6067092267
 20
32.408421713
 30
0.0
 10
210.6067092267
 20
32.408421713
 30
0.0
  0
LINE
  5
25E
100
AcDbEntity
  8
0
100
AcDbLine
 62
7
  6
CONTINUOUS
 10
196.4095706017
 20
30.3822966176
 11
218.8234813294
 21
30.3822966176
  0
LINE
  5
25F
100
AcDbEntity
  8
0
100
AcDbLine
 62
7
  6
CONTINUOUS
 10
218.8234813294
 20
30.3822966176
 11
218.8234813294
 21
52.7962073453
  0
LINE
  5
260
100
AcDbEntity
  8
0
100
AcDbLine
 62
7
  6
CONTINUOUS
 10
218.8234813294
 20
52.7962073453
 11
196.4095706017
 21
52.7962073453
  0
LINE
  5
261
100
AcDbEntity
  8
0
100
AcDbLine
 62
7
  6
CONTINUOUS
 10
196.4095706017
 20
52.7962073453
 11
196.4095706017
 21
30.3822966176
  0
ENDBLK
  5
262
100
AcDbEntity
  8
0
  6
BYBLOCK
 62
0
100
AcDbBlockEnd
  0
BLOCK
  5
263
100
AcDbEntity
  8
0
100
AcDbBlockBegin
  2
_CLOSED
 70
64
 10
0.0
 20
0.0
  3
_CLOSED
  1

  0
LINE
  5
264
100
AcDbEntity
  8
0
  6
BYBLOCK
 62
0
100
AcDbLine
 10
0.0
 20
0.0
 11
-1.0
 21
0.2
  0
LINE
  5
265
100
AcDbEntity
  8
0
  6
BYBLOCK
 62
0
100
AcDbLine
 10
-1.0
 20
0.2
 11
-1.0
 21
-0.2
  0
LINE
  5
266
100
AcDbEntity
  8
0
  6
BYBLOCK
 62
0
100
AcDbLine
 10
-1.0
 20
-0.2
 11
0.0
 21
0.0
  0
LINE
  5
267
100
AcDbEntity
  8
0
  6
BYBLOCK
 62
0
100
AcDbLine
 10
-1.0
 20
0.0
 11
0.0
 21
0.0
  0
ENDBLK
  5
268
100
AcDbEntity
  8
0
  6
BYBLOCK
 62
0
100
AcDbBlockEnd
  0
BLOCK
  5
269
100
AcDbEntity
  8
0
100
AcDbBlockBegin
 62
2
  6
CONTINUOUS
  2
*D0
 70
65
 10
0.0
 20
0.0
  3
*D0
  1

  0
MTEXT
  5
26A
100
AcDbEntity
  8
0
100
AcDbMText
 62
2
  6
CONTINUOUS
  7
STANDARD
 71
2
 72
1
 10
212.3218882477
 20
120.6917236997
 30
0.0
 11
0.0
 21
1.0
 31
0.0
  1
Ø39,5
 40
3.0
 41
11.4089219331
  0
LINE
  5
26B
100
AcDbEntity
  8
0
100
AcDbLine
 62
2
  6
CONTINUOUS
 10
211.076509733
 20
140.4417236997
 11
216.8218882477
 21
140.4417236997
  0
LINE
  5
26C
100
AcDbEntity
  8
0
100
AcDbLine
 62
2
  6
CONTINUOUS
 10
211.3516711479
 20
100.9417236997
 11
216.8218882477
 21
100.9417236997
  0
LINE
  5
26D
100
AcDbEntity
  8
0
100
AcDbLine
 62
2
  6
CONTINUOUS
 10
216.0718882477
 20
140.4417236997
 11
216.0718882477
 21
120.6917236997
  0
LINE
  5
26E
100
AcDbEntity
  8
0
100
AcDbLine
 62
2
  6
CONTINUOUS
 10
216.0718882477
 20
100.9417236997
 11
216.0718882477
 21
120.6917236997
  0
INSERT
  5
26F
100
AcDbEntity
  8
0
100
AcDbBlockReference
 62
2
  6
CONTINUOUS
  2
_CLOSED
 10
216.0718882477
 20
140.4417236997
 41
2.5
 42
2.5
 43
2.5
 50
90.0
  0
INSERT
  5
270
100
AcDbEntity
  8
0
100
AcDbBlockReference
 62
2
  6
CONTINUOUS
  2
_CLOSED
 10
216.0718882477
 20
100.9417236997
 41
2.5
 42
2.5
 43
2.5
 50
270.0
  0
ENDBLK
  5
271
100
AcDbEntity
  8
0
  6
BYBLOCK
 62
0
100
AcDbBlockEnd
  0
BLOCK
  5
272
100
AcDbEntity
  8
0
100
AcDbBlockBegin
 62
2
  6
CONTINUOUS
  2
*D1
 70
65
 10
0.0
 20
0.0
  3
*D1
  1

  0
MTEXT
  5
273
100
AcDbEntity
  8
0
100
AcDbMText
 62
2
  6
CONTINUOUS
  7
STANDARD
 71
2
 72
1
 10
177.2109635706
 20
155.8469158808
 30
0.0
 11
1.0
 21
0.0
 31
0.0
  1
40
 40
3.0
 41
4.6617100372
  0
LINE
  5
274
100
AcDbEntity
  8
0
100
AcDbLine
 62
2
  6
CONTINUOUS
 10
157.2109635706
 20
148.0527709789
 11
157.2109635706
 21
152.8469158808
  0
LINE
  5
275
100
AcDbEntity
  8
0
100
AcDbLine
 62
2
  6
CONTINUOUS
 10
197.2109635706
 20
147.4681956908
 11
197.2109635706
 21
152.8469158808
  0
LINE
  5
276
100
AcDbEntity
  8
0
100
AcDbLine
 62
2
  6
CONTINUOUS
 10
157.2109635706
 20
152.0969158808
 11
177.2109635706
 21
152.0969158808
  0
LINE
  5
277
100
AcDbEntity
  8
0
100
AcDbLine
 62
2
  6
CONTINUOUS
 10
197.2109635706
 20
152.0969158808
 11
177.2109635706
 21
152.0969158808
  0
INSERT
  5
278
100
AcDbEntity
  8
0
100
AcDbBlockReference
 62
2
  6
CONTINUOUS
  2
_CLOSED
 10
157.2109635706
 20
152.0969158808
 41
2.5
 42
2.5
 43
2.5
 50
180.0
  0
INSERT
  5
279
100
AcDbEntity
  8
0
100
AcDbBlockReference
 62
2
  6
CONTINUOUS
  2
_CLOSED
 10
197.2109635706
 20
152.0969158808
 41
2.5
 42
2.5
 43
2.5
  0
ENDBLK
  5
27A
100
AcDbEntity
  8
0
  6
BYBLOCK
 62
0
100
AcDbBlockEnd
  0
ENDSEC
  0
SECTION
  2
ENTITIES
  0
DIMENSION
  5
27B
100
AcDbEntity
  8
0
100
AcDbDimension
 62
2
  6
CONTINUOUS
  2
*D0
 10
216.0718882477
 20
100.9417236997
 11
216.0718882477
 21
120.6917236997
 70
160
  1
Ø<>
  3
DIMSTYLE_1
100
AcDbAlignedDimension
 13
210.326509733
 23
140.4417236997
 14
210.6016711479
 24
100.9417236997
 50
270.0
100
AcDbRotatedDimension
  0
DIMENSION
  5
27C
100
AcDbEntity
  8
0
100
AcDbDimension
 62
2
  6
CONTINUOUS
  2
*D1
 10
197.2109635706
 20
152.0969158808
 11
177.1360007629
 21
152.0969158808
 70
160
  3
DIMSTYLE_1
100
AcDbAlignedDimension
 13
157.2109635706
 23
147.3027709789
 14
197.2109635706
 24
146.7181956908
100
AcDbRotatedDimension
  0
LINE
  5
27D
100
AcDbEntity
  8
0
100
AcDbLine
 62
2
  6
CONTINUOUS
 10
193.7904134944
 20
53.1725198453
 11
283.7904134944
 21
53.1725198453
  0
LINE
  5
27E
100
AcDbEntity
  8
0
100
AcDbLine
 62
2
  6
CONTINUOUS
 10
193.7904134944
 20
53.1725198453
 11
193.7904134944
 21
13.1725198453
  0
LINE
  5
27F
100
AcDbEntity
  8
0
100
AcDbLine
 62
2
  6
CONTINUOUS
 10
223.7904134944
 20
47.1725198453
 11
283.7904134944
 21
47.1725198453
  0
LINE
  5
280
100
AcDbEntity
  8
0
100
AcDbLine
 62
2
  6
CONTINUOUS
 10
223.7904134944
 20
41.1725198453
 11
283.7904134944
 21
41.1725198453
  0
LINE
  5
281
100
AcDbEntity
  8
0
100
AcDbLine
 62
2
  6
CONTINUOUS
 10
223.7904134944
 20
31.1725198453
 11
283.7904134944
 21
31.1725198453
  0
LINE
  5
282
100
AcDbEntity
  8
0
100
AcDbLine
 62
2
  6
CONTINUOUS
 10
193.7904134944
 20
26.1725198453
 11
283.7904134944
 21
26.1725198453
  0
LINE
  5
283
100
AcDbEntity
  8
0
100
AcDbLine
 62
2
  6
CONTINUOUS
 10
193.7904134944
 20
13.1725198453
 11
283.7904134944
 21
13.1725198453
  0
LINE
  5
284
100
AcDbEntity
  8
0
100
AcDbLine
 62
2
  6
CONTINUOUS
 10
223.7904134944
 20
53.1725198453
 11
223.7904134944
 21
26.1725198453
  0
LINE
  5
285
100
AcDbEntity
  8
0
100
AcDbLine
 62
2
  6
CONTINUOUS
 10
263.7904134944
 20
53.1725198453
 11
263.7904134944
 21
41.1725198453
  0
LINE
  5
286
100
AcDbEntity
  8
0
100
AcDbLine
 62
2
  6
CONTINUOUS
 10
283.7904134944
 20
53.1725198453
 11
283.7904134944
 21
13.1725198453
  0
INSERT
  5
287
100
AcDbEntity
  8
0
100
AcDbBlockReference
 62
2
  6
CONTINUOUS
  2
LOGO2_BL0
 10
207.6164605391
 20
39.6725198453
  0
MTEXT
  5
288
100
AcDbEntity
  8
9_SOLID
100
AcDbMText
 62
2
  6
CONTINUOUS
  7
TEXTSTYLE_2
 71
1
 72
1
 10
225.2779134944
 20
51.6725198453
 30
0.0
 11
1.0
 21
0.0
 31
0.0
  1
451_C_061
 40
3.0
 41
30.6428571429
  0
MTEXT
  5
289
100
AcDbEntity
  8
0
100
AcDbMText
 62
2
  6
CONTINUOUS
  7
TEXTSTYLE_2
 71
1
 72
1
 10
265.2779134944
 20
51.9225198453
 30
0.0
 11
1.0
 21
0.0
 31
0.0
  1
Rev:00
 40
3.5
 41
22.75
  0
MTEXT
  5
28A
100
AcDbEntity
  8
9_SOLID
100
AcDbMText
 62
2
  6
CONTINUOUS
  7
TEXTSTYLE_2
 71
1
 72
1
 10
225.2779134944
 20
45.4225198453
 30
0.0
 11
1.0
 21
0.0
 31
0.0
  1
Scale:1:1
 40
3.5
 41
28.375
  0
MTEXT
  5
28B
100
AcDbEntity
  8
9_SOLID
100
AcDbMText
 62
2
  6
CONTINUOUS
  7
TEXTSTYLE_2
 71
1
 72
1
 10
265.2779134944
 20
45.9225198453
 30
0.0
 11
1.0
 21
0.0
 31
0.0
  1
A4
 40
3.5
 41
9.625
  0
MTEXT
  5
28C
100
AcDbEntity
  8
0
100
AcDbMText
 62
2
  6
CONTINUOUS
  7
TEXTSTYLE_2
 71
1
 72
1
 10
225.2779134944
 20
37.5475198453
 30
0.0
 11
1.0
 21
0.0
 31
0.0
  1
Cannocchiale standard Ginko 1
 40
2.75
 41
83.3839285714
  0
MTEXT
  5
28D
100
AcDbEntity
  8
0
100
AcDbMText
 62
2
  6
CONTINUOUS
  7
TEXTSTYLE_2
 71
1
 72
1
 10
225.2779134944
 20
29.9225198453
 30
0.0
 11
1.0
 21
0.0
 31
0.0
  1
DATE:12/06/2018
 40
2.5
 41
42.2321428571
  0
MTEXT
  5
28E
100
AcDbEntity
  8
9_SOLID
100
AcDbMText
 62
2
  6
CONTINUOUS
  7
TEXTSTYLE_2
 71
1
 72
1
 10
195.2779134944
 20
25.8600198453
 30
0.0
 11
1.0
 21
0.0
 31
0.0
  1
Any integral or partial reproductions are prohibited \Pwithout prior authorisation of L {\Ftxt.shx;\W0.190476;\H2.250000; }& L Luce & Light s.r.l., \Pin accordance with the law in force. \PAll rights reserved.
 40
2.25
 41
134.5982142857
  0
LWPOLYLINE
  5
28F
100
AcDbEntity
  8
0
100
AcDbPolyline
 62
7
  6
CONTINUOUS
 90
2
 70
0
 43
0.100000004
 10
10.0
 20
10.0
 10
10.0
 20
200.0
  0
LWPOLYLINE
  5
290
100
AcDbEntity
  8
0
100
AcDbPolyline
 62
7
  6
CONTINUOUS
 90
2
 70
0
 43
0.100000004
 10
10.0
 20
10.0
 10
287.0
 20
10.0
  0
LWPOLYLINE
  5
291
100
AcDbEntity
  8
0
100
AcDbPolyline
 62
7
  6
CONTINUOUS
 90
2
 70
0
 43
0.100000004
 10
10.0
 20
200.0
 10
287.0
 20
200.0
  0
LWPOLYLINE
  5
292
100
AcDbEntity
  8
0
100
AcDbPolyline
 62
7
  6
CONTINUOUS
 90
2
 70
0
 43
0.100000004
 10
287.0
 20
10.0
 10
287.0
 20
200.0
  0
LINE
  5
293
100
AcDbEntity
  8
7_ALL_FEATURES
100
AcDbLine
 62
7
  6
CONTINUOUS
 10
81.8518979422
 20
99.9417236997
 11
85.2518979422
 21
99.9417236997
  0
LINE
  5
294
100
AcDbEntity
  8
7_ALL_FEATURES
100
AcDbLine
 62
7
  6
CONTINUOUS
 10
81.5518979422
 20
100.2417236997
 11
85.5518979422
 21
100.2417236997
  0
LINE
  5
295
100
AcDbEntity
  8
02___PRT_ALL_AXES
100
AcDbLine
 62
7
  6
CONTINUOUS
 10
81.2880380736
 20
103.1917236997
 11
85.8157575591
 21
103.1917236997
  0
LINE
  5
296
100
AcDbEntity
  8
7_ALL_FEATURES
100
AcDbLine
 62
7
  6
CONTINUOUS
 10
81.5518979614
 20
100.2417237189
 11
81.8518979585
 21
99.941723716
  0
LINE
  5
297
100
AcDbEntity
  8
7_ALL_FEATURES
100
AcDbLine
 62
7
  6
CONTINUOUS
 10
81.5518979422
 20
100.2417236997
 11
81.5518979422
 21
101.0432504766
  0
LINE
  5
298
100
AcDbEntity
  8
7_ALL_FEATURES
100
AcDbLine
 62
7
  6
CONTINUOUS
 10
81.5518979422
 20
103.1601752669
 11
81.5518979422
 21
103.1917236997
  0
LINE
  5
299
100
AcDbEntity
  8
7_ALL_FEATURES
100
AcDbLine
 62
7
  6
CONTINUOUS
 10
85.5518979422
 20
100.2417236997
 11
85.5518979422
 21
101.0432504766
  0
LINE
  5
29A
100
AcDbEntity
  8
7_ALL_FEATURES
100
AcDbLine
 62
7
  6
CONTINUOUS
 10
85.5518979422
 20
103.1601752499
 11
85.5518979422
 21
103.1917236997
  0
LINE
  5
29B
100
AcDbEntity
  8
7_ALL_FEATURES
100
AcDbLine
 62
7
  6
CONTINUOUS
 10
85.5518979229
 20
100.2417237189
 11
85.2518979258
 21
99.941723716
  0
LINE
  5
29C
100
AcDbEntity
  8
7_ALL_FEATURES
100
AcDbLine
 62
7
  6
CONTINUOUS
 10
157.2109635706
 20
140.1417236997
 11
157.5109635706
 21
140.4417236997
  0
LINE
  5
29D
100
AcDbEntity
  8
7_ALL_FEATURES
100
AcDbLine
 62
7
  6
CONTINUOUS
 10
157.2109635706
 20
101.2417236997
 11
157.5109635706
 21
100.9417236997
  0
LINE
  5
29E
100
AcDbEntity
  8
7_ALL_FEATURES
100
AcDbLine
 62
7
  6
CONTINUOUS
 10
160.5109636033
 20
99.9417236997
 11
160.2109635706
 21
100.2417237381
  0
LINE
  5
29F
100
AcDbEntity
  8
7_ALL_FEATURES
100
AcDbLine
 62
7
  6
CONTINUOUS
 10
157.2109635706
 20
101.2417236997
 11
157.2109635706
 21
140.1417236997
  0
LINE
  5
2A0
100
AcDbEntity
  8
7_ALL_FEATURES
100
AcDbLine
 62
7
  6
CONTINUOUS
 10
157.5109635706
 20
100.9417236997
 11
157.5109635706
 21
140.4417236997
  0
LINE
  5
2A1
100
AcDbEntity
  8
7_ALL_FEATURES
100
AcDbLine
 62
7
  6
CONTINUOUS
 10
160.5109635707
 20
99.9417236997
 11
163.9109635706
 21
99.9417236997
  0
LINE
  5
2A2
100
AcDbEntity
  8
7_ALL_FEATURES
100
AcDbLine
 62
7
  6
CONTINUOUS
 10
160.2109635706
 20
100.2417236998
 11
164.2109635706
 21
100.2417236998
  0
LINE
  5
2A3
100
AcDbEntity
  8
02___PRT_ALL_AXES
100
AcDbLine
 62
7
  6
CONTINUOUS
 10
196.9109635706
 20
100.9417236997
 11
176.2109635706
 21
100.9417236997
  0
LINE
  5
2A4
100
AcDbEntity
  8
02___PRT_ALL_AXES
100
AcDbLine
 62
7
  6
CONTINUOUS
 10
170.2109635706
 20
100.9417236997
 11
164.210841324
 21
100.9417236997
  0
LINE
  5
2A5
100
AcDbEntity
  8
02___PRT_ALL_AXES
100
AcDbLine
 62
7
  6
CONTINUOUS
 10
160.2110858172
 20
100.9417236997
 11
157.5109635706
 21
100.9417236997
  0
LINE
  5
2A6
100
AcDbEntity
  8
0
100
AcDbLine
 62
2
  6
CONTINUOUS
 10
164.2109635706
 20
100.9417236997
 11
164.2108507073
 21
100.9417350048
  0
LINE
  5
2A7
100
AcDbEntity
  8
3_ALL_AXES
100
AcDbLine
 62
7
  6
CONTINUOUS
 10
160.2109635706
 20
100.9417359447
 11
160.2109635706
 21
100.2417237381
  0
LINE
  5
2A8
100
AcDbEntity
  8
0
100
AcDbLine
 62
2
  6
CONTINUOUS
 10
160.2110858172
 20
100.9417359447
 11
160.2109635706
 21
100.9417236997
  0
LINE
  5
2A9
100
AcDbEntity
  8
3_ALL_AXES
100
AcDbLine
 62
7
  6
CONTINUOUS
 10
164.2109635706
 20
100.9417359447
 11
164.2109635706
 21
100.2417237381
  0
LINE
  5
2AA
100
AcDbEntity
  8
7_ALL_FEATURES
100
AcDbLine
 62
7
  6
CONTINUOUS
 10
163.910963538
 20
99.9417236997
 11
164.2109635706
 21
100.2417237381
  0
LINE
  5
2AB
100
AcDbEntity
  8
7_ALL_FEATURES
100
AcDbLine
 62
7
  6
CONTINUOUS
 10
196.9109635706
 20
100.9417236997
 11
196.9109635706
 21
140.4417236997
  0
LINE
  5
2AC
100
AcDbEntity
  8
7_ALL_FEATURES
100
AcDbLine
 62
7
  6
CONTINUOUS
 10
197.2109635706
 20
101.2417236997
 11
197.2109635706
 21
140.1417236997
  0
LINE
  5
2AD
100
AcDbEntity
  8
02___PRT_ALL_AXES
100
AcDbLine
 62
7
  6
CONTINUOUS
 10
196.9109635706
 20
140.4417236997
 11
157.5109635706
 21
140.4417236997
  0
LINE
  5
2AE
100
AcDbEntity
  8
7_ALL_FEATURES
100
AcDbLine
 62
7
  6
CONTINUOUS
 10
197.2109635706
 20
101.2417236997
 11
196.9109635706
 21
100.9417236997
  0
LINE
  5
2AF
100
AcDbEntity
  8
7_ALL_FEATURES
100
AcDbLine
 62
7
  6
CONTINUOUS
 10
197.2109635706
 20
140.1417236997
 11
196.9109635706
 21
140.4417236997
  0
CIRCLE
  5
2B0
100
AcDbEntity
  8
7_ALL_FEATURES
100
AcDbCircle
 62
7
  6
CONTINUOUS
 10
83.5518979422
 20
120.6917236997
 40
19.75
  0
CIRCLE
  5
2B1
100
AcDbEntity
  8
7_ALL_FEATURES
100
AcDbCircle
 62
7
  6
CONTINUOUS
 10
83.5518979422
 20
120.6917236997
 40
19.45
  0
CIRCLE
  5
2B2
100
AcDbEntity
  8
7_ALL_FEATURES
100
AcDbCircle
 62
7
  6
CONTINUOUS
 10
83.5518979422
 20
120.6917236997
 40
17.95
  0
CIRCLE
  5
2B3
100
AcDbEntity
  8
7_ALL_FEATURES
100
AcDbCircle
 62
7
  6
CONTINUOUS
 10
83.5518979422
 20
120.6917236997
 40
17.65
  0
CIRCLE
  5
2B4
100
AcDbEntity
  8
7_ALL_FEATURES
100
AcDbCircle
 62
7
  6
CONTINUOUS
 10
83.5518979422
 20
120.6917236997
 40
15.8
  0
CIRCLE
  5
2B5
100
AcDbEntity
  8
7_ALL_FEATURES
100
AcDbCircle
 62
7
  6
CONTINUOUS
 10
83.5518979422
 20
120.6917236997
 40
15.5
  0
ARC
  5
2B6
100
AcDbEntity
  8
02___PRT_ALL_AXES
100
AcDbCircle
 62
7
  6
CONTINUOUS
 10
173.189662981
 20
81.1420709268
 40
20.0288418832
100
AcDbArc
 50
81.3239567883
 51
89.9390661664
  0
ARC
  5
2B7
100
AcDbEntity
  8
02___PRT_ALL_AXES
100
AcDbCircle
 62
7
  6
CONTINUOUS
 10
173.2322641592
 20
81.1420709407
 40
20.0288418693
100
AcDbArc
 50
90.0609338306
 51
98.6760432147
  0
SPLINE
  5
2B8
100
AcDbEntity
  8
0
100
AcDbSpline
 62
2
  6
CONTINUOUS
 70
0
 71
3
 72
15
 73
11
 74
0
 42
0.0000001
 43
0.0000001
 44
0.0000000001
 40
0.0
 40
0.0
 40
0.0
 40
0.0
 40
0.125
 40
0.25
 40
0.375
 40
0.5
 40
0.625
 40
0.75
 40
0.875
 40
1.0
 40
1.0
 40
1.0
 40
1.0
 10
164.2108507073
 20
100.9417350048
 30
0.0
 10
164.2094687066
 20
100.9418749464
 30
0.0
 10
164.1813141186
 20
100.9447513797
 30
0.0
 10
164.0637756517
 20
100.9562729918
 30
0.0
 10
163.8772905973
 20
100.973122955
 30
0.0
 10
163.6257522823
 20
100.9930287554
 30
0.0
 10
163.3233106856
 20
101.0126892449
 30
0.0
 10
162.9758990338
 20
101.0294836067
 30
0.0
 10
162.6013982075
 20
101.040624524
 30
0.0
 10
162.3411257913
 20
101.0432504766
 30
0.0
 10
162.2109635706
 20
101.0432504766
 30
0.0
  0
SPLINE
  5
2B9
100
AcDbEntity
  8
0
100
AcDbSpline
 62
2
  6
CONTINUOUS
 70
0
 71
3
 72
15
 73
11
 74
0
 42
0.0000001
 43
0.0000001
 44
0.0000000001
 40
0.0
 40
0.0
 40
0.0
 40
0.0
 40
0.125
 40
0.25
 40
0.375
 40
0.5
 40
0.625
 40
0.75
 40
0.875
 40
1.0
 40
1.0
 40
1.0
 40
1.0
 10
162.2109635706
 20
101.0432504766
 30
0.0
 10
162.0808446912
 20
101.0432504766
 30
0.0
 10
161.8206523221
 20
101.0406263836
 30
0.0
 10
161.446219648
 20
101.0294906801
 30
0.0
 10
161.0988799266
 20
101.0127036761
 30
0.0
 10
160.7964988638
 20
100.9930520583
 30
0.0
 10
160.5449097428
 20
100.9731461348
 30
0.0
 10
160.3584326579
 20
100.9562995149
 30
0.0
 10
160.2407521372
 20
100.9447655052
 30
0.0
 10
160.212523322
 20
100.941881506
 30
0.0
 10
160.2110858172
 20
100.9417359447
 30
0.0
  0
ENDSEC
  0
SECTION
  2
OBJECTS
  0
DICTIONARY
  5
2BA
100
AcDbDictionary
  3
ACAD_GROUP
350
2BB
  3
ACAD_MLINESTYLE
350
2BC
  0
DICTIONARY
  5
2BB
102
{ACAD_REACTORS
330
2BA
102
}
100
AcDbDictionary
  0
DICTIONARY
  5
2BC
102
{ACAD_REACTORS
330
2BA
102
}
100
AcDbDictionary
  3
STANDARD
350
2BD
  0
MLINESTYLE
  5
2BD
102
{ACAD_REACTORS
330
2BC
102
}
100
AcDbMlineStyle
  2
STANDARD
 70
0
  3

 62
256
 51
90.0
 52
90.0
 71
2
 49
0.5
 62
256
  6
BYLAYER
 49
-0.5
 62
256
  6
BYLAYER
  0
ENDSEC
  0
EOF
