  0
SECTION
  2
HEADER
  9
$ACADVER
  1
AC1027
  9
$ACADMAINTVER
 70
   105
  9
$DWGCODEPAGE
  3
ANSI_1252
  9
$REQUIREDVERSIONS
160
                 0
  9
$LASTSAVEDBY
  1
andrea.zolin
  9
$INSBASE
 10
0.0
 20
0.0
 30
0.0
  9
$EXTMIN
 10
0.0
 20
0.0
 30
0.0
  9
$EXTMAX
 10
841.0
 20
594.0
 30
0.0
  9
$LIMMIN
 10
0.0
 20
0.0
  9
$LIMMAX
 10
841.0
 20
594.0
  9
$ORTHOMODE
 70
     0
  9
$REGENMODE
 70
     1
  9
$FILLMODE
 70
     1
  9
$QTEXTMODE
 70
     0
  9
$MIRRTEXT
 70
     1
  9
$LTSCALE
 40
46.255
  9
$ATTMODE
 70
     1
  9
$TEXTSIZE
 40
0.2
  9
$TRACEWID
 40
0.05
  9
$TEXTSTYLE
  7
STANDARD
  9
$CLAYER
  8
0
  9
$CELTYPE
  6
BYLAYER
  9
$CECOLOR
 62
   256
  9
$CELTSCALE
 40
1.0
  9
$DISPSILH
 70
     0
  9
$DIMSCALE
 40
1.0
  9
$DIMASZ
 40
2.5
  9
$DIMEXO
 40
0.75
  9
$DIMDLI
 40
31.958
  9
$DIMRND
 40
0.0
  9
$DIMDLE
 40
0.0
  9
$DIMEXE
 40
0.75
  9
$DIMTP
 40
0.01
  9
$DIMTM
 40
0.01
  9
$DIMTXT
 40
3.0
  9
$DIMCEN
 40
7.569
  9
$DIMTSZ
 40
0.0
  9
$DIMTOL
 70
     1
  9
$DIMLIM
 70
     0
  9
$DIMTIH
 70
     1
  9
$DIMTOH
 70
     1
  9
$DIMSE1
 70
     0
  9
$DIMSE2
 70
     0
  9
$DIMTAD
 70
     0
  9
$DIMZIN
 70
     0
  9
$DIMBLK
  1
CLOSED
  9
$DIMASO
 70
     1
  9
$DIMSHO
 70
     1
  9
$DIMPOST
  1

  9
$DIMAPOST
  1

  9
$DIMALT
 70
     0
  9
$DIMALTD
 70
     2
  9
$DIMALTF
 40
25.4
  9
$DIMLFAC
 40
1.0
  9
$DIMTOFL
 70
     0
  9
$DIMTVP
 40
0.0
  9
$DIMTIX
 70
     0
  9
$DIMSOXD
 70
     0
  9
$DIMSAH
 70
     0
  9
$DIMBLK1
  1

  9
$DIMBLK2
  1

  9
$DIMSTYLE
  2
STANDARD
  9
$DIMCLRD
 70
     0
  9
$DIMCLRE
 70
     0
  9
$DIMCLRT
 70
     0
  9
$DIMTFAC
 40
1.0
  9
$DIMGAP
 40
0.625
  9
$DIMJUST
 70
     0
  9
$DIMSD1
 70
     0
  9
$DIMSD2
 70
     0
  9
$DIMTOLJ
 70
     1
  9
$DIMTZIN
 70
     0
  9
$DIMALTZ
 70
     0
  9
$DIMALTTZ
 70
     0
  9
$DIMUPT
 70
     0
  9
$DIMDEC
 70
     4
  9
$DIMTDEC
 70
     4
  9
$DIMALTU
 70
     2
  9
$DIMALTTD
 70
     2
  9
$DIMTXSTY
  7
STANDARD
  9
$DIMAUNIT
 70
     0
  9
$DIMADEC
 70
     0
  9
$DIMALTRND
 40
0.0
  9
$DIMAZIN
 70
     0
  9
$DIMDSEP
 70
    46
  9
$DIMATFIT
 70
     3
  9
$DIMFRAC
 70
     0
  9
$DIMLDRBLK
  1

  9
$DIMLUNIT
 70
     2
  9
$DIMLWD
 70
    -2
  9
$DIMLWE
 70
    -2
  9
$DIMTMOVE
 70
     2
  9
$DIMFXL
 40
1.0
  9
$DIMFXLON
 70
     0
  9
$DIMJOGANG
 40
0.7853981633974483
  9
$DIMTFILL
 70
     0
  9
$DIMTFILLCLR
 70
     0
  9
$DIMARCSYM
 70
     0
  9
$DIMLTYPE
  6

  9
$DIMLTEX1
  6

  9
$DIMLTEX2
  6

  9
$DIMTXTDIRECTION
 70
     0
  9
$LUNITS
 70
     2
  9
$LUPREC
 70
     4
  9
$SKETCHINC
 40
0.1
  9
$FILLETRAD
 40
0.5
  9
$AUNITS
 70
     0
  9
$AUPREC
 70
     0
  9
$MENU
  1
.
  9
$ELEVATION
 40
0.0
  9
$PELEVATION
 40
0.0
  9
$THICKNESS
 40
0.0
  9
$LIMCHECK
 70
     0
  9
$CHAMFERA
 40
0.0
  9
$CHAMFERB
 40
0.0
  9
$CHAMFERC
 40
0.0
  9
$CHAMFERD
 40
0.0
  9
$SKPOLY
 70
     0
  9
$TDCREATE
 40
2447893.041666667
  9
$TDUCREATE
 40
0.0
  9
$TDUPDATE
 40
2458466.336416968
  9
$TDUUPDATE
 40
2458466.294750301
  9
$TDINDWG
 40
0.000261956
  9
$TDUSRTIMER
 40
0.000261956
  9
$USRTIMER
 70
     1
  9
$ANGBASE
 50
0.0
  9
$ANGDIR
 70
     0
  9
$PDMODE
 70
     3
  9
$PDSIZE
 40
0.3125
  9
$PLINEWID
 40
0.0
  9
$SPLFRAME
 70
     0
  9
$SPLINETYPE
 70
     6
  9
$SPLINESEGS
 70
     8
  9
$HANDSEED
  5
4B2
  9
$SURFTAB1
 70
     6
  9
$SURFTAB2
 70
     6
  9
$SURFTYPE
 70
     6
  9
$SURFU
 70
     6
  9
$SURFV
 70
     6
  9
$UCSBASE
  2

  9
$UCSNAME
  2

  9
$UCSORG
 10
0.0
 20
0.0
 30
0.0
  9
$UCSXDIR
 10
1.0
 20
0.0
 30
0.0
  9
$UCSYDIR
 10
0.0
 20
1.0
 30
0.0
  9
$UCSORTHOREF
  2

  9
$UCSORTHOVIEW
 70
     0
  9
$UCSORGTOP
 10
0.0
 20
0.0
 30
0.0
  9
$UCSORGBOTTOM
 10
0.0
 20
0.0
 30
0.0
  9
$UCSORGLEFT
 10
0.0
 20
0.0
 30
0.0
  9
$UCSORGRIGHT
 10
0.0
 20
0.0
 30
0.0
  9
$UCSORGFRONT
 10
0.0
 20
0.0
 30
0.0
  9
$UCSORGBACK
 10
0.0
 20
0.0
 30
0.0
  9
$PUCSBASE
  2

  9
$PUCSNAME
  2

  9
$PUCSORG
 10
0.0
 20
0.0
 30
0.0
  9
$PUCSXDIR
 10
1.0
 20
0.0
 30
0.0
  9
$PUCSYDIR
 10
0.0
 20
1.0
 30
0.0
  9
$PUCSORTHOREF
  2

  9
$PUCSORTHOVIEW
 70
     0
  9
$PUCSORGTOP
 10
0.0
 20
0.0
 30
0.0
  9
$PUCSORGBOTTOM
 10
0.0
 20
0.0
 30
0.0
  9
$PUCSORGLEFT
 10
0.0
 20
0.0
 30
0.0
  9
$PUCSORGRIGHT
 10
0.0
 20
0.0
 30
0.0
  9
$PUCSORGFRONT
 10
0.0
 20
0.0
 30
0.0
  9
$PUCSORGBACK
 10
0.0
 20
0.0
 30
0.0
  9
$USERI1
 70
     0
  9
$USERI2
 70
     0
  9
$USERI3
 70
     0
  9
$USERI4
 70
     0
  9
$USERI5
 70
     0
  9
$USERR1
 40
0.0
  9
$USERR2
 40
0.0
  9
$USERR3
 40
0.0
  9
$USERR4
 40
0.0
  9
$USERR5
 40
0.0
  9
$WORLDVIEW
 70
     1
  9
$SHADEDGE
 70
     3
  9
$SHADEDIF
 70
    70
  9
$TILEMODE
 70
     0
  9
$MAXACTVP
 70
    64
  9
$PINSBASE
 10
0.0
 20
0.0
 30
0.0
  9
$PLIMCHECK
 70
     0
  9
$PEXTMIN
 10
0.0
 20
0.0
 30
0.0
  9
$PEXTMAX
 10
841.0
 20
594.0
 30
0.0
  9
$PLIMMIN
 10
-17.33463035019455
 20
-46.22568093385214
  9
$PLIMMAX
 10
953.4046692607004
 20
640.2256809338521
  9
$UNITMODE
 70
     0
  9
$VISRETAIN
 70
     1
  9
$PLINEGEN
 70
     0
  9
$PSLTSCALE
 70
     1
  9
$TREEDEPTH
 70
  3020
  9
$CMLSTYLE
  2
STANDARD
  9
$CMLJUST
 70
     0
  9
$CMLSCALE
 40
1.0
  9
$PROXYGRAPHICS
 70
     1
  9
$MEASUREMENT
 70
     1
  9
$CELWEIGHT
370
    -1
  9
$ENDCAPS
280
     0
  9
$JOINSTYLE
280
     0
  9
$LWDISPLAY
290
     0
  9
$INSUNITS
 70
     0
  9
$HYPERLINKBASE
  1

  9
$STYLESHEET
  1

  9
$XEDIT
290
     1
  9
$CEPSNTYPE
380
     0
  9
$PSTYLEMODE
290
     1
  9
$FINGERPRINTGUID
  2
{B6162042-8D93-433D-A9E2-5D7B4EF8C052}
  9
$VERSIONGUID
  2
{FAEB1C32-E019-11D5-929B-00C0DF256EC4}
  9
$EXTNAMES
290
     1
  9
$PSVPSCALE
 40
0.0
  9
$OLESTARTUP
290
     0
  9
$SORTENTS
280
   127
  9
$INDEXCTL
280
     0
  9
$HIDETEXT
280
     1
  9
$XCLIPFRAME
280
     2
  9
$HALOGAP
280
     0
  9
$OBSCOLOR
 70
   257
  9
$OBSLTYPE
280
     0
  9
$INTERSECTIONDISPLAY
280
     0
  9
$INTERSECTIONCOLOR
 70
   257
  9
$DIMASSOC
280
     2
  9
$PROJECTNAME
  1

  9
$CAMERADISPLAY
290
     0
  9
$LENSLENGTH
 40
50.0
  9
$CAMERAHEIGHT
 40
0.0
  9
$STEPSPERSEC
 40
2.0
  9
$STEPSIZE
 40
6.0
  9
$3DDWFPREC
 40
2.0
  9
$PSOLWIDTH
 40
0.25
  9
$PSOLHEIGHT
 40
4.0
  9
$LOFTANG1
 40
1.570796326794897
  9
$LOFTANG2
 40
1.570796326794897
  9
$LOFTMAG1
 40
0.0
  9
$LOFTMAG2
 40
0.0
  9
$LOFTPARAM
 70
     7
  9
$LOFTNORMALS
280
     1
  9
$LATITUDE
 40
37.795
  9
$LONGITUDE
 40
-122.394
  9
$NORTHDIRECTION
 40
0.0
  9
$TIMEZONE
 70
 -8000
  9
$LIGHTGLYPHDISPLAY
280
     1
  9
$TILEMODELIGHTSYNCH
280
     1
  9
$SOLIDHIST
280
     0
  9
$SHOWHIST
280
     1
  9
$DWFFRAME
280
     2
  9
$DGNFRAME
280
     2
  9
$REALWORLDSCALE
290
     1
  9
$INTERFERECOLOR
 62
   256
  9
$CSHADOW
280
     0
  9
$SHADOWPLANELOCATION
 40
0.0
  0
ENDSEC
  0
SECTION
  2
CLASSES
  0
CLASS
  1
ACDBDICTIONARYWDFLT
  2
AcDbDictionaryWithDefault
  3
ObjectDBX Classes
 90
        0
 91
        4
280
     0
281
     0
  0
CLASS
  1
SCALE
  2
AcDbScale
  3
ObjectDBX Classes
 90
     1153
 91
        4
280
     0
281
     0
  0
CLASS
  1
VISUALSTYLE
  2
AcDbVisualStyle
  3
ObjectDBX Classes
 90
     4095
 91
        4
280
     0
281
     0
  0
CLASS
  1
MATERIAL
  2
AcDbMaterial
  3
ObjectDBX Classes
 90
     1153
 91
        4
280
     0
281
     0
  0
CLASS
  1
TABLESTYLE
  2
AcDbTableStyle
  3
ObjectDBX Classes
 90
     4095
 91
        4
280
     0
281
     0
  0
CLASS
  1
MLEADERSTYLE
  2
AcDbMLeaderStyle
  3
ACDB_MLEADERSTYLE_CLASS
 90
     4095
 91
        4
280
     0
281
     0
  0
CLASS
  1
DICTIONARYVAR
  2
AcDbDictionaryVar
  3
ObjectDBX Classes
 90
        0
 91
        4
280
     0
281
     0
  0
CLASS
  1
CELLSTYLEMAP
  2
AcDbCellStyleMap
  3
ObjectDBX Classes
 90
     1152
 91
        4
280
     0
281
     0
  0
ENDSEC
  0
SECTION
  2
TABLES
  0
TABLE
  2
VPORT
  5
8
330
0
100
AcDbSymbolTable
 70
     1
  0
VPORT
  5
1F4
330
8
100
AcDbSymbolTableRecord
100
AcDbViewportTableRecord
  2
*ACTIVE
 70
     0
 10
0.0
 20
0.0
 11
1.0
 21
1.0
 12
420.5
 22
297.0
 13
0.0
 23
0.0
 14
1.0
 24
1.0
 15
0.0
 25
0.0
 16
0.0
 26
0.0
 36
1.0
 17
0.0
 27
0.0
 37
0.0
 40
594.0
 41
1.4158249158
 42
50.0
 43
0.0
 44
0.0
 50
0.0
 51
0.0
 71
     0
 72
   100
 73
     1
 74
     1
 75
     0
 76
     0
 77
     0
 78
     0
281
     0
 65
     1
110
0.0
120
0.0
130
0.0
111
1.0
121
0.0
131
0.0
112
0.0
122
1.0
132
0.0
 79
     0
146
0.0
348
48B
 60
     3
 61
     5
292
     1
282
     1
141
0.0
142
0.0
 63
   256
  0
ENDTAB
  0
TABLE
  2
LTYPE
  5
5
330
0
100
AcDbSymbolTable
 70
     6
  0
LTYPE
  5
14
330
5
100
AcDbSymbolTableRecord
100
AcDbLinetypeTableRecord
  2
BYBLOCK
 70
     0
  3

 72
    65
 73
     0
 40
0.0
  0
LTYPE
  5
15
330
5
100
AcDbSymbolTableRecord
100
AcDbLinetypeTableRecord
  2
BYLAYER
 70
     0
  3

 72
    65
 73
     0
 40
0.0
  0
LTYPE
  5
16
330
5
100
AcDbSymbolTableRecord
100
AcDbLinetypeTableRecord
  2
CONTINUOUS
 70
     0
  3
Solid line
 72
    65
 73
     0
 40
0.0
  0
LTYPE
  5
1F5
330
5
100
AcDbSymbolTableRecord
100
AcDbLinetypeTableRecord
  2
CENTER
 70
     0
  3
____ _ ____ _ ____ _ ____ _ ____ _ ____ _ ____
 72
    65
 73
     4
 40
0.6
 49
0.375
 74
     0
 49
-0.075
 74
     0
 49
0.075
 74
     0
 49
-0.075
 74
     0
  0
LTYPE
  5
1F6
330
5
100
AcDbSymbolTableRecord
100
AcDbLinetypeTableRecord
  2
HIDDEN
 70
     0
  3
- - - - - - - - - - - - - - - - - - - -
 72
    65
 73
     2
 40
0.2
 49
0.1
 74
     0
 49
-0.1
 74
     0
  0
LTYPE
  5
1F7
330
5
100
AcDbSymbolTableRecord
100
AcDbLinetypeTableRecord
  2
PHANTOM
 70
     0
  3
_____ _ _ _____ _ _ _____ _ _ _____
 72
    65
 73
     6
 40
0.8
 49
0.45
 74
     0
 49
-0.05
 74
     0
 49
0.1
 74
     0
 49
-0.05
 74
     0
 49
0.1
 74
     0
 49
-0.05
 74
     0
  0
LTYPE
  5
1F8
330
5
100
AcDbSymbolTableRecord
100
AcDbLinetypeTableRecord
  2
DOT
 70
     0
  3
. . . . . . . . . . . . . . . . . . . .
 72
    65
 73
     2
 40
0.2
 49
0.1
 74
     0
 49
-0.1
 74
     0
  0
LTYPE
  5
1F9
330
5
100
AcDbSymbolTableRecord
100
AcDbLinetypeTableRecord
  2
DASHED
 70
     0
  3
- - - - - - - - - - - - - - - - - - - -
 72
    65
 73
     2
 40
0.2
 49
0.1
 74
     0
 49
-0.1
 74
     0
  0
ENDTAB
  0
TABLE
  2
LAYER
  5
2
330
0
100
AcDbSymbolTable
 70
    19
  0
LAYER
  5
10
330
2
100
AcDbSymbolTableRecord
100
AcDbLayerTableRecord
  2
0
 70
     0
 62
     7
  6
CONTINUOUS
370
    -3
390
460
347
4A2
348
0
  0
LAYER
  5
1FA
330
2
100
AcDbSymbolTableRecord
100
AcDbLayerTableRecord
  2
DEFAULT_1
 70
     0
 62
     7
  6
CENTER
370
    -3
390
460
347
4A2
348
0
  0
LAYER
  5
1FB
330
2
100
AcDbSymbolTableRecord
100
AcDbLayerTableRecord
  2
DEFAULT_2
 70
     0
 62
     8
  6
HIDDEN
370
    -3
390
460
347
4A2
348
0
  0
LAYER
  5
1FC
330
2
100
AcDbSymbolTableRecord
100
AcDbLayerTableRecord
  2
DEFAULT_3
 70
     0
 62
     7
  6
PHANTOM
370
    -3
390
460
347
4A2
348
0
  0
LAYER
  5
1FD
330
2
100
AcDbSymbolTableRecord
100
AcDbLayerTableRecord
  2
01___PRT_ALL_DTM_PLN
 70
     0
 62
     7
  6
CONTINUOUS
370
    -3
390
460
347
4A2
348
0
  0
LAYER
  5
1FE
330
2
100
AcDbSymbolTableRecord
100
AcDbLayerTableRecord
  2
01___PRT_DEF_DTM_PLN
 70
     0
 62
     7
  6
CONTINUOUS
370
    -3
390
460
347
4A2
348
0
  0
LAYER
  5
1FF
330
2
100
AcDbSymbolTableRecord
100
AcDbLayerTableRecord
  2
02___PRT_ALL_AXES
 70
     0
 62
     7
  6
CONTINUOUS
370
    -3
390
460
347
4A2
348
0
  0
LAYER
  5
200
330
2
100
AcDbSymbolTableRecord
100
AcDbLayerTableRecord
  2
03___PRT_ALL_CURVES
 70
     0
 62
     7
  6
CONTINUOUS
370
    -3
390
460
347
4A2
348
0
  0
LAYER
  5
201
330
2
100
AcDbSymbolTableRecord
100
AcDbLayerTableRecord
  2
04___PRT_ALL_DTM_PNT
 70
     0
 62
     7
  6
CONTINUOUS
370
    -3
390
460
347
4A2
348
0
  0
LAYER
  5
202
330
2
100
AcDbSymbolTableRecord
100
AcDbLayerTableRecord
  2
05___PRT_ALL_DTM_CSYS
 70
     0
 62
     7
  6
CONTINUOUS
370
    -3
390
460
347
4A2
348
0
  0
LAYER
  5
203
330
2
100
AcDbSymbolTableRecord
100
AcDbLayerTableRecord
  2
05___PRT_DEF_DTM_CSYS
 70
     0
 62
     7
  6
CONTINUOUS
370
    -3
390
460
347
4A2
348
0
  0
LAYER
  5
204
330
2
100
AcDbSymbolTableRecord
100
AcDbLayerTableRecord
  2
06___PRT_ALL_SURFS
 70
     0
 62
     7
  6
CONTINUOUS
370
    -3
390
460
347
4A2
348
0
  0
LAYER
  5
205
330
2
100
AcDbSymbolTableRecord
100
AcDbLayerTableRecord
  2
1_ALL_PLANES
 70
     0
 62
     7
  6
CONTINUOUS
370
    -3
390
460
347
4A2
348
0
  0
LAYER
  5
206
330
2
100
AcDbSymbolTableRecord
100
AcDbLayerTableRecord
  2
2_ALL_CSYS
 70
     0
 62
     7
  6
CONTINUOUS
370
    -3
390
460
347
4A2
348
0
  0
LAYER
  5
207
330
2
100
AcDbSymbolTableRecord
100
AcDbLayerTableRecord
  2
3_ALL_AXES
 70
     0
 62
     7
  6
CONTINUOUS
370
    -3
390
460
347
4A2
348
0
  0
LAYER
  5
208
330
2
100
AcDbSymbolTableRecord
100
AcDbLayerTableRecord
  2
5_ALL_CURVES
 70
     0
 62
     7
  6
CONTINUOUS
370
    -3
390
460
347
4A2
348
0
  0
LAYER
  5
209
330
2
100
AcDbSymbolTableRecord
100
AcDbLayerTableRecord
  2
7_ALL_FEATURES
 70
     0
 62
     7
  6
CONTINUOUS
370
    -3
390
460
347
4A2
348
0
  0
LAYER
  5
20A
330
2
100
AcDbSymbolTableRecord
100
AcDbLayerTableRecord
  2
8_ALL_NOTES_BALLOONS_SYMBOLS_GT
 70
     0
 62
     7
  6
CONTINUOUS
370
    -3
390
460
347
4A2
348
0
  0
LAYER
  5
20B
330
2
100
AcDbSymbolTableRecord
100
AcDbLayerTableRecord
  2
9_SOLID
 70
     0
 62
     7
  6
CONTINUOUS
370
    -3
390
460
347
4A2
348
0
  0
ENDTAB
  0
TABLE
  2
STYLE
  5
3
330
0
100
AcDbSymbolTable
 70
     5
  0
STYLE
  5
11
330
3
100
AcDbSymbolTableRecord
100
AcDbTextStyleTableRecord
  2
STANDARD
 70
     0
 40
0.0
 41
0.85
 50
0.0
 71
     0
 42
0.2
  3
txt
  4

  0
STYLE
  5
20C
330
3
100
AcDbSymbolTableRecord
100
AcDbTextStyleTableRecord
  2
TEXTSTYLE_1
 70
     0
 40
0.0
 41
0.8
 50
0.0
 71
     0
 42
0.2
  3
gdt
  4

  0
STYLE
  5
20D
330
3
100
AcDbSymbolTableRecord
100
AcDbTextStyleTableRecord
  2
TEXTSTYLE_2
 70
     0
 40
0.0
 41
0.9
 50
0.0
 71
     0
 42
0.2
  3
txt
  4

  0
STYLE
  5
20E
330
3
100
AcDbSymbolTableRecord
100
AcDbTextStyleTableRecord
  2
TEXTSTYLE_3
 70
     0
 40
0.0
 41
0.9
 50
0.0
 71
     0
 42
0.2
  3
txt
  4

  0
STYLE
  5
20F
330
3
100
AcDbSymbolTableRecord
100
AcDbTextStyleTableRecord
  2
TEXTSTYLE_4
 70
     0
 40
0.0
 41
2.0
 50
0.0
 71
     0
 42
0.2
  3
txt
  4

  0
ENDTAB
  0
TABLE
  2
VIEW
  5
6
330
0
100
AcDbSymbolTable
 70
     0
  0
ENDTAB
  0
TABLE
  2
UCS
  5
7
330
0
100
AcDbSymbolTable
 70
     0
  0
ENDTAB
  0
TABLE
  2
APPID
  5
9
330
0
100
AcDbSymbolTable
 70
     1
  0
APPID
  5
210
330
9
100
AcDbSymbolTableRecord
100
AcDbRegAppTableRecord
  2
ACAD
 70
     0
  0
ENDTAB
  0
TABLE
  2
DIMSTYLE
  5
A
330
0
100
AcDbSymbolTable
 70
     4
100
AcDbDimStyleTable
  0
DIMSTYLE
105
217
330
A
100
AcDbSymbolTableRecord
100
AcDbDimStyleTableRecord
  2
STANDARD
 70
     0
 41
2.5
 42
0.75
 44
0.75
 47
0.01
 48
0.01
 71
     1
 73
     0
 74
     0
 77
     1
 78
     8
 79
     2
140
3.0
147
0.625
171
     1
178
     0
179
     2
271
     2
272
     2
284
     8
340
11
341
211
342
211
343
211
344
211
  0
DIMSTYLE
105
218
330
A
100
AcDbSymbolTableRecord
100
AcDbDimStyleTableRecord
  2
DIMSTYLE_1
 70
     0
 41
2.5
 42
0.75
 44
0.75
 47
0.2
 48
0.2
 73
     0
 74
     0
 77
     1
 78
     8
 79
     2
140
3.0
147
0.75
171
     1
178
     0
271
     0
272
     0
284
     8
340
11
341
211
342
211
343
211
344
211
  0
DIMSTYLE
105
219
330
A
100
AcDbSymbolTableRecord
100
AcDbDimStyleTableRecord
  2
DIMSTYLE_2
 70
     0
 41
2.5
 42
0.75
 44
0.75
 47
0.3
 48
0.3
 73
     0
 74
     0
 77
     1
 78
     8
 79
     2
140
3.0
147
0.75
171
     1
178
     0
271
     0
272
     0
284
     8
340
11
341
211
342
211
343
211
344
211
  0
DIMSTYLE
105
21A
330
A
100
AcDbSymbolTableRecord
100
AcDbDimStyleTableRecord
  2
DIMSTYLE_3
 70
     0
 41
2.5
 42
0.75
 44
0.75
 47
0.8
 48
0.8
 73
     0
 74
     0
 77
     1
 78
     8
 79
     2
140
3.0
147
0.75
171
     1
178
     0
179
     2
271
     2
272
    -1
284
     8
340
11
341
211
342
211
343
211
344
211
  0
ENDTAB
  0
TABLE
  2
BLOCK_RECORD
  5
1
330
0
100
AcDbSymbolTable
 70
     6
  0
BLOCK_RECORD
  5
1F
330
1
100
AcDbSymbolTableRecord
100
AcDbBlockTableRecord
  2
*MODEL_SPACE
340
484
 70
     0
280
     1
281
     0
  0
BLOCK_RECORD
  5
1B
330
1
100
AcDbSymbolTableRecord
100
AcDbBlockTableRecord
  2
*PAPER_SPACE
340
485
 70
     0
280
     1
281
     0
  0
BLOCK_RECORD
  5
211
330
1
100
AcDbSymbolTableRecord
100
AcDbBlockTableRecord
  2
_CLOSED
340
0
102
{BLKREFS
331
26D
331
26E
331
276
331
277
331
27F
331
280
102
}
 70
     0
280
     1
281
     0
  0
BLOCK_RECORD
  5
212
330
1
100
AcDbSymbolTableRecord
100
AcDbBlockTableRecord
  2
*D1
340
0
 70
     0
280
     1
281
     0
  0
BLOCK_RECORD
  5
213
330
1
100
AcDbSymbolTableRecord
100
AcDbBlockTableRecord
  2
*D2
340
0
 70
     0
280
     1
281
     0
  0
BLOCK_RECORD
  5
214
330
1
100
AcDbSymbolTableRecord
100
AcDbBlockTableRecord
  2
*D3
340
0
 70
     0
280
     1
281
     0
  0
BLOCK_RECORD
  5
215
330
1
100
AcDbSymbolTableRecord
100
AcDbBlockTableRecord
  2
LOGO2_BL1
340
0
102
{BLKREFS
331
448
102
}
 70
     0
280
     1
281
     0
  0
BLOCK_RECORD
  5
216
330
1
100
AcDbSymbolTableRecord
100
AcDbBlockTableRecord
  2
PROIEZIONE_EU_BL0
340
0
102
{BLKREFS
331
445
102
}
 70
     0
280
     1
281
     0
  0
ENDTAB
  0
ENDSEC
  0
SECTION
  2
BLOCKS
  0
BLOCK
  5
20
330
1F
100
AcDbEntity
  8
0
100
AcDbBlockBegin
  2
*MODEL_SPACE
 70
     0
 10
0.0
 20
0.0
 30
0.0
  3
*MODEL_SPACE
  1

  0
ENDBLK
  5
21
330
1F
100
AcDbEntity
  8
0
100
AcDbBlockEnd
  0
BLOCK
  5
1C
330
1B
100
AcDbEntity
 67
     1
  8
0
100
AcDbBlockBegin
  2
*PAPER_SPACE
 70
     0
 10
0.0
 20
0.0
 30
0.0
  3
*PAPER_SPACE
  1

  0
ENDBLK
  5
1D
330
1B
100
AcDbEntity
 67
     1
  8
0
100
AcDbBlockEnd
  0
BLOCK
  5
261
330
211
100
AcDbEntity
  8
0
100
AcDbBlockBegin
  2
_CLOSED
 70
     0
 10
0.0
 20
0.0
 30
0.0
  3
_CLOSED
  1

  0
LINE
  5
262
330
211
100
AcDbEntity
  8
0
  6
ByBlock
 62
     0
100
AcDbLine
 10
0.0
 20
0.0
 30
0.0
 11
-1.0
 21
0.2
 31
0.0
  0
LINE
  5
263
330
211
100
AcDbEntity
  8
0
  6
ByBlock
 62
     0
100
AcDbLine
 10
-1.0
 20
0.2
 30
0.0
 11
-1.0
 21
-0.2
 31
0.0
  0
LINE
  5
264
330
211
100
AcDbEntity
  8
0
  6
ByBlock
 62
     0
100
AcDbLine
 10
-1.0
 20
-0.2
 30
0.0
 11
0.0
 21
0.0
 31
0.0
  0
LINE
  5
265
330
211
100
AcDbEntity
  8
0
  6
ByBlock
 62
     0
100
AcDbLine
 10
-1.0
 20
0.0
 30
0.0
 11
0.0
 21
0.0
 31
0.0
  0
ENDBLK
  5
266
330
211
100
AcDbEntity
  8
0
  6
ByBlock
 62
     0
100
AcDbBlockEnd
  0
BLOCK
  5
267
330
212
100
AcDbEntity
  8
0
100
AcDbBlockBegin
  2
*D1
 70
     1
 10
0.0
 20
0.0
 30
0.0
  3
*D1
  1

  0
MTEXT
  5
268
330
212
100
AcDbEntity
  8
0
  6
Continuous
 62
     2
100
AcDbMText
 10
763.945348774
 20
278.4517742475
 30
0.0
 40
3.0
 41
6.1071428571
 46
0.0
 71
     2
 72
     1
  1
17
 11
0.0
 21
1.0
 31
0.0
 73
     1
 44
1.0
  0
LINE
  5
269
330
212
100
AcDbEntity
  8
0
  6
Continuous
 62
     2
100
AcDbLine
 10
753.445348774
 20
286.9157247788
 30
0.0
 11
768.445348774
 21
286.9157247788
 31
0.0
  0
LINE
  5
26A
330
212
100
AcDbEntity
  8
0
  6
Continuous
 62
     2
100
AcDbLine
 10
735.445348774
 20
269.9878237163
 30
0.0
 11
768.445348774
 21
269.9878237163
 31
0.0
  0
LINE
  5
26B
330
212
100
AcDbEntity
  8
0
  6
Continuous
 62
     2
100
AcDbLine
 10
767.695348774
 20
286.9157247788
 30
0.0
 11
767.695348774
 21
278.4517742475
 31
0.0
  0
LINE
  5
26C
330
212
100
AcDbEntity
  8
0
  6
Continuous
 62
     2
100
AcDbLine
 10
767.695348774
 20
269.9878237163
 30
0.0
 11
767.695348774
 21
278.4517742475
 31
0.0
  0
INSERT
  5
26D
330
212
100
AcDbEntity
  8
0
  6
Continuous
 62
     2
100
AcDbBlockReference
  2
_CLOSED
 10
767.695348774
 20
286.9157247788
 30
0.0
 41
2.5
 42
2.5
 43
2.5
 50
90.0
  0
INSERT
  5
26E
330
212
100
AcDbEntity
  8
0
  6
Continuous
 62
     2
100
AcDbBlockReference
  2
_CLOSED
 10
767.695348774
 20
269.9878237163
 30
0.0
 41
2.5
 42
2.5
 43
2.5
 50
270.0
  0
ENDBLK
  5
26F
330
212
100
AcDbEntity
  8
0
  6
ByBlock
 62
     0
100
AcDbBlockEnd
  0
BLOCK
  5
270
330
213
100
AcDbEntity
  8
0
100
AcDbBlockBegin
  2
*D2
 70
     1
 10
0.0
 20
0.0
 30
0.0
  3
*D2
  1

  0
MTEXT
  5
271
330
213
100
AcDbEntity
  8
0
  6
Continuous
 62
     2
100
AcDbMText
 10
763.945348774
 20
475.4213392777
 30
0.0
 40
3.0
 41
6.75
 46
0.0
 71
     2
 72
     1
  1
73
 11
0.0
 21
1.0
 31
0.0
 73
     1
 44
1.0
  0
LINE
  5
272
330
213
100
AcDbEntity
  8
0
  6
Continuous
 62
     2
100
AcDbLine
 10
748.445348774
 20
511.9173317431
 30
0.0
 11
768.445348774
 21
511.9173317431
 31
0.0
  0
LINE
  5
273
330
213
100
AcDbEntity
  8
0
  6
Continuous
 62
     2
100
AcDbLine
 10
738.445348774
 20
438.9253468123
 30
0.0
 11
768.445348774
 21
438.9253468123
 31
0.0
  0
LINE
  5
274
330
213
100
AcDbEntity
  8
0
  6
Continuous
 62
     2
100
AcDbLine
 10
767.695348774
 20
511.9173317431
 30
0.0
 11
767.695348774
 21
475.4213392777
 31
0.0
  0
LINE
  5
275
330
213
100
AcDbEntity
  8
0
  6
Continuous
 62
     2
100
AcDbLine
 10
767.695348774
 20
438.9253468123
 30
0.0
 11
767.695348774
 21
475.4213392777
 31
0.0
  0
INSERT
  5
276
330
213
100
AcDbEntity
  8
0
  6
Continuous
 62
     2
100
AcDbBlockReference
  2
_CLOSED
 10
767.695348774
 20
511.9173317431
 30
0.0
 41
2.5
 42
2.5
 43
2.5
 50
90.0
  0
INSERT
  5
277
330
213
100
AcDbEntity
  8
0
  6
Continuous
 62
     2
100
AcDbBlockReference
  2
_CLOSED
 10
767.695348774
 20
438.9253468123
 30
0.0
 41
2.5
 42
2.5
 43
2.5
 50
270.0
  0
ENDBLK
  5
278
330
213
100
AcDbEntity
  8
0
  6
ByBlock
 62
     0
100
AcDbBlockEnd
  0
BLOCK
  5
279
330
214
100
AcDbEntity
  8
0
100
AcDbBlockBegin
  2
*D3
 70
     1
 10
0.0
 20
0.0
 30
0.0
  3
*D3
  1

  0
MTEXT
  5
27A
330
214
100
AcDbEntity
  8
0
  6
Continuous
 62
     2
100
AcDbMText
 10
416.195348774
 20
530.6673317431
 30
0.0
 40
3.0
 41
10.2857142857
 46
0.0
 71
     2
 72
     1
  1
673
 73
     1
 44
1.0
  0
LINE
  5
27B
330
214
100
AcDbEntity
  8
0
  6
Continuous
 62
     2
100
AcDbLine
 10
79.695348774
 20
514.4796153498
 30
0.0
 11
79.695348774
 21
527.6673317431
 31
0.0
  0
LINE
  5
27C
330
214
100
AcDbEntity
  8
0
  6
Continuous
 62
     2
100
AcDbLine
 10
752.695348774
 20
514.086888077
 30
0.0
 11
752.695348774
 21
527.6673317431
 31
0.0
  0
LINE
  5
27D
330
214
100
AcDbEntity
  8
0
  6
Continuous
 62
     2
100
AcDbLine
 10
79.695348774
 20
526.9173317431
 30
0.0
 11
416.195348774
 21
526.9173317431
 31
0.0
  0
LINE
  5
27E
330
214
100
AcDbEntity
  8
0
  6
Continuous
 62
     2
100
AcDbLine
 10
752.695348774
 20
526.9173317431
 30
0.0
 11
416.195348774
 21
526.9173317431
 31
0.0
  0
INSERT
  5
27F
330
214
100
AcDbEntity
  8
0
  6
Continuous
 62
     2
100
AcDbBlockReference
  2
_CLOSED
 10
79.695348774
 20
526.9173317431
 30
0.0
 41
2.5
 42
2.5
 43
2.5
 50
180.0
  0
INSERT
  5
280
330
214
100
AcDbEntity
  8
0
  6
Continuous
 62
     2
100
AcDbBlockReference
  2
_CLOSED
 10
752.695348774
 20
526.9173317431
 30
0.0
 41
2.5
 42
2.5
 43
2.5
  0
ENDBLK
  5
281
330
214
100
AcDbEntity
  8
0
  6
ByBlock
 62
     0
100
AcDbBlockEnd
  0
BLOCK
  5
21B
330
215
100
AcDbEntity
  8
0
100
AcDbBlockBegin
  2
LOGO2_BL1
 70
     0
 10
714.7888593262
 20
42.0851137517
 30
0.0
  3
LOGO2_BL1
  1

  0
LINE
  5
21C
330
215
100
AcDbEntity
  8
0
  6
Continuous
 62
     7
100
AcDbLine
 10
706.5317845544
 20
45.2806050905
 30
0.0
 11
705.227443625
 21
45.2806050905
 31
0.0
  0
LINE
  5
21D
330
215
100
AcDbEntity
  8
0
  6
Continuous
 62
     7
100
AcDbLine
 10
705.227443625
 20
45.2806050905
 30
0.0
 11
705.227443625
 21
34.8215390306
 31
0.0
  0
LINE
  5
21E
330
215
100
AcDbEntity
  8
0
  6
Continuous
 62
     7
100
AcDbLine
 10
705.227443625
 20
34.8215390306
 30
0.0
 11
709.7084985133
 21
34.8215390306
 31
0.0
  0
LINE
  5
21F
330
215
100
AcDbEntity
  8
0
  6
Continuous
 62
     7
100
AcDbLine
 10
709.7084985133
 20
34.8215390306
 30
0.0
 11
709.7084985133
 21
36.0143933557
 31
0.0
  0
LINE
  5
220
330
215
100
AcDbEntity
  8
0
  6
Continuous
 62
     7
100
AcDbLine
 10
709.7084985133
 20
36.0143933557
 30
0.0
 11
706.5317845544
 21
36.0143933557
 31
0.0
  0
LINE
  5
221
330
215
100
AcDbEntity
  8
0
  6
Continuous
 62
     7
100
AcDbLine
 10
706.5317845544
 20
36.0143933557
 30
0.0
 11
706.5317845544
 21
45.2806050905
 31
0.0
  0
LINE
  5
222
330
215
100
AcDbEntity
  8
0
  6
Continuous
 62
     7
100
AcDbLine
 10
721.4681107707
 20
45.2806050905
 30
0.0
 11
720.1642932526
 21
45.2806050905
 31
0.0
  0
LINE
  5
223
330
215
100
AcDbEntity
  8
0
  6
Continuous
 62
     7
100
AcDbLine
 10
720.1642932526
 20
45.2806050905
 30
0.0
 11
720.1642932526
 21
34.8215390306
 31
0.0
  0
LINE
  5
224
330
215
100
AcDbEntity
  8
0
  6
Continuous
 62
     7
100
AcDbLine
 10
720.1642932526
 20
34.8215390306
 30
0.0
 11
724.6454789937
 21
34.8215390306
 31
0.0
  0
LINE
  5
225
330
215
100
AcDbEntity
  8
0
  6
Continuous
 62
     7
100
AcDbLine
 10
724.6454789937
 20
34.8215390306
 30
0.0
 11
724.6454789937
 21
36.0143933557
 31
0.0
  0
LINE
  5
226
330
215
100
AcDbEntity
  8
0
  6
Continuous
 62
     7
100
AcDbLine
 10
724.6454789937
 20
36.0143933557
 30
0.0
 11
721.4681107707
 21
36.0143933557
 31
0.0
  0
LINE
  5
227
330
215
100
AcDbEntity
  8
0
  6
Continuous
 62
     7
100
AcDbLine
 10
721.4681107707
 20
36.0143933557
 30
0.0
 11
721.4681107707
 21
45.2806050905
 31
0.0
  0
LWPOLYLINE
  5
228
330
215
100
AcDbEntity
  8
0
  6
Continuous
 62
     7
100
AcDbPolyline
 90
        2
 70
     0
 43
0.2
 10
703.5818385359
 20
31.4779877237
 10
703.5818385359
 20
29.6209244744
  0
LWPOLYLINE
  5
229
330
215
100
AcDbEntity
  8
0
  6
Continuous
 62
     7
100
AcDbPolyline
 90
        2
 70
     0
 43
0.2
 10
703.5818385359
 20
29.6209244744
 10
704.3775545463
 20
29.6209244744
  0
LWPOLYLINE
  5
22A
330
215
100
AcDbEntity
  8
0
  6
Continuous
 62
     7
100
AcDbPolyline
 90
        2
 70
     0
 43
0.2
 10
704.3775545463
 20
29.6209244744
 10
704.3775545463
 20
29.832906046
  0
LWPOLYLINE
  5
22B
330
215
100
AcDbEntity
  8
0
  6
Continuous
 62
     7
100
AcDbPolyline
 90
        2
 70
     0
 43
0.2
 10
704.3775545463
 20
29.832906046
 10
703.8134480308
 20
29.832906046
  0
LWPOLYLINE
  5
22C
330
215
100
AcDbEntity
  8
0
  6
Continuous
 62
     7
100
AcDbPolyline
 90
        2
 70
     0
 43
0.2
 10
703.8134480308
 20
29.832906046
 10
703.8134480308
 20
31.4779877237
  0
LWPOLYLINE
  5
22D
330
215
100
AcDbEntity
  8
0
  6
Continuous
 62
     7
100
AcDbPolyline
 90
        2
 70
     0
 43
0.2
 10
703.8134480308
 20
31.4779877237
 10
703.5818385359
 20
31.4779877237
  0
SPLINE
  5
22E
330
215
100
AcDbEntity
  8
0
  6
Continuous
 62
     7
100
AcDbSpline
 70
     3
 71
     3
 72
    35
 73
    31
 74
     0
 42
0.000000001
 43
0.0000001
 40
0.0
 40
0.0
 40
0.0
 40
0.0
 40
1.0
 40
1.0
 40
1.0
 40
2.0
 40
2.0
 40
2.0
 40
3.0
 40
3.0
 40
3.0
 40
4.0
 40
4.0
 40
4.0
 40
5.0
 40
5.0
 40
5.0
 40
6.0
 40
6.0
 40
6.0
 40
7.0
 40
7.0
 40
7.0
 40
8.0
 40
8.0
 40
8.0
 40
9.0
 40
9.0
 40
9.0
 40
10.0
 40
10.0
 40
10.0
 40
10.0
 10
705.7758478019
 20
30.7734761303
 30
0.0
 10
705.7758478019
 20
30.7734761303
 30
0.0
 10
705.7758478019
 20
30.1113608511
 30
0.0
 10
705.7758478019
 20
30.1113608511
 30
0.0
 10
705.7758478019
 20
29.7962672558
 30
0.0
 10
705.9237114907
 20
29.5816686278
 30
0.0
 10
706.263797975
 20
29.5816686278
 30
0.0
 10
706.603361048
 20
29.5816686278
 30
0.0
 10
706.7514864425
 20
29.7962672558
 30
0.0
 10
706.7514864425
 20
30.1113608511
 30
0.0
 10
706.7514864425
 20
30.1113608511
 30
0.0
 10
706.7514864425
 20
30.7734761303
 30
0.0
 10
706.7514864425
 20
30.7734761303
 30
0.0
 10
706.7514864425
 20
30.7734761303
 30
0.0
 10
706.5294292036
 20
30.7734761303
 30
0.0
 10
706.5294292036
 20
30.7734761303
 30
0.0
 10
706.5294292036
 20
30.7734761303
 30
0.0
 10
706.5294292036
 20
30.1364845929
 30
0.0
 10
706.5294292036
 20
30.1364845929
 30
0.0
 10
706.5294292036
 20
29.9506735857
 30
0.0
 10
706.4827147461
 20
29.7878926752
 30
0.0
 10
706.263797975
 20
29.7878926752
 30
0.0
 10
706.0443577926
 20
29.7878926752
 30
0.0
 10
705.9976433351
 20
29.9506735857
 30
0.0
 10
705.9976433351
 20
30.1364845929
 30
0.0
 10
705.9976433351
 20
30.1364845929
 30
0.0
 10
705.9976433351
 20
30.7734761303
 30
0.0
 10
705.9976433351
 20
30.7734761303
 30
0.0
 10
705.9976433351
 20
30.7734761303
 30
0.0
 10
705.7758478019
 20
30.7734761303
 30
0.0
 10
705.7758478019
 20
30.7734761303
 30
0.0
  0
SPLINE
  5
22F
330
215
100
AcDbEntity
  8
0
  6
Continuous
 62
     7
100
AcDbSpline
 70
     3
 71
     3
 72
    35
 73
    31
 74
     0
 42
0.000000001
 43
0.0000001
 40
0.0
 40
0.0
 40
0.0
 40
0.0
 40
1.0
 40
1.0
 40
1.0
 40
2.0
 40
2.0
 40
2.0
 40
3.0
 40
3.0
 40
3.0
 40
4.0
 40
4.0
 40
4.0
 40
5.0
 40
5.0
 40
5.0
 40
6.0
 40
6.0
 40
6.0
 40
7.0
 40
7.0
 40
7.0
 40
8.0
 40
8.0
 40
8.0
 40
9.0
 40
9.0
 40
9.0
 40
10.0
 40
10.0
 40
10.0
 40
10.0
 10
709.1746189997
 20
30.7321266385
 30
0.0
 10
709.086162492
 20
30.7834209447
 30
0.0
 10
708.9727130954
 20
30.8085446865
 30
0.0
 10
708.8690776604
 20
30.8085446865
 30
0.0
 10
708.5142048072
 20
30.8085446865
 30
0.0
 10
708.2387596169
 20
30.5447453975
 30
0.0
 10
708.2387596169
 20
30.1872554878
 30
0.0
 10
708.2387596169
 20
29.8423274491
 30
0.0
 10
708.5172144221
 20
29.5821920391
 30
0.0
 10
708.8567774951
 20
29.5821920391
 30
0.0
 10
708.9727130954
 20
29.5821920391
 30
0.0
 10
709.0734697683
 20
29.6041753132
 30
0.0
 10
709.1746189997
 20
29.6580866758
 30
0.0
 10
709.1746189997
 20
29.6580866758
 30
0.0
 10
709.1746189997
 20
29.9407287713
 30
0.0
 10
709.1746189997
 20
29.9407287713
 30
0.0
 10
709.0907423408
 20
29.847561562
 30
0.0
 10
708.9872377586
 20
29.7884160865
 30
0.0
 10
708.8591328459
 20
29.7884160865
 30
0.0
 10
708.6254297059
 20
29.7884160865
 30
0.0
 10
708.4601625917
 20
29.9606184002
 30
0.0
 10
708.4601625917
 20
30.1972003023
 30
0.0
 10
708.4601625917
 20
30.4091818739
 30
0.0
 10
708.6279159095
 20
30.6012738166
 30
0.0
 10
708.8447390355
 20
30.6012738166
 30
0.0
 10
708.9775546498
 20
30.6012738166
 30
0.0
 10
709.086162492
 20
30.5473624539
 30
0.0
 10
709.1746189997
 20
30.4463440753
 30
0.0
 10
709.1746189997
 20
30.4463440753
 30
0.0
 10
709.1746189997
 20
30.7321266385
 30
0.0
 10
709.1746189997
 20
30.7321266385
 30
0.0
  0
SPLINE
  5
230
330
215
100
AcDbEntity
  8
0
  6
Continuous
 62
     7
100
AcDbSpline
 70
     3
 71
     3
 72
    32
 73
    28
 74
     0
 42
0.000000001
 43
0.0000001
 40
0.0
 40
0.0
 40
0.0
 40
0.0
 40
1.0
 40
1.0
 40
1.0
 40
2.0
 40
2.0
 40
2.0
 40
3.0
 40
3.0
 40
3.0
 40
4.0
 40
4.0
 40
4.0
 40
5.0
 40
5.0
 40
5.0
 40
6.0
 40
6.0
 40
6.0
 40
7.0
 40
7.0
 40
7.0
 40
8.0
 40
8.0
 40
8.0
 40
9.0
 40
9.0
 40
9.0
 40
9.0
 10
711.7064902519
 20
30.1605615122
 30
0.0
 10
711.7064902519
 20
30.1605615122
 30
0.0
 10
711.7064902519
 20
30.1945832459
 30
0.0
 10
711.7064902519
 20
30.1945832459
 30
0.0
 10
711.7064902519
 20
30.5368942281
 30
0.0
 10
711.5336336741
 20
30.8085446865
 30
0.0
 10
711.1669840669
 20
30.8085446865
 30
0.0
 10
710.7953620525
 20
30.8085446865
 30
0.0
 10
710.6056254607
 20
30.542128341
 30
0.0
 10
710.6056254607
 20
30.1872554878
 30
0.0
 10
710.6056254607
 20
29.847561562
 30
0.0
 10
710.8197006774
 20
29.5816686278
 30
0.0
 10
711.1718256213
 20
29.5816686278
 30
0.0
 10
711.3958456526
 20
29.5816686278
 30
0.0
 10
711.5980132625
 20
29.6973425224
 30
0.0
 10
711.7064902519
 20
29.8967622231
 30
0.0
 10
711.7064902519
 20
29.8967622231
 30
0.0
 10
711.5188473052
 20
30.0035381258
 30
0.0
 10
711.5188473052
 20
30.0035381258
 30
0.0
 10
711.4353632048
 20
29.8648341345
 30
0.0
 10
711.3441587879
 20
29.7789946833
 30
0.0
 10
711.1745735306
 20
29.7789946833
 30
0.0
 10
710.962591959
 20
29.7789946833
 30
0.0
 10
710.8296454919
 20
29.9637588679
 30
0.0
 10
710.8272901411
 20
30.1605615122
 30
0.0
 10
710.8272901411
 20
30.1605615122
 30
0.0
 10
711.7064902519
 20
30.1605615122
 30
0.0
 10
711.7064902519
 20
30.1605615122
 30
0.0
  0
SPLINE
  5
231
330
215
100
AcDbEntity
  8
0
  6
Continuous
 62
     7
100
AcDbSpline
 70
     3
 71
     3
 72
    14
 73
    10
 74
     0
 42
0.000000001
 43
0.0000001
 40
0.0
 40
0.0
 40
0.0
 40
0.0
 40
1.0
 40
1.0
 40
1.0
 40
2.0
 40
2.0
 40
2.0
 40
3.0
 40
3.0
 40
3.0
 40
3.0
 10
710.8393286007
 20
30.3280531243
 30
0.0
 10
710.8669385462
 20
30.49292768
 30
0.0
 10
710.9947817532
 20
30.6159293326
 30
0.0
 10
711.1669840669
 20
30.6159293326
 30
0.0
 10
711.3441587879
 20
30.6159293326
 30
0.0
 10
711.4576081845
 20
30.500255438
 30
0.0
 10
711.4848255715
 20
30.3280531243
 30
0.0
 10
711.4848255715
 20
30.3280531243
 30
0.0
 10
710.8393286007
 20
30.3280531243
 30
0.0
 10
710.8393286007
 20
30.3280531243
 30
0.0
  0
SPLINE
  5
232
330
215
100
AcDbEntity
  8
0
  6
Continuous
 62
     7
100
AcDbSpline
 70
     3
 71
     3
 72
    20
 73
    16
 74
     0
 42
0.000000001
 43
0.0000001
 40
0.0
 40
0.0
 40
0.0
 40
0.0
 40
1.0
 40
1.0
 40
1.0
 40
2.0
 40
2.0
 40
2.0
 40
3.0
 40
3.0
 40
3.0
 40
4.0
 40
4.0
 40
4.0
 40
5.0
 40
5.0
 40
5.0
 40
5.0
 10
713.7305217021
 20
30.5374176394
 30
0.0
 10
713.7305217021
 20
30.5374176394
 30
0.0
 10
714.1416612687
 20
30.0349428031
 30
0.0
 10
714.1416612687
 20
30.0349428031
 30
0.0
 10
714.0255948156
 20
29.9192689085
 30
0.0
 10
713.8878067941
 20
29.7889394978
 30
0.0
 10
713.715866186
 20
29.7889394978
 30
0.0
 10
713.5384297595
 20
29.7889394978
 30
0.0
 10
713.3709381473
 20
29.9532906422
 30
0.0
 10
713.3709381473
 20
30.1302036575
 30
0.0
 10
713.3709381473
 20
30.3081634953
 30
0.0
 10
713.5806952209
 20
30.4343056157
 30
0.0
 10
713.7082767224
 20
30.5222387121
 30
0.0
 10
713.7082767224
 20
30.5222387121
 30
0.0
 10
713.7305217021
 20
30.5374176394
 30
0.0
 10
713.7305217021
 20
30.5374176394
 30
0.0
  0
SPLINE
  5
233
330
215
100
AcDbEntity
  8
0
  6
Continuous
 62
     7
100
AcDbSpline
 70
     3
 71
     3
 72
    23
 73
    19
 74
     0
 42
0.000000001
 43
0.0000001
 40
0.0
 40
0.0
 40
0.0
 40
0.0
 40
1.0
 40
1.0
 40
1.0
 40
2.0
 40
2.0
 40
2.0
 40
3.0
 40
3.0
 40
3.0
 40
4.0
 40
4.0
 40
4.0
 40
5.0
 40
5.0
 40
5.0
 40
6.0
 40
6.0
 40
6.0
 40
6.0
 10
713.779853216
 20
30.8284343155
 30
0.0
 10
713.779853216
 20
30.8284343155
 30
0.0
 10
713.7182215368
 20
30.9069460087
 30
0.0
 10
713.7182215368
 20
30.9069460087
 30
0.0
 10
713.6643101742
 20
30.9755128874
 30
0.0
 10
713.6075200495
 20
31.0446031774
 30
0.0
 10
713.6075200495
 20
31.1382937979
 30
0.0
 10
713.6075200495
 20
31.2571081603
 30
0.0
 10
713.703435168
 20
31.3345730309
 30
0.0
 10
713.814398361
 20
31.3345730309
 30
0.0
 10
713.9376617193
 20
31.3345730309
 30
0.0
 10
714.0309597813
 20
31.2633890957
 30
0.0
 10
714.0309597813
 20
31.133059685
 30
0.0
 10
714.0309597813
 20
30.9980195728
 30
0.0
 10
713.9028548686
 20
30.9216015247
 30
0.0
 10
713.8092951009
 20
30.8478005331
 30
0.0
 10
713.8092951009
 20
30.8478005331
 30
0.0
 10
713.779853216
 20
30.8284343155
 30
0.0
 10
713.779853216
 20
30.8284343155
 30
0.0
  0
SPLINE
  5
234
330
215
100
AcDbEntity
  8
0
  6
Continuous
 62
     7
100
AcDbSpline
 70
     3
 71
     3
 72
    50
 73
    46
 74
     0
 42
0.000000001
 43
0.0000001
 40
0.0
 40
0.0
 40
0.0
 40
0.0
 40
1.0
 40
1.0
 40
1.0
 40
2.0
 40
2.0
 40
2.0
 40
3.0
 40
3.0
 40
3.0
 40
4.0
 40
4.0
 40
4.0
 40
5.0
 40
5.0
 40
5.0
 40
6.0
 40
6.0
 40
6.0
 40
7.0
 40
7.0
 40
7.0
 40
8.0
 40
8.0
 40
8.0
 40
9.0
 40
9.0
 40
9.0
 40
10.0
 40
10.0
 40
10.0
 40
11.0
 40
11.0
 40
11.0
 40
12.0
 40
12.0
 40
12.0
 40
13.0
 40
13.0
 40
13.0
 40
14.0
 40
14.0
 40
14.0
 40
15.0
 40
15.0
 40
15.0
 40
15.0
 10
714.4820094587
 20
29.6214478857
 30
0.0
 10
714.4820094587
 20
29.6214478857
 30
0.0
 10
714.7673994634
 20
29.6214478857
 30
0.0
 10
714.7673994634
 20
29.6214478857
 30
0.0
 10
714.7673994634
 20
29.6214478857
 30
0.0
 10
714.4350332956
 20
30.0323257466
 30
0.0
 10
714.4350332956
 20
30.0323257466
 30
0.0
 10
714.4350332956
 20
30.0323257466
 30
0.0
 10
714.6615395304
 20
30.2982186809
 30
0.0
 10
714.6615395304
 20
30.2982186809
 30
0.0
 10
714.6615395304
 20
30.2982186809
 30
0.0
 10
714.5132832831
 20
30.4510547769
 30
0.0
 10
714.5132832831
 20
30.4510547769
 30
0.0
 10
714.5132832831
 20
30.4510547769
 30
0.0
 10
714.2973761269
 20
30.1998173588
 30
0.0
 10
714.2973761269
 20
30.1998173588
 30
0.0
 10
714.2973761269
 20
30.1998173588
 30
0.0
 10
713.9103134795
 20
30.6677470501
 30
0.0
 10
713.9103134795
 20
30.6677470501
 30
0.0
 10
714.065766632
 20
30.7818507109
 30
0.0
 10
714.248044613
 20
30.9216015247
 30
0.0
 10
714.248044613
 20
31.1309660399
 30
0.0
 10
714.248044613
 20
31.3748757
 30
0.0
 10
714.0460078559
 20
31.5182903929
 30
0.0
 10
713.819501621
 20
31.5182903929
 30
0.0
 10
713.5753302552
 20
31.5182903929
 30
0.0
 10
713.3909586291
 20
31.367547942
 30
0.0
 10
713.3909586291
 20
31.1110764109
 30
0.0
 10
713.3909586291
 20
30.9535296133
 30
0.0
 10
713.4896216569
 20
30.8158724446
 30
0.0
 10
713.5949581785
 20
30.7049092516
 30
0.0
 10
713.5949581785
 20
30.7049092516
 30
0.0
 10
713.4794151367
 20
30.6211634455
 30
0.0
 10
713.4794151367
 20
30.6211634455
 30
0.0
 10
713.3017170045
 20
30.49292768
 30
0.0
 10
713.154376727
 20
30.3652153257
 30
0.0
 10
713.154376727
 20
30.1281100123
 30
0.0
 10
713.154376727
 20
29.8077823041
 30
0.0
 10
713.4129419032
 20
29.5816686278
 30
0.0
 10
713.7233247969
 20
29.5816686278
 30
0.0
 10
713.942241568
 20
29.5816686278
 30
0.0
 10
714.1394367707
 20
29.7067639256
 30
0.0
 10
714.2797109959
 20
29.8726853038
 30
0.0
 10
714.2797109959
 20
29.8726853038
 30
0.0
 10
714.4820094587
 20
29.6214478857
 30
0.0
 10
714.4820094587
 20
29.6214478857
 30
0.0
  0
LWPOLYLINE
  5
235
330
215
100
AcDbEntity
  8
0
  6
Continuous
 62
     7
100
AcDbPolyline
 90
        2
 70
     0
 43
0.2
 10
716.4174535484
 20
31.4779877237
 10
716.1861057591
 20
31.4779877237
  0
LWPOLYLINE
  5
236
330
215
100
AcDbEntity
  8
0
  6
Continuous
 62
     7
100
AcDbPolyline
 90
        2
 70
     0
 43
0.2
 10
716.1861057591
 20
31.4779877237
 10
716.1861057591
 20
29.6209244744
  0
LWPOLYLINE
  5
237
330
215
100
AcDbEntity
  8
0
  6
Continuous
 62
     7
100
AcDbPolyline
 90
        2
 70
     0
 43
0.2
 10
716.1861057591
 20
29.6209244744
 10
716.9814292111
 20
29.6209244744
  0
LWPOLYLINE
  5
238
330
215
100
AcDbEntity
  8
0
  6
Continuous
 62
     7
100
AcDbPolyline
 90
        2
 70
     0
 43
0.2
 10
716.9814292111
 20
29.6209244744
 10
716.9814292111
 20
29.832906046
  0
LWPOLYLINE
  5
239
330
215
100
AcDbEntity
  8
0
  6
Continuous
 62
     7
100
AcDbPolyline
 90
        2
 70
     0
 43
0.2
 10
716.9814292111
 20
29.832906046
 10
716.4174535484
 20
29.832906046
  0
LWPOLYLINE
  5
23A
330
215
100
AcDbEntity
  8
0
  6
Continuous
 62
     7
100
AcDbPolyline
 90
        2
 70
     0
 43
0.2
 10
716.4174535484
 20
29.832906046
 10
716.4174535484
 20
31.4779877237
  0
LWPOLYLINE
  5
23B
330
215
100
AcDbEntity
  8
0
  6
Continuous
 62
     7
100
AcDbPolyline
 90
        2
 70
     0
 43
0.2
 10
718.6605326225
 20
30.7734761303
 10
718.4393913534
 20
30.7734761303
  0
LWPOLYLINE
  5
23C
330
215
100
AcDbEntity
  8
0
  6
Continuous
 62
     7
100
AcDbPolyline
 90
        2
 70
     0
 43
0.2
 10
718.4393913534
 20
30.7734761303
 10
718.4393913534
 20
29.6214478857
  0
LWPOLYLINE
  5
23D
330
215
100
AcDbEntity
  8
0
  6
Continuous
 62
     7
100
AcDbPolyline
 90
        2
 70
     0
 43
0.2
 10
718.4393913534
 20
29.6214478857
 10
718.6605326225
 20
29.6214478857
  0
LWPOLYLINE
  5
23E
330
215
100
AcDbEntity
  8
0
  6
Continuous
 62
     7
100
AcDbPolyline
 90
        2
 70
     0
 43
0.2
 10
718.6605326225
 20
29.6214478857
 10
718.6605326225
 20
30.7734761303
  0
LWPOLYLINE
  5
23F
330
215
100
AcDbEntity
  8
0
  6
Continuous
 62
     7
100
AcDbPolyline
 90
        2
 70
     1
 43
0.2
 10
718.3975093453
 20
31.3034300592
 42
1.0
 10
718.7026763363
 20
31.3034300592
 42
1.0
  0
SPLINE
  5
240
330
215
100
AcDbEntity
  8
0
  6
Continuous
 62
     7
100
AcDbSpline
 70
     3
 71
     3
 72
    17
 73
    13
 74
     0
 42
0.000000001
 43
0.0000001
 40
0.0
 40
0.0
 40
0.0
 40
0.0
 40
1.0
 40
1.0
 40
1.0
 40
2.0
 40
2.0
 40
2.0
 40
3.0
 40
3.0
 40
3.0
 40
4.0
 40
4.0
 40
4.0
 40
4.0
 10
720.7908165642
 20
29.7789946833
 30
0.0
 10
720.5568517185
 20
29.7789946833
 30
0.0
 10
720.4265223078
 20
29.9810314404
 30
0.0
 10
720.4265223078
 20
30.1972003023
 30
0.0
 10
720.4265223078
 20
30.4117989303
 30
0.0
 10
720.562347537
 20
30.6106952197
 30
0.0
 10
720.7908165642
 20
30.6106952197
 30
0.0
 10
721.0302772284
 20
30.6106952197
 30
0.0
 10
721.1658407519
 20
30.4217437448
 30
0.0
 10
721.1658407519
 20
30.1972003023
 30
0.0
 10
721.1658407519
 20
29.971086626
 30
0.0
 10
721.0326325792
 20
29.7789946833
 30
0.0
 10
720.7908165642
 20
29.7789946833
 30
0.0
  0
SPLINE
  5
241
330
215
100
AcDbEntity
  8
0
  6
Continuous
 62
     7
100
AcDbSpline
 70
     3
 71
     3
 72
    50
 73
    46
 74
     0
 42
0.000000001
 43
0.0000001
 40
0.0
 40
0.0
 40
0.0
 40
0.0
 40
1.0
 40
1.0
 40
1.0
 40
2.0
 40
2.0
 40
2.0
 40
3.0
 40
3.0
 40
3.0
 40
4.0
 40
4.0
 40
4.0
 40
5.0
 40
5.0
 40
5.0
 40
6.0
 40
6.0
 40
6.0
 40
7.0
 40
7.0
 40
7.0
 40
8.0
 40
8.0
 40
8.0
 40
9.0
 40
9.0
 40
9.0
 40
10.0
 40
10.0
 40
10.0
 40
11.0
 40
11.0
 40
11.0
 40
12.0
 40
12.0
 40
12.0
 40
13.0
 40
13.0
 40
13.0
 40
14.0
 40
14.0
 40
14.0
 40
15.0
 40
15.0
 40
15.0
 40
15.0
 10
721.3749435614
 20
30.7739995415
 30
0.0
 10
721.3749435614
 20
30.7739995415
 30
0.0
 10
721.153278881
 20
30.7739995415
 30
0.0
 10
721.153278881
 20
30.7739995415
 30
0.0
 10
721.153278881
 20
30.7739995415
 30
0.0
 10
721.153278881
 20
30.576673486
 30
0.0
 10
721.153278881
 20
30.576673486
 30
0.0
 10
721.153278881
 20
30.576673486
 30
0.0
 10
721.1485681794
 20
30.576673486
 30
0.0
 10
721.1485681794
 20
30.576673486
 30
0.0
 10
721.0572329097
 20
30.7195647676
 30
0.0
 10
720.9193140354
 20
30.8080212753
 30
0.0
 10
720.7465883104
 20
30.8080212753
 30
0.0
 10
720.4142221426
 20
30.8080212753
 30
0.0
 10
720.2051193331
 20
30.5201450669
 30
0.0
 10
720.2051193331
 20
30.2045280603
 30
0.0
 10
720.2051193331
 20
29.874778949
 30
0.0
 10
720.4021836829
 20
29.5816686278
 30
0.0
 10
720.7570565361
 20
29.5816686278
 30
0.0
 10
720.9193140354
 20
29.5816686278
 30
0.0
 10
721.0593265549
 20
29.6701251354
 30
0.0
 10
721.1485681794
 20
29.8009779574
 30
0.0
 10
721.1485681794
 20
29.8009779574
 30
0.0
 10
721.153278881
 20
29.8009779574
 30
0.0
 10
721.153278881
 20
29.8009779574
 30
0.0
 10
721.153278881
 20
29.8009779574
 30
0.0
 10
721.153278881
 20
29.5816686278
 30
0.0
 10
721.153278881
 20
29.5816686278
 30
0.0
 10
721.153278881
 20
29.3450867257
 30
0.0
 10
721.0967504619
 20
29.1582288959
 30
0.0
 10
720.8235297697
 20
29.1582288959
 30
0.0
 10
720.6212313069
 20
29.1582288959
 30
0.0
 10
720.478601731
 20
29.276519847
 30
0.0
 10
720.478601731
 20
29.4827438944
 30
0.0
 10
720.478601731
 20
29.4827438944
 30
0.0
 10
720.2569370506
 20
29.4827438944
 30
0.0
 10
720.2569370506
 20
29.4827438944
 30
0.0
 10
720.2619094578
 20
29.1582288959
 30
0.0
 10
720.4929955414
 20
28.9614262517
 30
0.0
 10
720.8133232496
 20
28.9614262517
 30
0.0
 10
721.261363312
 20
28.9614262517
 30
0.0
 10
721.3749435614
 20
29.2466854035
 30
0.0
 10
721.3749435614
 20
29.6434311598
 30
0.0
 10
721.3749435614
 20
29.6434311598
 30
0.0
 10
721.3749435614
 20
30.7739995415
 30
0.0
 10
721.3749435614
 20
30.7739995415
 30
0.0
  0
SPLINE
  5
242
330
215
100
AcDbEntity
  8
0
  6
Continuous
 62
     7
100
AcDbSpline
 70
     3
 71
     3
 72
    44
 73
    40
 74
     0
 42
0.000000001
 43
0.0000001
 40
0.0
 40
0.0
 40
0.0
 40
0.0
 40
1.0
 40
1.0
 40
1.0
 40
2.0
 40
2.0
 40
2.0
 40
3.0
 40
3.0
 40
3.0
 40
4.0
 40
4.0
 40
4.0
 40
5.0
 40
5.0
 40
5.0
 40
6.0
 40
6.0
 40
6.0
 40
7.0
 40
7.0
 40
7.0
 40
8.0
 40
8.0
 40
8.0
 40
9.0
 40
9.0
 40
9.0
 40
10.0
 40
10.0
 40
10.0
 40
11.0
 40
11.0
 40
11.0
 40
12.0
 40
12.0
 40
12.0
 40
13.0
 40
13.0
 40
13.0
 40
13.0
 10
722.9438688968
 20
31.7590595853
 30
0.0
 10
722.9438688968
 20
31.7590595853
 30
0.0
 10
722.9438688968
 20
29.6209244744
 30
0.0
 10
722.9438688968
 20
29.6209244744
 30
0.0
 10
722.9438688968
 20
29.6209244744
 30
0.0
 10
723.1652718716
 20
29.6209244744
 30
0.0
 10
723.1652718716
 20
29.6209244744
 30
0.0
 10
723.1652718716
 20
29.6209244744
 30
0.0
 10
723.1652718716
 20
30.1506166977
 30
0.0
 10
723.1652718716
 20
30.1506166977
 30
0.0
 10
723.1652718716
 20
30.3605046241
 30
0.0
 10
723.1652718716
 20
30.611218631
 30
0.0
 10
723.4505310235
 20
30.611218631
 30
0.0
 10
723.6774298168
 20
30.611218631
 30
0.0
 10
723.7043854981
 20
30.4782721639
 30
0.0
 10
723.7043854981
 20
30.281992931
 30
0.0
 10
723.7043854981
 20
30.281992931
 30
0.0
 10
723.7043854981
 20
29.6209244744
 30
0.0
 10
723.7043854981
 20
29.6209244744
 30
0.0
 10
723.7043854981
 20
29.6209244744
 30
0.0
 10
723.9263118842
 20
29.6209244744
 30
0.0
 10
723.9263118842
 20
29.6209244744
 30
0.0
 10
723.9263118842
 20
29.6209244744
 30
0.0
 10
723.9263118842
 20
30.3081634953
 30
0.0
 10
723.9263118842
 20
30.3081634953
 30
0.0
 10
723.9263118842
 20
30.5887119456
 30
0.0
 10
723.8423043725
 20
30.8085446865
 30
0.0
 10
723.5172659627
 20
30.8085446865
 30
0.0
 10
723.3775151488
 20
30.8085446865
 30
0.0
 10
723.2393345688
 20
30.742071453
 30
0.0
 10
723.1699825732
 20
30.6190698003
 30
0.0
 10
723.1699825732
 20
30.6190698003
 30
0.0
 10
723.1652718716
 20
30.6190698003
 30
0.0
 10
723.1652718716
 20
30.6190698003
 30
0.0
 10
723.1652718716
 20
30.6190698003
 30
0.0
 10
723.1652718716
 20
31.7590595853
 30
0.0
 10
723.1652718716
 20
31.7590595853
 30
0.0
 10
723.1652718716
 20
31.7590595853
 30
0.0
 10
722.9438688968
 20
31.7590595853
 30
0.0
 10
722.9438688968
 20
31.7590595853
 30
0.0
  0
LWPOLYLINE
  5
243
330
215
100
AcDbEntity
  8
0
  6
Continuous
 62
     7
100
AcDbPolyline
 90
        2
 70
     0
 43
0.2
 10
725.766102561
 20
30.5667286716
 10
725.9825331286
 20
30.5667286716
  0
LWPOLYLINE
  5
244
330
215
100
AcDbEntity
  8
0
  6
Continuous
 62
     7
100
AcDbPolyline
 90
        2
 70
     0
 43
0.2
 10
725.9825331286
 20
30.5667286716
 10
725.9825331286
 20
30.7734761303
  0
LWPOLYLINE
  5
245
330
215
100
AcDbEntity
  8
0
  6
Continuous
 62
     7
100
AcDbPolyline
 90
        2
 70
     0
 43
0.2
 10
725.9825331286
 20
30.7734761303
 10
725.766102561
 20
30.7734761303
  0
LWPOLYLINE
  5
246
330
215
100
AcDbEntity
  8
0
  6
Continuous
 62
     7
100
AcDbPolyline
 90
        2
 70
     0
 43
0.2
 10
725.766102561
 20
30.7734761303
 10
725.766102561
 20
31.2141884346
  0
LWPOLYLINE
  5
247
330
215
100
AcDbEntity
  8
0
  6
Continuous
 62
     7
100
AcDbPolyline
 90
        2
 70
     0
 43
0.2
 10
725.766102561
 20
31.2141884346
 10
725.5444378806
 20
31.2141884346
  0
LWPOLYLINE
  5
248
330
215
100
AcDbEntity
  8
0
  6
Continuous
 62
     7
100
AcDbPolyline
 90
        2
 70
     0
 43
0.2
 10
725.5444378806
 20
31.2141884346
 10
725.5444378806
 20
30.7734761303
  0
LWPOLYLINE
  5
249
330
215
100
AcDbEntity
  8
0
  6
Continuous
 62
     7
100
AcDbPolyline
 90
        2
 70
     0
 43
0.2
 10
725.5444378806
 20
30.7734761303
 10
725.4237915788
 20
30.7734761303
  0
LWPOLYLINE
  5
24A
330
215
100
AcDbEntity
  8
0
  6
Continuous
 62
     7
100
AcDbPolyline
 90
        2
 70
     0
 43
0.2
 10
725.4237915788
 20
30.7734761303
 10
725.4237915788
 20
30.5667286716
  0
LWPOLYLINE
  5
24B
330
215
100
AcDbEntity
  8
0
  6
Continuous
 62
     7
100
AcDbPolyline
 90
        2
 70
     0
 43
0.2
 10
725.4237915788
 20
30.5667286716
 10
725.5444378806
 20
30.5667286716
  0
LWPOLYLINE
  5
24C
330
215
100
AcDbEntity
  8
0
  6
Continuous
 62
     7
100
AcDbPolyline
 90
        2
 70
     0
 43
0.2
 10
725.5444378806
 20
30.5667286716
 10
725.5444378806
 20
29.6209244744
  0
LWPOLYLINE
  5
24D
330
215
100
AcDbEntity
  8
0
  6
Continuous
 62
     7
100
AcDbPolyline
 90
        2
 70
     0
 43
0.2
 10
725.5444378806
 20
29.6209244744
 10
725.766102561
 20
29.6209244744
  0
LWPOLYLINE
  5
24E
330
215
100
AcDbEntity
  8
0
  6
Continuous
 62
     7
100
AcDbPolyline
 90
        2
 70
     0
 43
0.2
 10
725.766102561
 20
29.6209244744
 10
725.766102561
 20
30.5667286716
  0
SPLINE
  5
24F
330
215
100
AcDbEntity
  8
0
  6
Continuous
 62
     7
100
AcDbSpline
 70
     3
 71
     3
 72
    20
 73
    16
 74
     0
 42
0.000000001
 43
0.0000001
 40
0.0
 40
0.0
 40
0.0
 40
0.0
 40
1.0
 40
1.0
 40
1.0
 40
2.0
 40
2.0
 40
2.0
 40
3.0
 40
3.0
 40
3.0
 40
4.0
 40
4.0
 40
4.0
 40
5.0
 40
5.0
 40
5.0
 40
5.0
 10
713.5481128683
 20
39.9818509178
 30
0.0
 10
713.5481128683
 20
39.9818509178
 30
0.0
 10
715.8644695227
 20
37.1522894955
 30
0.0
 10
715.8644695227
 20
37.1522894955
 30
0.0
 10
715.2128224693
 20
36.5001190308
 30
0.0
 10
714.4359492653
 20
35.7642027601
 30
0.0
 10
713.4647596207
 20
35.7642027601
 30
0.0
 10
712.4662217363
 20
35.7642027601
 30
0.0
 10
711.5229037427
 20
36.6937812074
 30
0.0
 10
711.5229037427
 20
37.6929733559
 30
0.0
 10
711.5229037427
 20
38.6921655044
 30
0.0
 10
712.7017568158
 20
39.3987707431
 30
0.0
 10
713.4232792761
 20
39.898628523
 30
0.0
 10
713.4232792761
 20
39.898628523
 30
0.0
 10
713.5481128683
 20
39.9818509178
 30
0.0
 10
713.5481128683
 20
39.9818509178
 30
0.0
  0
SPLINE
  5
250
330
215
100
AcDbEntity
  8
0
  6
Continuous
 62
     7
100
AcDbSpline
 70
     3
 71
     3
 72
    23
 73
    19
 74
     0
 42
0.000000001
 43
0.0000001
 40
0.0
 40
0.0
 40
0.0
 40
0.0
 40
1.0
 40
1.0
 40
1.0
 40
2.0
 40
2.0
 40
2.0
 40
3.0
 40
3.0
 40
3.0
 40
4.0
 40
4.0
 40
4.0
 40
5.0
 40
5.0
 40
5.0
 40
6.0
 40
6.0
 40
6.0
 40
6.0
 10
713.8255208508
 20
41.6196048375
 30
0.0
 10
713.8255208508
 20
41.6196048375
 30
0.0
 10
713.4790225783
 20
42.0629341983
 30
0.0
 10
713.4790225783
 20
42.0629341983
 30
0.0
 10
713.1732195333
 20
42.4510436683
 30
0.0
 10
712.8543312062
 20
42.8395456967
 30
0.0
 10
712.8543312062
 20
43.3664900108
 30
0.0
 10
712.8543312062
 20
44.0326617274
 30
0.0
 10
713.3956693307
 20
44.4763836467
 30
0.0
 10
714.0195755858
 20
44.4763836467
 30
0.0
 10
714.7133572479
 20
44.4763836467
 30
0.0
 10
715.2405632676
 20
44.074142072
 30
0.0
 10
715.2405632676
 20
43.339141771
 30
0.0
 10
715.2405632676
 20
42.5758772604
 30
0.0
 10
714.5193025129
 20
42.1457640346
 30
0.0
 10
713.992227346
 20
41.7300446192
 30
0.0
 10
713.992227346
 20
41.7300446192
 30
0.0
 10
713.8255208508
 20
41.6196048375
 30
0.0
 10
713.8255208508
 20
41.6196048375
 30
0.0
  0
SPLINE
  5
251
330
215
100
AcDbEntity
  8
0
  6
Continuous
 62
     7
100
AcDbSpline
 70
     3
 71
     3
 72
    50
 73
    46
 74
     0
 42
0.000000001
 43
0.0000001
 40
0.0
 40
0.0
 40
0.0
 40
0.0
 40
1.0
 40
1.0
 40
1.0
 40
2.0
 40
2.0
 40
2.0
 40
3.0
 40
3.0
 40
3.0
 40
4.0
 40
4.0
 40
4.0
 40
5.0
 40
5.0
 40
5.0
 40
6.0
 40
6.0
 40
6.0
 40
7.0
 40
7.0
 40
7.0
 40
8.0
 40
8.0
 40
8.0
 40
9.0
 40
9.0
 40
9.0
 40
10.0
 40
10.0
 40
10.0
 40
11.0
 40
11.0
 40
11.0
 40
12.0
 40
12.0
 40
12.0
 40
13.0
 40
13.0
 40
13.0
 40
14.0
 40
14.0
 40
14.0
 40
15.0
 40
15.0
 40
15.0
 40
15.0
 10
717.7791080138
 20
34.8210156194
 30
0.0
 10
717.7791080138
 20
34.8210156194
 30
0.0
 10
719.3883360183
 20
34.8210156194
 30
0.0
 10
719.3883360183
 20
34.8210156194
 30
0.0
 10
719.3883360183
 20
34.8210156194
 30
0.0
 10
717.5153087247
 20
37.1381573908
 30
0.0
 10
717.5153087247
 20
37.1381573908
 30
0.0
 10
717.5153087247
 20
37.1381573908
 30
0.0
 10
718.7916471502
 20
38.6356370854
 30
0.0
 10
718.7916471502
 20
38.6356370854
 30
0.0
 10
718.7916471502
 20
38.6356370854
 30
0.0
 10
717.9594232024
 20
39.4966486539
 30
0.0
 10
717.9594232024
 20
39.4966486539
 30
0.0
 10
717.9594232024
 20
39.4966486539
 30
0.0
 10
716.7388280791
 20
38.0813445315
 30
0.0
 10
716.7388280791
 20
38.0813445315
 30
0.0
 10
716.7388280791
 20
38.0813445315
 30
0.0
 10
714.5609137103
 20
40.7167203659
 30
0.0
 10
714.5609137103
 20
40.7167203659
 30
0.0
 10
715.4344871498
 20
41.3547587258
 30
0.0
 10
716.4611583909
 20
42.1457640346
 30
0.0
 10
716.4611583909
 20
43.3246171077
 30
0.0
 10
716.4611583909
 20
44.6983100328
 30
0.0
 10
715.3232622511
 20
45.5027931822
 30
0.0
 10
714.0479706482
 20
45.5027931822
 30
0.0
 10
712.6745394288
 20
45.5027931822
 30
0.0
 10
711.6336052301
 20
44.6565679826
 30
0.0
 10
711.6336052301
 20
43.2139156204
 30
0.0
 10
711.6336052301
 20
42.326340929
 30
0.0
 10
712.1889446065
 20
41.5494677249
 30
0.0
 10
712.7851100634
 20
40.9250380585
 30
0.0
 10
712.7851100634
 20
40.9250380585
 30
0.0
 10
712.1332013043
 20
40.4534444881
 30
0.0
 10
712.1332013043
 20
40.4534444881
 30
0.0
 10
711.1346634199
 20
39.7321837334
 30
0.0
 10
710.3017852081
 20
39.0109229788
 30
0.0
 10
710.3017852081
 20
37.6793646624
 30
0.0
 10
710.3017852081
 20
35.8756893644
 30
0.0
 10
711.7588313807
 20
34.5990892333
 30
0.0
 10
713.5063708181
 20
34.5990892333
 30
0.0
 10
714.741228899
 20
34.5990892333
 30
0.0
 10
715.8505991236
 20
35.3072647058
 30
0.0
 10
716.6414735796
 20
36.2357963305
 30
0.0
 10
716.6414735796
 20
36.2357963305
 30
0.0
 10
717.7791080138
 20
34.8210156194
 30
0.0
 10
717.7791080138
 20
34.8210156194
 30
0.0
  0
LINE
  5
252
330
215
100
AcDbEntity
  8
0
  6
Continuous
 62
     7
100
AcDbLine
 10
703.5819693888
 20
32.794890524
 30
0.0
 11
725.9958801164
 21
32.794890524
 31
0.0
  0
LINE
  5
253
330
215
100
AcDbEntity
  8
0
  6
Continuous
 62
     7
100
AcDbLine
 10
725.9958801164
 20
32.794890524
 30
0.0
 11
725.9958801164
 21
55.2088012517
 31
0.0
  0
LINE
  5
254
330
215
100
AcDbEntity
  8
0
  6
Continuous
 62
     7
100
AcDbLine
 10
725.9958801164
 20
55.2088012517
 30
0.0
 11
703.5819693888
 21
55.2088012517
 31
0.0
  0
LINE
  5
255
330
215
100
AcDbEntity
  8
0
  6
Continuous
 62
     7
100
AcDbLine
 10
703.5819693888
 20
55.2088012517
 30
0.0
 11
703.5819693888
 21
32.794890524
 31
0.0
  0
ENDBLK
  5
256
330
215
100
AcDbEntity
  8
0
  6
ByBlock
 62
     0
100
AcDbBlockEnd
  0
BLOCK
  5
257
330
216
100
AcDbEntity
  8
0
100
AcDbBlockBegin
  2
PROIEZIONE_EU_BL0
 70
     0
 10
715.9628122814
 20
67.7101137517
 30
0.0
  3
PROIEZIONE_EU_BL0
  1

  0
LWPOLYLINE
  5
258
330
216
100
AcDbEntity
  8
DEFAULT_1
  6
CENTER
 62
     7
100
AcDbPolyline
 90
        2
 70
     0
 43
0.25
 10
722.0894329431
 20
72.7098078835
 10
722.0894739254
 20
62.7104196198
  0
LWPOLYLINE
  5
259
330
216
100
AcDbEntity
  8
DEFAULT_1
  6
CENTER
 62
     7
100
AcDbPolyline
 90
        2
 70
     0
 43
0.25
 10
728.0894627681
 20
67.7103848868
 10
703.8361617947
 20
67.7101142264
  0
LWPOLYLINE
  5
25A
330
216
100
AcDbEntity
  8
0
  6
Continuous
 62
     7
100
AcDbPolyline
 90
        2
 70
     1
 43
0.25
 10
718.5423227673
 20
67.6915659974
 42
1.0
 10
725.6486518659
 20
67.6915659974
 42
1.0
  0
LWPOLYLINE
  5
25B
330
216
100
AcDbEntity
  8
0
  6
Continuous
 62
     7
100
AcDbPolyline
 90
        2
 70
     1
 43
0.25
 10
720.0920665956
 20
67.7094640421
 42
1.0
 10
724.1038183457
 20
67.7094640421
 42
1.0
  0
LWPOLYLINE
  5
25C
330
216
100
AcDbEntity
  8
0
  6
Continuous
 62
     7
100
AcDbPolyline
 90
        2
 70
     0
 43
0.25
 10
716.0894605621
 20
71.2853172469
 10
716.0894602075
 20
64.1851143386
  0
LWPOLYLINE
  5
25D
330
216
100
AcDbEntity
  8
0
  6
Continuous
 62
     7
100
AcDbPolyline
 90
        2
 70
     0
 43
0.25
 10
716.0894886439
 20
64.1850859022
 10
706.0949313728
 20
65.7051793151
  0
LWPOLYLINE
  5
25E
330
216
100
AcDbEntity
  8
0
  6
Continuous
 62
     7
100
AcDbPolyline
 90
        2
 70
     0
 43
0.25
 10
706.0926213871
 20
65.7045017735
 10
706.0899544831
 20
69.7101403849
  0
LWPOLYLINE
  5
25F
330
216
100
AcDbEntity
  8
0
  6
Continuous
 62
     7
100
AcDbPolyline
 90
        2
 70
     0
 43
0.25
 10
706.089946207
 20
69.7101321089
 10
716.0896894443
 20
71.2852893289
  0
ENDBLK
  5
260
330
216
100
AcDbEntity
  8
0
  6
ByBlock
 62
     0
100
AcDbBlockEnd
  0
ENDSEC
  0
SECTION
  2
ENTITIES
  0
LINE
  5
282
330
1B
100
AcDbEntity
 67
     1
  8
0
  6
Continuous
 62
     7
100
AcDbLine
 10
0.0
 20
0.0
 30
0.0
 11
841.0
 21
0.0
 31
0.0
  0
LINE
  5
283
330
1B
100
AcDbEntity
 67
     1
  8
0
  6
Continuous
 62
     7
100
AcDbLine
 10
841.0
 20
0.0
 30
0.0
 11
841.0
 21
594.0
 31
0.0
  0
LINE
  5
284
330
1B
100
AcDbEntity
 67
     1
  8
0
  6
Continuous
 62
     7
100
AcDbLine
 10
0.0
 20
594.0
 30
0.0
 11
841.0
 21
594.0
 31
0.0
  0
LINE
  5
285
330
1B
100
AcDbEntity
 67
     1
  8
0
  6
Continuous
 62
     7
100
AcDbLine
 10
0.0
 20
0.0
 30
0.0
 11
0.0
 21
594.0
 31
0.0
  0
LINE
  5
286
330
1B
100
AcDbEntity
 67
     1
  8
0
  6
Continuous
 62
     7
100
AcDbLine
 10
0.0
 20
587.0
 30
0.0
 11
841.0
 21
587.0
 31
0.0
  0
LINE
  5
287
330
1B
100
AcDbEntity
 67
     1
  8
0
  6
Continuous
 62
     7
100
AcDbLine
 10
0.0
 20
7.0
 30
0.0
 11
834.0
 21
7.0
 31
0.0
  0
LINE
  5
288
330
1B
100
AcDbEntity
 67
     1
  8
0
  6
Continuous
 62
     7
100
AcDbLine
 10
7.0
 20
0.0
 30
0.0
 11
7.0
 21
594.0
 31
0.0
  0
LINE
  5
289
330
1B
100
AcDbEntity
 67
     1
  8
0
  6
Continuous
 62
     7
100
AcDbLine
 10
834.0
 20
7.0
 30
0.0
 11
834.0
 21
594.0
 31
0.0
  0
LINE
  5
28A
330
1B
100
AcDbEntity
 67
     1
  8
0
  6
Continuous
 62
     7
100
AcDbLine
 10
10.0
 20
584.0
 30
0.0
 11
831.0
 21
584.0
 31
0.0
  0
LINE
  5
28B
330
1B
100
AcDbEntity
 67
     1
  8
0
  6
Continuous
 62
     7
100
AcDbLine
 10
10.1045326603
 20
9.9564447249
 30
0.0
 11
831.0019373863
 21
10.0005548773
 31
0.0
  0
LINE
  5
28C
330
1B
100
AcDbEntity
 67
     1
  8
0
  6
Continuous
 62
     7
100
AcDbLine
 10
10.0
 20
10.0
 30
0.0
 11
10.0
 21
584.0
 31
0.0
  0
LINE
  5
28D
330
1B
100
AcDbEntity
 67
     1
  8
0
  6
Continuous
 62
     7
100
AcDbLine
 10
831.0
 20
10.0
 30
0.0
 11
831.0
 21
584.0
 31
0.0
  0
LINE
  5
28E
330
1B
100
AcDbEntity
 67
     1
  8
0
  6
Continuous
 62
     7
100
AcDbLine
 10
420.5
 20
594.0
 30
0.0
 11
420.5
 21
584.0
 31
0.0
  0
LINE
  5
28F
330
1B
100
AcDbEntity
 67
     1
  8
0
  6
Continuous
 62
     7
100
AcDbLine
 10
420.5
 20
0.0
 30
0.0
 11
420.5
 21
10.0
 31
0.0
  0
LINE
  5
290
330
1B
100
AcDbEntity
 67
     1
  8
0
  6
Continuous
 62
     7
100
AcDbLine
 10
841.0
 20
297.0
 30
0.0
 11
831.0
 21
297.0
 31
0.0
  0
LINE
  5
291
330
1B
100
AcDbEntity
 67
     1
  8
0
  6
Continuous
 62
     7
100
AcDbLine
 10
0.0
 20
297.0
 30
0.0
 11
10.0
 21
297.0
 31
0.0
  0
LINE
  5
292
330
1B
100
AcDbEntity
 67
     1
  8
0
  6
Continuous
 62
     7
100
AcDbLine
 10
841.0
 20
420.5
 30
0.0
 11
831.0324714513
 21
420.5
 31
0.0
  0
LINE
  5
293
330
1B
100
AcDbEntity
 67
     1
  8
0
  6
Continuous
 62
     7
100
AcDbLine
 10
631.0
 20
0.0
 30
0.0
 11
631.0
 21
10.0
 31
0.0
  0
LINE
  5
294
330
1B
100
AcDbEntity
 67
     1
  8
0
  6
Continuous
 62
     7
100
AcDbLine
 10
834.0
 20
7.0
 30
0.0
 11
834.0
 21
0.0
 31
0.0
  0
LINE
  5
295
330
1B
100
AcDbEntity
 67
     1
  8
0
  6
Continuous
 62
     7
100
AcDbLine
 10
834.0
 20
7.0
 30
0.0
 11
841.0
 21
7.0
 31
0.0
  0
LINE
  5
296
330
1B
100
AcDbEntity
 67
     1
  8
0
  6
Continuous
 62
     7
100
AcDbLine
 10
734.0
 20
7.0
 30
0.0
 11
734.0
 21
0.0
 31
0.0
  0
LINE
  5
297
330
1B
100
AcDbEntity
 67
     1
  8
0
  6
Continuous
 62
     7
100
AcDbLine
 10
534.0
 20
7.0
 30
0.0
 11
534.0
 21
0.0
 31
0.0
  0
LINE
  5
298
330
1B
100
AcDbEntity
 67
     1
  8
0
  6
Continuous
 62
     7
100
AcDbLine
 10
434.0
 20
7.0
 30
0.0
 11
434.0
 21
0.0
 31
0.0
  0
LINE
  5
299
330
1B
100
AcDbEntity
 67
     1
  8
0
  6
Continuous
 62
     7
100
AcDbLine
 10
834.0
 20
107.0
 30
0.0
 11
841.0
 21
107.0
 31
0.0
  0
LINE
  5
29A
330
1B
100
AcDbEntity
 67
     1
  8
0
  6
Continuous
 62
     7
100
AcDbLine
 10
834.0
 20
207.0
 30
0.0
 11
841.0
 21
207.0
 31
0.0
  0
LINE
  5
29B
330
1B
100
AcDbEntity
 67
     1
  8
0
  6
Continuous
 62
     7
100
AcDbLine
 10
834.0
 20
307.0
 30
0.0
 11
841.0
 21
307.0
 31
0.0
  0
LINE
  5
29C
330
1B
100
AcDbEntity
 67
     1
  8
0
  6
Continuous
 62
     7
100
AcDbLine
 10
631.0
 20
584.0
 30
0.0
 11
631.0
 21
594.0
 31
0.0
  0
LINE
  5
29D
330
1B
100
AcDbEntity
 67
     1
  8
0
  6
Continuous
 62
     7
100
AcDbLine
 10
734.0
 20
594.0
 30
0.0
 11
734.0
 21
587.0
 31
0.0
  0
LINE
  5
29E
330
1B
100
AcDbEntity
 67
     1
  8
0
  6
Continuous
 62
     7
100
AcDbLine
 10
534.0
 20
594.0
 30
0.0
 11
534.0
 21
587.0
 31
0.0
  0
LINE
  5
29F
330
1B
100
AcDbEntity
 67
     1
  8
0
  6
Continuous
 62
     7
100
AcDbLine
 10
434.0
 20
594.0
 30
0.0
 11
434.0
 21
587.0
 31
0.0
  0
LINE
  5
2A0
330
1B
100
AcDbEntity
 67
     1
  8
0
  6
Continuous
 62
     7
100
AcDbLine
 10
334.0
 20
594.0
 30
0.0
 11
334.0
 21
587.0
 31
0.0
  0
LINE
  5
2A1
330
1B
100
AcDbEntity
 67
     1
  8
0
  6
Continuous
 62
     7
100
AcDbLine
 10
234.0
 20
594.0
 30
0.0
 11
234.0
 21
587.0
 31
0.0
  0
LINE
  5
2A2
330
1B
100
AcDbEntity
 67
     1
  8
0
  6
Continuous
 62
     7
100
AcDbLine
 10
134.0
 20
594.0
 30
0.0
 11
134.0
 21
587.0
 31
0.0
  0
LINE
  5
2A3
330
1B
100
AcDbEntity
 67
     1
  8
0
  6
Continuous
 62
     7
100
AcDbLine
 10
10.0
 20
420.5
 30
0.0
 11
0.0
 21
420.5
 31
0.0
  0
LINE
  5
2A4
330
1B
100
AcDbEntity
 67
     1
  8
0
  6
Continuous
 62
     7
100
AcDbLine
 10
0.0
 20
107.0
 30
0.0
 11
7.0
 21
107.0
 31
0.0
  0
LINE
  5
2A5
330
1B
100
AcDbEntity
 67
     1
  8
0
  6
Continuous
 62
     7
100
AcDbLine
 10
0.0
 20
207.0
 30
0.0
 11
7.0
 21
207.0
 31
0.0
  0
LINE
  5
2A6
330
1B
100
AcDbEntity
 67
     1
  8
0
  6
Continuous
 62
     7
100
AcDbLine
 10
0.0
 20
307.0
 30
0.0
 11
7.0
 21
307.0
 31
0.0
  0
LINE
  5
2A7
330
1B
100
AcDbEntity
 67
     1
  8
0
  6
Continuous
 62
     7
100
AcDbLine
 10
0.0
 20
507.0
 30
0.0
 11
7.0
 21
507.0
 31
0.0
  0
LINE
  5
2A8
330
1B
100
AcDbEntity
 67
     1
  8
0
  6
Continuous
 62
     7
100
AcDbLine
 10
334.0
 20
7.0
 30
0.0
 11
334.0
 21
0.0
 31
0.0
  0
LINE
  5
2A9
330
1B
100
AcDbEntity
 67
     1
  8
0
  6
Continuous
 62
     7
100
AcDbLine
 10
234.0
 20
7.0
 30
0.0
 11
234.0
 21
0.0
 31
0.0
  0
LINE
  5
2AA
330
1B
100
AcDbEntity
 67
     1
  8
0
  6
Continuous
 62
     7
100
AcDbLine
 10
134.0
 20
7.0
 30
0.0
 11
134.0
 21
0.0
 31
0.0
  0
LINE
  5
2AB
330
1B
100
AcDbEntity
 67
     1
  8
0
  6
Continuous
 62
     7
100
AcDbLine
 10
834.0
 20
507.0
 30
0.0
 11
841.0
 21
507.0
 31
0.0
  0
MTEXT
  5
2AC
330
1B
100
AcDbEntity
 67
     1
  8
0
  6
Continuous
 62
     2
100
AcDbMText
 10
783.154890719
 20
5.35876025
 30
0.0
 40
4.0
 41
3.6
 46
0.0
 71
     1
 72
     1
  1
A
  7
TEXTSTYLE_2
 73
     1
 44
1.0
  0
MTEXT
  5
2AD
330
1B
100
AcDbEntity
 67
     1
  8
0
  6
Continuous
 62
     2
100
AcDbMText
 10
683.154890719
 20
5.35876025
 30
0.0
 40
4.0
 41
3.6
 46
0.0
 71
     1
 72
     1
  1
B
  7
TEXTSTYLE_2
 73
     1
 44
1.0
  0
MTEXT
  5
2AE
330
1B
100
AcDbEntity
 67
     1
  8
0
  6
Continuous
 62
     2
100
AcDbMText
 10
583.154890719
 20
5.35876025
 30
0.0
 40
4.0
 41
3.6
 46
0.0
 71
     1
 72
     1
  1
C
  7
TEXTSTYLE_2
 73
     1
 44
1.0
  0
MTEXT
  5
2AF
330
1B
100
AcDbEntity
 67
     1
  8
0
  6
Continuous
 62
     2
100
AcDbMText
 10
483.154890719
 20
5.35876025
 30
0.0
 40
4.0
 41
3.6
 46
0.0
 71
     1
 72
     1
  1
D
  7
TEXTSTYLE_2
 73
     1
 44
1.0
  0
MTEXT
  5
2B0
330
1B
100
AcDbEntity
 67
     1
  8
0
  6
Continuous
 62
     2
100
AcDbMText
 10
383.154890719
 20
5.35876025
 30
0.0
 40
4.0
 41
3.6
 46
0.0
 71
     1
 72
     1
  1
E
  7
TEXTSTYLE_2
 73
     1
 44
1.0
  0
MTEXT
  5
2B1
330
1B
100
AcDbEntity
 67
     1
  8
0
  6
Continuous
 62
     2
100
AcDbMText
 10
835.6467220993
 20
60.6268709614
 30
0.0
 40
4.0
 41
3.4285714286
 46
0.0
 71
     1
 72
     1
  1
1
  7
TEXTSTYLE_3
 73
     1
 44
1.0
  0
MTEXT
  5
2B2
330
1B
100
AcDbEntity
 67
     1
  8
0
  6
Continuous
 62
     2
100
AcDbMText
 10
835.6467220993
 20
160.6268709614
 30
0.0
 40
4.0
 41
4.7142857143
 46
0.0
 71
     1
 72
     1
  1
2
  7
TEXTSTYLE_3
 73
     1
 44
1.0
  0
MTEXT
  5
2B3
330
1B
100
AcDbEntity
 67
     1
  8
0
  6
Continuous
 62
     2
100
AcDbMText
 10
835.6467220993
 20
260.6268709614
 30
0.0
 40
4.0
 41
4.2857142857
 46
0.0
 71
     1
 72
     1
  1
3
  7
TEXTSTYLE_3
 73
     1
 44
1.0
  0
MTEXT
  5
2B4
330
1B
100
AcDbEntity
 67
     1
  8
0
  6
Continuous
 62
     2
100
AcDbMText
 10
835.6467220993
 20
360.6268709614
 30
0.0
 40
4.0
 41
4.7142857143
 46
0.0
 71
     1
 72
     1
  1
4
  7
TEXTSTYLE_3
 73
     1
 44
1.0
  0
MTEXT
  5
2B5
330
1B
100
AcDbEntity
 67
     1
  8
0
  6
Continuous
 62
     2
100
AcDbMText
 10
835.6467220993
 20
460.6268709614
 30
0.0
 40
4.0
 41
4.2857142857
 46
0.0
 71
     1
 72
     1
  1
5
  7
TEXTSTYLE_3
 73
     1
 44
1.0
  0
MTEXT
  5
2B6
330
1B
100
AcDbEntity
 67
     1
  8
0
  6
Continuous
 62
     2
100
AcDbMText
 10
783.154890719
 20
592.35876025
 30
0.0
 40
4.0
 41
3.6
 46
0.0
 71
     1
 72
     1
  1
A
  7
TEXTSTYLE_2
 73
     1
 44
1.0
  0
MTEXT
  5
2B7
330
1B
100
AcDbEntity
 67
     1
  8
0
  6
Continuous
 62
     2
100
AcDbMText
 10
683.154890719
 20
592.35876025
 30
0.0
 40
4.0
 41
3.6
 46
0.0
 71
     1
 72
     1
  1
B
  7
TEXTSTYLE_2
 73
     1
 44
1.0
  0
MTEXT
  5
2B8
330
1B
100
AcDbEntity
 67
     1
  8
0
  6
Continuous
 62
     2
100
AcDbMText
 10
583.154890719
 20
592.35876025
 30
0.0
 40
4.0
 41
3.6
 46
0.0
 71
     1
 72
     1
  1
C
  7
TEXTSTYLE_2
 73
     1
 44
1.0
  0
MTEXT
  5
2B9
330
1B
100
AcDbEntity
 67
     1
  8
0
  6
Continuous
 62
     2
100
AcDbMText
 10
483.154890719
 20
592.35876025
 30
0.0
 40
4.0
 41
3.6
 46
0.0
 71
     1
 72
     1
  1
D
  7
TEXTSTYLE_2
 73
     1
 44
1.0
  0
MTEXT
  5
2BA
330
1B
100
AcDbEntity
 67
     1
  8
0
  6
Continuous
 62
     2
100
AcDbMText
 10
383.154890719
 20
592.35876025
 30
0.0
 40
4.0
 41
3.6
 46
0.0
 71
     1
 72
     1
  1
E
  7
TEXTSTYLE_2
 73
     1
 44
1.0
  0
MTEXT
  5
2BB
330
1B
100
AcDbEntity
 67
     1
  8
0
  6
Continuous
 62
     2
100
AcDbMText
 10
283.154890719
 20
592.35876025
 30
0.0
 40
4.0
 41
3.6
 46
0.0
 71
     1
 72
     1
  1
F
  7
TEXTSTYLE_2
 73
     1
 44
1.0
  0
MTEXT
  5
2BC
330
1B
100
AcDbEntity
 67
     1
  8
0
  6
Continuous
 62
     2
100
AcDbMText
 10
183.154890719
 20
592.35876025
 30
0.0
 40
4.0
 41
3.6
 46
0.0
 71
     1
 72
     1
  1
G
  7
TEXTSTYLE_2
 73
     1
 44
1.0
  0
MTEXT
  5
2BD
330
1B
100
AcDbEntity
 67
     1
  8
0
  6
Continuous
 62
     2
100
AcDbMText
 10
59.5777362717
 20
592.35876025
 30
0.0
 40
4.0
 41
3.6
 46
0.0
 71
     1
 72
     1
  1
H
  7
TEXTSTYLE_2
 73
     1
 44
1.0
  0
MTEXT
  5
2BE
330
1B
100
AcDbEntity
 67
     1
  8
0
  6
Continuous
 62
     2
100
AcDbMText
 10
1.6467220993
 20
60.6268709614
 30
0.0
 40
4.0
 41
3.4285714286
 46
0.0
 71
     1
 72
     1
  1
1
  7
TEXTSTYLE_3
 73
     1
 44
1.0
  0
MTEXT
  5
2BF
330
1B
100
AcDbEntity
 67
     1
  8
0
  6
Continuous
 62
     2
100
AcDbMText
 10
1.6467220993
 20
160.6268709614
 30
0.0
 40
4.0
 41
4.7142857143
 46
0.0
 71
     1
 72
     1
  1
2
  7
TEXTSTYLE_3
 73
     1
 44
1.0
  0
MTEXT
  5
2C0
330
1B
100
AcDbEntity
 67
     1
  8
0
  6
Continuous
 62
     2
100
AcDbMText
 10
1.6467220993
 20
260.6268709614
 30
0.0
 40
4.0
 41
4.2857142857
 46
0.0
 71
     1
 72
     1
  1
3
  7
TEXTSTYLE_3
 73
     1
 44
1.0
  0
MTEXT
  5
2C1
330
1B
100
AcDbEntity
 67
     1
  8
0
  6
Continuous
 62
     2
100
AcDbMText
 10
1.6467220993
 20
360.6268709614
 30
0.0
 40
4.0
 41
4.7142857143
 46
0.0
 71
     1
 72
     1
  1
4
  7
TEXTSTYLE_3
 73
     1
 44
1.0
  0
MTEXT
  5
2C2
330
1B
100
AcDbEntity
 67
     1
  8
0
  6
Continuous
 62
     2
100
AcDbMText
 10
1.6467220993
 20
460.6268709614
 30
0.0
 40
4.0
 41
4.2857142857
 46
0.0
 71
     1
 72
     1
  1
5
  7
TEXTSTYLE_3
 73
     1
 44
1.0
  0
MTEXT
  5
2C3
330
1B
100
AcDbEntity
 67
     1
  8
0
  6
Continuous
 62
     2
100
AcDbMText
 10
1.6467220993
 20
560.6268709614
 30
0.0
 40
4.0
 41
4.7142857143
 46
0.0
 71
     1
 72
     1
  1
6
  7
TEXTSTYLE_3
 73
     1
 44
1.0
  0
MTEXT
  5
2C4
330
1B
100
AcDbEntity
 67
     1
  8
0
  6
Continuous
 62
     2
100
AcDbMText
 10
283.154890719
 20
5.35876025
 30
0.0
 40
4.0
 41
3.6
 46
0.0
 71
     1
 72
     1
  1
F
  7
TEXTSTYLE_2
 73
     1
 44
1.0
  0
MTEXT
  5
2C5
330
1B
100
AcDbEntity
 67
     1
  8
0
  6
Continuous
 62
     2
100
AcDbMText
 10
183.154890719
 20
5.35876025
 30
0.0
 40
4.0
 41
3.6
 46
0.0
 71
     1
 72
     1
  1
G
  7
TEXTSTYLE_2
 73
     1
 44
1.0
  0
MTEXT
  5
2C6
330
1B
100
AcDbEntity
 67
     1
  8
0
  6
Continuous
 62
     2
100
AcDbMText
 10
59.5777362717
 20
5.35876025
 30
0.0
 40
4.0
 41
3.6
 46
0.0
 71
     1
 72
     1
  1
H
  7
TEXTSTYLE_2
 73
     1
 44
1.0
  0
MTEXT
  5
2C7
330
1B
100
AcDbEntity
 67
     1
  8
0
  6
Continuous
 62
     2
100
AcDbMText
 10
835.6467220993
 20
560.6268709614
 30
0.0
 40
4.0
 41
4.7142857143
 46
0.0
 71
     1
 72
     1
  1
6
  7
TEXTSTYLE_3
 73
     1
 44
1.0
  0
VIEWPORT
  5
2C8
330
1B
100
AcDbEntity
 67
     1
  8
0
100
AcDbViewport
 10
0.0
 20
0.0
 30
0.0
 40
990.1540856031129
 41
700.1803891050583
 68
     1
 69
     1
 12
468.0350194552529
 22
297.0
 13
0.0
 23
0.0
 14
1.0
 24
1.0
 15
0.0
 25
0.0
 16
0.0
 26
0.0
 36
1.0
 17
0.0
 27
0.0
 37
0.0
 42
50.0
 43
0.0
 44
0.0
 45
700.1803891050583
 50
0.0
 51
0.0
 72
   100
 90
   557216
  1

281
     0
 71
     1
 74
     0
110
0.0
120
0.0
130
0.0
111
1.0
121
0.0
131
0.0
112
0.0
122
1.0
132
0.0
 79
     0
146
0.0
170
     0
 61
     5
348
48B
292
     1
282
     1
141
0.0
142
0.0
 63
   256
  0
LINE
  5
2C9
330
1B
100
AcDbEntity
 67
     1
  8
7_ALL_FEATURES
  6
Continuous
 62
     7
100
AcDbLine
 10
79.695348774
 20
276.705315953
 30
0.0
 11
79.695348774
 21
277.4212634422
 31
0.0
  0
LINE
  5
2CA
330
1B
100
AcDbEntity
 67
     1
  8
7_ALL_FEATURES
  6
Continuous
 62
     7
100
AcDbLine
 10
79.695348774
 20
286.9276119603
 30
0.0
 11
79.695348774
 21
286.9157247788
 31
0.0
  0
LINE
  5
2CB
330
1B
100
AcDbEntity
 67
     1
  8
7_ALL_FEATURES
  6
Continuous
 62
     7
100
AcDbLine
 10
752.695348774
 20
286.9276119603
 30
0.0
 11
752.695348774
 21
286.9157247788
 31
0.0
  0
LINE
  5
2CC
330
1B
100
AcDbEntity
 67
     1
  8
7_ALL_FEATURES
  6
Continuous
 62
     7
100
AcDbLine
 10
752.695348774
 20
286.9276121023
 30
0.0
 11
79.695348774
 21
286.9276121023
 31
0.0
  0
LINE
  5
2CD
330
1B
100
AcDbEntity
 67
     1
  8
7_ALL_FEATURES
  6
Continuous
 62
     7
100
AcDbLine
 10
752.695348774
 20
279.9152073977
 30
0.0
 11
752.695348774
 21
279.8227240904
 31
0.0
  0
LINE
  5
2CE
330
1B
100
AcDbEntity
 67
     1
  8
7_ALL_FEATURES
  6
Continuous
 62
     7
100
AcDbLine
 10
79.695348774
 20
279.9152073977
 30
0.0
 11
79.695348774
 21
279.8227240904
 31
0.0
  0
LINE
  5
2CF
330
1B
100
AcDbEntity
 67
     1
  8
7_ALL_FEATURES
  6
Continuous
 62
     7
100
AcDbLine
 10
752.695348774
 20
283.3836209701
 30
0.0
 11
752.695348774
 21
279.9152073977
 31
0.0
  0
LINE
  5
2D0
330
1B
100
AcDbEntity
 67
     1
  8
7_ALL_FEATURES
  6
Continuous
 62
     7
100
AcDbLine
 10
79.695348774
 20
283.3836209701
 30
0.0
 11
79.695348774
 21
282.6705130173
 31
0.0
  0
LINE
  5
2D1
330
1B
100
AcDbEntity
 67
     1
  8
7_ALL_FEATURES
  6
Continuous
 62
     7
100
AcDbLine
 10
79.695348774
 20
282.6705130173
 30
0.0
 11
79.695348774
 21
279.9152073977
 31
0.0
  0
LINE
  5
2D2
330
1B
100
AcDbEntity
 67
     1
  8
7_ALL_FEATURES
  6
Continuous
 62
     7
100
AcDbLine
 10
79.695348774
 20
279.9152073977
 30
0.0
 11
79.695348774
 21
279.8227240904
 31
0.0
  0
LINE
  5
2D3
330
1B
100
AcDbEntity
 67
     1
  8
7_ALL_FEATURES
  6
Continuous
 62
     7
100
AcDbLine
 10
752.695348774
 20
283.4500090691
 30
0.0
 11
752.695348774
 21
283.3836209701
 31
0.0
  0
LINE
  5
2D4
330
1B
100
AcDbEntity
 67
     1
  8
7_ALL_FEATURES
  6
Continuous
 62
     7
100
AcDbLine
 10
79.695348774
 20
283.4500090691
 30
0.0
 11
79.695348774
 21
283.3836209701
 31
0.0
  0
LINE
  5
2D5
330
1B
100
AcDbEntity
 67
     1
  8
7_ALL_FEATURES
  6
Continuous
 62
     7
100
AcDbLine
 10
752.695348774
 20
285.7589309083
 30
0.0
 11
752.695348774
 21
283.4500090691
 31
0.0
  0
LINE
  5
2D6
330
1B
100
AcDbEntity
 67
     1
  8
7_ALL_FEATURES
  6
Continuous
 62
     7
100
AcDbLine
 10
79.695348774
 20
285.7589309083
 30
0.0
 11
79.695348774
 21
285.0030583846
 31
0.0
  0
LINE
  5
2D7
330
1B
100
AcDbEntity
 67
     1
  8
7_ALL_FEATURES
  6
Continuous
 62
     7
100
AcDbLine
 10
79.695348774
 20
285.0030583846
 30
0.0
 11
79.695348774
 21
283.4500090691
 31
0.0
  0
LINE
  5
2D8
330
1B
100
AcDbEntity
 67
     1
  8
7_ALL_FEATURES
  6
Continuous
 62
     7
100
AcDbLine
 10
752.695348774
 20
285.7983034551
 30
0.0
 11
752.695348774
 21
285.7589309083
 31
0.0
  0
LINE
  5
2D9
330
1B
100
AcDbEntity
 67
     1
  8
7_ALL_FEATURES
  6
Continuous
 62
     7
100
AcDbLine
 10
79.695348774
 20
285.7983034551
 30
0.0
 11
79.695348774
 21
285.7589309083
 31
0.0
  0
LINE
  5
2DA
330
1B
100
AcDbEntity
 67
     1
  8
7_ALL_FEATURES
  6
Continuous
 62
     7
100
AcDbLine
 10
752.695348774
 20
286.9157247788
 30
0.0
 11
752.695348774
 21
286.12756641
 31
0.0
  0
LINE
  5
2DB
330
1B
100
AcDbEntity
 67
     1
  8
7_ALL_FEATURES
  6
Continuous
 62
     7
100
AcDbLine
 10
752.695348774
 20
286.12756641
 30
0.0
 11
752.695348774
 21
286.0379963102
 31
0.0
  0
LINE
  5
2DC
330
1B
100
AcDbEntity
 67
     1
  8
7_ALL_FEATURES
  6
Continuous
 62
     7
100
AcDbLine
 10
752.695348774
 20
286.0379963102
 30
0.0
 11
752.695348774
 21
285.7983034551
 31
0.0
  0
LINE
  5
2DD
330
1B
100
AcDbEntity
 67
     1
  8
7_ALL_FEATURES
  6
Continuous
 62
     7
100
AcDbLine
 10
79.695348774
 20
286.9157247788
 30
0.0
 11
79.695348774
 21
286.12756641
 31
0.0
  0
LINE
  5
2DE
330
1B
100
AcDbEntity
 67
     1
  8
7_ALL_FEATURES
  6
Continuous
 62
     7
100
AcDbLine
 10
79.695348774
 20
286.12756641
 30
0.0
 11
79.695348774
 21
286.0379963102
 31
0.0
  0
LINE
  5
2DF
330
1B
100
AcDbEntity
 67
     1
  8
7_ALL_FEATURES
  6
Continuous
 62
     7
100
AcDbLine
 10
79.695348774
 20
286.0379963102
 30
0.0
 11
79.695348774
 21
285.7983034551
 31
0.0
  0
LINE
  5
2E0
330
1B
100
AcDbEntity
 67
     1
  8
7_ALL_FEATURES
  6
Continuous
 62
     7
100
AcDbLine
 10
79.695348774
 20
279.8227240904
 30
0.0
 11
79.695348774
 21
279.1622665855
 31
0.0
  0
LINE
  5
2E1
330
1B
100
AcDbEntity
 67
     1
  8
7_ALL_FEATURES
  6
Continuous
 62
     7
100
AcDbLine
 10
79.695348774
 20
279.1622665855
 30
0.0
 11
79.695348774
 21
277.4212634422
 31
0.0
  0
LINE
  5
2E2
330
1B
100
AcDbEntity
 67
     1
  8
7_ALL_FEATURES
  6
Continuous
 62
     7
100
AcDbLine
 10
752.695348774
 20
276.705315953
 30
0.0
 11
752.695348774
 21
277.4212634422
 31
0.0
  0
LINE
  5
2E3
330
1B
100
AcDbEntity
 67
     1
  8
7_ALL_FEATURES
  6
Continuous
 62
     7
100
AcDbLine
 10
752.695348774
 20
279.8227240904
 30
0.0
 11
752.695348774
 21
277.4212634422
 31
0.0
  0
LINE
  5
2E4
330
1B
100
AcDbEntity
 67
     1
  8
7_ALL_FEATURES
  6
Continuous
 62
     7
100
AcDbLine
 10
79.695348774
 20
276.705315953
 30
0.0
 11
79.695348774
 21
277.4212634422
 31
0.0
  0
LINE
  5
2E5
330
1B
100
AcDbEntity
 67
     1
  8
7_ALL_FEATURES
  6
Continuous
 62
     9
100
AcDbLine
 10
752.695348774
 20
279.9152073977
 30
0.0
 11
79.695348774
 21
279.9152073977
 31
0.0
  0
SPLINE
  5
2E6
330
1B
100
AcDbEntity
 67
     1
  8
7_ALL_FEATURES
  6
Continuous
 62
     7
100
AcDbSpline
 70
     0
 71
     3
 72
     9
 73
     5
 74
     0
 42
0.000000001
 43
0.0000001
 40
0.0
 40
0.0
 40
0.0
 40
0.0
 40
0.2372456287
 40
1.0
 40
1.0
 40
1.0
 40
1.0
 10
79.695348774
 20
277.4212634422
 30
0.0
 10
79.695348774
 20
277.362835579
 30
0.0
 10
79.7172639582
 20
277.1163570217
 30
0.0
 10
79.8295746016
 20
276.8837658888
 30
0.0
 10
79.9400661925
 20
276.7318499067
 30
0.0
  0
SPLINE
  5
2E7
330
1B
100
AcDbEntity
 67
     1
  8
7_ALL_FEATURES
  6
Continuous
 62
     7
100
AcDbSpline
 70
     0
 71
     3
 72
     9
 73
     5
 74
     0
 42
0.000000001
 43
0.0000001
 40
0.0
 40
0.0
 40
0.0
 40
0.0
 40
0.2251648695
 40
1.0
 40
1.0
 40
1.0
 40
1.0
 10
79.9400661925
 20
276.7318499067
 30
0.0
 10
79.9818985925
 20
276.6743341259
 30
0.0
 10
80.184787108
 20
276.4312835632
 30
0.0
 10
80.4416879731
 20
276.2379524909
 30
0.0
 10
80.6502638021
 20
276.1099209715
 30
0.0
  0
SPLINE
  5
2E8
330
1B
100
AcDbEntity
 67
     1
  8
7_ALL_FEATURES
  6
Continuous
 62
     7
100
AcDbSpline
 70
     0
 71
     3
 72
     9
 73
     5
 74
     0
 42
0.000000001
 43
0.0000001
 40
0.0
 40
0.0
 40
0.0
 40
0.0
 40
0.2179398895
 40
1.0
 40
1.0
 40
1.0
 40
1.0
 10
80.6502638021
 20
276.1099209715
 30
0.0
 10
80.8136137316
 20
276.0096507735
 30
0.0
 10
81.5989568702
 20
275.6083089566
 30
0.0
 10
82.4695712662
 20
275.3980337732
 30
0.0
 10
83.1502638021
 20
275.2994667537
 30
0.0
  0
SPLINE
  5
2E9
330
1B
100
AcDbEntity
 67
     1
  8
7_ALL_FEATURES
  6
Continuous
 62
     7
100
AcDbSpline
 70
     0
 71
     3
 72
     8
 73
     4
 74
     0
 42
0.000000001
 43
0.0000001
 40
0.0
 40
0.0
 40
0.0
 40
0.0
 40
1.0
 40
1.0
 40
1.0
 40
1.0
 10
83.1502638021
 20
275.2994667537
 30
0.0
 10
83.6612472321
 20
275.2254742959
 30
0.0
 10
84.1790359333
 20
275.1902743767
 30
0.0
 10
84.695348774
 20
275.1902743767
 30
0.0
  0
LINE
  5
2EA
330
1B
100
AcDbEntity
 67
     1
  8
7_ALL_FEATURES
  6
Continuous
 62
     9
100
AcDbLine
 10
752.695348774
 20
283.3836209701
 30
0.0
 11
79.695348774
 21
283.3836209701
 31
0.0
  0
SPLINE
  5
2EB
330
1B
100
AcDbEntity
 67
     1
  8
7_ALL_FEATURES
  6
Continuous
 62
     7
100
AcDbSpline
 70
     0
 71
     3
 72
     8
 73
     4
 74
     0
 42
0.000000001
 43
0.0000001
 40
0.0
 40
0.0
 40
0.0
 40
0.0
 40
1.0
 40
1.0
 40
1.0
 40
1.0
 10
747.695348774
 20
275.1902743767
 30
0.0
 10
748.2116616147
 20
275.1902743767
 30
0.0
 10
748.7294503159
 20
275.2254742959
 30
0.0
 10
749.2404337459
 20
275.2994667537
 30
0.0
  0
SPLINE
  5
2EC
330
1B
100
AcDbEntity
 67
     1
  8
7_ALL_FEATURES
  6
Continuous
 62
     7
100
AcDbSpline
 70
     0
 71
     3
 72
     9
 73
     5
 74
     0
 42
0.000000001
 43
0.0000001
 40
0.0
 40
0.0
 40
0.0
 40
0.0
 40
0.2796406284
 40
1.0
 40
1.0
 40
1.0
 40
1.0
 10
749.2404337459
 20
275.2994667537
 30
0.0
 10
749.4836832322
 20
275.3346902585
 30
0.0
 10
750.3463398661
 20
275.4937186876
 30
0.0
 10
751.2008333686
 20
275.7786944028
 30
0.0
 10
751.7404337459
 20
276.1099209715
 30
0.0
  0
SPLINE
  5
2ED
330
1B
100
AcDbEntity
 67
     1
  8
7_ALL_FEATURES
  6
Continuous
 62
     7
100
AcDbSpline
 70
     0
 71
     3
 72
     9
 73
     5
 74
     0
 42
0.000000001
 43
0.0000001
 40
0.0
 40
0.0
 40
0.0
 40
0.0
 40
0.5633998359
 40
1.0
 40
1.0
 40
1.0
 40
1.0
 10
751.7404337459
 20
276.1099209715
 30
0.0
 10
752.0086133891
 20
276.2745395055
 30
0.0
 10
752.4640049451
 20
276.6215622012
 30
0.0
 10
752.695348774
 20
277.1774106547
 30
0.0
 10
752.695348774
 20
277.4212634422
 30
0.0
  0
LINE
  5
2EE
330
1B
100
AcDbEntity
 67
     1
  8
7_ALL_FEATURES
  6
Continuous
 62
     9
100
AcDbLine
 10
752.695348774
 20
279.8227240904
 30
0.0
 11
79.695348774
 21
279.8227240904
 31
0.0
  0
LINE
  5
2EF
330
1B
100
AcDbEntity
 67
     1
  8
7_ALL_FEATURES
  6
Continuous
 62
     9
100
AcDbLine
 10
752.695348774
 20
283.4500090691
 30
0.0
 11
79.695348774
 21
283.4500090691
 31
0.0
  0
LINE
  5
2F0
330
1B
100
AcDbEntity
 67
     1
  8
7_ALL_FEATURES
  6
Continuous
 62
     9
100
AcDbLine
 10
752.695348774
 20
285.7589309083
 30
0.0
 11
79.695348774
 21
285.7589309083
 31
0.0
  0
LINE
  5
2F1
330
1B
100
AcDbEntity
 67
     1
  8
7_ALL_FEATURES
  6
Continuous
 62
     9
100
AcDbLine
 10
747.695348774
 20
274.4743268874
 30
0.0
 11
747.695348774
 21
275.1902743767
 31
0.0
  0
LINE
  5
2F2
330
1B
100
AcDbEntity
 67
     1
  8
7_ALL_FEATURES
  6
Continuous
 62
     9
100
AcDbLine
 10
752.695348774
 20
285.7983034551
 30
0.0
 11
79.695348774
 21
285.7983034551
 31
0.0
  0
LINE
  5
2F3
330
1B
100
AcDbEntity
 67
     1
  8
7_ALL_FEATURES
  6
Continuous
 62
     7
100
AcDbLine
 10
747.695348774
 20
275.1902743767
 30
0.0
 11
84.695348774
 21
275.1902743767
 31
0.0
  0
LINE
  5
2F4
330
1B
100
AcDbEntity
 67
     1
  8
7_ALL_FEATURES
  6
Continuous
 62
     9
100
AcDbLine
 10
84.695348774
 20
274.4743268874
 30
0.0
 11
84.695348774
 21
275.1902743767
 31
0.0
  0
LINE
  5
2F5
330
1B
100
AcDbEntity
 67
     1
  8
7_ALL_FEATURES
  6
Continuous
 62
     9
100
AcDbLine
 10
752.695348774
 20
286.9157247788
 30
0.0
 11
79.695348774
 21
286.9157247788
 31
0.0
  0
ARC
  5
2F6
330
1B
100
AcDbEntity
 67
     1
  8
02___PRT_ALL_AXES
  6
Continuous
 62
     3
100
AcDbCircle
 10
101.195348774
 20
275.4878237163
 30
0.0
 40
1.75
100
AcDbArc
 50
216.4138623892
 51
323.5861376108
  0
ARC
  5
2F7
330
1B
100
AcDbEntity
 67
     1
  8
02___PRT_ALL_AXES
  6
Continuous
 62
     3
100
AcDbCircle
 10
311.195348774
 20
275.4878237163
 30
0.0
 40
1.75
100
AcDbArc
 50
216.4138623892
 51
323.5861376108
  0
ARC
  5
2F8
330
1B
100
AcDbEntity
 67
     1
  8
02___PRT_ALL_AXES
  6
Continuous
 62
     3
100
AcDbCircle
 10
521.195348774
 20
275.4878237163
 30
0.0
 40
1.75
100
AcDbArc
 50
216.4138623892
 51
323.5861376108
  0
ARC
  5
2F9
330
1B
100
AcDbEntity
 67
     1
  8
02___PRT_ALL_AXES
  6
Continuous
 62
     3
100
AcDbCircle
 10
731.195348774
 20
275.4878237163
 30
0.0
 40
1.75
100
AcDbArc
 50
216.4138623892
 51
323.5861376108
  0
ARC
  5
2FA
330
1B
100
AcDbEntity
 67
     1
  8
7_ALL_FEATURES
  6
Continuous
 62
     3
100
AcDbCircle
 10
97.695348774
 20
272.9878237163
 30
0.0
 40
3.0
100
AcDbArc
 50
180.0
 51
270.0
  0
LINE
  5
2FB
330
1B
100
AcDbEntity
 67
     1
  8
7_ALL_FEATURES
  6
Continuous
 62
     3
100
AcDbLine
 10
94.695348774
 20
272.9878237163
 30
0.0
 11
94.695348774
 21
274.4743268874
 31
0.0
  0
LINE
  5
2FC
330
1B
100
AcDbEntity
 67
     1
  8
7_ALL_FEATURES
  6
Continuous
 62
     3
100
AcDbLine
 10
107.695348774
 20
272.9878237163
 30
0.0
 11
107.695348774
 21
274.4743268874
 31
0.0
  0
ARC
  5
2FD
330
1B
100
AcDbEntity
 67
     1
  8
7_ALL_FEATURES
  6
Continuous
 62
     3
100
AcDbCircle
 10
104.695348774
 20
272.9878237163
 30
0.0
 40
3.0
100
AcDbArc
 50
270.0
 51
360.0
  0
LINE
  5
2FE
330
1B
100
AcDbEntity
 67
     1
  8
7_ALL_FEATURES
  6
Continuous
 62
     3
100
AcDbLine
 10
97.695348774
 20
269.9878237163
 30
0.0
 11
104.695348774
 21
269.9878237163
 31
0.0
  0
ARC
  5
2FF
330
1B
100
AcDbEntity
 67
     1
  8
7_ALL_FEATURES
  6
Continuous
 62
     3
100
AcDbCircle
 10
314.695348774
 20
272.9878237163
 30
0.0
 40
3.0
100
AcDbArc
 50
270.0
 51
360.0
  0
LINE
  5
300
330
1B
100
AcDbEntity
 67
     1
  8
7_ALL_FEATURES
  6
Continuous
 62
     3
100
AcDbLine
 10
307.695348774
 20
269.9878237163
 30
0.0
 11
314.695348774
 21
269.9878237163
 31
0.0
  0
ARC
  5
301
330
1B
100
AcDbEntity
 67
     1
  8
7_ALL_FEATURES
  6
Continuous
 62
     3
100
AcDbCircle
 10
307.695348774
 20
272.9878237163
 30
0.0
 40
3.0
100
AcDbArc
 50
180.0
 51
270.0
  0
LINE
  5
302
330
1B
100
AcDbEntity
 67
     1
  8
7_ALL_FEATURES
  6
Continuous
 62
     3
100
AcDbLine
 10
304.695348774
 20
272.9878237163
 30
0.0
 11
304.695348774
 21
274.4743268874
 31
0.0
  0
LINE
  5
303
330
1B
100
AcDbEntity
 67
     1
  8
7_ALL_FEATURES
  6
Continuous
 62
     3
100
AcDbLine
 10
317.695348774
 20
272.9878237163
 30
0.0
 11
317.695348774
 21
274.4743268874
 31
0.0
  0
ARC
  5
304
330
1B
100
AcDbEntity
 67
     1
  8
7_ALL_FEATURES
  6
Continuous
 62
     3
100
AcDbCircle
 10
517.695348774
 20
272.9878237163
 30
0.0
 40
3.0
100
AcDbArc
 50
180.0
 51
270.0
  0
LINE
  5
305
330
1B
100
AcDbEntity
 67
     1
  8
7_ALL_FEATURES
  6
Continuous
 62
     3
100
AcDbLine
 10
514.695348774
 20
272.9878237163
 30
0.0
 11
514.695348774
 21
274.4743268874
 31
0.0
  0
LINE
  5
306
330
1B
100
AcDbEntity
 67
     1
  8
7_ALL_FEATURES
  6
Continuous
 62
     3
100
AcDbLine
 10
527.695348774
 20
272.9878237163
 30
0.0
 11
527.695348774
 21
274.4743268874
 31
0.0
  0
ARC
  5
307
330
1B
100
AcDbEntity
 67
     1
  8
7_ALL_FEATURES
  6
Continuous
 62
     3
100
AcDbCircle
 10
524.695348774
 20
272.9878237163
 30
0.0
 40
3.0
100
AcDbArc
 50
270.0
 51
360.0
  0
LINE
  5
308
330
1B
100
AcDbEntity
 67
     1
  8
7_ALL_FEATURES
  6
Continuous
 62
     3
100
AcDbLine
 10
517.695348774
 20
269.9878237163
 30
0.0
 11
524.695348774
 21
269.9878237163
 31
0.0
  0
ARC
  5
309
330
1B
100
AcDbEntity
 67
     1
  8
7_ALL_FEATURES
  6
Continuous
 62
     3
100
AcDbCircle
 10
727.695348774
 20
272.9878237163
 30
0.0
 40
3.0
100
AcDbArc
 50
180.0
 51
270.0
  0
LINE
  5
30A
330
1B
100
AcDbEntity
 67
     1
  8
7_ALL_FEATURES
  6
Continuous
 62
     3
100
AcDbLine
 10
724.695348774
 20
272.9878237163
 30
0.0
 11
724.695348774
 21
274.4743268874
 31
0.0
  0
LINE
  5
30B
330
1B
100
AcDbEntity
 67
     1
  8
7_ALL_FEATURES
  6
Continuous
 62
     3
100
AcDbLine
 10
737.695348774
 20
272.9878237163
 30
0.0
 11
737.695348774
 21
274.4743268874
 31
0.0
  0
ARC
  5
30C
330
1B
100
AcDbEntity
 67
     1
  8
7_ALL_FEATURES
  6
Continuous
 62
     3
100
AcDbCircle
 10
734.695348774
 20
272.9878237163
 30
0.0
 40
3.0
100
AcDbArc
 50
270.0
 51
360.0
  0
LINE
  5
30D
330
1B
100
AcDbEntity
 67
     1
  8
7_ALL_FEATURES
  6
Continuous
 62
     3
100
AcDbLine
 10
727.695348774
 20
269.9878237163
 30
0.0
 11
734.695348774
 21
269.9878237163
 31
0.0
  0
SPLINE
  5
30E
330
1B
100
AcDbEntity
 67
     1
  8
7_ALL_FEATURES
  6
Continuous
 62
     3
100
AcDbSpline
 70
     0
 71
     3
 72
     8
 73
     4
 74
     0
 42
0.000000001
 43
0.0000001
 40
0.0
 40
0.0
 40
0.0
 40
0.0
 40
1.0
 40
1.0
 40
1.0
 40
1.0
 10
84.695348774
 20
274.4743268874
 30
0.0
 10
84.1790359333
 20
274.4743268874
 30
0.0
 10
83.6612472321
 20
274.5095268066
 30
0.0
 10
83.1502638021
 20
274.5835192644
 30
0.0
  0
SPLINE
  5
30F
330
1B
100
AcDbEntity
 67
     1
  8
7_ALL_FEATURES
  6
Continuous
 62
     3
100
AcDbSpline
 70
     0
 71
     3
 72
     9
 73
     5
 74
     0
 42
0.000000001
 43
0.0000001
 40
0.0
 40
0.0
 40
0.0
 40
0.0
 40
0.5776049921
 40
1.0
 40
1.0
 40
1.0
 40
1.0
 10
83.1502638021
 20
274.5835192644
 30
0.0
 10
82.4695712662
 20
274.6820862839
 30
0.0
 10
81.312943053
 20
274.9617538427
 30
0.0
 10
80.2359135349
 20
275.6091389778
 30
0.0
 10
79.9400661925
 20
276.0159024174
 30
0.0
  0
SPLINE
  5
310
330
1B
100
AcDbEntity
 67
     1
  8
7_ALL_FEATURES
  6
Continuous
 62
     3
100
AcDbSpline
 70
     0
 71
     3
 72
     9
 73
     5
 74
     0
 42
0.000000001
 43
0.0000001
 40
0.0
 40
0.0
 40
0.0
 40
0.0
 40
0.2704012701
 40
1.0
 40
1.0
 40
1.0
 40
1.0
 10
79.9400661925
 20
276.0159024174
 30
0.0
 10
79.9009279271
 20
276.069714006
 30
0.0
 10
79.7683293335
 20
276.2767353235
 30
0.0
 10
79.695348774
 20
276.5257788637
 30
0.0
 10
79.695348774
 20
276.705315953
 30
0.0
  0
SPLINE
  5
311
330
1B
100
AcDbEntity
 67
     1
  8
7_ALL_FEATURES
  6
Continuous
 62
     3
100
AcDbSpline
 70
     0
 71
     3
 72
     9
 73
     5
 74
     0
 42
0.000000001
 43
0.0000001
 40
0.0
 40
0.0
 40
0.0
 40
0.0
 40
0.2372456287
 40
1.0
 40
1.0
 40
1.0
 40
1.0
 10
752.695348774
 20
276.705315953
 30
0.0
 10
752.695348774
 20
276.6468880897
 30
0.0
 10
752.6734335898
 20
276.4004095324
 30
0.0
 10
752.5611229463
 20
276.1678183995
 30
0.0
 10
752.4506313555
 20
276.0159024174
 30
0.0
  0
SPLINE
  5
312
330
1B
100
AcDbEntity
 67
     1
  8
7_ALL_FEATURES
  6
Continuous
 62
     3
100
AcDbSpline
 70
     0
 71
     3
 72
     9
 73
     5
 74
     0
 42
0.000000001
 43
0.0000001
 40
0.0
 40
0.0
 40
0.0
 40
0.0
 40
0.4223950079
 40
1.0
 40
1.0
 40
1.0
 40
1.0
 10
752.4506313555
 20
276.0159024174
 30
0.0
 10
752.1547840131
 20
275.6091389778
 30
0.0
 10
751.077754495
 20
274.9617538427
 30
0.0
 10
749.9211262817
 20
274.6820862839
 30
0.0
 10
749.2404337459
 20
274.5835192644
 30
0.0
  0
SPLINE
  5
313
330
1B
100
AcDbEntity
 67
     1
  8
7_ALL_FEATURES
  6
Continuous
 62
     3
100
AcDbSpline
 70
     0
 71
     3
 72
     8
 73
     4
 74
     0
 42
0.000000001
 43
0.0000001
 40
0.0
 40
0.0
 40
0.0
 40
0.0
 40
1.0
 40
1.0
 40
1.0
 40
1.0
 10
749.2404337459
 20
274.5835192644
 30
0.0
 10
748.7294503159
 20
274.5095268066
 30
0.0
 10
748.2116616147
 20
274.4743268874
 30
0.0
 10
747.695348774
 20
274.4743268874
 30
0.0
  0
LINE
  5
314
330
1B
100
AcDbEntity
 67
     1
  8
7_ALL_FEATURES
  6
Continuous
 62
     3
100
AcDbLine
 10
747.695348774
 20
274.4743268874
 30
0.0
 11
84.695348774
 21
274.4743268874
 31
0.0
  0
LINE
  5
315
330
1B
100
AcDbEntity
 67
     1
  8
7_ALL_FEATURES
  6
Continuous
 62
     7
100
AcDbLine
 10
724.695348774
 20
438.9253468123
 30
0.0
 11
724.695348774
 21
439.7253468123
 31
0.0
  0
LINE
  5
316
330
1B
100
AcDbEntity
 67
     1
  8
7_ALL_FEATURES
  6
Continuous
 62
     7
100
AcDbLine
 10
514.695348774
 20
438.9253468123
 30
0.0
 11
514.695348774
 21
439.7253468123
 31
0.0
  0
LINE
  5
317
330
1B
100
AcDbEntity
 67
     1
  8
7_ALL_FEATURES
  6
Continuous
 62
     7
100
AcDbLine
 10
304.695348774
 20
438.9253468123
 30
0.0
 11
304.695348774
 21
439.7253468123
 31
0.0
  0
LINE
  5
318
330
1B
100
AcDbEntity
 67
     1
  8
7_ALL_FEATURES
  6
Continuous
 62
     7
100
AcDbLine
 10
94.695348774
 20
438.9253468123
 30
0.0
 11
94.695348774
 21
439.7253468123
 31
0.0
  0
SPLINE
  5
319
330
1B
100
AcDbEntity
 67
     1
  8
7_ALL_FEATURES
  6
Continuous
 62
     7
100
AcDbSpline
 70
     0
 71
     3
 72
     9
 73
     5
 74
     0
 42
0.000000001
 43
0.0000001
 40
0.0
 40
0.0
 40
0.0
 40
0.0
 40
0.4966933765
 40
1.0
 40
1.0
 40
1.0
 40
1.0
 10
94.695348774
 20
441.0683659651
 30
0.0
 10
94.695348774
 20
441.2361348675
 30
0.0
 10
94.600835353
 20
441.5799197966
 30
0.0
 10
94.3438350432
 20
441.8258854629
 30
0.0
 10
94.195348774
 20
441.9086667132
 30
0.0
  0
SPLINE
  5
31A
330
1B
100
AcDbEntity
 67
     1
  8
7_ALL_FEATURES
  6
Continuous
 62
     7
100
AcDbSpline
 70
     0
 71
     3
 72
     8
 73
     4
 74
     0
 42
0.000000001
 43
0.0000001
 40
0.0
 40
0.0
 40
0.0
 40
0.0
 40
1.0
 40
1.0
 40
1.0
 40
1.0
 10
94.195348774
 20
441.9086667132
 30
0.0
 10
94.0449367604
 20
441.9925215679
 30
0.0
 10
93.8675562375
 20
442.0386616913
 30
0.0
 10
93.695348774
 20
442.0386616913
 30
0.0
  0
SPLINE
  5
31B
330
1B
100
AcDbEntity
 67
     1
  8
7_ALL_FEATURES
  6
Continuous
 62
     7
100
AcDbSpline
 70
     0
 71
     3
 72
     9
 73
     5
 74
     0
 42
0.000000001
 43
0.0000001
 40
0.0
 40
0.0
 40
0.0
 40
0.0
 40
0.4966933765
 40
1.0
 40
1.0
 40
1.0
 40
1.0
 10
514.695348774
 20
441.0683659651
 30
0.0
 10
514.695348774
 20
441.2361348675
 30
0.0
 10
514.600835353
 20
441.5799197966
 30
0.0
 10
514.3438350432
 20
441.8258854629
 30
0.0
 10
514.195348774
 20
441.9086667132
 30
0.0
  0
SPLINE
  5
31C
330
1B
100
AcDbEntity
 67
     1
  8
7_ALL_FEATURES
  6
Continuous
 62
     7
100
AcDbSpline
 70
     0
 71
     3
 72
     8
 73
     4
 74
     0
 42
0.000000001
 43
0.0000001
 40
0.0
 40
0.0
 40
0.0
 40
0.0
 40
1.0
 40
1.0
 40
1.0
 40
1.0
 10
514.195348774
 20
441.9086667132
 30
0.0
 10
514.0449367604
 20
441.9925215679
 30
0.0
 10
513.8675562375
 20
442.0386616913
 30
0.0
 10
513.695348774
 20
442.0386616913
 30
0.0
  0
SPLINE
  5
31D
330
1B
100
AcDbEntity
 67
     1
  8
7_ALL_FEATURES
  6
Continuous
 62
     7
100
AcDbSpline
 70
     0
 71
     3
 72
     9
 73
     5
 74
     0
 42
0.000000001
 43
0.0000001
 40
0.0
 40
0.0
 40
0.0
 40
0.0
 40
0.4966933765
 40
1.0
 40
1.0
 40
1.0
 40
1.0
 10
724.695348774
 20
441.0683659651
 30
0.0
 10
724.695348774
 20
441.2361348675
 30
0.0
 10
724.600835353
 20
441.5799197966
 30
0.0
 10
724.3438350432
 20
441.8258854629
 30
0.0
 10
724.195348774
 20
441.9086667132
 30
0.0
  0
SPLINE
  5
31E
330
1B
100
AcDbEntity
 67
     1
  8
7_ALL_FEATURES
  6
Continuous
 62
     7
100
AcDbSpline
 70
     0
 71
     3
 72
     8
 73
     4
 74
     0
 42
0.000000001
 43
0.0000001
 40
0.0
 40
0.0
 40
0.0
 40
0.0
 40
1.0
 40
1.0
 40
1.0
 40
1.0
 10
724.195348774
 20
441.9086667132
 30
0.0
 10
724.0449367604
 20
441.9925215679
 30
0.0
 10
723.8675562375
 20
442.0386616913
 30
0.0
 10
723.695348774
 20
442.0386616913
 30
0.0
  0
SPLINE
  5
31F
330
1B
100
AcDbEntity
 67
     1
  8
7_ALL_FEATURES
  6
Continuous
 62
     7
100
AcDbSpline
 70
     0
 71
     3
 72
    10
 73
     6
 74
     0
 42
0.000000001
 43
0.0000001
 40
0.0
 40
0.0
 40
0.0
 40
0.0
 40
0.2412100538
 40
0.4877732946
 40
1.0
 40
1.0
 40
1.0
 40
1.0
 10
79.695348774
 20
507.4426599351
 30
0.0
 10
79.695348774
 20
507.9107391262
 30
0.0
 10
79.8671643775
 20
508.8655845709
 30
0.0
 10
80.8463923913
 20
510.574188528
 30
0.0
 10
82.1957081332
 20
511.4210922576
 30
0.0
 10
83.1502638021
 20
511.6983257164
 30
0.0
  0
ARC
  5
320
330
1B
100
AcDbEntity
 67
     1
  8
7_ALL_FEATURES
  6
Continuous
 62
     7
100
AcDbCircle
 10
84.6963508571
 20
506.3504807899
 30
0.0
 40
5.5668510434
100
AcDbArc
 50
90.0103137544
 51
106.1248297068
  0
SPLINE
  5
321
330
1B
100
AcDbEntity
 67
     1
  8
7_ALL_FEATURES
  6
Continuous
 62
     7
100
AcDbSpline
 70
     0
 71
     3
 72
     8
 73
     4
 74
     0
 42
0.000000001
 43
0.0000001
 40
0.0
 40
0.0
 40
0.0
 40
0.0
 40
1.0
 40
1.0
 40
1.0
 40
1.0
 10
108.695348774
 20
442.0386616913
 30
0.0
 10
108.5231413105
 20
442.0386616913
 30
0.0
 10
108.3457607875
 20
441.9925215679
 30
0.0
 10
108.195348774
 20
441.9086667132
 30
0.0
  0
SPLINE
  5
322
330
1B
100
AcDbEntity
 67
     1
  8
7_ALL_FEATURES
  6
Continuous
 62
     7
100
AcDbSpline
 70
     0
 71
     3
 72
     8
 73
     4
 74
     0
 42
0.000000001
 43
0.0000001
 40
0.0
 40
0.0
 40
0.0
 40
0.0
 40
1.0
 40
1.0
 40
1.0
 40
1.0
 10
108.195348774
 20
441.9086667132
 30
0.0
 10
108.0468625048
 20
441.8258854629
 30
0.0
 10
107.9159440606
 20
441.6997935723
 30
0.0
 10
107.8293233702
 20
441.5535138282
 30
0.0
  0
SPLINE
  5
323
330
1B
100
AcDbEntity
 67
     1
  8
7_ALL_FEATURES
  6
Continuous
 62
     7
100
AcDbSpline
 70
     0
 71
     3
 72
     9
 73
     5
 74
     0
 42
0.000000001
 43
0.0000001
 40
0.0
 40
0.0
 40
0.0
 40
0.0
 40
0.4966933765
 40
1.0
 40
1.0
 40
1.0
 40
1.0
 10
304.695348774
 20
441.0683659651
 30
0.0
 10
304.695348774
 20
441.2361348675
 30
0.0
 10
304.600835353
 20
441.5799197966
 30
0.0
 10
304.3438350432
 20
441.8258854629
 30
0.0
 10
304.195348774
 20
441.9086667132
 30
0.0
  0
SPLINE
  5
324
330
1B
100
AcDbEntity
 67
     1
  8
7_ALL_FEATURES
  6
Continuous
 62
     7
100
AcDbSpline
 70
     0
 71
     3
 72
     8
 73
     4
 74
     0
 42
0.000000001
 43
0.0000001
 40
0.0
 40
0.0
 40
0.0
 40
0.0
 40
1.0
 40
1.0
 40
1.0
 40
1.0
 10
304.195348774
 20
441.9086667132
 30
0.0
 10
304.0449367604
 20
441.9925215679
 30
0.0
 10
303.8675562375
 20
442.0386616913
 30
0.0
 10
303.695348774
 20
442.0386616913
 30
0.0
  0
SPLINE
  5
325
330
1B
100
AcDbEntity
 67
     1
  8
7_ALL_FEATURES
  6
Continuous
 62
     7
100
AcDbSpline
 70
     0
 71
     3
 72
     8
 73
     4
 74
     0
 42
0.000000001
 43
0.0000001
 40
0.0
 40
0.0
 40
0.0
 40
0.0
 40
1.0
 40
1.0
 40
1.0
 40
1.0
 10
318.695348774
 20
442.0386616913
 30
0.0
 10
318.5231413105
 20
442.0386616913
 30
0.0
 10
318.3457607875
 20
441.9925215679
 30
0.0
 10
318.195348774
 20
441.9086667132
 30
0.0
  0
SPLINE
  5
326
330
1B
100
AcDbEntity
 67
     1
  8
7_ALL_FEATURES
  6
Continuous
 62
     7
100
AcDbSpline
 70
     0
 71
     3
 72
     8
 73
     4
 74
     0
 42
0.000000001
 43
0.0000001
 40
0.0
 40
0.0
 40
0.0
 40
0.0
 40
1.0
 40
1.0
 40
1.0
 40
1.0
 10
318.195348774
 20
441.9086667132
 30
0.0
 10
318.0468625048
 20
441.8258854629
 30
0.0
 10
317.9159440606
 20
441.6997935723
 30
0.0
 10
317.8293233702
 20
441.5535138282
 30
0.0
  0
SPLINE
  5
327
330
1B
100
AcDbEntity
 67
     1
  8
7_ALL_FEATURES
  6
Continuous
 62
     7
100
AcDbSpline
 70
     0
 71
     3
 72
     8
 73
     4
 74
     0
 42
0.000000001
 43
0.0000001
 40
0.0
 40
0.0
 40
0.0
 40
0.0
 40
1.0
 40
1.0
 40
1.0
 40
1.0
 10
528.695348774
 20
442.0386616913
 30
0.0
 10
528.5231413105
 20
442.0386616913
 30
0.0
 10
528.3457607875
 20
441.9925215679
 30
0.0
 10
528.195348774
 20
441.9086667132
 30
0.0
  0
SPLINE
  5
328
330
1B
100
AcDbEntity
 67
     1
  8
7_ALL_FEATURES
  6
Continuous
 62
     7
100
AcDbSpline
 70
     0
 71
     3
 72
     8
 73
     4
 74
     0
 42
0.000000001
 43
0.0000001
 40
0.0
 40
0.0
 40
0.0
 40
0.0
 40
1.0
 40
1.0
 40
1.0
 40
1.0
 10
528.195348774
 20
441.9086667132
 30
0.0
 10
528.0468625048
 20
441.8258854629
 30
0.0
 10
527.9159440606
 20
441.6997935723
 30
0.0
 10
527.8293233702
 20
441.5535138282
 30
0.0
  0
LINE
  5
329
330
1B
100
AcDbEntity
 67
     1
  8
7_ALL_FEATURES
  6
Continuous
 62
     7
100
AcDbLine
 10
79.695348774
 20
502.4095128382
 30
0.0
 11
79.695348774
 21
502.2691167779
 31
0.0
  0
SPLINE
  5
32A
330
1B
100
AcDbEntity
 67
     1
  8
7_ALL_FEATURES
  6
Continuous
 62
     7
100
AcDbSpline
 70
     0
 71
     3
 72
     8
 73
     4
 74
     0
 42
0.000000001
 43
0.0000001
 40
0.0
 40
0.0
 40
0.0
 40
0.0
 40
1.0
 40
1.0
 40
1.0
 40
1.0
 10
738.695348774
 20
442.0386616913
 30
0.0
 10
738.5231413105
 20
442.0386616913
 30
0.0
 10
738.3457607875
 20
441.9925215679
 30
0.0
 10
738.195348774
 20
441.9086667132
 30
0.0
  0
SPLINE
  5
32B
330
1B
100
AcDbEntity
 67
     1
  8
7_ALL_FEATURES
  6
Continuous
 62
     7
100
AcDbSpline
 70
     0
 71
     3
 72
     8
 73
     4
 74
     0
 42
0.000000001
 43
0.0000001
 40
0.0
 40
0.0
 40
0.0
 40
0.0
 40
1.0
 40
1.0
 40
1.0
 40
1.0
 10
738.195348774
 20
441.9086667132
 30
0.0
 10
738.0468625048
 20
441.8258854629
 30
0.0
 10
737.9159440606
 20
441.6997935723
 30
0.0
 10
737.8293233702
 20
441.5535138282
 30
0.0
  0
LINE
  5
32C
330
1B
100
AcDbEntity
 67
     1
  8
7_ALL_FEATURES
  6
Continuous
 62
     7
100
AcDbLine
 10
79.695348774
 20
502.2691167779
 30
0.0
 11
79.695348774
 21
502.1391794638
 31
0.0
  0
LINE
  5
32D
330
1B
100
AcDbEntity
 67
     1
  8
7_ALL_FEATURES
  6
Continuous
 62
     7
100
AcDbLine
 10
747.695348774
 20
511.9173317431
 30
0.0
 11
84.695348774
 21
511.9173317431
 31
0.0
  0
ARC
  5
32E
330
1B
100
AcDbEntity
 67
     1
  8
7_ALL_FEATURES
  6
Continuous
 62
     7
100
AcDbCircle
 10
747.6943466909
 20
506.3504807899
 30
0.0
 40
5.5668510434
100
AcDbArc
 50
73.8751702932
 51
89.9896862456
  0
SPLINE
  5
32F
330
1B
100
AcDbEntity
 67
     1
  8
7_ALL_FEATURES
  6
Continuous
 62
     7
100
AcDbSpline
 70
     0
 71
     3
 72
    10
 73
     6
 74
     0
 42
0.000000001
 43
0.0000001
 40
0.0
 40
0.0
 40
0.0
 40
0.0
 40
0.5122267054
 40
0.7587899462
 40
1.0
 40
1.0
 40
1.0
 40
1.0
 10
749.2404337459
 20
511.6983257164
 30
0.0
 10
750.1949894148
 20
511.4210922576
 30
0.0
 10
751.5443051567
 20
510.574188528
 30
0.0
 10
752.5235331705
 20
508.8655845709
 30
0.0
 10
752.695348774
 20
507.9107391262
 30
0.0
 10
752.695348774
 20
507.4426599351
 30
0.0
  0
LINE
  5
330
330
1B
100
AcDbEntity
 67
     1
  8
7_ALL_FEATURES
  6
Continuous
 62
     7
100
AcDbLine
 10
737.695348774
 20
438.9253468123
 30
0.0
 11
737.695348774
 21
439.7253468123
 31
0.0
  0
LINE
  5
331
330
1B
100
AcDbEntity
 67
     1
  8
7_ALL_FEATURES
  6
Continuous
 62
     7
100
AcDbLine
 10
724.695348774
 20
438.9253468123
 30
0.0
 11
724.695348774
 21
439.7253468123
 31
0.0
  0
LINE
  5
332
330
1B
100
AcDbEntity
 67
     1
  8
7_ALL_FEATURES
  6
Continuous
 62
     7
100
AcDbLine
 10
527.695348774
 20
438.9253468123
 30
0.0
 11
527.695348774
 21
439.7253468123
 31
0.0
  0
LINE
  5
333
330
1B
100
AcDbEntity
 67
     1
  8
7_ALL_FEATURES
  6
Continuous
 62
     7
100
AcDbLine
 10
514.695348774
 20
438.9253468123
 30
0.0
 11
514.695348774
 21
439.7253468123
 31
0.0
  0
LINE
  5
334
330
1B
100
AcDbEntity
 67
     1
  8
7_ALL_FEATURES
  6
Continuous
 62
     7
100
AcDbLine
 10
97.695348774
 20
438.9253468123
 30
0.0
 11
94.695348774
 21
438.9253468123
 31
0.0
  0
LINE
  5
335
330
1B
100
AcDbEntity
 67
     1
  8
7_ALL_FEATURES
  6
Continuous
 62
     7
100
AcDbLine
 10
97.695348774
 20
438.9253468123
 30
0.0
 11
104.695348774
 21
438.9253468123
 31
0.0
  0
LINE
  5
336
330
1B
100
AcDbEntity
 67
     1
  8
7_ALL_FEATURES
  6
Continuous
 62
     7
100
AcDbLine
 10
107.695348774
 20
438.9253468123
 30
0.0
 11
104.695348774
 21
438.9253468123
 31
0.0
  0
LINE
  5
337
330
1B
100
AcDbEntity
 67
     1
  8
7_ALL_FEATURES
  6
Continuous
 62
     7
100
AcDbLine
 10
317.695348774
 20
438.9253468123
 30
0.0
 11
317.695348774
 21
439.7253468123
 31
0.0
  0
LINE
  5
338
330
1B
100
AcDbEntity
 67
     1
  8
7_ALL_FEATURES
  6
Continuous
 62
     7
100
AcDbLine
 10
304.695348774
 20
438.9253468123
 30
0.0
 11
304.695348774
 21
439.7253468123
 31
0.0
  0
LINE
  5
339
330
1B
100
AcDbEntity
 67
     1
  8
7_ALL_FEATURES
  6
Continuous
 62
     7
100
AcDbLine
 10
317.695348774
 20
438.9253468123
 30
0.0
 11
314.695348774
 21
438.9253468123
 31
0.0
  0
LINE
  5
33A
330
1B
100
AcDbEntity
 67
     1
  8
7_ALL_FEATURES
  6
Continuous
 62
     7
100
AcDbLine
 10
107.695348774
 20
438.9253468123
 30
0.0
 11
107.695348774
 21
439.7253468123
 31
0.0
  0
LINE
  5
33B
330
1B
100
AcDbEntity
 67
     1
  8
7_ALL_FEATURES
  6
Continuous
 62
     7
100
AcDbLine
 10
94.695348774
 20
438.9253468123
 30
0.0
 11
94.695348774
 21
439.7253468123
 31
0.0
  0
LINE
  5
33C
330
1B
100
AcDbEntity
 67
     1
  8
7_ALL_FEATURES
  6
Continuous
 62
     7
100
AcDbLine
 10
307.695348774
 20
438.9253468123
 30
0.0
 11
304.695348774
 21
438.9253468123
 31
0.0
  0
LINE
  5
33D
330
1B
100
AcDbEntity
 67
     1
  8
7_ALL_FEATURES
  6
Continuous
 62
     7
100
AcDbLine
 10
307.695348774
 20
438.9253468123
 30
0.0
 11
314.695348774
 21
438.9253468123
 31
0.0
  0
LINE
  5
33E
330
1B
100
AcDbEntity
 67
     1
  8
7_ALL_FEATURES
  6
Continuous
 62
     7
100
AcDbLine
 10
517.695348774
 20
438.9253468123
 30
0.0
 11
514.695348774
 21
438.9253468123
 31
0.0
  0
LINE
  5
33F
330
1B
100
AcDbEntity
 67
     1
  8
7_ALL_FEATURES
  6
Continuous
 62
     7
100
AcDbLine
 10
517.695348774
 20
438.9253468123
 30
0.0
 11
524.695348774
 21
438.9253468123
 31
0.0
  0
LINE
  5
340
330
1B
100
AcDbEntity
 67
     1
  8
7_ALL_FEATURES
  6
Continuous
 62
     7
100
AcDbLine
 10
527.695348774
 20
438.9253468123
 30
0.0
 11
524.695348774
 21
438.9253468123
 31
0.0
  0
LINE
  5
341
330
1B
100
AcDbEntity
 67
     1
  8
7_ALL_FEATURES
  6
Continuous
 62
     7
100
AcDbLine
 10
727.695348774
 20
438.9253468123
 30
0.0
 11
724.695348774
 21
438.9253468123
 31
0.0
  0
LINE
  5
342
330
1B
100
AcDbEntity
 67
     1
  8
7_ALL_FEATURES
  6
Continuous
 62
     7
100
AcDbLine
 10
727.695348774
 20
438.9253468123
 30
0.0
 11
734.695348774
 21
438.9253468123
 31
0.0
  0
LINE
  5
343
330
1B
100
AcDbEntity
 67
     1
  8
7_ALL_FEATURES
  6
Continuous
 62
     7
100
AcDbLine
 10
737.695348774
 20
438.9253468123
 30
0.0
 11
734.695348774
 21
438.9253468123
 31
0.0
  0
LINE
  5
344
330
1B
100
AcDbEntity
 67
     1
  8
7_ALL_FEATURES
  6
Continuous
 62
     7
100
AcDbLine
 10
723.695348774
 20
442.0386616913
 30
0.0
 11
528.695348774
 21
442.0386616913
 31
0.0
  0
LINE
  5
345
330
1B
100
AcDbEntity
 67
     1
  8
7_ALL_FEATURES
  6
Continuous
 62
     7
100
AcDbLine
 10
513.695348774
 20
442.0386616913
 30
0.0
 11
318.695348774
 21
442.0386616913
 31
0.0
  0
LINE
  5
346
330
1B
100
AcDbEntity
 67
     1
  8
7_ALL_FEATURES
  6
Continuous
 62
     7
100
AcDbLine
 10
303.695348774
 20
442.0386616913
 30
0.0
 11
108.695348774
 21
442.0386616913
 31
0.0
  0
LINE
  5
347
330
1B
100
AcDbEntity
 67
     1
  8
7_ALL_FEATURES
  6
Continuous
 62
     7
100
AcDbLine
 10
84.695348774
 20
442.0386616913
 30
0.0
 11
93.695348774
 21
442.0386616913
 31
0.0
  0
LINE
  5
348
330
1B
100
AcDbEntity
 67
     1
  8
7_ALL_FEATURES
  6
Continuous
 62
     7
100
AcDbLine
 10
747.695348774
 20
442.0386616913
 30
0.0
 11
738.695348774
 21
442.0386616913
 31
0.0
  0
SPLINE
  5
349
330
1B
100
AcDbEntity
 67
     1
  8
7_ALL_FEATURES
  6
Continuous
 62
     7
100
AcDbSpline
 70
     0
 71
     3
 72
     9
 73
     5
 74
     0
 42
0.000000001
 43
0.0000001
 40
0.0
 40
0.0
 40
0.0
 40
0.0
 40
0.4957547769
 40
1.0
 40
1.0
 40
1.0
 40
1.0
 10
752.695348774
 20
446.8901403227
 30
0.0
 10
752.695348774
 20
445.8877186643
 30
0.0
 10
752.0056823048
 20
443.8138997688
 30
0.0
 10
750.2129477323
 20
442.5823437917
 30
0.0
 10
749.2404337459
 20
442.2761099567
 30
0.0
  0
ARC
  5
34A
330
1B
100
AcDbEntity
 67
     1
  8
7_ALL_FEATURES
  6
Continuous
 62
     7
100
AcDbCircle
 10
747.6910081166
 20
447.2125942416
 30
0.0
 40
5.1739343711
100
AcDbArc
 50
270.0480681356
 51
287.4256278397
  0
ARC
  5
34B
330
1B
100
AcDbEntity
 67
     1
  8
7_ALL_FEATURES
  6
Continuous
 62
     7
100
AcDbCircle
 10
84.6996894314
 20
447.2125942416
 30
0.0
 40
5.173934371
100
AcDbArc
 50
252.5743721603
 51
269.9519318644
  0
SPLINE
  5
34C
330
1B
100
AcDbEntity
 67
     1
  8
7_ALL_FEATURES
  6
Continuous
 62
     7
100
AcDbSpline
 70
     0
 71
     3
 72
     9
 73
     5
 74
     0
 42
0.000000001
 43
0.0000001
 40
0.0
 40
0.0
 40
0.0
 40
0.0
 40
0.5042452231
 40
1.0
 40
1.0
 40
1.0
 40
1.0
 10
83.1502638021
 20
442.2761099567
 30
0.0
 10
82.1777498156
 20
442.5823437917
 30
0.0
 10
80.3850152431
 20
443.8138997688
 30
0.0
 10
79.695348774
 20
445.8877186643
 30
0.0
 10
79.695348774
 20
446.8901403227
 30
0.0
  0
LINE
  5
34D
330
1B
100
AcDbEntity
 67
     1
  8
7_ALL_FEATURES
  6
Continuous
 62
     9
100
AcDbLine
 10
723.695348774
 20
442.2321992078
 30
0.0
 11
723.695348774
 21
442.0386616913
 31
0.0
  0
LINE
  5
34E
330
1B
100
AcDbEntity
 67
     1
  8
7_ALL_FEATURES
  6
Continuous
 62
     9
100
AcDbLine
 10
84.695348774
 20
511.5603734926
 30
0.0
 11
84.695348774
 21
511.9173317431
 31
0.0
  0
LINE
  5
34F
330
1B
100
AcDbEntity
 67
     1
  8
7_ALL_FEATURES
  6
Continuous
 62
     9
100
AcDbLine
 10
747.695348774
 20
511.5603734926
 30
0.0
 11
747.695348774
 21
511.9173317431
 31
0.0
  0
LINE
  5
350
330
1B
100
AcDbEntity
 67
     1
  8
7_ALL_FEATURES
  6
Continuous
 62
     9
100
AcDbLine
 10
747.695348774
 20
442.0386616913
 30
0.0
 11
747.695348774
 21
442.2321992078
 31
0.0
  0
LINE
  5
351
330
1B
100
AcDbEntity
 67
     1
  8
7_ALL_FEATURES
  6
Continuous
 62
     9
100
AcDbLine
 10
738.695348774
 20
442.2321992078
 30
0.0
 11
738.695348774
 21
442.0386616913
 31
0.0
  0
LINE
  5
352
330
1B
100
AcDbEntity
 67
     1
  8
7_ALL_FEATURES
  6
Continuous
 62
     9
100
AcDbLine
 10
84.695348774
 20
442.0386616913
 30
0.0
 11
84.695348774
 21
442.2321992078
 31
0.0
  0
LINE
  5
353
330
1B
100
AcDbEntity
 67
     1
  8
7_ALL_FEATURES
  6
Continuous
 62
     9
100
AcDbLine
 10
93.695348774
 20
442.2321992078
 30
0.0
 11
93.695348774
 21
442.0386616913
 31
0.0
  0
LINE
  5
354
330
1B
100
AcDbEntity
 67
     1
  8
7_ALL_FEATURES
  6
Continuous
 62
     9
100
AcDbLine
 10
734.695348774
 20
438.9253468123
 30
0.0
 11
734.695348774
 21
439.7253468123
 31
0.0
  0
LINE
  5
355
330
1B
100
AcDbEntity
 67
     1
  8
7_ALL_FEATURES
  6
Continuous
 62
     9
100
AcDbLine
 10
727.695348774
 20
438.9253468123
 30
0.0
 11
727.695348774
 21
439.7253468123
 31
0.0
  0
LINE
  5
356
330
1B
100
AcDbEntity
 67
     1
  8
7_ALL_FEATURES
  6
Continuous
 62
     9
100
AcDbLine
 10
524.695348774
 20
438.9253468123
 30
0.0
 11
524.695348774
 21
439.7253468123
 31
0.0
  0
LINE
  5
357
330
1B
100
AcDbEntity
 67
     1
  8
7_ALL_FEATURES
  6
Continuous
 62
     9
100
AcDbLine
 10
517.695348774
 20
438.9253468123
 30
0.0
 11
517.695348774
 21
439.7253468123
 31
0.0
  0
LINE
  5
358
330
1B
100
AcDbEntity
 67
     1
  8
7_ALL_FEATURES
  6
Continuous
 62
     9
100
AcDbLine
 10
108.695348774
 20
442.2321992078
 30
0.0
 11
108.695348774
 21
442.0386616913
 31
0.0
  0
LINE
  5
359
330
1B
100
AcDbEntity
 67
     1
  8
7_ALL_FEATURES
  6
Continuous
 62
     9
100
AcDbLine
 10
307.695348774
 20
438.9253468123
 30
0.0
 11
307.695348774
 21
439.7253468123
 31
0.0
  0
LINE
  5
35A
330
1B
100
AcDbEntity
 67
     1
  8
7_ALL_FEATURES
  6
Continuous
 62
     9
100
AcDbLine
 10
303.695348774
 20
442.2321992078
 30
0.0
 11
303.695348774
 21
442.0386616913
 31
0.0
  0
LINE
  5
35B
330
1B
100
AcDbEntity
 67
     1
  8
7_ALL_FEATURES
  6
Continuous
 62
     9
100
AcDbLine
 10
314.695348774
 20
438.9253468123
 30
0.0
 11
314.695348774
 21
439.7253468123
 31
0.0
  0
LINE
  5
35C
330
1B
100
AcDbEntity
 67
     1
  8
7_ALL_FEATURES
  6
Continuous
 62
     9
100
AcDbLine
 10
318.695348774
 20
442.2321992078
 30
0.0
 11
318.695348774
 21
442.0386616913
 31
0.0
  0
LINE
  5
35D
330
1B
100
AcDbEntity
 67
     1
  8
7_ALL_FEATURES
  6
Continuous
 62
     9
100
AcDbLine
 10
104.695348774
 20
438.9253468123
 30
0.0
 11
104.695348774
 21
439.7253468123
 31
0.0
  0
LINE
  5
35E
330
1B
100
AcDbEntity
 67
     1
  8
7_ALL_FEATURES
  6
Continuous
 62
     9
100
AcDbLine
 10
513.695348774
 20
442.2321992078
 30
0.0
 11
513.695348774
 21
442.0386616913
 31
0.0
  0
LINE
  5
35F
330
1B
100
AcDbEntity
 67
     1
  8
7_ALL_FEATURES
  6
Continuous
 62
     9
100
AcDbLine
 10
97.695348774
 20
438.9253468123
 30
0.0
 11
97.695348774
 21
439.7253468123
 31
0.0
  0
LINE
  5
360
330
1B
100
AcDbEntity
 67
     1
  8
7_ALL_FEATURES
  6
Continuous
 62
     9
100
AcDbLine
 10
528.695348774
 20
442.2321992078
 30
0.0
 11
528.695348774
 21
442.0386616913
 31
0.0
  0
LINE
  5
361
330
1B
100
AcDbEntity
 67
     1
  8
7_ALL_FEATURES
  6
Continuous
 62
     3
100
AcDbLine
 10
724.695348774
 20
439.7253468123
 30
0.0
 11
727.695348774
 21
439.7253468123
 31
0.0
  0
LINE
  5
362
330
1B
100
AcDbEntity
 67
     1
  8
7_ALL_FEATURES
  6
Continuous
 62
     3
100
AcDbLine
 10
514.695348774
 20
439.7253468123
 30
0.0
 11
517.695348774
 21
439.7253468123
 31
0.0
  0
LINE
  5
363
330
1B
100
AcDbEntity
 67
     1
  8
7_ALL_FEATURES
  6
Continuous
 62
     3
100
AcDbLine
 10
304.695348774
 20
439.7253468123
 30
0.0
 11
307.695348774
 21
439.7253468123
 31
0.0
  0
LINE
  5
364
330
1B
100
AcDbEntity
 67
     1
  8
7_ALL_FEATURES
  6
Continuous
 62
     3
100
AcDbLine
 10
94.695348774
 20
439.7253468123
 30
0.0
 11
97.695348774
 21
439.7253468123
 31
0.0
  0
LINE
  5
365
330
1B
100
AcDbEntity
 67
     1
  8
7_ALL_FEATURES
  6
Continuous
 62
     3
100
AcDbLine
 10
104.695348774
 20
439.7253468123
 30
0.0
 11
107.695348774
 21
439.7253468123
 31
0.0
  0
LINE
  5
366
330
1B
100
AcDbEntity
 67
     1
  8
7_ALL_FEATURES
  6
Continuous
 62
     3
100
AcDbLine
 10
97.695348774
 20
439.7253468123
 30
0.0
 11
104.695348774
 21
439.7253468123
 31
0.0
  0
LINE
  5
367
330
1B
100
AcDbEntity
 67
     1
  8
7_ALL_FEATURES
  6
Continuous
 62
     3
100
AcDbLine
 10
314.695348774
 20
439.7253468123
 30
0.0
 11
317.695348774
 21
439.7253468123
 31
0.0
  0
LINE
  5
368
330
1B
100
AcDbEntity
 67
     1
  8
7_ALL_FEATURES
  6
Continuous
 62
     3
100
AcDbLine
 10
307.695348774
 20
439.7253468123
 30
0.0
 11
314.695348774
 21
439.7253468123
 31
0.0
  0
LINE
  5
369
330
1B
100
AcDbEntity
 67
     1
  8
7_ALL_FEATURES
  6
Continuous
 62
     3
100
AcDbLine
 10
524.695348774
 20
439.7253468123
 30
0.0
 11
527.695348774
 21
439.7253468123
 31
0.0
  0
LINE
  5
36A
330
1B
100
AcDbEntity
 67
     1
  8
7_ALL_FEATURES
  6
Continuous
 62
     3
100
AcDbLine
 10
517.695348774
 20
439.7253468123
 30
0.0
 11
524.695348774
 21
439.7253468123
 31
0.0
  0
LINE
  5
36B
330
1B
100
AcDbEntity
 67
     1
  8
7_ALL_FEATURES
  6
Continuous
 62
     3
100
AcDbLine
 10
734.695348774
 20
439.7253468123
 30
0.0
 11
737.695348774
 21
439.7253468123
 31
0.0
  0
LINE
  5
36C
330
1B
100
AcDbEntity
 67
     1
  8
7_ALL_FEATURES
  6
Continuous
 62
     3
100
AcDbLine
 10
727.695348774
 20
439.7253468123
 30
0.0
 11
734.695348774
 21
439.7253468123
 31
0.0
  0
LINE
  5
36D
330
1B
100
AcDbEntity
 67
     1
  8
7_ALL_FEATURES
  6
Continuous
 62
     3
100
AcDbLine
 10
724.695348774
 20
440.3318092958
 30
0.0
 11
724.695348774
 21
441.0683659651
 31
0.0
  0
LINE
  5
36E
330
1B
100
AcDbEntity
 67
     1
  8
7_ALL_FEATURES
  6
Continuous
 62
     3
100
AcDbLine
 10
724.695348774
 20
441.0683659651
 30
0.0
 11
724.695348774
 21
441.2619034815
 31
0.0
  0
LINE
  5
36F
330
1B
100
AcDbEntity
 67
     1
  8
7_ALL_FEATURES
  6
Continuous
 62
     3
100
AcDbLine
 10
527.695348774
 20
440.3318092958
 30
0.0
 11
527.695348774
 21
441.0683659651
 31
0.0
  0
LINE
  5
370
330
1B
100
AcDbEntity
 67
     1
  8
7_ALL_FEATURES
  6
Continuous
 62
     3
100
AcDbLine
 10
527.695348774
 20
441.0683659651
 30
0.0
 11
527.695348774
 21
441.2619034815
 31
0.0
  0
LINE
  5
371
330
1B
100
AcDbEntity
 67
     1
  8
7_ALL_FEATURES
  6
Continuous
 62
     3
100
AcDbLine
 10
514.695348774
 20
440.3318092958
 30
0.0
 11
514.695348774
 21
441.0683659651
 31
0.0
  0
LINE
  5
372
330
1B
100
AcDbEntity
 67
     1
  8
7_ALL_FEATURES
  6
Continuous
 62
     3
100
AcDbLine
 10
514.695348774
 20
441.0683659651
 30
0.0
 11
514.695348774
 21
441.2619034815
 31
0.0
  0
LINE
  5
373
330
1B
100
AcDbEntity
 67
     1
  8
7_ALL_FEATURES
  6
Continuous
 62
     3
100
AcDbLine
 10
317.695348774
 20
440.3318092958
 30
0.0
 11
317.695348774
 21
441.0683659651
 31
0.0
  0
LINE
  5
374
330
1B
100
AcDbEntity
 67
     1
  8
7_ALL_FEATURES
  6
Continuous
 62
     3
100
AcDbLine
 10
317.695348774
 20
441.0683659651
 30
0.0
 11
317.695348774
 21
441.2619034815
 31
0.0
  0
LINE
  5
375
330
1B
100
AcDbEntity
 67
     1
  8
7_ALL_FEATURES
  6
Continuous
 62
     3
100
AcDbLine
 10
304.695348774
 20
440.3318092958
 30
0.0
 11
304.695348774
 21
441.0683659651
 31
0.0
  0
LINE
  5
376
330
1B
100
AcDbEntity
 67
     1
  8
7_ALL_FEATURES
  6
Continuous
 62
     3
100
AcDbLine
 10
304.695348774
 20
441.0683659651
 30
0.0
 11
304.695348774
 21
441.2619034815
 31
0.0
  0
LINE
  5
377
330
1B
100
AcDbEntity
 67
     1
  8
7_ALL_FEATURES
  6
Continuous
 62
     3
100
AcDbLine
 10
107.695348774
 20
440.3318092958
 30
0.0
 11
107.695348774
 21
441.0683659651
 31
0.0
  0
LINE
  5
378
330
1B
100
AcDbEntity
 67
     1
  8
7_ALL_FEATURES
  6
Continuous
 62
     3
100
AcDbLine
 10
107.695348774
 20
441.0683659651
 30
0.0
 11
107.695348774
 21
441.2619034815
 31
0.0
  0
LINE
  5
379
330
1B
100
AcDbEntity
 67
     1
  8
7_ALL_FEATURES
  6
Continuous
 62
     3
100
AcDbLine
 10
94.695348774
 20
440.3318092958
 30
0.0
 11
94.695348774
 21
441.0683659651
 31
0.0
  0
LINE
  5
37A
330
1B
100
AcDbEntity
 67
     1
  8
7_ALL_FEATURES
  6
Continuous
 62
     3
100
AcDbLine
 10
94.695348774
 20
441.0683659651
 30
0.0
 11
94.695348774
 21
441.2619034815
 31
0.0
  0
LINE
  5
37B
330
1B
100
AcDbEntity
 67
     1
  8
7_ALL_FEATURES
  6
Continuous
 62
     3
100
AcDbLine
 10
737.695348774
 20
440.3318092958
 30
0.0
 11
737.695348774
 21
441.0683659651
 31
0.0
  0
LINE
  5
37C
330
1B
100
AcDbEntity
 67
     1
  8
7_ALL_FEATURES
  6
Continuous
 62
     3
100
AcDbLine
 10
737.695348774
 20
441.0683659651
 30
0.0
 11
737.695348774
 21
441.2619034815
 31
0.0
  0
LINE
  5
37D
330
1B
100
AcDbEntity
 67
     1
  8
7_ALL_FEATURES
  6
Continuous
 62
     3
100
AcDbLine
 10
94.695348774
 20
440.3318092958
 30
0.0
 11
94.695348774
 21
439.7253468123
 31
0.0
  0
LINE
  5
37E
330
1B
100
AcDbEntity
 67
     1
  8
7_ALL_FEATURES
  6
Continuous
 62
     3
100
AcDbLine
 10
107.695348774
 20
440.3318092958
 30
0.0
 11
107.695348774
 21
439.7253468123
 31
0.0
  0
LINE
  5
37F
330
1B
100
AcDbEntity
 67
     1
  8
7_ALL_FEATURES
  6
Continuous
 62
     3
100
AcDbLine
 10
752.695348774
 20
502.1391794638
 30
0.0
 11
752.695348774
 21
502.2691167779
 31
0.0
  0
LINE
  5
380
330
1B
100
AcDbEntity
 67
     1
  8
7_ALL_FEATURES
  6
Continuous
 62
     3
100
AcDbLine
 10
79.695348774
 20
502.1391794638
 30
0.0
 11
79.695348774
 21
502.2691167779
 31
0.0
  0
LINE
  5
381
330
1B
100
AcDbEntity
 67
     1
  8
7_ALL_FEATURES
  6
Continuous
 62
     3
100
AcDbLine
 10
752.695348774
 20
492.4788475198
 30
0.0
 11
752.695348774
 21
502.1391794638
 31
0.0
  0
LINE
  5
382
330
1B
100
AcDbEntity
 67
     1
  8
7_ALL_FEATURES
  6
Continuous
 62
     3
100
AcDbLine
 10
79.695348774
 20
492.4788475198
 30
0.0
 11
79.695348774
 21
502.1391794638
 31
0.0
  0
LINE
  5
383
330
1B
100
AcDbEntity
 67
     1
  8
7_ALL_FEATURES
  6
Continuous
 62
     3
100
AcDbLine
 10
752.695348774
 20
492.3432887234
 30
0.0
 11
752.695348774
 21
492.4788475198
 31
0.0
  0
LINE
  5
384
330
1B
100
AcDbEntity
 67
     1
  8
7_ALL_FEATURES
  6
Continuous
 62
     3
100
AcDbLine
 10
79.695348774
 20
492.3432887234
 30
0.0
 11
79.695348774
 21
492.4788475198
 31
0.0
  0
LINE
  5
385
330
1B
100
AcDbEntity
 67
     1
  8
7_ALL_FEATURES
  6
Continuous
 62
     3
100
AcDbLine
 10
752.695348774
 20
482.3422494816
 30
0.0
 11
752.695348774
 21
492.3432887234
 31
0.0
  0
LINE
  5
386
330
1B
100
AcDbEntity
 67
     1
  8
7_ALL_FEATURES
  6
Continuous
 62
     3
100
AcDbLine
 10
79.695348774
 20
482.3422494816
 30
0.0
 11
79.695348774
 21
492.3432887234
 31
0.0
  0
LINE
  5
387
330
1B
100
AcDbEntity
 67
     1
  8
7_ALL_FEATURES
  6
Continuous
 62
     3
100
AcDbLine
 10
737.695348774
 20
440.3318092958
 30
0.0
 11
737.695348774
 21
439.7253468123
 31
0.0
  0
LINE
  5
388
330
1B
100
AcDbEntity
 67
     1
  8
7_ALL_FEATURES
  6
Continuous
 62
     3
100
AcDbLine
 10
724.695348774
 20
440.3318092958
 30
0.0
 11
724.695348774
 21
439.7253468123
 31
0.0
  0
LINE
  5
389
330
1B
100
AcDbEntity
 67
     1
  8
7_ALL_FEATURES
  6
Continuous
 62
     3
100
AcDbLine
 10
752.695348774
 20
482.2029484662
 30
0.0
 11
752.695348774
 21
482.3422494816
 31
0.0
  0
LINE
  5
38A
330
1B
100
AcDbEntity
 67
     1
  8
7_ALL_FEATURES
  6
Continuous
 62
     3
100
AcDbLine
 10
79.695348774
 20
482.2029484662
 30
0.0
 11
79.695348774
 21
482.3422494816
 31
0.0
  0
LINE
  5
38B
330
1B
100
AcDbEntity
 67
     1
  8
7_ALL_FEATURES
  6
Continuous
 62
     3
100
AcDbLine
 10
527.695348774
 20
440.3318092958
 30
0.0
 11
527.695348774
 21
439.7253468123
 31
0.0
  0
LINE
  5
38C
330
1B
100
AcDbEntity
 67
     1
  8
7_ALL_FEATURES
  6
Continuous
 62
     3
100
AcDbLine
 10
752.695348774
 20
471.9998471944
 30
0.0
 11
752.695348774
 21
482.2029484662
 31
0.0
  0
LINE
  5
38D
330
1B
100
AcDbEntity
 67
     1
  8
7_ALL_FEATURES
  6
Continuous
 62
     3
100
AcDbLine
 10
514.695348774
 20
440.3318092958
 30
0.0
 11
514.695348774
 21
439.7253468123
 31
0.0
  0
LINE
  5
38E
330
1B
100
AcDbEntity
 67
     1
  8
7_ALL_FEATURES
  6
Continuous
 62
     3
100
AcDbLine
 10
79.695348774
 20
471.9998471944
 30
0.0
 11
79.695348774
 21
482.2029484662
 31
0.0
  0
LINE
  5
38F
330
1B
100
AcDbEntity
 67
     1
  8
7_ALL_FEATURES
  6
Continuous
 62
     3
100
AcDbLine
 10
752.695348774
 20
471.858735102
 30
0.0
 11
752.695348774
 21
471.9998471944
 31
0.0
  0
LINE
  5
390
330
1B
100
AcDbEntity
 67
     1
  8
7_ALL_FEATURES
  6
Continuous
 62
     3
100
AcDbLine
 10
79.695348774
 20
471.858735102
 30
0.0
 11
79.695348774
 21
471.9998471944
 31
0.0
  0
LINE
  5
391
330
1B
100
AcDbEntity
 67
     1
  8
7_ALL_FEATURES
  6
Continuous
 62
     3
100
AcDbLine
 10
317.695348774
 20
440.3318092958
 30
0.0
 11
317.695348774
 21
439.7253468123
 31
0.0
  0
LINE
  5
392
330
1B
100
AcDbEntity
 67
     1
  8
7_ALL_FEATURES
  6
Continuous
 62
     3
100
AcDbLine
 10
752.695348774
 20
461.5950182717
 30
0.0
 11
752.695348774
 21
471.858735102
 31
0.0
  0
LINE
  5
393
330
1B
100
AcDbEntity
 67
     1
  8
7_ALL_FEATURES
  6
Continuous
 62
     3
100
AcDbLine
 10
304.695348774
 20
440.3318092958
 30
0.0
 11
304.695348774
 21
439.7253468123
 31
0.0
  0
LINE
  5
394
330
1B
100
AcDbEntity
 67
     1
  8
7_ALL_FEATURES
  6
Continuous
 62
     3
100
AcDbLine
 10
79.695348774
 20
461.5950182717
 30
0.0
 11
79.695348774
 21
471.858735102
 31
0.0
  0
LINE
  5
395
330
1B
100
AcDbEntity
 67
     1
  8
7_ALL_FEATURES
  6
Continuous
 62
     3
100
AcDbLine
 10
752.695348774
 20
461.4540513513
 30
0.0
 11
752.695348774
 21
461.5950182717
 31
0.0
  0
LINE
  5
396
330
1B
100
AcDbEntity
 67
     1
  8
7_ALL_FEATURES
  6
Continuous
 62
     3
100
AcDbLine
 10
79.695348774
 20
461.4540513513
 30
0.0
 11
79.695348774
 21
461.5950182717
 31
0.0
  0
LINE
  5
397
330
1B
100
AcDbEntity
 67
     1
  8
7_ALL_FEATURES
  6
Continuous
 62
     3
100
AcDbLine
 10
752.695348774
 20
451.2720057524
 30
0.0
 11
752.695348774
 21
461.4540513513
 31
0.0
  0
LINE
  5
398
330
1B
100
AcDbEntity
 67
     1
  8
7_ALL_FEATURES
  6
Continuous
 62
     3
100
AcDbLine
 10
79.695348774
 20
451.2720057524
 30
0.0
 11
79.695348774
 21
461.4540513513
 31
0.0
  0
LINE
  5
399
330
1B
100
AcDbEntity
 67
     1
  8
7_ALL_FEATURES
  6
Continuous
 62
     3
100
AcDbLine
 10
752.695348774
 20
451.1331382406
 30
0.0
 11
752.695348774
 21
451.2720057524
 31
0.0
  0
LINE
  5
39A
330
1B
100
AcDbEntity
 67
     1
  8
7_ALL_FEATURES
  6
Continuous
 62
     3
100
AcDbLine
 10
79.695348774
 20
451.1331382406
 30
0.0
 11
79.695348774
 21
451.2720057524
 31
0.0
  0
LINE
  5
39B
330
1B
100
AcDbEntity
 67
     1
  8
7_ALL_FEATURES
  6
Continuous
 62
     3
100
AcDbLine
 10
752.695348774
 20
502.2691167779
 30
0.0
 11
752.695348774
 21
507.0857016846
 31
0.0
  0
LINE
  5
39C
330
1B
100
AcDbEntity
 67
     1
  8
7_ALL_FEATURES
  6
Continuous
 62
     3
100
AcDbLine
 10
79.695348774
 20
502.2691167779
 30
0.0
 11
79.695348774
 21
502.4095128382
 31
0.0
  0
LINE
  5
39D
330
1B
100
AcDbEntity
 67
     1
  8
7_ALL_FEATURES
  6
Continuous
 62
     3
100
AcDbLine
 10
79.695348774
 20
502.4095128382
 30
0.0
 11
79.695348774
 21
507.0857016846
 31
0.0
  0
LINE
  5
39E
330
1B
100
AcDbEntity
 67
     1
  8
7_ALL_FEATURES
  6
Continuous
 62
     3
100
AcDbLine
 10
752.695348774
 20
447.0836778392
 30
0.0
 11
752.695348774
 21
451.1331382406
 31
0.0
  0
LINE
  5
39F
330
1B
100
AcDbEntity
 67
     1
  8
7_ALL_FEATURES
  6
Continuous
 62
     3
100
AcDbLine
 10
79.695348774
 20
447.0836778392
 30
0.0
 11
79.695348774
 21
451.1331382406
 31
0.0
  0
LINE
  5
3A0
330
1B
100
AcDbEntity
 67
     1
  8
7_ALL_FEATURES
  6
Continuous
 62
     9
100
AcDbLine
 10
107.695348774
 20
440.3318092958
 30
0.0
 11
104.695348774
 21
440.3318092958
 31
0.0
  0
LINE
  5
3A1
330
1B
100
AcDbEntity
 67
     1
  8
7_ALL_FEATURES
  6
Continuous
 62
     9
100
AcDbLine
 10
104.695348774
 20
440.3318092958
 30
0.0
 11
102.945348774
 21
440.3318092958
 31
0.0
  0
LINE
  5
3A2
330
1B
100
AcDbEntity
 67
     1
  8
7_ALL_FEATURES
  6
Continuous
 62
     9
100
AcDbLine
 10
102.945348774
 20
440.3318092958
 30
0.0
 11
99.445348774
 21
440.3318092958
 31
0.0
  0
LINE
  5
3A3
330
1B
100
AcDbEntity
 67
     1
  8
7_ALL_FEATURES
  6
Continuous
 62
     9
100
AcDbLine
 10
99.445348774
 20
440.3318092958
 30
0.0
 11
97.695348774
 21
440.3318092958
 31
0.0
  0
LINE
  5
3A4
330
1B
100
AcDbEntity
 67
     1
  8
7_ALL_FEATURES
  6
Continuous
 62
     9
100
AcDbLine
 10
97.695348774
 20
440.3318092958
 30
0.0
 11
94.695348774
 21
440.3318092958
 31
0.0
  0
LINE
  5
3A5
330
1B
100
AcDbEntity
 67
     1
  8
7_ALL_FEATURES
  6
Continuous
 62
     3
100
AcDbLine
 10
747.695348774
 20
511.5603734926
 30
0.0
 11
84.695348774
 21
511.5603734926
 31
0.0
  0
SPLINE
  5
3A6
330
1B
100
AcDbEntity
 67
     1
  8
7_ALL_FEATURES
  6
Continuous
 62
     3
100
AcDbSpline
 70
     0
 71
     3
 72
     8
 73
     4
 74
     0
 42
0.000000001
 43
0.0000001
 40
0.0
 40
0.0
 40
0.0
 40
0.0
 40
1.0
 40
1.0
 40
1.0
 40
1.0
 10
93.695348774
 20
442.2321992078
 30
0.0
 10
93.8675562375
 20
442.2321992078
 30
0.0
 10
94.0449367604
 20
442.1860590844
 30
0.0
 10
94.195348774
 20
442.1022042297
 30
0.0
  0
SPLINE
  5
3A7
330
1B
100
AcDbEntity
 67
     1
  8
7_ALL_FEATURES
  6
Continuous
 62
     3
100
AcDbSpline
 70
     0
 71
     3
 72
     8
 73
     4
 74
     0
 42
0.000000001
 43
0.0000001
 40
0.0
 40
0.0
 40
0.0
 40
0.0
 40
1.0
 40
1.0
 40
1.0
 40
1.0
 10
94.195348774
 20
442.1022042297
 30
0.0
 10
94.3438350432
 20
442.0194229794
 30
0.0
 10
94.4747534874
 20
441.8933310888
 30
0.0
 10
94.5613741778
 20
441.7470513447
 30
0.0
  0
SPLINE
  5
3A8
330
1B
100
AcDbEntity
 67
     1
  8
7_ALL_FEATURES
  6
Continuous
 62
     3
100
AcDbSpline
 70
     0
 71
     3
 72
     8
 73
     4
 74
     0
 42
0.000000001
 43
0.0000001
 40
0.0
 40
0.0
 40
0.0
 40
0.0
 40
1.0
 40
1.0
 40
1.0
 40
1.0
 10
94.5613741778
 20
441.7470513447
 30
0.0
 10
94.6468567071
 20
441.6026936577
 30
0.0
 10
94.695348774
 20
441.4296723839
 30
0.0
 10
94.695348774
 20
441.2619034815
 30
0.0
  0
LINE
  5
3A9
330
1B
100
AcDbEntity
 67
     1
  8
7_ALL_FEATURES
  6
Continuous
 62
     3
100
AcDbLine
 10
84.695348774
 20
442.2321992078
 30
0.0
 11
93.695348774
 21
442.2321992078
 31
0.0
  0
ARC
  5
3AA
330
1B
100
AcDbEntity
 67
     1
  8
7_ALL_FEATURES
  6
Continuous
 62
     3
100
AcDbCircle
 10
84.6963508571
 20
505.9935225394
 30
0.0
 40
5.5668510434
100
AcDbArc
 50
90.0103137544
 51
106.1248297068
  0
SPLINE
  5
3AB
330
1B
100
AcDbEntity
 67
     1
  8
7_ALL_FEATURES
  6
Continuous
 62
     3
100
AcDbSpline
 70
     0
 71
     3
 72
     9
 73
     5
 74
     0
 42
0.000000001
 43
0.0000001
 40
0.0
 40
0.0
 40
0.0
 40
0.0
 40
0.5125504356
 40
1.0
 40
1.0
 40
1.0
 40
1.0
 10
83.1502638021
 20
511.3413674659
 30
0.0
 10
82.423606628
 20
511.1303230101
 30
0.0
 10
81.0714935191
 20
510.4116106758
 30
0.0
 10
80.1853915082
 20
509.1449708674
 30
0.0
 10
79.9400661925
 20
508.4684513175
 30
0.0
  0
ARC
  5
3AC
330
1B
100
AcDbEntity
 67
     1
  8
7_ALL_FEATURES
  6
Continuous
 62
     3
100
AcDbCircle
 10
83.7945475985
 20
507.0710252779
 30
0.0
 40
4.0999788347
100
AcDbArc
 50
160.0721000783
 51
174.9061159557
  0
ARC
  5
3AD
330
1B
100
AcDbEntity
 67
     1
  8
7_ALL_FEATURES
  6
Continuous
 62
     3
100
AcDbCircle
 10
83.6775551382
 20
507.0850317287
 30
0.0
 40
3.9822064205
100
AcDbArc
 50
174.9573889883
 51
179.9903607092
  0
ARC
  5
3AE
330
1B
100
AcDbEntity
 67
     1
  8
7_ALL_FEATURES
  6
Continuous
 62
     3
100
AcDbCircle
 10
747.6910081166
 20
447.4061317581
 30
0.0
 40
5.173934371
100
AcDbArc
 50
270.0480681356
 51
287.4256278397
  0
SPLINE
  5
3AF
330
1B
100
AcDbEntity
 67
     1
  8
7_ALL_FEATURES
  6
Continuous
 62
     3
100
AcDbSpline
 70
     0
 71
     3
 72
     9
 73
     5
 74
     0
 42
0.000000001
 43
0.0000001
 40
0.0
 40
0.0
 40
0.0
 40
0.0
 40
0.5034202743
 40
1.0
 40
1.0
 40
1.0
 40
1.0
 10
749.2404337459
 20
442.4696474732
 30
0.0
 10
749.9766844912
 20
442.701484642
 30
0.0
 10
751.3532753677
 20
443.5099079969
 30
0.0
 10
752.2091206687
 20
444.862405241
 30
0.0
 10
752.4506313555
 20
445.5844884942
 30
0.0
  0
SPLINE
  5
3B0
330
1B
100
AcDbEntity
 67
     1
  8
7_ALL_FEATURES
  6
Continuous
 62
     3
100
AcDbSpline
 70
     0
 71
     3
 72
     8
 73
     4
 74
     0
 42
0.000000001
 43
0.0000001
 40
0.0
 40
0.0
 40
0.0
 40
0.0
 40
1.0
 40
1.0
 40
1.0
 40
1.0
 10
752.4506313555
 20
445.5844884942
 30
0.0
 10
752.6112397522
 20
446.0646851893
 30
0.0
 10
752.695348774
 20
446.5773341585
 30
0.0
 10
752.695348774
 20
447.0836778392
 30
0.0
  0
LINE
  5
3B1
330
1B
100
AcDbEntity
 67
     1
  8
7_ALL_FEATURES
  6
Continuous
 62
     3
100
AcDbLine
 10
747.695348774
 20
442.2321992078
 30
0.0
 11
738.695348774
 21
442.2321992078
 31
0.0
  0
SPLINE
  5
3B2
330
1B
100
AcDbEntity
 67
     1
  8
7_ALL_FEATURES
  6
Continuous
 62
     3
100
AcDbSpline
 70
     0
 71
     3
 72
     8
 73
     4
 74
     0
 42
0.000000001
 43
0.0000001
 40
0.0
 40
0.0
 40
0.0
 40
0.0
 40
1.0
 40
1.0
 40
1.0
 40
1.0
 10
752.695348774
 20
507.0857016846
 30
0.0
 10
752.695348774
 20
507.5537808757
 30
0.0
 10
752.6102024304
 20
508.028411318
 30
0.0
 10
752.4506313555
 20
508.4684513175
 30
0.0
  0
SPLINE
  5
3B3
330
1B
100
AcDbEntity
 67
     1
  8
7_ALL_FEATURES
  6
Continuous
 62
     3
100
AcDbSpline
 70
     0
 71
     3
 72
     9
 73
     5
 74
     0
 42
0.000000001
 43
0.0000001
 40
0.0
 40
0.0
 40
0.0
 40
0.0
 40
0.4874495644
 40
1.0
 40
1.0
 40
1.0
 40
1.0
 10
752.4506313555
 20
508.4684513175
 30
0.0
 10
752.2053060397
 20
509.1449708674
 30
0.0
 10
751.3192040288
 20
510.4116106758
 30
0.0
 10
749.96709092
 20
511.1303230101
 30
0.0
 10
749.2404337459
 20
511.3413674659
 30
0.0
  0
ARC
  5
3B4
330
1B
100
AcDbEntity
 67
     1
  8
7_ALL_FEATURES
  6
Continuous
 62
     3
100
AcDbCircle
 10
747.6943466909
 20
505.9935225394
 30
0.0
 40
5.5668510434
100
AcDbArc
 50
73.8751702932
 51
89.9896862456
  0
LINE
  5
3B5
330
1B
100
AcDbEntity
 67
     1
  8
7_ALL_FEATURES
  6
Continuous
 62
     9
100
AcDbLine
 10
737.695348774
 20
440.3318092958
 30
0.0
 11
734.695348774
 21
440.3318092958
 31
0.0
  0
LINE
  5
3B6
330
1B
100
AcDbEntity
 67
     1
  8
7_ALL_FEATURES
  6
Continuous
 62
     9
100
AcDbLine
 10
734.695348774
 20
440.3318092958
 30
0.0
 11
732.945348774
 21
440.3318092958
 31
0.0
  0
LINE
  5
3B7
330
1B
100
AcDbEntity
 67
     1
  8
7_ALL_FEATURES
  6
Continuous
 62
     9
100
AcDbLine
 10
732.945348774
 20
440.3318092958
 30
0.0
 11
729.445348774
 21
440.3318092958
 31
0.0
  0
LINE
  5
3B8
330
1B
100
AcDbEntity
 67
     1
  8
7_ALL_FEATURES
  6
Continuous
 62
     9
100
AcDbLine
 10
729.445348774
 20
440.3318092958
 30
0.0
 11
727.695348774
 21
440.3318092958
 31
0.0
  0
LINE
  5
3B9
330
1B
100
AcDbEntity
 67
     1
  8
7_ALL_FEATURES
  6
Continuous
 62
     9
100
AcDbLine
 10
727.695348774
 20
440.3318092958
 30
0.0
 11
724.695348774
 21
440.3318092958
 31
0.0
  0
LINE
  5
3BA
330
1B
100
AcDbEntity
 67
     1
  8
7_ALL_FEATURES
  6
Continuous
 62
     9
100
AcDbLine
 10
752.695348774
 20
502.2691167779
 30
0.0
 11
79.695348774
 21
502.2691167779
 31
0.0
  0
LINE
  5
3BB
330
1B
100
AcDbEntity
 67
     1
  8
7_ALL_FEATURES
  6
Continuous
 62
     9
100
AcDbLine
 10
752.695348774
 20
502.1391794638
 30
0.0
 11
79.695348774
 21
502.1391794638
 31
0.0
  0
LINE
  5
3BC
330
1B
100
AcDbEntity
 67
     1
  8
7_ALL_FEATURES
  6
Continuous
 62
     9
100
AcDbLine
 10
752.695348774
 20
492.4788475198
 30
0.0
 11
79.695348774
 21
492.4788475198
 31
0.0
  0
LINE
  5
3BD
330
1B
100
AcDbEntity
 67
     1
  8
7_ALL_FEATURES
  6
Continuous
 62
     9
100
AcDbLine
 10
752.695348774
 20
492.3432887234
 30
0.0
 11
79.695348774
 21
492.3432887234
 31
0.0
  0
SPLINE
  5
3BE
330
1B
100
AcDbEntity
 67
     1
  8
7_ALL_FEATURES
  6
Continuous
 62
     3
100
AcDbSpline
 70
     0
 71
     3
 72
     8
 73
     4
 74
     0
 42
0.000000001
 43
0.0000001
 40
0.0
 40
0.0
 40
0.0
 40
0.0
 40
1.0
 40
1.0
 40
1.0
 40
1.0
 10
513.695348774
 20
442.2321992078
 30
0.0
 10
513.8675562375
 20
442.2321992078
 30
0.0
 10
514.0449367604
 20
442.1860590844
 30
0.0
 10
514.195348774
 20
442.1022042297
 30
0.0
  0
SPLINE
  5
3BF
330
1B
100
AcDbEntity
 67
     1
  8
7_ALL_FEATURES
  6
Continuous
 62
     3
100
AcDbSpline
 70
     0
 71
     3
 72
     8
 73
     4
 74
     0
 42
0.000000001
 43
0.0000001
 40
0.0
 40
0.0
 40
0.0
 40
0.0
 40
1.0
 40
1.0
 40
1.0
 40
1.0
 10
514.195348774
 20
442.1022042297
 30
0.0
 10
514.3438350432
 20
442.0194229794
 30
0.0
 10
514.4747534874
 20
441.8933310888
 30
0.0
 10
514.5613741778
 20
441.7470513447
 30
0.0
  0
SPLINE
  5
3C0
330
1B
100
AcDbEntity
 67
     1
  8
7_ALL_FEATURES
  6
Continuous
 62
     3
100
AcDbSpline
 70
     0
 71
     3
 72
     8
 73
     4
 74
     0
 42
0.000000001
 43
0.0000001
 40
0.0
 40
0.0
 40
0.0
 40
0.0
 40
1.0
 40
1.0
 40
1.0
 40
1.0
 10
514.5613741778
 20
441.7470513447
 30
0.0
 10
514.6468567071
 20
441.6026936577
 30
0.0
 10
514.695348774
 20
441.4296723839
 30
0.0
 10
514.695348774
 20
441.2619034815
 30
0.0
  0
LINE
  5
3C1
330
1B
100
AcDbEntity
 67
     1
  8
7_ALL_FEATURES
  6
Continuous
 62
     9
100
AcDbLine
 10
752.695348774
 20
482.3422494816
 30
0.0
 11
79.695348774
 21
482.3422494816
 31
0.0
  0
SPLINE
  5
3C2
330
1B
100
AcDbEntity
 67
     1
  8
7_ALL_FEATURES
  6
Continuous
 62
     3
100
AcDbSpline
 70
     0
 71
     3
 72
     8
 73
     4
 74
     0
 42
0.000000001
 43
0.0000001
 40
0.0
 40
0.0
 40
0.0
 40
0.0
 40
1.0
 40
1.0
 40
1.0
 40
1.0
 10
723.695348774
 20
442.2321992078
 30
0.0
 10
723.8675562375
 20
442.2321992078
 30
0.0
 10
724.0449367604
 20
442.1860590844
 30
0.0
 10
724.195348774
 20
442.1022042297
 30
0.0
  0
SPLINE
  5
3C3
330
1B
100
AcDbEntity
 67
     1
  8
7_ALL_FEATURES
  6
Continuous
 62
     3
100
AcDbSpline
 70
     0
 71
     3
 72
     8
 73
     4
 74
     0
 42
0.000000001
 43
0.0000001
 40
0.0
 40
0.0
 40
0.0
 40
0.0
 40
1.0
 40
1.0
 40
1.0
 40
1.0
 10
724.195348774
 20
442.1022042297
 30
0.0
 10
724.3438350432
 20
442.0194229794
 30
0.0
 10
724.4747534874
 20
441.8933310888
 30
0.0
 10
724.5613741778
 20
441.7470513447
 30
0.0
  0
SPLINE
  5
3C4
330
1B
100
AcDbEntity
 67
     1
  8
7_ALL_FEATURES
  6
Continuous
 62
     3
100
AcDbSpline
 70
     0
 71
     3
 72
     8
 73
     4
 74
     0
 42
0.000000001
 43
0.0000001
 40
0.0
 40
0.0
 40
0.0
 40
0.0
 40
1.0
 40
1.0
 40
1.0
 40
1.0
 10
724.5613741778
 20
441.7470513447
 30
0.0
 10
724.6468567071
 20
441.6026936577
 30
0.0
 10
724.695348774
 20
441.4296723839
 30
0.0
 10
724.695348774
 20
441.2619034815
 30
0.0
  0
LINE
  5
3C5
330
1B
100
AcDbEntity
 67
     1
  8
7_ALL_FEATURES
  6
Continuous
 62
     9
100
AcDbLine
 10
752.695348774
 20
482.2029484662
 30
0.0
 11
79.695348774
 21
482.2029484662
 31
0.0
  0
LINE
  5
3C6
330
1B
100
AcDbEntity
 67
     1
  8
7_ALL_FEATURES
  6
Continuous
 62
     9
100
AcDbLine
 10
752.695348774
 20
471.9998471944
 30
0.0
 11
79.695348774
 21
471.9998471944
 31
0.0
  0
LINE
  5
3C7
330
1B
100
AcDbEntity
 67
     1
  8
7_ALL_FEATURES
  6
Continuous
 62
     9
100
AcDbLine
 10
752.695348774
 20
471.858735102
 30
0.0
 11
79.695348774
 21
471.858735102
 31
0.0
  0
LINE
  5
3C8
330
1B
100
AcDbEntity
 67
     1
  8
7_ALL_FEATURES
  6
Continuous
 62
     9
100
AcDbLine
 10
752.695348774
 20
461.5950182717
 30
0.0
 11
79.695348774
 21
461.5950182717
 31
0.0
  0
LINE
  5
3C9
330
1B
100
AcDbEntity
 67
     1
  8
7_ALL_FEATURES
  6
Continuous
 62
     9
100
AcDbLine
 10
752.695348774
 20
461.4540513513
 30
0.0
 11
79.695348774
 21
461.4540513513
 31
0.0
  0
LINE
  5
3CA
330
1B
100
AcDbEntity
 67
     1
  8
7_ALL_FEATURES
  6
Continuous
 62
     9
100
AcDbLine
 10
752.695348774
 20
451.2720057524
 30
0.0
 11
79.695348774
 21
451.2720057524
 31
0.0
  0
LINE
  5
3CB
330
1B
100
AcDbEntity
 67
     1
  8
7_ALL_FEATURES
  6
Continuous
 62
     9
100
AcDbLine
 10
752.695348774
 20
451.1331382406
 30
0.0
 11
79.695348774
 21
451.1331382406
 31
0.0
  0
SPLINE
  5
3CC
330
1B
100
AcDbEntity
 67
     1
  8
7_ALL_FEATURES
  6
Continuous
 62
     3
100
AcDbSpline
 70
     0
 71
     3
 72
     9
 73
     5
 74
     0
 42
0.000000001
 43
0.0000001
 40
0.0
 40
0.0
 40
0.0
 40
0.0
 40
0.4966933765
 40
1.0
 40
1.0
 40
1.0
 40
1.0
 10
527.695348774
 20
441.2619034815
 30
0.0
 10
527.695348774
 20
441.4296723839
 30
0.0
 10
527.789862195
 20
441.7734573131
 30
0.0
 10
528.0468625048
 20
442.0194229794
 30
0.0
 10
528.195348774
 20
442.1022042297
 30
0.0
  0
SPLINE
  5
3CD
330
1B
100
AcDbEntity
 67
     1
  8
7_ALL_FEATURES
  6
Continuous
 62
     3
100
AcDbSpline
 70
     0
 71
     3
 72
     8
 73
     4
 74
     0
 42
0.000000001
 43
0.0000001
 40
0.0
 40
0.0
 40
0.0
 40
0.0
 40
1.0
 40
1.0
 40
1.0
 40
1.0
 10
528.195348774
 20
442.1022042297
 30
0.0
 10
528.3457607875
 20
442.1860590844
 30
0.0
 10
528.5231413105
 20
442.2321992078
 30
0.0
 10
528.695348774
 20
442.2321992078
 30
0.0
  0
LINE
  5
3CE
330
1B
100
AcDbEntity
 67
     1
  8
7_ALL_FEATURES
  6
Continuous
 62
     3
100
AcDbLine
 10
723.695348774
 20
442.2321992078
 30
0.0
 11
528.695348774
 21
442.2321992078
 31
0.0
  0
SPLINE
  5
3CF
330
1B
100
AcDbEntity
 67
     1
  8
7_ALL_FEATURES
  6
Continuous
 62
     3
100
AcDbSpline
 70
     0
 71
     3
 72
     9
 73
     5
 74
     0
 42
0.000000001
 43
0.0000001
 40
0.0
 40
0.0
 40
0.0
 40
0.0
 40
0.4966933765
 40
1.0
 40
1.0
 40
1.0
 40
1.0
 10
107.695348774
 20
441.2619034815
 30
0.0
 10
107.695348774
 20
441.4296723839
 30
0.0
 10
107.789862195
 20
441.7734573131
 30
0.0
 10
108.0468625048
 20
442.0194229794
 30
0.0
 10
108.195348774
 20
442.1022042297
 30
0.0
  0
SPLINE
  5
3D0
330
1B
100
AcDbEntity
 67
     1
  8
7_ALL_FEATURES
  6
Continuous
 62
     3
100
AcDbSpline
 70
     0
 71
     3
 72
     8
 73
     4
 74
     0
 42
0.000000001
 43
0.0000001
 40
0.0
 40
0.0
 40
0.0
 40
0.0
 40
1.0
 40
1.0
 40
1.0
 40
1.0
 10
108.195348774
 20
442.1022042297
 30
0.0
 10
108.3457607875
 20
442.1860590844
 30
0.0
 10
108.5231413105
 20
442.2321992078
 30
0.0
 10
108.695348774
 20
442.2321992078
 30
0.0
  0
LINE
  5
3D1
330
1B
100
AcDbEntity
 67
     1
  8
7_ALL_FEATURES
  6
Continuous
 62
     9
100
AcDbLine
 10
527.695348774
 20
440.3318092958
 30
0.0
 11
524.695348774
 21
440.3318092958
 31
0.0
  0
LINE
  5
3D2
330
1B
100
AcDbEntity
 67
     1
  8
7_ALL_FEATURES
  6
Continuous
 62
     9
100
AcDbLine
 10
524.695348774
 20
440.3318092958
 30
0.0
 11
522.945348774
 21
440.3318092958
 31
0.0
  0
LINE
  5
3D3
330
1B
100
AcDbEntity
 67
     1
  8
7_ALL_FEATURES
  6
Continuous
 62
     9
100
AcDbLine
 10
522.945348774
 20
440.3318092958
 30
0.0
 11
519.445348774
 21
440.3318092958
 31
0.0
  0
LINE
  5
3D4
330
1B
100
AcDbEntity
 67
     1
  8
7_ALL_FEATURES
  6
Continuous
 62
     9
100
AcDbLine
 10
519.445348774
 20
440.3318092958
 30
0.0
 11
517.695348774
 21
440.3318092958
 31
0.0
  0
LINE
  5
3D5
330
1B
100
AcDbEntity
 67
     1
  8
7_ALL_FEATURES
  6
Continuous
 62
     9
100
AcDbLine
 10
517.695348774
 20
440.3318092958
 30
0.0
 11
514.695348774
 21
440.3318092958
 31
0.0
  0
SPLINE
  5
3D6
330
1B
100
AcDbEntity
 67
     1
  8
7_ALL_FEATURES
  6
Continuous
 62
     3
100
AcDbSpline
 70
     0
 71
     3
 72
     9
 73
     5
 74
     0
 42
0.000000001
 43
0.0000001
 40
0.0
 40
0.0
 40
0.0
 40
0.0
 40
0.4966933765
 40
1.0
 40
1.0
 40
1.0
 40
1.0
 10
317.695348774
 20
441.2619034815
 30
0.0
 10
317.695348774
 20
441.4296723839
 30
0.0
 10
317.789862195
 20
441.7734573131
 30
0.0
 10
318.0468625048
 20
442.0194229794
 30
0.0
 10
318.195348774
 20
442.1022042297
 30
0.0
  0
SPLINE
  5
3D7
330
1B
100
AcDbEntity
 67
     1
  8
7_ALL_FEATURES
  6
Continuous
 62
     3
100
AcDbSpline
 70
     0
 71
     3
 72
     8
 73
     4
 74
     0
 42
0.000000001
 43
0.0000001
 40
0.0
 40
0.0
 40
0.0
 40
0.0
 40
1.0
 40
1.0
 40
1.0
 40
1.0
 10
318.195348774
 20
442.1022042297
 30
0.0
 10
318.3457607875
 20
442.1860590844
 30
0.0
 10
318.5231413105
 20
442.2321992078
 30
0.0
 10
318.695348774
 20
442.2321992078
 30
0.0
  0
LINE
  5
3D8
330
1B
100
AcDbEntity
 67
     1
  8
7_ALL_FEATURES
  6
Continuous
 62
     3
100
AcDbLine
 10
513.695348774
 20
442.2321992078
 30
0.0
 11
318.695348774
 21
442.2321992078
 31
0.0
  0
SPLINE
  5
3D9
330
1B
100
AcDbEntity
 67
     1
  8
7_ALL_FEATURES
  6
Continuous
 62
     3
100
AcDbSpline
 70
     0
 71
     3
 72
     9
 73
     5
 74
     0
 42
0.000000001
 43
0.0000001
 40
0.0
 40
0.0
 40
0.0
 40
0.0
 40
0.4966933765
 40
1.0
 40
1.0
 40
1.0
 40
1.0
 10
737.695348774
 20
441.2619034815
 30
0.0
 10
737.695348774
 20
441.4296723839
 30
0.0
 10
737.789862195
 20
441.7734573131
 30
0.0
 10
738.0468625048
 20
442.0194229794
 30
0.0
 10
738.195348774
 20
442.1022042297
 30
0.0
  0
SPLINE
  5
3DA
330
1B
100
AcDbEntity
 67
     1
  8
7_ALL_FEATURES
  6
Continuous
 62
     3
100
AcDbSpline
 70
     0
 71
     3
 72
     8
 73
     4
 74
     0
 42
0.000000001
 43
0.0000001
 40
0.0
 40
0.0
 40
0.0
 40
0.0
 40
1.0
 40
1.0
 40
1.0
 40
1.0
 10
738.195348774
 20
442.1022042297
 30
0.0
 10
738.3457607875
 20
442.1860590844
 30
0.0
 10
738.5231413105
 20
442.2321992078
 30
0.0
 10
738.695348774
 20
442.2321992078
 30
0.0
  0
LINE
  5
3DB
330
1B
100
AcDbEntity
 67
     1
  8
7_ALL_FEATURES
  6
Continuous
 62
     9
100
AcDbLine
 10
317.695348774
 20
440.3318092958
 30
0.0
 11
314.695348774
 21
440.3318092958
 31
0.0
  0
LINE
  5
3DC
330
1B
100
AcDbEntity
 67
     1
  8
7_ALL_FEATURES
  6
Continuous
 62
     9
100
AcDbLine
 10
314.695348774
 20
440.3318092958
 30
0.0
 11
312.945348774
 21
440.3318092958
 31
0.0
  0
LINE
  5
3DD
330
1B
100
AcDbEntity
 67
     1
  8
7_ALL_FEATURES
  6
Continuous
 62
     9
100
AcDbLine
 10
312.945348774
 20
440.3318092958
 30
0.0
 11
309.445348774
 21
440.3318092958
 31
0.0
  0
LINE
  5
3DE
330
1B
100
AcDbEntity
 67
     1
  8
7_ALL_FEATURES
  6
Continuous
 62
     9
100
AcDbLine
 10
309.445348774
 20
440.3318092958
 30
0.0
 11
307.695348774
 21
440.3318092958
 31
0.0
  0
LINE
  5
3DF
330
1B
100
AcDbEntity
 67
     1
  8
7_ALL_FEATURES
  6
Continuous
 62
     9
100
AcDbLine
 10
307.695348774
 20
440.3318092958
 30
0.0
 11
304.695348774
 21
440.3318092958
 31
0.0
  0
SPLINE
  5
3E0
330
1B
100
AcDbEntity
 67
     1
  8
7_ALL_FEATURES
  6
Continuous
 62
     3
100
AcDbSpline
 70
     0
 71
     3
 72
     8
 73
     4
 74
     0
 42
0.000000001
 43
0.0000001
 40
0.0
 40
0.0
 40
0.0
 40
0.0
 40
1.0
 40
1.0
 40
1.0
 40
1.0
 10
303.695348774
 20
442.2321992078
 30
0.0
 10
303.8675562375
 20
442.2321992078
 30
0.0
 10
304.0449367604
 20
442.1860590844
 30
0.0
 10
304.195348774
 20
442.1022042297
 30
0.0
  0
SPLINE
  5
3E1
330
1B
100
AcDbEntity
 67
     1
  8
7_ALL_FEATURES
  6
Continuous
 62
     3
100
AcDbSpline
 70
     0
 71
     3
 72
     8
 73
     4
 74
     0
 42
0.000000001
 43
0.0000001
 40
0.0
 40
0.0
 40
0.0
 40
0.0
 40
1.0
 40
1.0
 40
1.0
 40
1.0
 10
304.195348774
 20
442.1022042297
 30
0.0
 10
304.3438350432
 20
442.0194229794
 30
0.0
 10
304.4747534874
 20
441.8933310888
 30
0.0
 10
304.5613741778
 20
441.7470513447
 30
0.0
  0
SPLINE
  5
3E2
330
1B
100
AcDbEntity
 67
     1
  8
7_ALL_FEATURES
  6
Continuous
 62
     3
100
AcDbSpline
 70
     0
 71
     3
 72
     8
 73
     4
 74
     0
 42
0.000000001
 43
0.0000001
 40
0.0
 40
0.0
 40
0.0
 40
0.0
 40
1.0
 40
1.0
 40
1.0
 40
1.0
 10
304.5613741778
 20
441.7470513447
 30
0.0
 10
304.6468567071
 20
441.6026936577
 30
0.0
 10
304.695348774
 20
441.4296723839
 30
0.0
 10
304.695348774
 20
441.2619034815
 30
0.0
  0
LINE
  5
3E3
330
1B
100
AcDbEntity
 67
     1
  8
7_ALL_FEATURES
  6
Continuous
 62
     3
100
AcDbLine
 10
303.695348774
 20
442.2321992078
 30
0.0
 11
108.695348774
 21
442.2321992078
 31
0.0
  0
ARC
  5
3E4
330
1B
100
AcDbEntity
 67
     1
  8
7_ALL_FEATURES
  6
Continuous
 62
     3
100
AcDbCircle
 10
84.3506447128
 20
447.0838507912
 30
0.0
 40
4.6552959421
100
AcDbArc
 50
180.002128634
 51
182.3356526284
  0
ARC
  5
3E5
330
1B
100
AcDbEntity
 67
     1
  8
7_ALL_FEATURES
  6
Continuous
 62
     3
100
AcDbCircle
 10
84.4555928543
 20
447.0918849049
 30
0.0
 40
4.7604857916
100
AcDbArc
 50
182.3807916955
 51
198.4603067158
  0
SPLINE
  5
3E6
330
1B
100
AcDbEntity
 67
     1
  8
7_ALL_FEATURES
  6
Continuous
 62
     3
100
AcDbSpline
 70
     0
 71
     3
 72
     9
 73
     5
 74
     0
 42
0.000000001
 43
0.0000001
 40
0.0
 40
0.0
 40
0.0
 40
0.0
 40
0.4965797257
 40
1.0
 40
1.0
 40
1.0
 40
1.0
 10
79.9400661925
 20
445.5844884942
 30
0.0
 10
80.1815768793
 20
444.862405241
 30
0.0
 10
81.0374221802
 20
443.5099079969
 30
0.0
 10
82.4140130568
 20
442.701484642
 30
0.0
 10
83.1502638021
 20
442.4696474732
 30
0.0
  0
ARC
  5
3E7
330
1B
100
AcDbEntity
 67
     1
  8
7_ALL_FEATURES
  6
Continuous
 62
     3
100
AcDbCircle
 10
84.6996894314
 20
447.4061317581
 30
0.0
 40
5.173934371
100
AcDbArc
 50
252.5743721603
 51
269.9519318644
  0
LINE
  5
3E8
330
1B
100
AcDbEntity
 67
     1
  8
7_ALL_FEATURES
  6
Continuous
 62
     7
100
AcDbLine
 10
793.4038629488
 20
511.5603734926
 30
0.0
 11
792.6879154595
 21
511.9173317431
 31
0.0
  0
LINE
  5
3E9
330
1B
100
AcDbEntity
 67
     1
  8
7_ALL_FEATURES
  6
Continuous
 62
     7
100
AcDbLine
 10
784.8560514345
 20
441.0683659651
 30
0.0
 11
784.6465409271
 21
441.9086667132
 31
0.0
  0
LINE
  5
3EA
330
1B
100
AcDbEntity
 67
     1
  8
7_ALL_FEATURES
  6
Continuous
 62
     7
100
AcDbLine
 10
784.6141295389
 20
442.0386616913
 30
0.0
 11
785.3903661199
 21
442.2321992078
 31
0.0
  0
LINE
  5
3EB
330
1B
100
AcDbEntity
 67
     1
  8
7_ALL_FEATURES
  6
Continuous
 62
     7
100
AcDbLine
 10
783.4045200609
 20
446.8901403227
 30
0.0
 11
782.3948761864
 21
450.9396007241
 31
0.0
  0
LINE
  5
3EC
330
1B
100
AcDbEntity
 67
     1
  8
7_ALL_FEATURES
  6
Continuous
 62
     7
100
AcDbLine
 10
797.8903661199
 20
438.9253468123
 30
0.0
 11
797.8903661199
 21
439.7253468123
 31
0.0
  0
ARC
  5
3ED
330
1B
100
AcDbEntity
 67
     1
  8
7_ALL_FEATURES
  6
Continuous
 62
     7
100
AcDbCircle
 10
789.845334469
 20
501.7336794022
 30
0.0
 40
2.0
100
AcDbArc
 50
153.5
 51
160.25
  0
LINE
  5
3EE
330
1B
100
AcDbEntity
 67
     1
  8
7_ALL_FEATURES
  6
Continuous
 62
     7
100
AcDbLine
 10
785.0879499603
 20
440.1382717793
 30
0.0
 11
784.8560514345
 21
441.0683659651
 31
0.0
  0
LINE
  5
3EF
330
1B
100
AcDbEntity
 67
     1
  8
7_ALL_FEATURES
  6
Continuous
 62
     7
100
AcDbLine
 10
784.6141295389
 20
442.0386616913
 30
0.0
 11
783.4045200609
 21
446.8901403227
 31
0.0
  0
LINE
  5
3F0
330
1B
100
AcDbEntity
 67
     1
  8
7_ALL_FEATURES
  6
Continuous
 62
     7
100
AcDbLine
 10
784.4945688661
 20
492.7491808942
 30
0.0
 11
787.9629824385
 21
502.4095128382
 31
0.0
  0
ARC
  5
3F1
330
1B
100
AcDbEntity
 67
     1
  8
7_ALL_FEATURES
  6
Continuous
 62
     7
100
AcDbCircle
 10
786.6404231223
 20
440.5253468123
 30
0.0
 40
1.6
100
AcDbArc
 50
194.0
 51
200.5930650129
  0
ARC
  5
3F2
330
1B
100
AcDbEntity
 67
     1
  8
7_ALL_FEATURES
  6
Continuous
 62
     7
100
AcDbCircle
 10
786.6404231223
 20
440.5253468123
 30
0.0
 40
1.6
100
AcDbArc
 50
200.5930650129
 51
263.4069349871
  0
ARC
  5
3F3
330
1B
100
AcDbEntity
 67
     1
  8
7_ALL_FEATURES
  6
Continuous
 62
     7
100
AcDbCircle
 10
786.6404231223
 20
440.5253468123
 30
0.0
 40
1.6
100
AcDbArc
 50
263.4069349871
 51
270.0
  0
ARC
  5
3F4
330
1B
100
AcDbEntity
 67
     1
  8
7_ALL_FEATURES
  6
Continuous
 62
     7
100
AcDbCircle
 10
786.3769208966
 20
492.0733474582
 30
0.0
 40
2.0
100
AcDbArc
 50
160.25
 51
167.0
  0
LINE
  5
3F5
330
1B
100
AcDbEntity
 67
     1
  8
7_ALL_FEATURES
  6
Continuous
 62
     7
100
AcDbLine
 10
782.1192589279
 20
482.5222103251
 30
0.0
 11
784.4281807671
 21
492.5232495669
 31
0.0
  0
LINE
  5
3F6
330
1B
100
AcDbEntity
 67
     1
  8
7_ALL_FEATURES
  6
Continuous
 62
     7
100
AcDbLine
 10
794.8903661199
 20
438.9253468123
 30
0.0
 11
786.6404231223
 21
438.9253468123
 31
0.0
  0
ARC
  5
3F7
330
1B
100
AcDbEntity
 67
     1
  8
7_ALL_FEATURES
  6
Continuous
 62
     7
100
AcDbCircle
 10
784.0679990575
 20
482.0723082164
 30
0.0
 40
2.0
100
AcDbArc
 50
167.0
 51
173.75
  0
LINE
  5
3F8
330
1B
100
AcDbEntity
 67
     1
  8
7_ALL_FEATURES
  6
Continuous
 62
     7
100
AcDbLine
 10
797.8903661199
 20
438.9253468123
 30
0.0
 11
794.8903661199
 21
438.9253468123
 31
0.0
  0
LINE
  5
3F9
330
1B
100
AcDbEntity
 67
     1
  8
7_ALL_FEATURES
  6
Continuous
 62
     7
100
AcDbLine
 10
780.9624650574
 20
472.0869406943
 30
0.0
 11
782.079886381
 21
482.2900419661
 31
0.0
  0
ARC
  5
3FA
330
1B
100
AcDbEntity
 67
     1
  8
7_ALL_FEATURES
  6
Continuous
 62
     7
100
AcDbCircle
 10
782.9505777338
 20
471.8692069446
 30
0.0
 40
2.0
100
AcDbArc
 50
173.75
 51
180.5
  0
LINE
  5
3FB
330
1B
100
AcDbEntity
 67
     1
  8
7_ALL_FEATURES
  6
Continuous
 62
     7
100
AcDbLine
 10
781.0402239875
 20
461.5880370433
 30
0.0
 11
780.9506538877
 21
471.8517538736
 31
0.0
  0
LINE
  5
3FC
330
1B
100
AcDbEntity
 67
     1
  8
7_ALL_FEATURES
  6
Continuous
 62
     7
100
AcDbLine
 10
790.4569263939
 20
507.4426599351
 30
0.0
 11
792.2618344622
 21
511.062745472
 31
0.0
  0
LINE
  5
3FD
330
1B
100
AcDbEntity
 67
     1
  8
7_ALL_FEATURES
  6
Continuous
 62
     7
100
AcDbLine
 10
792.2618344622
 20
511.062745472
 30
0.0
 11
792.6879154595
 21
511.9173317431
 31
0.0
  0
LINE
  5
3FE
330
1B
100
AcDbEntity
 67
     1
  8
7_ALL_FEATURES
  6
Continuous
 62
     7
100
AcDbLine
 10
793.4038629488
 20
511.5603734926
 30
0.0
 11
792.6879154595
 21
511.9173317431
 31
0.0
  0
LINE
  5
3FF
330
1B
100
AcDbEntity
 67
     1
  8
7_ALL_FEATURES
  6
Continuous
 62
     7
100
AcDbLine
 10
788.0554657458
 20
502.6260750284
 30
0.0
 11
790.4569263939
 21
507.4426599351
 31
0.0
  0
ARC
  5
400
330
1B
100
AcDbEntity
 67
     1
  8
7_ALL_FEATURES
  6
Continuous
 62
     7
100
AcDbCircle
 10
783.0401478336
 20
461.6054901143
 30
0.0
 40
2.0
100
AcDbArc
 50
180.5
 51
187.25
  0
LINE
  5
401
330
1B
100
AcDbEntity
 67
     1
  8
7_ALL_FEATURES
  6
Continuous
 62
     7
100
AcDbLine
 10
782.3514577396
 20
451.1710465771
 30
0.0
 11
781.0561379343
 21
461.353092176
 31
0.0
  0
ARC
  5
402
330
1B
100
AcDbEntity
 67
     1
  8
7_ALL_FEATURES
  6
Continuous
 62
     7
100
AcDbCircle
 10
784.3354676389
 20
451.4234445153
 30
0.0
 40
2.0
100
AcDbArc
 50
187.25
 51
194.0
  0
LINE
  5
403
330
1B
100
AcDbEntity
 67
     1
  8
7_ALL_FEATURES
  6
Continuous
 62
     9
100
AcDbLine
 10
782.1192589279
 20
482.5222103251
 30
0.0
 11
782.8987549797
 21
482.3422494816
 31
0.0
  0
LINE
  5
404
330
1B
100
AcDbEntity
 67
     1
  8
7_ALL_FEATURES
  6
Continuous
 62
     9
100
AcDbLine
 10
785.8641865413
 20
440.3318092958
 30
0.0
 11
785.0879499603
 21
440.1382717793
 31
0.0
  0
LINE
  5
405
330
1B
100
AcDbEntity
 67
     1
  8
7_ALL_FEATURES
  6
Continuous
 62
     9
100
AcDbLine
 10
785.6322880155
 20
441.2619034815
 30
0.0
 11
784.8560514345
 21
441.0683659651
 31
0.0
  0
LINE
  5
406
330
1B
100
AcDbEntity
 67
     1
  8
7_ALL_FEATURES
  6
Continuous
 62
     9
100
AcDbLine
 10
787.9629824385
 20
502.4095128382
 30
0.0
 11
788.7159232507
 21
502.1391794638
 31
0.0
  0
LINE
  5
407
330
1B
100
AcDbEntity
 67
     1
  8
7_ALL_FEATURES
  6
Continuous
 62
     9
100
AcDbLine
 10
782.079886381
 20
482.2900419661
 30
0.0
 11
782.8751314516
 21
482.2029484662
 31
0.0
  0
LINE
  5
408
330
1B
100
AcDbEntity
 67
     1
  8
7_ALL_FEATURES
  6
Continuous
 62
     9
100
AcDbLine
 10
780.9624650574
 20
472.0869406943
 30
0.0
 11
781.7577101279
 21
471.9998471944
 31
0.0
  0
LINE
  5
409
330
1B
100
AcDbEntity
 67
     1
  8
7_ALL_FEATURES
  6
Continuous
 62
     9
100
AcDbLine
 10
794.8903661199
 20
438.9253468123
 30
0.0
 11
794.8903661199
 21
439.7253468123
 31
0.0
  0
LINE
  5
40A
330
1B
100
AcDbEntity
 67
     1
  8
7_ALL_FEATURES
  6
Continuous
 62
     9
100
AcDbLine
 10
784.4945688661
 20
492.7491808942
 30
0.0
 11
785.2475096783
 21
492.4788475198
 31
0.0
  0
LINE
  5
40B
330
1B
100
AcDbEntity
 67
     1
  8
7_ALL_FEATURES
  6
Continuous
 62
     9
100
AcDbLine
 10
780.9506538877
 20
471.8517538736
 30
0.0
 11
781.7506234261
 21
471.858735102
 31
0.0
  0
LINE
  5
40C
330
1B
100
AcDbEntity
 67
     1
  8
7_ALL_FEATURES
  6
Continuous
 62
     9
100
AcDbLine
 10
786.6404231223
 20
439.7253468123
 30
0.0
 11
786.6404231223
 21
438.9253468123
 31
0.0
  0
LINE
  5
40D
330
1B
100
AcDbEntity
 67
     1
  8
7_ALL_FEATURES
  6
Continuous
 62
     9
100
AcDbLine
 10
782.3948761864
 20
450.9396007241
 30
0.0
 11
783.1711127674
 21
451.1331382406
 31
0.0
  0
LINE
  5
40E
330
1B
100
AcDbEntity
 67
     1
  8
7_ALL_FEATURES
  6
Continuous
 62
     9
100
AcDbLine
 10
783.4045200609
 20
446.8901403227
 30
0.0
 11
784.1807566419
 21
447.0836778392
 31
0.0
  0
LINE
  5
40F
330
1B
100
AcDbEntity
 67
     1
  8
7_ALL_FEATURES
  6
Continuous
 62
     9
100
AcDbLine
 10
781.0402239875
 20
461.5880370433
 30
0.0
 11
781.840193526
 21
461.5950182717
 31
0.0
  0
LINE
  5
410
330
1B
100
AcDbEntity
 67
     1
  8
7_ALL_FEATURES
  6
Continuous
 62
     9
100
AcDbLine
 10
784.4281807671
 20
492.5232495669
 30
0.0
 11
785.2076768189
 21
492.3432887234
 31
0.0
  0
LINE
  5
411
330
1B
100
AcDbEntity
 67
     1
  8
7_ALL_FEATURES
  6
Continuous
 62
     9
100
AcDbLine
 10
791.1728738832
 20
507.0857016846
 30
0.0
 11
790.4569263939
 21
507.4426599351
 31
0.0
  0
LINE
  5
412
330
1B
100
AcDbEntity
 67
     1
  8
7_ALL_FEATURES
  6
Continuous
 62
     9
100
AcDbLine
 10
781.0561379343
 20
461.353092176
 30
0.0
 11
781.849741894
 21
461.4540513513
 31
0.0
  0
LINE
  5
413
330
1B
100
AcDbEntity
 67
     1
  8
7_ALL_FEATURES
  6
Continuous
 62
     9
100
AcDbLine
 10
788.0554657458
 20
502.6260750284
 30
0.0
 11
788.7714132351
 21
502.2691167779
 31
0.0
  0
LINE
  5
414
330
1B
100
AcDbEntity
 67
     1
  8
7_ALL_FEATURES
  6
Continuous
 62
     9
100
AcDbLine
 10
782.3514577396
 20
451.1710465771
 30
0.0
 11
783.1450616993
 21
451.2720057524
 31
0.0
  0
LINE
  5
415
330
1B
100
AcDbEntity
 67
     1
  8
7_ALL_FEATURES
  6
Continuous
 62
     3
100
AcDbLine
 10
785.3903661199
 20
442.2321992078
 30
0.0
 11
785.6322880155
 21
441.2619034815
 31
0.0
  0
LINE
  5
416
330
1B
100
AcDbEntity
 67
     1
  8
7_ALL_FEATURES
  6
Continuous
 62
     3
100
AcDbLine
 10
793.4038629488
 20
511.5603734926
 30
0.0
 11
793.2946705718
 21
511.3413674659
 31
0.0
  0
LINE
  5
417
330
1B
100
AcDbEntity
 67
     1
  8
7_ALL_FEATURES
  6
Continuous
 62
     3
100
AcDbLine
 10
793.2946705718
 20
511.3413674659
 30
0.0
 11
792.9777819515
 21
510.7057872215
 31
0.0
  0
LINE
  5
418
330
1B
100
AcDbEntity
 67
     1
  8
7_ALL_FEATURES
  6
Continuous
 62
     3
100
AcDbLine
 10
792.9777819515
 20
510.7057872215
 30
0.0
 11
791.8622874187
 21
508.4684513175
 31
0.0
  0
LINE
  5
419
330
1B
100
AcDbEntity
 67
     1
  8
7_ALL_FEATURES
  6
Continuous
 62
     3
100
AcDbLine
 10
791.8622874187
 20
508.4684513175
 30
0.0
 11
791.1728738832
 21
507.0857016846
 31
0.0
  0
LINE
  5
41A
330
1B
100
AcDbEntity
 67
     1
  8
7_ALL_FEATURES
  6
Continuous
 62
     3
100
AcDbLine
 10
794.8903661199
 20
439.7253468123
 30
0.0
 11
797.8903661199
 21
439.7253468123
 31
0.0
  0
LINE
  5
41B
330
1B
100
AcDbEntity
 67
     1
  8
7_ALL_FEATURES
  6
Continuous
 62
     3
100
AcDbLine
 10
794.8903661199
 20
439.7253468123
 30
0.0
 11
786.6404231223
 21
439.7253468123
 31
0.0
  0
LINE
  5
41C
330
1B
100
AcDbEntity
 67
     1
  8
7_ALL_FEATURES
  6
Continuous
 62
     3
100
AcDbLine
 10
785.8641865413
 20
440.3318092958
 30
0.0
 11
785.6322880155
 21
441.2619034815
 31
0.0
  0
LINE
  5
41D
330
1B
100
AcDbEntity
 67
     1
  8
7_ALL_FEATURES
  6
Continuous
 62
     3
100
AcDbLine
 10
784.1807566419
 20
447.0836778392
 30
0.0
 11
785.1593512661
 21
443.1587491786
 31
0.0
  0
LINE
  5
41E
330
1B
100
AcDbEntity
 67
     1
  8
7_ALL_FEATURES
  6
Continuous
 62
     3
100
AcDbLine
 10
785.1593512661
 20
443.1587491786
 30
0.0
 11
785.3903661199
 21
442.2321992078
 31
0.0
  0
LINE
  5
41F
330
1B
100
AcDbEntity
 67
     1
  8
7_ALL_FEATURES
  6
Continuous
 62
     3
100
AcDbLine
 10
784.1807566419
 20
447.0836778392
 30
0.0
 11
783.1711127674
 21
451.1331382406
 31
0.0
  0
ARC
  5
420
330
1B
100
AcDbEntity
 67
     1
  8
7_ALL_FEATURES
  6
Continuous
 62
     3
100
AcDbCircle
 10
786.6404231223
 20
440.5253468123
 30
0.0
 40
0.8
100
AcDbArc
 50
194.0
 51
270.0
  0
ARC
  5
421
330
1B
100
AcDbEntity
 67
     1
  8
7_ALL_FEATURES
  6
Continuous
 62
     3
100
AcDbCircle
 10
789.845334469
 20
501.7336794022
 30
0.0
 40
1.2
100
AcDbArc
 50
153.5
 51
160.25
  0
LINE
  5
422
330
1B
100
AcDbEntity
 67
     1
  8
7_ALL_FEATURES
  6
Continuous
 62
     3
100
AcDbLine
 10
785.2475096783
 20
492.4788475198
 30
0.0
 11
788.7159232507
 21
502.1391794638
 31
0.0
  0
ARC
  5
423
330
1B
100
AcDbEntity
 67
     1
  8
7_ALL_FEATURES
  6
Continuous
 62
     3
100
AcDbCircle
 10
786.3769208966
 20
492.0733474582
 30
0.0
 40
1.2
100
AcDbArc
 50
160.25
 51
167.0
  0
LINE
  5
424
330
1B
100
AcDbEntity
 67
     1
  8
7_ALL_FEATURES
  6
Continuous
 62
     3
100
AcDbLine
 10
782.8987549797
 20
482.3422494816
 30
0.0
 11
785.2076768189
 21
492.3432887234
 31
0.0
  0
ARC
  5
425
330
1B
100
AcDbEntity
 67
     1
  8
7_ALL_FEATURES
  6
Continuous
 62
     3
100
AcDbCircle
 10
784.0679990575
 20
482.0723082164
 30
0.0
 40
1.2
100
AcDbArc
 50
167.0
 51
173.75
  0
LINE
  5
426
330
1B
100
AcDbEntity
 67
     1
  8
7_ALL_FEATURES
  6
Continuous
 62
     3
100
AcDbLine
 10
781.7577101279
 20
471.9998471944
 30
0.0
 11
782.8751314516
 21
482.2029484662
 31
0.0
  0
ARC
  5
427
330
1B
100
AcDbEntity
 67
     1
  8
7_ALL_FEATURES
  6
Continuous
 62
     3
100
AcDbCircle
 10
782.9505777338
 20
471.8692069446
 30
0.0
 40
1.2
100
AcDbArc
 50
173.75
 51
180.5
  0
LINE
  5
428
330
1B
100
AcDbEntity
 67
     1
  8
7_ALL_FEATURES
  6
Continuous
 62
     3
100
AcDbLine
 10
781.840193526
 20
461.5950182717
 30
0.0
 11
781.7506234261
 21
471.858735102
 31
0.0
  0
ARC
  5
429
330
1B
100
AcDbEntity
 67
     1
  8
7_ALL_FEATURES
  6
Continuous
 62
     3
100
AcDbCircle
 10
783.0401478336
 20
461.6054901143
 30
0.0
 40
1.2
100
AcDbArc
 50
180.5
 51
187.25
  0
LINE
  5
42A
330
1B
100
AcDbEntity
 67
     1
  8
7_ALL_FEATURES
  6
Continuous
 62
     3
100
AcDbLine
 10
788.7714132351
 20
502.2691167779
 30
0.0
 11
791.1728738832
 21
507.0857016846
 31
0.0
  0
ARC
  5
42B
330
1B
100
AcDbEntity
 67
     1
  8
7_ALL_FEATURES
  6
Continuous
 62
     3
100
AcDbCircle
 10
784.3354676389
 20
451.4234445153
 30
0.0
 40
1.2
100
AcDbArc
 50
187.25
 51
194.0
  0
LINE
  5
42C
330
1B
100
AcDbEntity
 67
     1
  8
7_ALL_FEATURES
  6
Continuous
 62
     3
100
AcDbLine
 10
783.1450616993
 20
451.2720057524
 30
0.0
 11
781.849741894
 21
461.4540513513
 31
0.0
  0
DIMENSION
  5
42D
330
1B
100
AcDbEntity
 67
     1
  8
0
  6
Continuous
 62
     2
100
AcDbDimension
280
     0
  2
*D1
 10
767.695348774
 20
269.9878237163
 30
0.0
 11
767.695348774
 21
278.0231860719
 31
0.0
 70
   160
 71
     5
 42
-1.0
 73
     0
 74
     0
 75
     0
  3
DIMSTYLE_1
100
AcDbAlignedDimension
 13
752.695348774
 23
286.9157247788
 33
0.0
 14
734.695348774
 24
269.9878237163
 34
0.0
 50
270.0
100
AcDbRotatedDimension
  0
DIMENSION
  5
42E
330
1B
100
AcDbEntity
 67
     1
  8
0
  6
Continuous
 62
     2
100
AcDbDimension
280
     0
  2
*D2
 10
767.695348774
 20
438.9253468123
 30
0.0
 11
767.695348774
 21
474.9927705025
 31
0.0
 70
   160
 71
     5
 42
-1.0
 73
     0
 74
     0
 75
     0
  3
DIMSTYLE_2
100
AcDbAlignedDimension
 13
747.695348774
 23
511.9173317431
 33
0.0
 14
737.695348774
 24
438.9253468123
 34
0.0
 50
270.0
100
AcDbRotatedDimension
  0
DIMENSION
  5
42F
330
1B
100
AcDbEntity
 67
     1
  8
0
  6
Continuous
 62
     2
100
AcDbDimension
280
     0
  2
*D3
 10
752.695348774
 20
526.9173317431
 30
0.0
 11
415.7667699738
 21
526.9173317431
 31
0.0
 70
   160
  1
673
 71
     5
 42
-1.0
 73
     0
 74
     0
 75
     0
  3
DIMSTYLE_3
100
AcDbAlignedDimension
 13
79.695348774
 23
513.7296153498
 33
0.0
 14
752.695348774
 24
513.336888077
 34
0.0
100
AcDbRotatedDimension
  0
LINE
  5
430
330
1B
100
AcDbEntity
 67
     1
  8
0
  6
Continuous
 62
     2
100
AcDbLine
 10
700.9628122814
 20
76.0851137517
 30
0.0
 11
830.9628122814
 21
76.0851137517
 31
0.0
  0
LINE
  5
431
330
1B
100
AcDbEntity
 67
     1
  8
0
  6
Continuous
 62
     2
100
AcDbLine
 10
700.9628122814
 20
76.0851137517
 30
0.0
 11
700.9628122814
 21
10.0851137517
 31
0.0
  0
LINE
  5
432
330
1B
100
AcDbEntity
 67
     1
  8
0
  6
Continuous
 62
     2
100
AcDbLine
 10
730.9628122814
 20
68.0851137517
 30
0.0
 11
830.9628122814
 21
68.0851137517
 31
0.0
  0
LINE
  5
433
330
1B
100
AcDbEntity
 67
     1
  8
0
  6
Continuous
 62
     2
100
AcDbLine
 10
700.9628122814
 20
60.0851137517
 30
0.0
 11
830.9628122814
 21
60.0851137517
 31
0.0
  0
LINE
  5
434
330
1B
100
AcDbEntity
 67
     1
  8
0
  6
Continuous
 62
     2
100
AcDbLine
 10
730.9628122814
 20
54.0851137517
 30
0.0
 11
830.9628122814
 21
54.0851137517
 31
0.0
  0
LINE
  5
435
330
1B
100
AcDbEntity
 67
     1
  8
0
  6
Continuous
 62
     2
100
AcDbLine
 10
730.9628122814
 20
48.0851137517
 30
0.0
 11
830.9628122814
 21
48.0851137517
 31
0.0
  0
LINE
  5
436
330
1B
100
AcDbEntity
 67
     1
  8
0
  6
Continuous
 62
     2
100
AcDbLine
 10
730.9628122814
 20
42.0851137517
 30
0.0
 11
830.9628122814
 21
42.0851137517
 31
0.0
  0
LINE
  5
437
330
1B
100
AcDbEntity
 67
     1
  8
0
  6
Continuous
 62
     2
100
AcDbLine
 10
730.9628122814
 20
36.0851137517
 30
0.0
 11
830.9628122814
 21
36.0851137517
 31
0.0
  0
LINE
  5
438
330
1B
100
AcDbEntity
 67
     1
  8
0
  6
Continuous
 62
     2
100
AcDbLine
 10
730.9628122814
 20
30.0851137517
 30
0.0
 11
830.9628122814
 21
30.0851137517
 31
0.0
  0
LINE
  5
439
330
1B
100
AcDbEntity
 67
     1
  8
0
  6
Continuous
 62
     2
100
AcDbLine
 10
700.9628122814
 20
24.0851137517
 30
0.0
 11
830.9628122814
 21
24.0851137517
 31
0.0
  0
LINE
  5
43A
330
1B
100
AcDbEntity
 67
     1
  8
0
  6
Continuous
 62
     2
100
AcDbLine
 10
700.9628122814
 20
18.0851137517
 30
0.0
 11
830.9628122814
 21
18.0851137517
 31
0.0
  0
LINE
  5
43B
330
1B
100
AcDbEntity
 67
     1
  8
0
  6
Continuous
 62
     2
100
AcDbLine
 10
700.9628122814
 20
14.0851137517
 30
0.0
 11
830.9628122814
 21
14.0851137517
 31
0.0
  0
LINE
  5
43C
330
1B
100
AcDbEntity
 67
     1
  8
0
  6
Continuous
 62
     2
100
AcDbLine
 10
700.9628122814
 20
10.0851137517
 30
0.0
 11
830.9628122814
 21
10.0851137517
 31
0.0
  0
LINE
  5
43D
330
1B
100
AcDbEntity
 67
     1
  8
0
  6
Continuous
 62
     2
100
AcDbLine
 10
730.9628122814
 20
76.0851137517
 30
0.0
 11
730.9628122814
 21
18.0851137517
 31
0.0
  0
LINE
  5
43E
330
1B
100
AcDbEntity
 67
     1
  8
0
  6
Continuous
 62
     2
100
AcDbLine
 10
750.9628122814
 20
60.0851137517
 30
0.0
 11
750.9628122814
 21
54.0851137517
 31
0.0
  0
LINE
  5
43F
330
1B
100
AcDbEntity
 67
     1
  8
0
  6
Continuous
 62
     2
100
AcDbLine
 10
780.9628122814
 20
30.0851137517
 30
0.0
 11
780.9628122814
 21
18.0851137517
 31
0.0
  0
LINE
  5
440
330
1B
100
AcDbEntity
 67
     1
  8
0
  6
Continuous
 62
     2
100
AcDbLine
 10
790.9628122814
 20
60.0851137517
 30
0.0
 11
790.9628122814
 21
54.0851137517
 31
0.0
  0
LINE
  5
441
330
1B
100
AcDbEntity
 67
     1
  8
0
  6
Continuous
 62
     2
100
AcDbLine
 10
790.9628122814
 20
48.0851137517
 30
0.0
 11
790.9628122814
 21
42.0851137517
 31
0.0
  0
LINE
  5
442
330
1B
100
AcDbEntity
 67
     1
  8
0
  6
Continuous
 62
     2
100
AcDbLine
 10
810.9628122814
 20
60.0851137517
 30
0.0
 11
810.9628122814
 21
54.0851137517
 31
0.0
  0
LINE
  5
443
330
1B
100
AcDbEntity
 67
     1
  8
0
  6
Continuous
 62
     2
100
AcDbLine
 10
820.9628122814
 20
48.0851137517
 30
0.0
 11
820.9628122814
 21
42.0851137517
 31
0.0
  0
LINE
  5
444
330
1B
100
AcDbEntity
 67
     1
  8
0
  6
Continuous
 62
     2
100
AcDbLine
 10
830.9628122814
 20
76.0851137517
 30
0.0
 11
830.9628122814
 21
10.0851137517
 31
0.0
  0
INSERT
  5
445
330
1B
100
AcDbEntity
 67
     1
  8
0
  6
Continuous
 62
     2
100
AcDbBlockReference
  2
PROIEZIONE_EU_BL0
 10
715.9628122814
 20
67.7101137517
 30
0.0
  0
MTEXT
  5
446
330
1B
100
AcDbEntity
 67
     1
  8
9_SOLID
  6
Continuous
 62
     2
100
AcDbMText
 10
732.4503122814
 20
74.4601137517
 30
0.0
 40
1.9
 41
142.3642857143
 46
0.0
 71
     1
 72
     1
  1
EN: Chamfer/radii unlisted 0.3x45°. Remove sharp edges.\PGen. tol.: hole H11, shaft h11, lenght Js12. UNI EN 22768 Medium Grande.
 73
     1
 44
1.0
  0
MTEXT
  5
447
330
1B
100
AcDbEntity
 67
     1
  8
9_SOLID
  6
Continuous
 62
     2
100
AcDbMText
 10
732.4503122814
 20
66.4601137517
 30
0.0
 40
1.9
 41
148.2678571429
 46
0.0
 71
     1
 72
     1
  1
IT: Sm./rac. non quotati 0.3x45°. Eliminare spigoli taglienti.\PToll. gen.: foro H11, albero h11, lunghezza Js12. UNI EN 22768 Grado Medio.
 73
     1
 44
1.0
  0
INSERT
  5
448
330
1B
100
AcDbEntity
 67
     1
  8
0
  6
Continuous
 62
     2
100
AcDbBlockReference
  2
LOGO2_BL1
 10
714.7888593262
 20
42.0851137517
 30
0.0
  0
MTEXT
  5
449
330
1B
100
AcDbEntity
 67
     1
  8
9_SOLID
  6
Continuous
 62
     2
100
AcDbMText
 10
732.4503122814
 20
58.3351137517
 30
0.0
 40
3.0
 41
21.75
 46
0.0
 71
     1
 72
     1
  1
Pj: 565
 73
     1
 44
1.0
  0
MTEXT
  5
44A
330
1B
100
AcDbEntity
 67
     1
  8
0
  6
Continuous
 62
     2
100
AcDbMText
 10
752.4503122814
 20
58.3351137517
 30
0.0
 40
3.0
 41
41.5714285714
 46
0.0
 71
     1
 72
     1
  1
% Check:  %
 73
     1
 44
1.0
  0
MTEXT
  5
44B
330
1B
100
AcDbEntity
 67
     1
  8
9_SOLID
  6
Continuous
 62
     2
100
AcDbMText
 10
792.4503122814
 20
58.3351137517
 30
0.0
 40
3.0
 41
19.5
 46
0.0
 71
     1
 72
     1
  1
Rev:00
 73
     1
 44
1.0
  0
MTEXT
  5
44C
330
1B
100
AcDbEntity
 67
     1
  8
9_SOLID
  6
Continuous
 62
     2
100
AcDbMText
 10
812.4503122814
 20
58.5851137517
 30
0.0
 40
3.0
 41
19.7142857143
 46
0.0
 71
     1
 72
     1
  1
Ver: A
 73
     1
 44
1.0
  0
MTEXT
  5
44D
330
1B
100
AcDbEntity
 67
     1
  8
9_SOLID
  6
Continuous
 62
     2
100
AcDbMText
 10
732.4503122814
 20
52.3351137517
 30
0.0
 40
3.0
 41
74.3571428571
 46
0.0
 71
     1
 72
     1
  1
Neutral code: 565_C_286
 73
     1
 44
1.0
  0
MTEXT
  5
44E
330
1B
100
AcDbEntity
 67
     1
  8
0
  6
Continuous
 62
     2
100
AcDbMText
 10
732.4503122814
 20
46.3351137517
 30
0.0
 40
3.0
 41
22.9285714286
 46
0.0
 71
     1
 72
     1
  1
Code:  
 73
     1
 44
1.0
  0
MTEXT
  5
44F
330
1B
100
AcDbEntity
 67
     1
  8
9_SOLID
  6
Continuous
 62
     2
100
AcDbMText
 10
792.4503122814
 20
46.5851137517
 30
0.0
 40
3.0
 41
27.8571428571
 46
0.0
 71
     1
 72
     1
  1
Scale: 1:1
 73
     1
 44
1.0
  0
MTEXT
  5
450
330
1B
100
AcDbEntity
 67
     1
  8
9_SOLID
  6
Continuous
 62
     2
100
AcDbMText
 10
825.9628122814
 20
46.5851137517
 30
0.0
 40
3.0
 41
7.2857142857
 46
0.0
 71
     2
 72
     1
  1
A1
 73
     1
 44
1.0
  0
MTEXT
  5
451
330
1B
100
AcDbEntity
 67
     1
  8
9_SOLID
  6
Continuous
 62
     2
100
AcDbMText
 10
732.4503122814
 20
40.5851137517
 30
0.0
 40
3.0
 41
144.1071428571
 46
0.0
 71
     1
 72
     1
  1
It descr.: ANTIABBAGLIAMENTO NEVA 2.0 L=673
 73
     1
 44
1.0
  0
MTEXT
  5
452
330
1B
100
AcDbEntity
 67
     1
  8
0
  6
Continuous
 62
     2
100
AcDbMText
 10
732.4503122814
 20
34.5851137517
 30
0.0
 40
3.0
 41
37.5
 46
0.0
 71
     1
 72
     1
  1
En descr.:  
 73
     1
 44
1.0
  0
MTEXT
  5
453
330
1B
100
AcDbEntity
 67
     1
  8
9_SOLID
  6
Continuous
 62
     2
100
AcDbMText
 10
732.4503122814
 20
28.5851137517
 30
0.0
 40
3.0
 41
31.2857142857
 46
0.0
 71
     1
 72
     1
  1
Des.: A.F.
 73
     1
 44
1.0
  0
MTEXT
  5
454
330
1B
100
AcDbEntity
 67
     1
  8
9_SOLID
  6
Continuous
 62
     2
100
AcDbMText
 10
782.4503122814
 20
28.5851137517
 30
0.0
 40
3.0
 41
22.2857142857
 46
0.0
 71
     1
 72
     1
  1
Check: 
 73
     1
 44
1.0
  0
MTEXT
  5
455
330
1B
100
AcDbEntity
 67
     1
  8
9_SOLID
  6
Continuous
 62
     2
100
AcDbMText
 10
702.4503122814
 20
22.5851137517
 30
0.0
 40
3.0
 41
44.1428571429
 46
0.0
 71
     1
 72
     1
  1
Date: 29.05.14
 73
     1
 44
1.0
  0
MTEXT
  5
456
330
1B
100
AcDbEntity
 67
     1
  8
0
  6
Continuous
 62
     2
100
AcDbMText
 10
732.4503122814
 20
22.5851137517
 30
0.0
 40
3.0
 41
21.75
 46
0.0
 71
     1
 72
     1
  1
Mat.:  
 73
     1
 44
1.0
  0
MTEXT
  5
457
330
1B
100
AcDbEntity
 67
     1
  8
9_SOLID
  6
Continuous
 62
     2
100
AcDbMText
 10
782.4503122814
 20
22.0851137517
 30
0.0
 40
2.0
 41
42.3571428571
 46
0.0
 71
     1
 72
     1
  1
Disegno per catalogo
 73
     1
 44
1.0
  0
MTEXT
  5
458
330
1B
100
AcDbEntity
 67
     1
  8
9_SOLID
  6
Continuous
 62
     2
100
AcDbMText
 10
702.4503122814
 20
16.9851137517
 30
0.0
 40
1.8
 41
176.2071428571
 46
0.0
 71
     1
 72
     1
  1
It: A norma di legge si diffida da qualsiasi riproduzione senza nostra autorizzazione esplicita.
 73
     1
 44
1.0
  0
MTEXT
  5
459
330
1B
100
AcDbEntity
 67
     1
  8
9_SOLID
  6
Continuous
 62
     2
100
AcDbMText
 10
702.4503122814
 20
12.9851137517
 30
0.0
 40
1.8
 41
158.1428571429
 46
0.0
 71
     1
 72
     1
  1
En: According to the law, beware of any reproduction made without our authorization.
 73
     1
 44
1.0
  0
ENDSEC
  0
SECTION
  2
OBJECTS
  0
DICTIONARY
  5
45A
330
0
100
AcDbDictionary
281
     1
  3
ACAD_DETAILVIEWSTYLE
350
4B0
  3
ACAD_GROUP
350
45B
  3
ACAD_LAYOUT
350
483
  3
ACAD_MATERIAL
350
49F
  3
ACAD_MLEADERSTYLE
350
4A5
  3
ACAD_MLINESTYLE
350
45C
  3
ACAD_PLOTSETTINGS
350
45E
  3
ACAD_PLOTSTYLENAME
350
45F
  3
ACAD_SCALELIST
350
461
  3
ACAD_SECTIONVIEWSTYLE
350
4B1
  3
ACAD_TABLESTYLE
350
4A3
  3
ACAD_VISUALSTYLE
350
486
  3
ACDB_RECOMPOSE_DATA
350
4AC
  3
AcDbVariableDictionary
350
4A8
  3
APPDATA
350
4A7
  0
DICTIONARY
  5
4B0
102
{ACAD_REACTORS
330
45A
102
}
330
45A
100
AcDbDictionary
281
     1
  0
DICTIONARY
  5
45B
102
{ACAD_REACTORS
330
45A
102
}
330
45A
100
AcDbDictionary
281
     1
  0
DICTIONARY
  5
483
102
{ACAD_REACTORS
330
45A
102
}
330
45A
100
AcDbDictionary
281
     1
  3
Foglio 1
350
485
  3
Model
350
484
  0
DICTIONARY
  5
49F
102
{ACAD_REACTORS
330
45A
102
}
330
45A
100
AcDbDictionary
281
     1
  3
ByBlock
350
4A1
  3
ByLayer
350
4A0
  3
Global
350
4A2
  0
DICTIONARY
  5
4A5
102
{ACAD_REACTORS
330
45A
102
}
330
45A
100
AcDbDictionary
281
     1
  3
Standard
350
4A6
  0
DICTIONARY
  5
45C
102
{ACAD_REACTORS
330
45A
102
}
330
45A
100
AcDbDictionary
281
     1
  3
STANDARD
350
45D
  0
DICTIONARY
  5
45E
102
{ACAD_REACTORS
330
45A
102
}
330
45A
100
AcDbDictionary
281
     1
  0
ACDBDICTIONARYWDFLT
  5
45F
102
{ACAD_REACTORS
330
45A
102
}
330
45A
100
AcDbDictionary
281
     1
  3
Normal
350
460
100
AcDbDictionaryWithDefault
340
460
  0
DICTIONARY
  5
461
102
{ACAD_REACTORS
330
45A
102
}
330
45A
100
AcDbDictionary
281
     1
  3
A0
350
462
  3
A1
350
463
  3
A2
350
464
  3
A3
350
465
  3
A4
350
466
  3
A5
350
467
  3
A6
350
468
  3
A7
350
469
  3
A8
350
46A
  3
A9
350
46B
  3
B0
350
46C
  3
B1
350
46D
  3
B2
350
46E
  3
B3
350
46F
  3
B4
350
470
  3
B5
350
471
  3
B6
350
472
  3
B7
350
473
  3
B8
350
474
  3
B9
350
475
  3
C0
350
476
  3
C1
350
477
  3
C2
350
478
  3
C3
350
479
  3
C4
350
47A
  3
C5
350
47B
  3
C6
350
47C
  3
C7
350
47D
  3
C8
350
47E
  3
C9
350
47F
  3
D0
350
480
  3
D1
350
481
  3
D2
350
482
  0
DICTIONARY
  5
4B1
102
{ACAD_REACTORS
330
45A
102
}
330
45A
100
AcDbDictionary
281
     1
  0
DICTIONARY
  5
4A3
102
{ACAD_REACTORS
330
45A
102
}
330
45A
100
AcDbDictionary
281
     1
  3
Standard
350
4A4
  0
DICTIONARY
  5
486
102
{ACAD_REACTORS
330
45A
102
}
330
45A
100
AcDbDictionary
281
     1
  3
2dWireframe
350
48B
  3
Basic
350
48E
  3
Brighten
350
492
  3
ColorChange
350
496
  3
Conceptual
350
490
  3
Dim
350
491
  3
EdgeColorOff
350
499
  3
Facepattern
350
495
  3
Flat
350
487
  3
FlatWithEdges
350
488
  3
Gouraud
350
489
  3
GouraudWithEdges
350
48A
  3
Hidden
350
48D
  3
JitterOff
350
497
  3
Linepattern
350
494
  3
OverhangOff
350
498
  3
Realistic
350
48F
  3
Shaded
350
49E
  3
Shaded with edges
350
49D
  3
Shades of Gray
350
49A
  3
Sketchy
350
49B
  3
Thicken
350
493
  3
Wireframe
350
48C
  3
X-Ray
350
49C
  0
XRECORD
  5
4AC
102
{ACAD_REACTORS
330
45A
102
}
330
45A
100
AcDbXrecord
280
     1
 90
        1
330
4A4
  0
DICTIONARY
  5
4A8
102
{ACAD_REACTORS
330
45A
102
}
330
45A
100
AcDbDictionary
281
     1
  3
CANNOSCALE
350
4A9
  3
CMLEADERSTYLE
350
4AE
  3
CTABLESTYLE
350
4AD
  3
MSLTSCALE
350
4AF
  0
DICTIONARY
  5
4A7
102
{ACAD_REACTORS
330
45A
102
}
330
45A
100
AcDbDictionary
281
     1
  0
LAYOUT
  5
485
102
{ACAD_REACTORS
330
483
102
}
330
483
100
AcDbPlotSettings
  1

  2
none_device
  4
ISO_A3_(420.00_x_297.00_MM)
  6

 40
7.5
 41
20.0
 42
7.5
 43
20.0
 44
420.0
 45
297.0
 46
0.0
 47
0.0
 48
0.0
 49
0.0
140
0.0
141
0.0
142
1.0
143
2.311284046692607
 70
   688
 72
     1
 73
     0
 74
     1
  7

 75
     0
 76
     0
 77
     2
 78
   300
147
0.4326599326599327
148
0.0
149
0.0
100
AcDbLayout
  1
Foglio 1
 70
     1
 71
     1
 10
0.0
 20
0.0
 11
412.5
 21
277.0
 12
0.0
 22
0.0
 32
0.0
 14
0.0
 24
0.0
 34
0.0
 15
841.0
 25
594.0
 35
0.0
146
0.0
 13
0.0
 23
0.0
 33
0.0
 16
1.0
 26
0.0
 36
0.0
 17
0.0
 27
1.0
 37
0.0
 76
     0
330
1B
331
2C8
  0
LAYOUT
  5
484
102
{ACAD_REACTORS
330
483
102
}
330
483
100
AcDbPlotSettings
  1

  2
none_device
  4
Letter_(8.50_x_11.00_Inches)
  6

 40
6.35
 41
6.35
 42
6.35
 43
6.35
 44
215.9
 45
279.4
 46
0.0
 47
0.0
 48
0.0
 49
0.0
140
0.0
141
0.0
142
1.0
143
105.12499999815
 70
  1712
 72
     0
 73
     0
 74
     0
  7

 75
     0
 76
     0
 77
     2
 78
   300
147
0.0095124851369094
148
-0.0000001879597448
149
0.0
100
AcDbLayout
  1
Model
 70
     1
 71
     0
 10
0.0
 20
0.0
 11
841.0
 21
594.0
 12
0.0
 22
0.0
 32
0.0
 14
0.0
 24
0.0
 34
0.0
 15
841.0
 25
594.0
 35
0.0
146
0.0
 13
0.0
 23
0.0
 33
0.0
 16
1.0
 26
0.0
 36
0.0
 17
0.0
 27
1.0
 37
0.0
 76
     0
330
1F
331
1F4
  0
MATERIAL
  5
4A1
102
{ACAD_REACTORS
330
49F
102
}
330
49F
100
AcDbMaterial
  1
ByBlock
 72
     1
 94
      127
  0
MATERIAL
  5
4A0
102
{ACAD_REACTORS
330
49F
102
}
330
49F
100
AcDbMaterial
  1
ByLayer
 72
     1
 94
      127
  0
MATERIAL
  5
4A2
102
{ACAD_REACTORS
330
49F
102
}
330
49F
100
AcDbMaterial
  1
Global
 72
     1
 94
      127
  0
MLEADERSTYLE
  5
4A6
102
{ACAD_REACTORS
330
4A5
102
}
330
4A5
100
AcDbMLeaderStyle
179
     2
170
     2
171
     1
172
     0
 90
        2
 40
0.0
 41
0.0
173
     1
 91
-1056964608
340
14
 92
       -2
290
     1
 42
2.0
291
     1
 43
8.0
  3
Standard
341
0
 44
4.0
300

342
11
174
     1
178
     1
175
     1
176
     0
 93
-1056964608
 45
4.0
292
     0
297
     0
 46
4.0
343
0
 94
-1056964608
 47
1.0
 49
1.0
140
1.0
293
     1
141
0.0
294
     1
177
     0
142
1.0
295
     0
296
     0
143
3.75
271
     0
272
     9
273
     9
298
     0
  0
MLINESTYLE
  5
45D
102
{ACAD_REACTORS
330
45C
102
}
330
45C
100
AcDbMlineStyle
  2
STANDARD
 70
     0
  3

 62
   256
 51
90.0
 52
90.0
 71
     2
 49
0.5
 62
   256
  6
BYLAYER
 49
-0.5
 62
   256
  6
BYLAYER
  0
ACDBPLACEHOLDER
  5
460
102
{ACAD_REACTORS
330
45F
102
}
330
45F
  0
SCALE
  5
462
102
{ACAD_REACTORS
330
461
102
}
330
461
100
AcDbScale
 70
     0
300
1:1
140
1.0
141
1.0
290
     1
  0
SCALE
  5
463
102
{ACAD_REACTORS
330
461
102
}
330
461
100
AcDbScale
 70
     0
300
1:2
140
1.0
141
2.0
290
     0
  0
SCALE
  5
464
102
{ACAD_REACTORS
330
461
102
}
330
461
100
AcDbScale
 70
     0
300
1:4
140
1.0
141
4.0
290
     0
  0
SCALE
  5
465
102
{ACAD_REACTORS
330
461
102
}
330
461
100
AcDbScale
 70
     0
300
1:5
140
1.0
141
5.0
290
     0
  0
SCALE
  5
466
102
{ACAD_REACTORS
330
461
102
}
330
461
100
AcDbScale
 70
     0
300
1:8
140
1.0
141
8.0
290
     0
  0
SCALE
  5
467
102
{ACAD_REACTORS
330
461
102
}
330
461
100
AcDbScale
 70
     0
300
1:10
140
1.0
141
10.0
290
     0
  0
SCALE
  5
468
102
{ACAD_REACTORS
330
461
102
}
330
461
100
AcDbScale
 70
     0
300
1:16
140
1.0
141
16.0
290
     0
  0
SCALE
  5
469
102
{ACAD_REACTORS
330
461
102
}
330
461
100
AcDbScale
 70
     0
300
1:20
140
1.0
141
20.0
290
     0
  0
SCALE
  5
46A
102
{ACAD_REACTORS
330
461
102
}
330
461
100
AcDbScale
 70
     0
300
1:30
140
1.0
141
30.0
290
     0
  0
SCALE
  5
46B
102
{ACAD_REACTORS
330
461
102
}
330
461
100
AcDbScale
 70
     0
300
1:40
140
1.0
141
40.0
290
     0
  0
SCALE
  5
46C
102
{ACAD_REACTORS
330
461
102
}
330
461
100
AcDbScale
 70
     0
300
1:50
140
1.0
141
50.0
290
     0
  0
SCALE
  5
46D
102
{ACAD_REACTORS
330
461
102
}
330
461
100
AcDbScale
 70
     0
300
1:100
140
1.0
141
100.0
290
     0
  0
SCALE
  5
46E
102
{ACAD_REACTORS
330
461
102
}
330
461
100
AcDbScale
 70
     0
300
2:1
140
2.0
141
1.0
290
     0
  0
SCALE
  5
46F
102
{ACAD_REACTORS
330
461
102
}
330
461
100
AcDbScale
 70
     0
300
4:1
140
4.0
141
1.0
290
     0
  0
SCALE
  5
470
102
{ACAD_REACTORS
330
461
102
}
330
461
100
AcDbScale
 70
     0
300
8:1
140
8.0
141
1.0
290
     0
  0
SCALE
  5
471
102
{ACAD_REACTORS
330
461
102
}
330
461
100
AcDbScale
 70
     0
300
10:1
140
10.0
141
1.0
290
     0
  0
SCALE
  5
472
102
{ACAD_REACTORS
330
461
102
}
330
461
100
AcDbScale
 70
     0
300
100:1
140
100.0
141
1.0
290
     0
  0
SCALE
  5
473
102
{ACAD_REACTORS
330
461
102
}
330
461
100
AcDbScale
 70
     0
300
1/128" = 1'-0"
140
0.0078125
141
12.0
290
     0
  0
SCALE
  5
474
102
{ACAD_REACTORS
330
461
102
}
330
461
100
AcDbScale
 70
     0
300
1/64" = 1'-0"
140
0.015625
141
12.0
290
     0
  0
SCALE
  5
475
102
{ACAD_REACTORS
330
461
102
}
330
461
100
AcDbScale
 70
     0
300
1/32" = 1'-0"
140
0.03125
141
12.0
290
     0
  0
SCALE
  5
476
102
{ACAD_REACTORS
330
461
102
}
330
461
100
AcDbScale
 70
     0
300
1/16" = 1'-0"
140
0.0625
141
12.0
290
     0
  0
SCALE
  5
477
102
{ACAD_REACTORS
330
461
102
}
330
461
100
AcDbScale
 70
     0
300
3/32" = 1'-0"
140
0.09375
141
12.0
290
     0
  0
SCALE
  5
478
102
{ACAD_REACTORS
330
461
102
}
330
461
100
AcDbScale
 70
     0
300
1/8" = 1'-0"
140
0.125
141
12.0
290
     0
  0
SCALE
  5
479
102
{ACAD_REACTORS
330
461
102
}
330
461
100
AcDbScale
 70
     0
300
3/16" = 1'-0"
140
0.1875
141
12.0
290
     0
  0
SCALE
  5
47A
102
{ACAD_REACTORS
330
461
102
}
330
461
100
AcDbScale
 70
     0
300
1/4" = 1'-0"
140
0.25
141
12.0
290
     0
  0
SCALE
  5
47B
102
{ACAD_REACTORS
330
461
102
}
330
461
100
AcDbScale
 70
     0
300
3/8" = 1'-0"
140
0.375
141
12.0
290
     0
  0
SCALE
  5
47C
102
{ACAD_REACTORS
330
461
102
}
330
461
100
AcDbScale
 70
     0
300
1/2" = 1'-0"
140
0.5
141
12.0
290
     0
  0
SCALE
  5
47D
102
{ACAD_REACTORS
330
461
102
}
330
461
100
AcDbScale
 70
     0
300
3/4" = 1'-0"
140
0.75
141
12.0
290
     0
  0
SCALE
  5
47E
102
{ACAD_REACTORS
330
461
102
}
330
461
100
AcDbScale
 70
     0
300
1" = 1'-0"
140
1.0
141
12.0
290
     0
  0
SCALE
  5
47F
102
{ACAD_REACTORS
330
461
102
}
330
461
100
AcDbScale
 70
     0
300
1-1/2" = 1'-0"
140
1.5
141
12.0
290
     0
  0
SCALE
  5
480
102
{ACAD_REACTORS
330
461
102
}
330
461
100
AcDbScale
 70
     0
300
3" = 1'-0"
140
3.0
141
12.0
290
     0
  0
SCALE
  5
481
102
{ACAD_REACTORS
330
461
102
}
330
461
100
AcDbScale
 70
     0
300
6" = 1'-0"
140
6.0
141
12.0
290
     0
  0
SCALE
  5
482
102
{ACAD_REACTORS
330
461
102
}
330
461
100
AcDbScale
 70
     0
300
1'-0" = 1'-0"
140
12.0
141
12.0
290
     0
  0
TABLESTYLE
  5
4A4
102
{ACAD_REACTORS
330
4A3
102
}
102
{ACAD_XDICTIONARY
360
4AA
102
}
330
4A3
100
AcDbTableStyle
  3
Standard
 70
     0
 71
     0
 40
0.06
 41
0.06
280
     0
281
     0
  7
STANDARD
140
4.5
170
     2
 62
     0
 63
   257
283
     0
 90
        4
 91
        0
  1

274
    -2
284
     1
 64
     0
275
    -2
285
     1
 65
     0
276
    -2
286
     1
 66
     0
277
    -2
287
     1
 67
     0
278
    -2
288
     1
 68
     0
279
    -2
289
     1
 69
     0
  7
STANDARD
140
6.0
170
     5
 62
     0
 63
   257
283
     0
 90
        4
 91
        0
  1

274
    -2
284
     1
 64
     0
275
    -2
285
     1
 65
     0
276
    -2
286
     1
 66
     0
277
    -2
287
     1
 67
     0
278
    -2
288
     1
 68
     0
279
    -2
289
     1
 69
     0
  7
STANDARD
140
4.5
170
     5
 62
     0
 63
   257
283
     0
 90
        4
 91
        0
  1

274
    -2
284
     1
 64
     0
275
    -2
285
     1
 65
     0
276
    -2
286
     1
 66
     0
277
    -2
287
     1
 67
     0
278
    -2
288
     1
 68
     0
279
    -2
289
     1
 69
     0
  0
VISUALSTYLE
  5
48B
102
{ACAD_REACTORS
330
486
102
}
330
486
100
AcDbVisualStyle
  2
2dWireframe
 70
     4
177
     3
291
     0
 70
    58
 90
        0
176
     1
 90
        2
176
     1
 90
        0
176
     1
 90
        0
176
     1
 40
0.6
176
     1
 40
30.0
176
     1
 62
     7
420
 16777215
176
     1
 90
        1
176
     1
 90
        4
176
     1
 62
     7
176
     1
 62
   257
176
     1
 90
        1
176
     1
 90
        1
176
     1
 40
1.0
176
     1
 90
        0
176
     1
 62
   257
176
     1
 40
1.0
176
     1
 90
        1
176
     1
 90
        6
176
     1
 90
        2
176
     1
 62
     7
176
     1
 90
        5
176
     1
 90
        0
176
     1
 90
        0
176
     1
290
     0
176
     1
 90
        1
176
     1
 40
0.0
176
     1
 90
        0
176
     1
290
     1
176
     1
290
     1
176
     1
290
     0
176
     1
290
     0
176
     1
290
     0
176
     1
290
     0
176
     1
290
     0
176
     1
290
     0
176
     1
290
     0
176
     1
 90
       50
176
     1
 40
0.0
176
     1
 40
1.0
176
     1
 90
        0
176
     1
 62
    18
420
        0
176
     1
 90
       50
176
     1
 90
        3
176
     1
 62
     5
420
      255
176
     1
290
     0
176
     1
 90
       50
176
     1
 90
       50
176
     1
 90
       50
176
     1
290
     0
176
     1
 90
       50
176
     1
 62
   256
176
     0
 40
1.0
176
     0
 90
        2
176
     1
  1
strokes_ogs.tif
176
     1
290
     0
176
     1
 40
1.0
176
     1
 40
1.0
176
     1
  0
VISUALSTYLE
  5
48E
102
{ACAD_REACTORS
330
486
102
}
330
486
100
AcDbVisualStyle
  2
Basic
 70
     7
177
     3
291
     1
 70
    58
 90
        1
176
     1
 90
        0
176
     1
 90
        1
176
     1
 90
        0
176
     1
 40
0.6
176
     1
 40
30.0
176
     1
 62
     7
420
 16777215
176
     1
 90
        0
176
     1
 90
        4
176
     1
 62
     7
176
     1
 62
   257
176
     1
 90
        1
176
     1
 90
        1
176
     1
 40
1.0
176
     1
 90
        8
176
     1
 62
     7
176
     1
 40
1.0
176
     1
 90
        1
176
     1
 90
        6
176
     1
 90
        2
176
     1
 62
     7
176
     1
 90
        5
176
     1
 90
        0
176
     1
 90
        0
176
     1
290
     0
176
     1
 90
        1
176
     1
 40
0.0
176
     1
 90
        0
176
     1
290
     0
176
     1
290
     1
176
     1
290
     1
176
     1
290
     0
176
     1
290
     0
176
     1
290
     0
176
     1
290
     0
176
     1
290
     0
176
     1
290
     0
176
     1
 90
       50
176
     1
 40
0.0
176
     1
 40
1.0
176
     1
 90
        0
176
     1
 62
    18
420
        0
176
     1
 90
       50
176
     1
 90
        3
176
     1
 62
     5
420
      255
176
     1
290
     0
176
     1
 90
       50
176
     1
 90
       50
176
     1
 90
       50
176
     1
290
     0
176
     1
 90
       50
176
     1
 62
   256
176
     0
 40
1.0
176
     0
 90
        2
176
     1
  1
strokes_ogs.tif
176
     1
290
     0
176
     1
 40
1.0
176
     1
 40
1.0
176
     1
  0
VISUALSTYLE
  5
492
102
{ACAD_REACTORS
330
486
102
}
330
486
100
AcDbVisualStyle
  2
Brighten
 70
    12
177
     3
291
     1
 70
    58
 90
        2
176
     1
 90
        2
176
     1
 90
        0
176
     1
 90
        0
176
     1
 40
0.6
176
     1
 40
30.0
176
     1
 62
     7
420
 16777215
176
     1
 90
        1
176
     1
 90
        4
176
     1
 62
     7
176
     1
 62
   257
176
     1
 90
        1
176
     1
 90
        1
176
     1
 40
1.0
176
     1
 90
        8
176
     1
 62
     7
176
     1
 40
1.0
176
     1
 90
        1
176
     1
 90
        6
176
     1
 90
        2
176
     1
 62
     7
176
     1
 90
        5
176
     1
 90
        0
176
     1
 90
        0
176
     1
290
     0
176
     1
 90
        1
176
     1
 40
50.0
176
     1
 90
        0
176
     1
290
     0
176
     1
290
     1
176
     1
290
     1
176
     1
290
     0
176
     1
290
     0
176
     1
290
     0
176
     1
290
     0
176
     1
290
     0
176
     1
290
     0
176
     1
 90
       50
176
     1
 40
0.0
176
     1
 40
1.0
176
     1
 90
        0
176
     1
 62
    18
420
        0
176
     1
 90
       50
176
     1
 90
        3
176
     1
 62
     5
420
      255
176
     1
290
     0
176
     1
 90
       50
176
     1
 90
       50
176
     1
 90
       50
176
     1
290
     0
176
     1
 90
       50
176
     1
 62
   256
176
     0
 40
1.0
176
     0
 90
        2
176
     1
  1
strokes_ogs.tif
176
     1
290
     0
176
     1
 40
1.0
176
     1
 40
1.0
176
     1
  0
VISUALSTYLE
  5
496
102
{ACAD_REACTORS
330
486
102
}
330
486
100
AcDbVisualStyle
  2
ColorChange
 70
    16
177
     3
291
     1
 70
    58
 90
        2
176
     1
 90
        2
176
     1
 90
        3
176
     1
 90
        0
176
     1
 40
0.6
176
     1
 40
30.0
176
     1
 62
     8
420
  8421504
176
     1
 90
        1
176
     1
 90
        4
176
     1
 62
     7
176
     1
 62
   257
176
     1
 90
        1
176
     1
 90
        1
176
     1
 40
1.0
176
     1
 90
        8
176
     1
 62
     8
420
  8421504
176
     1
 40
1.0
176
     1
 90
        1
176
     1
 90
        6
176
     1
 90
        2
176
     1
 62
     7
176
     1
 90
        5
176
     1
 90
        0
176
     1
 90
        0
176
     1
290
     0
176
     1
 90
        1
176
     1
 40
0.0
176
     1
 90
        0
176
     1
290
     0
176
     1
290
     1
176
     1
290
     1
176
     1
290
     0
176
     1
290
     0
176
     1
290
     0
176
     1
290
     0
176
     1
290
     0
176
     1
290
     0
176
     1
 90
       50
176
     1
 40
0.0
176
     1
 40
1.0
176
     1
 90
        0
176
     1
 62
    18
420
        0
176
     1
 90
       50
176
     1
 90
        3
176
     1
 62
     5
420
      255
176
     1
290
     0
176
     1
 90
       50
176
     1
 90
       50
176
     1
 90
       50
176
     1
290
     0
176
     1
 90
       50
176
     1
 62
   256
176
     0
 40
1.0
176
     0
 90
        2
176
     1
  1
strokes_ogs.tif
176
     1
290
     0
176
     1
 40
1.0
176
     1
 40
1.0
176
     1
  0
VISUALSTYLE
  5
490
102
{ACAD_REACTORS
330
486
102
}
330
486
100
AcDbVisualStyle
  2
Conceptual
 70
     9
177
     3
291
     0
 70
    58
 90
        3
176
     1
 90
        2
176
     1
 90
        0
176
     1
 90
        0
176
     1
 40
0.6
176
     1
 40
30.0
176
     1
 62
     7
420
 16777215
176
     1
 90
        2
176
     1
 90
        2
176
     1
 62
     7
176
     1
 62
   257
176
     1
 90
        1
176
     1
 90
        1
176
     1
 40
179.0
176
     1
 90
        8
176
     1
 62
     7
176
     1
 40
1.0
176
     1
 90
        1
176
     1
 90
        6
176
     1
 90
        2
176
     1
 62
     7
176
     1
 90
        3
176
     1
 90
        0
176
     1
 90
        0
176
     1
290
     0
176
     1
 90
        1
176
     1
 40
0.0
176
     1
 90
        0
176
     1
290
     0
176
     1
290
     1
176
     1
290
     1
176
     1
290
     0
176
     1
290
     0
176
     1
290
     0
176
     1
290
     0
176
     1
290
     0
176
     1
290
     0
176
     1
 90
       50
176
     1
 40
0.0
176
     1
 40
1.0
176
     1
 90
        0
176
     1
 62
    18
420
        0
176
     1
 90
       50
176
     1
 90
        3
176
     1
 62
     5
420
      255
176
     1
290
     0
176
     1
 90
       50
176
     1
 90
       50
176
     1
 90
       50
176
     1
290
     0
176
     1
 90
       50
176
     1
 62
   256
176
     0
 40
1.0
176
     0
 90
        2
176
     1
  1
strokes_ogs.tif
176
     1
290
     0
176
     1
 40
1.0
176
     1
 40
1.0
176
     1
  0
VISUALSTYLE
  5
491
102
{ACAD_REACTORS
330
486
102
}
330
486
100
AcDbVisualStyle
  2
Dim
 70
    11
177
     3
291
     1
 70
    58
 90
        2
176
     1
 90
        2
176
     1
 90
        0
176
     1
 90
        0
176
     1
 40
0.6
176
     1
 40
30.0
176
     1
 62
     7
420
 16777215
176
     1
 90
        1
176
     1
 90
        4
176
     1
 62
     7
176
     1
 62
   257
176
     1
 90
        1
176
     1
 90
        1
176
     1
 40
1.0
176
     1
 90
        8
176
     1
 62
     7
176
     1
 40
1.0
176
     1
 90
        1
176
     1
 90
        6
176
     1
 90
        2
176
     1
 62
     7
176
     1
 90
        5
176
     1
 90
        0
176
     1
 90
        0
176
     1
290
     0
176
     1
 90
        1
176
     1
 40
-50.0
176
     1
 90
        0
176
     1
290
     0
176
     1
290
     1
176
     1
290
     1
176
     1
290
     0
176
     1
290
     0
176
     1
290
     0
176
     1
290
     0
176
     1
290
     0
176
     1
290
     0
176
     1
 90
       50
176
     1
 40
0.0
176
     1
 40
1.0
176
     1
 90
        0
176
     1
 62
    18
420
        0
176
     1
 90
       50
176
     1
 90
        3
176
     1
 62
     5
420
      255
176
     1
290
     0
176
     1
 90
       50
176
     1
 90
       50
176
     1
 90
       50
176
     1
290
     0
176
     1
 90
       50
176
     1
 62
   256
176
     0
 40
1.0
176
     0
 90
        2
176
     1
  1
strokes_ogs.tif
176
     1
290
     0
176
     1
 40
1.0
176
     1
 40
1.0
176
     1
  0
VISUALSTYLE
  5
499
102
{ACAD_REACTORS
330
486
102
}
330
486
100
AcDbVisualStyle
  2
EdgeColorOff
 70
    22
177
     3
291
     1
 70
    58
 90
        2
176
     0
 90
        2
176
     0
 90
        0
176
     0
 90
        0
176
     0
 40
0.6
176
     0
 40
30.0
176
     0
 62
     7
420
 16777215
176
     0
 90
        1
176
     0
 90
        4
176
     0
 62
     7
176
     0
 62
   257
176
     0
 90
        1
176
     0
 90
        1
176
     0
 40
1.0
176
     0
 90
        8
176
     2
 62
     7
176
     0
 40
1.0
176
     0
 90
        1
176
     0
 90
        6
176
     0
 90
        2
176
     0
 62
     7
176
     0
 90
        5
176
     0
 90
        0
176
     0
 90
        0
176
     0
290
     0
176
     0
 90
        1
176
     0
 40
0.0
176
     0
 90
        0
176
     0
290
     0
176
     0
290
     1
176
     0
290
     1
176
     0
290
     0
176
     0
290
     0
176
     0
290
     0
176
     0
290
     0
176
     0
290
     0
176
     0
290
     0
176
     0
 90
       50
176
     0
 40
0.0
176
     0
 40
1.0
176
     0
 90
        0
176
     0
 62
    18
420
        0
176
     0
 90
       50
176
     0
 90
        3
176
     0
 62
     5
420
      255
176
     0
290
     0
176
     0
 90
       50
176
     0
 90
       50
176
     0
 90
       50
176
     0
290
     0
176
     0
 90
       50
176
     0
 62
   256
176
     0
 40
1.0
176
     0
 90
        2
176
     0
  1
strokes_ogs.tif
176
     0
290
     0
176
     0
 40
1.0
176
     0
 40
1.0
176
     0
  0
VISUALSTYLE
  5
495
102
{ACAD_REACTORS
330
486
102
}
330
486
100
AcDbVisualStyle
  2
Facepattern
 70
    15
177
     3
291
     1
 70
    58
 90
        2
176
     1
 90
        2
176
     1
 90
        0
176
     1
 90
        0
176
     1
 40
0.6
176
     1
 40
30.0
176
     1
 62
     7
420
 16777215
176
     1
 90
        1
176
     1
 90
        4
176
     1
 62
     7
176
     1
 62
   257
176
     1
 90
        1
176
     1
 90
        1
176
     1
 40
1.0
176
     1
 90
        8
176
     1
 62
     7
176
     1
 40
1.0
176
     1
 90
        1
176
     1
 90
        6
176
     1
 90
        2
176
     1
 62
     7
176
     1
 90
        5
176
     1
 90
        0
176
     1
 90
        0
176
     1
290
     0
176
     1
 90
        1
176
     1
 40
0.0
176
     1
 90
        0
176
     1
290
     0
176
     1
290
     1
176
     1
290
     1
176
     1
290
     0
176
     1
290
     0
176
     1
290
     0
176
     1
290
     0
176
     1
290
     0
176
     1
290
     0
176
     1
 90
       50
176
     1
 40
0.0
176
     1
 40
1.0
176
     1
 90
        0
176
     1
 62
    18
420
        0
176
     1
 90
       50
176
     1
 90
        3
176
     1
 62
     5
420
      255
176
     1
290
     0
176
     1
 90
       50
176
     1
 90
       50
176
     1
 90
       50
176
     1
290
     0
176
     1
 90
       50
176
     1
 62
   256
176
     0
 40
1.0
176
     0
 90
        2
176
     1
  1
strokes_ogs.tif
176
     1
290
     0
176
     1
 40
1.0
176
     1
 40
1.0
176
     1
  0
VISUALSTYLE
  5
487
102
{ACAD_REACTORS
330
486
102
}
330
486
100
AcDbVisualStyle
  2
Flat
 70
     0
177
     3
291
     1
 70
    58
 90
        2
176
     1
 90
        1
176
     1
 90
        1
176
     1
 90
        2
176
     1
 40
0.6
176
     1
 40
30.0
176
     1
 62
     7
420
 16777215
176
     1
 90
        0
176
     1
 90
        0
176
     1
 62
     7
176
     1
 62
   257
176
     1
 90
        1
176
     1
 90
        1
176
     1
 40
1.0
176
     1
 90
        8
176
     1
 62
     7
176
     1
 40
1.0
176
     1
 90
        1
176
     1
 90
        6
176
     1
 90
        2
176
     1
 62
     7
176
     1
 90
        5
176
     1
 90
        0
176
     1
 90
        0
176
     1
290
     0
176
     1
 90
       13
176
     1
 40
0.0
176
     1
 90
        0
176
     1
290
     0
176
     1
290
     1
176
     1
290
     1
176
     1
290
     0
176
     1
290
     0
176
     1
290
     0
176
     1
290
     0
176
     1
290
     0
176
     1
290
     0
176
     1
 90
       50
176
     1
 40
0.0
176
     1
 40
1.0
176
     1
 90
        0
176
     1
 62
    18
420
        0
176
     1
 90
       50
176
     1
 90
        3
176
     1
 62
     5
420
      255
176
     1
290
     0
176
     1
 90
       50
176
     1
 90
       50
176
     1
 90
       50
176
     1
290
     0
176
     1
 90
       50
176
     1
 62
   256
176
     0
 40
1.0
176
     0
 90
        2
176
     1
  1
strokes_ogs.tif
176
     1
290
     0
176
     1
 40
1.0
176
     1
 40
1.0
176
     1
  0
VISUALSTYLE
  5
488
102
{ACAD_REACTORS
330
486
102
}
330
486
100
AcDbVisualStyle
  2
FlatWithEdges
 70
     1
177
     3
291
     1
 70
    58
 90
        2
176
     1
 90
        1
176
     1
 90
        1
176
     1
 90
        2
176
     1
 40
0.6
176
     1
 40
30.0
176
     1
 62
     7
420
 16777215
176
     1
 90
        1
176
     1
 90
        0
176
     1
 62
     7
176
     1
 62
   257
176
     1
 90
        1
176
     1
 90
        1
176
     1
 40
1.0
176
     1
 90
        0
176
     1
 62
   257
176
     1
 40
1.0
176
     1
 90
        1
176
     1
 90
        6
176
     1
 90
        2
176
     1
 62
     7
176
     1
 90
        5
176
     1
 90
        0
176
     1
 90
        0
176
     1
290
     0
176
     1
 90
       13
176
     1
 40
0.0
176
     1
 90
        0
176
     1
290
     0
176
     1
290
     1
176
     1
290
     1
176
     1
290
     0
176
     1
290
     0
176
     1
290
     0
176
     1
290
     0
176
     1
290
     0
176
     1
290
     0
176
     1
 90
       50
176
     1
 40
0.0
176
     1
 40
1.0
176
     1
 90
        0
176
     1
 62
    18
420
        0
176
     1
 90
       50
176
     1
 90
        3
176
     1
 62
     5
420
      255
176
     1
290
     0
176
     1
 90
       50
176
     1
 90
       50
176
     1
 90
       50
176
     1
290
     0
176
     1
 90
       50
176
     1
 62
   256
176
     0
 40
1.0
176
     0
 90
        2
176
     1
  1
strokes_ogs.tif
176
     1
290
     0
176
     1
 40
1.0
176
     1
 40
1.0
176
     1
  0
VISUALSTYLE
  5
489
102
{ACAD_REACTORS
330
486
102
}
330
486
100
AcDbVisualStyle
  2
Gouraud
 70
     2
177
     3
291
     1
 70
    58
 90
        2
176
     1
 90
        2
176
     1
 90
        1
176
     1
 90
        2
176
     1
 40
0.6
176
     1
 40
30.0
176
     1
 62
     7
420
 16777215
176
     1
 90
        0
176
     1
 90
        0
176
     1
 62
     7
176
     1
 62
   257
176
     1
 90
        1
176
     1
 90
        1
176
     1
 40
1.0
176
     1
 90
        0
176
     1
 62
     7
176
     1
 40
1.0
176
     1
 90
        1
176
     1
 90
        6
176
     1
 90
        2
176
     1
 62
     7
176
     1
 90
        5
176
     1
 90
        0
176
     1
 90
        0
176
     1
290
     0
176
     1
 90
       13
176
     1
 40
0.0
176
     1
 90
        0
176
     1
290
     0
176
     1
290
     1
176
     1
290
     1
176
     1
290
     0
176
     1
290
     0
176
     1
290
     0
176
     1
290
     0
176
     1
290
     0
176
     1
290
     0
176
     1
 90
       50
176
     1
 40
0.0
176
     1
 40
1.0
176
     1
 90
        0
176
     1
 62
    18
420
        0
176
     1
 90
       50
176
     1
 90
        3
176
     1
 62
     5
420
      255
176
     1
290
     0
176
     1
 90
       50
176
     1
 90
       50
176
     1
 90
       50
176
     1
290
     0
176
     1
 90
       50
176
     1
 62
   256
176
     0
 40
1.0
176
     0
 90
        2
176
     1
  1
strokes_ogs.tif
176
     1
290
     0
176
     1
 40
1.0
176
     1
 40
1.0
176
     1
  0
VISUALSTYLE
  5
48A
102
{ACAD_REACTORS
330
486
102
}
330
486
100
AcDbVisualStyle
  2
GouraudWithEdges
 70
     3
177
     3
291
     1
 70
    58
 90
        2
176
     1
 90
        2
176
     1
 90
        1
176
     1
 90
        2
176
     1
 40
0.6
176
     1
 40
30.0
176
     1
 62
     7
420
 16777215
176
     1
 90
        1
176
     1
 90
        0
176
     1
 62
     7
176
     1
 62
   257
176
     1
 90
        1
176
     1
 90
        1
176
     1
 40
1.0
176
     1
 90
        0
176
     1
 62
   257
176
     1
 40
1.0
176
     1
 90
        1
176
     1
 90
        6
176
     1
 90
        2
176
     1
 62
     7
176
     1
 90
        5
176
     1
 90
        0
176
     1
 90
        0
176
     1
290
     0
176
     1
 90
       13
176
     1
 40
0.0
176
     1
 90
        0
176
     1
290
     0
176
     1
290
     1
176
     1
290
     1
176
     1
290
     0
176
     1
290
     0
176
     1
290
     0
176
     1
290
     0
176
     1
290
     0
176
     1
290
     0
176
     1
 90
       50
176
     1
 40
0.0
176
     1
 40
1.0
176
     1
 90
        0
176
     1
 62
    18
420
        0
176
     1
 90
       50
176
     1
 90
        3
176
     1
 62
     5
420
      255
176
     1
290
     0
176
     1
 90
       50
176
     1
 90
       50
176
     1
 90
       50
176
     1
290
     0
176
     1
 90
       50
176
     1
 62
   256
176
     0
 40
1.0
176
     0
 90
        2
176
     1
  1
strokes_ogs.tif
176
     1
290
     0
176
     1
 40
1.0
176
     1
 40
1.0
176
     1
  0
VISUALSTYLE
  5
48D
102
{ACAD_REACTORS
330
486
102
}
330
486
100
AcDbVisualStyle
  2
Hidden
 70
     6
177
     3
291
     0
 70
    58
 90
        1
176
     1
 90
        2
176
     1
 90
        2
176
     1
 90
        0
176
     1
 40
0.6
176
     1
 40
30.0
176
     1
 62
     7
420
 16777215
176
     1
 90
        2
176
     1
 90
        2
176
     1
 62
     7
176
     1
 62
   257
176
     1
 90
        2
176
     1
 90
        1
176
     1
 40
40.0
176
     1
 90
        0
176
     1
 62
   257
176
     1
 40
1.0
176
     1
 90
        1
176
     1
 90
        6
176
     1
 90
        2
176
     1
 62
     7
176
     1
 90
        3
176
     1
 90
        0
176
     1
 90
        0
176
     1
290
     0
176
     1
 90
        1
176
     1
 40
0.0
176
     1
 90
        0
176
     1
290
     0
176
     1
290
     1
176
     1
290
     1
176
     1
290
     0
176
     1
290
     0
176
     1
290
     0
176
     1
290
     0
176
     1
290
     0
176
     1
290
     0
176
     1
 90
       50
176
     1
 40
0.0
176
     1
 40
1.0
176
     1
 90
        0
176
     1
 62
    18
420
        0
176
     1
 90
       50
176
     1
 90
        3
176
     1
 62
     5
420
      255
176
     1
290
     0
176
     1
 90
       50
176
     1
 90
       50
176
     1
 90
       50
176
     1
290
     0
176
     1
 90
       50
176
     1
 62
   256
176
     0
 40
1.0
176
     0
 90
        2
176
     1
  1
strokes_ogs.tif
176
     1
290
     0
176
     1
 40
1.0
176
     1
 40
1.0
176
     1
  0
VISUALSTYLE
  5
497
102
{ACAD_REACTORS
330
486
102
}
330
486
100
AcDbVisualStyle
  2
JitterOff
 70
    20
177
     3
291
     1
 70
    58
 90
        2
176
     0
 90
        2
176
     0
 90
        0
176
     0
 90
        0
176
     0
 40
0.6
176
     0
 40
30.0
176
     0
 62
     7
420
 16777215
176
     0
 90
        1
176
     0
 90
        4
176
     0
 62
     7
176
     0
 62
   257
176
     0
 90
        1
176
     0
 90
        1
176
     0
 40
1.0
176
     0
 90
       10
176
     2
 62
     7
176
     0
 40
1.0
176
     0
 90
        1
176
     0
 90
        6
176
     0
 90
        2
176
     0
 62
     7
176
     0
 90
        5
176
     0
 90
        0
176
     0
 90
        0
176
     0
290
     0
176
     0
 90
        1
176
     0
 40
0.0
176
     0
 90
        0
176
     0
290
     0
176
     0
290
     1
176
     0
290
     1
176
     0
290
     0
176
     0
290
     0
176
     0
290
     0
176
     0
290
     0
176
     0
290
     0
176
     0
290
     0
176
     0
 90
       50
176
     0
 40
0.0
176
     0
 40
1.0
176
     0
 90
        0
176
     0
 62
    18
420
        0
176
     0
 90
       50
176
     0
 90
        3
176
     0
 62
     5
420
      255
176
     0
290
     0
176
     0
 90
       50
176
     0
 90
       50
176
     0
 90
       50
176
     0
290
     0
176
     0
 90
       50
176
     0
 62
   256
176
     0
 40
1.0
176
     0
 90
        2
176
     0
  1
strokes_ogs.tif
176
     0
290
     0
176
     0
 40
1.0
176
     0
 40
1.0
176
     0
  0
VISUALSTYLE
  5
494
102
{ACAD_REACTORS
330
486
102
}
330
486
100
AcDbVisualStyle
  2
Linepattern
 70
    14
177
     3
291
     1
 70
    58
 90
        2
176
     1
 90
        2
176
     1
 90
        0
176
     1
 90
        0
176
     1
 40
0.6
176
     1
 40
30.0
176
     1
 62
     7
420
 16777215
176
     1
 90
        1
176
     1
 90
        4
176
     1
 62
     7
176
     1
 62
   257
176
     1
 90
        7
176
     1
 90
        7
176
     1
 40
1.0
176
     1
 90
        8
176
     1
 62
     7
176
     1
 40
1.0
176
     1
 90
        1
176
     1
 90
        6
176
     1
 90
        2
176
     1
 62
     7
176
     1
 90
        5
176
     1
 90
        0
176
     1
 90
        0
176
     1
290
     0
176
     1
 90
        1
176
     1
 40
0.0
176
     1
 90
        0
176
     1
290
     0
176
     1
290
     1
176
     1
290
     1
176
     1
290
     0
176
     1
290
     0
176
     1
290
     0
176
     1
290
     0
176
     1
290
     0
176
     1
290
     0
176
     1
 90
       50
176
     1
 40
0.0
176
     1
 40
1.0
176
     1
 90
        0
176
     1
 62
    18
420
        0
176
     1
 90
       50
176
     1
 90
        3
176
     1
 62
     5
420
      255
176
     1
290
     0
176
     1
 90
       50
176
     1
 90
       50
176
     1
 90
       50
176
     1
290
     0
176
     1
 90
       50
176
     1
 62
   256
176
     0
 40
1.0
176
     0
 90
        2
176
     1
  1
strokes_ogs.tif
176
     1
290
     0
176
     1
 40
1.0
176
     1
 40
1.0
176
     1
  0
VISUALSTYLE
  5
498
102
{ACAD_REACTORS
330
486
102
}
330
486
100
AcDbVisualStyle
  2
OverhangOff
 70
    21
177
     3
291
     1
 70
    58
 90
        2
176
     0
 90
        2
176
     0
 90
        0
176
     0
 90
        0
176
     0
 40
0.6
176
     0
 40
30.0
176
     0
 62
     7
420
 16777215
176
     0
 90
        1
176
     0
 90
        4
176
     0
 62
     7
176
     0
 62
   257
176
     0
 90
        1
176
     0
 90
        1
176
     0
 40
1.0
176
     0
 90
        9
176
     2
 62
     7
176
     0
 40
1.0
176
     0
 90
        1
176
     0
 90
        6
176
     0
 90
        2
176
     0
 62
     7
176
     0
 90
        5
176
     0
 90
        0
176
     0
 90
        0
176
     0
290
     0
176
     0
 90
        1
176
     0
 40
0.0
176
     0
 90
        0
176
     0
290
     0
176
     0
290
     1
176
     0
290
     1
176
     0
290
     0
176
     0
290
     0
176
     0
290
     0
176
     0
290
     0
176
     0
290
     0
176
     0
290
     0
176
     0
 90
       50
176
     0
 40
0.0
176
     0
 40
1.0
176
     0
 90
        0
176
     0
 62
    18
420
        0
176
     0
 90
       50
176
     0
 90
        3
176
     0
 62
     5
420
      255
176
     0
290
     0
176
     0
 90
       50
176
     0
 90
       50
176
     0
 90
       50
176
     0
290
     0
176
     0
 90
       50
176
     0
 62
   256
176
     0
 40
1.0
176
     0
 90
        2
176
     0
  1
strokes_ogs.tif
176
     0
290
     0
176
     0
 40
1.0
176
     0
 40
1.0
176
     0
  0
VISUALSTYLE
  5
48F
102
{ACAD_REACTORS
330
486
102
}
330
486
100
AcDbVisualStyle
  2
Realistic
 70
     8
177
     3
291
     0
 70
    58
 90
        2
176
     1
 90
        3
176
     1
 90
        0
176
     1
 90
        2
176
     1
 40
0.6
176
     1
 40
30.0
176
     1
 62
     7
420
 16777215
176
     1
 90
        0
176
     1
 90
        0
176
     1
 62
     7
176
     1
 62
   257
176
     1
 90
        1
176
     1
 90
        1
176
     1
 40
1.0
176
     1
 90
        8
176
     1
 62
   257
176
     1
 40
1.0
176
     1
 90
        1
176
     1
 90
        6
176
     1
 90
        2
176
     1
 62
     7
176
     1
 90
        3
176
     1
 90
        0
176
     1
 90
        0
176
     1
290
     0
176
     1
 90
       13
176
     1
 40
0.0
176
     1
 90
        0
176
     1
290
     0
176
     1
290
     1
176
     1
290
     1
176
     1
290
     0
176
     1
290
     0
176
     1
290
     0
176
     1
290
     0
176
     1
290
     0
176
     1
290
     0
176
     1
 90
       50
176
     1
 40
0.0
176
     1
 40
1.0
176
     1
 90
        0
176
     1
 62
    18
420
        0
176
     1
 90
       50
176
     1
 90
        3
176
     1
 62
     5
420
      255
176
     1
290
     0
176
     1
 90
       50
176
     1
 90
       50
176
     1
 90
       50
176
     1
290
     0
176
     1
 90
       50
176
     1
 62
   256
176
     0
 40
1.0
176
     0
 90
        2
176
     1
  1
strokes_ogs.tif
176
     1
290
     0
176
     1
 40
1.0
176
     1
 40
1.0
176
     1
  0
VISUALSTYLE
  5
49E
102
{ACAD_REACTORS
330
486
102
}
330
486
100
AcDbVisualStyle
  2
Shaded
 70
    27
177
     3
291
     0
 70
    58
 90
        2
176
     1
 90
        2
176
     1
 90
        1
176
     1
 90
        2
176
     1
 40
0.6
176
     1
 40
30.0
176
     1
 62
     7
420
 16777215
176
     1
 90
        0
176
     1
 90
        4
176
     1
 62
     7
176
     1
 62
   257
176
     1
 90
        1
176
     1
 90
        1
176
     1
 40
1.0
176
     1
 90
        8
176
     1
 62
   257
176
     1
 40
1.0
176
     1
 90
        1
176
     1
 90
        6
176
     1
 90
        2
176
     1
 62
     8
420
  7895160
176
     1
 90
        3
176
     1
 90
        0
176
     1
 90
        0
176
     1
290
     0
176
     1
 90
        5
176
     1
 40
0.0
176
     1
 90
        0
176
     1
290
     0
176
     1
290
     1
176
     1
290
     1
176
     1
290
     0
176
     1
290
     0
176
     1
290
     0
176
     1
290
     0
176
     1
290
     0
176
     1
290
     0
176
     1
 90
       50
176
     1
 40
0.0
176
     1
 40
1.0
176
     1
 90
        0
176
     1
 62
    18
420
        0
176
     1
 90
       50
176
     1
 90
        3
176
     1
 62
     5
420
      255
176
     1
290
     0
176
     1
 90
       50
176
     1
 90
       50
176
     1
 90
       50
176
     1
290
     0
176
     1
 90
       50
176
     1
 62
   256
176
     0
 40
1.0
176
     0
 90
        2
176
     1
  1
strokes_ogs.tif
176
     1
290
     0
176
     1
 40
1.0
176
     1
 40
1.0
176
     1
  0
VISUALSTYLE
  5
49D
102
{ACAD_REACTORS
330
486
102
}
330
486
100
AcDbVisualStyle
  2
Shaded with edges
 70
    26
177
     3
291
     0
 70
    58
 90
        2
176
     1
 90
        2
176
     1
 90
        1
176
     1
 90
        2
176
     1
 40
0.6
176
     1
 40
30.0
176
     1
 62
     7
420
 16777215
176
     1
 90
        1
176
     1
 90
       10
176
     1
 62
     7
176
     1
 62
   257
176
     1
 90
        2
176
     1
 90
        1
176
     1
 40
1.0
176
     1
 90
        8
176
     1
 62
   257
176
     1
 40
1.0
176
     1
 90
        1
176
     1
 90
        6
176
     1
 90
        2
176
     1
 62
     7
176
     1
 90
        3
176
     1
 90
        0
176
     1
 90
        0
176
     1
290
     0
176
     1
 90
        5
176
     1
 40
0.0
176
     1
 90
        0
176
     1
290
     0
176
     1
290
     1
176
     1
290
     1
176
     1
290
     0
176
     1
290
     0
176
     1
290
     0
176
     1
290
     0
176
     1
290
     0
176
     1
290
     0
176
     1
 90
       50
176
     1
 40
0.0
176
     1
 40
1.0
176
     1
 90
        0
176
     1
 62
    18
420
        0
176
     1
 90
       50
176
     1
 90
        3
176
     1
 62
     5
420
      255
176
     1
290
     0
176
     1
 90
       50
176
     1
 90
       50
176
     1
 90
       50
176
     1
290
     0
176
     1
 90
       50
176
     1
 62
   256
176
     0
 40
1.0
176
     0
 90
        2
176
     1
  1
strokes_ogs.tif
176
     1
290
     0
176
     1
 40
1.0
176
     1
 40
1.0
176
     1
  0
VISUALSTYLE
  5
49A
102
{ACAD_REACTORS
330
486
102
}
330
486
100
AcDbVisualStyle
  2
Shades of Gray
 70
    23
177
     3
291
     0
 70
    58
 90
        2
176
     1
 90
        2
176
     1
 90
        3
176
     1
 90
        0
176
     1
 40
0.6
176
     1
 40
30.0
176
     1
 62
     7
420
 16777215
176
     1
 90
        2
176
     1
 90
        2
176
     1
 62
     7
176
     1
 62
     7
176
     1
 90
        1
176
     1
 90
        1
176
     1
 40
40.0
176
     1
 90
        8
176
     1
 62
     7
176
     1
 40
1.0
176
     1
 90
        1
176
     1
 90
        6
176
     1
 90
        2
176
     1
 62
     7
176
     1
 90
        3
176
     1
 90
        0
176
     1
 90
        0
176
     1
290
     0
176
     1
 90
        1
176
     1
 40
0.0
176
     1
 90
        0
176
     1
290
     0
176
     1
290
     1
176
     1
290
     1
176
     1
290
     0
176
     1
290
     0
176
     1
290
     0
176
     1
290
     0
176
     1
290
     0
176
     1
290
     0
176
     1
 90
       50
176
     1
 40
0.0
176
     1
 40
1.0
176
     1
 90
        0
176
     1
 62
    18
420
        0
176
     1
 90
       50
176
     1
 90
        3
176
     1
 62
     5
420
      255
176
     1
290
     0
176
     1
 90
       50
176
     1
 90
       50
176
     1
 90
       50
176
     1
290
     0
176
     1
 90
       50
176
     1
 62
   256
176
     0
 40
1.0
176
     0
 90
        2
176
     1
  1
strokes_ogs.tif
176
     1
290
     0
176
     1
 40
1.0
176
     1
 40
1.0
176
     1
  0
VISUALSTYLE
  5
49B
102
{ACAD_REACTORS
330
486
102
}
330
486
100
AcDbVisualStyle
  2
Sketchy
 70
    24
177
     3
291
     0
 70
    58
 90
        1
176
     1
 90
        2
176
     1
 90
        2
176
     1
 90
        0
176
     1
 40
0.6
176
     1
 40
30.0
176
     1
 62
     7
420
 16777215
176
     1
 90
        2
176
     1
 90
        2
176
     1
 62
     7
176
     1
 62
     7
176
     1
 90
        1
176
     1
 90
        1
176
     1
 40
40.0
176
     1
 90
       11
176
     1
 62
     7
176
     1
 40
1.0
176
     1
 90
        1
176
     1
 90
        6
176
     1
 90
        2
176
     1
 62
     7
176
     1
 90
        6
176
     1
 90
        0
176
     1
 90
        0
176
     1
290
     0
176
     1
 90
        1
176
     1
 40
0.0
176
     1
 90
        0
176
     1
290
     0
176
     1
290
     1
176
     1
290
     1
176
     1
290
     0
176
     1
290
     0
176
     1
290
     0
176
     1
290
     0
176
     1
290
     0
176
     1
290
     0
176
     1
 90
       50
176
     1
 40
0.0
176
     1
 40
1.0
176
     1
 90
        0
176
     1
 62
    18
420
        0
176
     1
 90
       50
176
     1
 90
        3
176
     1
 62
     5
420
      255
176
     1
290
     0
176
     1
 90
       50
176
     1
 90
       50
176
     1
 90
       50
176
     1
290
     0
176
     1
 90
       50
176
     1
 62
   256
176
     0
 40
1.0
176
     0
 90
        2
176
     1
  1
strokes_ogs.tif
176
     1
290
     0
176
     1
 40
1.0
176
     1
 40
1.0
176
     1
  0
VISUALSTYLE
  5
493
102
{ACAD_REACTORS
330
486
102
}
330
486
100
AcDbVisualStyle
  2
Thicken
 70
    13
177
     3
291
     1
 70
    58
 90
        2
176
     1
 90
        2
176
     1
 90
        0
176
     1
 90
        0
176
     1
 40
0.6
176
     1
 40
30.0
176
     1
 62
     7
420
 16777215
176
     1
 90
        1
176
     1
 90
        4
176
     1
 62
     7
176
     1
 62
   257
176
     1
 90
        1
176
     1
 90
        1
176
     1
 40
1.0
176
     1
 90
       12
176
     1
 62
     7
176
     1
 40
1.0
176
     1
 90
        1
176
     1
 90
        6
176
     1
 90
        2
176
     1
 62
     7
176
     1
 90
        5
176
     1
 90
        0
176
     1
 90
        0
176
     1
290
     0
176
     1
 90
        1
176
     1
 40
0.0
176
     1
 90
        0
176
     1
290
     0
176
     1
290
     1
176
     1
290
     1
176
     1
290
     0
176
     1
290
     0
176
     1
290
     0
176
     1
290
     0
176
     1
290
     0
176
     1
290
     0
176
     1
 90
       50
176
     1
 40
0.0
176
     1
 40
1.0
176
     1
 90
        0
176
     1
 62
    18
420
        0
176
     1
 90
       50
176
     1
 90
        3
176
     1
 62
     5
420
      255
176
     1
290
     0
176
     1
 90
       50
176
     1
 90
       50
176
     1
 90
       50
176
     1
290
     0
176
     1
 90
       50
176
     1
 62
   256
176
     0
 40
1.0
176
     0
 90
        2
176
     1
  1
strokes_ogs.tif
176
     1
290
     0
176
     1
 40
1.0
176
     1
 40
1.0
176
     1
  0
VISUALSTYLE
  5
48C
102
{ACAD_REACTORS
330
486
102
}
330
486
100
AcDbVisualStyle
  2
Wireframe
 70
     5
177
     3
291
     0
 70
    58
 90
        0
176
     1
 90
        2
176
     1
 90
        0
176
     1
 90
        0
176
     1
 40
0.6
176
     1
 40
30.0
176
     1
 62
     7
420
 16777215
176
     1
 90
        1
176
     1
 90
        4
176
     1
 62
     7
176
     1
 62
   257
176
     1
 90
        1
176
     1
 90
        1
176
     1
 40
1.0
176
     1
 90
        0
176
     1
 62
   257
176
     1
 40
1.0
176
     1
 90
        1
176
     1
 90
        6
176
     1
 90
        2
176
     1
 62
     7
176
     1
 90
        3
176
     1
 90
        0
176
     1
 90
        0
176
     1
290
     0
176
     1
 90
        1
176
     1
 40
0.0
176
     1
 90
        0
176
     1
290
     0
176
     1
290
     1
176
     1
290
     1
176
     1
290
     0
176
     1
290
     0
176
     1
290
     0
176
     1
290
     0
176
     1
290
     0
176
     1
290
     0
176
     1
 90
       50
176
     1
 40
0.0
176
     1
 40
1.0
176
     1
 90
        0
176
     1
 62
    18
420
        0
176
     1
 90
       50
176
     1
 90
        3
176
     1
 62
     5
420
      255
176
     1
290
     0
176
     1
 90
       50
176
     1
 90
       50
176
     1
 90
       50
176
     1
290
     0
176
     1
 90
       50
176
     1
 62
   256
176
     0
 40
1.0
176
     0
 90
        2
176
     1
  1
strokes_ogs.tif
176
     1
290
     0
176
     1
 40
1.0
176
     1
 40
1.0
176
     1
  0
VISUALSTYLE
  5
49C
102
{ACAD_REACTORS
330
486
102
}
330
486
100
AcDbVisualStyle
  2
X-Ray
 70
    25
177
     3
291
     0
 70
    58
 90
        2
176
     1
 90
        2
176
     1
 90
        1
176
     1
 90
        1
176
     1
 40
0.5
176
     1
 40
30.0
176
     1
 62
     7
420
 16777215
176
     1
 90
        1
176
     1
 90
        0
176
     1
 62
     7
176
     1
 62
   257
176
     1
 90
        1
176
     1
 90
        1
176
     1
 40
1.0
176
     1
 90
        8
176
     1
 62
     7
176
     1
 40
1.0
176
     1
 90
        1
176
     1
 90
        6
176
     1
 90
        2
176
     1
 62
     7
176
     1
 90
        3
176
     1
 90
        0
176
     1
 90
        0
176
     1
290
     0
176
     1
 90
       13
176
     1
 40
0.0
176
     1
 90
        0
176
     1
290
     0
176
     1
290
     1
176
     1
290
     1
176
     1
290
     0
176
     1
290
     0
176
     1
290
     0
176
     1
290
     0
176
     1
290
     0
176
     1
290
     0
176
     1
 90
       50
176
     1
 40
0.0
176
     1
 40
1.0
176
     1
 90
        0
176
     1
 62
    18
420
        0
176
     1
 90
       50
176
     1
 90
        3
176
     1
 62
     5
420
      255
176
     1
290
     0
176
     1
 90
       50
176
     1
 90
       50
176
     1
 90
       50
176
     1
290
     0
176
     1
 90
       50
176
     1
 62
   256
176
     0
 40
1.0
176
     0
 90
        2
176
     1
  1
strokes_ogs.tif
176
     1
290
     0
176
     1
 40
1.0
176
     1
 40
1.0
176
     1
  0
DICTIONARYVAR
  5
4A9
102
{ACAD_REACTORS
330
4A8
102
}
330
4A8
100
DictionaryVariables
280
     0
  1
1:1
  0
DICTIONARYVAR
  5
4AE
102
{ACAD_REACTORS
330
4A8
102
}
330
4A8
100
DictionaryVariables
280
     0
  1
Standard
  0
DICTIONARYVAR
  5
4AD
102
{ACAD_REACTORS
330
4A8
102
}
330
4A8
100
DictionaryVariables
280
     0
  1
Standard
  0
DICTIONARYVAR
  5
4AF
102
{ACAD_REACTORS
330
4A8
102
}
330
4A8
100
DictionaryVariables
280
     0
  1
0
  0
DICTIONARY
  5
4AA
330
4A4
100
AcDbDictionary
280
     1
281
     1
  3
ACAD_ROUNDTRIP_2008_TABLESTYLE_CELLSTYLEMAP
360
4AB
  0
CELLSTYLEMAP
  5
4AB
102
{ACAD_REACTORS
330
4AA
102
}
330
4AA
100
AcDbCellStyleMap
 90
        3
300
CELLSTYLE
  1
TABLEFORMAT_BEGIN
 90
        5
170
     1
 91
        0
 92
    32768
 62
   257
 93
        1
300
CONTENTFORMAT
  1
CONTENTFORMAT_BEGIN
 90
        0
 91
        0
 92
        4
 93
        0
300

 40
0.0
140
1.0
 94
        5
 62
     0
340
11
144
6.0
309
CONTENTFORMAT_END
171
     1
301
MARGIN
  1
CELLMARGIN_BEGIN
 40
1.5
 40
1.5
 40
1.5
 40
1.5
 40
1.5
 40
1.5
309
CELLMARGIN_END
 94
        6
 95
        1
302
GRIDFORMAT
  1
GRIDFORMAT_BEGIN
 90
        0
 91
        1
 62
     0
 92
       -2
340
14
 93
        0
 40
0.045
309
GRIDFORMAT_END
 95
        2
302
GRIDFORMAT
  1
GRIDFORMAT_BEGIN
 90
        0
 91
        1
 62
     0
 92
       -2
340
14
 93
        0
 40
0.045
309
GRIDFORMAT_END
 95
        4
302
GRIDFORMAT
  1
GRIDFORMAT_BEGIN
 90
        0
 91
        1
 62
     0
 92
       -2
340
14
 93
        0
 40
0.045
309
GRIDFORMAT_END
 95
        8
302
GRIDFORMAT
  1
GRIDFORMAT_BEGIN
 90
        0
 91
        1
 62
     0
 92
       -2
340
14
 93
        0
 40
0.045
309
GRIDFORMAT_END
 95
       16
302
GRIDFORMAT
  1
GRIDFORMAT_BEGIN
 90
        0
 91
        1
 62
     0
 92
       -2
340
14
 93
        0
 40
0.045
309
GRIDFORMAT_END
 95
       32
302
GRIDFORMAT
  1
GRIDFORMAT_BEGIN
 90
        0
 91
        1
 62
     0
 92
       -2
340
14
 93
        0
 40
0.045
309
GRIDFORMAT_END
309
TABLEFORMAT_END
  1
CELLSTYLE_BEGIN
 90
        1
 91
        1
300
_TITLE
309
CELLSTYLE_END
300
CELLSTYLE
  1
TABLEFORMAT_BEGIN
 90
        5
170
     1
 91
        0
 92
        0
 62
   257
 93
        1
300
CONTENTFORMAT
  1
CONTENTFORMAT_BEGIN
 90
        0
 91
        0
 92
        4
 93
        0
300

 40
0.0
140
1.0
 94
        5
 62
     0
340
11
144
4.5
309
CONTENTFORMAT_END
171
     1
301
MARGIN
  1
CELLMARGIN_BEGIN
 40
1.5
 40
1.5
 40
1.5
 40
1.5
 40
1.5
 40
1.5
309
CELLMARGIN_END
 94
        6
 95
        1
302
GRIDFORMAT
  1
GRIDFORMAT_BEGIN
 90
        0
 91
        1
 62
     0
 92
       -2
340
14
 93
        0
 40
0.045
309
GRIDFORMAT_END
 95
        2
302
GRIDFORMAT
  1
GRIDFORMAT_BEGIN
 90
        0
 91
        1
 62
     0
 92
       -2
340
14
 93
        0
 40
0.045
309
GRIDFORMAT_END
 95
        4
302
GRIDFORMAT
  1
GRIDFORMAT_BEGIN
 90
        0
 91
        1
 62
     0
 92
       -2
340
14
 93
        0
 40
0.045
309
GRIDFORMAT_END
 95
        8
302
GRIDFORMAT
  1
GRIDFORMAT_BEGIN
 90
        0
 91
        1
 62
     0
 92
       -2
340
14
 93
        0
 40
0.045
309
GRIDFORMAT_END
 95
       16
302
GRIDFORMAT
  1
GRIDFORMAT_BEGIN
 90
        0
 91
        1
 62
     0
 92
       -2
340
14
 93
        0
 40
0.045
309
GRIDFORMAT_END
 95
       32
302
GRIDFORMAT
  1
GRIDFORMAT_BEGIN
 90
        0
 91
        1
 62
     0
 92
       -2
340
14
 93
        0
 40
0.045
309
GRIDFORMAT_END
309
TABLEFORMAT_END
  1
CELLSTYLE_BEGIN
 90
        2
 91
        1
300
_HEADER
309
CELLSTYLE_END
300
CELLSTYLE
  1
TABLEFORMAT_BEGIN
 90
        5
170
     1
 91
        0
 92
        0
 62
   257
 93
        1
300
CONTENTFORMAT
  1
CONTENTFORMAT_BEGIN
 90
        0
 91
        0
 92
        4
 93
        0
300

 40
0.0
140
1.0
 94
        2
 62
     0
340
11
144
4.5
309
CONTENTFORMAT_END
171
     1
301
MARGIN
  1
CELLMARGIN_BEGIN
 40
1.5
 40
1.5
 40
1.5
 40
1.5
 40
1.5
 40
1.5
309
CELLMARGIN_END
 94
        6
 95
        1
302
GRIDFORMAT
  1
GRIDFORMAT_BEGIN
 90
        0
 91
        1
 62
     0
 92
       -2
340
14
 93
        0
 40
0.045
309
GRIDFORMAT_END
 95
        2
302
GRIDFORMAT
  1
GRIDFORMAT_BEGIN
 90
        0
 91
        1
 62
     0
 92
       -2
340
14
 93
        0
 40
0.045
309
GRIDFORMAT_END
 95
        4
302
GRIDFORMAT
  1
GRIDFORMAT_BEGIN
 90
        0
 91
        1
 62
     0
 92
       -2
340
14
 93
        0
 40
0.045
309
GRIDFORMAT_END
 95
        8
302
GRIDFORMAT
  1
GRIDFORMAT_BEGIN
 90
        0
 91
        1
 62
     0
 92
       -2
340
14
 93
        0
 40
0.045
309
GRIDFORMAT_END
 95
       16
302
GRIDFORMAT
  1
GRIDFORMAT_BEGIN
 90
        0
 91
        1
 62
     0
 92
       -2
340
14
 93
        0
 40
0.045
309
GRIDFORMAT_END
 95
       32
302
GRIDFORMAT
  1
GRIDFORMAT_BEGIN
 90
        0
 91
        1
 62
     0
 92
       -2
340
14
 93
        0
 40
0.045
309
GRIDFORMAT_END
309
TABLEFORMAT_END
  1
CELLSTYLE_BEGIN
 90
        3
 91
        2
300
_DATA
309
CELLSTYLE_END
  0
ENDSEC
  0
EOF
