  0
SECTION
  2
HEADER
  9
$ACADVER
  1
AC1027
  9
$ACADMAINTVER
 70
   105
  9
$DWGCODEPAGE
  3
ANSI_1252
  9
$REQUIREDVERSIONS
160
                 0
  9
$LASTSAVEDBY
  1
andrea.zolin
  9
$INSBASE
 10
0.0
 20
0.0
 30
0.0
  9
$EXTMIN
 10
0.0
 20
0.0
 30
0.0
  9
$EXTMAX
 10
841.0
 20
594.0
 30
0.0
  9
$LIMMIN
 10
0.0
 20
0.0
  9
$LIMMAX
 10
841.0
 20
594.0
  9
$ORTHOMODE
 70
     0
  9
$REGENMODE
 70
     1
  9
$FILLMODE
 70
     1
  9
$QTEXTMODE
 70
     0
  9
$MIRRTEXT
 70
     1
  9
$LTSCALE
 40
46.255
  9
$ATTMODE
 70
     1
  9
$TEXTSIZE
 40
0.2
  9
$TRACEWID
 40
0.05
  9
$TEXTSTYLE
  7
STANDARD
  9
$CLAYER
  8
0
  9
$CELTYPE
  6
BYLAYER
  9
$CECOLOR
 62
   256
  9
$CELTSCALE
 40
1.0
  9
$DISPSILH
 70
     0
  9
$DIMSCALE
 40
1.0
  9
$DIMASZ
 40
2.5
  9
$DIMEXO
 40
0.75
  9
$DIMDLI
 40
31.958
  9
$DIMRND
 40
0.0
  9
$DIMDLE
 40
0.0
  9
$DIMEXE
 40
0.75
  9
$DIMTP
 40
0.01
  9
$DIMTM
 40
0.01
  9
$DIMTXT
 40
3.0
  9
$DIMCEN
 40
7.569
  9
$DIMTSZ
 40
0.0
  9
$DIMTOL
 70
     1
  9
$DIMLIM
 70
     0
  9
$DIMTIH
 70
     1
  9
$DIMTOH
 70
     1
  9
$DIMSE1
 70
     0
  9
$DIMSE2
 70
     0
  9
$DIMTAD
 70
     0
  9
$DIMZIN
 70
     0
  9
$DIMBLK
  1
CLOSED
  9
$DIMASO
 70
     1
  9
$DIMSHO
 70
     1
  9
$DIMPOST
  1

  9
$DIMAPOST
  1

  9
$DIMALT
 70
     0
  9
$DIMALTD
 70
     2
  9
$DIMALTF
 40
25.4
  9
$DIMLFAC
 40
1.0
  9
$DIMTOFL
 70
     0
  9
$DIMTVP
 40
0.0
  9
$DIMTIX
 70
     0
  9
$DIMSOXD
 70
     0
  9
$DIMSAH
 70
     0
  9
$DIMBLK1
  1

  9
$DIMBLK2
  1

  9
$DIMSTYLE
  2
STANDARD
  9
$DIMCLRD
 70
     0
  9
$DIMCLRE
 70
     0
  9
$DIMCLRT
 70
     0
  9
$DIMTFAC
 40
1.0
  9
$DIMGAP
 40
0.625
  9
$DIMJUST
 70
     0
  9
$DIMSD1
 70
     0
  9
$DIMSD2
 70
     0
  9
$DIMTOLJ
 70
     1
  9
$DIMTZIN
 70
     0
  9
$DIMALTZ
 70
     0
  9
$DIMALTTZ
 70
     0
  9
$DIMUPT
 70
     0
  9
$DIMDEC
 70
     4
  9
$DIMTDEC
 70
     4
  9
$DIMALTU
 70
     2
  9
$DIMALTTD
 70
     2
  9
$DIMTXSTY
  7
STANDARD
  9
$DIMAUNIT
 70
     0
  9
$DIMADEC
 70
     0
  9
$DIMALTRND
 40
0.0
  9
$DIMAZIN
 70
     0
  9
$DIMDSEP
 70
    46
  9
$DIMATFIT
 70
     3
  9
$DIMFRAC
 70
     0
  9
$DIMLDRBLK
  1

  9
$DIMLUNIT
 70
     2
  9
$DIMLWD
 70
    -2
  9
$DIMLWE
 70
    -2
  9
$DIMTMOVE
 70
     2
  9
$DIMFXL
 40
1.0
  9
$DIMFXLON
 70
     0
  9
$DIMJOGANG
 40
0.7853981633974483
  9
$DIMTFILL
 70
     0
  9
$DIMTFILLCLR
 70
     0
  9
$DIMARCSYM
 70
     0
  9
$DIMLTYPE
  6

  9
$DIMLTEX1
  6

  9
$DIMLTEX2
  6

  9
$DIMTXTDIRECTION
 70
     0
  9
$LUNITS
 70
     2
  9
$LUPREC
 70
     4
  9
$SKETCHINC
 40
0.1
  9
$FILLETRAD
 40
0.5
  9
$AUNITS
 70
     0
  9
$AUPREC
 70
     0
  9
$MENU
  1
.
  9
$ELEVATION
 40
0.0
  9
$PELEVATION
 40
0.0
  9
$THICKNESS
 40
0.0
  9
$LIMCHECK
 70
     0
  9
$CHAMFERA
 40
0.0
  9
$CHAMFERB
 40
0.0
  9
$CHAMFERC
 40
0.0
  9
$CHAMFERD
 40
0.0
  9
$SKPOLY
 70
     0
  9
$TDCREATE
 40
2447893.041666667
  9
$TDUCREATE
 40
0.0
  9
$TDUPDATE
 40
2458466.330928889
  9
$TDUUPDATE
 40
2458466.289262222
  9
$TDINDWG
 40
0.0003584491
  9
$TDUSRTIMER
 40
0.0003584491
  9
$USRTIMER
 70
     1
  9
$ANGBASE
 50
0.0
  9
$ANGDIR
 70
     0
  9
$PDMODE
 70
     3
  9
$PDSIZE
 40
0.3125
  9
$PLINEWID
 40
0.0
  9
$SPLFRAME
 70
     0
  9
$SPLINETYPE
 70
     6
  9
$SPLINESEGS
 70
     8
  9
$HANDSEED
  5
49E
  9
$SURFTAB1
 70
     6
  9
$SURFTAB2
 70
     6
  9
$SURFTYPE
 70
     6
  9
$SURFU
 70
     6
  9
$SURFV
 70
     6
  9
$UCSBASE
  2

  9
$UCSNAME
  2

  9
$UCSORG
 10
0.0
 20
0.0
 30
0.0
  9
$UCSXDIR
 10
1.0
 20
0.0
 30
0.0
  9
$UCSYDIR
 10
0.0
 20
1.0
 30
0.0
  9
$UCSORTHOREF
  2

  9
$UCSORTHOVIEW
 70
     0
  9
$UCSORGTOP
 10
0.0
 20
0.0
 30
0.0
  9
$UCSORGBOTTOM
 10
0.0
 20
0.0
 30
0.0
  9
$UCSORGLEFT
 10
0.0
 20
0.0
 30
0.0
  9
$UCSORGRIGHT
 10
0.0
 20
0.0
 30
0.0
  9
$UCSORGFRONT
 10
0.0
 20
0.0
 30
0.0
  9
$UCSORGBACK
 10
0.0
 20
0.0
 30
0.0
  9
$PUCSBASE
  2

  9
$PUCSNAME
  2

  9
$PUCSORG
 10
0.0
 20
0.0
 30
0.0
  9
$PUCSXDIR
 10
1.0
 20
0.0
 30
0.0
  9
$PUCSYDIR
 10
0.0
 20
1.0
 30
0.0
  9
$PUCSORTHOREF
  2

  9
$PUCSORTHOVIEW
 70
     0
  9
$PUCSORGTOP
 10
0.0
 20
0.0
 30
0.0
  9
$PUCSORGBOTTOM
 10
0.0
 20
0.0
 30
0.0
  9
$PUCSORGLEFT
 10
0.0
 20
0.0
 30
0.0
  9
$PUCSORGRIGHT
 10
0.0
 20
0.0
 30
0.0
  9
$PUCSORGFRONT
 10
0.0
 20
0.0
 30
0.0
  9
$PUCSORGBACK
 10
0.0
 20
0.0
 30
0.0
  9
$USERI1
 70
     0
  9
$USERI2
 70
     0
  9
$USERI3
 70
     0
  9
$USERI4
 70
     0
  9
$USERI5
 70
     0
  9
$USERR1
 40
0.0
  9
$USERR2
 40
0.0
  9
$USERR3
 40
0.0
  9
$USERR4
 40
0.0
  9
$USERR5
 40
0.0
  9
$WORLDVIEW
 70
     1
  9
$SHADEDGE
 70
     3
  9
$SHADEDIF
 70
    70
  9
$TILEMODE
 70
     0
  9
$MAXACTVP
 70
    64
  9
$PINSBASE
 10
0.0
 20
0.0
 30
0.0
  9
$PLIMCHECK
 70
     0
  9
$PEXTMIN
 10
0.0
 20
0.0
 30
0.0
  9
$PEXTMAX
 10
841.0
 20
594.0
 30
0.0
  9
$PLIMMIN
 10
-17.33463035019455
 20
-46.22568093385214
  9
$PLIMMAX
 10
953.4046692607004
 20
640.2256809338521
  9
$UNITMODE
 70
     0
  9
$VISRETAIN
 70
     1
  9
$PLINEGEN
 70
     0
  9
$PSLTSCALE
 70
     1
  9
$TREEDEPTH
 70
  3020
  9
$CMLSTYLE
  2
STANDARD
  9
$CMLJUST
 70
     0
  9
$CMLSCALE
 40
1.0
  9
$PROXYGRAPHICS
 70
     1
  9
$MEASUREMENT
 70
     1
  9
$CELWEIGHT
370
    -1
  9
$ENDCAPS
280
     0
  9
$JOINSTYLE
280
     0
  9
$LWDISPLAY
290
     0
  9
$INSUNITS
 70
     0
  9
$HYPERLINKBASE
  1

  9
$STYLESHEET
  1

  9
$XEDIT
290
     1
  9
$CEPSNTYPE
380
     0
  9
$PSTYLEMODE
290
     1
  9
$FINGERPRINTGUID
  2
{0FF37785-DBED-4C70-A48D-91C1B5C4FA2E}
  9
$VERSIONGUID
  2
{FAEB1C32-E019-11D5-929B-00C0DF256EC4}
  9
$EXTNAMES
290
     1
  9
$PSVPSCALE
 40
0.0
  9
$OLESTARTUP
290
     0
  9
$SORTENTS
280
   127
  9
$INDEXCTL
280
     0
  9
$HIDETEXT
280
     1
  9
$XCLIPFRAME
280
     2
  9
$HALOGAP
280
     0
  9
$OBSCOLOR
 70
   257
  9
$OBSLTYPE
280
     0
  9
$INTERSECTIONDISPLAY
280
     0
  9
$INTERSECTIONCOLOR
 70
   257
  9
$DIMASSOC
280
     2
  9
$PROJECTNAME
  1

  9
$CAMERADISPLAY
290
     0
  9
$LENSLENGTH
 40
50.0
  9
$CAMERAHEIGHT
 40
0.0
  9
$STEPSPERSEC
 40
2.0
  9
$STEPSIZE
 40
6.0
  9
$3DDWFPREC
 40
2.0
  9
$PSOLWIDTH
 40
0.25
  9
$PSOLHEIGHT
 40
4.0
  9
$LOFTANG1
 40
1.570796326794897
  9
$LOFTANG2
 40
1.570796326794897
  9
$LOFTMAG1
 40
0.0
  9
$LOFTMAG2
 40
0.0
  9
$LOFTPARAM
 70
     7
  9
$LOFTNORMALS
280
     1
  9
$LATITUDE
 40
37.795
  9
$LONGITUDE
 40
-122.394
  9
$NORTHDIRECTION
 40
0.0
  9
$TIMEZONE
 70
 -8000
  9
$LIGHTGLYPHDISPLAY
280
     1
  9
$TILEMODELIGHTSYNCH
280
     1
  9
$SOLIDHIST
280
     0
  9
$SHOWHIST
280
     1
  9
$DWFFRAME
280
     2
  9
$DGNFRAME
280
     2
  9
$REALWORLDSCALE
290
     1
  9
$INTERFERECOLOR
 62
   256
  9
$CSHADOW
280
     0
  9
$SHADOWPLANELOCATION
 40
0.0
  0
ENDSEC
  0
SECTION
  2
CLASSES
  0
CLASS
  1
ACDBDICTIONARYWDFLT
  2
AcDbDictionaryWithDefault
  3
ObjectDBX Classes
 90
        0
 91
        4
280
     0
281
     0
  0
CLASS
  1
SCALE
  2
AcDbScale
  3
ObjectDBX Classes
 90
     1153
 91
        4
280
     0
281
     0
  0
CLASS
  1
VISUALSTYLE
  2
AcDbVisualStyle
  3
ObjectDBX Classes
 90
     4095
 91
        4
280
     0
281
     0
  0
CLASS
  1
MATERIAL
  2
AcDbMaterial
  3
ObjectDBX Classes
 90
     1153
 91
        4
280
     0
281
     0
  0
CLASS
  1
TABLESTYLE
  2
AcDbTableStyle
  3
ObjectDBX Classes
 90
     4095
 91
        4
280
     0
281
     0
  0
CLASS
  1
MLEADERSTYLE
  2
AcDbMLeaderStyle
  3
ACDB_MLEADERSTYLE_CLASS
 90
     4095
 91
        4
280
     0
281
     0
  0
CLASS
  1
DICTIONARYVAR
  2
AcDbDictionaryVar
  3
ObjectDBX Classes
 90
        0
 91
        4
280
     0
281
     0
  0
CLASS
  1
CELLSTYLEMAP
  2
AcDbCellStyleMap
  3
ObjectDBX Classes
 90
     1152
 91
        4
280
     0
281
     0
  0
ENDSEC
  0
SECTION
  2
TABLES
  0
TABLE
  2
VPORT
  5
8
330
0
100
AcDbSymbolTable
 70
     1
  0
VPORT
  5
1F4
330
8
100
AcDbSymbolTableRecord
100
AcDbViewportTableRecord
  2
*ACTIVE
 70
     0
 10
0.0
 20
0.0
 11
1.0
 21
1.0
 12
420.5
 22
297.0
 13
0.0
 23
0.0
 14
1.0
 24
1.0
 15
0.0
 25
0.0
 16
0.0
 26
0.0
 36
1.0
 17
0.0
 27
0.0
 37
0.0
 40
594.0
 41
1.4158249158
 42
50.0
 43
0.0
 44
0.0
 50
0.0
 51
0.0
 71
     0
 72
   100
 73
     1
 74
     1
 75
     0
 76
     0
 77
     0
 78
     0
281
     0
 65
     1
110
0.0
120
0.0
130
0.0
111
1.0
121
0.0
131
0.0
112
0.0
122
1.0
132
0.0
 79
     0
146
0.0
348
477
 60
     3
 61
     5
292
     1
282
     1
141
0.0
142
0.0
 63
   256
  0
ENDTAB
  0
TABLE
  2
LTYPE
  5
5
330
0
100
AcDbSymbolTable
 70
     6
  0
LTYPE
  5
14
330
5
100
AcDbSymbolTableRecord
100
AcDbLinetypeTableRecord
  2
BYBLOCK
 70
     0
  3

 72
    65
 73
     0
 40
0.0
  0
LTYPE
  5
15
330
5
100
AcDbSymbolTableRecord
100
AcDbLinetypeTableRecord
  2
BYLAYER
 70
     0
  3

 72
    65
 73
     0
 40
0.0
  0
LTYPE
  5
16
330
5
100
AcDbSymbolTableRecord
100
AcDbLinetypeTableRecord
  2
CONTINUOUS
 70
     0
  3
Solid line
 72
    65
 73
     0
 40
0.0
  0
LTYPE
  5
1F5
330
5
100
AcDbSymbolTableRecord
100
AcDbLinetypeTableRecord
  2
CENTER
 70
     0
  3
____ _ ____ _ ____ _ ____ _ ____ _ ____ _ ____
 72
    65
 73
     4
 40
0.6
 49
0.375
 74
     0
 49
-0.075
 74
     0
 49
0.075
 74
     0
 49
-0.075
 74
     0
  0
LTYPE
  5
1F6
330
5
100
AcDbSymbolTableRecord
100
AcDbLinetypeTableRecord
  2
HIDDEN
 70
     0
  3
- - - - - - - - - - - - - - - - - - - -
 72
    65
 73
     2
 40
0.2
 49
0.1
 74
     0
 49
-0.1
 74
     0
  0
LTYPE
  5
1F7
330
5
100
AcDbSymbolTableRecord
100
AcDbLinetypeTableRecord
  2
PHANTOM
 70
     0
  3
_____ _ _ _____ _ _ _____ _ _ _____
 72
    65
 73
     6
 40
0.8
 49
0.45
 74
     0
 49
-0.05
 74
     0
 49
0.1
 74
     0
 49
-0.05
 74
     0
 49
0.1
 74
     0
 49
-0.05
 74
     0
  0
LTYPE
  5
1F8
330
5
100
AcDbSymbolTableRecord
100
AcDbLinetypeTableRecord
  2
DOT
 70
     0
  3
. . . . . . . . . . . . . . . . . . . .
 72
    65
 73
     2
 40
0.2
 49
0.1
 74
     0
 49
-0.1
 74
     0
  0
LTYPE
  5
1F9
330
5
100
AcDbSymbolTableRecord
100
AcDbLinetypeTableRecord
  2
DASHED
 70
     0
  3
- - - - - - - - - - - - - - - - - - - -
 72
    65
 73
     2
 40
0.2
 49
0.1
 74
     0
 49
-0.1
 74
     0
  0
ENDTAB
  0
TABLE
  2
LAYER
  5
2
330
0
100
AcDbSymbolTable
 70
    19
  0
LAYER
  5
10
330
2
100
AcDbSymbolTableRecord
100
AcDbLayerTableRecord
  2
0
 70
     0
 62
     7
  6
CONTINUOUS
370
    -3
390
44C
347
48E
348
0
  0
LAYER
  5
1FA
330
2
100
AcDbSymbolTableRecord
100
AcDbLayerTableRecord
  2
DEFAULT_1
 70
     0
 62
     7
  6
CENTER
370
    -3
390
44C
347
48E
348
0
  0
LAYER
  5
1FB
330
2
100
AcDbSymbolTableRecord
100
AcDbLayerTableRecord
  2
DEFAULT_2
 70
     0
 62
     8
  6
HIDDEN
370
    -3
390
44C
347
48E
348
0
  0
LAYER
  5
1FC
330
2
100
AcDbSymbolTableRecord
100
AcDbLayerTableRecord
  2
DEFAULT_3
 70
     0
 62
     7
  6
PHANTOM
370
    -3
390
44C
347
48E
348
0
  0
LAYER
  5
1FD
330
2
100
AcDbSymbolTableRecord
100
AcDbLayerTableRecord
  2
01___PRT_ALL_DTM_PLN
 70
     0
 62
     7
  6
CONTINUOUS
370
    -3
390
44C
347
48E
348
0
  0
LAYER
  5
1FE
330
2
100
AcDbSymbolTableRecord
100
AcDbLayerTableRecord
  2
01___PRT_DEF_DTM_PLN
 70
     0
 62
     7
  6
CONTINUOUS
370
    -3
390
44C
347
48E
348
0
  0
LAYER
  5
1FF
330
2
100
AcDbSymbolTableRecord
100
AcDbLayerTableRecord
  2
02___PRT_ALL_AXES
 70
     0
 62
     7
  6
CONTINUOUS
370
    -3
390
44C
347
48E
348
0
  0
LAYER
  5
200
330
2
100
AcDbSymbolTableRecord
100
AcDbLayerTableRecord
  2
03___PRT_ALL_CURVES
 70
     0
 62
     7
  6
CONTINUOUS
370
    -3
390
44C
347
48E
348
0
  0
LAYER
  5
201
330
2
100
AcDbSymbolTableRecord
100
AcDbLayerTableRecord
  2
04___PRT_ALL_DTM_PNT
 70
     0
 62
     7
  6
CONTINUOUS
370
    -3
390
44C
347
48E
348
0
  0
LAYER
  5
202
330
2
100
AcDbSymbolTableRecord
100
AcDbLayerTableRecord
  2
05___PRT_ALL_DTM_CSYS
 70
     0
 62
     7
  6
CONTINUOUS
370
    -3
390
44C
347
48E
348
0
  0
LAYER
  5
203
330
2
100
AcDbSymbolTableRecord
100
AcDbLayerTableRecord
  2
05___PRT_DEF_DTM_CSYS
 70
     0
 62
     7
  6
CONTINUOUS
370
    -3
390
44C
347
48E
348
0
  0
LAYER
  5
204
330
2
100
AcDbSymbolTableRecord
100
AcDbLayerTableRecord
  2
06___PRT_ALL_SURFS
 70
     0
 62
     7
  6
CONTINUOUS
370
    -3
390
44C
347
48E
348
0
  0
LAYER
  5
205
330
2
100
AcDbSymbolTableRecord
100
AcDbLayerTableRecord
  2
1_ALL_PLANES
 70
     0
 62
     7
  6
CONTINUOUS
370
    -3
390
44C
347
48E
348
0
  0
LAYER
  5
206
330
2
100
AcDbSymbolTableRecord
100
AcDbLayerTableRecord
  2
2_ALL_CSYS
 70
     0
 62
     7
  6
CONTINUOUS
370
    -3
390
44C
347
48E
348
0
  0
LAYER
  5
207
330
2
100
AcDbSymbolTableRecord
100
AcDbLayerTableRecord
  2
3_ALL_AXES
 70
     0
 62
     7
  6
CONTINUOUS
370
    -3
390
44C
347
48E
348
0
  0
LAYER
  5
208
330
2
100
AcDbSymbolTableRecord
100
AcDbLayerTableRecord
  2
5_ALL_CURVES
 70
     0
 62
     7
  6
CONTINUOUS
370
    -3
390
44C
347
48E
348
0
  0
LAYER
  5
209
330
2
100
AcDbSymbolTableRecord
100
AcDbLayerTableRecord
  2
7_ALL_FEATURES
 70
     0
 62
     7
  6
CONTINUOUS
370
    -3
390
44C
347
48E
348
0
  0
LAYER
  5
20A
330
2
100
AcDbSymbolTableRecord
100
AcDbLayerTableRecord
  2
8_ALL_NOTES_BALLOONS_SYMBOLS_GT
 70
     0
 62
     7
  6
CONTINUOUS
370
    -3
390
44C
347
48E
348
0
  0
LAYER
  5
20B
330
2
100
AcDbSymbolTableRecord
100
AcDbLayerTableRecord
  2
9_SOLID
 70
     0
 62
     7
  6
CONTINUOUS
370
    -3
390
44C
347
48E
348
0
  0
ENDTAB
  0
TABLE
  2
STYLE
  5
3
330
0
100
AcDbSymbolTable
 70
     5
  0
STYLE
  5
11
330
3
100
AcDbSymbolTableRecord
100
AcDbTextStyleTableRecord
  2
STANDARD
 70
     0
 40
0.0
 41
0.85
 50
0.0
 71
     0
 42
0.2
  3
txt
  4

  0
STYLE
  5
20C
330
3
100
AcDbSymbolTableRecord
100
AcDbTextStyleTableRecord
  2
TEXTSTYLE_1
 70
     0
 40
0.0
 41
0.8
 50
0.0
 71
     0
 42
0.2
  3
gdt
  4

  0
STYLE
  5
20D
330
3
100
AcDbSymbolTableRecord
100
AcDbTextStyleTableRecord
  2
TEXTSTYLE_2
 70
     0
 40
0.0
 41
0.9
 50
0.0
 71
     0
 42
0.2
  3
txt
  4

  0
STYLE
  5
20E
330
3
100
AcDbSymbolTableRecord
100
AcDbTextStyleTableRecord
  2
TEXTSTYLE_3
 70
     0
 40
0.0
 41
0.9
 50
0.0
 71
     0
 42
0.2
  3
txt
  4

  0
STYLE
  5
20F
330
3
100
AcDbSymbolTableRecord
100
AcDbTextStyleTableRecord
  2
TEXTSTYLE_4
 70
     0
 40
0.0
 41
2.0
 50
0.0
 71
     0
 42
0.2
  3
txt
  4

  0
ENDTAB
  0
TABLE
  2
VIEW
  5
6
330
0
100
AcDbSymbolTable
 70
     0
  0
ENDTAB
  0
TABLE
  2
UCS
  5
7
330
0
100
AcDbSymbolTable
 70
     0
  0
ENDTAB
  0
TABLE
  2
APPID
  5
9
330
0
100
AcDbSymbolTable
 70
     1
  0
APPID
  5
210
330
9
100
AcDbSymbolTableRecord
100
AcDbRegAppTableRecord
  2
ACAD
 70
     0
  0
ENDTAB
  0
TABLE
  2
DIMSTYLE
  5
A
330
0
100
AcDbSymbolTable
 70
     4
100
AcDbDimStyleTable
  0
DIMSTYLE
105
217
330
A
100
AcDbSymbolTableRecord
100
AcDbDimStyleTableRecord
  2
STANDARD
 70
     0
 41
2.5
 42
0.75
 44
0.75
 47
0.01
 48
0.01
 71
     1
 73
     0
 74
     0
 77
     1
 78
     8
 79
     2
140
3.0
147
0.625
171
     1
178
     0
179
     2
271
     2
272
     2
284
     8
340
11
341
211
342
211
343
211
344
211
  0
DIMSTYLE
105
218
330
A
100
AcDbSymbolTableRecord
100
AcDbDimStyleTableRecord
  2
DIMSTYLE_1
 70
     0
 41
2.5
 42
0.75
 44
0.75
 47
0.3
 48
0.3
 73
     0
 74
     0
 77
     1
 78
     8
 79
     2
140
3.0
147
0.75
171
     1
178
     0
179
     2
271
     2
272
     2
284
     8
340
11
341
211
342
211
343
211
344
211
  0
DIMSTYLE
105
219
330
A
100
AcDbSymbolTableRecord
100
AcDbDimStyleTableRecord
  2
DIMSTYLE_2
 70
     0
 41
2.5
 42
0.75
 44
0.75
 47
0.8
 48
0.8
 73
     0
 74
     0
 77
     1
 78
     8
 79
     2
140
3.0
147
0.75
171
     1
178
     0
179
     2
271
     2
272
     2
284
     8
340
11
341
211
342
211
343
211
344
211
  0
DIMSTYLE
105
21A
330
A
100
AcDbSymbolTableRecord
100
AcDbDimStyleTableRecord
  2
DIMSTYLE_3
 70
     0
 41
2.5
 42
0.75
 44
0.75
 47
0.2
 48
0.2
 73
     0
 74
     0
 77
     1
 78
     8
 79
     2
140
3.0
147
0.75
171
     1
178
     0
179
     2
271
     2
272
     2
284
     8
340
11
341
211
342
211
343
211
344
211
  0
ENDTAB
  0
TABLE
  2
BLOCK_RECORD
  5
1
330
0
100
AcDbSymbolTable
 70
     6
  0
BLOCK_RECORD
  5
1F
330
1
100
AcDbSymbolTableRecord
100
AcDbBlockTableRecord
  2
*MODEL_SPACE
340
470
 70
     0
280
     1
281
     0
  0
BLOCK_RECORD
  5
1B
330
1
100
AcDbSymbolTableRecord
100
AcDbBlockTableRecord
  2
*PAPER_SPACE
340
471
 70
     0
280
     1
281
     0
  0
BLOCK_RECORD
  5
211
330
1
100
AcDbSymbolTableRecord
100
AcDbBlockTableRecord
  2
_CLOSED
340
0
102
{BLKREFS
331
26D
331
26E
331
276
331
277
331
27F
331
280
102
}
 70
     0
280
     1
281
     0
  0
BLOCK_RECORD
  5
212
330
1
100
AcDbSymbolTableRecord
100
AcDbBlockTableRecord
  2
*D1
340
0
 70
     0
280
     1
281
     0
  0
BLOCK_RECORD
  5
213
330
1
100
AcDbSymbolTableRecord
100
AcDbBlockTableRecord
  2
*D2
340
0
 70
     0
280
     1
281
     0
  0
BLOCK_RECORD
  5
214
330
1
100
AcDbSymbolTableRecord
100
AcDbBlockTableRecord
  2
*D3
340
0
 70
     0
280
     1
281
     0
  0
BLOCK_RECORD
  5
215
330
1
100
AcDbSymbolTableRecord
100
AcDbBlockTableRecord
  2
LOGO2_BL1
340
0
102
{BLKREFS
331
434
102
}
 70
     0
280
     1
281
     0
  0
BLOCK_RECORD
  5
216
330
1
100
AcDbSymbolTableRecord
100
AcDbBlockTableRecord
  2
PROIEZIONE_EU_BL0
340
0
102
{BLKREFS
331
431
102
}
 70
     0
280
     1
281
     0
  0
ENDTAB
  0
ENDSEC
  0
SECTION
  2
BLOCKS
  0
BLOCK
  5
20
330
1F
100
AcDbEntity
  8
0
100
AcDbBlockBegin
  2
*MODEL_SPACE
 70
     0
 10
0.0
 20
0.0
 30
0.0
  3
*MODEL_SPACE
  1

  0
ENDBLK
  5
21
330
1F
100
AcDbEntity
  8
0
100
AcDbBlockEnd
  0
BLOCK
  5
1C
330
1B
100
AcDbEntity
 67
     1
  8
0
100
AcDbBlockBegin
  2
*PAPER_SPACE
 70
     0
 10
0.0
 20
0.0
 30
0.0
  3
*PAPER_SPACE
  1

  0
ENDBLK
  5
1D
330
1B
100
AcDbEntity
 67
     1
  8
0
100
AcDbBlockEnd
  0
BLOCK
  5
261
330
211
100
AcDbEntity
  8
0
100
AcDbBlockBegin
  2
_CLOSED
 70
     0
 10
0.0
 20
0.0
 30
0.0
  3
_CLOSED
  1

  0
LINE
  5
262
330
211
100
AcDbEntity
  8
0
  6
ByBlock
 62
     0
100
AcDbLine
 10
0.0
 20
0.0
 30
0.0
 11
-1.0
 21
0.2
 31
0.0
  0
LINE
  5
263
330
211
100
AcDbEntity
  8
0
  6
ByBlock
 62
     0
100
AcDbLine
 10
-1.0
 20
0.2
 30
0.0
 11
-1.0
 21
-0.2
 31
0.0
  0
LINE
  5
264
330
211
100
AcDbEntity
  8
0
  6
ByBlock
 62
     0
100
AcDbLine
 10
-1.0
 20
-0.2
 30
0.0
 11
0.0
 21
0.0
 31
0.0
  0
LINE
  5
265
330
211
100
AcDbEntity
  8
0
  6
ByBlock
 62
     0
100
AcDbLine
 10
-1.0
 20
0.0
 30
0.0
 11
0.0
 21
0.0
 31
0.0
  0
ENDBLK
  5
266
330
211
100
AcDbEntity
  8
0
  6
ByBlock
 62
     0
100
AcDbBlockEnd
  0
BLOCK
  5
267
330
212
100
AcDbEntity
  8
0
100
AcDbBlockBegin
  2
*D1
 70
     1
 10
0.0
 20
0.0
 30
0.0
  3
*D1
  1

  0
MTEXT
  5
268
330
212
100
AcDbEntity
  8
0
  6
Continuous
 62
     2
100
AcDbMText
 10
785.6262127394
 20
504.1834122941
 30
0.0
 40
3.0
 41
16.7142857143
 46
0.0
 71
     2
 72
     1
  1
72,99
 11
0.0
 21
1.0
 31
0.0
 73
     1
 44
1.0
  0
LINE
  5
269
330
212
100
AcDbEntity
  8
0
  6
Continuous
 62
     2
100
AcDbLine
 10
774.6153330857
 20
467.6874198287
 30
0.0
 11
790.1262127394
 21
467.6874198287
 31
0.0
  0
LINE
  5
26A
330
212
100
AcDbEntity
  8
0
  6
Continuous
 62
     2
100
AcDbLine
 10
775.0313472901
 20
540.6794047596
 30
0.0
 11
790.1262127394
 21
540.6794047596
 31
0.0
  0
LINE
  5
26B
330
212
100
AcDbEntity
  8
0
  6
Continuous
 62
     2
100
AcDbLine
 10
789.3762127394
 20
467.6874198287
 30
0.0
 11
789.3762127394
 21
504.1834122941
 31
0.0
  0
LINE
  5
26C
330
212
100
AcDbEntity
  8
0
  6
Continuous
 62
     2
100
AcDbLine
 10
789.3762127394
 20
540.6794047596
 30
0.0
 11
789.3762127394
 21
504.1834122941
 31
0.0
  0
INSERT
  5
26D
330
212
100
AcDbEntity
  8
0
  6
Continuous
 62
     2
100
AcDbBlockReference
  2
_CLOSED
 10
789.3762127394
 20
467.6874198287
 30
0.0
 41
2.5
 42
2.5
 43
2.5
 50
270.0
  0
INSERT
  5
26E
330
212
100
AcDbEntity
  8
0
  6
Continuous
 62
     2
100
AcDbBlockReference
  2
_CLOSED
 10
789.3762127394
 20
540.6794047596
 30
0.0
 41
2.5
 42
2.5
 43
2.5
 50
90.0
  0
ENDBLK
  5
26F
330
212
100
AcDbEntity
  8
0
  6
ByBlock
 62
     0
100
AcDbBlockEnd
  0
BLOCK
  5
270
330
213
100
AcDbEntity
  8
0
100
AcDbBlockBegin
  2
*D2
 70
     1
 10
0.0
 20
0.0
 30
0.0
  3
*D2
  1

  0
MTEXT
  5
271
330
213
100
AcDbEntity
  8
0
  6
Continuous
 62
     2
100
AcDbMText
 10
346.8591391074
 20
560.3500166107
 30
0.0
 40
3.0
 41
9.6428571429
 46
0.0
 71
     2
 72
     1
  1
612
 73
     1
 44
1.0
  0
LINE
  5
272
330
213
100
AcDbEntity
  8
0
  6
Continuous
 62
     2
100
AcDbLine
 10
652.8591391074
 20
545.43509362
 30
0.0
 11
652.8591391074
 21
557.3500166107
 31
0.0
  0
LINE
  5
273
330
213
100
AcDbEntity
  8
0
  6
Continuous
 62
     2
100
AcDbLine
 10
40.8591391074
 20
546.0897098362
 30
0.0
 11
40.8591391074
 21
557.3500166107
 31
0.0
  0
LINE
  5
274
330
213
100
AcDbEntity
  8
0
  6
Continuous
 62
     2
100
AcDbLine
 10
652.8591391074
 20
556.6000166107
 30
0.0
 11
346.8591391074
 21
556.6000166107
 31
0.0
  0
LINE
  5
275
330
213
100
AcDbEntity
  8
0
  6
Continuous
 62
     2
100
AcDbLine
 10
40.8591391074
 20
556.6000166107
 30
0.0
 11
346.8591391074
 21
556.6000166107
 31
0.0
  0
INSERT
  5
276
330
213
100
AcDbEntity
  8
0
  6
Continuous
 62
     2
100
AcDbBlockReference
  2
_CLOSED
 10
652.8591391074
 20
556.6000166107
 30
0.0
 41
2.5
 42
2.5
 43
2.5
  0
INSERT
  5
277
330
213
100
AcDbEntity
  8
0
  6
Continuous
 62
     2
100
AcDbBlockReference
  2
_CLOSED
 10
40.8591391074
 20
556.6000166107
 30
0.0
 41
2.5
 42
2.5
 43
2.5
 50
180.0
  0
ENDBLK
  5
278
330
213
100
AcDbEntity
  8
0
  6
ByBlock
 62
     0
100
AcDbBlockEnd
  0
BLOCK
  5
279
330
214
100
AcDbEntity
  8
0
100
AcDbBlockBegin
  2
*D3
 70
     1
 10
0.0
 20
0.0
 30
0.0
  3
*D3
  1

  0
MTEXT
  5
27A
330
214
100
AcDbEntity
  8
0
  6
Continuous
 62
     2
100
AcDbMText
 10
754.3211425886
 20
453.8269125505
 30
0.0
 40
3.0
 41
15.75
 46
0.0
 71
     2
 72
     1
  1
16,94
 73
     1
 44
1.0
  0
LINE
  5
27B
330
214
100
AcDbEntity
  8
0
  6
Continuous
 62
     2
100
AcDbLine
 10
762.791084437
 20
463.4517194006
 30
0.0
 11
762.791084437
 21
449.3269125505
 31
0.0
  0
LINE
  5
27C
330
214
100
AcDbEntity
  8
0
  6
Continuous
 62
     2
100
AcDbLine
 10
745.8512007402
 20
467.3134363593
 30
0.0
 11
745.8512007402
 21
449.3269125505
 31
0.0
  0
LINE
  5
27D
330
214
100
AcDbEntity
  8
0
  6
Continuous
 62
     2
100
AcDbLine
 10
762.791084437
 20
450.0769125505
 30
0.0
 11
754.3211425886
 21
450.0769125505
 31
0.0
  0
LINE
  5
27E
330
214
100
AcDbEntity
  8
0
  6
Continuous
 62
     2
100
AcDbLine
 10
745.8512007402
 20
450.0769125505
 30
0.0
 11
754.3211425886
 21
450.0769125505
 31
0.0
  0
INSERT
  5
27F
330
214
100
AcDbEntity
  8
0
  6
Continuous
 62
     2
100
AcDbBlockReference
  2
_CLOSED
 10
762.791084437
 20
450.0769125505
 30
0.0
 41
2.5
 42
2.5
 43
2.5
  0
INSERT
  5
280
330
214
100
AcDbEntity
  8
0
  6
Continuous
 62
     2
100
AcDbBlockReference
  2
_CLOSED
 10
745.8512007402
 20
450.0769125505
 30
0.0
 41
2.5
 42
2.5
 43
2.5
 50
180.0
  0
ENDBLK
  5
281
330
214
100
AcDbEntity
  8
0
  6
ByBlock
 62
     0
100
AcDbBlockEnd
  0
BLOCK
  5
21B
330
215
100
AcDbEntity
  8
0
100
AcDbBlockBegin
  2
LOGO2_BL1
 70
     0
 10
714.8904742907
 20
42.1635098905
 30
0.0
  3
LOGO2_BL1
  1

  0
LINE
  5
21C
330
215
100
AcDbEntity
  8
0
  6
Continuous
 62
     7
100
AcDbLine
 10
706.6333995189
 20
45.3590012294
 30
0.0
 11
705.3290585895
 21
45.3590012294
 31
0.0
  0
LINE
  5
21D
330
215
100
AcDbEntity
  8
0
  6
Continuous
 62
     7
100
AcDbLine
 10
705.3290585895
 20
45.3590012294
 30
0.0
 11
705.3290585895
 21
34.8999351695
 31
0.0
  0
LINE
  5
21E
330
215
100
AcDbEntity
  8
0
  6
Continuous
 62
     7
100
AcDbLine
 10
705.3290585895
 20
34.8999351695
 30
0.0
 11
709.8101134778
 21
34.8999351695
 31
0.0
  0
LINE
  5
21F
330
215
100
AcDbEntity
  8
0
  6
Continuous
 62
     7
100
AcDbLine
 10
709.8101134778
 20
34.8999351695
 30
0.0
 11
709.8101134778
 21
36.0927894946
 31
0.0
  0
LINE
  5
220
330
215
100
AcDbEntity
  8
0
  6
Continuous
 62
     7
100
AcDbLine
 10
709.8101134778
 20
36.0927894946
 30
0.0
 11
706.6333995189
 21
36.0927894946
 31
0.0
  0
LINE
  5
221
330
215
100
AcDbEntity
  8
0
  6
Continuous
 62
     7
100
AcDbLine
 10
706.6333995189
 20
36.0927894946
 30
0.0
 11
706.6333995189
 21
45.3590012294
 31
0.0
  0
LINE
  5
222
330
215
100
AcDbEntity
  8
0
  6
Continuous
 62
     7
100
AcDbLine
 10
721.5697257352
 20
45.3590012294
 30
0.0
 11
720.2659082171
 21
45.3590012294
 31
0.0
  0
LINE
  5
223
330
215
100
AcDbEntity
  8
0
  6
Continuous
 62
     7
100
AcDbLine
 10
720.2659082171
 20
45.3590012294
 30
0.0
 11
720.2659082171
 21
34.8999351695
 31
0.0
  0
LINE
  5
224
330
215
100
AcDbEntity
  8
0
  6
Continuous
 62
     7
100
AcDbLine
 10
720.2659082171
 20
34.8999351695
 30
0.0
 11
724.7470939582
 21
34.8999351695
 31
0.0
  0
LINE
  5
225
330
215
100
AcDbEntity
  8
0
  6
Continuous
 62
     7
100
AcDbLine
 10
724.7470939582
 20
34.8999351695
 30
0.0
 11
724.7470939582
 21
36.0927894946
 31
0.0
  0
LINE
  5
226
330
215
100
AcDbEntity
  8
0
  6
Continuous
 62
     7
100
AcDbLine
 10
724.7470939582
 20
36.0927894946
 30
0.0
 11
721.5697257352
 21
36.0927894946
 31
0.0
  0
LINE
  5
227
330
215
100
AcDbEntity
  8
0
  6
Continuous
 62
     7
100
AcDbLine
 10
721.5697257352
 20
36.0927894946
 30
0.0
 11
721.5697257352
 21
45.3590012294
 31
0.0
  0
LWPOLYLINE
  5
228
330
215
100
AcDbEntity
  8
0
  6
Continuous
 62
     7
100
AcDbPolyline
 90
        2
 70
     0
 43
0.2
 10
703.6834535005
 20
31.5563838626
 10
703.6834535005
 20
29.6993206133
  0
LWPOLYLINE
  5
229
330
215
100
AcDbEntity
  8
0
  6
Continuous
 62
     7
100
AcDbPolyline
 90
        2
 70
     0
 43
0.2
 10
703.6834535005
 20
29.6993206133
 10
704.4791695108
 20
29.6993206133
  0
LWPOLYLINE
  5
22A
330
215
100
AcDbEntity
  8
0
  6
Continuous
 62
     7
100
AcDbPolyline
 90
        2
 70
     0
 43
0.2
 10
704.4791695108
 20
29.6993206133
 10
704.4791695108
 20
29.9113021848
  0
LWPOLYLINE
  5
22B
330
215
100
AcDbEntity
  8
0
  6
Continuous
 62
     7
100
AcDbPolyline
 90
        2
 70
     0
 43
0.2
 10
704.4791695108
 20
29.9113021848
 10
703.9150629953
 20
29.9113021848
  0
LWPOLYLINE
  5
22C
330
215
100
AcDbEntity
  8
0
  6
Continuous
 62
     7
100
AcDbPolyline
 90
        2
 70
     0
 43
0.2
 10
703.9150629953
 20
29.9113021848
 10
703.9150629953
 20
31.5563838626
  0
LWPOLYLINE
  5
22D
330
215
100
AcDbEntity
  8
0
  6
Continuous
 62
     7
100
AcDbPolyline
 90
        2
 70
     0
 43
0.2
 10
703.9150629953
 20
31.5563838626
 10
703.6834535005
 20
31.5563838626
  0
SPLINE
  5
22E
330
215
100
AcDbEntity
  8
0
  6
Continuous
 62
     7
100
AcDbSpline
 70
     3
 71
     3
 72
    35
 73
    31
 74
     0
 42
0.000000001
 43
0.0000001
 40
0.0
 40
0.0
 40
0.0
 40
0.0
 40
1.0
 40
1.0
 40
1.0
 40
2.0
 40
2.0
 40
2.0
 40
3.0
 40
3.0
 40
3.0
 40
4.0
 40
4.0
 40
4.0
 40
5.0
 40
5.0
 40
5.0
 40
6.0
 40
6.0
 40
6.0
 40
7.0
 40
7.0
 40
7.0
 40
8.0
 40
8.0
 40
8.0
 40
9.0
 40
9.0
 40
9.0
 40
10.0
 40
10.0
 40
10.0
 40
10.0
 10
705.8774627664
 20
30.8518722691
 30
0.0
 10
705.8774627664
 20
30.8518722691
 30
0.0
 10
705.8774627664
 20
30.18975699
 30
0.0
 10
705.8774627664
 20
30.18975699
 30
0.0
 10
705.8774627664
 20
29.8746633947
 30
0.0
 10
706.0253264552
 20
29.6600647667
 30
0.0
 10
706.3654129395
 20
29.6600647667
 30
0.0
 10
706.7049760125
 20
29.6600647667
 30
0.0
 10
706.853101407
 20
29.8746633947
 30
0.0
 10
706.853101407
 20
30.18975699
 30
0.0
 10
706.853101407
 20
30.18975699
 30
0.0
 10
706.853101407
 20
30.8518722691
 30
0.0
 10
706.853101407
 20
30.8518722691
 30
0.0
 10
706.853101407
 20
30.8518722691
 30
0.0
 10
706.6310441681
 20
30.8518722691
 30
0.0
 10
706.6310441681
 20
30.8518722691
 30
0.0
 10
706.6310441681
 20
30.8518722691
 30
0.0
 10
706.6310441681
 20
30.2148807318
 30
0.0
 10
706.6310441681
 20
30.2148807318
 30
0.0
 10
706.6310441681
 20
30.0290697246
 30
0.0
 10
706.5843297107
 20
29.8662888141
 30
0.0
 10
706.3654129395
 20
29.8662888141
 30
0.0
 10
706.1459727571
 20
29.8662888141
 30
0.0
 10
706.0992582996
 20
30.0290697246
 30
0.0
 10
706.0992582996
 20
30.2148807318
 30
0.0
 10
706.0992582996
 20
30.2148807318
 30
0.0
 10
706.0992582996
 20
30.8518722691
 30
0.0
 10
706.0992582996
 20
30.8518722691
 30
0.0
 10
706.0992582996
 20
30.8518722691
 30
0.0
 10
705.8774627664
 20
30.8518722691
 30
0.0
 10
705.8774627664
 20
30.8518722691
 30
0.0
  0
SPLINE
  5
22F
330
215
100
AcDbEntity
  8
0
  6
Continuous
 62
     7
100
AcDbSpline
 70
     3
 71
     3
 72
    35
 73
    31
 74
     0
 42
0.000000001
 43
0.0000001
 40
0.0
 40
0.0
 40
0.0
 40
0.0
 40
1.0
 40
1.0
 40
1.0
 40
2.0
 40
2.0
 40
2.0
 40
3.0
 40
3.0
 40
3.0
 40
4.0
 40
4.0
 40
4.0
 40
5.0
 40
5.0
 40
5.0
 40
6.0
 40
6.0
 40
6.0
 40
7.0
 40
7.0
 40
7.0
 40
8.0
 40
8.0
 40
8.0
 40
9.0
 40
9.0
 40
9.0
 40
10.0
 40
10.0
 40
10.0
 40
10.0
 10
709.2762339642
 20
30.8105227774
 30
0.0
 10
709.1877774565
 20
30.8618170836
 30
0.0
 10
709.0743280599
 20
30.8869408254
 30
0.0
 10
708.9706926249
 20
30.8869408254
 30
0.0
 10
708.6158197717
 20
30.8869408254
 30
0.0
 10
708.3403745815
 20
30.6231415363
 30
0.0
 10
708.3403745815
 20
30.2656516267
 30
0.0
 10
708.3403745815
 20
29.920723588
 30
0.0
 10
708.6188293866
 20
29.6605881779
 30
0.0
 10
708.9583924596
 20
29.6605881779
 30
0.0
 10
709.0743280599
 20
29.6605881779
 30
0.0
 10
709.1750847328
 20
29.682571452
 30
0.0
 10
709.2762339642
 20
29.7364828147
 30
0.0
 10
709.2762339642
 20
29.7364828147
 30
0.0
 10
709.2762339642
 20
30.0191249101
 30
0.0
 10
709.2762339642
 20
30.0191249101
 30
0.0
 10
709.1923573053
 20
29.9259577009
 30
0.0
 10
709.0888527231
 20
29.8668122254
 30
0.0
 10
708.9607478104
 20
29.8668122254
 30
0.0
 10
708.7270446704
 20
29.8668122254
 30
0.0
 10
708.5617775562
 20
30.0390145391
 30
0.0
 10
708.5617775562
 20
30.2755964412
 30
0.0
 10
708.5617775562
 20
30.4875780128
 30
0.0
 10
708.729530874
 20
30.6796699554
 30
0.0
 10
708.946354
 20
30.6796699554
 30
0.0
 10
709.0791696143
 20
30.6796699554
 30
0.0
 10
709.1877774565
 20
30.6257585928
 30
0.0
 10
709.2762339642
 20
30.5247402142
 30
0.0
 10
709.2762339642
 20
30.5247402142
 30
0.0
 10
709.2762339642
 20
30.8105227774
 30
0.0
 10
709.2762339642
 20
30.8105227774
 30
0.0
  0
SPLINE
  5
230
330
215
100
AcDbEntity
  8
0
  6
Continuous
 62
     7
100
AcDbSpline
 70
     3
 71
     3
 72
    32
 73
    28
 74
     0
 42
0.000000001
 43
0.0000001
 40
0.0
 40
0.0
 40
0.0
 40
0.0
 40
1.0
 40
1.0
 40
1.0
 40
2.0
 40
2.0
 40
2.0
 40
3.0
 40
3.0
 40
3.0
 40
4.0
 40
4.0
 40
4.0
 40
5.0
 40
5.0
 40
5.0
 40
6.0
 40
6.0
 40
6.0
 40
7.0
 40
7.0
 40
7.0
 40
8.0
 40
8.0
 40
8.0
 40
9.0
 40
9.0
 40
9.0
 40
9.0
 10
711.8081052164
 20
30.238957651
 30
0.0
 10
711.8081052164
 20
30.238957651
 30
0.0
 10
711.8081052164
 20
30.2729793848
 30
0.0
 10
711.8081052164
 20
30.2729793848
 30
0.0
 10
711.8081052164
 20
30.615290367
 30
0.0
 10
711.6352486386
 20
30.8869408254
 30
0.0
 10
711.2685990314
 20
30.8869408254
 30
0.0
 10
710.8969770171
 20
30.8869408254
 30
0.0
 10
710.7072404252
 20
30.6205244799
 30
0.0
 10
710.7072404252
 20
30.2656516267
 30
0.0
 10
710.7072404252
 20
29.9259577009
 30
0.0
 10
710.9213156419
 20
29.6600647667
 30
0.0
 10
711.2734405859
 20
29.6600647667
 30
0.0
 10
711.4974606171
 20
29.6600647667
 30
0.0
 10
711.699628227
 20
29.7757386613
 30
0.0
 10
711.8081052164
 20
29.975158362
 30
0.0
 10
711.8081052164
 20
29.975158362
 30
0.0
 10
711.6204622697
 20
30.0819342647
 30
0.0
 10
711.6204622697
 20
30.0819342647
 30
0.0
 10
711.5369781693
 20
29.9432302734
 30
0.0
 10
711.4457737524
 20
29.8573908222
 30
0.0
 10
711.2761884951
 20
29.8573908222
 30
0.0
 10
711.0642069235
 20
29.8573908222
 30
0.0
 10
710.9312604564
 20
30.0421550068
 30
0.0
 10
710.9289051056
 20
30.238957651
 30
0.0
 10
710.9289051056
 20
30.238957651
 30
0.0
 10
711.8081052164
 20
30.238957651
 30
0.0
 10
711.8081052164
 20
30.238957651
 30
0.0
  0
SPLINE
  5
231
330
215
100
AcDbEntity
  8
0
  6
Continuous
 62
     7
100
AcDbSpline
 70
     3
 71
     3
 72
    14
 73
    10
 74
     0
 42
0.000000001
 43
0.0000001
 40
0.0
 40
0.0
 40
0.0
 40
0.0
 40
1.0
 40
1.0
 40
1.0
 40
2.0
 40
2.0
 40
2.0
 40
3.0
 40
3.0
 40
3.0
 40
3.0
 10
710.9409435652
 20
30.4064492632
 30
0.0
 10
710.9685535107
 20
30.5713238188
 30
0.0
 10
711.0963967177
 20
30.6943254715
 30
0.0
 10
711.2685990314
 20
30.6943254715
 30
0.0
 10
711.4457737524
 20
30.6943254715
 30
0.0
 10
711.559223149
 20
30.5786515769
 30
0.0
 10
711.586440536
 20
30.4064492632
 30
0.0
 10
711.586440536
 20
30.4064492632
 30
0.0
 10
710.9409435652
 20
30.4064492632
 30
0.0
 10
710.9409435652
 20
30.4064492632
 30
0.0
  0
SPLINE
  5
232
330
215
100
AcDbEntity
  8
0
  6
Continuous
 62
     7
100
AcDbSpline
 70
     3
 71
     3
 72
    20
 73
    16
 74
     0
 42
0.000000001
 43
0.0000001
 40
0.0
 40
0.0
 40
0.0
 40
0.0
 40
1.0
 40
1.0
 40
1.0
 40
2.0
 40
2.0
 40
2.0
 40
3.0
 40
3.0
 40
3.0
 40
4.0
 40
4.0
 40
4.0
 40
5.0
 40
5.0
 40
5.0
 40
5.0
 10
713.8321366666
 20
30.6158137783
 30
0.0
 10
713.8321366666
 20
30.6158137783
 30
0.0
 10
714.2432762332
 20
30.113338942
 30
0.0
 10
714.2432762332
 20
30.113338942
 30
0.0
 10
714.1272097801
 20
29.9976650473
 30
0.0
 10
713.9894217586
 20
29.8673356367
 30
0.0
 10
713.8174811506
 20
29.8673356367
 30
0.0
 10
713.640044724
 20
29.8673356367
 30
0.0
 10
713.4725531118
 20
30.031686781
 30
0.0
 10
713.4725531118
 20
30.2085997963
 30
0.0
 10
713.4725531118
 20
30.3865596342
 30
0.0
 10
713.6823101855
 20
30.5127017546
 30
0.0
 10
713.8098916869
 20
30.600634851
 30
0.0
 10
713.8098916869
 20
30.600634851
 30
0.0
 10
713.8321366666
 20
30.6158137783
 30
0.0
 10
713.8321366666
 20
30.6158137783
 30
0.0
  0
SPLINE
  5
233
330
215
100
AcDbEntity
  8
0
  6
Continuous
 62
     7
100
AcDbSpline
 70
     3
 71
     3
 72
    23
 73
    19
 74
     0
 42
0.000000001
 43
0.0000001
 40
0.0
 40
0.0
 40
0.0
 40
0.0
 40
1.0
 40
1.0
 40
1.0
 40
2.0
 40
2.0
 40
2.0
 40
3.0
 40
3.0
 40
3.0
 40
4.0
 40
4.0
 40
4.0
 40
5.0
 40
5.0
 40
5.0
 40
6.0
 40
6.0
 40
6.0
 40
6.0
 10
713.8814681805
 20
30.9068304544
 30
0.0
 10
713.8814681805
 20
30.9068304544
 30
0.0
 10
713.8198365013
 20
30.9853421475
 30
0.0
 10
713.8198365013
 20
30.9853421475
 30
0.0
 10
713.7659251387
 20
31.0539090263
 30
0.0
 10
713.709135014
 20
31.1229993163
 30
0.0
 10
713.709135014
 20
31.2166899368
 30
0.0
 10
713.709135014
 20
31.3355042991
 30
0.0
 10
713.8050501325
 20
31.4129691697
 30
0.0
 10
713.9160133255
 20
31.4129691697
 30
0.0
 10
714.0392766838
 20
31.4129691697
 30
0.0
 10
714.1325747459
 20
31.3417852346
 30
0.0
 10
714.1325747459
 20
31.2114558239
 30
0.0
 10
714.1325747459
 20
31.0764157116
 30
0.0
 10
714.0044698331
 20
30.9999976636
 30
0.0
 10
713.9109100654
 20
30.926196672
 30
0.0
 10
713.9109100654
 20
30.926196672
 30
0.0
 10
713.8814681805
 20
30.9068304544
 30
0.0
 10
713.8814681805
 20
30.9068304544
 30
0.0
  0
SPLINE
  5
234
330
215
100
AcDbEntity
  8
0
  6
Continuous
 62
     7
100
AcDbSpline
 70
     3
 71
     3
 72
    50
 73
    46
 74
     0
 42
0.000000001
 43
0.0000001
 40
0.0
 40
0.0
 40
0.0
 40
0.0
 40
1.0
 40
1.0
 40
1.0
 40
2.0
 40
2.0
 40
2.0
 40
3.0
 40
3.0
 40
3.0
 40
4.0
 40
4.0
 40
4.0
 40
5.0
 40
5.0
 40
5.0
 40
6.0
 40
6.0
 40
6.0
 40
7.0
 40
7.0
 40
7.0
 40
8.0
 40
8.0
 40
8.0
 40
9.0
 40
9.0
 40
9.0
 40
10.0
 40
10.0
 40
10.0
 40
11.0
 40
11.0
 40
11.0
 40
12.0
 40
12.0
 40
12.0
 40
13.0
 40
13.0
 40
13.0
 40
14.0
 40
14.0
 40
14.0
 40
15.0
 40
15.0
 40
15.0
 40
15.0
 10
714.5836244232
 20
29.6998440245
 30
0.0
 10
714.5836244232
 20
29.6998440245
 30
0.0
 10
714.8690144279
 20
29.6998440245
 30
0.0
 10
714.8690144279
 20
29.6998440245
 30
0.0
 10
714.8690144279
 20
29.6998440245
 30
0.0
 10
714.5366482601
 20
30.1107218855
 30
0.0
 10
714.5366482601
 20
30.1107218855
 30
0.0
 10
714.5366482601
 20
30.1107218855
 30
0.0
 10
714.7631544949
 20
30.3766148198
 30
0.0
 10
714.7631544949
 20
30.3766148198
 30
0.0
 10
714.7631544949
 20
30.3766148198
 30
0.0
 10
714.6148982476
 20
30.5294509158
 30
0.0
 10
714.6148982476
 20
30.5294509158
 30
0.0
 10
714.6148982476
 20
30.5294509158
 30
0.0
 10
714.3989910914
 20
30.2782134976
 30
0.0
 10
714.3989910914
 20
30.2782134976
 30
0.0
 10
714.3989910914
 20
30.2782134976
 30
0.0
 10
714.011928444
 20
30.746143189
 30
0.0
 10
714.011928444
 20
30.746143189
 30
0.0
 10
714.1673815965
 20
30.8602468497
 30
0.0
 10
714.3496595775
 20
30.9999976636
 30
0.0
 10
714.3496595775
 20
31.2093621788
 30
0.0
 10
714.3496595775
 20
31.4532718389
 30
0.0
 10
714.1476228204
 20
31.5966865318
 30
0.0
 10
713.9211165856
 20
31.5966865318
 30
0.0
 10
713.6769452198
 20
31.5966865318
 30
0.0
 10
713.4925735936
 20
31.4459440809
 30
0.0
 10
713.4925735936
 20
31.1894725498
 30
0.0
 10
713.4925735936
 20
31.0319257522
 30
0.0
 10
713.5912366214
 20
30.8942685835
 30
0.0
 10
713.6965731431
 20
30.7833053904
 30
0.0
 10
713.6965731431
 20
30.7833053904
 30
0.0
 10
713.5810301013
 20
30.6995595844
 30
0.0
 10
713.5810301013
 20
30.6995595844
 30
0.0
 10
713.403331969
 20
30.5713238188
 30
0.0
 10
713.2559916915
 20
30.4436114646
 30
0.0
 10
713.2559916915
 20
30.2065061512
 30
0.0
 10
713.2559916915
 20
29.886178443
 30
0.0
 10
713.5145568677
 20
29.6600647667
 30
0.0
 10
713.8249397614
 20
29.6600647667
 30
0.0
 10
714.0438565326
 20
29.6600647667
 30
0.0
 10
714.2410517353
 20
29.7851600645
 30
0.0
 10
714.3813259604
 20
29.9510814427
 30
0.0
 10
714.3813259604
 20
29.9510814427
 30
0.0
 10
714.5836244232
 20
29.6998440245
 30
0.0
 10
714.5836244232
 20
29.6998440245
 30
0.0
  0
LWPOLYLINE
  5
235
330
215
100
AcDbEntity
  8
0
  6
Continuous
 62
     7
100
AcDbPolyline
 90
        2
 70
     0
 43
0.2
 10
716.5190685129
 20
31.5563838626
 10
716.2877207237
 20
31.5563838626
  0
LWPOLYLINE
  5
236
330
215
100
AcDbEntity
  8
0
  6
Continuous
 62
     7
100
AcDbPolyline
 90
        2
 70
     0
 43
0.2
 10
716.2877207237
 20
31.5563838626
 10
716.2877207237
 20
29.6993206133
  0
LWPOLYLINE
  5
237
330
215
100
AcDbEntity
  8
0
  6
Continuous
 62
     7
100
AcDbPolyline
 90
        2
 70
     0
 43
0.2
 10
716.2877207237
 20
29.6993206133
 10
717.0830441756
 20
29.6993206133
  0
LWPOLYLINE
  5
238
330
215
100
AcDbEntity
  8
0
  6
Continuous
 62
     7
100
AcDbPolyline
 90
        2
 70
     0
 43
0.2
 10
717.0830441756
 20
29.6993206133
 10
717.0830441756
 20
29.9113021848
  0
LWPOLYLINE
  5
239
330
215
100
AcDbEntity
  8
0
  6
Continuous
 62
     7
100
AcDbPolyline
 90
        2
 70
     0
 43
0.2
 10
717.0830441756
 20
29.9113021848
 10
716.5190685129
 20
29.9113021848
  0
LWPOLYLINE
  5
23A
330
215
100
AcDbEntity
  8
0
  6
Continuous
 62
     7
100
AcDbPolyline
 90
        2
 70
     0
 43
0.2
 10
716.5190685129
 20
29.9113021848
 10
716.5190685129
 20
31.5563838626
  0
LWPOLYLINE
  5
23B
330
215
100
AcDbEntity
  8
0
  6
Continuous
 62
     7
100
AcDbPolyline
 90
        2
 70
     0
 43
0.2
 10
718.7621475871
 20
30.8518722691
 10
718.5410063179
 20
30.8518722691
  0
LWPOLYLINE
  5
23C
330
215
100
AcDbEntity
  8
0
  6
Continuous
 62
     7
100
AcDbPolyline
 90
        2
 70
     0
 43
0.2
 10
718.5410063179
 20
30.8518722691
 10
718.5410063179
 20
29.6998440245
  0
LWPOLYLINE
  5
23D
330
215
100
AcDbEntity
  8
0
  6
Continuous
 62
     7
100
AcDbPolyline
 90
        2
 70
     0
 43
0.2
 10
718.5410063179
 20
29.6998440245
 10
718.7621475871
 20
29.6998440245
  0
LWPOLYLINE
  5
23E
330
215
100
AcDbEntity
  8
0
  6
Continuous
 62
     7
100
AcDbPolyline
 90
        2
 70
     0
 43
0.2
 10
718.7621475871
 20
29.6998440245
 10
718.7621475871
 20
30.8518722691
  0
LWPOLYLINE
  5
23F
330
215
100
AcDbEntity
  8
0
  6
Continuous
 62
     7
100
AcDbPolyline
 90
        2
 70
     1
 43
0.2
 10
718.4991243099
 20
31.3818261981
 42
1.0
 10
718.8042913008
 20
31.3818261981
 42
1.0
  0
SPLINE
  5
240
330
215
100
AcDbEntity
  8
0
  6
Continuous
 62
     7
100
AcDbSpline
 70
     3
 71
     3
 72
    17
 73
    13
 74
     0
 42
0.000000001
 43
0.0000001
 40
0.0
 40
0.0
 40
0.0
 40
0.0
 40
1.0
 40
1.0
 40
1.0
 40
2.0
 40
2.0
 40
2.0
 40
3.0
 40
3.0
 40
3.0
 40
4.0
 40
4.0
 40
4.0
 40
4.0
 10
720.8924315287
 20
29.8573908222
 30
0.0
 10
720.658466683
 20
29.8573908222
 30
0.0
 10
720.5281372723
 20
30.0594275793
 30
0.0
 10
720.5281372723
 20
30.2755964412
 30
0.0
 10
720.5281372723
 20
30.4901950692
 30
0.0
 10
720.6639625015
 20
30.6890913586
 30
0.0
 10
720.8924315287
 20
30.6890913586
 30
0.0
 10
721.1318921929
 20
30.6890913586
 30
0.0
 10
721.2674557165
 20
30.5001398837
 30
0.0
 10
721.2674557165
 20
30.2755964412
 30
0.0
 10
721.2674557165
 20
30.0494827648
 30
0.0
 10
721.1342475437
 20
29.8573908222
 30
0.0
 10
720.8924315287
 20
29.8573908222
 30
0.0
  0
SPLINE
  5
241
330
215
100
AcDbEntity
  8
0
  6
Continuous
 62
     7
100
AcDbSpline
 70
     3
 71
     3
 72
    50
 73
    46
 74
     0
 42
0.000000001
 43
0.0000001
 40
0.0
 40
0.0
 40
0.0
 40
0.0
 40
1.0
 40
1.0
 40
1.0
 40
2.0
 40
2.0
 40
2.0
 40
3.0
 40
3.0
 40
3.0
 40
4.0
 40
4.0
 40
4.0
 40
5.0
 40
5.0
 40
5.0
 40
6.0
 40
6.0
 40
6.0
 40
7.0
 40
7.0
 40
7.0
 40
8.0
 40
8.0
 40
8.0
 40
9.0
 40
9.0
 40
9.0
 40
10.0
 40
10.0
 40
10.0
 40
11.0
 40
11.0
 40
11.0
 40
12.0
 40
12.0
 40
12.0
 40
13.0
 40
13.0
 40
13.0
 40
14.0
 40
14.0
 40
14.0
 40
15.0
 40
15.0
 40
15.0
 40
15.0
 10
721.476558526
 20
30.8523956804
 30
0.0
 10
721.476558526
 20
30.8523956804
 30
0.0
 10
721.2548938455
 20
30.8523956804
 30
0.0
 10
721.2548938455
 20
30.8523956804
 30
0.0
 10
721.2548938455
 20
30.8523956804
 30
0.0
 10
721.2548938455
 20
30.6550696249
 30
0.0
 10
721.2548938455
 20
30.6550696249
 30
0.0
 10
721.2548938455
 20
30.6550696249
 30
0.0
 10
721.250183144
 20
30.6550696249
 30
0.0
 10
721.250183144
 20
30.6550696249
 30
0.0
 10
721.1588478742
 20
30.7979609065
 30
0.0
 10
721.0209289999
 20
30.8864174141
 30
0.0
 10
720.8482032749
 20
30.8864174141
 30
0.0
 10
720.5158371071
 20
30.8864174141
 30
0.0
 10
720.3067342976
 20
30.5985412058
 30
0.0
 10
720.3067342976
 20
30.2829241992
 30
0.0
 10
720.3067342976
 20
29.9531750879
 30
0.0
 10
720.5037986474
 20
29.6600647667
 30
0.0
 10
720.8586715006
 20
29.6600647667
 30
0.0
 10
721.0209289999
 20
29.6600647667
 30
0.0
 10
721.1609415194
 20
29.7485212743
 30
0.0
 10
721.250183144
 20
29.8793740963
 30
0.0
 10
721.250183144
 20
29.8793740963
 30
0.0
 10
721.2548938455
 20
29.8793740963
 30
0.0
 10
721.2548938455
 20
29.8793740963
 30
0.0
 10
721.2548938455
 20
29.8793740963
 30
0.0
 10
721.2548938455
 20
29.6600647667
 30
0.0
 10
721.2548938455
 20
29.6600647667
 30
0.0
 10
721.2548938455
 20
29.4234828645
 30
0.0
 10
721.1983654265
 20
29.2366250348
 30
0.0
 10
720.9251447342
 20
29.2366250348
 30
0.0
 10
720.7228462714
 20
29.2366250348
 30
0.0
 10
720.5802166955
 20
29.3549159858
 30
0.0
 10
720.5802166955
 20
29.5611400333
 30
0.0
 10
720.5802166955
 20
29.5611400333
 30
0.0
 10
720.3585520151
 20
29.5611400333
 30
0.0
 10
720.3585520151
 20
29.5611400333
 30
0.0
 10
720.3635244223
 20
29.2366250348
 30
0.0
 10
720.5946105059
 20
29.0398223905
 30
0.0
 10
720.9149382141
 20
29.0398223905
 30
0.0
 10
721.3629782765
 20
29.0398223905
 30
0.0
 10
721.476558526
 20
29.3250815424
 30
0.0
 10
721.476558526
 20
29.7218272986
 30
0.0
 10
721.476558526
 20
29.7218272986
 30
0.0
 10
721.476558526
 20
30.8523956804
 30
0.0
 10
721.476558526
 20
30.8523956804
 30
0.0
  0
SPLINE
  5
242
330
215
100
AcDbEntity
  8
0
  6
Continuous
 62
     7
100
AcDbSpline
 70
     3
 71
     3
 72
    44
 73
    40
 74
     0
 42
0.000000001
 43
0.0000001
 40
0.0
 40
0.0
 40
0.0
 40
0.0
 40
1.0
 40
1.0
 40
1.0
 40
2.0
 40
2.0
 40
2.0
 40
3.0
 40
3.0
 40
3.0
 40
4.0
 40
4.0
 40
4.0
 40
5.0
 40
5.0
 40
5.0
 40
6.0
 40
6.0
 40
6.0
 40
7.0
 40
7.0
 40
7.0
 40
8.0
 40
8.0
 40
8.0
 40
9.0
 40
9.0
 40
9.0
 40
10.0
 40
10.0
 40
10.0
 40
11.0
 40
11.0
 40
11.0
 40
12.0
 40
12.0
 40
12.0
 40
13.0
 40
13.0
 40
13.0
 40
13.0
 10
723.0454838613
 20
31.8374557242
 30
0.0
 10
723.0454838613
 20
31.8374557242
 30
0.0
 10
723.0454838613
 20
29.6993206133
 30
0.0
 10
723.0454838613
 20
29.6993206133
 30
0.0
 10
723.0454838613
 20
29.6993206133
 30
0.0
 10
723.2668868361
 20
29.6993206133
 30
0.0
 10
723.2668868361
 20
29.6993206133
 30
0.0
 10
723.2668868361
 20
29.6993206133
 30
0.0
 10
723.2668868361
 20
30.2290128366
 30
0.0
 10
723.2668868361
 20
30.2290128366
 30
0.0
 10
723.2668868361
 20
30.438900763
 30
0.0
 10
723.2668868361
 20
30.6896147699
 30
0.0
 10
723.552145988
 20
30.6896147699
 30
0.0
 10
723.7790447813
 20
30.6896147699
 30
0.0
 10
723.8060004626
 20
30.5566683028
 30
0.0
 10
723.8060004626
 20
30.3603890698
 30
0.0
 10
723.8060004626
 20
30.3603890698
 30
0.0
 10
723.8060004626
 20
29.6993206133
 30
0.0
 10
723.8060004626
 20
29.6993206133
 30
0.0
 10
723.8060004626
 20
29.6993206133
 30
0.0
 10
724.0279268487
 20
29.6993206133
 30
0.0
 10
724.0279268487
 20
29.6993206133
 30
0.0
 10
724.0279268487
 20
29.6993206133
 30
0.0
 10
724.0279268487
 20
30.3865596342
 30
0.0
 10
724.0279268487
 20
30.3865596342
 30
0.0
 10
724.0279268487
 20
30.6671080845
 30
0.0
 10
723.943919337
 20
30.8869408254
 30
0.0
 10
723.6188809272
 20
30.8869408254
 30
0.0
 10
723.4791301133
 20
30.8869408254
 30
0.0
 10
723.3409495333
 20
30.8204675919
 30
0.0
 10
723.2715975377
 20
30.6974659392
 30
0.0
 10
723.2715975377
 20
30.6974659392
 30
0.0
 10
723.2668868361
 20
30.6974659392
 30
0.0
 10
723.2668868361
 20
30.6974659392
 30
0.0
 10
723.2668868361
 20
30.6974659392
 30
0.0
 10
723.2668868361
 20
31.8374557242
 30
0.0
 10
723.2668868361
 20
31.8374557242
 30
0.0
 10
723.2668868361
 20
31.8374557242
 30
0.0
 10
723.0454838613
 20
31.8374557242
 30
0.0
 10
723.0454838613
 20
31.8374557242
 30
0.0
  0
LWPOLYLINE
  5
243
330
215
100
AcDbEntity
  8
0
  6
Continuous
 62
     7
100
AcDbPolyline
 90
        2
 70
     0
 43
0.2
 10
725.8677175255
 20
30.6451248104
 10
726.0841480931
 20
30.6451248104
  0
LWPOLYLINE
  5
244
330
215
100
AcDbEntity
  8
0
  6
Continuous
 62
     7
100
AcDbPolyline
 90
        2
 70
     0
 43
0.2
 10
726.0841480931
 20
30.6451248104
 10
726.0841480931
 20
30.8518722691
  0
LWPOLYLINE
  5
245
330
215
100
AcDbEntity
  8
0
  6
Continuous
 62
     7
100
AcDbPolyline
 90
        2
 70
     0
 43
0.2
 10
726.0841480931
 20
30.8518722691
 10
725.8677175255
 20
30.8518722691
  0
LWPOLYLINE
  5
246
330
215
100
AcDbEntity
  8
0
  6
Continuous
 62
     7
100
AcDbPolyline
 90
        2
 70
     0
 43
0.2
 10
725.8677175255
 20
30.8518722691
 10
725.8677175255
 20
31.2925845735
  0
LWPOLYLINE
  5
247
330
215
100
AcDbEntity
  8
0
  6
Continuous
 62
     7
100
AcDbPolyline
 90
        2
 70
     0
 43
0.2
 10
725.8677175255
 20
31.2925845735
 10
725.6460528451
 20
31.2925845735
  0
LWPOLYLINE
  5
248
330
215
100
AcDbEntity
  8
0
  6
Continuous
 62
     7
100
AcDbPolyline
 90
        2
 70
     0
 43
0.2
 10
725.6460528451
 20
31.2925845735
 10
725.6460528451
 20
30.8518722691
  0
LWPOLYLINE
  5
249
330
215
100
AcDbEntity
  8
0
  6
Continuous
 62
     7
100
AcDbPolyline
 90
        2
 70
     0
 43
0.2
 10
725.6460528451
 20
30.8518722691
 10
725.5254065433
 20
30.8518722691
  0
LWPOLYLINE
  5
24A
330
215
100
AcDbEntity
  8
0
  6
Continuous
 62
     7
100
AcDbPolyline
 90
        2
 70
     0
 43
0.2
 10
725.5254065433
 20
30.8518722691
 10
725.5254065433
 20
30.6451248104
  0
LWPOLYLINE
  5
24B
330
215
100
AcDbEntity
  8
0
  6
Continuous
 62
     7
100
AcDbPolyline
 90
        2
 70
     0
 43
0.2
 10
725.5254065433
 20
30.6451248104
 10
725.6460528451
 20
30.6451248104
  0
LWPOLYLINE
  5
24C
330
215
100
AcDbEntity
  8
0
  6
Continuous
 62
     7
100
AcDbPolyline
 90
        2
 70
     0
 43
0.2
 10
725.6460528451
 20
30.6451248104
 10
725.6460528451
 20
29.6993206133
  0
LWPOLYLINE
  5
24D
330
215
100
AcDbEntity
  8
0
  6
Continuous
 62
     7
100
AcDbPolyline
 90
        2
 70
     0
 43
0.2
 10
725.6460528451
 20
29.6993206133
 10
725.8677175255
 20
29.6993206133
  0
LWPOLYLINE
  5
24E
330
215
100
AcDbEntity
  8
0
  6
Continuous
 62
     7
100
AcDbPolyline
 90
        2
 70
     0
 43
0.2
 10
725.8677175255
 20
29.6993206133
 10
725.8677175255
 20
30.6451248104
  0
SPLINE
  5
24F
330
215
100
AcDbEntity
  8
0
  6
Continuous
 62
     7
100
AcDbSpline
 70
     3
 71
     3
 72
    20
 73
    16
 74
     0
 42
0.000000001
 43
0.0000001
 40
0.0
 40
0.0
 40
0.0
 40
0.0
 40
1.0
 40
1.0
 40
1.0
 40
2.0
 40
2.0
 40
2.0
 40
3.0
 40
3.0
 40
3.0
 40
4.0
 40
4.0
 40
4.0
 40
5.0
 40
5.0
 40
5.0
 40
5.0
 10
713.6497278328
 20
40.0602470566
 30
0.0
 10
713.6497278328
 20
40.0602470566
 30
0.0
 10
715.9660844873
 20
37.2306856344
 30
0.0
 10
715.9660844873
 20
37.2306856344
 30
0.0
 10
715.3144374339
 20
36.5785151697
 30
0.0
 10
714.5375642298
 20
35.842598899
 30
0.0
 10
713.5663745852
 20
35.842598899
 30
0.0
 10
712.5678367008
 20
35.842598899
 30
0.0
 10
711.6245187072
 20
36.7721773462
 30
0.0
 10
711.6245187072
 20
37.7713694948
 30
0.0
 10
711.6245187072
 20
38.7705616433
 30
0.0
 10
712.8033717803
 20
39.477166882
 30
0.0
 10
713.5248942406
 20
39.9770246619
 30
0.0
 10
713.5248942406
 20
39.9770246619
 30
0.0
 10
713.6497278328
 20
40.0602470566
 30
0.0
 10
713.6497278328
 20
40.0602470566
 30
0.0
  0
SPLINE
  5
250
330
215
100
AcDbEntity
  8
0
  6
Continuous
 62
     7
100
AcDbSpline
 70
     3
 71
     3
 72
    23
 73
    19
 74
     0
 42
0.000000001
 43
0.0000001
 40
0.0
 40
0.0
 40
0.0
 40
0.0
 40
1.0
 40
1.0
 40
1.0
 40
2.0
 40
2.0
 40
2.0
 40
3.0
 40
3.0
 40
3.0
 40
4.0
 40
4.0
 40
4.0
 40
5.0
 40
5.0
 40
5.0
 40
6.0
 40
6.0
 40
6.0
 40
6.0
 10
713.9271358154
 20
41.6980009764
 30
0.0
 10
713.9271358154
 20
41.6980009764
 30
0.0
 10
713.5806375428
 20
42.1413303372
 30
0.0
 10
713.5806375428
 20
42.1413303372
 30
0.0
 10
713.2748344979
 20
42.5294398072
 30
0.0
 10
712.9559461707
 20
42.9179418356
 30
0.0
 10
712.9559461707
 20
43.4448861497
 30
0.0
 10
712.9559461707
 20
44.1110578663
 30
0.0
 10
713.4972842952
 20
44.5547797856
 30
0.0
 10
714.1211905503
 20
44.5547797856
 30
0.0
 10
714.8149722124
 20
44.5547797856
 30
0.0
 10
715.3421782321
 20
44.1525382109
 30
0.0
 10
715.3421782321
 20
43.4175379099
 30
0.0
 10
715.3421782321
 20
42.6542733993
 30
0.0
 10
714.6209174774
 20
42.2241601735
 30
0.0
 10
714.0938423105
 20
41.8084407581
 30
0.0
 10
714.0938423105
 20
41.8084407581
 30
0.0
 10
713.9271358154
 20
41.6980009764
 30
0.0
 10
713.9271358154
 20
41.6980009764
 30
0.0
  0
SPLINE
  5
251
330
215
100
AcDbEntity
  8
0
  6
Continuous
 62
     7
100
AcDbSpline
 70
     3
 71
     3
 72
    50
 73
    46
 74
     0
 42
0.000000001
 43
0.0000001
 40
0.0
 40
0.0
 40
0.0
 40
0.0
 40
1.0
 40
1.0
 40
1.0
 40
2.0
 40
2.0
 40
2.0
 40
3.0
 40
3.0
 40
3.0
 40
4.0
 40
4.0
 40
4.0
 40
5.0
 40
5.0
 40
5.0
 40
6.0
 40
6.0
 40
6.0
 40
7.0
 40
7.0
 40
7.0
 40
8.0
 40
8.0
 40
8.0
 40
9.0
 40
9.0
 40
9.0
 40
10.0
 40
10.0
 40
10.0
 40
11.0
 40
11.0
 40
11.0
 40
12.0
 40
12.0
 40
12.0
 40
13.0
 40
13.0
 40
13.0
 40
14.0
 40
14.0
 40
14.0
 40
15.0
 40
15.0
 40
15.0
 40
15.0
 10
717.8807229783
 20
34.8994117582
 30
0.0
 10
717.8807229783
 20
34.8994117582
 30
0.0
 10
719.4899509828
 20
34.8994117582
 30
0.0
 10
719.4899509828
 20
34.8994117582
 30
0.0
 10
719.4899509828
 20
34.8994117582
 30
0.0
 10
717.6169236892
 20
37.2165535296
 30
0.0
 10
717.6169236892
 20
37.2165535296
 30
0.0
 10
717.6169236892
 20
37.2165535296
 30
0.0
 10
718.8932621147
 20
38.7140332242
 30
0.0
 10
718.8932621147
 20
38.7140332242
 30
0.0
 10
718.8932621147
 20
38.7140332242
 30
0.0
 10
718.061038167
 20
39.5750447928
 30
0.0
 10
718.061038167
 20
39.5750447928
 30
0.0
 10
718.061038167
 20
39.5750447928
 30
0.0
 10
716.8404430436
 20
38.1597406704
 30
0.0
 10
716.8404430436
 20
38.1597406704
 30
0.0
 10
716.8404430436
 20
38.1597406704
 30
0.0
 10
714.6625286748
 20
40.7951165048
 30
0.0
 10
714.6625286748
 20
40.7951165048
 30
0.0
 10
715.5361021143
 20
41.4331548647
 30
0.0
 10
716.5627733554
 20
42.2241601735
 30
0.0
 10
716.5627733554
 20
43.4030132466
 30
0.0
 10
716.5627733554
 20
44.7767061716
 30
0.0
 10
715.4248772156
 20
45.5811893211
 30
0.0
 10
714.1495856127
 20
45.5811893211
 30
0.0
 10
712.7761543933
 20
45.5811893211
 30
0.0
 10
711.7352201946
 20
44.7349641214
 30
0.0
 10
711.7352201946
 20
43.2923117592
 30
0.0
 10
711.7352201946
 20
42.4047370678
 30
0.0
 10
712.290559571
 20
41.6278638638
 30
0.0
 10
712.8867250279
 20
41.0034341974
 30
0.0
 10
712.8867250279
 20
41.0034341974
 30
0.0
 10
712.2348162689
 20
40.531840627
 30
0.0
 10
712.2348162689
 20
40.531840627
 30
0.0
 10
711.2362783844
 20
39.8105798723
 30
0.0
 10
710.4034001726
 20
39.0893191176
 30
0.0
 10
710.4034001726
 20
37.7577608013
 30
0.0
 10
710.4034001726
 20
35.9540855033
 30
0.0
 10
711.8604463452
 20
34.6774853722
 30
0.0
 10
713.6079857826
 20
34.6774853722
 30
0.0
 10
714.8428438635
 20
34.6774853722
 30
0.0
 10
715.9522140881
 20
35.3856608447
 30
0.0
 10
716.7430885441
 20
36.3141924694
 30
0.0
 10
716.7430885441
 20
36.3141924694
 30
0.0
 10
717.8807229783
 20
34.8994117582
 30
0.0
 10
717.8807229783
 20
34.8994117582
 30
0.0
  0
LINE
  5
252
330
215
100
AcDbEntity
  8
0
  6
Continuous
 62
     7
100
AcDbLine
 10
703.6835843533
 20
32.8732866629
 30
0.0
 11
726.0974950809
 21
32.8732866629
 31
0.0
  0
LINE
  5
253
330
215
100
AcDbEntity
  8
0
  6
Continuous
 62
     7
100
AcDbLine
 10
726.0974950809
 20
32.8732866629
 30
0.0
 11
726.0974950809
 21
55.2871973905
 31
0.0
  0
LINE
  5
254
330
215
100
AcDbEntity
  8
0
  6
Continuous
 62
     7
100
AcDbLine
 10
726.0974950809
 20
55.2871973905
 30
0.0
 11
703.6835843533
 21
55.2871973905
 31
0.0
  0
LINE
  5
255
330
215
100
AcDbEntity
  8
0
  6
Continuous
 62
     7
100
AcDbLine
 10
703.6835843533
 20
55.2871973905
 30
0.0
 11
703.6835843533
 21
32.8732866629
 31
0.0
  0
ENDBLK
  5
256
330
215
100
AcDbEntity
  8
0
  6
ByBlock
 62
     0
100
AcDbBlockEnd
  0
BLOCK
  5
257
330
216
100
AcDbEntity
  8
0
100
AcDbBlockBegin
  2
PROIEZIONE_EU_BL0
 70
     0
 10
716.0644272459
 20
67.7885098905
 30
0.0
  3
PROIEZIONE_EU_BL0
  1

  0
LWPOLYLINE
  5
258
330
216
100
AcDbEntity
  8
DEFAULT_1
  6
CENTER
 62
     7
100
AcDbPolyline
 90
        2
 70
     0
 43
0.25
 10
722.1910479076
 20
72.7882040224
 10
722.1910888899
 20
62.7888157587
  0
LWPOLYLINE
  5
259
330
216
100
AcDbEntity
  8
DEFAULT_1
  6
CENTER
 62
     7
100
AcDbPolyline
 90
        2
 70
     0
 43
0.25
 10
728.1910777326
 20
67.7887810257
 10
703.9377767592
 20
67.7885103652
  0
LWPOLYLINE
  5
25A
330
216
100
AcDbEntity
  8
0
  6
Continuous
 62
     7
100
AcDbPolyline
 90
        2
 70
     1
 43
0.25
 10
718.6439377318
 20
67.7699621363
 42
1.0
 10
725.7502668304
 20
67.7699621363
 42
1.0
  0
LWPOLYLINE
  5
25B
330
216
100
AcDbEntity
  8
0
  6
Continuous
 62
     7
100
AcDbPolyline
 90
        2
 70
     1
 43
0.25
 10
720.1936815602
 20
67.7878601809
 42
1.0
 10
724.2054333102
 20
67.7878601809
 42
1.0
  0
LWPOLYLINE
  5
25C
330
216
100
AcDbEntity
  8
0
  6
Continuous
 62
     7
100
AcDbPolyline
 90
        2
 70
     0
 43
0.25
 10
716.1910755266
 20
71.3637133858
 10
716.191075172
 20
64.2635104774
  0
LWPOLYLINE
  5
25D
330
216
100
AcDbEntity
  8
0
  6
Continuous
 62
     7
100
AcDbPolyline
 90
        2
 70
     0
 43
0.25
 10
716.1911036084
 20
64.2634820411
 10
706.1965463373
 20
65.7835754539
  0
LWPOLYLINE
  5
25E
330
216
100
AcDbEntity
  8
0
  6
Continuous
 62
     7
100
AcDbPolyline
 90
        2
 70
     0
 43
0.25
 10
706.1942363517
 20
65.7828979124
 10
706.1915694476
 20
69.7885365238
  0
LWPOLYLINE
  5
25F
330
216
100
AcDbEntity
  8
0
  6
Continuous
 62
     7
100
AcDbPolyline
 90
        2
 70
     0
 43
0.25
 10
706.1915611715
 20
69.7885282477
 10
716.1913044088
 20
71.3636854678
  0
ENDBLK
  5
260
330
216
100
AcDbEntity
  8
0
  6
ByBlock
 62
     0
100
AcDbBlockEnd
  0
ENDSEC
  0
SECTION
  2
ENTITIES
  0
LINE
  5
282
330
1B
100
AcDbEntity
 67
     1
  8
0
  6
Continuous
 62
     7
100
AcDbLine
 10
0.0
 20
0.0
 30
0.0
 11
841.0
 21
0.0
 31
0.0
  0
LINE
  5
283
330
1B
100
AcDbEntity
 67
     1
  8
0
  6
Continuous
 62
     7
100
AcDbLine
 10
841.0
 20
0.0
 30
0.0
 11
841.0
 21
594.0
 31
0.0
  0
LINE
  5
284
330
1B
100
AcDbEntity
 67
     1
  8
0
  6
Continuous
 62
     7
100
AcDbLine
 10
0.0
 20
594.0
 30
0.0
 11
841.0
 21
594.0
 31
0.0
  0
LINE
  5
285
330
1B
100
AcDbEntity
 67
     1
  8
0
  6
Continuous
 62
     7
100
AcDbLine
 10
0.0
 20
0.0
 30
0.0
 11
0.0
 21
594.0
 31
0.0
  0
LINE
  5
286
330
1B
100
AcDbEntity
 67
     1
  8
0
  6
Continuous
 62
     7
100
AcDbLine
 10
0.0
 20
587.0
 30
0.0
 11
841.0
 21
587.0
 31
0.0
  0
LINE
  5
287
330
1B
100
AcDbEntity
 67
     1
  8
0
  6
Continuous
 62
     7
100
AcDbLine
 10
0.0
 20
7.0
 30
0.0
 11
834.0
 21
7.0
 31
0.0
  0
LINE
  5
288
330
1B
100
AcDbEntity
 67
     1
  8
0
  6
Continuous
 62
     7
100
AcDbLine
 10
7.0
 20
0.0
 30
0.0
 11
7.0
 21
594.0
 31
0.0
  0
LINE
  5
289
330
1B
100
AcDbEntity
 67
     1
  8
0
  6
Continuous
 62
     7
100
AcDbLine
 10
834.0
 20
7.0
 30
0.0
 11
834.0
 21
594.0
 31
0.0
  0
LINE
  5
28A
330
1B
100
AcDbEntity
 67
     1
  8
0
  6
Continuous
 62
     7
100
AcDbLine
 10
10.0
 20
584.0
 30
0.0
 11
831.0
 21
584.0
 31
0.0
  0
LINE
  5
28B
330
1B
100
AcDbEntity
 67
     1
  8
0
  6
Continuous
 62
     7
100
AcDbLine
 10
10.1045326603
 20
9.9564447249
 30
0.0
 11
831.0019373863
 21
10.0005548773
 31
0.0
  0
LINE
  5
28C
330
1B
100
AcDbEntity
 67
     1
  8
0
  6
Continuous
 62
     7
100
AcDbLine
 10
10.0
 20
10.0
 30
0.0
 11
10.0
 21
584.0
 31
0.0
  0
LINE
  5
28D
330
1B
100
AcDbEntity
 67
     1
  8
0
  6
Continuous
 62
     7
100
AcDbLine
 10
831.0
 20
10.0
 30
0.0
 11
831.0
 21
584.0
 31
0.0
  0
LINE
  5
28E
330
1B
100
AcDbEntity
 67
     1
  8
0
  6
Continuous
 62
     7
100
AcDbLine
 10
420.5
 20
594.0
 30
0.0
 11
420.5
 21
584.0
 31
0.0
  0
LINE
  5
28F
330
1B
100
AcDbEntity
 67
     1
  8
0
  6
Continuous
 62
     7
100
AcDbLine
 10
420.5
 20
0.0
 30
0.0
 11
420.5
 21
10.0
 31
0.0
  0
LINE
  5
290
330
1B
100
AcDbEntity
 67
     1
  8
0
  6
Continuous
 62
     7
100
AcDbLine
 10
841.0
 20
297.0
 30
0.0
 11
831.0
 21
297.0
 31
0.0
  0
LINE
  5
291
330
1B
100
AcDbEntity
 67
     1
  8
0
  6
Continuous
 62
     7
100
AcDbLine
 10
0.0
 20
297.0
 30
0.0
 11
10.0
 21
297.0
 31
0.0
  0
LINE
  5
292
330
1B
100
AcDbEntity
 67
     1
  8
0
  6
Continuous
 62
     7
100
AcDbLine
 10
841.0
 20
420.5
 30
0.0
 11
831.0324714513
 21
420.5
 31
0.0
  0
LINE
  5
293
330
1B
100
AcDbEntity
 67
     1
  8
0
  6
Continuous
 62
     7
100
AcDbLine
 10
631.0
 20
0.0
 30
0.0
 11
631.0
 21
10.0
 31
0.0
  0
LINE
  5
294
330
1B
100
AcDbEntity
 67
     1
  8
0
  6
Continuous
 62
     7
100
AcDbLine
 10
834.0
 20
7.0
 30
0.0
 11
834.0
 21
0.0
 31
0.0
  0
LINE
  5
295
330
1B
100
AcDbEntity
 67
     1
  8
0
  6
Continuous
 62
     7
100
AcDbLine
 10
834.0
 20
7.0
 30
0.0
 11
841.0
 21
7.0
 31
0.0
  0
LINE
  5
296
330
1B
100
AcDbEntity
 67
     1
  8
0
  6
Continuous
 62
     7
100
AcDbLine
 10
734.0
 20
7.0
 30
0.0
 11
734.0
 21
0.0
 31
0.0
  0
LINE
  5
297
330
1B
100
AcDbEntity
 67
     1
  8
0
  6
Continuous
 62
     7
100
AcDbLine
 10
534.0
 20
7.0
 30
0.0
 11
534.0
 21
0.0
 31
0.0
  0
LINE
  5
298
330
1B
100
AcDbEntity
 67
     1
  8
0
  6
Continuous
 62
     7
100
AcDbLine
 10
434.0
 20
7.0
 30
0.0
 11
434.0
 21
0.0
 31
0.0
  0
LINE
  5
299
330
1B
100
AcDbEntity
 67
     1
  8
0
  6
Continuous
 62
     7
100
AcDbLine
 10
834.0
 20
107.0
 30
0.0
 11
841.0
 21
107.0
 31
0.0
  0
LINE
  5
29A
330
1B
100
AcDbEntity
 67
     1
  8
0
  6
Continuous
 62
     7
100
AcDbLine
 10
834.0
 20
207.0
 30
0.0
 11
841.0
 21
207.0
 31
0.0
  0
LINE
  5
29B
330
1B
100
AcDbEntity
 67
     1
  8
0
  6
Continuous
 62
     7
100
AcDbLine
 10
834.0
 20
307.0
 30
0.0
 11
841.0
 21
307.0
 31
0.0
  0
LINE
  5
29C
330
1B
100
AcDbEntity
 67
     1
  8
0
  6
Continuous
 62
     7
100
AcDbLine
 10
631.0
 20
584.0
 30
0.0
 11
631.0
 21
594.0
 31
0.0
  0
LINE
  5
29D
330
1B
100
AcDbEntity
 67
     1
  8
0
  6
Continuous
 62
     7
100
AcDbLine
 10
734.0
 20
594.0
 30
0.0
 11
734.0
 21
587.0
 31
0.0
  0
LINE
  5
29E
330
1B
100
AcDbEntity
 67
     1
  8
0
  6
Continuous
 62
     7
100
AcDbLine
 10
534.0
 20
594.0
 30
0.0
 11
534.0
 21
587.0
 31
0.0
  0
LINE
  5
29F
330
1B
100
AcDbEntity
 67
     1
  8
0
  6
Continuous
 62
     7
100
AcDbLine
 10
434.0
 20
594.0
 30
0.0
 11
434.0
 21
587.0
 31
0.0
  0
LINE
  5
2A0
330
1B
100
AcDbEntity
 67
     1
  8
0
  6
Continuous
 62
     7
100
AcDbLine
 10
334.0
 20
594.0
 30
0.0
 11
334.0
 21
587.0
 31
0.0
  0
LINE
  5
2A1
330
1B
100
AcDbEntity
 67
     1
  8
0
  6
Continuous
 62
     7
100
AcDbLine
 10
234.0
 20
594.0
 30
0.0
 11
234.0
 21
587.0
 31
0.0
  0
LINE
  5
2A2
330
1B
100
AcDbEntity
 67
     1
  8
0
  6
Continuous
 62
     7
100
AcDbLine
 10
134.0
 20
594.0
 30
0.0
 11
134.0
 21
587.0
 31
0.0
  0
LINE
  5
2A3
330
1B
100
AcDbEntity
 67
     1
  8
0
  6
Continuous
 62
     7
100
AcDbLine
 10
10.0
 20
420.5
 30
0.0
 11
0.0
 21
420.5
 31
0.0
  0
LINE
  5
2A4
330
1B
100
AcDbEntity
 67
     1
  8
0
  6
Continuous
 62
     7
100
AcDbLine
 10
0.0
 20
107.0
 30
0.0
 11
7.0
 21
107.0
 31
0.0
  0
LINE
  5
2A5
330
1B
100
AcDbEntity
 67
     1
  8
0
  6
Continuous
 62
     7
100
AcDbLine
 10
0.0
 20
207.0
 30
0.0
 11
7.0
 21
207.0
 31
0.0
  0
LINE
  5
2A6
330
1B
100
AcDbEntity
 67
     1
  8
0
  6
Continuous
 62
     7
100
AcDbLine
 10
0.0
 20
307.0
 30
0.0
 11
7.0
 21
307.0
 31
0.0
  0
LINE
  5
2A7
330
1B
100
AcDbEntity
 67
     1
  8
0
  6
Continuous
 62
     7
100
AcDbLine
 10
0.0
 20
507.0
 30
0.0
 11
7.0
 21
507.0
 31
0.0
  0
LINE
  5
2A8
330
1B
100
AcDbEntity
 67
     1
  8
0
  6
Continuous
 62
     7
100
AcDbLine
 10
334.0
 20
7.0
 30
0.0
 11
334.0
 21
0.0
 31
0.0
  0
LINE
  5
2A9
330
1B
100
AcDbEntity
 67
     1
  8
0
  6
Continuous
 62
     7
100
AcDbLine
 10
234.0
 20
7.0
 30
0.0
 11
234.0
 21
0.0
 31
0.0
  0
LINE
  5
2AA
330
1B
100
AcDbEntity
 67
     1
  8
0
  6
Continuous
 62
     7
100
AcDbLine
 10
134.0
 20
7.0
 30
0.0
 11
134.0
 21
0.0
 31
0.0
  0
LINE
  5
2AB
330
1B
100
AcDbEntity
 67
     1
  8
0
  6
Continuous
 62
     7
100
AcDbLine
 10
834.0
 20
507.0
 30
0.0
 11
841.0
 21
507.0
 31
0.0
  0
MTEXT
  5
2AC
330
1B
100
AcDbEntity
 67
     1
  8
0
  6
Continuous
 62
     2
100
AcDbMText
 10
783.154890719
 20
5.35876025
 30
0.0
 40
4.0
 41
3.6
 46
0.0
 71
     1
 72
     1
  1
A
  7
TEXTSTYLE_2
 73
     1
 44
1.0
  0
MTEXT
  5
2AD
330
1B
100
AcDbEntity
 67
     1
  8
0
  6
Continuous
 62
     2
100
AcDbMText
 10
683.154890719
 20
5.35876025
 30
0.0
 40
4.0
 41
3.6
 46
0.0
 71
     1
 72
     1
  1
B
  7
TEXTSTYLE_2
 73
     1
 44
1.0
  0
MTEXT
  5
2AE
330
1B
100
AcDbEntity
 67
     1
  8
0
  6
Continuous
 62
     2
100
AcDbMText
 10
583.154890719
 20
5.35876025
 30
0.0
 40
4.0
 41
3.6
 46
0.0
 71
     1
 72
     1
  1
C
  7
TEXTSTYLE_2
 73
     1
 44
1.0
  0
MTEXT
  5
2AF
330
1B
100
AcDbEntity
 67
     1
  8
0
  6
Continuous
 62
     2
100
AcDbMText
 10
483.154890719
 20
5.35876025
 30
0.0
 40
4.0
 41
3.6
 46
0.0
 71
     1
 72
     1
  1
D
  7
TEXTSTYLE_2
 73
     1
 44
1.0
  0
MTEXT
  5
2B0
330
1B
100
AcDbEntity
 67
     1
  8
0
  6
Continuous
 62
     2
100
AcDbMText
 10
383.154890719
 20
5.35876025
 30
0.0
 40
4.0
 41
3.6
 46
0.0
 71
     1
 72
     1
  1
E
  7
TEXTSTYLE_2
 73
     1
 44
1.0
  0
MTEXT
  5
2B1
330
1B
100
AcDbEntity
 67
     1
  8
0
  6
Continuous
 62
     2
100
AcDbMText
 10
835.6467220993
 20
60.6268709614
 30
0.0
 40
4.0
 41
3.4285714286
 46
0.0
 71
     1
 72
     1
  1
1
  7
TEXTSTYLE_3
 73
     1
 44
1.0
  0
MTEXT
  5
2B2
330
1B
100
AcDbEntity
 67
     1
  8
0
  6
Continuous
 62
     2
100
AcDbMText
 10
835.6467220993
 20
160.6268709614
 30
0.0
 40
4.0
 41
4.7142857143
 46
0.0
 71
     1
 72
     1
  1
2
  7
TEXTSTYLE_3
 73
     1
 44
1.0
  0
MTEXT
  5
2B3
330
1B
100
AcDbEntity
 67
     1
  8
0
  6
Continuous
 62
     2
100
AcDbMText
 10
835.6467220993
 20
260.6268709614
 30
0.0
 40
4.0
 41
4.2857142857
 46
0.0
 71
     1
 72
     1
  1
3
  7
TEXTSTYLE_3
 73
     1
 44
1.0
  0
MTEXT
  5
2B4
330
1B
100
AcDbEntity
 67
     1
  8
0
  6
Continuous
 62
     2
100
AcDbMText
 10
835.6467220993
 20
360.6268709614
 30
0.0
 40
4.0
 41
4.7142857143
 46
0.0
 71
     1
 72
     1
  1
4
  7
TEXTSTYLE_3
 73
     1
 44
1.0
  0
MTEXT
  5
2B5
330
1B
100
AcDbEntity
 67
     1
  8
0
  6
Continuous
 62
     2
100
AcDbMText
 10
835.6467220993
 20
460.6268709614
 30
0.0
 40
4.0
 41
4.2857142857
 46
0.0
 71
     1
 72
     1
  1
5
  7
TEXTSTYLE_3
 73
     1
 44
1.0
  0
MTEXT
  5
2B6
330
1B
100
AcDbEntity
 67
     1
  8
0
  6
Continuous
 62
     2
100
AcDbMText
 10
783.154890719
 20
592.35876025
 30
0.0
 40
4.0
 41
3.6
 46
0.0
 71
     1
 72
     1
  1
A
  7
TEXTSTYLE_2
 73
     1
 44
1.0
  0
MTEXT
  5
2B7
330
1B
100
AcDbEntity
 67
     1
  8
0
  6
Continuous
 62
     2
100
AcDbMText
 10
683.154890719
 20
592.35876025
 30
0.0
 40
4.0
 41
3.6
 46
0.0
 71
     1
 72
     1
  1
B
  7
TEXTSTYLE_2
 73
     1
 44
1.0
  0
MTEXT
  5
2B8
330
1B
100
AcDbEntity
 67
     1
  8
0
  6
Continuous
 62
     2
100
AcDbMText
 10
583.154890719
 20
592.35876025
 30
0.0
 40
4.0
 41
3.6
 46
0.0
 71
     1
 72
     1
  1
C
  7
TEXTSTYLE_2
 73
     1
 44
1.0
  0
MTEXT
  5
2B9
330
1B
100
AcDbEntity
 67
     1
  8
0
  6
Continuous
 62
     2
100
AcDbMText
 10
483.154890719
 20
592.35876025
 30
0.0
 40
4.0
 41
3.6
 46
0.0
 71
     1
 72
     1
  1
D
  7
TEXTSTYLE_2
 73
     1
 44
1.0
  0
MTEXT
  5
2BA
330
1B
100
AcDbEntity
 67
     1
  8
0
  6
Continuous
 62
     2
100
AcDbMText
 10
383.154890719
 20
592.35876025
 30
0.0
 40
4.0
 41
3.6
 46
0.0
 71
     1
 72
     1
  1
E
  7
TEXTSTYLE_2
 73
     1
 44
1.0
  0
MTEXT
  5
2BB
330
1B
100
AcDbEntity
 67
     1
  8
0
  6
Continuous
 62
     2
100
AcDbMText
 10
283.154890719
 20
592.35876025
 30
0.0
 40
4.0
 41
3.6
 46
0.0
 71
     1
 72
     1
  1
F
  7
TEXTSTYLE_2
 73
     1
 44
1.0
  0
MTEXT
  5
2BC
330
1B
100
AcDbEntity
 67
     1
  8
0
  6
Continuous
 62
     2
100
AcDbMText
 10
183.154890719
 20
592.35876025
 30
0.0
 40
4.0
 41
3.6
 46
0.0
 71
     1
 72
     1
  1
G
  7
TEXTSTYLE_2
 73
     1
 44
1.0
  0
MTEXT
  5
2BD
330
1B
100
AcDbEntity
 67
     1
  8
0
  6
Continuous
 62
     2
100
AcDbMText
 10
59.5777362717
 20
592.35876025
 30
0.0
 40
4.0
 41
3.6
 46
0.0
 71
     1
 72
     1
  1
H
  7
TEXTSTYLE_2
 73
     1
 44
1.0
  0
MTEXT
  5
2BE
330
1B
100
AcDbEntity
 67
     1
  8
0
  6
Continuous
 62
     2
100
AcDbMText
 10
1.6467220993
 20
60.6268709614
 30
0.0
 40
4.0
 41
3.4285714286
 46
0.0
 71
     1
 72
     1
  1
1
  7
TEXTSTYLE_3
 73
     1
 44
1.0
  0
MTEXT
  5
2BF
330
1B
100
AcDbEntity
 67
     1
  8
0
  6
Continuous
 62
     2
100
AcDbMText
 10
1.6467220993
 20
160.6268709614
 30
0.0
 40
4.0
 41
4.7142857143
 46
0.0
 71
     1
 72
     1
  1
2
  7
TEXTSTYLE_3
 73
     1
 44
1.0
  0
MTEXT
  5
2C0
330
1B
100
AcDbEntity
 67
     1
  8
0
  6
Continuous
 62
     2
100
AcDbMText
 10
1.6467220993
 20
260.6268709614
 30
0.0
 40
4.0
 41
4.2857142857
 46
0.0
 71
     1
 72
     1
  1
3
  7
TEXTSTYLE_3
 73
     1
 44
1.0
  0
MTEXT
  5
2C1
330
1B
100
AcDbEntity
 67
     1
  8
0
  6
Continuous
 62
     2
100
AcDbMText
 10
1.6467220993
 20
360.6268709614
 30
0.0
 40
4.0
 41
4.7142857143
 46
0.0
 71
     1
 72
     1
  1
4
  7
TEXTSTYLE_3
 73
     1
 44
1.0
  0
MTEXT
  5
2C2
330
1B
100
AcDbEntity
 67
     1
  8
0
  6
Continuous
 62
     2
100
AcDbMText
 10
1.6467220993
 20
460.6268709614
 30
0.0
 40
4.0
 41
4.2857142857
 46
0.0
 71
     1
 72
     1
  1
5
  7
TEXTSTYLE_3
 73
     1
 44
1.0
  0
MTEXT
  5
2C3
330
1B
100
AcDbEntity
 67
     1
  8
0
  6
Continuous
 62
     2
100
AcDbMText
 10
1.6467220993
 20
560.6268709614
 30
0.0
 40
4.0
 41
4.7142857143
 46
0.0
 71
     1
 72
     1
  1
6
  7
TEXTSTYLE_3
 73
     1
 44
1.0
  0
MTEXT
  5
2C4
330
1B
100
AcDbEntity
 67
     1
  8
0
  6
Continuous
 62
     2
100
AcDbMText
 10
283.154890719
 20
5.35876025
 30
0.0
 40
4.0
 41
3.6
 46
0.0
 71
     1
 72
     1
  1
F
  7
TEXTSTYLE_2
 73
     1
 44
1.0
  0
MTEXT
  5
2C5
330
1B
100
AcDbEntity
 67
     1
  8
0
  6
Continuous
 62
     2
100
AcDbMText
 10
183.154890719
 20
5.35876025
 30
0.0
 40
4.0
 41
3.6
 46
0.0
 71
     1
 72
     1
  1
G
  7
TEXTSTYLE_2
 73
     1
 44
1.0
  0
MTEXT
  5
2C6
330
1B
100
AcDbEntity
 67
     1
  8
0
  6
Continuous
 62
     2
100
AcDbMText
 10
59.5777362717
 20
5.35876025
 30
0.0
 40
4.0
 41
3.6
 46
0.0
 71
     1
 72
     1
  1
H
  7
TEXTSTYLE_2
 73
     1
 44
1.0
  0
MTEXT
  5
2C7
330
1B
100
AcDbEntity
 67
     1
  8
0
  6
Continuous
 62
     2
100
AcDbMText
 10
835.6467220993
 20
560.6268709614
 30
0.0
 40
4.0
 41
4.7142857143
 46
0.0
 71
     1
 72
     1
  1
6
  7
TEXTSTYLE_3
 73
     1
 44
1.0
  0
VIEWPORT
  5
2C8
330
1B
100
AcDbEntity
 67
     1
  8
0
100
AcDbViewport
 10
0.0
 20
0.0
 30
0.0
 40
990.1540856031129
 41
700.1803891050583
 68
     1
 69
     1
 12
468.0350194552529
 22
297.0
 13
0.0
 23
0.0
 14
1.0
 24
1.0
 15
0.0
 25
0.0
 16
0.0
 26
0.0
 36
1.0
 17
0.0
 27
0.0
 37
0.0
 42
50.0
 43
0.0
 44
0.0
 45
700.1803891050583
 50
0.0
 51
0.0
 72
   100
 90
   557216
  1

281
     0
 71
     1
 74
     0
110
0.0
120
0.0
130
0.0
111
1.0
121
0.0
131
0.0
112
0.0
122
1.0
132
0.0
 79
     0
146
0.0
170
     0
 61
     5
348
477
292
     1
282
     1
141
0.0
142
0.0
 63
   256
  0
SPLINE
  5
2C9
330
1B
100
AcDbEntity
 67
     1
  8
7_ALL_FEATURES
  6
Continuous
 62
     7
100
AcDbSpline
 70
     0
 71
     3
 72
    11
 73
     7
 74
     0
 42
0.000000001
 43
0.0000001
 40
0.0
 40
0.0
 40
0.0
 40
0.0
 40
0.2371004079
 40
0.4819161128
 40
0.7373094476
 40
1.0
 40
1.0
 40
1.0
 40
1.0
 10
40.8591391074
 20
536.2047329515
 30
0.0
 10
40.8591391074
 20
536.7895246944
 30
0.0
 10
41.1305177215
 20
537.9929491499
 30
0.0
 10
42.2638645809
 20
539.4778507757
 30
0.0
 10
43.9214904018
 20
540.4546787934
 30
0.0
 10
45.2112310447
 20
540.6794047596
 30
0.0
 10
45.8591391074
 20
540.6794047596
 30
0.0
  0
SPLINE
  5
2CA
330
1B
100
AcDbEntity
 67
     1
  8
7_ALL_FEATURES
  6
Continuous
 62
     7
100
AcDbSpline
 70
     0
 71
     3
 72
    11
 73
     7
 74
     0
 42
0.000000001
 43
0.0000001
 40
0.0
 40
0.0
 40
0.0
 40
0.0
 40
0.2626905524
 40
0.5180838872
 40
0.7628995921
 40
1.0
 40
1.0
 40
1.0
 40
1.0
 10
647.8591391074
 20
540.6794047596
 30
0.0
 10
648.50704717
 20
540.6794047596
 30
0.0
 10
649.796787813
 20
540.4546787934
 30
0.0
 10
651.4544136338
 20
539.4778507757
 30
0.0
 10
652.5877604932
 20
537.9929491499
 30
0.0
 10
652.8591391074
 20
536.7895246944
 30
0.0
 10
652.8591391074
 20
536.2047329515
 30
0.0
  0
LINE
  5
2CB
330
1B
100
AcDbEntity
 67
     1
  8
7_ALL_FEATURES
  6
Continuous
 62
     7
100
AcDbLine
 10
625.3591391074
 20
467.6874198287
 30
0.0
 11
625.3591391074
 21
468.4874198287
 31
0.0
  0
LINE
  5
2CC
330
1B
100
AcDbEntity
 67
     1
  8
7_ALL_FEATURES
  6
Continuous
 62
     7
100
AcDbLine
 10
435.3591391074
 20
467.6874198287
 30
0.0
 11
435.3591391074
 21
468.4874198287
 31
0.0
  0
LINE
  5
2CD
330
1B
100
AcDbEntity
 67
     1
  8
7_ALL_FEATURES
  6
Continuous
 62
     7
100
AcDbLine
 10
448.3591391074
 20
467.6874198287
 30
0.0
 11
445.3591391074
 21
467.6874198287
 31
0.0
  0
LINE
  5
2CE
330
1B
100
AcDbEntity
 67
     1
  8
7_ALL_FEATURES
  6
Continuous
 62
     7
100
AcDbLine
 10
448.3591391074
 20
467.6874198287
 30
0.0
 11
448.3591391074
 21
468.4874198287
 31
0.0
  0
LINE
  5
2CF
330
1B
100
AcDbEntity
 67
     1
  8
7_ALL_FEATURES
  6
Continuous
 62
     7
100
AcDbLine
 10
245.3591391074
 20
467.6874198287
 30
0.0
 11
245.3591391074
 21
468.4874198287
 31
0.0
  0
LINE
  5
2D0
330
1B
100
AcDbEntity
 67
     1
  8
7_ALL_FEATURES
  6
Continuous
 62
     7
100
AcDbLine
 10
55.3591391074
 20
467.6874198287
 30
0.0
 11
55.3591391074
 21
468.4874198287
 31
0.0
  0
SPLINE
  5
2D1
330
1B
100
AcDbEntity
 67
     1
  8
7_ALL_FEATURES
  6
Continuous
 62
     7
100
AcDbSpline
 70
     0
 71
     3
 72
     9
 73
     5
 74
     0
 42
0.000000001
 43
0.0000001
 40
0.0
 40
0.0
 40
0.0
 40
0.0
 40
0.4966933765
 40
1.0
 40
1.0
 40
1.0
 40
1.0
 10
55.3591391074
 20
469.8304389815
 30
0.0
 10
55.3591391074
 20
469.9982078839
 30
0.0
 10
55.2646256864
 20
470.3419928131
 30
0.0
 10
55.0076253766
 20
470.5879584794
 30
0.0
 10
54.8591391074
 20
470.6707397296
 30
0.0
  0
SPLINE
  5
2D2
330
1B
100
AcDbEntity
 67
     1
  8
7_ALL_FEATURES
  6
Continuous
 62
     7
100
AcDbSpline
 70
     0
 71
     3
 72
     8
 73
     4
 74
     0
 42
0.000000001
 43
0.0000001
 40
0.0
 40
0.0
 40
0.0
 40
0.0
 40
1.0
 40
1.0
 40
1.0
 40
1.0
 10
54.8591391074
 20
470.6707397296
 30
0.0
 10
54.7087270938
 20
470.7545945844
 30
0.0
 10
54.5313465709
 20
470.8007347078
 30
0.0
 10
54.3591391074
 20
470.8007347078
 30
0.0
  0
SPLINE
  5
2D3
330
1B
100
AcDbEntity
 67
     1
  8
7_ALL_FEATURES
  6
Continuous
 62
     7
100
AcDbSpline
 70
     0
 71
     3
 72
     9
 73
     5
 74
     0
 42
0.000000001
 43
0.0000001
 40
0.0
 40
0.0
 40
0.0
 40
0.0
 40
0.4966933765
 40
1.0
 40
1.0
 40
1.0
 40
1.0
 10
245.3591391074
 20
469.8304389815
 30
0.0
 10
245.3591391074
 20
469.9982078839
 30
0.0
 10
245.2646256864
 20
470.3419928131
 30
0.0
 10
245.0076253766
 20
470.5879584794
 30
0.0
 10
244.8591391074
 20
470.6707397296
 30
0.0
  0
SPLINE
  5
2D4
330
1B
100
AcDbEntity
 67
     1
  8
7_ALL_FEATURES
  6
Continuous
 62
     7
100
AcDbSpline
 70
     0
 71
     3
 72
     8
 73
     4
 74
     0
 42
0.000000001
 43
0.0000001
 40
0.0
 40
0.0
 40
0.0
 40
0.0
 40
1.0
 40
1.0
 40
1.0
 40
1.0
 10
244.8591391074
 20
470.6707397296
 30
0.0
 10
244.7087270938
 20
470.7545945844
 30
0.0
 10
244.5313465709
 20
470.8007347078
 30
0.0
 10
244.3591391074
 20
470.8007347078
 30
0.0
  0
SPLINE
  5
2D5
330
1B
100
AcDbEntity
 67
     1
  8
7_ALL_FEATURES
  6
Continuous
 62
     7
100
AcDbSpline
 70
     0
 71
     3
 72
     9
 73
     5
 74
     0
 42
0.000000001
 43
0.0000001
 40
0.0
 40
0.0
 40
0.0
 40
0.0
 40
0.4966933765
 40
1.0
 40
1.0
 40
1.0
 40
1.0
 10
435.3591391074
 20
469.8304389815
 30
0.0
 10
435.3591391074
 20
469.9982078839
 30
0.0
 10
435.2646256864
 20
470.3419928131
 30
0.0
 10
435.0076253766
 20
470.5879584794
 30
0.0
 10
434.8591391074
 20
470.6707397296
 30
0.0
  0
SPLINE
  5
2D6
330
1B
100
AcDbEntity
 67
     1
  8
7_ALL_FEATURES
  6
Continuous
 62
     7
100
AcDbSpline
 70
     0
 71
     3
 72
     8
 73
     4
 74
     0
 42
0.000000001
 43
0.0000001
 40
0.0
 40
0.0
 40
0.0
 40
0.0
 40
1.0
 40
1.0
 40
1.0
 40
1.0
 10
434.8591391074
 20
470.6707397296
 30
0.0
 10
434.7087270938
 20
470.7545945844
 30
0.0
 10
434.5313465709
 20
470.8007347078
 30
0.0
 10
434.3591391074
 20
470.8007347078
 30
0.0
  0
SPLINE
  5
2D7
330
1B
100
AcDbEntity
 67
     1
  8
7_ALL_FEATURES
  6
Continuous
 62
     7
100
AcDbSpline
 70
     0
 71
     3
 72
    11
 73
     7
 74
     0
 42
0.000000001
 43
0.0000001
 40
0.0
 40
0.0
 40
0.0
 40
0.0
 40
0.2465388488
 40
0.4950768808
 40
0.7464965929
 40
1.0
 40
1.0
 40
1.0
 40
1.0
 10
652.8591391074
 20
475.6522133392
 30
0.0
 10
652.8591391074
 20
475.0204092116
 30
0.0
 10
652.5962435218
 20
473.7371423462
 30
0.0
 10
651.4773641733
 20
472.1250088572
 30
0.0
 10
649.8164296487
 20
471.0505058027
 30
0.0
 10
648.5087912808
 20
470.8007347078
 30
0.0
 10
647.8591391074
 20
470.8007347078
 30
0.0
  0
SPLINE
  5
2D8
330
1B
100
AcDbEntity
 67
     1
  8
7_ALL_FEATURES
  6
Continuous
 62
     7
100
AcDbSpline
 70
     0
 71
     3
 72
     8
 73
     4
 74
     0
 42
0.000000001
 43
0.0000001
 40
0.0
 40
0.0
 40
0.0
 40
0.0
 40
1.0
 40
1.0
 40
1.0
 40
1.0
 10
69.3591391074
 20
470.8007347078
 30
0.0
 10
69.1869316439
 20
470.8007347078
 30
0.0
 10
69.0095511209
 20
470.7545945844
 30
0.0
 10
68.8591391074
 20
470.6707397296
 30
0.0
  0
SPLINE
  5
2D9
330
1B
100
AcDbEntity
 67
     1
  8
7_ALL_FEATURES
  6
Continuous
 62
     7
100
AcDbSpline
 70
     0
 71
     3
 72
     8
 73
     4
 74
     0
 42
0.000000001
 43
0.0000001
 40
0.0
 40
0.0
 40
0.0
 40
0.0
 40
1.0
 40
1.0
 40
1.0
 40
1.0
 10
68.8591391074
 20
470.6707397296
 30
0.0
 10
68.7106528381
 20
470.5879584794
 30
0.0
 10
68.579734394
 20
470.4618665888
 30
0.0
 10
68.4931137036
 20
470.3155868446
 30
0.0
  0
SPLINE
  5
2DA
330
1B
100
AcDbEntity
 67
     1
  8
7_ALL_FEATURES
  6
Continuous
 62
     7
100
AcDbSpline
 70
     0
 71
     3
 72
     8
 73
     4
 74
     0
 42
0.000000001
 43
0.0000001
 40
0.0
 40
0.0
 40
0.0
 40
0.0
 40
1.0
 40
1.0
 40
1.0
 40
1.0
 10
259.3591391074
 20
470.8007347078
 30
0.0
 10
259.1869316439
 20
470.8007347078
 30
0.0
 10
259.0095511209
 20
470.7545945844
 30
0.0
 10
258.8591391074
 20
470.6707397296
 30
0.0
  0
SPLINE
  5
2DB
330
1B
100
AcDbEntity
 67
     1
  8
7_ALL_FEATURES
  6
Continuous
 62
     7
100
AcDbSpline
 70
     0
 71
     3
 72
     8
 73
     4
 74
     0
 42
0.000000001
 43
0.0000001
 40
0.0
 40
0.0
 40
0.0
 40
0.0
 40
1.0
 40
1.0
 40
1.0
 40
1.0
 10
258.8591391074
 20
470.6707397296
 30
0.0
 10
258.7106528381
 20
470.5879584794
 30
0.0
 10
258.579734394
 20
470.4618665888
 30
0.0
 10
258.4931137036
 20
470.3155868446
 30
0.0
  0
SPLINE
  5
2DC
330
1B
100
AcDbEntity
 67
     1
  8
7_ALL_FEATURES
  6
Continuous
 62
     7
100
AcDbSpline
 70
     0
 71
     3
 72
     8
 73
     4
 74
     0
 42
0.000000001
 43
0.0000001
 40
0.0
 40
0.0
 40
0.0
 40
0.0
 40
1.0
 40
1.0
 40
1.0
 40
1.0
 10
449.3591391074
 20
470.8007347078
 30
0.0
 10
449.1869316439
 20
470.8007347078
 30
0.0
 10
449.0095511209
 20
470.7545945844
 30
0.0
 10
448.8591391074
 20
470.6707397296
 30
0.0
  0
SPLINE
  5
2DD
330
1B
100
AcDbEntity
 67
     1
  8
7_ALL_FEATURES
  6
Continuous
 62
     7
100
AcDbSpline
 70
     0
 71
     3
 72
     8
 73
     4
 74
     0
 42
0.000000001
 43
0.0000001
 40
0.0
 40
0.0
 40
0.0
 40
0.0
 40
1.0
 40
1.0
 40
1.0
 40
1.0
 10
448.8591391074
 20
470.6707397296
 30
0.0
 10
448.7106528381
 20
470.5879584794
 30
0.0
 10
448.579734394
 20
470.4618665888
 30
0.0
 10
448.4931137036
 20
470.3155868446
 30
0.0
  0
SPLINE
  5
2DE
330
1B
100
AcDbEntity
 67
     1
  8
7_ALL_FEATURES
  6
Continuous
 62
     7
100
AcDbSpline
 70
     0
 71
     3
 72
     9
 73
     5
 74
     0
 42
0.000000001
 43
0.0000001
 40
0.0
 40
0.0
 40
0.0
 40
0.0
 40
0.4966933765
 40
1.0
 40
1.0
 40
1.0
 40
1.0
 10
625.3591391074
 20
469.8304389815
 30
0.0
 10
625.3591391074
 20
469.9982078839
 30
0.0
 10
625.2646256864
 20
470.3419928131
 30
0.0
 10
625.0076253766
 20
470.5879584794
 30
0.0
 10
624.8591391074
 20
470.6707397296
 30
0.0
  0
SPLINE
  5
2DF
330
1B
100
AcDbEntity
 67
     1
  8
7_ALL_FEATURES
  6
Continuous
 62
     7
100
AcDbSpline
 70
     0
 71
     3
 72
     8
 73
     4
 74
     0
 42
0.000000001
 43
0.0000001
 40
0.0
 40
0.0
 40
0.0
 40
0.0
 40
1.0
 40
1.0
 40
1.0
 40
1.0
 10
624.8591391074
 20
470.6707397296
 30
0.0
 10
624.7087270938
 20
470.7545945844
 30
0.0
 10
624.5313465709
 20
470.8007347078
 30
0.0
 10
624.3591391074
 20
470.8007347078
 30
0.0
  0
LINE
  5
2E0
330
1B
100
AcDbEntity
 67
     1
  8
7_ALL_FEATURES
  6
Continuous
 62
     7
100
AcDbLine
 10
647.8591391074
 20
540.6794047596
 30
0.0
 11
45.8591391074
 21
540.6794047596
 31
0.0
  0
SPLINE
  5
2E1
330
1B
100
AcDbEntity
 67
     1
  8
7_ALL_FEATURES
  6
Continuous
 62
     7
100
AcDbSpline
 70
     0
 71
     3
 72
     8
 73
     4
 74
     0
 42
0.000000001
 43
0.0000001
 40
0.0
 40
0.0
 40
0.0
 40
0.0
 40
1.0
 40
1.0
 40
1.0
 40
1.0
 10
639.3591391074
 20
470.8007347078
 30
0.0
 10
639.1869316439
 20
470.8007347078
 30
0.0
 10
639.0095511209
 20
470.7545945844
 30
0.0
 10
638.8591391074
 20
470.6707397296
 30
0.0
  0
SPLINE
  5
2E2
330
1B
100
AcDbEntity
 67
     1
  8
7_ALL_FEATURES
  6
Continuous
 62
     7
100
AcDbSpline
 70
     0
 71
     3
 72
     8
 73
     4
 74
     0
 42
0.000000001
 43
0.0000001
 40
0.0
 40
0.0
 40
0.0
 40
0.0
 40
1.0
 40
1.0
 40
1.0
 40
1.0
 10
638.8591391074
 20
470.6707397296
 30
0.0
 10
638.7106528381
 20
470.5879584794
 30
0.0
 10
638.579734394
 20
470.4618665888
 30
0.0
 10
638.4931137036
 20
470.3155868446
 30
0.0
  0
LINE
  5
2E3
330
1B
100
AcDbEntity
 67
     1
  8
7_ALL_FEATURES
  6
Continuous
 62
     7
100
AcDbLine
 10
40.8591391074
 20
531.1826866654
 30
0.0
 11
40.8591391074
 21
531.0206343861
 31
0.0
  0
LINE
  5
2E4
330
1B
100
AcDbEntity
 67
     1
  8
7_ALL_FEATURES
  6
Continuous
 62
     7
100
AcDbLine
 10
40.8591391074
 20
531.0206343861
 30
0.0
 11
40.8591391074
 21
530.912353291
 31
0.0
  0
LINE
  5
2E5
330
1B
100
AcDbEntity
 67
     1
  8
7_ALL_FEATURES
  6
Continuous
 62
     7
100
AcDbLine
 10
58.3591391074
 20
467.6874198287
 30
0.0
 11
55.3591391074
 21
467.6874198287
 31
0.0
  0
LINE
  5
2E6
330
1B
100
AcDbEntity
 67
     1
  8
7_ALL_FEATURES
  6
Continuous
 62
     7
100
AcDbLine
 10
58.3591391074
 20
467.6874198287
 30
0.0
 11
65.3591391074
 21
467.6874198287
 31
0.0
  0
LINE
  5
2E7
330
1B
100
AcDbEntity
 67
     1
  8
7_ALL_FEATURES
  6
Continuous
 62
     7
100
AcDbLine
 10
68.3591391074
 20
467.6874198287
 30
0.0
 11
65.3591391074
 21
467.6874198287
 31
0.0
  0
LINE
  5
2E8
330
1B
100
AcDbEntity
 67
     1
  8
7_ALL_FEATURES
  6
Continuous
 62
     7
100
AcDbLine
 10
638.3591391074
 20
467.6874198287
 30
0.0
 11
638.3591391074
 21
468.4874198287
 31
0.0
  0
LINE
  5
2E9
330
1B
100
AcDbEntity
 67
     1
  8
7_ALL_FEATURES
  6
Continuous
 62
     7
100
AcDbLine
 10
248.3591391074
 20
467.6874198287
 30
0.0
 11
245.3591391074
 21
467.6874198287
 31
0.0
  0
LINE
  5
2EA
330
1B
100
AcDbEntity
 67
     1
  8
7_ALL_FEATURES
  6
Continuous
 62
     7
100
AcDbLine
 10
248.3591391074
 20
467.6874198287
 30
0.0
 11
255.3591391074
 21
467.6874198287
 31
0.0
  0
LINE
  5
2EB
330
1B
100
AcDbEntity
 67
     1
  8
7_ALL_FEATURES
  6
Continuous
 62
     7
100
AcDbLine
 10
258.3591391074
 20
467.6874198287
 30
0.0
 11
255.3591391074
 21
467.6874198287
 31
0.0
  0
LINE
  5
2EC
330
1B
100
AcDbEntity
 67
     1
  8
7_ALL_FEATURES
  6
Continuous
 62
     7
100
AcDbLine
 10
625.3591391074
 20
467.6874198287
 30
0.0
 11
625.3591391074
 21
468.4874198287
 31
0.0
  0
LINE
  5
2ED
330
1B
100
AcDbEntity
 67
     1
  8
7_ALL_FEATURES
  6
Continuous
 62
     7
100
AcDbLine
 10
448.3591391074
 20
467.6874198287
 30
0.0
 11
448.3591391074
 21
468.4874198287
 31
0.0
  0
LINE
  5
2EE
330
1B
100
AcDbEntity
 67
     1
  8
7_ALL_FEATURES
  6
Continuous
 62
     7
100
AcDbLine
 10
435.3591391074
 20
467.6874198287
 30
0.0
 11
435.3591391074
 21
468.4874198287
 31
0.0
  0
LINE
  5
2EF
330
1B
100
AcDbEntity
 67
     1
  8
7_ALL_FEATURES
  6
Continuous
 62
     7
100
AcDbLine
 10
258.3591391074
 20
467.6874198287
 30
0.0
 11
258.3591391074
 21
468.4874198287
 31
0.0
  0
LINE
  5
2F0
330
1B
100
AcDbEntity
 67
     1
  8
7_ALL_FEATURES
  6
Continuous
 62
     7
100
AcDbLine
 10
245.3591391074
 20
467.6874198287
 30
0.0
 11
245.3591391074
 21
468.4874198287
 31
0.0
  0
LINE
  5
2F1
330
1B
100
AcDbEntity
 67
     1
  8
7_ALL_FEATURES
  6
Continuous
 62
     7
100
AcDbLine
 10
438.3591391074
 20
467.6874198287
 30
0.0
 11
435.3591391074
 21
467.6874198287
 31
0.0
  0
LINE
  5
2F2
330
1B
100
AcDbEntity
 67
     1
  8
7_ALL_FEATURES
  6
Continuous
 62
     7
100
AcDbLine
 10
438.3591391074
 20
467.6874198287
 30
0.0
 11
445.3591391074
 21
467.6874198287
 31
0.0
  0
LINE
  5
2F3
330
1B
100
AcDbEntity
 67
     1
  8
7_ALL_FEATURES
  6
Continuous
 62
     7
100
AcDbLine
 10
628.3591391074
 20
467.6874198287
 30
0.0
 11
625.3591391074
 21
467.6874198287
 31
0.0
  0
LINE
  5
2F4
330
1B
100
AcDbEntity
 67
     1
  8
7_ALL_FEATURES
  6
Continuous
 62
     7
100
AcDbLine
 10
628.3591391074
 20
467.6874198287
 30
0.0
 11
635.3591391074
 21
467.6874198287
 31
0.0
  0
LINE
  5
2F5
330
1B
100
AcDbEntity
 67
     1
  8
7_ALL_FEATURES
  6
Continuous
 62
     7
100
AcDbLine
 10
638.3591391074
 20
467.6874198287
 30
0.0
 11
635.3591391074
 21
467.6874198287
 31
0.0
  0
LINE
  5
2F6
330
1B
100
AcDbEntity
 67
     1
  8
7_ALL_FEATURES
  6
Continuous
 62
     7
100
AcDbLine
 10
68.3591391074
 20
467.6874198287
 30
0.0
 11
68.3591391074
 21
468.4874198287
 31
0.0
  0
LINE
  5
2F7
330
1B
100
AcDbEntity
 67
     1
  8
7_ALL_FEATURES
  6
Continuous
 62
     7
100
AcDbLine
 10
55.3591391074
 20
467.6874198287
 30
0.0
 11
55.3591391074
 21
468.4874198287
 31
0.0
  0
LINE
  5
2F8
330
1B
100
AcDbEntity
 67
     1
  8
7_ALL_FEATURES
  6
Continuous
 62
     7
100
AcDbLine
 10
624.3591391074
 20
470.8007347078
 30
0.0
 11
449.3591391074
 21
470.8007347078
 31
0.0
  0
LINE
  5
2F9
330
1B
100
AcDbEntity
 67
     1
  8
7_ALL_FEATURES
  6
Continuous
 62
     7
100
AcDbLine
 10
647.8591391074
 20
470.8007347078
 30
0.0
 11
639.3591391074
 21
470.8007347078
 31
0.0
  0
SPLINE
  5
2FA
330
1B
100
AcDbEntity
 67
     1
  8
7_ALL_FEATURES
  6
Continuous
 62
     7
100
AcDbSpline
 70
     0
 71
     3
 72
    11
 73
     7
 74
     0
 42
0.000000001
 43
0.0000001
 40
0.0
 40
0.0
 40
0.0
 40
0.0
 40
0.2535034071
 40
0.5049231192
 40
0.7534611512
 40
1.0
 40
1.0
 40
1.0
 40
1.0
 10
45.8591391074
 20
470.8007347078
 30
0.0
 10
45.209486934
 20
470.8007347078
 30
0.0
 10
43.9018485661
 20
471.0505058027
 30
0.0
 10
42.2409140414
 20
472.1250088572
 30
0.0
 10
41.1220346929
 20
473.7371423462
 30
0.0
 10
40.8591391074
 20
475.0204092116
 30
0.0
 10
40.8591391074
 20
475.6522133392
 30
0.0
  0
LINE
  5
2FB
330
1B
100
AcDbEntity
 67
     1
  8
7_ALL_FEATURES
  6
Continuous
 62
     7
100
AcDbLine
 10
45.8591391074
 20
470.8007347078
 30
0.0
 11
54.3591391074
 21
470.8007347078
 31
0.0
  0
LINE
  5
2FC
330
1B
100
AcDbEntity
 67
     1
  8
7_ALL_FEATURES
  6
Continuous
 62
     7
100
AcDbLine
 10
434.3591391074
 20
470.8007347078
 30
0.0
 11
259.3591391074
 21
470.8007347078
 31
0.0
  0
LINE
  5
2FD
330
1B
100
AcDbEntity
 67
     1
  8
7_ALL_FEATURES
  6
Continuous
 62
     7
100
AcDbLine
 10
244.3591391074
 20
470.8007347078
 30
0.0
 11
69.3591391074
 21
470.8007347078
 31
0.0
  0
LINE
  5
2FE
330
1B
100
AcDbEntity
 67
     1
  8
7_ALL_FEATURES
  6
Continuous
 62
     9
100
AcDbLine
 10
449.3591391074
 20
470.9942722243
 30
0.0
 11
449.3591391074
 21
470.8007347078
 31
0.0
  0
LINE
  5
2FF
330
1B
100
AcDbEntity
 67
     1
  8
7_ALL_FEATURES
  6
Continuous
 62
     9
100
AcDbLine
 10
624.3591391074
 20
470.9942722243
 30
0.0
 11
624.3591391074
 21
470.8007347078
 31
0.0
  0
LINE
  5
300
330
1B
100
AcDbEntity
 67
     1
  8
7_ALL_FEATURES
  6
Continuous
 62
     9
100
AcDbLine
 10
647.8591391074
 20
470.8007347078
 30
0.0
 11
647.8591391074
 21
470.9942722243
 31
0.0
  0
LINE
  5
301
330
1B
100
AcDbEntity
 67
     1
  8
7_ALL_FEATURES
  6
Continuous
 62
     9
100
AcDbLine
 10
639.3591391074
 20
470.9942722243
 30
0.0
 11
639.3591391074
 21
470.8007347078
 31
0.0
  0
LINE
  5
302
330
1B
100
AcDbEntity
 67
     1
  8
7_ALL_FEATURES
  6
Continuous
 62
     9
100
AcDbLine
 10
45.8591391074
 20
470.8007347078
 30
0.0
 11
45.8591391074
 21
470.9942722243
 31
0.0
  0
LINE
  5
303
330
1B
100
AcDbEntity
 67
     1
  8
7_ALL_FEATURES
  6
Continuous
 62
     9
100
AcDbLine
 10
54.3591391074
 20
470.9942722243
 30
0.0
 11
54.3591391074
 21
470.8007347078
 31
0.0
  0
LINE
  5
304
330
1B
100
AcDbEntity
 67
     1
  8
7_ALL_FEATURES
  6
Continuous
 62
     9
100
AcDbLine
 10
45.8591391074
 20
540.3224465091
 30
0.0
 11
45.8591391074
 21
540.6794047596
 31
0.0
  0
LINE
  5
305
330
1B
100
AcDbEntity
 67
     1
  8
7_ALL_FEATURES
  6
Continuous
 62
     9
100
AcDbLine
 10
647.8591391074
 20
540.3224465091
 30
0.0
 11
647.8591391074
 21
540.6794047596
 31
0.0
  0
LINE
  5
306
330
1B
100
AcDbEntity
 67
     1
  8
7_ALL_FEATURES
  6
Continuous
 62
     9
100
AcDbLine
 10
635.3591391074
 20
467.6874198287
 30
0.0
 11
635.3591391074
 21
468.4874198287
 31
0.0
  0
LINE
  5
307
330
1B
100
AcDbEntity
 67
     1
  8
7_ALL_FEATURES
  6
Continuous
 62
     9
100
AcDbLine
 10
628.3591391074
 20
467.6874198287
 30
0.0
 11
628.3591391074
 21
468.4874198287
 31
0.0
  0
LINE
  5
308
330
1B
100
AcDbEntity
 67
     1
  8
7_ALL_FEATURES
  6
Continuous
 62
     9
100
AcDbLine
 10
438.3591391074
 20
467.6874198287
 30
0.0
 11
438.3591391074
 21
468.4874198287
 31
0.0
  0
LINE
  5
309
330
1B
100
AcDbEntity
 67
     1
  8
7_ALL_FEATURES
  6
Continuous
 62
     9
100
AcDbLine
 10
445.3591391074
 20
467.6874198287
 30
0.0
 11
445.3591391074
 21
468.4874198287
 31
0.0
  0
LINE
  5
30A
330
1B
100
AcDbEntity
 67
     1
  8
7_ALL_FEATURES
  6
Continuous
 62
     9
100
AcDbLine
 10
69.3591391074
 20
470.9942722243
 30
0.0
 11
69.3591391074
 21
470.8007347078
 31
0.0
  0
LINE
  5
30B
330
1B
100
AcDbEntity
 67
     1
  8
7_ALL_FEATURES
  6
Continuous
 62
     9
100
AcDbLine
 10
244.3591391074
 20
470.9942722243
 30
0.0
 11
244.3591391074
 21
470.8007347078
 31
0.0
  0
LINE
  5
30C
330
1B
100
AcDbEntity
 67
     1
  8
7_ALL_FEATURES
  6
Continuous
 62
     9
100
AcDbLine
 10
255.3591391074
 20
467.6874198287
 30
0.0
 11
255.3591391074
 21
468.4874198287
 31
0.0
  0
LINE
  5
30D
330
1B
100
AcDbEntity
 67
     1
  8
7_ALL_FEATURES
  6
Continuous
 62
     9
100
AcDbLine
 10
65.3591391074
 20
467.6874198287
 30
0.0
 11
65.3591391074
 21
468.4874198287
 31
0.0
  0
LINE
  5
30E
330
1B
100
AcDbEntity
 67
     1
  8
7_ALL_FEATURES
  6
Continuous
 62
     9
100
AcDbLine
 10
248.3591391074
 20
467.6874198287
 30
0.0
 11
248.3591391074
 21
468.4874198287
 31
0.0
  0
LINE
  5
30F
330
1B
100
AcDbEntity
 67
     1
  8
7_ALL_FEATURES
  6
Continuous
 62
     9
100
AcDbLine
 10
58.3591391074
 20
467.6874198287
 30
0.0
 11
58.3591391074
 21
468.4874198287
 31
0.0
  0
LINE
  5
310
330
1B
100
AcDbEntity
 67
     1
  8
7_ALL_FEATURES
  6
Continuous
 62
     9
100
AcDbLine
 10
259.3591391074
 20
470.9942722243
 30
0.0
 11
259.3591391074
 21
470.8007347078
 31
0.0
  0
LINE
  5
311
330
1B
100
AcDbEntity
 67
     1
  8
7_ALL_FEATURES
  6
Continuous
 62
     9
100
AcDbLine
 10
434.3591391074
 20
470.9942722243
 30
0.0
 11
434.3591391074
 21
470.8007347078
 31
0.0
  0
LINE
  5
312
330
1B
100
AcDbEntity
 67
     1
  8
7_ALL_FEATURES
  6
Continuous
 62
     3
100
AcDbLine
 10
625.3591391074
 20
468.4874198287
 30
0.0
 11
628.3591391074
 21
468.4874198287
 31
0.0
  0
LINE
  5
313
330
1B
100
AcDbEntity
 67
     1
  8
7_ALL_FEATURES
  6
Continuous
 62
     3
100
AcDbLine
 10
435.3591391074
 20
468.4874198287
 30
0.0
 11
438.3591391074
 21
468.4874198287
 31
0.0
  0
LINE
  5
314
330
1B
100
AcDbEntity
 67
     1
  8
7_ALL_FEATURES
  6
Continuous
 62
     3
100
AcDbLine
 10
245.3591391074
 20
468.4874198287
 30
0.0
 11
248.3591391074
 21
468.4874198287
 31
0.0
  0
LINE
  5
315
330
1B
100
AcDbEntity
 67
     1
  8
7_ALL_FEATURES
  6
Continuous
 62
     3
100
AcDbLine
 10
55.3591391074
 20
468.4874198287
 30
0.0
 11
58.3591391074
 21
468.4874198287
 31
0.0
  0
LINE
  5
316
330
1B
100
AcDbEntity
 67
     1
  8
7_ALL_FEATURES
  6
Continuous
 62
     3
100
AcDbLine
 10
65.3591391074
 20
468.4874198287
 30
0.0
 11
68.3591391074
 21
468.4874198287
 31
0.0
  0
LINE
  5
317
330
1B
100
AcDbEntity
 67
     1
  8
7_ALL_FEATURES
  6
Continuous
 62
     3
100
AcDbLine
 10
58.3591391074
 20
468.4874198287
 30
0.0
 11
65.3591391074
 21
468.4874198287
 31
0.0
  0
LINE
  5
318
330
1B
100
AcDbEntity
 67
     1
  8
7_ALL_FEATURES
  6
Continuous
 62
     3
100
AcDbLine
 10
255.3591391074
 20
468.4874198287
 30
0.0
 11
258.3591391074
 21
468.4874198287
 31
0.0
  0
LINE
  5
319
330
1B
100
AcDbEntity
 67
     1
  8
7_ALL_FEATURES
  6
Continuous
 62
     3
100
AcDbLine
 10
248.3591391074
 20
468.4874198287
 30
0.0
 11
255.3591391074
 21
468.4874198287
 31
0.0
  0
LINE
  5
31A
330
1B
100
AcDbEntity
 67
     1
  8
7_ALL_FEATURES
  6
Continuous
 62
     3
100
AcDbLine
 10
445.3591391074
 20
468.4874198287
 30
0.0
 11
448.3591391074
 21
468.4874198287
 31
0.0
  0
LINE
  5
31B
330
1B
100
AcDbEntity
 67
     1
  8
7_ALL_FEATURES
  6
Continuous
 62
     3
100
AcDbLine
 10
438.3591391074
 20
468.4874198287
 30
0.0
 11
445.3591391074
 21
468.4874198287
 31
0.0
  0
LINE
  5
31C
330
1B
100
AcDbEntity
 67
     1
  8
7_ALL_FEATURES
  6
Continuous
 62
     3
100
AcDbLine
 10
635.3591391074
 20
468.4874198287
 30
0.0
 11
638.3591391074
 21
468.4874198287
 31
0.0
  0
LINE
  5
31D
330
1B
100
AcDbEntity
 67
     1
  8
7_ALL_FEATURES
  6
Continuous
 62
     3
100
AcDbLine
 10
628.3591391074
 20
468.4874198287
 30
0.0
 11
635.3591391074
 21
468.4874198287
 31
0.0
  0
LINE
  5
31E
330
1B
100
AcDbEntity
 67
     1
  8
7_ALL_FEATURES
  6
Continuous
 62
     3
100
AcDbLine
 10
625.3591391074
 20
469.0938823122
 30
0.0
 11
625.3591391074
 21
469.8304389815
 31
0.0
  0
LINE
  5
31F
330
1B
100
AcDbEntity
 67
     1
  8
7_ALL_FEATURES
  6
Continuous
 62
     3
100
AcDbLine
 10
625.3591391074
 20
469.8304389815
 30
0.0
 11
625.3591391074
 21
470.023976498
 31
0.0
  0
LINE
  5
320
330
1B
100
AcDbEntity
 67
     1
  8
7_ALL_FEATURES
  6
Continuous
 62
     3
100
AcDbLine
 10
448.3591391074
 20
469.0938823122
 30
0.0
 11
448.3591391074
 21
469.8304389815
 31
0.0
  0
LINE
  5
321
330
1B
100
AcDbEntity
 67
     1
  8
7_ALL_FEATURES
  6
Continuous
 62
     3
100
AcDbLine
 10
448.3591391074
 20
469.8304389815
 30
0.0
 11
448.3591391074
 21
470.023976498
 31
0.0
  0
LINE
  5
322
330
1B
100
AcDbEntity
 67
     1
  8
7_ALL_FEATURES
  6
Continuous
 62
     3
100
AcDbLine
 10
435.3591391074
 20
469.0938823122
 30
0.0
 11
435.3591391074
 21
469.8304389815
 31
0.0
  0
LINE
  5
323
330
1B
100
AcDbEntity
 67
     1
  8
7_ALL_FEATURES
  6
Continuous
 62
     3
100
AcDbLine
 10
435.3591391074
 20
469.8304389815
 30
0.0
 11
435.3591391074
 21
470.023976498
 31
0.0
  0
LINE
  5
324
330
1B
100
AcDbEntity
 67
     1
  8
7_ALL_FEATURES
  6
Continuous
 62
     3
100
AcDbLine
 10
258.3591391074
 20
469.0938823122
 30
0.0
 11
258.3591391074
 21
469.8304389815
 31
0.0
  0
LINE
  5
325
330
1B
100
AcDbEntity
 67
     1
  8
7_ALL_FEATURES
  6
Continuous
 62
     3
100
AcDbLine
 10
258.3591391074
 20
469.8304389815
 30
0.0
 11
258.3591391074
 21
470.023976498
 31
0.0
  0
LINE
  5
326
330
1B
100
AcDbEntity
 67
     1
  8
7_ALL_FEATURES
  6
Continuous
 62
     3
100
AcDbLine
 10
245.3591391074
 20
469.0938823122
 30
0.0
 11
245.3591391074
 21
469.8304389815
 31
0.0
  0
LINE
  5
327
330
1B
100
AcDbEntity
 67
     1
  8
7_ALL_FEATURES
  6
Continuous
 62
     3
100
AcDbLine
 10
245.3591391074
 20
469.8304389815
 30
0.0
 11
245.3591391074
 21
470.023976498
 31
0.0
  0
LINE
  5
328
330
1B
100
AcDbEntity
 67
     1
  8
7_ALL_FEATURES
  6
Continuous
 62
     3
100
AcDbLine
 10
68.3591391074
 20
469.0938823122
 30
0.0
 11
68.3591391074
 21
469.8304389815
 31
0.0
  0
LINE
  5
329
330
1B
100
AcDbEntity
 67
     1
  8
7_ALL_FEATURES
  6
Continuous
 62
     3
100
AcDbLine
 10
68.3591391074
 20
469.8304389815
 30
0.0
 11
68.3591391074
 21
470.023976498
 31
0.0
  0
LINE
  5
32A
330
1B
100
AcDbEntity
 67
     1
  8
7_ALL_FEATURES
  6
Continuous
 62
     3
100
AcDbLine
 10
55.3591391074
 20
469.0938823122
 30
0.0
 11
55.3591391074
 21
469.8304389815
 31
0.0
  0
LINE
  5
32B
330
1B
100
AcDbEntity
 67
     1
  8
7_ALL_FEATURES
  6
Continuous
 62
     3
100
AcDbLine
 10
55.3591391074
 20
469.8304389815
 30
0.0
 11
55.3591391074
 21
470.023976498
 31
0.0
  0
LINE
  5
32C
330
1B
100
AcDbEntity
 67
     1
  8
7_ALL_FEATURES
  6
Continuous
 62
     3
100
AcDbLine
 10
638.3591391074
 20
469.0938823122
 30
0.0
 11
638.3591391074
 21
469.8304389815
 31
0.0
  0
LINE
  5
32D
330
1B
100
AcDbEntity
 67
     1
  8
7_ALL_FEATURES
  6
Continuous
 62
     3
100
AcDbLine
 10
638.3591391074
 20
469.8304389815
 30
0.0
 11
638.3591391074
 21
470.023976498
 31
0.0
  0
LINE
  5
32E
330
1B
100
AcDbEntity
 67
     1
  8
7_ALL_FEATURES
  6
Continuous
 62
     3
100
AcDbLine
 10
55.3591391074
 20
469.0938823122
 30
0.0
 11
55.3591391074
 21
468.4874198287
 31
0.0
  0
LINE
  5
32F
330
1B
100
AcDbEntity
 67
     1
  8
7_ALL_FEATURES
  6
Continuous
 62
     3
100
AcDbLine
 10
68.3591391074
 20
469.0938823122
 30
0.0
 11
68.3591391074
 21
468.4874198287
 31
0.0
  0
LINE
  5
330
330
1B
100
AcDbEntity
 67
     1
  8
7_ALL_FEATURES
  6
Continuous
 62
     3
100
AcDbLine
 10
652.8591391074
 20
531.0206343861
 30
0.0
 11
652.8591391074
 21
535.8477747011
 31
0.0
  0
LINE
  5
331
330
1B
100
AcDbEntity
 67
     1
  8
7_ALL_FEATURES
  6
Continuous
 62
     3
100
AcDbLine
 10
40.8591391074
 20
531.0206343861
 30
0.0
 11
40.8591391074
 21
531.1826866654
 31
0.0
  0
LINE
  5
332
330
1B
100
AcDbEntity
 67
     1
  8
7_ALL_FEATURES
  6
Continuous
 62
     3
100
AcDbLine
 10
40.8591391074
 20
531.1826866654
 30
0.0
 11
40.8591391074
 21
535.8477747011
 31
0.0
  0
LINE
  5
333
330
1B
100
AcDbEntity
 67
     1
  8
7_ALL_FEATURES
  6
Continuous
 62
     3
100
AcDbLine
 10
652.8591391074
 20
530.912353291
 30
0.0
 11
652.8591391074
 21
531.0206343861
 31
0.0
  0
LINE
  5
334
330
1B
100
AcDbEntity
 67
     1
  8
7_ALL_FEATURES
  6
Continuous
 62
     3
100
AcDbLine
 10
40.8591391074
 20
530.912353291
 30
0.0
 11
40.8591391074
 21
531.0206343861
 31
0.0
  0
LINE
  5
335
330
1B
100
AcDbEntity
 67
     1
  8
7_ALL_FEATURES
  6
Continuous
 62
     3
100
AcDbLine
 10
652.8591391074
 20
521.2298197255
 30
0.0
 11
652.8591391074
 21
530.912353291
 31
0.0
  0
LINE
  5
336
330
1B
100
AcDbEntity
 67
     1
  8
7_ALL_FEATURES
  6
Continuous
 62
     3
100
AcDbLine
 10
40.8591391074
 20
521.2298197255
 30
0.0
 11
40.8591391074
 21
530.912353291
 31
0.0
  0
LINE
  5
337
330
1B
100
AcDbEntity
 67
     1
  8
7_ALL_FEATURES
  6
Continuous
 62
     3
100
AcDbLine
 10
652.8591391074
 20
521.1168540618
 30
0.0
 11
652.8591391074
 21
521.2298197255
 31
0.0
  0
LINE
  5
338
330
1B
100
AcDbEntity
 67
     1
  8
7_ALL_FEATURES
  6
Continuous
 62
     3
100
AcDbLine
 10
40.8591391074
 20
521.1168540618
 30
0.0
 11
40.8591391074
 21
521.2298197255
 31
0.0
  0
LINE
  5
339
330
1B
100
AcDbEntity
 67
     1
  8
7_ALL_FEATURES
  6
Continuous
 62
     3
100
AcDbLine
 10
638.3591391074
 20
469.0938823122
 30
0.0
 11
638.3591391074
 21
468.4874198287
 31
0.0
  0
LINE
  5
33A
330
1B
100
AcDbEntity
 67
     1
  8
7_ALL_FEATURES
  6
Continuous
 62
     3
100
AcDbLine
 10
625.3591391074
 20
469.0938823122
 30
0.0
 11
625.3591391074
 21
468.4874198287
 31
0.0
  0
LINE
  5
33B
330
1B
100
AcDbEntity
 67
     1
  8
7_ALL_FEATURES
  6
Continuous
 62
     3
100
AcDbLine
 10
652.8591391074
 20
511.0928301761
 30
0.0
 11
652.8591391074
 21
521.1168540618
 31
0.0
  0
LINE
  5
33C
330
1B
100
AcDbEntity
 67
     1
  8
7_ALL_FEATURES
  6
Continuous
 62
     3
100
AcDbLine
 10
40.8591391074
 20
511.0928301761
 30
0.0
 11
40.8591391074
 21
521.1168540618
 31
0.0
  0
LINE
  5
33D
330
1B
100
AcDbEntity
 67
     1
  8
7_ALL_FEATURES
  6
Continuous
 62
     3
100
AcDbLine
 10
448.3591391074
 20
469.0938823122
 30
0.0
 11
448.3591391074
 21
468.4874198287
 31
0.0
  0
LINE
  5
33E
330
1B
100
AcDbEntity
 67
     1
  8
7_ALL_FEATURES
  6
Continuous
 62
     3
100
AcDbLine
 10
652.8591391074
 20
510.9767459966
 30
0.0
 11
652.8591391074
 21
511.0928301761
 31
0.0
  0
LINE
  5
33F
330
1B
100
AcDbEntity
 67
     1
  8
7_ALL_FEATURES
  6
Continuous
 62
     3
100
AcDbLine
 10
435.3591391074
 20
469.0938823122
 30
0.0
 11
435.3591391074
 21
468.4874198287
 31
0.0
  0
LINE
  5
340
330
1B
100
AcDbEntity
 67
     1
  8
7_ALL_FEATURES
  6
Continuous
 62
     3
100
AcDbLine
 10
40.8591391074
 20
510.9767459966
 30
0.0
 11
40.8591391074
 21
511.0928301761
 31
0.0
  0
LINE
  5
341
330
1B
100
AcDbEntity
 67
     1
  8
7_ALL_FEATURES
  6
Continuous
 62
     3
100
AcDbLine
 10
652.8591391074
 20
500.7501956969
 30
0.0
 11
652.8591391074
 21
510.9767459966
 31
0.0
  0
LINE
  5
342
330
1B
100
AcDbEntity
 67
     1
  8
7_ALL_FEATURES
  6
Continuous
 62
     3
100
AcDbLine
 10
258.3591391074
 20
469.0938823122
 30
0.0
 11
258.3591391074
 21
468.4874198287
 31
0.0
  0
LINE
  5
343
330
1B
100
AcDbEntity
 67
     1
  8
7_ALL_FEATURES
  6
Continuous
 62
     3
100
AcDbLine
 10
40.8591391074
 20
500.7501956969
 30
0.0
 11
40.8591391074
 21
510.9767459966
 31
0.0
  0
LINE
  5
344
330
1B
100
AcDbEntity
 67
     1
  8
7_ALL_FEATURES
  6
Continuous
 62
     3
100
AcDbLine
 10
245.3591391074
 20
469.0938823122
 30
0.0
 11
245.3591391074
 21
468.4874198287
 31
0.0
  0
LINE
  5
345
330
1B
100
AcDbEntity
 67
     1
  8
7_ALL_FEATURES
  6
Continuous
 62
     3
100
AcDbLine
 10
652.8591391074
 20
500.6326022865
 30
0.0
 11
652.8591391074
 21
500.7501956969
 31
0.0
  0
LINE
  5
346
330
1B
100
AcDbEntity
 67
     1
  8
7_ALL_FEATURES
  6
Continuous
 62
     3
100
AcDbLine
 10
40.8591391074
 20
500.6326022865
 30
0.0
 11
40.8591391074
 21
500.7501956969
 31
0.0
  0
LINE
  5
347
330
1B
100
AcDbEntity
 67
     1
  8
7_ALL_FEATURES
  6
Continuous
 62
     3
100
AcDbLine
 10
652.8591391074
 20
490.34529712
 30
0.0
 11
652.8591391074
 21
500.6326022865
 31
0.0
  0
LINE
  5
348
330
1B
100
AcDbEntity
 67
     1
  8
7_ALL_FEATURES
  6
Continuous
 62
     3
100
AcDbLine
 10
40.8591391074
 20
490.34529712
 30
0.0
 11
40.8591391074
 21
500.6326022865
 31
0.0
  0
LINE
  5
349
330
1B
100
AcDbEntity
 67
     1
  8
7_ALL_FEATURES
  6
Continuous
 62
     3
100
AcDbLine
 10
652.8591391074
 20
490.2278246864
 30
0.0
 11
652.8591391074
 21
490.34529712
 31
0.0
  0
LINE
  5
34A
330
1B
100
AcDbEntity
 67
     1
  8
7_ALL_FEATURES
  6
Continuous
 62
     3
100
AcDbLine
 10
40.8591391074
 20
490.2278246864
 30
0.0
 11
40.8591391074
 21
490.34529712
 31
0.0
  0
LINE
  5
34B
330
1B
100
AcDbEntity
 67
     1
  8
7_ALL_FEATURES
  6
Continuous
 62
     3
100
AcDbLine
 10
652.8591391074
 20
480.0223784502
 30
0.0
 11
652.8591391074
 21
490.2278246864
 31
0.0
  0
LINE
  5
34C
330
1B
100
AcDbEntity
 67
     1
  8
7_ALL_FEATURES
  6
Continuous
 62
     3
100
AcDbLine
 10
40.8591391074
 20
480.0223784502
 30
0.0
 11
40.8591391074
 21
490.2278246864
 31
0.0
  0
LINE
  5
34D
330
1B
100
AcDbEntity
 67
     1
  8
7_ALL_FEATURES
  6
Continuous
 62
     3
100
AcDbLine
 10
652.8591391074
 20
479.9066555237
 30
0.0
 11
652.8591391074
 21
480.0223784502
 31
0.0
  0
LINE
  5
34E
330
1B
100
AcDbEntity
 67
     1
  8
7_ALL_FEATURES
  6
Continuous
 62
     3
100
AcDbLine
 10
40.8591391074
 20
479.9066555237
 30
0.0
 11
40.8591391074
 21
480.0223784502
 31
0.0
  0
LINE
  5
34F
330
1B
100
AcDbEntity
 67
     1
  8
7_ALL_FEATURES
  6
Continuous
 62
     3
100
AcDbLine
 10
652.8591391074
 20
475.8457508556
 30
0.0
 11
652.8591391074
 21
479.9066555237
 31
0.0
  0
LINE
  5
350
330
1B
100
AcDbEntity
 67
     1
  8
7_ALL_FEATURES
  6
Continuous
 62
     3
100
AcDbLine
 10
40.8591391074
 20
475.8457508556
 30
0.0
 11
40.8591391074
 21
479.9066555237
 31
0.0
  0
SPLINE
  5
351
330
1B
100
AcDbEntity
 67
     1
  8
7_ALL_FEATURES
  6
Continuous
 62
     3
100
AcDbSpline
 70
     0
 71
     3
 72
     9
 73
     5
 74
     0
 42
0.000000001
 43
0.0000001
 40
0.0
 40
0.0
 40
0.0
 40
0.0
 40
0.4966933765
 40
1.0
 40
1.0
 40
1.0
 40
1.0
 10
638.3591391074
 20
470.023976498
 30
0.0
 10
638.3591391074
 20
470.1917454004
 30
0.0
 10
638.4536525284
 20
470.5355303295
 30
0.0
 10
638.7106528381
 20
470.7814959958
 30
0.0
 10
638.8591391074
 20
470.8642772461
 30
0.0
  0
SPLINE
  5
352
330
1B
100
AcDbEntity
 67
     1
  8
7_ALL_FEATURES
  6
Continuous
 62
     3
100
AcDbSpline
 70
     0
 71
     3
 72
     8
 73
     4
 74
     0
 42
0.000000001
 43
0.0000001
 40
0.0
 40
0.0
 40
0.0
 40
0.0
 40
1.0
 40
1.0
 40
1.0
 40
1.0
 10
638.8591391074
 20
470.8642772461
 30
0.0
 10
639.0095511209
 20
470.9481321009
 30
0.0
 10
639.1869316439
 20
470.9942722243
 30
0.0
 10
639.3591391074
 20
470.9942722243
 30
0.0
  0
LINE
  5
353
330
1B
100
AcDbEntity
 67
     1
  8
7_ALL_FEATURES
  6
Continuous
 62
     9
100
AcDbLine
 10
258.3591391074
 20
469.0938823122
 30
0.0
 11
255.3591391074
 21
469.0938823122
 31
0.0
  0
LINE
  5
354
330
1B
100
AcDbEntity
 67
     1
  8
7_ALL_FEATURES
  6
Continuous
 62
     9
100
AcDbLine
 10
255.3591391074
 20
469.0938823122
 30
0.0
 11
253.6091391074
 21
469.0938823122
 31
0.0
  0
LINE
  5
355
330
1B
100
AcDbEntity
 67
     1
  8
7_ALL_FEATURES
  6
Continuous
 62
     9
100
AcDbLine
 10
253.6091391074
 20
469.0938823122
 30
0.0
 11
250.1091391074
 21
469.0938823122
 31
0.0
  0
LINE
  5
356
330
1B
100
AcDbEntity
 67
     1
  8
7_ALL_FEATURES
  6
Continuous
 62
     9
100
AcDbLine
 10
250.1091391074
 20
469.0938823122
 30
0.0
 11
248.3591391074
 21
469.0938823122
 31
0.0
  0
LINE
  5
357
330
1B
100
AcDbEntity
 67
     1
  8
7_ALL_FEATURES
  6
Continuous
 62
     9
100
AcDbLine
 10
248.3591391074
 20
469.0938823122
 30
0.0
 11
245.3591391074
 21
469.0938823122
 31
0.0
  0
SPLINE
  5
358
330
1B
100
AcDbEntity
 67
     1
  8
7_ALL_FEATURES
  6
Continuous
 62
     3
100
AcDbSpline
 70
     0
 71
     3
 72
     9
 73
     5
 74
     0
 42
0.000000001
 43
0.0000001
 40
0.0
 40
0.0
 40
0.0
 40
0.0
 40
0.4966933765
 40
1.0
 40
1.0
 40
1.0
 40
1.0
 10
68.3591391074
 20
470.023976498
 30
0.0
 10
68.3591391074
 20
470.1917454004
 30
0.0
 10
68.4536525284
 20
470.5355303295
 30
0.0
 10
68.7106528381
 20
470.7814959958
 30
0.0
 10
68.8591391074
 20
470.8642772461
 30
0.0
  0
SPLINE
  5
359
330
1B
100
AcDbEntity
 67
     1
  8
7_ALL_FEATURES
  6
Continuous
 62
     3
100
AcDbSpline
 70
     0
 71
     3
 72
     8
 73
     4
 74
     0
 42
0.000000001
 43
0.0000001
 40
0.0
 40
0.0
 40
0.0
 40
0.0
 40
1.0
 40
1.0
 40
1.0
 40
1.0
 10
68.8591391074
 20
470.8642772461
 30
0.0
 10
69.0095511209
 20
470.9481321009
 30
0.0
 10
69.1869316439
 20
470.9942722243
 30
0.0
 10
69.3591391074
 20
470.9942722243
 30
0.0
  0
LINE
  5
35A
330
1B
100
AcDbEntity
 67
     1
  8
7_ALL_FEATURES
  6
Continuous
 62
     3
100
AcDbLine
 10
244.3591391074
 20
470.9942722243
 30
0.0
 11
69.3591391074
 21
470.9942722243
 31
0.0
  0
SPLINE
  5
35B
330
1B
100
AcDbEntity
 67
     1
  8
7_ALL_FEATURES
  6
Continuous
 62
     3
100
AcDbSpline
 70
     0
 71
     3
 72
     8
 73
     4
 74
     0
 42
0.000000001
 43
0.0000001
 40
0.0
 40
0.0
 40
0.0
 40
0.0
 40
1.0
 40
1.0
 40
1.0
 40
1.0
 10
54.3591391074
 20
470.9942722243
 30
0.0
 10
54.5313465709
 20
470.9942722243
 30
0.0
 10
54.7087270938
 20
470.9481321009
 30
0.0
 10
54.8591391074
 20
470.8642772461
 30
0.0
  0
SPLINE
  5
35C
330
1B
100
AcDbEntity
 67
     1
  8
7_ALL_FEATURES
  6
Continuous
 62
     3
100
AcDbSpline
 70
     0
 71
     3
 72
     8
 73
     4
 74
     0
 42
0.000000001
 43
0.0000001
 40
0.0
 40
0.0
 40
0.0
 40
0.0
 40
1.0
 40
1.0
 40
1.0
 40
1.0
 10
54.8591391074
 20
470.8642772461
 30
0.0
 10
55.0076253766
 20
470.7814959958
 30
0.0
 10
55.1385438208
 20
470.6554041052
 30
0.0
 10
55.2251645112
 20
470.5091243611
 30
0.0
  0
SPLINE
  5
35D
330
1B
100
AcDbEntity
 67
     1
  8
7_ALL_FEATURES
  6
Continuous
 62
     3
100
AcDbSpline
 70
     0
 71
     3
 72
     8
 73
     4
 74
     0
 42
0.000000001
 43
0.0000001
 40
0.0
 40
0.0
 40
0.0
 40
0.0
 40
1.0
 40
1.0
 40
1.0
 40
1.0
 10
55.2251645112
 20
470.5091243611
 30
0.0
 10
55.3106470405
 20
470.3647666741
 30
0.0
 10
55.3591391074
 20
470.1917454004
 30
0.0
 10
55.3591391074
 20
470.023976498
 30
0.0
  0
LINE
  5
35E
330
1B
100
AcDbEntity
 67
     1
  8
7_ALL_FEATURES
  6
Continuous
 62
     9
100
AcDbLine
 10
68.3591391074
 20
469.0938823122
 30
0.0
 11
65.3591391074
 21
469.0938823122
 31
0.0
  0
LINE
  5
35F
330
1B
100
AcDbEntity
 67
     1
  8
7_ALL_FEATURES
  6
Continuous
 62
     9
100
AcDbLine
 10
65.3591391074
 20
469.0938823122
 30
0.0
 11
63.6091391074
 21
469.0938823122
 31
0.0
  0
LINE
  5
360
330
1B
100
AcDbEntity
 67
     1
  8
7_ALL_FEATURES
  6
Continuous
 62
     9
100
AcDbLine
 10
63.6091391074
 20
469.0938823122
 30
0.0
 11
60.1091391074
 21
469.0938823122
 31
0.0
  0
LINE
  5
361
330
1B
100
AcDbEntity
 67
     1
  8
7_ALL_FEATURES
  6
Continuous
 62
     9
100
AcDbLine
 10
60.1091391074
 20
469.0938823122
 30
0.0
 11
58.3591391074
 21
469.0938823122
 31
0.0
  0
LINE
  5
362
330
1B
100
AcDbEntity
 67
     1
  8
7_ALL_FEATURES
  6
Continuous
 62
     9
100
AcDbLine
 10
58.3591391074
 20
469.0938823122
 30
0.0
 11
55.3591391074
 21
469.0938823122
 31
0.0
  0
SPLINE
  5
363
330
1B
100
AcDbEntity
 67
     1
  8
7_ALL_FEATURES
  6
Continuous
 62
     3
100
AcDbSpline
 70
     0
 71
     3
 72
     9
 73
     5
 74
     0
 42
0.000000001
 43
0.0000001
 40
0.0
 40
0.0
 40
0.0
 40
0.0
 40
0.515048098
 40
1.0
 40
1.0
 40
1.0
 40
1.0
 10
45.8591391074
 20
540.3224465091
 30
0.0
 10
44.838920979
 20
540.3224465091
 30
0.0
 10
42.8075579741
 20
539.7740759471
 30
0.0
 10
41.4313319789
 20
538.133584605
 30
0.0
 10
41.1038565259
 20
537.230524334
 30
0.0
  0
SPLINE
  5
364
330
1B
100
AcDbEntity
 67
     1
  8
7_ALL_FEATURES
  6
Continuous
 62
     3
100
AcDbSpline
 70
     0
 71
     3
 72
     8
 73
     4
 74
     0
 42
0.000000001
 43
0.0000001
 40
0.0
 40
0.0
 40
0.0
 40
0.0
 40
1.0
 40
1.0
 40
1.0
 40
1.0
 10
41.1038565259
 20
537.230524334
 30
0.0
 10
40.9442854509
 20
536.7904843345
 30
0.0
 10
40.8591391074
 20
536.3158538922
 30
0.0
 10
40.8591391074
 20
535.8477747011
 30
0.0
  0
LINE
  5
365
330
1B
100
AcDbEntity
 67
     1
  8
7_ALL_FEATURES
  6
Continuous
 62
     3
100
AcDbLine
 10
45.8591391074
 20
470.9942722243
 30
0.0
 11
54.3591391074
 21
470.9942722243
 31
0.0
  0
SPLINE
  5
366
330
1B
100
AcDbEntity
 67
     1
  8
7_ALL_FEATURES
  6
Continuous
 62
     3
100
AcDbSpline
 70
     0
 71
     3
 72
     8
 73
     4
 74
     0
 42
0.000000001
 43
0.0000001
 40
0.0
 40
0.0
 40
0.0
 40
0.0
 40
1.0
 40
1.0
 40
1.0
 40
1.0
 10
40.8591391074
 20
475.8457508556
 30
0.0
 10
40.8591391074
 20
475.3394071749
 30
0.0
 10
40.9432481292
 20
474.8267582057
 30
0.0
 10
41.1038565259
 20
474.3465615107
 30
0.0
  0
SPLINE
  5
367
330
1B
100
AcDbEntity
 67
     1
  8
7_ALL_FEATURES
  6
Continuous
 62
     3
100
AcDbSpline
 70
     0
 71
     3
 72
     9
 73
     5
 74
     0
 42
0.000000001
 43
0.0000001
 40
0.0
 40
0.0
 40
0.0
 40
0.0
 40
0.4958182939
 40
1.0
 40
1.0
 40
1.0
 40
1.0
 10
41.1038565259
 20
474.3465615107
 30
0.0
 10
41.4242638524
 20
473.3885883137
 30
0.0
 10
42.7407842517
 20
471.6301502088
 30
0.0
 10
44.8319648595
 20
470.9942722243
 30
0.0
 10
45.8591391074
 20
470.9942722243
 30
0.0
  0
SPLINE
  5
368
330
1B
100
AcDbEntity
 67
     1
  8
7_ALL_FEATURES
  6
Continuous
 62
     3
100
AcDbSpline
 70
     0
 71
     3
 72
     9
 73
     5
 74
     0
 42
0.000000001
 43
0.0000001
 40
0.0
 40
0.0
 40
0.0
 40
0.0
 40
0.5041817061
 40
1.0
 40
1.0
 40
1.0
 40
1.0
 10
647.8591391074
 20
470.9942722243
 30
0.0
 10
648.8863133552
 20
470.9942722243
 30
0.0
 10
650.977493963
 20
471.6301502088
 30
0.0
 10
652.2940143623
 20
473.3885883137
 30
0.0
 10
652.6144216888
 20
474.3465615107
 30
0.0
  0
ARC
  5
369
330
1B
100
AcDbEntity
 67
     1
  8
7_ALL_FEATURES
  6
Continuous
 62
     3
100
AcDbCircle
 10
648.098895027
 20
475.8539579213
 30
0.0
 40
4.7604857916
100
AcDbArc
 50
341.5396932842
 51
357.6192083046001
  0
ARC
  5
36A
330
1B
100
AcDbEntity
 67
     1
  8
7_ALL_FEATURES
  6
Continuous
 62
     3
100
AcDbCircle
 10
648.2038431686
 20
475.8459238077
 30
0.0
 40
4.6552959419
100
AcDbArc
 50
357.6643473715
 51
359.997871366
  0
LINE
  5
36B
330
1B
100
AcDbEntity
 67
     1
  8
7_ALL_FEATURES
  6
Continuous
 62
     3
100
AcDbLine
 10
647.8591391074
 20
470.9942722243
 30
0.0
 11
639.3591391074
 21
470.9942722243
 31
0.0
  0
SPLINE
  5
36C
330
1B
100
AcDbEntity
 67
     1
  8
7_ALL_FEATURES
  6
Continuous
 62
     3
100
AcDbSpline
 70
     0
 71
     3
 72
     8
 73
     4
 74
     0
 42
0.000000001
 43
0.0000001
 40
0.0
 40
0.0
 40
0.0
 40
0.0
 40
1.0
 40
1.0
 40
1.0
 40
1.0
 10
652.8591391074
 20
535.8477747011
 30
0.0
 10
652.8591391074
 20
536.3158538922
 30
0.0
 10
652.7739927638
 20
536.7904843345
 30
0.0
 10
652.6144216888
 20
537.230524334
 30
0.0
  0
SPLINE
  5
36D
330
1B
100
AcDbEntity
 67
     1
  8
7_ALL_FEATURES
  6
Continuous
 62
     3
100
AcDbSpline
 70
     0
 71
     3
 72
     9
 73
     5
 74
     0
 42
0.000000001
 43
0.0000001
 40
0.0
 40
0.0
 40
0.0
 40
0.0
 40
0.484951902
 40
1.0
 40
1.0
 40
1.0
 40
1.0
 10
652.6144216888
 20
537.230524334
 30
0.0
 10
652.2869462358
 20
538.133584605
 30
0.0
 10
650.9107202406
 20
539.7740759471
 30
0.0
 10
648.8793572357
 20
540.3224465091
 30
0.0
 10
647.8591391074
 20
540.3224465091
 30
0.0
  0
LINE
  5
36E
330
1B
100
AcDbEntity
 67
     1
  8
7_ALL_FEATURES
  6
Continuous
 62
     9
100
AcDbLine
 10
638.3591391074
 20
469.0938823122
 30
0.0
 11
635.3591391074
 21
469.0938823122
 31
0.0
  0
LINE
  5
36F
330
1B
100
AcDbEntity
 67
     1
  8
7_ALL_FEATURES
  6
Continuous
 62
     9
100
AcDbLine
 10
635.3591391074
 20
469.0938823122
 30
0.0
 11
633.6091391074
 21
469.0938823122
 31
0.0
  0
LINE
  5
370
330
1B
100
AcDbEntity
 67
     1
  8
7_ALL_FEATURES
  6
Continuous
 62
     9
100
AcDbLine
 10
633.6091391074
 20
469.0938823122
 30
0.0
 11
630.1091391074
 21
469.0938823122
 31
0.0
  0
LINE
  5
371
330
1B
100
AcDbEntity
 67
     1
  8
7_ALL_FEATURES
  6
Continuous
 62
     9
100
AcDbLine
 10
630.1091391074
 20
469.0938823122
 30
0.0
 11
628.3591391074
 21
469.0938823122
 31
0.0
  0
LINE
  5
372
330
1B
100
AcDbEntity
 67
     1
  8
7_ALL_FEATURES
  6
Continuous
 62
     9
100
AcDbLine
 10
628.3591391074
 20
469.0938823122
 30
0.0
 11
625.3591391074
 21
469.0938823122
 31
0.0
  0
LINE
  5
373
330
1B
100
AcDbEntity
 67
     1
  8
7_ALL_FEATURES
  6
Continuous
 62
     9
100
AcDbLine
 10
652.8591391074
 20
531.0206343861
 30
0.0
 11
40.8591391074
 21
531.0206343861
 31
0.0
  0
LINE
  5
374
330
1B
100
AcDbEntity
 67
     1
  8
7_ALL_FEATURES
  6
Continuous
 62
     9
100
AcDbLine
 10
652.8591391074
 20
530.912353291
 30
0.0
 11
40.8591391074
 21
530.912353291
 31
0.0
  0
LINE
  5
375
330
1B
100
AcDbEntity
 67
     1
  8
7_ALL_FEATURES
  6
Continuous
 62
     9
100
AcDbLine
 10
652.8591391074
 20
521.2298197255
 30
0.0
 11
40.8591391074
 21
521.2298197255
 31
0.0
  0
LINE
  5
376
330
1B
100
AcDbEntity
 67
     1
  8
7_ALL_FEATURES
  6
Continuous
 62
     9
100
AcDbLine
 10
652.8591391074
 20
521.1168540618
 30
0.0
 11
40.8591391074
 21
521.1168540618
 31
0.0
  0
SPLINE
  5
377
330
1B
100
AcDbEntity
 67
     1
  8
7_ALL_FEATURES
  6
Continuous
 62
     3
100
AcDbSpline
 70
     0
 71
     3
 72
     9
 73
     5
 74
     0
 42
0.000000001
 43
0.0000001
 40
0.0
 40
0.0
 40
0.0
 40
0.0
 40
0.4966933765
 40
1.0
 40
1.0
 40
1.0
 40
1.0
 10
448.3591391074
 20
470.023976498
 30
0.0
 10
448.3591391074
 20
470.1917454004
 30
0.0
 10
448.4536525284
 20
470.5355303295
 30
0.0
 10
448.7106528381
 20
470.7814959958
 30
0.0
 10
448.8591391074
 20
470.8642772461
 30
0.0
  0
SPLINE
  5
378
330
1B
100
AcDbEntity
 67
     1
  8
7_ALL_FEATURES
  6
Continuous
 62
     3
100
AcDbSpline
 70
     0
 71
     3
 72
     8
 73
     4
 74
     0
 42
0.000000001
 43
0.0000001
 40
0.0
 40
0.0
 40
0.0
 40
0.0
 40
1.0
 40
1.0
 40
1.0
 40
1.0
 10
448.8591391074
 20
470.8642772461
 30
0.0
 10
449.0095511209
 20
470.9481321009
 30
0.0
 10
449.1869316439
 20
470.9942722243
 30
0.0
 10
449.3591391074
 20
470.9942722243
 30
0.0
  0
LINE
  5
379
330
1B
100
AcDbEntity
 67
     1
  8
7_ALL_FEATURES
  6
Continuous
 62
     9
100
AcDbLine
 10
652.8591391074
 20
511.0928301761
 30
0.0
 11
40.8591391074
 21
511.0928301761
 31
0.0
  0
LINE
  5
37A
330
1B
100
AcDbEntity
 67
     1
  8
7_ALL_FEATURES
  6
Continuous
 62
     9
100
AcDbLine
 10
652.8591391074
 20
510.9767459966
 30
0.0
 11
40.8591391074
 21
510.9767459966
 31
0.0
  0
LINE
  5
37B
330
1B
100
AcDbEntity
 67
     1
  8
7_ALL_FEATURES
  6
Continuous
 62
     9
100
AcDbLine
 10
652.8591391074
 20
500.7501956969
 30
0.0
 11
40.8591391074
 21
500.7501956969
 31
0.0
  0
LINE
  5
37C
330
1B
100
AcDbEntity
 67
     1
  8
7_ALL_FEATURES
  6
Continuous
 62
     3
100
AcDbLine
 10
647.8591391074
 20
540.3224465091
 30
0.0
 11
45.8591391074
 21
540.3224465091
 31
0.0
  0
LINE
  5
37D
330
1B
100
AcDbEntity
 67
     1
  8
7_ALL_FEATURES
  6
Continuous
 62
     9
100
AcDbLine
 10
652.8591391074
 20
500.6326022865
 30
0.0
 11
40.8591391074
 21
500.6326022865
 31
0.0
  0
LINE
  5
37E
330
1B
100
AcDbEntity
 67
     1
  8
7_ALL_FEATURES
  6
Continuous
 62
     9
100
AcDbLine
 10
652.8591391074
 20
490.34529712
 30
0.0
 11
40.8591391074
 21
490.34529712
 31
0.0
  0
SPLINE
  5
37F
330
1B
100
AcDbEntity
 67
     1
  8
7_ALL_FEATURES
  6
Continuous
 62
     3
100
AcDbSpline
 70
     0
 71
     3
 72
     8
 73
     4
 74
     0
 42
0.000000001
 43
0.0000001
 40
0.0
 40
0.0
 40
0.0
 40
0.0
 40
1.0
 40
1.0
 40
1.0
 40
1.0
 10
624.3591391074
 20
470.9942722243
 30
0.0
 10
624.5313465709
 20
470.9942722243
 30
0.0
 10
624.7087270938
 20
470.9481321009
 30
0.0
 10
624.8591391074
 20
470.8642772461
 30
0.0
  0
SPLINE
  5
380
330
1B
100
AcDbEntity
 67
     1
  8
7_ALL_FEATURES
  6
Continuous
 62
     3
100
AcDbSpline
 70
     0
 71
     3
 72
     8
 73
     4
 74
     0
 42
0.000000001
 43
0.0000001
 40
0.0
 40
0.0
 40
0.0
 40
0.0
 40
1.0
 40
1.0
 40
1.0
 40
1.0
 10
624.8591391074
 20
470.8642772461
 30
0.0
 10
625.0076253766
 20
470.7814959958
 30
0.0
 10
625.1385438208
 20
470.6554041052
 30
0.0
 10
625.2251645112
 20
470.5091243611
 30
0.0
  0
SPLINE
  5
381
330
1B
100
AcDbEntity
 67
     1
  8
7_ALL_FEATURES
  6
Continuous
 62
     3
100
AcDbSpline
 70
     0
 71
     3
 72
     8
 73
     4
 74
     0
 42
0.000000001
 43
0.0000001
 40
0.0
 40
0.0
 40
0.0
 40
0.0
 40
1.0
 40
1.0
 40
1.0
 40
1.0
 10
625.2251645112
 20
470.5091243611
 30
0.0
 10
625.3106470405
 20
470.3647666741
 30
0.0
 10
625.3591391074
 20
470.1917454004
 30
0.0
 10
625.3591391074
 20
470.023976498
 30
0.0
  0
LINE
  5
382
330
1B
100
AcDbEntity
 67
     1
  8
7_ALL_FEATURES
  6
Continuous
 62
     9
100
AcDbLine
 10
652.8591391074
 20
490.2278246864
 30
0.0
 11
40.8591391074
 21
490.2278246864
 31
0.0
  0
LINE
  5
383
330
1B
100
AcDbEntity
 67
     1
  8
7_ALL_FEATURES
  6
Continuous
 62
     9
100
AcDbLine
 10
652.8591391074
 20
480.0223784502
 30
0.0
 11
40.8591391074
 21
480.0223784502
 31
0.0
  0
LINE
  5
384
330
1B
100
AcDbEntity
 67
     1
  8
7_ALL_FEATURES
  6
Continuous
 62
     9
100
AcDbLine
 10
652.8591391074
 20
479.9066555237
 30
0.0
 11
40.8591391074
 21
479.9066555237
 31
0.0
  0
SPLINE
  5
385
330
1B
100
AcDbEntity
 67
     1
  8
7_ALL_FEATURES
  6
Continuous
 62
     3
100
AcDbSpline
 70
     0
 71
     3
 72
     9
 73
     5
 74
     0
 42
0.000000001
 43
0.0000001
 40
0.0
 40
0.0
 40
0.0
 40
0.0
 40
0.4966933765
 40
1.0
 40
1.0
 40
1.0
 40
1.0
 10
258.3591391074
 20
470.023976498
 30
0.0
 10
258.3591391074
 20
470.1917454004
 30
0.0
 10
258.4536525284
 20
470.5355303295
 30
0.0
 10
258.7106528381
 20
470.7814959958
 30
0.0
 10
258.8591391074
 20
470.8642772461
 30
0.0
  0
SPLINE
  5
386
330
1B
100
AcDbEntity
 67
     1
  8
7_ALL_FEATURES
  6
Continuous
 62
     3
100
AcDbSpline
 70
     0
 71
     3
 72
     8
 73
     4
 74
     0
 42
0.000000001
 43
0.0000001
 40
0.0
 40
0.0
 40
0.0
 40
0.0
 40
1.0
 40
1.0
 40
1.0
 40
1.0
 10
258.8591391074
 20
470.8642772461
 30
0.0
 10
259.0095511209
 20
470.9481321009
 30
0.0
 10
259.1869316439
 20
470.9942722243
 30
0.0
 10
259.3591391074
 20
470.9942722243
 30
0.0
  0
LINE
  5
387
330
1B
100
AcDbEntity
 67
     1
  8
7_ALL_FEATURES
  6
Continuous
 62
     3
100
AcDbLine
 10
624.3591391074
 20
470.9942722243
 30
0.0
 11
449.3591391074
 21
470.9942722243
 31
0.0
  0
SPLINE
  5
388
330
1B
100
AcDbEntity
 67
     1
  8
7_ALL_FEATURES
  6
Continuous
 62
     3
100
AcDbSpline
 70
     0
 71
     3
 72
     8
 73
     4
 74
     0
 42
0.000000001
 43
0.0000001
 40
0.0
 40
0.0
 40
0.0
 40
0.0
 40
1.0
 40
1.0
 40
1.0
 40
1.0
 10
244.3591391074
 20
470.9942722243
 30
0.0
 10
244.5313465709
 20
470.9942722243
 30
0.0
 10
244.7087270938
 20
470.9481321009
 30
0.0
 10
244.8591391074
 20
470.8642772461
 30
0.0
  0
SPLINE
  5
389
330
1B
100
AcDbEntity
 67
     1
  8
7_ALL_FEATURES
  6
Continuous
 62
     3
100
AcDbSpline
 70
     0
 71
     3
 72
     8
 73
     4
 74
     0
 42
0.000000001
 43
0.0000001
 40
0.0
 40
0.0
 40
0.0
 40
0.0
 40
1.0
 40
1.0
 40
1.0
 40
1.0
 10
244.8591391074
 20
470.8642772461
 30
0.0
 10
245.0076253766
 20
470.7814959958
 30
0.0
 10
245.1385438208
 20
470.6554041052
 30
0.0
 10
245.2251645112
 20
470.5091243611
 30
0.0
  0
SPLINE
  5
38A
330
1B
100
AcDbEntity
 67
     1
  8
7_ALL_FEATURES
  6
Continuous
 62
     3
100
AcDbSpline
 70
     0
 71
     3
 72
     8
 73
     4
 74
     0
 42
0.000000001
 43
0.0000001
 40
0.0
 40
0.0
 40
0.0
 40
0.0
 40
1.0
 40
1.0
 40
1.0
 40
1.0
 10
245.2251645112
 20
470.5091243611
 30
0.0
 10
245.3106470405
 20
470.3647666741
 30
0.0
 10
245.3591391074
 20
470.1917454004
 30
0.0
 10
245.3591391074
 20
470.023976498
 30
0.0
  0
LINE
  5
38B
330
1B
100
AcDbEntity
 67
     1
  8
7_ALL_FEATURES
  6
Continuous
 62
     9
100
AcDbLine
 10
448.3591391074
 20
469.0938823122
 30
0.0
 11
445.3591391074
 21
469.0938823122
 31
0.0
  0
LINE
  5
38C
330
1B
100
AcDbEntity
 67
     1
  8
7_ALL_FEATURES
  6
Continuous
 62
     9
100
AcDbLine
 10
445.3591391074
 20
469.0938823122
 30
0.0
 11
443.6091391074
 21
469.0938823122
 31
0.0
  0
LINE
  5
38D
330
1B
100
AcDbEntity
 67
     1
  8
7_ALL_FEATURES
  6
Continuous
 62
     9
100
AcDbLine
 10
443.6091391074
 20
469.0938823122
 30
0.0
 11
440.1091391074
 21
469.0938823122
 31
0.0
  0
LINE
  5
38E
330
1B
100
AcDbEntity
 67
     1
  8
7_ALL_FEATURES
  6
Continuous
 62
     9
100
AcDbLine
 10
440.1091391074
 20
469.0938823122
 30
0.0
 11
438.3591391074
 21
469.0938823122
 31
0.0
  0
LINE
  5
38F
330
1B
100
AcDbEntity
 67
     1
  8
7_ALL_FEATURES
  6
Continuous
 62
     9
100
AcDbLine
 10
438.3591391074
 20
469.0938823122
 30
0.0
 11
435.3591391074
 21
469.0938823122
 31
0.0
  0
SPLINE
  5
390
330
1B
100
AcDbEntity
 67
     1
  8
7_ALL_FEATURES
  6
Continuous
 62
     3
100
AcDbSpline
 70
     0
 71
     3
 72
     8
 73
     4
 74
     0
 42
0.000000001
 43
0.0000001
 40
0.0
 40
0.0
 40
0.0
 40
0.0
 40
1.0
 40
1.0
 40
1.0
 40
1.0
 10
434.3591391074
 20
470.9942722243
 30
0.0
 10
434.5313465709
 20
470.9942722243
 30
0.0
 10
434.7087270938
 20
470.9481321009
 30
0.0
 10
434.8591391074
 20
470.8642772461
 30
0.0
  0
SPLINE
  5
391
330
1B
100
AcDbEntity
 67
     1
  8
7_ALL_FEATURES
  6
Continuous
 62
     3
100
AcDbSpline
 70
     0
 71
     3
 72
     8
 73
     4
 74
     0
 42
0.000000001
 43
0.0000001
 40
0.0
 40
0.0
 40
0.0
 40
0.0
 40
1.0
 40
1.0
 40
1.0
 40
1.0
 10
434.8591391074
 20
470.8642772461
 30
0.0
 10
435.0076253766
 20
470.7814959958
 30
0.0
 10
435.1385438208
 20
470.6554041052
 30
0.0
 10
435.2251645112
 20
470.5091243611
 30
0.0
  0
SPLINE
  5
392
330
1B
100
AcDbEntity
 67
     1
  8
7_ALL_FEATURES
  6
Continuous
 62
     3
100
AcDbSpline
 70
     0
 71
     3
 72
     8
 73
     4
 74
     0
 42
0.000000001
 43
0.0000001
 40
0.0
 40
0.0
 40
0.0
 40
0.0
 40
1.0
 40
1.0
 40
1.0
 40
1.0
 10
435.2251645112
 20
470.5091243611
 30
0.0
 10
435.3106470405
 20
470.3647666741
 30
0.0
 10
435.3591391074
 20
470.1917454004
 30
0.0
 10
435.3591391074
 20
470.023976498
 30
0.0
  0
LINE
  5
393
330
1B
100
AcDbEntity
 67
     1
  8
7_ALL_FEATURES
  6
Continuous
 62
     3
100
AcDbLine
 10
434.3591391074
 20
470.9942722243
 30
0.0
 11
259.3591391074
 21
470.9942722243
 31
0.0
  0
LINE
  5
394
330
1B
100
AcDbEntity
 67
     1
  8
7_ALL_FEATURES
  6
Continuous
 62
     7
100
AcDbLine
 10
755.3576447111
 20
536.2047329515
 30
0.0
 11
757.5886337766
 21
540.6794047596
 31
0.0
  0
LINE
  5
395
330
1B
100
AcDbEntity
 67
     1
  8
7_ALL_FEATURES
  6
Continuous
 62
     7
100
AcDbLine
 10
749.7567697516
 20
469.8304389815
 30
0.0
 11
749.5472592443
 21
470.6707397296
 31
0.0
  0
LINE
  5
396
330
1B
100
AcDbEntity
 67
     1
  8
7_ALL_FEATURES
  6
Continuous
 62
     7
100
AcDbLine
 10
749.514847856
 20
470.8007347078
 30
0.0
 11
750.291084437
 21
470.9942722243
 31
0.0
  0
LINE
  5
397
330
1B
100
AcDbEntity
 67
     1
  8
7_ALL_FEATURES
  6
Continuous
 62
     7
100
AcDbLine
 10
748.305238378
 20
475.6522133392
 30
0.0
 11
747.2927411274
 21
479.7131180072
 31
0.0
  0
LINE
  5
398
330
1B
100
AcDbEntity
 67
     1
  8
7_ALL_FEATURES
  6
Continuous
 62
     7
100
AcDbLine
 10
762.791084437
 20
467.6874198287
 30
0.0
 11
762.791084437
 21
468.4874198287
 31
0.0
  0
LINE
  5
399
330
1B
100
AcDbEntity
 67
     1
  8
7_ALL_FEATURES
  6
Continuous
 62
     7
100
AcDbLine
 10
749.9886682774
 20
468.9003447957
 30
0.0
 11
749.7567697516
 21
469.8304389815
 31
0.0
  0
LINE
  5
39A
330
1B
100
AcDbEntity
 67
     1
  8
7_ALL_FEATURES
  6
Continuous
 62
     7
100
AcDbLine
 10
749.514847856
 20
470.8007347078
 30
0.0
 11
748.305238378
 21
475.6522133392
 31
0.0
  0
LINE
  5
39B
330
1B
100
AcDbEntity
 67
     1
  8
7_ALL_FEATURES
  6
Continuous
 62
     7
100
AcDbLine
 10
758.3045812659
 20
540.3224465091
 30
0.0
 11
757.5886337766
 21
540.6794047596
 31
0.0
  0
ARC
  5
39C
330
1B
100
AcDbEntity
 67
     1
  8
7_ALL_FEATURES
  6
Continuous
 62
     7
100
AcDbCircle
 10
751.5411414394
 20
469.2874198287
 30
0.0
 40
1.6
100
AcDbArc
 50
194.0
 51
200.5930650129
  0
ARC
  5
39D
330
1B
100
AcDbEntity
 67
     1
  8
7_ALL_FEATURES
  6
Continuous
 62
     7
100
AcDbCircle
 10
751.5411414394
 20
469.2874198287
 30
0.0
 40
1.6
100
AcDbArc
 50
200.5930650129
 51
263.4069349871
  0
ARC
  5
39E
330
1B
100
AcDbEntity
 67
     1
  8
7_ALL_FEATURES
  6
Continuous
 62
     7
100
AcDbCircle
 10
751.5411414394
 20
469.2874198287
 30
0.0
 40
1.6
100
AcDbArc
 50
263.4069349871
 51
270.0
  0
LINE
  5
39F
330
1B
100
AcDbEntity
 67
     1
  8
7_ALL_FEATURES
  6
Continuous
 62
     7
100
AcDbLine
 10
752.9509213306
 20
531.3775926366
 30
0.0
 11
755.3576447111
 21
536.2047329515
 31
0.0
  0
ARC
  5
3A0
330
1B
100
AcDbEntity
 67
     1
  8
7_ALL_FEATURES
  6
Continuous
 62
     7
100
AcDbCircle
 10
754.5618031814
 20
530.574436573
 30
0.0
 40
1.8
100
AcDbArc
 50
153.5
 51
160.25
  0
LINE
  5
3A1
330
1B
100
AcDbEntity
 67
     1
  8
7_ALL_FEATURES
  6
Continuous
 62
     7
100
AcDbLine
 10
759.791084437
 20
467.6874198287
 30
0.0
 11
751.5411414394
 21
467.6874198287
 31
0.0
  0
LINE
  5
3A2
330
1B
100
AcDbEntity
 67
     1
  8
7_ALL_FEATURES
  6
Continuous
 62
     7
100
AcDbLine
 10
762.791084437
 20
467.6874198287
 30
0.0
 11
759.791084437
 21
467.6874198287
 31
0.0
  0
LINE
  5
3A3
330
1B
100
AcDbEntity
 67
     1
  8
7_ALL_FEATURES
  6
Continuous
 62
     7
100
AcDbLine
 10
749.3913015849
 20
521.5001530999
 30
0.0
 11
752.867686354
 21
531.1826866654
 31
0.0
  0
ARC
  5
3A4
330
1B
100
AcDbEntity
 67
     1
  8
7_ALL_FEATURES
  6
Continuous
 62
     7
100
AcDbCircle
 10
751.0854184124
 20
520.8919030074
 30
0.0
 40
1.8
100
AcDbArc
 50
160.25
 51
167.0
  0
LINE
  5
3A5
330
1B
100
AcDbEntity
 67
     1
  8
7_ALL_FEATURES
  6
Continuous
 62
     7
100
AcDbLine
 10
747.0173240335
 20
511.2727910196
 30
0.0
 11
749.3315522958
 21
521.2968149053
 31
0.0
  0
ARC
  5
3A6
330
1B
100
AcDbEntity
 67
     1
  8
7_ALL_FEATURES
  6
Continuous
 62
     7
100
AcDbCircle
 10
748.7711901501
 20
510.8678791218
 30
0.0
 40
1.8
100
AcDbArc
 50
167.0
 51
173.75
  0
ARC
  5
3A7
330
1B
100
AcDbEntity
 67
     1
  8
7_ALL_FEATURES
  6
Continuous
 62
     7
100
AcDbCircle
 10
749.0392734347
 20
480.1485774193
 30
0.0
 40
1.8
100
AcDbArc
 50
187.25
 51
194.0
  0
LINE
  5
3A8
330
1B
100
AcDbEntity
 67
     1
  8
7_ALL_FEATURES
  6
Continuous
 62
     7
100
AcDbLine
 10
745.8618993314
 20
500.8372891968
 30
0.0
 11
746.9818887413
 21
511.0638394965
 31
0.0
  0
LINE
  5
3A9
330
1B
100
AcDbEntity
 67
     1
  8
7_ALL_FEATURES
  6
Continuous
 62
     7
100
AcDbLine
 10
747.2536645253
 20
479.9214192749
 30
0.0
 11
745.9553677829
 21
490.1268655111
 31
0.0
  0
ARC
  5
3AA
330
1B
100
AcDbEntity
 67
     1
  8
7_ALL_FEATURES
  6
Continuous
 62
     7
100
AcDbCircle
 10
747.6512007402
 20
500.641328822
 30
0.0
 40
1.8
100
AcDbArc
 50
173.75
 51
180.5
  0
ARC
  5
3AB
330
1B
100
AcDbEntity
 67
     1
  8
7_ALL_FEATURES
  6
Continuous
 62
     7
100
AcDbCircle
 10
747.7409766923
 20
490.3540236555
 30
0.0
 40
1.8
100
AcDbArc
 50
180.5
 51
187.25
  0
LINE
  5
3AC
330
1B
100
AcDbEntity
 67
     1
  8
7_ALL_FEATURES
  6
Continuous
 62
     7
100
AcDbLine
 10
745.9410452308
 20
490.3383158916
 30
0.0
 11
745.8512692787
 21
500.6256210581
 31
0.0
  0
LINE
  5
3AD
330
1B
100
AcDbEntity
 67
     1
  8
7_ALL_FEATURES
  6
Continuous
 62
     9
100
AcDbLine
 10
750.5330063326
 20
470.023976498
 30
0.0
 11
749.7567697516
 21
469.8304389815
 31
0.0
  0
LINE
  5
3AE
330
1B
100
AcDbEntity
 67
     1
  8
7_ALL_FEATURES
  6
Continuous
 62
     9
100
AcDbLine
 10
749.3913015849
 20
521.5001530999
 30
0.0
 11
750.1442423971
 21
521.2298197255
 31
0.0
  0
LINE
  5
3AF
330
1B
100
AcDbEntity
 67
     1
  8
7_ALL_FEATURES
  6
Continuous
 62
     9
100
AcDbLine
 10
756.0735922004
 20
535.8477747011
 30
0.0
 11
755.3576447111
 21
536.2047329515
 31
0.0
  0
LINE
  5
3B0
330
1B
100
AcDbEntity
 67
     1
  8
7_ALL_FEATURES
  6
Continuous
 62
     9
100
AcDbLine
 10
749.3315522958
 20
521.2968149053
 30
0.0
 11
750.1110483476
 21
521.1168540618
 31
0.0
  0
LINE
  5
3B1
330
1B
100
AcDbEntity
 67
     1
  8
7_ALL_FEATURES
  6
Continuous
 62
     9
100
AcDbLine
 10
759.791084437
 20
467.6874198287
 30
0.0
 11
759.791084437
 21
468.4874198287
 31
0.0
  0
LINE
  5
3B2
330
1B
100
AcDbEntity
 67
     1
  8
7_ALL_FEATURES
  6
Continuous
 62
     9
100
AcDbLine
 10
747.0173240335
 20
511.2727910196
 30
0.0
 11
747.7968200853
 21
511.0928301761
 31
0.0
  0
LINE
  5
3B3
330
1B
100
AcDbEntity
 67
     1
  8
7_ALL_FEATURES
  6
Continuous
 62
     9
100
AcDbLine
 10
747.2536645253
 20
479.9214192749
 30
0.0
 11
748.047268485
 21
480.0223784502
 31
0.0
  0
LINE
  5
3B4
330
1B
100
AcDbEntity
 67
     1
  8
7_ALL_FEATURES
  6
Continuous
 62
     9
100
AcDbLine
 10
747.2927411274
 20
479.7131180072
 30
0.0
 11
748.0689777084
 21
479.9066555237
 31
0.0
  0
LINE
  5
3B5
330
1B
100
AcDbEntity
 67
     1
  8
7_ALL_FEATURES
  6
Continuous
 62
     9
100
AcDbLine
 10
751.5411414394
 20
468.4874198287
 30
0.0
 11
751.5411414394
 21
467.6874198287
 31
0.0
  0
LINE
  5
3B6
330
1B
100
AcDbEntity
 67
     1
  8
7_ALL_FEATURES
  6
Continuous
 62
     9
100
AcDbLine
 10
752.9509213306
 20
531.3775926366
 30
0.0
 11
753.6668688198
 21
531.0206343861
 31
0.0
  0
LINE
  5
3B7
330
1B
100
AcDbEntity
 67
     1
  8
7_ALL_FEATURES
  6
Continuous
 62
     9
100
AcDbLine
 10
746.9818887413
 20
511.0638394965
 30
0.0
 11
747.7771338119
 21
510.9767459966
 31
0.0
  0
LINE
  5
3B8
330
1B
100
AcDbEntity
 67
     1
  8
7_ALL_FEATURES
  6
Continuous
 62
     9
100
AcDbLine
 10
748.305238378
 20
475.6522133392
 30
0.0
 11
749.081474959
 21
475.8457508556
 31
0.0
  0
LINE
  5
3B9
330
1B
100
AcDbEntity
 67
     1
  8
7_ALL_FEATURES
  6
Continuous
 62
     9
100
AcDbLine
 10
745.9553677829
 20
490.1268655111
 30
0.0
 11
746.7489717426
 21
490.2278246864
 31
0.0
  0
LINE
  5
3BA
330
1B
100
AcDbEntity
 67
     1
  8
7_ALL_FEATURES
  6
Continuous
 62
     9
100
AcDbLine
 10
745.8618993314
 20
500.8372891968
 30
0.0
 11
746.657144402
 21
500.7501956969
 31
0.0
  0
LINE
  5
3BB
330
1B
100
AcDbEntity
 67
     1
  8
7_ALL_FEATURES
  6
Continuous
 62
     9
100
AcDbLine
 10
745.9410452308
 20
490.3383158916
 30
0.0
 11
746.7410147693
 21
490.34529712
 31
0.0
  0
LINE
  5
3BC
330
1B
100
AcDbEntity
 67
     1
  8
7_ALL_FEATURES
  6
Continuous
 62
     9
100
AcDbLine
 10
752.867686354
 20
531.1826866654
 30
0.0
 11
753.6206271662
 21
530.912353291
 31
0.0
  0
LINE
  5
3BD
330
1B
100
AcDbEntity
 67
     1
  8
7_ALL_FEATURES
  6
Continuous
 62
     9
100
AcDbLine
 10
750.7649048584
 20
469.0938823122
 30
0.0
 11
749.9886682774
 21
468.9003447957
 31
0.0
  0
LINE
  5
3BE
330
1B
100
AcDbEntity
 67
     1
  8
7_ALL_FEATURES
  6
Continuous
 62
     9
100
AcDbLine
 10
745.8512692787
 20
500.6256210581
 30
0.0
 11
746.6512388171
 21
500.6326022865
 31
0.0
  0
LINE
  5
3BF
330
1B
100
AcDbEntity
 67
     1
  8
7_ALL_FEATURES
  6
Continuous
 62
     3
100
AcDbLine
 10
750.291084437
 20
470.9942722243
 30
0.0
 11
750.5330063326
 21
470.023976498
 31
0.0
  0
LINE
  5
3C0
330
1B
100
AcDbEntity
 67
     1
  8
7_ALL_FEATURES
  6
Continuous
 62
     3
100
AcDbLine
 10
759.791084437
 20
468.4874198287
 30
0.0
 11
762.791084437
 21
468.4874198287
 31
0.0
  0
LINE
  5
3C1
330
1B
100
AcDbEntity
 67
     1
  8
7_ALL_FEATURES
  6
Continuous
 62
     3
100
AcDbLine
 10
759.791084437
 20
468.4874198287
 30
0.0
 11
751.5411414394
 21
468.4874198287
 31
0.0
  0
LINE
  5
3C2
330
1B
100
AcDbEntity
 67
     1
  8
7_ALL_FEATURES
  6
Continuous
 62
     3
100
AcDbLine
 10
758.3045812659
 20
540.3224465091
 30
0.0
 11
757.8785002687
 21
539.467860238
 31
0.0
  0
LINE
  5
3C3
330
1B
100
AcDbEntity
 67
     1
  8
7_ALL_FEATURES
  6
Continuous
 62
     3
100
AcDbLine
 10
757.8785002687
 20
539.467860238
 30
0.0
 11
756.0735922004
 21
535.8477747011
 31
0.0
  0
LINE
  5
3C4
330
1B
100
AcDbEntity
 67
     1
  8
7_ALL_FEATURES
  6
Continuous
 62
     3
100
AcDbLine
 10
750.7649048584
 20
469.0938823122
 30
0.0
 11
750.5330063326
 21
470.023976498
 31
0.0
  0
LINE
  5
3C5
330
1B
100
AcDbEntity
 67
     1
  8
7_ALL_FEATURES
  6
Continuous
 62
     3
100
AcDbLine
 10
749.081474959
 20
475.8457508556
 30
0.0
 11
750.0600695833
 21
471.920822195
 31
0.0
  0
LINE
  5
3C6
330
1B
100
AcDbEntity
 67
     1
  8
7_ALL_FEATURES
  6
Continuous
 62
     3
100
AcDbLine
 10
750.0600695833
 20
471.920822195
 30
0.0
 11
750.291084437
 21
470.9942722243
 31
0.0
  0
LINE
  5
3C7
330
1B
100
AcDbEntity
 67
     1
  8
7_ALL_FEATURES
  6
Continuous
 62
     3
100
AcDbLine
 10
749.081474959
 20
475.8457508556
 30
0.0
 11
748.0689777084
 21
479.9066555237
 31
0.0
  0
ARC
  5
3C8
330
1B
100
AcDbEntity
 67
     1
  8
7_ALL_FEATURES
  6
Continuous
 62
     3
100
AcDbCircle
 10
751.5411414394
 20
469.2874198287
 30
0.0
 40
0.8
100
AcDbArc
 50
194.0
 51
270.0
  0
LINE
  5
3C9
330
1B
100
AcDbEntity
 67
     1
  8
7_ALL_FEATURES
  6
Continuous
 62
     3
100
AcDbLine
 10
753.6668688198
 20
531.0206343861
 30
0.0
 11
756.0735922004
 21
535.8477747011
 31
0.0
  0
ARC
  5
3CA
330
1B
100
AcDbEntity
 67
     1
  8
7_ALL_FEATURES
  6
Continuous
 62
     3
100
AcDbCircle
 10
754.5618031814
 20
530.574436573
 30
0.0
 40
1.0
100
AcDbArc
 50
153.5
 51
160.25
  0
LINE
  5
3CB
330
1B
100
AcDbEntity
 67
     1
  8
7_ALL_FEATURES
  6
Continuous
 62
     3
100
AcDbLine
 10
750.1442423971
 20
521.2298197255
 30
0.0
 11
753.6206271662
 21
530.912353291
 31
0.0
  0
ARC
  5
3CC
330
1B
100
AcDbEntity
 67
     1
  8
7_ALL_FEATURES
  6
Continuous
 62
     3
100
AcDbCircle
 10
751.0854184124
 20
520.8919030074
 30
0.0
 40
1.0
100
AcDbArc
 50
160.25
 51
167.0
  0
LINE
  5
3CD
330
1B
100
AcDbEntity
 67
     1
  8
7_ALL_FEATURES
  6
Continuous
 62
     3
100
AcDbLine
 10
747.7968200853
 20
511.0928301761
 30
0.0
 11
750.1110483476
 21
521.1168540618
 31
0.0
  0
ARC
  5
3CE
330
1B
100
AcDbEntity
 67
     1
  8
7_ALL_FEATURES
  6
Continuous
 62
     3
100
AcDbCircle
 10
749.0392734347
 20
480.1485774193
 30
0.0
 40
1.0
100
AcDbArc
 50
187.25
 51
194.0
  0
ARC
  5
3CF
330
1B
100
AcDbEntity
 67
     1
  8
7_ALL_FEATURES
  6
Continuous
 62
     3
100
AcDbCircle
 10
748.7711901501
 20
510.8678791218
 30
0.0
 40
1.0
100
AcDbArc
 50
167.0
 51
173.75
  0
LINE
  5
3D0
330
1B
100
AcDbEntity
 67
     1
  8
7_ALL_FEATURES
  6
Continuous
 62
     3
100
AcDbLine
 10
748.047268485
 20
480.0223784502
 30
0.0
 11
746.7489717426
 21
490.2278246864
 31
0.0
  0
LINE
  5
3D1
330
1B
100
AcDbEntity
 67
     1
  8
7_ALL_FEATURES
  6
Continuous
 62
     3
100
AcDbLine
 10
746.657144402
 20
500.7501956969
 30
0.0
 11
747.7771338119
 21
510.9767459966
 31
0.0
  0
ARC
  5
3D2
330
1B
100
AcDbEntity
 67
     1
  8
7_ALL_FEATURES
  6
Continuous
 62
     3
100
AcDbCircle
 10
747.7409766923
 20
490.3540236555
 30
0.0
 40
1.0
100
AcDbArc
 50
180.5
 51
187.25
  0
ARC
  5
3D3
330
1B
100
AcDbEntity
 67
     1
  8
7_ALL_FEATURES
  6
Continuous
 62
     3
100
AcDbCircle
 10
747.6512007402
 20
500.641328822
 30
0.0
 40
1.0
100
AcDbArc
 50
173.75
 51
180.5
  0
LINE
  5
3D4
330
1B
100
AcDbEntity
 67
     1
  8
7_ALL_FEATURES
  6
Continuous
 62
     3
100
AcDbLine
 10
746.7410147693
 20
490.34529712
 30
0.0
 11
746.6512388171
 21
500.6326022865
 31
0.0
  0
LINE
  5
3D5
330
1B
100
AcDbEntity
 67
     1
  8
7_ALL_FEATURES
  6
Continuous
 62
     7
100
AcDbLine
 10
40.8591391074
 20
392.7875769936
 30
0.0
 11
40.8591391074
 21
392.7768785303
 31
0.0
  0
LINE
  5
3D6
330
1B
100
AcDbEntity
 67
     1
  8
7_ALL_FEATURES
  6
Continuous
 62
     7
100
AcDbLine
 10
652.8591391074
 20
392.7875769936
 30
0.0
 11
652.8591391074
 21
392.7768785303
 31
0.0
  0
LINE
  5
3D7
330
1B
100
AcDbEntity
 67
     1
  8
7_ALL_FEATURES
  6
Continuous
 62
     7
100
AcDbLine
 10
652.8591391074
 20
392.7875771215
 30
0.0
 11
40.8591391074
 21
392.7875771215
 31
0.0
  0
LINE
  5
3D8
330
1B
100
AcDbEntity
 67
     1
  8
7_ALL_FEATURES
  6
Continuous
 62
     7
100
AcDbLine
 10
652.8591391074
 20
382.5651856613
 30
0.0
 11
652.8591391074
 21
383.2811331506
 31
0.0
  0
LINE
  5
3D9
330
1B
100
AcDbEntity
 67
     1
  8
7_ALL_FEATURES
  6
Continuous
 62
     7
100
AcDbLine
 10
652.8591391074
 20
385.6878565311
 30
0.0
 11
652.8591391074
 21
383.2811331506
 31
0.0
  0
LINE
  5
3DA
330
1B
100
AcDbEntity
 67
     1
  8
7_ALL_FEATURES
  6
Continuous
 62
     7
100
AcDbLine
 10
40.8591391074
 20
382.5651856613
 30
0.0
 11
40.8591391074
 21
383.2811331506
 31
0.0
  0
LINE
  5
3DB
330
1B
100
AcDbEntity
 67
     1
  8
7_ALL_FEATURES
  6
Continuous
 62
     7
100
AcDbLine
 10
40.8591391074
 20
385.6878565311
 30
0.0
 11
40.8591391074
 21
385.0181506955
 31
0.0
  0
LINE
  5
3DC
330
1B
100
AcDbEntity
 67
     1
  8
7_ALL_FEATURES
  6
Continuous
 62
     7
100
AcDbLine
 10
40.8591391074
 20
385.0181506955
 30
0.0
 11
40.8591391074
 21
383.2811331506
 31
0.0
  0
LINE
  5
3DD
330
1B
100
AcDbEntity
 67
     1
  8
7_ALL_FEATURES
  6
Continuous
 62
     7
100
AcDbLine
 10
652.8591391074
 20
385.7710915077
 30
0.0
 11
652.8591391074
 21
385.6878565311
 31
0.0
  0
LINE
  5
3DE
330
1B
100
AcDbEntity
 67
     1
  8
7_ALL_FEATURES
  6
Continuous
 62
     7
100
AcDbLine
 10
40.8591391074
 20
385.7710915077
 30
0.0
 11
40.8591391074
 21
385.6878565311
 31
0.0
  0
LINE
  5
3DF
330
1B
100
AcDbEntity
 67
     1
  8
7_ALL_FEATURES
  6
Continuous
 62
     7
100
AcDbLine
 10
652.8591391074
 20
389.2474762768
 30
0.0
 11
652.8591391074
 21
385.7710915077
 31
0.0
  0
LINE
  5
3E0
330
1B
100
AcDbEntity
 67
     1
  8
7_ALL_FEATURES
  6
Continuous
 62
     7
100
AcDbLine
 10
40.8591391074
 20
389.2474762768
 30
0.0
 11
40.8591391074
 21
388.5277295141
 31
0.0
  0
LINE
  5
3E1
330
1B
100
AcDbEntity
 67
     1
  8
7_ALL_FEATURES
  6
Continuous
 62
     7
100
AcDbLine
 10
40.8591391074
 20
388.5277295141
 30
0.0
 11
40.8591391074
 21
385.7710915077
 31
0.0
  0
LINE
  5
3E2
330
1B
100
AcDbEntity
 67
     1
  8
7_ALL_FEATURES
  6
Continuous
 62
     7
100
AcDbLine
 10
40.8591391074
 20
385.7710915077
 30
0.0
 11
40.8591391074
 21
385.6878565311
 31
0.0
  0
LINE
  5
3E3
330
1B
100
AcDbEntity
 67
     1
  8
7_ALL_FEATURES
  6
Continuous
 62
     7
100
AcDbLine
 10
652.8591391074
 20
389.3072255659
 30
0.0
 11
652.8591391074
 21
389.2474762768
 31
0.0
  0
LINE
  5
3E4
330
1B
100
AcDbEntity
 67
     1
  8
7_ALL_FEATURES
  6
Continuous
 62
     7
100
AcDbLine
 10
40.8591391074
 20
389.3072255659
 30
0.0
 11
40.8591391074
 21
389.2474762768
 31
0.0
  0
LINE
  5
3E5
330
1B
100
AcDbEntity
 67
     1
  8
7_ALL_FEATURES
  6
Continuous
 62
     7
100
AcDbLine
 10
652.8591391074
 20
391.6214538282
 30
0.0
 11
652.8591391074
 21
389.3072255659
 31
0.0
  0
LINE
  5
3E6
330
1B
100
AcDbEntity
 67
     1
  8
7_ALL_FEATURES
  6
Continuous
 62
     7
100
AcDbLine
 10
40.8591391074
 20
391.6214538282
 30
0.0
 11
40.8591391074
 21
390.8616440498
 31
0.0
  0
LINE
  5
3E7
330
1B
100
AcDbEntity
 67
     1
  8
7_ALL_FEATURES
  6
Continuous
 62
     7
100
AcDbLine
 10
40.8591391074
 20
390.8616440498
 30
0.0
 11
40.8591391074
 21
389.3072255659
 31
0.0
  0
LINE
  5
3E8
330
1B
100
AcDbEntity
 67
     1
  8
7_ALL_FEATURES
  6
Continuous
 62
     7
100
AcDbLine
 10
652.8591391074
 20
391.6568891204
 30
0.0
 11
652.8591391074
 21
391.6214538282
 31
0.0
  0
LINE
  5
3E9
330
1B
100
AcDbEntity
 67
     1
  8
7_ALL_FEATURES
  6
Continuous
 62
     7
100
AcDbLine
 10
40.8591391074
 20
391.6568891204
 30
0.0
 11
40.8591391074
 21
391.6214538282
 31
0.0
  0
LINE
  5
3EA
330
1B
100
AcDbEntity
 67
     1
  8
7_ALL_FEATURES
  6
Continuous
 62
     7
100
AcDbLine
 10
652.8591391074
 20
392.7768785303
 30
0.0
 11
652.8591391074
 21
391.9875390445
 31
0.0
  0
LINE
  5
3EB
330
1B
100
AcDbEntity
 67
     1
  8
7_ALL_FEATURES
  6
Continuous
 62
     7
100
AcDbLine
 10
652.8591391074
 20
391.9875390445
 30
0.0
 11
652.8591391074
 21
391.8977630924
 31
0.0
  0
LINE
  5
3EC
330
1B
100
AcDbEntity
 67
     1
  8
7_ALL_FEATURES
  6
Continuous
 62
     7
100
AcDbLine
 10
652.8591391074
 20
391.8977630924
 30
0.0
 11
652.8591391074
 21
391.6568891204
 31
0.0
  0
LINE
  5
3ED
330
1B
100
AcDbEntity
 67
     1
  8
7_ALL_FEATURES
  6
Continuous
 62
     7
100
AcDbLine
 10
40.8591391074
 20
392.7768785303
 30
0.0
 11
40.8591391074
 21
391.9875390445
 31
0.0
  0
LINE
  5
3EE
330
1B
100
AcDbEntity
 67
     1
  8
7_ALL_FEATURES
  6
Continuous
 62
     7
100
AcDbLine
 10
40.8591391074
 20
391.9875390445
 30
0.0
 11
40.8591391074
 21
391.8977630924
 31
0.0
  0
LINE
  5
3EF
330
1B
100
AcDbEntity
 67
     1
  8
7_ALL_FEATURES
  6
Continuous
 62
     7
100
AcDbLine
 10
40.8591391074
 20
391.8977630924
 30
0.0
 11
40.8591391074
 21
391.6568891204
 31
0.0
  0
LINE
  5
3F0
330
1B
100
AcDbEntity
 67
     1
  8
7_ALL_FEATURES
  6
Continuous
 62
     9
100
AcDbLine
 10
652.8591391074
 20
391.6568891204
 30
0.0
 11
40.8591391074
 21
391.6568891204
 31
0.0
  0
LINE
  5
3F1
330
1B
100
AcDbEntity
 67
     1
  8
7_ALL_FEATURES
  6
Continuous
 62
     9
100
AcDbLine
 10
652.8591391074
 20
392.7768785303
 30
0.0
 11
40.8591391074
 21
392.7768785303
 31
0.0
  0
SPLINE
  5
3F2
330
1B
100
AcDbEntity
 67
     1
  8
7_ALL_FEATURES
  6
Continuous
 62
     7
100
AcDbSpline
 70
     0
 71
     3
 72
     9
 73
     5
 74
     0
 42
0.000000001
 43
0.0000001
 40
0.0
 40
0.0
 40
0.0
 40
0.0
 40
0.4366001641
 40
1.0
 40
1.0
 40
1.0
 40
1.0
 10
40.8591391074
 20
383.2811331506
 30
0.0
 10
40.8591391074
 20
383.0372803631
 30
0.0
 10
41.0904829362
 20
382.4814319096
 30
0.0
 10
41.5458744922
 20
382.1344092138
 30
0.0
 10
41.8140541355
 20
381.9697906799
 30
0.0
  0
SPLINE
  5
3F3
330
1B
100
AcDbEntity
 67
     1
  8
7_ALL_FEATURES
  6
Continuous
 62
     7
100
AcDbSpline
 70
     0
 71
     3
 72
     9
 73
     5
 74
     0
 42
0.000000001
 43
0.0000001
 40
0.0
 40
0.0
 40
0.0
 40
0.0
 40
0.4541311587
 40
1.0
 40
1.0
 40
1.0
 40
1.0
 10
41.8140541355
 20
381.9697906799
 30
0.0
 10
42.3536545128
 20
381.6385641112
 30
0.0
 10
43.7036605306
 20
381.187042758
 30
0.0
 10
45.0980877121
 20
381.0501440851
 30
0.0
 10
45.8591391074
 20
381.0501440851
 30
0.0
  0
LINE
  5
3F4
330
1B
100
AcDbEntity
 67
     1
  8
7_ALL_FEATURES
  6
Continuous
 62
     9
100
AcDbLine
 10
652.8591391074
 20
385.6878565311
 30
0.0
 11
40.8591391074
 21
385.6878565311
 31
0.0
  0
SPLINE
  5
3F5
330
1B
100
AcDbEntity
 67
     1
  8
7_ALL_FEATURES
  6
Continuous
 62
     7
100
AcDbSpline
 70
     0
 71
     3
 72
     9
 73
     5
 74
     0
 42
0.000000001
 43
0.0000001
 40
0.0
 40
0.0
 40
0.0
 40
0.0
 40
0.5458688413
 40
1.0
 40
1.0
 40
1.0
 40
1.0
 10
647.8591391074
 20
381.0501440851
 30
0.0
 10
648.6201905026
 20
381.0501440851
 30
0.0
 10
650.0146176841
 20
381.187042758
 30
0.0
 10
651.364623702
 20
381.6385641112
 30
0.0
 10
651.9042240792
 20
381.9697906799
 30
0.0
  0
SPLINE
  5
3F6
330
1B
100
AcDbEntity
 67
     1
  8
7_ALL_FEATURES
  6
Continuous
 62
     7
100
AcDbSpline
 70
     0
 71
     3
 72
     9
 73
     5
 74
     0
 42
0.000000001
 43
0.0000001
 40
0.0
 40
0.0
 40
0.0
 40
0.0
 40
0.5633998359
 40
1.0
 40
1.0
 40
1.0
 40
1.0
 10
651.9042240792
 20
381.9697906799
 30
0.0
 10
652.1724037225
 20
382.1344092138
 30
0.0
 10
652.6277952785
 20
382.4814319096
 30
0.0
 10
652.8591391074
 20
383.0372803631
 30
0.0
 10
652.8591391074
 20
383.2811331506
 30
0.0
  0
LINE
  5
3F7
330
1B
100
AcDbEntity
 67
     1
  8
7_ALL_FEATURES
  6
Continuous
 62
     9
100
AcDbLine
 10
652.8591391074
 20
385.7710915077
 30
0.0
 11
40.8591391074
 21
385.7710915077
 31
0.0
  0
LINE
  5
3F8
330
1B
100
AcDbEntity
 67
     1
  8
7_ALL_FEATURES
  6
Continuous
 62
     9
100
AcDbLine
 10
45.8591391074
 20
380.3341965958
 30
0.0
 11
45.8591391074
 21
381.0501440851
 31
0.0
  0
LINE
  5
3F9
330
1B
100
AcDbEntity
 67
     1
  8
7_ALL_FEATURES
  6
Continuous
 62
     7
100
AcDbLine
 10
647.8591391074
 20
381.0501440851
 30
0.0
 11
45.8591391074
 21
381.0501440851
 31
0.0
  0
LINE
  5
3FA
330
1B
100
AcDbEntity
 67
     1
  8
7_ALL_FEATURES
  6
Continuous
 62
     9
100
AcDbLine
 10
647.8591391074
 20
380.3341965958
 30
0.0
 11
647.8591391074
 21
381.0501440851
 31
0.0
  0
LINE
  5
3FB
330
1B
100
AcDbEntity
 67
     1
  8
7_ALL_FEATURES
  6
Continuous
 62
     9
100
AcDbLine
 10
652.8591391074
 20
389.2474762768
 30
0.0
 11
40.8591391074
 21
389.2474762768
 31
0.0
  0
LINE
  5
3FC
330
1B
100
AcDbEntity
 67
     1
  8
7_ALL_FEATURES
  6
Continuous
 62
     9
100
AcDbLine
 10
652.8591391074
 20
389.3072255659
 30
0.0
 11
40.8591391074
 21
389.3072255659
 31
0.0
  0
LINE
  5
3FD
330
1B
100
AcDbEntity
 67
     1
  8
7_ALL_FEATURES
  6
Continuous
 62
     9
100
AcDbLine
 10
652.8591391074
 20
391.6214538282
 30
0.0
 11
40.8591391074
 21
391.6214538282
 31
0.0
  0
ARC
  5
3FE
330
1B
100
AcDbEntity
 67
     1
  8
02___PRT_ALL_AXES
  6
Continuous
 62
     3
100
AcDbCircle
 10
61.8591391074
 20
380.8476934247
 30
0.0
 40
1.75
100
AcDbArc
 50
197.6362534503
 51
342.3637465497
  0
ARC
  5
3FF
330
1B
100
AcDbEntity
 67
     1
  8
02___PRT_ALL_AXES
  6
Continuous
 62
     3
100
AcDbCircle
 10
251.8591391074
 20
380.8476934247
 30
0.0
 40
1.75
100
AcDbArc
 50
197.6362534503
 51
342.3637465497
  0
ARC
  5
400
330
1B
100
AcDbEntity
 67
     1
  8
02___PRT_ALL_AXES
  6
Continuous
 62
     3
100
AcDbCircle
 10
441.8591391074
 20
380.8476934247
 30
0.0
 40
1.75
100
AcDbArc
 50
197.6362534503
 51
342.3637465497
  0
ARC
  5
401
330
1B
100
AcDbEntity
 67
     1
  8
02___PRT_ALL_AXES
  6
Continuous
 62
     3
100
AcDbCircle
 10
631.8591391074
 20
380.8476934247
 30
0.0
 40
1.75
100
AcDbArc
 50
197.6362534503
 51
342.3637465497
  0
ARC
  5
402
330
1B
100
AcDbEntity
 67
     1
  8
7_ALL_FEATURES
  6
Continuous
 62
     3
100
AcDbCircle
 10
58.3591391074
 20
378.8476934247
 30
0.0
 40
3.0
100
AcDbArc
 50
180.0
 51
270.0
  0
LINE
  5
403
330
1B
100
AcDbEntity
 67
     1
  8
7_ALL_FEATURES
  6
Continuous
 62
     3
100
AcDbLine
 10
55.3591391074
 20
378.8476934247
 30
0.0
 11
55.3591391074
 21
380.3341965958
 31
0.0
  0
LINE
  5
404
330
1B
100
AcDbEntity
 67
     1
  8
7_ALL_FEATURES
  6
Continuous
 62
     3
100
AcDbLine
 10
68.3591391074
 20
378.8476934247
 30
0.0
 11
68.3591391074
 21
380.3341965958
 31
0.0
  0
ARC
  5
405
330
1B
100
AcDbEntity
 67
     1
  8
7_ALL_FEATURES
  6
Continuous
 62
     3
100
AcDbCircle
 10
65.3591391074
 20
378.8476934247
 30
0.0
 40
3.0
100
AcDbArc
 50
270.0
 51
360.0
  0
LINE
  5
406
330
1B
100
AcDbEntity
 67
     1
  8
7_ALL_FEATURES
  6
Continuous
 62
     3
100
AcDbLine
 10
58.3591391074
 20
375.8476934247
 30
0.0
 11
65.3591391074
 21
375.8476934247
 31
0.0
  0
ARC
  5
407
330
1B
100
AcDbEntity
 67
     1
  8
7_ALL_FEATURES
  6
Continuous
 62
     3
100
AcDbCircle
 10
248.3591391074
 20
378.8476934247
 30
0.0
 40
3.0
100
AcDbArc
 50
180.0
 51
270.0
  0
LINE
  5
408
330
1B
100
AcDbEntity
 67
     1
  8
7_ALL_FEATURES
  6
Continuous
 62
     3
100
AcDbLine
 10
245.3591391074
 20
378.8476934247
 30
0.0
 11
245.3591391074
 21
380.3341965958
 31
0.0
  0
LINE
  5
409
330
1B
100
AcDbEntity
 67
     1
  8
7_ALL_FEATURES
  6
Continuous
 62
     3
100
AcDbLine
 10
258.3591391074
 20
378.8476934247
 30
0.0
 11
258.3591391074
 21
380.3341965958
 31
0.0
  0
ARC
  5
40A
330
1B
100
AcDbEntity
 67
     1
  8
7_ALL_FEATURES
  6
Continuous
 62
     3
100
AcDbCircle
 10
255.3591391074
 20
378.8476934247
 30
0.0
 40
3.0
100
AcDbArc
 50
270.0
 51
360.0
  0
LINE
  5
40B
330
1B
100
AcDbEntity
 67
     1
  8
7_ALL_FEATURES
  6
Continuous
 62
     3
100
AcDbLine
 10
248.3591391074
 20
375.8476934247
 30
0.0
 11
255.3591391074
 21
375.8476934247
 31
0.0
  0
ARC
  5
40C
330
1B
100
AcDbEntity
 67
     1
  8
7_ALL_FEATURES
  6
Continuous
 62
     3
100
AcDbCircle
 10
445.3591391074
 20
378.8476934247
 30
0.0
 40
3.0
100
AcDbArc
 50
270.0
 51
360.0
  0
LINE
  5
40D
330
1B
100
AcDbEntity
 67
     1
  8
7_ALL_FEATURES
  6
Continuous
 62
     3
100
AcDbLine
 10
438.3591391074
 20
375.8476934247
 30
0.0
 11
445.3591391074
 21
375.8476934247
 31
0.0
  0
ARC
  5
40E
330
1B
100
AcDbEntity
 67
     1
  8
7_ALL_FEATURES
  6
Continuous
 62
     3
100
AcDbCircle
 10
438.3591391074
 20
378.8476934247
 30
0.0
 40
3.0
100
AcDbArc
 50
180.0
 51
270.0
  0
LINE
  5
40F
330
1B
100
AcDbEntity
 67
     1
  8
7_ALL_FEATURES
  6
Continuous
 62
     3
100
AcDbLine
 10
435.3591391074
 20
378.8476934247
 30
0.0
 11
435.3591391074
 21
380.3341965958
 31
0.0
  0
LINE
  5
410
330
1B
100
AcDbEntity
 67
     1
  8
7_ALL_FEATURES
  6
Continuous
 62
     3
100
AcDbLine
 10
448.3591391074
 20
378.8476934247
 30
0.0
 11
448.3591391074
 21
380.3341965958
 31
0.0
  0
ARC
  5
411
330
1B
100
AcDbEntity
 67
     1
  8
7_ALL_FEATURES
  6
Continuous
 62
     3
100
AcDbCircle
 10
628.3591391074
 20
378.8476934247
 30
0.0
 40
3.0
100
AcDbArc
 50
180.0
 51
270.0
  0
LINE
  5
412
330
1B
100
AcDbEntity
 67
     1
  8
7_ALL_FEATURES
  6
Continuous
 62
     3
100
AcDbLine
 10
625.3591391074
 20
378.8476934247
 30
0.0
 11
625.3591391074
 21
380.3341965958
 31
0.0
  0
LINE
  5
413
330
1B
100
AcDbEntity
 67
     1
  8
7_ALL_FEATURES
  6
Continuous
 62
     3
100
AcDbLine
 10
638.3591391074
 20
378.8476934247
 30
0.0
 11
638.3591391074
 21
380.3341965958
 31
0.0
  0
ARC
  5
414
330
1B
100
AcDbEntity
 67
     1
  8
7_ALL_FEATURES
  6
Continuous
 62
     3
100
AcDbCircle
 10
635.3591391074
 20
378.8476934247
 30
0.0
 40
3.0
100
AcDbArc
 50
270.0
 51
360.0
  0
LINE
  5
415
330
1B
100
AcDbEntity
 67
     1
  8
7_ALL_FEATURES
  6
Continuous
 62
     3
100
AcDbLine
 10
628.3591391074
 20
375.8476934247
 30
0.0
 11
635.3591391074
 21
375.8476934247
 31
0.0
  0
SPLINE
  5
416
330
1B
100
AcDbEntity
 67
     1
  8
7_ALL_FEATURES
  6
Continuous
 62
     3
100
AcDbSpline
 70
     0
 71
     3
 72
    11
 73
     7
 74
     0
 42
0.000000001
 43
0.0000001
 40
0.0
 40
0.0
 40
0.0
 40
0.0
 40
0.333017626
 40
0.4870350729
 40
0.6268692441
 40
1.0
 40
1.0
 40
1.0
 40
1.0
 10
45.8591391074
 20
380.3341965958
 30
0.0
 10
45.2187519139
 20
380.3341965958
 30
0.0
 10
44.2825030888
 20
380.4092386112
 30
0.0
 10
43.0969829017
 20
380.6908955822
 30
0.0
 10
41.9270412482
 20
381.0973575473
 30
0.0
 10
40.8591391074
 20
381.8476616059
 30
0.0
 10
40.8591391074
 20
382.5651856613
 30
0.0
  0
SPLINE
  5
417
330
1B
100
AcDbEntity
 67
     1
  8
7_ALL_FEATURES
  6
Continuous
 62
     3
100
AcDbSpline
 70
     0
 71
     3
 72
    11
 73
     7
 74
     0
 42
0.000000001
 43
0.0000001
 40
0.0
 40
0.0
 40
0.0
 40
0.0
 40
0.3731307559
 40
0.5129649271
 40
0.666982374
 40
1.0
 40
1.0
 40
1.0
 40
1.0
 10
652.8591391074
 20
382.5651856613
 30
0.0
 10
652.8591391074
 20
381.8476616059
 30
0.0
 10
651.7912369665
 20
381.0973575473
 30
0.0
 10
650.6212953131
 20
380.6908955822
 30
0.0
 10
649.435775126
 20
380.4092386112
 30
0.0
 10
648.4995263008
 20
380.3341965958
 30
0.0
 10
647.8591391074
 20
380.3341965958
 30
0.0
  0
LINE
  5
418
330
1B
100
AcDbEntity
 67
     1
  8
7_ALL_FEATURES
  6
Continuous
 62
     3
100
AcDbLine
 10
647.8591391074
 20
380.3341965958
 30
0.0
 11
45.8591391074
 21
380.3341965958
 31
0.0
  0
DIMENSION
  5
419
330
1B
100
AcDbEntity
 67
     1
  8
0
  6
Continuous
 62
     2
100
AcDbDimension
280
     0
  2
*D1
 10
789.3762127394
 20
540.6794047596
 30
0.0
 11
789.3762127394
 21
503.7548229243
 31
0.0
 70
   160
 71
     5
 42
-1.0
 73
     0
 74
     0
 75
     0
  3
DIMSTYLE_1
100
AcDbAlignedDimension
 13
773.8653330857
 23
467.6874198287
 33
0.0
 14
774.2813472901
 24
540.6794047596
 34
0.0
 50
90.0
100
AcDbRotatedDimension
  0
DIMENSION
  5
41A
330
1B
100
AcDbEntity
 67
     1
  8
0
  6
Continuous
 62
     2
100
AcDbDimension
280
     0
  2
*D2
 10
40.8591391074
 20
556.6000166107
 30
0.0
 11
346.4305701447
 21
556.6000166107
 31
0.0
 70
   160
 71
     5
 42
-1.0
 73
     0
 74
     0
 75
     0
  3
DIMSTYLE_2
100
AcDbAlignedDimension
 13
652.8591391074
 23
544.68509362
 33
0.0
 14
40.8591391074
 24
545.3397098362
 34
0.0
 50
180.0
100
AcDbRotatedDimension
  0
DIMENSION
  5
41B
330
1B
100
AcDbEntity
 67
     1
  8
0
  6
Continuous
 62
     2
100
AcDbDimension
280
     0
  2
*D3
 10
745.8512007402
 20
450.0769125505
 30
0.0
 11
753.8925934448
 21
450.0769125505
 31
0.0
 70
   160
 71
     5
 42
-1.0
 73
     0
 74
     0
 75
     0
  3
DIMSTYLE_3
100
AcDbAlignedDimension
 13
762.791084437
 23
464.2017194006
 33
0.0
 14
745.8512007402
 24
468.0634363593
 34
0.0
 50
180.0
100
AcDbRotatedDimension
  0
LINE
  5
41C
330
1B
100
AcDbEntity
 67
     1
  8
0
  6
Continuous
 62
     2
100
AcDbLine
 10
701.0644272459
 20
76.1635098905
 30
0.0
 11
831.0644272459
 21
76.1635098905
 31
0.0
  0
LINE
  5
41D
330
1B
100
AcDbEntity
 67
     1
  8
0
  6
Continuous
 62
     2
100
AcDbLine
 10
701.0644272459
 20
76.1635098905
 30
0.0
 11
701.0644272459
 21
10.1635098905
 31
0.0
  0
LINE
  5
41E
330
1B
100
AcDbEntity
 67
     1
  8
0
  6
Continuous
 62
     2
100
AcDbLine
 10
731.0644272459
 20
68.1635098905
 30
0.0
 11
831.0644272459
 21
68.1635098905
 31
0.0
  0
LINE
  5
41F
330
1B
100
AcDbEntity
 67
     1
  8
0
  6
Continuous
 62
     2
100
AcDbLine
 10
701.0644272459
 20
60.1635098905
 30
0.0
 11
831.0644272459
 21
60.1635098905
 31
0.0
  0
LINE
  5
420
330
1B
100
AcDbEntity
 67
     1
  8
0
  6
Continuous
 62
     2
100
AcDbLine
 10
731.0644272459
 20
54.1635098905
 30
0.0
 11
831.0644272459
 21
54.1635098905
 31
0.0
  0
LINE
  5
421
330
1B
100
AcDbEntity
 67
     1
  8
0
  6
Continuous
 62
     2
100
AcDbLine
 10
731.0644272459
 20
48.1635098905
 30
0.0
 11
831.0644272459
 21
48.1635098905
 31
0.0
  0
LINE
  5
422
330
1B
100
AcDbEntity
 67
     1
  8
0
  6
Continuous
 62
     2
100
AcDbLine
 10
731.0644272459
 20
42.1635098905
 30
0.0
 11
831.0644272459
 21
42.1635098905
 31
0.0
  0
LINE
  5
423
330
1B
100
AcDbEntity
 67
     1
  8
0
  6
Continuous
 62
     2
100
AcDbLine
 10
731.0644272459
 20
36.1635098905
 30
0.0
 11
831.0644272459
 21
36.1635098905
 31
0.0
  0
LINE
  5
424
330
1B
100
AcDbEntity
 67
     1
  8
0
  6
Continuous
 62
     2
100
AcDbLine
 10
731.0644272459
 20
30.1635098905
 30
0.0
 11
831.0644272459
 21
30.1635098905
 31
0.0
  0
LINE
  5
425
330
1B
100
AcDbEntity
 67
     1
  8
0
  6
Continuous
 62
     2
100
AcDbLine
 10
701.0644272459
 20
24.1635098905
 30
0.0
 11
831.0644272459
 21
24.1635098905
 31
0.0
  0
LINE
  5
426
330
1B
100
AcDbEntity
 67
     1
  8
0
  6
Continuous
 62
     2
100
AcDbLine
 10
701.0644272459
 20
18.1635098905
 30
0.0
 11
831.0644272459
 21
18.1635098905
 31
0.0
  0
LINE
  5
427
330
1B
100
AcDbEntity
 67
     1
  8
0
  6
Continuous
 62
     2
100
AcDbLine
 10
701.0644272459
 20
14.1635098905
 30
0.0
 11
831.0644272459
 21
14.1635098905
 31
0.0
  0
LINE
  5
428
330
1B
100
AcDbEntity
 67
     1
  8
0
  6
Continuous
 62
     2
100
AcDbLine
 10
701.0644272459
 20
10.1635098905
 30
0.0
 11
831.0644272459
 21
10.1635098905
 31
0.0
  0
LINE
  5
429
330
1B
100
AcDbEntity
 67
     1
  8
0
  6
Continuous
 62
     2
100
AcDbLine
 10
731.0644272459
 20
76.1635098905
 30
0.0
 11
731.0644272459
 21
18.1635098905
 31
0.0
  0
LINE
  5
42A
330
1B
100
AcDbEntity
 67
     1
  8
0
  6
Continuous
 62
     2
100
AcDbLine
 10
751.0644272459
 20
60.1635098905
 30
0.0
 11
751.0644272459
 21
54.1635098905
 31
0.0
  0
LINE
  5
42B
330
1B
100
AcDbEntity
 67
     1
  8
0
  6
Continuous
 62
     2
100
AcDbLine
 10
781.0644272459
 20
30.1635098905
 30
0.0
 11
781.0644272459
 21
18.1635098905
 31
0.0
  0
LINE
  5
42C
330
1B
100
AcDbEntity
 67
     1
  8
0
  6
Continuous
 62
     2
100
AcDbLine
 10
791.0644272459
 20
60.1635098905
 30
0.0
 11
791.0644272459
 21
54.1635098905
 31
0.0
  0
LINE
  5
42D
330
1B
100
AcDbEntity
 67
     1
  8
0
  6
Continuous
 62
     2
100
AcDbLine
 10
791.0644272459
 20
48.1635098905
 30
0.0
 11
791.0644272459
 21
42.1635098905
 31
0.0
  0
LINE
  5
42E
330
1B
100
AcDbEntity
 67
     1
  8
0
  6
Continuous
 62
     2
100
AcDbLine
 10
811.0644272459
 20
60.1635098905
 30
0.0
 11
811.0644272459
 21
54.1635098905
 31
0.0
  0
LINE
  5
42F
330
1B
100
AcDbEntity
 67
     1
  8
0
  6
Continuous
 62
     2
100
AcDbLine
 10
821.0644272459
 20
48.1635098905
 30
0.0
 11
821.0644272459
 21
42.1635098905
 31
0.0
  0
LINE
  5
430
330
1B
100
AcDbEntity
 67
     1
  8
0
  6
Continuous
 62
     2
100
AcDbLine
 10
831.0644272459
 20
76.1635098905
 30
0.0
 11
831.0644272459
 21
10.1635098905
 31
0.0
  0
INSERT
  5
431
330
1B
100
AcDbEntity
 67
     1
  8
0
  6
Continuous
 62
     2
100
AcDbBlockReference
  2
PROIEZIONE_EU_BL0
 10
716.0644272459
 20
67.7885098905
 30
0.0
  0
MTEXT
  5
432
330
1B
100
AcDbEntity
 67
     1
  8
9_SOLID
  6
Continuous
 62
     2
100
AcDbMText
 10
732.5519272459
 20
74.5385098905
 30
0.0
 40
1.9
 41
142.3642857143
 46
0.0
 71
     1
 72
     1
  1
EN: Chamfer/radii unlisted 0.3x45°. Remove sharp edges.\PGen. tol.: hole H11, shaft h11, lenght Js12. UNI EN 22768 Medium Grande.
 73
     1
 44
1.0
  0
MTEXT
  5
433
330
1B
100
AcDbEntity
 67
     1
  8
9_SOLID
  6
Continuous
 62
     2
100
AcDbMText
 10
732.5519272459
 20
66.5385098905
 30
0.0
 40
1.9
 41
148.2678571429
 46
0.0
 71
     1
 72
     1
  1
IT: Sm./rac. non quotati 0.3x45°. Eliminare spigoli taglienti.\PToll. gen.: foro H11, albero h11, lunghezza Js12. UNI EN 22768 Grado Medio.
 73
     1
 44
1.0
  0
INSERT
  5
434
330
1B
100
AcDbEntity
 67
     1
  8
0
  6
Continuous
 62
     2
100
AcDbBlockReference
  2
LOGO2_BL1
 10
714.8904742907
 20
42.1635098905
 30
0.0
  0
MTEXT
  5
435
330
1B
100
AcDbEntity
 67
     1
  8
9_SOLID
  6
Continuous
 62
     2
100
AcDbMText
 10
732.5519272459
 20
58.4135098905
 30
0.0
 40
3.0
 41
21.75
 46
0.0
 71
     1
 72
     1
  1
Pj: 565
 73
     1
 44
1.0
  0
MTEXT
  5
436
330
1B
100
AcDbEntity
 67
     1
  8
0
  6
Continuous
 62
     2
100
AcDbMText
 10
752.5519272459
 20
58.4135098905
 30
0.0
 40
3.0
 41
41.5714285714
 46
0.0
 71
     1
 72
     1
  1
% Check:  %
 73
     1
 44
1.0
  0
MTEXT
  5
437
330
1B
100
AcDbEntity
 67
     1
  8
9_SOLID
  6
Continuous
 62
     2
100
AcDbMText
 10
792.5519272459
 20
58.4135098905
 30
0.0
 40
3.0
 41
19.5
 46
0.0
 71
     1
 72
     1
  1
Rev:00
 73
     1
 44
1.0
  0
MTEXT
  5
438
330
1B
100
AcDbEntity
 67
     1
  8
9_SOLID
  6
Continuous
 62
     2
100
AcDbMText
 10
812.5519272459
 20
58.6635098905
 30
0.0
 40
3.0
 41
19.7142857143
 46
0.0
 71
     1
 72
     1
  1
Ver: A
 73
     1
 44
1.0
  0
MTEXT
  5
439
330
1B
100
AcDbEntity
 67
     1
  8
9_SOLID
  6
Continuous
 62
     2
100
AcDbMText
 10
732.5519272459
 20
52.4135098905
 30
0.0
 40
3.0
 41
74.3571428571
 46
0.0
 71
     1
 72
     1
  1
Neutral code: 565_C_280
 73
     1
 44
1.0
  0
MTEXT
  5
43A
330
1B
100
AcDbEntity
 67
     1
  8
0
  6
Continuous
 62
     2
100
AcDbMText
 10
732.5519272459
 20
46.4135098905
 30
0.0
 40
3.0
 41
22.9285714286
 46
0.0
 71
     1
 72
     1
  1
Code:  
 73
     1
 44
1.0
  0
MTEXT
  5
43B
330
1B
100
AcDbEntity
 67
     1
  8
9_SOLID
  6
Continuous
 62
     2
100
AcDbMText
 10
792.5519272459
 20
46.6635098905
 30
0.0
 40
3.0
 41
27.8571428571
 46
0.0
 71
     1
 72
     1
  1
Scale: 1:1
 73
     1
 44
1.0
  0
MTEXT
  5
43C
330
1B
100
AcDbEntity
 67
     1
  8
9_SOLID
  6
Continuous
 62
     2
100
AcDbMText
 10
826.0644272459
 20
46.6635098905
 30
0.0
 40
3.0
 41
7.2857142857
 46
0.0
 71
     2
 72
     1
  1
A1
 73
     1
 44
1.0
  0
MTEXT
  5
43D
330
1B
100
AcDbEntity
 67
     1
  8
9_SOLID
  6
Continuous
 62
     2
100
AcDbMText
 10
732.5519272459
 20
40.6635098905
 30
0.0
 40
3.0
 41
143.25
 46
0.0
 71
     1
 72
     1
  1
It descr.: ANTI ABBAGLIAMENTO PER 565 L=612
 73
     1
 44
1.0
  0
MTEXT
  5
43E
330
1B
100
AcDbEntity
 67
     1
  8
0
  6
Continuous
 62
     2
100
AcDbMText
 10
732.5519272459
 20
34.6635098905
 30
0.0
 40
3.0
 41
37.5
 46
0.0
 71
     1
 72
     1
  1
En descr.:  
 73
     1
 44
1.0
  0
MTEXT
  5
43F
330
1B
100
AcDbEntity
 67
     1
  8
9_SOLID
  6
Continuous
 62
     2
100
AcDbMText
 10
732.5519272459
 20
28.6635098905
 30
0.0
 40
3.0
 41
31.2857142857
 46
0.0
 71
     1
 72
     1
  1
Des.: A.F.
 73
     1
 44
1.0
  0
MTEXT
  5
440
330
1B
100
AcDbEntity
 67
     1
  8
9_SOLID
  6
Continuous
 62
     2
100
AcDbMText
 10
782.5519272459
 20
28.6635098905
 30
0.0
 40
3.0
 41
22.2857142857
 46
0.0
 71
     1
 72
     1
  1
Check: 
 73
     1
 44
1.0
  0
MTEXT
  5
441
330
1B
100
AcDbEntity
 67
     1
  8
9_SOLID
  6
Continuous
 62
     2
100
AcDbMText
 10
702.5519272459
 20
22.6635098905
 30
0.0
 40
3.0
 41
43.5
 46
0.0
 71
     1
 72
     1
  1
Date: 04.12.18
 73
     1
 44
1.0
  0
MTEXT
  5
442
330
1B
100
AcDbEntity
 67
     1
  8
0
  6
Continuous
 62
     2
100
AcDbMText
 10
732.5519272459
 20
22.6635098905
 30
0.0
 40
3.0
 41
21.75
 46
0.0
 71
     1
 72
     1
  1
Mat.:  
 73
     1
 44
1.0
  0
MTEXT
  5
443
330
1B
100
AcDbEntity
 67
     1
  8
9_SOLID
  6
Continuous
 62
     2
100
AcDbMText
 10
782.5519272459
 20
22.1635098905
 30
0.0
 40
2.0
 41
42.3571428571
 46
0.0
 71
     1
 72
     1
  1
Disegno per catalogo
 73
     1
 44
1.0
  0
MTEXT
  5
444
330
1B
100
AcDbEntity
 67
     1
  8
9_SOLID
  6
Continuous
 62
     2
100
AcDbMText
 10
702.5519272459
 20
17.0635098905
 30
0.0
 40
1.8
 41
176.2071428571
 46
0.0
 71
     1
 72
     1
  1
It: A norma di legge si diffida da qualsiasi riproduzione senza nostra autorizzazione esplicita.
 73
     1
 44
1.0
  0
MTEXT
  5
445
330
1B
100
AcDbEntity
 67
     1
  8
9_SOLID
  6
Continuous
 62
     2
100
AcDbMText
 10
702.5519272459
 20
13.0635098905
 30
0.0
 40
1.8
 41
158.1428571429
 46
0.0
 71
     1
 72
     1
  1
En: According to the law, beware of any reproduction made without our authorization.
 73
     1
 44
1.0
  0
ENDSEC
  0
SECTION
  2
OBJECTS
  0
DICTIONARY
  5
446
330
0
100
AcDbDictionary
281
     1
  3
ACAD_DETAILVIEWSTYLE
350
49C
  3
ACAD_GROUP
350
447
  3
ACAD_LAYOUT
350
46F
  3
ACAD_MATERIAL
350
48B
  3
ACAD_MLEADERSTYLE
350
491
  3
ACAD_MLINESTYLE
350
448
  3
ACAD_PLOTSETTINGS
350
44A
  3
ACAD_PLOTSTYLENAME
350
44B
  3
ACAD_SCALELIST
350
44D
  3
ACAD_SECTIONVIEWSTYLE
350
49D
  3
ACAD_TABLESTYLE
350
48F
  3
ACAD_VISUALSTYLE
350
472
  3
ACDB_RECOMPOSE_DATA
350
498
  3
AcDbVariableDictionary
350
494
  3
APPDATA
350
493
  0
DICTIONARY
  5
49C
102
{ACAD_REACTORS
330
446
102
}
330
446
100
AcDbDictionary
281
     1
  0
DICTIONARY
  5
447
102
{ACAD_REACTORS
330
446
102
}
330
446
100
AcDbDictionary
281
     1
  0
DICTIONARY
  5
46F
102
{ACAD_REACTORS
330
446
102
}
330
446
100
AcDbDictionary
281
     1
  3
Foglio 1
350
471
  3
Model
350
470
  0
DICTIONARY
  5
48B
102
{ACAD_REACTORS
330
446
102
}
330
446
100
AcDbDictionary
281
     1
  3
ByBlock
350
48D
  3
ByLayer
350
48C
  3
Global
350
48E
  0
DICTIONARY
  5
491
102
{ACAD_REACTORS
330
446
102
}
330
446
100
AcDbDictionary
281
     1
  3
Standard
350
492
  0
DICTIONARY
  5
448
102
{ACAD_REACTORS
330
446
102
}
330
446
100
AcDbDictionary
281
     1
  3
STANDARD
350
449
  0
DICTIONARY
  5
44A
102
{ACAD_REACTORS
330
446
102
}
330
446
100
AcDbDictionary
281
     1
  0
ACDBDICTIONARYWDFLT
  5
44B
102
{ACAD_REACTORS
330
446
102
}
330
446
100
AcDbDictionary
281
     1
  3
Normal
350
44C
100
AcDbDictionaryWithDefault
340
44C
  0
DICTIONARY
  5
44D
102
{ACAD_REACTORS
330
446
102
}
330
446
100
AcDbDictionary
281
     1
  3
A0
350
44E
  3
A1
350
44F
  3
A2
350
450
  3
A3
350
451
  3
A4
350
452
  3
A5
350
453
  3
A6
350
454
  3
A7
350
455
  3
A8
350
456
  3
A9
350
457
  3
B0
350
458
  3
B1
350
459
  3
B2
350
45A
  3
B3
350
45B
  3
B4
350
45C
  3
B5
350
45D
  3
B6
350
45E
  3
B7
350
45F
  3
B8
350
460
  3
B9
350
461
  3
C0
350
462
  3
C1
350
463
  3
C2
350
464
  3
C3
350
465
  3
C4
350
466
  3
C5
350
467
  3
C6
350
468
  3
C7
350
469
  3
C8
350
46A
  3
C9
350
46B
  3
D0
350
46C
  3
D1
350
46D
  3
D2
350
46E
  0
DICTIONARY
  5
49D
102
{ACAD_REACTORS
330
446
102
}
330
446
100
AcDbDictionary
281
     1
  0
DICTIONARY
  5
48F
102
{ACAD_REACTORS
330
446
102
}
330
446
100
AcDbDictionary
281
     1
  3
Standard
350
490
  0
DICTIONARY
  5
472
102
{ACAD_REACTORS
330
446
102
}
330
446
100
AcDbDictionary
281
     1
  3
2dWireframe
350
477
  3
Basic
350
47A
  3
Brighten
350
47E
  3
ColorChange
350
482
  3
Conceptual
350
47C
  3
Dim
350
47D
  3
EdgeColorOff
350
485
  3
Facepattern
350
481
  3
Flat
350
473
  3
FlatWithEdges
350
474
  3
Gouraud
350
475
  3
GouraudWithEdges
350
476
  3
Hidden
350
479
  3
JitterOff
350
483
  3
Linepattern
350
480
  3
OverhangOff
350
484
  3
Realistic
350
47B
  3
Shaded
350
48A
  3
Shaded with edges
350
489
  3
Shades of Gray
350
486
  3
Sketchy
350
487
  3
Thicken
350
47F
  3
Wireframe
350
478
  3
X-Ray
350
488
  0
XRECORD
  5
498
102
{ACAD_REACTORS
330
446
102
}
330
446
100
AcDbXrecord
280
     1
 90
        1
330
490
  0
DICTIONARY
  5
494
102
{ACAD_REACTORS
330
446
102
}
330
446
100
AcDbDictionary
281
     1
  3
CANNOSCALE
350
495
  3
CMLEADERSTYLE
350
49A
  3
CTABLESTYLE
350
499
  3
MSLTSCALE
350
49B
  0
DICTIONARY
  5
493
102
{ACAD_REACTORS
330
446
102
}
330
446
100
AcDbDictionary
281
     1
  0
LAYOUT
  5
471
102
{ACAD_REACTORS
330
46F
102
}
330
46F
100
AcDbPlotSettings
  1

  2
none_device
  4
ISO_A3_(420.00_x_297.00_MM)
  6

 40
7.5
 41
20.0
 42
7.5
 43
20.0
 44
420.0
 45
297.0
 46
0.0
 47
0.0
 48
0.0
 49
0.0
140
0.0
141
0.0
142
1.0
143
2.311284046692607
 70
   688
 72
     1
 73
     0
 74
     1
  7

 75
     0
 76
     0
 77
     2
 78
   300
147
0.4326599326599327
148
0.0
149
0.0
100
AcDbLayout
  1
Foglio 1
 70
     1
 71
     1
 10
0.0
 20
0.0
 11
412.5
 21
277.0
 12
0.0
 22
0.0
 32
0.0
 14
0.0
 24
0.0
 34
0.0
 15
841.0
 25
594.0
 35
0.0
146
0.0
 13
0.0
 23
0.0
 33
0.0
 16
1.0
 26
0.0
 36
0.0
 17
0.0
 27
1.0
 37
0.0
 76
     0
330
1B
331
2C8
  0
LAYOUT
  5
470
102
{ACAD_REACTORS
330
46F
102
}
330
46F
100
AcDbPlotSettings
  1

  2
none_device
  4
Letter_(8.50_x_11.00_Inches)
  6

 40
6.35
 41
6.35
 42
6.35
 43
6.35
 44
215.9
 45
279.4
 46
0.0
 47
0.0
 48
0.0
 49
0.0
140
0.0
141
0.0
142
1.0
143
105.12499999815
 70
  1712
 72
     0
 73
     0
 74
     0
  7

 75
     0
 76
     0
 77
     2
 78
   300
147
0.0095124851369094
148
-0.0000001879597448
149
0.0
100
AcDbLayout
  1
Model
 70
     1
 71
     0
 10
0.0
 20
0.0
 11
841.0
 21
594.0
 12
0.0
 22
0.0
 32
0.0
 14
0.0
 24
0.0
 34
0.0
 15
841.0
 25
594.0
 35
0.0
146
0.0
 13
0.0
 23
0.0
 33
0.0
 16
1.0
 26
0.0
 36
0.0
 17
0.0
 27
1.0
 37
0.0
 76
     0
330
1F
331
1F4
  0
MATERIAL
  5
48D
102
{ACAD_REACTORS
330
48B
102
}
330
48B
100
AcDbMaterial
  1
ByBlock
 72
     1
 94
      127
  0
MATERIAL
  5
48C
102
{ACAD_REACTORS
330
48B
102
}
330
48B
100
AcDbMaterial
  1
ByLayer
 72
     1
 94
      127
  0
MATERIAL
  5
48E
102
{ACAD_REACTORS
330
48B
102
}
330
48B
100
AcDbMaterial
  1
Global
 72
     1
 94
      127
  0
MLEADERSTYLE
  5
492
102
{ACAD_REACTORS
330
491
102
}
330
491
100
AcDbMLeaderStyle
179
     2
170
     2
171
     1
172
     0
 90
        2
 40
0.0
 41
0.0
173
     1
 91
-1056964608
340
14
 92
       -2
290
     1
 42
2.0
291
     1
 43
8.0
  3
Standard
341
0
 44
4.0
300

342
11
174
     1
178
     1
175
     1
176
     0
 93
-1056964608
 45
4.0
292
     0
297
     0
 46
4.0
343
0
 94
-1056964608
 47
1.0
 49
1.0
140
1.0
293
     1
141
0.0
294
     1
177
     0
142
1.0
295
     0
296
     0
143
3.75
271
     0
272
     9
273
     9
298
     0
  0
MLINESTYLE
  5
449
102
{ACAD_REACTORS
330
448
102
}
330
448
100
AcDbMlineStyle
  2
STANDARD
 70
     0
  3

 62
   256
 51
90.0
 52
90.0
 71
     2
 49
0.5
 62
   256
  6
BYLAYER
 49
-0.5
 62
   256
  6
BYLAYER
  0
ACDBPLACEHOLDER
  5
44C
102
{ACAD_REACTORS
330
44B
102
}
330
44B
  0
SCALE
  5
44E
102
{ACAD_REACTORS
330
44D
102
}
330
44D
100
AcDbScale
 70
     0
300
1:1
140
1.0
141
1.0
290
     1
  0
SCALE
  5
44F
102
{ACAD_REACTORS
330
44D
102
}
330
44D
100
AcDbScale
 70
     0
300
1:2
140
1.0
141
2.0
290
     0
  0
SCALE
  5
450
102
{ACAD_REACTORS
330
44D
102
}
330
44D
100
AcDbScale
 70
     0
300
1:4
140
1.0
141
4.0
290
     0
  0
SCALE
  5
451
102
{ACAD_REACTORS
330
44D
102
}
330
44D
100
AcDbScale
 70
     0
300
1:5
140
1.0
141
5.0
290
     0
  0
SCALE
  5
452
102
{ACAD_REACTORS
330
44D
102
}
330
44D
100
AcDbScale
 70
     0
300
1:8
140
1.0
141
8.0
290
     0
  0
SCALE
  5
453
102
{ACAD_REACTORS
330
44D
102
}
330
44D
100
AcDbScale
 70
     0
300
1:10
140
1.0
141
10.0
290
     0
  0
SCALE
  5
454
102
{ACAD_REACTORS
330
44D
102
}
330
44D
100
AcDbScale
 70
     0
300
1:16
140
1.0
141
16.0
290
     0
  0
SCALE
  5
455
102
{ACAD_REACTORS
330
44D
102
}
330
44D
100
AcDbScale
 70
     0
300
1:20
140
1.0
141
20.0
290
     0
  0
SCALE
  5
456
102
{ACAD_REACTORS
330
44D
102
}
330
44D
100
AcDbScale
 70
     0
300
1:30
140
1.0
141
30.0
290
     0
  0
SCALE
  5
457
102
{ACAD_REACTORS
330
44D
102
}
330
44D
100
AcDbScale
 70
     0
300
1:40
140
1.0
141
40.0
290
     0
  0
SCALE
  5
458
102
{ACAD_REACTORS
330
44D
102
}
330
44D
100
AcDbScale
 70
     0
300
1:50
140
1.0
141
50.0
290
     0
  0
SCALE
  5
459
102
{ACAD_REACTORS
330
44D
102
}
330
44D
100
AcDbScale
 70
     0
300
1:100
140
1.0
141
100.0
290
     0
  0
SCALE
  5
45A
102
{ACAD_REACTORS
330
44D
102
}
330
44D
100
AcDbScale
 70
     0
300
2:1
140
2.0
141
1.0
290
     0
  0
SCALE
  5
45B
102
{ACAD_REACTORS
330
44D
102
}
330
44D
100
AcDbScale
 70
     0
300
4:1
140
4.0
141
1.0
290
     0
  0
SCALE
  5
45C
102
{ACAD_REACTORS
330
44D
102
}
330
44D
100
AcDbScale
 70
     0
300
8:1
140
8.0
141
1.0
290
     0
  0
SCALE
  5
45D
102
{ACAD_REACTORS
330
44D
102
}
330
44D
100
AcDbScale
 70
     0
300
10:1
140
10.0
141
1.0
290
     0
  0
SCALE
  5
45E
102
{ACAD_REACTORS
330
44D
102
}
330
44D
100
AcDbScale
 70
     0
300
100:1
140
100.0
141
1.0
290
     0
  0
SCALE
  5
45F
102
{ACAD_REACTORS
330
44D
102
}
330
44D
100
AcDbScale
 70
     0
300
1/128" = 1'-0"
140
0.0078125
141
12.0
290
     0
  0
SCALE
  5
460
102
{ACAD_REACTORS
330
44D
102
}
330
44D
100
AcDbScale
 70
     0
300
1/64" = 1'-0"
140
0.015625
141
12.0
290
     0
  0
SCALE
  5
461
102
{ACAD_REACTORS
330
44D
102
}
330
44D
100
AcDbScale
 70
     0
300
1/32" = 1'-0"
140
0.03125
141
12.0
290
     0
  0
SCALE
  5
462
102
{ACAD_REACTORS
330
44D
102
}
330
44D
100
AcDbScale
 70
     0
300
1/16" = 1'-0"
140
0.0625
141
12.0
290
     0
  0
SCALE
  5
463
102
{ACAD_REACTORS
330
44D
102
}
330
44D
100
AcDbScale
 70
     0
300
3/32" = 1'-0"
140
0.09375
141
12.0
290
     0
  0
SCALE
  5
464
102
{ACAD_REACTORS
330
44D
102
}
330
44D
100
AcDbScale
 70
     0
300
1/8" = 1'-0"
140
0.125
141
12.0
290
     0
  0
SCALE
  5
465
102
{ACAD_REACTORS
330
44D
102
}
330
44D
100
AcDbScale
 70
     0
300
3/16" = 1'-0"
140
0.1875
141
12.0
290
     0
  0
SCALE
  5
466
102
{ACAD_REACTORS
330
44D
102
}
330
44D
100
AcDbScale
 70
     0
300
1/4" = 1'-0"
140
0.25
141
12.0
290
     0
  0
SCALE
  5
467
102
{ACAD_REACTORS
330
44D
102
}
330
44D
100
AcDbScale
 70
     0
300
3/8" = 1'-0"
140
0.375
141
12.0
290
     0
  0
SCALE
  5
468
102
{ACAD_REACTORS
330
44D
102
}
330
44D
100
AcDbScale
 70
     0
300
1/2" = 1'-0"
140
0.5
141
12.0
290
     0
  0
SCALE
  5
469
102
{ACAD_REACTORS
330
44D
102
}
330
44D
100
AcDbScale
 70
     0
300
3/4" = 1'-0"
140
0.75
141
12.0
290
     0
  0
SCALE
  5
46A
102
{ACAD_REACTORS
330
44D
102
}
330
44D
100
AcDbScale
 70
     0
300
1" = 1'-0"
140
1.0
141
12.0
290
     0
  0
SCALE
  5
46B
102
{ACAD_REACTORS
330
44D
102
}
330
44D
100
AcDbScale
 70
     0
300
1-1/2" = 1'-0"
140
1.5
141
12.0
290
     0
  0
SCALE
  5
46C
102
{ACAD_REACTORS
330
44D
102
}
330
44D
100
AcDbScale
 70
     0
300
3" = 1'-0"
140
3.0
141
12.0
290
     0
  0
SCALE
  5
46D
102
{ACAD_REACTORS
330
44D
102
}
330
44D
100
AcDbScale
 70
     0
300
6" = 1'-0"
140
6.0
141
12.0
290
     0
  0
SCALE
  5
46E
102
{ACAD_REACTORS
330
44D
102
}
330
44D
100
AcDbScale
 70
     0
300
1'-0" = 1'-0"
140
12.0
141
12.0
290
     0
  0
TABLESTYLE
  5
490
102
{ACAD_REACTORS
330
48F
102
}
102
{ACAD_XDICTIONARY
360
496
102
}
330
48F
100
AcDbTableStyle
  3
Standard
 70
     0
 71
     0
 40
0.06
 41
0.06
280
     0
281
     0
  7
STANDARD
140
4.5
170
     2
 62
     0
 63
   257
283
     0
 90
        4
 91
        0
  1

274
    -2
284
     1
 64
     0
275
    -2
285
     1
 65
     0
276
    -2
286
     1
 66
     0
277
    -2
287
     1
 67
     0
278
    -2
288
     1
 68
     0
279
    -2
289
     1
 69
     0
  7
STANDARD
140
6.0
170
     5
 62
     0
 63
   257
283
     0
 90
        4
 91
        0
  1

274
    -2
284
     1
 64
     0
275
    -2
285
     1
 65
     0
276
    -2
286
     1
 66
     0
277
    -2
287
     1
 67
     0
278
    -2
288
     1
 68
     0
279
    -2
289
     1
 69
     0
  7
STANDARD
140
4.5
170
     5
 62
     0
 63
   257
283
     0
 90
        4
 91
        0
  1

274
    -2
284
     1
 64
     0
275
    -2
285
     1
 65
     0
276
    -2
286
     1
 66
     0
277
    -2
287
     1
 67
     0
278
    -2
288
     1
 68
     0
279
    -2
289
     1
 69
     0
  0
VISUALSTYLE
  5
477
102
{ACAD_REACTORS
330
472
102
}
330
472
100
AcDbVisualStyle
  2
2dWireframe
 70
     4
177
     3
291
     0
 70
    58
 90
        0
176
     1
 90
        2
176
     1
 90
        0
176
     1
 90
        0
176
     1
 40
0.6
176
     1
 40
30.0
176
     1
 62
     7
420
 16777215
176
     1
 90
        1
176
     1
 90
        4
176
     1
 62
     7
176
     1
 62
   257
176
     1
 90
        1
176
     1
 90
        1
176
     1
 40
1.0
176
     1
 90
        0
176
     1
 62
   257
176
     1
 40
1.0
176
     1
 90
        1
176
     1
 90
        6
176
     1
 90
        2
176
     1
 62
     7
176
     1
 90
        5
176
     1
 90
        0
176
     1
 90
        0
176
     1
290
     0
176
     1
 90
        1
176
     1
 40
0.0
176
     1
 90
        0
176
     1
290
     1
176
     1
290
     1
176
     1
290
     0
176
     1
290
     0
176
     1
290
     0
176
     1
290
     0
176
     1
290
     0
176
     1
290
     0
176
     1
290
     0
176
     1
 90
       50
176
     1
 40
0.0
176
     1
 40
1.0
176
     1
 90
        0
176
     1
 62
    18
420
        0
176
     1
 90
       50
176
     1
 90
        3
176
     1
 62
     5
420
      255
176
     1
290
     0
176
     1
 90
       50
176
     1
 90
       50
176
     1
 90
       50
176
     1
290
     0
176
     1
 90
       50
176
     1
 62
   256
176
     0
 40
1.0
176
     0
 90
        2
176
     1
  1
strokes_ogs.tif
176
     1
290
     0
176
     1
 40
1.0
176
     1
 40
1.0
176
     1
  0
VISUALSTYLE
  5
47A
102
{ACAD_REACTORS
330
472
102
}
330
472
100
AcDbVisualStyle
  2
Basic
 70
     7
177
     3
291
     1
 70
    58
 90
        1
176
     1
 90
        0
176
     1
 90
        1
176
     1
 90
        0
176
     1
 40
0.6
176
     1
 40
30.0
176
     1
 62
     7
420
 16777215
176
     1
 90
        0
176
     1
 90
        4
176
     1
 62
     7
176
     1
 62
   257
176
     1
 90
        1
176
     1
 90
        1
176
     1
 40
1.0
176
     1
 90
        8
176
     1
 62
     7
176
     1
 40
1.0
176
     1
 90
        1
176
     1
 90
        6
176
     1
 90
        2
176
     1
 62
     7
176
     1
 90
        5
176
     1
 90
        0
176
     1
 90
        0
176
     1
290
     0
176
     1
 90
        1
176
     1
 40
0.0
176
     1
 90
        0
176
     1
290
     0
176
     1
290
     1
176
     1
290
     1
176
     1
290
     0
176
     1
290
     0
176
     1
290
     0
176
     1
290
     0
176
     1
290
     0
176
     1
290
     0
176
     1
 90
       50
176
     1
 40
0.0
176
     1
 40
1.0
176
     1
 90
        0
176
     1
 62
    18
420
        0
176
     1
 90
       50
176
     1
 90
        3
176
     1
 62
     5
420
      255
176
     1
290
     0
176
     1
 90
       50
176
     1
 90
       50
176
     1
 90
       50
176
     1
290
     0
176
     1
 90
       50
176
     1
 62
   256
176
     0
 40
1.0
176
     0
 90
        2
176
     1
  1
strokes_ogs.tif
176
     1
290
     0
176
     1
 40
1.0
176
     1
 40
1.0
176
     1
  0
VISUALSTYLE
  5
47E
102
{ACAD_REACTORS
330
472
102
}
330
472
100
AcDbVisualStyle
  2
Brighten
 70
    12
177
     3
291
     1
 70
    58
 90
        2
176
     1
 90
        2
176
     1
 90
        0
176
     1
 90
        0
176
     1
 40
0.6
176
     1
 40
30.0
176
     1
 62
     7
420
 16777215
176
     1
 90
        1
176
     1
 90
        4
176
     1
 62
     7
176
     1
 62
   257
176
     1
 90
        1
176
     1
 90
        1
176
     1
 40
1.0
176
     1
 90
        8
176
     1
 62
     7
176
     1
 40
1.0
176
     1
 90
        1
176
     1
 90
        6
176
     1
 90
        2
176
     1
 62
     7
176
     1
 90
        5
176
     1
 90
        0
176
     1
 90
        0
176
     1
290
     0
176
     1
 90
        1
176
     1
 40
50.0
176
     1
 90
        0
176
     1
290
     0
176
     1
290
     1
176
     1
290
     1
176
     1
290
     0
176
     1
290
     0
176
     1
290
     0
176
     1
290
     0
176
     1
290
     0
176
     1
290
     0
176
     1
 90
       50
176
     1
 40
0.0
176
     1
 40
1.0
176
     1
 90
        0
176
     1
 62
    18
420
        0
176
     1
 90
       50
176
     1
 90
        3
176
     1
 62
     5
420
      255
176
     1
290
     0
176
     1
 90
       50
176
     1
 90
       50
176
     1
 90
       50
176
     1
290
     0
176
     1
 90
       50
176
     1
 62
   256
176
     0
 40
1.0
176
     0
 90
        2
176
     1
  1
strokes_ogs.tif
176
     1
290
     0
176
     1
 40
1.0
176
     1
 40
1.0
176
     1
  0
VISUALSTYLE
  5
482
102
{ACAD_REACTORS
330
472
102
}
330
472
100
AcDbVisualStyle
  2
ColorChange
 70
    16
177
     3
291
     1
 70
    58
 90
        2
176
     1
 90
        2
176
     1
 90
        3
176
     1
 90
        0
176
     1
 40
0.6
176
     1
 40
30.0
176
     1
 62
     8
420
  8421504
176
     1
 90
        1
176
     1
 90
        4
176
     1
 62
     7
176
     1
 62
   257
176
     1
 90
        1
176
     1
 90
        1
176
     1
 40
1.0
176
     1
 90
        8
176
     1
 62
     8
420
  8421504
176
     1
 40
1.0
176
     1
 90
        1
176
     1
 90
        6
176
     1
 90
        2
176
     1
 62
     7
176
     1
 90
        5
176
     1
 90
        0
176
     1
 90
        0
176
     1
290
     0
176
     1
 90
        1
176
     1
 40
0.0
176
     1
 90
        0
176
     1
290
     0
176
     1
290
     1
176
     1
290
     1
176
     1
290
     0
176
     1
290
     0
176
     1
290
     0
176
     1
290
     0
176
     1
290
     0
176
     1
290
     0
176
     1
 90
       50
176
     1
 40
0.0
176
     1
 40
1.0
176
     1
 90
        0
176
     1
 62
    18
420
        0
176
     1
 90
       50
176
     1
 90
        3
176
     1
 62
     5
420
      255
176
     1
290
     0
176
     1
 90
       50
176
     1
 90
       50
176
     1
 90
       50
176
     1
290
     0
176
     1
 90
       50
176
     1
 62
   256
176
     0
 40
1.0
176
     0
 90
        2
176
     1
  1
strokes_ogs.tif
176
     1
290
     0
176
     1
 40
1.0
176
     1
 40
1.0
176
     1
  0
VISUALSTYLE
  5
47C
102
{ACAD_REACTORS
330
472
102
}
330
472
100
AcDbVisualStyle
  2
Conceptual
 70
     9
177
     3
291
     0
 70
    58
 90
        3
176
     1
 90
        2
176
     1
 90
        0
176
     1
 90
        0
176
     1
 40
0.6
176
     1
 40
30.0
176
     1
 62
     7
420
 16777215
176
     1
 90
        2
176
     1
 90
        2
176
     1
 62
     7
176
     1
 62
   257
176
     1
 90
        1
176
     1
 90
        1
176
     1
 40
179.0
176
     1
 90
        8
176
     1
 62
     7
176
     1
 40
1.0
176
     1
 90
        1
176
     1
 90
        6
176
     1
 90
        2
176
     1
 62
     7
176
     1
 90
        3
176
     1
 90
        0
176
     1
 90
        0
176
     1
290
     0
176
     1
 90
        1
176
     1
 40
0.0
176
     1
 90
        0
176
     1
290
     0
176
     1
290
     1
176
     1
290
     1
176
     1
290
     0
176
     1
290
     0
176
     1
290
     0
176
     1
290
     0
176
     1
290
     0
176
     1
290
     0
176
     1
 90
       50
176
     1
 40
0.0
176
     1
 40
1.0
176
     1
 90
        0
176
     1
 62
    18
420
        0
176
     1
 90
       50
176
     1
 90
        3
176
     1
 62
     5
420
      255
176
     1
290
     0
176
     1
 90
       50
176
     1
 90
       50
176
     1
 90
       50
176
     1
290
     0
176
     1
 90
       50
176
     1
 62
   256
176
     0
 40
1.0
176
     0
 90
        2
176
     1
  1
strokes_ogs.tif
176
     1
290
     0
176
     1
 40
1.0
176
     1
 40
1.0
176
     1
  0
VISUALSTYLE
  5
47D
102
{ACAD_REACTORS
330
472
102
}
330
472
100
AcDbVisualStyle
  2
Dim
 70
    11
177
     3
291
     1
 70
    58
 90
        2
176
     1
 90
        2
176
     1
 90
        0
176
     1
 90
        0
176
     1
 40
0.6
176
     1
 40
30.0
176
     1
 62
     7
420
 16777215
176
     1
 90
        1
176
     1
 90
        4
176
     1
 62
     7
176
     1
 62
   257
176
     1
 90
        1
176
     1
 90
        1
176
     1
 40
1.0
176
     1
 90
        8
176
     1
 62
     7
176
     1
 40
1.0
176
     1
 90
        1
176
     1
 90
        6
176
     1
 90
        2
176
     1
 62
     7
176
     1
 90
        5
176
     1
 90
        0
176
     1
 90
        0
176
     1
290
     0
176
     1
 90
        1
176
     1
 40
-50.0
176
     1
 90
        0
176
     1
290
     0
176
     1
290
     1
176
     1
290
     1
176
     1
290
     0
176
     1
290
     0
176
     1
290
     0
176
     1
290
     0
176
     1
290
     0
176
     1
290
     0
176
     1
 90
       50
176
     1
 40
0.0
176
     1
 40
1.0
176
     1
 90
        0
176
     1
 62
    18
420
        0
176
     1
 90
       50
176
     1
 90
        3
176
     1
 62
     5
420
      255
176
     1
290
     0
176
     1
 90
       50
176
     1
 90
       50
176
     1
 90
       50
176
     1
290
     0
176
     1
 90
       50
176
     1
 62
   256
176
     0
 40
1.0
176
     0
 90
        2
176
     1
  1
strokes_ogs.tif
176
     1
290
     0
176
     1
 40
1.0
176
     1
 40
1.0
176
     1
  0
VISUALSTYLE
  5
485
102
{ACAD_REACTORS
330
472
102
}
330
472
100
AcDbVisualStyle
  2
EdgeColorOff
 70
    22
177
     3
291
     1
 70
    58
 90
        2
176
     0
 90
        2
176
     0
 90
        0
176
     0
 90
        0
176
     0
 40
0.6
176
     0
 40
30.0
176
     0
 62
     7
420
 16777215
176
     0
 90
        1
176
     0
 90
        4
176
     0
 62
     7
176
     0
 62
   257
176
     0
 90
        1
176
     0
 90
        1
176
     0
 40
1.0
176
     0
 90
        8
176
     2
 62
     7
176
     0
 40
1.0
176
     0
 90
        1
176
     0
 90
        6
176
     0
 90
        2
176
     0
 62
     7
176
     0
 90
        5
176
     0
 90
        0
176
     0
 90
        0
176
     0
290
     0
176
     0
 90
        1
176
     0
 40
0.0
176
     0
 90
        0
176
     0
290
     0
176
     0
290
     1
176
     0
290
     1
176
     0
290
     0
176
     0
290
     0
176
     0
290
     0
176
     0
290
     0
176
     0
290
     0
176
     0
290
     0
176
     0
 90
       50
176
     0
 40
0.0
176
     0
 40
1.0
176
     0
 90
        0
176
     0
 62
    18
420
        0
176
     0
 90
       50
176
     0
 90
        3
176
     0
 62
     5
420
      255
176
     0
290
     0
176
     0
 90
       50
176
     0
 90
       50
176
     0
 90
       50
176
     0
290
     0
176
     0
 90
       50
176
     0
 62
   256
176
     0
 40
1.0
176
     0
 90
        2
176
     0
  1
strokes_ogs.tif
176
     0
290
     0
176
     0
 40
1.0
176
     0
 40
1.0
176
     0
  0
VISUALSTYLE
  5
481
102
{ACAD_REACTORS
330
472
102
}
330
472
100
AcDbVisualStyle
  2
Facepattern
 70
    15
177
     3
291
     1
 70
    58
 90
        2
176
     1
 90
        2
176
     1
 90
        0
176
     1
 90
        0
176
     1
 40
0.6
176
     1
 40
30.0
176
     1
 62
     7
420
 16777215
176
     1
 90
        1
176
     1
 90
        4
176
     1
 62
     7
176
     1
 62
   257
176
     1
 90
        1
176
     1
 90
        1
176
     1
 40
1.0
176
     1
 90
        8
176
     1
 62
     7
176
     1
 40
1.0
176
     1
 90
        1
176
     1
 90
        6
176
     1
 90
        2
176
     1
 62
     7
176
     1
 90
        5
176
     1
 90
        0
176
     1
 90
        0
176
     1
290
     0
176
     1
 90
        1
176
     1
 40
0.0
176
     1
 90
        0
176
     1
290
     0
176
     1
290
     1
176
     1
290
     1
176
     1
290
     0
176
     1
290
     0
176
     1
290
     0
176
     1
290
     0
176
     1
290
     0
176
     1
290
     0
176
     1
 90
       50
176
     1
 40
0.0
176
     1
 40
1.0
176
     1
 90
        0
176
     1
 62
    18
420
        0
176
     1
 90
       50
176
     1
 90
        3
176
     1
 62
     5
420
      255
176
     1
290
     0
176
     1
 90
       50
176
     1
 90
       50
176
     1
 90
       50
176
     1
290
     0
176
     1
 90
       50
176
     1
 62
   256
176
     0
 40
1.0
176
     0
 90
        2
176
     1
  1
strokes_ogs.tif
176
     1
290
     0
176
     1
 40
1.0
176
     1
 40
1.0
176
     1
  0
VISUALSTYLE
  5
473
102
{ACAD_REACTORS
330
472
102
}
330
472
100
AcDbVisualStyle
  2
Flat
 70
     0
177
     3
291
     1
 70
    58
 90
        2
176
     1
 90
        1
176
     1
 90
        1
176
     1
 90
        2
176
     1
 40
0.6
176
     1
 40
30.0
176
     1
 62
     7
420
 16777215
176
     1
 90
        0
176
     1
 90
        0
176
     1
 62
     7
176
     1
 62
   257
176
     1
 90
        1
176
     1
 90
        1
176
     1
 40
1.0
176
     1
 90
        8
176
     1
 62
     7
176
     1
 40
1.0
176
     1
 90
        1
176
     1
 90
        6
176
     1
 90
        2
176
     1
 62
     7
176
     1
 90
        5
176
     1
 90
        0
176
     1
 90
        0
176
     1
290
     0
176
     1
 90
       13
176
     1
 40
0.0
176
     1
 90
        0
176
     1
290
     0
176
     1
290
     1
176
     1
290
     1
176
     1
290
     0
176
     1
290
     0
176
     1
290
     0
176
     1
290
     0
176
     1
290
     0
176
     1
290
     0
176
     1
 90
       50
176
     1
 40
0.0
176
     1
 40
1.0
176
     1
 90
        0
176
     1
 62
    18
420
        0
176
     1
 90
       50
176
     1
 90
        3
176
     1
 62
     5
420
      255
176
     1
290
     0
176
     1
 90
       50
176
     1
 90
       50
176
     1
 90
       50
176
     1
290
     0
176
     1
 90
       50
176
     1
 62
   256
176
     0
 40
1.0
176
     0
 90
        2
176
     1
  1
strokes_ogs.tif
176
     1
290
     0
176
     1
 40
1.0
176
     1
 40
1.0
176
     1
  0
VISUALSTYLE
  5
474
102
{ACAD_REACTORS
330
472
102
}
330
472
100
AcDbVisualStyle
  2
FlatWithEdges
 70
     1
177
     3
291
     1
 70
    58
 90
        2
176
     1
 90
        1
176
     1
 90
        1
176
     1
 90
        2
176
     1
 40
0.6
176
     1
 40
30.0
176
     1
 62
     7
420
 16777215
176
     1
 90
        1
176
     1
 90
        0
176
     1
 62
     7
176
     1
 62
   257
176
     1
 90
        1
176
     1
 90
        1
176
     1
 40
1.0
176
     1
 90
        0
176
     1
 62
   257
176
     1
 40
1.0
176
     1
 90
        1
176
     1
 90
        6
176
     1
 90
        2
176
     1
 62
     7
176
     1
 90
        5
176
     1
 90
        0
176
     1
 90
        0
176
     1
290
     0
176
     1
 90
       13
176
     1
 40
0.0
176
     1
 90
        0
176
     1
290
     0
176
     1
290
     1
176
     1
290
     1
176
     1
290
     0
176
     1
290
     0
176
     1
290
     0
176
     1
290
     0
176
     1
290
     0
176
     1
290
     0
176
     1
 90
       50
176
     1
 40
0.0
176
     1
 40
1.0
176
     1
 90
        0
176
     1
 62
    18
420
        0
176
     1
 90
       50
176
     1
 90
        3
176
     1
 62
     5
420
      255
176
     1
290
     0
176
     1
 90
       50
176
     1
 90
       50
176
     1
 90
       50
176
     1
290
     0
176
     1
 90
       50
176
     1
 62
   256
176
     0
 40
1.0
176
     0
 90
        2
176
     1
  1
strokes_ogs.tif
176
     1
290
     0
176
     1
 40
1.0
176
     1
 40
1.0
176
     1
  0
VISUALSTYLE
  5
475
102
{ACAD_REACTORS
330
472
102
}
330
472
100
AcDbVisualStyle
  2
Gouraud
 70
     2
177
     3
291
     1
 70
    58
 90
        2
176
     1
 90
        2
176
     1
 90
        1
176
     1
 90
        2
176
     1
 40
0.6
176
     1
 40
30.0
176
     1
 62
     7
420
 16777215
176
     1
 90
        0
176
     1
 90
        0
176
     1
 62
     7
176
     1
 62
   257
176
     1
 90
        1
176
     1
 90
        1
176
     1
 40
1.0
176
     1
 90
        0
176
     1
 62
     7
176
     1
 40
1.0
176
     1
 90
        1
176
     1
 90
        6
176
     1
 90
        2
176
     1
 62
     7
176
     1
 90
        5
176
     1
 90
        0
176
     1
 90
        0
176
     1
290
     0
176
     1
 90
       13
176
     1
 40
0.0
176
     1
 90
        0
176
     1
290
     0
176
     1
290
     1
176
     1
290
     1
176
     1
290
     0
176
     1
290
     0
176
     1
290
     0
176
     1
290
     0
176
     1
290
     0
176
     1
290
     0
176
     1
 90
       50
176
     1
 40
0.0
176
     1
 40
1.0
176
     1
 90
        0
176
     1
 62
    18
420
        0
176
     1
 90
       50
176
     1
 90
        3
176
     1
 62
     5
420
      255
176
     1
290
     0
176
     1
 90
       50
176
     1
 90
       50
176
     1
 90
       50
176
     1
290
     0
176
     1
 90
       50
176
     1
 62
   256
176
     0
 40
1.0
176
     0
 90
        2
176
     1
  1
strokes_ogs.tif
176
     1
290
     0
176
     1
 40
1.0
176
     1
 40
1.0
176
     1
  0
VISUALSTYLE
  5
476
102
{ACAD_REACTORS
330
472
102
}
330
472
100
AcDbVisualStyle
  2
GouraudWithEdges
 70
     3
177
     3
291
     1
 70
    58
 90
        2
176
     1
 90
        2
176
     1
 90
        1
176
     1
 90
        2
176
     1
 40
0.6
176
     1
 40
30.0
176
     1
 62
     7
420
 16777215
176
     1
 90
        1
176
     1
 90
        0
176
     1
 62
     7
176
     1
 62
   257
176
     1
 90
        1
176
     1
 90
        1
176
     1
 40
1.0
176
     1
 90
        0
176
     1
 62
   257
176
     1
 40
1.0
176
     1
 90
        1
176
     1
 90
        6
176
     1
 90
        2
176
     1
 62
     7
176
     1
 90
        5
176
     1
 90
        0
176
     1
 90
        0
176
     1
290
     0
176
     1
 90
       13
176
     1
 40
0.0
176
     1
 90
        0
176
     1
290
     0
176
     1
290
     1
176
     1
290
     1
176
     1
290
     0
176
     1
290
     0
176
     1
290
     0
176
     1
290
     0
176
     1
290
     0
176
     1
290
     0
176
     1
 90
       50
176
     1
 40
0.0
176
     1
 40
1.0
176
     1
 90
        0
176
     1
 62
    18
420
        0
176
     1
 90
       50
176
     1
 90
        3
176
     1
 62
     5
420
      255
176
     1
290
     0
176
     1
 90
       50
176
     1
 90
       50
176
     1
 90
       50
176
     1
290
     0
176
     1
 90
       50
176
     1
 62
   256
176
     0
 40
1.0
176
     0
 90
        2
176
     1
  1
strokes_ogs.tif
176
     1
290
     0
176
     1
 40
1.0
176
     1
 40
1.0
176
     1
  0
VISUALSTYLE
  5
479
102
{ACAD_REACTORS
330
472
102
}
330
472
100
AcDbVisualStyle
  2
Hidden
 70
     6
177
     3
291
     0
 70
    58
 90
        1
176
     1
 90
        2
176
     1
 90
        2
176
     1
 90
        0
176
     1
 40
0.6
176
     1
 40
30.0
176
     1
 62
     7
420
 16777215
176
     1
 90
        2
176
     1
 90
        2
176
     1
 62
     7
176
     1
 62
   257
176
     1
 90
        2
176
     1
 90
        1
176
     1
 40
40.0
176
     1
 90
        0
176
     1
 62
   257
176
     1
 40
1.0
176
     1
 90
        1
176
     1
 90
        6
176
     1
 90
        2
176
     1
 62
     7
176
     1
 90
        3
176
     1
 90
        0
176
     1
 90
        0
176
     1
290
     0
176
     1
 90
        1
176
     1
 40
0.0
176
     1
 90
        0
176
     1
290
     0
176
     1
290
     1
176
     1
290
     1
176
     1
290
     0
176
     1
290
     0
176
     1
290
     0
176
     1
290
     0
176
     1
290
     0
176
     1
290
     0
176
     1
 90
       50
176
     1
 40
0.0
176
     1
 40
1.0
176
     1
 90
        0
176
     1
 62
    18
420
        0
176
     1
 90
       50
176
     1
 90
        3
176
     1
 62
     5
420
      255
176
     1
290
     0
176
     1
 90
       50
176
     1
 90
       50
176
     1
 90
       50
176
     1
290
     0
176
     1
 90
       50
176
     1
 62
   256
176
     0
 40
1.0
176
     0
 90
        2
176
     1
  1
strokes_ogs.tif
176
     1
290
     0
176
     1
 40
1.0
176
     1
 40
1.0
176
     1
  0
VISUALSTYLE
  5
483
102
{ACAD_REACTORS
330
472
102
}
330
472
100
AcDbVisualStyle
  2
JitterOff
 70
    20
177
     3
291
     1
 70
    58
 90
        2
176
     0
 90
        2
176
     0
 90
        0
176
     0
 90
        0
176
     0
 40
0.6
176
     0
 40
30.0
176
     0
 62
     7
420
 16777215
176
     0
 90
        1
176
     0
 90
        4
176
     0
 62
     7
176
     0
 62
   257
176
     0
 90
        1
176
     0
 90
        1
176
     0
 40
1.0
176
     0
 90
       10
176
     2
 62
     7
176
     0
 40
1.0
176
     0
 90
        1
176
     0
 90
        6
176
     0
 90
        2
176
     0
 62
     7
176
     0
 90
        5
176
     0
 90
        0
176
     0
 90
        0
176
     0
290
     0
176
     0
 90
        1
176
     0
 40
0.0
176
     0
 90
        0
176
     0
290
     0
176
     0
290
     1
176
     0
290
     1
176
     0
290
     0
176
     0
290
     0
176
     0
290
     0
176
     0
290
     0
176
     0
290
     0
176
     0
290
     0
176
     0
 90
       50
176
     0
 40
0.0
176
     0
 40
1.0
176
     0
 90
        0
176
     0
 62
    18
420
        0
176
     0
 90
       50
176
     0
 90
        3
176
     0
 62
     5
420
      255
176
     0
290
     0
176
     0
 90
       50
176
     0
 90
       50
176
     0
 90
       50
176
     0
290
     0
176
     0
 90
       50
176
     0
 62
   256
176
     0
 40
1.0
176
     0
 90
        2
176
     0
  1
strokes_ogs.tif
176
     0
290
     0
176
     0
 40
1.0
176
     0
 40
1.0
176
     0
  0
VISUALSTYLE
  5
480
102
{ACAD_REACTORS
330
472
102
}
330
472
100
AcDbVisualStyle
  2
Linepattern
 70
    14
177
     3
291
     1
 70
    58
 90
        2
176
     1
 90
        2
176
     1
 90
        0
176
     1
 90
        0
176
     1
 40
0.6
176
     1
 40
30.0
176
     1
 62
     7
420
 16777215
176
     1
 90
        1
176
     1
 90
        4
176
     1
 62
     7
176
     1
 62
   257
176
     1
 90
        7
176
     1
 90
        7
176
     1
 40
1.0
176
     1
 90
        8
176
     1
 62
     7
176
     1
 40
1.0
176
     1
 90
        1
176
     1
 90
        6
176
     1
 90
        2
176
     1
 62
     7
176
     1
 90
        5
176
     1
 90
        0
176
     1
 90
        0
176
     1
290
     0
176
     1
 90
        1
176
     1
 40
0.0
176
     1
 90
        0
176
     1
290
     0
176
     1
290
     1
176
     1
290
     1
176
     1
290
     0
176
     1
290
     0
176
     1
290
     0
176
     1
290
     0
176
     1
290
     0
176
     1
290
     0
176
     1
 90
       50
176
     1
 40
0.0
176
     1
 40
1.0
176
     1
 90
        0
176
     1
 62
    18
420
        0
176
     1
 90
       50
176
     1
 90
        3
176
     1
 62
     5
420
      255
176
     1
290
     0
176
     1
 90
       50
176
     1
 90
       50
176
     1
 90
       50
176
     1
290
     0
176
     1
 90
       50
176
     1
 62
   256
176
     0
 40
1.0
176
     0
 90
        2
176
     1
  1
strokes_ogs.tif
176
     1
290
     0
176
     1
 40
1.0
176
     1
 40
1.0
176
     1
  0
VISUALSTYLE
  5
484
102
{ACAD_REACTORS
330
472
102
}
330
472
100
AcDbVisualStyle
  2
OverhangOff
 70
    21
177
     3
291
     1
 70
    58
 90
        2
176
     0
 90
        2
176
     0
 90
        0
176
     0
 90
        0
176
     0
 40
0.6
176
     0
 40
30.0
176
     0
 62
     7
420
 16777215
176
     0
 90
        1
176
     0
 90
        4
176
     0
 62
     7
176
     0
 62
   257
176
     0
 90
        1
176
     0
 90
        1
176
     0
 40
1.0
176
     0
 90
        9
176
     2
 62
     7
176
     0
 40
1.0
176
     0
 90
        1
176
     0
 90
        6
176
     0
 90
        2
176
     0
 62
     7
176
     0
 90
        5
176
     0
 90
        0
176
     0
 90
        0
176
     0
290
     0
176
     0
 90
        1
176
     0
 40
0.0
176
     0
 90
        0
176
     0
290
     0
176
     0
290
     1
176
     0
290
     1
176
     0
290
     0
176
     0
290
     0
176
     0
290
     0
176
     0
290
     0
176
     0
290
     0
176
     0
290
     0
176
     0
 90
       50
176
     0
 40
0.0
176
     0
 40
1.0
176
     0
 90
        0
176
     0
 62
    18
420
        0
176
     0
 90
       50
176
     0
 90
        3
176
     0
 62
     5
420
      255
176
     0
290
     0
176
     0
 90
       50
176
     0
 90
       50
176
     0
 90
       50
176
     0
290
     0
176
     0
 90
       50
176
     0
 62
   256
176
     0
 40
1.0
176
     0
 90
        2
176
     0
  1
strokes_ogs.tif
176
     0
290
     0
176
     0
 40
1.0
176
     0
 40
1.0
176
     0
  0
VISUALSTYLE
  5
47B
102
{ACAD_REACTORS
330
472
102
}
330
472
100
AcDbVisualStyle
  2
Realistic
 70
     8
177
     3
291
     0
 70
    58
 90
        2
176
     1
 90
        3
176
     1
 90
        0
176
     1
 90
        2
176
     1
 40
0.6
176
     1
 40
30.0
176
     1
 62
     7
420
 16777215
176
     1
 90
        0
176
     1
 90
        0
176
     1
 62
     7
176
     1
 62
   257
176
     1
 90
        1
176
     1
 90
        1
176
     1
 40
1.0
176
     1
 90
        8
176
     1
 62
   257
176
     1
 40
1.0
176
     1
 90
        1
176
     1
 90
        6
176
     1
 90
        2
176
     1
 62
     7
176
     1
 90
        3
176
     1
 90
        0
176
     1
 90
        0
176
     1
290
     0
176
     1
 90
       13
176
     1
 40
0.0
176
     1
 90
        0
176
     1
290
     0
176
     1
290
     1
176
     1
290
     1
176
     1
290
     0
176
     1
290
     0
176
     1
290
     0
176
     1
290
     0
176
     1
290
     0
176
     1
290
     0
176
     1
 90
       50
176
     1
 40
0.0
176
     1
 40
1.0
176
     1
 90
        0
176
     1
 62
    18
420
        0
176
     1
 90
       50
176
     1
 90
        3
176
     1
 62
     5
420
      255
176
     1
290
     0
176
     1
 90
       50
176
     1
 90
       50
176
     1
 90
       50
176
     1
290
     0
176
     1
 90
       50
176
     1
 62
   256
176
     0
 40
1.0
176
     0
 90
        2
176
     1
  1
strokes_ogs.tif
176
     1
290
     0
176
     1
 40
1.0
176
     1
 40
1.0
176
     1
  0
VISUALSTYLE
  5
48A
102
{ACAD_REACTORS
330
472
102
}
330
472
100
AcDbVisualStyle
  2
Shaded
 70
    27
177
     3
291
     0
 70
    58
 90
        2
176
     1
 90
        2
176
     1
 90
        1
176
     1
 90
        2
176
     1
 40
0.6
176
     1
 40
30.0
176
     1
 62
     7
420
 16777215
176
     1
 90
        0
176
     1
 90
        4
176
     1
 62
     7
176
     1
 62
   257
176
     1
 90
        1
176
     1
 90
        1
176
     1
 40
1.0
176
     1
 90
        8
176
     1
 62
   257
176
     1
 40
1.0
176
     1
 90
        1
176
     1
 90
        6
176
     1
 90
        2
176
     1
 62
     8
420
  7895160
176
     1
 90
        3
176
     1
 90
        0
176
     1
 90
        0
176
     1
290
     0
176
     1
 90
        5
176
     1
 40
0.0
176
     1
 90
        0
176
     1
290
     0
176
     1
290
     1
176
     1
290
     1
176
     1
290
     0
176
     1
290
     0
176
     1
290
     0
176
     1
290
     0
176
     1
290
     0
176
     1
290
     0
176
     1
 90
       50
176
     1
 40
0.0
176
     1
 40
1.0
176
     1
 90
        0
176
     1
 62
    18
420
        0
176
     1
 90
       50
176
     1
 90
        3
176
     1
 62
     5
420
      255
176
     1
290
     0
176
     1
 90
       50
176
     1
 90
       50
176
     1
 90
       50
176
     1
290
     0
176
     1
 90
       50
176
     1
 62
   256
176
     0
 40
1.0
176
     0
 90
        2
176
     1
  1
strokes_ogs.tif
176
     1
290
     0
176
     1
 40
1.0
176
     1
 40
1.0
176
     1
  0
VISUALSTYLE
  5
489
102
{ACAD_REACTORS
330
472
102
}
330
472
100
AcDbVisualStyle
  2
Shaded with edges
 70
    26
177
     3
291
     0
 70
    58
 90
        2
176
     1
 90
        2
176
     1
 90
        1
176
     1
 90
        2
176
     1
 40
0.6
176
     1
 40
30.0
176
     1
 62
     7
420
 16777215
176
     1
 90
        1
176
     1
 90
       10
176
     1
 62
     7
176
     1
 62
   257
176
     1
 90
        2
176
     1
 90
        1
176
     1
 40
1.0
176
     1
 90
        8
176
     1
 62
   257
176
     1
 40
1.0
176
     1
 90
        1
176
     1
 90
        6
176
     1
 90
        2
176
     1
 62
     7
176
     1
 90
        3
176
     1
 90
        0
176
     1
 90
        0
176
     1
290
     0
176
     1
 90
        5
176
     1
 40
0.0
176
     1
 90
        0
176
     1
290
     0
176
     1
290
     1
176
     1
290
     1
176
     1
290
     0
176
     1
290
     0
176
     1
290
     0
176
     1
290
     0
176
     1
290
     0
176
     1
290
     0
176
     1
 90
       50
176
     1
 40
0.0
176
     1
 40
1.0
176
     1
 90
        0
176
     1
 62
    18
420
        0
176
     1
 90
       50
176
     1
 90
        3
176
     1
 62
     5
420
      255
176
     1
290
     0
176
     1
 90
       50
176
     1
 90
       50
176
     1
 90
       50
176
     1
290
     0
176
     1
 90
       50
176
     1
 62
   256
176
     0
 40
1.0
176
     0
 90
        2
176
     1
  1
strokes_ogs.tif
176
     1
290
     0
176
     1
 40
1.0
176
     1
 40
1.0
176
     1
  0
VISUALSTYLE
  5
486
102
{ACAD_REACTORS
330
472
102
}
330
472
100
AcDbVisualStyle
  2
Shades of Gray
 70
    23
177
     3
291
     0
 70
    58
 90
        2
176
     1
 90
        2
176
     1
 90
        3
176
     1
 90
        0
176
     1
 40
0.6
176
     1
 40
30.0
176
     1
 62
     7
420
 16777215
176
     1
 90
        2
176
     1
 90
        2
176
     1
 62
     7
176
     1
 62
     7
176
     1
 90
        1
176
     1
 90
        1
176
     1
 40
40.0
176
     1
 90
        8
176
     1
 62
     7
176
     1
 40
1.0
176
     1
 90
        1
176
     1
 90
        6
176
     1
 90
        2
176
     1
 62
     7
176
     1
 90
        3
176
     1
 90
        0
176
     1
 90
        0
176
     1
290
     0
176
     1
 90
        1
176
     1
 40
0.0
176
     1
 90
        0
176
     1
290
     0
176
     1
290
     1
176
     1
290
     1
176
     1
290
     0
176
     1
290
     0
176
     1
290
     0
176
     1
290
     0
176
     1
290
     0
176
     1
290
     0
176
     1
 90
       50
176
     1
 40
0.0
176
     1
 40
1.0
176
     1
 90
        0
176
     1
 62
    18
420
        0
176
     1
 90
       50
176
     1
 90
        3
176
     1
 62
     5
420
      255
176
     1
290
     0
176
     1
 90
       50
176
     1
 90
       50
176
     1
 90
       50
176
     1
290
     0
176
     1
 90
       50
176
     1
 62
   256
176
     0
 40
1.0
176
     0
 90
        2
176
     1
  1
strokes_ogs.tif
176
     1
290
     0
176
     1
 40
1.0
176
     1
 40
1.0
176
     1
  0
VISUALSTYLE
  5
487
102
{ACAD_REACTORS
330
472
102
}
330
472
100
AcDbVisualStyle
  2
Sketchy
 70
    24
177
     3
291
     0
 70
    58
 90
        1
176
     1
 90
        2
176
     1
 90
        2
176
     1
 90
        0
176
     1
 40
0.6
176
     1
 40
30.0
176
     1
 62
     7
420
 16777215
176
     1
 90
        2
176
     1
 90
        2
176
     1
 62
     7
176
     1
 62
     7
176
     1
 90
        1
176
     1
 90
        1
176
     1
 40
40.0
176
     1
 90
       11
176
     1
 62
     7
176
     1
 40
1.0
176
     1
 90
        1
176
     1
 90
        6
176
     1
 90
        2
176
     1
 62
     7
176
     1
 90
        6
176
     1
 90
        0
176
     1
 90
        0
176
     1
290
     0
176
     1
 90
        1
176
     1
 40
0.0
176
     1
 90
        0
176
     1
290
     0
176
     1
290
     1
176
     1
290
     1
176
     1
290
     0
176
     1
290
     0
176
     1
290
     0
176
     1
290
     0
176
     1
290
     0
176
     1
290
     0
176
     1
 90
       50
176
     1
 40
0.0
176
     1
 40
1.0
176
     1
 90
        0
176
     1
 62
    18
420
        0
176
     1
 90
       50
176
     1
 90
        3
176
     1
 62
     5
420
      255
176
     1
290
     0
176
     1
 90
       50
176
     1
 90
       50
176
     1
 90
       50
176
     1
290
     0
176
     1
 90
       50
176
     1
 62
   256
176
     0
 40
1.0
176
     0
 90
        2
176
     1
  1
strokes_ogs.tif
176
     1
290
     0
176
     1
 40
1.0
176
     1
 40
1.0
176
     1
  0
VISUALSTYLE
  5
47F
102
{ACAD_REACTORS
330
472
102
}
330
472
100
AcDbVisualStyle
  2
Thicken
 70
    13
177
     3
291
     1
 70
    58
 90
        2
176
     1
 90
        2
176
     1
 90
        0
176
     1
 90
        0
176
     1
 40
0.6
176
     1
 40
30.0
176
     1
 62
     7
420
 16777215
176
     1
 90
        1
176
     1
 90
        4
176
     1
 62
     7
176
     1
 62
   257
176
     1
 90
        1
176
     1
 90
        1
176
     1
 40
1.0
176
     1
 90
       12
176
     1
 62
     7
176
     1
 40
1.0
176
     1
 90
        1
176
     1
 90
        6
176
     1
 90
        2
176
     1
 62
     7
176
     1
 90
        5
176
     1
 90
        0
176
     1
 90
        0
176
     1
290
     0
176
     1
 90
        1
176
     1
 40
0.0
176
     1
 90
        0
176
     1
290
     0
176
     1
290
     1
176
     1
290
     1
176
     1
290
     0
176
     1
290
     0
176
     1
290
     0
176
     1
290
     0
176
     1
290
     0
176
     1
290
     0
176
     1
 90
       50
176
     1
 40
0.0
176
     1
 40
1.0
176
     1
 90
        0
176
     1
 62
    18
420
        0
176
     1
 90
       50
176
     1
 90
        3
176
     1
 62
     5
420
      255
176
     1
290
     0
176
     1
 90
       50
176
     1
 90
       50
176
     1
 90
       50
176
     1
290
     0
176
     1
 90
       50
176
     1
 62
   256
176
     0
 40
1.0
176
     0
 90
        2
176
     1
  1
strokes_ogs.tif
176
     1
290
     0
176
     1
 40
1.0
176
     1
 40
1.0
176
     1
  0
VISUALSTYLE
  5
478
102
{ACAD_REACTORS
330
472
102
}
330
472
100
AcDbVisualStyle
  2
Wireframe
 70
     5
177
     3
291
     0
 70
    58
 90
        0
176
     1
 90
        2
176
     1
 90
        0
176
     1
 90
        0
176
     1
 40
0.6
176
     1
 40
30.0
176
     1
 62
     7
420
 16777215
176
     1
 90
        1
176
     1
 90
        4
176
     1
 62
     7
176
     1
 62
   257
176
     1
 90
        1
176
     1
 90
        1
176
     1
 40
1.0
176
     1
 90
        0
176
     1
 62
   257
176
     1
 40
1.0
176
     1
 90
        1
176
     1
 90
        6
176
     1
 90
        2
176
     1
 62
     7
176
     1
 90
        3
176
     1
 90
        0
176
     1
 90
        0
176
     1
290
     0
176
     1
 90
        1
176
     1
 40
0.0
176
     1
 90
        0
176
     1
290
     0
176
     1
290
     1
176
     1
290
     1
176
     1
290
     0
176
     1
290
     0
176
     1
290
     0
176
     1
290
     0
176
     1
290
     0
176
     1
290
     0
176
     1
 90
       50
176
     1
 40
0.0
176
     1
 40
1.0
176
     1
 90
        0
176
     1
 62
    18
420
        0
176
     1
 90
       50
176
     1
 90
        3
176
     1
 62
     5
420
      255
176
     1
290
     0
176
     1
 90
       50
176
     1
 90
       50
176
     1
 90
       50
176
     1
290
     0
176
     1
 90
       50
176
     1
 62
   256
176
     0
 40
1.0
176
     0
 90
        2
176
     1
  1
strokes_ogs.tif
176
     1
290
     0
176
     1
 40
1.0
176
     1
 40
1.0
176
     1
  0
VISUALSTYLE
  5
488
102
{ACAD_REACTORS
330
472
102
}
330
472
100
AcDbVisualStyle
  2
X-Ray
 70
    25
177
     3
291
     0
 70
    58
 90
        2
176
     1
 90
        2
176
     1
 90
        1
176
     1
 90
        1
176
     1
 40
0.5
176
     1
 40
30.0
176
     1
 62
     7
420
 16777215
176
     1
 90
        1
176
     1
 90
        0
176
     1
 62
     7
176
     1
 62
   257
176
     1
 90
        1
176
     1
 90
        1
176
     1
 40
1.0
176
     1
 90
        8
176
     1
 62
     7
176
     1
 40
1.0
176
     1
 90
        1
176
     1
 90
        6
176
     1
 90
        2
176
     1
 62
     7
176
     1
 90
        3
176
     1
 90
        0
176
     1
 90
        0
176
     1
290
     0
176
     1
 90
       13
176
     1
 40
0.0
176
     1
 90
        0
176
     1
290
     0
176
     1
290
     1
176
     1
290
     1
176
     1
290
     0
176
     1
290
     0
176
     1
290
     0
176
     1
290
     0
176
     1
290
     0
176
     1
290
     0
176
     1
 90
       50
176
     1
 40
0.0
176
     1
 40
1.0
176
     1
 90
        0
176
     1
 62
    18
420
        0
176
     1
 90
       50
176
     1
 90
        3
176
     1
 62
     5
420
      255
176
     1
290
     0
176
     1
 90
       50
176
     1
 90
       50
176
     1
 90
       50
176
     1
290
     0
176
     1
 90
       50
176
     1
 62
   256
176
     0
 40
1.0
176
     0
 90
        2
176
     1
  1
strokes_ogs.tif
176
     1
290
     0
176
     1
 40
1.0
176
     1
 40
1.0
176
     1
  0
DICTIONARYVAR
  5
495
102
{ACAD_REACTORS
330
494
102
}
330
494
100
DictionaryVariables
280
     0
  1
1:1
  0
DICTIONARYVAR
  5
49A
102
{ACAD_REACTORS
330
494
102
}
330
494
100
DictionaryVariables
280
     0
  1
Standard
  0
DICTIONARYVAR
  5
499
102
{ACAD_REACTORS
330
494
102
}
330
494
100
DictionaryVariables
280
     0
  1
Standard
  0
DICTIONARYVAR
  5
49B
102
{ACAD_REACTORS
330
494
102
}
330
494
100
DictionaryVariables
280
     0
  1
0
  0
DICTIONARY
  5
496
330
490
100
AcDbDictionary
280
     1
281
     1
  3
ACAD_ROUNDTRIP_2008_TABLESTYLE_CELLSTYLEMAP
360
497
  0
CELLSTYLEMAP
  5
497
102
{ACAD_REACTORS
330
496
102
}
330
496
100
AcDbCellStyleMap
 90
        3
300
CELLSTYLE
  1
TABLEFORMAT_BEGIN
 90
        5
170
     1
 91
        0
 92
    32768
 62
   257
 93
        1
300
CONTENTFORMAT
  1
CONTENTFORMAT_BEGIN
 90
        0
 91
        0
 92
        4
 93
        0
300

 40
0.0
140
1.0
 94
        5
 62
     0
340
11
144
6.0
309
CONTENTFORMAT_END
171
     1
301
MARGIN
  1
CELLMARGIN_BEGIN
 40
1.5
 40
1.5
 40
1.5
 40
1.5
 40
1.5
 40
1.5
309
CELLMARGIN_END
 94
        6
 95
        1
302
GRIDFORMAT
  1
GRIDFORMAT_BEGIN
 90
        0
 91
        1
 62
     0
 92
       -2
340
14
 93
        0
 40
0.045
309
GRIDFORMAT_END
 95
        2
302
GRIDFORMAT
  1
GRIDFORMAT_BEGIN
 90
        0
 91
        1
 62
     0
 92
       -2
340
14
 93
        0
 40
0.045
309
GRIDFORMAT_END
 95
        4
302
GRIDFORMAT
  1
GRIDFORMAT_BEGIN
 90
        0
 91
        1
 62
     0
 92
       -2
340
14
 93
        0
 40
0.045
309
GRIDFORMAT_END
 95
        8
302
GRIDFORMAT
  1
GRIDFORMAT_BEGIN
 90
        0
 91
        1
 62
     0
 92
       -2
340
14
 93
        0
 40
0.045
309
GRIDFORMAT_END
 95
       16
302
GRIDFORMAT
  1
GRIDFORMAT_BEGIN
 90
        0
 91
        1
 62
     0
 92
       -2
340
14
 93
        0
 40
0.045
309
GRIDFORMAT_END
 95
       32
302
GRIDFORMAT
  1
GRIDFORMAT_BEGIN
 90
        0
 91
        1
 62
     0
 92
       -2
340
14
 93
        0
 40
0.045
309
GRIDFORMAT_END
309
TABLEFORMAT_END
  1
CELLSTYLE_BEGIN
 90
        1
 91
        1
300
_TITLE
309
CELLSTYLE_END
300
CELLSTYLE
  1
TABLEFORMAT_BEGIN
 90
        5
170
     1
 91
        0
 92
        0
 62
   257
 93
        1
300
CONTENTFORMAT
  1
CONTENTFORMAT_BEGIN
 90
        0
 91
        0
 92
        4
 93
        0
300

 40
0.0
140
1.0
 94
        5
 62
     0
340
11
144
4.5
309
CONTENTFORMAT_END
171
     1
301
MARGIN
  1
CELLMARGIN_BEGIN
 40
1.5
 40
1.5
 40
1.5
 40
1.5
 40
1.5
 40
1.5
309
CELLMARGIN_END
 94
        6
 95
        1
302
GRIDFORMAT
  1
GRIDFORMAT_BEGIN
 90
        0
 91
        1
 62
     0
 92
       -2
340
14
 93
        0
 40
0.045
309
GRIDFORMAT_END
 95
        2
302
GRIDFORMAT
  1
GRIDFORMAT_BEGIN
 90
        0
 91
        1
 62
     0
 92
       -2
340
14
 93
        0
 40
0.045
309
GRIDFORMAT_END
 95
        4
302
GRIDFORMAT
  1
GRIDFORMAT_BEGIN
 90
        0
 91
        1
 62
     0
 92
       -2
340
14
 93
        0
 40
0.045
309
GRIDFORMAT_END
 95
        8
302
GRIDFORMAT
  1
GRIDFORMAT_BEGIN
 90
        0
 91
        1
 62
     0
 92
       -2
340
14
 93
        0
 40
0.045
309
GRIDFORMAT_END
 95
       16
302
GRIDFORMAT
  1
GRIDFORMAT_BEGIN
 90
        0
 91
        1
 62
     0
 92
       -2
340
14
 93
        0
 40
0.045
309
GRIDFORMAT_END
 95
       32
302
GRIDFORMAT
  1
GRIDFORMAT_BEGIN
 90
        0
 91
        1
 62
     0
 92
       -2
340
14
 93
        0
 40
0.045
309
GRIDFORMAT_END
309
TABLEFORMAT_END
  1
CELLSTYLE_BEGIN
 90
        2
 91
        1
300
_HEADER
309
CELLSTYLE_END
300
CELLSTYLE
  1
TABLEFORMAT_BEGIN
 90
        5
170
     1
 91
        0
 92
        0
 62
   257
 93
        1
300
CONTENTFORMAT
  1
CONTENTFORMAT_BEGIN
 90
        0
 91
        0
 92
        4
 93
        0
300

 40
0.0
140
1.0
 94
        2
 62
     0
340
11
144
4.5
309
CONTENTFORMAT_END
171
     1
301
MARGIN
  1
CELLMARGIN_BEGIN
 40
1.5
 40
1.5
 40
1.5
 40
1.5
 40
1.5
 40
1.5
309
CELLMARGIN_END
 94
        6
 95
        1
302
GRIDFORMAT
  1
GRIDFORMAT_BEGIN
 90
        0
 91
        1
 62
     0
 92
       -2
340
14
 93
        0
 40
0.045
309
GRIDFORMAT_END
 95
        2
302
GRIDFORMAT
  1
GRIDFORMAT_BEGIN
 90
        0
 91
        1
 62
     0
 92
       -2
340
14
 93
        0
 40
0.045
309
GRIDFORMAT_END
 95
        4
302
GRIDFORMAT
  1
GRIDFORMAT_BEGIN
 90
        0
 91
        1
 62
     0
 92
       -2
340
14
 93
        0
 40
0.045
309
GRIDFORMAT_END
 95
        8
302
GRIDFORMAT
  1
GRIDFORMAT_BEGIN
 90
        0
 91
        1
 62
     0
 92
       -2
340
14
 93
        0
 40
0.045
309
GRIDFORMAT_END
 95
       16
302
GRIDFORMAT
  1
GRIDFORMAT_BEGIN
 90
        0
 91
        1
 62
     0
 92
       -2
340
14
 93
        0
 40
0.045
309
GRIDFORMAT_END
 95
       32
302
GRIDFORMAT
  1
GRIDFORMAT_BEGIN
 90
        0
 91
        1
 62
     0
 92
       -2
340
14
 93
        0
 40
0.045
309
GRIDFORMAT_END
309
TABLEFORMAT_END
  1
CELLSTYLE_BEGIN
 90
        3
 91
        2
300
_DATA
309
CELLSTYLE_END
  0
ENDSEC
  0
EOF
