  0
SECTION
  2
HEADER
  9
$ACADVER
  1
AC1027
  9
$ACADMAINTVER
 70
   105
  9
$DWGCODEPAGE
  3
ANSI_1252
  9
$REQUIREDVERSIONS
160
                 0
  9
$LASTSAVEDBY
  1
andrea.zolin
  9
$INSBASE
 10
0.0
 20
0.0
 30
0.0
  9
$EXTMIN
 10
0.0
 20
0.0
 30
0.0
  9
$EXTMAX
 10
420.0
 20
297.0
 30
0.0
  9
$LIMMIN
 10
0.0
 20
0.0
  9
$LIMMAX
 10
420.0
 20
297.0
  9
$ORTHOMODE
 70
     0
  9
$REGENMODE
 70
     1
  9
$FILLMODE
 70
     1
  9
$QTEXTMODE
 70
     0
  9
$MIRRTEXT
 70
     1
  9
$LTSCALE
 40
23.1
  9
$ATTMODE
 70
     1
  9
$TEXTSIZE
 40
0.2
  9
$TRACEWID
 40
0.05
  9
$TEXTSTYLE
  7
STANDARD
  9
$CLAYER
  8
0
  9
$CELTYPE
  6
BYLAYER
  9
$CECOLOR
 62
   256
  9
$CELTSCALE
 40
1.0
  9
$DISPSILH
 70
     0
  9
$DIMSCALE
 40
1.0
  9
$DIMASZ
 40
2.5
  9
$DIMEXO
 40
0.75
  9
$DIMDLI
 40
15.96
  9
$DIMRND
 40
0.0
  9
$DIMDLE
 40
0.0
  9
$DIMEXE
 40
0.75
  9
$DIMTP
 40
0.01
  9
$DIMTM
 40
0.01
  9
$DIMTXT
 40
3.0
  9
$DIMCEN
 40
3.78
  9
$DIMTSZ
 40
0.0
  9
$DIMTOL
 70
     1
  9
$DIMLIM
 70
     0
  9
$DIMTIH
 70
     1
  9
$DIMTOH
 70
     1
  9
$DIMSE1
 70
     0
  9
$DIMSE2
 70
     0
  9
$DIMTAD
 70
     0
  9
$DIMZIN
 70
     0
  9
$DIMBLK
  1
CLOSED
  9
$DIMASO
 70
     1
  9
$DIMSHO
 70
     1
  9
$DIMPOST
  1

  9
$DIMAPOST
  1

  9
$DIMALT
 70
     0
  9
$DIMALTD
 70
     2
  9
$DIMALTF
 40
25.4
  9
$DIMLFAC
 40
1.0
  9
$DIMTOFL
 70
     0
  9
$DIMTVP
 40
0.0
  9
$DIMTIX
 70
     0
  9
$DIMSOXD
 70
     0
  9
$DIMSAH
 70
     0
  9
$DIMBLK1
  1

  9
$DIMBLK2
  1

  9
$DIMSTYLE
  2
STANDARD
  9
$DIMCLRD
 70
     0
  9
$DIMCLRE
 70
     0
  9
$DIMCLRT
 70
     0
  9
$DIMTFAC
 40
1.0
  9
$DIMGAP
 40
0.625
  9
$DIMJUST
 70
     0
  9
$DIMSD1
 70
     0
  9
$DIMSD2
 70
     0
  9
$DIMTOLJ
 70
     1
  9
$DIMTZIN
 70
     0
  9
$DIMALTZ
 70
     0
  9
$DIMALTTZ
 70
     0
  9
$DIMUPT
 70
     0
  9
$DIMDEC
 70
     4
  9
$DIMTDEC
 70
     4
  9
$DIMALTU
 70
     2
  9
$DIMALTTD
 70
     2
  9
$DIMTXSTY
  7
STANDARD
  9
$DIMAUNIT
 70
     0
  9
$DIMADEC
 70
     0
  9
$DIMALTRND
 40
0.0
  9
$DIMAZIN
 70
     0
  9
$DIMDSEP
 70
    46
  9
$DIMATFIT
 70
     3
  9
$DIMFRAC
 70
     0
  9
$DIMLDRBLK
  1

  9
$DIMLUNIT
 70
     2
  9
$DIMLWD
 70
    -2
  9
$DIMLWE
 70
    -2
  9
$DIMTMOVE
 70
     2
  9
$DIMFXL
 40
1.0
  9
$DIMFXLON
 70
     0
  9
$DIMJOGANG
 40
0.7853981633974483
  9
$DIMTFILL
 70
     0
  9
$DIMTFILLCLR
 70
     0
  9
$DIMARCSYM
 70
     0
  9
$DIMLTYPE
  6

  9
$DIMLTEX1
  6

  9
$DIMLTEX2
  6

  9
$DIMTXTDIRECTION
 70
     0
  9
$LUNITS
 70
     2
  9
$LUPREC
 70
     4
  9
$SKETCHINC
 40
0.1
  9
$FILLETRAD
 40
0.5
  9
$AUNITS
 70
     0
  9
$AUPREC
 70
     0
  9
$MENU
  1
.
  9
$ELEVATION
 40
0.0
  9
$PELEVATION
 40
0.0
  9
$THICKNESS
 40
0.0
  9
$LIMCHECK
 70
     0
  9
$CHAMFERA
 40
0.0
  9
$CHAMFERB
 40
0.0
  9
$CHAMFERC
 40
0.0
  9
$CHAMFERD
 40
0.0
  9
$SKPOLY
 70
     0
  9
$TDCREATE
 40
2447893.041666667
  9
$TDUCREATE
 40
0.0
  9
$TDUPDATE
 40
2458472.722207986
  9
$TDUUPDATE
 40
2458472.680541319
  9
$TDINDWG
 40
0.0003891551
  9
$TDUSRTIMER
 40
0.0000860301
  9
$USRTIMER
 70
     1
  9
$ANGBASE
 50
0.0
  9
$ANGDIR
 70
     0
  9
$PDMODE
 70
     3
  9
$PDSIZE
 40
0.3125
  9
$PLINEWID
 40
0.0
  9
$SPLFRAME
 70
     0
  9
$SPLINETYPE
 70
     6
  9
$SPLINESEGS
 70
     8
  9
$HANDSEED
  5
394
  9
$SURFTAB1
 70
     6
  9
$SURFTAB2
 70
     6
  9
$SURFTYPE
 70
     6
  9
$SURFU
 70
     6
  9
$SURFV
 70
     6
  9
$UCSBASE
  2

  9
$UCSNAME
  2

  9
$UCSORG
 10
0.0
 20
0.0
 30
0.0
  9
$UCSXDIR
 10
1.0
 20
0.0
 30
0.0
  9
$UCSYDIR
 10
0.0
 20
1.0
 30
0.0
  9
$UCSORTHOREF
  2

  9
$UCSORTHOVIEW
 70
     0
  9
$UCSORGTOP
 10
0.0
 20
0.0
 30
0.0
  9
$UCSORGBOTTOM
 10
0.0
 20
0.0
 30
0.0
  9
$UCSORGLEFT
 10
0.0
 20
0.0
 30
0.0
  9
$UCSORGRIGHT
 10
0.0
 20
0.0
 30
0.0
  9
$UCSORGFRONT
 10
0.0
 20
0.0
 30
0.0
  9
$UCSORGBACK
 10
0.0
 20
0.0
 30
0.0
  9
$PUCSBASE
  2

  9
$PUCSNAME
  2

  9
$PUCSORG
 10
0.0
 20
0.0
 30
0.0
  9
$PUCSXDIR
 10
1.0
 20
0.0
 30
0.0
  9
$PUCSYDIR
 10
0.0
 20
1.0
 30
0.0
  9
$PUCSORTHOREF
  2

  9
$PUCSORTHOVIEW
 70
     0
  9
$PUCSORGTOP
 10
0.0
 20
0.0
 30
0.0
  9
$PUCSORGBOTTOM
 10
0.0
 20
0.0
 30
0.0
  9
$PUCSORGLEFT
 10
0.0
 20
0.0
 30
0.0
  9
$PUCSORGRIGHT
 10
0.0
 20
0.0
 30
0.0
  9
$PUCSORGFRONT
 10
0.0
 20
0.0
 30
0.0
  9
$PUCSORGBACK
 10
0.0
 20
0.0
 30
0.0
  9
$USERI1
 70
     0
  9
$USERI2
 70
     0
  9
$USERI3
 70
     0
  9
$USERI4
 70
     0
  9
$USERI5
 70
     0
  9
$USERR1
 40
0.0
  9
$USERR2
 40
0.0
  9
$USERR3
 40
0.0
  9
$USERR4
 40
0.0
  9
$USERR5
 40
0.0
  9
$WORLDVIEW
 70
     1
  9
$SHADEDGE
 70
     3
  9
$SHADEDIF
 70
    70
  9
$TILEMODE
 70
     0
  9
$MAXACTVP
 70
    64
  9
$PINSBASE
 10
0.0
 20
0.0
 30
0.0
  9
$PLIMCHECK
 70
     0
  9
$PEXTMIN
 10
0.0
 20
0.0
 30
0.0
  9
$PEXTMAX
 10
420.0
 20
297.0
 30
0.0
  9
$PLIMMIN
 10
-8.667315175097276
 20
-23.11284046692607
  9
$PLIMMAX
 10
476.7023346303502
 20
320.1128404669261
  9
$UNITMODE
 70
     0
  9
$VISRETAIN
 70
     1
  9
$PLINEGEN
 70
     0
  9
$PSLTSCALE
 70
     1
  9
$TREEDEPTH
 70
  3020
  9
$CMLSTYLE
  2
STANDARD
  9
$CMLJUST
 70
     0
  9
$CMLSCALE
 40
1.0
  9
$PROXYGRAPHICS
 70
     1
  9
$MEASUREMENT
 70
     1
  9
$CELWEIGHT
370
    -1
  9
$ENDCAPS
280
     0
  9
$JOINSTYLE
280
     0
  9
$LWDISPLAY
290
     0
  9
$INSUNITS
 70
     0
  9
$HYPERLINKBASE
  1

  9
$STYLESHEET
  1

  9
$XEDIT
290
     1
  9
$CEPSNTYPE
380
     0
  9
$PSTYLEMODE
290
     1
  9
$FINGERPRINTGUID
  2
{C3C1EDAD-18EC-4E68-955B-2119625C1D40}
  9
$VERSIONGUID
  2
{FAEB1C32-E019-11D5-929B-00C0DF256EC4}
  9
$EXTNAMES
290
     1
  9
$PSVPSCALE
 40
0.0
  9
$OLESTARTUP
290
     0
  9
$SORTENTS
280
   127
  9
$INDEXCTL
280
     0
  9
$HIDETEXT
280
     1
  9
$XCLIPFRAME
280
     2
  9
$HALOGAP
280
     0
  9
$OBSCOLOR
 70
   257
  9
$OBSLTYPE
280
     0
  9
$INTERSECTIONDISPLAY
280
     0
  9
$INTERSECTIONCOLOR
 70
   257
  9
$DIMASSOC
280
     2
  9
$PROJECTNAME
  1

  9
$CAMERADISPLAY
290
     0
  9
$LENSLENGTH
 40
50.0
  9
$CAMERAHEIGHT
 40
0.0
  9
$STEPSPERSEC
 40
2.0
  9
$STEPSIZE
 40
6.0
  9
$3DDWFPREC
 40
2.0
  9
$PSOLWIDTH
 40
0.25
  9
$PSOLHEIGHT
 40
4.0
  9
$LOFTANG1
 40
1.570796326794897
  9
$LOFTANG2
 40
1.570796326794897
  9
$LOFTMAG1
 40
0.0
  9
$LOFTMAG2
 40
0.0
  9
$LOFTPARAM
 70
     7
  9
$LOFTNORMALS
280
     1
  9
$LATITUDE
 40
37.795
  9
$LONGITUDE
 40
-122.394
  9
$NORTHDIRECTION
 40
0.0
  9
$TIMEZONE
 70
 -8000
  9
$LIGHTGLYPHDISPLAY
280
     1
  9
$TILEMODELIGHTSYNCH
280
     1
  9
$SOLIDHIST
280
     0
  9
$SHOWHIST
280
     1
  9
$DWFFRAME
280
     2
  9
$DGNFRAME
280
     2
  9
$REALWORLDSCALE
290
     1
  9
$INTERFERECOLOR
 62
   256
  9
$CSHADOW
280
     0
  9
$SHADOWPLANELOCATION
 40
0.0
  0
ENDSEC
  0
SECTION
  2
CLASSES
  0
CLASS
  1
ACDBDICTIONARYWDFLT
  2
AcDbDictionaryWithDefault
  3
ObjectDBX Classes
 90
        0
 91
        4
280
     0
281
     0
  0
CLASS
  1
SCALE
  2
AcDbScale
  3
ObjectDBX Classes
 90
     1153
 91
        4
280
     0
281
     0
  0
CLASS
  1
VISUALSTYLE
  2
AcDbVisualStyle
  3
ObjectDBX Classes
 90
     4095
 91
        4
280
     0
281
     0
  0
CLASS
  1
MATERIAL
  2
AcDbMaterial
  3
ObjectDBX Classes
 90
     1153
 91
        4
280
     0
281
     0
  0
CLASS
  1
TABLESTYLE
  2
AcDbTableStyle
  3
ObjectDBX Classes
 90
     4095
 91
        4
280
     0
281
     0
  0
CLASS
  1
MLEADERSTYLE
  2
AcDbMLeaderStyle
  3
ACDB_MLEADERSTYLE_CLASS
 90
     4095
 91
        4
280
     0
281
     0
  0
CLASS
  1
DICTIONARYVAR
  2
AcDbDictionaryVar
  3
ObjectDBX Classes
 90
        0
 91
        4
280
     0
281
     0
  0
CLASS
  1
SUN
  2
AcDbSun
  3
SCENEOE
 90
     1153
 91
        4
280
     0
281
     0
  0
CLASS
  1
CELLSTYLEMAP
  2
AcDbCellStyleMap
  3
ObjectDBX Classes
 90
     1152
 91
        4
280
     0
281
     0
  0
ENDSEC
  0
SECTION
  2
TABLES
  0
TABLE
  2
VPORT
  5
8
330
0
100
AcDbSymbolTable
 70
     1
  0
VPORT
  5
1F4
330
8
100
AcDbSymbolTableRecord
100
AcDbViewportTableRecord
  2
*ACTIVE
 70
     0
 10
0.0
 20
0.0
 11
1.0
 21
1.0
 12
210.0
 22
148.5
 13
0.0
 23
0.0
 14
1.0
 24
1.0
 15
0.0
 25
0.0
 16
0.0
 26
0.0
 36
1.0
 17
0.0
 27
0.0
 37
0.0
 40
297.0
 41
1.4141414141
 42
50.0
 43
0.0
 44
0.0
 50
0.0
 51
0.0
 71
     0
 72
   100
 73
     1
 74
     1
 75
     0
 76
     0
 77
     0
 78
     0
281
     0
 65
     1
110
0.0
120
0.0
130
0.0
111
1.0
121
0.0
131
0.0
112
0.0
122
1.0
132
0.0
 79
     0
146
0.0
348
36C
 60
     3
 61
     5
292
     1
282
     1
141
0.0
142
0.0
 63
   256
  0
ENDTAB
  0
TABLE
  2
LTYPE
  5
5
330
0
100
AcDbSymbolTable
 70
     6
  0
LTYPE
  5
14
330
5
100
AcDbSymbolTableRecord
100
AcDbLinetypeTableRecord
  2
BYBLOCK
 70
     0
  3

 72
    65
 73
     0
 40
0.0
  0
LTYPE
  5
15
330
5
100
AcDbSymbolTableRecord
100
AcDbLinetypeTableRecord
  2
BYLAYER
 70
     0
  3

 72
    65
 73
     0
 40
0.0
  0
LTYPE
  5
16
330
5
100
AcDbSymbolTableRecord
100
AcDbLinetypeTableRecord
  2
CONTINUOUS
 70
     0
  3
Solid line
 72
    65
 73
     0
 40
0.0
  0
LTYPE
  5
1F5
330
5
100
AcDbSymbolTableRecord
100
AcDbLinetypeTableRecord
  2
CENTER
 70
     0
  3
____ _ ____ _ ____ _ ____ _ ____ _ ____ _ ____
 72
    65
 73
     4
 40
0.6
 49
0.375
 74
     0
 49
-0.075
 74
     0
 49
0.075
 74
     0
 49
-0.075
 74
     0
  0
LTYPE
  5
1F6
330
5
100
AcDbSymbolTableRecord
100
AcDbLinetypeTableRecord
  2
HIDDEN
 70
     0
  3
- - - - - - - - - - - - - - - - - - - -
 72
    65
 73
     2
 40
0.2
 49
0.1
 74
     0
 49
-0.1
 74
     0
  0
LTYPE
  5
1F7
330
5
100
AcDbSymbolTableRecord
100
AcDbLinetypeTableRecord
  2
PHANTOM
 70
     0
  3
_____ _ _ _____ _ _ _____ _ _ _____
 72
    65
 73
     6
 40
0.8
 49
0.45
 74
     0
 49
-0.05
 74
     0
 49
0.1
 74
     0
 49
-0.05
 74
     0
 49
0.1
 74
     0
 49
-0.05
 74
     0
  0
LTYPE
  5
1F8
330
5
100
AcDbSymbolTableRecord
100
AcDbLinetypeTableRecord
  2
DOT
 70
     0
  3
. . . . . . . . . . . . . . . . . . . .
 72
    65
 73
     2
 40
0.2
 49
0.1
 74
     0
 49
-0.1
 74
     0
  0
LTYPE
  5
1F9
330
5
100
AcDbSymbolTableRecord
100
AcDbLinetypeTableRecord
  2
DASHED
 70
     0
  3
- - - - - - - - - - - - - - - - - - - -
 72
    65
 73
     2
 40
0.2
 49
0.1
 74
     0
 49
-0.1
 74
     0
  0
ENDTAB
  0
TABLE
  2
LAYER
  5
2
330
0
100
AcDbSymbolTable
 70
    31
  0
LAYER
  5
10
330
2
100
AcDbSymbolTableRecord
100
AcDbLayerTableRecord
  2
0
 70
     0
 62
     7
  6
CONTINUOUS
370
    -3
390
341
347
383
348
0
  0
LAYER
  5
1FA
330
2
100
AcDbSymbolTableRecord
100
AcDbLayerTableRecord
  2
DEFAULT_1
 70
     0
 62
     7
  6
CENTER
370
    -3
390
341
347
383
348
0
  0
LAYER
  5
1FB
330
2
100
AcDbSymbolTableRecord
100
AcDbLayerTableRecord
  2
DEFAULT_2
 70
     0
 62
     8
  6
HIDDEN
370
    -3
390
341
347
383
348
0
  0
LAYER
  5
1FC
330
2
100
AcDbSymbolTableRecord
100
AcDbLayerTableRecord
  2
DEFAULT_3
 70
     0
 62
     7
  6
PHANTOM
370
    -3
390
341
347
383
348
0
  0
LAYER
  5
1FD
330
2
100
AcDbSymbolTableRecord
100
AcDbLayerTableRecord
  2
01_ALL_DTM_PLN
 70
     0
 62
     7
  6
CONTINUOUS
370
    -3
390
341
347
383
348
0
  0
LAYER
  5
1FE
330
2
100
AcDbSymbolTableRecord
100
AcDbLayerTableRecord
  2
01__ASM_ALL_DTM_PLN
 70
     0
 62
     7
  6
CONTINUOUS
370
    -3
390
341
347
383
348
0
  0
LAYER
  5
1FF
330
2
100
AcDbSymbolTableRecord
100
AcDbLayerTableRecord
  2
01__ASM_DEF_DTM_PLN
 70
     0
 62
     7
  6
CONTINUOUS
370
    -3
390
341
347
383
348
0
  0
LAYER
  5
200
330
2
100
AcDbSymbolTableRecord
100
AcDbLayerTableRecord
  2
01___PRT_ALL_DTM_PLN
 70
     0
 62
     7
  6
CONTINUOUS
370
    -3
390
341
347
383
348
0
  0
LAYER
  5
201
330
2
100
AcDbSymbolTableRecord
100
AcDbLayerTableRecord
  2
01___PRT_DEF_DTM_PLN
 70
     0
 62
     7
  6
CONTINUOUS
370
    -3
390
341
347
383
348
0
  0
LAYER
  5
202
330
2
100
AcDbSymbolTableRecord
100
AcDbLayerTableRecord
  2
02_ALL_AXES
 70
     0
 62
     7
  6
CONTINUOUS
370
    -3
390
341
347
383
348
0
  0
LAYER
  5
203
330
2
100
AcDbSymbolTableRecord
100
AcDbLayerTableRecord
  2
02__ASM_ALL_AXES
 70
     0
 62
     7
  6
CONTINUOUS
370
    -3
390
341
347
383
348
0
  0
LAYER
  5
204
330
2
100
AcDbSymbolTableRecord
100
AcDbLayerTableRecord
  2
02___PRT_ALL_AXES
 70
     0
 62
     7
  6
CONTINUOUS
370
    -3
390
341
347
383
348
0
  0
LAYER
  5
205
330
2
100
AcDbSymbolTableRecord
100
AcDbLayerTableRecord
  2
03_ALL_CURVES
 70
     0
 62
     7
  6
CONTINUOUS
370
    -3
390
341
347
383
348
0
  0
LAYER
  5
206
330
2
100
AcDbSymbolTableRecord
100
AcDbLayerTableRecord
  2
03__ASM_ALL_CURVES
 70
     0
 62
     7
  6
CONTINUOUS
370
    -3
390
341
347
383
348
0
  0
LAYER
  5
207
330
2
100
AcDbSymbolTableRecord
100
AcDbLayerTableRecord
  2
03___PRT_ALL_CURVES
 70
     0
 62
     7
  6
CONTINUOUS
370
    -3
390
341
347
383
348
0
  0
LAYER
  5
208
330
2
100
AcDbSymbolTableRecord
100
AcDbLayerTableRecord
  2
04_ALL_DTM_PNT
 70
     0
 62
     7
  6
CONTINUOUS
370
    -3
390
341
347
383
348
0
  0
LAYER
  5
209
330
2
100
AcDbSymbolTableRecord
100
AcDbLayerTableRecord
  2
04__ASM_ALL_DTM_PNT
 70
     0
 62
     7
  6
CONTINUOUS
370
    -3
390
341
347
383
348
0
  0
LAYER
  5
20A
330
2
100
AcDbSymbolTableRecord
100
AcDbLayerTableRecord
  2
04___PRT_ALL_DTM_PNT
 70
     0
 62
     7
  6
CONTINUOUS
370
    -3
390
341
347
383
348
0
  0
LAYER
  5
20B
330
2
100
AcDbSymbolTableRecord
100
AcDbLayerTableRecord
  2
05_ALL_DTM_CSYS
 70
     0
 62
     7
  6
CONTINUOUS
370
    -3
390
341
347
383
348
0
  0
LAYER
  5
20C
330
2
100
AcDbSymbolTableRecord
100
AcDbLayerTableRecord
  2
05__ASM_ALL_DTM_CSYS
 70
     0
 62
     7
  6
CONTINUOUS
370
    -3
390
341
347
383
348
0
  0
LAYER
  5
20D
330
2
100
AcDbSymbolTableRecord
100
AcDbLayerTableRecord
  2
05__ASM_DEF_DTM_CSYS
 70
     0
 62
     7
  6
CONTINUOUS
370
    -3
390
341
347
383
348
0
  0
LAYER
  5
20E
330
2
100
AcDbSymbolTableRecord
100
AcDbLayerTableRecord
  2
05___PRT_ALL_DTM_CSYS
 70
     0
 62
     7
  6
CONTINUOUS
370
    -3
390
341
347
383
348
0
  0
LAYER
  5
20F
330
2
100
AcDbSymbolTableRecord
100
AcDbLayerTableRecord
  2
05___PRT_DEF_DTM_CSYS
 70
     0
 62
     7
  6
CONTINUOUS
370
    -3
390
341
347
383
348
0
  0
LAYER
  5
210
330
2
100
AcDbSymbolTableRecord
100
AcDbLayerTableRecord
  2
06_ALL_SURFS
 70
     0
 62
     7
  6
CONTINUOUS
370
    -3
390
341
347
383
348
0
  0
LAYER
  5
211
330
2
100
AcDbSymbolTableRecord
100
AcDbLayerTableRecord
  2
06__ASM_ALL_SURFS
 70
     0
 62
     7
  6
CONTINUOUS
370
    -3
390
341
347
383
348
0
  0
LAYER
  5
212
330
2
100
AcDbSymbolTableRecord
100
AcDbLayerTableRecord
  2
06___PRT_ALL_SURFS
 70
     0
 62
     7
  6
CONTINUOUS
370
    -3
390
341
347
383
348
0
  0
LAYER
  5
213
330
2
100
AcDbSymbolTableRecord
100
AcDbLayerTableRecord
  2
07__ASM_ALL_SKELETONS
 70
     0
 62
     7
  6
CONTINUOUS
370
    -3
390
341
347
383
348
0
  0
LAYER
  5
214
330
2
100
AcDbSymbolTableRecord
100
AcDbLayerTableRecord
  2
1_ALL_PLANES
 70
     0
 62
     7
  6
CONTINUOUS
370
    -3
390
341
347
383
348
0
  0
LAYER
  5
215
330
2
100
AcDbSymbolTableRecord
100
AcDbLayerTableRecord
  2
3_ALL_AXES
 70
     0
 62
     7
  6
CONTINUOUS
370
    -3
390
341
347
383
348
0
  0
LAYER
  5
216
330
2
100
AcDbSymbolTableRecord
100
AcDbLayerTableRecord
  2
7_ALL_FEATURES
 70
     0
 62
     7
  6
CONTINUOUS
370
    -3
390
341
347
383
348
0
  0
LAYER
  5
217
330
2
100
AcDbSymbolTableRecord
100
AcDbLayerTableRecord
  2
9_SOLID
 70
     0
 62
     7
  6
CONTINUOUS
370
    -3
390
341
347
383
348
0
  0
ENDTAB
  0
TABLE
  2
STYLE
  5
3
330
0
100
AcDbSymbolTable
 70
     7
  0
STYLE
  5
11
330
3
100
AcDbSymbolTableRecord
100
AcDbTextStyleTableRecord
  2
STANDARD
 70
     0
 40
0.0
 41
1.0
 50
0.0
 71
     0
 42
0.2
  3
arial.ttf
  4

  0
STYLE
  5
218
330
3
100
AcDbSymbolTableRecord
100
AcDbTextStyleTableRecord
  2
TEXTSTYLE_1
 70
     0
 40
0.0
 41
0.8
 50
0.0
 71
     0
 42
0.2
  3
gdt
  4

  0
STYLE
  5
219
330
3
100
AcDbSymbolTableRecord
100
AcDbTextStyleTableRecord
  2
TEXTSTYLE_2
 70
     0
 40
0.0
 41
0.9
 50
0.0
 71
     0
 42
0.2
  3
txt
  4

  0
STYLE
  5
21A
330
3
100
AcDbSymbolTableRecord
100
AcDbTextStyleTableRecord
  2
TEXTSTYLE_3
 70
     0
 40
0.0
 41
0.9
 50
0.0
 71
     0
 42
0.2
  3
txt
  4

  0
STYLE
  5
21B
330
3
100
AcDbSymbolTableRecord
100
AcDbTextStyleTableRecord
  2
TEXTSTYLE_4
 70
     0
 40
0.0
 41
0.85
 50
0.0
 71
     0
 42
0.2
  3
gdt
  4

  0
STYLE
  5
21C
330
3
100
AcDbSymbolTableRecord
100
AcDbTextStyleTableRecord
  2
TEXTSTYLE_5
 70
     0
 40
0.0
 41
2.0
 50
0.0
 71
     0
 42
0.2
  3
txt
  4

  0
STYLE
  5
21D
330
3
100
AcDbSymbolTableRecord
100
AcDbTextStyleTableRecord
  2
TEXTSTYLE_6
 70
     0
 40
0.0
 41
0.85
 50
0.0
 71
     0
 42
0.2
  3
txt
  4

  0
ENDTAB
  0
TABLE
  2
VIEW
  5
6
330
0
100
AcDbSymbolTable
 70
     0
  0
ENDTAB
  0
TABLE
  2
UCS
  5
7
330
0
100
AcDbSymbolTable
 70
     0
  0
ENDTAB
  0
TABLE
  2
APPID
  5
9
330
0
100
AcDbSymbolTable
 70
     1
  0
APPID
  5
21E
330
9
100
AcDbSymbolTableRecord
100
AcDbRegAppTableRecord
  2
ACAD
 70
     0
  0
ENDTAB
  0
TABLE
  2
DIMSTYLE
  5
A
330
0
100
AcDbSymbolTable
 70
     4
100
AcDbDimStyleTable
  0
DIMSTYLE
105
225
330
A
100
AcDbSymbolTableRecord
100
AcDbDimStyleTableRecord
  2
STANDARD
 70
     0
 41
2.5
 42
0.75
 44
0.75
 47
0.01
 48
0.01
 71
     1
 73
     0
 74
     0
 77
     1
 78
     8
 79
     2
140
3.0
147
0.625
171
     1
178
     0
179
     2
271
     2
272
     2
284
     8
340
11
341
21F
342
21F
343
21F
344
21F
  0
DIMSTYLE
105
226
330
A
100
AcDbSymbolTableRecord
100
AcDbDimStyleTableRecord
  2
DIMSTYLE_1
 70
     0
  3
<>
 41
2.5
 42
0.75
 44
0.75
 47
0.3
 48
0.3
 73
     0
 74
     0
 77
     1
 78
     8
 79
     2
140
3.0
147
0.625
171
     1
172
     1
178
     0
179
     2
271
     2
272
     2
284
     8
288
     1
340
11
341
21F
342
21F
343
21F
344
21F
  0
DIMSTYLE
105
227
330
A
100
AcDbSymbolTableRecord
100
AcDbDimStyleTableRecord
  2
DIMSTYLE_2
 70
     0
 41
2.5
 42
0.75
 44
0.75
 47
0.5
 48
0.5
 73
     0
 74
     0
 77
     1
 78
     8
 79
     2
140
3.0
147
3.0
171
     1
178
     0
179
     1
271
     1
272
     1
284
     8
340
11
341
21F
342
21F
343
21F
344
21F
  0
DIMSTYLE
105
228
330
A
100
AcDbSymbolTableRecord
100
AcDbDimStyleTableRecord
  2
DIMSTYLE_3
 70
     0
 41
2.5
 42
0.75
 44
0.75
 47
0.5
 48
0.5
 73
     0
 74
     0
 77
     1
 78
     8
 79
     2
140
3.0
147
0.75
171
     1
178
     0
179
     2
271
     2
272
     2
284
     8
340
11
341
21F
342
21F
343
21F
344
21F
  0
ENDTAB
  0
TABLE
  2
BLOCK_RECORD
  5
1
330
0
100
AcDbSymbolTable
 70
     6
  0
BLOCK_RECORD
  5
1F
330
1
100
AcDbSymbolTableRecord
100
AcDbBlockTableRecord
  2
*MODEL_SPACE
340
365
 70
     0
280
     1
281
     0
  0
BLOCK_RECORD
  5
1B
330
1
100
AcDbSymbolTableRecord
100
AcDbBlockTableRecord
  2
*PAPER_SPACE
340
366
 70
     0
280
     1
281
     0
  0
BLOCK_RECORD
  5
21F
330
1
100
AcDbSymbolTableRecord
100
AcDbBlockTableRecord
  2
_CLOSED
340
0
102
{BLKREFS
331
279
331
27A
331
28B
331
28C
102
}
 70
     0
280
     1
281
     0
  0
BLOCK_RECORD
  5
220
330
1
100
AcDbSymbolTableRecord
100
AcDbBlockTableRecord
  2
*D1
340
0
 70
     0
280
     1
281
     0
  0
BLOCK_RECORD
  5
221
330
1
100
AcDbSymbolTableRecord
100
AcDbBlockTableRecord
  2
*D2
340
0
 70
     0
280
     1
281
     0
  0
BLOCK_RECORD
  5
222
330
1
100
AcDbSymbolTableRecord
100
AcDbBlockTableRecord
  2
*D3
340
0
 70
     0
280
     1
281
     0
  0
BLOCK_RECORD
  5
223
330
1
100
AcDbSymbolTableRecord
100
AcDbBlockTableRecord
  2
LOGO2_BL1
340
0
102
{BLKREFS
331
329
102
}
 70
     0
280
     1
281
     0
  0
BLOCK_RECORD
  5
224
330
1
100
AcDbSymbolTableRecord
100
AcDbBlockTableRecord
  2
PROIEZIONE_EU_BL0
340
0
102
{BLKREFS
331
326
102
}
 70
     0
280
     1
281
     0
  0
ENDTAB
  0
ENDSEC
  0
SECTION
  2
BLOCKS
  0
BLOCK
  5
20
330
1F
100
AcDbEntity
  8
0
100
AcDbBlockBegin
  2
*MODEL_SPACE
 70
     0
 10
0.0
 20
0.0
 30
0.0
  3
*MODEL_SPACE
  1

  0
ENDBLK
  5
21
330
1F
100
AcDbEntity
  8
0
100
AcDbBlockEnd
  0
BLOCK
  5
1C
330
1B
100
AcDbEntity
 67
     1
  8
0
100
AcDbBlockBegin
  2
*PAPER_SPACE
 70
     0
 10
0.0
 20
0.0
 30
0.0
  3
*PAPER_SPACE
  1

  0
ENDBLK
  5
1D
330
1B
100
AcDbEntity
 67
     1
  8
0
100
AcDbBlockEnd
  0
BLOCK
  5
26F
330
21F
100
AcDbEntity
  8
0
100
AcDbBlockBegin
  2
_CLOSED
 70
     0
 10
0.0
 20
0.0
 30
0.0
  3
_CLOSED
  1

  0
LINE
  5
270
330
21F
100
AcDbEntity
  8
0
  6
ByBlock
 62
     0
100
AcDbLine
 10
0.0
 20
0.0
 30
0.0
 11
-1.0
 21
0.2
 31
0.0
  0
LINE
  5
271
330
21F
100
AcDbEntity
  8
0
  6
ByBlock
 62
     0
100
AcDbLine
 10
-1.0
 20
0.2
 30
0.0
 11
-1.0
 21
-0.2
 31
0.0
  0
LINE
  5
272
330
21F
100
AcDbEntity
  8
0
  6
ByBlock
 62
     0
100
AcDbLine
 10
-1.0
 20
-0.2
 30
0.0
 11
0.0
 21
0.0
 31
0.0
  0
LINE
  5
273
330
21F
100
AcDbEntity
  8
0
  6
ByBlock
 62
     0
100
AcDbLine
 10
-1.0
 20
0.0
 30
0.0
 11
0.0
 21
0.0
 31
0.0
  0
ENDBLK
  5
274
330
21F
100
AcDbEntity
  8
0
  6
ByBlock
 62
     0
100
AcDbBlockEnd
  0
BLOCK
  5
275
330
220
100
AcDbEntity
  8
0
100
AcDbBlockBegin
  2
*D1
 70
     1
 10
0.0
 20
0.0
 30
0.0
  3
*D1
  1

  0
MTEXT
  5
276
330
220
100
AcDbEntity
  8
0
  6
Continuous
 62
     2
100
AcDbMText
 10
98.826060757
 20
223.0802996957
 30
0.0
 40
3.0
 41
10.9925650558
 46
0.0
 71
     2
 72
     1
  1
{\Fgdt;n}\Farial.ttf;110
  7
TEXTSTYLE_4
 11
0.9672502733
 21
-0.253824563
 31
0.0
 73
     1
 44
1.0
  0
LINE
  5
277
330
220
100
AcDbEntity
  8
0
  6
Continuous
 62
     2
100
AcDbLine
 10
49.2100631819
 20
232.2234957705
 30
0.0
 11
102.4088282139
 21
218.2631448056
 31
0.0
  0
LINE
  5
278
330
220
100
AcDbEntity
  8
0
  6
Continuous
 62
     2
100
AcDbLine
 10
155.607593246
 20
204.3027938406
 30
0.0
 11
102.4088282139
 21
218.2631448056
 31
0.0
  0
INSERT
  5
279
330
220
100
AcDbEntity
  8
0
  6
Continuous
 62
     2
100
AcDbBlockReference
  2
_CLOSED
 10
49.2100631819
 20
232.2234957705
 30
0.0
 41
2.5
 42
2.5
 43
2.5
 50
165.296053845
  0
INSERT
  5
27A
330
220
100
AcDbEntity
  8
0
  6
Continuous
 62
     2
100
AcDbBlockReference
  2
_CLOSED
 10
155.607593246
 20
204.3027938406
 30
0.0
 41
2.5
 42
2.5
 43
2.5
 50
345.296053845
  0
ENDBLK
  5
27B
330
220
100
AcDbEntity
  8
0
  6
ByBlock
 62
     0
100
AcDbBlockEnd
  0
BLOCK
  5
27C
330
221
100
AcDbEntity
  8
0
100
AcDbBlockBegin
  2
*D2
 70
     1
 10
0.0
 20
0.0
 30
0.0
  3
*D2
  1

  0
MTEXT
  5
27D
330
221
100
AcDbEntity
  8
0
  6
Continuous
 62
     2
100
AcDbMText
 10
235.345074854
 20
210.4427475001
 30
0.0
 40
3.0
 41
6.3345724907
 46
0.0
 71
     2
 72
     1
  1
35°
 11
0.9529374492
 21
0.3031669804
 31
0.0
 73
     1
 44
1.0
  0
LINE
  5
27E
330
221
100
AcDbEntity
  8
0
  6
Continuous
 62
     2
100
AcDbLine
 10
215.5503127831
 20
255.271572776
 30
0.0
 11
215.5503127831
 21
206.6237185457
 31
0.0
  0
LINE
  5
27F
330
221
100
AcDbEntity
  8
0
  6
Continuous
 62
     2
100
AcDbLine
 10
215.5503127831
 20
206.6237185457
 30
0.0
 11
215.5503127831
 21
200.6198798839
 31
0.0
  0
ARC
  5
280
330
221
100
AcDbEntity
  8
0
  6
Continuous
 62
     2
100
AcDbCircle
 10
215.5503127831
 20
272.6631451578
 30
0.0
 40
71.2932652739
100
AcDbArc
 50
270.0
 51
287.6479189908
  0
ARC
  5
281
330
221
100
AcDbEntity
  8
0
  6
Continuous
 62
     2
100
AcDbCircle
 10
215.5503127831
 20
272.6631451578
 30
0.0
 40
71.2932652739
100
AcDbArc
 50
287.6479189908
 51
305.2958379815
  0
LWPOLYLINE
  5
282
330
221
100
AcDbEntity
  8
0
  6
Continuous
 62
     2
100
AcDbPolyline
 90
        4
 70
     0
 43
0.0
 10
218.0411623687
 20
201.913633819
 10
215.5503127831
 20
201.3698798839
 10
218.0586946834
 20
200.9137875219
 10
218.0411623687
 20
201.913633819
  0
LWPOLYLINE
  5
283
330
221
100
AcDbEntity
  8
0
  6
Continuous
 62
     2
100
AcDbPolyline
 90
        4
 70
     0
 43
0.0
 10
254.9596823226
 20
212.6534468297
 10
256.7434429596
 20
214.4750389876
 10
254.3962823109
 20
213.4796310869
 10
254.9596823226
 20
212.6534468297
  0
ENDBLK
  5
284
330
221
100
AcDbEntity
  8
0
  6
ByBlock
 62
     0
100
AcDbBlockEnd
  0
BLOCK
  5
285
330
222
100
AcDbEntity
  8
0
100
AcDbBlockBegin
  2
*D3
 70
     1
 10
0.0
 20
0.0
 30
0.0
  3
*D3
  1

  0
MTEXT
  5
286
330
222
100
AcDbEntity
  8
0
  6
Continuous
 62
     2
100
AcDbMText
 10
275.5493668369
 20
134.7457831995
 30
0.0
 40
3.0
 41
6.9925650558
 46
0.0
 71
     2
 72
     1
  1
120
 73
     1
 44
1.0
  0
LINE
  5
287
330
222
100
AcDbEntity
  8
0
  6
Continuous
 62
     2
100
AcDbLine
 10
335.5503130325
 20
147.1382938759
 30
0.0
 11
335.5503130325
 21
130.2457831995
 31
0.0
  0
LINE
  5
288
330
222
100
AcDbEntity
  8
0
  6
Continuous
 62
     2
100
AcDbLine
 10
215.5484206412
 20
155.8970159967
 30
0.0
 11
215.5484206412
 21
130.2457831995
 31
0.0
  0
LINE
  5
289
330
222
100
AcDbEntity
  8
0
  6
Continuous
 62
     2
100
AcDbLine
 10
335.5503130325
 20
130.9957831995
 30
0.0
 11
275.5493668369
 21
130.9957831995
 31
0.0
  0
LINE
  5
28A
330
222
100
AcDbEntity
  8
0
  6
Continuous
 62
     2
100
AcDbLine
 10
215.5484206412
 20
130.9957831995
 30
0.0
 11
275.5493668369
 21
130.9957831995
 31
0.0
  0
INSERT
  5
28B
330
222
100
AcDbEntity
  8
0
  6
Continuous
 62
     2
100
AcDbBlockReference
  2
_CLOSED
 10
335.5503130325
 20
130.9957831995
 30
0.0
 41
2.5
 42
2.5
 43
2.5
  0
INSERT
  5
28C
330
222
100
AcDbEntity
  8
0
  6
Continuous
 62
     2
100
AcDbBlockReference
  2
_CLOSED
 10
215.5484206412
 20
130.9957831995
 30
0.0
 41
2.5
 42
2.5
 43
2.5
 50
180.0
  0
ENDBLK
  5
28D
330
222
100
AcDbEntity
  8
0
  6
ByBlock
 62
     0
100
AcDbBlockEnd
  0
BLOCK
  5
229
330
223
100
AcDbEntity
  8
0
100
AcDbBlockBegin
  2
LOGO2_BL1
 70
     0
 10
293.8414894261
 20
42.0331558006
 30
0.0
  3
LOGO2_BL1
  1

  0
LINE
  5
22A
330
223
100
AcDbEntity
  8
0
  6
Continuous
 62
     7
100
AcDbLine
 10
285.5844146543
 20
45.2286471394
 30
0.0
 11
284.2800737249
 21
45.2286471394
 31
0.0
  0
LINE
  5
22B
330
223
100
AcDbEntity
  8
0
  6
Continuous
 62
     7
100
AcDbLine
 10
284.2800737249
 20
45.2286471394
 30
0.0
 11
284.2800737249
 21
34.7695810796
 31
0.0
  0
LINE
  5
22C
330
223
100
AcDbEntity
  8
0
  6
Continuous
 62
     7
100
AcDbLine
 10
284.2800737249
 20
34.7695810796
 30
0.0
 11
288.7611286132
 21
34.7695810796
 31
0.0
  0
LINE
  5
22D
330
223
100
AcDbEntity
  8
0
  6
Continuous
 62
     7
100
AcDbLine
 10
288.7611286132
 20
34.7695810796
 30
0.0
 11
288.7611286132
 21
35.9624354046
 31
0.0
  0
LINE
  5
22E
330
223
100
AcDbEntity
  8
0
  6
Continuous
 62
     7
100
AcDbLine
 10
288.7611286132
 20
35.9624354046
 30
0.0
 11
285.5844146543
 21
35.9624354046
 31
0.0
  0
LINE
  5
22F
330
223
100
AcDbEntity
  8
0
  6
Continuous
 62
     7
100
AcDbLine
 10
285.5844146543
 20
35.9624354046
 30
0.0
 11
285.5844146543
 21
45.2286471394
 31
0.0
  0
LINE
  5
230
330
223
100
AcDbEntity
  8
0
  6
Continuous
 62
     7
100
AcDbLine
 10
300.5207408706
 20
45.2286471394
 30
0.0
 11
299.2169233525
 21
45.2286471394
 31
0.0
  0
LINE
  5
231
330
223
100
AcDbEntity
  8
0
  6
Continuous
 62
     7
100
AcDbLine
 10
299.2169233525
 20
45.2286471394
 30
0.0
 11
299.2169233525
 21
34.7695810796
 31
0.0
  0
LINE
  5
232
330
223
100
AcDbEntity
  8
0
  6
Continuous
 62
     7
100
AcDbLine
 10
299.2169233525
 20
34.7695810796
 30
0.0
 11
303.6981090936
 21
34.7695810796
 31
0.0
  0
LINE
  5
233
330
223
100
AcDbEntity
  8
0
  6
Continuous
 62
     7
100
AcDbLine
 10
303.6981090936
 20
34.7695810796
 30
0.0
 11
303.6981090936
 21
35.9624354046
 31
0.0
  0
LINE
  5
234
330
223
100
AcDbEntity
  8
0
  6
Continuous
 62
     7
100
AcDbLine
 10
303.6981090936
 20
35.9624354046
 30
0.0
 11
300.5207408706
 21
35.9624354046
 31
0.0
  0
LINE
  5
235
330
223
100
AcDbEntity
  8
0
  6
Continuous
 62
     7
100
AcDbLine
 10
300.5207408706
 20
35.9624354046
 30
0.0
 11
300.5207408706
 21
45.2286471394
 31
0.0
  0
LWPOLYLINE
  5
236
330
223
100
AcDbEntity
  8
0
  6
Continuous
 62
     7
100
AcDbPolyline
 90
        2
 70
     0
 43
0.2
 10
282.6344686359
 20
31.4260297726
 10
282.6344686359
 20
29.5689665233
  0
LWPOLYLINE
  5
237
330
223
100
AcDbEntity
  8
0
  6
Continuous
 62
     7
100
AcDbPolyline
 90
        2
 70
     0
 43
0.2
 10
282.6344686359
 20
29.5689665233
 10
283.4301846463
 20
29.5689665233
  0
LWPOLYLINE
  5
238
330
223
100
AcDbEntity
  8
0
  6
Continuous
 62
     7
100
AcDbPolyline
 90
        2
 70
     0
 43
0.2
 10
283.4301846463
 20
29.5689665233
 10
283.4301846463
 20
29.7809480949
  0
LWPOLYLINE
  5
239
330
223
100
AcDbEntity
  8
0
  6
Continuous
 62
     7
100
AcDbPolyline
 90
        2
 70
     0
 43
0.2
 10
283.4301846463
 20
29.7809480949
 10
282.8660781308
 20
29.7809480949
  0
LWPOLYLINE
  5
23A
330
223
100
AcDbEntity
  8
0
  6
Continuous
 62
     7
100
AcDbPolyline
 90
        2
 70
     0
 43
0.2
 10
282.8660781308
 20
29.7809480949
 10
282.8660781308
 20
31.4260297726
  0
LWPOLYLINE
  5
23B
330
223
100
AcDbEntity
  8
0
  6
Continuous
 62
     7
100
AcDbPolyline
 90
        2
 70
     0
 43
0.2
 10
282.8660781308
 20
31.4260297726
 10
282.6344686359
 20
31.4260297726
  0
SPLINE
  5
23C
330
223
100
AcDbEntity
  8
0
  6
Continuous
 62
     7
100
AcDbSpline
210
0.0
220
0.0
230
1.0
 70
    11
 71
     3
 72
    35
 73
    31
 74
     0
 42
0.000000001
 43
0.0000001
 40
0.0
 40
0.0
 40
0.0
 40
0.0
 40
1.0
 40
1.0
 40
1.0
 40
2.0
 40
2.0
 40
2.0
 40
3.0
 40
3.0
 40
3.0
 40
4.0
 40
4.0
 40
4.0
 40
5.0
 40
5.0
 40
5.0
 40
6.0
 40
6.0
 40
6.0
 40
7.0
 40
7.0
 40
7.0
 40
8.0
 40
8.0
 40
8.0
 40
9.0
 40
9.0
 40
9.0
 40
10.0
 40
10.0
 40
10.0
 40
10.0
 10
284.8284779018
 20
30.7215181792
 30
0.0
 10
284.8284779018
 20
30.7215181792
 30
0.0
 10
284.8284779018
 20
30.0594029
 30
0.0
 10
284.8284779018
 20
30.0594029
 30
0.0
 10
284.8284779018
 20
29.7443093047
 30
0.0
 10
284.9763415906
 20
29.5297106767
 30
0.0
 10
285.3164280749
 20
29.5297106767
 30
0.0
 10
285.6559911479
 20
29.5297106767
 30
0.0
 10
285.8041165424
 20
29.7443093047
 30
0.0
 10
285.8041165424
 20
30.0594029
 30
0.0
 10
285.8041165424
 20
30.0594029
 30
0.0
 10
285.8041165424
 20
30.7215181792
 30
0.0
 10
285.8041165424
 20
30.7215181792
 30
0.0
 10
285.8041165424
 20
30.7215181792
 30
0.0
 10
285.5820593035
 20
30.7215181792
 30
0.0
 10
285.5820593035
 20
30.7215181792
 30
0.0
 10
285.5820593035
 20
30.7215181792
 30
0.0
 10
285.5820593035
 20
30.0845266418
 30
0.0
 10
285.5820593035
 20
30.0845266418
 30
0.0
 10
285.5820593035
 20
29.8987156346
 30
0.0
 10
285.5353448461
 20
29.7359347241
 30
0.0
 10
285.3164280749
 20
29.7359347241
 30
0.0
 10
285.0969878925
 20
29.7359347241
 30
0.0
 10
285.050273435
 20
29.8987156346
 30
0.0
 10
285.050273435
 20
30.0845266418
 30
0.0
 10
285.050273435
 20
30.0845266418
 30
0.0
 10
285.050273435
 20
30.7215181792
 30
0.0
 10
285.050273435
 20
30.7215181792
 30
0.0
 10
285.050273435
 20
30.7215181792
 30
0.0
 10
284.8284779018
 20
30.7215181792
 30
0.0
 10
284.8284779018
 20
30.7215181792
 30
0.0
  0
SPLINE
  5
23D
330
223
100
AcDbEntity
  8
0
  6
Continuous
 62
     7
100
AcDbSpline
210
0.0
220
0.0
230
1.0
 70
    11
 71
     3
 72
    35
 73
    31
 74
     0
 42
0.000000001
 43
0.0000001
 40
0.0
 40
0.0
 40
0.0
 40
0.0
 40
1.0
 40
1.0
 40
1.0
 40
2.0
 40
2.0
 40
2.0
 40
3.0
 40
3.0
 40
3.0
 40
4.0
 40
4.0
 40
4.0
 40
5.0
 40
5.0
 40
5.0
 40
6.0
 40
6.0
 40
6.0
 40
7.0
 40
7.0
 40
7.0
 40
8.0
 40
8.0
 40
8.0
 40
9.0
 40
9.0
 40
9.0
 40
10.0
 40
10.0
 40
10.0
 40
10.0
 10
288.2272490996
 20
30.6801686874
 30
0.0
 10
288.1387925919
 20
30.7314629936
 30
0.0
 10
288.0253431953
 20
30.7565867355
 30
0.0
 10
287.9217077603
 20
30.7565867355
 30
0.0
 10
287.5668349071
 20
30.7565867355
 30
0.0
 10
287.2913897169
 20
30.4927874464
 30
0.0
 10
287.2913897169
 20
30.1352975367
 30
0.0
 10
287.2913897169
 20
29.790369498
 30
0.0
 10
287.569844522
 20
29.530234088
 30
0.0
 10
287.909407595
 20
29.530234088
 30
0.0
 10
288.0253431953
 20
29.530234088
 30
0.0
 10
288.1260998682
 20
29.5522173621
 30
0.0
 10
288.2272490996
 20
29.6061287247
 30
0.0
 10
288.2272490996
 20
29.6061287247
 30
0.0
 10
288.2272490996
 20
29.8887708202
 30
0.0
 10
288.2272490996
 20
29.8887708202
 30
0.0
 10
288.1433724407
 20
29.7956036109
 30
0.0
 10
288.0398678585
 20
29.7364581354
 30
0.0
 10
287.9117629458
 20
29.7364581354
 30
0.0
 10
287.6780598058
 20
29.7364581354
 30
0.0
 10
287.5127926917
 20
29.9086604491
 30
0.0
 10
287.5127926917
 20
30.1452423512
 30
0.0
 10
287.5127926917
 20
30.3572239228
 30
0.0
 10
287.6805460094
 20
30.5493158655
 30
0.0
 10
287.8973691354
 20
30.5493158655
 30
0.0
 10
288.0301847497
 20
30.5493158655
 30
0.0
 10
288.1387925919
 20
30.4954045028
 30
0.0
 10
288.2272490996
 20
30.3943861242
 30
0.0
 10
288.2272490996
 20
30.3943861242
 30
0.0
 10
288.2272490996
 20
30.6801686874
 30
0.0
 10
288.2272490996
 20
30.6801686874
 30
0.0
  0
SPLINE
  5
23E
330
223
100
AcDbEntity
  8
0
  6
Continuous
 62
     7
100
AcDbSpline
210
0.0
220
0.0
230
1.0
 70
    11
 71
     3
 72
    32
 73
    28
 74
     0
 42
0.000000001
 43
0.0000001
 40
0.0
 40
0.0
 40
0.0
 40
0.0
 40
1.0
 40
1.0
 40
1.0
 40
2.0
 40
2.0
 40
2.0
 40
3.0
 40
3.0
 40
3.0
 40
4.0
 40
4.0
 40
4.0
 40
5.0
 40
5.0
 40
5.0
 40
6.0
 40
6.0
 40
6.0
 40
7.0
 40
7.0
 40
7.0
 40
8.0
 40
8.0
 40
8.0
 40
9.0
 40
9.0
 40
9.0
 40
9.0
 10
290.7591203518
 20
30.1086035611
 30
0.0
 10
290.7591203518
 20
30.1086035611
 30
0.0
 10
290.7591203518
 20
30.1426252948
 30
0.0
 10
290.7591203518
 20
30.1426252948
 30
0.0
 10
290.7591203518
 20
30.484936277
 30
0.0
 10
290.586263774
 20
30.7565867355
 30
0.0
 10
290.2196141669
 20
30.7565867355
 30
0.0
 10
289.8479921525
 20
30.7565867355
 30
0.0
 10
289.6582555606
 20
30.4901703899
 30
0.0
 10
289.6582555606
 20
30.1352975367
 30
0.0
 10
289.6582555606
 20
29.7956036109
 30
0.0
 10
289.8723307774
 20
29.5297106767
 30
0.0
 10
290.2244557213
 20
29.5297106767
 30
0.0
 10
290.4484757525
 20
29.5297106767
 30
0.0
 10
290.6506433624
 20
29.6453845713
 30
0.0
 10
290.7591203518
 20
29.844804272
 30
0.0
 10
290.7591203518
 20
29.844804272
 30
0.0
 10
290.5714774051
 20
29.9515801747
 30
0.0
 10
290.5714774051
 20
29.9515801747
 30
0.0
 10
290.4879933047
 20
29.8128761834
 30
0.0
 10
290.3967888878
 20
29.7270367322
 30
0.0
 10
290.2272036305
 20
29.7270367322
 30
0.0
 10
290.015222059
 20
29.7270367322
 30
0.0
 10
289.8822755918
 20
29.9118009168
 30
0.0
 10
289.879920241
 20
30.1086035611
 30
0.0
 10
289.879920241
 20
30.1086035611
 30
0.0
 10
290.7591203518
 20
30.1086035611
 30
0.0
 10
290.7591203518
 20
30.1086035611
 30
0.0
  0
SPLINE
  5
23F
330
223
100
AcDbEntity
  8
0
  6
Continuous
 62
     7
100
AcDbSpline
210
0.0
220
0.0
230
1.0
 70
    11
 71
     3
 72
    14
 73
    10
 74
     0
 42
0.000000001
 43
0.0000001
 40
0.0
 40
0.0
 40
0.0
 40
0.0
 40
1.0
 40
1.0
 40
1.0
 40
2.0
 40
2.0
 40
2.0
 40
3.0
 40
3.0
 40
3.0
 40
3.0
 10
289.8919587007
 20
30.2760951732
 30
0.0
 10
289.9195686461
 20
30.4409697289
 30
0.0
 10
290.0474118532
 20
30.5639713815
 30
0.0
 10
290.2196141669
 20
30.5639713815
 30
0.0
 10
290.3967888878
 20
30.5639713815
 30
0.0
 10
290.5102382845
 20
30.4482974869
 30
0.0
 10
290.5374556714
 20
30.2760951732
 30
0.0
 10
290.5374556714
 20
30.2760951732
 30
0.0
 10
289.8919587007
 20
30.2760951732
 30
0.0
 10
289.8919587007
 20
30.2760951732
 30
0.0
  0
SPLINE
  5
240
330
223
100
AcDbEntity
  8
0
  6
Continuous
 62
     7
100
AcDbSpline
210
0.0
220
0.0
230
1.0
 70
    11
 71
     3
 72
    20
 73
    16
 74
     0
 42
0.000000001
 43
0.0000001
 40
0.0
 40
0.0
 40
0.0
 40
0.0
 40
1.0
 40
1.0
 40
1.0
 40
2.0
 40
2.0
 40
2.0
 40
3.0
 40
3.0
 40
3.0
 40
4.0
 40
4.0
 40
4.0
 40
5.0
 40
5.0
 40
5.0
 40
5.0
 10
292.783151802
 20
30.4854596883
 30
0.0
 10
292.783151802
 20
30.4854596883
 30
0.0
 10
293.1942913687
 20
29.982984852
 30
0.0
 10
293.1942913687
 20
29.982984852
 30
0.0
 10
293.0782249156
 20
29.8673109574
 30
0.0
 10
292.940436894
 20
29.7369815467
 30
0.0
 10
292.768496286
 20
29.7369815467
 30
0.0
 10
292.5910598594
 20
29.7369815467
 30
0.0
 10
292.4235682473
 20
29.9013326911
 30
0.0
 10
292.4235682473
 20
30.0782457064
 30
0.0
 10
292.4235682473
 20
30.2562055442
 30
0.0
 10
292.6333253209
 20
30.3823476646
 30
0.0
 10
292.7609068223
 20
30.470280761
 30
0.0
 10
292.7609068223
 20
30.470280761
 30
0.0
 10
292.783151802
 20
30.4854596883
 30
0.0
 10
292.783151802
 20
30.4854596883
 30
0.0
  0
SPLINE
  5
241
330
223
100
AcDbEntity
  8
0
  6
Continuous
 62
     7
100
AcDbSpline
210
0.0
220
0.0
230
1.0
 70
    11
 71
     3
 72
    23
 73
    19
 74
     0
 42
0.000000001
 43
0.0000001
 40
0.0
 40
0.0
 40
0.0
 40
0.0
 40
1.0
 40
1.0
 40
1.0
 40
2.0
 40
2.0
 40
2.0
 40
3.0
 40
3.0
 40
3.0
 40
4.0
 40
4.0
 40
4.0
 40
5.0
 40
5.0
 40
5.0
 40
6.0
 40
6.0
 40
6.0
 40
6.0
 10
292.8324833159
 20
30.7764763644
 30
0.0
 10
292.8324833159
 20
30.7764763644
 30
0.0
 10
292.7708516368
 20
30.8549880576
 30
0.0
 10
292.7708516368
 20
30.8549880576
 30
0.0
 10
292.7169402741
 20
30.9235549363
 30
0.0
 10
292.6601501494
 20
30.9926452263
 30
0.0
 10
292.6601501494
 20
31.0863358468
 30
0.0
 10
292.6601501494
 20
31.2051502092
 30
0.0
 10
292.7560652679
 20
31.2826150798
 30
0.0
 10
292.8670284609
 20
31.2826150798
 30
0.0
 10
292.9902918192
 20
31.2826150798
 30
0.0
 10
293.0835898813
 20
31.2114311446
 30
0.0
 10
293.0835898813
 20
31.0811017339
 30
0.0
 10
293.0835898813
 20
30.9460616217
 30
0.0
 10
292.9554849686
 20
30.8696435736
 30
0.0
 10
292.8619252009
 20
30.795842582
 30
0.0
 10
292.8619252009
 20
30.795842582
 30
0.0
 10
292.8324833159
 20
30.7764763644
 30
0.0
 10
292.8324833159
 20
30.7764763644
 30
0.0
  0
SPLINE
  5
242
330
223
100
AcDbEntity
  8
0
  6
Continuous
 62
     7
100
AcDbSpline
210
0.0
220
0.0
230
1.0
 70
    11
 71
     3
 72
    50
 73
    46
 74
     0
 42
0.000000001
 43
0.0000001
 40
0.0
 40
0.0
 40
0.0
 40
0.0
 40
1.0
 40
1.0
 40
1.0
 40
2.0
 40
2.0
 40
2.0
 40
3.0
 40
3.0
 40
3.0
 40
4.0
 40
4.0
 40
4.0
 40
5.0
 40
5.0
 40
5.0
 40
6.0
 40
6.0
 40
6.0
 40
7.0
 40
7.0
 40
7.0
 40
8.0
 40
8.0
 40
8.0
 40
9.0
 40
9.0
 40
9.0
 40
10.0
 40
10.0
 40
10.0
 40
11.0
 40
11.0
 40
11.0
 40
12.0
 40
12.0
 40
12.0
 40
13.0
 40
13.0
 40
13.0
 40
14.0
 40
14.0
 40
14.0
 40
15.0
 40
15.0
 40
15.0
 40
15.0
 10
293.5346395586
 20
29.5694899346
 30
0.0
 10
293.5346395586
 20
29.5694899346
 30
0.0
 10
293.8200295633
 20
29.5694899346
 30
0.0
 10
293.8200295633
 20
29.5694899346
 30
0.0
 10
293.8200295633
 20
29.5694899346
 30
0.0
 10
293.4876633955
 20
29.9803677955
 30
0.0
 10
293.4876633955
 20
29.9803677955
 30
0.0
 10
293.4876633955
 20
29.9803677955
 30
0.0
 10
293.7141696303
 20
30.2462607298
 30
0.0
 10
293.7141696303
 20
30.2462607298
 30
0.0
 10
293.7141696303
 20
30.2462607298
 30
0.0
 10
293.565913383
 20
30.3990968258
 30
0.0
 10
293.565913383
 20
30.3990968258
 30
0.0
 10
293.565913383
 20
30.3990968258
 30
0.0
 10
293.3500062268
 20
30.1478594077
 30
0.0
 10
293.3500062268
 20
30.1478594077
 30
0.0
 10
293.3500062268
 20
30.1478594077
 30
0.0
 10
292.9629435794
 20
30.615789099
 30
0.0
 10
292.9629435794
 20
30.615789099
 30
0.0
 10
293.1183967319
 20
30.7298927598
 30
0.0
 10
293.3006747129
 20
30.8696435736
 30
0.0
 10
293.3006747129
 20
31.0790080888
 30
0.0
 10
293.3006747129
 20
31.3229177489
 30
0.0
 10
293.0986379558
 20
31.4663324418
 30
0.0
 10
292.872131721
 20
31.4663324418
 30
0.0
 10
292.6279603552
 20
31.4663324418
 30
0.0
 10
292.443588729
 20
31.3155899909
 30
0.0
 10
292.443588729
 20
31.0591184598
 30
0.0
 10
292.443588729
 20
30.9015716622
 30
0.0
 10
292.5422517568
 20
30.7639144935
 30
0.0
 10
292.6475882785
 20
30.6529513005
 30
0.0
 10
292.6475882785
 20
30.6529513005
 30
0.0
 10
292.5320452367
 20
30.5692054944
 30
0.0
 10
292.5320452367
 20
30.5692054944
 30
0.0
 10
292.3543471045
 20
30.4409697289
 30
0.0
 10
292.2070068269
 20
30.3132573746
 30
0.0
 10
292.2070068269
 20
30.0761520612
 30
0.0
 10
292.2070068269
 20
29.755824353
 30
0.0
 10
292.4655720031
 20
29.5297106767
 30
0.0
 10
292.7759548968
 20
29.5297106767
 30
0.0
 10
292.994871668
 20
29.5297106767
 30
0.0
 10
293.1920668707
 20
29.6548059745
 30
0.0
 10
293.3323410958
 20
29.8207273527
 30
0.0
 10
293.3323410958
 20
29.8207273527
 30
0.0
 10
293.5346395586
 20
29.5694899346
 30
0.0
 10
293.5346395586
 20
29.5694899346
 30
0.0
  0
LWPOLYLINE
  5
243
330
223
100
AcDbEntity
  8
0
  6
Continuous
 62
     7
100
AcDbPolyline
 90
        2
 70
     0
 43
0.2
 10
295.4700836483
 20
31.4260297726
 10
295.2387358591
 20
31.4260297726
  0
LWPOLYLINE
  5
244
330
223
100
AcDbEntity
  8
0
  6
Continuous
 62
     7
100
AcDbPolyline
 90
        2
 70
     0
 43
0.2
 10
295.2387358591
 20
31.4260297726
 10
295.2387358591
 20
29.5689665233
  0
LWPOLYLINE
  5
245
330
223
100
AcDbEntity
  8
0
  6
Continuous
 62
     7
100
AcDbPolyline
 90
        2
 70
     0
 43
0.2
 10
295.2387358591
 20
29.5689665233
 10
296.034059311
 20
29.5689665233
  0
LWPOLYLINE
  5
246
330
223
100
AcDbEntity
  8
0
  6
Continuous
 62
     7
100
AcDbPolyline
 90
        2
 70
     0
 43
0.2
 10
296.034059311
 20
29.5689665233
 10
296.034059311
 20
29.7809480949
  0
LWPOLYLINE
  5
247
330
223
100
AcDbEntity
  8
0
  6
Continuous
 62
     7
100
AcDbPolyline
 90
        2
 70
     0
 43
0.2
 10
296.034059311
 20
29.7809480949
 10
295.4700836483
 20
29.7809480949
  0
LWPOLYLINE
  5
248
330
223
100
AcDbEntity
  8
0
  6
Continuous
 62
     7
100
AcDbPolyline
 90
        2
 70
     0
 43
0.2
 10
295.4700836483
 20
29.7809480949
 10
295.4700836483
 20
31.4260297726
  0
LWPOLYLINE
  5
249
330
223
100
AcDbEntity
  8
0
  6
Continuous
 62
     7
100
AcDbPolyline
 90
        2
 70
     0
 43
0.2
 10
297.7131627225
 20
30.7215181792
 10
297.4920214534
 20
30.7215181792
  0
LWPOLYLINE
  5
24A
330
223
100
AcDbEntity
  8
0
  6
Continuous
 62
     7
100
AcDbPolyline
 90
        2
 70
     0
 43
0.2
 10
297.4920214534
 20
30.7215181792
 10
297.4920214534
 20
29.5694899346
  0
LWPOLYLINE
  5
24B
330
223
100
AcDbEntity
  8
0
  6
Continuous
 62
     7
100
AcDbPolyline
 90
        2
 70
     0
 43
0.2
 10
297.4920214534
 20
29.5694899346
 10
297.7131627225
 20
29.5694899346
  0
LWPOLYLINE
  5
24C
330
223
100
AcDbEntity
  8
0
  6
Continuous
 62
     7
100
AcDbPolyline
 90
        2
 70
     0
 43
0.2
 10
297.7131627225
 20
29.5694899346
 10
297.7131627225
 20
30.7215181792
  0
LWPOLYLINE
  5
24D
330
223
100
AcDbEntity
  8
0
  6
Continuous
 62
     7
100
AcDbPolyline
 90
        2
 70
     1
 43
0.2
 10
297.4501394453
 20
31.2514721081
 42
1.0
 10
297.7553064362
 20
31.2514721081
 42
1.0
  0
SPLINE
  5
24E
330
223
100
AcDbEntity
  8
0
  6
Continuous
 62
     7
100
AcDbSpline
210
0.0
220
0.0
230
1.0
 70
    11
 71
     3
 72
    17
 73
    13
 74
     0
 42
0.000000001
 43
0.0000001
 40
0.0
 40
0.0
 40
0.0
 40
0.0
 40
1.0
 40
1.0
 40
1.0
 40
2.0
 40
2.0
 40
2.0
 40
3.0
 40
3.0
 40
3.0
 40
4.0
 40
4.0
 40
4.0
 40
4.0
 10
299.8434466641
 20
29.7270367322
 30
0.0
 10
299.6094818184
 20
29.7270367322
 30
0.0
 10
299.4791524078
 20
29.9290734893
 30
0.0
 10
299.4791524078
 20
30.1452423512
 30
0.0
 10
299.4791524078
 20
30.3598409792
 30
0.0
 10
299.614977637
 20
30.5587372686
 30
0.0
 10
299.8434466641
 20
30.5587372686
 30
0.0
 10
300.0829073283
 20
30.5587372686
 30
0.0
 10
300.2184708519
 20
30.3697857937
 30
0.0
 10
300.2184708519
 20
30.1452423512
 30
0.0
 10
300.2184708519
 20
29.9191286749
 30
0.0
 10
300.0852626791
 20
29.7270367322
 30
0.0
 10
299.8434466641
 20
29.7270367322
 30
0.0
  0
SPLINE
  5
24F
330
223
100
AcDbEntity
  8
0
  6
Continuous
 62
     7
100
AcDbSpline
210
0.0
220
0.0
230
1.0
 70
    11
 71
     3
 72
    50
 73
    46
 74
     0
 42
0.000000001
 43
0.0000001
 40
0.0
 40
0.0
 40
0.0
 40
0.0
 40
1.0
 40
1.0
 40
1.0
 40
2.0
 40
2.0
 40
2.0
 40
3.0
 40
3.0
 40
3.0
 40
4.0
 40
4.0
 40
4.0
 40
5.0
 40
5.0
 40
5.0
 40
6.0
 40
6.0
 40
6.0
 40
7.0
 40
7.0
 40
7.0
 40
8.0
 40
8.0
 40
8.0
 40
9.0
 40
9.0
 40
9.0
 40
10.0
 40
10.0
 40
10.0
 40
11.0
 40
11.0
 40
11.0
 40
12.0
 40
12.0
 40
12.0
 40
13.0
 40
13.0
 40
13.0
 40
14.0
 40
14.0
 40
14.0
 40
15.0
 40
15.0
 40
15.0
 40
15.0
 10
300.4275736614
 20
30.7220415905
 30
0.0
 10
300.4275736614
 20
30.7220415905
 30
0.0
 10
300.205908981
 20
30.7220415905
 30
0.0
 10
300.205908981
 20
30.7220415905
 30
0.0
 10
300.205908981
 20
30.7220415905
 30
0.0
 10
300.205908981
 20
30.5247155349
 30
0.0
 10
300.205908981
 20
30.5247155349
 30
0.0
 10
300.205908981
 20
30.5247155349
 30
0.0
 10
300.2011982794
 20
30.5247155349
 30
0.0
 10
300.2011982794
 20
30.5247155349
 30
0.0
 10
300.1098630096
 20
30.6676068165
 30
0.0
 10
299.9719441353
 20
30.7560633242
 30
0.0
 10
299.7992184103
 20
30.7560633242
 30
0.0
 10
299.4668522425
 20
30.7560633242
 30
0.0
 10
299.257749433
 20
30.4681871158
 30
0.0
 10
299.257749433
 20
30.1525701092
 30
0.0
 10
299.257749433
 20
29.8228209979
 30
0.0
 10
299.4548137829
 20
29.5297106767
 30
0.0
 10
299.8096866361
 20
29.5297106767
 30
0.0
 10
299.9719441353
 20
29.5297106767
 30
0.0
 10
300.1119566548
 20
29.6181671843
 30
0.0
 10
300.2011982794
 20
29.7490200063
 30
0.0
 10
300.2011982794
 20
29.7490200063
 30
0.0
 10
300.205908981
 20
29.7490200063
 30
0.0
 10
300.205908981
 20
29.7490200063
 30
0.0
 10
300.205908981
 20
29.7490200063
 30
0.0
 10
300.205908981
 20
29.5297106767
 30
0.0
 10
300.205908981
 20
29.5297106767
 30
0.0
 10
300.205908981
 20
29.2931287746
 30
0.0
 10
300.1493805619
 20
29.1062709448
 30
0.0
 10
299.8761598696
 20
29.1062709448
 30
0.0
 10
299.6738614068
 20
29.1062709448
 30
0.0
 10
299.5312318309
 20
29.2245618959
 30
0.0
 10
299.5312318309
 20
29.4307859433
 30
0.0
 10
299.5312318309
 20
29.4307859433
 30
0.0
 10
299.3095671505
 20
29.4307859433
 30
0.0
 10
299.3095671505
 20
29.4307859433
 30
0.0
 10
299.3145395577
 20
29.1062709448
 30
0.0
 10
299.5456256413
 20
28.9094683006
 30
0.0
 10
299.8659533495
 20
28.9094683006
 30
0.0
 10
300.3139934119
 20
28.9094683006
 30
0.0
 10
300.4275736614
 20
29.1947274524
 30
0.0
 10
300.4275736614
 20
29.5914732087
 30
0.0
 10
300.4275736614
 20
29.5914732087
 30
0.0
 10
300.4275736614
 20
30.7220415905
 30
0.0
 10
300.4275736614
 20
30.7220415905
 30
0.0
  0
SPLINE
  5
250
330
223
100
AcDbEntity
  8
0
  6
Continuous
 62
     7
100
AcDbSpline
210
0.0
220
0.0
230
1.0
 70
    11
 71
     3
 72
    44
 73
    40
 74
     0
 42
0.000000001
 43
0.0000001
 40
0.0
 40
0.0
 40
0.0
 40
0.0
 40
1.0
 40
1.0
 40
1.0
 40
2.0
 40
2.0
 40
2.0
 40
3.0
 40
3.0
 40
3.0
 40
4.0
 40
4.0
 40
4.0
 40
5.0
 40
5.0
 40
5.0
 40
6.0
 40
6.0
 40
6.0
 40
7.0
 40
7.0
 40
7.0
 40
8.0
 40
8.0
 40
8.0
 40
9.0
 40
9.0
 40
9.0
 40
10.0
 40
10.0
 40
10.0
 40
11.0
 40
11.0
 40
11.0
 40
12.0
 40
12.0
 40
12.0
 40
13.0
 40
13.0
 40
13.0
 40
13.0
 10
301.9964989968
 20
31.7071016342
 30
0.0
 10
301.9964989968
 20
31.7071016342
 30
0.0
 10
301.9964989968
 20
29.5689665233
 30
0.0
 10
301.9964989968
 20
29.5689665233
 30
0.0
 10
301.9964989968
 20
29.5689665233
 30
0.0
 10
302.2179019715
 20
29.5689665233
 30
0.0
 10
302.2179019715
 20
29.5689665233
 30
0.0
 10
302.2179019715
 20
29.5689665233
 30
0.0
 10
302.2179019715
 20
30.0986587466
 30
0.0
 10
302.2179019715
 20
30.0986587466
 30
0.0
 10
302.2179019715
 20
30.308546673
 30
0.0
 10
302.2179019715
 20
30.5592606799
 30
0.0
 10
302.5031611234
 20
30.5592606799
 30
0.0
 10
302.7300599167
 20
30.5592606799
 30
0.0
 10
302.757015598
 20
30.4263142128
 30
0.0
 10
302.757015598
 20
30.2300349799
 30
0.0
 10
302.757015598
 20
30.2300349799
 30
0.0
 10
302.757015598
 20
29.5689665233
 30
0.0
 10
302.757015598
 20
29.5689665233
 30
0.0
 10
302.757015598
 20
29.5689665233
 30
0.0
 10
302.9789419841
 20
29.5689665233
 30
0.0
 10
302.9789419841
 20
29.5689665233
 30
0.0
 10
302.9789419841
 20
29.5689665233
 30
0.0
 10
302.9789419841
 20
30.2562055442
 30
0.0
 10
302.9789419841
 20
30.2562055442
 30
0.0
 10
302.9789419841
 20
30.5367539945
 30
0.0
 10
302.8949344724
 20
30.7565867355
 30
0.0
 10
302.5698960626
 20
30.7565867355
 30
0.0
 10
302.4301452488
 20
30.7565867355
 30
0.0
 10
302.2919646688
 20
30.6901135019
 30
0.0
 10
302.2226126731
 20
30.5671118492
 30
0.0
 10
302.2226126731
 20
30.5671118492
 30
0.0
 10
302.2179019715
 20
30.5671118492
 30
0.0
 10
302.2179019715
 20
30.5671118492
 30
0.0
 10
302.2179019715
 20
30.5671118492
 30
0.0
 10
302.2179019715
 20
31.7071016342
 30
0.0
 10
302.2179019715
 20
31.7071016342
 30
0.0
 10
302.2179019715
 20
31.7071016342
 30
0.0
 10
301.9964989968
 20
31.7071016342
 30
0.0
 10
301.9964989968
 20
31.7071016342
 30
0.0
  0
LWPOLYLINE
  5
251
330
223
100
AcDbEntity
  8
0
  6
Continuous
 62
     7
100
AcDbPolyline
 90
        2
 70
     0
 43
0.2
 10
304.818732661
 20
30.5147707205
 10
305.0351632285
 20
30.5147707205
  0
LWPOLYLINE
  5
252
330
223
100
AcDbEntity
  8
0
  6
Continuous
 62
     7
100
AcDbPolyline
 90
        2
 70
     0
 43
0.2
 10
305.0351632285
 20
30.5147707205
 10
305.0351632285
 20
30.7215181792
  0
LWPOLYLINE
  5
253
330
223
100
AcDbEntity
  8
0
  6
Continuous
 62
     7
100
AcDbPolyline
 90
        2
 70
     0
 43
0.2
 10
305.0351632285
 20
30.7215181792
 10
304.818732661
 20
30.7215181792
  0
LWPOLYLINE
  5
254
330
223
100
AcDbEntity
  8
0
  6
Continuous
 62
     7
100
AcDbPolyline
 90
        2
 70
     0
 43
0.2
 10
304.818732661
 20
30.7215181792
 10
304.818732661
 20
31.1622304836
  0
LWPOLYLINE
  5
255
330
223
100
AcDbEntity
  8
0
  6
Continuous
 62
     7
100
AcDbPolyline
 90
        2
 70
     0
 43
0.2
 10
304.818732661
 20
31.1622304836
 10
304.5970679806
 20
31.1622304836
  0
LWPOLYLINE
  5
256
330
223
100
AcDbEntity
  8
0
  6
Continuous
 62
     7
100
AcDbPolyline
 90
        2
 70
     0
 43
0.2
 10
304.5970679806
 20
31.1622304836
 10
304.5970679806
 20
30.7215181792
  0
LWPOLYLINE
  5
257
330
223
100
AcDbEntity
  8
0
  6
Continuous
 62
     7
100
AcDbPolyline
 90
        2
 70
     0
 43
0.2
 10
304.5970679806
 20
30.7215181792
 10
304.4764216787
 20
30.7215181792
  0
LWPOLYLINE
  5
258
330
223
100
AcDbEntity
  8
0
  6
Continuous
 62
     7
100
AcDbPolyline
 90
        2
 70
     0
 43
0.2
 10
304.4764216787
 20
30.7215181792
 10
304.4764216787
 20
30.5147707205
  0
LWPOLYLINE
  5
259
330
223
100
AcDbEntity
  8
0
  6
Continuous
 62
     7
100
AcDbPolyline
 90
        2
 70
     0
 43
0.2
 10
304.4764216787
 20
30.5147707205
 10
304.5970679806
 20
30.5147707205
  0
LWPOLYLINE
  5
25A
330
223
100
AcDbEntity
  8
0
  6
Continuous
 62
     7
100
AcDbPolyline
 90
        2
 70
     0
 43
0.2
 10
304.5970679806
 20
30.5147707205
 10
304.5970679806
 20
29.5689665233
  0
LWPOLYLINE
  5
25B
330
223
100
AcDbEntity
  8
0
  6
Continuous
 62
     7
100
AcDbPolyline
 90
        2
 70
     0
 43
0.2
 10
304.5970679806
 20
29.5689665233
 10
304.818732661
 20
29.5689665233
  0
LWPOLYLINE
  5
25C
330
223
100
AcDbEntity
  8
0
  6
Continuous
 62
     7
100
AcDbPolyline
 90
        2
 70
     0
 43
0.2
 10
304.818732661
 20
29.5689665233
 10
304.818732661
 20
30.5147707205
  0
SPLINE
  5
25D
330
223
100
AcDbEntity
  8
0
  6
Continuous
 62
     7
100
AcDbSpline
210
0.0
220
0.0
230
1.0
 70
    11
 71
     3
 72
    20
 73
    16
 74
     0
 42
0.000000001
 43
0.0000001
 40
0.0
 40
0.0
 40
0.0
 40
0.0
 40
1.0
 40
1.0
 40
1.0
 40
2.0
 40
2.0
 40
2.0
 40
3.0
 40
3.0
 40
3.0
 40
4.0
 40
4.0
 40
4.0
 40
5.0
 40
5.0
 40
5.0
 40
5.0
 10
292.6007429682
 20
39.9298929667
 30
0.0
 10
292.6007429682
 20
39.9298929667
 30
0.0
 10
294.9170996227
 20
37.1003315444
 30
0.0
 10
294.9170996227
 20
37.1003315444
 30
0.0
 10
294.2654525693
 20
36.4481610798
 30
0.0
 10
293.4885793653
 20
35.712244809
 30
0.0
 10
292.5173897206
 20
35.712244809
 30
0.0
 10
291.5188518362
 20
35.712244809
 30
0.0
 10
290.5755338426
 20
36.6418232563
 30
0.0
 10
290.5755338426
 20
37.6410154048
 30
0.0
 10
290.5755338426
 20
38.6402075534
 30
0.0
 10
291.7543869157
 20
39.346812792
 30
0.0
 10
292.4759093761
 20
39.8466705719
 30
0.0
 10
292.4759093761
 20
39.8466705719
 30
0.0
 10
292.6007429682
 20
39.9298929667
 30
0.0
 10
292.6007429682
 20
39.9298929667
 30
0.0
  0
SPLINE
  5
25E
330
223
100
AcDbEntity
  8
0
  6
Continuous
 62
     7
100
AcDbSpline
210
0.0
220
0.0
230
1.0
 70
    11
 71
     3
 72
    23
 73
    19
 74
     0
 42
0.000000001
 43
0.0000001
 40
0.0
 40
0.0
 40
0.0
 40
0.0
 40
1.0
 40
1.0
 40
1.0
 40
2.0
 40
2.0
 40
2.0
 40
3.0
 40
3.0
 40
3.0
 40
4.0
 40
4.0
 40
4.0
 40
5.0
 40
5.0
 40
5.0
 40
6.0
 40
6.0
 40
6.0
 40
6.0
 10
292.8781509508
 20
41.5676468864
 30
0.0
 10
292.8781509508
 20
41.5676468864
 30
0.0
 10
292.5316526782
 20
42.0109762472
 30
0.0
 10
292.5316526782
 20
42.0109762472
 30
0.0
 10
292.2258496333
 20
42.3990857172
 30
0.0
 10
291.9069613061
 20
42.7875877456
 30
0.0
 10
291.9069613061
 20
43.3145320597
 30
0.0
 10
291.9069613061
 20
43.9807037763
 30
0.0
 10
292.4482994306
 20
44.4244256956
 30
0.0
 10
293.0722056858
 20
44.4244256956
 30
0.0
 10
293.7659873478
 20
44.4244256956
 30
0.0
 10
294.2931933675
 20
44.0221841209
 30
0.0
 10
294.2931933675
 20
43.2871838199
 30
0.0
 10
294.2931933675
 20
42.5239193093
 30
0.0
 10
293.5719326129
 20
42.0938060835
 30
0.0
 10
293.044857446
 20
41.6780866681
 30
0.0
 10
293.044857446
 20
41.6780866681
 30
0.0
 10
292.8781509508
 20
41.5676468864
 30
0.0
 10
292.8781509508
 20
41.5676468864
 30
0.0
  0
SPLINE
  5
25F
330
223
100
AcDbEntity
  8
0
  6
Continuous
 62
     7
100
AcDbSpline
210
0.0
220
0.0
230
1.0
 70
    11
 71
     3
 72
    50
 73
    46
 74
     0
 42
0.000000001
 43
0.0000001
 40
0.0
 40
0.0
 40
0.0
 40
0.0
 40
1.0
 40
1.0
 40
1.0
 40
2.0
 40
2.0
 40
2.0
 40
3.0
 40
3.0
 40
3.0
 40
4.0
 40
4.0
 40
4.0
 40
5.0
 40
5.0
 40
5.0
 40
6.0
 40
6.0
 40
6.0
 40
7.0
 40
7.0
 40
7.0
 40
8.0
 40
8.0
 40
8.0
 40
9.0
 40
9.0
 40
9.0
 40
10.0
 40
10.0
 40
10.0
 40
11.0
 40
11.0
 40
11.0
 40
12.0
 40
12.0
 40
12.0
 40
13.0
 40
13.0
 40
13.0
 40
14.0
 40
14.0
 40
14.0
 40
15.0
 40
15.0
 40
15.0
 40
15.0
 10
296.8317381137
 20
34.7690576683
 30
0.0
 10
296.8317381137
 20
34.7690576683
 30
0.0
 10
298.4409661183
 20
34.7690576683
 30
0.0
 10
298.4409661183
 20
34.7690576683
 30
0.0
 10
298.4409661183
 20
34.7690576683
 30
0.0
 10
296.5679388246
 20
37.0861994397
 30
0.0
 10
296.5679388246
 20
37.0861994397
 30
0.0
 10
296.5679388246
 20
37.0861994397
 30
0.0
 10
297.8442772501
 20
38.5836791343
 30
0.0
 10
297.8442772501
 20
38.5836791343
 30
0.0
 10
297.8442772501
 20
38.5836791343
 30
0.0
 10
297.0120533024
 20
39.4446907028
 30
0.0
 10
297.0120533024
 20
39.4446907028
 30
0.0
 10
297.0120533024
 20
39.4446907028
 30
0.0
 10
295.7914581791
 20
38.0293865804
 30
0.0
 10
295.7914581791
 20
38.0293865804
 30
0.0
 10
295.7914581791
 20
38.0293865804
 30
0.0
 10
293.6135438102
 20
40.6647624148
 30
0.0
 10
293.6135438102
 20
40.6647624148
 30
0.0
 10
294.4871172497
 20
41.3028007747
 30
0.0
 10
295.5137884909
 20
42.0938060835
 30
0.0
 10
295.5137884909
 20
43.2726591566
 30
0.0
 10
295.5137884909
 20
44.6463520817
 30
0.0
 10
294.375892351
 20
45.4508352311
 30
0.0
 10
293.1006007481
 20
45.4508352311
 30
0.0
 10
291.7271695288
 20
45.4508352311
 30
0.0
 10
290.68623533
 20
44.6046100315
 30
0.0
 10
290.68623533
 20
43.1619576693
 30
0.0
 10
290.68623533
 20
42.2743829779
 30
0.0
 10
291.2415747064
 20
41.4975097738
 30
0.0
 10
291.8377401633
 20
40.8730801074
 30
0.0
 10
291.8377401633
 20
40.8730801074
 30
0.0
 10
291.1858314043
 20
40.401486537
 30
0.0
 10
291.1858314043
 20
40.401486537
 30
0.0
 10
290.1872935198
 20
39.6802257823
 30
0.0
 10
289.354415308
 20
38.9589650277
 30
0.0
 10
289.354415308
 20
37.6274067113
 30
0.0
 10
289.354415308
 20
35.8237314133
 30
0.0
 10
290.8114614806
 20
34.5471312822
 30
0.0
 10
292.559000918
 20
34.5471312822
 30
0.0
 10
293.7938589989
 20
34.5471312822
 30
0.0
 10
294.9032292236
 20
35.2553067547
 30
0.0
 10
295.6941036795
 20
36.1838383794
 30
0.0
 10
295.6941036795
 20
36.1838383794
 30
0.0
 10
296.8317381137
 20
34.7690576683
 30
0.0
 10
296.8317381137
 20
34.7690576683
 30
0.0
  0
LINE
  5
260
330
223
100
AcDbEntity
  8
0
  6
Continuous
 62
     7
100
AcDbLine
 10
282.6345994887
 20
32.7429325729
 30
0.0
 11
305.0485102163
 21
32.7429325729
 31
0.0
  0
LINE
  5
261
330
223
100
AcDbEntity
  8
0
  6
Continuous
 62
     7
100
AcDbLine
 10
305.0485102163
 20
32.7429325729
 30
0.0
 11
305.0485102163
 21
55.1568433006
 31
0.0
  0
LINE
  5
262
330
223
100
AcDbEntity
  8
0
  6
Continuous
 62
     7
100
AcDbLine
 10
305.0485102163
 20
55.1568433006
 30
0.0
 11
282.6345994887
 21
55.1568433006
 31
0.0
  0
LINE
  5
263
330
223
100
AcDbEntity
  8
0
  6
Continuous
 62
     7
100
AcDbLine
 10
282.6345994887
 20
55.1568433006
 30
0.0
 11
282.6345994887
 21
32.7429325729
 31
0.0
  0
ENDBLK
  5
264
330
223
100
AcDbEntity
  8
0
  6
ByBlock
 62
     0
100
AcDbBlockEnd
  0
BLOCK
  5
265
330
224
100
AcDbEntity
  8
0
100
AcDbBlockBegin
  2
PROIEZIONE_EU_BL0
 70
     0
 10
295.0154423813
 20
67.6581558006
 30
0.0
  3
PROIEZIONE_EU_BL0
  1

  0
LWPOLYLINE
  5
266
330
224
100
AcDbEntity
  8
DEFAULT_1
  6
CENTER
 62
     7
100
AcDbPolyline
 90
        2
 70
     0
 43
0.25
 10
301.142063043
 20
72.6578499324
 10
301.1421040254
 20
62.6584616687
  0
LWPOLYLINE
  5
267
330
224
100
AcDbEntity
  8
DEFAULT_1
  6
CENTER
 62
     7
100
AcDbPolyline
 90
        2
 70
     0
 43
0.25
 10
307.1420928681
 20
67.6584269357
 10
282.8887918946
 20
67.6581562753
  0
LWPOLYLINE
  5
268
330
224
100
AcDbEntity
  8
0
  6
Continuous
 62
     7
100
AcDbPolyline
 90
        2
 70
     1
 43
0.25
 10
297.5949528672
 20
67.6396080464
 42
1.0
 10
304.7012819658
 20
67.6396080464
 42
1.0
  0
LWPOLYLINE
  5
269
330
224
100
AcDbEntity
  8
0
  6
Continuous
 62
     7
100
AcDbPolyline
 90
        2
 70
     1
 43
0.25
 10
299.1446966956
 20
67.657506091
 42
1.0
 10
303.1564484456
 20
67.657506091
 42
1.0
  0
LWPOLYLINE
  5
26A
330
224
100
AcDbEntity
  8
0
  6
Continuous
 62
     7
100
AcDbPolyline
 90
        2
 70
     0
 43
0.25
 10
295.1420906621
 20
71.2333592958
 10
295.1420903075
 20
64.1331563875
  0
LWPOLYLINE
  5
26B
330
224
100
AcDbEntity
  8
0
  6
Continuous
 62
     7
100
AcDbPolyline
 90
        2
 70
     0
 43
0.25
 10
295.1421187439
 20
64.1331279511
 10
285.1475614727
 20
65.653221364
  0
LWPOLYLINE
  5
26C
330
224
100
AcDbEntity
  8
0
  6
Continuous
 62
     7
100
AcDbPolyline
 90
        2
 70
     0
 43
0.25
 10
285.1452514871
 20
65.6525438224
 10
285.142584583
 20
69.6581824338
  0
LWPOLYLINE
  5
26D
330
224
100
AcDbEntity
  8
0
  6
Continuous
 62
     7
100
AcDbPolyline
 90
        2
 70
     0
 43
0.25
 10
285.1425763069
 20
69.6581741578
 10
295.1423195442
 20
71.2333313778
  0
ENDBLK
  5
26E
330
224
100
AcDbEntity
  8
0
  6
ByBlock
 62
     0
100
AcDbBlockEnd
  0
ENDSEC
  0
SECTION
  2
ENTITIES
  0
LINE
  5
28E
330
1B
100
AcDbEntity
 67
     1
  8
0
  6
Continuous
 62
     7
100
AcDbLine
 10
0.0
 20
0.0
 30
0.0
 11
420.0
 21
0.0
 31
0.0
  0
LINE
  5
28F
330
1B
100
AcDbEntity
 67
     1
  8
0
  6
Continuous
 62
     7
100
AcDbLine
 10
420.0
 20
0.0
 30
0.0
 11
420.0
 21
297.0
 31
0.0
  0
LINE
  5
290
330
1B
100
AcDbEntity
 67
     1
  8
0
  6
Continuous
 62
     7
100
AcDbLine
 10
0.0
 20
297.0
 30
0.0
 11
420.0
 21
297.0
 31
0.0
  0
LINE
  5
291
330
1B
100
AcDbEntity
 67
     1
  8
0
  6
Continuous
 62
     7
100
AcDbLine
 10
0.0
 20
0.0
 30
0.0
 11
0.0
 21
297.0
 31
0.0
  0
LWPOLYLINE
  5
292
330
1B
100
AcDbEntity
 67
     1
  8
0
  6
Continuous
 62
     7
100
AcDbPolyline
 90
        2
 70
     0
 43
0.5
 10
410.0
 20
10.0318435754
 10
410.0
 20
287.0
  0
LWPOLYLINE
  5
293
330
1B
100
AcDbEntity
 67
     1
  8
0
  6
Continuous
 62
     7
100
AcDbPolyline
 90
        2
 70
     0
 43
0.5
 10
10.0536312849
 20
10.0318435754
 10
10.0536312849
 20
287.0
  0
LWPOLYLINE
  5
294
330
1B
100
AcDbEntity
 67
     1
  8
0
  6
Continuous
 62
     7
100
AcDbPolyline
 90
        2
 70
     0
 43
0.5
 10
10.0536312849
 20
10.0318435754
 10
410.0
 20
10.0318435754
  0
LWPOLYLINE
  5
295
330
1B
100
AcDbEntity
 67
     1
  8
0
  6
Continuous
 62
     7
100
AcDbPolyline
 90
        2
 70
     0
 43
0.1
 10
210.0
 20
10.0
 10
210.0
 20
0.0
  0
LWPOLYLINE
  5
296
330
1B
100
AcDbEntity
 67
     1
  8
0
  6
Continuous
 62
     7
100
AcDbPolyline
 90
        2
 70
     0
 43
0.1
 10
210.0
 20
287.0
 10
210.0
 20
297.0
  0
LWPOLYLINE
  5
297
330
1B
100
AcDbEntity
 67
     1
  8
0
  6
Continuous
 62
     7
100
AcDbPolyline
 90
        2
 70
     0
 43
0.1
 10
410.0
 20
148.5
 10
420.0
 20
148.5
  0
LWPOLYLINE
  5
298
330
1B
100
AcDbEntity
 67
     1
  8
0
  6
Continuous
 62
     7
100
AcDbPolyline
 90
        2
 70
     0
 43
0.1
 10
10.0
 20
148.5
 10
0.0
 20
148.5
  0
LWPOLYLINE
  5
299
330
1B
100
AcDbEntity
 67
     1
  8
0
  6
Continuous
 62
     7
100
AcDbPolyline
 90
        2
 70
     0
 43
0.5
 10
10.0536312849
 20
287.0
 10
410.0
 20
287.0
  0
LWPOLYLINE
  5
29A
330
1B
100
AcDbEntity
 67
     1
  8
0
  6
Continuous
 62
     7
100
AcDbPolyline
 90
        2
 70
     0
 43
0.1
 10
0.0
 20
290.0
 10
420.0
 20
290.0
  0
LWPOLYLINE
  5
29B
330
1B
100
AcDbEntity
 67
     1
  8
0
  6
Continuous
 62
     7
100
AcDbPolyline
 90
        2
 70
     0
 43
0.1
 10
7.0536312849
 20
0.0
 10
7.0536312849
 20
297.0
  0
LWPOLYLINE
  5
29C
330
1B
100
AcDbEntity
 67
     1
  8
0
  6
Continuous
 62
     7
100
AcDbPolyline
 90
        2
 70
     0
 43
0.1
 10
413.0
 20
0.0
 10
413.0
 20
297.0
  0
LWPOLYLINE
  5
29D
330
1B
100
AcDbEntity
 67
     1
  8
0
  6
Continuous
 62
     7
100
AcDbPolyline
 90
        2
 70
     0
 43
0.1
 10
0.0
 20
7.0318435754
 10
420.0
 20
7.0318435754
  0
LWPOLYLINE
  5
29E
330
1B
100
AcDbEntity
 67
     1
  8
0
  6
Continuous
 62
     7
100
AcDbPolyline
 90
        2
 70
     0
 43
0.1
 10
10.0
 20
202.9681564246
 10
0.0
 20
202.9681564246
  0
LINE
  5
29F
330
1B
100
AcDbEntity
 67
     1
  8
0
  6
Continuous
 62
     7
100
AcDbLine
 10
0.0
 20
99.9681564246
 30
0.0
 11
7.0
 21
99.9681564246
 31
0.0
  0
LINE
  5
2A0
330
1B
100
AcDbEntity
 67
     1
  8
0
  6
Continuous
 62
     7
100
AcDbLine
 10
0.0
 20
199.9681564246
 30
0.0
 11
7.0
 21
199.9681564246
 31
0.0
  0
LWPOLYLINE
  5
2A1
330
1B
100
AcDbEntity
 67
     1
  8
0
  6
Continuous
 62
     7
100
AcDbPolyline
 90
        2
 70
     0
 43
0.1
 10
410.0
 20
210.0
 10
420.0
 20
210.0
  0
LINE
  5
2A2
330
1B
100
AcDbEntity
 67
     1
  8
0
  6
Continuous
 62
     7
100
AcDbLine
 10
413.0
 20
107.0
 30
0.0
 11
420.0
 21
107.0
 31
0.0
  0
LWPOLYLINE
  5
2A3
330
1B
100
AcDbEntity
 67
     1
  8
0
  6
Continuous
 62
     7
100
AcDbPolyline
 90
        2
 70
     0
 43
0.1
 10
123.0
 20
10.0
 10
123.0
 20
0.0
  0
LINE
  5
2A4
330
1B
100
AcDbEntity
 67
     1
  8
0
  6
Continuous
 62
     7
100
AcDbLine
 10
210.0
 20
0.0
 30
0.0
 11
210.0
 21
10.0
 31
0.0
  0
LINE
  5
2A5
330
1B
100
AcDbEntity
 67
     1
  8
0
  6
Continuous
 62
     7
100
AcDbLine
 10
313.0
 20
7.0
 30
0.0
 11
313.0
 21
0.0
 31
0.0
  0
LINE
  5
2A6
330
1B
100
AcDbEntity
 67
     1
  8
0
  6
Continuous
 62
     7
100
AcDbLine
 10
113.0
 20
7.0
 30
0.0
 11
113.0
 21
0.0
 31
0.0
  0
LWPOLYLINE
  5
2A7
330
1B
100
AcDbEntity
 67
     1
  8
0
  6
Continuous
 62
     7
100
AcDbPolyline
 90
        2
 70
     0
 43
0.1
 10
123.0
 20
287.0
 10
123.0
 20
297.0
  0
LINE
  5
2A8
330
1B
100
AcDbEntity
 67
     1
  8
0
  6
Continuous
 62
     7
100
AcDbLine
 10
210.0
 20
287.0
 30
0.0
 11
210.0
 21
297.0
 31
0.0
  0
LINE
  5
2A9
330
1B
100
AcDbEntity
 67
     1
  8
0
  6
Continuous
 62
     7
100
AcDbLine
 10
313.0
 20
297.0
 30
0.0
 11
313.0
 21
290.0
 31
0.0
  0
LINE
  5
2AA
330
1B
100
AcDbEntity
 67
     1
  8
0
  6
Continuous
 62
     7
100
AcDbLine
 10
113.0
 20
297.0
 30
0.0
 11
113.0
 21
290.0
 31
0.0
  0
MTEXT
  5
2AB
330
1B
100
AcDbEntity
 67
     1
  8
0
  6
Continuous
 62
     2
100
AcDbMText
 10
1.6467220993
 20
53.595027386
 30
0.0
 40
4.0
 41
3.4285714286
 46
0.0
 71
     1
 72
     1
  1
1
  7
TEXTSTYLE_2
 73
     1
 44
1.0
  0
MTEXT
  5
2AC
330
1B
100
AcDbEntity
 67
     1
  8
0
  6
Continuous
 62
     2
100
AcDbMText
 10
1.6467220993
 20
153.595027386
 30
0.0
 40
4.0
 41
4.7142857143
 46
0.0
 71
     1
 72
     1
  1
2
  7
TEXTSTYLE_2
 73
     1
 44
1.0
  0
MTEXT
  5
2AD
330
1B
100
AcDbEntity
 67
     1
  8
0
  6
Continuous
 62
     2
100
AcDbMText
 10
1.6467220993
 20
253.595027386
 30
0.0
 40
4.0
 41
4.2857142857
 46
0.0
 71
     1
 72
     1
  1
3
  7
TEXTSTYLE_2
 73
     1
 44
1.0
  0
MTEXT
  5
2AE
330
1B
100
AcDbEntity
 67
     1
  8
0
  6
Continuous
 62
     2
100
AcDbMText
 10
414.6467220993
 20
60.6268709614
 30
0.0
 40
4.0
 41
3.4285714286
 46
0.0
 71
     1
 72
     1
  1
1
  7
TEXTSTYLE_2
 73
     1
 44
1.0
  0
MTEXT
  5
2AF
330
1B
100
AcDbEntity
 67
     1
  8
0
  6
Continuous
 62
     2
100
AcDbMText
 10
414.6467220993
 20
160.6268709614
 30
0.0
 40
4.0
 41
4.7142857143
 46
0.0
 71
     1
 72
     1
  1
2
  7
TEXTSTYLE_2
 73
     1
 44
1.0
  0
MTEXT
  5
2B0
330
1B
100
AcDbEntity
 67
     1
  8
0
  6
Continuous
 62
     2
100
AcDbMText
 10
414.6467220993
 20
260.6268709614
 30
0.0
 40
4.0
 41
4.2857142857
 46
0.0
 71
     1
 72
     1
  1
3
  7
TEXTSTYLE_2
 73
     1
 44
1.0
  0
MTEXT
  5
2B1
330
1B
100
AcDbEntity
 67
     1
  8
0
  6
Continuous
 62
     2
100
AcDbMText
 10
362.154890719
 20
5.35876025
 30
0.0
 40
4.0
 41
3.6
 46
0.0
 71
     1
 72
     1
  1
A
  7
TEXTSTYLE_3
 73
     1
 44
1.0
  0
MTEXT
  5
2B2
330
1B
100
AcDbEntity
 67
     1
  8
0
  6
Continuous
 62
     2
100
AcDbMText
 10
262.154890719
 20
5.35876025
 30
0.0
 40
4.0
 41
3.6
 46
0.0
 71
     1
 72
     1
  1
B
  7
TEXTSTYLE_3
 73
     1
 44
1.0
  0
MTEXT
  5
2B3
330
1B
100
AcDbEntity
 67
     1
  8
0
  6
Continuous
 62
     2
100
AcDbMText
 10
162.154890719
 20
5.35876025
 30
0.0
 40
4.0
 41
3.6
 46
0.0
 71
     1
 72
     1
  1
C
  7
TEXTSTYLE_3
 73
     1
 44
1.0
  0
MTEXT
  5
2B4
330
1B
100
AcDbEntity
 67
     1
  8
0
  6
Continuous
 62
     2
100
AcDbMText
 10
55.7978688212
 20
5.5353441916
 30
0.0
 40
4.0
 41
3.6
 46
0.0
 71
     1
 72
     1
  1
D
  7
TEXTSTYLE_3
 73
     1
 44
1.0
  0
MTEXT
  5
2B5
330
1B
100
AcDbEntity
 67
     1
  8
0
  6
Continuous
 62
     2
100
AcDbMText
 10
362.154890719
 20
295.35876025
 30
0.0
 40
4.0
 41
3.6
 46
0.0
 71
     1
 72
     1
  1
A
  7
TEXTSTYLE_3
 73
     1
 44
1.0
  0
MTEXT
  5
2B6
330
1B
100
AcDbEntity
 67
     1
  8
0
  6
Continuous
 62
     2
100
AcDbMText
 10
262.154890719
 20
295.35876025
 30
0.0
 40
4.0
 41
3.6
 46
0.0
 71
     1
 72
     1
  1
B
  7
TEXTSTYLE_3
 73
     1
 44
1.0
  0
MTEXT
  5
2B7
330
1B
100
AcDbEntity
 67
     1
  8
0
  6
Continuous
 62
     2
100
AcDbMText
 10
162.154890719
 20
295.35876025
 30
0.0
 40
4.0
 41
3.6
 46
0.0
 71
     1
 72
     1
  1
C
  7
TEXTSTYLE_3
 73
     1
 44
1.0
  0
MTEXT
  5
2B8
330
1B
100
AcDbEntity
 67
     1
  8
0
  6
Continuous
 62
     2
100
AcDbMText
 10
53.9878834197
 20
295.579490177
 30
0.0
 40
4.0
 41
3.6
 46
0.0
 71
     1
 72
     1
  1
D
  7
TEXTSTYLE_3
 73
     1
 44
1.0
  0
VIEWPORT
  5
2B9
330
1B
100
AcDbEntity
 67
     1
  8
0
100
AcDbViewport
 10
0.0
 20
0.0
 30
0.0
 40
495.0770428015564
 41
350.0901945525292
 68
     1
 69
     1
 12
234.0175097276264
 22
148.5
 13
0.0
 23
0.0
 14
1.0
 24
1.0
 15
0.0
 25
0.0
 16
0.0
 26
0.0
 36
1.0
 17
0.0
 27
0.0
 37
0.0
 42
50.0
 43
0.0
 44
0.0
 45
350.0901945525292
 50
0.0
 51
0.0
 72
   100
 90
   557216
  1

281
     0
 71
     1
 74
     0
110
0.0
120
0.0
130
0.0
111
1.0
121
0.0
131
0.0
112
0.0
122
1.0
132
0.0
 79
     0
146
0.0
170
     0
 61
     5
348
36C
292
     1
282
     1
141
0.0
142
0.0
 63
   256
361
390
  0
LINE
  5
2BA
330
1B
100
AcDbEntity
 67
     1
  8
3_ALL_AXES
  6
Continuous
 62
     7
100
AcDbLine
 10
105.0597373048
 20
152.8703910445
 30
0.0
 11
105.0597373048
 21
154.8203910445
 31
0.0
  0
LINE
  5
2BB
330
1B
100
AcDbEntity
 67
     1
  8
3_ALL_AXES
  6
Continuous
 62
     7
100
AcDbLine
 10
105.0597373048
 20
154.8203910445
 30
0.0
 11
105.0597373048
 21
155.1203910445
 31
0.0
  0
LINE
  5
2BC
330
1B
100
AcDbEntity
 67
     1
  8
3_ALL_AXES
  6
Continuous
 62
     7
100
AcDbLine
 10
105.0597373048
 20
155.1203910445
 30
0.0
 11
105.0597373048
 21
158.5203910445
 31
0.0
  0
LINE
  5
2BD
330
1B
100
AcDbEntity
 67
     1
  8
3_ALL_AXES
  6
Continuous
 62
     7
100
AcDbLine
 10
105.0597373048
 20
158.5203910445
 30
0.0
 11
105.0597373048
 21
158.8203910445
 31
0.0
  0
LINE
  5
2BE
330
1B
100
AcDbEntity
 67
     1
  8
3_ALL_AXES
  6
Continuous
 62
     7
100
AcDbLine
 10
105.0597373048
 20
158.8203910445
 30
0.0
 11
105.0597373048
 21
160.7703910445
 31
0.0
  0
LINE
  5
2BF
330
1B
100
AcDbEntity
 67
     1
  8
3_ALL_AXES
  6
Continuous
 62
     7
100
AcDbLine
 10
105.0597373048
 20
160.7703910445
 30
0.0
 11
103.0597373048
 21
160.7703910445
 31
0.0
  0
LINE
  5
2C0
330
1B
100
AcDbEntity
 67
     1
  8
3_ALL_AXES
  6
Continuous
 62
     7
100
AcDbLine
 10
105.0597373048
 20
152.8703910445
 30
0.0
 11
103.0597373048
 21
152.8703910445
 31
0.0
  0
LINE
  5
2C1
330
1B
100
AcDbEntity
 67
     1
  8
3_ALL_AXES
  6
Continuous
 62
     7
100
AcDbLine
 10
102.4597373048
 20
159.5103910445
 30
0.0
 11
102.357919123
 21
159.5103910445
 31
0.0
  0
LINE
  5
2C2
330
1B
100
AcDbEntity
 67
     1
  8
3_ALL_AXES
  6
Continuous
 62
     7
100
AcDbLine
 10
102.4597373048
 20
154.1303910445
 30
0.0
 11
102.357919123
 21
154.1303910445
 31
0.0
  0
ARC
  5
2C3
330
1B
100
AcDbEntity
 67
     1
  8
7_ALL_FEATURES
  6
Continuous
 62
     7
100
AcDbCircle
 10
102.4088282139
 20
218.2631448056
 30
0.0
 40
54.4
100
AcDbArc
 50
272.0839423346
 51
92.4045539438
  0
LINE
  5
2C4
330
1B
100
AcDbEntity
 67
     1
  8
7_ALL_FEATURES
  6
Continuous
 62
     7
100
AcDbLine
 10
102.357919123
 20
156.3203910445
 30
0.0
 11
102.357919123
 21
150.8203910445
 31
0.0
  0
LINE
  5
2C5
330
1B
100
AcDbEntity
 67
     1
  8
7_ALL_FEATURES
  6
Continuous
 62
     7
100
AcDbLine
 10
102.4597373048
 20
150.8203910445
 30
0.0
 11
102.4597373048
 21
156.3203910445
 31
0.0
  0
LINE
  5
2C6
330
1B
100
AcDbEntity
 67
     1
  8
7_ALL_FEATURES
  6
Continuous
 62
     7
100
AcDbLine
 10
101.757919123
 20
150.8203910445
 30
0.0
 11
102.357919123
 21
150.8203910445
 31
0.0
  0
LINE
  5
2C7
330
1B
100
AcDbEntity
 67
     1
  8
7_ALL_FEATURES
  6
Continuous
 62
     7
100
AcDbLine
 10
102.357919123
 20
161.900446397
 30
0.0
 11
102.357919123
 21
156.3203910445
 31
0.0
  0
LINE
  5
2C8
330
1B
100
AcDbEntity
 67
     1
  8
7_ALL_FEATURES
  6
Continuous
 62
     7
100
AcDbLine
 10
102.488266646
 20
163.8300327364
 30
0.0
 11
102.9879359581
 21
163.8482145546
 31
0.0
  0
LINE
  5
2C9
330
1B
100
AcDbEntity
 67
     1
  8
7_ALL_FEATURES
  6
Continuous
 62
     7
100
AcDbLine
 10
101.8297204697
 20
163.8482145546
 30
0.0
 11
102.3293897818
 21
163.8300327364
 31
0.0
  0
LINE
  5
2CA
330
1B
100
AcDbEntity
 67
     1
  8
7_ALL_FEATURES
  6
Continuous
 62
     7
100
AcDbLine
 10
103.0597373048
 20
150.8203910445
 30
0.0
 11
102.4597373048
 21
150.8203910445
 31
0.0
  0
LINE
  5
2CB
330
1B
100
AcDbEntity
 67
     1
  8
7_ALL_FEATURES
  6
Continuous
 62
     7
100
AcDbLine
 10
102.4597373048
 20
161.900446397
 30
0.0
 11
102.4597373048
 21
156.3203910445
 31
0.0
  0
LINE
  5
2CC
330
1B
100
AcDbEntity
 67
     1
  8
7_ALL_FEATURES
  6
Continuous
 62
     7
100
AcDbLine
 10
100.4306463957
 20
163.8991236455
 30
0.0
 11
101.8297204697
 21
163.8482145546
 31
0.0
  0
ARC
  5
2CD
330
1B
100
AcDbEntity
 67
     1
  8
7_ALL_FEATURES
  6
Continuous
 62
     7
100
AcDbCircle
 10
100.357919123
 20
161.900446397
 30
0.0
 40
2.0
100
AcDbArc
 50
0.0
 51
87.91605766540002
  0
ARC
  5
2CE
330
1B
100
AcDbEntity
 67
     1
  8
7_ALL_FEATURES
  6
Continuous
 62
     7
100
AcDbCircle
 10
104.4597373048
 20
161.900446397
 30
0.0
 40
2.0
100
AcDbArc
 50
92.08394233460001
 51
180.0
  0
LINE
  5
2CF
330
1B
100
AcDbEntity
 67
     1
  8
7_ALL_FEATURES
  6
Continuous
 62
     7
100
AcDbLine
 10
104.3870100321
 20
163.8991236455
 30
0.0
 11
102.9879359581
 21
163.8482145546
 31
0.0
  0
LINE
  5
2D0
330
1B
100
AcDbEntity
 67
     1
  8
7_ALL_FEATURES
  6
Continuous
 62
     7
100
AcDbLine
 10
102.3075716
 20
163.2304295618
 30
0.0
 11
102.3293897818
 21
163.8300327364
 31
0.0
  0
LINE
  5
2D1
330
1B
100
AcDbEntity
 67
     1
  8
7_ALL_FEATURES
  6
Continuous
 62
     7
100
AcDbLine
 10
102.5100848278
 20
163.2304295618
 30
0.0
 11
102.488266646
 21
163.8300327364
 31
0.0
  0
ARC
  5
2D2
330
1B
100
AcDbEntity
 67
     1
  8
7_ALL_FEATURES
  6
Continuous
 62
     7
100
AcDbCircle
 10
102.4088282139
 20
218.2631448056
 30
0.0
 40
54.4
100
AcDbArc
 50
92.4045539438
 51
267.9160576653999
  0
LINE
  5
2D3
330
1B
100
AcDbEntity
 67
     1
  8
7_ALL_FEATURES
  6
Continuous
 62
     9
100
AcDbLine
 10
103.0597373048
 20
156.3203910445
 30
0.0
 11
102.4597373048
 21
156.3203910445
 31
0.0
  0
LINE
  5
2D4
330
1B
100
AcDbEntity
 67
     1
  8
7_ALL_FEATURES
  6
Continuous
 62
     9
100
AcDbLine
 10
104.4088282139
 20
163.2995204709
 30
0.0
 11
104.3870100321
 21
163.8991236455
 31
0.0
  0
LINE
  5
2D5
330
1B
100
AcDbEntity
 67
     1
  8
7_ALL_FEATURES
  6
Continuous
 62
     9
100
AcDbLine
 10
102.4597373048
 20
161.900446397
 30
0.0
 11
103.0597373048
 21
161.900446397
 31
0.0
  0
LINE
  5
2D6
330
1B
100
AcDbEntity
 67
     1
  8
7_ALL_FEATURES
  6
Continuous
 62
     9
100
AcDbLine
 10
101.8088021191
 20
163.2733403729
 30
0.0
 11
101.8297204697
 21
163.8482145546
 31
0.0
  0
LINE
  5
2D7
330
1B
100
AcDbEntity
 67
     1
  8
7_ALL_FEATURES
  6
Continuous
 62
     9
100
AcDbLine
 10
102.357919123
 20
161.900446397
 30
0.0
 11
101.757919123
 21
161.900446397
 31
0.0
  0
LINE
  5
2D8
330
1B
100
AcDbEntity
 67
     1
  8
7_ALL_FEATURES
  6
Continuous
 62
     9
100
AcDbLine
 10
103.0088543087
 20
163.2733403729
 30
0.0
 11
102.9879359581
 21
163.8482145546
 31
0.0
  0
LINE
  5
2D9
330
1B
100
AcDbEntity
 67
     1
  8
7_ALL_FEATURES
  6
Continuous
 62
     9
100
AcDbLine
 10
101.757919123
 20
156.3203910445
 30
0.0
 11
102.357919123
 21
156.3203910445
 31
0.0
  0
LINE
  5
2DA
330
1B
100
AcDbEntity
 67
     1
  8
7_ALL_FEATURES
  6
Continuous
 62
     9
100
AcDbLine
 10
100.4088282139
 20
163.2995204709
 30
0.0
 11
100.4306463957
 21
163.8991236455
 31
0.0
  0
LINE
  5
2DB
330
1B
100
AcDbEntity
 67
     1
  8
7_ALL_FEATURES
  6
Continuous
 62
     3
100
AcDbLine
 10
103.0597373048
 20
156.3203910445
 30
0.0
 11
103.0597373048
 21
152.8911971343
 31
0.0
  0
LINE
  5
2DC
330
1B
100
AcDbEntity
 67
     1
  8
7_ALL_FEATURES
  6
Continuous
 62
     3
100
AcDbLine
 10
103.0597373048
 20
152.8911971343
 30
0.0
 11
103.0597373048
 21
152.8703910445
 31
0.0
  0
LINE
  5
2DD
330
1B
100
AcDbEntity
 67
     1
  8
7_ALL_FEATURES
  6
Continuous
 62
     3
100
AcDbLine
 10
103.0597373048
 20
152.8703910445
 30
0.0
 11
103.0597373048
 21
150.8203910445
 31
0.0
  0
LINE
  5
2DE
330
1B
100
AcDbEntity
 67
     1
  8
7_ALL_FEATURES
  6
Continuous
 62
     3
100
AcDbLine
 10
101.757919123
 20
150.8203910445
 30
0.0
 11
101.757919123
 21
156.3203910445
 31
0.0
  0
LINE
  5
2DF
330
1B
100
AcDbEntity
 67
     1
  8
7_ALL_FEATURES
  6
Continuous
 62
     3
100
AcDbLine
 10
101.757919123
 20
161.900446397
 30
0.0
 11
101.757919123
 21
156.3203910445
 31
0.0
  0
LINE
  5
2E0
330
1B
100
AcDbEntity
 67
     1
  8
7_ALL_FEATURES
  6
Continuous
 62
     3
100
AcDbLine
 10
103.0597373048
 20
161.900446397
 30
0.0
 11
103.0597373048
 21
156.3203910445
 31
0.0
  0
ARC
  5
2E1
330
1B
100
AcDbEntity
 67
     1
  8
7_ALL_FEATURES
  6
Continuous
 62
     3
100
AcDbCircle
 10
100.357919123
 20
161.900446397
 30
0.0
 40
1.4
100
AcDbArc
 50
0.0
 51
87.91605766540002
  0
ARC
  5
2E2
330
1B
100
AcDbEntity
 67
     1
  8
7_ALL_FEATURES
  6
Continuous
 62
     3
100
AcDbCircle
 10
104.4597373048
 20
161.900446397
 30
0.0
 40
1.4
100
AcDbArc
 50
92.08394233460001
 51
180.0
  0
LINE
  5
2E3
330
1B
100
AcDbEntity
 67
     1
  8
7_ALL_FEATURES
  6
Continuous
 62
     3
100
AcDbLine
 10
102.3075716
 20
163.2304295618
 30
0.0
 11
101.8335474779
 21
163.2476782105
 31
0.0
  0
LINE
  5
2E4
330
1B
100
AcDbEntity
 67
     1
  8
7_ALL_FEATURES
  6
Continuous
 62
     3
100
AcDbLine
 10
102.9841089499
 20
163.2476782105
 30
0.0
 11
102.5100848278
 21
163.2304295618
 31
0.0
  0
ARC
  5
2E5
330
1B
100
AcDbEntity
 67
     1
  8
7_ALL_FEATURES
  6
Continuous
 62
     3
100
AcDbCircle
 10
102.4088282139
 20
218.2631448056
 30
0.0
 40
55.0
100
AcDbArc
 50
272.0839423346
 51
92.4045539438
  0
ARC
  5
2E6
330
1B
100
AcDbEntity
 67
     1
  8
7_ALL_FEATURES
  6
Continuous
 62
     3
100
AcDbCircle
 10
102.4088282139
 20
218.2631448056
 30
0.0
 40
55.0
100
AcDbArc
 50
92.4045539438
 51
267.9160576653999
  0
ARC
  5
2E7
330
1B
100
AcDbEntity
 67
     1
  8
0
  6
Continuous
 62
     2
100
AcDbCircle
 10
329.5489923765
 20
156.8203910445
 30
0.0
 40
2.0
100
AcDbArc
 50
270.0
 51
90.0
  0
ARC
  5
2E8
330
1B
100
AcDbEntity
 67
     1
  8
0
  6
Continuous
 62
     2
100
AcDbCircle
 10
329.5489923765
 20
156.8203910445
 30
0.0
 40
2.0
100
AcDbArc
 50
255.0
 51
270.0
  0
ARC
  5
2E9
330
1B
100
AcDbEntity
 67
     1
  8
0
  6
Continuous
 62
     2
100
AcDbCircle
 10
329.5489923765
 20
156.8203910445
 30
0.0
 40
2.0
100
AcDbArc
 50
90.0
 51
195.0
  0
ARC
  5
2EA
330
1B
100
AcDbEntity
 67
     1
  8
7_ALL_FEATURES
  6
Continuous
 62
     7
100
AcDbCircle
 10
329.5489923765
 20
156.8203910445
 30
0.0
 40
1.7
100
AcDbArc
 50
270.0
 51
90.0
  0
ARC
  5
2EB
330
1B
100
AcDbEntity
 67
     1
  8
7_ALL_FEATURES
  6
Continuous
 62
     7
100
AcDbCircle
 10
329.5489923765
 20
156.8203910445
 30
0.0
 40
1.7
100
AcDbArc
 50
90.0
 51
270.0
  0
LINE
  5
2EC
330
1B
100
AcDbEntity
 67
     1
  8
7_ALL_FEATURES
  6
Continuous
 62
     7
100
AcDbLine
 10
215.5503127831
 20
273.2631448056
 30
0.0
 11
215.5503127831
 21
272.6631448056
 31
0.0
  0
LINE
  5
2ED
330
1B
100
AcDbEntity
 67
     1
  8
7_ALL_FEATURES
  6
Continuous
 62
     7
100
AcDbLine
 10
254.0617678486
 20
218.2631732759
 30
0.0
 11
215.5503107997
 21
272.6631448056
 31
0.0
  0
LINE
  5
2EE
330
1B
100
AcDbEntity
 67
     1
  8
7_ALL_FEATURES
  6
Continuous
 62
     3
100
AcDbLine
 10
335.5503130325
 20
273.2631448056
 30
0.0
 11
335.5503130325
 21
272.6631448056
 31
0.0
  0
LINE
  5
2EF
330
1B
100
AcDbEntity
 67
     1
  8
7_ALL_FEATURES
  6
Continuous
 62
     3
100
AcDbLine
 10
335.5503130325
 20
272.6631448056
 30
0.0
 11
335.5503130325
 21
163.8991236455
 31
0.0
  0
LINE
  5
2F0
330
1B
100
AcDbEntity
 67
     1
  8
7_ALL_FEATURES
  6
Continuous
 62
     3
100
AcDbLine
 10
335.5503130325
 20
163.8991236455
 30
0.0
 11
335.5503130325
 21
163.2995204709
 31
0.0
  0
LINE
  5
2F1
330
1B
100
AcDbEntity
 67
     1
  8
7_ALL_FEATURES
  6
Continuous
 62
     3
100
AcDbLine
 10
335.5503130325
 20
273.2631448056
 30
0.0
 11
215.5503127831
 21
273.2631448056
 31
0.0
  0
ARC
  5
2F2
330
1B
100
AcDbEntity
 67
     1
  8
7_ALL_FEATURES
  6
Continuous
 62
     3
100
AcDbCircle
 10
329.0476717205
 20
156.3203910445
 30
0.0
 40
5.5
100
AcDbArc
 50
180.0
 51
270.0
  0
ARC
  5
2F3
330
1B
100
AcDbEntity
 67
     1
  8
7_ALL_FEATURES
  6
Continuous
 62
     3
100
AcDbCircle
 10
330.0503130325
 20
156.3203910445
 30
0.0
 40
5.5
100
AcDbArc
 50
270.0
 51
360.0
  0
ARC
  5
2F4
330
1B
100
AcDbEntity
 67
     1
  8
02___PRT_ALL_AXES
  6
Continuous
 62
     3
100
AcDbCircle
 10
329.5489923765
 20
156.8203910445
 30
0.0
 40
2.1
100
AcDbArc
 50
270.0
 51
90.0
  0
ARC
  5
2F5
330
1B
100
AcDbEntity
 67
     1
  8
02___PRT_ALL_AXES
  6
Continuous
 62
     3
100
AcDbCircle
 10
329.5489923765
 20
156.8203910445
 30
0.0
 40
2.1
100
AcDbArc
 50
90.0
 51
270.0
  0
LINE
  5
2F6
330
1B
100
AcDbEntity
 67
     1
  8
7_ALL_FEATURES
  6
Continuous
 62
     3
100
AcDbLine
 10
329.0476717205
 20
150.8203910445
 30
0.0
 11
330.0503130325
 21
150.8203910445
 31
0.0
  0
LINE
  5
2F7
330
1B
100
AcDbEntity
 67
     1
  8
7_ALL_FEATURES
  6
Continuous
 62
     3
100
AcDbLine
 10
335.5503130325
 20
161.900446397
 30
0.0
 11
335.5503130325
 21
156.3203910445
 31
0.0
  0
LINE
  5
2F8
330
1B
100
AcDbEntity
 67
     1
  8
7_ALL_FEATURES
  6
Continuous
 62
     3
100
AcDbLine
 10
323.5476717205
 20
163.2995204709
 30
0.0
 11
323.5476717205
 21
161.900446397
 31
0.0
  0
LINE
  5
2F9
330
1B
100
AcDbEntity
 67
     1
  8
7_ALL_FEATURES
  6
Continuous
 62
     3
100
AcDbLine
 10
323.5476717205
 20
161.900446397
 30
0.0
 11
323.5476717205
 21
156.3203910445
 31
0.0
  0
LINE
  5
2FA
330
1B
100
AcDbEntity
 67
     1
  8
7_ALL_FEATURES
  6
Continuous
 62
     3
100
AcDbLine
 10
335.5503130325
 20
163.2995204709
 30
0.0
 11
335.5503130325
 21
161.900446397
 31
0.0
  0
LINE
  5
2FB
330
1B
100
AcDbEntity
 67
     1
  8
7_ALL_FEATURES
  6
Continuous
 62
     3
100
AcDbLine
 10
322.5476717205
 20
163.2995204709
 30
0.0
 11
322.5476717205
 21
163.24861138
 31
0.0
  0
LINE
  5
2FC
330
1B
100
AcDbEntity
 67
     1
  8
7_ALL_FEATURES
  6
Continuous
 62
     3
100
AcDbLine
 10
293.0476717205
 20
163.2304295618
 30
0.0
 11
322.0476717205
 21
163.2304295618
 31
0.0
  0
LINE
  5
2FD
330
1B
100
AcDbEntity
 67
     1
  8
7_ALL_FEATURES
  6
Continuous
 62
     3
100
AcDbLine
 10
292.5476717205
 20
163.2995204709
 30
0.0
 11
292.5476717205
 21
163.24861138
 31
0.0
  0
LINE
  5
2FE
330
1B
100
AcDbEntity
 67
     1
  8
7_ALL_FEATURES
  6
Continuous
 62
     3
100
AcDbLine
 10
292.5476717205
 20
163.2995204709
 30
0.0
 11
254.0617681421
 21
218.2631731708
 31
0.0
  0
LINE
  5
2FF
330
1B
100
AcDbEntity
 67
     1
  8
7_ALL_FEATURES
  6
Continuous
 62
     3
100
AcDbLine
 10
323.5476717205
 20
163.2995204709
 30
0.0
 11
322.5476717205
 21
163.2995204709
 31
0.0
  0
SPLINE
  5
300
330
1B
100
AcDbEntity
 67
     1
  8
7_ALL_FEATURES
  6
Continuous
 62
     3
100
AcDbSpline
210
0.0
220
0.0
230
1.0
 70
     8
 71
     3
 72
    20
 73
    16
 74
     0
 42
0.000000001
 43
0.0000001
 40
0.0
 40
0.0
 40
0.0
 40
0.0
 40
0.0021469893
 40
0.006161846
 40
0.0209487028
 40
0.0449792644
 40
0.0781217465
 40
0.120092519
 40
0.1705029899
 40
0.2288766734
 40
0.294657951
 40
0.445859988
 40
0.6183198785
 40
0.8054225533
 40
1.0
 40
1.0
 40
1.0
 40
1.0
 10
292.5476717205
 20
163.24861138
 30
0.0
 10
292.5476717205
 20
163.248252596
 30
0.0
 10
292.5485214303
 20
163.2474018601
 30
0.0
 10
292.5517035562
 20
163.2461836721
 30
0.0
 10
292.5588240027
 20
163.2446581249
 30
0.0
 10
292.5706860868
 20
163.24307702
 30
0.0
 10
292.5872030285
 20
163.2414509773
 30
0.0
 10
292.6081120198
 20
163.2398878217
 30
0.0
 10
292.6332642025
 20
163.2383868596
 30
0.0
 10
292.6624011091
 20
163.2369773994
 30
0.0
 10
292.7083808371
 20
163.2351529705
 30
0.0
 10
292.7734351985
 20
163.2332747153
 30
0.0
 10
292.8587749094
 20
163.2316539039
 30
0.0
 10
292.9513728998
 20
163.2306537922
 30
0.0
 10
293.0151558234
 20
163.2304295618
 30
0.0
 10
293.0476717205
 20
163.2304295618
 30
0.0
  0
SPLINE
  5
301
330
1B
100
AcDbEntity
 67
     1
  8
7_ALL_FEATURES
  6
Continuous
 62
     3
100
AcDbSpline
210
0.0
220
0.0
230
1.0
 70
     8
 71
     3
 72
    20
 73
    16
 74
     0
 42
0.000000001
 43
0.0000001
 40
0.0
 40
0.0
 40
0.0
 40
0.0
 40
0.1945774467
 40
0.3816801215
 40
0.554140012
 40
0.705342049
 40
0.7711233266
 40
0.8294970101
 40
0.879907481
 40
0.9218782535
 40
0.9550207356
 40
0.9790512972
 40
0.993838154
 40
0.9978530107
 40
1.0
 40
1.0
 40
1.0
 40
1.0
 10
322.0476717205
 20
163.2304295618
 30
0.0
 10
322.0801876176
 20
163.2304295618
 30
0.0
 10
322.1439705413
 20
163.2306537922
 30
0.0
 10
322.2365685316
 20
163.2316539039
 30
0.0
 10
322.3219082425
 20
163.2332747153
 30
0.0
 10
322.3869626039
 20
163.2351529705
 30
0.0
 10
322.4329423319
 20
163.2369773994
 30
0.0
 10
322.4620792385
 20
163.2383868596
 30
0.0
 10
322.4872314213
 20
163.2398878217
 30
0.0
 10
322.5081404125
 20
163.2414509773
 30
0.0
 10
322.5246573543
 20
163.24307702
 30
0.0
 10
322.5365194384
 20
163.2446581249
 30
0.0
 10
322.5436398848
 20
163.2461836721
 30
0.0
 10
322.5468220107
 20
163.2474018601
 30
0.0
 10
322.5476717205
 20
163.248252596
 30
0.0
 10
322.5476717205
 20
163.24861138
 30
0.0
  0
LINE
  5
302
330
1B
100
AcDbEntity
 67
     1
  8
7_ALL_FEATURES
  6
Continuous
 62
     9
100
AcDbLine
 10
323.5476717205
 20
161.900446397
 30
0.0
 11
335.5503130325
 21
161.900446397
 31
0.0
  0
LINE
  5
303
330
1B
100
AcDbEntity
 67
     1
  8
7_ALL_FEATURES
  6
Continuous
 62
     9
100
AcDbLine
 10
292.5476717205
 20
163.2995204709
 30
0.0
 11
322.5476717205
 21
163.2995204709
 31
0.0
  0
LINE
  5
304
330
1B
100
AcDbEntity
 67
     1
  8
7_ALL_FEATURES
  6
Continuous
 62
     3
100
AcDbLine
 10
254.0617681421
 20
218.2631731708
 30
0.0
 11
215.5503107997
 21
273.2631448056
 31
0.0
  0
LINE
  5
305
330
1B
100
AcDbEntity
 67
     1
  8
7_ALL_FEATURES
  6
Continuous
 62
     9
100
AcDbLine
 10
323.5476717205
 20
163.2995204709
 30
0.0
 11
335.5503130325
 21
163.2995204709
 31
0.0
  0
LINE
  5
306
330
1B
100
AcDbEntity
 67
     1
  8
7_ALL_FEATURES
  6
Continuous
 62
     3
100
AcDbLine
 10
157.408824358
 20
17.9194735976
 30
0.0
 11
156.8088244
 21
17.9194735976
 31
0.0
  0
LINE
  5
307
330
1B
100
AcDbEntity
 67
     1
  8
7_ALL_FEATURES
  6
Continuous
 62
     3
100
AcDbLine
 10
156.8088244
 20
17.9194735976
 30
0.0
 11
104.3870100321
 21
17.9194735976
 31
0.0
  0
LINE
  5
308
330
1B
100
AcDbEntity
 67
     1
  8
7_ALL_FEATURES
  6
Continuous
 62
     3
100
AcDbLine
 10
104.3870100321
 20
17.9194735976
 30
0.0
 11
100.4306463957
 21
17.9194735976
 31
0.0
  0
LINE
  5
309
330
1B
100
AcDbEntity
 67
     1
  8
7_ALL_FEATURES
  6
Continuous
 62
     3
100
AcDbLine
 10
100.4306463957
 20
17.9194735976
 30
0.0
 11
48.0088320133
 21
17.9194735976
 31
0.0
  0
LINE
  5
30A
330
1B
100
AcDbEntity
 67
     1
  8
7_ALL_FEATURES
  6
Continuous
 62
     3
100
AcDbLine
 10
48.0088320133
 20
17.9194735976
 30
0.0
 11
47.4088320552
 21
17.9194735976
 31
0.0
  0
LINE
  5
30B
330
1B
100
AcDbEntity
 67
     1
  8
7_ALL_FEATURES
  6
Continuous
 62
     3
100
AcDbLine
 10
157.4088282139
 20
17.9194735976
 30
0.0
 11
157.4088282139
 21
99.408058996
 31
0.0
  0
SPLINE
  5
30C
330
1B
100
AcDbEntity
 67
     1
  8
7_ALL_FEATURES
  6
Continuous
 62
     3
100
AcDbSpline
210
0.0
220
0.0
230
1.0
 70
     8
 71
     3
 72
    47
 73
    43
 74
     0
 42
0.000000001
 43
0.0000001
 40
0.0
 40
0.0
 40
0.0
 40
0.0
 40
0.0144357203
 40
0.0288990731
 40
0.0434164171
 40
0.0580116413
 40
0.0727052028
 40
0.0875134215
 40
0.1024480715
 40
0.1175162665
 40
0.1480452015
 40
0.1790913731
 40
0.2105816353
 40
0.2424165427
 40
0.274489865
 40
0.3067035319
 40
0.3389773631
 40
0.371253856
 40
0.4034989426
 40
0.4356999261
 40
0.4678614034
 40
0.5000000381
 40
0.5321386723
 40
0.5643001477
 40
0.5965011282
 40
0.6287462108
 40
0.6610226986
 40
0.6932965239
 40
0.7255101844
 40
0.7575834998
 40
0.7894184002
 40
0.8209086556
 40
0.8519548208
 40
0.8824837502
 40
0.8975519427
 40
0.9124865903
 40
0.9272948069
 40
0.9419883665
 40
0.956583589
 40
0.9711009311
 40
0.985564284
 40
1.0
 40
1.0
 40
1.0
 40
1.0
 10
47.4088291797
 20
99.4080589966
 30
0.0
 10
47.4088312817
 20
100.1201745578
 30
0.0
 10
47.4654043367
 20
101.5464107343
 30
0.0
 10
47.7192033485
 20
103.6751706153
 30
0.0
 10
48.1398603443
 20
105.78543636
 30
0.0
 10
48.723943427
 20
107.8681039757
 30
0.0
 10
49.4667927843
 20
109.9147435501
 30
0.0
 10
50.3626250528
 20
111.9174024028
 30
0.0
 10
51.4047840654
 20
113.8688785737
 30
0.0
 10
52.9858035311
 20
116.4042178143
 30
0.0
 10
55.2933294158
 20
119.4124911093
 30
0.0
 10
58.4996449731
 20
122.7109758306
 30
0.0
 10
62.0853659554
 20
125.6924659683
 30
0.0
 10
65.9816912005
 20
128.3433687478
 30
0.0
 10
70.1257861691
 20
130.6592488521
 30
0.0
 10
74.4621662684
 20
132.6419210232
 30
0.0
 10
78.9436639608
 20
134.2975750035
 30
0.0
 10
83.531399814
 20
135.6347627795
 30
0.0
 10
88.1941348446
 20
136.662727965
 30
0.0
 10
92.9071413364
 20
137.3900233445
 30
0.0
 10
97.6507699607
 20
137.8234742312
 30
0.0
 10
102.4088338345
 20
137.9674567731
 30
0.0
 10
107.1668975974
 20
137.8234735524
 30
0.0
 10
111.9105258922
 20
137.3900220142
 30
0.0
 10
116.6235318461
 20
136.6627260363
 30
0.0
 10
121.286266148
 20
135.6347603317
 30
0.0
 10
125.874001107
 20
134.297572139
 30
0.0
 10
130.3554977734
 20
132.6419178646
 30
0.0
 10
134.6918767566
 20
130.6592455374
 30
0.0
 10
138.8359705686
 20
128.3433654226
 30
0.0
 10
142.732294671
 20
125.6924627768
 30
0.0
 10
146.3180145797
 20
122.7109729044
 30
0.0
 10
149.5243291836
 20
119.4124885563
 30
0.0
 10
151.8318543903
 20
116.4042156527
 30
0.0
 10
153.4128734096
 20
113.8688767483
 30
0.0
 10
154.4550321426
 20
111.9174008206
 30
0.0
 10
155.3508641801
 20
109.9147422077
 30
0.0
 10
156.0937133519
 20
107.8681028652
 30
0.0
 10
156.6777962827
 20
105.785435486
 30
0.0
 10
157.0984531944
 20
103.6751698988
 30
0.0
 10
157.3522521253
 20
101.5464103103
 30
0.0
 10
157.4088251221
 20
100.120174343
 30
0.0
 10
157.4088272362
 20
99.4080589966
 30
0.0
  0
LINE
  5
30D
330
1B
100
AcDbEntity
 67
     1
  8
7_ALL_FEATURES
  6
Continuous
 62
     3
100
AcDbLine
 10
47.4088282139
 20
17.9194735976
 30
0.0
 11
47.4088282139
 21
99.408058996
 31
0.0
  0
DIMENSION
  5
30E
330
1B
100
AcDbEntity
 67
     1
  8
0
  6
Continuous
 62
     2
100
AcDbDimension
280
     0
  2
*D1
 10
49.2100631819
 20
232.2234957705
 30
0.0
 11
98.4453239125
 21
221.6294242857
 31
0.0
 70
   163
  1
%%c<>
 71
     5
 42
-1.0
 73
     0
 74
     0
 75
     0
  3
DIMSTYLE_1
100
AcDbDiametricDimension
 15
155.607593246
 25
204.3027938406
 35
0.0
 40
0.0
  0
DIMENSION
  5
30F
330
1B
100
AcDbEntity
 67
     1
  8
0
  6
Continuous
 62
     2
100
AcDbDimension
280
     0
  2
*D2
 10
256.3100942062
 20
215.0871736606
 30
0.0
 11
237.1136752452
 21
204.7091086865
 31
0.0
 70
   162
  1
35°
 71
     5
 42
-1.0
 73
     0
 74
     0
 75
     0
  3
DIMSTYLE_2
100
AcDb2LineAngularDimension
 13
215.5503127831
 23
256.7345054287
 33
0.0
 14
215.5503127831
 24
256.021572776
 34
0.0
 15
255.8981629045
 25
215.6690547223
 35
0.0
 16
237.1640767362
 26
204.7251228051
 36
0.0
  0
DIMENSION
  5
310
330
1B
100
AcDbEntity
 67
     1
  8
0
  6
Continuous
 62
     2
100
AcDbDimension
280
     0
  2
*D3
 10
215.5484206412
 20
130.9957831995
 30
0.0
 11
275.6782562256
 21
130.9957831995
 31
0.0
 70
   160
 71
     5
 42
-1.0
 73
     0
 74
     0
 75
     0
  3
DIMSTYLE_3
100
AcDbAlignedDimension
 13
335.5503130325
 23
147.8882938759
 33
0.0
 14
215.5484206412
 24
156.6470159967
 34
0.0
 50
180.0
100
AcDbRotatedDimension
  0
LINE
  5
311
330
1B
100
AcDbEntity
 67
     1
  8
0
  6
Continuous
 62
     2
100
AcDbLine
 10
280.0154423813
 20
76.0331558006
 30
0.0
 11
410.0154423813
 21
76.0331558006
 31
0.0
  0
LINE
  5
312
330
1B
100
AcDbEntity
 67
     1
  8
0
  6
Continuous
 62
     2
100
AcDbLine
 10
280.0154423813
 20
76.0331558006
 30
0.0
 11
280.0154423813
 21
10.0331558006
 31
0.0
  0
LINE
  5
313
330
1B
100
AcDbEntity
 67
     1
  8
0
  6
Continuous
 62
     2
100
AcDbLine
 10
310.0154423813
 20
68.0331558006
 30
0.0
 11
410.0154423813
 21
68.0331558006
 31
0.0
  0
LINE
  5
314
330
1B
100
AcDbEntity
 67
     1
  8
0
  6
Continuous
 62
     2
100
AcDbLine
 10
280.0154423813
 20
60.0331558006
 30
0.0
 11
410.0154423813
 21
60.0331558006
 31
0.0
  0
LINE
  5
315
330
1B
100
AcDbEntity
 67
     1
  8
0
  6
Continuous
 62
     2
100
AcDbLine
 10
310.0154423813
 20
54.0331558006
 30
0.0
 11
410.0154423813
 21
54.0331558006
 31
0.0
  0
LINE
  5
316
330
1B
100
AcDbEntity
 67
     1
  8
0
  6
Continuous
 62
     2
100
AcDbLine
 10
310.0154423813
 20
48.0331558006
 30
0.0
 11
410.0154423813
 21
48.0331558006
 31
0.0
  0
LINE
  5
317
330
1B
100
AcDbEntity
 67
     1
  8
0
  6
Continuous
 62
     2
100
AcDbLine
 10
310.0154423813
 20
42.0331558006
 30
0.0
 11
410.0154423813
 21
42.0331558006
 31
0.0
  0
LINE
  5
318
330
1B
100
AcDbEntity
 67
     1
  8
0
  6
Continuous
 62
     2
100
AcDbLine
 10
310.0154423813
 20
36.0331558006
 30
0.0
 11
410.0154423813
 21
36.0331558006
 31
0.0
  0
LINE
  5
319
330
1B
100
AcDbEntity
 67
     1
  8
0
  6
Continuous
 62
     2
100
AcDbLine
 10
310.0154423813
 20
30.0331558006
 30
0.0
 11
410.0154423813
 21
30.0331558006
 31
0.0
  0
LINE
  5
31A
330
1B
100
AcDbEntity
 67
     1
  8
0
  6
Continuous
 62
     2
100
AcDbLine
 10
280.0154423813
 20
24.0331558006
 30
0.0
 11
410.0154423813
 21
24.0331558006
 31
0.0
  0
LINE
  5
31B
330
1B
100
AcDbEntity
 67
     1
  8
0
  6
Continuous
 62
     2
100
AcDbLine
 10
280.0154423813
 20
18.0331558006
 30
0.0
 11
410.0154423813
 21
18.0331558006
 31
0.0
  0
LINE
  5
31C
330
1B
100
AcDbEntity
 67
     1
  8
0
  6
Continuous
 62
     2
100
AcDbLine
 10
280.0154423813
 20
14.0331558006
 30
0.0
 11
410.0154423813
 21
14.0331558006
 31
0.0
  0
LINE
  5
31D
330
1B
100
AcDbEntity
 67
     1
  8
0
  6
Continuous
 62
     2
100
AcDbLine
 10
280.0154423813
 20
10.0331558006
 30
0.0
 11
410.0154423813
 21
10.0331558006
 31
0.0
  0
LINE
  5
31E
330
1B
100
AcDbEntity
 67
     1
  8
0
  6
Continuous
 62
     2
100
AcDbLine
 10
310.0154423813
 20
76.0331558006
 30
0.0
 11
310.0154423813
 21
18.0331558006
 31
0.0
  0
LINE
  5
31F
330
1B
100
AcDbEntity
 67
     1
  8
0
  6
Continuous
 62
     2
100
AcDbLine
 10
330.0154423813
 20
60.0331558006
 30
0.0
 11
330.0154423813
 21
54.0331558006
 31
0.0
  0
LINE
  5
320
330
1B
100
AcDbEntity
 67
     1
  8
0
  6
Continuous
 62
     2
100
AcDbLine
 10
360.0154423813
 20
30.0331558006
 30
0.0
 11
360.0154423813
 21
18.0331558006
 31
0.0
  0
LINE
  5
321
330
1B
100
AcDbEntity
 67
     1
  8
0
  6
Continuous
 62
     2
100
AcDbLine
 10
370.0154423813
 20
60.0331558006
 30
0.0
 11
370.0154423813
 21
54.0331558006
 31
0.0
  0
LINE
  5
322
330
1B
100
AcDbEntity
 67
     1
  8
0
  6
Continuous
 62
     2
100
AcDbLine
 10
370.0154423813
 20
48.0331558006
 30
0.0
 11
370.0154423813
 21
42.0331558006
 31
0.0
  0
LINE
  5
323
330
1B
100
AcDbEntity
 67
     1
  8
0
  6
Continuous
 62
     2
100
AcDbLine
 10
390.0154423813
 20
60.0331558006
 30
0.0
 11
390.0154423813
 21
54.0331558006
 31
0.0
  0
LINE
  5
324
330
1B
100
AcDbEntity
 67
     1
  8
0
  6
Continuous
 62
     2
100
AcDbLine
 10
400.0154423813
 20
48.0331558006
 30
0.0
 11
400.0154423813
 21
42.0331558006
 31
0.0
  0
LINE
  5
325
330
1B
100
AcDbEntity
 67
     1
  8
0
  6
Continuous
 62
     2
100
AcDbLine
 10
410.0154423813
 20
76.0331558006
 30
0.0
 11
410.0154423813
 21
10.0331558006
 31
0.0
  0
INSERT
  5
326
330
1B
100
AcDbEntity
 67
     1
  8
0
  6
Continuous
 62
     2
100
AcDbBlockReference
  2
PROIEZIONE_EU_BL0
 10
295.0154423813
 20
67.6581558006
 30
0.0
  0
MTEXT
  5
327
330
1B
100
AcDbEntity
 67
     1
  8
9_SOLID
  6
Continuous
 62
     2
100
AcDbMText
 10
311.5029423813
 20
74.4081558006
 30
0.0
 40
1.9
 41
142.3642857143
 46
0.0
 71
     1
 72
     1
  1
EN: Chamfer/radii unlisted 0.3x45°. Remove sharp edges.\PGen. tol.: hole H11, shaft h11, lenght Js12. UNI EN 22768 Medium Grande.
  7
TEXTSTYLE_6
 73
     1
 44
1.0
  0
MTEXT
  5
328
330
1B
100
AcDbEntity
 67
     1
  8
9_SOLID
  6
Continuous
 62
     2
100
AcDbMText
 10
311.5029423813
 20
66.4081558006
 30
0.0
 40
1.9
 41
148.2678571429
 46
0.0
 71
     1
 72
     1
  1
IT: Sm./rac. non quotati 0.3x45°. Eliminare spigoli taglienti.\PToll. gen.: foro H11, albero h11, lunghezza Js12. UNI EN 22768 Grado Medio.
  7
TEXTSTYLE_6
 73
     1
 44
1.0
  0
INSERT
  5
329
330
1B
100
AcDbEntity
 67
     1
  8
0
  6
Continuous
 62
     2
100
AcDbBlockReference
  2
LOGO2_BL1
 10
293.8414894261
 20
42.0331558006
 30
0.0
  0
MTEXT
  5
32A
330
1B
100
AcDbEntity
 67
     1
  8
9_SOLID
  6
Continuous
 62
     2
100
AcDbMText
 10
311.5029423813
 20
58.2831558006
 30
0.0
 40
3.0
 41
23.0357142857
 46
0.0
 71
     1
 72
     1
  1
Pj: YX0
  7
TEXTSTYLE_6
 73
     1
 44
1.0
  0
MTEXT
  5
32B
330
1B
100
AcDbEntity
 67
     1
  8
9_SOLID
  6
Continuous
 62
     2
100
AcDbMText
 10
331.5029423813
 20
58.2831558006
 30
0.0
 40
3.0
 41
38.0357142857
 46
0.0
 71
     1
 72
     1
  1
% Check: %
  7
TEXTSTYLE_6
 73
     1
 44
1.0
  0
MTEXT
  5
32C
330
1B
100
AcDbEntity
 67
     1
  8
9_SOLID
  6
Continuous
 62
     2
100
AcDbMText
 10
371.5029423813
 20
58.2831558006
 30
0.0
 40
3.0
 41
19.5
 46
0.0
 71
     1
 72
     1
  1
Rev:00
  7
TEXTSTYLE_6
 73
     1
 44
1.0
  0
MTEXT
  5
32D
330
1B
100
AcDbEntity
 67
     1
  8
9_SOLID
  6
Continuous
 62
     2
100
AcDbMText
 10
391.5029423813
 20
58.5331558006
 30
0.0
 40
3.0
 41
19.7142857143
 46
0.0
 71
     1
 72
     1
  1
Ver: A
  7
TEXTSTYLE_6
 73
     1
 44
1.0
  0
MTEXT
  5
32E
330
1B
100
AcDbEntity
 67
     1
  8
9_SOLID
  6
Continuous
 62
     2
100
AcDbMText
 10
311.5029423813
 20
52.2831558006
 30
0.0
 40
3.0
 41
75.3214285714
 46
0.0
 71
     1
 72
     1
  1
Neutral code: YX0_C_032
  7
TEXTSTYLE_6
 73
     1
 44
1.0
  0
MTEXT
  5
32F
330
1B
100
AcDbEntity
 67
     1
  8
9_SOLID
  6
Continuous
 62
     2
100
AcDbMText
 10
311.5029423813
 20
46.2831558006
 30
0.0
 40
3.0
 41
19.3928571429
 46
0.0
 71
     1
 72
     1
  1
Code: 
  7
TEXTSTYLE_6
 73
     1
 44
1.0
  0
MTEXT
  5
330
330
1B
100
AcDbEntity
 67
     1
  8
9_SOLID
  6
Continuous
 62
     2
100
AcDbMText
 10
371.5029423813
 20
46.5331558006
 30
0.0
 40
3.0
 41
27.0
 46
0.0
 71
     1
 72
     1
  1
Scale: 1:1
  7
TEXTSTYLE_6
 73
     1
 44
1.0
  0
MTEXT
  5
331
330
1B
100
AcDbEntity
 67
     1
  8
9_SOLID
  6
Continuous
 62
     2
100
AcDbMText
 10
405.0154423813
 20
46.5331558006
 30
0.0
 40
3.0
 41
7.0714285714
 46
0.0
 71
     2
 72
     1
  1
A3
  7
TEXTSTYLE_6
 73
     1
 44
1.0
  0
MTEXT
  5
332
330
1B
100
AcDbEntity
 67
     1
  8
9_SOLID
  6
Continuous
 62
     2
100
AcDbMText
 10
311.5029423813
 20
40.5331558006
 30
0.0
 40
3.0
 41
112.0714285714
 46
0.0
 71
     1
 72
     1
  1
It descr.: CANNOCCHIALE ASIM. KLEO
  7
TEXTSTYLE_6
 73
     1
 44
1.0
  0
MTEXT
  5
333
330
1B
100
AcDbEntity
 67
     1
  8
9_SOLID
  6
Continuous
 62
     2
100
AcDbMText
 10
311.5029423813
 20
34.5331558006
 30
0.0
 40
3.0
 41
33.9642857143
 46
0.0
 71
     1
 72
     1
  1
En descr.: 
  7
TEXTSTYLE_6
 73
     1
 44
1.0
  0
MTEXT
  5
334
330
1B
100
AcDbEntity
 67
     1
  8
9_SOLID
  6
Continuous
 62
     2
100
AcDbMText
 10
311.5029423813
 20
28.5331558006
 30
0.0
 40
3.0
 41
31.6071428571
 46
0.0
 71
     1
 72
     1
  1
Des.: A.G.
  7
TEXTSTYLE_6
 73
     1
 44
1.0
  0
MTEXT
  5
335
330
1B
100
AcDbEntity
 67
     1
  8
9_SOLID
  6
Continuous
 62
     2
100
AcDbMText
 10
361.5029423813
 20
28.5331558006
 30
0.0
 40
3.0
 41
34.8214285714
 46
0.0
 71
     1
 72
     1
  1
Check: A.P.
  7
TEXTSTYLE_6
 73
     1
 44
1.0
  0
MTEXT
  5
336
330
1B
100
AcDbEntity
 67
     1
  8
9_SOLID
  6
Continuous
 62
     2
100
AcDbMText
 10
281.5029423813
 20
22.5331558006
 30
0.0
 40
3.0
 41
42.5357142857
 46
0.0
 71
     1
 72
     1
  1
Date: 14.12.18
  7
TEXTSTYLE_6
 73
     1
 44
1.0
  0
MTEXT
  5
337
330
1B
100
AcDbEntity
 67
     1
  8
9_SOLID
  6
Continuous
 62
     2
100
AcDbMText
 10
311.5029423813
 20
22.5331558006
 30
0.0
 40
3.0
 41
18.2142857143
 46
0.0
 71
     1
 72
     1
  1
Mat.: 
  7
TEXTSTYLE_6
 73
     1
 44
1.0
  0
MTEXT
  5
338
330
1B
100
AcDbEntity
 67
     1
  8
9_SOLID
  6
Continuous
 62
     2
100
AcDbMText
 10
361.5029423813
 20
22.0331558006
 30
0.0
 40
2.0
 41
42.3571428571
 46
0.0
 71
     1
 72
     1
  1
Disegno per catalogo
  7
TEXTSTYLE_6
 73
     1
 44
1.0
  0
MTEXT
  5
339
330
1B
100
AcDbEntity
 67
     1
  8
9_SOLID
  6
Continuous
 62
     2
100
AcDbMText
 10
281.5029423813
 20
16.9331558006
 30
0.0
 40
1.8
 41
175.6928571429
 46
0.0
 71
     1
 72
     1
  1
It: A norma di legge si diffida da qualsiasi riproduzione senza nostra autorizzazione esplicita.
  7
TEXTSTYLE_6
 73
     1
 44
1.0
  0
MTEXT
  5
33A
330
1B
100
AcDbEntity
 67
     1
  8
9_SOLID
  6
Continuous
 62
     2
100
AcDbMText
 10
281.5029423813
 20
12.9331558006
 30
0.0
 40
1.8
 41
157.6285714286
 46
0.0
 71
     1
 72
     1
  1
En: According to the law, beware of any reproduction made without our authorization.
  7
TEXTSTYLE_6
 73
     1
 44
1.0
  0
ENDSEC
  0
SECTION
  2
OBJECTS
  0
DICTIONARY
  5
33B
330
0
100
AcDbDictionary
281
     1
  3
ACAD_DETAILVIEWSTYLE
350
38E
  3
ACAD_GROUP
350
33C
  3
ACAD_LAYOUT
350
364
  3
ACAD_MATERIAL
350
380
  3
ACAD_MLEADERSTYLE
350
386
  3
ACAD_MLINESTYLE
350
33D
  3
ACAD_PLOTSETTINGS
350
33F
  3
ACAD_PLOTSTYLENAME
350
340
  3
ACAD_SCALELIST
350
342
  3
ACAD_SECTIONVIEWSTYLE
350
38F
  3
ACAD_TABLESTYLE
350
384
  3
ACAD_VISUALSTYLE
350
367
  3
ACDB_RECOMPOSE_DATA
350
393
  3
AcDbVariableDictionary
350
389
  3
APPDATA
350
388
  0
SUN
  5
390
330
2B9
100
AcDbSun
 90
        1
290
     0
 63
     7
421
 16777215
 40
1.0
291
     1
 91
  2455826
 92
 54000000
292
     0
 70
     2
 71
   256
280
     1
  0
DICTIONARY
  5
38E
102
{ACAD_REACTORS
330
33B
102
}
330
33B
100
AcDbDictionary
281
     1
  0
DICTIONARY
  5
33C
102
{ACAD_REACTORS
330
33B
102
}
330
33B
100
AcDbDictionary
281
     1
  0
DICTIONARY
  5
364
102
{ACAD_REACTORS
330
33B
102
}
330
33B
100
AcDbDictionary
281
     1
  3
Foglio 1
350
366
  3
Model
350
365
  0
DICTIONARY
  5
380
102
{ACAD_REACTORS
330
33B
102
}
330
33B
100
AcDbDictionary
281
     1
  3
ByBlock
350
382
  3
ByLayer
350
381
  3
Global
350
383
  0
DICTIONARY
  5
386
102
{ACAD_REACTORS
330
33B
102
}
330
33B
100
AcDbDictionary
281
     1
  3
Standard
350
387
  0
DICTIONARY
  5
33D
102
{ACAD_REACTORS
330
33B
102
}
330
33B
100
AcDbDictionary
281
     1
  3
STANDARD
350
33E
  0
DICTIONARY
  5
33F
102
{ACAD_REACTORS
330
33B
102
}
330
33B
100
AcDbDictionary
281
     1
  0
ACDBDICTIONARYWDFLT
  5
340
102
{ACAD_REACTORS
330
33B
102
}
330
33B
100
AcDbDictionary
281
     1
  3
Normal
350
341
100
AcDbDictionaryWithDefault
340
341
  0
DICTIONARY
  5
342
102
{ACAD_REACTORS
330
33B
102
}
330
33B
100
AcDbDictionary
281
     1
  3
A0
350
343
  3
A1
350
344
  3
A2
350
345
  3
A3
350
346
  3
A4
350
347
  3
A5
350
348
  3
A6
350
349
  3
A7
350
34A
  3
A8
350
34B
  3
A9
350
34C
  3
B0
350
34D
  3
B1
350
34E
  3
B2
350
34F
  3
B3
350
350
  3
B4
350
351
  3
B5
350
352
  3
B6
350
353
  3
B7
350
354
  3
B8
350
355
  3
B9
350
356
  3
C0
350
357
  3
C1
350
358
  3
C2
350
359
  3
C3
350
35A
  3
C4
350
35B
  3
C5
350
35C
  3
C6
350
35D
  3
C7
350
35E
  3
C8
350
35F
  3
C9
350
360
  3
D0
350
361
  3
D1
350
362
  3
D2
350
363
  0
DICTIONARY
  5
38F
102
{ACAD_REACTORS
330
33B
102
}
330
33B
100
AcDbDictionary
281
     1
  0
DICTIONARY
  5
384
102
{ACAD_REACTORS
330
33B
102
}
330
33B
100
AcDbDictionary
281
     1
  3
Standard
350
385
  0
DICTIONARY
  5
367
102
{ACAD_REACTORS
330
33B
102
}
330
33B
100
AcDbDictionary
281
     1
  3
2dWireframe
350
36C
  3
Basic
350
36F
  3
Brighten
350
373
  3
ColorChange
350
377
  3
Conceptual
350
371
  3
Dim
350
372
  3
EdgeColorOff
350
37A
  3
Facepattern
350
376
  3
Flat
350
368
  3
FlatWithEdges
350
369
  3
Gouraud
350
36A
  3
GouraudWithEdges
350
36B
  3
Hidden
350
36E
  3
JitterOff
350
378
  3
Linepattern
350
375
  3
OverhangOff
350
379
  3
Realistic
350
370
  3
Shaded
350
37F
  3
Shaded with edges
350
37E
  3
Shades of Gray
350
37B
  3
Sketchy
350
37C
  3
Thicken
350
374
  3
Wireframe
350
36D
  3
X-Ray
350
37D
  0
XRECORD
  5
393
102
{ACAD_REACTORS
330
33B
102
}
330
33B
100
AcDbXrecord
280
     1
 90
        1
330
385
  0
DICTIONARY
  5
389
102
{ACAD_REACTORS
330
33B
102
}
330
33B
100
AcDbDictionary
281
     1
  3
CANNOSCALE
350
38A
  3
CMLEADERSTYLE
350
38C
  3
CTABLESTYLE
350
38B
  3
MSLTSCALE
350
38D
  0
DICTIONARY
  5
388
102
{ACAD_REACTORS
330
33B
102
}
330
33B
100
AcDbDictionary
281
     1
  0
LAYOUT
  5
366
102
{ACAD_REACTORS
330
364
102
}
330
364
100
AcDbPlotSettings
  1

  2
none_device
  4
ISO_A3_(420.00_x_297.00_MM)
  6

 40
7.5
 41
20.0
 42
7.5
 43
20.0
 44
420.0
 45
297.0
 46
0.0
 47
0.0
 48
0.0
 49
0.0
140
0.0
141
0.0
142
1.0
143
1.155642023346303
 70
   688
 72
     1
 73
     0
 74
     1
  7

 75
     0
 76
     0
 77
     2
 78
   300
147
0.8653198653198654
148
0.0
149
0.0
100
AcDbLayout
  1
Foglio 1
 70
     1
 71
     1
 10
0.0
 20
0.0
 11
412.5
 21
277.0
 12
0.0
 22
0.0
 32
0.0
 14
0.0
 24
0.0
 34
0.0
 15
420.0
 25
297.0
 35
0.0
146
0.0
 13
0.0
 23
0.0
 33
0.0
 16
1.0
 26
0.0
 36
0.0
 17
0.0
 27
1.0
 37
0.0
 76
     0
330
1B
331
2B9
  0
LAYOUT
  5
365
102
{ACAD_REACTORS
330
364
102
}
330
364
100
AcDbPlotSettings
  1

  2
none_device
  4
Letter_(8.50_x_11.00_Inches)
  6

 40
6.35
 41
6.35
 42
6.35
 43
6.35
 44
215.9
 45
279.4
 46
0.0
 47
0.0
 48
0.0
 49
0.0
140
0.0
141
0.0
142
1.0
143
52.49999999846251
 70
  1712
 72
     0
 73
     0
 74
     0
  7

 75
     0
 76
     0
 77
     2
 78
   300
147
0.0190476190481769
148
-0.0000001562100806
149
0.0
100
AcDbLayout
  1
Model
 70
     1
 71
     0
 10
0.0
 20
0.0
 11
420.0
 21
297.0
 12
0.0
 22
0.0
 32
0.0
 14
0.0
 24
0.0
 34
0.0
 15
420.0
 25
297.0
 35
0.0
146
0.0
 13
0.0
 23
0.0
 33
0.0
 16
1.0
 26
0.0
 36
0.0
 17
0.0
 27
1.0
 37
0.0
 76
     0
330
1F
331
1F4
  0
MATERIAL
  5
382
102
{ACAD_REACTORS
330
380
102
}
330
380
100
AcDbMaterial
  1
ByBlock
 72
     1
 94
      127
  0
MATERIAL
  5
381
102
{ACAD_REACTORS
330
380
102
}
330
380
100
AcDbMaterial
  1
ByLayer
 72
     1
 94
      127
  0
MATERIAL
  5
383
102
{ACAD_REACTORS
330
380
102
}
330
380
100
AcDbMaterial
  1
Global
 72
     1
 94
      127
  0
MLEADERSTYLE
  5
387
102
{ACAD_REACTORS
330
386
102
}
330
386
100
AcDbMLeaderStyle
179
     2
170
     2
171
     1
172
     0
 90
        2
 40
0.0
 41
0.0
173
     1
 91
-1056964608
340
14
 92
       -2
290
     1
 42
2.0
291
     1
 43
8.0
  3
Standard
341
0
 44
4.0
300

342
11
174
     1
178
     1
175
     1
176
     0
 93
-1056964608
 45
4.0
292
     0
297
     0
 46
4.0
343
0
 94
-1056964608
 47
1.0
 49
1.0
140
1.0
293
     1
141
0.0
294
     1
177
     0
142
1.0
295
     0
296
     0
143
3.75
271
     0
272
     9
273
     9
298
     0
  0
MLINESTYLE
  5
33E
102
{ACAD_REACTORS
330
33D
102
}
330
33D
100
AcDbMlineStyle
  2
STANDARD
 70
     0
  3

 62
   256
 51
90.0
 52
90.0
 71
     2
 49
0.5
 62
   256
  6
BYLAYER
 49
-0.5
 62
   256
  6
BYLAYER
  0
ACDBPLACEHOLDER
  5
341
102
{ACAD_REACTORS
330
340
102
}
330
340
  0
SCALE
  5
343
102
{ACAD_REACTORS
330
342
102
}
330
342
100
AcDbScale
 70
     0
300
1:1
140
1.0
141
1.0
290
     1
  0
SCALE
  5
344
102
{ACAD_REACTORS
330
342
102
}
330
342
100
AcDbScale
 70
     0
300
1:2
140
1.0
141
2.0
290
     0
  0
SCALE
  5
345
102
{ACAD_REACTORS
330
342
102
}
330
342
100
AcDbScale
 70
     0
300
1:4
140
1.0
141
4.0
290
     0
  0
SCALE
  5
346
102
{ACAD_REACTORS
330
342
102
}
330
342
100
AcDbScale
 70
     0
300
1:5
140
1.0
141
5.0
290
     0
  0
SCALE
  5
347
102
{ACAD_REACTORS
330
342
102
}
330
342
100
AcDbScale
 70
     0
300
1:8
140
1.0
141
8.0
290
     0
  0
SCALE
  5
348
102
{ACAD_REACTORS
330
342
102
}
330
342
100
AcDbScale
 70
     0
300
1:10
140
1.0
141
10.0
290
     0
  0
SCALE
  5
349
102
{ACAD_REACTORS
330
342
102
}
330
342
100
AcDbScale
 70
     0
300
1:16
140
1.0
141
16.0
290
     0
  0
SCALE
  5
34A
102
{ACAD_REACTORS
330
342
102
}
330
342
100
AcDbScale
 70
     0
300
1:20
140
1.0
141
20.0
290
     0
  0
SCALE
  5
34B
102
{ACAD_REACTORS
330
342
102
}
330
342
100
AcDbScale
 70
     0
300
1:30
140
1.0
141
30.0
290
     0
  0
SCALE
  5
34C
102
{ACAD_REACTORS
330
342
102
}
330
342
100
AcDbScale
 70
     0
300
1:40
140
1.0
141
40.0
290
     0
  0
SCALE
  5
34D
102
{ACAD_REACTORS
330
342
102
}
330
342
100
AcDbScale
 70
     0
300
1:50
140
1.0
141
50.0
290
     0
  0
SCALE
  5
34E
102
{ACAD_REACTORS
330
342
102
}
330
342
100
AcDbScale
 70
     0
300
1:100
140
1.0
141
100.0
290
     0
  0
SCALE
  5
34F
102
{ACAD_REACTORS
330
342
102
}
330
342
100
AcDbScale
 70
     0
300
2:1
140
2.0
141
1.0
290
     0
  0
SCALE
  5
350
102
{ACAD_REACTORS
330
342
102
}
330
342
100
AcDbScale
 70
     0
300
4:1
140
4.0
141
1.0
290
     0
  0
SCALE
  5
351
102
{ACAD_REACTORS
330
342
102
}
330
342
100
AcDbScale
 70
     0
300
8:1
140
8.0
141
1.0
290
     0
  0
SCALE
  5
352
102
{ACAD_REACTORS
330
342
102
}
330
342
100
AcDbScale
 70
     0
300
10:1
140
10.0
141
1.0
290
     0
  0
SCALE
  5
353
102
{ACAD_REACTORS
330
342
102
}
330
342
100
AcDbScale
 70
     0
300
100:1
140
100.0
141
1.0
290
     0
  0
SCALE
  5
354
102
{ACAD_REACTORS
330
342
102
}
330
342
100
AcDbScale
 70
     0
300
1/128" = 1'-0"
140
0.0078125
141
12.0
290
     0
  0
SCALE
  5
355
102
{ACAD_REACTORS
330
342
102
}
330
342
100
AcDbScale
 70
     0
300
1/64" = 1'-0"
140
0.015625
141
12.0
290
     0
  0
SCALE
  5
356
102
{ACAD_REACTORS
330
342
102
}
330
342
100
AcDbScale
 70
     0
300
1/32" = 1'-0"
140
0.03125
141
12.0
290
     0
  0
SCALE
  5
357
102
{ACAD_REACTORS
330
342
102
}
330
342
100
AcDbScale
 70
     0
300
1/16" = 1'-0"
140
0.0625
141
12.0
290
     0
  0
SCALE
  5
358
102
{ACAD_REACTORS
330
342
102
}
330
342
100
AcDbScale
 70
     0
300
3/32" = 1'-0"
140
0.09375
141
12.0
290
     0
  0
SCALE
  5
359
102
{ACAD_REACTORS
330
342
102
}
330
342
100
AcDbScale
 70
     0
300
1/8" = 1'-0"
140
0.125
141
12.0
290
     0
  0
SCALE
  5
35A
102
{ACAD_REACTORS
330
342
102
}
330
342
100
AcDbScale
 70
     0
300
3/16" = 1'-0"
140
0.1875
141
12.0
290
     0
  0
SCALE
  5
35B
102
{ACAD_REACTORS
330
342
102
}
330
342
100
AcDbScale
 70
     0
300
1/4" = 1'-0"
140
0.25
141
12.0
290
     0
  0
SCALE
  5
35C
102
{ACAD_REACTORS
330
342
102
}
330
342
100
AcDbScale
 70
     0
300
3/8" = 1'-0"
140
0.375
141
12.0
290
     0
  0
SCALE
  5
35D
102
{ACAD_REACTORS
330
342
102
}
330
342
100
AcDbScale
 70
     0
300
1/2" = 1'-0"
140
0.5
141
12.0
290
     0
  0
SCALE
  5
35E
102
{ACAD_REACTORS
330
342
102
}
330
342
100
AcDbScale
 70
     0
300
3/4" = 1'-0"
140
0.75
141
12.0
290
     0
  0
SCALE
  5
35F
102
{ACAD_REACTORS
330
342
102
}
330
342
100
AcDbScale
 70
     0
300
1" = 1'-0"
140
1.0
141
12.0
290
     0
  0
SCALE
  5
360
102
{ACAD_REACTORS
330
342
102
}
330
342
100
AcDbScale
 70
     0
300
1-1/2" = 1'-0"
140
1.5
141
12.0
290
     0
  0
SCALE
  5
361
102
{ACAD_REACTORS
330
342
102
}
330
342
100
AcDbScale
 70
     0
300
3" = 1'-0"
140
3.0
141
12.0
290
     0
  0
SCALE
  5
362
102
{ACAD_REACTORS
330
342
102
}
330
342
100
AcDbScale
 70
     0
300
6" = 1'-0"
140
6.0
141
12.0
290
     0
  0
SCALE
  5
363
102
{ACAD_REACTORS
330
342
102
}
330
342
100
AcDbScale
 70
     0
300
1'-0" = 1'-0"
140
12.0
141
12.0
290
     0
  0
TABLESTYLE
  5
385
102
{ACAD_REACTORS
330
384
102
}
102
{ACAD_XDICTIONARY
360
391
102
}
330
384
100
AcDbTableStyle
  3
Standard
 70
     0
 71
     0
 40
1.5
 41
1.5
280
     0
281
     0
  7
STANDARD
140
4.5
170
     2
 62
     0
 63
   257
283
     0
 90
        4
 91
        0
  1

274
    -2
284
     1
 64
     0
275
    -2
285
     1
 65
     0
276
    -2
286
     1
 66
     0
277
    -2
287
     1
 67
     0
278
    -2
288
     1
 68
     0
279
    -2
289
     1
 69
     0
  7
STANDARD
140
6.0
170
     5
 62
     0
 63
   257
283
     0
 90
        4
 91
        0
  1

274
    -2
284
     1
 64
     0
275
    -2
285
     1
 65
     0
276
    -2
286
     1
 66
     0
277
    -2
287
     1
 67
     0
278
    -2
288
     1
 68
     0
279
    -2
289
     1
 69
     0
  7
STANDARD
140
4.5
170
     5
 62
     0
 63
   257
283
     0
 90
        4
 91
        0
  1

274
    -2
284
     1
 64
     0
275
    -2
285
     1
 65
     0
276
    -2
286
     1
 66
     0
277
    -2
287
     1
 67
     0
278
    -2
288
     1
 68
     0
279
    -2
289
     1
 69
     0
  0
VISUALSTYLE
  5
36C
102
{ACAD_REACTORS
330
367
102
}
330
367
100
AcDbVisualStyle
  2
2dWireframe
 70
     4
177
     3
291
     0
 70
    58
 90
        0
176
     1
 90
        2
176
     1
 90
        0
176
     1
 90
        0
176
     1
 40
0.6
176
     1
 40
30.0
176
     1
 62
     7
420
 16777215
176
     1
 90
        1
176
     1
 90
        4
176
     1
 62
     7
176
     1
 62
   257
176
     1
 90
        1
176
     1
 90
        1
176
     1
 40
1.0
176
     1
 90
        0
176
     1
 62
   257
176
     1
 40
1.0
176
     1
 90
        1
176
     1
 90
        6
176
     1
 90
        2
176
     1
 62
     7
176
     1
 90
        5
176
     1
 90
        0
176
     1
 90
        0
176
     1
290
     0
176
     1
 90
        1
176
     1
 40
0.0
176
     1
 90
        0
176
     1
290
     1
176
     1
290
     1
176
     1
290
     0
176
     1
290
     0
176
     1
290
     0
176
     1
290
     0
176
     1
290
     0
176
     1
290
     0
176
     1
290
     0
176
     1
 90
       50
176
     1
 40
0.0
176
     1
 40
1.0
176
     1
 90
        0
176
     1
 62
    18
420
        0
176
     1
 90
       50
176
     1
 90
        3
176
     1
 62
     5
420
      255
176
     1
290
     0
176
     1
 90
       50
176
     1
 90
       50
176
     1
 90
       50
176
     1
290
     0
176
     1
 90
       50
176
     1
 62
   256
176
     0
 40
1.0
176
     0
 90
        2
176
     1
  1
strokes_ogs.tif
176
     1
290
     0
176
     1
 40
1.0
176
     1
 40
1.0
176
     1
  0
VISUALSTYLE
  5
36F
102
{ACAD_REACTORS
330
367
102
}
330
367
100
AcDbVisualStyle
  2
Basic
 70
     7
177
     3
291
     1
 70
    58
 90
        1
176
     1
 90
        0
176
     1
 90
        1
176
     1
 90
        0
176
     1
 40
0.6
176
     1
 40
30.0
176
     1
 62
     7
420
 16777215
176
     1
 90
        0
176
     1
 90
        4
176
     1
 62
     7
176
     1
 62
   257
176
     1
 90
        1
176
     1
 90
        1
176
     1
 40
1.0
176
     1
 90
        8
176
     1
 62
     7
176
     1
 40
1.0
176
     1
 90
        1
176
     1
 90
        6
176
     1
 90
        2
176
     1
 62
     7
176
     1
 90
        5
176
     1
 90
        0
176
     1
 90
        0
176
     1
290
     0
176
     1
 90
        1
176
     1
 40
0.0
176
     1
 90
        0
176
     1
290
     0
176
     1
290
     1
176
     1
290
     1
176
     1
290
     0
176
     1
290
     0
176
     1
290
     0
176
     1
290
     0
176
     1
290
     0
176
     1
290
     0
176
     1
 90
       50
176
     1
 40
0.0
176
     1
 40
1.0
176
     1
 90
        0
176
     1
 62
    18
420
        0
176
     1
 90
       50
176
     1
 90
        3
176
     1
 62
     5
420
      255
176
     1
290
     0
176
     1
 90
       50
176
     1
 90
       50
176
     1
 90
       50
176
     1
290
     0
176
     1
 90
       50
176
     1
 62
   256
176
     0
 40
1.0
176
     0
 90
        2
176
     1
  1
strokes_ogs.tif
176
     1
290
     0
176
     1
 40
1.0
176
     1
 40
1.0
176
     1
  0
VISUALSTYLE
  5
373
102
{ACAD_REACTORS
330
367
102
}
330
367
100
AcDbVisualStyle
  2
Brighten
 70
    12
177
     3
291
     1
 70
    58
 90
        2
176
     1
 90
        2
176
     1
 90
        0
176
     1
 90
        0
176
     1
 40
0.6
176
     1
 40
30.0
176
     1
 62
     7
420
 16777215
176
     1
 90
        1
176
     1
 90
        4
176
     1
 62
     7
176
     1
 62
   257
176
     1
 90
        1
176
     1
 90
        1
176
     1
 40
1.0
176
     1
 90
        8
176
     1
 62
     7
176
     1
 40
1.0
176
     1
 90
        1
176
     1
 90
        6
176
     1
 90
        2
176
     1
 62
     7
176
     1
 90
        5
176
     1
 90
        0
176
     1
 90
        0
176
     1
290
     0
176
     1
 90
        1
176
     1
 40
50.0
176
     1
 90
        0
176
     1
290
     0
176
     1
290
     1
176
     1
290
     1
176
     1
290
     0
176
     1
290
     0
176
     1
290
     0
176
     1
290
     0
176
     1
290
     0
176
     1
290
     0
176
     1
 90
       50
176
     1
 40
0.0
176
     1
 40
1.0
176
     1
 90
        0
176
     1
 62
    18
420
        0
176
     1
 90
       50
176
     1
 90
        3
176
     1
 62
     5
420
      255
176
     1
290
     0
176
     1
 90
       50
176
     1
 90
       50
176
     1
 90
       50
176
     1
290
     0
176
     1
 90
       50
176
     1
 62
   256
176
     0
 40
1.0
176
     0
 90
        2
176
     1
  1
strokes_ogs.tif
176
     1
290
     0
176
     1
 40
1.0
176
     1
 40
1.0
176
     1
  0
VISUALSTYLE
  5
377
102
{ACAD_REACTORS
330
367
102
}
330
367
100
AcDbVisualStyle
  2
ColorChange
 70
    16
177
     3
291
     1
 70
    58
 90
        2
176
     1
 90
        2
176
     1
 90
        3
176
     1
 90
        0
176
     1
 40
0.6
176
     1
 40
30.0
176
     1
 62
     8
420
  8421504
176
     1
 90
        1
176
     1
 90
        4
176
     1
 62
     7
176
     1
 62
   257
176
     1
 90
        1
176
     1
 90
        1
176
     1
 40
1.0
176
     1
 90
        8
176
     1
 62
     8
420
  8421504
176
     1
 40
1.0
176
     1
 90
        1
176
     1
 90
        6
176
     1
 90
        2
176
     1
 62
     7
176
     1
 90
        5
176
     1
 90
        0
176
     1
 90
        0
176
     1
290
     0
176
     1
 90
        1
176
     1
 40
0.0
176
     1
 90
        0
176
     1
290
     0
176
     1
290
     1
176
     1
290
     1
176
     1
290
     0
176
     1
290
     0
176
     1
290
     0
176
     1
290
     0
176
     1
290
     0
176
     1
290
     0
176
     1
 90
       50
176
     1
 40
0.0
176
     1
 40
1.0
176
     1
 90
        0
176
     1
 62
    18
420
        0
176
     1
 90
       50
176
     1
 90
        3
176
     1
 62
     5
420
      255
176
     1
290
     0
176
     1
 90
       50
176
     1
 90
       50
176
     1
 90
       50
176
     1
290
     0
176
     1
 90
       50
176
     1
 62
   256
176
     0
 40
1.0
176
     0
 90
        2
176
     1
  1
strokes_ogs.tif
176
     1
290
     0
176
     1
 40
1.0
176
     1
 40
1.0
176
     1
  0
VISUALSTYLE
  5
371
102
{ACAD_REACTORS
330
367
102
}
330
367
100
AcDbVisualStyle
  2
Conceptual
 70
     9
177
     3
291
     0
 70
    58
 90
        3
176
     1
 90
        2
176
     1
 90
        0
176
     1
 90
        0
176
     1
 40
0.6
176
     1
 40
30.0
176
     1
 62
     7
420
 16777215
176
     1
 90
        2
176
     1
 90
        2
176
     1
 62
     7
176
     1
 62
   257
176
     1
 90
        1
176
     1
 90
        1
176
     1
 40
179.0
176
     1
 90
        8
176
     1
 62
     7
176
     1
 40
1.0
176
     1
 90
        1
176
     1
 90
        6
176
     1
 90
        2
176
     1
 62
     7
176
     1
 90
        3
176
     1
 90
        0
176
     1
 90
        0
176
     1
290
     0
176
     1
 90
        1
176
     1
 40
0.0
176
     1
 90
        0
176
     1
290
     0
176
     1
290
     1
176
     1
290
     1
176
     1
290
     0
176
     1
290
     0
176
     1
290
     0
176
     1
290
     0
176
     1
290
     0
176
     1
290
     0
176
     1
 90
       50
176
     1
 40
0.0
176
     1
 40
1.0
176
     1
 90
        0
176
     1
 62
    18
420
        0
176
     1
 90
       50
176
     1
 90
        3
176
     1
 62
     5
420
      255
176
     1
290
     0
176
     1
 90
       50
176
     1
 90
       50
176
     1
 90
       50
176
     1
290
     0
176
     1
 90
       50
176
     1
 62
   256
176
     0
 40
1.0
176
     0
 90
        2
176
     1
  1
strokes_ogs.tif
176
     1
290
     0
176
     1
 40
1.0
176
     1
 40
1.0
176
     1
  0
VISUALSTYLE
  5
372
102
{ACAD_REACTORS
330
367
102
}
330
367
100
AcDbVisualStyle
  2
Dim
 70
    11
177
     3
291
     1
 70
    58
 90
        2
176
     1
 90
        2
176
     1
 90
        0
176
     1
 90
        0
176
     1
 40
0.6
176
     1
 40
30.0
176
     1
 62
     7
420
 16777215
176
     1
 90
        1
176
     1
 90
        4
176
     1
 62
     7
176
     1
 62
   257
176
     1
 90
        1
176
     1
 90
        1
176
     1
 40
1.0
176
     1
 90
        8
176
     1
 62
     7
176
     1
 40
1.0
176
     1
 90
        1
176
     1
 90
        6
176
     1
 90
        2
176
     1
 62
     7
176
     1
 90
        5
176
     1
 90
        0
176
     1
 90
        0
176
     1
290
     0
176
     1
 90
        1
176
     1
 40
-50.0
176
     1
 90
        0
176
     1
290
     0
176
     1
290
     1
176
     1
290
     1
176
     1
290
     0
176
     1
290
     0
176
     1
290
     0
176
     1
290
     0
176
     1
290
     0
176
     1
290
     0
176
     1
 90
       50
176
     1
 40
0.0
176
     1
 40
1.0
176
     1
 90
        0
176
     1
 62
    18
420
        0
176
     1
 90
       50
176
     1
 90
        3
176
     1
 62
     5
420
      255
176
     1
290
     0
176
     1
 90
       50
176
     1
 90
       50
176
     1
 90
       50
176
     1
290
     0
176
     1
 90
       50
176
     1
 62
   256
176
     0
 40
1.0
176
     0
 90
        2
176
     1
  1
strokes_ogs.tif
176
     1
290
     0
176
     1
 40
1.0
176
     1
 40
1.0
176
     1
  0
VISUALSTYLE
  5
37A
102
{ACAD_REACTORS
330
367
102
}
330
367
100
AcDbVisualStyle
  2
EdgeColorOff
 70
    22
177
     3
291
     1
 70
    58
 90
        2
176
     0
 90
        2
176
     0
 90
        0
176
     0
 90
        0
176
     0
 40
0.6
176
     0
 40
30.0
176
     0
 62
     7
420
 16777215
176
     0
 90
        1
176
     0
 90
        4
176
     0
 62
     7
176
     0
 62
   257
176
     0
 90
        1
176
     0
 90
        1
176
     0
 40
1.0
176
     0
 90
        8
176
     2
 62
     7
176
     0
 40
1.0
176
     0
 90
        1
176
     0
 90
        6
176
     0
 90
        2
176
     0
 62
     7
176
     0
 90
        5
176
     0
 90
        0
176
     0
 90
        0
176
     0
290
     0
176
     0
 90
        1
176
     0
 40
0.0
176
     0
 90
        0
176
     0
290
     0
176
     0
290
     1
176
     0
290
     1
176
     0
290
     0
176
     0
290
     0
176
     0
290
     0
176
     0
290
     0
176
     0
290
     0
176
     0
290
     0
176
     0
 90
       50
176
     0
 40
0.0
176
     0
 40
1.0
176
     0
 90
        0
176
     0
 62
    18
420
        0
176
     0
 90
       50
176
     0
 90
        3
176
     0
 62
     5
420
      255
176
     0
290
     0
176
     0
 90
       50
176
     0
 90
       50
176
     0
 90
       50
176
     0
290
     0
176
     0
 90
       50
176
     0
 62
   256
176
     0
 40
1.0
176
     0
 90
        2
176
     0
  1
strokes_ogs.tif
176
     0
290
     0
176
     0
 40
1.0
176
     0
 40
1.0
176
     0
  0
VISUALSTYLE
  5
376
102
{ACAD_REACTORS
330
367
102
}
330
367
100
AcDbVisualStyle
  2
Facepattern
 70
    15
177
     3
291
     1
 70
    58
 90
        2
176
     1
 90
        2
176
     1
 90
        0
176
     1
 90
        0
176
     1
 40
0.6
176
     1
 40
30.0
176
     1
 62
     7
420
 16777215
176
     1
 90
        1
176
     1
 90
        4
176
     1
 62
     7
176
     1
 62
   257
176
     1
 90
        1
176
     1
 90
        1
176
     1
 40
1.0
176
     1
 90
        8
176
     1
 62
     7
176
     1
 40
1.0
176
     1
 90
        1
176
     1
 90
        6
176
     1
 90
        2
176
     1
 62
     7
176
     1
 90
        5
176
     1
 90
        0
176
     1
 90
        0
176
     1
290
     0
176
     1
 90
        1
176
     1
 40
0.0
176
     1
 90
        0
176
     1
290
     0
176
     1
290
     1
176
     1
290
     1
176
     1
290
     0
176
     1
290
     0
176
     1
290
     0
176
     1
290
     0
176
     1
290
     0
176
     1
290
     0
176
     1
 90
       50
176
     1
 40
0.0
176
     1
 40
1.0
176
     1
 90
        0
176
     1
 62
    18
420
        0
176
     1
 90
       50
176
     1
 90
        3
176
     1
 62
     5
420
      255
176
     1
290
     0
176
     1
 90
       50
176
     1
 90
       50
176
     1
 90
       50
176
     1
290
     0
176
     1
 90
       50
176
     1
 62
   256
176
     0
 40
1.0
176
     0
 90
        2
176
     1
  1
strokes_ogs.tif
176
     1
290
     0
176
     1
 40
1.0
176
     1
 40
1.0
176
     1
  0
VISUALSTYLE
  5
368
102
{ACAD_REACTORS
330
367
102
}
330
367
100
AcDbVisualStyle
  2
Flat
 70
     0
177
     3
291
     1
 70
    58
 90
        2
176
     1
 90
        1
176
     1
 90
        1
176
     1
 90
        2
176
     1
 40
0.6
176
     1
 40
30.0
176
     1
 62
     7
420
 16777215
176
     1
 90
        0
176
     1
 90
        0
176
     1
 62
     7
176
     1
 62
   257
176
     1
 90
        1
176
     1
 90
        1
176
     1
 40
1.0
176
     1
 90
        8
176
     1
 62
     7
176
     1
 40
1.0
176
     1
 90
        1
176
     1
 90
        6
176
     1
 90
        2
176
     1
 62
     7
176
     1
 90
        5
176
     1
 90
        0
176
     1
 90
        0
176
     1
290
     0
176
     1
 90
       13
176
     1
 40
0.0
176
     1
 90
        0
176
     1
290
     0
176
     1
290
     1
176
     1
290
     1
176
     1
290
     0
176
     1
290
     0
176
     1
290
     0
176
     1
290
     0
176
     1
290
     0
176
     1
290
     0
176
     1
 90
       50
176
     1
 40
0.0
176
     1
 40
1.0
176
     1
 90
        0
176
     1
 62
    18
420
        0
176
     1
 90
       50
176
     1
 90
        3
176
     1
 62
     5
420
      255
176
     1
290
     0
176
     1
 90
       50
176
     1
 90
       50
176
     1
 90
       50
176
     1
290
     0
176
     1
 90
       50
176
     1
 62
   256
176
     0
 40
1.0
176
     0
 90
        2
176
     1
  1
strokes_ogs.tif
176
     1
290
     0
176
     1
 40
1.0
176
     1
 40
1.0
176
     1
  0
VISUALSTYLE
  5
369
102
{ACAD_REACTORS
330
367
102
}
330
367
100
AcDbVisualStyle
  2
FlatWithEdges
 70
     1
177
     3
291
     1
 70
    58
 90
        2
176
     1
 90
        1
176
     1
 90
        1
176
     1
 90
        2
176
     1
 40
0.6
176
     1
 40
30.0
176
     1
 62
     7
420
 16777215
176
     1
 90
        1
176
     1
 90
        0
176
     1
 62
     7
176
     1
 62
   257
176
     1
 90
        1
176
     1
 90
        1
176
     1
 40
1.0
176
     1
 90
        0
176
     1
 62
   257
176
     1
 40
1.0
176
     1
 90
        1
176
     1
 90
        6
176
     1
 90
        2
176
     1
 62
     7
176
     1
 90
        5
176
     1
 90
        0
176
     1
 90
        0
176
     1
290
     0
176
     1
 90
       13
176
     1
 40
0.0
176
     1
 90
        0
176
     1
290
     0
176
     1
290
     1
176
     1
290
     1
176
     1
290
     0
176
     1
290
     0
176
     1
290
     0
176
     1
290
     0
176
     1
290
     0
176
     1
290
     0
176
     1
 90
       50
176
     1
 40
0.0
176
     1
 40
1.0
176
     1
 90
        0
176
     1
 62
    18
420
        0
176
     1
 90
       50
176
     1
 90
        3
176
     1
 62
     5
420
      255
176
     1
290
     0
176
     1
 90
       50
176
     1
 90
       50
176
     1
 90
       50
176
     1
290
     0
176
     1
 90
       50
176
     1
 62
   256
176
     0
 40
1.0
176
     0
 90
        2
176
     1
  1
strokes_ogs.tif
176
     1
290
     0
176
     1
 40
1.0
176
     1
 40
1.0
176
     1
  0
VISUALSTYLE
  5
36A
102
{ACAD_REACTORS
330
367
102
}
330
367
100
AcDbVisualStyle
  2
Gouraud
 70
     2
177
     3
291
     1
 70
    58
 90
        2
176
     1
 90
        2
176
     1
 90
        1
176
     1
 90
        2
176
     1
 40
0.6
176
     1
 40
30.0
176
     1
 62
     7
420
 16777215
176
     1
 90
        0
176
     1
 90
        0
176
     1
 62
     7
176
     1
 62
   257
176
     1
 90
        1
176
     1
 90
        1
176
     1
 40
1.0
176
     1
 90
        0
176
     1
 62
     7
176
     1
 40
1.0
176
     1
 90
        1
176
     1
 90
        6
176
     1
 90
        2
176
     1
 62
     7
176
     1
 90
        5
176
     1
 90
        0
176
     1
 90
        0
176
     1
290
     0
176
     1
 90
       13
176
     1
 40
0.0
176
     1
 90
        0
176
     1
290
     0
176
     1
290
     1
176
     1
290
     1
176
     1
290
     0
176
     1
290
     0
176
     1
290
     0
176
     1
290
     0
176
     1
290
     0
176
     1
290
     0
176
     1
 90
       50
176
     1
 40
0.0
176
     1
 40
1.0
176
     1
 90
        0
176
     1
 62
    18
420
        0
176
     1
 90
       50
176
     1
 90
        3
176
     1
 62
     5
420
      255
176
     1
290
     0
176
     1
 90
       50
176
     1
 90
       50
176
     1
 90
       50
176
     1
290
     0
176
     1
 90
       50
176
     1
 62
   256
176
     0
 40
1.0
176
     0
 90
        2
176
     1
  1
strokes_ogs.tif
176
     1
290
     0
176
     1
 40
1.0
176
     1
 40
1.0
176
     1
  0
VISUALSTYLE
  5
36B
102
{ACAD_REACTORS
330
367
102
}
330
367
100
AcDbVisualStyle
  2
GouraudWithEdges
 70
     3
177
     3
291
     1
 70
    58
 90
        2
176
     1
 90
        2
176
     1
 90
        1
176
     1
 90
        2
176
     1
 40
0.6
176
     1
 40
30.0
176
     1
 62
     7
420
 16777215
176
     1
 90
        1
176
     1
 90
        0
176
     1
 62
     7
176
     1
 62
   257
176
     1
 90
        1
176
     1
 90
        1
176
     1
 40
1.0
176
     1
 90
        0
176
     1
 62
   257
176
     1
 40
1.0
176
     1
 90
        1
176
     1
 90
        6
176
     1
 90
        2
176
     1
 62
     7
176
     1
 90
        5
176
     1
 90
        0
176
     1
 90
        0
176
     1
290
     0
176
     1
 90
       13
176
     1
 40
0.0
176
     1
 90
        0
176
     1
290
     0
176
     1
290
     1
176
     1
290
     1
176
     1
290
     0
176
     1
290
     0
176
     1
290
     0
176
     1
290
     0
176
     1
290
     0
176
     1
290
     0
176
     1
 90
       50
176
     1
 40
0.0
176
     1
 40
1.0
176
     1
 90
        0
176
     1
 62
    18
420
        0
176
     1
 90
       50
176
     1
 90
        3
176
     1
 62
     5
420
      255
176
     1
290
     0
176
     1
 90
       50
176
     1
 90
       50
176
     1
 90
       50
176
     1
290
     0
176
     1
 90
       50
176
     1
 62
   256
176
     0
 40
1.0
176
     0
 90
        2
176
     1
  1
strokes_ogs.tif
176
     1
290
     0
176
     1
 40
1.0
176
     1
 40
1.0
176
     1
  0
VISUALSTYLE
  5
36E
102
{ACAD_REACTORS
330
367
102
}
330
367
100
AcDbVisualStyle
  2
Hidden
 70
     6
177
     3
291
     0
 70
    58
 90
        1
176
     1
 90
        2
176
     1
 90
        2
176
     1
 90
        0
176
     1
 40
0.6
176
     1
 40
30.0
176
     1
 62
     7
420
 16777215
176
     1
 90
        2
176
     1
 90
        2
176
     1
 62
     7
176
     1
 62
   257
176
     1
 90
        2
176
     1
 90
        1
176
     1
 40
40.0
176
     1
 90
        0
176
     1
 62
   257
176
     1
 40
1.0
176
     1
 90
        1
176
     1
 90
        6
176
     1
 90
        2
176
     1
 62
     7
176
     1
 90
        3
176
     1
 90
        0
176
     1
 90
        0
176
     1
290
     0
176
     1
 90
        1
176
     1
 40
0.0
176
     1
 90
        0
176
     1
290
     0
176
     1
290
     1
176
     1
290
     1
176
     1
290
     0
176
     1
290
     0
176
     1
290
     0
176
     1
290
     0
176
     1
290
     0
176
     1
290
     0
176
     1
 90
       50
176
     1
 40
0.0
176
     1
 40
1.0
176
     1
 90
        0
176
     1
 62
    18
420
        0
176
     1
 90
       50
176
     1
 90
        3
176
     1
 62
     5
420
      255
176
     1
290
     0
176
     1
 90
       50
176
     1
 90
       50
176
     1
 90
       50
176
     1
290
     0
176
     1
 90
       50
176
     1
 62
   256
176
     0
 40
1.0
176
     0
 90
        2
176
     1
  1
strokes_ogs.tif
176
     1
290
     0
176
     1
 40
1.0
176
     1
 40
1.0
176
     1
  0
VISUALSTYLE
  5
378
102
{ACAD_REACTORS
330
367
102
}
330
367
100
AcDbVisualStyle
  2
JitterOff
 70
    20
177
     3
291
     1
 70
    58
 90
        2
176
     0
 90
        2
176
     0
 90
        0
176
     0
 90
        0
176
     0
 40
0.6
176
     0
 40
30.0
176
     0
 62
     7
420
 16777215
176
     0
 90
        1
176
     0
 90
        4
176
     0
 62
     7
176
     0
 62
   257
176
     0
 90
        1
176
     0
 90
        1
176
     0
 40
1.0
176
     0
 90
       10
176
     2
 62
     7
176
     0
 40
1.0
176
     0
 90
        1
176
     0
 90
        6
176
     0
 90
        2
176
     0
 62
     7
176
     0
 90
        5
176
     0
 90
        0
176
     0
 90
        0
176
     0
290
     0
176
     0
 90
        1
176
     0
 40
0.0
176
     0
 90
        0
176
     0
290
     0
176
     0
290
     1
176
     0
290
     1
176
     0
290
     0
176
     0
290
     0
176
     0
290
     0
176
     0
290
     0
176
     0
290
     0
176
     0
290
     0
176
     0
 90
       50
176
     0
 40
0.0
176
     0
 40
1.0
176
     0
 90
        0
176
     0
 62
    18
420
        0
176
     0
 90
       50
176
     0
 90
        3
176
     0
 62
     5
420
      255
176
     0
290
     0
176
     0
 90
       50
176
     0
 90
       50
176
     0
 90
       50
176
     0
290
     0
176
     0
 90
       50
176
     0
 62
   256
176
     0
 40
1.0
176
     0
 90
        2
176
     0
  1
strokes_ogs.tif
176
     0
290
     0
176
     0
 40
1.0
176
     0
 40
1.0
176
     0
  0
VISUALSTYLE
  5
375
102
{ACAD_REACTORS
330
367
102
}
330
367
100
AcDbVisualStyle
  2
Linepattern
 70
    14
177
     3
291
     1
 70
    58
 90
        2
176
     1
 90
        2
176
     1
 90
        0
176
     1
 90
        0
176
     1
 40
0.6
176
     1
 40
30.0
176
     1
 62
     7
420
 16777215
176
     1
 90
        1
176
     1
 90
        4
176
     1
 62
     7
176
     1
 62
   257
176
     1
 90
        7
176
     1
 90
        7
176
     1
 40
1.0
176
     1
 90
        8
176
     1
 62
     7
176
     1
 40
1.0
176
     1
 90
        1
176
     1
 90
        6
176
     1
 90
        2
176
     1
 62
     7
176
     1
 90
        5
176
     1
 90
        0
176
     1
 90
        0
176
     1
290
     0
176
     1
 90
        1
176
     1
 40
0.0
176
     1
 90
        0
176
     1
290
     0
176
     1
290
     1
176
     1
290
     1
176
     1
290
     0
176
     1
290
     0
176
     1
290
     0
176
     1
290
     0
176
     1
290
     0
176
     1
290
     0
176
     1
 90
       50
176
     1
 40
0.0
176
     1
 40
1.0
176
     1
 90
        0
176
     1
 62
    18
420
        0
176
     1
 90
       50
176
     1
 90
        3
176
     1
 62
     5
420
      255
176
     1
290
     0
176
     1
 90
       50
176
     1
 90
       50
176
     1
 90
       50
176
     1
290
     0
176
     1
 90
       50
176
     1
 62
   256
176
     0
 40
1.0
176
     0
 90
        2
176
     1
  1
strokes_ogs.tif
176
     1
290
     0
176
     1
 40
1.0
176
     1
 40
1.0
176
     1
  0
VISUALSTYLE
  5
379
102
{ACAD_REACTORS
330
367
102
}
330
367
100
AcDbVisualStyle
  2
OverhangOff
 70
    21
177
     3
291
     1
 70
    58
 90
        2
176
     0
 90
        2
176
     0
 90
        0
176
     0
 90
        0
176
     0
 40
0.6
176
     0
 40
30.0
176
     0
 62
     7
420
 16777215
176
     0
 90
        1
176
     0
 90
        4
176
     0
 62
     7
176
     0
 62
   257
176
     0
 90
        1
176
     0
 90
        1
176
     0
 40
1.0
176
     0
 90
        9
176
     2
 62
     7
176
     0
 40
1.0
176
     0
 90
        1
176
     0
 90
        6
176
     0
 90
        2
176
     0
 62
     7
176
     0
 90
        5
176
     0
 90
        0
176
     0
 90
        0
176
     0
290
     0
176
     0
 90
        1
176
     0
 40
0.0
176
     0
 90
        0
176
     0
290
     0
176
     0
290
     1
176
     0
290
     1
176
     0
290
     0
176
     0
290
     0
176
     0
290
     0
176
     0
290
     0
176
     0
290
     0
176
     0
290
     0
176
     0
 90
       50
176
     0
 40
0.0
176
     0
 40
1.0
176
     0
 90
        0
176
     0
 62
    18
420
        0
176
     0
 90
       50
176
     0
 90
        3
176
     0
 62
     5
420
      255
176
     0
290
     0
176
     0
 90
       50
176
     0
 90
       50
176
     0
 90
       50
176
     0
290
     0
176
     0
 90
       50
176
     0
 62
   256
176
     0
 40
1.0
176
     0
 90
        2
176
     0
  1
strokes_ogs.tif
176
     0
290
     0
176
     0
 40
1.0
176
     0
 40
1.0
176
     0
  0
VISUALSTYLE
  5
370
102
{ACAD_REACTORS
330
367
102
}
330
367
100
AcDbVisualStyle
  2
Realistic
 70
     8
177
     3
291
     0
 70
    58
 90
        2
176
     1
 90
        3
176
     1
 90
        0
176
     1
 90
        2
176
     1
 40
0.6
176
     1
 40
30.0
176
     1
 62
     7
420
 16777215
176
     1
 90
        0
176
     1
 90
        0
176
     1
 62
     7
176
     1
 62
   257
176
     1
 90
        1
176
     1
 90
        1
176
     1
 40
1.0
176
     1
 90
        8
176
     1
 62
   257
176
     1
 40
1.0
176
     1
 90
        1
176
     1
 90
        6
176
     1
 90
        2
176
     1
 62
     7
176
     1
 90
        3
176
     1
 90
        0
176
     1
 90
        0
176
     1
290
     0
176
     1
 90
       13
176
     1
 40
0.0
176
     1
 90
        0
176
     1
290
     0
176
     1
290
     1
176
     1
290
     1
176
     1
290
     0
176
     1
290
     0
176
     1
290
     0
176
     1
290
     0
176
     1
290
     0
176
     1
290
     0
176
     1
 90
       50
176
     1
 40
0.0
176
     1
 40
1.0
176
     1
 90
        0
176
     1
 62
    18
420
        0
176
     1
 90
       50
176
     1
 90
        3
176
     1
 62
     5
420
      255
176
     1
290
     0
176
     1
 90
       50
176
     1
 90
       50
176
     1
 90
       50
176
     1
290
     0
176
     1
 90
       50
176
     1
 62
   256
176
     0
 40
1.0
176
     0
 90
        2
176
     1
  1
strokes_ogs.tif
176
     1
290
     0
176
     1
 40
1.0
176
     1
 40
1.0
176
     1
  0
VISUALSTYLE
  5
37F
102
{ACAD_REACTORS
330
367
102
}
330
367
100
AcDbVisualStyle
  2
Shaded
 70
    27
177
     3
291
     0
 70
    58
 90
        2
176
     1
 90
        2
176
     1
 90
        1
176
     1
 90
        2
176
     1
 40
0.6
176
     1
 40
30.0
176
     1
 62
     7
420
 16777215
176
     1
 90
        0
176
     1
 90
        4
176
     1
 62
     7
176
     1
 62
   257
176
     1
 90
        1
176
     1
 90
        1
176
     1
 40
1.0
176
     1
 90
        8
176
     1
 62
   257
176
     1
 40
1.0
176
     1
 90
        1
176
     1
 90
        6
176
     1
 90
        2
176
     1
 62
     8
420
  7895160
176
     1
 90
        3
176
     1
 90
        0
176
     1
 90
        0
176
     1
290
     0
176
     1
 90
        5
176
     1
 40
0.0
176
     1
 90
        0
176
     1
290
     0
176
     1
290
     1
176
     1
290
     1
176
     1
290
     0
176
     1
290
     0
176
     1
290
     0
176
     1
290
     0
176
     1
290
     0
176
     1
290
     0
176
     1
 90
       50
176
     1
 40
0.0
176
     1
 40
1.0
176
     1
 90
        0
176
     1
 62
    18
420
        0
176
     1
 90
       50
176
     1
 90
        3
176
     1
 62
     5
420
      255
176
     1
290
     0
176
     1
 90
       50
176
     1
 90
       50
176
     1
 90
       50
176
     1
290
     0
176
     1
 90
       50
176
     1
 62
   256
176
     0
 40
1.0
176
     0
 90
        2
176
     1
  1
strokes_ogs.tif
176
     1
290
     0
176
     1
 40
1.0
176
     1
 40
1.0
176
     1
  0
VISUALSTYLE
  5
37E
102
{ACAD_REACTORS
330
367
102
}
330
367
100
AcDbVisualStyle
  2
Shaded with edges
 70
    26
177
     3
291
     0
 70
    58
 90
        2
176
     1
 90
        2
176
     1
 90
        1
176
     1
 90
        2
176
     1
 40
0.6
176
     1
 40
30.0
176
     1
 62
     7
420
 16777215
176
     1
 90
        1
176
     1
 90
       10
176
     1
 62
     7
176
     1
 62
   257
176
     1
 90
        2
176
     1
 90
        1
176
     1
 40
1.0
176
     1
 90
        8
176
     1
 62
   257
176
     1
 40
1.0
176
     1
 90
        1
176
     1
 90
        6
176
     1
 90
        2
176
     1
 62
     7
176
     1
 90
        3
176
     1
 90
        0
176
     1
 90
        0
176
     1
290
     0
176
     1
 90
        5
176
     1
 40
0.0
176
     1
 90
        0
176
     1
290
     0
176
     1
290
     1
176
     1
290
     1
176
     1
290
     0
176
     1
290
     0
176
     1
290
     0
176
     1
290
     0
176
     1
290
     0
176
     1
290
     0
176
     1
 90
       50
176
     1
 40
0.0
176
     1
 40
1.0
176
     1
 90
        0
176
     1
 62
    18
420
        0
176
     1
 90
       50
176
     1
 90
        3
176
     1
 62
     5
420
      255
176
     1
290
     0
176
     1
 90
       50
176
     1
 90
       50
176
     1
 90
       50
176
     1
290
     0
176
     1
 90
       50
176
     1
 62
   256
176
     0
 40
1.0
176
     0
 90
        2
176
     1
  1
strokes_ogs.tif
176
     1
290
     0
176
     1
 40
1.0
176
     1
 40
1.0
176
     1
  0
VISUALSTYLE
  5
37B
102
{ACAD_REACTORS
330
367
102
}
330
367
100
AcDbVisualStyle
  2
Shades of Gray
 70
    23
177
     3
291
     0
 70
    58
 90
        2
176
     1
 90
        2
176
     1
 90
        3
176
     1
 90
        0
176
     1
 40
0.6
176
     1
 40
30.0
176
     1
 62
     7
420
 16777215
176
     1
 90
        2
176
     1
 90
        2
176
     1
 62
     7
176
     1
 62
     7
176
     1
 90
        1
176
     1
 90
        1
176
     1
 40
40.0
176
     1
 90
        8
176
     1
 62
     7
176
     1
 40
1.0
176
     1
 90
        1
176
     1
 90
        6
176
     1
 90
        2
176
     1
 62
     7
176
     1
 90
        3
176
     1
 90
        0
176
     1
 90
        0
176
     1
290
     0
176
     1
 90
        1
176
     1
 40
0.0
176
     1
 90
        0
176
     1
290
     0
176
     1
290
     1
176
     1
290
     1
176
     1
290
     0
176
     1
290
     0
176
     1
290
     0
176
     1
290
     0
176
     1
290
     0
176
     1
290
     0
176
     1
 90
       50
176
     1
 40
0.0
176
     1
 40
1.0
176
     1
 90
        0
176
     1
 62
    18
420
        0
176
     1
 90
       50
176
     1
 90
        3
176
     1
 62
     5
420
      255
176
     1
290
     0
176
     1
 90
       50
176
     1
 90
       50
176
     1
 90
       50
176
     1
290
     0
176
     1
 90
       50
176
     1
 62
   256
176
     0
 40
1.0
176
     0
 90
        2
176
     1
  1
strokes_ogs.tif
176
     1
290
     0
176
     1
 40
1.0
176
     1
 40
1.0
176
     1
  0
VISUALSTYLE
  5
37C
102
{ACAD_REACTORS
330
367
102
}
330
367
100
AcDbVisualStyle
  2
Sketchy
 70
    24
177
     3
291
     0
 70
    58
 90
        1
176
     1
 90
        2
176
     1
 90
        2
176
     1
 90
        0
176
     1
 40
0.6
176
     1
 40
30.0
176
     1
 62
     7
420
 16777215
176
     1
 90
        2
176
     1
 90
        2
176
     1
 62
     7
176
     1
 62
     7
176
     1
 90
        1
176
     1
 90
        1
176
     1
 40
40.0
176
     1
 90
       11
176
     1
 62
     7
176
     1
 40
1.0
176
     1
 90
        1
176
     1
 90
        6
176
     1
 90
        2
176
     1
 62
     7
176
     1
 90
        6
176
     1
 90
        0
176
     1
 90
        0
176
     1
290
     0
176
     1
 90
        1
176
     1
 40
0.0
176
     1
 90
        0
176
     1
290
     0
176
     1
290
     1
176
     1
290
     1
176
     1
290
     0
176
     1
290
     0
176
     1
290
     0
176
     1
290
     0
176
     1
290
     0
176
     1
290
     0
176
     1
 90
       50
176
     1
 40
0.0
176
     1
 40
1.0
176
     1
 90
        0
176
     1
 62
    18
420
        0
176
     1
 90
       50
176
     1
 90
        3
176
     1
 62
     5
420
      255
176
     1
290
     0
176
     1
 90
       50
176
     1
 90
       50
176
     1
 90
       50
176
     1
290
     0
176
     1
 90
       50
176
     1
 62
   256
176
     0
 40
1.0
176
     0
 90
        2
176
     1
  1
strokes_ogs.tif
176
     1
290
     0
176
     1
 40
1.0
176
     1
 40
1.0
176
     1
  0
VISUALSTYLE
  5
374
102
{ACAD_REACTORS
330
367
102
}
330
367
100
AcDbVisualStyle
  2
Thicken
 70
    13
177
     3
291
     1
 70
    58
 90
        2
176
     1
 90
        2
176
     1
 90
        0
176
     1
 90
        0
176
     1
 40
0.6
176
     1
 40
30.0
176
     1
 62
     7
420
 16777215
176
     1
 90
        1
176
     1
 90
        4
176
     1
 62
     7
176
     1
 62
   257
176
     1
 90
        1
176
     1
 90
        1
176
     1
 40
1.0
176
     1
 90
       12
176
     1
 62
     7
176
     1
 40
1.0
176
     1
 90
        1
176
     1
 90
        6
176
     1
 90
        2
176
     1
 62
     7
176
     1
 90
        5
176
     1
 90
        0
176
     1
 90
        0
176
     1
290
     0
176
     1
 90
        1
176
     1
 40
0.0
176
     1
 90
        0
176
     1
290
     0
176
     1
290
     1
176
     1
290
     1
176
     1
290
     0
176
     1
290
     0
176
     1
290
     0
176
     1
290
     0
176
     1
290
     0
176
     1
290
     0
176
     1
 90
       50
176
     1
 40
0.0
176
     1
 40
1.0
176
     1
 90
        0
176
     1
 62
    18
420
        0
176
     1
 90
       50
176
     1
 90
        3
176
     1
 62
     5
420
      255
176
     1
290
     0
176
     1
 90
       50
176
     1
 90
       50
176
     1
 90
       50
176
     1
290
     0
176
     1
 90
       50
176
     1
 62
   256
176
     0
 40
1.0
176
     0
 90
        2
176
     1
  1
strokes_ogs.tif
176
     1
290
     0
176
     1
 40
1.0
176
     1
 40
1.0
176
     1
  0
VISUALSTYLE
  5
36D
102
{ACAD_REACTORS
330
367
102
}
330
367
100
AcDbVisualStyle
  2
Wireframe
 70
     5
177
     3
291
     0
 70
    58
 90
        0
176
     1
 90
        2
176
     1
 90
        0
176
     1
 90
        0
176
     1
 40
0.6
176
     1
 40
30.0
176
     1
 62
     7
420
 16777215
176
     1
 90
        1
176
     1
 90
        4
176
     1
 62
     7
176
     1
 62
   257
176
     1
 90
        1
176
     1
 90
        1
176
     1
 40
1.0
176
     1
 90
        0
176
     1
 62
   257
176
     1
 40
1.0
176
     1
 90
        1
176
     1
 90
        6
176
     1
 90
        2
176
     1
 62
     7
176
     1
 90
        3
176
     1
 90
        0
176
     1
 90
        0
176
     1
290
     0
176
     1
 90
        1
176
     1
 40
0.0
176
     1
 90
        0
176
     1
290
     0
176
     1
290
     1
176
     1
290
     1
176
     1
290
     0
176
     1
290
     0
176
     1
290
     0
176
     1
290
     0
176
     1
290
     0
176
     1
290
     0
176
     1
 90
       50
176
     1
 40
0.0
176
     1
 40
1.0
176
     1
 90
        0
176
     1
 62
    18
420
        0
176
     1
 90
       50
176
     1
 90
        3
176
     1
 62
     5
420
      255
176
     1
290
     0
176
     1
 90
       50
176
     1
 90
       50
176
     1
 90
       50
176
     1
290
     0
176
     1
 90
       50
176
     1
 62
   256
176
     0
 40
1.0
176
     0
 90
        2
176
     1
  1
strokes_ogs.tif
176
     1
290
     0
176
     1
 40
1.0
176
     1
 40
1.0
176
     1
  0
VISUALSTYLE
  5
37D
102
{ACAD_REACTORS
330
367
102
}
330
367
100
AcDbVisualStyle
  2
X-Ray
 70
    25
177
     3
291
     0
 70
    58
 90
        2
176
     1
 90
        2
176
     1
 90
        1
176
     1
 90
        1
176
     1
 40
0.5
176
     1
 40
30.0
176
     1
 62
     7
420
 16777215
176
     1
 90
        1
176
     1
 90
        0
176
     1
 62
     7
176
     1
 62
   257
176
     1
 90
        1
176
     1
 90
        1
176
     1
 40
1.0
176
     1
 90
        8
176
     1
 62
     7
176
     1
 40
1.0
176
     1
 90
        1
176
     1
 90
        6
176
     1
 90
        2
176
     1
 62
     7
176
     1
 90
        3
176
     1
 90
        0
176
     1
 90
        0
176
     1
290
     0
176
     1
 90
       13
176
     1
 40
0.0
176
     1
 90
        0
176
     1
290
     0
176
     1
290
     1
176
     1
290
     1
176
     1
290
     0
176
     1
290
     0
176
     1
290
     0
176
     1
290
     0
176
     1
290
     0
176
     1
290
     0
176
     1
 90
       50
176
     1
 40
0.0
176
     1
 40
1.0
176
     1
 90
        0
176
     1
 62
    18
420
        0
176
     1
 90
       50
176
     1
 90
        3
176
     1
 62
     5
420
      255
176
     1
290
     0
176
     1
 90
       50
176
     1
 90
       50
176
     1
 90
       50
176
     1
290
     0
176
     1
 90
       50
176
     1
 62
   256
176
     0
 40
1.0
176
     0
 90
        2
176
     1
  1
strokes_ogs.tif
176
     1
290
     0
176
     1
 40
1.0
176
     1
 40
1.0
176
     1
  0
DICTIONARYVAR
  5
38A
102
{ACAD_REACTORS
330
389
102
}
330
389
100
DictionaryVariables
280
     0
  1
1:1
  0
DICTIONARYVAR
  5
38C
102
{ACAD_REACTORS
330
389
102
}
330
389
100
DictionaryVariables
280
     0
  1
Standard
  0
DICTIONARYVAR
  5
38B
102
{ACAD_REACTORS
330
389
102
}
330
389
100
DictionaryVariables
280
     0
  1
Standard
  0
DICTIONARYVAR
  5
38D
102
{ACAD_REACTORS
330
389
102
}
330
389
100
DictionaryVariables
280
     0
  1
0
  0
DICTIONARY
  5
391
330
385
100
AcDbDictionary
280
     1
281
     1
  3
ACAD_ROUNDTRIP_2008_TABLESTYLE_CELLSTYLEMAP
360
392
  0
CELLSTYLEMAP
  5
392
102
{ACAD_REACTORS
330
391
102
}
330
391
100
AcDbCellStyleMap
 90
        3
300
CELLSTYLE
  1
TABLEFORMAT_BEGIN
 90
        5
170
     1
 91
        0
 92
    32768
 62
   257
 93
        1
300
CONTENTFORMAT
  1
CONTENTFORMAT_BEGIN
 90
        0
 91
        0
 92
        4
 93
        0
300

 40
0.0
140
1.0
 94
        5
 62
     0
340
11
144
6.0
309
CONTENTFORMAT_END
171
     1
301
MARGIN
  1
CELLMARGIN_BEGIN
 40
1.5
 40
1.5
 40
1.5
 40
1.5
 40
1.5
 40
1.5
309
CELLMARGIN_END
 94
        6
 95
        1
302
GRIDFORMAT
  1
GRIDFORMAT_BEGIN
 90
        0
 91
        1
 62
     0
 92
       -2
340
14
 93
        0
 40
0.045
309
GRIDFORMAT_END
 95
        2
302
GRIDFORMAT
  1
GRIDFORMAT_BEGIN
 90
        0
 91
        1
 62
     0
 92
       -2
340
14
 93
        0
 40
0.045
309
GRIDFORMAT_END
 95
        4
302
GRIDFORMAT
  1
GRIDFORMAT_BEGIN
 90
        0
 91
        1
 62
     0
 92
       -2
340
14
 93
        0
 40
0.045
309
GRIDFORMAT_END
 95
        8
302
GRIDFORMAT
  1
GRIDFORMAT_BEGIN
 90
        0
 91
        1
 62
     0
 92
       -2
340
14
 93
        0
 40
0.045
309
GRIDFORMAT_END
 95
       16
302
GRIDFORMAT
  1
GRIDFORMAT_BEGIN
 90
        0
 91
        1
 62
     0
 92
       -2
340
14
 93
        0
 40
0.045
309
GRIDFORMAT_END
 95
       32
302
GRIDFORMAT
  1
GRIDFORMAT_BEGIN
 90
        0
 91
        1
 62
     0
 92
       -2
340
14
 93
        0
 40
0.045
309
GRIDFORMAT_END
309
TABLEFORMAT_END
  1
CELLSTYLE_BEGIN
 90
        1
 91
        1
300
_TITLE
309
CELLSTYLE_END
300
CELLSTYLE
  1
TABLEFORMAT_BEGIN
 90
        5
170
     1
 91
        0
 92
        0
 62
   257
 93
        1
300
CONTENTFORMAT
  1
CONTENTFORMAT_BEGIN
 90
        0
 91
        0
 92
        4
 93
        0
300

 40
0.0
140
1.0
 94
        5
 62
     0
340
11
144
4.5
309
CONTENTFORMAT_END
171
     1
301
MARGIN
  1
CELLMARGIN_BEGIN
 40
1.5
 40
1.5
 40
1.5
 40
1.5
 40
1.5
 40
1.5
309
CELLMARGIN_END
 94
        6
 95
        1
302
GRIDFORMAT
  1
GRIDFORMAT_BEGIN
 90
        0
 91
        1
 62
     0
 92
       -2
340
14
 93
        0
 40
0.045
309
GRIDFORMAT_END
 95
        2
302
GRIDFORMAT
  1
GRIDFORMAT_BEGIN
 90
        0
 91
        1
 62
     0
 92
       -2
340
14
 93
        0
 40
0.045
309
GRIDFORMAT_END
 95
        4
302
GRIDFORMAT
  1
GRIDFORMAT_BEGIN
 90
        0
 91
        1
 62
     0
 92
       -2
340
14
 93
        0
 40
0.045
309
GRIDFORMAT_END
 95
        8
302
GRIDFORMAT
  1
GRIDFORMAT_BEGIN
 90
        0
 91
        1
 62
     0
 92
       -2
340
14
 93
        0
 40
0.045
309
GRIDFORMAT_END
 95
       16
302
GRIDFORMAT
  1
GRIDFORMAT_BEGIN
 90
        0
 91
        1
 62
     0
 92
       -2
340
14
 93
        0
 40
0.045
309
GRIDFORMAT_END
 95
       32
302
GRIDFORMAT
  1
GRIDFORMAT_BEGIN
 90
        0
 91
        1
 62
     0
 92
       -2
340
14
 93
        0
 40
0.045
309
GRIDFORMAT_END
309
TABLEFORMAT_END
  1
CELLSTYLE_BEGIN
 90
        2
 91
        1
300
_HEADER
309
CELLSTYLE_END
300
CELLSTYLE
  1
TABLEFORMAT_BEGIN
 90
        5
170
     1
 91
        0
 92
        0
 62
   257
 93
        1
300
CONTENTFORMAT
  1
CONTENTFORMAT_BEGIN
 90
        0
 91
        0
 92
        4
 93
        0
300

 40
0.0
140
1.0
 94
        2
 62
     0
340
11
144
4.5
309
CONTENTFORMAT_END
171
     1
301
MARGIN
  1
CELLMARGIN_BEGIN
 40
1.5
 40
1.5
 40
1.5
 40
1.5
 40
1.5
 40
1.5
309
CELLMARGIN_END
 94
        6
 95
        1
302
GRIDFORMAT
  1
GRIDFORMAT_BEGIN
 90
        0
 91
        1
 62
     0
 92
       -2
340
14
 93
        0
 40
0.045
309
GRIDFORMAT_END
 95
        2
302
GRIDFORMAT
  1
GRIDFORMAT_BEGIN
 90
        0
 91
        1
 62
     0
 92
       -2
340
14
 93
        0
 40
0.045
309
GRIDFORMAT_END
 95
        4
302
GRIDFORMAT
  1
GRIDFORMAT_BEGIN
 90
        0
 91
        1
 62
     0
 92
       -2
340
14
 93
        0
 40
0.045
309
GRIDFORMAT_END
 95
        8
302
GRIDFORMAT
  1
GRIDFORMAT_BEGIN
 90
        0
 91
        1
 62
     0
 92
       -2
340
14
 93
        0
 40
0.045
309
GRIDFORMAT_END
 95
       16
302
GRIDFORMAT
  1
GRIDFORMAT_BEGIN
 90
        0
 91
        1
 62
     0
 92
       -2
340
14
 93
        0
 40
0.045
309
GRIDFORMAT_END
 95
       32
302
GRIDFORMAT
  1
GRIDFORMAT_BEGIN
 90
        0
 91
        1
 62
     0
 92
       -2
340
14
 93
        0
 40
0.045
309
GRIDFORMAT_END
309
TABLEFORMAT_END
  1
CELLSTYLE_BEGIN
 90
        3
 91
        2
300
_DATA
309
CELLSTYLE_END
  0
ENDSEC
  0
EOF
