  0
SECTION
  2
HEADER
  9
$ACADVER
  1
AC1027
  9
$ACADMAINTVER
 70
   105
  9
$DWGCODEPAGE
  3
ANSI_1252
  9
$REQUIREDVERSIONS
160
                 0
  9
$LASTSAVEDBY
  1
andrea.zolin
  9
$INSBASE
 10
0.0
 20
0.0
 30
0.0
  9
$EXTMIN
 10
0.0
 20
0.0
 30
0.0
  9
$EXTMAX
 10
420.0
 20
297.0
 30
0.0
  9
$LIMMIN
 10
0.0
 20
0.0
  9
$LIMMAX
 10
420.0
 20
297.0
  9
$ORTHOMODE
 70
     0
  9
$REGENMODE
 70
     1
  9
$FILLMODE
 70
     1
  9
$QTEXTMODE
 70
     0
  9
$MIRRTEXT
 70
     1
  9
$LTSCALE
 40
23.1
  9
$ATTMODE
 70
     1
  9
$TEXTSIZE
 40
0.2
  9
$TRACEWID
 40
0.05
  9
$TEXTSTYLE
  7
STANDARD
  9
$CLAYER
  8
0
  9
$CELTYPE
  6
BYLAYER
  9
$CECOLOR
 62
   256
  9
$CELTSCALE
 40
1.0
  9
$DISPSILH
 70
     0
  9
$DIMSCALE
 40
1.0
  9
$DIMASZ
 40
2.5
  9
$DIMEXO
 40
0.75
  9
$DIMDLI
 40
15.96
  9
$DIMRND
 40
0.0
  9
$DIMDLE
 40
0.0
  9
$DIMEXE
 40
0.75
  9
$DIMTP
 40
0.01
  9
$DIMTM
 40
0.01
  9
$DIMTXT
 40
3.0
  9
$DIMCEN
 40
3.78
  9
$DIMTSZ
 40
0.0
  9
$DIMTOL
 70
     1
  9
$DIMLIM
 70
     0
  9
$DIMTIH
 70
     1
  9
$DIMTOH
 70
     1
  9
$DIMSE1
 70
     0
  9
$DIMSE2
 70
     0
  9
$DIMTAD
 70
     0
  9
$DIMZIN
 70
     0
  9
$DIMBLK
  1
CLOSED
  9
$DIMASO
 70
     1
  9
$DIMSHO
 70
     1
  9
$DIMPOST
  1

  9
$DIMAPOST
  1

  9
$DIMALT
 70
     0
  9
$DIMALTD
 70
     2
  9
$DIMALTF
 40
25.4
  9
$DIMLFAC
 40
1.0
  9
$DIMTOFL
 70
     0
  9
$DIMTVP
 40
0.0
  9
$DIMTIX
 70
     0
  9
$DIMSOXD
 70
     0
  9
$DIMSAH
 70
     0
  9
$DIMBLK1
  1

  9
$DIMBLK2
  1

  9
$DIMSTYLE
  2
STANDARD
  9
$DIMCLRD
 70
     0
  9
$DIMCLRE
 70
     0
  9
$DIMCLRT
 70
     0
  9
$DIMTFAC
 40
1.0
  9
$DIMGAP
 40
0.625
  9
$DIMJUST
 70
     0
  9
$DIMSD1
 70
     0
  9
$DIMSD2
 70
     0
  9
$DIMTOLJ
 70
     1
  9
$DIMTZIN
 70
     0
  9
$DIMALTZ
 70
     0
  9
$DIMALTTZ
 70
     0
  9
$DIMUPT
 70
     0
  9
$DIMDEC
 70
     4
  9
$DIMTDEC
 70
     4
  9
$DIMALTU
 70
     2
  9
$DIMALTTD
 70
     2
  9
$DIMTXSTY
  7
STANDARD
  9
$DIMAUNIT
 70
     0
  9
$DIMADEC
 70
     0
  9
$DIMALTRND
 40
0.0
  9
$DIMAZIN
 70
     0
  9
$DIMDSEP
 70
    46
  9
$DIMATFIT
 70
     3
  9
$DIMFRAC
 70
     0
  9
$DIMLDRBLK
  1

  9
$DIMLUNIT
 70
     2
  9
$DIMLWD
 70
    -2
  9
$DIMLWE
 70
    -2
  9
$DIMTMOVE
 70
     2
  9
$DIMFXL
 40
1.0
  9
$DIMFXLON
 70
     0
  9
$DIMJOGANG
 40
0.7853981633974483
  9
$DIMTFILL
 70
     0
  9
$DIMTFILLCLR
 70
     0
  9
$DIMARCSYM
 70
     0
  9
$DIMLTYPE
  6

  9
$DIMLTEX1
  6

  9
$DIMLTEX2
  6

  9
$DIMTXTDIRECTION
 70
     0
  9
$LUNITS
 70
     2
  9
$LUPREC
 70
     4
  9
$SKETCHINC
 40
0.1
  9
$FILLETRAD
 40
0.5
  9
$AUNITS
 70
     0
  9
$AUPREC
 70
     0
  9
$MENU
  1
.
  9
$ELEVATION
 40
0.0
  9
$PELEVATION
 40
0.0
  9
$THICKNESS
 40
0.0
  9
$LIMCHECK
 70
     0
  9
$CHAMFERA
 40
0.0
  9
$CHAMFERB
 40
0.0
  9
$CHAMFERC
 40
0.0
  9
$CHAMFERD
 40
0.0
  9
$SKPOLY
 70
     0
  9
$TDCREATE
 40
2447893.041666667
  9
$TDUCREATE
 40
0.0
  9
$TDUPDATE
 40
2458472.499121586
  9
$TDUUPDATE
 40
2458472.457454919
  9
$TDINDWG
 40
0.0001506366
  9
$TDUSRTIMER
 40
0.0001506366
  9
$USRTIMER
 70
     1
  9
$ANGBASE
 50
0.0
  9
$ANGDIR
 70
     0
  9
$PDMODE
 70
     3
  9
$PDSIZE
 40
0.3125
  9
$PLINEWID
 40
0.0
  9
$SPLFRAME
 70
     0
  9
$SPLINETYPE
 70
     6
  9
$SPLINESEGS
 70
     8
  9
$HANDSEED
  5
3FA
  9
$SURFTAB1
 70
     6
  9
$SURFTAB2
 70
     6
  9
$SURFTYPE
 70
     6
  9
$SURFU
 70
     6
  9
$SURFV
 70
     6
  9
$UCSBASE
  2

  9
$UCSNAME
  2

  9
$UCSORG
 10
0.0
 20
0.0
 30
0.0
  9
$UCSXDIR
 10
1.0
 20
0.0
 30
0.0
  9
$UCSYDIR
 10
0.0
 20
1.0
 30
0.0
  9
$UCSORTHOREF
  2

  9
$UCSORTHOVIEW
 70
     0
  9
$UCSORGTOP
 10
0.0
 20
0.0
 30
0.0
  9
$UCSORGBOTTOM
 10
0.0
 20
0.0
 30
0.0
  9
$UCSORGLEFT
 10
0.0
 20
0.0
 30
0.0
  9
$UCSORGRIGHT
 10
0.0
 20
0.0
 30
0.0
  9
$UCSORGFRONT
 10
0.0
 20
0.0
 30
0.0
  9
$UCSORGBACK
 10
0.0
 20
0.0
 30
0.0
  9
$PUCSBASE
  2

  9
$PUCSNAME
  2

  9
$PUCSORG
 10
0.0
 20
0.0
 30
0.0
  9
$PUCSXDIR
 10
1.0
 20
0.0
 30
0.0
  9
$PUCSYDIR
 10
0.0
 20
1.0
 30
0.0
  9
$PUCSORTHOREF
  2

  9
$PUCSORTHOVIEW
 70
     0
  9
$PUCSORGTOP
 10
0.0
 20
0.0
 30
0.0
  9
$PUCSORGBOTTOM
 10
0.0
 20
0.0
 30
0.0
  9
$PUCSORGLEFT
 10
0.0
 20
0.0
 30
0.0
  9
$PUCSORGRIGHT
 10
0.0
 20
0.0
 30
0.0
  9
$PUCSORGFRONT
 10
0.0
 20
0.0
 30
0.0
  9
$PUCSORGBACK
 10
0.0
 20
0.0
 30
0.0
  9
$USERI1
 70
     0
  9
$USERI2
 70
     0
  9
$USERI3
 70
     0
  9
$USERI4
 70
     0
  9
$USERI5
 70
     0
  9
$USERR1
 40
0.0
  9
$USERR2
 40
0.0
  9
$USERR3
 40
0.0
  9
$USERR4
 40
0.0
  9
$USERR5
 40
0.0
  9
$WORLDVIEW
 70
     1
  9
$SHADEDGE
 70
     3
  9
$SHADEDIF
 70
    70
  9
$TILEMODE
 70
     0
  9
$MAXACTVP
 70
    64
  9
$PINSBASE
 10
0.0
 20
0.0
 30
0.0
  9
$PLIMCHECK
 70
     0
  9
$PEXTMIN
 10
0.0
 20
0.0
 30
0.0
  9
$PEXTMAX
 10
420.0
 20
297.0
 30
0.0
  9
$PLIMMIN
 10
-8.667315175097276
 20
-23.11284046692607
  9
$PLIMMAX
 10
476.7023346303502
 20
320.1128404669261
  9
$UNITMODE
 70
     0
  9
$VISRETAIN
 70
     1
  9
$PLINEGEN
 70
     0
  9
$PSLTSCALE
 70
     1
  9
$TREEDEPTH
 70
  3020
  9
$CMLSTYLE
  2
STANDARD
  9
$CMLJUST
 70
     0
  9
$CMLSCALE
 40
1.0
  9
$PROXYGRAPHICS
 70
     1
  9
$MEASUREMENT
 70
     1
  9
$CELWEIGHT
370
    -1
  9
$ENDCAPS
280
     0
  9
$JOINSTYLE
280
     0
  9
$LWDISPLAY
290
     0
  9
$INSUNITS
 70
     0
  9
$HYPERLINKBASE
  1

  9
$STYLESHEET
  1

  9
$XEDIT
290
     1
  9
$CEPSNTYPE
380
     0
  9
$PSTYLEMODE
290
     1
  9
$FINGERPRINTGUID
  2
{EE855631-C0D0-486D-81A3-7BBCFC741792}
  9
$VERSIONGUID
  2
{FAEB1C32-E019-11D5-929B-00C0DF256EC4}
  9
$EXTNAMES
290
     1
  9
$PSVPSCALE
 40
0.0
  9
$OLESTARTUP
290
     0
  9
$SORTENTS
280
   127
  9
$INDEXCTL
280
     0
  9
$HIDETEXT
280
     1
  9
$XCLIPFRAME
280
     2
  9
$HALOGAP
280
     0
  9
$OBSCOLOR
 70
   257
  9
$OBSLTYPE
280
     0
  9
$INTERSECTIONDISPLAY
280
     0
  9
$INTERSECTIONCOLOR
 70
   257
  9
$DIMASSOC
280
     2
  9
$PROJECTNAME
  1

  9
$CAMERADISPLAY
290
     0
  9
$LENSLENGTH
 40
50.0
  9
$CAMERAHEIGHT
 40
0.0
  9
$STEPSPERSEC
 40
2.0
  9
$STEPSIZE
 40
6.0
  9
$3DDWFPREC
 40
2.0
  9
$PSOLWIDTH
 40
0.25
  9
$PSOLHEIGHT
 40
4.0
  9
$LOFTANG1
 40
1.570796326794897
  9
$LOFTANG2
 40
1.570796326794897
  9
$LOFTMAG1
 40
0.0
  9
$LOFTMAG2
 40
0.0
  9
$LOFTPARAM
 70
     7
  9
$LOFTNORMALS
280
     1
  9
$LATITUDE
 40
37.795
  9
$LONGITUDE
 40
-122.394
  9
$NORTHDIRECTION
 40
0.0
  9
$TIMEZONE
 70
 -8000
  9
$LIGHTGLYPHDISPLAY
280
     1
  9
$TILEMODELIGHTSYNCH
280
     1
  9
$SOLIDHIST
280
     0
  9
$SHOWHIST
280
     1
  9
$DWFFRAME
280
     2
  9
$DGNFRAME
280
     2
  9
$REALWORLDSCALE
290
     1
  9
$INTERFERECOLOR
 62
   256
  9
$CSHADOW
280
     0
  9
$SHADOWPLANELOCATION
 40
0.0
  0
ENDSEC
  0
SECTION
  2
CLASSES
  0
CLASS
  1
ACDBDICTIONARYWDFLT
  2
AcDbDictionaryWithDefault
  3
ObjectDBX Classes
 90
        0
 91
        4
280
     0
281
     0
  0
CLASS
  1
SCALE
  2
AcDbScale
  3
ObjectDBX Classes
 90
     1153
 91
        4
280
     0
281
     0
  0
CLASS
  1
VISUALSTYLE
  2
AcDbVisualStyle
  3
ObjectDBX Classes
 90
     4095
 91
        4
280
     0
281
     0
  0
CLASS
  1
MATERIAL
  2
AcDbMaterial
  3
ObjectDBX Classes
 90
     1153
 91
        4
280
     0
281
     0
  0
CLASS
  1
TABLESTYLE
  2
AcDbTableStyle
  3
ObjectDBX Classes
 90
     4095
 91
        4
280
     0
281
     0
  0
CLASS
  1
MLEADERSTYLE
  2
AcDbMLeaderStyle
  3
ACDB_MLEADERSTYLE_CLASS
 90
     4095
 91
        4
280
     0
281
     0
  0
CLASS
  1
DICTIONARYVAR
  2
AcDbDictionaryVar
  3
ObjectDBX Classes
 90
        0
 91
        4
280
     0
281
     0
  0
CLASS
  1
CELLSTYLEMAP
  2
AcDbCellStyleMap
  3
ObjectDBX Classes
 90
     1152
 91
        4
280
     0
281
     0
  0
ENDSEC
  0
SECTION
  2
TABLES
  0
TABLE
  2
VPORT
  5
8
330
0
100
AcDbSymbolTable
 70
     1
  0
VPORT
  5
1F4
330
8
100
AcDbSymbolTableRecord
100
AcDbViewportTableRecord
  2
*ACTIVE
 70
     0
 10
0.0
 20
0.0
 11
1.0
 21
1.0
 12
210.0
 22
148.5
 13
0.0
 23
0.0
 14
1.0
 24
1.0
 15
0.0
 25
0.0
 16
0.0
 26
0.0
 36
1.0
 17
0.0
 27
0.0
 37
0.0
 40
297.0
 41
1.4141414141
 42
50.0
 43
0.0
 44
0.0
 50
0.0
 51
0.0
 71
     0
 72
   100
 73
     1
 74
     1
 75
     0
 76
     0
 77
     0
 78
     0
281
     0
 65
     1
110
0.0
120
0.0
130
0.0
111
1.0
121
0.0
131
0.0
112
0.0
122
1.0
132
0.0
 79
     0
146
0.0
348
3D3
 60
     3
 61
     5
292
     1
282
     1
141
0.0
142
0.0
 63
   256
  0
ENDTAB
  0
TABLE
  2
LTYPE
  5
5
330
0
100
AcDbSymbolTable
 70
     6
  0
LTYPE
  5
14
330
5
100
AcDbSymbolTableRecord
100
AcDbLinetypeTableRecord
  2
BYBLOCK
 70
     0
  3

 72
    65
 73
     0
 40
0.0
  0
LTYPE
  5
15
330
5
100
AcDbSymbolTableRecord
100
AcDbLinetypeTableRecord
  2
BYLAYER
 70
     0
  3

 72
    65
 73
     0
 40
0.0
  0
LTYPE
  5
16
330
5
100
AcDbSymbolTableRecord
100
AcDbLinetypeTableRecord
  2
CONTINUOUS
 70
     0
  3
Solid line
 72
    65
 73
     0
 40
0.0
  0
LTYPE
  5
1F5
330
5
100
AcDbSymbolTableRecord
100
AcDbLinetypeTableRecord
  2
CENTER
 70
     0
  3
____ _ ____ _ ____ _ ____ _ ____ _ ____ _ ____
 72
    65
 73
     4
 40
0.6
 49
0.375
 74
     0
 49
-0.075
 74
     0
 49
0.075
 74
     0
 49
-0.075
 74
     0
  0
LTYPE
  5
1F6
330
5
100
AcDbSymbolTableRecord
100
AcDbLinetypeTableRecord
  2
HIDDEN
 70
     0
  3
- - - - - - - - - - - - - - - - - - - -
 72
    65
 73
     2
 40
0.2
 49
0.1
 74
     0
 49
-0.1
 74
     0
  0
LTYPE
  5
1F7
330
5
100
AcDbSymbolTableRecord
100
AcDbLinetypeTableRecord
  2
PHANTOM
 70
     0
  3
_____ _ _ _____ _ _ _____ _ _ _____
 72
    65
 73
     6
 40
0.8
 49
0.45
 74
     0
 49
-0.05
 74
     0
 49
0.1
 74
     0
 49
-0.05
 74
     0
 49
0.1
 74
     0
 49
-0.05
 74
     0
  0
LTYPE
  5
1F8
330
5
100
AcDbSymbolTableRecord
100
AcDbLinetypeTableRecord
  2
DOT
 70
     0
  3
. . . . . . . . . . . . . . . . . . . .
 72
    65
 73
     2
 40
0.2
 49
0.1
 74
     0
 49
-0.1
 74
     0
  0
LTYPE
  5
1F9
330
5
100
AcDbSymbolTableRecord
100
AcDbLinetypeTableRecord
  2
DASHED
 70
     0
  3
- - - - - - - - - - - - - - - - - - - -
 72
    65
 73
     2
 40
0.2
 49
0.1
 74
     0
 49
-0.1
 74
     0
  0
ENDTAB
  0
TABLE
  2
LAYER
  5
2
330
0
100
AcDbSymbolTable
 70
    35
  0
LAYER
  5
10
330
2
100
AcDbSymbolTableRecord
100
AcDbLayerTableRecord
  2
0
 70
     0
 62
     7
  6
CONTINUOUS
370
    -3
390
3A8
347
3EA
348
0
  0
LAYER
  5
1FA
330
2
100
AcDbSymbolTableRecord
100
AcDbLayerTableRecord
  2
DEFAULT_1
 70
     0
 62
     7
  6
CENTER
370
    -3
390
3A8
347
3EA
348
0
  0
LAYER
  5
1FB
330
2
100
AcDbSymbolTableRecord
100
AcDbLayerTableRecord
  2
DEFAULT_2
 70
     0
 62
     8
  6
HIDDEN
370
    -3
390
3A8
347
3EA
348
0
  0
LAYER
  5
1FC
330
2
100
AcDbSymbolTableRecord
100
AcDbLayerTableRecord
  2
DEFAULT_3
 70
     0
 62
     7
  6
PHANTOM
370
    -3
390
3A8
347
3EA
348
0
  0
LAYER
  5
1FD
330
2
100
AcDbSymbolTableRecord
100
AcDbLayerTableRecord
  2
01_ALL_DTM_PLN
 70
     0
 62
     7
  6
CONTINUOUS
370
    -3
390
3A8
347
3EA
348
0
  0
LAYER
  5
1FE
330
2
100
AcDbSymbolTableRecord
100
AcDbLayerTableRecord
  2
01__ASM_ALL_DTM_PLN
 70
     0
 62
     7
  6
CONTINUOUS
370
    -3
390
3A8
347
3EA
348
0
  0
LAYER
  5
1FF
330
2
100
AcDbSymbolTableRecord
100
AcDbLayerTableRecord
  2
01__ASM_DEF_DTM_PLN
 70
     0
 62
     7
  6
CONTINUOUS
370
    -3
390
3A8
347
3EA
348
0
  0
LAYER
  5
200
330
2
100
AcDbSymbolTableRecord
100
AcDbLayerTableRecord
  2
01___PRT_ALL_DTM_PLN
 70
     0
 62
     7
  6
CONTINUOUS
370
    -3
390
3A8
347
3EA
348
0
  0
LAYER
  5
201
330
2
100
AcDbSymbolTableRecord
100
AcDbLayerTableRecord
  2
01___PRT_DEF_DTM_PLN
 70
     0
 62
     7
  6
CONTINUOUS
370
    -3
390
3A8
347
3EA
348
0
  0
LAYER
  5
202
330
2
100
AcDbSymbolTableRecord
100
AcDbLayerTableRecord
  2
02_ALL_AXES
 70
     0
 62
     7
  6
CONTINUOUS
370
    -3
390
3A8
347
3EA
348
0
  0
LAYER
  5
203
330
2
100
AcDbSymbolTableRecord
100
AcDbLayerTableRecord
  2
02__ASM_ALL_AXES
 70
     0
 62
     7
  6
CONTINUOUS
370
    -3
390
3A8
347
3EA
348
0
  0
LAYER
  5
204
330
2
100
AcDbSymbolTableRecord
100
AcDbLayerTableRecord
  2
02___PRT_ALL_AXES
 70
     0
 62
     7
  6
CONTINUOUS
370
    -3
390
3A8
347
3EA
348
0
  0
LAYER
  5
205
330
2
100
AcDbSymbolTableRecord
100
AcDbLayerTableRecord
  2
03_ALL_CURVES
 70
     0
 62
     7
  6
CONTINUOUS
370
    -3
390
3A8
347
3EA
348
0
  0
LAYER
  5
206
330
2
100
AcDbSymbolTableRecord
100
AcDbLayerTableRecord
  2
03__ASM_ALL_CURVES
 70
     0
 62
     7
  6
CONTINUOUS
370
    -3
390
3A8
347
3EA
348
0
  0
LAYER
  5
207
330
2
100
AcDbSymbolTableRecord
100
AcDbLayerTableRecord
  2
03___PRT_ALL_CURVES
 70
     0
 62
     7
  6
CONTINUOUS
370
    -3
390
3A8
347
3EA
348
0
  0
LAYER
  5
208
330
2
100
AcDbSymbolTableRecord
100
AcDbLayerTableRecord
  2
04_ALL_DTM_PNT
 70
     0
 62
     7
  6
CONTINUOUS
370
    -3
390
3A8
347
3EA
348
0
  0
LAYER
  5
209
330
2
100
AcDbSymbolTableRecord
100
AcDbLayerTableRecord
  2
04__ASM_ALL_DTM_PNT
 70
     0
 62
     7
  6
CONTINUOUS
370
    -3
390
3A8
347
3EA
348
0
  0
LAYER
  5
20A
330
2
100
AcDbSymbolTableRecord
100
AcDbLayerTableRecord
  2
04___PRT_ALL_DTM_PNT
 70
     0
 62
     7
  6
CONTINUOUS
370
    -3
390
3A8
347
3EA
348
0
  0
LAYER
  5
20B
330
2
100
AcDbSymbolTableRecord
100
AcDbLayerTableRecord
  2
05_ALL_DTM_CSYS
 70
     0
 62
     7
  6
CONTINUOUS
370
    -3
390
3A8
347
3EA
348
0
  0
LAYER
  5
20C
330
2
100
AcDbSymbolTableRecord
100
AcDbLayerTableRecord
  2
05__ASM_ALL_DTM_CSYS
 70
     0
 62
     7
  6
CONTINUOUS
370
    -3
390
3A8
347
3EA
348
0
  0
LAYER
  5
20D
330
2
100
AcDbSymbolTableRecord
100
AcDbLayerTableRecord
  2
05__ASM_DEF_DTM_CSYS
 70
     0
 62
     7
  6
CONTINUOUS
370
    -3
390
3A8
347
3EA
348
0
  0
LAYER
  5
20E
330
2
100
AcDbSymbolTableRecord
100
AcDbLayerTableRecord
  2
05___PRT_ALL_DTM_CSYS
 70
     0
 62
     7
  6
CONTINUOUS
370
    -3
390
3A8
347
3EA
348
0
  0
LAYER
  5
20F
330
2
100
AcDbSymbolTableRecord
100
AcDbLayerTableRecord
  2
05___PRT_DEF_DTM_CSYS
 70
     0
 62
     7
  6
CONTINUOUS
370
    -3
390
3A8
347
3EA
348
0
  0
LAYER
  5
210
330
2
100
AcDbSymbolTableRecord
100
AcDbLayerTableRecord
  2
06_ALL_SURFS
 70
     0
 62
     7
  6
CONTINUOUS
370
    -3
390
3A8
347
3EA
348
0
  0
LAYER
  5
211
330
2
100
AcDbSymbolTableRecord
100
AcDbLayerTableRecord
  2
06__ASM_ALL_SURFS
 70
     0
 62
     7
  6
CONTINUOUS
370
    -3
390
3A8
347
3EA
348
0
  0
LAYER
  5
212
330
2
100
AcDbSymbolTableRecord
100
AcDbLayerTableRecord
  2
06___PRT_ALL_SURFS
 70
     0
 62
     7
  6
CONTINUOUS
370
    -3
390
3A8
347
3EA
348
0
  0
LAYER
  5
213
330
2
100
AcDbSymbolTableRecord
100
AcDbLayerTableRecord
  2
07__ASM_ALL_SKELETONS
 70
     0
 62
     7
  6
CONTINUOUS
370
    -3
390
3A8
347
3EA
348
0
  0
LAYER
  5
214
330
2
100
AcDbSymbolTableRecord
100
AcDbLayerTableRecord
  2
1_ALL_PLANES
 70
     0
 62
     7
  6
CONTINUOUS
370
    -3
390
3A8
347
3EA
348
0
  0
LAYER
  5
215
330
2
100
AcDbSymbolTableRecord
100
AcDbLayerTableRecord
  2
2_ALL_CSYS
 70
     0
 62
     7
  6
CONTINUOUS
370
    -3
390
3A8
347
3EA
348
0
  0
LAYER
  5
216
330
2
100
AcDbSymbolTableRecord
100
AcDbLayerTableRecord
  2
3_ALL_AXES
 70
     0
 62
     7
  6
CONTINUOUS
370
    -3
390
3A8
347
3EA
348
0
  0
LAYER
  5
217
330
2
100
AcDbSymbolTableRecord
100
AcDbLayerTableRecord
  2
4_ALL_POINTS
 70
     0
 62
     7
  6
CONTINUOUS
370
    -3
390
3A8
347
3EA
348
0
  0
LAYER
  5
218
330
2
100
AcDbSymbolTableRecord
100
AcDbLayerTableRecord
  2
5_ALL_CURVES
 70
     0
 62
     7
  6
CONTINUOUS
370
    -3
390
3A8
347
3EA
348
0
  0
LAYER
  5
219
330
2
100
AcDbSymbolTableRecord
100
AcDbLayerTableRecord
  2
6_ALL_SURFS
 70
     0
 62
     7
  6
CONTINUOUS
370
    -3
390
3A8
347
3EA
348
0
  0
LAYER
  5
21A
330
2
100
AcDbSymbolTableRecord
100
AcDbLayerTableRecord
  2
7_ALL_FEATURES
 70
     0
 62
     7
  6
CONTINUOUS
370
    -3
390
3A8
347
3EA
348
0
  0
LAYER
  5
21B
330
2
100
AcDbSymbolTableRecord
100
AcDbLayerTableRecord
  2
9_SOLID
 70
     0
 62
     7
  6
CONTINUOUS
370
    -3
390
3A8
347
3EA
348
0
  0
ENDTAB
  0
TABLE
  2
STYLE
  5
3
330
0
100
AcDbSymbolTable
 70
     7
  0
STYLE
  5
11
330
3
100
AcDbSymbolTableRecord
100
AcDbTextStyleTableRecord
  2
STANDARD
 70
     0
 40
0.0
 41
1.0
 50
0.0
 71
     0
 42
0.2
  3
arial.ttf
  4

  0
STYLE
  5
21C
330
3
100
AcDbSymbolTableRecord
100
AcDbTextStyleTableRecord
  2
TEXTSTYLE_1
 70
     0
 40
0.0
 41
0.8
 50
0.0
 71
     0
 42
0.2
  3
gdt
  4

  0
STYLE
  5
21D
330
3
100
AcDbSymbolTableRecord
100
AcDbTextStyleTableRecord
  2
TEXTSTYLE_2
 70
     0
 40
0.0
 41
0.9
 50
0.0
 71
     0
 42
0.2
  3
txt
  4

  0
STYLE
  5
21E
330
3
100
AcDbSymbolTableRecord
100
AcDbTextStyleTableRecord
  2
TEXTSTYLE_3
 70
     0
 40
0.0
 41
0.9
 50
0.0
 71
     0
 42
0.2
  3
txt
  4

  0
STYLE
  5
21F
330
3
100
AcDbSymbolTableRecord
100
AcDbTextStyleTableRecord
  2
TEXTSTYLE_4
 70
     0
 40
0.0
 41
0.85
 50
0.0
 71
     0
 42
0.2
  3
gdt
  4

  0
STYLE
  5
220
330
3
100
AcDbSymbolTableRecord
100
AcDbTextStyleTableRecord
  2
TEXTSTYLE_5
 70
     0
 40
0.0
 41
2.0
 50
0.0
 71
     0
 42
0.2
  3
txt
  4

  0
STYLE
  5
221
330
3
100
AcDbSymbolTableRecord
100
AcDbTextStyleTableRecord
  2
TEXTSTYLE_6
 70
     0
 40
0.0
 41
0.85
 50
0.0
 71
     0
 42
0.2
  3
txt
  4

  0
ENDTAB
  0
TABLE
  2
VIEW
  5
6
330
0
100
AcDbSymbolTable
 70
     0
  0
ENDTAB
  0
TABLE
  2
UCS
  5
7
330
0
100
AcDbSymbolTable
 70
     0
  0
ENDTAB
  0
TABLE
  2
APPID
  5
9
330
0
100
AcDbSymbolTable
 70
     1
  0
APPID
  5
222
330
9
100
AcDbSymbolTableRecord
100
AcDbRegAppTableRecord
  2
ACAD
 70
     0
  0
ENDTAB
  0
TABLE
  2
DIMSTYLE
  5
A
330
0
100
AcDbSymbolTable
 70
     2
100
AcDbDimStyleTable
  0
DIMSTYLE
105
228
330
A
100
AcDbSymbolTableRecord
100
AcDbDimStyleTableRecord
  2
STANDARD
 70
     0
 41
2.5
 42
0.75
 44
0.75
 47
0.01
 48
0.01
 71
     1
 73
     0
 74
     0
 77
     1
 78
     8
 79
     2
140
3.0
147
0.625
171
     1
178
     0
179
     2
271
     2
272
     2
284
     8
340
11
341
223
342
223
343
223
344
223
  0
DIMSTYLE
105
229
330
A
100
AcDbSymbolTableRecord
100
AcDbDimStyleTableRecord
  2
DIMSTYLE_1
 70
     0
 41
2.5
 42
0.75
 44
0.75
 47
0.3
 48
0.3
 73
     0
 74
     0
 77
     1
 78
     8
 79
     2
140
3.0
147
0.75
171
     1
178
     0
179
     2
271
     2
272
     2
284
     8
340
11
341
223
342
223
343
223
344
223
  0
ENDTAB
  0
TABLE
  2
BLOCK_RECORD
  5
1
330
0
100
AcDbSymbolTable
 70
     5
  0
BLOCK_RECORD
  5
1F
330
1
100
AcDbSymbolTableRecord
100
AcDbBlockTableRecord
  2
*MODEL_SPACE
340
3CC
 70
     0
280
     1
281
     0
  0
BLOCK_RECORD
  5
1B
330
1
100
AcDbSymbolTableRecord
100
AcDbBlockTableRecord
  2
*PAPER_SPACE
340
3CD
 70
     0
280
     1
281
     0
  0
BLOCK_RECORD
  5
223
330
1
100
AcDbSymbolTableRecord
100
AcDbBlockTableRecord
  2
_CLOSED
340
0
102
{BLKREFS
331
27C
331
27D
331
285
331
286
102
}
 70
     0
280
     1
281
     0
  0
BLOCK_RECORD
  5
224
330
1
100
AcDbSymbolTableRecord
100
AcDbBlockTableRecord
  2
*D1
340
0
 70
     0
280
     1
281
     0
  0
BLOCK_RECORD
  5
225
330
1
100
AcDbSymbolTableRecord
100
AcDbBlockTableRecord
  2
*D2
340
0
 70
     0
280
     1
281
     0
  0
BLOCK_RECORD
  5
226
330
1
100
AcDbSymbolTableRecord
100
AcDbBlockTableRecord
  2
LOGO2_BL1
340
0
102
{BLKREFS
331
390
102
}
 70
     0
280
     1
281
     0
  0
BLOCK_RECORD
  5
227
330
1
100
AcDbSymbolTableRecord
100
AcDbBlockTableRecord
  2
PROIEZIONE_EU_BL0
340
0
102
{BLKREFS
331
38D
102
}
 70
     0
280
     1
281
     0
  0
ENDTAB
  0
ENDSEC
  0
SECTION
  2
BLOCKS
  0
BLOCK
  5
20
330
1F
100
AcDbEntity
  8
0
100
AcDbBlockBegin
  2
*MODEL_SPACE
 70
     0
 10
0.0
 20
0.0
 30
0.0
  3
*MODEL_SPACE
  1

  0
ENDBLK
  5
21
330
1F
100
AcDbEntity
  8
0
100
AcDbBlockEnd
  0
BLOCK
  5
1C
330
1B
100
AcDbEntity
 67
     1
  8
0
100
AcDbBlockBegin
  2
*PAPER_SPACE
 70
     0
 10
0.0
 20
0.0
 30
0.0
  3
*PAPER_SPACE
  1

  0
ENDBLK
  5
1D
330
1B
100
AcDbEntity
 67
     1
  8
0
100
AcDbBlockEnd
  0
BLOCK
  5
270
330
223
100
AcDbEntity
  8
0
100
AcDbBlockBegin
  2
_CLOSED
 70
     0
 10
0.0
 20
0.0
 30
0.0
  3
_CLOSED
  1

  0
LINE
  5
271
330
223
100
AcDbEntity
  8
0
  6
ByBlock
 62
     0
100
AcDbLine
 10
0.0
 20
0.0
 30
0.0
 11
-1.0
 21
0.2
 31
0.0
  0
LINE
  5
272
330
223
100
AcDbEntity
  8
0
  6
ByBlock
 62
     0
100
AcDbLine
 10
-1.0
 20
0.2
 30
0.0
 11
-1.0
 21
-0.2
 31
0.0
  0
LINE
  5
273
330
223
100
AcDbEntity
  8
0
  6
ByBlock
 62
     0
100
AcDbLine
 10
-1.0
 20
-0.2
 30
0.0
 11
0.0
 21
0.0
 31
0.0
  0
LINE
  5
274
330
223
100
AcDbEntity
  8
0
  6
ByBlock
 62
     0
100
AcDbLine
 10
-1.0
 20
0.0
 30
0.0
 11
0.0
 21
0.0
 31
0.0
  0
ENDBLK
  5
275
330
223
100
AcDbEntity
  8
0
  6
ByBlock
 62
     0
100
AcDbBlockEnd
  0
BLOCK
  5
276
330
224
100
AcDbEntity
  8
0
100
AcDbBlockBegin
  2
*D1
 70
     1
 10
0.0
 20
0.0
 30
0.0
  3
*D1
  1

  0
MTEXT
  5
277
330
224
100
AcDbEntity
  8
0
  6
Continuous
 62
     2
100
AcDbMText
 10
281.3003954675
 20
210.1520443876
 30
0.0
 40
3.0
 41
8.6617100372
 46
0.0
 71
     2
 72
     1
  1
{\Fgdt;n}\Farial.ttf;95
  7
TEXTSTYLE_4
 11
0.0
 21
1.0
 31
0.0
 73
     1
 44
1.0
  0
LINE
  5
278
330
224
100
AcDbEntity
  8
0
  6
Continuous
 62
     2
100
AcDbLine
 10
268.6344410456
 20
257.6520443876
 30
0.0
 11
285.8003954675
 21
257.6520443876
 31
0.0
  0
LINE
  5
279
330
224
100
AcDbEntity
  8
0
  6
Continuous
 62
     2
100
AcDbLine
 10
268.6344410456
 20
162.6520443876
 30
0.0
 11
285.8003954675
 21
162.6520443876
 31
0.0
  0
LINE
  5
27A
330
224
100
AcDbEntity
  8
0
  6
Continuous
 62
     2
100
AcDbLine
 10
285.0503954675
 20
257.6520443876
 30
0.0
 11
285.0503954675
 21
210.1520443876
 31
0.0
  0
LINE
  5
27B
330
224
100
AcDbEntity
  8
0
  6
Continuous
 62
     2
100
AcDbLine
 10
285.0503954675
 20
162.6520443876
 30
0.0
 11
285.0503954675
 21
210.1520443876
 31
0.0
  0
INSERT
  5
27C
330
224
100
AcDbEntity
  8
0
  6
Continuous
 62
     2
100
AcDbBlockReference
  2
_CLOSED
 10
285.0503954675
 20
257.6520443876
 30
0.0
 41
2.5
 42
2.5
 43
2.5
 50
90.0
  0
INSERT
  5
27D
330
224
100
AcDbEntity
  8
0
  6
Continuous
 62
     2
100
AcDbBlockReference
  2
_CLOSED
 10
285.0503954675
 20
162.6520443876
 30
0.0
 41
2.5
 42
2.5
 43
2.5
 50
270.0
  0
ENDBLK
  5
27E
330
224
100
AcDbEntity
  8
0
  6
ByBlock
 62
     0
100
AcDbBlockEnd
  0
BLOCK
  5
27F
330
225
100
AcDbEntity
  8
0
100
AcDbBlockBegin
  2
*D2
 70
     1
 10
0.0
 20
0.0
 30
0.0
  3
*D2
  1

  0
MTEXT
  5
280
330
225
100
AcDbEntity
  8
0
  6
Continuous
 62
     2
100
AcDbMText
 10
238.1844410456
 20
150.9312225832
 30
0.0
 40
3.0
 41
4.6617100372
 46
0.0
 71
     2
 72
     1
  1
60
 73
     1
 44
1.0
  0
LINE
  5
281
330
225
100
AcDbEntity
  8
0
  6
Continuous
 62
     2
100
AcDbLine
 10
208.1844410456
 20
162.2020443876
 30
0.0
 11
208.1844410456
 21
146.4312225832
 31
0.0
  0
LINE
  5
282
330
225
100
AcDbEntity
  8
0
  6
Continuous
 62
     2
100
AcDbLine
 10
268.1844410456
 20
162.2020443876
 30
0.0
 11
268.1844410456
 21
146.4312225832
 31
0.0
  0
LINE
  5
283
330
225
100
AcDbEntity
  8
0
  6
Continuous
 62
     2
100
AcDbLine
 10
208.1844410456
 20
147.1812225832
 30
0.0
 11
238.1844410456
 21
147.1812225832
 31
0.0
  0
LINE
  5
284
330
225
100
AcDbEntity
  8
0
  6
Continuous
 62
     2
100
AcDbLine
 10
268.1844410456
 20
147.1812225832
 30
0.0
 11
238.1844410456
 21
147.1812225832
 31
0.0
  0
INSERT
  5
285
330
225
100
AcDbEntity
  8
0
  6
Continuous
 62
     2
100
AcDbBlockReference
  2
_CLOSED
 10
208.1844410456
 20
147.1812225832
 30
0.0
 41
2.5
 42
2.5
 43
2.5
 50
180.0
  0
INSERT
  5
286
330
225
100
AcDbEntity
  8
0
  6
Continuous
 62
     2
100
AcDbBlockReference
  2
_CLOSED
 10
268.1844410456
 20
147.1812225832
 30
0.0
 41
2.5
 42
2.5
 43
2.5
  0
ENDBLK
  5
287
330
225
100
AcDbEntity
  8
0
  6
ByBlock
 62
     0
100
AcDbBlockEnd
  0
BLOCK
  5
22A
330
226
100
AcDbEntity
  8
0
100
AcDbBlockBegin
  2
LOGO2_BL1
 70
     0
 10
293.8414894261
 20
42.0331558006
 30
0.0
  3
LOGO2_BL1
  1

  0
LINE
  5
22B
330
226
100
AcDbEntity
  8
0
  6
Continuous
 62
     7
100
AcDbLine
 10
285.5844146543
 20
45.2286471394
 30
0.0
 11
284.2800737249
 21
45.2286471394
 31
0.0
  0
LINE
  5
22C
330
226
100
AcDbEntity
  8
0
  6
Continuous
 62
     7
100
AcDbLine
 10
284.2800737249
 20
45.2286471394
 30
0.0
 11
284.2800737249
 21
34.7695810796
 31
0.0
  0
LINE
  5
22D
330
226
100
AcDbEntity
  8
0
  6
Continuous
 62
     7
100
AcDbLine
 10
284.2800737249
 20
34.7695810796
 30
0.0
 11
288.7611286132
 21
34.7695810796
 31
0.0
  0
LINE
  5
22E
330
226
100
AcDbEntity
  8
0
  6
Continuous
 62
     7
100
AcDbLine
 10
288.7611286132
 20
34.7695810796
 30
0.0
 11
288.7611286132
 21
35.9624354046
 31
0.0
  0
LINE
  5
22F
330
226
100
AcDbEntity
  8
0
  6
Continuous
 62
     7
100
AcDbLine
 10
288.7611286132
 20
35.9624354046
 30
0.0
 11
285.5844146543
 21
35.9624354046
 31
0.0
  0
LINE
  5
230
330
226
100
AcDbEntity
  8
0
  6
Continuous
 62
     7
100
AcDbLine
 10
285.5844146543
 20
35.9624354046
 30
0.0
 11
285.5844146543
 21
45.2286471394
 31
0.0
  0
LINE
  5
231
330
226
100
AcDbEntity
  8
0
  6
Continuous
 62
     7
100
AcDbLine
 10
300.5207408706
 20
45.2286471394
 30
0.0
 11
299.2169233525
 21
45.2286471394
 31
0.0
  0
LINE
  5
232
330
226
100
AcDbEntity
  8
0
  6
Continuous
 62
     7
100
AcDbLine
 10
299.2169233525
 20
45.2286471394
 30
0.0
 11
299.2169233525
 21
34.7695810796
 31
0.0
  0
LINE
  5
233
330
226
100
AcDbEntity
  8
0
  6
Continuous
 62
     7
100
AcDbLine
 10
299.2169233525
 20
34.7695810796
 30
0.0
 11
303.6981090936
 21
34.7695810796
 31
0.0
  0
LINE
  5
234
330
226
100
AcDbEntity
  8
0
  6
Continuous
 62
     7
100
AcDbLine
 10
303.6981090936
 20
34.7695810796
 30
0.0
 11
303.6981090936
 21
35.9624354046
 31
0.0
  0
LINE
  5
235
330
226
100
AcDbEntity
  8
0
  6
Continuous
 62
     7
100
AcDbLine
 10
303.6981090936
 20
35.9624354046
 30
0.0
 11
300.5207408706
 21
35.9624354046
 31
0.0
  0
LINE
  5
236
330
226
100
AcDbEntity
  8
0
  6
Continuous
 62
     7
100
AcDbLine
 10
300.5207408706
 20
35.9624354046
 30
0.0
 11
300.5207408706
 21
45.2286471394
 31
0.0
  0
LWPOLYLINE
  5
237
330
226
100
AcDbEntity
  8
0
  6
Continuous
 62
     7
100
AcDbPolyline
 90
        2
 70
     0
 43
0.2
 10
282.6344686359
 20
31.4260297726
 10
282.6344686359
 20
29.5689665233
  0
LWPOLYLINE
  5
238
330
226
100
AcDbEntity
  8
0
  6
Continuous
 62
     7
100
AcDbPolyline
 90
        2
 70
     0
 43
0.2
 10
282.6344686359
 20
29.5689665233
 10
283.4301846463
 20
29.5689665233
  0
LWPOLYLINE
  5
239
330
226
100
AcDbEntity
  8
0
  6
Continuous
 62
     7
100
AcDbPolyline
 90
        2
 70
     0
 43
0.2
 10
283.4301846463
 20
29.5689665233
 10
283.4301846463
 20
29.7809480949
  0
LWPOLYLINE
  5
23A
330
226
100
AcDbEntity
  8
0
  6
Continuous
 62
     7
100
AcDbPolyline
 90
        2
 70
     0
 43
0.2
 10
283.4301846463
 20
29.7809480949
 10
282.8660781308
 20
29.7809480949
  0
LWPOLYLINE
  5
23B
330
226
100
AcDbEntity
  8
0
  6
Continuous
 62
     7
100
AcDbPolyline
 90
        2
 70
     0
 43
0.2
 10
282.8660781308
 20
29.7809480949
 10
282.8660781308
 20
31.4260297726
  0
LWPOLYLINE
  5
23C
330
226
100
AcDbEntity
  8
0
  6
Continuous
 62
     7
100
AcDbPolyline
 90
        2
 70
     0
 43
0.2
 10
282.8660781308
 20
31.4260297726
 10
282.6344686359
 20
31.4260297726
  0
SPLINE
  5
23D
330
226
100
AcDbEntity
  8
0
  6
Continuous
 62
     7
100
AcDbSpline
 70
     3
 71
     3
 72
    35
 73
    31
 74
     0
 42
0.000000001
 43
0.0000001
 40
0.0
 40
0.0
 40
0.0
 40
0.0
 40
1.0
 40
1.0
 40
1.0
 40
2.0
 40
2.0
 40
2.0
 40
3.0
 40
3.0
 40
3.0
 40
4.0
 40
4.0
 40
4.0
 40
5.0
 40
5.0
 40
5.0
 40
6.0
 40
6.0
 40
6.0
 40
7.0
 40
7.0
 40
7.0
 40
8.0
 40
8.0
 40
8.0
 40
9.0
 40
9.0
 40
9.0
 40
10.0
 40
10.0
 40
10.0
 40
10.0
 10
284.8284779018
 20
30.7215181792
 30
0.0
 10
284.8284779018
 20
30.7215181792
 30
0.0
 10
284.8284779018
 20
30.0594029
 30
0.0
 10
284.8284779018
 20
30.0594029
 30
0.0
 10
284.8284779018
 20
29.7443093047
 30
0.0
 10
284.9763415906
 20
29.5297106767
 30
0.0
 10
285.3164280749
 20
29.5297106767
 30
0.0
 10
285.6559911479
 20
29.5297106767
 30
0.0
 10
285.8041165424
 20
29.7443093047
 30
0.0
 10
285.8041165424
 20
30.0594029
 30
0.0
 10
285.8041165424
 20
30.0594029
 30
0.0
 10
285.8041165424
 20
30.7215181792
 30
0.0
 10
285.8041165424
 20
30.7215181792
 30
0.0
 10
285.8041165424
 20
30.7215181792
 30
0.0
 10
285.5820593035
 20
30.7215181792
 30
0.0
 10
285.5820593035
 20
30.7215181792
 30
0.0
 10
285.5820593035
 20
30.7215181792
 30
0.0
 10
285.5820593035
 20
30.0845266418
 30
0.0
 10
285.5820593035
 20
30.0845266418
 30
0.0
 10
285.5820593035
 20
29.8987156346
 30
0.0
 10
285.5353448461
 20
29.7359347241
 30
0.0
 10
285.3164280749
 20
29.7359347241
 30
0.0
 10
285.0969878925
 20
29.7359347241
 30
0.0
 10
285.050273435
 20
29.8987156346
 30
0.0
 10
285.050273435
 20
30.0845266418
 30
0.0
 10
285.050273435
 20
30.0845266418
 30
0.0
 10
285.050273435
 20
30.7215181792
 30
0.0
 10
285.050273435
 20
30.7215181792
 30
0.0
 10
285.050273435
 20
30.7215181792
 30
0.0
 10
284.8284779018
 20
30.7215181792
 30
0.0
 10
284.8284779018
 20
30.7215181792
 30
0.0
  0
SPLINE
  5
23E
330
226
100
AcDbEntity
  8
0
  6
Continuous
 62
     7
100
AcDbSpline
 70
     3
 71
     3
 72
    35
 73
    31
 74
     0
 42
0.000000001
 43
0.0000001
 40
0.0
 40
0.0
 40
0.0
 40
0.0
 40
1.0
 40
1.0
 40
1.0
 40
2.0
 40
2.0
 40
2.0
 40
3.0
 40
3.0
 40
3.0
 40
4.0
 40
4.0
 40
4.0
 40
5.0
 40
5.0
 40
5.0
 40
6.0
 40
6.0
 40
6.0
 40
7.0
 40
7.0
 40
7.0
 40
8.0
 40
8.0
 40
8.0
 40
9.0
 40
9.0
 40
9.0
 40
10.0
 40
10.0
 40
10.0
 40
10.0
 10
288.2272490996
 20
30.6801686874
 30
0.0
 10
288.1387925919
 20
30.7314629936
 30
0.0
 10
288.0253431953
 20
30.7565867355
 30
0.0
 10
287.9217077603
 20
30.7565867355
 30
0.0
 10
287.5668349071
 20
30.7565867355
 30
0.0
 10
287.2913897169
 20
30.4927874464
 30
0.0
 10
287.2913897169
 20
30.1352975367
 30
0.0
 10
287.2913897169
 20
29.790369498
 30
0.0
 10
287.569844522
 20
29.530234088
 30
0.0
 10
287.909407595
 20
29.530234088
 30
0.0
 10
288.0253431953
 20
29.530234088
 30
0.0
 10
288.1260998682
 20
29.5522173621
 30
0.0
 10
288.2272490996
 20
29.6061287247
 30
0.0
 10
288.2272490996
 20
29.6061287247
 30
0.0
 10
288.2272490996
 20
29.8887708202
 30
0.0
 10
288.2272490996
 20
29.8887708202
 30
0.0
 10
288.1433724407
 20
29.7956036109
 30
0.0
 10
288.0398678585
 20
29.7364581354
 30
0.0
 10
287.9117629458
 20
29.7364581354
 30
0.0
 10
287.6780598058
 20
29.7364581354
 30
0.0
 10
287.5127926917
 20
29.9086604491
 30
0.0
 10
287.5127926917
 20
30.1452423512
 30
0.0
 10
287.5127926917
 20
30.3572239228
 30
0.0
 10
287.6805460094
 20
30.5493158655
 30
0.0
 10
287.8973691354
 20
30.5493158655
 30
0.0
 10
288.0301847497
 20
30.5493158655
 30
0.0
 10
288.1387925919
 20
30.4954045028
 30
0.0
 10
288.2272490996
 20
30.3943861242
 30
0.0
 10
288.2272490996
 20
30.3943861242
 30
0.0
 10
288.2272490996
 20
30.6801686874
 30
0.0
 10
288.2272490996
 20
30.6801686874
 30
0.0
  0
SPLINE
  5
23F
330
226
100
AcDbEntity
  8
0
  6
Continuous
 62
     7
100
AcDbSpline
 70
     3
 71
     3
 72
    32
 73
    28
 74
     0
 42
0.000000001
 43
0.0000001
 40
0.0
 40
0.0
 40
0.0
 40
0.0
 40
1.0
 40
1.0
 40
1.0
 40
2.0
 40
2.0
 40
2.0
 40
3.0
 40
3.0
 40
3.0
 40
4.0
 40
4.0
 40
4.0
 40
5.0
 40
5.0
 40
5.0
 40
6.0
 40
6.0
 40
6.0
 40
7.0
 40
7.0
 40
7.0
 40
8.0
 40
8.0
 40
8.0
 40
9.0
 40
9.0
 40
9.0
 40
9.0
 10
290.7591203518
 20
30.1086035611
 30
0.0
 10
290.7591203518
 20
30.1086035611
 30
0.0
 10
290.7591203518
 20
30.1426252948
 30
0.0
 10
290.7591203518
 20
30.1426252948
 30
0.0
 10
290.7591203518
 20
30.484936277
 30
0.0
 10
290.586263774
 20
30.7565867355
 30
0.0
 10
290.2196141669
 20
30.7565867355
 30
0.0
 10
289.8479921525
 20
30.7565867355
 30
0.0
 10
289.6582555606
 20
30.4901703899
 30
0.0
 10
289.6582555606
 20
30.1352975367
 30
0.0
 10
289.6582555606
 20
29.7956036109
 30
0.0
 10
289.8723307774
 20
29.5297106767
 30
0.0
 10
290.2244557213
 20
29.5297106767
 30
0.0
 10
290.4484757525
 20
29.5297106767
 30
0.0
 10
290.6506433624
 20
29.6453845713
 30
0.0
 10
290.7591203518
 20
29.844804272
 30
0.0
 10
290.7591203518
 20
29.844804272
 30
0.0
 10
290.5714774051
 20
29.9515801747
 30
0.0
 10
290.5714774051
 20
29.9515801747
 30
0.0
 10
290.4879933047
 20
29.8128761834
 30
0.0
 10
290.3967888878
 20
29.7270367322
 30
0.0
 10
290.2272036305
 20
29.7270367322
 30
0.0
 10
290.015222059
 20
29.7270367322
 30
0.0
 10
289.8822755918
 20
29.9118009168
 30
0.0
 10
289.879920241
 20
30.1086035611
 30
0.0
 10
289.879920241
 20
30.1086035611
 30
0.0
 10
290.7591203518
 20
30.1086035611
 30
0.0
 10
290.7591203518
 20
30.1086035611
 30
0.0
  0
SPLINE
  5
240
330
226
100
AcDbEntity
  8
0
  6
Continuous
 62
     7
100
AcDbSpline
 70
     3
 71
     3
 72
    14
 73
    10
 74
     0
 42
0.000000001
 43
0.0000001
 40
0.0
 40
0.0
 40
0.0
 40
0.0
 40
1.0
 40
1.0
 40
1.0
 40
2.0
 40
2.0
 40
2.0
 40
3.0
 40
3.0
 40
3.0
 40
3.0
 10
289.8919587007
 20
30.2760951732
 30
0.0
 10
289.9195686461
 20
30.4409697289
 30
0.0
 10
290.0474118532
 20
30.5639713815
 30
0.0
 10
290.2196141669
 20
30.5639713815
 30
0.0
 10
290.3967888878
 20
30.5639713815
 30
0.0
 10
290.5102382845
 20
30.4482974869
 30
0.0
 10
290.5374556714
 20
30.2760951732
 30
0.0
 10
290.5374556714
 20
30.2760951732
 30
0.0
 10
289.8919587007
 20
30.2760951732
 30
0.0
 10
289.8919587007
 20
30.2760951732
 30
0.0
  0
SPLINE
  5
241
330
226
100
AcDbEntity
  8
0
  6
Continuous
 62
     7
100
AcDbSpline
 70
     3
 71
     3
 72
    20
 73
    16
 74
     0
 42
0.000000001
 43
0.0000001
 40
0.0
 40
0.0
 40
0.0
 40
0.0
 40
1.0
 40
1.0
 40
1.0
 40
2.0
 40
2.0
 40
2.0
 40
3.0
 40
3.0
 40
3.0
 40
4.0
 40
4.0
 40
4.0
 40
5.0
 40
5.0
 40
5.0
 40
5.0
 10
292.783151802
 20
30.4854596883
 30
0.0
 10
292.783151802
 20
30.4854596883
 30
0.0
 10
293.1942913687
 20
29.982984852
 30
0.0
 10
293.1942913687
 20
29.982984852
 30
0.0
 10
293.0782249156
 20
29.8673109574
 30
0.0
 10
292.940436894
 20
29.7369815467
 30
0.0
 10
292.768496286
 20
29.7369815467
 30
0.0
 10
292.5910598594
 20
29.7369815467
 30
0.0
 10
292.4235682473
 20
29.9013326911
 30
0.0
 10
292.4235682473
 20
30.0782457064
 30
0.0
 10
292.4235682473
 20
30.2562055442
 30
0.0
 10
292.6333253209
 20
30.3823476646
 30
0.0
 10
292.7609068223
 20
30.470280761
 30
0.0
 10
292.7609068223
 20
30.470280761
 30
0.0
 10
292.783151802
 20
30.4854596883
 30
0.0
 10
292.783151802
 20
30.4854596883
 30
0.0
  0
SPLINE
  5
242
330
226
100
AcDbEntity
  8
0
  6
Continuous
 62
     7
100
AcDbSpline
 70
     3
 71
     3
 72
    23
 73
    19
 74
     0
 42
0.000000001
 43
0.0000001
 40
0.0
 40
0.0
 40
0.0
 40
0.0
 40
1.0
 40
1.0
 40
1.0
 40
2.0
 40
2.0
 40
2.0
 40
3.0
 40
3.0
 40
3.0
 40
4.0
 40
4.0
 40
4.0
 40
5.0
 40
5.0
 40
5.0
 40
6.0
 40
6.0
 40
6.0
 40
6.0
 10
292.8324833159
 20
30.7764763644
 30
0.0
 10
292.8324833159
 20
30.7764763644
 30
0.0
 10
292.7708516368
 20
30.8549880576
 30
0.0
 10
292.7708516368
 20
30.8549880576
 30
0.0
 10
292.7169402741
 20
30.9235549363
 30
0.0
 10
292.6601501494
 20
30.9926452263
 30
0.0
 10
292.6601501494
 20
31.0863358468
 30
0.0
 10
292.6601501494
 20
31.2051502092
 30
0.0
 10
292.7560652679
 20
31.2826150798
 30
0.0
 10
292.8670284609
 20
31.2826150798
 30
0.0
 10
292.9902918192
 20
31.2826150798
 30
0.0
 10
293.0835898813
 20
31.2114311446
 30
0.0
 10
293.0835898813
 20
31.0811017339
 30
0.0
 10
293.0835898813
 20
30.9460616217
 30
0.0
 10
292.9554849686
 20
30.8696435736
 30
0.0
 10
292.8619252009
 20
30.795842582
 30
0.0
 10
292.8619252009
 20
30.795842582
 30
0.0
 10
292.8324833159
 20
30.7764763644
 30
0.0
 10
292.8324833159
 20
30.7764763644
 30
0.0
  0
SPLINE
  5
243
330
226
100
AcDbEntity
  8
0
  6
Continuous
 62
     7
100
AcDbSpline
 70
     3
 71
     3
 72
    50
 73
    46
 74
     0
 42
0.000000001
 43
0.0000001
 40
0.0
 40
0.0
 40
0.0
 40
0.0
 40
1.0
 40
1.0
 40
1.0
 40
2.0
 40
2.0
 40
2.0
 40
3.0
 40
3.0
 40
3.0
 40
4.0
 40
4.0
 40
4.0
 40
5.0
 40
5.0
 40
5.0
 40
6.0
 40
6.0
 40
6.0
 40
7.0
 40
7.0
 40
7.0
 40
8.0
 40
8.0
 40
8.0
 40
9.0
 40
9.0
 40
9.0
 40
10.0
 40
10.0
 40
10.0
 40
11.0
 40
11.0
 40
11.0
 40
12.0
 40
12.0
 40
12.0
 40
13.0
 40
13.0
 40
13.0
 40
14.0
 40
14.0
 40
14.0
 40
15.0
 40
15.0
 40
15.0
 40
15.0
 10
293.5346395586
 20
29.5694899346
 30
0.0
 10
293.5346395586
 20
29.5694899346
 30
0.0
 10
293.8200295633
 20
29.5694899346
 30
0.0
 10
293.8200295633
 20
29.5694899346
 30
0.0
 10
293.8200295633
 20
29.5694899346
 30
0.0
 10
293.4876633955
 20
29.9803677955
 30
0.0
 10
293.4876633955
 20
29.9803677955
 30
0.0
 10
293.4876633955
 20
29.9803677955
 30
0.0
 10
293.7141696303
 20
30.2462607298
 30
0.0
 10
293.7141696303
 20
30.2462607298
 30
0.0
 10
293.7141696303
 20
30.2462607298
 30
0.0
 10
293.565913383
 20
30.3990968258
 30
0.0
 10
293.565913383
 20
30.3990968258
 30
0.0
 10
293.565913383
 20
30.3990968258
 30
0.0
 10
293.3500062268
 20
30.1478594077
 30
0.0
 10
293.3500062268
 20
30.1478594077
 30
0.0
 10
293.3500062268
 20
30.1478594077
 30
0.0
 10
292.9629435794
 20
30.615789099
 30
0.0
 10
292.9629435794
 20
30.615789099
 30
0.0
 10
293.1183967319
 20
30.7298927598
 30
0.0
 10
293.3006747129
 20
30.8696435736
 30
0.0
 10
293.3006747129
 20
31.0790080888
 30
0.0
 10
293.3006747129
 20
31.3229177489
 30
0.0
 10
293.0986379558
 20
31.4663324418
 30
0.0
 10
292.872131721
 20
31.4663324418
 30
0.0
 10
292.6279603552
 20
31.4663324418
 30
0.0
 10
292.443588729
 20
31.3155899909
 30
0.0
 10
292.443588729
 20
31.0591184598
 30
0.0
 10
292.443588729
 20
30.9015716622
 30
0.0
 10
292.5422517568
 20
30.7639144935
 30
0.0
 10
292.6475882785
 20
30.6529513005
 30
0.0
 10
292.6475882785
 20
30.6529513005
 30
0.0
 10
292.5320452367
 20
30.5692054944
 30
0.0
 10
292.5320452367
 20
30.5692054944
 30
0.0
 10
292.3543471045
 20
30.4409697289
 30
0.0
 10
292.2070068269
 20
30.3132573746
 30
0.0
 10
292.2070068269
 20
30.0761520612
 30
0.0
 10
292.2070068269
 20
29.755824353
 30
0.0
 10
292.4655720031
 20
29.5297106767
 30
0.0
 10
292.7759548968
 20
29.5297106767
 30
0.0
 10
292.994871668
 20
29.5297106767
 30
0.0
 10
293.1920668707
 20
29.6548059745
 30
0.0
 10
293.3323410958
 20
29.8207273527
 30
0.0
 10
293.3323410958
 20
29.8207273527
 30
0.0
 10
293.5346395586
 20
29.5694899346
 30
0.0
 10
293.5346395586
 20
29.5694899346
 30
0.0
  0
LWPOLYLINE
  5
244
330
226
100
AcDbEntity
  8
0
  6
Continuous
 62
     7
100
AcDbPolyline
 90
        2
 70
     0
 43
0.2
 10
295.4700836483
 20
31.4260297726
 10
295.2387358591
 20
31.4260297726
  0
LWPOLYLINE
  5
245
330
226
100
AcDbEntity
  8
0
  6
Continuous
 62
     7
100
AcDbPolyline
 90
        2
 70
     0
 43
0.2
 10
295.2387358591
 20
31.4260297726
 10
295.2387358591
 20
29.5689665233
  0
LWPOLYLINE
  5
246
330
226
100
AcDbEntity
  8
0
  6
Continuous
 62
     7
100
AcDbPolyline
 90
        2
 70
     0
 43
0.2
 10
295.2387358591
 20
29.5689665233
 10
296.034059311
 20
29.5689665233
  0
LWPOLYLINE
  5
247
330
226
100
AcDbEntity
  8
0
  6
Continuous
 62
     7
100
AcDbPolyline
 90
        2
 70
     0
 43
0.2
 10
296.034059311
 20
29.5689665233
 10
296.034059311
 20
29.7809480949
  0
LWPOLYLINE
  5
248
330
226
100
AcDbEntity
  8
0
  6
Continuous
 62
     7
100
AcDbPolyline
 90
        2
 70
     0
 43
0.2
 10
296.034059311
 20
29.7809480949
 10
295.4700836483
 20
29.7809480949
  0
LWPOLYLINE
  5
249
330
226
100
AcDbEntity
  8
0
  6
Continuous
 62
     7
100
AcDbPolyline
 90
        2
 70
     0
 43
0.2
 10
295.4700836483
 20
29.7809480949
 10
295.4700836483
 20
31.4260297726
  0
LWPOLYLINE
  5
24A
330
226
100
AcDbEntity
  8
0
  6
Continuous
 62
     7
100
AcDbPolyline
 90
        2
 70
     0
 43
0.2
 10
297.7131627225
 20
30.7215181792
 10
297.4920214534
 20
30.7215181792
  0
LWPOLYLINE
  5
24B
330
226
100
AcDbEntity
  8
0
  6
Continuous
 62
     7
100
AcDbPolyline
 90
        2
 70
     0
 43
0.2
 10
297.4920214534
 20
30.7215181792
 10
297.4920214534
 20
29.5694899346
  0
LWPOLYLINE
  5
24C
330
226
100
AcDbEntity
  8
0
  6
Continuous
 62
     7
100
AcDbPolyline
 90
        2
 70
     0
 43
0.2
 10
297.4920214534
 20
29.5694899346
 10
297.7131627225
 20
29.5694899346
  0
LWPOLYLINE
  5
24D
330
226
100
AcDbEntity
  8
0
  6
Continuous
 62
     7
100
AcDbPolyline
 90
        2
 70
     0
 43
0.2
 10
297.7131627225
 20
29.5694899346
 10
297.7131627225
 20
30.7215181792
  0
LWPOLYLINE
  5
24E
330
226
100
AcDbEntity
  8
0
  6
Continuous
 62
     7
100
AcDbPolyline
 90
        2
 70
     1
 43
0.2
 10
297.4501394453
 20
31.2514721081
 42
1.0
 10
297.7553064362
 20
31.2514721081
 42
1.0
  0
SPLINE
  5
24F
330
226
100
AcDbEntity
  8
0
  6
Continuous
 62
     7
100
AcDbSpline
 70
     3
 71
     3
 72
    17
 73
    13
 74
     0
 42
0.000000001
 43
0.0000001
 40
0.0
 40
0.0
 40
0.0
 40
0.0
 40
1.0
 40
1.0
 40
1.0
 40
2.0
 40
2.0
 40
2.0
 40
3.0
 40
3.0
 40
3.0
 40
4.0
 40
4.0
 40
4.0
 40
4.0
 10
299.8434466641
 20
29.7270367322
 30
0.0
 10
299.6094818184
 20
29.7270367322
 30
0.0
 10
299.4791524078
 20
29.9290734893
 30
0.0
 10
299.4791524078
 20
30.1452423512
 30
0.0
 10
299.4791524078
 20
30.3598409792
 30
0.0
 10
299.614977637
 20
30.5587372686
 30
0.0
 10
299.8434466641
 20
30.5587372686
 30
0.0
 10
300.0829073283
 20
30.5587372686
 30
0.0
 10
300.2184708519
 20
30.3697857937
 30
0.0
 10
300.2184708519
 20
30.1452423512
 30
0.0
 10
300.2184708519
 20
29.9191286749
 30
0.0
 10
300.0852626791
 20
29.7270367322
 30
0.0
 10
299.8434466641
 20
29.7270367322
 30
0.0
  0
SPLINE
  5
250
330
226
100
AcDbEntity
  8
0
  6
Continuous
 62
     7
100
AcDbSpline
 70
     3
 71
     3
 72
    50
 73
    46
 74
     0
 42
0.000000001
 43
0.0000001
 40
0.0
 40
0.0
 40
0.0
 40
0.0
 40
1.0
 40
1.0
 40
1.0
 40
2.0
 40
2.0
 40
2.0
 40
3.0
 40
3.0
 40
3.0
 40
4.0
 40
4.0
 40
4.0
 40
5.0
 40
5.0
 40
5.0
 40
6.0
 40
6.0
 40
6.0
 40
7.0
 40
7.0
 40
7.0
 40
8.0
 40
8.0
 40
8.0
 40
9.0
 40
9.0
 40
9.0
 40
10.0
 40
10.0
 40
10.0
 40
11.0
 40
11.0
 40
11.0
 40
12.0
 40
12.0
 40
12.0
 40
13.0
 40
13.0
 40
13.0
 40
14.0
 40
14.0
 40
14.0
 40
15.0
 40
15.0
 40
15.0
 40
15.0
 10
300.4275736614
 20
30.7220415905
 30
0.0
 10
300.4275736614
 20
30.7220415905
 30
0.0
 10
300.205908981
 20
30.7220415905
 30
0.0
 10
300.205908981
 20
30.7220415905
 30
0.0
 10
300.205908981
 20
30.7220415905
 30
0.0
 10
300.205908981
 20
30.5247155349
 30
0.0
 10
300.205908981
 20
30.5247155349
 30
0.0
 10
300.205908981
 20
30.5247155349
 30
0.0
 10
300.2011982794
 20
30.5247155349
 30
0.0
 10
300.2011982794
 20
30.5247155349
 30
0.0
 10
300.1098630096
 20
30.6676068165
 30
0.0
 10
299.9719441353
 20
30.7560633242
 30
0.0
 10
299.7992184103
 20
30.7560633242
 30
0.0
 10
299.4668522425
 20
30.7560633242
 30
0.0
 10
299.257749433
 20
30.4681871158
 30
0.0
 10
299.257749433
 20
30.1525701092
 30
0.0
 10
299.257749433
 20
29.8228209979
 30
0.0
 10
299.4548137829
 20
29.5297106767
 30
0.0
 10
299.8096866361
 20
29.5297106767
 30
0.0
 10
299.9719441353
 20
29.5297106767
 30
0.0
 10
300.1119566548
 20
29.6181671843
 30
0.0
 10
300.2011982794
 20
29.7490200063
 30
0.0
 10
300.2011982794
 20
29.7490200063
 30
0.0
 10
300.205908981
 20
29.7490200063
 30
0.0
 10
300.205908981
 20
29.7490200063
 30
0.0
 10
300.205908981
 20
29.7490200063
 30
0.0
 10
300.205908981
 20
29.5297106767
 30
0.0
 10
300.205908981
 20
29.5297106767
 30
0.0
 10
300.205908981
 20
29.2931287746
 30
0.0
 10
300.1493805619
 20
29.1062709448
 30
0.0
 10
299.8761598696
 20
29.1062709448
 30
0.0
 10
299.6738614068
 20
29.1062709448
 30
0.0
 10
299.5312318309
 20
29.2245618959
 30
0.0
 10
299.5312318309
 20
29.4307859433
 30
0.0
 10
299.5312318309
 20
29.4307859433
 30
0.0
 10
299.3095671505
 20
29.4307859433
 30
0.0
 10
299.3095671505
 20
29.4307859433
 30
0.0
 10
299.3145395577
 20
29.1062709448
 30
0.0
 10
299.5456256413
 20
28.9094683006
 30
0.0
 10
299.8659533495
 20
28.9094683006
 30
0.0
 10
300.3139934119
 20
28.9094683006
 30
0.0
 10
300.4275736614
 20
29.1947274524
 30
0.0
 10
300.4275736614
 20
29.5914732087
 30
0.0
 10
300.4275736614
 20
29.5914732087
 30
0.0
 10
300.4275736614
 20
30.7220415905
 30
0.0
 10
300.4275736614
 20
30.7220415905
 30
0.0
  0
SPLINE
  5
251
330
226
100
AcDbEntity
  8
0
  6
Continuous
 62
     7
100
AcDbSpline
 70
     3
 71
     3
 72
    44
 73
    40
 74
     0
 42
0.000000001
 43
0.0000001
 40
0.0
 40
0.0
 40
0.0
 40
0.0
 40
1.0
 40
1.0
 40
1.0
 40
2.0
 40
2.0
 40
2.0
 40
3.0
 40
3.0
 40
3.0
 40
4.0
 40
4.0
 40
4.0
 40
5.0
 40
5.0
 40
5.0
 40
6.0
 40
6.0
 40
6.0
 40
7.0
 40
7.0
 40
7.0
 40
8.0
 40
8.0
 40
8.0
 40
9.0
 40
9.0
 40
9.0
 40
10.0
 40
10.0
 40
10.0
 40
11.0
 40
11.0
 40
11.0
 40
12.0
 40
12.0
 40
12.0
 40
13.0
 40
13.0
 40
13.0
 40
13.0
 10
301.9964989968
 20
31.7071016342
 30
0.0
 10
301.9964989968
 20
31.7071016342
 30
0.0
 10
301.9964989968
 20
29.5689665233
 30
0.0
 10
301.9964989968
 20
29.5689665233
 30
0.0
 10
301.9964989968
 20
29.5689665233
 30
0.0
 10
302.2179019715
 20
29.5689665233
 30
0.0
 10
302.2179019715
 20
29.5689665233
 30
0.0
 10
302.2179019715
 20
29.5689665233
 30
0.0
 10
302.2179019715
 20
30.0986587466
 30
0.0
 10
302.2179019715
 20
30.0986587466
 30
0.0
 10
302.2179019715
 20
30.308546673
 30
0.0
 10
302.2179019715
 20
30.5592606799
 30
0.0
 10
302.5031611234
 20
30.5592606799
 30
0.0
 10
302.7300599167
 20
30.5592606799
 30
0.0
 10
302.757015598
 20
30.4263142128
 30
0.0
 10
302.757015598
 20
30.2300349799
 30
0.0
 10
302.757015598
 20
30.2300349799
 30
0.0
 10
302.757015598
 20
29.5689665233
 30
0.0
 10
302.757015598
 20
29.5689665233
 30
0.0
 10
302.757015598
 20
29.5689665233
 30
0.0
 10
302.9789419841
 20
29.5689665233
 30
0.0
 10
302.9789419841
 20
29.5689665233
 30
0.0
 10
302.9789419841
 20
29.5689665233
 30
0.0
 10
302.9789419841
 20
30.2562055442
 30
0.0
 10
302.9789419841
 20
30.2562055442
 30
0.0
 10
302.9789419841
 20
30.5367539945
 30
0.0
 10
302.8949344724
 20
30.7565867355
 30
0.0
 10
302.5698960626
 20
30.7565867355
 30
0.0
 10
302.4301452488
 20
30.7565867355
 30
0.0
 10
302.2919646688
 20
30.6901135019
 30
0.0
 10
302.2226126731
 20
30.5671118492
 30
0.0
 10
302.2226126731
 20
30.5671118492
 30
0.0
 10
302.2179019715
 20
30.5671118492
 30
0.0
 10
302.2179019715
 20
30.5671118492
 30
0.0
 10
302.2179019715
 20
30.5671118492
 30
0.0
 10
302.2179019715
 20
31.7071016342
 30
0.0
 10
302.2179019715
 20
31.7071016342
 30
0.0
 10
302.2179019715
 20
31.7071016342
 30
0.0
 10
301.9964989968
 20
31.7071016342
 30
0.0
 10
301.9964989968
 20
31.7071016342
 30
0.0
  0
LWPOLYLINE
  5
252
330
226
100
AcDbEntity
  8
0
  6
Continuous
 62
     7
100
AcDbPolyline
 90
        2
 70
     0
 43
0.2
 10
304.818732661
 20
30.5147707205
 10
305.0351632285
 20
30.5147707205
  0
LWPOLYLINE
  5
253
330
226
100
AcDbEntity
  8
0
  6
Continuous
 62
     7
100
AcDbPolyline
 90
        2
 70
     0
 43
0.2
 10
305.0351632285
 20
30.5147707205
 10
305.0351632285
 20
30.7215181792
  0
LWPOLYLINE
  5
254
330
226
100
AcDbEntity
  8
0
  6
Continuous
 62
     7
100
AcDbPolyline
 90
        2
 70
     0
 43
0.2
 10
305.0351632285
 20
30.7215181792
 10
304.818732661
 20
30.7215181792
  0
LWPOLYLINE
  5
255
330
226
100
AcDbEntity
  8
0
  6
Continuous
 62
     7
100
AcDbPolyline
 90
        2
 70
     0
 43
0.2
 10
304.818732661
 20
30.7215181792
 10
304.818732661
 20
31.1622304836
  0
LWPOLYLINE
  5
256
330
226
100
AcDbEntity
  8
0
  6
Continuous
 62
     7
100
AcDbPolyline
 90
        2
 70
     0
 43
0.2
 10
304.818732661
 20
31.1622304836
 10
304.5970679806
 20
31.1622304836
  0
LWPOLYLINE
  5
257
330
226
100
AcDbEntity
  8
0
  6
Continuous
 62
     7
100
AcDbPolyline
 90
        2
 70
     0
 43
0.2
 10
304.5970679806
 20
31.1622304836
 10
304.5970679806
 20
30.7215181792
  0
LWPOLYLINE
  5
258
330
226
100
AcDbEntity
  8
0
  6
Continuous
 62
     7
100
AcDbPolyline
 90
        2
 70
     0
 43
0.2
 10
304.5970679806
 20
30.7215181792
 10
304.4764216787
 20
30.7215181792
  0
LWPOLYLINE
  5
259
330
226
100
AcDbEntity
  8
0
  6
Continuous
 62
     7
100
AcDbPolyline
 90
        2
 70
     0
 43
0.2
 10
304.4764216787
 20
30.7215181792
 10
304.4764216787
 20
30.5147707205
  0
LWPOLYLINE
  5
25A
330
226
100
AcDbEntity
  8
0
  6
Continuous
 62
     7
100
AcDbPolyline
 90
        2
 70
     0
 43
0.2
 10
304.4764216787
 20
30.5147707205
 10
304.5970679806
 20
30.5147707205
  0
LWPOLYLINE
  5
25B
330
226
100
AcDbEntity
  8
0
  6
Continuous
 62
     7
100
AcDbPolyline
 90
        2
 70
     0
 43
0.2
 10
304.5970679806
 20
30.5147707205
 10
304.5970679806
 20
29.5689665233
  0
LWPOLYLINE
  5
25C
330
226
100
AcDbEntity
  8
0
  6
Continuous
 62
     7
100
AcDbPolyline
 90
        2
 70
     0
 43
0.2
 10
304.5970679806
 20
29.5689665233
 10
304.818732661
 20
29.5689665233
  0
LWPOLYLINE
  5
25D
330
226
100
AcDbEntity
  8
0
  6
Continuous
 62
     7
100
AcDbPolyline
 90
        2
 70
     0
 43
0.2
 10
304.818732661
 20
29.5689665233
 10
304.818732661
 20
30.5147707205
  0
SPLINE
  5
25E
330
226
100
AcDbEntity
  8
0
  6
Continuous
 62
     7
100
AcDbSpline
 70
     3
 71
     3
 72
    20
 73
    16
 74
     0
 42
0.000000001
 43
0.0000001
 40
0.0
 40
0.0
 40
0.0
 40
0.0
 40
1.0
 40
1.0
 40
1.0
 40
2.0
 40
2.0
 40
2.0
 40
3.0
 40
3.0
 40
3.0
 40
4.0
 40
4.0
 40
4.0
 40
5.0
 40
5.0
 40
5.0
 40
5.0
 10
292.6007429682
 20
39.9298929667
 30
0.0
 10
292.6007429682
 20
39.9298929667
 30
0.0
 10
294.9170996227
 20
37.1003315444
 30
0.0
 10
294.9170996227
 20
37.1003315444
 30
0.0
 10
294.2654525693
 20
36.4481610798
 30
0.0
 10
293.4885793653
 20
35.712244809
 30
0.0
 10
292.5173897206
 20
35.712244809
 30
0.0
 10
291.5188518362
 20
35.712244809
 30
0.0
 10
290.5755338426
 20
36.6418232563
 30
0.0
 10
290.5755338426
 20
37.6410154048
 30
0.0
 10
290.5755338426
 20
38.6402075534
 30
0.0
 10
291.7543869157
 20
39.346812792
 30
0.0
 10
292.4759093761
 20
39.8466705719
 30
0.0
 10
292.4759093761
 20
39.8466705719
 30
0.0
 10
292.6007429682
 20
39.9298929667
 30
0.0
 10
292.6007429682
 20
39.9298929667
 30
0.0
  0
SPLINE
  5
25F
330
226
100
AcDbEntity
  8
0
  6
Continuous
 62
     7
100
AcDbSpline
 70
     3
 71
     3
 72
    23
 73
    19
 74
     0
 42
0.000000001
 43
0.0000001
 40
0.0
 40
0.0
 40
0.0
 40
0.0
 40
1.0
 40
1.0
 40
1.0
 40
2.0
 40
2.0
 40
2.0
 40
3.0
 40
3.0
 40
3.0
 40
4.0
 40
4.0
 40
4.0
 40
5.0
 40
5.0
 40
5.0
 40
6.0
 40
6.0
 40
6.0
 40
6.0
 10
292.8781509508
 20
41.5676468864
 30
0.0
 10
292.8781509508
 20
41.5676468864
 30
0.0
 10
292.5316526782
 20
42.0109762472
 30
0.0
 10
292.5316526782
 20
42.0109762472
 30
0.0
 10
292.2258496333
 20
42.3990857172
 30
0.0
 10
291.9069613061
 20
42.7875877456
 30
0.0
 10
291.9069613061
 20
43.3145320597
 30
0.0
 10
291.9069613061
 20
43.9807037763
 30
0.0
 10
292.4482994306
 20
44.4244256956
 30
0.0
 10
293.0722056858
 20
44.4244256956
 30
0.0
 10
293.7659873478
 20
44.4244256956
 30
0.0
 10
294.2931933675
 20
44.0221841209
 30
0.0
 10
294.2931933675
 20
43.2871838199
 30
0.0
 10
294.2931933675
 20
42.5239193093
 30
0.0
 10
293.5719326129
 20
42.0938060835
 30
0.0
 10
293.044857446
 20
41.6780866681
 30
0.0
 10
293.044857446
 20
41.6780866681
 30
0.0
 10
292.8781509508
 20
41.5676468864
 30
0.0
 10
292.8781509508
 20
41.5676468864
 30
0.0
  0
SPLINE
  5
260
330
226
100
AcDbEntity
  8
0
  6
Continuous
 62
     7
100
AcDbSpline
 70
     3
 71
     3
 72
    50
 73
    46
 74
     0
 42
0.000000001
 43
0.0000001
 40
0.0
 40
0.0
 40
0.0
 40
0.0
 40
1.0
 40
1.0
 40
1.0
 40
2.0
 40
2.0
 40
2.0
 40
3.0
 40
3.0
 40
3.0
 40
4.0
 40
4.0
 40
4.0
 40
5.0
 40
5.0
 40
5.0
 40
6.0
 40
6.0
 40
6.0
 40
7.0
 40
7.0
 40
7.0
 40
8.0
 40
8.0
 40
8.0
 40
9.0
 40
9.0
 40
9.0
 40
10.0
 40
10.0
 40
10.0
 40
11.0
 40
11.0
 40
11.0
 40
12.0
 40
12.0
 40
12.0
 40
13.0
 40
13.0
 40
13.0
 40
14.0
 40
14.0
 40
14.0
 40
15.0
 40
15.0
 40
15.0
 40
15.0
 10
296.8317381137
 20
34.7690576683
 30
0.0
 10
296.8317381137
 20
34.7690576683
 30
0.0
 10
298.4409661183
 20
34.7690576683
 30
0.0
 10
298.4409661183
 20
34.7690576683
 30
0.0
 10
298.4409661183
 20
34.7690576683
 30
0.0
 10
296.5679388246
 20
37.0861994397
 30
0.0
 10
296.5679388246
 20
37.0861994397
 30
0.0
 10
296.5679388246
 20
37.0861994397
 30
0.0
 10
297.8442772501
 20
38.5836791343
 30
0.0
 10
297.8442772501
 20
38.5836791343
 30
0.0
 10
297.8442772501
 20
38.5836791343
 30
0.0
 10
297.0120533024
 20
39.4446907028
 30
0.0
 10
297.0120533024
 20
39.4446907028
 30
0.0
 10
297.0120533024
 20
39.4446907028
 30
0.0
 10
295.7914581791
 20
38.0293865804
 30
0.0
 10
295.7914581791
 20
38.0293865804
 30
0.0
 10
295.7914581791
 20
38.0293865804
 30
0.0
 10
293.6135438102
 20
40.6647624148
 30
0.0
 10
293.6135438102
 20
40.6647624148
 30
0.0
 10
294.4871172497
 20
41.3028007747
 30
0.0
 10
295.5137884909
 20
42.0938060835
 30
0.0
 10
295.5137884909
 20
43.2726591566
 30
0.0
 10
295.5137884909
 20
44.6463520817
 30
0.0
 10
294.375892351
 20
45.4508352311
 30
0.0
 10
293.1006007481
 20
45.4508352311
 30
0.0
 10
291.7271695288
 20
45.4508352311
 30
0.0
 10
290.68623533
 20
44.6046100315
 30
0.0
 10
290.68623533
 20
43.1619576693
 30
0.0
 10
290.68623533
 20
42.2743829779
 30
0.0
 10
291.2415747064
 20
41.4975097738
 30
0.0
 10
291.8377401633
 20
40.8730801074
 30
0.0
 10
291.8377401633
 20
40.8730801074
 30
0.0
 10
291.1858314043
 20
40.401486537
 30
0.0
 10
291.1858314043
 20
40.401486537
 30
0.0
 10
290.1872935198
 20
39.6802257823
 30
0.0
 10
289.354415308
 20
38.9589650277
 30
0.0
 10
289.354415308
 20
37.6274067113
 30
0.0
 10
289.354415308
 20
35.8237314133
 30
0.0
 10
290.8114614806
 20
34.5471312822
 30
0.0
 10
292.559000918
 20
34.5471312822
 30
0.0
 10
293.7938589989
 20
34.5471312822
 30
0.0
 10
294.9032292236
 20
35.2553067547
 30
0.0
 10
295.6941036795
 20
36.1838383794
 30
0.0
 10
295.6941036795
 20
36.1838383794
 30
0.0
 10
296.8317381137
 20
34.7690576683
 30
0.0
 10
296.8317381137
 20
34.7690576683
 30
0.0
  0
LINE
  5
261
330
226
100
AcDbEntity
  8
0
  6
Continuous
 62
     7
100
AcDbLine
 10
282.6345994887
 20
32.7429325729
 30
0.0
 11
305.0485102163
 21
32.7429325729
 31
0.0
  0
LINE
  5
262
330
226
100
AcDbEntity
  8
0
  6
Continuous
 62
     7
100
AcDbLine
 10
305.0485102163
 20
32.7429325729
 30
0.0
 11
305.0485102163
 21
55.1568433006
 31
0.0
  0
LINE
  5
263
330
226
100
AcDbEntity
  8
0
  6
Continuous
 62
     7
100
AcDbLine
 10
305.0485102163
 20
55.1568433006
 30
0.0
 11
282.6345994887
 21
55.1568433006
 31
0.0
  0
LINE
  5
264
330
226
100
AcDbEntity
  8
0
  6
Continuous
 62
     7
100
AcDbLine
 10
282.6345994887
 20
55.1568433006
 30
0.0
 11
282.6345994887
 21
32.7429325729
 31
0.0
  0
ENDBLK
  5
265
330
226
100
AcDbEntity
  8
0
  6
ByBlock
 62
     0
100
AcDbBlockEnd
  0
BLOCK
  5
266
330
227
100
AcDbEntity
  8
0
100
AcDbBlockBegin
  2
PROIEZIONE_EU_BL0
 70
     0
 10
295.0154423813
 20
67.6581558006
 30
0.0
  3
PROIEZIONE_EU_BL0
  1

  0
LWPOLYLINE
  5
267
330
227
100
AcDbEntity
  8
DEFAULT_1
  6
CENTER
 62
     7
100
AcDbPolyline
 90
        2
 70
     0
 43
0.25
 10
301.142063043
 20
72.6578499324
 10
301.1421040254
 20
62.6584616687
  0
LWPOLYLINE
  5
268
330
227
100
AcDbEntity
  8
DEFAULT_1
  6
CENTER
 62
     7
100
AcDbPolyline
 90
        2
 70
     0
 43
0.25
 10
307.1420928681
 20
67.6584269357
 10
282.8887918946
 20
67.6581562753
  0
LWPOLYLINE
  5
269
330
227
100
AcDbEntity
  8
0
  6
Continuous
 62
     7
100
AcDbPolyline
 90
        2
 70
     1
 43
0.25
 10
297.5949528672
 20
67.6396080464
 42
1.0
 10
304.7012819658
 20
67.6396080464
 42
1.0
  0
LWPOLYLINE
  5
26A
330
227
100
AcDbEntity
  8
0
  6
Continuous
 62
     7
100
AcDbPolyline
 90
        2
 70
     1
 43
0.25
 10
299.1446966956
 20
67.657506091
 42
1.0
 10
303.1564484456
 20
67.657506091
 42
1.0
  0
LWPOLYLINE
  5
26B
330
227
100
AcDbEntity
  8
0
  6
Continuous
 62
     7
100
AcDbPolyline
 90
        2
 70
     0
 43
0.25
 10
295.1420906621
 20
71.2333592958
 10
295.1420903075
 20
64.1331563875
  0
LWPOLYLINE
  5
26C
330
227
100
AcDbEntity
  8
0
  6
Continuous
 62
     7
100
AcDbPolyline
 90
        2
 70
     0
 43
0.25
 10
295.1421187439
 20
64.1331279511
 10
285.1475614727
 20
65.653221364
  0
LWPOLYLINE
  5
26D
330
227
100
AcDbEntity
  8
0
  6
Continuous
 62
     7
100
AcDbPolyline
 90
        2
 70
     0
 43
0.25
 10
285.1452514871
 20
65.6525438224
 10
285.142584583
 20
69.6581824338
  0
LWPOLYLINE
  5
26E
330
227
100
AcDbEntity
  8
0
  6
Continuous
 62
     7
100
AcDbPolyline
 90
        2
 70
     0
 43
0.25
 10
285.1425763069
 20
69.6581741578
 10
295.1423195442
 20
71.2333313778
  0
ENDBLK
  5
26F
330
227
100
AcDbEntity
  8
0
  6
ByBlock
 62
     0
100
AcDbBlockEnd
  0
ENDSEC
  0
SECTION
  2
ENTITIES
  0
LINE
  5
288
330
1B
100
AcDbEntity
 67
     1
  8
0
  6
Continuous
 62
     7
100
AcDbLine
 10
0.0
 20
0.0
 30
0.0
 11
420.0
 21
0.0
 31
0.0
  0
LINE
  5
289
330
1B
100
AcDbEntity
 67
     1
  8
0
  6
Continuous
 62
     7
100
AcDbLine
 10
420.0
 20
0.0
 30
0.0
 11
420.0
 21
297.0
 31
0.0
  0
LINE
  5
28A
330
1B
100
AcDbEntity
 67
     1
  8
0
  6
Continuous
 62
     7
100
AcDbLine
 10
0.0
 20
297.0
 30
0.0
 11
420.0
 21
297.0
 31
0.0
  0
LINE
  5
28B
330
1B
100
AcDbEntity
 67
     1
  8
0
  6
Continuous
 62
     7
100
AcDbLine
 10
0.0
 20
0.0
 30
0.0
 11
0.0
 21
297.0
 31
0.0
  0
LWPOLYLINE
  5
28C
330
1B
100
AcDbEntity
 67
     1
  8
0
  6
Continuous
 62
     7
100
AcDbPolyline
 90
        2
 70
     0
 43
0.5
 10
410.0
 20
10.0318435754
 10
410.0
 20
287.0
  0
LWPOLYLINE
  5
28D
330
1B
100
AcDbEntity
 67
     1
  8
0
  6
Continuous
 62
     7
100
AcDbPolyline
 90
        2
 70
     0
 43
0.5
 10
10.0536312849
 20
10.0318435754
 10
10.0536312849
 20
287.0
  0
LWPOLYLINE
  5
28E
330
1B
100
AcDbEntity
 67
     1
  8
0
  6
Continuous
 62
     7
100
AcDbPolyline
 90
        2
 70
     0
 43
0.5
 10
10.0536312849
 20
10.0318435754
 10
410.0
 20
10.0318435754
  0
LWPOLYLINE
  5
28F
330
1B
100
AcDbEntity
 67
     1
  8
0
  6
Continuous
 62
     7
100
AcDbPolyline
 90
        2
 70
     0
 43
0.1
 10
210.0
 20
10.0
 10
210.0
 20
0.0
  0
LWPOLYLINE
  5
290
330
1B
100
AcDbEntity
 67
     1
  8
0
  6
Continuous
 62
     7
100
AcDbPolyline
 90
        2
 70
     0
 43
0.1
 10
210.0
 20
287.0
 10
210.0
 20
297.0
  0
LWPOLYLINE
  5
291
330
1B
100
AcDbEntity
 67
     1
  8
0
  6
Continuous
 62
     7
100
AcDbPolyline
 90
        2
 70
     0
 43
0.1
 10
410.0
 20
148.5
 10
420.0
 20
148.5
  0
LWPOLYLINE
  5
292
330
1B
100
AcDbEntity
 67
     1
  8
0
  6
Continuous
 62
     7
100
AcDbPolyline
 90
        2
 70
     0
 43
0.1
 10
10.0
 20
148.5
 10
0.0
 20
148.5
  0
LWPOLYLINE
  5
293
330
1B
100
AcDbEntity
 67
     1
  8
0
  6
Continuous
 62
     7
100
AcDbPolyline
 90
        2
 70
     0
 43
0.5
 10
10.0536312849
 20
287.0
 10
410.0
 20
287.0
  0
LWPOLYLINE
  5
294
330
1B
100
AcDbEntity
 67
     1
  8
0
  6
Continuous
 62
     7
100
AcDbPolyline
 90
        2
 70
     0
 43
0.1
 10
0.0
 20
290.0
 10
420.0
 20
290.0
  0
LWPOLYLINE
  5
295
330
1B
100
AcDbEntity
 67
     1
  8
0
  6
Continuous
 62
     7
100
AcDbPolyline
 90
        2
 70
     0
 43
0.1
 10
7.0536312849
 20
0.0
 10
7.0536312849
 20
297.0
  0
LWPOLYLINE
  5
296
330
1B
100
AcDbEntity
 67
     1
  8
0
  6
Continuous
 62
     7
100
AcDbPolyline
 90
        2
 70
     0
 43
0.1
 10
413.0
 20
0.0
 10
413.0
 20
297.0
  0
LWPOLYLINE
  5
297
330
1B
100
AcDbEntity
 67
     1
  8
0
  6
Continuous
 62
     7
100
AcDbPolyline
 90
        2
 70
     0
 43
0.1
 10
0.0
 20
7.0318435754
 10
420.0
 20
7.0318435754
  0
LWPOLYLINE
  5
298
330
1B
100
AcDbEntity
 67
     1
  8
0
  6
Continuous
 62
     7
100
AcDbPolyline
 90
        2
 70
     0
 43
0.1
 10
10.0
 20
202.9681564246
 10
0.0
 20
202.9681564246
  0
LINE
  5
299
330
1B
100
AcDbEntity
 67
     1
  8
0
  6
Continuous
 62
     7
100
AcDbLine
 10
0.0
 20
99.9681564246
 30
0.0
 11
7.0
 21
99.9681564246
 31
0.0
  0
LINE
  5
29A
330
1B
100
AcDbEntity
 67
     1
  8
0
  6
Continuous
 62
     7
100
AcDbLine
 10
0.0
 20
199.9681564246
 30
0.0
 11
7.0
 21
199.9681564246
 31
0.0
  0
LWPOLYLINE
  5
29B
330
1B
100
AcDbEntity
 67
     1
  8
0
  6
Continuous
 62
     7
100
AcDbPolyline
 90
        2
 70
     0
 43
0.1
 10
410.0
 20
210.0
 10
420.0
 20
210.0
  0
LINE
  5
29C
330
1B
100
AcDbEntity
 67
     1
  8
0
  6
Continuous
 62
     7
100
AcDbLine
 10
413.0
 20
107.0
 30
0.0
 11
420.0
 21
107.0
 31
0.0
  0
LWPOLYLINE
  5
29D
330
1B
100
AcDbEntity
 67
     1
  8
0
  6
Continuous
 62
     7
100
AcDbPolyline
 90
        2
 70
     0
 43
0.1
 10
123.0
 20
10.0
 10
123.0
 20
0.0
  0
LINE
  5
29E
330
1B
100
AcDbEntity
 67
     1
  8
0
  6
Continuous
 62
     7
100
AcDbLine
 10
210.0
 20
0.0
 30
0.0
 11
210.0
 21
10.0
 31
0.0
  0
LINE
  5
29F
330
1B
100
AcDbEntity
 67
     1
  8
0
  6
Continuous
 62
     7
100
AcDbLine
 10
313.0
 20
7.0
 30
0.0
 11
313.0
 21
0.0
 31
0.0
  0
LINE
  5
2A0
330
1B
100
AcDbEntity
 67
     1
  8
0
  6
Continuous
 62
     7
100
AcDbLine
 10
113.0
 20
7.0
 30
0.0
 11
113.0
 21
0.0
 31
0.0
  0
LWPOLYLINE
  5
2A1
330
1B
100
AcDbEntity
 67
     1
  8
0
  6
Continuous
 62
     7
100
AcDbPolyline
 90
        2
 70
     0
 43
0.1
 10
123.0
 20
287.0
 10
123.0
 20
297.0
  0
LINE
  5
2A2
330
1B
100
AcDbEntity
 67
     1
  8
0
  6
Continuous
 62
     7
100
AcDbLine
 10
210.0
 20
287.0
 30
0.0
 11
210.0
 21
297.0
 31
0.0
  0
LINE
  5
2A3
330
1B
100
AcDbEntity
 67
     1
  8
0
  6
Continuous
 62
     7
100
AcDbLine
 10
313.0
 20
297.0
 30
0.0
 11
313.0
 21
290.0
 31
0.0
  0
LINE
  5
2A4
330
1B
100
AcDbEntity
 67
     1
  8
0
  6
Continuous
 62
     7
100
AcDbLine
 10
113.0
 20
297.0
 30
0.0
 11
113.0
 21
290.0
 31
0.0
  0
MTEXT
  5
2A5
330
1B
100
AcDbEntity
 67
     1
  8
0
  6
Continuous
 62
     2
100
AcDbMText
 10
1.6467220993
 20
53.595027386
 30
0.0
 40
4.0
 41
3.4285714286
 46
0.0
 71
     1
 72
     1
  1
1
  7
TEXTSTYLE_2
 73
     1
 44
1.0
  0
MTEXT
  5
2A6
330
1B
100
AcDbEntity
 67
     1
  8
0
  6
Continuous
 62
     2
100
AcDbMText
 10
1.6467220993
 20
153.595027386
 30
0.0
 40
4.0
 41
4.7142857143
 46
0.0
 71
     1
 72
     1
  1
2
  7
TEXTSTYLE_2
 73
     1
 44
1.0
  0
MTEXT
  5
2A7
330
1B
100
AcDbEntity
 67
     1
  8
0
  6
Continuous
 62
     2
100
AcDbMText
 10
1.6467220993
 20
253.595027386
 30
0.0
 40
4.0
 41
4.2857142857
 46
0.0
 71
     1
 72
     1
  1
3
  7
TEXTSTYLE_2
 73
     1
 44
1.0
  0
MTEXT
  5
2A8
330
1B
100
AcDbEntity
 67
     1
  8
0
  6
Continuous
 62
     2
100
AcDbMText
 10
414.6467220993
 20
60.6268709614
 30
0.0
 40
4.0
 41
3.4285714286
 46
0.0
 71
     1
 72
     1
  1
1
  7
TEXTSTYLE_2
 73
     1
 44
1.0
  0
MTEXT
  5
2A9
330
1B
100
AcDbEntity
 67
     1
  8
0
  6
Continuous
 62
     2
100
AcDbMText
 10
414.6467220993
 20
160.6268709614
 30
0.0
 40
4.0
 41
4.7142857143
 46
0.0
 71
     1
 72
     1
  1
2
  7
TEXTSTYLE_2
 73
     1
 44
1.0
  0
MTEXT
  5
2AA
330
1B
100
AcDbEntity
 67
     1
  8
0
  6
Continuous
 62
     2
100
AcDbMText
 10
414.6467220993
 20
260.6268709614
 30
0.0
 40
4.0
 41
4.2857142857
 46
0.0
 71
     1
 72
     1
  1
3
  7
TEXTSTYLE_2
 73
     1
 44
1.0
  0
MTEXT
  5
2AB
330
1B
100
AcDbEntity
 67
     1
  8
0
  6
Continuous
 62
     2
100
AcDbMText
 10
362.154890719
 20
5.35876025
 30
0.0
 40
4.0
 41
3.6
 46
0.0
 71
     1
 72
     1
  1
A
  7
TEXTSTYLE_3
 73
     1
 44
1.0
  0
MTEXT
  5
2AC
330
1B
100
AcDbEntity
 67
     1
  8
0
  6
Continuous
 62
     2
100
AcDbMText
 10
262.154890719
 20
5.35876025
 30
0.0
 40
4.0
 41
3.6
 46
0.0
 71
     1
 72
     1
  1
B
  7
TEXTSTYLE_3
 73
     1
 44
1.0
  0
MTEXT
  5
2AD
330
1B
100
AcDbEntity
 67
     1
  8
0
  6
Continuous
 62
     2
100
AcDbMText
 10
162.154890719
 20
5.35876025
 30
0.0
 40
4.0
 41
3.6
 46
0.0
 71
     1
 72
     1
  1
C
  7
TEXTSTYLE_3
 73
     1
 44
1.0
  0
MTEXT
  5
2AE
330
1B
100
AcDbEntity
 67
     1
  8
0
  6
Continuous
 62
     2
100
AcDbMText
 10
55.7978688212
 20
5.5353441916
 30
0.0
 40
4.0
 41
3.6
 46
0.0
 71
     1
 72
     1
  1
D
  7
TEXTSTYLE_3
 73
     1
 44
1.0
  0
MTEXT
  5
2AF
330
1B
100
AcDbEntity
 67
     1
  8
0
  6
Continuous
 62
     2
100
AcDbMText
 10
362.154890719
 20
295.35876025
 30
0.0
 40
4.0
 41
3.6
 46
0.0
 71
     1
 72
     1
  1
A
  7
TEXTSTYLE_3
 73
     1
 44
1.0
  0
MTEXT
  5
2B0
330
1B
100
AcDbEntity
 67
     1
  8
0
  6
Continuous
 62
     2
100
AcDbMText
 10
262.154890719
 20
295.35876025
 30
0.0
 40
4.0
 41
3.6
 46
0.0
 71
     1
 72
     1
  1
B
  7
TEXTSTYLE_3
 73
     1
 44
1.0
  0
MTEXT
  5
2B1
330
1B
100
AcDbEntity
 67
     1
  8
0
  6
Continuous
 62
     2
100
AcDbMText
 10
162.154890719
 20
295.35876025
 30
0.0
 40
4.0
 41
3.6
 46
0.0
 71
     1
 72
     1
  1
C
  7
TEXTSTYLE_3
 73
     1
 44
1.0
  0
MTEXT
  5
2B2
330
1B
100
AcDbEntity
 67
     1
  8
0
  6
Continuous
 62
     2
100
AcDbMText
 10
53.9878834197
 20
295.579490177
 30
0.0
 40
4.0
 41
3.6
 46
0.0
 71
     1
 72
     1
  1
D
  7
TEXTSTYLE_3
 73
     1
 44
1.0
  0
VIEWPORT
  5
2B3
330
1B
100
AcDbEntity
 67
     1
  8
0
100
AcDbViewport
 10
0.0
 20
0.0
 30
0.0
 40
495.0770428015564
 41
350.0901945525292
 68
     1
 69
     1
 12
234.0175097276264
 22
148.5
 13
0.0
 23
0.0
 14
1.0
 24
1.0
 15
0.0
 25
0.0
 16
0.0
 26
0.0
 36
1.0
 17
0.0
 27
0.0
 37
0.0
 42
50.0
 43
0.0
 44
0.0
 45
350.0901945525292
 50
0.0
 51
0.0
 72
   100
 90
   557216
  1

281
     0
 71
     1
 74
     0
110
0.0
120
0.0
130
0.0
111
1.0
121
0.0
131
0.0
112
0.0
122
1.0
132
0.0
 79
     0
146
0.0
170
     0
 61
     5
348
3D3
292
     1
282
     1
141
0.0
142
0.0
 63
   256
  0
LINE
  5
2B4
330
1B
100
AcDbEntity
 67
     1
  8
7_ALL_FEATURES
  6
Continuous
 62
     7
100
AcDbLine
 10
121.2757369299
 20
166.1520443876
 30
0.0
 11
125.6757369299
 21
166.1520443876
 31
0.0
  0
LINE
  5
2B5
330
1B
100
AcDbEntity
 67
     1
  8
7_ALL_FEATURES
  6
Continuous
 62
     7
100
AcDbLine
 10
121.2757369299
 20
161.1520443876
 30
0.0
 11
121.9257369299
 21
161.1520443876
 31
0.0
  0
LINE
  5
2B6
330
1B
100
AcDbEntity
 67
     1
  8
7_ALL_FEATURES
  6
Continuous
 62
     7
100
AcDbLine
 10
121.9257369299
 20
161.1520443876
 30
0.0
 11
123.4757369299
 21
161.1520443876
 31
0.0
  0
LINE
  5
2B7
330
1B
100
AcDbEntity
 67
     1
  8
7_ALL_FEATURES
  6
Continuous
 62
     7
100
AcDbLine
 10
123.4757369299
 20
161.1520443876
 30
0.0
 11
125.0257369299
 21
161.1520443876
 31
0.0
  0
LINE
  5
2B8
330
1B
100
AcDbEntity
 67
     1
  8
7_ALL_FEATURES
  6
Continuous
 62
     7
100
AcDbLine
 10
125.0257369299
 20
161.1520443876
 30
0.0
 11
125.6757369299
 21
161.1520443876
 31
0.0
  0
LINE
  5
2B9
330
1B
100
AcDbEntity
 67
     1
  8
7_ALL_FEATURES
  6
Continuous
 62
     7
100
AcDbLine
 10
120.9757369299
 20
161.4520443876
 30
0.0
 11
120.9757369299
 21
162.7178794851
 31
0.0
  0
LINE
  5
2BA
330
1B
100
AcDbEntity
 67
     1
  8
7_ALL_FEATURES
  6
Continuous
 62
     7
100
AcDbLine
 10
120.9757369299
 20
165.2215424986
 30
0.0
 11
120.9757369299
 21
165.2259915941
 31
0.0
  0
LINE
  5
2BB
330
1B
100
AcDbEntity
 67
     1
  8
7_ALL_FEATURES
  6
Continuous
 62
     7
100
AcDbLine
 10
120.9757369299
 20
165.2259915941
 30
0.0
 11
120.9757369299
 21
165.8520443876
 31
0.0
  0
LINE
  5
2BC
330
1B
100
AcDbEntity
 67
     1
  8
7_ALL_FEATURES
  6
Continuous
 62
     7
100
AcDbLine
 10
125.9757369299
 20
161.4520443876
 30
0.0
 11
125.9757369299
 21
162.7178794851
 31
0.0
  0
LINE
  5
2BD
330
1B
100
AcDbEntity
 67
     1
  8
7_ALL_FEATURES
  6
Continuous
 62
     7
100
AcDbLine
 10
125.9757369299
 20
165.2215424986
 30
0.0
 11
125.9757369299
 21
165.2259915942
 31
0.0
  0
LINE
  5
2BE
330
1B
100
AcDbEntity
 67
     1
  8
7_ALL_FEATURES
  6
Continuous
 62
     7
100
AcDbLine
 10
125.9757369299
 20
165.2259915942
 30
0.0
 11
125.9757369299
 21
165.8520443876
 31
0.0
  0
LINE
  5
2BF
330
1B
100
AcDbEntity
 67
     1
  8
7_ALL_FEATURES
  6
Continuous
 62
     7
100
AcDbLine
 10
121.2757369246
 20
166.1520443929
 30
0.0
 11
120.9757369239
 21
165.8520443937
 31
0.0
  0
LINE
  5
2C0
330
1B
100
AcDbEntity
 67
     1
  8
7_ALL_FEATURES
  6
Continuous
 62
     7
100
AcDbLine
 10
125.6757369352
 20
166.1520443929
 30
0.0
 11
125.975736936
 21
165.8520443937
 31
0.0
  0
LINE
  5
2C1
330
1B
100
AcDbEntity
 67
     1
  8
7_ALL_FEATURES
  6
Continuous
 62
     7
100
AcDbLine
 10
120.9757369009
 20
161.4520443586
 30
0.0
 11
121.2757369044
 21
161.1520443621
 31
0.0
  0
LINE
  5
2C2
330
1B
100
AcDbEntity
 67
     1
  8
7_ALL_FEATURES
  6
Continuous
 62
     7
100
AcDbLine
 10
125.9757369589
 20
161.4520443586
 30
0.0
 11
125.6757369554
 21
161.1520443621
 31
0.0
  0
LINE
  5
2C3
330
1B
100
AcDbEntity
 67
     1
  8
7_ALL_FEATURES
  6
Continuous
 62
     7
100
AcDbLine
 10
120.9757369299
 20
165.8520443876
 30
0.0
 11
125.9757369299
 21
165.8520443876
 31
0.0
  0
LINE
  5
2C4
330
1B
100
AcDbEntity
 67
     1
  8
7_ALL_FEATURES
  6
Continuous
 62
     7
100
AcDbLine
 10
120.9757369299
 20
161.4520443876
 30
0.0
 11
125.9757369299
 21
161.4520443876
 31
0.0
  0
LINE
  5
2C5
330
1B
100
AcDbEntity
 67
     1
  8
7_ALL_FEATURES
  6
Continuous
 62
     7
100
AcDbLine
 10
86.4706191634
 20
234.0573002759
 30
0.0
 11
84.2706191634
 21
230.2467884993
 31
0.0
  0
LINE
  5
2C6
330
1B
100
AcDbEntity
 67
     1
  8
7_ALL_FEATURES
  6
Continuous
 62
     7
100
AcDbLine
 10
82.1404921445
 20
236.5573002759
 30
0.0
 11
81.8154921445
 21
235.9943837635
 31
0.0
  0
LINE
  5
2C7
330
1B
100
AcDbEntity
 67
     1
  8
7_ALL_FEATURES
  6
Continuous
 62
     7
100
AcDbLine
 10
81.8154921445
 20
235.9943837635
 30
0.0
 11
81.0404921445
 21
234.6520443876
 31
0.0
  0
LINE
  5
2C8
330
1B
100
AcDbEntity
 67
     1
  8
7_ALL_FEATURES
  6
Continuous
 62
     7
100
AcDbLine
 10
81.0404921445
 20
234.6520443876
 30
0.0
 11
80.2654921445
 21
233.3097050117
 31
0.0
  0
LINE
  5
2C9
330
1B
100
AcDbEntity
 67
     1
  8
7_ALL_FEATURES
  6
Continuous
 62
     7
100
AcDbLine
 10
80.2654921445
 20
233.3097050117
 30
0.0
 11
79.9404921445
 21
232.7467884993
 31
0.0
  0
LINE
  5
2CA
330
1B
100
AcDbEntity
 67
     1
  8
7_ALL_FEATURES
  6
Continuous
 62
     7
100
AcDbLine
 10
82.5502997656
 20
236.6671078971
 30
0.0
 11
83.646545117
 21
236.0341903483
 31
0.0
  0
LINE
  5
2CB
330
1B
100
AcDbEntity
 67
     1
  8
7_ALL_FEATURES
  6
Continuous
 62
     7
100
AcDbLine
 10
85.8147808892
 20
234.7823588416
 30
0.0
 11
85.8198978781
 21
234.7794045467
 31
0.0
  0
LINE
  5
2CC
330
1B
100
AcDbEntity
 67
     1
  8
7_ALL_FEATURES
  6
Continuous
 62
     7
100
AcDbLine
 10
85.8198978781
 20
234.7794045467
 30
0.0
 11
86.3608115423
 21
234.4671078971
 31
0.0
  0
LINE
  5
2CD
330
1B
100
AcDbEntity
 67
     1
  8
7_ALL_FEATURES
  6
Continuous
 62
     7
100
AcDbLine
 10
80.0502997656
 20
232.3369808781
 30
0.0
 11
81.146545117
 21
231.7040633294
 31
0.0
  0
LINE
  5
2CE
330
1B
100
AcDbEntity
 67
     1
  8
7_ALL_FEATURES
  6
Continuous
 62
     7
100
AcDbLine
 10
83.3147808892
 20
230.4522318226
 30
0.0
 11
83.3228743292
 21
230.4475590729
 31
0.0
  0
LINE
  5
2CF
330
1B
100
AcDbEntity
 67
     1
  8
7_ALL_FEATURES
  6
Continuous
 62
     7
100
AcDbLine
 10
83.3228743292
 20
230.4475590729
 30
0.0
 11
83.8608115423
 21
230.1369808781
 31
0.0
  0
LINE
  5
2D0
330
1B
100
AcDbEntity
 67
     1
  8
7_ALL_FEATURES
  6
Continuous
 62
     7
100
AcDbLine
 10
86.4706191707
 20
234.0573002779
 30
0.0
 11
86.3608115505
 21
234.4671078993
 31
0.0
  0
LINE
  5
2D1
330
1B
100
AcDbEntity
 67
     1
  8
7_ALL_FEATURES
  6
Continuous
 62
     7
100
AcDbLine
 10
84.2706191654
 20
230.246788492
 30
0.0
 11
83.8608115445
 21
230.1369808699
 31
0.0
  0
LINE
  5
2D2
330
1B
100
AcDbEntity
 67
     1
  8
7_ALL_FEATURES
  6
Continuous
 62
     7
100
AcDbLine
 10
82.550299755
 20
236.6671079367
 30
0.0
 11
82.1404921351
 21
236.5573003108
 31
0.0
  0
LINE
  5
2D3
330
1B
100
AcDbEntity
 67
     1
  8
7_ALL_FEATURES
  6
Continuous
 62
     7
100
AcDbLine
 10
80.050299726
 20
232.3369808675
 30
0.0
 11
79.9404921096
 21
232.7467884899
 31
0.0
  0
LINE
  5
2D4
330
1B
100
AcDbEntity
 67
     1
  8
7_ALL_FEATURES
  6
Continuous
 62
     7
100
AcDbLine
 10
86.3608115423
 20
234.4671078971
 30
0.0
 11
83.8608115423
 21
230.1369808781
 31
0.0
  0
LINE
  5
2D5
330
1B
100
AcDbEntity
 67
     1
  8
7_ALL_FEATURES
  6
Continuous
 62
     7
100
AcDbLine
 10
82.5502997656
 20
236.6671078971
 30
0.0
 11
80.0502997656
 21
232.3369808781
 31
0.0
  0
LINE
  5
2D6
330
1B
100
AcDbEntity
 67
     1
  8
7_ALL_FEATURES
  6
Continuous
 62
     7
100
AcDbLine
 10
162.6808546964
 20
230.2467884993
 30
0.0
 11
160.4808546964
 21
234.0573002759
 31
0.0
  0
LINE
  5
2D7
330
1B
100
AcDbEntity
 67
     1
  8
7_ALL_FEATURES
  6
Continuous
 62
     7
100
AcDbLine
 10
167.0109817154
 20
232.7467884993
 30
0.0
 11
166.6859817154
 21
233.3097050117
 31
0.0
  0
LINE
  5
2D8
330
1B
100
AcDbEntity
 67
     1
  8
7_ALL_FEATURES
  6
Continuous
 62
     7
100
AcDbLine
 10
166.6859817154
 20
233.3097050117
 30
0.0
 11
165.9109817154
 21
234.6520443876
 31
0.0
  0
LINE
  5
2D9
330
1B
100
AcDbEntity
 67
     1
  8
7_ALL_FEATURES
  6
Continuous
 62
     7
100
AcDbLine
 10
165.9109817154
 20
234.6520443876
 30
0.0
 11
165.1359817154
 21
235.9943837635
 31
0.0
  0
LINE
  5
2DA
330
1B
100
AcDbEntity
 67
     1
  8
7_ALL_FEATURES
  6
Continuous
 62
     7
100
AcDbLine
 10
165.1359817154
 20
235.9943837635
 30
0.0
 11
164.8109817154
 21
236.5573002759
 31
0.0
  0
LINE
  5
2DB
330
1B
100
AcDbEntity
 67
     1
  8
7_ALL_FEATURES
  6
Continuous
 62
     7
100
AcDbLine
 10
166.9011740942
 20
232.3369808781
 30
0.0
 11
165.8049287428
 21
231.7040633294
 31
0.0
  0
LINE
  5
2DC
330
1B
100
AcDbEntity
 67
     1
  8
7_ALL_FEATURES
  6
Continuous
 62
     7
100
AcDbLine
 10
163.6366929706
 20
230.4522318226
 30
0.0
 11
163.6285995306
 21
230.4475590729
 31
0.0
  0
LINE
  5
2DD
330
1B
100
AcDbEntity
 67
     1
  8
7_ALL_FEATURES
  6
Continuous
 62
     7
100
AcDbLine
 10
163.6285995306
 20
230.4475590729
 30
0.0
 11
163.0906623176
 21
230.1369808781
 31
0.0
  0
LINE
  5
2DE
330
1B
100
AcDbEntity
 67
     1
  8
7_ALL_FEATURES
  6
Continuous
 62
     7
100
AcDbLine
 10
164.4011740942
 20
236.6671078971
 30
0.0
 11
163.3049287428
 21
236.0341903483
 31
0.0
  0
LINE
  5
2DF
330
1B
100
AcDbEntity
 67
     1
  8
7_ALL_FEATURES
  6
Continuous
 62
     7
100
AcDbLine
 10
161.1366929706
 20
234.7823588416
 30
0.0
 11
161.1315759818
 21
234.7794045467
 31
0.0
  0
LINE
  5
2E0
330
1B
100
AcDbEntity
 67
     1
  8
7_ALL_FEATURES
  6
Continuous
 62
     7
100
AcDbLine
 10
161.1315759818
 20
234.7794045467
 30
0.0
 11
160.5906623176
 21
234.4671078971
 31
0.0
  0
LINE
  5
2E1
330
1B
100
AcDbEntity
 67
     1
  8
7_ALL_FEATURES
  6
Continuous
 62
     7
100
AcDbLine
 10
162.6808546945
 20
230.246788492
 30
0.0
 11
163.0906623153
 21
230.1369808699
 31
0.0
  0
LINE
  5
2E2
330
1B
100
AcDbEntity
 67
     1
  8
7_ALL_FEATURES
  6
Continuous
 62
     7
100
AcDbLine
 10
160.4808546892
 20
234.0573002779
 30
0.0
 11
160.5906623093
 21
234.4671078993
 31
0.0
  0
LINE
  5
2E3
330
1B
100
AcDbEntity
 67
     1
  8
7_ALL_FEATURES
  6
Continuous
 62
     7
100
AcDbLine
 10
166.9011741338
 20
232.3369808675
 30
0.0
 11
167.0109817502
 21
232.7467884899
 31
0.0
  0
LINE
  5
2E4
330
1B
100
AcDbEntity
 67
     1
  8
7_ALL_FEATURES
  6
Continuous
 62
     7
100
AcDbLine
 10
164.4011741048
 20
236.6671079367
 30
0.0
 11
164.8109817247
 21
236.5573003108
 31
0.0
  0
LINE
  5
2E5
330
1B
100
AcDbEntity
 67
     1
  8
7_ALL_FEATURES
  6
Continuous
 62
     7
100
AcDbLine
 10
163.0906623176
 20
230.1369808781
 30
0.0
 11
160.5906623176
 21
234.4671078971
 31
0.0
  0
LINE
  5
2E6
330
1B
100
AcDbEntity
 67
     1
  8
7_ALL_FEATURES
  6
Continuous
 62
     7
100
AcDbLine
 10
166.9011740942
 20
232.3369808781
 30
0.0
 11
164.4011740942
 21
236.6671078971
 31
0.0
  0
ARC
  5
2E7
330
1B
100
AcDbEntity
 67
     1
  8
7_ALL_FEATURES
  6
Continuous
 62
     7
100
AcDbCircle
 10
123.4757369299
 20
210.1520443876
 30
0.0
 40
45.0
100
AcDbArc
 50
180.0
 51
360.0
  0
ARC
  5
2E8
330
1B
100
AcDbEntity
 67
     1
  8
7_ALL_FEATURES
  6
Continuous
 62
     7
100
AcDbCircle
 10
123.4757369299
 20
210.1520443876
 30
0.0
 40
45.0
100
AcDbArc
 50
0.0
 51
180.0
  0
ARC
  5
2E9
330
1B
100
AcDbEntity
 67
     1
  8
7_ALL_FEATURES
  6
Continuous
 62
     7
100
AcDbCircle
 10
123.4757369299
 20
210.1520443876
 30
0.0
 40
47.5
100
AcDbArc
 50
0.0
 51
180.0
  0
ARC
  5
2EA
330
1B
100
AcDbEntity
 67
     1
  8
7_ALL_FEATURES
  6
Continuous
 62
     7
100
AcDbCircle
 10
123.4757369299
 20
210.1520443876
 30
0.0
 40
47.5
100
AcDbArc
 50
180.0
 51
360.0
  0
ARC
  5
2EB
330
1B
100
AcDbEntity
 67
     1
  8
7_ALL_FEATURES
  6
Continuous
 62
     7
100
AcDbCircle
 10
123.4757369299
 20
210.1520443876
 30
0.0
 40
45.3
100
AcDbArc
 50
0.0
 51
180.0
  0
ARC
  5
2EC
330
1B
100
AcDbEntity
 67
     1
  8
7_ALL_FEATURES
  6
Continuous
 62
     7
100
AcDbCircle
 10
123.4757369299
 20
210.1520443876
 30
0.0
 40
45.3
100
AcDbArc
 50
180.0
 51
360.0
  0
ARC
  5
2ED
330
1B
100
AcDbEntity
 67
     1
  8
7_ALL_FEATURES
  6
Continuous
 62
     7
100
AcDbCircle
 10
123.4757369299
 20
210.1520443876
 30
0.0
 40
47.2
100
AcDbArc
 50
0.0
 51
180.0
  0
ARC
  5
2EE
330
1B
100
AcDbEntity
 67
     1
  8
7_ALL_FEATURES
  6
Continuous
 62
     7
100
AcDbCircle
 10
123.4757369299
 20
210.1520443876
 30
0.0
 40
47.2
100
AcDbArc
 50
180.0
 51
360.0
  0
SPLINE
  5
2EF
330
1B
100
AcDbEntity
 67
     1
  8
0
  6
Continuous
 62
     2
100
AcDbSpline
 70
     0
 71
     3
 72
    26
 73
    22
 74
     0
 42
0.000000001
 43
0.0000001
 40
0.0
 40
0.0
 40
0.0
 40
0.0
 40
0.0526315789
 40
0.1052631579
 40
0.1578947368
 40
0.2105263158
 40
0.2631578947
 40
0.3157894737
 40
0.3684210526
 40
0.4210526316
 40
0.4736842105
 40
0.5263157895
 40
0.5789473684
 40
0.6315789474
 40
0.6842105263
 40
0.7368421053
 40
0.7894736842
 40
0.8421052632
 40
0.8947368421
 40
0.9473684211
 40
1.0
 40
1.0
 40
1.0
 40
1.0
 10
164.6124546266
 20
109.3095798801
 30
0.0
 10
164.578031686
 20
109.3096080268
 30
0.0
 10
164.5089219622
 20
109.3039760105
 30
0.0
 10
164.4051247007
 20
109.278479833
 30
0.0
 10
164.3020950169
 20
109.2361785199
 30
0.0
 10
164.200293186
 20
109.1772103248
 30
0.0
 10
164.100828416
 20
109.1022010837
 30
0.0
 10
164.0040174442
 20
109.0113178245
 30
0.0
 10
163.9110707307
 20
108.9056012158
 30
0.0
 10
163.8224326437
 20
108.7855708084
 30
0.0
 10
163.7385092868
 20
108.6514834514
 30
0.0
 10
163.6603425867
 20
108.5046488977
 30
0.0
 10
163.5888929393
 20
108.3469318515
 30
0.0
 10
163.5241963708
 20
108.1782486611
 30
0.0
 10
163.4671539099
 20
108.0007011282
 30
0.0
 10
163.4179345834
 20
107.8145899938
 30
0.0
 10
163.3771886539
 20
107.622070687
 30
0.0
 10
163.3450758909
 20
107.4236686949
 30
0.0
 10
163.3219843553
 20
107.2214011607
 30
0.0
 10
163.3080332631
 20
107.0161359235
 30
0.0
 10
163.3049287428
 20
106.8784302522
 30
0.0
 10
163.3049287428
 20
106.809580089
 30
0.0
  0
SPLINE
  5
2F0
330
1B
100
AcDbEntity
 67
     1
  8
0
  6
Continuous
 62
     2
100
AcDbSpline
 70
     0
 71
     3
 72
    25
 73
    21
 74
     0
 42
0.000000001
 43
0.0000001
 40
0.0
 40
0.0
 40
0.0
 40
0.0
 40
0.0555555556
 40
0.1111111111
 40
0.1666666667
 40
0.2222222222
 40
0.2777777778
 40
0.3333333333
 40
0.3888888889
 40
0.4444444444
 40
0.5
 40
0.5555555556
 40
0.6111111111
 40
0.6666666667
 40
0.7222222222
 40
0.7777777778
 40
0.8333333333
 40
0.8888888889
 40
0.9444444444
 40
1.0
 40
1.0
 40
1.0
 40
1.0
 10
163.3049287428
 20
106.809580089
 30
0.0
 10
163.3049287428
 20
106.7428015325
 30
0.0
 10
163.3078490046
 20
106.6092394973
 30
0.0
 10
163.3209756982
 20
106.410061656
 30
0.0
 10
163.3427074814
 20
106.2136491536
 30
0.0
 10
163.3729479358
 20
106.0207253818
 30
0.0
 10
163.4113400121
 20
105.8332172825
 30
0.0
 10
163.4577570995
 20
105.6515270235
 30
0.0
 10
163.511610557
 20
105.4776899417
 30
0.0
 10
163.5727514748
 20
105.3119637504
 30
0.0
 10
163.6403868013
 20
105.1562815579
 30
0.0
 10
163.7144178139
 20
105.0106757583
 30
0.0
 10
163.7941502446
 20
104.876577676
 30
0.0
 10
163.87859885
 20
104.7553957164
 30
0.0
 10
163.9672285595
 20
104.6475879783
 30
0.0
 10
164.0597083437
 20
104.5534890564
 30
0.0
 10
164.1551302254
 20
104.473981174
 30
0.0
 10
164.2529053321
 20
104.4094676219
 30
0.0
 10
164.3523247254
 20
104.3603875511
 30
0.0
 10
164.4192427523
 20
104.3381603187
 30
0.0
 10
164.4527487066
 20
104.3297036539
 30
0.0
  0
SPLINE
  5
2F1
330
1B
100
AcDbEntity
 67
     1
  8
0
  6
Continuous
 62
     2
100
AcDbSpline
 70
     0
 71
     3
 72
     9
 73
     5
 74
     0
 42
0.000000001
 43
0.0000001
 40
0.0
 40
0.0
 40
0.0
 40
0.0
 40
0.5
 40
1.0
 40
1.0
 40
1.0
 40
1.0
 10
164.4527487066
 20
104.3297036539
 30
0.0
 10
164.4792961645
 20
104.3230032642
 30
0.0
 10
164.5324481741
 20
104.3129381021
 30
0.0
 10
164.5854983636
 20
104.309580089
 30
0.0
 10
164.6119436097
 20
104.309580089
 30
0.0
  0
SPLINE
  5
2F2
330
1B
100
AcDbEntity
 67
     1
  8
0
  6
Continuous
 62
     2
100
AcDbSpline
 70
     0
 71
     3
 72
    25
 73
    21
 74
     0
 42
0.000000001
 43
0.0000001
 40
0.0
 40
0.0
 40
0.0
 40
0.0
 40
0.0555555556
 40
0.1111111111
 40
0.1666666667
 40
0.2222222222
 40
0.2777777778
 40
0.3333333333
 40
0.3888888889
 40
0.4444444444
 40
0.5
 40
0.5555555556
 40
0.6111111111
 40
0.6666666667
 40
0.7222222222
 40
0.7777777778
 40
0.8333333333
 40
0.8888888889
 40
0.9444444444
 40
1.0
 40
1.0
 40
1.0
 40
1.0
 10
83.646545117
 20
106.809580089
 30
0.0
 10
83.646545117
 20
106.876359672
 30
0.0
 10
83.643624765
 20
107.0099237563
 30
0.0
 10
83.6304976729
 20
107.209104577
 30
0.0
 10
83.6087652291
 20
107.4055199757
 30
0.0
 10
83.5785238693
 20
107.5984464396
 30
0.0
 10
83.5401306388
 20
107.7859570742
 30
0.0
 10
83.4937121881
 20
107.9676495371
 30
0.0
 10
83.4398571869
 20
108.1414884204
 30
0.0
 10
83.3787146154
 20
108.3072160052
 30
0.0
 10
83.3110768807
 20
108.4629003427
 30
0.0
 10
83.2370480016
 20
108.6084981758
 30
0.0
 10
83.1573298757
 20
108.7425714124
 30
0.0
 10
83.072894266
 20
108.8637386959
 30
0.0
 10
82.9842627756
 20
108.9715530423
 30
0.0
 10
82.8917807619
 20
109.0656571155
 30
0.0
 10
82.7963583399
 20
109.1451681127
 30
0.0
 10
82.6985818667
 20
109.2096849657
 30
0.0
 10
82.5991611679
 20
109.2587677409
 30
0.0
 10
82.5322421518
 20
109.2809965122
 30
0.0
 10
82.4987356938
 20
109.2894538636
 30
0.0
  0
SPLINE
  5
2F3
330
1B
100
AcDbEntity
 67
     1
  8
0
  6
Continuous
 62
     2
100
AcDbSpline
 70
     0
 71
     3
 72
     9
 73
     5
 74
     0
 42
0.000000001
 43
0.0000001
 40
0.0
 40
0.0
 40
0.0
 40
0.0
 40
0.5
 40
1.0
 40
1.0
 40
1.0
 40
1.0
 10
82.4987356938
 20
109.2894538636
 30
0.0
 10
82.4721865028
 20
109.296155134
 30
0.0
 10
82.4190309889
 20
109.3062216273
 30
0.0
 10
82.3659772621
 20
109.309580089
 30
0.0
 10
82.3395302502
 20
109.309580089
 30
0.0
  0
SPLINE
  5
2F4
330
1B
100
AcDbEntity
 67
     1
  8
0
  6
Continuous
 62
     2
100
AcDbSpline
 70
     0
 71
     3
 72
    26
 73
    22
 74
     0
 42
0.000000001
 43
0.0000001
 40
0.0
 40
0.0
 40
0.0
 40
0.0
 40
0.0526315789
 40
0.1052631579
 40
0.1578947368
 40
0.2105263158
 40
0.2631578947
 40
0.3157894737
 40
0.3684210526
 40
0.4210526316
 40
0.4736842105
 40
0.5263157895
 40
0.5789473684
 40
0.6315789474
 40
0.6842105263
 40
0.7368421053
 40
0.7894736842
 40
0.8421052632
 40
0.8947368421
 40
0.9473684211
 40
1.0
 40
1.0
 40
1.0
 40
1.0
 10
82.3390271498
 20
104.3095802915
 30
0.0
 10
82.3734506573
 20
104.3095525804
 30
0.0
 10
82.4425614953
 20
104.3151856559
 30
0.0
 10
82.5463602197
 20
104.3406838785
 30
0.0
 10
82.6493914653
 20
104.3829878262
 30
0.0
 10
82.7511944268
 20
104.4419588714
 30
0.0
 10
82.8506608534
 20
104.5169721434
 30
0.0
 10
82.9474711814
 20
104.6078573295
 30
0.0
 10
83.0404242424
 20
104.713585052
 30
0.0
 10
83.1290529829
 20
104.8336080142
 30
0.0
 10
83.2129589506
 20
104.9676681788
 30
0.0
 10
83.2911210385
 20
105.1144905058
 30
0.0
 10
83.362572738
 20
105.2722085257
 30
0.0
 10
83.4272710518
 20
105.4408930772
 30
0.0
 10
83.4843151334
 20
105.6184423923
 30
0.0
 10
83.5335358882
 20
105.8045557106
 30
0.0
 10
83.5742830363
 20
105.9970775886
 30
0.0
 10
83.6063967543
 20
106.1954823181
 30
0.0
 10
83.6294889879
 20
106.3977528122
 30
0.0
 10
83.6434405014
 20
106.6030211006
 30
0.0
 10
83.646545117
 20
106.7407288731
 30
0.0
 10
83.646545117
 20
106.809580089
 30
0.0
  0
SPLINE
  5
2F5
330
1B
100
AcDbEntity
 67
     1
  8
7_ALL_FEATURES
  6
Continuous
 62
     7
100
AcDbSpline
 70
     0
 71
     3
 72
    14
 73
    10
 74
     0
 42
0.000000001
 43
0.0000001
 40
0.0
 40
0.0
 40
0.0
 40
0.0
 40
0.2771167099
 40
0.4120572074
 40
0.542703104
 40
0.6677914926
 40
0.786236602
 40
0.8971675364
 40
1.0
 40
1.0
 40
1.0
 40
1.0
 10
167.0109817154
 20
106.809580089
 30
0.0
 10
167.0109817154
 20
106.6357855438
 30
0.0
 10
166.9958127503
 20
106.3769674719
 30
0.0
 10
166.9443242974
 20
106.0403620422
 30
0.0
 10
166.8914746749
 20
105.800911642
 30
0.0
 10
166.8248205125
 20
105.5756926351
 30
0.0
 10
166.7452824605
 20
105.3678286797
 30
0.0
 10
166.6539799909
 20
105.1802454518
 30
0.0
 10
166.5832997433
 20
105.0659470445
 30
0.0
 10
166.5460665201
 20
105.0132890589
 30
0.0
  0
SPLINE
  5
2F6
330
1B
100
AcDbEntity
 67
     1
  8
7_ALL_FEATURES
  6
Continuous
 62
     7
100
AcDbSpline
 70
     0
 71
     3
 72
    19
 73
    15
 74
     0
 42
0.000000001
 43
0.0000001
 40
0.0
 40
0.0
 40
0.0
 40
0.0
 40
0.0514239641
 40
0.1068973289
 40
0.1661277958
 40
0.228680884
 40
0.3614231141
 40
0.5
 40
0.6385768859
 40
0.771319116
 40
0.8338722042
 40
0.8931026711
 40
0.9485760359
 40
1.0
 40
1.0
 40
1.0
 40
1.0
 10
165.4635353012
 20
108.0751496632
 30
0.0
 10
165.4373012574
 20
108.0380504368
 30
0.0
 10
165.3875075425
 20
107.9575189548
 30
0.0
 10
165.3231811945
 20
107.8253595216
 30
0.0
 10
165.2671376036
 20
107.6789090417
 30
0.0
 10
165.2032817214
 20
107.4630789823
 30
0.0
 10
165.1500746158
 20
107.1719534269
 30
0.0
 10
165.1287837328
 20
106.809580089
 30
0.0
 10
165.1500746158
 20
106.447206751
 30
0.0
 10
165.2032817214
 20
106.1560811957
 30
0.0
 10
165.2671376036
 20
105.9402511363
 30
0.0
 10
165.3231811945
 20
105.7938006564
 30
0.0
 10
165.3875075425
 20
105.6616412232
 30
0.0
 10
165.4373012574
 20
105.5811097412
 30
0.0
 10
165.4635353012
 20
105.5440105148
 30
0.0
  0
ARC
  5
2F7
330
1B
100
AcDbEntity
 67
     1
  8
7_ALL_FEATURES
  6
Continuous
 62
     7
100
AcDbCircle
 10
168.1088409792
 20
105.9686184762
 30
0.0
 40
3.3764103883
100
AcDbArc
 50
141.7360316194
 51
142.2138927551
  0
SPLINE
  5
2F8
330
1B
100
AcDbEntity
 67
     1
  8
7_ALL_FEATURES
  6
Continuous
 62
     7
100
AcDbSpline
 70
     0
 71
     3
 72
    14
 73
    10
 74
     0
 42
0.000000001
 43
0.0000001
 40
0.0
 40
0.0
 40
0.0
 40
0.0
 40
0.1028324636
 40
0.2137633975
 40
0.3322085028
 40
0.4572968934
 40
0.5879427873
 40
0.7228832867
 40
1.0
 40
1.0
 40
1.0
 40
1.0
 10
166.5460665191
 20
108.6058711164
 30
0.0
 10
166.5832997421
 20
108.5532131309
 30
0.0
 10
166.6539799882
 20
108.4389147231
 30
0.0
 10
166.7452824508
 20
108.2513314964
 30
0.0
 10
166.8248205262
 20
108.0434675511
 30
0.0
 10
166.8914746465
 20
107.8182485362
 30
0.0
 10
166.9443243291
 20
107.5787981488
 30
0.0
 10
166.9958126944
 20
107.2421927038
 30
0.0
 10
167.0109817154
 20
106.983374636
 30
0.0
 10
167.0109817154
 20
106.809580089
 30
0.0
  0
LINE
  5
2F9
330
1B
100
AcDbEntity
 67
     1
  8
7_ALL_FEATURES
  6
Continuous
 62
     7
100
AcDbLine
 10
166.5460670409
 20
108.6058725879
 30
0.0
 11
166.3728619977
 21
108.8508215176
 31
0.0
  0
SPLINE
  5
2FA
330
1B
100
AcDbEntity
 67
     1
  8
7_ALL_FEATURES
  6
Continuous
 62
     7
100
AcDbSpline
 70
     0
 71
     3
 72
    14
 73
    10
 74
     0
 42
0.000000001
 43
0.0000001
 40
0.0
 40
0.0
 40
0.0
 40
0.0
 40
0.2894147317
 40
0.422269
 40
0.5478493269
 40
0.6670536445
 40
0.7810987915
 40
0.8914951668
 40
1.0
 40
1.0
 40
1.0
 40
1.0
 10
166.3728613713
 20
104.768340281
 30
0.0
 10
166.3234000344
 20
104.6983883923
 30
0.0
 10
166.2435861698
 20
104.6010928443
 30
0.0
 10
166.123235098
 20
104.4920414178
 30
0.0
 10
166.0325833347
 20
104.4262002611
 30
0.0
 10
165.9395012392
 20
104.3744471742
 30
0.0
 10
165.8445048209
 20
104.3371414755
 30
0.0
 10
165.7481986657
 20
104.3146227951
 30
0.0
 10
165.6832934869
 20
104.3095800888
 30
0.0
 10
165.6511740941
 20
104.309580089
 30
0.0
  0
LINE
  5
2FB
330
1B
100
AcDbEntity
 67
     1
  8
7_ALL_FEATURES
  6
Continuous
 62
     7
100
AcDbLine
 10
166.1794862577
 20
108.059580089
 30
0.0
 11
165.6511740942
 21
108.059580089
 31
0.0
  0
LINE
  5
2FC
330
1B
100
AcDbEntity
 67
     1
  8
7_ALL_FEATURES
  6
Continuous
 62
     7
100
AcDbLine
 10
166.5460670409
 20
105.0132875901
 30
0.0
 11
166.3728619977
 21
104.7683386603
 31
0.0
  0
LINE
  5
2FD
330
1B
100
AcDbEntity
 67
     1
  8
7_ALL_FEATURES
  6
Continuous
 62
     7
100
AcDbLine
 10
165.6511740942
 20
108.059580089
 30
0.0
 11
165.4577984213
 21
108.059580089
 31
0.0
  0
ARC
  5
2FE
330
1B
100
AcDbEntity
 67
     1
  8
7_ALL_FEATURES
  6
Continuous
 62
     7
100
AcDbCircle
 10
168.1088410175
 20
107.6505417321
 30
0.0
 40
3.3764104371
100
AcDbArc
 50
217.78610714
 51
218.2639683818
  0
LINE
  5
2FF
330
1B
100
AcDbEntity
 67
     1
  8
7_ALL_FEATURES
  6
Continuous
 62
     7
100
AcDbLine
 10
165.6511740942
 20
105.559580089
 30
0.0
 11
166.1794862577
 21
105.559580089
 31
0.0
  0
LINE
  5
300
330
1B
100
AcDbEntity
 67
     1
  8
7_ALL_FEATURES
  6
Continuous
 62
     7
100
AcDbLine
 10
165.4577984213
 20
105.559580089
 30
0.0
 11
165.6511740942
 21
105.559580089
 31
0.0
  0
LINE
  5
301
330
1B
100
AcDbEntity
 67
     1
  8
3_ALL_AXES
  6
Continuous
 62
     7
100
AcDbLine
 10
164.6124546266
 20
109.309580089
 30
0.0
 11
165.6511741444
 21
109.309580089
 31
0.0
  0
SPLINE
  5
302
330
1B
100
AcDbEntity
 67
     1
  8
7_ALL_FEATURES
  6
Continuous
 62
     7
100
AcDbSpline
 70
     0
 71
     3
 72
    14
 73
    10
 74
     0
 42
0.000000001
 43
0.0000001
 40
0.0
 40
0.0
 40
0.0
 40
0.0
 40
0.108504833
 40
0.218901208
 40
0.3329463548
 40
0.4521506726
 40
0.5777309996
 40
0.7105852682
 40
1.0
 40
1.0
 40
1.0
 40
1.0
 10
165.6511740941
 20
109.309580089
 30
0.0
 10
165.6832934867
 20
109.3095800888
 30
0.0
 10
165.7481986653
 20
109.3045373832
 30
0.0
 10
165.8445048198
 20
109.2820187022
 30
0.0
 10
165.9395012379
 20
109.244713004
 30
0.0
 10
166.0325833327
 20
109.1929599165
 30
0.0
 10
166.1232350963
 20
109.1271187605
 30
0.0
 10
166.2435861672
 20
109.0180673333
 30
0.0
 10
166.3234000314
 20
108.9207717855
 30
0.0
 10
166.3728613681
 20
108.8508198968
 30
0.0
  0
LINE
  5
303
330
1B
100
AcDbEntity
 67
     1
  8
3_ALL_AXES
  6
Continuous
 62
     7
100
AcDbLine
 10
164.6119436097
 20
104.309580089
 30
0.0
 11
165.6511741444
 21
104.309580089
 31
0.0
  0
SPLINE
  5
304
330
1B
100
AcDbEntity
 67
     1
  8
7_ALL_FEATURES
  6
Continuous
 62
     7
100
AcDbSpline
 70
     0
 71
     3
 72
    26
 73
    22
 74
     0
 42
0.000000001
 43
0.0000001
 40
0.0
 40
0.0
 40
0.0
 40
0.0
 40
0.0587036682
 40
0.1117178053
 40
0.1598755199
 40
0.1826253621
 40
0.2047866322
 40
0.2266437656
 40
0.2484982685
 40
0.2706518154
 40
0.2933892613
 40
0.3415106878
 40
0.3944784584
 40
0.4531312606
 40
0.5177243738
 40
0.5880636461
 40
0.6636189613
 40
0.7436119097
 40
0.8270795382
 40
0.9129346382
 40
1.0
 40
1.0
 40
1.0
 40
1.0
 10
166.5460665201
 20
105.0132890589
 30
0.0
 10
166.5071596107
 20
104.9582640224
 30
0.0
 10
166.4261903619
 20
104.8580820098
 30
0.0
 10
166.2882224033
 20
104.7356187996
 30
0.0
 10
166.1637103526
 20
104.6640641986
 30
0.0
 10
166.0625693418
 20
104.6288285348
 30
0.0
 10
165.9873056919
 20
104.6131545184
 30
0.0
 10
165.9116347866
 20
104.6078502772
 30
0.0
 10
165.8359602739
 20
104.6129749838
 30
0.0
 10
165.7606862382
 20
104.6284707774
 30
0.0
 10
165.659529036
 20
104.6634654372
 30
0.0
 10
165.5349742344
 20
104.7347202638
 30
0.0
 10
165.3969070508
 20
104.8568893338
 30
0.0
 10
165.2690681041
 20
105.0146424812
 30
0.0
 10
165.1534399103
 20
105.2050728624
 30
0.0
 10
165.051868477
 20
105.4248018609
 30
0.0
 10
164.9661213806
 20
105.6699005828
 30
0.0
 10
164.8977372143
 20
105.9359334933
 30
0.0
 10
164.8479637958
 20
106.2180507517
 30
0.0
 10
164.8177294961
 20
106.5110532769
 30
0.0
 10
164.8109817153
 20
106.7096307479
 30
0.0
 10
164.8109817154
 20
106.809580089
 30
0.0
  0
SPLINE
  5
305
330
1B
100
AcDbEntity
 67
     1
  8
7_ALL_FEATURES
  6
Continuous
 62
     7
100
AcDbSpline
 70
     0
 71
     3
 72
    12
 73
     8
 74
     0
 42
0.000000001
 43
0.0000001
 40
0.0
 40
0.0
 40
0.0
 40
0.0
 40
0.1085656736
 40
0.2190946962
 40
0.4520395785
 40
0.7103262947
 40
1.0
 40
1.0
 40
1.0
 40
1.0
 10
165.9109817154
 20
108.359580089
 30
0.0
 10
165.8910743344
 20
108.359580089
 30
0.0
 10
165.8508318761
 20
108.3564439229
 30
0.0
 10
165.7698492788
 20
108.3375426521
 30
0.0
 10
165.6692048824
 20
108.288798553
 30
0.0
 10
165.5582960772
 20
108.1966346229
 30
0.0
 10
165.4942029371
 20
108.1185187136
 30
0.0
 10
165.4635353012
 20
108.0751496632
 30
0.0
  0
SPLINE
  5
306
330
1B
100
AcDbEntity
 67
     1
  8
7_ALL_FEATURES
  6
Continuous
 62
     7
100
AcDbSpline
 70
     0
 71
     3
 72
    12
 73
     8
 74
     0
 42
0.000000001
 43
0.0000001
 40
0.0
 40
0.0
 40
0.0
 40
0.0
 40
0.2896737053
 40
0.5479604215
 40
0.7809053038
 40
0.8914343264
 40
1.0
 40
1.0
 40
1.0
 40
1.0
 10
165.4635353012
 20
105.5440105148
 30
0.0
 10
165.4942029371
 20
105.5006414644
 30
0.0
 10
165.5582960772
 20
105.4225255551
 30
0.0
 10
165.6692048824
 20
105.3303616249
 30
0.0
 10
165.7698492788
 20
105.2816175259
 30
0.0
 10
165.8508318761
 20
105.262716255
 30
0.0
 10
165.8910743344
 20
105.259580089
 30
0.0
 10
165.9109817154
 20
105.259580089
 30
0.0
  0
SPLINE
  5
307
330
1B
100
AcDbEntity
 67
     1
  8
7_ALL_FEATURES
  6
Continuous
 62
     7
100
AcDbSpline
 70
     0
 71
     3
 72
    20
 73
    16
 74
     0
 42
0.000000001
 43
0.0000001
 40
0.0
 40
0.0
 40
0.0
 40
0.0
 40
0.1613813595
 40
0.3181376566
 40
0.4659900686
 40
0.5354469112
 40
0.6014032343
 40
0.6635887409
 40
0.7218386738
 40
0.7761205542
 40
0.8265661341
 40
0.8735027836
 40
0.9174859711
 40
0.9593142336
 40
1.0
 40
1.0
 40
1.0
 40
1.0
 10
164.4011740942
 20
106.809580089
 30
0.0
 10
164.4011740943
 20
106.9723555642
 30
0.0
 10
164.4167537497
 20
107.2934854778
 30
0.0
 10
164.4863186108
 20
107.7590852181
 30
0.0
 10
164.5823957679
 20
108.1249602648
 30
0.0
 10
164.6813537166
 20
108.3931910348
 30
0.0
 10
164.7633295313
 20
108.5750596805
 30
0.0
 10
164.8538154769
 20
108.7400974191
 30
0.0
 10
164.9519975319
 20
108.8867551083
 30
0.0
 10
165.0570053531
 20
109.0136497486
 30
0.0
 10
165.1679363369
 20
109.1195722338
 30
0.0
 10
165.2838669696
 20
109.2034474954
 30
0.0
 10
165.4038456608
 20
109.2642989688
 30
0.0
 10
165.5266917909
 20
109.3012659733
 30
0.0
 10
165.610136858
 20
109.3095800892
 30
0.0
 10
165.6511740941
 20
109.309580089
 30
0.0
  0
SPLINE
  5
308
330
1B
100
AcDbEntity
 67
     1
  8
7_ALL_FEATURES
  6
Continuous
 62
     7
100
AcDbSpline
 70
     0
 71
     3
 72
    15
 73
    11
 74
     0
 42
0.000000001
 43
0.0000001
 40
0.0
 40
0.0
 40
0.0
 40
0.0
 40
0.1370050098
 40
0.2722025683
 40
0.4044976174
 40
0.5326368465
 40
0.6557970902
 40
0.7741057745
 40
0.8884721643
 40
1.0
 40
1.0
 40
1.0
 40
1.0
 10
166.540330176
 20
106.809580089
 30
0.0
 10
166.5021288588
 20
106.7611427597
 30
0.0
 10
166.4287659873
 20
106.6628494946
 30
0.0
 10
166.3304911673
 20
106.5092663997
 30
0.0
 10
166.2490634163
 20
106.3504332987
 30
0.0
 10
166.1892511959
 20
106.1878590945
 30
0.0
 10
166.1540773786
 20
106.0246007949
 30
0.0
 10
166.1429878071
 20
105.8642511716
 30
0.0
 10
166.1522670702
 20
105.7091968714
 30
0.0
 10
166.1691033961
 20
105.6087123178
 30
0.0
 10
166.1794862577
 20
105.559580089
 30
0.0
  0
SPLINE
  5
309
330
1B
100
AcDbEntity
 67
     1
  8
7_ALL_FEATURES
  6
Continuous
 62
     7
100
AcDbSpline
 70
     0
 71
     3
 72
    15
 73
    11
 74
     0
 42
0.000000001
 43
0.0000001
 40
0.0
 40
0.0
 40
0.0
 40
0.0
 40
0.1115278358
 40
0.2258942255
 40
0.3442029097
 40
0.4673631535
 40
0.5955023825
 40
0.7277974317
 40
0.8629949903
 40
1.0
 40
1.0
 40
1.0
 40
1.0
 10
166.1794862577
 20
108.059580089
 30
0.0
 10
166.1691033961
 20
108.0104478601
 30
0.0
 10
166.1522670702
 20
107.9099633065
 30
0.0
 10
166.1429878071
 20
107.7549090064
 30
0.0
 10
166.1540773786
 20
107.5945593832
 30
0.0
 10
166.1892511958
 20
107.4313010836
 30
0.0
 10
166.2490634163
 20
107.2687268793
 30
0.0
 10
166.3304911673
 20
107.1098937782
 30
0.0
 10
166.4287659873
 20
106.9563106833
 30
0.0
 10
166.5021288588
 20
106.8580174182
 30
0.0
 10
166.540330176
 20
106.809580089
 30
0.0
  0
LINE
  5
30A
330
1B
100
AcDbEntity
 67
     1
  8
7_ALL_FEATURES
  6
Continuous
 62
     7
100
AcDbLine
 10
166.540330176
 20
106.809580089
 30
0.0
 11
165.8049287428
 21
106.809580089
 31
0.0
  0
LINE
  5
30B
330
1B
100
AcDbEntity
 67
     1
  8
7_ALL_FEATURES
  6
Continuous
 62
     7
100
AcDbLine
 10
165.8049287428
 20
106.809580089
 30
0.0
 11
165.1359817154
 21
106.809580089
 31
0.0
  0
SPLINE
  5
30C
330
1B
100
AcDbEntity
 67
     1
  8
7_ALL_FEATURES
  6
Continuous
 62
     7
100
AcDbSpline
 70
     0
 71
     3
 72
    20
 73
    16
 74
     0
 42
0.000000001
 43
0.0000001
 40
0.0
 40
0.0
 40
0.0
 40
0.0
 40
0.0406857663
 40
0.0825140288
 40
0.126497216
 40
0.1734338651
 40
0.2238794447
 40
0.2781613248
 40
0.3364112573
 40
0.3985967643
 40
0.4645530859
 40
0.5340099264
 40
0.6818623379
 40
0.8386186406
 40
1.0
 40
1.0
 40
1.0
 40
1.0
 10
165.6511740941
 20
104.309580089
 30
0.0
 10
165.6101368579
 20
104.3095800892
 30
0.0
 10
165.5266917906
 20
104.3178942041
 30
0.0
 10
165.4038456605
 20
104.3548612091
 30
0.0
 10
165.2838669692
 20
104.4157126818
 30
0.0
 10
165.1679363364
 20
104.4995879427
 30
0.0
 10
165.0570053528
 20
104.6055104274
 30
0.0
 10
164.951997531
 20
104.7324050669
 30
0.0
 10
164.8538154754
 20
104.8790627558
 30
0.0
 10
164.7633295227
 20
105.0441004899
 30
0.0
 10
164.681353716
 20
105.2259691365
 30
0.0
 10
164.5823957791
 20
105.4941999091
 30
0.0
 10
164.4863186594
 20
105.8600749617
 30
0.0
 10
164.4167535518
 20
106.3256746789
 30
0.0
 10
164.4011740943
 20
106.6468046133
 30
0.0
 10
164.4011740942
 20
106.809580089
 30
0.0
  0
SPLINE
  5
30D
330
1B
100
AcDbEntity
 67
     1
  8
7_ALL_FEATURES
  6
Continuous
 62
     7
100
AcDbSpline
 70
     0
 71
     3
 72
    26
 73
    22
 74
     0
 42
0.000000001
 43
0.0000001
 40
0.0
 40
0.0
 40
0.0
 40
0.0
 40
0.0870653667
 40
0.1729204583
 40
0.2563880888
 40
0.3363810356
 40
0.4119363523
 40
0.4822756252
 40
0.5468687383
 40
0.6055215406
 40
0.6584893115
 40
0.7066107381
 40
0.729348184
 40
0.751501731
 40
0.773356234
 40
0.7952133674
 40
0.8173746375
 40
0.8401244797
 40
0.8882821944
 40
0.9412963316
 40
1.0
 40
1.0
 40
1.0
 40
1.0
 10
164.8109817154
 20
106.809580089
 30
0.0
 10
164.8109817153
 20
106.909529436
 30
0.0
 10
164.8177293505
 20
107.1081069109
 30
0.0
 10
164.8479638456
 20
107.4011094172
 30
0.0
 10
164.8977371917
 20
107.6832266755
 30
0.0
 10
164.9661213836
 20
107.9492595848
 30
0.0
 10
165.0518684715
 20
108.1943583095
 30
0.0
 10
165.1534399018
 20
108.4140873132
 30
0.0
 10
165.2690680999
 20
108.6045176932
 30
0.0
 10
165.396907046
 20
108.7622708418
 30
0.0
 10
165.5349742299
 20
108.8844399129
 30
0.0
 10
165.6595290319
 20
108.9556947405
 30
0.0
 10
165.7606862346
 20
108.9906894005
 30
0.0
 10
165.8359602706
 20
109.0061851942
 30
0.0
 10
165.9116347836
 20
109.0113099008
 30
0.0
 10
165.9873056893
 20
109.0060056595
 30
0.0
 10
166.0625693394
 20
108.9903316429
 30
0.0
 10
166.1637103505
 20
108.9550959789
 30
0.0
 10
166.2882224016
 20
108.8835413777
 30
0.0
 10
166.4261903609
 20
108.7610781669
 30
0.0
 10
166.5071596098
 20
108.6608961535
 30
0.0
 10
166.5460665191
 20
108.6058711164
 30
0.0
  0
SPLINE
  5
30E
330
1B
100
AcDbEntity
 67
     1
  8
7_ALL_FEATURES
  6
Continuous
 62
     7
100
AcDbSpline
 70
     0
 71
     3
 72
    31
 73
    27
 74
     0
 42
0.000000001
 43
0.0000001
 40
0.0
 40
0.0
 40
0.0
 40
0.0
 40
0.0203414381
 40
0.0412636776
 40
0.0632573974
 40
0.086728371
 40
0.1119545444
 40
0.1390994672
 40
0.168228275
 40
0.199324852
 40
0.2494520364
 40
0.3033209518
 40
0.3602416165
 40
0.419384866
 40
0.4798293147
 40
0.5406025362
 40
0.6007195216
 40
0.6592205147
 40
0.7152101124
 40
0.7678999546
 40
0.8166585884
 40
0.8610739843
 40
0.9010372496
 40
0.9368519326
 40
0.9693613458
 40
1.0
 40
1.0
 40
1.0
 40
1.0
 10
165.9109817154
 20
105.259580089
 30
0.0
 10
165.936419528
 20
105.259580089
 30
0.0
 10
165.9881554664
 20
105.2647419209
 30
0.0
 10
166.0643241558
 20
105.2876478843
 30
0.0
 10
166.1387136324
 20
105.3253833736
 30
0.0
 10
166.210586208
 20
105.3773877176
 30
0.0
 10
166.2793681607
 20
105.4430543515
 30
0.0
 10
166.3444695575
 20
105.5217319789
 30
0.0
 10
166.4053434087
 20
105.6126599934
 30
0.0
 10
166.4717595525
 20
105.7337991011
 30
0.0
 10
166.5381277666
 20
105.8895432179
 30
0.0
 10
166.5983882957
 20
106.0818309287
 30
0.0
 10
166.6440216877
 20
106.2896363838
 30
0.0
 10
166.6740523259
 20
106.5085354497
 30
0.0
 10
166.6878349479
 20
106.7338693492
 30
0.0
 10
166.6850715464
 20
106.9608216538
 30
0.0
 10
166.6658219754
 20
107.1845403876
 30
0.0
 10
166.6305017553
 20
107.4002483371
 30
0.0
 10
166.5798690292
 20
107.6033557535
 30
0.0
 10
166.5149977179
 20
107.7895699589
 30
0.0
 10
166.4372320824
 20
107.9549975426
 30
0.0
 10
166.3481075968
 20
108.0962321471
 30
0.0
 10
166.2492497492
 20
108.2103778109
 30
0.0
 10
166.1421942515
 20
108.2949505839
 30
0.0
 10
166.0286857533
 20
108.3474923646
 30
0.0
 10
165.9492966241
 20
108.359580089
 30
0.0
 10
165.9109817154
 20
108.359580089
 30
0.0
  0
SPLINE
  5
30F
330
1B
100
AcDbEntity
 67
     1
  8
7_ALL_FEATURES
  6
Continuous
 62
     7
100
AcDbSpline
 70
     0
 71
     3
 72
    19
 73
    15
 74
     0
 42
0.000000001
 43
0.0000001
 40
0.0
 40
0.0
 40
0.0
 40
0.0
 40
0.0514239641
 40
0.1068973289
 40
0.1661277958
 40
0.228680884
 40
0.3614231141
 40
0.5
 40
0.6385768859
 40
0.771319116
 40
0.8338722042
 40
0.8931026711
 40
0.9485760359
 40
1.0
 40
1.0
 40
1.0
 40
1.0
 10
81.4879385587
 20
105.5440105148
 30
0.0
 10
81.5141726025
 20
105.5811097412
 30
0.0
 10
81.5639663173
 20
105.6616412232
 30
0.0
 10
81.6282926653
 20
105.7938006564
 30
0.0
 10
81.6843362563
 20
105.9402511363
 30
0.0
 10
81.7481921385
 20
106.1560811957
 30
0.0
 10
81.801399244
 20
106.447206751
 30
0.0
 10
81.822690127
 20
106.809580089
 30
0.0
 10
81.801399244
 20
107.1719534269
 30
0.0
 10
81.7481921385
 20
107.4630789823
 30
0.0
 10
81.6843362563
 20
107.6789090417
 30
0.0
 10
81.6282926653
 20
107.8253595216
 30
0.0
 10
81.5639663173
 20
107.9575189548
 30
0.0
 10
81.5141726025
 20
108.0380504368
 30
0.0
 10
81.4879385587
 20
108.0751496632
 30
0.0
  0
ARC
  5
310
330
1B
100
AcDbEntity
 67
     1
  8
7_ALL_FEATURES
  6
Continuous
 62
     7
100
AcDbCircle
 10
78.8426328835
 20
107.6505416995
 30
0.0
 40
3.3764103847
100
AcDbArc
 50
321.7360316192
 51
322.2138927553
  0
SPLINE
  5
311
330
1B
100
AcDbEntity
 67
     1
  8
7_ALL_FEATURES
  6
Continuous
 62
     7
100
AcDbSpline
 70
     0
 71
     3
 72
    14
 73
    10
 74
     0
 42
0.000000001
 43
0.0000001
 40
0.0
 40
0.0
 40
0.0
 40
0.0
 40
0.2771167099
 40
0.4120572074
 40
0.542703104
 40
0.6677914926
 40
0.786236602
 40
0.8971675364
 40
1.0
 40
1.0
 40
1.0
 40
1.0
 10
79.9404921445
 20
106.809580089
 30
0.0
 10
79.9404921444
 20
106.9833746342
 30
0.0
 10
79.9556611095
 20
107.2421927061
 30
0.0
 10
80.0071495624
 20
107.5787981358
 30
0.0
 10
80.059999185
 20
107.8182485359
 30
0.0
 10
80.1266533474
 20
108.0434675428
 30
0.0
 10
80.2061913994
 20
108.2513314983
 30
0.0
 10
80.297493869
 20
108.4389147262
 30
0.0
 10
80.3681741165
 20
108.5532131335
 30
0.0
 10
80.4054073398
 20
108.605871119
 30
0.0
  0
SPLINE
  5
312
330
1B
100
AcDbEntity
 67
     1
  8
7_ALL_FEATURES
  6
Continuous
 62
     7
100
AcDbSpline
 70
     0
 71
     3
 72
    14
 73
    10
 74
     0
 42
0.000000001
 43
0.0000001
 40
0.0
 40
0.0
 40
0.0
 40
0.0
 40
0.2894147317
 40
0.422269
 40
0.5478493269
 40
0.6670536445
 40
0.7810987915
 40
0.8914951668
 40
1.0
 40
1.0
 40
1.0
 40
1.0
 10
80.5786124885
 20
108.8508198969
 30
0.0
 10
80.6280738255
 20
108.9207717857
 30
0.0
 10
80.70788769
 20
109.0180673337
 30
0.0
 10
80.8282387619
 20
109.1271187602
 30
0.0
 10
80.9188905251
 20
109.1929599169
 30
0.0
 10
81.0119726206
 20
109.2447130038
 30
0.0
 10
81.106969039
 20
109.2820187025
 30
0.0
 10
81.2032751941
 20
109.3045373829
 30
0.0
 10
81.2681803729
 20
109.3095800892
 30
0.0
 10
81.3002997657
 20
109.309580089
 30
0.0
  0
LINE
  5
313
330
1B
100
AcDbEntity
 67
     1
  8
7_ALL_FEATURES
  6
Continuous
 62
     7
100
AcDbLine
 10
80.4054068189
 20
108.6058725879
 30
0.0
 11
80.5786118622
 21
108.8508215176
 31
0.0
  0
SPLINE
  5
314
330
1B
100
AcDbEntity
 67
     1
  8
7_ALL_FEATURES
  6
Continuous
 62
     7
100
AcDbSpline
 70
     0
 71
     3
 72
    14
 73
    10
 74
     0
 42
0.000000001
 43
0.0000001
 40
0.0
 40
0.0
 40
0.0
 40
0.0
 40
0.1028324636
 40
0.2137633975
 40
0.3322085028
 40
0.4572968934
 40
0.5879427873
 40
0.7228832867
 40
1.0
 40
1.0
 40
1.0
 40
1.0
 10
80.4054073407
 20
105.0132890615
 30
0.0
 10
80.3681741178
 20
105.0659470471
 30
0.0
 10
80.2974938717
 20
105.1802454549
 30
0.0
 10
80.206191409
 20
105.3678286815
 30
0.0
 10
80.1266533336
 20
105.5756926268
 30
0.0
 10
80.0599992133
 20
105.8009116418
 30
0.0
 10
80.0071495308
 20
106.0403620292
 30
0.0
 10
79.9556611655
 20
106.3769674742
 30
0.0
 10
79.9404921444
 20
106.635785542
 30
0.0
 10
79.9404921445
 20
106.809580089
 30
0.0
  0
LINE
  5
315
330
1B
100
AcDbEntity
 67
     1
  8
7_ALL_FEATURES
  6
Continuous
 62
     7
100
AcDbLine
 10
81.4936754386
 20
108.059580089
 30
0.0
 11
81.3002997656
 21
108.059580089
 31
0.0
  0
LINE
  5
316
330
1B
100
AcDbEntity
 67
     1
  8
7_ALL_FEATURES
  6
Continuous
 62
     7
100
AcDbLine
 10
80.4054068189
 20
105.0132875901
 30
0.0
 11
80.5786118622
 21
104.7683386603
 31
0.0
  0
LINE
  5
317
330
1B
100
AcDbEntity
 67
     1
  8
7_ALL_FEATURES
  6
Continuous
 62
     7
100
AcDbLine
 10
81.3002997656
 20
108.059580089
 30
0.0
 11
80.7719876021
 21
108.059580089
 31
0.0
  0
LINE
  5
318
330
1B
100
AcDbEntity
 67
     1
  8
7_ALL_FEATURES
  6
Continuous
 62
     7
100
AcDbLine
 10
81.3002997656
 20
105.559580089
 30
0.0
 11
81.4936754386
 21
105.559580089
 31
0.0
  0
LINE
  5
319
330
1B
100
AcDbEntity
 67
     1
  8
7_ALL_FEATURES
  6
Continuous
 62
     7
100
AcDbLine
 10
80.7719876021
 20
105.559580089
 30
0.0
 11
81.3002997656
 21
105.559580089
 31
0.0
  0
ARC
  5
31A
330
1B
100
AcDbEntity
 67
     1
  8
7_ALL_FEATURES
  6
Continuous
 62
     7
100
AcDbCircle
 10
78.8426328454
 20
105.9686184483
 30
0.0
 40
3.3764104333
100
AcDbArc
 50
37.7861071397
 51
38.263968382
  0
LINE
  5
31B
330
1B
100
AcDbEntity
 67
     1
  8
3_ALL_AXES
  6
Continuous
 62
     7
100
AcDbLine
 10
82.3395302502
 20
109.309580089
 30
0.0
 11
81.3002997154
 21
109.309580089
 31
0.0
  0
LINE
  5
31C
330
1B
100
AcDbEntity
 67
     1
  8
3_ALL_AXES
  6
Continuous
 62
     7
100
AcDbLine
 10
82.3390271498
 20
104.309580089
 30
0.0
 11
81.3002997154
 21
104.309580089
 31
0.0
  0
SPLINE
  5
31D
330
1B
100
AcDbEntity
 67
     1
  8
7_ALL_FEATURES
  6
Continuous
 62
     7
100
AcDbSpline
 70
     0
 71
     3
 72
    14
 73
    10
 74
     0
 42
0.000000001
 43
0.0000001
 40
0.0
 40
0.0
 40
0.0
 40
0.0
 40
0.108504833
 40
0.218901208
 40
0.3329463548
 40
0.4521506726
 40
0.5777309996
 40
0.7105852682
 40
1.0
 40
1.0
 40
1.0
 40
1.0
 10
81.3002997657
 20
104.309580089
 30
0.0
 10
81.2681803731
 20
104.3095800892
 30
0.0
 10
81.2032751946
 20
104.3146227948
 30
0.0
 10
81.1069690401
 20
104.3371414758
 30
0.0
 10
81.0119726219
 20
104.3744471739
 30
0.0
 10
80.9188905272
 20
104.4262002615
 30
0.0
 10
80.8282387635
 20
104.4920414174
 30
0.0
 10
80.7078876927
 20
104.6010928446
 30
0.0
 10
80.6280738284
 20
104.6983883925
 30
0.0
 10
80.5786124917
 20
104.7683402812
 30
0.0
  0
SPLINE
  5
31E
330
1B
100
AcDbEntity
 67
     1
  8
7_ALL_FEATURES
  6
Continuous
 62
     7
100
AcDbSpline
 70
     0
 71
     3
 72
    31
 73
    27
 74
     0
 42
0.000000001
 43
0.0000001
 40
0.0
 40
0.0
 40
0.0
 40
0.0
 40
0.0203414381
 40
0.0412636776
 40
0.0632573974
 40
0.086728371
 40
0.1119545444
 40
0.1390994672
 40
0.168228275
 40
0.199324852
 40
0.2494520364
 40
0.3033209518
 40
0.3602416165
 40
0.419384866
 40
0.4798293147
 40
0.5406025362
 40
0.6007195216
 40
0.6592205147
 40
0.7152101124
 40
0.7678999546
 40
0.8166585884
 40
0.8610739843
 40
0.9010372496
 40
0.9368519326
 40
0.9693613458
 40
1.0
 40
1.0
 40
1.0
 40
1.0
 10
81.0404921445
 20
108.359580089
 30
0.0
 10
81.0150543318
 20
108.359580089
 30
0.0
 10
80.9633183935
 20
108.3544182571
 30
0.0
 10
80.887149704
 20
108.3315122937
 30
0.0
 10
80.8127602274
 20
108.2937768043
 30
0.0
 10
80.7408876518
 20
108.2417724603
 30
0.0
 10
80.6721056991
 20
108.1761058265
 30
0.0
 10
80.6070043024
 20
108.0974281991
 30
0.0
 10
80.5461304512
 20
108.0065001846
 30
0.0
 10
80.4797143073
 20
107.8853610769
 30
0.0
 10
80.4133460933
 20
107.7296169601
 30
0.0
 10
80.3530855642
 20
107.5373292493
 30
0.0
 10
80.3074521721
 20
107.3295237942
 30
0.0
 10
80.2774215339
 20
107.1106247282
 30
0.0
 10
80.2636389119
 20
106.8852908287
 30
0.0
 10
80.2664023135
 20
106.6583385242
 30
0.0
 10
80.2856518845
 20
106.4346197904
 30
0.0
 10
80.3209721046
 20
106.2189118409
 30
0.0
 10
80.3716048307
 20
106.0158044244
 30
0.0
 10
80.436476142
 20
105.8295902191
 30
0.0
 10
80.5142417774
 20
105.6641626354
 30
0.0
 10
80.6033662631
 20
105.5229280308
 30
0.0
 10
80.7022241107
 20
105.4087823671
 30
0.0
 10
80.8092796084
 20
105.3242095941
 30
0.0
 10
80.9227881066
 20
105.2716678134
 30
0.0
 10
81.0021772357
 20
105.259580089
 30
0.0
 10
81.0404921445
 20
105.259580089
 30
0.0
  0
SPLINE
  5
31F
330
1B
100
AcDbEntity
 67
     1
  8
7_ALL_FEATURES
  6
Continuous
 62
     7
100
AcDbSpline
 70
     0
 71
     3
 72
    20
 73
    16
 74
     0
 42
0.000000001
 43
0.0000001
 40
0.0
 40
0.0
 40
0.0
 40
0.0
 40
0.1613813595
 40
0.3181376566
 40
0.4659900686
 40
0.5354469112
 40
0.6014032343
 40
0.6635887409
 40
0.7218386738
 40
0.7761205542
 40
0.8265661341
 40
0.8735027836
 40
0.9174859711
 40
0.9593142336
 40
1.0
 40
1.0
 40
1.0
 40
1.0
 10
82.5502997656
 20
106.809580089
 30
0.0
 10
82.5502997655
 20
106.6468046138
 30
0.0
 10
82.5347201102
 20
106.3256747002
 30
0.0
 10
82.465155249
 20
105.8600749599
 30
0.0
 10
82.3690780919
 20
105.4941999132
 30
0.0
 10
82.2701201432
 20
105.2259691432
 30
0.0
 10
82.1881443286
 20
105.0441004975
 30
0.0
 10
82.097658383
 20
104.8790627589
 30
0.0
 10
81.999476328
 20
104.7324050697
 30
0.0
 10
81.8944685067
 20
104.6055104294
 30
0.0
 10
81.7835375229
 20
104.4995879441
 30
0.0
 10
81.6676068903
 20
104.4157126826
 30
0.0
 10
81.547628199
 20
104.3548612092
 30
0.0
 10
81.4247820689
 20
104.3178942047
 30
0.0
 10
81.3413370018
 20
104.3095800888
 30
0.0
 10
81.3002997657
 20
104.309580089
 30
0.0
  0
SPLINE
  5
320
330
1B
100
AcDbEntity
 67
     1
  8
7_ALL_FEATURES
  6
Continuous
 62
     7
100
AcDbSpline
 70
     0
 71
     3
 72
    15
 73
    11
 74
     0
 42
0.000000001
 43
0.0000001
 40
0.0
 40
0.0
 40
0.0
 40
0.0
 40
0.1370050098
 40
0.2722025683
 40
0.4044976174
 40
0.5326368465
 40
0.6557970902
 40
0.7741057745
 40
0.8884721643
 40
1.0
 40
1.0
 40
1.0
 40
1.0
 10
80.4111436839
 20
106.809580089
 30
0.0
 10
80.4493450011
 20
106.8580174183
 30
0.0
 10
80.5227078726
 20
106.9563106834
 30
0.0
 10
80.6209826926
 20
107.1098937783
 30
0.0
 10
80.7024104435
 20
107.2687268793
 30
0.0
 10
80.762222664
 20
107.4313010835
 30
0.0
 10
80.7973964812
 20
107.5945593831
 30
0.0
 10
80.8084860527
 20
107.7549090064
 30
0.0
 10
80.7992067896
 20
107.9099633066
 30
0.0
 10
80.7823704637
 20
108.0104478602
 30
0.0
 10
80.7719876021
 20
108.059580089
 30
0.0
  0
SPLINE
  5
321
330
1B
100
AcDbEntity
 67
     1
  8
7_ALL_FEATURES
  6
Continuous
 62
     7
100
AcDbSpline
 70
     0
 71
     3
 72
    15
 73
    11
 74
     0
 42
0.000000001
 43
0.0000001
 40
0.0
 40
0.0
 40
0.0
 40
0.0
 40
0.1115278358
 40
0.2258942255
 40
0.3442029097
 40
0.4673631535
 40
0.5955023825
 40
0.7277974317
 40
0.8629949903
 40
1.0
 40
1.0
 40
1.0
 40
1.0
 10
80.7719876021
 20
105.559580089
 30
0.0
 10
80.7823704638
 20
105.6087123178
 30
0.0
 10
80.7992067896
 20
105.7091968715
 30
0.0
 10
80.8084860527
 20
105.8642511716
 30
0.0
 10
80.7973964812
 20
106.0246007948
 30
0.0
 10
80.762222664
 20
106.1878590943
 30
0.0
 10
80.7024104436
 20
106.3504332987
 30
0.0
 10
80.6209826926
 20
106.5092663997
 30
0.0
 10
80.5227078725
 20
106.6628494947
 30
0.0
 10
80.449345001
 20
106.7611427598
 30
0.0
 10
80.4111436839
 20
106.809580089
 30
0.0
  0
LINE
  5
322
330
1B
100
AcDbEntity
 67
     1
  8
7_ALL_FEATURES
  6
Continuous
 62
     7
100
AcDbLine
 10
80.4111436839
 20
106.809580089
 30
0.0
 11
81.146545117
 21
106.809580089
 31
0.0
  0
LINE
  5
323
330
1B
100
AcDbEntity
 67
     1
  8
7_ALL_FEATURES
  6
Continuous
 62
     7
100
AcDbLine
 10
81.146545117
 20
106.809580089
 30
0.0
 11
81.8154921445
 21
106.809580089
 31
0.0
  0
SPLINE
  5
324
330
1B
100
AcDbEntity
 67
     1
  8
7_ALL_FEATURES
  6
Continuous
 62
     7
100
AcDbSpline
 70
     0
 71
     3
 72
    26
 73
    22
 74
     0
 42
0.000000001
 43
0.0000001
 40
0.0
 40
0.0
 40
0.0
 40
0.0
 40
0.0870653667
 40
0.1729204583
 40
0.2563880888
 40
0.3363810356
 40
0.4119363523
 40
0.4822756252
 40
0.5468687383
 40
0.6055215406
 40
0.6584893115
 40
0.7066107381
 40
0.729348184
 40
0.751501731
 40
0.773356234
 40
0.7952133674
 40
0.8173746375
 40
0.8401244797
 40
0.8882821944
 40
0.9412963316
 40
1.0
 40
1.0
 40
1.0
 40
1.0
 10
82.1404921445
 20
106.809580089
 30
0.0
 10
82.1404921445
 20
106.709630742
 30
0.0
 10
82.1337445094
 20
106.5110532671
 30
0.0
 10
82.1035100143
 20
106.2180507607
 30
0.0
 10
82.0537366681
 20
105.9359335025
 30
0.0
 10
81.9853524763
 20
105.6699005932
 30
0.0
 10
81.8996053883
 20
105.4248018685
 30
0.0
 10
81.7980339581
 20
105.2050728647
 30
0.0
 10
81.68240576
 20
105.0146424848
 30
0.0
 10
81.5545668139
 20
104.8568893362
 30
0.0
 10
81.4164996299
 20
104.7347202651
 30
0.0
 10
81.2919448279
 20
104.6634654375
 30
0.0
 10
81.1907876252
 20
104.6284707774
 30
0.0
 10
81.1155135892
 20
104.6129749838
 30
0.0
 10
81.0398390762
 20
104.6078502771
 30
0.0
 10
80.9641681706
 20
104.6131545185
 30
0.0
 10
80.8889045205
 20
104.628828535
 30
0.0
 10
80.7877635093
 20
104.6640641991
 30
0.0
 10
80.6632514582
 20
104.7356188003
 30
0.0
 10
80.5252834989
 20
104.8580820111
 30
0.0
 10
80.44431425
 20
104.9582640245
 30
0.0
 10
80.4054073407
 20
105.0132890615
 30
0.0
  0
SPLINE
  5
325
330
1B
100
AcDbEntity
 67
     1
  8
7_ALL_FEATURES
  6
Continuous
 62
     7
100
AcDbSpline
 70
     0
 71
     3
 72
    26
 73
    22
 74
     0
 42
0.000000001
 43
0.0000001
 40
0.0
 40
0.0
 40
0.0
 40
0.0
 40
0.0587036682
 40
0.1117178053
 40
0.1598755199
 40
0.1826253621
 40
0.2047866322
 40
0.2266437656
 40
0.2484982685
 40
0.2706518154
 40
0.2933892613
 40
0.3415106878
 40
0.3944784584
 40
0.4531312606
 40
0.5177243738
 40
0.5880636461
 40
0.6636189613
 40
0.7436119097
 40
0.8270795382
 40
0.9129346382
 40
1.0
 40
1.0
 40
1.0
 40
1.0
 10
80.4054073398
 20
108.605871119
 30
0.0
 10
80.4443142491
 20
108.6608961555
 30
0.0
 10
80.5252834979
 20
108.7610781681
 30
0.0
 10
80.6632514565
 20
108.8835413784
 30
0.0
 10
80.7877635072
 20
108.9550959794
 30
0.0
 10
80.8889045181
 20
108.9903316432
 30
0.0
 10
80.9641681679
 20
109.0060056595
 30
0.0
 10
81.0398390732
 20
109.0113099008
 30
0.0
 10
81.115513586
 20
109.0061851942
 30
0.0
 10
81.1907876216
 20
108.9906894005
 30
0.0
 10
81.2919448239
 20
108.9556947408
 30
0.0
 10
81.4164996254
 20
108.8844399141
 30
0.0
 10
81.554566809
 20
108.7622708442
 30
0.0
 10
81.6824057558
 20
108.6045176968
 30
0.0
 10
81.7980339496
 20
108.4140873155
 30
0.0
 10
81.8996053829
 20
108.194358317
 30
0.0
 10
81.9853524793
 20
107.9492595951
 30
0.0
 10
82.0537366455
 20
107.6832266846
 30
0.0
 10
82.103510064
 20
107.4011094263
 30
0.0
 10
82.1337443637
 20
107.1081069011
 30
0.0
 10
82.1404921445
 20
106.9095294301
 30
0.0
 10
82.1404921445
 20
106.809580089
 30
0.0
  0
SPLINE
  5
326
330
1B
100
AcDbEntity
 67
     1
  8
7_ALL_FEATURES
  6
Continuous
 62
     7
100
AcDbSpline
 70
     0
 71
     3
 72
    12
 73
     8
 74
     0
 42
0.000000001
 43
0.0000001
 40
0.0
 40
0.0
 40
0.0
 40
0.0
 40
0.2896737053
 40
0.5479604215
 40
0.7809053038
 40
0.8914343264
 40
1.0
 40
1.0
 40
1.0
 40
1.0
 10
81.4879385587
 20
108.0751496632
 30
0.0
 10
81.4572709228
 20
108.1185187136
 30
0.0
 10
81.3931777826
 20
108.1966346229
 30
0.0
 10
81.2822689774
 20
108.288798553
 30
0.0
 10
81.181624581
 20
108.3375426521
 30
0.0
 10
81.1006419837
 20
108.3564439229
 30
0.0
 10
81.0603995254
 20
108.359580089
 30
0.0
 10
81.0404921445
 20
108.359580089
 30
0.0
  0
SPLINE
  5
327
330
1B
100
AcDbEntity
 67
     1
  8
7_ALL_FEATURES
  6
Continuous
 62
     7
100
AcDbSpline
 70
     0
 71
     3
 72
    20
 73
    16
 74
     0
 42
0.000000001
 43
0.0000001
 40
0.0
 40
0.0
 40
0.0
 40
0.0
 40
0.0406857663
 40
0.0825140288
 40
0.126497216
 40
0.1734338651
 40
0.2238794447
 40
0.2781613248
 40
0.3364112573
 40
0.3985967643
 40
0.4645530859
 40
0.5340099264
 40
0.6818623379
 40
0.8386186406
 40
1.0
 40
1.0
 40
1.0
 40
1.0
 10
81.3002997657
 20
109.309580089
 30
0.0
 10
81.3413370019
 20
109.3095800888
 30
0.0
 10
81.4247820692
 20
109.3012659739
 30
0.0
 10
81.5476281994
 20
109.2642989689
 30
0.0
 10
81.6676068906
 20
109.2034474962
 30
0.0
 10
81.7835375234
 20
109.1195722353
 30
0.0
 10
81.894468507
 20
109.0136497506
 30
0.0
 10
81.9994763289
 20
108.8867551111
 30
0.0
 10
82.0976583844
 20
108.7400974221
 30
0.0
 10
82.1881443371
 20
108.5750596881
 30
0.0
 10
82.2701201439
 20
108.3931910414
 30
0.0
 10
82.3690780807
 20
108.1249602689
 30
0.0
 10
82.4651552004
 20
107.7590852162
 30
0.0
 10
82.534720308
 20
107.293485499
 30
0.0
 10
82.5502997655
 20
106.9723555647
 30
0.0
 10
82.5502997656
 20
106.809580089
 30
0.0
  0
SPLINE
  5
328
330
1B
100
AcDbEntity
 67
     1
  8
7_ALL_FEATURES
  6
Continuous
 62
     7
100
AcDbSpline
 70
     0
 71
     3
 72
    12
 73
     8
 74
     0
 42
0.000000001
 43
0.0000001
 40
0.0
 40
0.0
 40
0.0
 40
0.0
 40
0.1085656736
 40
0.2190946962
 40
0.4520395785
 40
0.7103262947
 40
1.0
 40
1.0
 40
1.0
 40
1.0
 10
81.0404921445
 20
105.259580089
 30
0.0
 10
81.0603995254
 20
105.259580089
 30
0.0
 10
81.1006419837
 20
105.262716255
 30
0.0
 10
81.181624581
 20
105.2816175259
 30
0.0
 10
81.2822689774
 20
105.3303616249
 30
0.0
 10
81.3931777826
 20
105.4225255551
 30
0.0
 10
81.4572709228
 20
105.5006414644
 30
0.0
 10
81.4879385587
 20
105.5440105148
 30
0.0
  0
LINE
  5
329
330
1B
100
AcDbEntity
 67
     1
  8
7_ALL_FEATURES
  6
Continuous
 62
     7
100
AcDbLine
 10
170.6757369299
 20
56.809580089
 30
0.0
 11
168.7757369299
 21
56.809580089
 31
0.0
  0
LINE
  5
32A
330
1B
100
AcDbEntity
 67
     1
  8
7_ALL_FEATURES
  6
Continuous
 62
     7
100
AcDbLine
 10
168.7757369299
 20
56.809580089
 30
0.0
 11
168.7638079254
 21
56.809580089
 31
0.0
  0
LINE
  5
32B
330
1B
100
AcDbEntity
 67
     1
  8
7_ALL_FEATURES
  6
Continuous
 62
     7
100
AcDbLine
 10
168.7638079254
 20
56.809580089
 30
0.0
 11
78.1876659336
 21
56.809580089
 31
0.0
  0
LINE
  5
32C
330
1B
100
AcDbEntity
 67
     1
  8
7_ALL_FEATURES
  6
Continuous
 62
     7
100
AcDbLine
 10
78.1876659336
 20
56.809580089
 30
0.0
 11
78.1757369299
 21
56.809580089
 31
0.0
  0
LINE
  5
32D
330
1B
100
AcDbEntity
 67
     1
  8
7_ALL_FEATURES
  6
Continuous
 62
     7
100
AcDbLine
 10
78.1757369299
 20
56.809580089
 30
0.0
 11
76.2757369299
 21
56.809580089
 31
0.0
  0
LINE
  5
32E
330
1B
100
AcDbEntity
 67
     1
  8
7_ALL_FEATURES
  6
Continuous
 62
     7
100
AcDbLine
 10
76.2757369299
 20
116.809580089
 30
0.0
 11
78.1757369299
 21
116.809580089
 31
0.0
  0
LINE
  5
32F
330
1B
100
AcDbEntity
 67
     1
  8
7_ALL_FEATURES
  6
Continuous
 62
     7
100
AcDbLine
 10
78.1757369299
 20
116.809580089
 30
0.0
 11
78.1876659336
 21
116.809580089
 31
0.0
  0
LINE
  5
330
330
1B
100
AcDbEntity
 67
     1
  8
7_ALL_FEATURES
  6
Continuous
 62
     7
100
AcDbLine
 10
78.1876659336
 20
116.809580089
 30
0.0
 11
168.7638079254
 21
116.809580089
 31
0.0
  0
LINE
  5
331
330
1B
100
AcDbEntity
 67
     1
  8
7_ALL_FEATURES
  6
Continuous
 62
     7
100
AcDbLine
 10
168.7638079254
 20
116.809580089
 30
0.0
 11
168.7757369299
 21
116.809580089
 31
0.0
  0
LINE
  5
332
330
1B
100
AcDbEntity
 67
     1
  8
7_ALL_FEATURES
  6
Continuous
 62
     7
100
AcDbLine
 10
168.7757369299
 20
116.809580089
 30
0.0
 11
170.6757369299
 21
116.809580089
 31
0.0
  0
LINE
  5
333
330
1B
100
AcDbEntity
 67
     1
  8
7_ALL_FEATURES
  6
Continuous
 62
     7
100
AcDbLine
 10
75.9757369299
 20
57.109580089
 30
0.0
 11
75.9757369299
 21
116.509580089
 31
0.0
  0
LINE
  5
334
330
1B
100
AcDbEntity
 67
     1
  8
7_ALL_FEATURES
  6
Continuous
 62
     7
100
AcDbLine
 10
170.9757369299
 20
57.109580089
 30
0.0
 11
170.9757369299
 21
116.509580089
 31
0.0
  0
LINE
  5
335
330
1B
100
AcDbEntity
 67
     1
  8
7_ALL_FEATURES
  6
Continuous
 62
     7
100
AcDbLine
 10
170.6757369299
 20
116.809580089
 30
0.0
 11
170.9757369299
 21
116.509580089
 31
0.0
  0
LINE
  5
336
330
1B
100
AcDbEntity
 67
     1
  8
7_ALL_FEATURES
  6
Continuous
 62
     7
100
AcDbLine
 10
76.2757369299
 20
116.809580089
 30
0.0
 11
75.9757369299
 21
116.509580089
 31
0.0
  0
LINE
  5
337
330
1B
100
AcDbEntity
 67
     1
  8
7_ALL_FEATURES
  6
Continuous
 62
     7
100
AcDbLine
 10
76.2757369299
 20
56.809580089
 30
0.0
 11
75.9757369299
 21
57.109580089
 31
0.0
  0
LINE
  5
338
330
1B
100
AcDbEntity
 67
     1
  8
7_ALL_FEATURES
  6
Continuous
 62
     7
100
AcDbLine
 10
170.6757369299
 20
56.809580089
 30
0.0
 11
170.9757369299
 21
57.109580089
 31
0.0
  0
LINE
  5
339
330
1B
100
AcDbEntity
 67
     1
  8
7_ALL_FEATURES
  6
Continuous
 62
     7
100
AcDbLine
 10
75.9757369299
 20
116.509580089
 30
0.0
 11
170.9757369299
 21
116.509580089
 31
0.0
  0
LINE
  5
33A
330
1B
100
AcDbEntity
 67
     1
  8
7_ALL_FEATURES
  6
Continuous
 62
     7
100
AcDbLine
 10
170.9757369299
 20
57.109580089
 30
0.0
 11
75.9757369299
 21
57.109580089
 31
0.0
  0
SPLINE
  5
33B
330
1B
100
AcDbEntity
 67
     1
  8
0
  6
Continuous
 62
     2
100
AcDbSpline
 70
     0
 71
     3
 72
    26
 73
    22
 74
     0
 42
0.000000001
 43
0.0000001
 40
0.0
 40
0.0
 40
0.0
 40
0.0
 40
0.0526315789
 40
0.1052631579
 40
0.1578947368
 40
0.2105263158
 40
0.2631578947
 40
0.3157894737
 40
0.3684210526
 40
0.4210526316
 40
0.4736842105
 40
0.5263157895
 40
0.5789473684
 40
0.6315789474
 40
0.6842105263
 40
0.7368421053
 40
0.7894736842
 40
0.8421052632
 40
0.8947368421
 40
0.9473684211
 40
1.0
 40
1.0
 40
1.0
 40
1.0
 10
215.6844410456
 20
233.9020443876
 30
0.0
 10
215.6844410456
 20
233.8424227852
 30
0.0
 10
215.690128886
 20
233.7230249436
 30
0.0
 10
215.7157054681
 20
233.5445983596
 30
0.0
 10
215.7580847818
 20
233.3683518116
 30
0.0
 10
215.8171264843
 20
233.1950400726
 30
0.0
 10
215.8922054095
 20
233.0264815826
 30
0.0
 10
215.9831583687
 20
232.8631512114
 30
0.0
 10
216.0889136131
 20
232.7070044472
 30
0.0
 10
216.2093271081
 20
232.5583370105
 30
0.0
 10
216.3428876191
 20
232.4190647523
 30
0.0
 10
216.4894611498
 20
232.2893918971
 30
0.0
 10
216.6471734273
 20
232.17103285
 30
0.0
 10
216.8158498148
 20
232.0641653179
 30
0.0
 10
216.9933879545
 20
231.9701767223
 30
0.0
 10
217.1794901941
 20
231.8892529813
 30
0.0
 10
217.3719997184
 20
231.8223828697
 30
0.0
 10
217.5703904172
 20
231.7697584664
 30
0.0
 10
217.772645591
 20
231.7319594969
 30
0.0
 10
217.9778979398
 20
231.7091395499
 30
0.0
 10
218.1155950966
 20
231.7040633294
 30
0.0
 10
218.1844410456
 20
231.7040633294
 30
0.0
  0
SPLINE
  5
33C
330
1B
100
AcDbEntity
 67
     1
  8
0
  6
Continuous
 62
     2
100
AcDbSpline
 70
     0
 71
     3
 72
    25
 73
    21
 74
     0
 42
0.000000001
 43
0.0000001
 40
0.0
 40
0.0
 40
0.0
 40
0.0
 40
0.0555555556
 40
0.1111111111
 40
0.1666666667
 40
0.2222222222
 40
0.2777777778
 40
0.3333333333
 40
0.3888888889
 40
0.4444444444
 40
0.5
 40
0.5555555556
 40
0.6111111111
 40
0.6666666667
 40
0.7222222222
 40
0.7777777778
 40
0.8333333333
 40
0.8888888889
 40
0.9444444444
 40
1.0
 40
1.0
 40
1.0
 40
1.0
 10
218.1844410456
 20
231.7040633294
 30
0.0
 10
218.2512273773
 20
231.7040633294
 30
0.0
 10
218.3848048799
 20
231.708839993
 30
0.0
 10
218.5840050736
 20
231.7303187137
 30
0.0
 10
218.7804391209
 20
231.7659022974
 30
0.0
 10
218.9733832954
 20
231.8154695812
 30
0.0
 10
219.1609106336
 20
231.8784852005
 30
0.0
 10
219.3426178657
 20
231.9548035857
 30
0.0
 10
219.5164673398
 20
232.0435284611
 30
0.0
 10
219.6822029442
 20
232.1444961375
 30
0.0
 10
219.8379151759
 20
232.2565049602
 30
0.0
 10
219.983347885
 20
232.3793152272
 30
0.0
 10
220.1169035518
 20
232.5115438156
 30
0.0
 10
220.2382483024
 20
232.6527845518
 30
0.0
 10
220.3461929887
 20
232.8016258725
 30
0.0
 10
220.4403303509
 20
232.9574151493
 30
0.0
 10
220.5198805464
 20
233.1188431415
 30
0.0
 10
220.5844348781
 20
233.2849829202
 30
0.0
 10
220.6335522382
 20
233.4546846947
 30
0.0
 10
220.6558024454
 20
233.5694433914
 30
0.0
 10
220.6642700171
 20
233.6270417165
 30
0.0
  0
ARC
  5
33D
330
1B
100
AcDbEntity
 67
     1
  8
0
  6
Continuous
 62
     2
100
AcDbCircle
 10
218.7942034108
 20
233.9024506322
 30
0.0
 40
1.8902378641
100
AcDbArc
 50
351.6221446954
 51
359.9612722792
  0
ARC
  5
33E
330
1B
100
AcDbEntity
 67
     1
  8
0
  6
Continuous
 62
     2
100
AcDbCircle
 10
218.1865541279
 20
115.148858777
 30
0.0
 40
47.5690316861
100
AcDbArc
 50
90.0025451584
 51
92.99082261079998
  0
LINE
  5
33F
330
1B
100
AcDbEntity
 67
     1
  8
0
  6
Continuous
 62
     2
100
AcDbLine
 10
215.7045922038
 20
162.6530998649
 30
0.0
 11
215.6844410456
 21
162.6520443876
 31
0.0
  0
SPLINE
  5
340
330
1B
100
AcDbEntity
 67
     1
  8
0
  6
Continuous
 62
     2
100
AcDbSpline
 70
     0
 71
     3
 72
    26
 73
    22
 74
     0
 42
0.000000001
 43
0.0000001
 40
0.0
 40
0.0
 40
0.0
 40
0.0
 40
0.0526315789
 40
0.1052631579
 40
0.1578947368
 40
0.2105263158
 40
0.2631578947
 40
0.3157894737
 40
0.3684210526
 40
0.4210526316
 40
0.4736842105
 40
0.5263157895
 40
0.5789473684
 40
0.6315789474
 40
0.6842105263
 40
0.7368421053
 40
0.7894736842
 40
0.8421052632
 40
0.8947368421
 40
0.9473684211
 40
1.0
 40
1.0
 40
1.0
 40
1.0
 10
220.6844410456
 20
162.6520443876
 30
0.0
 10
220.6844410456
 20
162.6520443876
 30
0.0
 10
220.6787533043
 20
162.6523442581
 30
0.0
 10
220.6531765716
 20
162.6536835002
 30
0.0
 10
220.6107975326
 20
162.6558723014
 30
0.0
 10
220.5517555766
 20
162.6588586031
 30
0.0
 10
220.4766769641
 20
162.6625501859
 30
0.0
 10
220.3857237477
 20
162.6668631578
 30
0.0
 10
220.2799687646
 20
162.671659171
 30
0.0
 10
220.1595550752
 20
162.6768328456
 30
0.0
 10
220.025994714
 20
162.6822141729
 30
0.0
 10
219.8794210898
 20
162.6876867709
 30
0.0
 10
219.7217088314
 20
162.6930693912
 30
0.0
 10
219.5530324565
 20
162.6982453311
 30
0.0
 10
219.3754942203
 20
162.7030446747
 30
0.0
 10
219.1893920743
 20
162.7073612316
 30
0.0
 10
218.9968823859
 20
162.7110567597
 30
0.0
 10
218.7984918071
 20
162.7140464335
 30
0.0
 10
218.5962364807
 20
162.7162381525
 30
0.0
 10
218.3909841975
 20
162.717579175
 30
0.0
 10
218.2532870102
 20
162.7178794851
 30
0.0
 10
218.1844410456
 20
162.7178794851
 30
0.0
  0
LINE
  5
341
330
1B
100
AcDbEntity
 67
     1
  8
7_ALL_FEATURES
  6
Continuous
 62
     7
100
AcDbLine
 10
215.9844410457
 20
161.1520443876
 30
0.0
 11
216.6344410456
 21
161.1520443876
 31
0.0
  0
LINE
  5
342
330
1B
100
AcDbEntity
 67
     1
  8
7_ALL_FEATURES
  6
Continuous
 62
     7
100
AcDbLine
 10
216.6344410456
 20
161.1520443876
 30
0.0
 11
218.1844410456
 21
161.1520443876
 31
0.0
  0
LINE
  5
343
330
1B
100
AcDbEntity
 67
     1
  8
7_ALL_FEATURES
  6
Continuous
 62
     7
100
AcDbLine
 10
215.9844409946
 20
161.1520443876
 30
0.0
 11
215.6844410456
 21
161.4520443296
 31
0.0
  0
LINE
  5
344
330
1B
100
AcDbEntity
 67
     1
  8
7_ALL_FEATURES
  6
Continuous
 62
     7
100
AcDbLine
 10
220.3844410966
 20
161.1520443876
 30
0.0
 11
220.6844410456
 21
161.4520443296
 31
0.0
  0
LINE
  5
345
330
1B
100
AcDbEntity
 67
     1
  8
7_ALL_FEATURES
  6
Continuous
 62
     7
100
AcDbLine
 10
218.1844410456
 20
161.1520443876
 30
0.0
 11
219.7344410456
 21
161.1520443876
 31
0.0
  0
LINE
  5
346
330
1B
100
AcDbEntity
 67
     1
  8
7_ALL_FEATURES
  6
Continuous
 62
     7
100
AcDbLine
 10
219.7344410456
 20
161.1520443876
 30
0.0
 11
220.3844410455
 21
161.1520443876
 31
0.0
  0
LINE
  5
347
330
1B
100
AcDbEntity
 67
     1
  8
3_ALL_AXES
  6
Continuous
 62
     7
100
AcDbLine
 10
220.6844410456
 20
162.6520443876
 30
0.0
 11
220.6844410456
 21
161.4520443296
 31
0.0
  0
LINE
  5
348
330
1B
100
AcDbEntity
 67
     1
  8
3_ALL_AXES
  6
Continuous
 62
     7
100
AcDbLine
 10
215.6844410456
 20
162.6520443876
 30
0.0
 11
215.6844410456
 21
161.4520443296
 31
0.0
  0
LINE
  5
349
330
1B
100
AcDbEntity
 67
     1
  8
7_ALL_FEATURES
  6
Continuous
 62
     7
100
AcDbLine
 10
218.1844410456
 20
161.4520443876
 30
0.0
 11
219.4344410456
 21
161.4520443744
 31
0.0
  0
LINE
  5
34A
330
1B
100
AcDbEntity
 67
     1
  8
7_ALL_FEATURES
  6
Continuous
 62
     7
100
AcDbLine
 10
219.4344410456
 20
161.4520443744
 30
0.0
 11
220.6844410456
 21
161.4520443877
 31
0.0
  0
LINE
  5
34B
330
1B
100
AcDbEntity
 67
     1
  8
7_ALL_FEATURES
  6
Continuous
 62
     7
100
AcDbLine
 10
215.6844410456
 20
161.4520443877
 30
0.0
 11
216.9344410456
 21
161.4520443757
 31
0.0
  0
LINE
  5
34C
330
1B
100
AcDbEntity
 67
     1
  8
7_ALL_FEATURES
  6
Continuous
 62
     7
100
AcDbLine
 10
216.9344410456
 20
161.4520443757
 30
0.0
 11
218.1844410456
 21
161.4520443876
 31
0.0
  0
SPLINE
  5
34D
330
1B
100
AcDbEntity
 67
     1
  8
7_ALL_FEATURES
  6
Continuous
 62
     7
100
AcDbSpline
 70
     0
 71
     3
 72
    19
 73
    15
 74
     0
 42
0.000000001
 43
0.0000001
 40
0.0
 40
0.0
 40
0.0
 40
0.0
 40
0.1335588595
 40
0.2658555727
 40
0.3312478639
 40
0.3959374823
 40
0.4598385143
 40
0.5228911235
 40
0.6462166533
 40
0.766231116
 40
0.8252885698
 40
0.8838271644
 40
0.9420057248
 40
1.0
 40
1.0
 40
1.0
 40
1.0
 10
218.1844410456
 20
236.6671078971
 30
0.0
 10
218.347609892
 20
236.6671078971
 30
0.0
 10
218.6730421203
 20
236.6395267086
 30
0.0
 10
219.0666195368
 20
236.5365828516
 30
0.0
 10
219.3636422522
 20
236.4150688346
 30
0.0
 10
219.5743386311
 20
236.3058506038
 30
0.0
 10
219.771707864
 20
236.1792431834
 30
0.0
 10
220.012656832
 20
235.9903924114
 30
0.0
 10
220.2727754584
 20
235.717592719
 30
0.0
 10
220.4691563263
 20
235.4011559809
 30
0.0
 10
220.5803199745
 20
235.1324554148
 30
0.0
 10
220.6402041534
 20
234.9257469467
 30
0.0
 10
220.6763693609
 20
234.7149557528
 30
0.0
 10
220.6844410458
 20
234.5728959883
 30
0.0
 10
220.6844410456
 20
234.5020443875
 30
0.0
  0
LINE
  5
34E
330
1B
100
AcDbEntity
 67
     1
  8
3_ALL_AXES
  6
Continuous
 62
     7
100
AcDbLine
 10
220.6844410456
 20
233.901172971
 30
0.0
 11
220.6844410456
 21
233.9020443823
 31
0.0
  0
LINE
  5
34F
330
1B
100
AcDbEntity
 67
     1
  8
3_ALL_AXES
  6
Continuous
 62
     7
100
AcDbLine
 10
220.6844410456
 20
233.9020443823
 30
0.0
 11
220.6844410456
 21
234.5020444166
 31
0.0
  0
SPLINE
  5
350
330
1B
100
AcDbEntity
 67
     1
  8
7_ALL_FEATURES
  6
Continuous
 62
     7
100
AcDbSpline
 70
     0
 71
     3
 72
    19
 73
    15
 74
     0
 42
0.000000001
 43
0.0000001
 40
0.0
 40
0.0
 40
0.0
 40
0.0
 40
0.0579942751
 40
0.1161728353
 40
0.1747114298
 40
0.2337688836
 40
0.3537833461
 40
0.4771088751
 40
0.5401614848
 40
0.6040625177
 40
0.6687521342
 40
0.7341444267
 40
0.8664411367
 40
1.0
 40
1.0
 40
1.0
 40
1.0
 10
215.6844410456
 20
234.5020443875
 30
0.0
 10
215.6844410458
 20
234.5728959879
 30
0.0
 10
215.6925127297
 20
234.7149557517
 30
0.0
 10
215.7286779378
 20
234.9257469445
 30
0.0
 10
215.7885621161
 20
235.1324554116
 30
0.0
 10
215.899725763
 20
235.4011559767
 30
0.0
 10
216.0961066292
 20
235.7175927131
 30
0.0
 10
216.3562252562
 20
235.9903924028
 30
0.0
 10
216.5971742227
 20
236.1792431747
 30
0.0
 10
216.7945434462
 20
236.3058506094
 30
0.0
 10
217.0052398375
 20
236.415068813
 30
0.0
 10
217.3022625327
 20
236.5365828705
 30
0.0
 10
217.6958399831
 20
236.639526589
 30
0.0
 10
218.0212721951
 20
236.6671078971
 30
0.0
 10
218.1844410456
 20
236.6671078971
 30
0.0
  0
LINE
  5
351
330
1B
100
AcDbEntity
 67
     1
  8
3_ALL_AXES
  6
Continuous
 62
     7
100
AcDbLine
 10
215.6844410456
 20
233.9020443876
 30
0.0
 11
215.6844410456
 21
234.5020444166
 31
0.0
  0
LINE
  5
352
330
1B
100
AcDbEntity
 67
     1
  8
7_ALL_FEATURES
  6
Continuous
 62
     7
100
AcDbLine
 10
216.9344410456
 20
235.2237322241
 30
0.0
 11
216.9344410456
 21
234.5020443876
 31
0.0
  0
LINE
  5
353
330
1B
100
AcDbEntity
 67
     1
  8
7_ALL_FEATURES
  6
Continuous
 62
     7
100
AcDbLine
 10
216.9344410456
 20
234.5020443876
 30
0.0
 11
216.9344410456
 21
233.9737322241
 31
0.0
  0
SPLINE
  5
354
330
1B
100
AcDbEntity
 67
     1
  8
7_ALL_FEATURES
  6
Continuous
 62
     7
100
AcDbSpline
 70
     0
 71
     3
 72
    12
 73
     8
 74
     0
 42
0.000000001
 43
0.0000001
 40
0.0
 40
0.0
 40
0.0
 40
0.0
 40
0.222397923
 40
0.3430409059
 40
0.4698150239
 40
0.734205421
 40
1.0
 40
1.0
 40
1.0
 40
1.0
 10
218.1844410456
 20
233.3487322241
 30
0.0
 10
218.0821123255
 20
233.3703568271
 30
0.0
 10
217.9257488579
 20
233.4119458841
 30
0.0
 10
217.718669898
 20
233.4894109849
 30
0.0
 10
217.4996201246
 20
233.5896577194
 30
0.0
 10
217.2331918888
 20
233.7478218593
 30
0.0
 10
217.0325872444
 20
233.8963267575
 30
0.0
 10
216.9344410456
 20
233.9737322241
 30
0.0
  0
SPLINE
  5
355
330
1B
100
AcDbEntity
 67
     1
  8
7_ALL_FEATURES
  6
Continuous
 62
     7
100
AcDbSpline
 70
     0
 71
     3
 72
    12
 73
     8
 74
     0
 42
0.000000001
 43
0.0000001
 40
0.0
 40
0.0
 40
0.0
 40
0.0
 40
0.2657945791
 40
0.5301849761
 40
0.656959094
 40
0.777602077
 40
1.0
 40
1.0
 40
1.0
 40
1.0
 10
219.4344410456
 20
233.9737322241
 30
0.0
 10
219.3362948468
 20
233.8963267575
 30
0.0
 10
219.1356902024
 20
233.7478218593
 30
0.0
 10
218.8692619666
 20
233.5896577195
 30
0.0
 10
218.6502121932
 20
233.4894109849
 30
0.0
 10
218.4431332334
 20
233.4119458841
 30
0.0
 10
218.2867697657
 20
233.3703568271
 30
0.0
 10
218.1844410456
 20
233.3487322241
 30
0.0
  0
LINE
  5
356
330
1B
100
AcDbEntity
 67
     1
  8
7_ALL_FEATURES
  6
Continuous
 62
     7
100
AcDbLine
 10
219.4344410456
 20
234.5020443876
 30
0.0
 11
219.4344410456
 21
235.2237322241
 31
0.0
  0
LINE
  5
357
330
1B
100
AcDbEntity
 67
     1
  8
7_ALL_FEATURES
  6
Continuous
 62
     7
100
AcDbLine
 10
219.4344410456
 20
233.9737322241
 30
0.0
 11
219.4344410456
 21
234.5020443876
 31
0.0
  0
SPLINE
  5
358
330
1B
100
AcDbEntity
 67
     1
  8
7_ALL_FEATURES
  6
Continuous
 62
     7
100
AcDbSpline
 70
     0
 71
     3
 72
    23
 73
    19
 74
     0
 42
0.000000001
 43
0.0000001
 40
0.0
 40
0.0
 40
0.0
 40
0.0
 40
0.0668220087
 40
0.1330125763
 40
0.1980291015
 40
0.2614754519
 40
0.3231775557
 40
0.3832230683
 40
0.4419692147
 40
0.5000000001
 40
0.5580307855
 40
0.6167769318
 40
0.6768224443
 40
0.738524548
 40
0.8019708982
 40
0.8669874242
 40
0.9331779912
 40
1.0
 40
1.0
 40
1.0
 40
1.0
 10
218.1844410456
 20
236.5573002759
 30
0.0
 10
218.3280295815
 20
236.557300276
 30
0.0
 10
218.6144537656
 20
236.5330087413
 30
0.0
 10
219.0281078488
 20
236.4248494216
 30
0.0
 10
219.4101061584
 20
236.2489491706
 30
0.0
 10
219.7457629686
 20
236.0116710588
 30
0.0
 10
220.0221580609
 20
235.7216889877
 30
0.0
 10
220.2282921786
 20
235.3897376814
 30
0.0
 10
220.3556514446
 20
235.0284572326
 30
0.0
 10
220.3987476646
 20
234.652044396
 30
0.0
 10
220.355651447
 20
234.2756315591
 30
0.0
 10
220.2282921837
 20
233.91435111
 30
0.0
 10
220.0221580708
 20
233.5823998006
 30
0.0
 10
219.7457629712
 20
233.2924177367
 30
0.0
 10
219.4101061771
 20
233.0551396108
 30
0.0
 10
219.0281078724
 20
232.8792393155
 30
0.0
 10
218.6144537441
 20
232.7710802073
 30
0.0
 10
218.3280295818
 20
232.7467884992
 30
0.0
 10
218.1844410456
 20
232.7467884993
 30
0.0
  0
LINE
  5
359
330
1B
100
AcDbEntity
 67
     1
  8
7_ALL_FEATURES
  6
Continuous
 62
     7
100
AcDbLine
 10
218.1844410456
 20
234.9020443876
 30
0.0
 11
216.9344410456
 21
234.2770443876
 31
0.0
  0
LINE
  5
35A
330
1B
100
AcDbEntity
 67
     1
  8
7_ALL_FEATURES
  6
Continuous
 62
     7
100
AcDbLine
 10
219.4344410456
 20
234.2770443876
 30
0.0
 11
218.1844410456
 21
234.9020443876
 31
0.0
  0
SPLINE
  5
35B
330
1B
100
AcDbEntity
 67
     1
  8
7_ALL_FEATURES
  6
Continuous
 62
     7
100
AcDbSpline
 70
     0
 71
     3
 72
    23
 73
    19
 74
     0
 42
0.000000001
 43
0.0000001
 40
0.0
 40
0.0
 40
0.0
 40
0.0
 40
0.0668220087
 40
0.1330125763
 40
0.1980291015
 40
0.2614754519
 40
0.3231775557
 40
0.3832230683
 40
0.4419692147
 40
0.5000000001
 40
0.5580307855
 40
0.6167769318
 40
0.6768224443
 40
0.738524548
 40
0.8019708982
 40
0.8669874242
 40
0.9331779912
 40
1.0
 40
1.0
 40
1.0
 40
1.0
 10
218.1844410456
 20
232.7467884993
 30
0.0
 10
218.0408525098
 20
232.7467884992
 30
0.0
 10
217.7544283256
 20
232.7710800339
 30
0.0
 10
217.3407742424
 20
232.8792393536
 30
0.0
 10
216.9587759328
 20
233.0551396046
 30
0.0
 10
216.6231191226
 20
233.2924177163
 30
0.0
 10
216.3467240303
 20
233.5823997875
 30
0.0
 10
216.1405899126
 20
233.9143510938
 30
0.0
 10
216.0132306467
 20
234.2756315426
 30
0.0
 10
215.9701344266
 20
234.6520443792
 30
0.0
 10
216.0132306442
 20
235.0284572161
 30
0.0
 10
216.1405899075
 20
235.3897376652
 30
0.0
 10
216.3467240204
 20
235.7216889746
 30
0.0
 10
216.62311912
 20
236.0116710385
 30
0.0
 10
216.9587759141
 20
236.2489491644
 30
0.0
 10
217.3407742188
 20
236.4248494597
 30
0.0
 10
217.7544283471
 20
236.5330085679
 30
0.0
 10
218.0408525094
 20
236.557300276
 30
0.0
 10
218.1844410456
 20
236.5573002759
 30
0.0
  0
SPLINE
  5
35C
330
1B
100
AcDbEntity
 67
     1
  8
7_ALL_FEATURES
  6
Continuous
 62
     7
100
AcDbSpline
 70
     0
 71
     3
 72
    23
 73
    19
 74
     0
 42
0.000000001
 43
0.0000001
 40
0.0
 40
0.0
 40
0.0
 40
0.0
 40
0.0580326528
 40
0.116776383
 40
0.1768223416
 40
0.2385242266
 40
0.3019705278
 40
0.3669867492
 40
0.4331793505
 40
0.5
 40
0.5668206495
 40
0.6330132508
 40
0.6980294722
 40
0.7614757734
 40
0.8231776584
 40
0.883223617
 40
0.9419673472
 40
1.0
 40
1.0
 40
1.0
 40
1.0
 10
219.7344410456
 20
234.6520443876
 30
0.0
 10
219.7344410456
 20
234.7399024462
 30
0.0
 10
219.7141616651
 20
234.9173332458
 30
0.0
 10
219.6244216683
 20
235.1717585364
 30
0.0
 10
219.4791965918
 20
235.4056623586
 30
0.0
 10
219.28446716
 20
235.6099628016
 30
0.0
 10
219.0479748589
 20
235.777134034
 30
0.0
 10
218.7788570356
 20
235.901065478
 30
0.0
 10
218.4873466412
 20
235.9772687348
 30
0.0
 10
218.1844410456
 20
236.0029816838
 30
0.0
 10
217.88153545
 20
235.9772687348
 30
0.0
 10
217.5900250557
 20
235.901065478
 30
0.0
 10
217.3209072324
 20
235.777134034
 30
0.0
 10
217.0844149312
 20
235.6099628016
 30
0.0
 10
216.8896854994
 20
235.4056623586
 30
0.0
 10
216.7444604229
 20
235.1717585364
 30
0.0
 10
216.6547204261
 20
234.9173332458
 30
0.0
 10
216.6344410456
 20
234.7399024462
 30
0.0
 10
216.6344410456
 20
234.6520443876
 30
0.0
  0
LINE
  5
35D
330
1B
100
AcDbEntity
 67
     1
  8
7_ALL_FEATURES
  6
Continuous
 62
     7
100
AcDbLine
 10
218.1844410456
 20
235.8487322241
 30
0.0
 11
218.1844410456
 21
234.9020443876
 31
0.0
  0
SPLINE
  5
35E
330
1B
100
AcDbEntity
 67
     1
  8
7_ALL_FEATURES
  6
Continuous
 62
     7
100
AcDbSpline
 70
     0
 71
     3
 72
    23
 73
    19
 74
     0
 42
0.000000001
 43
0.0000001
 40
0.0
 40
0.0
 40
0.0
 40
0.0
 40
0.0580326528
 40
0.116776383
 40
0.1768223416
 40
0.2385242266
 40
0.3019705278
 40
0.3669867492
 40
0.4331793505
 40
0.5
 40
0.5668206495
 40
0.6330132508
 40
0.6980294722
 40
0.7614757734
 40
0.8231776584
 40
0.883223617
 40
0.9419673472
 40
1.0
 40
1.0
 40
1.0
 40
1.0
 10
216.6344410456
 20
234.6520443876
 30
0.0
 10
216.6344410456
 20
234.5641863289
 30
0.0
 10
216.6547204261
 20
234.3867555294
 30
0.0
 10
216.7444604229
 20
234.1323302388
 30
0.0
 10
216.8896854994
 20
233.8984264166
 30
0.0
 10
217.0844149312
 20
233.6941259736
 30
0.0
 10
217.3209072324
 20
233.5269547412
 30
0.0
 10
217.5900250557
 20
233.4030232972
 30
0.0
 10
217.88153545
 20
233.3268200404
 30
0.0
 10
218.1844410456
 20
233.3011070914
 30
0.0
 10
218.4873466412
 20
233.3268200404
 30
0.0
 10
218.7788570356
 20
233.4030232972
 30
0.0
 10
219.0479748589
 20
233.5269547412
 30
0.0
 10
219.28446716
 20
233.6941259736
 30
0.0
 10
219.4791965918
 20
233.8984264166
 30
0.0
 10
219.6244216683
 20
234.1323302388
 30
0.0
 10
219.7141616651
 20
234.3867555294
 30
0.0
 10
219.7344410456
 20
234.5641863289
 30
0.0
 10
219.7344410456
 20
234.6520443876
 30
0.0
  0
SPLINE
  5
35F
330
1B
100
AcDbEntity
 67
     1
  8
7_ALL_FEATURES
  6
Continuous
 62
     7
100
AcDbSpline
 70
     0
 71
     3
 72
    19
 73
    15
 74
     0
 42
0.000000001
 43
0.0000001
 40
0.0
 40
0.0
 40
0.0
 40
0.0
 40
0.0579942715
 40
0.1161728283
 40
0.1747114193
 40
0.2337688692
 40
0.3537833249
 40
0.4771088567
 40
0.5401614524
 40
0.6040624653
 40
0.6687521115
 40
0.7341443717
 40
0.8664411782
 40
1.0
 40
1.0
 40
1.0
 40
1.0
 10
220.6844410456
 20
234.5020443875
 30
0.0
 10
220.6844410454
 20
234.431192787
 30
0.0
 10
220.6763693615
 20
234.2891330224
 30
0.0
 10
220.6402041535
 20
234.0783418285
 30
0.0
 10
220.5803199751
 20
233.8716333606
 30
0.0
 10
220.469156329
 20
233.6029327929
 30
0.0
 10
220.2727754435
 20
233.286496053
 30
0.0
 10
220.0126568629
 20
233.0136963263
 30
0.0
 10
219.7717078941
 20
232.8248455583
 30
0.0
 10
219.5743385262
 20
232.6982383751
 30
0.0
 10
219.3636424112
 20
232.5890196061
 30
0.0
 10
219.0666192335
 20
232.4675065134
 30
0.0
 10
218.6730425291
 20
232.3645594403
 30
0.0
 10
218.3476098561
 20
232.3369808782
 30
0.0
 10
218.1844410456
 20
232.3369808781
 30
0.0
  0
SPLINE
  5
360
330
1B
100
AcDbEntity
 67
     1
  8
7_ALL_FEATURES
  6
Continuous
 62
     7
100
AcDbSpline
 70
     0
 71
     3
 72
    12
 73
     8
 74
     0
 42
0.000000001
 43
0.0000001
 40
0.0
 40
0.0
 40
0.0
 40
0.0
 40
0.222397923
 40
0.3430409059
 40
0.4698150239
 40
0.734205421
 40
1.0
 40
1.0
 40
1.0
 40
1.0
 10
216.9344410456
 20
235.2237322241
 30
0.0
 10
217.0367697657
 20
235.2453568271
 30
0.0
 10
217.1931332333
 20
235.2869458841
 30
0.0
 10
217.4002121932
 20
235.3644109849
 30
0.0
 10
217.6192619666
 20
235.4646577194
 30
0.0
 10
217.8856902024
 20
235.6228218593
 30
0.0
 10
218.0862948468
 20
235.7713267575
 30
0.0
 10
218.1844410456
 20
235.8487322241
 30
0.0
  0
SPLINE
  5
361
330
1B
100
AcDbEntity
 67
     1
  8
7_ALL_FEATURES
  6
Continuous
 62
     7
100
AcDbSpline
 70
     0
 71
     3
 72
    12
 73
     8
 74
     0
 42
0.000000001
 43
0.0000001
 40
0.0
 40
0.0
 40
0.0
 40
0.0
 40
0.2657945791
 40
0.5301849761
 40
0.656959094
 40
0.777602077
 40
1.0
 40
1.0
 40
1.0
 40
1.0
 10
218.1844410456
 20
235.8487322241
 30
0.0
 10
218.2825872444
 20
235.7713267575
 30
0.0
 10
218.4831918888
 20
235.6228218593
 30
0.0
 10
218.7496201246
 20
235.4646577195
 30
0.0
 10
218.968669898
 20
235.3644109849
 30
0.0
 10
219.1757488578
 20
235.2869458841
 30
0.0
 10
219.3321123255
 20
235.2453568271
 30
0.0
 10
219.4344410456
 20
235.2237322241
 30
0.0
  0
SPLINE
  5
362
330
1B
100
AcDbEntity
 67
     1
  8
7_ALL_FEATURES
  6
Continuous
 62
     7
100
AcDbSpline
 70
     0
 71
     3
 72
    19
 73
    15
 74
     0
 42
0.000000001
 43
0.0000001
 40
0.0
 40
0.0
 40
0.0
 40
0.0
 40
0.1335588218
 40
0.2658556236
 40
0.331247885
 40
0.39593753
 40
0.4598385444
 40
0.5228911412
 40
0.6462166731
 40
0.7662311295
 40
0.8252885798
 40
0.8838271711
 40
0.9420057282
 40
1.0
 40
1.0
 40
1.0
 40
1.0
 10
218.1844410456
 20
232.3369808781
 30
0.0
 10
218.0212722357
 20
232.3369808782
 30
0.0
 10
217.6958395855
 20
232.3645595592
 30
0.0
 10
217.3022628525
 20
232.467506488
 30
0.0
 10
217.0052396958
 20
232.5890196199
 30
0.0
 10
216.7945435665
 20
232.6982383613
 30
0.0
 10
216.5971742046
 20
232.8248455576
 30
0.0
 10
216.3562252348
 20
233.0136963267
 30
0.0
 10
216.0961066491
 20
233.2864960506
 30
0.0
 10
215.8997257642
 20
233.6029327914
 30
0.0
 10
215.7885621167
 20
233.8716333593
 30
0.0
 10
215.7286779377
 20
234.0783418277
 30
0.0
 10
215.6925127304
 20
234.2891330221
 30
0.0
 10
215.6844410454
 20
234.4311927869
 30
0.0
 10
215.6844410456
 20
234.5020443875
 30
0.0
  0
LINE
  5
363
330
1B
100
AcDbEntity
 67
     1
  8
7_ALL_FEATURES
  6
Continuous
 62
     7
100
AcDbLine
 10
268.1844410456
 20
210.1520443876
 30
0.0
 11
268.1844410456
 21
164.8520473292
 31
0.0
  0
LINE
  5
364
330
1B
100
AcDbEntity
 67
     1
  8
7_ALL_FEATURES
  6
Continuous
 62
     7
100
AcDbLine
 10
268.1844410456
 20
164.8520473292
 30
0.0
 11
268.1844410456
 21
162.9520474526
 31
0.0
  0
LINE
  5
365
330
1B
100
AcDbEntity
 67
     1
  8
7_ALL_FEATURES
  6
Continuous
 62
     7
100
AcDbLine
 10
208.1844410456
 20
210.1520443876
 30
0.0
 11
208.1844410456
 21
255.452041446
 31
0.0
  0
LINE
  5
366
330
1B
100
AcDbEntity
 67
     1
  8
7_ALL_FEATURES
  6
Continuous
 62
     7
100
AcDbLine
 10
208.1844410456
 20
255.452041446
 30
0.0
 11
208.1844410456
 21
257.3520413226
 31
0.0
  0
LINE
  5
367
330
1B
100
AcDbEntity
 67
     1
  8
02___PRT_ALL_AXES
  6
Continuous
 62
     7
100
AcDbLine
 10
267.8844410456
 20
257.6520443876
 30
0.0
 11
208.4844410456
 21
257.6520443876
 31
0.0
  0
LINE
  5
368
330
1B
100
AcDbEntity
 67
     1
  8
02___PRT_ALL_AXES
  6
Continuous
 62
     7
100
AcDbLine
 10
267.8844410456
 20
162.6520443876
 30
0.0
 11
220.6844410456
 21
162.6520443876
 31
0.0
  0
LINE
  5
369
330
1B
100
AcDbEntity
 67
     1
  8
02___PRT_ALL_AXES
  6
Continuous
 62
     7
100
AcDbLine
 10
215.6844410456
 20
162.6520443876
 30
0.0
 11
208.4844410456
 21
162.6520443876
 31
0.0
  0
LINE
  5
36A
330
1B
100
AcDbEntity
 67
     1
  8
7_ALL_FEATURES
  6
Continuous
 62
     7
100
AcDbLine
 10
208.1844410456
 20
162.9520443876
 30
0.0
 11
208.4844410456
 21
162.6520443876
 31
0.0
  0
LINE
  5
36B
330
1B
100
AcDbEntity
 67
     1
  8
7_ALL_FEATURES
  6
Continuous
 62
     7
100
AcDbLine
 10
208.1844410456
 20
162.9520474526
 30
0.0
 11
208.1844410456
 21
164.8520473292
 31
0.0
  0
LINE
  5
36C
330
1B
100
AcDbEntity
 67
     1
  8
7_ALL_FEATURES
  6
Continuous
 62
     7
100
AcDbLine
 10
208.1844410456
 20
164.8520473292
 30
0.0
 11
208.1844410456
 21
210.1520443876
 31
0.0
  0
LINE
  5
36D
330
1B
100
AcDbEntity
 67
     1
  8
7_ALL_FEATURES
  6
Continuous
 62
     7
100
AcDbLine
 10
268.1844410456
 20
257.3520413226
 30
0.0
 11
268.1844410456
 21
255.452041446
 31
0.0
  0
LINE
  5
36E
330
1B
100
AcDbEntity
 67
     1
  8
7_ALL_FEATURES
  6
Continuous
 62
     7
100
AcDbLine
 10
268.1844410456
 20
255.452041446
 30
0.0
 11
268.1844410456
 21
210.1520443876
 31
0.0
  0
LINE
  5
36F
330
1B
100
AcDbEntity
 67
     1
  8
7_ALL_FEATURES
  6
Continuous
 62
     7
100
AcDbLine
 10
208.1844410456
 20
257.3520443876
 30
0.0
 11
208.4844410456
 21
257.6520443876
 31
0.0
  0
LINE
  5
370
330
1B
100
AcDbEntity
 67
     1
  8
7_ALL_FEATURES
  6
Continuous
 62
     7
100
AcDbLine
 10
268.1844410456
 20
257.3520443876
 30
0.0
 11
267.8844410456
 21
257.6520443876
 31
0.0
  0
LINE
  5
371
330
1B
100
AcDbEntity
 67
     1
  8
7_ALL_FEATURES
  6
Continuous
 62
     7
100
AcDbLine
 10
268.1844410456
 20
162.9520443876
 30
0.0
 11
267.8844410456
 21
162.6520443876
 31
0.0
  0
LINE
  5
372
330
1B
100
AcDbEntity
 67
     1
  8
7_ALL_FEATURES
  6
Continuous
 62
     7
100
AcDbLine
 10
267.8844410456
 20
210.1520443876
 30
0.0
 11
267.8844410456
 21
162.6520443876
 31
0.0
  0
LINE
  5
373
330
1B
100
AcDbEntity
 67
     1
  8
7_ALL_FEATURES
  6
Continuous
 62
     7
100
AcDbLine
 10
208.4844410456
 20
162.6520443876
 30
0.0
 11
208.4844410456
 21
210.1520443876
 31
0.0
  0
LINE
  5
374
330
1B
100
AcDbEntity
 67
     1
  8
7_ALL_FEATURES
  6
Continuous
 62
     7
100
AcDbLine
 10
208.4844410456
 20
210.1520443876
 30
0.0
 11
208.4844410456
 21
257.6520443876
 31
0.0
  0
LINE
  5
375
330
1B
100
AcDbEntity
 67
     1
  8
7_ALL_FEATURES
  6
Continuous
 62
     7
100
AcDbLine
 10
267.8844410456
 20
257.6520443876
 30
0.0
 11
267.8844410456
 21
210.1520443876
 31
0.0
  0
DIMENSION
  5
376
330
1B
100
AcDbEntity
 67
     1
  8
0
  6
Continuous
 62
     2
100
AcDbDimension
280
     0
  2
*D1
 10
285.0503954675
 20
162.6520443876
 30
0.0
 11
285.0503954675
 21
210.1520443876
 31
0.0
 70
   160
  1
%%c<>
 71
     5
 42
-1.0
 73
     0
 74
     0
 75
     0
  3
DIMSTYLE_1
100
AcDbAlignedDimension
 13
267.8844410456
 23
257.6520443876
 33
0.0
 14
267.8844410456
 24
162.6520443876
 34
0.0
 50
270.0
100
AcDbRotatedDimension
  0
DIMENSION
  5
377
330
1B
100
AcDbEntity
 67
     1
  8
0
  6
Continuous
 62
     2
100
AcDbDimension
280
     0
  2
*D2
 10
268.1844410456
 20
147.1812225832
 30
0.0
 11
238.1652502441
 21
147.1812225832
 31
0.0
 70
   160
 71
     5
 42
-1.0
 73
     0
 74
     0
 75
     0
  3
DIMSTYLE_1
100
AcDbAlignedDimension
 13
208.1844410456
 23
162.9520443876
 33
0.0
 14
268.1844410456
 24
162.9520443876
 34
0.0
100
AcDbRotatedDimension
  0
LINE
  5
378
330
1B
100
AcDbEntity
 67
     1
  8
0
  6
Continuous
 62
     2
100
AcDbLine
 10
280.0154423813
 20
76.0331558006
 30
0.0
 11
410.0154423813
 21
76.0331558006
 31
0.0
  0
LINE
  5
379
330
1B
100
AcDbEntity
 67
     1
  8
0
  6
Continuous
 62
     2
100
AcDbLine
 10
280.0154423813
 20
76.0331558006
 30
0.0
 11
280.0154423813
 21
10.0331558006
 31
0.0
  0
LINE
  5
37A
330
1B
100
AcDbEntity
 67
     1
  8
0
  6
Continuous
 62
     2
100
AcDbLine
 10
310.0154423813
 20
68.0331558006
 30
0.0
 11
410.0154423813
 21
68.0331558006
 31
0.0
  0
LINE
  5
37B
330
1B
100
AcDbEntity
 67
     1
  8
0
  6
Continuous
 62
     2
100
AcDbLine
 10
280.0154423813
 20
60.0331558006
 30
0.0
 11
410.0154423813
 21
60.0331558006
 31
0.0
  0
LINE
  5
37C
330
1B
100
AcDbEntity
 67
     1
  8
0
  6
Continuous
 62
     2
100
AcDbLine
 10
310.0154423813
 20
54.0331558006
 30
0.0
 11
410.0154423813
 21
54.0331558006
 31
0.0
  0
LINE
  5
37D
330
1B
100
AcDbEntity
 67
     1
  8
0
  6
Continuous
 62
     2
100
AcDbLine
 10
310.0154423813
 20
48.0331558006
 30
0.0
 11
410.0154423813
 21
48.0331558006
 31
0.0
  0
LINE
  5
37E
330
1B
100
AcDbEntity
 67
     1
  8
0
  6
Continuous
 62
     2
100
AcDbLine
 10
310.0154423813
 20
42.0331558006
 30
0.0
 11
410.0154423813
 21
42.0331558006
 31
0.0
  0
LINE
  5
37F
330
1B
100
AcDbEntity
 67
     1
  8
0
  6
Continuous
 62
     2
100
AcDbLine
 10
310.0154423813
 20
36.0331558006
 30
0.0
 11
410.0154423813
 21
36.0331558006
 31
0.0
  0
LINE
  5
380
330
1B
100
AcDbEntity
 67
     1
  8
0
  6
Continuous
 62
     2
100
AcDbLine
 10
310.0154423813
 20
30.0331558006
 30
0.0
 11
410.0154423813
 21
30.0331558006
 31
0.0
  0
LINE
  5
381
330
1B
100
AcDbEntity
 67
     1
  8
0
  6
Continuous
 62
     2
100
AcDbLine
 10
280.0154423813
 20
24.0331558006
 30
0.0
 11
410.0154423813
 21
24.0331558006
 31
0.0
  0
LINE
  5
382
330
1B
100
AcDbEntity
 67
     1
  8
0
  6
Continuous
 62
     2
100
AcDbLine
 10
280.0154423813
 20
18.0331558006
 30
0.0
 11
410.0154423813
 21
18.0331558006
 31
0.0
  0
LINE
  5
383
330
1B
100
AcDbEntity
 67
     1
  8
0
  6
Continuous
 62
     2
100
AcDbLine
 10
280.0154423813
 20
14.0331558006
 30
0.0
 11
410.0154423813
 21
14.0331558006
 31
0.0
  0
LINE
  5
384
330
1B
100
AcDbEntity
 67
     1
  8
0
  6
Continuous
 62
     2
100
AcDbLine
 10
280.0154423813
 20
10.0331558006
 30
0.0
 11
410.0154423813
 21
10.0331558006
 31
0.0
  0
LINE
  5
385
330
1B
100
AcDbEntity
 67
     1
  8
0
  6
Continuous
 62
     2
100
AcDbLine
 10
310.0154423813
 20
76.0331558006
 30
0.0
 11
310.0154423813
 21
18.0331558006
 31
0.0
  0
LINE
  5
386
330
1B
100
AcDbEntity
 67
     1
  8
0
  6
Continuous
 62
     2
100
AcDbLine
 10
330.0154423813
 20
60.0331558006
 30
0.0
 11
330.0154423813
 21
54.0331558006
 31
0.0
  0
LINE
  5
387
330
1B
100
AcDbEntity
 67
     1
  8
0
  6
Continuous
 62
     2
100
AcDbLine
 10
360.0154423813
 20
30.0331558006
 30
0.0
 11
360.0154423813
 21
18.0331558006
 31
0.0
  0
LINE
  5
388
330
1B
100
AcDbEntity
 67
     1
  8
0
  6
Continuous
 62
     2
100
AcDbLine
 10
370.0154423813
 20
60.0331558006
 30
0.0
 11
370.0154423813
 21
54.0331558006
 31
0.0
  0
LINE
  5
389
330
1B
100
AcDbEntity
 67
     1
  8
0
  6
Continuous
 62
     2
100
AcDbLine
 10
370.0154423813
 20
48.0331558006
 30
0.0
 11
370.0154423813
 21
42.0331558006
 31
0.0
  0
LINE
  5
38A
330
1B
100
AcDbEntity
 67
     1
  8
0
  6
Continuous
 62
     2
100
AcDbLine
 10
390.0154423813
 20
60.0331558006
 30
0.0
 11
390.0154423813
 21
54.0331558006
 31
0.0
  0
LINE
  5
38B
330
1B
100
AcDbEntity
 67
     1
  8
0
  6
Continuous
 62
     2
100
AcDbLine
 10
400.0154423813
 20
48.0331558006
 30
0.0
 11
400.0154423813
 21
42.0331558006
 31
0.0
  0
LINE
  5
38C
330
1B
100
AcDbEntity
 67
     1
  8
0
  6
Continuous
 62
     2
100
AcDbLine
 10
410.0154423813
 20
76.0331558006
 30
0.0
 11
410.0154423813
 21
10.0331558006
 31
0.0
  0
INSERT
  5
38D
330
1B
100
AcDbEntity
 67
     1
  8
0
  6
Continuous
 62
     2
100
AcDbBlockReference
  2
PROIEZIONE_EU_BL0
 10
295.0154423813
 20
67.6581558006
 30
0.0
  0
MTEXT
  5
38E
330
1B
100
AcDbEntity
 67
     1
  8
9_SOLID
  6
Continuous
 62
     2
100
AcDbMText
 10
311.5029423813
 20
74.4081558006
 30
0.0
 40
1.9
 41
142.3642857143
 46
0.0
 71
     1
 72
     1
  1
EN: Chamfer/radii unlisted 0.3x45°. Remove sharp edges.\PGen. tol.: hole H11, shaft h11, lenght Js12. UNI EN 22768 Medium Grande.
  7
TEXTSTYLE_6
 73
     1
 44
1.0
  0
MTEXT
  5
38F
330
1B
100
AcDbEntity
 67
     1
  8
9_SOLID
  6
Continuous
 62
     2
100
AcDbMText
 10
311.5029423813
 20
66.4081558006
 30
0.0
 40
1.9
 41
148.2678571429
 46
0.0
 71
     1
 72
     1
  1
IT: Sm./rac. non quotati 0.3x45°. Eliminare spigoli taglienti.\PToll. gen.: foro H11, albero h11, lunghezza Js12. UNI EN 22768 Grado Medio.
  7
TEXTSTYLE_6
 73
     1
 44
1.0
  0
INSERT
  5
390
330
1B
100
AcDbEntity
 67
     1
  8
0
  6
Continuous
 62
     2
100
AcDbBlockReference
  2
LOGO2_BL1
 10
293.8414894261
 20
42.0331558006
 30
0.0
  0
MTEXT
  5
391
330
1B
100
AcDbEntity
 67
     1
  8
9_SOLID
  6
Continuous
 62
     2
100
AcDbMText
 10
311.5029423813
 20
58.2831558006
 30
0.0
 40
3.0
 41
21.1071428571
 46
0.0
 71
     1
 72
     1
  1
Pj: AL1
  7
TEXTSTYLE_6
 73
     1
 44
1.0
  0
MTEXT
  5
392
330
1B
100
AcDbEntity
 67
     1
  8
9_SOLID
  6
Continuous
 62
     2
100
AcDbMText
 10
331.5029423813
 20
58.2831558006
 30
0.0
 40
3.0
 41
38.0357142857
 46
0.0
 71
     1
 72
     1
  1
% Check: %
  7
TEXTSTYLE_6
 73
     1
 44
1.0
  0
MTEXT
  5
393
330
1B
100
AcDbEntity
 67
     1
  8
9_SOLID
  6
Continuous
 62
     2
100
AcDbMText
 10
371.5029423813
 20
58.2831558006
 30
0.0
 40
3.0
 41
19.5
 46
0.0
 71
     1
 72
     1
  1
Rev:00
  7
TEXTSTYLE_6
 73
     1
 44
1.0
  0
MTEXT
  5
394
330
1B
100
AcDbEntity
 67
     1
  8
9_SOLID
  6
Continuous
 62
     2
100
AcDbMText
 10
391.5029423813
 20
58.5331558006
 30
0.0
 40
3.0
 41
19.7142857143
 46
0.0
 71
     1
 72
     1
  1
Ver: A
  7
TEXTSTYLE_6
 73
     1
 44
1.0
  0
MTEXT
  5
395
330
1B
100
AcDbEntity
 67
     1
  8
9_SOLID
  6
Continuous
 62
     2
100
AcDbMText
 10
311.5029423813
 20
52.2831558006
 30
0.0
 40
3.0
 41
73.3928571429
 46
0.0
 71
     1
 72
     1
  1
Neutral code: AL1_C_374
  7
TEXTSTYLE_6
 73
     1
 44
1.0
  0
MTEXT
  5
396
330
1B
100
AcDbEntity
 67
     1
  8
9_SOLID
  6
Continuous
 62
     2
100
AcDbMText
 10
311.5029423813
 20
46.2831558006
 30
0.0
 40
3.0
 41
19.3928571429
 46
0.0
 71
     1
 72
     1
  1
Code: 
  7
TEXTSTYLE_6
 73
     1
 44
1.0
  0
MTEXT
  5
397
330
1B
100
AcDbEntity
 67
     1
  8
9_SOLID
  6
Continuous
 62
     2
100
AcDbMText
 10
371.5029423813
 20
46.5331558006
 30
0.0
 40
3.0
 41
27.0
 46
0.0
 71
     1
 72
     1
  1
Scale: 1:1
  7
TEXTSTYLE_6
 73
     1
 44
1.0
  0
MTEXT
  5
398
330
1B
100
AcDbEntity
 67
     1
  8
9_SOLID
  6
Continuous
 62
     2
100
AcDbMText
 10
405.0154423813
 20
46.5331558006
 30
0.0
 40
3.0
 41
7.0714285714
 46
0.0
 71
     2
 72
     1
  1
A3
  7
TEXTSTYLE_6
 73
     1
 44
1.0
  0
MTEXT
  5
399
330
1B
100
AcDbEntity
 67
     1
  8
9_SOLID
  6
Continuous
 62
     2
100
AcDbMText
 10
311.5029423813
 20
40.2831558006
 30
0.0
 40
2.5
 41
126.7857142857
 46
0.0
 71
     1
 72
     1
  1
It descr.: CANNOCCHIALE STAND. ZAB TRK 1.0-1.1
  7
TEXTSTYLE_6
 73
     1
 44
1.0
  0
MTEXT
  5
39A
330
1B
100
AcDbEntity
 67
     1
  8
9_SOLID
  6
Continuous
 62
     2
100
AcDbMText
 10
311.5029423813
 20
34.5331558006
 30
0.0
 40
3.0
 41
33.9642857143
 46
0.0
 71
     1
 72
     1
  1
En descr.: 
  7
TEXTSTYLE_6
 73
     1
 44
1.0
  0
MTEXT
  5
39B
330
1B
100
AcDbEntity
 67
     1
  8
9_SOLID
  6
Continuous
 62
     2
100
AcDbMText
 10
311.5029423813
 20
28.5331558006
 30
0.0
 40
3.0
 41
31.6071428571
 46
0.0
 71
     1
 72
     1
  1
Des.: A.G.
  7
TEXTSTYLE_6
 73
     1
 44
1.0
  0
MTEXT
  5
39C
330
1B
100
AcDbEntity
 67
     1
  8
9_SOLID
  6
Continuous
 62
     2
100
AcDbMText
 10
361.5029423813
 20
28.5331558006
 30
0.0
 40
3.0
 41
34.8214285714
 46
0.0
 71
     1
 72
     1
  1
Check: A.P.
  7
TEXTSTYLE_6
 73
     1
 44
1.0
  0
MTEXT
  5
39D
330
1B
100
AcDbEntity
 67
     1
  8
9_SOLID
  6
Continuous
 62
     2
100
AcDbMText
 10
281.5029423813
 20
22.5331558006
 30
0.0
 40
3.0
 41
42.5357142857
 46
0.0
 71
     1
 72
     1
  1
Date: 19.12.18
  7
TEXTSTYLE_6
 73
     1
 44
1.0
  0
MTEXT
  5
39E
330
1B
100
AcDbEntity
 67
     1
  8
9_SOLID
  6
Continuous
 62
     2
100
AcDbMText
 10
311.5029423813
 20
22.5331558006
 30
0.0
 40
3.0
 41
18.2142857143
 46
0.0
 71
     1
 72
     1
  1
Mat.: 
  7
TEXTSTYLE_6
 73
     1
 44
1.0
  0
MTEXT
  5
39F
330
1B
100
AcDbEntity
 67
     1
  8
9_SOLID
  6
Continuous
 62
     2
100
AcDbMText
 10
361.5029423813
 20
22.0331558006
 30
0.0
 40
2.0
 41
42.3571428571
 46
0.0
 71
     1
 72
     1
  1
Disegno per catalogo
  7
TEXTSTYLE_6
 73
     1
 44
1.0
  0
MTEXT
  5
3A0
330
1B
100
AcDbEntity
 67
     1
  8
9_SOLID
  6
Continuous
 62
     2
100
AcDbMText
 10
281.5029423813
 20
16.9331558006
 30
0.0
 40
1.8
 41
175.6928571429
 46
0.0
 71
     1
 72
     1
  1
It: A norma di legge si diffida da qualsiasi riproduzione senza nostra autorizzazione esplicita.
  7
TEXTSTYLE_6
 73
     1
 44
1.0
  0
MTEXT
  5
3A1
330
1B
100
AcDbEntity
 67
     1
  8
9_SOLID
  6
Continuous
 62
     2
100
AcDbMText
 10
281.5029423813
 20
12.9331558006
 30
0.0
 40
1.8
 41
157.6285714286
 46
0.0
 71
     1
 72
     1
  1
En: According to the law, beware of any reproduction made without our authorization.
  7
TEXTSTYLE_6
 73
     1
 44
1.0
  0
ENDSEC
  0
SECTION
  2
OBJECTS
  0
DICTIONARY
  5
3A2
330
0
100
AcDbDictionary
281
     1
  3
ACAD_DETAILVIEWSTYLE
350
3F8
  3
ACAD_GROUP
350
3A3
  3
ACAD_LAYOUT
350
3CB
  3
ACAD_MATERIAL
350
3E7
  3
ACAD_MLEADERSTYLE
350
3ED
  3
ACAD_MLINESTYLE
350
3A4
  3
ACAD_PLOTSETTINGS
350
3A6
  3
ACAD_PLOTSTYLENAME
350
3A7
  3
ACAD_SCALELIST
350
3A9
  3
ACAD_SECTIONVIEWSTYLE
350
3F9
  3
ACAD_TABLESTYLE
350
3EB
  3
ACAD_VISUALSTYLE
350
3CE
  3
ACDB_RECOMPOSE_DATA
350
3F4
  3
AcDbVariableDictionary
350
3F0
  3
APPDATA
350
3EF
  0
DICTIONARY
  5
3F8
102
{ACAD_REACTORS
330
3A2
102
}
330
3A2
100
AcDbDictionary
281
     1
  0
DICTIONARY
  5
3A3
102
{ACAD_REACTORS
330
3A2
102
}
330
3A2
100
AcDbDictionary
281
     1
  0
DICTIONARY
  5
3CB
102
{ACAD_REACTORS
330
3A2
102
}
330
3A2
100
AcDbDictionary
281
     1
  3
Foglio 1
350
3CD
  3
Model
350
3CC
  0
DICTIONARY
  5
3E7
102
{ACAD_REACTORS
330
3A2
102
}
330
3A2
100
AcDbDictionary
281
     1
  3
ByBlock
350
3E9
  3
ByLayer
350
3E8
  3
Global
350
3EA
  0
DICTIONARY
  5
3ED
102
{ACAD_REACTORS
330
3A2
102
}
330
3A2
100
AcDbDictionary
281
     1
  3
Standard
350
3EE
  0
DICTIONARY
  5
3A4
102
{ACAD_REACTORS
330
3A2
102
}
330
3A2
100
AcDbDictionary
281
     1
  3
STANDARD
350
3A5
  0
DICTIONARY
  5
3A6
102
{ACAD_REACTORS
330
3A2
102
}
330
3A2
100
AcDbDictionary
281
     1
  0
ACDBDICTIONARYWDFLT
  5
3A7
102
{ACAD_REACTORS
330
3A2
102
}
330
3A2
100
AcDbDictionary
281
     1
  3
Normal
350
3A8
100
AcDbDictionaryWithDefault
340
3A8
  0
DICTIONARY
  5
3A9
102
{ACAD_REACTORS
330
3A2
102
}
330
3A2
100
AcDbDictionary
281
     1
  3
A0
350
3AA
  3
A1
350
3AB
  3
A2
350
3AC
  3
A3
350
3AD
  3
A4
350
3AE
  3
A5
350
3AF
  3
A6
350
3B0
  3
A7
350
3B1
  3
A8
350
3B2
  3
A9
350
3B3
  3
B0
350
3B4
  3
B1
350
3B5
  3
B2
350
3B6
  3
B3
350
3B7
  3
B4
350
3B8
  3
B5
350
3B9
  3
B6
350
3BA
  3
B7
350
3BB
  3
B8
350
3BC
  3
B9
350
3BD
  3
C0
350
3BE
  3
C1
350
3BF
  3
C2
350
3C0
  3
C3
350
3C1
  3
C4
350
3C2
  3
C5
350
3C3
  3
C6
350
3C4
  3
C7
350
3C5
  3
C8
350
3C6
  3
C9
350
3C7
  3
D0
350
3C8
  3
D1
350
3C9
  3
D2
350
3CA
  0
DICTIONARY
  5
3F9
102
{ACAD_REACTORS
330
3A2
102
}
330
3A2
100
AcDbDictionary
281
     1
  0
DICTIONARY
  5
3EB
102
{ACAD_REACTORS
330
3A2
102
}
330
3A2
100
AcDbDictionary
281
     1
  3
Standard
350
3EC
  0
DICTIONARY
  5
3CE
102
{ACAD_REACTORS
330
3A2
102
}
330
3A2
100
AcDbDictionary
281
     1
  3
2dWireframe
350
3D3
  3
Basic
350
3D6
  3
Brighten
350
3DA
  3
ColorChange
350
3DE
  3
Conceptual
350
3D8
  3
Dim
350
3D9
  3
EdgeColorOff
350
3E1
  3
Facepattern
350
3DD
  3
Flat
350
3CF
  3
FlatWithEdges
350
3D0
  3
Gouraud
350
3D1
  3
GouraudWithEdges
350
3D2
  3
Hidden
350
3D5
  3
JitterOff
350
3DF
  3
Linepattern
350
3DC
  3
OverhangOff
350
3E0
  3
Realistic
350
3D7
  3
Shaded
350
3E6
  3
Shaded with edges
350
3E5
  3
Shades of Gray
350
3E2
  3
Sketchy
350
3E3
  3
Thicken
350
3DB
  3
Wireframe
350
3D4
  3
X-Ray
350
3E4
  0
XRECORD
  5
3F4
102
{ACAD_REACTORS
330
3A2
102
}
330
3A2
100
AcDbXrecord
280
     1
 90
        1
330
3EC
  0
DICTIONARY
  5
3F0
102
{ACAD_REACTORS
330
3A2
102
}
330
3A2
100
AcDbDictionary
281
     1
  3
CANNOSCALE
350
3F1
  3
CMLEADERSTYLE
350
3F6
  3
CTABLESTYLE
350
3F5
  3
MSLTSCALE
350
3F7
  0
DICTIONARY
  5
3EF
102
{ACAD_REACTORS
330
3A2
102
}
330
3A2
100
AcDbDictionary
281
     1
  0
LAYOUT
  5
3CD
102
{ACAD_REACTORS
330
3CB
102
}
330
3CB
100
AcDbPlotSettings
  1

  2
none_device
  4
ISO_A3_(420.00_x_297.00_MM)
  6

 40
7.5
 41
20.0
 42
7.5
 43
20.0
 44
420.0
 45
297.0
 46
0.0
 47
0.0
 48
0.0
 49
0.0
140
0.0
141
0.0
142
1.0
143
1.155642023346303
 70
   688
 72
     1
 73
     0
 74
     1
  7

 75
     0
 76
     0
 77
     2
 78
   300
147
0.8653198653198654
148
0.0
149
0.0
100
AcDbLayout
  1
Foglio 1
 70
     1
 71
     1
 10
0.0
 20
0.0
 11
412.5
 21
277.0
 12
0.0
 22
0.0
 32
0.0
 14
0.0
 24
0.0
 34
0.0
 15
420.0
 25
297.0
 35
0.0
146
0.0
 13
0.0
 23
0.0
 33
0.0
 16
1.0
 26
0.0
 36
0.0
 17
0.0
 27
1.0
 37
0.0
 76
     0
330
1B
331
2B3
  0
LAYOUT
  5
3CC
102
{ACAD_REACTORS
330
3CB
102
}
330
3CB
100
AcDbPlotSettings
  1

  2
none_device
  4
Letter_(8.50_x_11.00_Inches)
  6

 40
6.35
 41
6.35
 42
6.35
 43
6.35
 44
215.9
 45
279.4
 46
0.0
 47
0.0
 48
0.0
 49
0.0
140
0.0
141
0.0
142
1.0
143
52.49999999846251
 70
  1712
 72
     0
 73
     0
 74
     0
  7

 75
     0
 76
     0
 77
     2
 78
   300
147
0.0190476190481769
148
-0.0000001562100806
149
0.0
100
AcDbLayout
  1
Model
 70
     1
 71
     0
 10
0.0
 20
0.0
 11
420.0
 21
297.0
 12
0.0
 22
0.0
 32
0.0
 14
0.0
 24
0.0
 34
0.0
 15
420.0
 25
297.0
 35
0.0
146
0.0
 13
0.0
 23
0.0
 33
0.0
 16
1.0
 26
0.0
 36
0.0
 17
0.0
 27
1.0
 37
0.0
 76
     0
330
1F
331
1F4
  0
MATERIAL
  5
3E9
102
{ACAD_REACTORS
330
3E7
102
}
330
3E7
100
AcDbMaterial
  1
ByBlock
 72
     1
 94
      127
  0
MATERIAL
  5
3E8
102
{ACAD_REACTORS
330
3E7
102
}
330
3E7
100
AcDbMaterial
  1
ByLayer
 72
     1
 94
      127
  0
MATERIAL
  5
3EA
102
{ACAD_REACTORS
330
3E7
102
}
330
3E7
100
AcDbMaterial
  1
Global
 72
     1
 94
      127
  0
MLEADERSTYLE
  5
3EE
102
{ACAD_REACTORS
330
3ED
102
}
330
3ED
100
AcDbMLeaderStyle
179
     2
170
     2
171
     1
172
     0
 90
        2
 40
0.0
 41
0.0
173
     1
 91
-1056964608
340
14
 92
       -2
290
     1
 42
2.0
291
     1
 43
8.0
  3
Standard
341
0
 44
4.0
300

342
11
174
     1
178
     1
175
     1
176
     0
 93
-1056964608
 45
4.0
292
     0
297
     0
 46
4.0
343
0
 94
-1056964608
 47
1.0
 49
1.0
140
1.0
293
     1
141
0.0
294
     1
177
     0
142
1.0
295
     0
296
     0
143
3.75
271
     0
272
     9
273
     9
298
     0
  0
MLINESTYLE
  5
3A5
102
{ACAD_REACTORS
330
3A4
102
}
330
3A4
100
AcDbMlineStyle
  2
STANDARD
 70
     0
  3

 62
   256
 51
90.0
 52
90.0
 71
     2
 49
0.5
 62
   256
  6
BYLAYER
 49
-0.5
 62
   256
  6
BYLAYER
  0
ACDBPLACEHOLDER
  5
3A8
102
{ACAD_REACTORS
330
3A7
102
}
330
3A7
  0
SCALE
  5
3AA
102
{ACAD_REACTORS
330
3A9
102
}
330
3A9
100
AcDbScale
 70
     0
300
1:1
140
1.0
141
1.0
290
     1
  0
SCALE
  5
3AB
102
{ACAD_REACTORS
330
3A9
102
}
330
3A9
100
AcDbScale
 70
     0
300
1:2
140
1.0
141
2.0
290
     0
  0
SCALE
  5
3AC
102
{ACAD_REACTORS
330
3A9
102
}
330
3A9
100
AcDbScale
 70
     0
300
1:4
140
1.0
141
4.0
290
     0
  0
SCALE
  5
3AD
102
{ACAD_REACTORS
330
3A9
102
}
330
3A9
100
AcDbScale
 70
     0
300
1:5
140
1.0
141
5.0
290
     0
  0
SCALE
  5
3AE
102
{ACAD_REACTORS
330
3A9
102
}
330
3A9
100
AcDbScale
 70
     0
300
1:8
140
1.0
141
8.0
290
     0
  0
SCALE
  5
3AF
102
{ACAD_REACTORS
330
3A9
102
}
330
3A9
100
AcDbScale
 70
     0
300
1:10
140
1.0
141
10.0
290
     0
  0
SCALE
  5
3B0
102
{ACAD_REACTORS
330
3A9
102
}
330
3A9
100
AcDbScale
 70
     0
300
1:16
140
1.0
141
16.0
290
     0
  0
SCALE
  5
3B1
102
{ACAD_REACTORS
330
3A9
102
}
330
3A9
100
AcDbScale
 70
     0
300
1:20
140
1.0
141
20.0
290
     0
  0
SCALE
  5
3B2
102
{ACAD_REACTORS
330
3A9
102
}
330
3A9
100
AcDbScale
 70
     0
300
1:30
140
1.0
141
30.0
290
     0
  0
SCALE
  5
3B3
102
{ACAD_REACTORS
330
3A9
102
}
330
3A9
100
AcDbScale
 70
     0
300
1:40
140
1.0
141
40.0
290
     0
  0
SCALE
  5
3B4
102
{ACAD_REACTORS
330
3A9
102
}
330
3A9
100
AcDbScale
 70
     0
300
1:50
140
1.0
141
50.0
290
     0
  0
SCALE
  5
3B5
102
{ACAD_REACTORS
330
3A9
102
}
330
3A9
100
AcDbScale
 70
     0
300
1:100
140
1.0
141
100.0
290
     0
  0
SCALE
  5
3B6
102
{ACAD_REACTORS
330
3A9
102
}
330
3A9
100
AcDbScale
 70
     0
300
2:1
140
2.0
141
1.0
290
     0
  0
SCALE
  5
3B7
102
{ACAD_REACTORS
330
3A9
102
}
330
3A9
100
AcDbScale
 70
     0
300
4:1
140
4.0
141
1.0
290
     0
  0
SCALE
  5
3B8
102
{ACAD_REACTORS
330
3A9
102
}
330
3A9
100
AcDbScale
 70
     0
300
8:1
140
8.0
141
1.0
290
     0
  0
SCALE
  5
3B9
102
{ACAD_REACTORS
330
3A9
102
}
330
3A9
100
AcDbScale
 70
     0
300
10:1
140
10.0
141
1.0
290
     0
  0
SCALE
  5
3BA
102
{ACAD_REACTORS
330
3A9
102
}
330
3A9
100
AcDbScale
 70
     0
300
100:1
140
100.0
141
1.0
290
     0
  0
SCALE
  5
3BB
102
{ACAD_REACTORS
330
3A9
102
}
330
3A9
100
AcDbScale
 70
     0
300
1/128" = 1'-0"
140
0.0078125
141
12.0
290
     0
  0
SCALE
  5
3BC
102
{ACAD_REACTORS
330
3A9
102
}
330
3A9
100
AcDbScale
 70
     0
300
1/64" = 1'-0"
140
0.015625
141
12.0
290
     0
  0
SCALE
  5
3BD
102
{ACAD_REACTORS
330
3A9
102
}
330
3A9
100
AcDbScale
 70
     0
300
1/32" = 1'-0"
140
0.03125
141
12.0
290
     0
  0
SCALE
  5
3BE
102
{ACAD_REACTORS
330
3A9
102
}
330
3A9
100
AcDbScale
 70
     0
300
1/16" = 1'-0"
140
0.0625
141
12.0
290
     0
  0
SCALE
  5
3BF
102
{ACAD_REACTORS
330
3A9
102
}
330
3A9
100
AcDbScale
 70
     0
300
3/32" = 1'-0"
140
0.09375
141
12.0
290
     0
  0
SCALE
  5
3C0
102
{ACAD_REACTORS
330
3A9
102
}
330
3A9
100
AcDbScale
 70
     0
300
1/8" = 1'-0"
140
0.125
141
12.0
290
     0
  0
SCALE
  5
3C1
102
{ACAD_REACTORS
330
3A9
102
}
330
3A9
100
AcDbScale
 70
     0
300
3/16" = 1'-0"
140
0.1875
141
12.0
290
     0
  0
SCALE
  5
3C2
102
{ACAD_REACTORS
330
3A9
102
}
330
3A9
100
AcDbScale
 70
     0
300
1/4" = 1'-0"
140
0.25
141
12.0
290
     0
  0
SCALE
  5
3C3
102
{ACAD_REACTORS
330
3A9
102
}
330
3A9
100
AcDbScale
 70
     0
300
3/8" = 1'-0"
140
0.375
141
12.0
290
     0
  0
SCALE
  5
3C4
102
{ACAD_REACTORS
330
3A9
102
}
330
3A9
100
AcDbScale
 70
     0
300
1/2" = 1'-0"
140
0.5
141
12.0
290
     0
  0
SCALE
  5
3C5
102
{ACAD_REACTORS
330
3A9
102
}
330
3A9
100
AcDbScale
 70
     0
300
3/4" = 1'-0"
140
0.75
141
12.0
290
     0
  0
SCALE
  5
3C6
102
{ACAD_REACTORS
330
3A9
102
}
330
3A9
100
AcDbScale
 70
     0
300
1" = 1'-0"
140
1.0
141
12.0
290
     0
  0
SCALE
  5
3C7
102
{ACAD_REACTORS
330
3A9
102
}
330
3A9
100
AcDbScale
 70
     0
300
1-1/2" = 1'-0"
140
1.5
141
12.0
290
     0
  0
SCALE
  5
3C8
102
{ACAD_REACTORS
330
3A9
102
}
330
3A9
100
AcDbScale
 70
     0
300
3" = 1'-0"
140
3.0
141
12.0
290
     0
  0
SCALE
  5
3C9
102
{ACAD_REACTORS
330
3A9
102
}
330
3A9
100
AcDbScale
 70
     0
300
6" = 1'-0"
140
6.0
141
12.0
290
     0
  0
SCALE
  5
3CA
102
{ACAD_REACTORS
330
3A9
102
}
330
3A9
100
AcDbScale
 70
     0
300
1'-0" = 1'-0"
140
12.0
141
12.0
290
     0
  0
TABLESTYLE
  5
3EC
102
{ACAD_REACTORS
330
3EB
102
}
102
{ACAD_XDICTIONARY
360
3F2
102
}
330
3EB
100
AcDbTableStyle
  3
Standard
 70
     0
 71
     0
 40
0.06
 41
0.06
280
     0
281
     0
  7
STANDARD
140
4.5
170
     2
 62
     0
 63
   257
283
     0
 90
        4
 91
        0
  1

274
    -2
284
     1
 64
     0
275
    -2
285
     1
 65
     0
276
    -2
286
     1
 66
     0
277
    -2
287
     1
 67
     0
278
    -2
288
     1
 68
     0
279
    -2
289
     1
 69
     0
  7
STANDARD
140
6.0
170
     5
 62
     0
 63
   257
283
     0
 90
        4
 91
        0
  1

274
    -2
284
     1
 64
     0
275
    -2
285
     1
 65
     0
276
    -2
286
     1
 66
     0
277
    -2
287
     1
 67
     0
278
    -2
288
     1
 68
     0
279
    -2
289
     1
 69
     0
  7
STANDARD
140
4.5
170
     5
 62
     0
 63
   257
283
     0
 90
        4
 91
        0
  1

274
    -2
284
     1
 64
     0
275
    -2
285
     1
 65
     0
276
    -2
286
     1
 66
     0
277
    -2
287
     1
 67
     0
278
    -2
288
     1
 68
     0
279
    -2
289
     1
 69
     0
  0
VISUALSTYLE
  5
3D3
102
{ACAD_REACTORS
330
3CE
102
}
330
3CE
100
AcDbVisualStyle
  2
2dWireframe
 70
     4
177
     3
291
     0
 70
    58
 90
        0
176
     1
 90
        2
176
     1
 90
        0
176
     1
 90
        0
176
     1
 40
0.6
176
     1
 40
30.0
176
     1
 62
     7
420
 16777215
176
     1
 90
        1
176
     1
 90
        4
176
     1
 62
     7
176
     1
 62
   257
176
     1
 90
        1
176
     1
 90
        1
176
     1
 40
1.0
176
     1
 90
        0
176
     1
 62
   257
176
     1
 40
1.0
176
     1
 90
        1
176
     1
 90
        6
176
     1
 90
        2
176
     1
 62
     7
176
     1
 90
        5
176
     1
 90
        0
176
     1
 90
        0
176
     1
290
     0
176
     1
 90
        1
176
     1
 40
0.0
176
     1
 90
        0
176
     1
290
     1
176
     1
290
     1
176
     1
290
     0
176
     1
290
     0
176
     1
290
     0
176
     1
290
     0
176
     1
290
     0
176
     1
290
     0
176
     1
290
     0
176
     1
 90
       50
176
     1
 40
0.0
176
     1
 40
1.0
176
     1
 90
        0
176
     1
 62
    18
420
        0
176
     1
 90
       50
176
     1
 90
        3
176
     1
 62
     5
420
      255
176
     1
290
     0
176
     1
 90
       50
176
     1
 90
       50
176
     1
 90
       50
176
     1
290
     0
176
     1
 90
       50
176
     1
 62
   256
176
     0
 40
1.0
176
     0
 90
        2
176
     1
  1
strokes_ogs.tif
176
     1
290
     0
176
     1
 40
1.0
176
     1
 40
1.0
176
     1
  0
VISUALSTYLE
  5
3D6
102
{ACAD_REACTORS
330
3CE
102
}
330
3CE
100
AcDbVisualStyle
  2
Basic
 70
     7
177
     3
291
     1
 70
    58
 90
        1
176
     1
 90
        0
176
     1
 90
        1
176
     1
 90
        0
176
     1
 40
0.6
176
     1
 40
30.0
176
     1
 62
     7
420
 16777215
176
     1
 90
        0
176
     1
 90
        4
176
     1
 62
     7
176
     1
 62
   257
176
     1
 90
        1
176
     1
 90
        1
176
     1
 40
1.0
176
     1
 90
        8
176
     1
 62
     7
176
     1
 40
1.0
176
     1
 90
        1
176
     1
 90
        6
176
     1
 90
        2
176
     1
 62
     7
176
     1
 90
        5
176
     1
 90
        0
176
     1
 90
        0
176
     1
290
     0
176
     1
 90
        1
176
     1
 40
0.0
176
     1
 90
        0
176
     1
290
     0
176
     1
290
     1
176
     1
290
     1
176
     1
290
     0
176
     1
290
     0
176
     1
290
     0
176
     1
290
     0
176
     1
290
     0
176
     1
290
     0
176
     1
 90
       50
176
     1
 40
0.0
176
     1
 40
1.0
176
     1
 90
        0
176
     1
 62
    18
420
        0
176
     1
 90
       50
176
     1
 90
        3
176
     1
 62
     5
420
      255
176
     1
290
     0
176
     1
 90
       50
176
     1
 90
       50
176
     1
 90
       50
176
     1
290
     0
176
     1
 90
       50
176
     1
 62
   256
176
     0
 40
1.0
176
     0
 90
        2
176
     1
  1
strokes_ogs.tif
176
     1
290
     0
176
     1
 40
1.0
176
     1
 40
1.0
176
     1
  0
VISUALSTYLE
  5
3DA
102
{ACAD_REACTORS
330
3CE
102
}
330
3CE
100
AcDbVisualStyle
  2
Brighten
 70
    12
177
     3
291
     1
 70
    58
 90
        2
176
     1
 90
        2
176
     1
 90
        0
176
     1
 90
        0
176
     1
 40
0.6
176
     1
 40
30.0
176
     1
 62
     7
420
 16777215
176
     1
 90
        1
176
     1
 90
        4
176
     1
 62
     7
176
     1
 62
   257
176
     1
 90
        1
176
     1
 90
        1
176
     1
 40
1.0
176
     1
 90
        8
176
     1
 62
     7
176
     1
 40
1.0
176
     1
 90
        1
176
     1
 90
        6
176
     1
 90
        2
176
     1
 62
     7
176
     1
 90
        5
176
     1
 90
        0
176
     1
 90
        0
176
     1
290
     0
176
     1
 90
        1
176
     1
 40
50.0
176
     1
 90
        0
176
     1
290
     0
176
     1
290
     1
176
     1
290
     1
176
     1
290
     0
176
     1
290
     0
176
     1
290
     0
176
     1
290
     0
176
     1
290
     0
176
     1
290
     0
176
     1
 90
       50
176
     1
 40
0.0
176
     1
 40
1.0
176
     1
 90
        0
176
     1
 62
    18
420
        0
176
     1
 90
       50
176
     1
 90
        3
176
     1
 62
     5
420
      255
176
     1
290
     0
176
     1
 90
       50
176
     1
 90
       50
176
     1
 90
       50
176
     1
290
     0
176
     1
 90
       50
176
     1
 62
   256
176
     0
 40
1.0
176
     0
 90
        2
176
     1
  1
strokes_ogs.tif
176
     1
290
     0
176
     1
 40
1.0
176
     1
 40
1.0
176
     1
  0
VISUALSTYLE
  5
3DE
102
{ACAD_REACTORS
330
3CE
102
}
330
3CE
100
AcDbVisualStyle
  2
ColorChange
 70
    16
177
     3
291
     1
 70
    58
 90
        2
176
     1
 90
        2
176
     1
 90
        3
176
     1
 90
        0
176
     1
 40
0.6
176
     1
 40
30.0
176
     1
 62
     8
420
  8421504
176
     1
 90
        1
176
     1
 90
        4
176
     1
 62
     7
176
     1
 62
   257
176
     1
 90
        1
176
     1
 90
        1
176
     1
 40
1.0
176
     1
 90
        8
176
     1
 62
     8
420
  8421504
176
     1
 40
1.0
176
     1
 90
        1
176
     1
 90
        6
176
     1
 90
        2
176
     1
 62
     7
176
     1
 90
        5
176
     1
 90
        0
176
     1
 90
        0
176
     1
290
     0
176
     1
 90
        1
176
     1
 40
0.0
176
     1
 90
        0
176
     1
290
     0
176
     1
290
     1
176
     1
290
     1
176
     1
290
     0
176
     1
290
     0
176
     1
290
     0
176
     1
290
     0
176
     1
290
     0
176
     1
290
     0
176
     1
 90
       50
176
     1
 40
0.0
176
     1
 40
1.0
176
     1
 90
        0
176
     1
 62
    18
420
        0
176
     1
 90
       50
176
     1
 90
        3
176
     1
 62
     5
420
      255
176
     1
290
     0
176
     1
 90
       50
176
     1
 90
       50
176
     1
 90
       50
176
     1
290
     0
176
     1
 90
       50
176
     1
 62
   256
176
     0
 40
1.0
176
     0
 90
        2
176
     1
  1
strokes_ogs.tif
176
     1
290
     0
176
     1
 40
1.0
176
     1
 40
1.0
176
     1
  0
VISUALSTYLE
  5
3D8
102
{ACAD_REACTORS
330
3CE
102
}
330
3CE
100
AcDbVisualStyle
  2
Conceptual
 70
     9
177
     3
291
     0
 70
    58
 90
        3
176
     1
 90
        2
176
     1
 90
        0
176
     1
 90
        0
176
     1
 40
0.6
176
     1
 40
30.0
176
     1
 62
     7
420
 16777215
176
     1
 90
        2
176
     1
 90
        2
176
     1
 62
     7
176
     1
 62
   257
176
     1
 90
        1
176
     1
 90
        1
176
     1
 40
179.0
176
     1
 90
        8
176
     1
 62
     7
176
     1
 40
1.0
176
     1
 90
        1
176
     1
 90
        6
176
     1
 90
        2
176
     1
 62
     7
176
     1
 90
        3
176
     1
 90
        0
176
     1
 90
        0
176
     1
290
     0
176
     1
 90
        1
176
     1
 40
0.0
176
     1
 90
        0
176
     1
290
     0
176
     1
290
     1
176
     1
290
     1
176
     1
290
     0
176
     1
290
     0
176
     1
290
     0
176
     1
290
     0
176
     1
290
     0
176
     1
290
     0
176
     1
 90
       50
176
     1
 40
0.0
176
     1
 40
1.0
176
     1
 90
        0
176
     1
 62
    18
420
        0
176
     1
 90
       50
176
     1
 90
        3
176
     1
 62
     5
420
      255
176
     1
290
     0
176
     1
 90
       50
176
     1
 90
       50
176
     1
 90
       50
176
     1
290
     0
176
     1
 90
       50
176
     1
 62
   256
176
     0
 40
1.0
176
     0
 90
        2
176
     1
  1
strokes_ogs.tif
176
     1
290
     0
176
     1
 40
1.0
176
     1
 40
1.0
176
     1
  0
VISUALSTYLE
  5
3D9
102
{ACAD_REACTORS
330
3CE
102
}
330
3CE
100
AcDbVisualStyle
  2
Dim
 70
    11
177
     3
291
     1
 70
    58
 90
        2
176
     1
 90
        2
176
     1
 90
        0
176
     1
 90
        0
176
     1
 40
0.6
176
     1
 40
30.0
176
     1
 62
     7
420
 16777215
176
     1
 90
        1
176
     1
 90
        4
176
     1
 62
     7
176
     1
 62
   257
176
     1
 90
        1
176
     1
 90
        1
176
     1
 40
1.0
176
     1
 90
        8
176
     1
 62
     7
176
     1
 40
1.0
176
     1
 90
        1
176
     1
 90
        6
176
     1
 90
        2
176
     1
 62
     7
176
     1
 90
        5
176
     1
 90
        0
176
     1
 90
        0
176
     1
290
     0
176
     1
 90
        1
176
     1
 40
-50.0
176
     1
 90
        0
176
     1
290
     0
176
     1
290
     1
176
     1
290
     1
176
     1
290
     0
176
     1
290
     0
176
     1
290
     0
176
     1
290
     0
176
     1
290
     0
176
     1
290
     0
176
     1
 90
       50
176
     1
 40
0.0
176
     1
 40
1.0
176
     1
 90
        0
176
     1
 62
    18
420
        0
176
     1
 90
       50
176
     1
 90
        3
176
     1
 62
     5
420
      255
176
     1
290
     0
176
     1
 90
       50
176
     1
 90
       50
176
     1
 90
       50
176
     1
290
     0
176
     1
 90
       50
176
     1
 62
   256
176
     0
 40
1.0
176
     0
 90
        2
176
     1
  1
strokes_ogs.tif
176
     1
290
     0
176
     1
 40
1.0
176
     1
 40
1.0
176
     1
  0
VISUALSTYLE
  5
3E1
102
{ACAD_REACTORS
330
3CE
102
}
330
3CE
100
AcDbVisualStyle
  2
EdgeColorOff
 70
    22
177
     3
291
     1
 70
    58
 90
        2
176
     0
 90
        2
176
     0
 90
        0
176
     0
 90
        0
176
     0
 40
0.6
176
     0
 40
30.0
176
     0
 62
     7
420
 16777215
176
     0
 90
        1
176
     0
 90
        4
176
     0
 62
     7
176
     0
 62
   257
176
     0
 90
        1
176
     0
 90
        1
176
     0
 40
1.0
176
     0
 90
        8
176
     2
 62
     7
176
     0
 40
1.0
176
     0
 90
        1
176
     0
 90
        6
176
     0
 90
        2
176
     0
 62
     7
176
     0
 90
        5
176
     0
 90
        0
176
     0
 90
        0
176
     0
290
     0
176
     0
 90
        1
176
     0
 40
0.0
176
     0
 90
        0
176
     0
290
     0
176
     0
290
     1
176
     0
290
     1
176
     0
290
     0
176
     0
290
     0
176
     0
290
     0
176
     0
290
     0
176
     0
290
     0
176
     0
290
     0
176
     0
 90
       50
176
     0
 40
0.0
176
     0
 40
1.0
176
     0
 90
        0
176
     0
 62
    18
420
        0
176
     0
 90
       50
176
     0
 90
        3
176
     0
 62
     5
420
      255
176
     0
290
     0
176
     0
 90
       50
176
     0
 90
       50
176
     0
 90
       50
176
     0
290
     0
176
     0
 90
       50
176
     0
 62
   256
176
     0
 40
1.0
176
     0
 90
        2
176
     0
  1
strokes_ogs.tif
176
     0
290
     0
176
     0
 40
1.0
176
     0
 40
1.0
176
     0
  0
VISUALSTYLE
  5
3DD
102
{ACAD_REACTORS
330
3CE
102
}
330
3CE
100
AcDbVisualStyle
  2
Facepattern
 70
    15
177
     3
291
     1
 70
    58
 90
        2
176
     1
 90
        2
176
     1
 90
        0
176
     1
 90
        0
176
     1
 40
0.6
176
     1
 40
30.0
176
     1
 62
     7
420
 16777215
176
     1
 90
        1
176
     1
 90
        4
176
     1
 62
     7
176
     1
 62
   257
176
     1
 90
        1
176
     1
 90
        1
176
     1
 40
1.0
176
     1
 90
        8
176
     1
 62
     7
176
     1
 40
1.0
176
     1
 90
        1
176
     1
 90
        6
176
     1
 90
        2
176
     1
 62
     7
176
     1
 90
        5
176
     1
 90
        0
176
     1
 90
        0
176
     1
290
     0
176
     1
 90
        1
176
     1
 40
0.0
176
     1
 90
        0
176
     1
290
     0
176
     1
290
     1
176
     1
290
     1
176
     1
290
     0
176
     1
290
     0
176
     1
290
     0
176
     1
290
     0
176
     1
290
     0
176
     1
290
     0
176
     1
 90
       50
176
     1
 40
0.0
176
     1
 40
1.0
176
     1
 90
        0
176
     1
 62
    18
420
        0
176
     1
 90
       50
176
     1
 90
        3
176
     1
 62
     5
420
      255
176
     1
290
     0
176
     1
 90
       50
176
     1
 90
       50
176
     1
 90
       50
176
     1
290
     0
176
     1
 90
       50
176
     1
 62
   256
176
     0
 40
1.0
176
     0
 90
        2
176
     1
  1
strokes_ogs.tif
176
     1
290
     0
176
     1
 40
1.0
176
     1
 40
1.0
176
     1
  0
VISUALSTYLE
  5
3CF
102
{ACAD_REACTORS
330
3CE
102
}
330
3CE
100
AcDbVisualStyle
  2
Flat
 70
     0
177
     3
291
     1
 70
    58
 90
        2
176
     1
 90
        1
176
     1
 90
        1
176
     1
 90
        2
176
     1
 40
0.6
176
     1
 40
30.0
176
     1
 62
     7
420
 16777215
176
     1
 90
        0
176
     1
 90
        0
176
     1
 62
     7
176
     1
 62
   257
176
     1
 90
        1
176
     1
 90
        1
176
     1
 40
1.0
176
     1
 90
        8
176
     1
 62
     7
176
     1
 40
1.0
176
     1
 90
        1
176
     1
 90
        6
176
     1
 90
        2
176
     1
 62
     7
176
     1
 90
        5
176
     1
 90
        0
176
     1
 90
        0
176
     1
290
     0
176
     1
 90
       13
176
     1
 40
0.0
176
     1
 90
        0
176
     1
290
     0
176
     1
290
     1
176
     1
290
     1
176
     1
290
     0
176
     1
290
     0
176
     1
290
     0
176
     1
290
     0
176
     1
290
     0
176
     1
290
     0
176
     1
 90
       50
176
     1
 40
0.0
176
     1
 40
1.0
176
     1
 90
        0
176
     1
 62
    18
420
        0
176
     1
 90
       50
176
     1
 90
        3
176
     1
 62
     5
420
      255
176
     1
290
     0
176
     1
 90
       50
176
     1
 90
       50
176
     1
 90
       50
176
     1
290
     0
176
     1
 90
       50
176
     1
 62
   256
176
     0
 40
1.0
176
     0
 90
        2
176
     1
  1
strokes_ogs.tif
176
     1
290
     0
176
     1
 40
1.0
176
     1
 40
1.0
176
     1
  0
VISUALSTYLE
  5
3D0
102
{ACAD_REACTORS
330
3CE
102
}
330
3CE
100
AcDbVisualStyle
  2
FlatWithEdges
 70
     1
177
     3
291
     1
 70
    58
 90
        2
176
     1
 90
        1
176
     1
 90
        1
176
     1
 90
        2
176
     1
 40
0.6
176
     1
 40
30.0
176
     1
 62
     7
420
 16777215
176
     1
 90
        1
176
     1
 90
        0
176
     1
 62
     7
176
     1
 62
   257
176
     1
 90
        1
176
     1
 90
        1
176
     1
 40
1.0
176
     1
 90
        0
176
     1
 62
   257
176
     1
 40
1.0
176
     1
 90
        1
176
     1
 90
        6
176
     1
 90
        2
176
     1
 62
     7
176
     1
 90
        5
176
     1
 90
        0
176
     1
 90
        0
176
     1
290
     0
176
     1
 90
       13
176
     1
 40
0.0
176
     1
 90
        0
176
     1
290
     0
176
     1
290
     1
176
     1
290
     1
176
     1
290
     0
176
     1
290
     0
176
     1
290
     0
176
     1
290
     0
176
     1
290
     0
176
     1
290
     0
176
     1
 90
       50
176
     1
 40
0.0
176
     1
 40
1.0
176
     1
 90
        0
176
     1
 62
    18
420
        0
176
     1
 90
       50
176
     1
 90
        3
176
     1
 62
     5
420
      255
176
     1
290
     0
176
     1
 90
       50
176
     1
 90
       50
176
     1
 90
       50
176
     1
290
     0
176
     1
 90
       50
176
     1
 62
   256
176
     0
 40
1.0
176
     0
 90
        2
176
     1
  1
strokes_ogs.tif
176
     1
290
     0
176
     1
 40
1.0
176
     1
 40
1.0
176
     1
  0
VISUALSTYLE
  5
3D1
102
{ACAD_REACTORS
330
3CE
102
}
330
3CE
100
AcDbVisualStyle
  2
Gouraud
 70
     2
177
     3
291
     1
 70
    58
 90
        2
176
     1
 90
        2
176
     1
 90
        1
176
     1
 90
        2
176
     1
 40
0.6
176
     1
 40
30.0
176
     1
 62
     7
420
 16777215
176
     1
 90
        0
176
     1
 90
        0
176
     1
 62
     7
176
     1
 62
   257
176
     1
 90
        1
176
     1
 90
        1
176
     1
 40
1.0
176
     1
 90
        0
176
     1
 62
     7
176
     1
 40
1.0
176
     1
 90
        1
176
     1
 90
        6
176
     1
 90
        2
176
     1
 62
     7
176
     1
 90
        5
176
     1
 90
        0
176
     1
 90
        0
176
     1
290
     0
176
     1
 90
       13
176
     1
 40
0.0
176
     1
 90
        0
176
     1
290
     0
176
     1
290
     1
176
     1
290
     1
176
     1
290
     0
176
     1
290
     0
176
     1
290
     0
176
     1
290
     0
176
     1
290
     0
176
     1
290
     0
176
     1
 90
       50
176
     1
 40
0.0
176
     1
 40
1.0
176
     1
 90
        0
176
     1
 62
    18
420
        0
176
     1
 90
       50
176
     1
 90
        3
176
     1
 62
     5
420
      255
176
     1
290
     0
176
     1
 90
       50
176
     1
 90
       50
176
     1
 90
       50
176
     1
290
     0
176
     1
 90
       50
176
     1
 62
   256
176
     0
 40
1.0
176
     0
 90
        2
176
     1
  1
strokes_ogs.tif
176
     1
290
     0
176
     1
 40
1.0
176
     1
 40
1.0
176
     1
  0
VISUALSTYLE
  5
3D2
102
{ACAD_REACTORS
330
3CE
102
}
330
3CE
100
AcDbVisualStyle
  2
GouraudWithEdges
 70
     3
177
     3
291
     1
 70
    58
 90
        2
176
     1
 90
        2
176
     1
 90
        1
176
     1
 90
        2
176
     1
 40
0.6
176
     1
 40
30.0
176
     1
 62
     7
420
 16777215
176
     1
 90
        1
176
     1
 90
        0
176
     1
 62
     7
176
     1
 62
   257
176
     1
 90
        1
176
     1
 90
        1
176
     1
 40
1.0
176
     1
 90
        0
176
     1
 62
   257
176
     1
 40
1.0
176
     1
 90
        1
176
     1
 90
        6
176
     1
 90
        2
176
     1
 62
     7
176
     1
 90
        5
176
     1
 90
        0
176
     1
 90
        0
176
     1
290
     0
176
     1
 90
       13
176
     1
 40
0.0
176
     1
 90
        0
176
     1
290
     0
176
     1
290
     1
176
     1
290
     1
176
     1
290
     0
176
     1
290
     0
176
     1
290
     0
176
     1
290
     0
176
     1
290
     0
176
     1
290
     0
176
     1
 90
       50
176
     1
 40
0.0
176
     1
 40
1.0
176
     1
 90
        0
176
     1
 62
    18
420
        0
176
     1
 90
       50
176
     1
 90
        3
176
     1
 62
     5
420
      255
176
     1
290
     0
176
     1
 90
       50
176
     1
 90
       50
176
     1
 90
       50
176
     1
290
     0
176
     1
 90
       50
176
     1
 62
   256
176
     0
 40
1.0
176
     0
 90
        2
176
     1
  1
strokes_ogs.tif
176
     1
290
     0
176
     1
 40
1.0
176
     1
 40
1.0
176
     1
  0
VISUALSTYLE
  5
3D5
102
{ACAD_REACTORS
330
3CE
102
}
330
3CE
100
AcDbVisualStyle
  2
Hidden
 70
     6
177
     3
291
     0
 70
    58
 90
        1
176
     1
 90
        2
176
     1
 90
        2
176
     1
 90
        0
176
     1
 40
0.6
176
     1
 40
30.0
176
     1
 62
     7
420
 16777215
176
     1
 90
        2
176
     1
 90
        2
176
     1
 62
     7
176
     1
 62
   257
176
     1
 90
        2
176
     1
 90
        1
176
     1
 40
40.0
176
     1
 90
        0
176
     1
 62
   257
176
     1
 40
1.0
176
     1
 90
        1
176
     1
 90
        6
176
     1
 90
        2
176
     1
 62
     7
176
     1
 90
        3
176
     1
 90
        0
176
     1
 90
        0
176
     1
290
     0
176
     1
 90
        1
176
     1
 40
0.0
176
     1
 90
        0
176
     1
290
     0
176
     1
290
     1
176
     1
290
     1
176
     1
290
     0
176
     1
290
     0
176
     1
290
     0
176
     1
290
     0
176
     1
290
     0
176
     1
290
     0
176
     1
 90
       50
176
     1
 40
0.0
176
     1
 40
1.0
176
     1
 90
        0
176
     1
 62
    18
420
        0
176
     1
 90
       50
176
     1
 90
        3
176
     1
 62
     5
420
      255
176
     1
290
     0
176
     1
 90
       50
176
     1
 90
       50
176
     1
 90
       50
176
     1
290
     0
176
     1
 90
       50
176
     1
 62
   256
176
     0
 40
1.0
176
     0
 90
        2
176
     1
  1
strokes_ogs.tif
176
     1
290
     0
176
     1
 40
1.0
176
     1
 40
1.0
176
     1
  0
VISUALSTYLE
  5
3DF
102
{ACAD_REACTORS
330
3CE
102
}
330
3CE
100
AcDbVisualStyle
  2
JitterOff
 70
    20
177
     3
291
     1
 70
    58
 90
        2
176
     0
 90
        2
176
     0
 90
        0
176
     0
 90
        0
176
     0
 40
0.6
176
     0
 40
30.0
176
     0
 62
     7
420
 16777215
176
     0
 90
        1
176
     0
 90
        4
176
     0
 62
     7
176
     0
 62
   257
176
     0
 90
        1
176
     0
 90
        1
176
     0
 40
1.0
176
     0
 90
       10
176
     2
 62
     7
176
     0
 40
1.0
176
     0
 90
        1
176
     0
 90
        6
176
     0
 90
        2
176
     0
 62
     7
176
     0
 90
        5
176
     0
 90
        0
176
     0
 90
        0
176
     0
290
     0
176
     0
 90
        1
176
     0
 40
0.0
176
     0
 90
        0
176
     0
290
     0
176
     0
290
     1
176
     0
290
     1
176
     0
290
     0
176
     0
290
     0
176
     0
290
     0
176
     0
290
     0
176
     0
290
     0
176
     0
290
     0
176
     0
 90
       50
176
     0
 40
0.0
176
     0
 40
1.0
176
     0
 90
        0
176
     0
 62
    18
420
        0
176
     0
 90
       50
176
     0
 90
        3
176
     0
 62
     5
420
      255
176
     0
290
     0
176
     0
 90
       50
176
     0
 90
       50
176
     0
 90
       50
176
     0
290
     0
176
     0
 90
       50
176
     0
 62
   256
176
     0
 40
1.0
176
     0
 90
        2
176
     0
  1
strokes_ogs.tif
176
     0
290
     0
176
     0
 40
1.0
176
     0
 40
1.0
176
     0
  0
VISUALSTYLE
  5
3DC
102
{ACAD_REACTORS
330
3CE
102
}
330
3CE
100
AcDbVisualStyle
  2
Linepattern
 70
    14
177
     3
291
     1
 70
    58
 90
        2
176
     1
 90
        2
176
     1
 90
        0
176
     1
 90
        0
176
     1
 40
0.6
176
     1
 40
30.0
176
     1
 62
     7
420
 16777215
176
     1
 90
        1
176
     1
 90
        4
176
     1
 62
     7
176
     1
 62
   257
176
     1
 90
        7
176
     1
 90
        7
176
     1
 40
1.0
176
     1
 90
        8
176
     1
 62
     7
176
     1
 40
1.0
176
     1
 90
        1
176
     1
 90
        6
176
     1
 90
        2
176
     1
 62
     7
176
     1
 90
        5
176
     1
 90
        0
176
     1
 90
        0
176
     1
290
     0
176
     1
 90
        1
176
     1
 40
0.0
176
     1
 90
        0
176
     1
290
     0
176
     1
290
     1
176
     1
290
     1
176
     1
290
     0
176
     1
290
     0
176
     1
290
     0
176
     1
290
     0
176
     1
290
     0
176
     1
290
     0
176
     1
 90
       50
176
     1
 40
0.0
176
     1
 40
1.0
176
     1
 90
        0
176
     1
 62
    18
420
        0
176
     1
 90
       50
176
     1
 90
        3
176
     1
 62
     5
420
      255
176
     1
290
     0
176
     1
 90
       50
176
     1
 90
       50
176
     1
 90
       50
176
     1
290
     0
176
     1
 90
       50
176
     1
 62
   256
176
     0
 40
1.0
176
     0
 90
        2
176
     1
  1
strokes_ogs.tif
176
     1
290
     0
176
     1
 40
1.0
176
     1
 40
1.0
176
     1
  0
VISUALSTYLE
  5
3E0
102
{ACAD_REACTORS
330
3CE
102
}
330
3CE
100
AcDbVisualStyle
  2
OverhangOff
 70
    21
177
     3
291
     1
 70
    58
 90
        2
176
     0
 90
        2
176
     0
 90
        0
176
     0
 90
        0
176
     0
 40
0.6
176
     0
 40
30.0
176
     0
 62
     7
420
 16777215
176
     0
 90
        1
176
     0
 90
        4
176
     0
 62
     7
176
     0
 62
   257
176
     0
 90
        1
176
     0
 90
        1
176
     0
 40
1.0
176
     0
 90
        9
176
     2
 62
     7
176
     0
 40
1.0
176
     0
 90
        1
176
     0
 90
        6
176
     0
 90
        2
176
     0
 62
     7
176
     0
 90
        5
176
     0
 90
        0
176
     0
 90
        0
176
     0
290
     0
176
     0
 90
        1
176
     0
 40
0.0
176
     0
 90
        0
176
     0
290
     0
176
     0
290
     1
176
     0
290
     1
176
     0
290
     0
176
     0
290
     0
176
     0
290
     0
176
     0
290
     0
176
     0
290
     0
176
     0
290
     0
176
     0
 90
       50
176
     0
 40
0.0
176
     0
 40
1.0
176
     0
 90
        0
176
     0
 62
    18
420
        0
176
     0
 90
       50
176
     0
 90
        3
176
     0
 62
     5
420
      255
176
     0
290
     0
176
     0
 90
       50
176
     0
 90
       50
176
     0
 90
       50
176
     0
290
     0
176
     0
 90
       50
176
     0
 62
   256
176
     0
 40
1.0
176
     0
 90
        2
176
     0
  1
strokes_ogs.tif
176
     0
290
     0
176
     0
 40
1.0
176
     0
 40
1.0
176
     0
  0
VISUALSTYLE
  5
3D7
102
{ACAD_REACTORS
330
3CE
102
}
330
3CE
100
AcDbVisualStyle
  2
Realistic
 70
     8
177
     3
291
     0
 70
    58
 90
        2
176
     1
 90
        3
176
     1
 90
        0
176
     1
 90
        2
176
     1
 40
0.6
176
     1
 40
30.0
176
     1
 62
     7
420
 16777215
176
     1
 90
        0
176
     1
 90
        0
176
     1
 62
     7
176
     1
 62
   257
176
     1
 90
        1
176
     1
 90
        1
176
     1
 40
1.0
176
     1
 90
        8
176
     1
 62
   257
176
     1
 40
1.0
176
     1
 90
        1
176
     1
 90
        6
176
     1
 90
        2
176
     1
 62
     7
176
     1
 90
        3
176
     1
 90
        0
176
     1
 90
        0
176
     1
290
     0
176
     1
 90
       13
176
     1
 40
0.0
176
     1
 90
        0
176
     1
290
     0
176
     1
290
     1
176
     1
290
     1
176
     1
290
     0
176
     1
290
     0
176
     1
290
     0
176
     1
290
     0
176
     1
290
     0
176
     1
290
     0
176
     1
 90
       50
176
     1
 40
0.0
176
     1
 40
1.0
176
     1
 90
        0
176
     1
 62
    18
420
        0
176
     1
 90
       50
176
     1
 90
        3
176
     1
 62
     5
420
      255
176
     1
290
     0
176
     1
 90
       50
176
     1
 90
       50
176
     1
 90
       50
176
     1
290
     0
176
     1
 90
       50
176
     1
 62
   256
176
     0
 40
1.0
176
     0
 90
        2
176
     1
  1
strokes_ogs.tif
176
     1
290
     0
176
     1
 40
1.0
176
     1
 40
1.0
176
     1
  0
VISUALSTYLE
  5
3E6
102
{ACAD_REACTORS
330
3CE
102
}
330
3CE
100
AcDbVisualStyle
  2
Shaded
 70
    27
177
     3
291
     0
 70
    58
 90
        2
176
     1
 90
        2
176
     1
 90
        1
176
     1
 90
        2
176
     1
 40
0.6
176
     1
 40
30.0
176
     1
 62
     7
420
 16777215
176
     1
 90
        0
176
     1
 90
        4
176
     1
 62
     7
176
     1
 62
   257
176
     1
 90
        1
176
     1
 90
        1
176
     1
 40
1.0
176
     1
 90
        8
176
     1
 62
   257
176
     1
 40
1.0
176
     1
 90
        1
176
     1
 90
        6
176
     1
 90
        2
176
     1
 62
     8
420
  7895160
176
     1
 90
        3
176
     1
 90
        0
176
     1
 90
        0
176
     1
290
     0
176
     1
 90
        5
176
     1
 40
0.0
176
     1
 90
        0
176
     1
290
     0
176
     1
290
     1
176
     1
290
     1
176
     1
290
     0
176
     1
290
     0
176
     1
290
     0
176
     1
290
     0
176
     1
290
     0
176
     1
290
     0
176
     1
 90
       50
176
     1
 40
0.0
176
     1
 40
1.0
176
     1
 90
        0
176
     1
 62
    18
420
        0
176
     1
 90
       50
176
     1
 90
        3
176
     1
 62
     5
420
      255
176
     1
290
     0
176
     1
 90
       50
176
     1
 90
       50
176
     1
 90
       50
176
     1
290
     0
176
     1
 90
       50
176
     1
 62
   256
176
     0
 40
1.0
176
     0
 90
        2
176
     1
  1
strokes_ogs.tif
176
     1
290
     0
176
     1
 40
1.0
176
     1
 40
1.0
176
     1
  0
VISUALSTYLE
  5
3E5
102
{ACAD_REACTORS
330
3CE
102
}
330
3CE
100
AcDbVisualStyle
  2
Shaded with edges
 70
    26
177
     3
291
     0
 70
    58
 90
        2
176
     1
 90
        2
176
     1
 90
        1
176
     1
 90
        2
176
     1
 40
0.6
176
     1
 40
30.0
176
     1
 62
     7
420
 16777215
176
     1
 90
        1
176
     1
 90
       10
176
     1
 62
     7
176
     1
 62
   257
176
     1
 90
        2
176
     1
 90
        1
176
     1
 40
1.0
176
     1
 90
        8
176
     1
 62
   257
176
     1
 40
1.0
176
     1
 90
        1
176
     1
 90
        6
176
     1
 90
        2
176
     1
 62
     7
176
     1
 90
        3
176
     1
 90
        0
176
     1
 90
        0
176
     1
290
     0
176
     1
 90
        5
176
     1
 40
0.0
176
     1
 90
        0
176
     1
290
     0
176
     1
290
     1
176
     1
290
     1
176
     1
290
     0
176
     1
290
     0
176
     1
290
     0
176
     1
290
     0
176
     1
290
     0
176
     1
290
     0
176
     1
 90
       50
176
     1
 40
0.0
176
     1
 40
1.0
176
     1
 90
        0
176
     1
 62
    18
420
        0
176
     1
 90
       50
176
     1
 90
        3
176
     1
 62
     5
420
      255
176
     1
290
     0
176
     1
 90
       50
176
     1
 90
       50
176
     1
 90
       50
176
     1
290
     0
176
     1
 90
       50
176
     1
 62
   256
176
     0
 40
1.0
176
     0
 90
        2
176
     1
  1
strokes_ogs.tif
176
     1
290
     0
176
     1
 40
1.0
176
     1
 40
1.0
176
     1
  0
VISUALSTYLE
  5
3E2
102
{ACAD_REACTORS
330
3CE
102
}
330
3CE
100
AcDbVisualStyle
  2
Shades of Gray
 70
    23
177
     3
291
     0
 70
    58
 90
        2
176
     1
 90
        2
176
     1
 90
        3
176
     1
 90
        0
176
     1
 40
0.6
176
     1
 40
30.0
176
     1
 62
     7
420
 16777215
176
     1
 90
        2
176
     1
 90
        2
176
     1
 62
     7
176
     1
 62
     7
176
     1
 90
        1
176
     1
 90
        1
176
     1
 40
40.0
176
     1
 90
        8
176
     1
 62
     7
176
     1
 40
1.0
176
     1
 90
        1
176
     1
 90
        6
176
     1
 90
        2
176
     1
 62
     7
176
     1
 90
        3
176
     1
 90
        0
176
     1
 90
        0
176
     1
290
     0
176
     1
 90
        1
176
     1
 40
0.0
176
     1
 90
        0
176
     1
290
     0
176
     1
290
     1
176
     1
290
     1
176
     1
290
     0
176
     1
290
     0
176
     1
290
     0
176
     1
290
     0
176
     1
290
     0
176
     1
290
     0
176
     1
 90
       50
176
     1
 40
0.0
176
     1
 40
1.0
176
     1
 90
        0
176
     1
 62
    18
420
        0
176
     1
 90
       50
176
     1
 90
        3
176
     1
 62
     5
420
      255
176
     1
290
     0
176
     1
 90
       50
176
     1
 90
       50
176
     1
 90
       50
176
     1
290
     0
176
     1
 90
       50
176
     1
 62
   256
176
     0
 40
1.0
176
     0
 90
        2
176
     1
  1
strokes_ogs.tif
176
     1
290
     0
176
     1
 40
1.0
176
     1
 40
1.0
176
     1
  0
VISUALSTYLE
  5
3E3
102
{ACAD_REACTORS
330
3CE
102
}
330
3CE
100
AcDbVisualStyle
  2
Sketchy
 70
    24
177
     3
291
     0
 70
    58
 90
        1
176
     1
 90
        2
176
     1
 90
        2
176
     1
 90
        0
176
     1
 40
0.6
176
     1
 40
30.0
176
     1
 62
     7
420
 16777215
176
     1
 90
        2
176
     1
 90
        2
176
     1
 62
     7
176
     1
 62
     7
176
     1
 90
        1
176
     1
 90
        1
176
     1
 40
40.0
176
     1
 90
       11
176
     1
 62
     7
176
     1
 40
1.0
176
     1
 90
        1
176
     1
 90
        6
176
     1
 90
        2
176
     1
 62
     7
176
     1
 90
        6
176
     1
 90
        0
176
     1
 90
        0
176
     1
290
     0
176
     1
 90
        1
176
     1
 40
0.0
176
     1
 90
        0
176
     1
290
     0
176
     1
290
     1
176
     1
290
     1
176
     1
290
     0
176
     1
290
     0
176
     1
290
     0
176
     1
290
     0
176
     1
290
     0
176
     1
290
     0
176
     1
 90
       50
176
     1
 40
0.0
176
     1
 40
1.0
176
     1
 90
        0
176
     1
 62
    18
420
        0
176
     1
 90
       50
176
     1
 90
        3
176
     1
 62
     5
420
      255
176
     1
290
     0
176
     1
 90
       50
176
     1
 90
       50
176
     1
 90
       50
176
     1
290
     0
176
     1
 90
       50
176
     1
 62
   256
176
     0
 40
1.0
176
     0
 90
        2
176
     1
  1
strokes_ogs.tif
176
     1
290
     0
176
     1
 40
1.0
176
     1
 40
1.0
176
     1
  0
VISUALSTYLE
  5
3DB
102
{ACAD_REACTORS
330
3CE
102
}
330
3CE
100
AcDbVisualStyle
  2
Thicken
 70
    13
177
     3
291
     1
 70
    58
 90
        2
176
     1
 90
        2
176
     1
 90
        0
176
     1
 90
        0
176
     1
 40
0.6
176
     1
 40
30.0
176
     1
 62
     7
420
 16777215
176
     1
 90
        1
176
     1
 90
        4
176
     1
 62
     7
176
     1
 62
   257
176
     1
 90
        1
176
     1
 90
        1
176
     1
 40
1.0
176
     1
 90
       12
176
     1
 62
     7
176
     1
 40
1.0
176
     1
 90
        1
176
     1
 90
        6
176
     1
 90
        2
176
     1
 62
     7
176
     1
 90
        5
176
     1
 90
        0
176
     1
 90
        0
176
     1
290
     0
176
     1
 90
        1
176
     1
 40
0.0
176
     1
 90
        0
176
     1
290
     0
176
     1
290
     1
176
     1
290
     1
176
     1
290
     0
176
     1
290
     0
176
     1
290
     0
176
     1
290
     0
176
     1
290
     0
176
     1
290
     0
176
     1
 90
       50
176
     1
 40
0.0
176
     1
 40
1.0
176
     1
 90
        0
176
     1
 62
    18
420
        0
176
     1
 90
       50
176
     1
 90
        3
176
     1
 62
     5
420
      255
176
     1
290
     0
176
     1
 90
       50
176
     1
 90
       50
176
     1
 90
       50
176
     1
290
     0
176
     1
 90
       50
176
     1
 62
   256
176
     0
 40
1.0
176
     0
 90
        2
176
     1
  1
strokes_ogs.tif
176
     1
290
     0
176
     1
 40
1.0
176
     1
 40
1.0
176
     1
  0
VISUALSTYLE
  5
3D4
102
{ACAD_REACTORS
330
3CE
102
}
330
3CE
100
AcDbVisualStyle
  2
Wireframe
 70
     5
177
     3
291
     0
 70
    58
 90
        0
176
     1
 90
        2
176
     1
 90
        0
176
     1
 90
        0
176
     1
 40
0.6
176
     1
 40
30.0
176
     1
 62
     7
420
 16777215
176
     1
 90
        1
176
     1
 90
        4
176
     1
 62
     7
176
     1
 62
   257
176
     1
 90
        1
176
     1
 90
        1
176
     1
 40
1.0
176
     1
 90
        0
176
     1
 62
   257
176
     1
 40
1.0
176
     1
 90
        1
176
     1
 90
        6
176
     1
 90
        2
176
     1
 62
     7
176
     1
 90
        3
176
     1
 90
        0
176
     1
 90
        0
176
     1
290
     0
176
     1
 90
        1
176
     1
 40
0.0
176
     1
 90
        0
176
     1
290
     0
176
     1
290
     1
176
     1
290
     1
176
     1
290
     0
176
     1
290
     0
176
     1
290
     0
176
     1
290
     0
176
     1
290
     0
176
     1
290
     0
176
     1
 90
       50
176
     1
 40
0.0
176
     1
 40
1.0
176
     1
 90
        0
176
     1
 62
    18
420
        0
176
     1
 90
       50
176
     1
 90
        3
176
     1
 62
     5
420
      255
176
     1
290
     0
176
     1
 90
       50
176
     1
 90
       50
176
     1
 90
       50
176
     1
290
     0
176
     1
 90
       50
176
     1
 62
   256
176
     0
 40
1.0
176
     0
 90
        2
176
     1
  1
strokes_ogs.tif
176
     1
290
     0
176
     1
 40
1.0
176
     1
 40
1.0
176
     1
  0
VISUALSTYLE
  5
3E4
102
{ACAD_REACTORS
330
3CE
102
}
330
3CE
100
AcDbVisualStyle
  2
X-Ray
 70
    25
177
     3
291
     0
 70
    58
 90
        2
176
     1
 90
        2
176
     1
 90
        1
176
     1
 90
        1
176
     1
 40
0.5
176
     1
 40
30.0
176
     1
 62
     7
420
 16777215
176
     1
 90
        1
176
     1
 90
        0
176
     1
 62
     7
176
     1
 62
   257
176
     1
 90
        1
176
     1
 90
        1
176
     1
 40
1.0
176
     1
 90
        8
176
     1
 62
     7
176
     1
 40
1.0
176
     1
 90
        1
176
     1
 90
        6
176
     1
 90
        2
176
     1
 62
     7
176
     1
 90
        3
176
     1
 90
        0
176
     1
 90
        0
176
     1
290
     0
176
     1
 90
       13
176
     1
 40
0.0
176
     1
 90
        0
176
     1
290
     0
176
     1
290
     1
176
     1
290
     1
176
     1
290
     0
176
     1
290
     0
176
     1
290
     0
176
     1
290
     0
176
     1
290
     0
176
     1
290
     0
176
     1
 90
       50
176
     1
 40
0.0
176
     1
 40
1.0
176
     1
 90
        0
176
     1
 62
    18
420
        0
176
     1
 90
       50
176
     1
 90
        3
176
     1
 62
     5
420
      255
176
     1
290
     0
176
     1
 90
       50
176
     1
 90
       50
176
     1
 90
       50
176
     1
290
     0
176
     1
 90
       50
176
     1
 62
   256
176
     0
 40
1.0
176
     0
 90
        2
176
     1
  1
strokes_ogs.tif
176
     1
290
     0
176
     1
 40
1.0
176
     1
 40
1.0
176
     1
  0
DICTIONARYVAR
  5
3F1
102
{ACAD_REACTORS
330
3F0
102
}
330
3F0
100
DictionaryVariables
280
     0
  1
1:1
  0
DICTIONARYVAR
  5
3F6
102
{ACAD_REACTORS
330
3F0
102
}
330
3F0
100
DictionaryVariables
280
     0
  1
Standard
  0
DICTIONARYVAR
  5
3F5
102
{ACAD_REACTORS
330
3F0
102
}
330
3F0
100
DictionaryVariables
280
     0
  1
Standard
  0
DICTIONARYVAR
  5
3F7
102
{ACAD_REACTORS
330
3F0
102
}
330
3F0
100
DictionaryVariables
280
     0
  1
0
  0
DICTIONARY
  5
3F2
330
3EC
100
AcDbDictionary
280
     1
281
     1
  3
ACAD_ROUNDTRIP_2008_TABLESTYLE_CELLSTYLEMAP
360
3F3
  0
CELLSTYLEMAP
  5
3F3
102
{ACAD_REACTORS
330
3F2
102
}
330
3F2
100
AcDbCellStyleMap
 90
        3
300
CELLSTYLE
  1
TABLEFORMAT_BEGIN
 90
        5
170
     1
 91
        0
 92
    32768
 62
   257
 93
        1
300
CONTENTFORMAT
  1
CONTENTFORMAT_BEGIN
 90
        0
 91
        0
 92
        4
 93
        0
300

 40
0.0
140
1.0
 94
        5
 62
     0
340
11
144
6.0
309
CONTENTFORMAT_END
171
     1
301
MARGIN
  1
CELLMARGIN_BEGIN
 40
1.5
 40
1.5
 40
1.5
 40
1.5
 40
1.5
 40
1.5
309
CELLMARGIN_END
 94
        6
 95
        1
302
GRIDFORMAT
  1
GRIDFORMAT_BEGIN
 90
        0
 91
        1
 62
     0
 92
       -2
340
14
 93
        0
 40
0.045
309
GRIDFORMAT_END
 95
        2
302
GRIDFORMAT
  1
GRIDFORMAT_BEGIN
 90
        0
 91
        1
 62
     0
 92
       -2
340
14
 93
        0
 40
0.045
309
GRIDFORMAT_END
 95
        4
302
GRIDFORMAT
  1
GRIDFORMAT_BEGIN
 90
        0
 91
        1
 62
     0
 92
       -2
340
14
 93
        0
 40
0.045
309
GRIDFORMAT_END
 95
        8
302
GRIDFORMAT
  1
GRIDFORMAT_BEGIN
 90
        0
 91
        1
 62
     0
 92
       -2
340
14
 93
        0
 40
0.045
309
GRIDFORMAT_END
 95
       16
302
GRIDFORMAT
  1
GRIDFORMAT_BEGIN
 90
        0
 91
        1
 62
     0
 92
       -2
340
14
 93
        0
 40
0.045
309
GRIDFORMAT_END
 95
       32
302
GRIDFORMAT
  1
GRIDFORMAT_BEGIN
 90
        0
 91
        1
 62
     0
 92
       -2
340
14
 93
        0
 40
0.045
309
GRIDFORMAT_END
309
TABLEFORMAT_END
  1
CELLSTYLE_BEGIN
 90
        1
 91
        1
300
_TITLE
309
CELLSTYLE_END
300
CELLSTYLE
  1
TABLEFORMAT_BEGIN
 90
        5
170
     1
 91
        0
 92
        0
 62
   257
 93
        1
300
CONTENTFORMAT
  1
CONTENTFORMAT_BEGIN
 90
        0
 91
        0
 92
        4
 93
        0
300

 40
0.0
140
1.0
 94
        5
 62
     0
340
11
144
4.5
309
CONTENTFORMAT_END
171
     1
301
MARGIN
  1
CELLMARGIN_BEGIN
 40
1.5
 40
1.5
 40
1.5
 40
1.5
 40
1.5
 40
1.5
309
CELLMARGIN_END
 94
        6
 95
        1
302
GRIDFORMAT
  1
GRIDFORMAT_BEGIN
 90
        0
 91
        1
 62
     0
 92
       -2
340
14
 93
        0
 40
0.045
309
GRIDFORMAT_END
 95
        2
302
GRIDFORMAT
  1
GRIDFORMAT_BEGIN
 90
        0
 91
        1
 62
     0
 92
       -2
340
14
 93
        0
 40
0.045
309
GRIDFORMAT_END
 95
        4
302
GRIDFORMAT
  1
GRIDFORMAT_BEGIN
 90
        0
 91
        1
 62
     0
 92
       -2
340
14
 93
        0
 40
0.045
309
GRIDFORMAT_END
 95
        8
302
GRIDFORMAT
  1
GRIDFORMAT_BEGIN
 90
        0
 91
        1
 62
     0
 92
       -2
340
14
 93
        0
 40
0.045
309
GRIDFORMAT_END
 95
       16
302
GRIDFORMAT
  1
GRIDFORMAT_BEGIN
 90
        0
 91
        1
 62
     0
 92
       -2
340
14
 93
        0
 40
0.045
309
GRIDFORMAT_END
 95
       32
302
GRIDFORMAT
  1
GRIDFORMAT_BEGIN
 90
        0
 91
        1
 62
     0
 92
       -2
340
14
 93
        0
 40
0.045
309
GRIDFORMAT_END
309
TABLEFORMAT_END
  1
CELLSTYLE_BEGIN
 90
        2
 91
        1
300
_HEADER
309
CELLSTYLE_END
300
CELLSTYLE
  1
TABLEFORMAT_BEGIN
 90
        5
170
     1
 91
        0
 92
        0
 62
   257
 93
        1
300
CONTENTFORMAT
  1
CONTENTFORMAT_BEGIN
 90
        0
 91
        0
 92
        4
 93
        0
300

 40
0.0
140
1.0
 94
        2
 62
     0
340
11
144
4.5
309
CONTENTFORMAT_END
171
     1
301
MARGIN
  1
CELLMARGIN_BEGIN
 40
1.5
 40
1.5
 40
1.5
 40
1.5
 40
1.5
 40
1.5
309
CELLMARGIN_END
 94
        6
 95
        1
302
GRIDFORMAT
  1
GRIDFORMAT_BEGIN
 90
        0
 91
        1
 62
     0
 92
       -2
340
14
 93
        0
 40
0.045
309
GRIDFORMAT_END
 95
        2
302
GRIDFORMAT
  1
GRIDFORMAT_BEGIN
 90
        0
 91
        1
 62
     0
 92
       -2
340
14
 93
        0
 40
0.045
309
GRIDFORMAT_END
 95
        4
302
GRIDFORMAT
  1
GRIDFORMAT_BEGIN
 90
        0
 91
        1
 62
     0
 92
       -2
340
14
 93
        0
 40
0.045
309
GRIDFORMAT_END
 95
        8
302
GRIDFORMAT
  1
GRIDFORMAT_BEGIN
 90
        0
 91
        1
 62
     0
 92
       -2
340
14
 93
        0
 40
0.045
309
GRIDFORMAT_END
 95
       16
302
GRIDFORMAT
  1
GRIDFORMAT_BEGIN
 90
        0
 91
        1
 62
     0
 92
       -2
340
14
 93
        0
 40
0.045
309
GRIDFORMAT_END
 95
       32
302
GRIDFORMAT
  1
GRIDFORMAT_BEGIN
 90
        0
 91
        1
 62
     0
 92
       -2
340
14
 93
        0
 40
0.045
309
GRIDFORMAT_END
309
TABLEFORMAT_END
  1
CELLSTYLE_BEGIN
 90
        3
 91
        2
300
_DATA
309
CELLSTYLE_END
  0
ENDSEC
  0
EOF
