999
DXF file: 6e5_c_001.dxf
999
Pro/ENGINEER 2011490 by Parametric Technology Corporation
  0
SECTION
  2
HEADER
  9
$ACADVER
  1
AC1021
  9
$DWGCODEPAGE
  3
ANSI_1252
  9
$EXTMAX
 10
420.0
 20
297.0
 30
0.0
  9
$EXTMIN
 10
0.0
 20
0.0
 30
0.0
  9
$LIMMIN
 10
0.0
 20
0.0
  9
$LIMMAX
 10
420.0
 20
297.0
  9
$VIEWCTR
 10
210.0
 20
148.5
  9
$VIEWSIZE
 40
297.0
  9
$CLAYER
  8
0
  9
$LTSCALE
 40
23.1
  9
$CELTYPE
  6
BYLAYER
  9
$DIMSCALE
 40
1.0
  9
$DIMASZ
 40
2.5
  9
$DIMEXO
 40
2.625
  9
$DIMDLI
 40
15.96
  9
$DIMEXE
 40
7.56
  9
$DIMCEN
 40
3.78
  9
$DIMLFAC
 40
1.0
  9
$DIMBLK
  1
_CLOSED
  9
$DIMTXT
 40
3.0
  9
$DIMTOL
 70
1
  9
$DIMLIM
 70
0
  9
$DIMTFAC
 40
1.0
  9
$DIMTP
 40
0.01
  9
$DIMTM
 40
0.01
  9
$PDMODE
 70
3
  9
$PDSIZE
 40
0.3125
  9
$HANDSEED
  5
602
  9
$TILEMODE
 70
1
  9
$MEASUREMENT
 70
1
  9
$INSUNITS
 70
4
  0
ENDSEC
  0
SECTION
  2
CLASSES
  0
CLASS
  1
ACDBDICTIONARYWDFLT
  2
AcDbDictionaryWithDefault
  3
AutoCAD 2000
 90
0
 91
1
280
0
281
0
  0
CLASS
  1
ACDBPLACEHOLDER
  2
AcDbPlaceHolder
  3
AutoCAD 2000
 90
0
 91
1
280
0
281
0
  0
CLASS
  1
LAYOUT
  2
AcDbLayout
  3
AutoCAD 2000
 90
0
 91
0
280
0
281
0
  0
CLASS
  1
TABLESTYLE
  2
AcDbTableStyle
  3
ObjectDBX Classes
 90
2047
 91
1
280
0
281
0
  0
CLASS
  1
ACAD_TABLE
  2
AcDbTable
  3
ObjectDBX Classes
 90
1025
 91
1
280
0
281
1
  0
ENDSEC
  0
SECTION
  2
TABLES
  0
TABLE
  2
VPORT
  5
8
100
AcDbSymbolTable
 70
2
  0
VPORT
  5
1F4
100
AcDbSymbolTableRecord
100
AcDbViewportTableRecord
  2
*ACTIVE
 70
0
 10
0.0
 20
0.0
 11
1.0
 21
1.0
 12
210.0
 22
148.5
 13
0.0
 23
0.0
 14
1.0
 24
1.0
 15
0.0
 25
0.0
 16
0.0
 26
0.0
 36
1.0
 17
0.0
 27
0.0
 37
0.0
 40
297.0
 41
1.4141414141
 42
50.0
 43
0.0
 44
0.0
 50
0.0
 51
0.0
 71
0
 72
100
 73
1
 74
1
 75
0
 76
0
 77
0
 78
0
  0
ENDTAB
  0
TABLE
  2
LTYPE
  5
5
100
AcDbSymbolTable
 70
6
  0
LTYPE
  5
14
100
AcDbSymbolTableRecord
100
AcDbLinetypeTableRecord
  2
BYBLOCK
 70
0
  3

 72
65
 73
0
 40
0.0
  0
LTYPE
  5
15
100
AcDbSymbolTableRecord
100
AcDbLinetypeTableRecord
  2
BYLAYER
 70
0
  3

 72
65
 73
0
 40
0.0
  0
LTYPE
  5
16
100
AcDbSymbolTableRecord
100
AcDbLinetypeTableRecord
  2
CONTINUOUS
 70
64
  3
Solid line
 72
65
 73
0
 40
0.0
  0
LTYPE
  5
1F5
100
AcDbSymbolTableRecord
100
AcDbLinetypeTableRecord
  2
CENTER
 70
64
  3
____ _ ____ _ ____ _ ____ _ ____ _ ____ _ ____
 72
65
 73
4
 40
0.6
 49
0.375
 74
0
 49
-0.075
 74
0
 49
0.075
 74
0
 49
-0.075
 74
0
  0
LTYPE
  5
1F6
100
AcDbSymbolTableRecord
100
AcDbLinetypeTableRecord
  2
HIDDEN
 70
64
  3
- - - - - - - - - - - - - - - - - - - -
 72
65
 73
2
 40
0.2
 49
0.1
 74
0
 49
-0.1
 74
0
  0
LTYPE
  5
1F7
100
AcDbSymbolTableRecord
100
AcDbLinetypeTableRecord
  2
PHANTOM
 70
64
  3
_____ _ _ _____ _ _ _____ _ _ _____
 72
65
 73
6
 40
0.8
 49
0.45
 74
0
 49
-0.05
 74
0
 49
0.1
 74
0
 49
-0.05
 74
0
 49
0.1
 74
0
 49
-0.05
 74
0
  0
LTYPE
  5
1F8
100
AcDbSymbolTableRecord
100
AcDbLinetypeTableRecord
  2
DOT
 70
64
  3
. . . . . . . . . . . . . . . . . . . .
 72
65
 73
2
 40
0.2
 49
0.1
 74
0
 49
-0.1
 74
0
  0
LTYPE
  5
1F9
100
AcDbSymbolTableRecord
100
AcDbLinetypeTableRecord
  2
DASHED
 70
64
  3
- - - - - - - - - - - - - - - - - - - -
 72
65
 73
2
 40
0.2
 49
0.1
 74
0
 49
-0.1
 74
0
  0
ENDTAB
  0
TABLE
  2
LAYER
  5
2
100
AcDbSymbolTable
 70
36
  0
LAYER
  5
10
100
AcDbSymbolTableRecord
100
AcDbLayerTableRecord
  2
0
 70
0
 62
7
  6
CONTINUOUS
370
-3
390
F
  0
LAYER
  5
1FA
100
AcDbSymbolTableRecord
100
AcDbLayerTableRecord
  2
DEFAULT_1
 70
0
 62
7
  6
CENTER
370
-3
390
F
  0
LAYER
  5
1FB
100
AcDbSymbolTableRecord
100
AcDbLayerTableRecord
  2
DEFAULT_2
 70
0
 62
8
  6
HIDDEN
370
-3
390
F
  0
LAYER
  5
1FC
100
AcDbSymbolTableRecord
100
AcDbLayerTableRecord
  2
DEFAULT_3
 70
0
 62
7
  6
PHANTOM
370
-3
390
F
  0
LAYER
  5
1FD
100
AcDbSymbolTableRecord
100
AcDbLayerTableRecord
  2
01_ALL_DTM_PLN
 70
0
 62
7
  6
CONTINUOUS
370
-3
390
F
  0
LAYER
  5
1FE
100
AcDbSymbolTableRecord
100
AcDbLayerTableRecord
  2
01__ASM_ALL_DTM_PLN
 70
0
 62
7
  6
CONTINUOUS
370
-3
390
F
  0
LAYER
  5
1FF
100
AcDbSymbolTableRecord
100
AcDbLayerTableRecord
  2
01__ASM_DEF_DTM_PLN
 70
0
 62
7
  6
CONTINUOUS
370
-3
390
F
  0
LAYER
  5
200
100
AcDbSymbolTableRecord
100
AcDbLayerTableRecord
  2
01___PRT_ALL_DTM_PLN
 70
0
 62
7
  6
CONTINUOUS
370
-3
390
F
  0
LAYER
  5
201
100
AcDbSymbolTableRecord
100
AcDbLayerTableRecord
  2
01___PRT_DEF_DTM_PLN
 70
0
 62
7
  6
CONTINUOUS
370
-3
390
F
  0
LAYER
  5
202
100
AcDbSymbolTableRecord
100
AcDbLayerTableRecord
  2
02_ALL_AXES
 70
0
 62
7
  6
CONTINUOUS
370
-3
390
F
  0
LAYER
  5
203
100
AcDbSymbolTableRecord
100
AcDbLayerTableRecord
  2
02__ASM_ALL_AXES
 70
0
 62
7
  6
CONTINUOUS
370
-3
390
F
  0
LAYER
  5
204
100
AcDbSymbolTableRecord
100
AcDbLayerTableRecord
  2
02___PRT_ALL_AXES
 70
0
 62
7
  6
CONTINUOUS
370
-3
390
F
  0
LAYER
  5
205
100
AcDbSymbolTableRecord
100
AcDbLayerTableRecord
  2
03_ALL_CURVES
 70
0
 62
7
  6
CONTINUOUS
370
-3
390
F
  0
LAYER
  5
206
100
AcDbSymbolTableRecord
100
AcDbLayerTableRecord
  2
03__ASM_ALL_CURVES
 70
0
 62
7
  6
CONTINUOUS
370
-3
390
F
  0
LAYER
  5
207
100
AcDbSymbolTableRecord
100
AcDbLayerTableRecord
  2
03___PRT_ALL_CURVES
 70
0
 62
7
  6
CONTINUOUS
370
-3
390
F
  0
LAYER
  5
208
100
AcDbSymbolTableRecord
100
AcDbLayerTableRecord
  2
04_ALL_DTM_PNT
 70
0
 62
7
  6
CONTINUOUS
370
-3
390
F
  0
LAYER
  5
209
100
AcDbSymbolTableRecord
100
AcDbLayerTableRecord
  2
04__ASM_ALL_DTM_PNT
 70
0
 62
7
  6
CONTINUOUS
370
-3
390
F
  0
LAYER
  5
20A
100
AcDbSymbolTableRecord
100
AcDbLayerTableRecord
  2
04___PRT_ALL_DTM_PNT
 70
0
 62
7
  6
CONTINUOUS
370
-3
390
F
  0
LAYER
  5
20B
100
AcDbSymbolTableRecord
100
AcDbLayerTableRecord
  2
05_ALL_DTM_CSYS
 70
0
 62
7
  6
CONTINUOUS
370
-3
390
F
  0
LAYER
  5
20C
100
AcDbSymbolTableRecord
100
AcDbLayerTableRecord
  2
05__ASM_ALL_DTM_CSYS
 70
0
 62
7
  6
CONTINUOUS
370
-3
390
F
  0
LAYER
  5
20D
100
AcDbSymbolTableRecord
100
AcDbLayerTableRecord
  2
05__ASM_DEF_DTM_CSYS
 70
0
 62
7
  6
CONTINUOUS
370
-3
390
F
  0
LAYER
  5
20E
100
AcDbSymbolTableRecord
100
AcDbLayerTableRecord
  2
05___PRT_ALL_DTM_CSYS
 70
0
 62
7
  6
CONTINUOUS
370
-3
390
F
  0
LAYER
  5
20F
100
AcDbSymbolTableRecord
100
AcDbLayerTableRecord
  2
05___PRT_DEF_DTM_CSYS
 70
0
 62
7
  6
CONTINUOUS
370
-3
390
F
  0
LAYER
  5
210
100
AcDbSymbolTableRecord
100
AcDbLayerTableRecord
  2
06_ALL_SURFS
 70
0
 62
7
  6
CONTINUOUS
370
-3
390
F
  0
LAYER
  5
211
100
AcDbSymbolTableRecord
100
AcDbLayerTableRecord
  2
06__ASM_ALL_SURFS
 70
0
 62
7
  6
CONTINUOUS
370
-3
390
F
  0
LAYER
  5
212
100
AcDbSymbolTableRecord
100
AcDbLayerTableRecord
  2
06___PRT_ALL_SURFS
 70
0
 62
7
  6
CONTINUOUS
370
-3
390
F
  0
LAYER
  5
213
100
AcDbSymbolTableRecord
100
AcDbLayerTableRecord
  2
07__ASM_ALL_SKELETONS
 70
0
 62
7
  6
CONTINUOUS
370
-3
390
F
  0
LAYER
  5
214
100
AcDbSymbolTableRecord
100
AcDbLayerTableRecord
  2
1_ALL_PLANES
 70
0
 62
7
  6
CONTINUOUS
370
-3
390
F
  0
LAYER
  5
215
100
AcDbSymbolTableRecord
100
AcDbLayerTableRecord
  2
2_ALL_CSYS
 70
0
 62
7
  6
CONTINUOUS
370
-3
390
F
  0
LAYER
  5
216
100
AcDbSymbolTableRecord
100
AcDbLayerTableRecord
  2
3_ALL_AXES
 70
0
 62
7
  6
CONTINUOUS
370
-3
390
F
  0
LAYER
  5
217
100
AcDbSymbolTableRecord
100
AcDbLayerTableRecord
  2
4_ALL_POINTS
 70
0
 62
7
  6
CONTINUOUS
370
-3
390
F
  0
LAYER
  5
218
100
AcDbSymbolTableRecord
100
AcDbLayerTableRecord
  2
5_ALL_CURVES
 70
0
 62
7
  6
CONTINUOUS
370
-3
390
F
  0
LAYER
  5
219
100
AcDbSymbolTableRecord
100
AcDbLayerTableRecord
  2
6_ALL_SURFS
 70
0
 62
7
  6
CONTINUOUS
370
-3
390
F
  0
LAYER
  5
21A
100
AcDbSymbolTableRecord
100
AcDbLayerTableRecord
  2
7_ALL_FEATURES
 70
0
 62
7
  6
CONTINUOUS
370
-3
390
F
  0
LAYER
  5
21B
100
AcDbSymbolTableRecord
100
AcDbLayerTableRecord
  2
8_ALL_NOTES_BALLOONS_SYMBOLS_GT
 70
0
 62
7
  6
CONTINUOUS
370
-3
390
F
  0
LAYER
  5
21C
100
AcDbSymbolTableRecord
100
AcDbLayerTableRecord
  2
INTFCLR_2
 70
0
 62
7
  6
CONTINUOUS
370
-3
390
F
  0
LAYER
  5
21D
100
AcDbSymbolTableRecord
100
AcDbLayerTableRecord
  2
NONE
 70
0
 62
7
  6
CONTINUOUS
370
-3
390
F
  0
ENDTAB
  0
TABLE
  2
STYLE
  5
3
100
AcDbSymbolTable
 70
1
  0
STYLE
  5
11
100
AcDbSymbolTableRecord
100
AcDbTextStyleTableRecord
  2
STANDARD
 70
0
 40
0.0
 41
0.85
 50
0.0
 71
0
 42
0.2
  3
txt
  4

  0
STYLE
  5
21E
100
AcDbSymbolTableRecord
100
AcDbTextStyleTableRecord
  2
TEXTSTYLE_1
 70
0
 40
0.0
 41
0.8
 50
0.0
 71
0
 42
0.2
  3
gdt
  4

  0
ENDTAB
  0
TABLE
  2
VIEW
  5
6
100
AcDbSymbolTable
 70
0
  0
ENDTAB
  0
TABLE
  2
UCS
  5
7
100
AcDbSymbolTable
 70
0
  0
ENDTAB
  0
TABLE
  2
APPID
  5
9
100
AcDbSymbolTable
 70
1
  0
APPID
  5
21F
100
AcDbSymbolTableRecord
100
AcDbRegAppTableRecord
  2
ACAD
 70
0
  0
ENDTAB
  0
TABLE
  2
BLOCK_RECORD
  5
1
100
AcDbSymbolTable
 70
0
  0
BLOCK_RECORD
  5
220
100
AcDbSymbolTableRecord
100
AcDbBlockTableRecord
  2
*Model_Space
  0
BLOCK_RECORD
  5
221
100
AcDbSymbolTableRecord
100
AcDbBlockTableRecord
  2
*Paper_Space
  0
BLOCK_RECORD
  5
222
100
AcDbSymbolTableRecord
100
AcDbBlockTableRecord
  2
_CLOSED
  0
BLOCK_RECORD
  5
223
100
AcDbSymbolTableRecord
100
AcDbBlockTableRecord
  2
*D0
  0
BLOCK_RECORD
  5
224
100
AcDbSymbolTableRecord
100
AcDbBlockTableRecord
  2
*D1
  0
BLOCK_RECORD
  5
225
100
AcDbSymbolTableRecord
100
AcDbBlockTableRecord
  2
*D2
  0
BLOCK_RECORD
  5
226
100
AcDbSymbolTableRecord
100
AcDbBlockTableRecord
  2
LOGO2_BL0
  0
BLOCK_RECORD
  5
227
100
AcDbSymbolTableRecord
100
AcDbBlockTableRecord
  2
*T1
  0
ENDTAB
  0
TABLE
  2
DIMSTYLE
  5
A
100
AcDbSymbolTable
 70
1
100
AcDbDimStyleTable
 71
0
  0
DIMSTYLE
105
228
100
AcDbSymbolTableRecord
100
AcDbDimStyleTableRecord
  2
STANDARD
 70
0
  3

  4

 40
1.0
 41
2.5
 42
0.0625
 43
0.38
 44
0.18
 45
0.0
 46
0.0
 47
0.01
 48
0.01
140
3.0
141
0.09
142
0.0
143
25.4
144
1.0
145
0.0
146
1.0
147
0.09
 71
1.0
 72
0.0
 73
0
 74
0
 75
0
 76
0
 77
1
 78
8
170
0
171
2
172
0
173
0
174
0
175
0
176
0
177
0
178
0
270
2
271
2
272
2
273
2
274
2
275
0
280
0
281
0
282
0
283
1
284
8
285
0
286
0
287
3
288
0
340
11
341
222
342
222
343
222
344
222
  0
DIMSTYLE
105
229
100
AcDbSymbolTableRecord
100
AcDbDimStyleTableRecord
  2
DIMSTYLE_1
 70
0
  3

  4

 40
1.0
 41
2.5
 42
0.0625
 43
0.38
 44
0.18
 45
0.0
 46
0.0
 47
0.3
 48
0.3
140
3.0
141
0.09
142
0.0
143
25.4
144
1.0
145
0.0
146
1.0
147
0.09
 71
0.0
 72
0.0
 73
0
 74
0
 75
0
 76
0
 77
1
 78
8
170
0
171
2
172
0
173
0
174
0
175
0
176
0
177
0
178
0
270
2
271
2
272
2
273
2
274
2
275
0
280
0
281
0
282
0
283
1
284
8
285
0
286
0
287
3
288
0
340
11
341
222
342
222
343
222
344
222
  0
DIMSTYLE
105
22A
100
AcDbSymbolTableRecord
100
AcDbDimStyleTableRecord
  2
DIMSTYLE_2
 70
0
  3

  4

 40
1.0
 41
2.5
 42
0.0625
 43
0.38
 44
0.18
 45
0.0
 46
0.0
 47
0.3
 48
0.3
140
3.0
141
0.09
142
0.0
143
25.4
144
1.0
145
0.0
146
1.0
147
0.09
 71
0.0
 72
0.0
 73
0
 74
0
 75
0
 76
0
 77
1
 78
8
170
0
171
2
172
0
173
0
174
0
175
0
176
0
177
0
178
0
270
2
271
0
272
0
273
2
274
2
275
0
280
0
281
0
282
0
283
1
284
8
285
0
286
0
287
3
288
0
340
11
341
222
342
222
343
222
344
222
  0
ENDTAB
  0
ENDSEC
  0
SECTION
  2
BLOCKS
  0
BLOCK
  5
20
100
AcDbEntity
  8
0
100
AcDbBlockBegin
  2
*Model_Space
 70
0
 10
0.0
 20
0.0
 30
0.0
  3
*Model_Space
  1

  0
ENDBLK
  5
21
100
AcDbEntity
  8
0
100
AcDbBlockEnd
  0
BLOCK
  5
1C
100
AcDbEntity
  8
0
100
AcDbBlockBegin
  2
*Paper_Space
 70
0
 10
0.0
 20
0.0
 30
0.0
  3
*Paper_Space
  1

  0
ENDBLK
  5
1D
100
AcDbEntity
  8
0
100
AcDbBlockEnd
  0
BLOCK
  5
22B
100
AcDbEntity
  8
0
100
AcDbBlockBegin
 62
2
  6
CONTINUOUS
  2
LOGO2_BL0
 70
64
 10
333.6475659158
 20
36.9217920391
  3
LOGO2_BL0
  1

  0
LINE
  5
22C
100
AcDbEntity
  8
0
100
AcDbLine
 62
7
  6
CONTINUOUS
 10
325.390491144
 20
40.1172833779
 11
324.0861502147
 21
40.1172833779
  0
LINE
  5
22D
100
AcDbEntity
  8
0
100
AcDbLine
 62
7
  6
CONTINUOUS
 10
324.0861502147
 20
40.1172833779
 11
324.0861502147
 21
29.6582173181
  0
LINE
  5
22E
100
AcDbEntity
  8
0
100
AcDbLine
 62
7
  6
CONTINUOUS
 10
324.0861502147
 20
29.6582173181
 11
328.567205103
 21
29.6582173181
  0
LINE
  5
22F
100
AcDbEntity
  8
0
100
AcDbLine
 62
7
  6
CONTINUOUS
 10
328.567205103
 20
29.6582173181
 11
328.567205103
 21
30.8510716431
  0
LINE
  5
230
100
AcDbEntity
  8
0
100
AcDbLine
 62
7
  6
CONTINUOUS
 10
328.567205103
 20
30.8510716431
 11
325.390491144
 21
30.8510716431
  0
LINE
  5
231
100
AcDbEntity
  8
0
100
AcDbLine
 62
7
  6
CONTINUOUS
 10
325.390491144
 20
30.8510716431
 11
325.390491144
 21
40.1172833779
  0
LINE
  5
232
100
AcDbEntity
  8
0
100
AcDbLine
 62
7
  6
CONTINUOUS
 10
340.3268173604
 20
40.1172833779
 11
339.0229998423
 21
40.1172833779
  0
LINE
  5
233
100
AcDbEntity
  8
0
100
AcDbLine
 62
7
  6
CONTINUOUS
 10
339.0229998423
 20
40.1172833779
 11
339.0229998423
 21
29.6582173181
  0
LINE
  5
234
100
AcDbEntity
  8
0
100
AcDbLine
 62
7
  6
CONTINUOUS
 10
339.0229998423
 20
29.6582173181
 11
343.5041855834
 21
29.6582173181
  0
LINE
  5
235
100
AcDbEntity
  8
0
100
AcDbLine
 62
7
  6
CONTINUOUS
 10
343.5041855834
 20
29.6582173181
 11
343.5041855834
 21
30.8510716431
  0
LINE
  5
236
100
AcDbEntity
  8
0
100
AcDbLine
 62
7
  6
CONTINUOUS
 10
343.5041855834
 20
30.8510716431
 11
340.3268173604
 21
30.8510716431
  0
LINE
  5
237
100
AcDbEntity
  8
0
100
AcDbLine
 62
7
  6
CONTINUOUS
 10
340.3268173604
 20
30.8510716431
 11
340.3268173604
 21
40.1172833779
  0
LWPOLYLINE
  5
238
100
AcDbEntity
  8
0
100
AcDbPolyline
 62
7
  6
CONTINUOUS
 90
2
 70
0
 43
0.2
 10
322.4405451256
 20
26.3146660112
 10
322.4405451256
 20
24.4576027618
  0
LWPOLYLINE
  5
239
100
AcDbEntity
  8
0
100
AcDbPolyline
 62
7
  6
CONTINUOUS
 90
2
 70
0
 43
0.2
 10
322.4405451256
 20
24.4576027618
 10
323.236261136
 20
24.4576027618
  0
LWPOLYLINE
  5
23A
100
AcDbEntity
  8
0
100
AcDbPolyline
 62
7
  6
CONTINUOUS
 90
2
 70
0
 43
0.2
 10
323.236261136
 20
24.4576027618
 10
323.236261136
 20
24.6695843334
  0
LWPOLYLINE
  5
23B
100
AcDbEntity
  8
0
100
AcDbPolyline
 62
7
  6
CONTINUOUS
 90
2
 70
0
 43
0.2
 10
323.236261136
 20
24.6695843334
 10
322.6721546205
 20
24.6695843334
  0
LWPOLYLINE
  5
23C
100
AcDbEntity
  8
0
100
AcDbPolyline
 62
7
  6
CONTINUOUS
 90
2
 70
0
 43
0.2
 10
322.6721546205
 20
24.6695843334
 10
322.6721546205
 20
26.3146660112
  0
LWPOLYLINE
  5
23D
100
AcDbEntity
  8
0
100
AcDbPolyline
 62
7
  6
CONTINUOUS
 90
2
 70
0
 43
0.2
 10
322.6721546205
 20
26.3146660112
 10
322.4405451256
 20
26.3146660112
  0
SPLINE
  5
23E
100
AcDbEntity
  8
0
100
AcDbSpline
 62
7
  6
CONTINUOUS
 70
2
 71
3
 72
35
 73
31
 74
0
 42
0.0000001
 43
0.0000001
 44
0.0000000001
 40
0.0
 40
0.0
 40
0.0
 40
0.0
 40
1.0
 40
1.0
 40
1.0
 40
2.0
 40
2.0
 40
2.0
 40
3.0
 40
3.0
 40
3.0
 40
4.0
 40
4.0
 40
4.0
 40
5.0
 40
5.0
 40
5.0
 40
6.0
 40
6.0
 40
6.0
 40
7.0
 40
7.0
 40
7.0
 40
8.0
 40
8.0
 40
8.0
 40
9.0
 40
9.0
 40
9.0
 40
10.0
 40
10.0
 40
10.0
 40
10.0
 10
324.6345543915
 20
25.6101544177
 30
0.0
 10
324.6345543915
 20
25.6101544177
 30
0.0
 10
324.6345543915
 20
24.9480391385
 30
0.0
 10
324.6345543915
 20
24.9480391385
 30
0.0
 10
324.6345543915
 20
24.6329455432
 30
0.0
 10
324.7824180804
 20
24.4183469152
 30
0.0
 10
325.1225045647
 20
24.4183469152
 30
0.0
 10
325.4620676377
 20
24.4183469152
 30
0.0
 10
325.6101930321
 20
24.6329455432
 30
0.0
 10
325.6101930321
 20
24.9480391385
 30
0.0
 10
325.6101930321
 20
24.9480391385
 30
0.0
 10
325.6101930321
 20
25.6101544177
 30
0.0
 10
325.6101930321
 20
25.6101544177
 30
0.0
 10
325.6101930321
 20
25.6101544177
 30
0.0
 10
325.3881357933
 20
25.6101544177
 30
0.0
 10
325.3881357933
 20
25.6101544177
 30
0.0
 10
325.3881357933
 20
25.6101544177
 30
0.0
 10
325.3881357933
 20
24.9731628803
 30
0.0
 10
325.3881357933
 20
24.9731628803
 30
0.0
 10
325.3881357933
 20
24.7873518732
 30
0.0
 10
325.3414213358
 20
24.6245709626
 30
0.0
 10
325.1225045647
 20
24.6245709626
 30
0.0
 10
324.9030643822
 20
24.6245709626
 30
0.0
 10
324.8563499248
 20
24.7873518732
 30
0.0
 10
324.8563499248
 20
24.9731628803
 30
0.0
 10
324.8563499248
 20
24.9731628803
 30
0.0
 10
324.8563499248
 20
25.6101544177
 30
0.0
 10
324.8563499248
 20
25.6101544177
 30
0.0
 10
324.8563499248
 20
25.6101544177
 30
0.0
 10
324.6345543915
 20
25.6101544177
 30
0.0
 10
324.6345543915
 20
25.6101544177
 30
0.0
  0
SPLINE
  5
23F
100
AcDbEntity
  8
0
100
AcDbSpline
 62
7
  6
CONTINUOUS
 70
2
 71
3
 72
35
 73
31
 74
0
 42
0.0000001
 43
0.0000001
 44
0.0000000001
 40
0.0
 40
0.0
 40
0.0
 40
0.0
 40
1.0
 40
1.0
 40
1.0
 40
2.0
 40
2.0
 40
2.0
 40
3.0
 40
3.0
 40
3.0
 40
4.0
 40
4.0
 40
4.0
 40
5.0
 40
5.0
 40
5.0
 40
6.0
 40
6.0
 40
6.0
 40
7.0
 40
7.0
 40
7.0
 40
8.0
 40
8.0
 40
8.0
 40
9.0
 40
9.0
 40
9.0
 40
10.0
 40
10.0
 40
10.0
 40
10.0
 10
328.0333255893
 20
25.5688049259
 30
0.0
 10
327.9448690817
 20
25.6200992322
 30
0.0
 10
327.831419685
 20
25.645222974
 30
0.0
 10
327.72778425
 20
25.645222974
 30
0.0
 10
327.3729113969
 20
25.645222974
 30
0.0
 10
327.0974662066
 20
25.3814236849
 30
0.0
 10
327.0974662066
 20
25.0239337753
 30
0.0
 10
327.0974662066
 20
24.6790057366
 30
0.0
 10
327.3759210118
 20
24.4188703265
 30
0.0
 10
327.7154840848
 20
24.4188703265
 30
0.0
 10
327.831419685
 20
24.4188703265
 30
0.0
 10
327.9321763579
 20
24.4408536006
 30
0.0
 10
328.0333255893
 20
24.4947649632
 30
0.0
 10
328.0333255893
 20
24.4947649632
 30
0.0
 10
328.0333255893
 20
24.7774070587
 30
0.0
 10
328.0333255893
 20
24.7774070587
 30
0.0
 10
327.9494489304
 20
24.6842398494
 30
0.0
 10
327.8459443483
 20
24.6250943739
 30
0.0
 10
327.7178394356
 20
24.6250943739
 30
0.0
 10
327.4841362955
 20
24.6250943739
 30
0.0
 10
327.3188691814
 20
24.7972966876
 30
0.0
 10
327.3188691814
 20
25.0338785897
 30
0.0
 10
327.3188691814
 20
25.2458601613
 30
0.0
 10
327.4866224991
 20
25.437952104
 30
0.0
 10
327.7034456251
 20
25.437952104
 30
0.0
 10
327.8362612394
 20
25.437952104
 30
0.0
 10
327.9448690817
 20
25.3840407413
 30
0.0
 10
328.0333255893
 20
25.2830223628
 30
0.0
 10
328.0333255893
 20
25.2830223628
 30
0.0
 10
328.0333255893
 20
25.5688049259
 30
0.0
 10
328.0333255893
 20
25.5688049259
 30
0.0
  0
SPLINE
  5
240
100
AcDbEntity
  8
0
100
AcDbSpline
 62
7
  6
CONTINUOUS
 70
2
 71
3
 72
32
 73
28
 74
0
 42
0.0000001
 43
0.0000001
 44
0.0000000001
 40
0.0
 40
0.0
 40
0.0
 40
0.0
 40
1.0
 40
1.0
 40
1.0
 40
2.0
 40
2.0
 40
2.0
 40
3.0
 40
3.0
 40
3.0
 40
4.0
 40
4.0
 40
4.0
 40
5.0
 40
5.0
 40
5.0
 40
6.0
 40
6.0
 40
6.0
 40
7.0
 40
7.0
 40
7.0
 40
8.0
 40
8.0
 40
8.0
 40
9.0
 40
9.0
 40
9.0
 40
9.0
 10
330.5651968416
 20
24.9972397996
 30
0.0
 10
330.5651968416
 20
24.9972397996
 30
0.0
 10
330.5651968416
 20
25.0312615333
 30
0.0
 10
330.5651968416
 20
25.0312615333
 30
0.0
 10
330.5651968416
 20
25.3735725156
 30
0.0
 10
330.3923402638
 20
25.645222974
 30
0.0
 10
330.0256906566
 20
25.645222974
 30
0.0
 10
329.6540686422
 20
25.645222974
 30
0.0
 10
329.4643320504
 20
25.3788066284
 30
0.0
 10
329.4643320504
 20
25.0239337753
 30
0.0
 10
329.4643320504
 20
24.6842398494
 30
0.0
 10
329.6784072671
 20
24.4183469152
 30
0.0
 10
330.030532211
 20
24.4183469152
 30
0.0
 10
330.2545522422
 20
24.4183469152
 30
0.0
 10
330.4567198522
 20
24.5340208098
 30
0.0
 10
330.5651968416
 20
24.7334405105
 30
0.0
 10
330.5651968416
 20
24.7334405105
 30
0.0
 10
330.3775538949
 20
24.8402164132
 30
0.0
 10
330.3775538949
 20
24.8402164132
 30
0.0
 10
330.2940697945
 20
24.7015124219
 30
0.0
 10
330.2028653775
 20
24.6156729707
 30
0.0
 10
330.0332801203
 20
24.6156729707
 30
0.0
 10
329.8212985487
 20
24.6156729707
 30
0.0
 10
329.6883520816
 20
24.8004371554
 30
0.0
 10
329.6859967308
 20
24.9972397996
 30
0.0
 10
329.6859967308
 20
24.9972397996
 30
0.0
 10
330.5651968416
 20
24.9972397996
 30
0.0
 10
330.5651968416
 20
24.9972397996
 30
0.0
  0
SPLINE
  5
241
100
AcDbEntity
  8
0
100
AcDbSpline
 62
7
  6
CONTINUOUS
 70
2
 71
3
 72
14
 73
10
 74
0
 42
0.0000001
 43
0.0000001
 44
0.0000000001
 40
0.0
 40
0.0
 40
0.0
 40
0.0
 40
1.0
 40
1.0
 40
1.0
 40
2.0
 40
2.0
 40
2.0
 40
3.0
 40
3.0
 40
3.0
 40
3.0
 10
329.6980351904
 20
25.1647314117
 30
0.0
 10
329.7256451358
 20
25.3296059674
 30
0.0
 10
329.8534883429
 20
25.45260762
 30
0.0
 10
330.0256906566
 20
25.45260762
 30
0.0
 10
330.2028653775
 20
25.45260762
 30
0.0
 10
330.3163147742
 20
25.3369337254
 30
0.0
 10
330.3435321612
 20
25.1647314117
 30
0.0
 10
330.3435321612
 20
25.1647314117
 30
0.0
 10
329.6980351904
 20
25.1647314117
 30
0.0
 10
329.6980351904
 20
25.1647314117
 30
0.0
  0
SPLINE
  5
242
100
AcDbEntity
  8
0
100
AcDbSpline
 62
7
  6
CONTINUOUS
 70
2
 71
3
 72
20
 73
16
 74
0
 42
0.0000001
 43
0.0000001
 44
0.0000000001
 40
0.0
 40
0.0
 40
0.0
 40
0.0
 40
1.0
 40
1.0
 40
1.0
 40
2.0
 40
2.0
 40
2.0
 40
3.0
 40
3.0
 40
3.0
 40
4.0
 40
4.0
 40
4.0
 40
5.0
 40
5.0
 40
5.0
 40
5.0
 10
332.5892282918
 20
25.3740959269
 30
0.0
 10
332.5892282918
 20
25.3740959269
 30
0.0
 10
333.0003678584
 20
24.8716210905
 30
0.0
 10
333.0003678584
 20
24.8716210905
 30
0.0
 10
332.8843014053
 20
24.7559471959
 30
0.0
 10
332.7465133838
 20
24.6256177852
 30
0.0
 10
332.5745727757
 20
24.6256177852
 30
0.0
 10
332.3971363491
 20
24.6256177852
 30
0.0
 10
332.229644737
 20
24.7899689296
 30
0.0
 10
332.229644737
 20
24.9668819449
 30
0.0
 10
332.229644737
 20
25.1448417828
 30
0.0
 10
332.4394018106
 20
25.2709839031
 30
0.0
 10
332.566983312
 20
25.3589169995
 30
0.0
 10
332.566983312
 20
25.3589169995
 30
0.0
 10
332.5892282918
 20
25.3740959269
 30
0.0
 10
332.5892282918
 20
25.3740959269
 30
0.0
  0
SPLINE
  5
243
100
AcDbEntity
  8
0
100
AcDbSpline
 62
7
  6
CONTINUOUS
 70
2
 71
3
 72
23
 73
19
 74
0
 42
0.0000001
 43
0.0000001
 44
0.0000000001
 40
0.0
 40
0.0
 40
0.0
 40
0.0
 40
1.0
 40
1.0
 40
1.0
 40
2.0
 40
2.0
 40
2.0
 40
3.0
 40
3.0
 40
3.0
 40
4.0
 40
4.0
 40
4.0
 40
5.0
 40
5.0
 40
5.0
 40
6.0
 40
6.0
 40
6.0
 40
6.0
 10
332.6385598056
 20
25.6651126029
 30
0.0
 10
332.6385598056
 20
25.6651126029
 30
0.0
 10
332.5769281265
 20
25.7436242961
 30
0.0
 10
332.5769281265
 20
25.7436242961
 30
0.0
 10
332.5230167639
 20
25.8121911748
 30
0.0
 10
332.4662266391
 20
25.8812814648
 30
0.0
 10
332.4662266391
 20
25.9749720853
 30
0.0
 10
332.4662266391
 20
26.0937864477
 30
0.0
 10
332.5621417576
 20
26.1712513183
 30
0.0
 10
332.6731049506
 20
26.1712513183
 30
0.0
 10
332.7963683089
 20
26.1712513183
 30
0.0
 10
332.889666371
 20
26.1000673831
 30
0.0
 10
332.889666371
 20
25.9697379725
 30
0.0
 10
332.889666371
 20
25.8346978602
 30
0.0
 10
332.7615614583
 20
25.7582798122
 30
0.0
 10
332.6680016906
 20
25.6844788206
 30
0.0
 10
332.6680016906
 20
25.6844788206
 30
0.0
 10
332.6385598056
 20
25.6651126029
 30
0.0
 10
332.6385598056
 20
25.6651126029
 30
0.0
  0
SPLINE
  5
244
100
AcDbEntity
  8
0
100
AcDbSpline
 62
7
  6
CONTINUOUS
 70
2
 71
3
 72
50
 73
46
 74
0
 42
0.0000001
 43
0.0000001
 44
0.0000000001
 40
0.0
 40
0.0
 40
0.0
 40
0.0
 40
1.0
 40
1.0
 40
1.0
 40
2.0
 40
2.0
 40
2.0
 40
3.0
 40
3.0
 40
3.0
 40
4.0
 40
4.0
 40
4.0
 40
5.0
 40
5.0
 40
5.0
 40
6.0
 40
6.0
 40
6.0
 40
7.0
 40
7.0
 40
7.0
 40
8.0
 40
8.0
 40
8.0
 40
9.0
 40
9.0
 40
9.0
 40
10.0
 40
10.0
 40
10.0
 40
11.0
 40
11.0
 40
11.0
 40
12.0
 40
12.0
 40
12.0
 40
13.0
 40
13.0
 40
13.0
 40
14.0
 40
14.0
 40
14.0
 40
15.0
 40
15.0
 40
15.0
 40
15.0
 10
333.3407160483
 20
24.4581261731
 30
0.0
 10
333.3407160483
 20
24.4581261731
 30
0.0
 10
333.626106053
 20
24.4581261731
 30
0.0
 10
333.626106053
 20
24.4581261731
 30
0.0
 10
333.626106053
 20
24.4581261731
 30
0.0
 10
333.2937398852
 20
24.8690040341
 30
0.0
 10
333.2937398852
 20
24.8690040341
 30
0.0
 10
333.2937398852
 20
24.8690040341
 30
0.0
 10
333.5202461201
 20
25.1348969683
 30
0.0
 10
333.5202461201
 20
25.1348969683
 30
0.0
 10
333.5202461201
 20
25.1348969683
 30
0.0
 10
333.3719898728
 20
25.2877330644
 30
0.0
 10
333.3719898728
 20
25.2877330644
 30
0.0
 10
333.3719898728
 20
25.2877330644
 30
0.0
 10
333.1560827165
 20
25.0364956462
 30
0.0
 10
333.1560827165
 20
25.0364956462
 30
0.0
 10
333.1560827165
 20
25.0364956462
 30
0.0
 10
332.7690200692
 20
25.5044253375
 30
0.0
 10
332.7690200692
 20
25.5044253375
 30
0.0
 10
332.9244732216
 20
25.6185289983
 30
0.0
 10
333.1067512026
 20
25.7582798122
 30
0.0
 10
333.1067512026
 20
25.9676443273
 30
0.0
 10
333.1067512026
 20
26.2115539874
 30
0.0
 10
332.9047144455
 20
26.3549686803
 30
0.0
 10
332.6782082107
 20
26.3549686803
 30
0.0
 10
332.4340368449
 20
26.3549686803
 30
0.0
 10
332.2496652188
 20
26.2042262294
 30
0.0
 10
332.2496652188
 20
25.9477546984
 30
0.0
 10
332.2496652188
 20
25.7902079007
 30
0.0
 10
332.3483282465
 20
25.652550732
 30
0.0
 10
332.4536647682
 20
25.541587539
 30
0.0
 10
332.4536647682
 20
25.541587539
 30
0.0
 10
332.3381217264
 20
25.4578417329
 30
0.0
 10
332.3381217264
 20
25.4578417329
 30
0.0
 10
332.1604235942
 20
25.3296059674
 30
0.0
 10
332.0130833166
 20
25.2018936131
 30
0.0
 10
332.0130833166
 20
24.9647882997
 30
0.0
 10
332.0130833166
 20
24.6444605916
 30
0.0
 10
332.2716484929
 20
24.4183469152
 30
0.0
 10
332.5820313866
 20
24.4183469152
 30
0.0
 10
332.8009481577
 20
24.4183469152
 30
0.0
 10
332.9981433604
 20
24.543442213
 30
0.0
 10
333.1384175856
 20
24.7093635913
 30
0.0
 10
333.1384175856
 20
24.7093635913
 30
0.0
 10
333.3407160483
 20
24.4581261731
 30
0.0
 10
333.3407160483
 20
24.4581261731
 30
0.0
  0
LWPOLYLINE
  5
245
100
AcDbEntity
  8
0
100
AcDbPolyline
 62
7
  6
CONTINUOUS
 90
2
 70
0
 43
0.2
 10
335.276160138
 20
26.3146660112
 10
335.0448123488
 20
26.3146660112
  0
LWPOLYLINE
  5
246
100
AcDbEntity
  8
0
100
AcDbPolyline
 62
7
  6
CONTINUOUS
 90
2
 70
0
 43
0.2
 10
335.0448123488
 20
26.3146660112
 10
335.0448123488
 20
24.4576027618
  0
LWPOLYLINE
  5
247
100
AcDbEntity
  8
0
100
AcDbPolyline
 62
7
  6
CONTINUOUS
 90
2
 70
0
 43
0.2
 10
335.0448123488
 20
24.4576027618
 10
335.8401358007
 20
24.4576027618
  0
LWPOLYLINE
  5
248
100
AcDbEntity
  8
0
100
AcDbPolyline
 62
7
  6
CONTINUOUS
 90
2
 70
0
 43
0.2
 10
335.8401358007
 20
24.4576027618
 10
335.8401358007
 20
24.6695843334
  0
LWPOLYLINE
  5
249
100
AcDbEntity
  8
0
100
AcDbPolyline
 62
7
  6
CONTINUOUS
 90
2
 70
0
 43
0.2
 10
335.8401358007
 20
24.6695843334
 10
335.276160138
 20
24.6695843334
  0
LWPOLYLINE
  5
24A
100
AcDbEntity
  8
0
100
AcDbPolyline
 62
7
  6
CONTINUOUS
 90
2
 70
0
 43
0.2
 10
335.276160138
 20
24.6695843334
 10
335.276160138
 20
26.3146660112
  0
LWPOLYLINE
  5
24B
100
AcDbEntity
  8
0
100
AcDbPolyline
 62
7
  6
CONTINUOUS
 90
2
 70
0
 43
0.2
 10
337.5192392122
 20
25.6101544177
 10
337.2980979431
 20
25.6101544177
  0
LWPOLYLINE
  5
24C
100
AcDbEntity
  8
0
100
AcDbPolyline
 62
7
  6
CONTINUOUS
 90
2
 70
0
 43
0.2
 10
337.2980979431
 20
25.6101544177
 10
337.2980979431
 20
24.4581261731
  0
LWPOLYLINE
  5
24D
100
AcDbEntity
  8
0
100
AcDbPolyline
 62
7
  6
CONTINUOUS
 90
2
 70
0
 43
0.2
 10
337.2980979431
 20
24.4581261731
 10
337.5192392122
 20
24.4581261731
  0
LWPOLYLINE
  5
24E
100
AcDbEntity
  8
0
100
AcDbPolyline
 62
7
  6
CONTINUOUS
 90
2
 70
0
 43
0.2
 10
337.5192392122
 20
24.4581261731
 10
337.5192392122
 20
25.6101544177
  0
SPLINE
  5
24F
100
AcDbEntity
  8
0
100
AcDbSpline
 62
7
  6
CONTINUOUS
 70
2
 71
3
 72
17
 73
13
 74
0
 42
0.0000001
 43
0.0000001
 44
0.0000000001
 40
0.0
 40
0.0
 40
0.0
 40
0.0
 40
1.0
 40
1.0
 40
1.0
 40
2.0
 40
2.0
 40
2.0
 40
3.0
 40
3.0
 40
3.0
 40
4.0
 40
4.0
 40
4.0
 40
4.0
 10
337.4087994305
 20
26.2926827371
 30
0.0
 10
337.3247919188
 20
26.2926827371
 30
0.0
 10
337.2562250401
 20
26.2235924471
 30
0.0
 10
337.2562250401
 20
26.1377529959
 30
0.0
 10
337.2562250401
 20
26.0534837785
 30
0.0
 10
337.3247919188
 20
25.9875339562
 30
0.0
 10
337.4087994305
 20
25.9875339562
 30
0.0
 10
337.4925452365
 20
25.9875339562
 30
0.0
 10
337.5613738209
 20
26.0534837785
 30
0.0
 10
337.5613738209
 20
26.1377529959
 30
0.0
 10
337.5613738209
 20
26.2235924471
 30
0.0
 10
337.4925452365
 20
26.2926827371
 30
0.0
 10
337.4087994305
 20
26.2926827371
 30
0.0
  0
SPLINE
  5
250
100
AcDbEntity
  8
0
100
AcDbSpline
 62
7
  6
CONTINUOUS
 70
2
 71
3
 72
17
 73
13
 74
0
 42
0.0000001
 43
0.0000001
 44
0.0000000001
 40
0.0
 40
0.0
 40
0.0
 40
0.0
 40
1.0
 40
1.0
 40
1.0
 40
2.0
 40
2.0
 40
2.0
 40
3.0
 40
3.0
 40
3.0
 40
4.0
 40
4.0
 40
4.0
 40
4.0
 10
339.6495231538
 20
24.6156729707
 30
0.0
 10
339.4155583082
 20
24.6156729707
 30
0.0
 10
339.2852288975
 20
24.8177097279
 30
0.0
 10
339.2852288975
 20
25.0338785897
 30
0.0
 10
339.2852288975
 20
25.2484772178
 30
0.0
 10
339.4210541267
 20
25.4473735072
 30
0.0
 10
339.6495231538
 20
25.4473735072
 30
0.0
 10
339.888983818
 20
25.4473735072
 30
0.0
 10
340.0245473416
 20
25.2584220322
 30
0.0
 10
340.0245473416
 20
25.0338785897
 30
0.0
 10
340.0245473416
 20
24.8077649134
 30
0.0
 10
339.8913391688
 20
24.6156729707
 30
0.0
 10
339.6495231538
 20
24.6156729707
 30
0.0
  0
SPLINE
  5
251
100
AcDbEntity
  8
0
100
AcDbSpline
 62
7
  6
CONTINUOUS
 70
2
 71
3
 72
50
 73
46
 74
0
 42
0.0000001
 43
0.0000001
 44
0.0000000001
 40
0.0
 40
0.0
 40
0.0
 40
0.0
 40
1.0
 40
1.0
 40
1.0
 40
2.0
 40
2.0
 40
2.0
 40
3.0
 40
3.0
 40
3.0
 40
4.0
 40
4.0
 40
4.0
 40
5.0
 40
5.0
 40
5.0
 40
6.0
 40
6.0
 40
6.0
 40
7.0
 40
7.0
 40
7.0
 40
8.0
 40
8.0
 40
8.0
 40
9.0
 40
9.0
 40
9.0
 40
10.0
 40
10.0
 40
10.0
 40
11.0
 40
11.0
 40
11.0
 40
12.0
 40
12.0
 40
12.0
 40
13.0
 40
13.0
 40
13.0
 40
14.0
 40
14.0
 40
14.0
 40
15.0
 40
15.0
 40
15.0
 40
15.0
 10
340.2336501511
 20
25.610677829
 30
0.0
 10
340.2336501511
 20
25.610677829
 30
0.0
 10
340.0119854707
 20
25.610677829
 30
0.0
 10
340.0119854707
 20
25.610677829
 30
0.0
 10
340.0119854707
 20
25.610677829
 30
0.0
 10
340.0119854707
 20
25.4133517734
 30
0.0
 10
340.0119854707
 20
25.4133517734
 30
0.0
 10
340.0119854707
 20
25.4133517734
 30
0.0
 10
340.0072747691
 20
25.4133517734
 30
0.0
 10
340.0072747691
 20
25.4133517734
 30
0.0
 10
339.9159394994
 20
25.556243055
 30
0.0
 10
339.778020625
 20
25.6446995627
 30
0.0
 10
339.6052949
 20
25.6446995627
 30
0.0
 10
339.2729287322
 20
25.6446995627
 30
0.0
 10
339.0638259227
 20
25.3568233544
 30
0.0
 10
339.0638259227
 20
25.0412063478
 30
0.0
 10
339.0638259227
 20
24.7114572364
 30
0.0
 10
339.2608902726
 20
24.4183469152
 30
0.0
 10
339.6157631258
 20
24.4183469152
 30
0.0
 10
339.778020625
 20
24.4183469152
 30
0.0
 10
339.9180331445
 20
24.5068034229
 30
0.0
 10
340.0072747691
 20
24.6376562448
 30
0.0
 10
340.0072747691
 20
24.6376562448
 30
0.0
 10
340.0119854707
 20
24.6376562448
 30
0.0
 10
340.0119854707
 20
24.6376562448
 30
0.0
 10
340.0119854707
 20
24.6376562448
 30
0.0
 10
340.0119854707
 20
24.4183469152
 30
0.0
 10
340.0119854707
 20
24.4183469152
 30
0.0
 10
340.0119854707
 20
24.1817650131
 30
0.0
 10
339.9554570516
 20
23.9949071833
 30
0.0
 10
339.6822363593
 20
23.9949071833
 30
0.0
 10
339.4799378966
 20
23.9949071833
 30
0.0
 10
339.3373083206
 20
24.1131981344
 30
0.0
 10
339.3373083206
 20
24.3194221818
 30
0.0
 10
339.3373083206
 20
24.3194221818
 30
0.0
 10
339.1156436402
 20
24.3194221818
 30
0.0
 10
339.1156436402
 20
24.3194221818
 30
0.0
 10
339.1206160475
 20
23.9949071833
 30
0.0
 10
339.351702131
 20
23.7981045391
 30
0.0
 10
339.6720298392
 20
23.7981045391
 30
0.0
 10
340.1200699016
 20
23.7981045391
 30
0.0
 10
340.2336501511
 20
24.083363691
 30
0.0
 10
340.2336501511
 20
24.4801094472
 30
0.0
 10
340.2336501511
 20
24.4801094472
 30
0.0
 10
340.2336501511
 20
25.610677829
 30
0.0
 10
340.2336501511
 20
25.610677829
 30
0.0
  0
SPLINE
  5
252
100
AcDbEntity
  8
0
100
AcDbSpline
 62
7
  6
CONTINUOUS
 70
2
 71
3
 72
44
 73
40
 74
0
 42
0.0000001
 43
0.0000001
 44
0.0000000001
 40
0.0
 40
0.0
 40
0.0
 40
0.0
 40
1.0
 40
1.0
 40
1.0
 40
2.0
 40
2.0
 40
2.0
 40
3.0
 40
3.0
 40
3.0
 40
4.0
 40
4.0
 40
4.0
 40
5.0
 40
5.0
 40
5.0
 40
6.0
 40
6.0
 40
6.0
 40
7.0
 40
7.0
 40
7.0
 40
8.0
 40
8.0
 40
8.0
 40
9.0
 40
9.0
 40
9.0
 40
10.0
 40
10.0
 40
10.0
 40
11.0
 40
11.0
 40
11.0
 40
12.0
 40
12.0
 40
12.0
 40
13.0
 40
13.0
 40
13.0
 40
13.0
 10
341.8025754865
 20
26.5957378727
 30
0.0
 10
341.8025754865
 20
26.5957378727
 30
0.0
 10
341.8025754865
 20
24.4576027618
 30
0.0
 10
341.8025754865
 20
24.4576027618
 30
0.0
 10
341.8025754865
 20
24.4576027618
 30
0.0
 10
342.0239784613
 20
24.4576027618
 30
0.0
 10
342.0239784613
 20
24.4576027618
 30
0.0
 10
342.0239784613
 20
24.4576027618
 30
0.0
 10
342.0239784613
 20
24.9872949851
 30
0.0
 10
342.0239784613
 20
24.9872949851
 30
0.0
 10
342.0239784613
 20
25.1971829116
 30
0.0
 10
342.0239784613
 20
25.4478969184
 30
0.0
 10
342.3092376132
 20
25.4478969184
 30
0.0
 10
342.5361364065
 20
25.4478969184
 30
0.0
 10
342.5630920878
 20
25.3149504513
 30
0.0
 10
342.5630920878
 20
25.1186712184
 30
0.0
 10
342.5630920878
 20
25.1186712184
 30
0.0
 10
342.5630920878
 20
24.4576027618
 30
0.0
 10
342.5630920878
 20
24.4576027618
 30
0.0
 10
342.5630920878
 20
24.4576027618
 30
0.0
 10
342.7850184738
 20
24.4576027618
 30
0.0
 10
342.7850184738
 20
24.4576027618
 30
0.0
 10
342.7850184738
 20
24.4576027618
 30
0.0
 10
342.7850184738
 20
25.1448417828
 30
0.0
 10
342.7850184738
 20
25.1448417828
 30
0.0
 10
342.7850184738
 20
25.4253902331
 30
0.0
 10
342.7010109621
 20
25.645222974
 30
0.0
 10
342.3759725524
 20
25.645222974
 30
0.0
 10
342.2362217385
 20
25.645222974
 30
0.0
 10
342.0980411585
 20
25.5787497404
 30
0.0
 10
342.0286891629
 20
25.4557480878
 30
0.0
 10
342.0286891629
 20
25.4557480878
 30
0.0
 10
342.0239784613
 20
25.4557480878
 30
0.0
 10
342.0239784613
 20
25.4557480878
 30
0.0
 10
342.0239784613
 20
25.4557480878
 30
0.0
 10
342.0239784613
 20
26.5957378727
 30
0.0
 10
342.0239784613
 20
26.5957378727
 30
0.0
 10
342.0239784613
 20
26.5957378727
 30
0.0
 10
341.8025754865
 20
26.5957378727
 30
0.0
 10
341.8025754865
 20
26.5957378727
 30
0.0
  0
LWPOLYLINE
  5
253
100
AcDbEntity
  8
0
100
AcDbPolyline
 62
7
  6
CONTINUOUS
 90
2
 70
0
 43
0.2
 10
344.6248091507
 20
25.403406959
 10
344.8412397182
 20
25.403406959
  0
LWPOLYLINE
  5
254
100
AcDbEntity
  8
0
100
AcDbPolyline
 62
7
  6
CONTINUOUS
 90
2
 70
0
 43
0.2
 10
344.8412397182
 20
25.403406959
 10
344.8412397182
 20
25.6101544177
  0
LWPOLYLINE
  5
255
100
AcDbEntity
  8
0
100
AcDbPolyline
 62
7
  6
CONTINUOUS
 90
2
 70
0
 43
0.2
 10
344.8412397182
 20
25.6101544177
 10
344.6248091507
 20
25.6101544177
  0
LWPOLYLINE
  5
256
100
AcDbEntity
  8
0
100
AcDbPolyline
 62
7
  6
CONTINUOUS
 90
2
 70
0
 43
0.2
 10
344.6248091507
 20
25.6101544177
 10
344.6248091507
 20
26.0508667221
  0
LWPOLYLINE
  5
257
100
AcDbEntity
  8
0
100
AcDbPolyline
 62
7
  6
CONTINUOUS
 90
2
 70
0
 43
0.2
 10
344.6248091507
 20
26.0508667221
 10
344.4031444703
 20
26.0508667221
  0
LWPOLYLINE
  5
258
100
AcDbEntity
  8
0
100
AcDbPolyline
 62
7
  6
CONTINUOUS
 90
2
 70
0
 43
0.2
 10
344.4031444703
 20
26.0508667221
 10
344.4031444703
 20
25.6101544177
  0
LWPOLYLINE
  5
259
100
AcDbEntity
  8
0
100
AcDbPolyline
 62
7
  6
CONTINUOUS
 90
2
 70
0
 43
0.2
 10
344.4031444703
 20
25.6101544177
 10
344.2824981684
 20
25.6101544177
  0
LWPOLYLINE
  5
25A
100
AcDbEntity
  8
0
100
AcDbPolyline
 62
7
  6
CONTINUOUS
 90
2
 70
0
 43
0.2
 10
344.2824981684
 20
25.6101544177
 10
344.2824981684
 20
25.403406959
  0
LWPOLYLINE
  5
25B
100
AcDbEntity
  8
0
100
AcDbPolyline
 62
7
  6
CONTINUOUS
 90
2
 70
0
 43
0.2
 10
344.2824981684
 20
25.403406959
 10
344.4031444703
 20
25.403406959
  0
LWPOLYLINE
  5
25C
100
AcDbEntity
  8
0
100
AcDbPolyline
 62
7
  6
CONTINUOUS
 90
2
 70
0
 43
0.2
 10
344.4031444703
 20
25.403406959
 10
344.4031444703
 20
24.4576027618
  0
LWPOLYLINE
  5
25D
100
AcDbEntity
  8
0
100
AcDbPolyline
 62
7
  6
CONTINUOUS
 90
2
 70
0
 43
0.2
 10
344.4031444703
 20
24.4576027618
 10
344.6248091507
 20
24.4576027618
  0
LWPOLYLINE
  5
25E
100
AcDbEntity
  8
0
100
AcDbPolyline
 62
7
  6
CONTINUOUS
 90
2
 70
0
 43
0.2
 10
344.6248091507
 20
24.4576027618
 10
344.6248091507
 20
25.403406959
  0
SPLINE
  5
25F
100
AcDbEntity
  8
0
100
AcDbSpline
 62
7
  6
CONTINUOUS
 70
2
 71
3
 72
20
 73
16
 74
0
 42
0.0000001
 43
0.0000001
 44
0.0000000001
 40
0.0
 40
0.0
 40
0.0
 40
0.0
 40
1.0
 40
1.0
 40
1.0
 40
2.0
 40
2.0
 40
2.0
 40
3.0
 40
3.0
 40
3.0
 40
4.0
 40
4.0
 40
4.0
 40
5.0
 40
5.0
 40
5.0
 40
5.0
 10
332.4068194579
 20
34.8185292052
 30
0.0
 10
332.4068194579
 20
34.8185292052
 30
0.0
 10
334.7231761124
 20
31.988967783
 30
0.0
 10
334.7231761124
 20
31.988967783
 30
0.0
 10
334.071529059
 20
31.3367973183
 30
0.0
 10
333.294655855
 20
30.6008810475
 30
0.0
 10
332.3234662104
 20
30.6008810475
 30
0.0
 10
331.3249283259
 20
30.6008810475
 30
0.0
 10
330.3816103324
 20
31.5304594948
 30
0.0
 10
330.3816103324
 20
32.5296516433
 30
0.0
 10
330.3816103324
 20
33.5288437919
 30
0.0
 10
331.5604634055
 20
34.2354490305
 30
0.0
 10
332.2819858658
 20
34.7353068104
 30
0.0
 10
332.2819858658
 20
34.7353068104
 30
0.0
 10
332.4068194579
 20
34.8185292052
 30
0.0
 10
332.4068194579
 20
34.8185292052
 30
0.0
  0
SPLINE
  5
260
100
AcDbEntity
  8
0
100
AcDbSpline
 62
7
  6
CONTINUOUS
 70
2
 71
3
 72
23
 73
19
 74
0
 42
0.0000001
 43
0.0000001
 44
0.0000000001
 40
0.0
 40
0.0
 40
0.0
 40
0.0
 40
1.0
 40
1.0
 40
1.0
 40
2.0
 40
2.0
 40
2.0
 40
3.0
 40
3.0
 40
3.0
 40
4.0
 40
4.0
 40
4.0
 40
5.0
 40
5.0
 40
5.0
 40
6.0
 40
6.0
 40
6.0
 40
6.0
 10
332.6842274405
 20
36.4562831249
 30
0.0
 10
332.6842274405
 20
36.4562831249
 30
0.0
 10
332.3377291679
 20
36.8996124858
 30
0.0
 10
332.3377291679
 20
36.8996124858
 30
0.0
 10
332.031926123
 20
37.2877219557
 30
0.0
 10
331.7130377959
 20
37.6762239841
 30
0.0
 10
331.7130377959
 20
38.2031682982
 30
0.0
 10
331.7130377959
 20
38.8693400148
 30
0.0
 10
332.2543759204
 20
39.3130619341
 30
0.0
 10
332.8782821755
 20
39.3130619341
 30
0.0
 10
333.5720638376
 20
39.3130619341
 30
0.0
 10
334.0992698573
 20
38.9108203594
 30
0.0
 10
334.0992698573
 20
38.1758200584
 30
0.0
 10
334.0992698573
 20
37.4125555479
 30
0.0
 10
333.3780091026
 20
36.9824423221
 30
0.0
 10
332.8509339357
 20
36.5667229067
 30
0.0
 10
332.8509339357
 20
36.5667229067
 30
0.0
 10
332.6842274405
 20
36.4562831249
 30
0.0
 10
332.6842274405
 20
36.4562831249
 30
0.0
  0
SPLINE
  5
261
100
AcDbEntity
  8
0
100
AcDbSpline
 62
7
  6
CONTINUOUS
 70
2
 71
3
 72
50
 73
46
 74
0
 42
0.0000001
 43
0.0000001
 44
0.0000000001
 40
0.0
 40
0.0
 40
0.0
 40
0.0
 40
1.0
 40
1.0
 40
1.0
 40
2.0
 40
2.0
 40
2.0
 40
3.0
 40
3.0
 40
3.0
 40
4.0
 40
4.0
 40
4.0
 40
5.0
 40
5.0
 40
5.0
 40
6.0
 40
6.0
 40
6.0
 40
7.0
 40
7.0
 40
7.0
 40
8.0
 40
8.0
 40
8.0
 40
9.0
 40
9.0
 40
9.0
 40
10.0
 40
10.0
 40
10.0
 40
11.0
 40
11.0
 40
11.0
 40
12.0
 40
12.0
 40
12.0
 40
13.0
 40
13.0
 40
13.0
 40
14.0
 40
14.0
 40
14.0
 40
15.0
 40
15.0
 40
15.0
 40
15.0
 10
336.6378146034
 20
29.6576939068
 30
0.0
 10
336.6378146034
 20
29.6576939068
 30
0.0
 10
338.247042608
 20
29.6576939068
 30
0.0
 10
338.247042608
 20
29.6576939068
 30
0.0
 10
338.247042608
 20
29.6576939068
 30
0.0
 10
336.3740153144
 20
31.9748356782
 30
0.0
 10
336.3740153144
 20
31.9748356782
 30
0.0
 10
336.3740153144
 20
31.9748356782
 30
0.0
 10
337.6503537398
 20
33.4723153728
 30
0.0
 10
337.6503537398
 20
33.4723153728
 30
0.0
 10
337.6503537398
 20
33.4723153728
 30
0.0
 10
336.8181297921
 20
34.3333269413
 30
0.0
 10
336.8181297921
 20
34.3333269413
 30
0.0
 10
336.8181297921
 20
34.3333269413
 30
0.0
 10
335.5975346688
 20
32.9180228189
 30
0.0
 10
335.5975346688
 20
32.9180228189
 30
0.0
 10
335.5975346688
 20
32.9180228189
 30
0.0
 10
333.4196203
 20
35.5533986534
 30
0.0
 10
333.4196203
 20
35.5533986534
 30
0.0
 10
334.2931937394
 20
36.1914370133
 30
0.0
 10
335.3198649806
 20
36.9824423221
 30
0.0
 10
335.3198649806
 20
38.1612953952
 30
0.0
 10
335.3198649806
 20
39.5349883202
 30
0.0
 10
334.1819688408
 20
40.3394714696
 30
0.0
 10
332.9066772379
 20
40.3394714696
 30
0.0
 10
331.5332460185
 20
40.3394714696
 30
0.0
 10
330.4923118197
 20
39.49324627
 30
0.0
 10
330.4923118197
 20
38.0505939078
 30
0.0
 10
330.4923118197
 20
37.1630192164
 30
0.0
 10
331.0476511962
 20
36.3861460124
 30
0.0
 10
331.6438166531
 20
35.7617163459
 30
0.0
 10
331.6438166531
 20
35.7617163459
 30
0.0
 10
330.991907894
 20
35.2901227756
 30
0.0
 10
330.991907894
 20
35.2901227756
 30
0.0
 10
329.9933700096
 20
34.5688620209
 30
0.0
 10
329.1604917978
 20
33.8476012662
 30
0.0
 10
329.1604917978
 20
32.5160429498
 30
0.0
 10
329.1604917978
 20
30.7123676518
 30
0.0
 10
330.6175379704
 20
29.4357675207
 30
0.0
 10
332.3650774077
 20
29.4357675207
 30
0.0
 10
333.5999354886
 20
29.4357675207
 30
0.0
 10
334.7093057133
 20
30.1439429932
 30
0.0
 10
335.5001801693
 20
31.0724746179
 30
0.0
 10
335.5001801693
 20
31.0724746179
 30
0.0
 10
336.6378146034
 20
29.6576939068
 30
0.0
 10
336.6378146034
 20
29.6576939068
 30
0.0
  0
LINE
  5
262
100
AcDbEntity
  8
0
100
AcDbLine
 62
7
  6
CONTINUOUS
 10
322.4406759784
 20
27.6315688114
 11
344.8545867061
 21
27.6315688114
  0
LINE
  5
263
100
AcDbEntity
  8
0
100
AcDbLine
 62
7
  6
CONTINUOUS
 10
344.8545867061
 20
27.6315688114
 11
344.8545867061
 21
50.0454795391
  0
LINE
  5
264
100
AcDbEntity
  8
0
100
AcDbLine
 62
7
  6
CONTINUOUS
 10
344.8545867061
 20
50.0454795391
 11
322.4406759784
 21
50.0454795391
  0
LINE
  5
265
100
AcDbEntity
  8
0
100
AcDbLine
 62
7
  6
CONTINUOUS
 10
322.4406759784
 20
50.0454795391
 11
322.4406759784
 21
27.6315688114
  0
ENDBLK
  5
266
100
AcDbEntity
  8
0
  6
BYBLOCK
 62
0
100
AcDbBlockEnd
  0
BLOCK
  5
267
100
AcDbEntity
  8
0
100
AcDbBlockBegin
  2
_CLOSED
 70
64
 10
0.0
 20
0.0
  3
_CLOSED
  1

  0
LINE
  5
268
100
AcDbEntity
  8
0
  6
BYBLOCK
 62
0
100
AcDbLine
 10
0.0
 20
0.0
 11
-1.0
 21
0.2
  0
LINE
  5
269
100
AcDbEntity
  8
0
  6
BYBLOCK
 62
0
100
AcDbLine
 10
-1.0
 20
0.2
 11
-1.0
 21
-0.2
  0
LINE
  5
26A
100
AcDbEntity
  8
0
  6
BYBLOCK
 62
0
100
AcDbLine
 10
-1.0
 20
-0.2
 11
0.0
 21
0.0
  0
LINE
  5
26B
100
AcDbEntity
  8
0
  6
BYBLOCK
 62
0
100
AcDbLine
 10
-1.0
 20
0.0
 11
0.0
 21
0.0
  0
ENDBLK
  5
26C
100
AcDbEntity
  8
0
  6
BYBLOCK
 62
0
100
AcDbBlockEnd
  0
BLOCK
  5
26D
100
AcDbEntity
  8
0
100
AcDbBlockBegin
 62
2
  6
CONTINUOUS
  2
*D0
 70
65
 10
0.0
 20
0.0
  3
*D0
  1

  0
LINE
  5
26E
100
AcDbEntity
  8
0
100
AcDbLine
 62
2
  6
CONTINUOUS
 10
89.8651830179
 20
101.4568669779
 11
78.3102957413
 21
113.1899892592
  0
INSERT
  5
26F
100
AcDbEntity
  8
0
100
AcDbBlockReference
 62
2
  6
CONTINUOUS
  2
_CLOSED
 10
89.8651830179
 20
101.4568669779
 41
2.5
 42
2.5
 43
2.5
 50
314.5614947633
  0
ENDBLK
  5
270
100
AcDbEntity
  8
0
  6
BYBLOCK
 62
0
100
AcDbBlockEnd
  0
BLOCK
  5
271
100
AcDbEntity
  8
0
100
AcDbBlockBegin
 62
2
  6
CONTINUOUS
  2
*D1
 70
65
 10
0.0
 20
0.0
  3
*D1
  1

  0
LINE
  5
272
100
AcDbEntity
  8
0
100
AcDbLine
 62
2
  6
CONTINUOUS
 10
83.3670888672
 20
257.7251585637
 11
83.3670888672
 21
271.4832424926
  0
LINE
  5
273
100
AcDbEntity
  8
0
100
AcDbLine
 62
2
  6
CONTINUOUS
 10
139.8670888672
 20
256.9397040183
 11
139.8670888672
 21
271.4832424926
  0
LINE
  5
274
100
AcDbEntity
  8
0
100
AcDbLine
 62
2
  6
CONTINUOUS
 10
83.3670888672
 20
270.7332424926
 11
111.6170888672
 21
270.7332424926
  0
LINE
  5
275
100
AcDbEntity
  8
0
100
AcDbLine
 62
2
  6
CONTINUOUS
 10
139.8670888672
 20
270.7332424926
 11
111.6170888672
 21
270.7332424926
  0
INSERT
  5
276
100
AcDbEntity
  8
0
100
AcDbBlockReference
 62
2
  6
CONTINUOUS
  2
_CLOSED
 10
83.3670888672
 20
270.7332424926
 41
2.5
 42
2.5
 43
2.5
 50
180.0
  0
INSERT
  5
277
100
AcDbEntity
  8
0
100
AcDbBlockReference
 62
2
  6
CONTINUOUS
  2
_CLOSED
 10
139.8670888672
 20
270.7332424926
 41
2.5
 42
2.5
 43
2.5
  0
ENDBLK
  5
278
100
AcDbEntity
  8
0
  6
BYBLOCK
 62
0
100
AcDbBlockEnd
  0
BLOCK
  5
279
100
AcDbEntity
  8
0
100
AcDbBlockBegin
 62
2
  6
CONTINUOUS
  2
*D2
 70
65
 10
0.0
 20
0.0
  3
*D2
  1

  0
LINE
  5
27A
100
AcDbEntity
  8
0
100
AcDbLine
 62
2
  6
CONTINUOUS
 10
300.1648806011
 20
260.0378045987
 11
318.5222187829
 21
260.0378045987
  0
LINE
  5
27B
100
AcDbEntity
  8
0
100
AcDbLine
 62
2
  6
CONTINUOUS
 10
299.6739715102
 20
176.5378045987
 11
318.5222187829
 21
176.5378045987
  0
LINE
  5
27C
100
AcDbEntity
  8
0
100
AcDbLine
 62
2
  6
CONTINUOUS
 10
317.7722187829
 20
260.0378045987
 11
317.7722187829
 21
218.2878045987
  0
LINE
  5
27D
100
AcDbEntity
  8
0
100
AcDbLine
 62
2
  6
CONTINUOUS
 10
317.7722187829
 20
176.5378045987
 11
317.7722187829
 21
218.2878045987
  0
INSERT
  5
27E
100
AcDbEntity
  8
0
100
AcDbBlockReference
 62
2
  6
CONTINUOUS
  2
_CLOSED
 10
317.7722187829
 20
260.0378045987
 41
2.5
 42
2.5
 43
2.5
 50
90.0
  0
INSERT
  5
27F
100
AcDbEntity
  8
0
100
AcDbBlockReference
 62
2
  6
CONTINUOUS
  2
_CLOSED
 10
317.7722187829
 20
176.5378045987
 41
2.5
 42
2.5
 43
2.5
 50
270.0
  0
ENDBLK
  5
280
100
AcDbEntity
  8
0
  6
BYBLOCK
 62
0
100
AcDbBlockEnd
  0
BLOCK
  5
281
100
AcDbEntity
  8
0
100
AcDbBlockBegin
  2
*T1
 70
1
 10
0.0
 20
0.0
  3
*T1
  1

  0
LINE
  5
282
100
AcDbEntity
  8
0
100
AcDbLine
 62
2
  6
CONTINUOUS
 10
0.0
 20
0.0
 11
90.0
 21
0.0
  0
LINE
  5
283
100
AcDbEntity
  8
0
100
AcDbLine
 62
2
  6
CONTINUOUS
 10
0.0
 20
0.0
 11
0.0
 21
-40.0
  0
LINE
  5
284
100
AcDbEntity
  8
0
100
AcDbLine
 62
2
  6
CONTINUOUS
 10
30.0
 20
-6.0
 11
90.0
 21
-6.0
  0
LINE
  5
285
100
AcDbEntity
  8
0
100
AcDbLine
 62
2
  6
CONTINUOUS
 10
30.0
 20
-12.0
 11
90.0
 21
-12.0
  0
LINE
  5
286
100
AcDbEntity
  8
0
100
AcDbLine
 62
2
  6
CONTINUOUS
 10
30.0
 20
-22.0
 11
90.0
 21
-22.0
  0
LINE
  5
287
100
AcDbEntity
  8
0
100
AcDbLine
 62
2
  6
CONTINUOUS
 10
0.0
 20
-27.0
 11
90.0
 21
-27.0
  0
LINE
  5
288
100
AcDbEntity
  8
0
100
AcDbLine
 62
2
  6
CONTINUOUS
 10
0.0
 20
-40.0
 11
90.0
 21
-40.0
  0
LINE
  5
289
100
AcDbEntity
  8
0
100
AcDbLine
 62
2
  6
CONTINUOUS
 10
30.0
 20
0.0
 11
30.0
 21
-27.0
  0
LINE
  5
28A
100
AcDbEntity
  8
0
100
AcDbLine
 62
2
  6
CONTINUOUS
 10
70.0
 20
0.0
 11
70.0
 21
-12.0
  0
LINE
  5
28B
100
AcDbEntity
  8
0
100
AcDbLine
 62
2
  6
CONTINUOUS
 10
90.0
 20
0.0
 11
90.0
 21
-40.0
  0
ENDBLK
  5
28C
100
AcDbEntity
  8
0
100
AcDbBlockEnd
  0
ENDSEC
  0
SECTION
  2
ENTITIES
  0
DIMENSION
  5
28D
100
AcDbEntity
  8
0
100
AcDbDimension
 62
2
  6
CONTINUOUS
  2
*D0
 10
89.8651830179
 20
101.4568669779
 11
78.844669063
 21
113.7162450459
 70
163
 71
3
 42
62.0
  1
<>
  3
DIMSTYLE_1
100
AcDbDiametricDimension
 15
133.3689947165
 25
57.2820057139
  0
DIMENSION
  5
28E
100
AcDbEntity
  8
0
100
AcDbDimension
 62
2
  6
CONTINUOUS
  2
*D1
 10
139.8670888672
 20
270.7332424926
 11
107.3670888672
 21
271.4832424926
 70
160
 71
2
 42
56.5
  1
%%c<>
  3
DIMSTYLE_2
100
AcDbAlignedDimension
 13
83.3670888672
 23
257.7251585637
 14
139.8670888672
 24
256.9397040183
100
AcDbRotatedDimension
  0
DIMENSION
  5
28F
100
AcDbEntity
  8
0
100
AcDbDimension
 62
2
  6
CONTINUOUS
  2
*D2
 10
317.7722187829
 20
176.5378045987
 11
317.0222187829
 21
215.9306617416
 70
160
 71
2
 42
83.5
  3
DIMSTYLE_2
100
AcDbAlignedDimension
 13
300.1648806011
 23
260.0378045987
 14
299.6739715102
 24
176.5378045987
 50
270.0
100
AcDbRotatedDimension
  0
INSERT
  5
290
100
AcDbEntity
  8
0
100
AcDbBlockReference
 62
2
  6
CONTINUOUS
  2
LOGO2_BL0
 10
333.6475659158
 20
36.9217920391
  0
LWPOLYLINE
  5
291
100
AcDbEntity
  8
0
100
AcDbPolyline
 62
2
  6
CONTINUOUS
 90
10
 70
0
 10
352.380435791
 20
48.9217913818
 10
351.7375927734
 20
48.2789355469
 10
351.3090307617
 20
47.4217922974
 10
351.3090307617
 20
46.3503616333
 10
351.7375927734
 20
45.9217932129
 10
352.380435791
 20
45.9217932129
 10
352.8090234375
 20
46.3503616333
 10
352.8090234375
 20
47.2075048828
 10
352.380435791
 20
47.6360797119
 10
351.4518676758
 20
47.6360797119
  0
LWPOLYLINE
  5
292
100
AcDbEntity
  8
0
100
AcDbPolyline
 62
2
  6
CONTINUOUS
 90
3
 70
0
 10
353.6661730957
 20
45.9217932129
 10
353.6661730957
 20
48.9217913818
 10
354.9518847656
 20
48.9217913818
  0
LINE
  5
293
100
AcDbEntity
  8
0
100
AcDbLine
 62
2
  6
CONTINUOUS
 10
354.5232971191
 20
47.6360797119
 11
353.6661730957
 21
47.6360797119
  0
LINE
  5
294
100
AcDbEntity
  8
0
100
AcDbLine
 62
2
  6
CONTINUOUS
 10
353.6661730957
 20
45.9217932129
 11
354.9518847656
 21
45.9217932129
  0
LWPOLYLINE
  5
295
100
AcDbEntity
  8
0
100
AcDbPolyline
 62
2
  6
CONTINUOUS
 90
8
 70
0
 10
355.8090087891
 20
45.9217932129
 10
356.6661584473
 20
45.9217932129
 10
357.094720459
 20
46.3503616333
 10
357.094720459
 20
47.2075048828
 10
356.6661584473
 20
47.6360797119
 10
355.8090087891
 20
47.6360797119
 10
355.8090087891
 20
48.9217913818
 10
357.094720459
 20
48.9217913818
  0
LINE
  5
296
100
AcDbEntity
  8
0
100
AcDbLine
 62
2
  6
CONTINUOUS
 10
357.9518701172
 20
45.9217932129
 11
359.6661694336
 21
45.9217932129
  0
LWPOLYLINE
  5
297
100
AcDbEntity
  8
0
100
AcDbPolyline
 62
2
  6
CONTINUOUS
 90
6
 70
0
 10
361.5947241211
 20
45.9217932129
 10
360.7376000977
 20
45.9217932129
 10
360.3090124512
 20
46.3503616333
 10
360.3090124512
 20
48.4932229614
 10
360.7376000977
 20
48.9217913818
 10
361.5947241211
 20
48.9217913818
  0
LINE
  5
298
100
AcDbEntity
  8
0
100
AcDbLine
 62
2
  6
CONTINUOUS
 10
362.809017334
 20
45.9217932129
 11
364.5233166504
 21
45.9217932129
  0
LWPOLYLINE
  5
299
100
AcDbEntity
  8
0
100
AcDbPolyline
 62
2
  6
CONTINUOUS
 90
13
 70
0
 10
365.166159668
 20
46.7789364624
 10
365.166159668
 20
48.0646481323
 10
365.3804406738
 20
48.4932229614
 10
365.8090283203
 20
48.9217913818
 10
366.0233093262
 20
48.9217913818
 10
366.4518713379
 20
48.4932229614
 10
366.6661523438
 20
48.0646481323
 10
366.6661523438
 20
46.7789364624
 10
366.4518713379
 20
46.3503616333
 10
366.0233093262
 20
45.9217932129
 10
365.8090283203
 20
45.9217932129
 10
365.3804406738
 20
46.3503616333
 10
365.166159668
 20
46.7789364624
  0
LWPOLYLINE
  5
29A
100
AcDbEntity
  8
0
100
AcDbPolyline
 62
2
  6
CONTINUOUS
 90
13
 70
0
 10
367.523302002
 20
46.7789364624
 10
367.523302002
 20
48.0646481323
 10
367.7375830078
 20
48.4932229614
 10
368.1661706543
 20
48.9217913818
 10
368.3804516602
 20
48.9217913818
 10
368.8090136719
 20
48.4932229614
 10
369.0232946777
 20
48.0646481323
 10
369.0232946777
 20
46.7789364624
 10
368.8090136719
 20
46.3503616333
 10
368.3804516602
 20
45.9217932129
 10
368.1661706543
 20
45.9217932129
 10
367.7375830078
 20
46.3503616333
 10
367.523302002
 20
46.7789364624
  0
LWPOLYLINE
  5
29B
100
AcDbEntity
  8
0
100
AcDbPolyline
 62
2
  6
CONTINUOUS
 90
3
 70
0
 10
369.8804443359
 20
48.0646481323
 10
370.7375939941
 20
48.9217913818
 10
370.7375939941
 20
45.9217932129
  0
LWPOLYLINE
  5
29C
100
AcDbEntity
  8
0
100
AcDbPolyline
 62
2
  6
CONTINUOUS
 90
7
 70
0
 10
391.3090063477
 20
45.6717901611
 10
391.3090063477
 20
49.1717944336
 10
392.5590087891
 20
49.1717944336
 10
393.0590148926
 20
48.6717947388
 10
393.0590148926
 20
47.6717889404
 10
392.5590087891
 20
47.1717892456
 10
391.3090063477
 20
47.1717892456
  0
LINE
  5
29D
100
AcDbEntity
  8
0
100
AcDbLine
 62
2
  6
CONTINUOUS
 10
392.0590283203
 20
47.1717892456
 11
393.0590148926
 21
45.6717901611
  0
LWPOLYLINE
  5
29E
100
AcDbEntity
  8
0
100
AcDbPolyline
 62
2
  6
CONTINUOUS
 90
9
 70
0
 10
395.5590197754
 20
45.6717901611
 10
394.5590075684
 20
45.6717901611
 10
394.0590270996
 20
46.171789856
 10
394.0590270996
 20
47.6717889404
 10
394.5590075684
 20
48.1717950439
 10
395.0590136719
 20
48.1717950439
 10
395.5590197754
 20
47.6717889404
 10
395.5590197754
 20
46.9217926025
 10
394.0590270996
 20
46.9217926025
  0
LWPOLYLINE
  5
29F
100
AcDbEntity
  8
0
100
AcDbPolyline
 62
2
  6
CONTINUOUS
 90
3
 70
0
 10
396.5590063477
 20
48.1717950439
 10
397.3090283203
 20
45.6717901611
 10
398.0590246582
 20
48.1717950439
  0
LWPOLYLINE
  5
2A0
100
AcDbEntity
  8
0
100
AcDbPolyline
 62
2
  6
CONTINUOUS
 90
4
 70
0
 10
399.0590112305
 20
45.6717901611
 10
399.0590112305
 20
45.9217932129
 10
399.2256884766
 20
45.9217932129
 10
399.0590112305
 20
45.6717901611
  0
LWPOLYLINE
  5
2A1
100
AcDbEntity
  8
0
100
AcDbPolyline
 62
2
  6
CONTINUOUS
 90
4
 70
0
 10
399.0590112305
 20
47.1717892456
 10
399.0590112305
 20
47.4217922974
 10
399.2256884766
 20
47.4217922974
 10
399.0590112305
 20
47.1717892456
  0
LWPOLYLINE
  5
2A2
100
AcDbEntity
  8
0
100
AcDbPolyline
 62
2
  6
CONTINUOUS
 90
13
 70
0
 10
400.3090136719
 20
46.6717895508
 10
400.3090136719
 20
48.1717950439
 10
400.559029541
 20
48.6717947388
 10
401.0590100098
 20
49.1717944336
 10
401.3090258789
 20
49.1717944336
 10
401.8090063477
 20
48.6717947388
 10
402.0590222168
 20
48.1717950439
 10
402.0590222168
 20
46.6717895508
 10
401.8090063477
 20
46.171789856
 10
401.3090258789
 20
45.6717901611
 10
401.0590100098
 20
45.6717901611
 10
400.559029541
 20
46.171789856
 10
400.3090136719
 20
46.6717895508
  0
LWPOLYLINE
  5
2A3
100
AcDbEntity
  8
0
100
AcDbPolyline
 62
2
  6
CONTINUOUS
 90
13
 70
0
 10
403.0590087891
 20
46.6717895508
 10
403.0590087891
 20
48.1717950439
 10
403.3090246582
 20
48.6717947388
 10
403.8090307617
 20
49.1717944336
 10
404.0590209961
 20
49.1717944336
 10
404.5590270996
 20
48.6717947388
 10
404.809017334
 20
48.1717950439
 10
404.809017334
 20
46.6717895508
 10
404.5590270996
 20
46.171789856
 10
404.0590209961
 20
45.6717901611
 10
403.8090307617
 20
45.6717901611
 10
403.3090246582
 20
46.171789856
 10
403.0590087891
 20
46.6717895508
  0
LWPOLYLINE
  5
2A4
100
AcDbEntity
  8
0
100
AcDbPolyline
 62
2
  6
CONTINUOUS
 90
10
 70
0
 10
351.3090307617
 20
39.4217907715
 10
351.5590209961
 20
39.1717941284
 10
352.5590075684
 20
39.1717941284
 10
353.0590136719
 20
39.6717938232
 10
353.0590136719
 20
40.1717935181
 10
351.3090307617
 20
41.6717926025
 10
351.3090307617
 20
42.1717922974
 10
351.8090112305
 20
42.6717919922
 10
352.8090234375
 20
42.6717919922
 10
353.0590136719
 20
42.4217889404
  0
LWPOLYLINE
  5
2A5
100
AcDbEntity
  8
0
100
AcDbPolyline
 62
2
  6
CONTINUOUS
 90
6
 70
0
 10
355.3090283203
 20
39.1717941284
 10
354.3090161133
 20
39.1717941284
 10
354.0590258789
 20
39.4217907715
 10
354.0590258789
 20
41.4217895508
 10
354.3090161133
 20
41.6717926025
 10
355.3090283203
 20
41.6717926025
  0
LWPOLYLINE
  5
2A6
100
AcDbEntity
  8
0
100
AcDbPolyline
 62
2
  6
CONTINUOUS
 90
4
 70
0
 10
357.8090075684
 20
39.1717941284
 10
357.8090075684
 20
41.1717929077
 10
357.559017334
 20
41.6717926025
 10
356.3090148926
 20
41.6717926025
  0
LWPOLYLINE
  5
2A7
100
AcDbEntity
  8
0
100
AcDbPolyline
 62
2
  6
CONTINUOUS
 90
6
 70
0
 10
357.8090075684
 20
39.1717941284
 10
356.8090209961
 20
39.1717941284
 10
356.3090148926
 20
39.4217907715
 10
356.3090148926
 20
40.1717935181
 10
356.8090209961
 20
40.4217901611
 10
357.8090075684
 20
40.4217901611
  0
LWPOLYLINE
  5
2A8
100
AcDbEntity
  8
0
100
AcDbPolyline
 62
2
  6
CONTINUOUS
 90
4
 70
0
 10
359.5590161133
 20
39.1717941284
 10
359.0590100098
 20
39.1717941284
 10
358.8090197754
 20
39.4217907715
 10
358.8090197754
 20
42.6717919922
  0
LWPOLYLINE
  5
2A9
100
AcDbEntity
  8
0
100
AcDbPolyline
 62
2
  6
CONTINUOUS
 90
9
 70
0
 10
362.0590209961
 20
39.1717941284
 10
361.0590087891
 20
39.1717941284
 10
360.5590283203
 20
39.6717938232
 10
360.5590283203
 20
41.1717929077
 10
361.0590087891
 20
41.6717926025
 10
361.5590148926
 20
41.6717926025
 10
362.0590209961
 20
41.1717929077
 10
362.0590209961
 20
40.4217901611
 10
360.5590283203
 20
40.4217901611
  0
LWPOLYLINE
  5
2AA
100
AcDbEntity
  8
0
100
AcDbPolyline
 62
2
  6
CONTINUOUS
 90
4
 70
0
 10
363.0590075684
 20
39.1717941284
 10
363.0590075684
 20
39.4217907715
 10
363.2256848145
 20
39.4217907715
 10
363.0590075684
 20
39.1717941284
  0
LWPOLYLINE
  5
2AB
100
AcDbEntity
  8
0
100
AcDbPolyline
 62
2
  6
CONTINUOUS
 90
4
 70
0
 10
363.0590075684
 20
40.6717932129
 10
363.0590075684
 20
40.921789856
 10
363.2256848145
 20
40.921789856
 10
363.0590075684
 20
40.6717932129
  0
LWPOLYLINE
  5
2AC
100
AcDbEntity
  8
0
100
AcDbPolyline
 62
2
  6
CONTINUOUS
 90
3
 70
0
 10
364.3090100098
 20
41.6717926025
 10
365.3090222168
 20
42.6717919922
 10
365.3090222168
 20
39.1717941284
  0
LWPOLYLINE
  5
2AD
100
AcDbEntity
  8
0
100
AcDbPolyline
 62
2
  6
CONTINUOUS
 90
4
 70
0
 10
366.3090087891
 20
39.1717941284
 10
366.3090087891
 20
39.4217907715
 10
366.4756860352
 20
39.4217907715
 10
366.3090087891
 20
39.1717941284
  0
LWPOLYLINE
  5
2AE
100
AcDbEntity
  8
0
100
AcDbPolyline
 62
2
  6
CONTINUOUS
 90
4
 70
0
 10
366.3090087891
 20
40.6717932129
 10
366.3090087891
 20
40.921789856
 10
366.4756860352
 20
40.921789856
 10
366.3090087891
 20
40.6717932129
  0
LWPOLYLINE
  5
2AF
100
AcDbEntity
  8
0
100
AcDbPolyline
 62
2
  6
CONTINUOUS
 90
3
 70
0
 10
367.5590112305
 20
41.6717926025
 10
368.5590234375
 20
42.6717919922
 10
368.5590234375
 20
39.1717941284
  0
LWPOLYLINE
  5
2B0
100
AcDbEntity
  8
0
100
AcDbPolyline
 62
2
  6
CONTINUOUS
 90
3
 70
0
 10
391.3090063477
 20
39.6717938232
 10
392.3090185547
 20
43.171791687
 10
393.3090307617
 20
39.6717938232
  0
LINE
  5
2B1
100
AcDbEntity
  8
0
100
AcDbLine
 62
2
  6
CONTINUOUS
 10
391.6423608398
 20
40.6717932129
 11
392.9756762695
 21
40.6717932129
  0
LWPOLYLINE
  5
2B2
100
AcDbEntity
  8
0
100
AcDbPolyline
 62
2
  6
CONTINUOUS
 90
6
 70
0
 10
394.309017334
 20
39.6717938232
 10
395.5590197754
 20
39.6717938232
 10
395.8090100098
 20
39.9217904663
 10
395.8090100098
 20
41.1717929077
 10
395.309029541
 20
41.6717926025
 10
394.8090234375
 20
41.6717926025
  0
LWPOLYLINE
  5
2B3
100
AcDbEntity
  8
0
100
AcDbPolyline
 62
2
  6
CONTINUOUS
 90
5
 70
0
 10
395.309029541
 20
41.6717926025
 10
395.7256970215
 20
41.9217892456
 10
395.7256970215
 20
42.6717919922
 10
395.309029541
 20
43.171791687
 10
394.309017334
 20
43.171791687
  0
LINE
  5
2B4
100
AcDbEntity
  8
0
100
AcDbLine
 62
2
  6
CONTINUOUS
 10
352.309017334
 20
31.6717922974
 11
352.309017334
 21
35.1717901611
  0
LINE
  5
2B5
100
AcDbEntity
  8
0
100
AcDbLine
 62
2
  6
CONTINUOUS
 10
351.3090307617
 20
35.1717901611
 11
353.309029541
 21
35.1717901611
  0
LWPOLYLINE
  5
2B6
100
AcDbEntity
  8
0
100
AcDbPolyline
 62
2
  6
CONTINUOUS
 90
5
 70
0
 10
354.3090161133
 20
34.1717907715
 10
354.3090161133
 20
31.9217889404
 10
354.5590063477
 20
31.6717922974
 10
355.8090087891
 20
31.6717922974
 10
355.8090087891
 20
34.1717907715
  0
LWPOLYLINE
  5
2B7
100
AcDbEntity
  8
0
100
AcDbPolyline
 62
2
  6
CONTINUOUS
 90
5
 70
0
 10
356.8090209961
 20
31.6717922974
 10
356.8090209961
 20
34.1717907715
 10
357.8090075684
 20
34.1717907715
 10
357.9756848145
 20
33.9217941284
 10
357.9756848145
 20
33.4217944336
  0
LINE
  5
2B8
100
AcDbEntity
  8
0
100
AcDbLine
 62
2
  6
CONTINUOUS
 10
359.5590161133
 20
31.6717922974
 11
359.5590161133
 21
34.1717907715
  0
LWPOLYLINE
  5
2B9
100
AcDbEntity
  8
0
100
AcDbPolyline
 62
2
  6
CONTINUOUS
 90
4
 70
0
 10
359.5590161133
 20
34.9217935181
 10
359.5590161133
 20
35.1717901611
 10
359.6423547363
 20
35.1717901611
 10
359.5590161133
 20
34.9217935181
  0
LWPOLYLINE
  5
2BA
100
AcDbEntity
  8
0
100
AcDbPolyline
 62
2
  6
CONTINUOUS
 90
12
 70
0
 10
360.8923571777
 20
31.9217889404
 10
361.1423474121
 20
31.6717922974
 10
362.1423596191
 20
31.6717922974
 10
362.3923498535
 20
31.9217889404
 10
362.3923498535
 20
32.671791687
 10
362.1423596191
 20
32.8384561157
 10
361.1423474121
 20
33.0051269531
 10
360.8923571777
 20
33.1717913818
 10
360.8923571777
 20
33.9217941284
 10
361.1423474121
 20
34.1717907715
 10
362.1423596191
 20
34.1717907715
 10
362.3923498535
 20
33.9217941284
  0
LWPOLYLINE
  5
2BB
100
AcDbEntity
  8
0
100
AcDbPolyline
 62
2
  6
CONTINUOUS
 90
3
 70
0
 10
366.1423571777
 20
34.1717907715
 10
367.14234375
 20
35.1717901611
 10
367.14234375
 20
31.6717922974
  0
LWPOLYLINE
  5
2BC
100
AcDbEntity
  8
0
100
AcDbPolyline
 62
2
  6
CONTINUOUS
 90
9
 70
0
 10
368.8923522949
 20
32.2551242065
 10
368.975690918
 20
32.0884597778
 10
368.975690918
 20
32.0051275635
 10
368.8923522949
 20
31.8384567261
 10
368.7256750488
 20
31.8384567261
 10
368.6423620605
 20
32.0051275635
 10
368.6423620605
 20
32.0884597778
 10
368.7256750488
 20
32.2551242065
 10
368.8923522949
 20
32.2551242065
  0
LWPOLYLINE
  5
2BD
100
AcDbEntity
  8
0
100
AcDbPolyline
 62
2
  6
CONTINUOUS
 90
6
 70
0
 10
370.1423547363
 20
31.6717922974
 10
371.3923571777
 20
31.6717922974
 10
371.6423474121
 20
31.9217889404
 10
371.6423474121
 20
33.1717913818
 10
371.1423413086
 20
33.6717910767
 10
370.6423608398
 20
33.6717910767
  0
LWPOLYLINE
  5
2BE
100
AcDbEntity
  8
0
100
AcDbPolyline
 62
2
  6
CONTINUOUS
 90
5
 70
0
 10
371.1423413086
 20
33.6717910767
 10
371.5590087891
 20
33.9217941284
 10
371.5590087891
 20
34.6717904663
 10
371.1423413086
 20
35.1717901611
 10
370.1423547363
 20
35.1717901611
  0
LWPOLYLINE
  5
2BF
100
AcDbEntity
  8
0
100
AcDbPolyline
 62
2
  6
CONTINUOUS
 90
7
 70
0
 10
351.3090307617
 20
24.6717933655
 10
351.3090307617
 20
27.1717950439
 10
352.2018640137
 20
27.1717950439
 10
352.5590075684
 20
26.8146514893
 10
352.5590075684
 20
25.0289337158
 10
352.2018640137
 20
24.6717933655
 10
351.3090307617
 20
24.6717933655
  0
LWPOLYLINE
  5
2C0
100
AcDbEntity
  8
0
100
AcDbPolyline
 62
2
  6
CONTINUOUS
 90
3
 70
0
 10
353.5709143066
 20
24.6717933655
 10
354.285201416
 20
27.1717950439
 10
354.9994885254
 20
24.6717933655
  0
LINE
  5
2C1
100
AcDbEntity
  8
0
100
AcDbLine
 62
2
  6
CONTINUOUS
 10
353.8090100098
 20
25.3860772705
 11
354.7613928223
 21
25.3860772705
  0
LINE
  5
2C2
100
AcDbEntity
  8
0
100
AcDbLine
 62
2
  6
CONTINUOUS
 10
356.4280627441
 20
24.6717933655
 11
356.4280627441
 21
27.1717950439
  0
LINE
  5
2C3
100
AcDbEntity
  8
0
100
AcDbLine
 62
2
  6
CONTINUOUS
 10
355.7137756348
 20
27.1717950439
 11
357.1423498535
 21
27.1717950439
  0
LWPOLYLINE
  5
2C4
100
AcDbEntity
  8
0
100
AcDbPolyline
 62
2
  6
CONTINUOUS
 90
3
 70
0
 10
357.8566369629
 20
24.6717933655
 10
357.8566369629
 20
27.1717950439
 10
358.928067627
 20
27.1717950439
  0
LINE
  5
2C5
100
AcDbEntity
  8
0
100
AcDbLine
 62
2
  6
CONTINUOUS
 10
358.5709240723
 20
26.1003643799
 11
357.8566369629
 21
26.1003643799
  0
LINE
  5
2C6
100
AcDbEntity
  8
0
100
AcDbLine
 62
2
  6
CONTINUOUS
 10
357.8566369629
 20
24.6717933655
 11
358.928067627
 21
24.6717933655
  0
LWPOLYLINE
  5
2C7
100
AcDbEntity
  8
0
100
AcDbPolyline
 62
2
  6
CONTINUOUS
 90
4
 70
0
 10
359.6423547363
 20
24.6717933655
 10
359.6423547363
 20
24.8503619385
 10
359.7614025879
 20
24.8503619385
 10
359.6423547363
 20
24.6717933655
  0
LWPOLYLINE
  5
2C8
100
AcDbEntity
  8
0
100
AcDbPolyline
 62
2
  6
CONTINUOUS
 90
4
 70
0
 10
359.6423547363
 20
25.7432208252
 10
359.6423547363
 20
25.9217926025
 10
359.7614025879
 20
25.9217926025
 10
359.6423547363
 20
25.7432208252
  0
LWPOLYLINE
  5
2C9
100
AcDbEntity
  8
0
100
AcDbPolyline
 62
2
  6
CONTINUOUS
 90
3
 70
0
 10
360.535213623
 20
26.4575079346
 10
361.2495007324
 20
27.1717950439
 10
361.2495007324
 20
24.6717933655
  0
LWPOLYLINE
  5
2CA
100
AcDbEntity
  8
0
100
AcDbPolyline
 62
2
  6
CONTINUOUS
 90
4
 70
0
 10
361.9637878418
 20
26.6360797119
 10
361.9637878418
 20
27.1717950439
 10
363.2137902832
 20
27.1717950439
 10
362.4995031738
 20
24.6717933655
  0
LINE
  5
2CB
100
AcDbEntity
  8
0
100
AcDbLine
 62
2
  6
CONTINUOUS
 10
365.3566259766
 20
26.9336993408
 11
363.9280773926
 21
24.7313172913
  0
LWPOLYLINE
  5
2CC
100
AcDbEntity
  8
0
100
AcDbPolyline
 62
2
  6
CONTINUOUS
 90
13
 70
0
 10
365.8328173828
 20
25.3860772705
 10
365.8328173828
 20
26.4575079346
 10
366.0113891602
 20
26.8146514893
 10
366.3685327148
 20
27.1717950439
 10
366.5471044922
 20
27.1717950439
 10
366.9042480469
 20
26.8146514893
 10
367.0828198242
 20
26.4575079346
 10
367.0828198242
 20
25.3860772705
 10
366.9042480469
 20
25.0289337158
 10
366.5471044922
 20
24.6717933655
 10
366.3685327148
 20
24.6717933655
 10
366.0113891602
 20
25.0289337158
 10
365.8328173828
 20
25.3860772705
  0
LWPOLYLINE
  5
2CD
100
AcDbEntity
  8
0
100
AcDbPolyline
 62
2
  6
CONTINUOUS
 90
8
 70
0
 10
367.7971069336
 20
24.6717933655
 10
368.511394043
 20
24.6717933655
 10
368.8685375977
 20
25.0289337158
 10
368.8685375977
 20
25.7432208252
 10
368.511394043
 20
26.1003643799
 10
367.7971069336
 20
26.1003643799
 10
367.7971069336
 20
27.1717950439
 10
368.8685375977
 20
27.1717950439
  0
LINE
  5
2CE
100
AcDbEntity
  8
0
100
AcDbLine
 62
2
  6
CONTINUOUS
 10
371.0113989258
 20
26.9336993408
 11
369.582824707
 21
24.7313172913
  0
LWPOLYLINE
  5
2CF
100
AcDbEntity
  8
0
100
AcDbPolyline
 62
2
  6
CONTINUOUS
 90
7
 70
0
 10
372.7375927734
 20
24.6717933655
 10
371.487590332
 20
24.6717933655
 10
372.7375927734
 20
26.4575079346
 10
372.7375927734
 20
26.8146514893
 10
372.3804492187
 20
27.1717950439
 10
371.8447338867
 20
27.1717950439
 10
371.487590332
 20
26.6360797119
  0
LWPOLYLINE
  5
2D0
100
AcDbEntity
  8
0
100
AcDbPolyline
 62
2
  6
CONTINUOUS
 90
13
 70
0
 10
373.4518798828
 20
25.3860772705
 10
373.4518798828
 20
26.4575079346
 10
373.6304516602
 20
26.8146514893
 10
373.9875952148
 20
27.1717950439
 10
374.1661669922
 20
27.1717950439
 10
374.5233105469
 20
26.8146514893
 10
374.7018823242
 20
26.4575079346
 10
374.7018823242
 20
25.3860772705
 10
374.5233105469
 20
25.0289337158
 10
374.1661669922
 20
24.6717933655
 10
373.9875952148
 20
24.6717933655
 10
373.6304516602
 20
25.0289337158
 10
373.4518798828
 20
25.3860772705
  0
LWPOLYLINE
  5
2D1
100
AcDbEntity
  8
0
100
AcDbPolyline
 62
2
  6
CONTINUOUS
 90
3
 70
0
 10
375.4161694336
 20
26.4575079346
 10
376.130456543
 20
27.1717950439
 10
376.130456543
 20
24.6717933655
  0
LWPOLYLINE
  5
2D2
100
AcDbEntity
  8
0
100
AcDbPolyline
 62
2
  6
CONTINUOUS
 90
4
 70
0
 10
376.8447436523
 20
26.6360797119
 10
376.8447436523
 20
27.1717950439
 10
378.094720459
 20
27.1717950439
 10
377.3804589844
 20
24.6717933655
  0
LWPOLYLINE
  5
2D3
100
AcDbEntity
  8
0
100
AcDbPolyline
 62
2
  6
CONTINUOUS
 90
3
 70
0
 10
321.3090234375
 20
20.859291687
 10
321.9518664551
 20
23.1092935181
 10
322.5947351074
 20
20.859291687
  0
LINE
  5
2D4
100
AcDbEntity
  8
0
100
AcDbLine
 62
2
  6
CONTINUOUS
 10
321.5233044434
 20
21.5021507263
 11
322.3804541016
 21
21.5021507263
  0
LWPOLYLINE
  5
2D5
100
AcDbEntity
  8
0
100
AcDbPolyline
 62
2
  6
CONTINUOUS
 90
5
 70
0
 10
323.237578125
 20
20.859291687
 10
323.237578125
 20
22.4664344788
 10
324.041151123
 20
22.4664344788
 10
324.2018811035
 20
22.30572052
 10
324.2018811035
 20
20.859291687
  0
LWPOLYLINE
  5
2D6
100
AcDbEntity
  8
0
100
AcDbPolyline
 62
2
  6
CONTINUOUS
 90
3
 70
0
 10
324.8447241211
 20
20.323576355
 10
325.1661584473
 20
20.323576355
 10
325.8090270996
 20
22.4664344788
  0
LINE
  5
2D7
100
AcDbEntity
  8
0
100
AcDbLine
 62
2
  6
CONTINUOUS
 10
324.8447241211
 20
22.4664344788
 11
325.3268884277
 21
20.859291687
  0
LINE
  5
2D8
100
AcDbEntity
  8
0
100
AcDbLine
 62
2
  6
CONTINUOUS
 10
328.3268737793
 20
20.859291687
 11
328.3268737793
 21
22.4664344788
  0
LWPOLYLINE
  5
2D9
100
AcDbEntity
  8
0
100
AcDbPolyline
 62
2
  6
CONTINUOUS
 90
4
 70
0
 10
328.3268737793
 20
22.948576355
 10
328.3268737793
 20
23.1092935181
 10
328.3804504395
 20
23.1092935181
 10
328.3268737793
 20
22.948576355
  0
LWPOLYLINE
  5
2DA
100
AcDbEntity
  8
0
100
AcDbPolyline
 62
2
  6
CONTINUOUS
 90
5
 70
0
 10
329.1840234375
 20
20.859291687
 10
329.1840234375
 20
22.4664344788
 10
329.9875964355
 20
22.4664344788
 10
330.1483007812
 20
22.30572052
 10
330.1483007812
 20
20.859291687
  0
LINE
  5
2DB
100
AcDbEntity
  8
0
100
AcDbLine
 62
2
  6
CONTINUOUS
 10
331.0590270996
 20
20.859291687
 11
331.0590270996
 21
23.1092935181
  0
LINE
  5
2DC
100
AcDbEntity
  8
0
100
AcDbLine
 62
2
  6
CONTINUOUS
 10
330.7911694336
 20
22.4664344788
 11
331.4340124512
 21
22.4664344788
  0
LWPOLYLINE
  5
2DD
100
AcDbEntity
  8
0
100
AcDbPolyline
 62
2
  6
CONTINUOUS
 90
9
 70
0
 10
333.0411584473
 20
20.859291687
 10
332.3983154297
 20
20.859291687
 10
332.0768811035
 20
21.1807196045
 10
332.0768811035
 20
22.1450065613
 10
332.3983154297
 20
22.4664344788
 10
332.7197241211
 20
22.4664344788
 10
333.0411584473
 20
22.1450065613
 10
333.0411584473
 20
21.6628646851
 10
332.0768811035
 20
21.6628646851
  0
LWPOLYLINE
  5
2DE
100
AcDbEntity
  8
0
100
AcDbPolyline
 62
2
  6
CONTINUOUS
 90
9
 70
0
 10
333.6840270996
 20
20.323576355
 10
334.4876000977
 20
20.323576355
 10
334.6483044434
 20
20.5378637695
 10
334.6483044434
 20
22.4664344788
 10
333.8447314453
 20
22.4664344788
 10
333.6840270996
 20
22.30572052
 10
333.6840270996
 20
21.0200056458
 10
333.8447314453
 20
20.859291687
 10
334.6483044434
 20
20.859291687
  0
LWPOLYLINE
  5
2DF
100
AcDbEntity
  8
0
100
AcDbPolyline
 62
2
  6
CONTINUOUS
 90
5
 70
0
 10
335.2911730957
 20
20.859291687
 10
335.2911730957
 20
22.4664344788
 10
335.9340161133
 20
22.4664344788
 10
336.0411694336
 20
22.30572052
 10
336.0411694336
 20
21.9842926025
  0
LWPOLYLINE
  5
2E0
100
AcDbEntity
  8
0
100
AcDbPolyline
 62
2
  6
CONTINUOUS
 90
4
 70
0
 10
337.7018664551
 20
20.859291687
 10
337.7018664551
 20
22.1450065613
 10
337.5411621094
 20
22.4664344788
 10
336.7375891113
 20
22.4664344788
  0
LWPOLYLINE
  5
2E1
100
AcDbEntity
  8
0
100
AcDbPolyline
 62
2
  6
CONTINUOUS
 90
6
 70
0
 10
337.7018664551
 20
20.859291687
 10
337.0590234375
 20
20.859291687
 10
336.7375891113
 20
21.0200056458
 10
336.7375891113
 20
21.5021507263
 10
337.0590234375
 20
21.6628646851
 10
337.7018664551
 20
21.6628646851
  0
LWPOLYLINE
  5
2E2
100
AcDbEntity
  8
0
100
AcDbPolyline
 62
2
  6
CONTINUOUS
 90
4
 70
0
 10
338.8268737793
 20
20.859291687
 10
338.5054394531
 20
20.859291687
 10
338.3447351074
 20
21.0200056458
 10
338.3447351074
 20
23.1092935181
  0
LWPOLYLINE
  5
2E3
100
AcDbEntity
  8
0
100
AcDbPolyline
 62
2
  6
CONTINUOUS
 90
9
 70
0
 10
341.2375927734
 20
21.1807196045
 10
341.2375927734
 20
22.1450065613
 10
341.5590270996
 20
22.4664344788
 10
341.880435791
 20
22.4664344788
 10
342.2018701172
 20
22.1450065613
 10
342.2018701172
 20
21.1807196045
 10
341.880435791
 20
20.859291687
 10
341.5590270996
 20
20.859291687
 10
341.2375927734
 20
21.1807196045
  0
LWPOLYLINE
  5
2E4
100
AcDbEntity
  8
0
100
AcDbPolyline
 62
2
  6
CONTINUOUS
 90
5
 70
0
 10
342.8447387695
 20
20.859291687
 10
342.8447387695
 20
22.4664344788
 10
343.4875817871
 20
22.4664344788
 10
343.5947351074
 20
22.30572052
 10
343.5947351074
 20
21.9842926025
  0
LWPOLYLINE
  5
2E5
100
AcDbEntity
  8
0
100
AcDbPolyline
 62
2
  6
CONTINUOUS
 90
7
 70
0
 10
346.0590307617
 20
20.323576355
 10
346.0590307617
 20
22.4664344788
 10
346.862578125
 20
22.4664344788
 10
347.0233081055
 20
22.30572052
 10
347.0233081055
 20
21.0200056458
 10
346.862578125
 20
20.859291687
 10
346.0590307617
 20
20.859291687
  0
LWPOLYLINE
  5
2E6
100
AcDbEntity
  8
0
100
AcDbPolyline
 62
2
  6
CONTINUOUS
 90
4
 70
0
 10
348.6304541016
 20
20.859291687
 10
348.6304541016
 20
22.1450065613
 10
348.4697241211
 20
22.4664344788
 10
347.666151123
 20
22.4664344788
  0
LWPOLYLINE
  5
2E7
100
AcDbEntity
  8
0
100
AcDbPolyline
 62
2
  6
CONTINUOUS
 90
6
 70
0
 10
348.6304541016
 20
20.859291687
 10
347.9875854492
 20
20.859291687
 10
347.666151123
 20
21.0200056458
 10
347.666151123
 20
21.5021507263
 10
347.9875854492
 20
21.6628646851
 10
348.6304541016
 20
21.6628646851
  0
LWPOLYLINE
  5
2E8
100
AcDbEntity
  8
0
100
AcDbPolyline
 62
2
  6
CONTINUOUS
 90
5
 70
0
 10
349.2732971191
 20
20.859291687
 10
349.2732971191
 20
22.4664344788
 10
349.9161657715
 20
22.4664344788
 10
350.023293457
 20
22.30572052
 10
350.023293457
 20
21.9842926025
  0
LINE
  5
2E9
100
AcDbEntity
  8
0
100
AcDbLine
 62
2
  6
CONTINUOUS
 10
350.9875964355
 20
20.859291687
 11
350.9875964355
 21
23.1092935181
  0
LINE
  5
2EA
100
AcDbEntity
  8
0
100
AcDbLine
 62
2
  6
CONTINUOUS
 10
350.7197387695
 20
22.4664344788
 11
351.3625817871
 21
22.4664344788
  0
LINE
  5
2EB
100
AcDbEntity
  8
0
100
AcDbLine
 62
2
  6
CONTINUOUS
 10
352.3268847656
 20
20.859291687
 11
352.3268847656
 21
22.4664344788
  0
LWPOLYLINE
  5
2EC
100
AcDbEntity
  8
0
100
AcDbPolyline
 62
2
  6
CONTINUOUS
 90
4
 70
0
 10
352.3268847656
 20
22.948576355
 10
352.3268847656
 20
23.1092935181
 10
352.380435791
 20
23.1092935181
 10
352.3268847656
 20
22.948576355
  0
LWPOLYLINE
  5
2ED
100
AcDbEntity
  8
0
100
AcDbPolyline
 62
2
  6
CONTINUOUS
 90
4
 70
0
 10
354.1483117676
 20
20.859291687
 10
354.1483117676
 20
22.1450065613
 10
353.9875817871
 20
22.4664344788
 10
353.1840087891
 20
22.4664344788
  0
LWPOLYLINE
  5
2EE
100
AcDbEntity
  8
0
100
AcDbPolyline
 62
2
  6
CONTINUOUS
 90
6
 70
0
 10
354.1483117676
 20
20.859291687
 10
353.5054431152
 20
20.859291687
 10
353.1840087891
 20
21.0200056458
 10
353.1840087891
 20
21.5021507263
 10
353.5054431152
 20
21.6628646851
 10
354.1483117676
 20
21.6628646851
  0
LWPOLYLINE
  5
2EF
100
AcDbEntity
  8
0
100
AcDbPolyline
 62
2
  6
CONTINUOUS
 90
4
 70
0
 10
355.273293457
 20
20.859291687
 10
354.9518847656
 20
20.859291687
 10
354.7911547852
 20
21.0200056458
 10
354.7911547852
 20
23.1092935181
  0
LWPOLYLINE
  5
2F0
100
AcDbEntity
  8
0
100
AcDbPolyline
 62
2
  6
CONTINUOUS
 90
5
 70
0
 10
357.6840124512
 20
20.859291687
 10
357.6840124512
 20
22.4664344788
 10
358.3268811035
 20
22.4664344788
 10
358.4340087891
 20
22.30572052
 10
358.4340087891
 20
21.9842926025
  0
LWPOLYLINE
  5
2F1
100
AcDbEntity
  8
0
100
AcDbPolyline
 62
2
  6
CONTINUOUS
 90
9
 70
0
 10
360.0947314453
 20
20.859291687
 10
359.4518884277
 20
20.859291687
 10
359.1304541016
 20
21.1807196045
 10
359.1304541016
 20
22.1450065613
 10
359.4518884277
 20
22.4664344788
 10
359.7732971191
 20
22.4664344788
 10
360.0947314453
 20
22.1450065613
 10
360.0947314453
 20
21.6628646851
 10
359.1304541016
 20
21.6628646851
  0
LWPOLYLINE
  5
2F2
100
AcDbEntity
  8
0
100
AcDbPolyline
 62
2
  6
CONTINUOUS
 90
7
 70
0
 10
360.7376000977
 20
20.323576355
 10
360.7376000977
 20
22.4664344788
 10
361.5411730957
 20
22.4664344788
 10
361.7018774414
 20
22.30572052
 10
361.7018774414
 20
21.0200056458
 10
361.5411730957
 20
20.859291687
 10
360.7376000977
 20
20.859291687
  0
LWPOLYLINE
  5
2F3
100
AcDbEntity
  8
0
100
AcDbPolyline
 62
2
  6
CONTINUOUS
 90
5
 70
0
 10
362.344720459
 20
20.859291687
 10
362.344720459
 20
22.4664344788
 10
362.9875891113
 20
22.4664344788
 10
363.0947424316
 20
22.30572052
 10
363.0947424316
 20
21.9842926025
  0
LWPOLYLINE
  5
2F4
100
AcDbEntity
  8
0
100
AcDbPolyline
 62
2
  6
CONTINUOUS
 90
9
 70
0
 10
363.7911621094
 20
21.1807196045
 10
363.7911621094
 20
22.1450065613
 10
364.1125964355
 20
22.4664344788
 10
364.4340307617
 20
22.4664344788
 10
364.7554394531
 20
22.1450065613
 10
364.7554394531
 20
21.1807196045
 10
364.4340307617
 20
20.859291687
 10
364.1125964355
 20
20.859291687
 10
363.7911621094
 20
21.1807196045
  0
LWPOLYLINE
  5
2F5
100
AcDbEntity
  8
0
100
AcDbPolyline
 62
2
  6
CONTINUOUS
 90
7
 70
0
 10
366.3625854492
 20
23.1092935181
 10
366.3625854492
 20
20.859291687
 10
365.7197424316
 20
20.859291687
 10
365.3983081055
 20
21.0200056458
 10
365.3983081055
 20
22.30572052
 10
365.7197424316
 20
22.4664344788
 10
366.3625854492
 20
22.4664344788
  0
LWPOLYLINE
  5
2F6
100
AcDbEntity
  8
0
100
AcDbPolyline
 62
2
  6
CONTINUOUS
 90
5
 70
0
 10
367.0054541016
 20
22.4664344788
 10
367.0054541016
 20
21.0200056458
 10
367.1661584473
 20
20.859291687
 10
367.9697314453
 20
20.859291687
 10
367.9697314453
 20
22.4664344788
  0
LWPOLYLINE
  5
2F7
100
AcDbEntity
  8
0
100
AcDbPolyline
 62
2
  6
CONTINUOUS
 90
6
 70
0
 10
369.4161730957
 20
20.859291687
 10
368.7733044434
 20
20.859291687
 10
368.6126000977
 20
21.0200056458
 10
368.6126000977
 20
22.30572052
 10
368.7733044434
 20
22.4664344788
 10
369.4161730957
 20
22.4664344788
  0
LINE
  5
2F8
100
AcDbEntity
  8
0
100
AcDbLine
 62
2
  6
CONTINUOUS
 10
370.3268737793
 20
20.859291687
 11
370.3268737793
 21
23.1092935181
  0
LINE
  5
2F9
100
AcDbEntity
  8
0
100
AcDbLine
 62
2
  6
CONTINUOUS
 10
370.0590161133
 20
22.4664344788
 11
370.7018847656
 21
22.4664344788
  0
LINE
  5
2FA
100
AcDbEntity
  8
0
100
AcDbLine
 62
2
  6
CONTINUOUS
 10
371.6661621094
 20
20.859291687
 11
371.6661621094
 21
22.4664344788
  0
LWPOLYLINE
  5
2FB
100
AcDbEntity
  8
0
100
AcDbPolyline
 62
2
  6
CONTINUOUS
 90
4
 70
0
 10
371.6661621094
 20
22.948576355
 10
371.6661621094
 20
23.1092935181
 10
371.7197387695
 20
23.1092935181
 10
371.6661621094
 20
22.948576355
  0
LWPOLYLINE
  5
2FC
100
AcDbEntity
  8
0
100
AcDbPolyline
 62
2
  6
CONTINUOUS
 90
9
 70
0
 10
372.5233117676
 20
21.1807196045
 10
372.5233117676
 20
22.1450065613
 10
372.844720459
 20
22.4664344788
 10
373.1661547852
 20
22.4664344788
 10
373.4875891113
 20
22.1450065613
 10
373.4875891113
 20
21.1807196045
 10
373.1661547852
 20
20.859291687
 10
372.844720459
 20
20.859291687
 10
372.5233117676
 20
21.1807196045
  0
LWPOLYLINE
  5
2FD
100
AcDbEntity
  8
0
100
AcDbPolyline
 62
2
  6
CONTINUOUS
 90
5
 70
0
 10
374.1304577637
 20
20.859291687
 10
374.1304577637
 20
22.4664344788
 10
374.9340307617
 20
22.4664344788
 10
375.0947351074
 20
22.30572052
 10
375.0947351074
 20
20.859291687
  0
LWPOLYLINE
  5
2FE
100
AcDbEntity
  8
0
100
AcDbPolyline
 62
2
  6
CONTINUOUS
 90
12
 70
0
 10
375.737578125
 20
21.0200056458
 10
375.8983081055
 20
20.859291687
 10
376.541151123
 20
20.859291687
 10
376.7018811035
 20
21.0200056458
 10
376.7018811035
 20
21.5021507263
 10
376.541151123
 20
21.6092912292
 10
375.8983081055
 20
21.7164349365
 10
375.737578125
 20
21.8235786438
 10
375.737578125
 20
22.30572052
 10
375.8983081055
 20
22.4664344788
 10
376.541151123
 20
22.4664344788
 10
376.7018811035
 20
22.30572052
  0
LWPOLYLINE
  5
2FF
100
AcDbEntity
  8
0
100
AcDbPolyline
 62
2
  6
CONTINUOUS
 90
4
 70
0
 10
380.0768774414
 20
20.859291687
 10
380.0768774414
 20
22.1450065613
 10
379.9161730957
 20
22.4664344788
 10
379.1126000977
 20
22.4664344788
  0
LWPOLYLINE
  5
300
100
AcDbEntity
  8
0
100
AcDbPolyline
 62
2
  6
CONTINUOUS
 90
6
 70
0
 10
380.0768774414
 20
20.859291687
 10
379.4340087891
 20
20.859291687
 10
379.1126000977
 20
21.0200056458
 10
379.1126000977
 20
21.5021507263
 10
379.4340087891
 20
21.6628646851
 10
380.0768774414
 20
21.6628646851
  0
LWPOLYLINE
  5
301
100
AcDbEntity
  8
0
100
AcDbPolyline
 62
2
  6
CONTINUOUS
 90
5
 70
0
 10
380.719720459
 20
20.859291687
 10
380.719720459
 20
22.4664344788
 10
381.3625891113
 20
22.4664344788
 10
381.4697424316
 20
22.30572052
 10
381.4697424316
 20
21.9842926025
  0
LWPOLYLINE
  5
302
100
AcDbEntity
  8
0
100
AcDbPolyline
 62
2
  6
CONTINUOUS
 90
9
 70
0
 10
383.1304394531
 20
20.859291687
 10
382.4875964355
 20
20.859291687
 10
382.1661621094
 20
21.1807196045
 10
382.1661621094
 20
22.1450065613
 10
382.4875964355
 20
22.4664344788
 10
382.8090307617
 20
22.4664344788
 10
383.1304394531
 20
22.1450065613
 10
383.1304394531
 20
21.6628646851
 10
382.1661621094
 20
21.6628646851
  0
LWPOLYLINE
  5
303
100
AcDbEntity
  8
0
100
AcDbPolyline
 62
2
  6
CONTINUOUS
 90
7
 70
0
 10
385.5411584473
 20
20.323576355
 10
385.5411584473
 20
22.4664344788
 10
386.3447314453
 20
22.4664344788
 10
386.505435791
 20
22.30572052
 10
386.505435791
 20
21.0200056458
 10
386.3447314453
 20
20.859291687
 10
385.5411584473
 20
20.859291687
  0
LWPOLYLINE
  5
304
100
AcDbEntity
  8
0
100
AcDbPolyline
 62
2
  6
CONTINUOUS
 90
5
 70
0
 10
387.1483044434
 20
20.859291687
 10
387.1483044434
 20
22.4664344788
 10
387.7911730957
 20
22.4664344788
 10
387.8983007812
 20
22.30572052
 10
387.8983007812
 20
21.9842926025
  0
LWPOLYLINE
  5
305
100
AcDbEntity
  8
0
100
AcDbPolyline
 62
2
  6
CONTINUOUS
 90
9
 70
0
 10
388.594720459
 20
21.1807196045
 10
388.594720459
 20
22.1450065613
 10
388.9161547852
 20
22.4664344788
 10
389.2375891113
 20
22.4664344788
 10
389.5590234375
 20
22.1450065613
 10
389.5590234375
 20
21.1807196045
 10
389.2375891113
 20
20.859291687
 10
388.9161547852
 20
20.859291687
 10
388.594720459
 20
21.1807196045
  0
LINE
  5
306
100
AcDbEntity
  8
0
100
AcDbLine
 62
2
  6
CONTINUOUS
 10
390.2018664551
 20
20.859291687
 11
390.2018664551
 21
23.1092935181
  0
LWPOLYLINE
  5
307
100
AcDbEntity
  8
0
100
AcDbPolyline
 62
2
  6
CONTINUOUS
 90
4
 70
0
 10
390.2018664551
 20
22.4664344788
 10
391.0054394531
 20
22.4664344788
 10
391.1661694336
 20
22.30572052
 10
391.1661694336
 20
20.859291687
  0
LINE
  5
308
100
AcDbEntity
  8
0
100
AcDbLine
 62
2
  6
CONTINUOUS
 10
392.1304467773
 20
20.859291687
 11
392.1304467773
 21
22.4664344788
  0
LWPOLYLINE
  5
309
100
AcDbEntity
  8
0
100
AcDbPolyline
 62
2
  6
CONTINUOUS
 90
4
 70
0
 10
392.1304467773
 20
22.948576355
 10
392.1304467773
 20
23.1092935181
 10
392.1840234375
 20
23.1092935181
 10
392.1304467773
 20
22.948576355
  0
LINE
  5
30A
100
AcDbEntity
  8
0
100
AcDbLine
 62
2
  6
CONTINUOUS
 10
392.9875964355
 20
20.859291687
 11
392.9875964355
 21
23.1092935181
  0
LWPOLYLINE
  5
30B
100
AcDbEntity
  8
0
100
AcDbPolyline
 62
2
  6
CONTINUOUS
 90
6
 70
0
 10
392.9875964355
 20
22.4664344788
 10
393.7911694336
 20
22.4664344788
 10
393.9518737793
 20
22.30572052
 10
393.9518737793
 20
21.0200056458
 10
393.7911694336
 20
20.859291687
 10
392.9875964355
 20
20.859291687
  0
LINE
  5
30C
100
AcDbEntity
  8
0
100
AcDbLine
 62
2
  6
CONTINUOUS
 10
394.916151123
 20
20.859291687
 11
394.916151123
 21
22.4664344788
  0
LWPOLYLINE
  5
30D
100
AcDbEntity
  8
0
100
AcDbPolyline
 62
2
  6
CONTINUOUS
 90
4
 70
0
 10
394.916151123
 20
22.948576355
 10
394.916151123
 20
23.1092935181
 10
394.9697277832
 20
23.1092935181
 10
394.916151123
 20
22.948576355
  0
LINE
  5
30E
100
AcDbEntity
  8
0
100
AcDbLine
 62
2
  6
CONTINUOUS
 10
396.0411584473
 20
20.859291687
 11
396.0411584473
 21
23.1092935181
  0
LINE
  5
30F
100
AcDbEntity
  8
0
100
AcDbLine
 62
2
  6
CONTINUOUS
 10
395.7733007812
 20
22.4664344788
 11
396.4161694336
 21
22.4664344788
  0
LWPOLYLINE
  5
310
100
AcDbEntity
  8
0
100
AcDbPolyline
 62
2
  6
CONTINUOUS
 90
9
 70
0
 10
398.0233154297
 20
20.859291687
 10
397.3804467773
 20
20.859291687
 10
397.0590124512
 20
21.1807196045
 10
397.0590124512
 20
22.1450065613
 10
397.3804467773
 20
22.4664344788
 10
397.7018811035
 20
22.4664344788
 10
398.0233154297
 20
22.1450065613
 10
398.0233154297
 20
21.6628646851
 10
397.0590124512
 20
21.6628646851
  0
LWPOLYLINE
  5
311
100
AcDbEntity
  8
0
100
AcDbPolyline
 62
2
  6
CONTINUOUS
 90
7
 70
0
 10
399.630435791
 20
23.1092935181
 10
399.630435791
 20
20.859291687
 10
398.9875927734
 20
20.859291687
 10
398.6661584473
 20
21.0200056458
 10
398.6661584473
 20
22.30572052
 10
398.9875927734
 20
22.4664344788
 10
399.630435791
 20
22.4664344788
  0
LWPOLYLINE
  5
312
100
AcDbEntity
  8
0
100
AcDbPolyline
 62
2
  6
CONTINUOUS
 90
5
 70
0
 10
321.3090234375
 20
19.0914349365
 10
321.7375854492
 20
17.4842921448
 10
322.1125964355
 20
18.770007019
 10
322.4875817871
 20
17.4842921448
 10
322.9161694336
 20
19.0914349365
  0
LINE
  5
313
100
AcDbEntity
  8
0
100
AcDbLine
 62
2
  6
CONTINUOUS
 10
323.8804467773
 20
17.4842921448
 11
323.8804467773
 21
19.0914349365
  0
LWPOLYLINE
  5
314
100
AcDbEntity
  8
0
100
AcDbPolyline
 62
2
  6
CONTINUOUS
 90
4
 70
0
 10
323.8804467773
 20
19.5735768127
 10
323.8804467773
 20
19.7342907715
 10
323.9340234375
 20
19.7342907715
 10
323.8804467773
 20
19.5735768127
  0
LINE
  5
315
100
AcDbEntity
  8
0
100
AcDbLine
 62
2
  6
CONTINUOUS
 10
325.0054541016
 20
17.4842921448
 11
325.0054541016
 21
19.7342907715
  0
LINE
  5
316
100
AcDbEntity
  8
0
100
AcDbLine
 62
2
  6
CONTINUOUS
 10
324.7375964355
 20
19.0914349365
 11
325.3804394531
 21
19.0914349365
  0
LINE
  5
317
100
AcDbEntity
  8
0
100
AcDbLine
 62
2
  6
CONTINUOUS
 10
326.0233081055
 20
17.4842921448
 11
326.0233081055
 21
19.7342907715
  0
LWPOLYLINE
  5
318
100
AcDbEntity
  8
0
100
AcDbPolyline
 62
2
  6
CONTINUOUS
 90
4
 70
0
 10
326.0233081055
 20
19.0914349365
 10
326.8268811035
 20
19.0914349365
 10
326.9875854492
 20
18.9307209778
 10
326.9875854492
 20
17.4842921448
  0
LWPOLYLINE
  5
319
100
AcDbEntity
  8
0
100
AcDbPolyline
 62
2
  6
CONTINUOUS
 90
9
 70
0
 10
327.6304541016
 20
17.8057200623
 10
327.6304541016
 20
18.770007019
 10
327.9518884277
 20
19.0914349365
 10
328.2732971191
 20
19.0914349365
 10
328.5947314453
 20
18.770007019
 10
328.5947314453
 20
17.8057200623
 10
328.2732971191
 20
17.4842921448
 10
327.9518884277
 20
17.4842921448
 10
327.6304541016
 20
17.8057200623
  0
LWPOLYLINE
  5
31A
100
AcDbEntity
  8
0
100
AcDbPolyline
 62
2
  6
CONTINUOUS
 90
5
 70
0
 10
329.2376000977
 20
19.0914349365
 10
329.2376000977
 20
17.6450061035
 10
329.3983044434
 20
17.4842921448
 10
330.2018774414
 20
17.4842921448
 10
330.2018774414
 20
19.0914349365
  0
LINE
  5
31B
100
AcDbEntity
  8
0
100
AcDbLine
 62
2
  6
CONTINUOUS
 10
331.112578125
 20
17.4842921448
 11
331.112578125
 21
19.7342907715
  0
LINE
  5
31C
100
AcDbEntity
  8
0
100
AcDbLine
 62
2
  6
CONTINUOUS
 10
330.844720459
 20
19.0914349365
 11
331.4875891113
 21
19.0914349365
  0
LWPOLYLINE
  5
31D
100
AcDbEntity
  8
0
100
AcDbPolyline
 62
2
  6
CONTINUOUS
 90
7
 70
0
 10
333.8983081055
 20
16.9485768127
 10
333.8983081055
 20
19.0914349365
 10
334.7018811035
 20
19.0914349365
 10
334.8625854492
 20
18.9307209778
 10
334.8625854492
 20
17.6450061035
 10
334.7018811035
 20
17.4842921448
 10
333.8983081055
 20
17.4842921448
  0
LWPOLYLINE
  5
31E
100
AcDbEntity
  8
0
100
AcDbPolyline
 62
2
  6
CONTINUOUS
 90
5
 70
0
 10
335.5054541016
 20
17.4842921448
 10
335.5054541016
 20
19.0914349365
 10
336.1482971191
 20
19.0914349365
 10
336.2554504395
 20
18.9307209778
 10
336.2554504395
 20
18.6092930603
  0
LINE
  5
31F
100
AcDbEntity
  8
0
100
AcDbLine
 62
2
  6
CONTINUOUS
 10
337.2733044434
 20
17.4842921448
 11
337.2733044434
 21
19.0914349365
  0
LWPOLYLINE
  5
320
100
AcDbEntity
  8
0
100
AcDbPolyline
 62
2
  6
CONTINUOUS
 90
4
 70
0
 10
337.2733044434
 20
19.5735768127
 10
337.2733044434
 20
19.7342907715
 10
337.3268811035
 20
19.7342907715
 10
337.2733044434
 20
19.5735768127
  0
LWPOLYLINE
  5
321
100
AcDbEntity
  8
0
100
AcDbPolyline
 62
2
  6
CONTINUOUS
 90
9
 70
0
 10
338.1304541016
 20
17.8057200623
 10
338.1304541016
 20
18.770007019
 10
338.4518884277
 20
19.0914349365
 10
338.7732971191
 20
19.0914349365
 10
339.0947314453
 20
18.770007019
 10
339.0947314453
 20
17.8057200623
 10
338.7732971191
 20
17.4842921448
 10
338.4518884277
 20
17.4842921448
 10
338.1304541016
 20
17.8057200623
  0
LWPOLYLINE
  5
322
100
AcDbEntity
  8
0
100
AcDbPolyline
 62
2
  6
CONTINUOUS
 90
5
 70
0
 10
339.7376000977
 20
17.4842921448
 10
339.7376000977
 20
19.0914349365
 10
340.3804431152
 20
19.0914349365
 10
340.4875964355
 20
18.9307209778
 10
340.4875964355
 20
18.6092930603
  0
LWPOLYLINE
  5
323
100
AcDbEntity
  8
0
100
AcDbPolyline
 62
2
  6
CONTINUOUS
 90
4
 70
0
 10
343.9161694336
 20
17.4842921448
 10
343.9161694336
 20
18.770007019
 10
343.7554394531
 20
19.0914349365
 10
342.9518664551
 20
19.0914349365
  0
LWPOLYLINE
  5
324
100
AcDbEntity
  8
0
100
AcDbPolyline
 62
2
  6
CONTINUOUS
 90
6
 70
0
 10
343.9161694336
 20
17.4842921448
 10
343.2733007812
 20
17.4842921448
 10
342.9518664551
 20
17.6450061035
 10
342.9518664551
 20
18.1271479797
 10
343.2733007812
 20
18.2878619385
 10
343.9161694336
 20
18.2878619385
  0
LWPOLYLINE
  5
325
100
AcDbEntity
  8
0
100
AcDbPolyline
 62
2
  6
CONTINUOUS
 90
5
 70
0
 10
344.5590124512
 20
19.0914349365
 10
344.5590124512
 20
17.6450061035
 10
344.7197424316
 20
17.4842921448
 10
345.5233154297
 20
17.4842921448
 10
345.5233154297
 20
19.0914349365
  0
LINE
  5
326
100
AcDbEntity
  8
0
100
AcDbLine
 62
2
  6
CONTINUOUS
 10
346.4340161133
 20
17.4842921448
 11
346.4340161133
 21
19.7342907715
  0
LINE
  5
327
100
AcDbEntity
  8
0
100
AcDbLine
 62
2
  6
CONTINUOUS
 10
346.1661584473
 20
19.0914349365
 11
346.8090270996
 21
19.0914349365
  0
LINE
  5
328
100
AcDbEntity
  8
0
100
AcDbLine
 62
2
  6
CONTINUOUS
 10
347.4518701172
 20
17.4842921448
 11
347.4518701172
 21
19.7342907715
  0
LWPOLYLINE
  5
329
100
AcDbEntity
  8
0
100
AcDbPolyline
 62
2
  6
CONTINUOUS
 90
4
 70
0
 10
347.4518701172
 20
19.0914349365
 10
348.2554431152
 20
19.0914349365
 10
348.4161730957
 20
18.9307209778
 10
348.4161730957
 20
17.4842921448
  0
LWPOLYLINE
  5
32A
100
AcDbEntity
  8
0
100
AcDbPolyline
 62
2
  6
CONTINUOUS
 90
9
 70
0
 10
349.0590161133
 20
17.8057200623
 10
349.0590161133
 20
18.770007019
 10
349.3804504395
 20
19.0914349365
 10
349.7018847656
 20
19.0914349365
 10
350.023293457
 20
18.770007019
 10
350.023293457
 20
17.8057200623
 10
349.7018847656
 20
17.4842921448
 10
349.3804504395
 20
17.4842921448
 10
349.0590161133
 20
17.8057200623
  0
LWPOLYLINE
  5
32B
100
AcDbEntity
  8
0
100
AcDbPolyline
 62
2
  6
CONTINUOUS
 90
5
 70
0
 10
350.6661621094
 20
17.4842921448
 10
350.6661621094
 20
19.0914349365
 10
351.3090307617
 20
19.0914349365
 10
351.4161584473
 20
18.9307209778
 10
351.4161584473
 20
18.6092930603
  0
LINE
  5
32C
100
AcDbEntity
  8
0
100
AcDbLine
 62
2
  6
CONTINUOUS
 10
352.4340124512
 20
17.4842921448
 11
352.4340124512
 21
19.0914349365
  0
LWPOLYLINE
  5
32D
100
AcDbEntity
  8
0
100
AcDbPolyline
 62
2
  6
CONTINUOUS
 90
4
 70
0
 10
352.4340124512
 20
19.5735768127
 10
352.4340124512
 20
19.7342907715
 10
352.4875891113
 20
19.7342907715
 10
352.4340124512
 20
19.5735768127
  0
LWPOLYLINE
  5
32E
100
AcDbEntity
  8
0
100
AcDbPolyline
 62
2
  6
CONTINUOUS
 90
12
 70
0
 10
353.2911621094
 20
17.6450061035
 10
353.4518664551
 20
17.4842921448
 10
354.0947351074
 20
17.4842921448
 10
354.2554394531
 20
17.6450061035
 10
354.2554394531
 20
18.1271479797
 10
354.0947351074
 20
18.234291687
 10
353.4518664551
 20
18.3414353943
 10
353.2911621094
 20
18.4485791016
 10
353.2911621094
 20
18.9307209778
 10
353.4518664551
 20
19.0914349365
 10
354.0947351074
 20
19.0914349365
 10
354.2554394531
 20
18.9307209778
  0
LWPOLYLINE
  5
32F
100
AcDbEntity
  8
0
100
AcDbPolyline
 62
2
  6
CONTINUOUS
 90
4
 70
0
 10
355.8625854492
 20
17.4842921448
 10
355.8625854492
 20
18.770007019
 10
355.7018811035
 20
19.0914349365
 10
354.8983081055
 20
19.0914349365
  0
LWPOLYLINE
  5
330
100
AcDbEntity
  8
0
100
AcDbPolyline
 62
2
  6
CONTINUOUS
 90
6
 70
0
 10
355.8625854492
 20
17.4842921448
 10
355.2197424316
 20
17.4842921448
 10
354.8983081055
 20
17.6450061035
 10
354.8983081055
 20
18.1271479797
 10
355.2197424316
 20
18.2878619385
 10
355.8625854492
 20
18.2878619385
  0
LINE
  5
331
100
AcDbEntity
  8
0
100
AcDbLine
 62
2
  6
CONTINUOUS
 10
356.7733117676
 20
17.4842921448
 11
356.7733117676
 21
19.7342907715
  0
LINE
  5
332
100
AcDbEntity
  8
0
100
AcDbLine
 62
2
  6
CONTINUOUS
 10
356.5054541016
 20
19.0914349365
 11
357.1482971191
 21
19.0914349365
  0
LINE
  5
333
100
AcDbEntity
  8
0
100
AcDbLine
 62
2
  6
CONTINUOUS
 10
358.1126000977
 20
17.4842921448
 11
358.1126000977
 21
19.0914349365
  0
LWPOLYLINE
  5
334
100
AcDbEntity
  8
0
100
AcDbPolyline
 62
2
  6
CONTINUOUS
 90
4
 70
0
 10
358.1126000977
 20
19.5735768127
 10
358.1126000977
 20
19.7342907715
 10
358.166151123
 20
19.7342907715
 10
358.1126000977
 20
19.5735768127
  0
LWPOLYLINE
  5
335
100
AcDbEntity
  8
0
100
AcDbPolyline
 62
2
  6
CONTINUOUS
 90
9
 70
0
 10
358.9697241211
 20
17.8057200623
 10
358.9697241211
 20
18.770007019
 10
359.2911584473
 20
19.0914349365
 10
359.6125927734
 20
19.0914349365
 10
359.9340270996
 20
18.770007019
 10
359.9340270996
 20
17.8057200623
 10
359.6125927734
 20
17.4842921448
 10
359.2911584473
 20
17.4842921448
 10
358.9697241211
 20
17.8057200623
  0
LWPOLYLINE
  5
336
100
AcDbEntity
  8
0
100
AcDbPolyline
 62
2
  6
CONTINUOUS
 90
5
 70
0
 10
360.5768701172
 20
17.4842921448
 10
360.5768701172
 20
19.0914349365
 10
361.3804431152
 20
19.0914349365
 10
361.5411730957
 20
18.9307209778
 10
361.5411730957
 20
17.4842921448
  0
LWPOLYLINE
  5
337
100
AcDbEntity
  8
0
100
AcDbPolyline
 62
2
  6
CONTINUOUS
 90
9
 70
0
 10
363.9518664551
 20
17.8057200623
 10
363.9518664551
 20
18.770007019
 10
364.2733007812
 20
19.0914349365
 10
364.5947351074
 20
19.0914349365
 10
364.9161694336
 20
18.770007019
 10
364.9161694336
 20
17.8057200623
 10
364.5947351074
 20
17.4842921448
 10
364.2733007812
 20
17.4842921448
 10
363.9518664551
 20
17.8057200623
  0
LWPOLYLINE
  5
338
100
AcDbEntity
  8
0
100
AcDbPolyline
 62
2
  6
CONTINUOUS
 90
4
 70
0
 10
365.8268701172
 20
17.4842921448
 10
365.8268701172
 20
19.5735768127
 10
365.9876000977
 20
19.7342907715
 10
366.3090087891
 20
19.7342907715
  0
LINE
  5
339
100
AcDbEntity
  8
0
100
AcDbLine
 62
2
  6
CONTINUOUS
 10
366.3090087891
 20
19.0914349365
 11
365.5590124512
 21
19.0914349365
  0
LWPOLYLINE
  5
33A
100
AcDbEntity
  8
0
100
AcDbPolyline
 62
2
  6
CONTINUOUS
 90
3
 70
0
 10
368.6126000977
 20
19.7342907715
 10
368.6126000977
 20
17.4842921448
 10
369.4161730957
 20
17.4842921448
  0
LWPOLYLINE
  5
33B
100
AcDbEntity
  8
0
100
AcDbPolyline
 62
2
  6
CONTINUOUS
 90
12
 70
0
 10
373.2733081055
 20
18.2878619385
 10
372.6304394531
 20
17.4842921448
 10
372.1483007812
 20
17.4842921448
 10
371.8268664551
 20
17.8057200623
 10
371.8268664551
 20
18.2878619385
 10
372.9518737793
 20
19.0914349365
 10
372.9518737793
 20
19.412862854
 10
372.6304394531
 20
19.7342907715
 10
372.3090307617
 20
19.7342907715
 10
371.9875964355
 20
19.412862854
 10
371.9875964355
 20
19.0914349365
 10
373.112578125
 20
17.4842921448
  0
LWPOLYLINE
  5
33C
100
AcDbEntity
  8
0
100
AcDbPolyline
 62
2
  6
CONTINUOUS
 90
3
 70
0
 10
375.6840270996
 20
19.7342907715
 10
375.6840270996
 20
17.4842921448
 10
376.4876000977
 20
17.4842921448
  0
LWPOLYLINE
  5
33D
100
AcDbEntity
  8
0
100
AcDbPolyline
 62
2
  6
CONTINUOUS
 90
3
 70
0
 10
378.898293457
 20
19.7342907715
 10
378.898293457
 20
17.4842921448
 10
379.7018664551
 20
17.4842921448
  0
LWPOLYLINE
  5
33E
100
AcDbEntity
  8
0
100
AcDbPolyline
 62
2
  6
CONTINUOUS
 90
5
 70
0
 10
380.3447351074
 20
19.0914349365
 10
380.3447351074
 20
17.6450061035
 10
380.5054394531
 20
17.4842921448
 10
381.3090124512
 20
17.4842921448
 10
381.3090124512
 20
19.0914349365
  0
LWPOLYLINE
  5
33F
100
AcDbEntity
  8
0
100
AcDbPolyline
 62
2
  6
CONTINUOUS
 90
6
 70
0
 10
382.7554541016
 20
17.4842921448
 10
382.1125854492
 20
17.4842921448
 10
381.9518811035
 20
17.6450061035
 10
381.9518811035
 20
18.9307209778
 10
382.1125854492
 20
19.0914349365
 10
382.7554541016
 20
19.0914349365
  0
LWPOLYLINE
  5
340
100
AcDbEntity
  8
0
100
AcDbPolyline
 62
2
  6
CONTINUOUS
 90
9
 70
0
 10
384.3626000977
 20
17.4842921448
 10
383.7197314453
 20
17.4842921448
 10
383.3982971191
 20
17.8057200623
 10
383.3982971191
 20
18.770007019
 10
383.7197314453
 20
19.0914349365
 10
384.0411657715
 20
19.0914349365
 10
384.3626000977
 20
18.770007019
 10
384.3626000977
 20
18.2878619385
 10
383.3982971191
 20
18.2878619385
  0
LWPOLYLINE
  5
341
100
AcDbEntity
  8
0
100
AcDbPolyline
 62
2
  6
CONTINUOUS
 90
12
 70
0
 10
388.2197351074
 20
18.2878619385
 10
387.5768664551
 20
17.4842921448
 10
387.0947277832
 20
17.4842921448
 10
386.773293457
 20
17.8057200623
 10
386.773293457
 20
18.2878619385
 10
387.8983007812
 20
19.0914349365
 10
387.8983007812
 20
19.412862854
 10
387.5768664551
 20
19.7342907715
 10
387.2554577637
 20
19.7342907715
 10
386.9340234375
 20
19.412862854
 10
386.9340234375
 20
19.0914349365
 10
388.0590307617
 20
17.4842921448
  0
LWPOLYLINE
  5
342
100
AcDbEntity
  8
0
100
AcDbPolyline
 62
2
  6
CONTINUOUS
 90
3
 70
0
 10
390.6304541016
 20
19.7342907715
 10
390.6304541016
 20
17.4842921448
 10
391.4340270996
 20
17.4842921448
  0
LINE
  5
343
100
AcDbEntity
  8
0
100
AcDbLine
 62
2
  6
CONTINUOUS
 10
392.3983044434
 20
17.4842921448
 11
392.3983044434
 21
19.0914349365
  0
LWPOLYLINE
  5
344
100
AcDbEntity
  8
0
100
AcDbPolyline
 62
2
  6
CONTINUOUS
 90
4
 70
0
 10
392.3983044434
 20
19.5735768127
 10
392.3983044434
 20
19.7342907715
 10
392.4518811035
 20
19.7342907715
 10
392.3983044434
 20
19.5735768127
  0
LWPOLYLINE
  5
345
100
AcDbEntity
  8
0
100
AcDbPolyline
 62
2
  6
CONTINUOUS
 90
9
 70
0
 10
393.2554541016
 20
16.9485768127
 10
394.0590270996
 20
16.9485768127
 10
394.2197314453
 20
17.1628642273
 10
394.2197314453
 20
19.0914349365
 10
393.4161584473
 20
19.0914349365
 10
393.2554541016
 20
18.9307209778
 10
393.2554541016
 20
17.6450061035
 10
393.4161584473
 20
17.4842921448
 10
394.2197314453
 20
17.4842921448
  0
LINE
  5
346
100
AcDbEntity
  8
0
100
AcDbLine
 62
2
  6
CONTINUOUS
 10
394.8626000977
 20
17.4842921448
 11
394.8626000977
 21
19.7342907715
  0
LWPOLYLINE
  5
347
100
AcDbEntity
  8
0
100
AcDbPolyline
 62
2
  6
CONTINUOUS
 90
4
 70
0
 10
394.8626000977
 20
19.0914349365
 10
395.6661730957
 20
19.0914349365
 10
395.8268774414
 20
18.9307209778
 10
395.8268774414
 20
17.4842921448
  0
LINE
  5
348
100
AcDbEntity
  8
0
100
AcDbLine
 62
2
  6
CONTINUOUS
 10
396.737578125
 20
17.4842921448
 11
396.737578125
 21
19.7342907715
  0
LINE
  5
349
100
AcDbEntity
  8
0
100
AcDbLine
 62
2
  6
CONTINUOUS
 10
396.469720459
 20
19.0914349365
 11
397.1125891113
 21
19.0914349365
  0
LWPOLYLINE
  5
34A
100
AcDbEntity
  8
0
100
AcDbPolyline
 62
2
  6
CONTINUOUS
 90
12
 70
0
 10
399.5233081055
 20
17.6450061035
 10
399.6840124512
 20
17.4842921448
 10
400.3268811035
 20
17.4842921448
 10
400.4875854492
 20
17.6450061035
 10
400.4875854492
 20
18.1271479797
 10
400.3268811035
 20
18.234291687
 10
399.6840124512
 20
18.3414353943
 10
399.5233081055
 20
18.4485791016
 10
399.5233081055
 20
18.9307209778
 10
399.6840124512
 20
19.0914349365
 10
400.3268811035
 20
19.0914349365
 10
400.4875854492
 20
18.9307209778
  0
LWPOLYLINE
  5
34B
100
AcDbEntity
  8
0
100
AcDbPolyline
 62
2
  6
CONTINUOUS
 90
9
 70
0
 10
401.6125927734
 20
17.8592935181
 10
401.6661694336
 20
17.7521498108
 10
401.6661694336
 20
17.698576355
 10
401.6125927734
 20
17.5914358521
 10
401.5054394531
 20
17.5914358521
 10
401.4518884277
 20
17.698576355
 10
401.4518884277
 20
17.7521498108
 10
401.5054394531
 20
17.8592935181
 10
401.6125927734
 20
17.8592935181
  0
LWPOLYLINE
  5
34C
100
AcDbEntity
  8
0
100
AcDbPolyline
 62
2
  6
CONTINUOUS
 90
5
 70
0
 10
402.4161657715
 20
17.4842921448
 10
402.4161657715
 20
19.0914349365
 10
403.0590087891
 20
19.0914349365
 10
403.1661621094
 20
18.9307209778
 10
403.1661621094
 20
18.6092930603
  0
LWPOLYLINE
  5
34D
100
AcDbEntity
  8
0
100
AcDbPolyline
 62
2
  6
CONTINUOUS
 90
9
 70
0
 10
404.344720459
 20
17.8592935181
 10
404.3982971191
 20
17.7521498108
 10
404.3982971191
 20
17.698576355
 10
404.344720459
 20
17.5914358521
 10
404.2375927734
 20
17.5914358521
 10
404.1840161133
 20
17.698576355
 10
404.1840161133
 20
17.7521498108
 10
404.2375927734
 20
17.8592935181
 10
404.344720459
 20
17.8592935181
  0
LWPOLYLINE
  5
34E
100
AcDbEntity
  8
0
100
AcDbPolyline
 62
2
  6
CONTINUOUS
 90
4
 70
0
 10
405.6304577637
 20
17.4842921448
 10
405.3090234375
 20
17.4842921448
 10
405.148293457
 20
17.6450061035
 10
405.148293457
 20
19.7342907715
  0
LWPOLYLINE
  5
34F
100
AcDbEntity
  8
0
100
AcDbPolyline
 62
2
  6
CONTINUOUS
 90
9
 70
0
 10
406.7554394531
 20
17.8592935181
 10
406.8090161133
 20
17.7521498108
 10
406.8090161133
 20
17.698576355
 10
406.7554394531
 20
17.5914358521
 10
406.6483117676
 20
17.5914358521
 10
406.5947351074
 20
17.698576355
 10
406.5947351074
 20
17.7521498108
 10
406.6483117676
 20
17.8592935181
 10
406.7554394531
 20
17.8592935181
  0
LWPOLYLINE
  5
350
100
AcDbEntity
  8
0
100
AcDbPolyline
 62
2
  6
CONTINUOUS
 90
10
 70
0
 10
408.041151123
 20
17.8592935181
 10
408.0947277832
 20
17.7521498108
 10
408.0947277832
 20
17.698576355
 10
407.9876000977
 20
17.5914358521
 10
407.9340234375
 20
17.5914358521
 10
407.8804467773
 20
17.6450061035
 10
407.8804467773
 20
17.698576355
 10
407.9340234375
 20
17.8057200623
 10
407.9876000977
 20
17.8592935181
 10
408.041151123
 20
17.8592935181
  0
LWPOLYLINE
  5
351
100
AcDbEntity
  8
0
100
AcDbPolyline
 62
2
  6
CONTINUOUS
 90
3
 70
0
 10
408.0947277832
 20
17.698576355
 10
408.041151123
 20
17.5378623962
 10
407.9340234375
 20
17.323578186
  0
LINE
  5
352
100
AcDbEntity
  8
0
100
AcDbLine
 62
2
  6
CONTINUOUS
 10
321.6304577637
 20
14.1092926025
 11
321.6304577637
 21
15.7164353943
  0
LWPOLYLINE
  5
353
100
AcDbEntity
  8
0
100
AcDbPolyline
 62
2
  6
CONTINUOUS
 90
4
 70
0
 10
321.6304577637
 20
16.1985772705
 10
321.6304577637
 20
16.3592912292
 10
321.6840087891
 20
16.3592912292
 10
321.6304577637
 20
16.1985772705
  0
LWPOLYLINE
  5
354
100
AcDbEntity
  8
0
100
AcDbPolyline
 62
2
  6
CONTINUOUS
 90
5
 70
0
 10
322.4875817871
 20
14.1092926025
 10
322.4875817871
 20
15.7164353943
 10
323.2911547852
 20
15.7164353943
 10
323.4518847656
 20
15.5557214355
 10
323.4518847656
 20
14.1092926025
  0
LWPOLYLINE
  5
355
100
AcDbEntity
  8
0
100
AcDbPolyline
 62
2
  6
CONTINUOUS
 90
4
 70
0
 10
326.8268811035
 20
14.1092926025
 10
326.8268811035
 20
15.3950074768
 10
326.666151123
 20
15.7164353943
 10
325.862578125
 20
15.7164353943
  0
LWPOLYLINE
  5
356
100
AcDbEntity
  8
0
100
AcDbPolyline
 62
2
  6
CONTINUOUS
 90
6
 70
0
 10
326.8268811035
 20
14.1092926025
 10
326.1840124512
 20
14.1092926025
 10
325.862578125
 20
14.2700065613
 10
325.862578125
 20
14.7521484375
 10
326.1840124512
 20
14.9128623962
 10
326.8268811035
 20
14.9128623962
  0
LWPOLYLINE
  5
357
100
AcDbEntity
  8
0
100
AcDbPolyline
 62
2
  6
CONTINUOUS
 90
6
 70
0
 10
328.2732971191
 20
14.1092926025
 10
327.6304541016
 20
14.1092926025
 10
327.4697241211
 20
14.2700065613
 10
327.4697241211
 20
15.5557214355
 10
327.6304541016
 20
15.7164353943
 10
328.2732971191
 20
15.7164353943
  0
LWPOLYLINE
  5
358
100
AcDbEntity
  8
0
100
AcDbPolyline
 62
2
  6
CONTINUOUS
 90
6
 70
0
 10
329.7197387695
 20
14.1092926025
 10
329.0768701172
 20
14.1092926025
 10
328.9161657715
 20
14.2700065613
 10
328.9161657715
 20
15.5557214355
 10
329.0768701172
 20
15.7164353943
 10
329.7197387695
 20
15.7164353943
  0
LWPOLYLINE
  5
359
100
AcDbEntity
  8
0
100
AcDbPolyline
 62
2
  6
CONTINUOUS
 90
9
 70
0
 10
330.3625817871
 20
14.43072052
 10
330.3625817871
 20
15.3950074768
 10
330.6840161133
 20
15.7164353943
 10
331.0054504395
 20
15.7164353943
 10
331.3268847656
 20
15.3950074768
 10
331.3268847656
 20
14.43072052
 10
331.0054504395
 20
14.1092926025
 10
330.6840161133
 20
14.1092926025
 10
330.3625817871
 20
14.43072052
  0
LWPOLYLINE
  5
35A
100
AcDbEntity
  8
0
100
AcDbPolyline
 62
2
  6
CONTINUOUS
 90
5
 70
0
 10
331.9697277832
 20
14.1092926025
 10
331.9697277832
 20
15.7164353943
 10
332.6125964355
 20
15.7164353943
 10
332.7197241211
 20
15.5557214355
 10
332.7197241211
 20
15.2342935181
  0
LWPOLYLINE
  5
35B
100
AcDbEntity
  8
0
100
AcDbPolyline
 62
2
  6
CONTINUOUS
 90
7
 70
0
 10
334.3804467773
 20
16.3592912292
 10
334.3804467773
 20
14.1092926025
 10
333.737578125
 20
14.1092926025
 10
333.4161694336
 20
14.2700065613
 10
333.4161694336
 20
15.5557214355
 10
333.737578125
 20
15.7164353943
 10
334.3804467773
 20
15.7164353943
  0
LWPOLYLINE
  5
35C
100
AcDbEntity
  8
0
100
AcDbPolyline
 62
2
  6
CONTINUOUS
 90
4
 70
0
 10
335.9875927734
 20
14.1092926025
 10
335.9875927734
 20
15.3950074768
 10
335.8268884277
 20
15.7164353943
 10
335.0233154297
 20
15.7164353943
  0
LWPOLYLINE
  5
35D
100
AcDbEntity
  8
0
100
AcDbPolyline
 62
2
  6
CONTINUOUS
 90
6
 70
0
 10
335.9875927734
 20
14.1092926025
 10
335.3447241211
 20
14.1092926025
 10
335.0233154297
 20
14.2700065613
 10
335.0233154297
 20
14.7521484375
 10
335.3447241211
 20
14.9128623962
 10
335.9875927734
 20
14.9128623962
  0
LWPOLYLINE
  5
35E
100
AcDbEntity
  8
0
100
AcDbPolyline
 62
2
  6
CONTINUOUS
 90
5
 70
0
 10
336.630435791
 20
14.1092926025
 10
336.630435791
 20
15.7164353943
 10
337.4340087891
 20
15.7164353943
 10
337.5947387695
 20
15.5557214355
 10
337.5947387695
 20
14.1092926025
  0
LWPOLYLINE
  5
35F
100
AcDbEntity
  8
0
100
AcDbPolyline
 62
2
  6
CONTINUOUS
 90
6
 70
0
 10
339.0411547852
 20
14.1092926025
 10
338.3983117676
 20
14.1092926025
 10
338.2375817871
 20
14.2700065613
 10
338.2375817871
 20
15.5557214355
 10
338.3983117676
 20
15.7164353943
 10
339.0411547852
 20
15.7164353943
  0
LWPOLYLINE
  5
360
100
AcDbEntity
  8
0
100
AcDbPolyline
 62
2
  6
CONTINUOUS
 90
9
 70
0
 10
340.6483007812
 20
14.1092926025
 10
340.0054577637
 20
14.1092926025
 10
339.6840234375
 20
14.43072052
 10
339.6840234375
 20
15.3950074768
 10
340.0054577637
 20
15.7164353943
 10
340.3268664551
 20
15.7164353943
 10
340.6483007812
 20
15.3950074768
 10
340.6483007812
 20
14.9128623962
 10
339.6840234375
 20
14.9128623962
  0
LWPOLYLINE
  5
361
100
AcDbEntity
  8
0
100
AcDbPolyline
 62
2
  6
CONTINUOUS
 90
5
 70
0
 10
343.0590197754
 20
15.7164353943
 10
343.4875817871
 20
14.1092926025
 10
343.8625927734
 20
15.3950074768
 10
344.237578125
 20
14.1092926025
 10
344.6661657715
 20
15.7164353943
  0
LINE
  5
362
100
AcDbEntity
  8
0
100
AcDbLine
 62
2
  6
CONTINUOUS
 10
345.6304431152
 20
14.1092926025
 11
345.6304431152
 21
15.7164353943
  0
LWPOLYLINE
  5
363
100
AcDbEntity
  8
0
100
AcDbPolyline
 62
2
  6
CONTINUOUS
 90
4
 70
0
 10
345.6304431152
 20
16.1985772705
 10
345.6304431152
 20
16.3592912292
 10
345.6840197754
 20
16.3592912292
 10
345.6304431152
 20
16.1985772705
  0
LINE
  5
364
100
AcDbEntity
  8
0
100
AcDbLine
 62
2
  6
CONTINUOUS
 10
346.7554504395
 20
14.1092926025
 11
346.7554504395
 21
16.3592912292
  0
LINE
  5
365
100
AcDbEntity
  8
0
100
AcDbLine
 62
2
  6
CONTINUOUS
 10
346.4875927734
 20
15.7164353943
 11
347.130435791
 21
15.7164353943
  0
LINE
  5
366
100
AcDbEntity
  8
0
100
AcDbLine
 62
2
  6
CONTINUOUS
 10
347.7733044434
 20
14.1092926025
 11
347.7733044434
 21
16.3592912292
  0
LWPOLYLINE
  5
367
100
AcDbEntity
  8
0
100
AcDbPolyline
 62
2
  6
CONTINUOUS
 90
4
 70
0
 10
347.7733044434
 20
15.7164353943
 10
348.5768774414
 20
15.7164353943
 10
348.7375817871
 20
15.5557214355
 10
348.7375817871
 20
14.1092926025
  0
LINE
  5
368
100
AcDbEntity
  8
0
100
AcDbLine
 62
2
  6
CONTINUOUS
 10
351.4161584473
 20
14.1092926025
 11
351.4161584473
 21
16.3592912292
  0
LINE
  5
369
100
AcDbEntity
  8
0
100
AcDbLine
 62
2
  6
CONTINUOUS
 10
351.1483007812
 20
15.7164353943
 11
351.7911694336
 21
15.7164353943
  0
LINE
  5
36A
100
AcDbEntity
  8
0
100
AcDbLine
 62
2
  6
CONTINUOUS
 10
352.4340124512
 20
14.1092926025
 11
352.4340124512
 21
16.3592912292
  0
LWPOLYLINE
  5
36B
100
AcDbEntity
  8
0
100
AcDbPolyline
 62
2
  6
CONTINUOUS
 90
4
 70
0
 10
352.4340124512
 20
15.7164353943
 10
353.2375854492
 20
15.7164353943
 10
353.3983154297
 20
15.5557214355
 10
353.3983154297
 20
14.1092926025
  0
LWPOLYLINE
  5
36C
100
AcDbEntity
  8
0
100
AcDbPolyline
 62
2
  6
CONTINUOUS
 90
9
 70
0
 10
355.005435791
 20
14.1092926025
 10
354.3625927734
 20
14.1092926025
 10
354.0411584473
 20
14.43072052
 10
354.0411584473
 20
15.3950074768
 10
354.3625927734
 20
15.7164353943
 10
354.6840270996
 20
15.7164353943
 10
355.005435791
 20
15.3950074768
 10
355.005435791
 20
14.9128623962
 10
354.0411584473
 20
14.9128623962
  0
LWPOLYLINE
  5
36D
100
AcDbEntity
  8
0
100
AcDbPolyline
 62
2
  6
CONTINUOUS
 90
4
 70
0
 10
357.898293457
 20
14.1092926025
 10
357.5768847656
 20
14.1092926025
 10
357.4161547852
 20
14.2700065613
 10
357.4161547852
 20
16.3592912292
  0
LWPOLYLINE
  5
36E
100
AcDbEntity
  8
0
100
AcDbPolyline
 62
2
  6
CONTINUOUS
 90
4
 70
0
 10
359.5054394531
 20
14.1092926025
 10
359.5054394531
 20
15.3950074768
 10
359.3447351074
 20
15.7164353943
 10
358.5411621094
 20
15.7164353943
  0
LWPOLYLINE
  5
36F
100
AcDbEntity
  8
0
100
AcDbPolyline
 62
2
  6
CONTINUOUS
 90
6
 70
0
 10
359.5054394531
 20
14.1092926025
 10
358.8625964355
 20
14.1092926025
 10
358.5411621094
 20
14.2700065613
 10
358.5411621094
 20
14.7521484375
 10
358.8625964355
 20
14.9128623962
 10
359.5054394531
 20
14.9128623962
  0
LWPOLYLINE
  5
370
100
AcDbEntity
  8
0
100
AcDbPolyline
 62
2
  6
CONTINUOUS
 90
5
 70
0
 10
360.1483081055
 20
15.7164353943
 10
360.5768701172
 20
14.1092926025
 10
360.9518811035
 20
15.3950074768
 10
361.3268664551
 20
14.1092926025
 10
361.7554541016
 20
15.7164353943
  0
LINE
  5
371
100
AcDbEntity
  8
0
100
AcDbLine
 62
2
  6
CONTINUOUS
 10
364.4875817871
 20
14.1092926025
 11
364.4875817871
 21
15.7164353943
  0
LWPOLYLINE
  5
372
100
AcDbEntity
  8
0
100
AcDbPolyline
 62
2
  6
CONTINUOUS
 90
4
 70
0
 10
364.4875817871
 20
16.1985772705
 10
364.4875817871
 20
16.3592912292
 10
364.5411584473
 20
16.3592912292
 10
364.4875817871
 20
16.1985772705
  0
LWPOLYLINE
  5
373
100
AcDbEntity
  8
0
100
AcDbPolyline
 62
2
  6
CONTINUOUS
 90
5
 70
0
 10
365.3447314453
 20
14.1092926025
 10
365.3447314453
 20
15.7164353943
 10
366.1483044434
 20
15.7164353943
 10
366.3090087891
 20
15.5557214355
 10
366.3090087891
 20
14.1092926025
  0
LWPOLYLINE
  5
374
100
AcDbEntity
  8
0
100
AcDbPolyline
 62
2
  6
CONTINUOUS
 90
4
 70
0
 10
368.9875854492
 20
14.1092926025
 10
368.9875854492
 20
16.1985772705
 10
369.1483154297
 20
16.3592912292
 10
369.4697241211
 20
16.3592912292
  0
LINE
  5
375
100
AcDbEntity
  8
0
100
AcDbLine
 62
2
  6
CONTINUOUS
 10
369.4697241211
 20
15.7164353943
 11
368.7197277832
 21
15.7164353943
  0
LWPOLYLINE
  5
376
100
AcDbEntity
  8
0
100
AcDbPolyline
 62
2
  6
CONTINUOUS
 90
9
 70
0
 10
370.0054394531
 20
14.43072052
 10
370.0054394531
 20
15.3950074768
 10
370.3268737793
 20
15.7164353943
 10
370.6483081055
 20
15.7164353943
 10
370.9697424316
 20
15.3950074768
 10
370.9697424316
 20
14.43072052
 10
370.6483081055
 20
14.1092926025
 10
370.3268737793
 20
14.1092926025
 10
370.0054394531
 20
14.43072052
  0
LWPOLYLINE
  5
377
100
AcDbEntity
  8
0
100
AcDbPolyline
 62
2
  6
CONTINUOUS
 90
5
 70
0
 10
371.6125854492
 20
14.1092926025
 10
371.6125854492
 20
15.7164353943
 10
372.2554541016
 20
15.7164353943
 10
372.3625817871
 20
15.5557214355
 10
372.3625817871
 20
15.2342935181
  0
LWPOLYLINE
  5
378
100
AcDbEntity
  8
0
100
AcDbPolyline
 62
2
  6
CONTINUOUS
 90
6
 70
0
 10
373.8626000977
 20
14.1092926025
 10
373.2197314453
 20
14.1092926025
 10
373.0590270996
 20
14.2700065613
 10
373.0590270996
 20
15.5557214355
 10
373.2197314453
 20
15.7164353943
 10
373.8626000977
 20
15.7164353943
  0
LWPOLYLINE
  5
379
100
AcDbEntity
  8
0
100
AcDbPolyline
 62
2
  6
CONTINUOUS
 90
9
 70
0
 10
375.469720459
 20
14.1092926025
 10
374.8268774414
 20
14.1092926025
 10
374.5054431152
 20
14.43072052
 10
374.5054431152
 20
15.3950074768
 10
374.8268774414
 20
15.7164353943
 10
375.1483117676
 20
15.7164353943
 10
375.469720459
 20
15.3950074768
 10
375.469720459
 20
14.9128623962
 10
374.5054431152
 20
14.9128623962
  0
LWPOLYLINE
  5
37A
100
AcDbEntity
  8
0
100
AcDbPolyline
 62
2
  6
CONTINUOUS
 90
9
 70
0
 10
376.5947277832
 20
14.4842907715
 10
376.6483044434
 20
14.3771502686
 10
376.6483044434
 20
14.3235768127
 10
376.5947277832
 20
14.2164363098
 10
376.4876000977
 20
14.2164363098
 10
376.4340234375
 20
14.3235768127
 10
376.4340234375
 20
14.3771502686
 10
376.4876000977
 20
14.4842907715
 10
376.5947277832
 20
14.4842907715
  0
LWPOLYLINE
  5
37B
100
AcDbEntity
  8
0
100
AcDbPolyline
 62
2
  6
CONTINUOUS
 90
3
 70
0
 10
321.3090234375
 20
10.7342930603
 10
321.9518664551
 20
12.984291687
 10
322.5947351074
 20
10.7342930603
  0
LINE
  5
37C
100
AcDbEntity
  8
0
100
AcDbLine
 62
2
  6
CONTINUOUS
 10
321.5233044434
 20
11.3771488953
 11
322.3804541016
 21
11.3771488953
  0
LWPOLYLINE
  5
37D
100
AcDbEntity
  8
0
100
AcDbPolyline
 62
2
  6
CONTINUOUS
 90
4
 70
0
 10
323.7197424316
 20
10.7342930603
 10
323.3983081055
 20
10.7342930603
 10
323.237578125
 20
10.895007019
 10
323.237578125
 20
12.984291687
  0
LWPOLYLINE
  5
37E
100
AcDbEntity
  8
0
100
AcDbPolyline
 62
2
  6
CONTINUOUS
 90
4
 70
0
 10
324.8447241211
 20
10.7342930603
 10
324.5233154297
 20
10.7342930603
 10
324.3625854492
 20
10.895007019
 10
324.3625854492
 20
12.984291687
  0
LWPOLYLINE
  5
37F
100
AcDbEntity
  8
0
100
AcDbPolyline
 62
2
  6
CONTINUOUS
 90
5
 70
0
 10
327.2554431152
 20
10.7342930603
 10
327.2554431152
 20
12.3414358521
 10
327.8983117676
 20
12.3414358521
 10
328.0054394531
 20
12.1807218933
 10
328.0054394531
 20
11.8592907715
  0
LINE
  5
380
100
AcDbEntity
  8
0
100
AcDbLine
 62
2
  6
CONTINUOUS
 10
329.023293457
 20
10.7342930603
 11
329.023293457
 21
12.3414358521
  0
LWPOLYLINE
  5
381
100
AcDbEntity
  8
0
100
AcDbPolyline
 62
2
  6
CONTINUOUS
 90
4
 70
0
 10
329.023293457
 20
12.8235777283
 10
329.023293457
 20
12.984291687
 10
329.0768701172
 20
12.984291687
 10
329.023293457
 20
12.8235777283
  0
LWPOLYLINE
  5
382
100
AcDbEntity
  8
0
100
AcDbPolyline
 62
2
  6
CONTINUOUS
 90
9
 70
0
 10
329.8804431152
 20
10.1985777283
 10
330.6840161133
 20
10.1985777283
 10
330.844720459
 20
10.4128619385
 10
330.844720459
 20
12.3414358521
 10
330.0411730957
 20
12.3414358521
 10
329.8804431152
 20
12.1807218933
 10
329.8804431152
 20
10.895007019
 10
330.0411730957
 20
10.7342930603
 10
330.844720459
 20
10.7342930603
  0
LINE
  5
383
100
AcDbEntity
  8
0
100
AcDbLine
 62
2
  6
CONTINUOUS
 10
331.4875891113
 20
10.7342930603
 11
331.4875891113
 21
12.984291687
  0
LWPOLYLINE
  5
384
100
AcDbEntity
  8
0
100
AcDbPolyline
 62
2
  6
CONTINUOUS
 90
4
 70
0
 10
331.4875891113
 20
12.3414358521
 10
332.2911621094
 20
12.3414358521
 10
332.4518664551
 20
12.1807218933
 10
332.4518664551
 20
10.7342930603
  0
LINE
  5
385
100
AcDbEntity
  8
0
100
AcDbLine
 62
2
  6
CONTINUOUS
 10
333.3625927734
 20
10.7342930603
 11
333.3625927734
 21
12.984291687
  0
LINE
  5
386
100
AcDbEntity
  8
0
100
AcDbLine
 62
2
  6
CONTINUOUS
 10
333.0947351074
 20
12.3414358521
 11
333.737578125
 21
12.3414358521
  0
LWPOLYLINE
  5
387
100
AcDbEntity
  8
0
100
AcDbPolyline
 62
2
  6
CONTINUOUS
 90
12
 70
0
 10
334.3804467773
 20
10.895007019
 10
334.541151123
 20
10.7342930603
 10
335.1840197754
 20
10.7342930603
 10
335.3447241211
 20
10.895007019
 10
335.3447241211
 20
11.3771488953
 10
335.1840197754
 20
11.4842926025
 10
334.541151123
 20
11.5914363098
 10
334.3804467773
 20
11.6985768127
 10
334.3804467773
 20
12.1807218933
 10
334.541151123
 20
12.3414358521
 10
335.1840197754
 20
12.3414358521
 10
335.3447241211
 20
12.1807218933
  0
LWPOLYLINE
  5
388
100
AcDbEntity
  8
0
100
AcDbPolyline
 62
2
  6
CONTINUOUS
 90
5
 70
0
 10
337.7554431152
 20
10.7342930603
 10
337.7554431152
 20
12.3414358521
 10
338.3983117676
 20
12.3414358521
 10
338.5054394531
 20
12.1807218933
 10
338.5054394531
 20
11.8592907715
  0
LWPOLYLINE
  5
389
100
AcDbEntity
  8
0
100
AcDbPolyline
 62
2
  6
CONTINUOUS
 90
9
 70
0
 10
340.1661621094
 20
10.7342930603
 10
339.523293457
 20
10.7342930603
 10
339.2018847656
 20
11.0557209778
 10
339.2018847656
 20
12.0200047302
 10
339.523293457
 20
12.3414358521
 10
339.8447277832
 20
12.3414358521
 10
340.1661621094
 20
12.0200047302
 10
340.1661621094
 20
11.537862854
 10
339.2018847656
 20
11.537862854
  0
LWPOLYLINE
  5
38A
100
AcDbEntity
  8
0
100
AcDbPolyline
 62
2
  6
CONTINUOUS
 90
12
 70
0
 10
340.8090307617
 20
10.895007019
 10
340.9697351074
 20
10.7342930603
 10
341.612578125
 20
10.7342930603
 10
341.7733081055
 20
10.895007019
 10
341.7733081055
 20
11.3771488953
 10
341.612578125
 20
11.4842926025
 10
340.9697351074
 20
11.5914363098
 10
340.8090307617
 20
11.6985768127
 10
340.8090307617
 20
12.1807218933
 10
340.9697351074
 20
12.3414358521
 10
341.612578125
 20
12.3414358521
 10
341.7733081055
 20
12.1807218933
  0
LWPOLYLINE
  5
38B
100
AcDbEntity
  8
0
100
AcDbPolyline
 62
2
  6
CONTINUOUS
 90
9
 70
0
 10
343.3804541016
 20
10.7342930603
 10
342.7375854492
 20
10.7342930603
 10
342.416151123
 20
11.0557209778
 10
342.416151123
 20
12.0200047302
 10
342.7375854492
 20
12.3414358521
 10
343.0590197754
 20
12.3414358521
 10
343.3804541016
 20
12.0200047302
 10
343.3804541016
 20
11.537862854
 10
342.416151123
 20
11.537862854
  0
LWPOLYLINE
  5
38C
100
AcDbEntity
  8
0
100
AcDbPolyline
 62
2
  6
CONTINUOUS
 90
5
 70
0
 10
344.0232971191
 20
10.7342930603
 10
344.0232971191
 20
12.3414358521
 10
344.6661657715
 20
12.3414358521
 10
344.773293457
 20
12.1807218933
 10
344.773293457
 20
11.8592907715
  0
LWPOLYLINE
  5
38D
100
AcDbEntity
  8
0
100
AcDbPolyline
 62
2
  6
CONTINUOUS
 90
3
 70
0
 10
345.4697387695
 20
12.3414358521
 10
345.9518774414
 20
10.7342930603
 10
346.4340161133
 20
12.3414358521
  0
LWPOLYLINE
  5
38E
100
AcDbEntity
  8
0
100
AcDbPolyline
 62
2
  6
CONTINUOUS
 90
9
 70
0
 10
348.0411621094
 20
10.7342930603
 10
347.398293457
 20
10.7342930603
 10
347.0768847656
 20
11.0557209778
 10
347.0768847656
 20
12.0200047302
 10
347.398293457
 20
12.3414358521
 10
347.7197277832
 20
12.3414358521
 10
348.0411621094
 20
12.0200047302
 10
348.0411621094
 20
11.537862854
 10
347.0768847656
 20
11.537862854
  0
LWPOLYLINE
  5
38F
100
AcDbEntity
  8
0
100
AcDbPolyline
 62
2
  6
CONTINUOUS
 90
7
 70
0
 10
349.6483081055
 20
12.984291687
 10
349.6483081055
 20
10.7342930603
 10
349.0054394531
 20
10.7342930603
 10
348.6840307617
 20
10.895007019
 10
348.6840307617
 20
12.1807218933
 10
349.0054394531
 20
12.3414358521
 10
349.6483081055
 20
12.3414358521
  0
LWPOLYLINE
  5
390
100
AcDbEntity
  8
0
100
AcDbPolyline
 62
2
  6
CONTINUOUS
 90
9
 70
0
 10
350.7733154297
 20
11.1092912292
 10
350.8268664551
 20
11.0021507263
 10
350.8268664551
 20
10.9485772705
 10
350.7733154297
 20
10.8414335632
 10
350.6661621094
 20
10.8414335632
 10
350.6125854492
 20
10.9485772705
 10
350.6125854492
 20
11.0021507263
 10
350.6661621094
 20
11.1092912292
 10
350.7733154297
 20
11.1092912292
  0
ACAD_TABLE
  5
391
100
AcDbEntity
  8
0
 62
2
  6
CONTINUOUS
100
AcDbBlockReference
  2
*T1
 10
319.8215188711
 20
50.4217920391
 30
0.0
100
AcDbTable
342
       600
343
227
 11
1.0
 21
0.0
 31
0.0
 90
22
 91
5
 92
5
 93
0
 94
0
 95
0
 96
0
141
6.0
141
6.0
141
10.0
141
5.0
141
13.0
142
10.0
142
10.0
142
10.0
142
40.0
142
20.0
171
1
172
0
173
0
174
0
175
3
176
4
 91
1
178
0
145
0.0
170
5
171
1
172
0
173
1
174
0
175
1
176
1
 91
1
178
0
145
0.0
170
1
171
1
172
0
173
1
174
0
175
1
176
1
 91
1
178
0
145
0.0
170
1
171
1
172
0
173
0
174
0
175
1
176
1
 91
33
178
0
145
0.0
301
CELL_VALUE
 90
4
  1
{\Ftxt.shx;\W6.761905;\H3.000000; }
304
ACVALUE_END
170
4
140
3.0
171
1
172
0
173
0
174
0
175
1
176
1
 91
33
178
0
145
0.0
301
CELL_VALUE
 90
4
  1
{\Ftxt.shx;\W2.571429;\H3.500000; }{\Ftxt.shx;\W1.571429;\H3.500000; }
304
ACVALUE_END
170
4
140
3.5
171
1
172
0
173
1
174
0
175
1
176
1
 91
1
178
0
145
0.0
170
1
171
1
172
0
173
1
174
0
175
1
176
1
 91
1
178
0
145
0.0
170
1
171
1
172
0
173
1
174
0
175
1
176
1
 91
1
178
0
145
0.0
170
1
171
1
172
0
173
0
174
0
175
1
176
1
 91
33
178
0
145
0.0
301
CELL_VALUE
 90
4
  1
{\Ftxt.shx;\W3.714286;\H3.500000; }{\Ftxt.shx;\W1.500000;\H3.500000; }
304
ACVALUE_END
170
1
140
3.5
171
1
172
0
173
0
174
0
175
1
176
1
 91
33
178
0
145
0.0
301
CELL_VALUE
 90
4
  1
{\Ftxt.shx;\W1.571429;\H3.500000; }
304
ACVALUE_END
170
4
140
3.5
171
1
172
0
173
1
174
0
175
1
176
1
 91
1
178
0
145
0.0
170
1
171
1
172
0
173
1
174
0
175
1
176
1
 91
1
178
0
145
0.0
170
1
171
1
172
0
173
1
174
0
175
1
176
1
 91
1
178
0
145
0.0
170
1
171
1
172
0
173
0
174
0
175
2
176
1
 91
33
178
0
145
0.0
301
CELL_VALUE
 90
4
  1
{\Ftxt.shx;\W6.095238;\H3.500000; }
304
ACVALUE_END
170
4
140
3.5
171
1
172
0
173
1
174
0
175
1
176
1
 91
1
178
0
145
0.0
170
1
171
1
172
0
173
1
174
0
175
1
176
1
 91
1
178
0
145
0.0
170
1
171
1
172
0
173
1
174
0
175
1
176
1
 91
1
178
0
145
0.0
170
1
171
1
172
0
173
1
174
0
175
1
176
1
 91
1
178
0
145
0.0
170
1
171
1
172
0
173
0
174
0
175
2
176
1
 91
33
178
0
145
0.0
301
CELL_VALUE
 90
4
  1
{\Ftxt.shx;\W3.690476;\H2.500000; }{\Ftxt.shx;\W7.309524;\H2.500000; }
304
ACVALUE_END
170
4
140
2.5
171
1
172
0
173
1
174
0
175
1
176
1
 91
1
178
0
145
0.0
170
1
171
1
172
0
173
0
174
0
175
5
176
1
 91
33
178
0
145
0.0
301
CELL_VALUE
 90
4
  1
{\Ftxt.shx;\W35.880952;\H2.250000; }\P{\Ftxt.shx;\W22.452381;\H2.250000; }{\Ftxt.shx;\W6.642857;\H2.250000; }{\Ftxt.shx;\W10.595238;\H2.250000; }\P{\Ftxt.shx;\W25.714286;\H2.250000; }\P{\Ftxt.shx;\W13.452381;\H2.250000; }
304
ACVALUE_END
170
4
140
2.25
171
1
172
0
173
1
174
0
175
1
176
1
 91
1
178
0
145
0.0
170
1
171
1
172
0
173
1
174
0
175
1
176
1
 91
1
178
0
145
0.0
170
1
171
1
172
0
173
1
174
0
175
1
176
1
 91
1
178
0
145
0.0
170
1
171
1
172
0
173
1
174
0
175
1
176
1
 91
1
178
0
145
0.0
170
1
  0
LINE
  5
392
100
AcDbEntity
  8
0
100
AcDbLine
 62
7
  6
CONTINUOUS
 10
0.0
 20
0.0
 11
0.0
 21
297.0
  0
LINE
  5
393
100
AcDbEntity
  8
0
100
AcDbLine
 62
7
  6
CONTINUOUS
 10
0.0
 20
0.0
 11
420.0
 21
0.0
  0
LINE
  5
394
100
AcDbEntity
  8
0
100
AcDbLine
 62
7
  6
CONTINUOUS
 10
0.0
 20
297.0
 11
420.0
 21
297.0
  0
LINE
  5
395
100
AcDbEntity
  8
0
100
AcDbLine
 62
7
  6
CONTINUOUS
 10
420.0
 20
0.0
 11
420.0
 21
297.0
  0
LWPOLYLINE
  5
396
100
AcDbEntity
  8
0
100
AcDbPolyline
 62
2
  6
CONTINUOUS
 90
13
 70
0
 43
0.1500000036
 10
79.9134146118
 20
114.7687628174
 10
80.6232092285
 20
115.1168829346
 10
81.3302929688
 20
115.111473999
 10
82.0346722412
 20
114.7525231934
 10
82.3828051758
 20
114.0427349854
 10
82.3773962402
 20
113.3356384277
 10
82.0184390259
 20
112.6312591553
 10
81.3086444092
 20
112.2831262207
 10
80.6015606689
 20
112.2885479736
 10
79.8971813965
 20
112.6474987793
 10
79.5490484619
 20
113.3572869873
 10
79.5544638062
 20
114.0643707275
 10
79.9134146118
 20
114.7687628174
  0
LINE
  5
397
100
AcDbEntity
  8
7_ALL_FEATURES
100
AcDbLine
 62
7
  6
CONTINUOUS
 10
84.1170888672
 20
34.3694363459
 11
83.8670888672
 21
34.3694363459
  0
LINE
  5
398
100
AcDbEntity
  8
7_ALL_FEATURES
100
AcDbLine
 62
9
  6
CONTINUOUS
 10
83.8670888672
 20
36.2370879352
 11
84.1170888672
 21
36.2370879352
  0
LINE
  5
399
100
AcDbEntity
  8
02___PRT_ALL_AXES
100
AcDbLine
 62
7
  6
CONTINUOUS
 10
83.3670888672
 20
76.3694363459
 11
83.3670888672
 21
82.3694363459
  0
LINE
  5
39A
100
AcDbEntity
  8
02___PRT_ALL_AXES
100
AcDbLine
 62
7
  6
CONTINUOUS
 10
83.5670888672
 20
76.3694363459
 11
83.5670888672
 21
82.3694363459
  0
LINE
  5
39B
100
AcDbEntity
  8
7_ALL_FEATURES
100
AcDbLine
 62
3
  6
CONTINUOUS
 10
83.8670888672
 20
34.3695950201
 11
83.8670888672
 21
76.6694363459
  0
LINE
  5
39C
100
AcDbEntity
  8
7_ALL_FEATURES
100
AcDbLine
 62
3
  6
CONTINUOUS
 10
83.8670888672
 20
82.0694363459
 11
83.8670888672
 21
84.3694363459
  0
LINE
  5
39D
100
AcDbEntity
  8
7_ALL_FEATURES
100
AcDbLine
 62
7
  6
CONTINUOUS
 10
84.1170888672
 20
84.3694363459
 11
84.1170888672
 21
81.8194363459
  0
LINE
  5
39E
100
AcDbEntity
  8
7_ALL_FEATURES
100
AcDbLine
 62
7
  6
CONTINUOUS
 10
84.1170888672
 20
34.3695950201
 11
84.1170888672
 21
76.9194363459
  0
LINE
  5
39F
100
AcDbEntity
  8
7_ALL_FEATURES
100
AcDbLine
 62
7
  6
CONTINUOUS
 10
86.4170888672
 20
74.3694363459
 11
86.4170888672
 21
84.3694363459
  0
LINE
  5
3A0
100
AcDbEntity
  8
7_ALL_FEATURES
100
AcDbLine
 62
3
  6
CONTINUOUS
 10
83.9842041334
 20
84.8977091731
 11
85.7329332917
 21
88.6478709551
  0
LINE
  5
3A1
100
AcDbEntity
  8
7_ALL_FEATURES
100
AcDbLine
 62
3
  6
CONTINUOUS
 10
87.8751040536
 20
93.2417709789
 11
88.9385080081
 21
95.5222481186
  0
LINE
  5
3A2
100
AcDbEntity
  8
7_ALL_FEATURES
100
AcDbLine
 62
7
  6
CONTINUOUS
 10
89.1650849548
 20
95.4165935532
 11
88.9257519415
 21
94.9033422497
  0
LINE
  5
3A3
100
AcDbEntity
  8
7_ALL_FEATURES
100
AcDbLine
 62
7
  6
CONTINUOUS
 10
84.2107810802
 20
84.7920546076
 11
85.1398076654
 21
86.784358549
  0
LINE
  5
3A4
100
AcDbEntity
  8
7_ALL_FEATURES
100
AcDbLine
 62
7
  6
CONTINUOUS
 10
88.4170888672
 20
70.0549315281
 11
88.4170888672
 21
74.3694363459
  0
LINE
  5
3A5
100
AcDbEntity
  8
7_ALL_FEATURES
100
AcDbLine
 62
9
  6
CONTINUOUS
 10
88.4170888672
 20
74.3694363459
 11
88.4170888672
 21
84.3694363459
  0
LINE
  5
3A6
100
AcDbEntity
  8
7_ALL_FEATURES
100
AcDbLine
 62
7
  6
CONTINUOUS
 10
88.4170888672
 20
84.3694363459
 11
88.4170888672
 21
88.6839411636
  0
LINE
  5
3A7
100
AcDbEntity
  8
02___PRT_ALL_AXES
100
AcDbLine
 62
7
  6
CONTINUOUS
 10
84.221250057
 20
77.0235975357
 11
83.5670888672
 21
76.3694363459
  0
LINE
  5
3A8
100
AcDbEntity
  8
02___PRT_ALL_AXES
100
AcDbLine
 62
7
  6
CONTINUOUS
 10
83.5670888672
 20
82.3694363459
 11
84.221250057
 21
81.7152751561
  0
LINE
  5
3A9
100
AcDbEntity
  8
7_ALL_FEATURES
100
AcDbLine
 62
7
  6
CONTINUOUS
 10
101.3471486993
 20
90.4137072769
 11
98.2942045149
 21
74.707672392
  0
LINE
  5
3AA
100
AcDbEntity
  8
02___PRT_ALL_AXES
100
AcDbLine
 62
7
  6
CONTINUOUS
 10
101.3471486993
 20
90.4137072769
 11
101.4711745567
 21
91.0517649441
  0
LINE
  5
3AB
100
AcDbEntity
  8
7_ALL_FEATURES
100
AcDbLine
 62
7
  6
CONTINUOUS
 10
111.5393764459
 20
68.261040387
 11
110.9548795702
 21
68.4176558528
  0
LINE
  5
3AC
100
AcDbEntity
  8
7_ALL_FEATURES
100
AcDbLine
 62
7
  6
CONTINUOUS
 10
106.7146886372
 20
69.5538115891
 11
106.1301918187
 21
69.7104270395
  0
LINE
  5
3AD
100
AcDbEntity
  8
7_ALL_FEATURES
100
AcDbLine
 62
7
  6
CONTINUOUS
 10
100.1859054962
 20
73.9579441763
 11
100.3290122548
 21
74.6941645615
  0
LINE
  5
3AE
100
AcDbEntity
  8
7_ALL_FEATURES
100
AcDbLine
 62
7
  6
CONTINUOUS
 10
101.4709850205
 20
72.0527353646
 11
101.7810496642
 21
73.6478795326
  0
LINE
  5
3AF
100
AcDbEntity
  8
7_ALL_FEATURES
100
AcDbLine
 62
7
  6
CONTINUOUS
 10
101.9241564228
 20
74.3840999178
 11
102.2342210666
 21
75.9792440858
  0
LINE
  5
3B0
100
AcDbEntity
  8
7_ALL_FEATURES
100
AcDbLine
 62
7
  6
CONTINUOUS
 10
102.9704414518
 20
75.8361373272
 11
102.6603768081
 21
74.2409931592
  0
LINE
  5
3B1
100
AcDbEntity
  8
7_ALL_FEATURES
100
AcDbLine
 62
7
  6
CONTINUOUS
 10
102.5172700494
 20
73.5047727739
 11
102.2072054057
 21
71.9096286059
  0
LINE
  5
3B2
100
AcDbEntity
  8
7_ALL_FEATURES
100
AcDbLine
 62
7
  6
CONTINUOUS
 10
106.4552896302
 20
90.0829510303
 11
107.1170888672
 21
91.2015959121
  0
LINE
  5
3B3
100
AcDbEntity
  8
02___PRT_ALL_AXES
100
AcDbLine
 62
7
  6
CONTINUOUS
 10
117.3691240675
 20
97.4958402085
 11
118.0014583085
 21
98.128174458
  0
LINE
  5
3B4
100
AcDbEntity
  8
02___PRT_ALL_AXES
100
AcDbLine
 62
7
  6
CONTINUOUS
 10
131.0548178834
 20
75.5190932131
 11
130.1910327195
 21
75.2876430228
  0
LINE
  5
3B5
100
AcDbEntity
  8
7_ALL_FEATURES
100
AcDbLine
 62
7
  6
CONTINUOUS
 10
102.2072054057
 20
71.9096286059
 11
101.4709850205
 21
72.0527353646
  0
LINE
  5
3B6
100
AcDbEntity
  8
7_ALL_FEATURES
100
AcDbLine
 62
7
  6
CONTINUOUS
 10
104.1124142174
 20
73.1947081302
 11
102.5172700494
 21
73.5047727739
  0
LINE
  5
3B7
100
AcDbEntity
  8
7_ALL_FEATURES
100
AcDbLine
 62
7
  6
CONTINUOUS
 10
101.7810496642
 20
73.6478795326
 11
100.1859054962
 21
73.9579441763
  0
LINE
  5
3B8
100
AcDbEntity
  8
02___PRT_ALL_AXES
100
AcDbLine
 62
7
  6
CONTINUOUS
 10
93.4906850045
 20
85.1214715462
 11
92.8583507551
 21
85.7538057872
  0
LINE
  5
3B9
100
AcDbEntity
  8
7_ALL_FEATURES
100
AcDbLine
 62
7
  6
CONTINUOUS
 10
107.1170888672
 20
67.5372767797
 11
106.0800518301
 21
69.290189308
  0
LINE
  5
3BA
100
AcDbEntity
  8
02___PRT_ALL_AXES
100
AcDbLine
 62
7
  6
CONTINUOUS
 10
107.7667457344
 20
59.9317073297
 11
107.5352955441
 21
60.7954924936
  0
LINE
  5
3BB
100
AcDbEntity
  8
7_ALL_FEATURES
100
AcDbLine
 62
7
  6
CONTINUOUS
 10
107.1170888672
 20
92.8694363459
 11
107.1170888672
 21
91.2015959121
  0
LINE
  5
3BC
100
AcDbEntity
  8
7_ALL_FEATURES
100
AcDbLine
 62
7
  6
CONTINUOUS
 10
107.1170888672
 20
67.5372767797
 11
107.1170888672
 21
65.8694363459
  0
LINE
  5
3BD
100
AcDbEntity
  8
7_ALL_FEATURES
100
AcDbLine
 62
7
  6
CONTINUOUS
 10
104.2555209761
 20
73.9309285155
 11
104.1124142174
 21
73.1947081302
  0
LINE
  5
3BE
100
AcDbEntity
  8
7_ALL_FEATURES
100
AcDbLine
 62
7
  6
CONTINUOUS
 10
106.1472219574
 20
73.1812002998
 11
109.2001661417
 21
88.8872351847
  0
LINE
  5
3BF
100
AcDbEntity
  8
02___PRT_ALL_AXES
100
AcDbLine
 62
7
  6
CONTINUOUS
 10
109.2001661417
 20
88.8872351847
 11
109.3241658185
 21
89.525158164
  0
LINE
  5
3C0
100
AcDbEntity
  8
7_ALL_FEATURES
100
AcDbLine
 62
7
  6
CONTINUOUS
 10
139.3670888672
 20
74.3694363459
 11
139.1170888672
 21
74.3694363459
  0
LINE
  5
3C1
100
AcDbEntity
  8
7_ALL_FEATURES
100
AcDbLine
 62
7
  6
CONTINUOUS
 10
136.8170888672
 20
74.3694363459
 11
134.8170888672
 21
74.3694363459
  0
LINE
  5
3C2
100
AcDbEntity
  8
7_ALL_FEATURES
100
AcDbLine
 62
7
  6
CONTINUOUS
 10
86.4170888672
 20
74.3694363459
 11
88.4170888672
 21
74.3694363459
  0
LINE
  5
3C3
100
AcDbEntity
  8
7_ALL_FEATURES
100
AcDbLine
 62
9
  6
CONTINUOUS
 10
84.1170888672
 20
75.2689695575
 11
83.8670888672
 21
75.2689695575
  0
LINE
  5
3C4
100
AcDbEntity
  8
7_ALL_FEATURES
100
AcDbLine
 62
7
  6
CONTINUOUS
 10
100.3290122548
 20
74.6941645615
 11
101.9241564228
 21
74.3840999178
  0
LINE
  5
3C5
100
AcDbEntity
  8
7_ALL_FEATURES
100
AcDbLine
 62
7
  6
CONTINUOUS
 10
102.6603768081
 20
74.2409931592
 11
104.2555209761
 21
73.9309285155
  0
LINE
  5
3C6
100
AcDbEntity
  8
7_ALL_FEATURES
100
AcDbLine
 62
7
  6
CONTINUOUS
 10
102.2342210666
 20
75.9792440858
 11
102.9704414518
 21
75.8361373272
  0
LINE
  5
3C7
100
AcDbEntity
  8
7_ALL_FEATURES
100
AcDbLine
 62
9
  6
CONTINUOUS
 10
83.9842041334
 20
84.8977091731
 11
84.2107810802
 21
84.7920546076
  0
LINE
  5
3C8
100
AcDbEntity
  8
7_ALL_FEATURES
100
AcDbLine
 62
7
  6
CONTINUOUS
 10
134.0690927795
 20
63.3222791386
 11
134.2956697263
 21
63.2166245731
  0
LINE
  5
3C9
100
AcDbEntity
  8
7_ALL_FEATURES
100
AcDbLine
 62
9
  6
CONTINUOUS
 10
134.5502400174
 20
64.2012944158
 11
134.718287988
 21
64.1229323602
  0
LINE
  5
3CA
100
AcDbEntity
  8
02___PRT_ALL_AXES
100
AcDbLine
 62
7
  6
CONTINUOUS
 10
115.7900284807
 20
100.8490925364
 11
115.4552100561
 21
99.273895783
  0
LINE
  5
3CB
100
AcDbEntity
  8
02___PRT_ALL_AXES
100
AcDbLine
 62
7
  6
CONTINUOUS
 10
107.4441492536
 20
57.8897801554
 11
107.7789676783
 21
59.4649769087
  0
LINE
  5
3CC
100
AcDbEntity
  8
02___PRT_ALL_AXES
100
AcDbLine
 62
7
  6
CONTINUOUS
 10
113.6947738964
 20
97.4042531582
 11
114.6209626029
 21
101.1189934232
  0
LINE
  5
3CD
100
AcDbEntity
  8
7_ALL_FEATURES
100
AcDbLine
 62
7
  6
CONTINUOUS
 10
107.2766742543
 20
66.2617510506
 11
107.4544877622
 21
66.9253601147
  0
LINE
  5
3CE
100
AcDbEntity
  8
7_ALL_FEATURES
100
AcDbLine
 62
7
  6
CONTINUOUS
 10
114.2342084545
 20
92.2276221811
 11
114.4120221439
 21
92.8912319043
  0
LINE
  5
3CF
100
AcDbEntity
  8
02___PRT_ALL_AXES
100
AcDbLine
 62
7
  6
CONTINUOUS
 10
103.3437415861
 20
59.0318315489
 11
104.3990084774
 21
62.7119843192
  0
LINE
  5
3D0
100
AcDbEntity
  8
02___PRT_ALL_AXES
100
AcDbLine
 62
7
  6
CONTINUOUS
 10
104.9887699564
 20
60.212609324
 11
104.4911324857
 21
58.6810386136
  0
LINE
  5
3D1
100
AcDbEntity
  8
02___PRT_ALL_AXES
100
AcDbLine
 62
7
  6
CONTINUOUS
 10
118.245407778
 20
98.5262633678
 11
118.7430452486
 21
100.0578340782
  0
LINE
  5
3D2
100
AcDbEntity
  8
02___PRT_ALL_AXES
100
AcDbLine
 62
7
  6
CONTINUOUS
 10
125.9707886762
 20
95.8848944646
 11
123.0253700841
 21
92.6136760521
  0
LINE
  5
3D3
100
AcDbEntity
  8
02___PRT_ALL_AXES
100
AcDbLine
 62
7
  6
CONTINUOUS
 10
97.2633890581
 20
62.8539782271
 11
100.2088076503
 21
66.1251966397
  0
LINE
  5
3D4
100
AcDbEntity
  8
02___PRT_ALL_AXES
100
AcDbLine
 62
7
  6
CONTINUOUS
 10
122.0834336943
 20
93.5863622245
 11
125.0932978639
 21
96.7031686228
  0
LINE
  5
3D5
100
AcDbEntity
  8
7_ALL_FEATURES
100
AcDbLine
 62
7
  6
CONTINUOUS
 10
120.3126745301
 20
89.1963926713
 11
120.7984693919
 21
89.6821875101
  0
LINE
  5
3D6
100
AcDbEntity
  8
02___PRT_ALL_AXES
100
AcDbLine
 62
7
  6
CONTINUOUS
 10
94.2833586
 20
65.8932290881
 11
97.4001629885
 21
68.9030915188
  0
LINE
  5
3D7
100
AcDbEntity
  8
02___PRT_ALL_AXES
100
AcDbLine
 62
7
  6
CONTINUOUS
 10
98.3728508133
 20
67.9611562908
 11
95.1016307484
 21
65.0157365368
  0
LINE
  5
3D8
100
AcDbEntity
  8
02___PRT_ALL_AXES
100
AcDbLine
 62
7
  6
CONTINUOUS
 10
124.8613269211
 20
90.7777164009
 11
128.132546986
 21
93.7231361549
  0
LINE
  5
3D9
100
AcDbEntity
  8
02___PRT_ALL_AXES
100
AcDbLine
 62
7
  6
CONTINUOUS
 10
132.3054865995
 20
86.4953927273
 11
128.1190686373
 21
85.1351430574
  0
LINE
  5
3DA
100
AcDbEntity
  8
02___PRT_ALL_AXES
100
AcDbLine
 62
7
  6
CONTINUOUS
 10
90.9286911349
 20
72.2434799644
 11
95.1151090971
 21
73.6037296343
  0
LINE
  5
3DB
100
AcDbEntity
  8
02___PRT_ALL_AXES
100
AcDbLine
 62
7
  6
CONTINUOUS
 10
127.7896723115
 20
86.448482907
 11
131.9546932894
 21
87.6427838885
  0
LINE
  5
3DC
100
AcDbEntity
  8
7_ALL_FEATURES
100
AcDbLine
 62
7
  6
CONTINUOUS
 10
125.138884625
 20
82.1643698092
 11
124.475276218
 21
81.9865564363
  0
LINE
  5
3DD
100
AcDbEntity
  8
02___PRT_ALL_AXES
100
AcDbLine
 62
7
  6
CONTINUOUS
 10
133.3666425684
 20
82.3733087246
 11
129.1624802554
 21
81.3250939116
  0
LINE
  5
3DE
100
AcDbEntity
  8
02___PRT_ALL_AXES
100
AcDbLine
 62
7
  6
CONTINUOUS
 10
128.7910761075
 20
82.6271775409
 11
133.0967450577
 21
83.5423759594
  0
LINE
  5
3DF
100
AcDbEntity
  8
02___PRT_ALL_AXES
100
AcDbLine
 62
7
  6
CONTINUOUS
 10
94.4431016269
 20
76.1116951508
 11
90.1374326006
 21
75.1964970331
  0
LINE
  5
3E0
100
AcDbEntity
  8
02___PRT_ALL_AXES
100
AcDbLine
 62
7
  6
CONTINUOUS
 10
139.8670888672
 20
76.3694363459
 11
139.6670888672
 21
76.3694363459
  0
LINE
  5
3E1
100
AcDbEntity
  8
02___PRT_ALL_AXES
100
AcDbLine
 62
7
  6
CONTINUOUS
 10
83.5670888672
 20
76.3694363459
 11
83.3670888672
 21
76.3694363459
  0
LINE
  5
3E2
100
AcDbEntity
  8
7_ALL_FEATURES
100
AcDbLine
 62
7
  6
CONTINUOUS
 10
137.5733272292
 20
77.8694363459
 11
136.8170888672
 21
77.8694363459
  0
LINE
  5
3E3
100
AcDbEntity
  8
02___PRT_ALL_AXES
100
AcDbLine
 62
7
  6
CONTINUOUS
 10
86.4170888672
 20
77.8694363459
 11
85.6608505052
 21
77.8694363459
  0
LINE
  5
3E4
100
AcDbEntity
  8
7_ALL_FEATURES
100
AcDbLine
 62
7
  6
CONTINUOUS
 10
85.6608505052
 20
77.8694363459
 11
86.4170888672
 21
77.8694363459
  0
LINE
  5
3E5
100
AcDbEntity
  8
02___PRT_ALL_AXES
100
AcDbLine
 62
7
  6
CONTINUOUS
 10
136.8170888672
 20
77.8694363459
 11
137.5733272292
 21
77.8694363459
  0
LINE
  5
3E6
100
AcDbEntity
  8
02___PRT_ALL_AXES
100
AcDbLine
 62
7
  6
CONTINUOUS
 10
90.1374326767
 20
83.5423759594
 11
91.7126294301
 21
83.2075575348
  0
LINE
  5
3E7
100
AcDbEntity
  8
02___PRT_ALL_AXES
100
AcDbLine
 62
7
  6
CONTINUOUS
 10
133.0967450577
 20
75.1964967323
 11
131.5215483043
 21
75.531315157
  0
LINE
  5
3E8
100
AcDbEntity
  8
02___PRT_ALL_AXES
100
AcDbLine
 62
7
  6
CONTINUOUS
 10
93.5822720549
 20
81.4471213751
 11
89.8675317899
 21
82.3733100816
  0
LINE
  5
3E9
100
AcDbEntity
  8
7_ALL_FEATURES
100
AcDbLine
 62
7
  6
CONTINUOUS
 10
124.7247741625
 20
75.029021733
 11
124.0611650983
 21
75.2068352409
  0
LINE
  5
3EA
100
AcDbEntity
  8
7_ALL_FEATURES
100
AcDbLine
 62
7
  6
CONTINUOUS
 10
98.758903032
 20
81.9865559331
 11
98.0952933088
 21
82.1643696226
  0
LINE
  5
3EB
100
AcDbEntity
  8
02___PRT_ALL_AXES
100
AcDbLine
 62
7
  6
CONTINUOUS
 10
131.9546936642
 20
71.0960890648
 11
128.2745408938
 21
72.1513559561
  0
LINE
  5
3EC
100
AcDbEntity
  8
02___PRT_ALL_AXES
100
AcDbLine
 62
7
  6
CONTINUOUS
 10
130.7739158891
 20
72.7411174351
 11
132.3054865995
 21
72.2434799644
  0
LINE
  5
3ED
100
AcDbEntity
  8
02___PRT_ALL_AXES
100
AcDbLine
 62
7
  6
CONTINUOUS
 10
92.4602618453
 20
85.9977552567
 11
90.9286911349
 21
86.4953927273
  0
LINE
  5
3EE
100
AcDbEntity
  8
02___PRT_ALL_AXES
100
AcDbLine
 62
7
  6
CONTINUOUS
 10
95.1016307484
 20
93.7231361549
 11
98.372849161
 21
90.7777175628
  0
LINE
  5
3EF
100
AcDbEntity
  8
02___PRT_ALL_AXES
100
AcDbLine
 62
7
  6
CONTINUOUS
 10
128.132546986
 20
65.0157365368
 11
124.8613285734
 21
67.961155129
  0
LINE
  5
3F0
100
AcDbEntity
  8
02___PRT_ALL_AXES
100
AcDbLine
 62
7
  6
CONTINUOUS
 10
97.4001629885
 20
89.835781173
 11
94.2833565902
 21
92.8456453426
  0
LINE
  5
3F1
100
AcDbEntity
  8
7_ALL_FEATURES
100
AcDbLine
 62
7
  6
CONTINUOUS
 10
120.7984704057
 20
69.0566844084
 11
120.3126757766
 21
69.5424789318
  0
LINE
  5
3F2
100
AcDbEntity
  8
02___PRT_ALL_AXES
100
AcDbLine
 62
7
  6
CONTINUOUS
 10
125.0932961249
 20
62.0357060787
 11
122.0834336943
 21
65.1525104672
  0
LINE
  5
3F3
100
AcDbEntity
  8
02___PRT_ALL_AXES
100
AcDbLine
 62
7
  6
CONTINUOUS
 10
123.0253689222
 20
66.125198292
 11
125.9707886762
 21
62.8539782271
  0
LINE
  5
3F4
100
AcDbEntity
  8
02___PRT_ALL_AXES
100
AcDbLine
 62
7
  6
CONTINUOUS
 10
100.2088088122
 20
92.6136743998
 11
97.2633890581
 21
95.8848944646
  0
LINE
  5
3F5
100
AcDbEntity
  8
02___PRT_ALL_AXES
100
AcDbLine
 62
7
  6
CONTINUOUS
 10
104.4911324857
 20
100.0578340782
 11
105.8513821556
 21
95.871416116
  0
LINE
  5
3F6
100
AcDbEntity
  8
02___PRT_ALL_AXES
100
AcDbLine
 62
7
  6
CONTINUOUS
 10
118.7430452486
 20
58.6810386136
 11
117.3827955787
 21
62.8674565758
  0
LINE
  5
3F7
100
AcDbEntity
  8
02___PRT_ALL_AXES
100
AcDbLine
 62
7
  6
CONTINUOUS
 10
104.5380423061
 20
95.5420197902
 11
103.3437413246
 21
99.7070407681
  0
LINE
  5
3F8
100
AcDbEntity
  8
7_ALL_FEATURES
100
AcDbLine
 62
7
  6
CONTINUOUS
 10
107.4544878123
 20
91.8135132602
 11
107.2766750858
 21
92.4771196915
  0
LINE
  5
3F9
100
AcDbEntity
  8
7_ALL_FEATURES
100
AcDbLine
 62
7
  6
CONTINUOUS
 10
114.4120223305
 20
65.8476405881
 11
114.2342089576
 21
66.5112489951
  0
LINE
  5
3FA
100
AcDbEntity
  8
02___PRT_ALL_AXES
100
AcDbLine
 62
7
  6
CONTINUOUS
 10
114.6209612459
 20
57.6198826446
 11
113.5727464329
 21
61.8240449577
  0
LINE
  5
3FB
100
AcDbEntity
  8
02___PRT_ALL_AXES
100
AcDbLine
 62
7
  6
CONTINUOUS
 10
114.8748300622
 20
62.1954491056
 11
115.7900284807
 21
57.8897801554
  0
LINE
  5
3FC
100
AcDbEntity
  8
02___PRT_ALL_AXES
100
AcDbLine
 62
7
  6
CONTINUOUS
 10
108.3593476721
 20
96.5434235862
 11
107.4441492536
 21
100.8490925364
  0
LINE
  5
3FD
100
AcDbEntity
  8
02___PRT_ALL_AXES
100
AcDbLine
 62
7
  6
CONTINUOUS
 10
109.539403838
 20
61.3346195336
 11
108.6132151315
 21
57.6198792686
  0
LINE
  5
3FE
100
AcDbEntity
  8
7_ALL_FEATURES
100
AcDbLine
 62
7
  6
CONTINUOUS
 10
108.9999692799
 20
66.5112505107
 11
108.8221555905
 21
65.8476407875
  0
LINE
  5
3FF
100
AcDbEntity
  8
7_ALL_FEATURES
100
AcDbLine
 62
7
  6
CONTINUOUS
 10
115.9575034801
 20
92.4771216412
 11
115.7796899722
 21
91.813512577
  0
LINE
  5
400
100
AcDbEntity
  8
02___PRT_ALL_AXES
100
AcDbLine
 62
7
  6
CONTINUOUS
 10
119.8904361483
 20
99.7070411429
 11
118.835169257
 21
96.0268883725
  0
LINE
  5
401
100
AcDbEntity
  8
02___PRT_ALL_AXES
100
AcDbLine
 62
7
  6
CONTINUOUS
 10
101.1507440401
 20
65.1525104672
 11
98.1408798705
 21
62.0357040689
  0
LINE
  5
402
100
AcDbEntity
  8
7_ALL_FEATURES
100
AcDbLine
 62
7
  6
CONTINUOUS
 10
102.9215032043
 20
69.5424800205
 11
102.4357083424
 21
69.0566851817
  0
LINE
  5
403
100
AcDbEntity
  8
7_ALL_FEATURES
100
AcDbLine
 62
7
  6
CONTINUOUS
 10
121.9298408047
 20
88.5508178843
 11
121.6869876268
 21
88.3079646537
  0
LINE
  5
404
100
AcDbEntity
  8
02___PRT_ALL_AXES
100
AcDbLine
 62
7
  6
CONTINUOUS
 10
128.9508191344
 20
92.8456436036
 11
125.8340147458
 21
89.835781173
  0
LINE
  5
405
100
AcDbEntity
  8
02___PRT_ALL_AXES
100
AcDbLine
 62
7
  6
CONTINUOUS
 10
95.4445054228
 20
72.2903897848
 11
91.279484445
 21
71.0960888033
  0
LINE
  5
406
100
AcDbEntity
  8
7_ALL_FEATURES
100
AcDbLine
 62
7
  6
CONTINUOUS
 10
98.0952931094
 20
76.5745028826
 11
98.6879474817
 21
76.7333041753
  0
LINE
  5
407
100
AcDbEntity
  8
7_ALL_FEATURES
100
AcDbLine
 62
7
  6
CONTINUOUS
 10
124.3930308303
 20
83.6209603321
 11
124.7247722128
 21
83.7098501272
  0
LINE
  5
408
100
AcDbEntity
  8
02___PRT_ALL_AXES
100
AcDbLine
 62
7
  6
CONTINUOUS
 10
89.8675351657
 20
76.3655639671
 11
94.0716983714
 21
77.4137785558
  0
LINE
  5
409
100
AcDbEntity
  8
7_ALL_FEATURES
100
AcDbLine
 62
7
  6
CONTINUOUS
 10
137.5733272292
 20
80.8694363459
 11
136.8170888672
 21
80.8694363459
  0
LINE
  5
40A
100
AcDbEntity
  8
02___PRT_ALL_AXES
100
AcDbLine
 62
7
  6
CONTINUOUS
 10
86.4170888672
 20
80.8694363459
 11
85.6608505052
 21
80.8694363459
  0
LINE
  5
40B
100
AcDbEntity
  8
7_ALL_FEATURES
100
AcDbLine
 62
7
  6
CONTINUOUS
 10
85.6608505052
 20
80.8694363459
 11
86.4170888672
 21
80.8694363459
  0
LINE
  5
40C
100
AcDbEntity
  8
02___PRT_ALL_AXES
100
AcDbLine
 62
7
  6
CONTINUOUS
 10
136.8170888672
 20
80.8694363459
 11
137.5733272292
 21
80.8694363459
  0
LINE
  5
40D
100
AcDbEntity
  8
02___PRT_ALL_AXES
100
AcDbLine
 62
7
  6
CONTINUOUS
 10
139.8670888672
 20
82.3694363459
 11
139.6670888672
 21
82.3694363459
  0
LINE
  5
40E
100
AcDbEntity
  8
02___PRT_ALL_AXES
100
AcDbLine
 62
7
  6
CONTINUOUS
 10
83.5670888672
 20
82.3694363459
 11
83.3670888672
 21
82.3694363459
  0
LINE
  5
40F
100
AcDbEntity
  8
7_ALL_FEATURES
100
AcDbLine
 62
9
  6
CONTINUOUS
 10
139.1170888672
 20
83.4699031343
 11
139.3670888672
 21
83.4699031343
  0
LINE
  5
410
100
AcDbEntity
  8
02___PRT_ALL_AXES
100
AcDbLine
 62
7
  6
CONTINUOUS
 10
129.6519056795
 20
77.2917513166
 11
133.3666459445
 21
76.3655626102
  0
LINE
  5
411
100
AcDbEntity
  8
7_ALL_FEATURES
100
AcDbLine
 62
7
  6
CONTINUOUS
 10
124.4752747024
 20
76.7523167586
 11
125.1388844256
 21
76.5745030692
  0
LINE
  5
412
100
AcDbEntity
  8
7_ALL_FEATURES
100
AcDbLine
 62
7
  6
CONTINUOUS
 10
98.5094035719
 20
83.7098509588
 11
99.173012636
 21
83.5320374509
  0
LINE
  5
413
100
AcDbEntity
  8
02___PRT_ALL_AXES
100
AcDbLine
 62
7
  6
CONTINUOUS
 10
91.2794840702
 20
87.6427836269
 11
94.9596368405
 21
86.5875167356
  0
LINE
  5
414
100
AcDbEntity
  8
7_ALL_FEATURES
100
AcDbLine
 62
9
  6
CONTINUOUS
 10
88.683937717
 20
94.5375782759
 11
88.5158897463
 21
94.6159403316
  0
LINE
  5
415
100
AcDbEntity
  8
02___PRT_ALL_AXES
100
AcDbLine
 62
7
  6
CONTINUOUS
 10
125.8340147458
 20
68.9030915188
 11
128.9508211442
 21
65.8932273492
  0
LINE
  5
416
100
AcDbEntity
  8
7_ALL_FEATURES
100
AcDbLine
 62
7
  6
CONTINUOUS
 10
121.4440451926
 20
70.673850683
 11
121.9298400314
 21
70.1880558211
  0
LWPOLYLINE
  5
417
100
AcDbEntity
  8
0
100
AcDbPolyline
 62
2
  6
CONTINUOUS
 90
7
 70
0
 43
0.1500000036
 10
84.357822876
 20
108.1180535889
 10
83.3053106689
 20
109.1867926025
 10
85.8846038818
 20
109.6216351318
 10
86.18996521
 20
109.9223565674
 10
86.1945986938
 20
110.5284265137
 10
85.7435229492
 20
110.9864556885
 10
84.9847723389
 20
110.8407476807
  0
LINE
  5
418
100
AcDbEntity
  8
02___PRT_ALL_AXES
100
AcDbLine
 62
7
  6
CONTINUOUS
 10
98.1408816094
 20
96.7031666131
 11
101.1507440401
 21
93.5863622245
  0
LINE
  5
419
100
AcDbEntity
  8
02___PRT_ALL_AXES
100
AcDbLine
 62
7
  6
CONTINUOUS
 10
118.6961354283
 20
63.1968529015
 11
119.8904364098
 21
59.0318319236
  0
LINE
  5
41A
100
AcDbEntity
  8
7_ALL_FEATURES
100
AcDbLine
 62
7
  6
CONTINUOUS
 10
108.8221554039
 20
92.8912321037
 11
108.9999687768
 21
92.2276236967
  0
LINE
  5
41B
100
AcDbEntity
  8
7_ALL_FEATURES
100
AcDbLine
 62
7
  6
CONTINUOUS
 10
115.7796899221
 20
66.9253594315
 11
115.9575026485
 21
66.2617530002
  0
LINE
  5
41C
100
AcDbEntity
  8
02___PRT_ALL_AXES
100
AcDbLine
 62
7
  6
CONTINUOUS
 10
108.6132164884
 20
101.1189900471
 11
109.6614313015
 21
96.9148277341
  0
LINE
  5
41D
100
AcDbEntity
  8
7_ALL_FEATURES
100
AcDbLine
 62
7
  6
CONTINUOUS
 10
121.8396000803
 20
86.225345148
 11
121.9817103348
 21
86.471487329
  0
LINE
  5
41E
100
AcDbEntity
  8
7_ALL_FEATURES
100
AcDbLine
 62
7
  6
CONTINUOUS
 10
136.8170888672
 20
84.3694363459
 11
134.8170888672
 21
84.3694363459
  0
LINE
  5
41F
100
AcDbEntity
  8
7_ALL_FEATURES
100
AcDbLine
 62
7
  6
CONTINUOUS
 10
84.1170888672
 20
84.3694363459
 11
83.8670888672
 21
84.3694363459
  0
LINE
  5
420
100
AcDbEntity
  8
7_ALL_FEATURES
100
AcDbLine
 62
7
  6
CONTINUOUS
 10
86.4170888672
 20
84.3694363459
 11
88.4170888672
 21
84.3694363459
  0
LINE
  5
421
100
AcDbEntity
  8
7_ALL_FEATURES
100
AcDbLine
 62
7
  6
CONTINUOUS
 10
122.9499561714
 20
84.7944363459
 11
122.6657356624
 21
84.7944363459
  0
LINE
  5
422
100
AcDbEntity
  8
7_ALL_FEATURES
100
AcDbLine
 62
7
  6
CONTINUOUS
 10
89.1650849548
 20
95.4165935532
 11
88.9385080081
 21
95.5222481186
  0
LINE
  5
423
100
AcDbEntity
  8
7_ALL_FEATURES
100
AcDbLine
 62
9
  6
CONTINUOUS
 10
139.249973601
 20
73.8411635187
 11
139.0233966542
 21
73.9468180841
  0
LINE
  5
424
100
AcDbEntity
  8
7_ALL_FEATURES
100
AcDbLine
 62
7
  6
CONTINUOUS
 10
122.8394610593
 20
79.717089018
 11
122.5688693602
 21
78.7072270489
  0
LINE
  5
425
100
AcDbEntity
  8
7_ALL_FEATURES
100
AcDbLine
 62
7
  6
CONTINUOUS
 10
117.0763480061
 20
69.2478510128
 11
115.7101914882
 21
67.4086820791
  0
LINE
  5
426
100
AcDbEntity
  8
7_ALL_FEATURES
100
AcDbLine
 62
7
  6
CONTINUOUS
 10
114.4296240671
 20
65.6847362593
 11
114.0461929611
 21
65.1685475436
  0
LINE
  5
427
100
AcDbEntity
  8
02___PRT_ALL_AXES
100
AcDbLine
 62
7
  6
CONTINUOUS
 10
105.8650536669
 20
61.2430324832
 11
105.2327194259
 21
60.6106982338
  0
LINE
  5
428
100
AcDbEntity
  8
02___PRT_ALL_AXES
100
AcDbLine
 62
7
  6
CONTINUOUS
 10
92.179359851
 20
83.2197794786
 11
93.0431450149
 21
83.451229669
  0
LINE
  5
429
100
AcDbEntity
  8
7_ALL_FEATURES
100
AcDbLine
 62
7
  6
CONTINUOUS
 10
109.2001661417
 20
88.8872351847
 11
101.3471486993
 21
90.4137072769
  0
LINE
  5
42A
100
AcDbEntity
  8
02___PRT_ALL_AXES
100
AcDbLine
 62
7
  6
CONTINUOUS
 10
109.3241919992
 20
89.5252928519
 11
101.4711745567
 21
91.0517649441
  0
LINE
  5
42B
100
AcDbEntity
  8
7_ALL_FEATURES
100
AcDbLine
 62
7
  6
CONTINUOUS
 10
111.6948012884
 20
90.4778323048
 11
112.2792981642
 21
90.3212168389
  0
LINE
  5
42C
100
AcDbEntity
  8
7_ALL_FEATURES
100
AcDbLine
 62
7
  6
CONTINUOUS
 10
116.5194890972
 20
89.1850611027
 11
117.1039859157
 21
89.0284456522
  0
LINE
  5
42D
100
AcDbEntity
  8
02___PRT_ALL_AXES
100
AcDbLine
 62
7
  6
CONTINUOUS
 10
129.7434927298
 20
73.6174011456
 11
130.3758269793
 21
72.9850669046
  0
LINE
  5
42E
100
AcDbEntity
  8
7_ALL_FEATURES
100
AcDbLine
 62
7
  6
CONTINUOUS
 10
114.0461929611
 20
93.5703251482
 11
114.4334796866
 21
93.0489458592
  0
LINE
  5
42F
100
AcDbEntity
  8
7_ALL_FEATURES
100
AcDbLine
 62
7
  6
CONTINUOUS
 10
115.7101915719
 20
91.3301904999
 11
117.0763480061
 21
89.4910216789
  0
LINE
  5
430
100
AcDbEntity
  8
02___PRT_ALL_AXES
100
AcDbLine
 62
7
  6
CONTINUOUS
 10
115.4674319999
 20
98.8071653621
 11
115.6988821903
 21
97.9433801982
  0
LINE
  5
431
100
AcDbEntity
  8
02___PRT_ALL_AXES
100
AcDbLine
 62
7
  6
CONTINUOUS
 10
139.6670888672
 20
82.3694363459
 11
139.0129276774
 21
81.7152751561
  0
LINE
  5
432
100
AcDbEntity
  8
02___PRT_ALL_AXES
100
AcDbLine
 62
7
  6
CONTINUOUS
 10
139.6670888672
 20
76.3694363459
 11
139.0129276774
 21
77.0235975357
  0
LINE
  5
433
100
AcDbEntity
  8
7_ALL_FEATURES
100
AcDbLine
 62
7
  6
CONTINUOUS
 10
134.8170888672
 20
88.6839411636
 11
134.8170888672
 21
84.3694363459
  0
LINE
  5
434
100
AcDbEntity
  8
7_ALL_FEATURES
100
AcDbLine
 62
9
  6
CONTINUOUS
 10
134.8170888672
 20
84.3694363459
 11
134.8170888672
 21
74.3694363459
  0
LINE
  5
435
100
AcDbEntity
  8
7_ALL_FEATURES
100
AcDbLine
 62
7
  6
CONTINUOUS
 10
134.8170888672
 20
74.3694363459
 11
134.8170888672
 21
70.0549315281
  0
LINE
  5
436
100
AcDbEntity
  8
7_ALL_FEATURES
100
AcDbLine
 62
7
  6
CONTINUOUS
 10
136.8170888672
 20
84.3694363459
 11
136.8170888672
 21
74.3694363459
  0
LINE
  5
437
100
AcDbEntity
  8
7_ALL_FEATURES
100
AcDbLine
 62
7
  6
CONTINUOUS
 10
139.1170888672
 20
74.3694363459
 11
139.1170888672
 21
76.9194363459
  0
LINE
  5
438
100
AcDbEntity
  8
7_ALL_FEATURES
100
AcDbLine
 62
7
  6
CONTINUOUS
 10
139.1170888672
 20
81.8194363459
 11
139.1170888672
 21
124.3692776716
  0
LINE
  5
439
100
AcDbEntity
  8
7_ALL_FEATURES
100
AcDbLine
 62
3
  6
CONTINUOUS
 10
139.3670888672
 20
124.3692776716
 11
139.3670888672
 21
82.0694363459
  0
LINE
  5
43A
100
AcDbEntity
  8
7_ALL_FEATURES
100
AcDbLine
 62
3
  6
CONTINUOUS
 10
139.3670888672
 20
76.6694363459
 11
139.3670888672
 21
74.3694363459
  0
LINE
  5
43B
100
AcDbEntity
  8
02___PRT_ALL_AXES
100
AcDbLine
 62
7
  6
CONTINUOUS
 10
139.6670888672
 20
82.3694363459
 11
139.6670888672
 21
76.3694363459
  0
LINE
  5
43C
100
AcDbEntity
  8
02___PRT_ALL_AXES
100
AcDbLine
 62
7
  6
CONTINUOUS
 10
139.8670888672
 20
82.3694363459
 11
139.8670888672
 21
76.3694363459
  0
LINE
  5
43D
100
AcDbEntity
  8
7_ALL_FEATURES
100
AcDbLine
 62
7
  6
CONTINUOUS
 10
139.0233966542
 20
73.9468180841
 11
138.094370069
 21
71.9545141428
  0
LINE
  5
43E
100
AcDbEntity
  8
7_ALL_FEATURES
100
AcDbLine
 62
7
  6
CONTINUOUS
 10
134.0690927795
 20
63.3222791386
 11
134.3084257929
 21
63.835530442
  0
LINE
  5
43F
100
AcDbEntity
  8
7_ALL_FEATURES
100
AcDbLine
 62
3
  6
CONTINUOUS
 10
139.249973601
 20
73.8411635187
 11
137.5012444427
 21
70.0910017366
  0
LINE
  5
440
100
AcDbEntity
  8
7_ALL_FEATURES
100
AcDbLine
 62
3
  6
CONTINUOUS
 10
135.3590736808
 20
65.4971017129
 11
134.2956697263
 21
63.2166245731
  0
LWPOLYLINE
  5
441
100
AcDbEntity
  8
0
100
AcDbPolyline
 62
2
  6
CONTINUOUS
 90
10
 70
0
 43
0.1500000036
 10
84.5406564331
 20
112.2078881836
 10
83.631545105
 20
112.2148480225
 10
82.7201138306
 20
111.9187664795
 10
81.9567233276
 20
111.166975708
 10
81.9520834351
 20
110.5608929443
 10
82.4031591797
 20
110.1028637695
 10
83.0092355347
 20
110.098223877
 10
83.6199453735
 20
110.6996539307
 10
83.6245852661
 20
111.3057366943
 10
82.9730328369
 20
111.9673443604
  0
LWPOLYLINE
  5
442
100
AcDbEntity
  8
0
100
AcDbPolyline
 62
2
  6
CONTINUOUS
 90
2
 70
0
 43
0.1500000036
 10
78.4857119751
 20
113.0118585205
 10
83.4461416626
 20
114.3881506348
  0
LINE
  5
443
100
AcDbEntity
  8
7_ALL_FEATURES
100
AcDbLine
 62
9
  6
CONTINUOUS
 10
139.3670888672
 20
122.5017847565
 11
139.1170888672
 21
122.5017847565
  0
LINE
  5
444
100
AcDbEntity
  8
7_ALL_FEATURES
100
AcDbLine
 62
7
  6
CONTINUOUS
 10
139.1170888672
 20
124.3694363459
 11
139.3670888672
 21
124.3694363459
  0
LINE
  5
445
100
AcDbEntity
  8
02___PRT_ALL_AXES
100
AcDbLine
 62
7
  6
CONTINUOUS
 10
80.6170888672
 20
176.5378045987
 11
142.6170888672
 21
176.5378045987
  0
LINE
  5
446
100
AcDbEntity
  8
02___PRT_ALL_AXES
100
AcDbLine
 62
7
  6
CONTINUOUS
 10
80.6170888672
 20
178.0378045987
 11
142.6170888672
 21
178.0378045987
  0
LINE
  5
447
100
AcDbEntity
  8
7_ALL_FEATURES
100
AcDbLine
 62
7
  6
CONTINUOUS
 10
84.1170888672
 20
178.1378045987
 11
83.8670888672
 21
178.1378045987
  0
LINE
  5
448
100
AcDbEntity
  8
7_ALL_FEATURES
100
AcDbLine
 62
7
  6
CONTINUOUS
 10
134.4917110413
 20
178.1378045987
 11
134.718287988
 21
178.1378045987
  0
LINE
  5
449
100
AcDbEntity
  8
7_ALL_FEATURES
100
AcDbLine
 62
3
  6
CONTINUOUS
 10
134.718287988
 20
178.1378045987
 11
139.3670888672
 21
178.1378045987
  0
LINE
  5
44A
100
AcDbEntity
  8
7_ALL_FEATURES
100
AcDbLine
 62
9
  6
CONTINUOUS
 10
84.1170888672
 20
178.6062656635
 11
83.8670888672
 21
178.6062656635
  0
LINE
  5
44B
100
AcDbEntity
  8
7_ALL_FEATURES
100
AcDbLine
 62
9
  6
CONTINUOUS
 10
134.0690927795
 20
179.1378045987
 11
134.2956697263
 21
179.1378045987
  0
LINE
  5
44C
100
AcDbEntity
  8
02___PRT_ALL_AXES
100
AcDbLine
 62
7
  6
CONTINUOUS
 10
84.157277762
 20
191.5476157039
 11
84.1170888672
 21
191.5878045987
  0
LINE
  5
44D
100
AcDbEntity
  8
02___PRT_ALL_AXES
100
AcDbLine
 62
7
  6
CONTINUOUS
 10
83.8670888672
 20
191.8378045987
 11
83.5670888672
 21
192.1378045987
  0
LINE
  5
44E
100
AcDbEntity
  8
02___PRT_ALL_AXES
100
AcDbLine
 62
7
  6
CONTINUOUS
 10
80.6170888672
 20
178.0378045987
 11
80.6170888672
 21
176.5378045987
  0
LINE
  5
44F
100
AcDbEntity
  8
02___PRT_ALL_AXES
100
AcDbLine
 62
7
  6
CONTINUOUS
 10
83.3670888672
 20
186.1378290356
 11
83.3670888672
 21
192.1377801619
  0
LINE
  5
450
100
AcDbEntity
  8
02___PRT_ALL_AXES
100
AcDbLine
 62
7
  6
CONTINUOUS
 10
83.3670888672
 20
201.1378290356
 11
83.3670888672
 21
207.1377801619
  0
LINE
  5
451
100
AcDbEntity
  8
02___PRT_ALL_AXES
100
AcDbLine
 62
7
  6
CONTINUOUS
 10
83.5670888672
 20
186.1378045987
 11
83.5670888672
 21
192.1378045987
  0
LINE
  5
452
100
AcDbEntity
  8
02___PRT_ALL_AXES
100
AcDbLine
 62
7
  6
CONTINUOUS
 10
83.5670888672
 20
201.1378045987
 11
83.5670888672
 21
207.1378045987
  0
LINE
  5
453
100
AcDbEntity
  8
7_ALL_FEATURES
100
AcDbLine
 62
3
  6
CONTINUOUS
 10
83.8670888672
 20
178.1378045987
 11
83.8670888672
 21
200.1415376147
  0
LWPOLYLINE
  5
454
100
AcDbEntity
  8
0
100
AcDbPolyline
 62
2
  6
CONTINUOUS
 90
2
 70
0
 43
0.1500000036
 10
107.6170916748
 20
270.7332531738
 10
110.1170837402
 20
275.2332312012
  0
LINE
  5
455
100
AcDbEntity
  8
02___PRT_ALL_AXES
100
AcDbLine
 62
7
  6
CONTINUOUS
 10
83.5670888672
 20
186.1378045987
 11
83.3670888672
 21
186.1378045987
  0
LINE
  5
456
100
AcDbEntity
  8
02___PRT_ALL_AXES
100
AcDbLine
 62
7
  6
CONTINUOUS
 10
139.6670888672
 20
186.1378045987
 11
139.8670888672
 21
186.1378045987
  0
LINE
  5
457
100
AcDbEntity
  8
7_ALL_FEATURES
100
AcDbLine
 62
9
  6
CONTINUOUS
 10
134.0690927795
 20
188.1685744957
 11
134.2956697263
 21
188.1685744957
  0
LINE
  5
458
100
AcDbEntity
  8
7_ALL_FEATURES
100
AcDbLine
 62
7
  6
CONTINUOUS
 10
134.4917110413
 20
189.1685744957
 11
134.718287988
 21
189.1685744957
  0
LINE
  5
459
100
AcDbEntity
  8
7_ALL_FEATURES
100
AcDbLine
 62
3
  6
CONTINUOUS
 10
139.249973601
 20
189.1685744957
 11
139.3670888672
 21
189.1685744957
  0
LINE
  5
45A
100
AcDbEntity
  8
02___PRT_ALL_AXES
100
AcDbLine
 62
7
  6
CONTINUOUS
 10
84.1170888672
 20
223.0378045987
 11
84.1170888672
 21
207.0378057069
  0
LINE
  5
45B
100
AcDbEntity
  8
02___PRT_ALL_AXES
100
AcDbLine
 62
7
  6
CONTINUOUS
 10
84.1170888672
 20
178.1378045987
 11
84.1170888672
 21
178.0378045987
  0
LINE
  5
45C
100
AcDbEntity
  8
7_ALL_FEATURES
100
AcDbLine
 62
7
  6
CONTINUOUS
 10
84.1170888672
 20
178.1378045987
 11
84.1170888672
 21
200.1415376147
  0
LINE
  5
45D
100
AcDbEntity
  8
7_ALL_FEATURES
100
AcDbLine
 62
9
  6
CONTINUOUS
 10
84.2107810802
 20
186.4895613925
 11
84.2107810802
 21
186.7814968117
  0
LINE
  5
45E
100
AcDbEntity
  8
02___PRT_ALL_AXES
100
AcDbLine
 62
7
  6
CONTINUOUS
 10
84.2309609919
 20
204.5378045987
 11
84.2309609919
 21
202.5378045987
  0
LINE
  5
45F
100
AcDbEntity
  8
02___PRT_ALL_AXES
100
AcDbLine
 62
7
  6
CONTINUOUS
 10
84.2309609919
 20
189.5378045987
 11
84.2309609919
 21
187.5378045987
  0
LINE
  5
460
100
AcDbEntity
  8
02___PRT_ALL_AXES
100
AcDbLine
 62
7
  6
CONTINUOUS
 10
83.5670888672
 20
192.1378045987
 11
83.3670888672
 21
192.1378045987
  0
LINE
  5
461
100
AcDbEntity
  8
02___PRT_ALL_AXES
100
AcDbLine
 62
7
  6
CONTINUOUS
 10
139.6670888672
 20
192.1378045987
 11
139.8670888672
 21
192.1378045987
  0
LINE
  5
462
100
AcDbEntity
  8
02___PRT_ALL_AXES
100
AcDbLine
 62
7
  6
CONTINUOUS
 10
84.157277762
 20
206.5476157039
 11
83.5670888672
 21
207.1378045987
  0
LINE
  5
463
100
AcDbEntity
  8
02___PRT_ALL_AXES
100
AcDbLine
 62
7
  6
CONTINUOUS
 10
89.4126942791
 20
252.5378045987
 11
89.4126942791
 21
223.0378045987
  0
LINE
  5
464
100
AcDbEntity
  8
02___PRT_ALL_AXES
100
AcDbLine
 62
9
  6
CONTINUOUS
 10
90.1374326006
 20
223.0378045987
 11
90.1374326006
 21
252.5378045987
  0
LINE
  5
465
100
AcDbEntity
  8
02___PRT_ALL_AXES
100
AcDbLine
 62
7
  6
CONTINUOUS
 10
90.514089943
 20
252.5378045987
 11
90.514089943
 21
223.0378045987
  0
LWPOLYLINE
  5
466
100
AcDbEntity
  8
0
100
AcDbPolyline
 62
2
  6
CONTINUOUS
 90
13
 70
0
 43
0.1500000036
 10
107.367088623
 20
272.9832421875
 10
107.6170916748
 20
273.7332385254
 10
108.1170849609
 20
274.2332446289
 10
108.8670941162
 20
274.4832348633
 10
109.6170904541
 20
274.2332446289
 10
110.1170837402
 20
273.7332385254
 10
110.367086792
 20
272.9832421875
 10
110.1170837402
 20
272.2332458496
 10
109.6170904541
 20
271.7332397461
 10
108.8670941162
 20
271.4832495117
 10
108.1170849609
 20
271.7332397461
 10
107.6170916748
 20
272.2332458496
 10
107.367088623
 20
272.9832421875
  0
LINE
  5
467
100
AcDbEntity
  8
7_ALL_FEATURES
100
AcDbLine
 62
9
  6
CONTINUOUS
 10
83.8670888672
 20
195.7853282143
 11
84.1170888672
 21
195.7853282143
  0
LINE
  5
468
100
AcDbEntity
  8
02___PRT_ALL_AXES
100
AcDbLine
 62
9
  6
CONTINUOUS
 10
91.279484445
 20
223.0378045987
 11
91.279484445
 21
252.5378045987
  0
LINE
  5
469
100
AcDbEntity
  8
02___PRT_ALL_AXES
100
AcDbLine
 62
7
  6
CONTINUOUS
 10
94.1001523846
 20
252.5378045987
 11
94.1001523846
 21
223.0378045987
  0
LINE
  5
46A
100
AcDbEntity
  8
7_ALL_FEATURES
100
AcDbLine
 62
9
  6
CONTINUOUS
 10
139.1170888672
 20
199.1280343204
 11
139.3670888672
 21
199.1280343204
  0
LINE
  5
46B
100
AcDbEntity
  8
7_ALL_FEATURES
100
AcDbLine
 62
9
  6
CONTINUOUS
 10
83.8670888672
 20
199.5935599584
 11
84.1170888672
 21
199.5935599584
  0
LINE
  5
46C
100
AcDbEntity
  8
7_ALL_FEATURES
100
AcDbLine
 62
7
  6
CONTINUOUS
 10
84.1170888672
 20
200.1415387012
 11
83.8670888672
 21
200.1415387012
  0
LINE
  5
46D
100
AcDbEntity
  8
7_ALL_FEATURES
100
AcDbLine
 62
7
  6
CONTINUOUS
 10
139.1170888672
 20
200.1415387012
 11
139.3670888672
 21
200.1415387012
  0
LINE
  5
46E
100
AcDbEntity
  8
02___PRT_ALL_AXES
100
AcDbLine
 62
9
  6
CONTINUOUS
 10
95.1016307484
 20
223.0378045987
 11
95.1016307484
 21
252.5378045987
  0
LINE
  5
46F
100
AcDbEntity
  8
02___PRT_ALL_AXES
100
AcDbLine
 62
7
  6
CONTINUOUS
 10
97.1092651535
 20
252.5378045987
 11
97.1092651535
 21
223.0378045987
  0
LINE
  5
470
100
AcDbEntity
  8
02___PRT_ALL_AXES
100
AcDbLine
 62
7
  6
CONTINUOUS
 10
83.5670888672
 20
201.1378045987
 11
83.3670888672
 21
201.1378045987
  0
LINE
  5
471
100
AcDbEntity
  8
02___PRT_ALL_AXES
100
AcDbLine
 62
7
  6
CONTINUOUS
 10
139.6670888672
 20
201.1378045987
 11
139.8670888672
 21
201.1378045987
  0
LINE
  5
472
100
AcDbEntity
  8
02___PRT_ALL_AXES
100
AcDbLine
 62
9
  6
CONTINUOUS
 10
98.1408798705
 20
223.0378045987
 11
98.1408798705
 21
252.5378045987
  0
LINE
  5
473
100
AcDbEntity
  8
7_ALL_FEATURES
100
AcDbLine
 62
7
  6
CONTINUOUS
 10
98.2207132361
 20
260.0378045987
 11
98.2207132361
 21
256.3878045987
  0
LINE
  5
474
100
AcDbEntity
  8
7_ALL_FEATURES
100
AcDbLine
 62
7
  6
CONTINUOUS
 10
98.2207132361
 20
256.1878045987
 11
98.2207132361
 21
252.5378045987
  0
LINE
  5
475
100
AcDbEntity
  8
7_ALL_FEATURES
100
AcDbLine
 62
7
  6
CONTINUOUS
 10
100.7707132361
 20
256.1878045987
 11
100.7707132361
 21
256.3878045987
  0
LINE
  5
476
100
AcDbEntity
  8
02___PRT_ALL_AXES
100
AcDbLine
 62
9
  6
CONTINUOUS
 10
101.1507440401
 20
223.0378045987
 11
101.1507440401
 21
252.5378045987
  0
LINE
  5
477
100
AcDbEntity
  8
02___PRT_ALL_AXES
100
AcDbLine
 62
7
  6
CONTINUOUS
 10
83.5670888672
 20
207.1378045987
 11
83.3670888672
 21
207.1378045987
  0
LINE
  5
478
100
AcDbEntity
  8
02___PRT_ALL_AXES
100
AcDbLine
 62
7
  6
CONTINUOUS
 10
139.6670888672
 20
207.1378045987
 11
139.8670888672
 21
207.1378045987
  0
LINE
  5
479
100
AcDbEntity
  8
02___PRT_ALL_AXES
100
AcDbLine
 62
7
  6
CONTINUOUS
 10
101.8951854747
 20
252.5378045987
 11
101.8951854747
 21
223.0378045987
  0
LINE
  5
47A
100
AcDbEntity
  8
02___PRT_ALL_AXES
100
AcDbLine
 62
9
  6
CONTINUOUS
 10
102.4357076072
 20
223.0378045987
 11
102.4357076072
 21
252.5378045987
  0
LINE
  5
47B
100
AcDbEntity
  8
7_ALL_FEATURES
100
AcDbLine
 62
9
  6
CONTINUOUS
 10
102.9215032043
 20
252.5378045987
 11
102.9215032043
 21
223.0378045987
  0
LINE
  5
47C
100
AcDbEntity
  8
02___PRT_ALL_AXES
100
AcDbLine
 62
7
  6
CONTINUOUS
 10
103.3204985759
 20
252.5378045987
 11
103.3204985759
 21
223.0378045987
  0
LINE
  5
47D
100
AcDbEntity
  8
7_ALL_FEATURES
100
AcDbLine
 62
7
  6
CONTINUOUS
 10
103.6707132361
 20
256.1878045987
 11
103.6707132361
 21
256.3878045987
  0
LINE
  5
47E
100
AcDbEntity
  8
02___PRT_ALL_AXES
100
AcDbLine
 62
9
  6
CONTINUOUS
 10
104.4911324857
 20
223.0378045987
 11
104.4911324857
 21
252.5378045987
  0
LINE
  5
47F
100
AcDbEntity
  8
02___PRT_ALL_AXES
100
AcDbLine
 62
9
  6
CONTINUOUS
 10
104.9887699564
 20
223.0378045987
 11
104.9887699564
 21
252.5378045987
  0
LINE
  5
480
100
AcDbEntity
  8
02___PRT_ALL_AXES
100
AcDbLine
 62
7
  6
CONTINUOUS
 10
84.2207708632
 20
201.7914865947
 11
83.5670888672
 21
201.1378045987
  0
LINE
  5
481
100
AcDbEntity
  8
02___PRT_ALL_AXES
100
AcDbLine
 62
9
  6
CONTINUOUS
 10
105.2327194259
 20
223.0378045987
 11
105.2327194259
 21
252.5378045987
  0
LINE
  5
482
100
AcDbEntity
  8
02___PRT_ALL_AXES
100
AcDbLine
 62
9
  6
CONTINUOUS
 10
105.8650536914
 20
223.0378045987
 11
105.8650536914
 21
252.5378045987
  0
LINE
  5
483
100
AcDbEntity
  8
02___PRT_ALL_AXES
100
AcDbLine
 62
7
  6
CONTINUOUS
 10
106.0115002612
 20
252.5378045987
 11
106.0115002612
 21
223.0378045987
  0
LINE
  5
484
100
AcDbEntity
  8
02___PRT_ALL_AXES
100
AcDbLine
 62
9
  6
CONTINUOUS
 10
106.1472219574
 20
260.0378045987
 11
106.1472219574
 21
256.3878045987
  0
LINE
  5
485
100
AcDbEntity
  8
02___PRT_ALL_AXES
100
AcDbLine
 62
9
  6
CONTINUOUS
 10
106.1472219574
 20
256.1878045987
 11
106.1472219574
 21
252.5378045987
  0
LINE
  5
486
100
AcDbEntity
  8
02___PRT_ALL_AXES
100
AcDbLine
 62
7
  6
CONTINUOUS
 10
106.9104580035
 20
255.7878045987
 11
106.9104580035
 21
256.1878045987
  0
LINE
  5
487
100
AcDbEntity
  8
02___PRT_ALL_AXES
100
AcDbLine
 62
7
  6
CONTINUOUS
 10
106.9104580035
 20
256.3878045987
 11
106.9104580035
 21
256.7878045987
  0
LINE
  5
488
100
AcDbEntity
  8
02___PRT_ALL_AXES
100
AcDbLine
 62
7
  6
CONTINUOUS
 10
107.4310374389
 20
252.5378045987
 11
107.4310374389
 21
223.0378045987
  0
LINE
  5
489
100
AcDbEntity
  8
02___PRT_ALL_AXES
100
AcDbLine
 62
9
  6
CONTINUOUS
 10
108.6132151315
 20
223.0378045987
 11
108.6132151315
 21
252.5378045987
  0
LINE
  5
48A
100
AcDbEntity
  8
02___PRT_ALL_AXES
100
AcDbLine
 62
7
  6
CONTINUOUS
 10
109.2001661417
 20
260.0378045987
 11
109.2001661417
 21
257.1878045987
  0
LINE
  5
48B
100
AcDbEntity
  8
02___PRT_ALL_AXES
100
AcDbLine
 62
7
  6
CONTINUOUS
 10
109.2001661417
 20
256.8632642812
 11
109.2001661417
 21
256.7878045987
  0
LINE
  5
48C
100
AcDbEntity
  8
02___PRT_ALL_AXES
100
AcDbLine
 62
7
  6
CONTINUOUS
 10
109.2001661417
 20
255.7878045987
 11
109.2001661417
 21
255.7123449162
  0
LINE
  5
48D
100
AcDbEntity
  8
02___PRT_ALL_AXES
100
AcDbLine
 62
7
  6
CONTINUOUS
 10
109.2001661417
 20
255.3878045987
 11
109.2001661417
 21
252.5378045987
  0
LINE
  5
48E
100
AcDbEntity
  8
02___PRT_ALL_AXES
100
AcDbLine
 62
7
  6
CONTINUOUS
 10
109.539403838
 20
223.0378045987
 11
109.539403838
 21
252.5378045987
  0
LINE
  5
48F
100
AcDbEntity
  8
02___PRT_ALL_AXES
100
AcDbLine
 62
7
  6
CONTINUOUS
 10
109.7877555779
 20
252.5378045987
 11
109.7877555779
 21
223.0378045987
  0
LINE
  5
490
100
AcDbEntity
  8
02___PRT_ALL_AXES
100
AcDbLine
 62
7
  6
CONTINUOUS
 10
139.3670888672
 20
186.4378045987
 11
139.6670888672
 21
186.1378045987
  0
LINE
  5
491
100
AcDbEntity
  8
02___PRT_ALL_AXES
100
AcDbLine
 62
7
  6
CONTINUOUS
 10
113.4939568782
 20
252.5378045987
 11
113.4939568782
 21
223.0378045987
  0
LWPOLYLINE
  5
492
100
AcDbEntity
  8
0
100
AcDbPolyline
 62
2
  6
CONTINUOUS
 90
4
 70
0
 43
0.1500000036
 10
113.5099475098
 20
273.8403918457
 10
113.5099475098
 20
274.4832348633
 10
115.0099401855
 20
274.4832348633
 10
114.1528033447
 20
271.4832495117
  0
LINE
  5
493
100
AcDbEntity
  8
02___PRT_ALL_AXES
100
AcDbLine
 62
9
  6
CONTINUOUS
 10
113.5727464329
 20
223.0378045987
 11
113.5727464329
 21
252.5378045987
  0
LINE
  5
494
100
AcDbEntity
  8
02___PRT_ALL_AXES
100
AcDbLine
 62
9
  6
CONTINUOUS
 10
114.6209620666
 20
223.0378045987
 11
114.6209620666
 21
252.5378045987
  0
LINE
  5
495
100
AcDbEntity
  8
02___PRT_ALL_AXES
100
AcDbLine
 62
7
  6
CONTINUOUS
 10
84.2207708632
 20
186.7914865947
 11
84.1170888672
 21
186.6878045987
  0
LINE
  5
496
100
AcDbEntity
  8
02___PRT_ALL_AXES
100
AcDbLine
 62
7
  6
CONTINUOUS
 10
83.8670888672
 20
186.4378045987
 11
83.5670888672
 21
186.1378045987
  0
LINE
  5
497
100
AcDbEntity
  8
02___PRT_ALL_AXES
100
AcDbLine
 62
7
  6
CONTINUOUS
 10
115.8031399203
 20
252.5378045987
 11
115.8031399203
 21
223.0378045987
  0
LINE
  5
498
100
AcDbEntity
  8
02___PRT_ALL_AXES
100
AcDbLine
 62
9
  6
CONTINUOUS
 10
117.3827954481
 20
223.0378045987
 11
117.3827954481
 21
252.5378045987
  0
LINE
  5
499
100
AcDbEntity
  8
02___PRT_ALL_AXES
100
AcDbLine
 62
9
  6
CONTINUOUS
 10
118.7430452486
 20
223.0378045987
 11
118.7430452486
 21
252.5378045987
  0
LINE
  5
49A
100
AcDbEntity
  8
02___PRT_ALL_AXES
100
AcDbLine
 62
7
  6
CONTINUOUS
 10
84.1170888672
 20
223.0378045987
 11
139.1170888672
 21
223.0378045987
  0
LINE
  5
49B
100
AcDbEntity
  8
02___PRT_ALL_AXES
100
AcDbLine
 62
7
  6
CONTINUOUS
 10
119.9136828586
 20
252.5378045987
 11
119.9136828586
 21
223.0378045987
  0
LINE
  5
49C
100
AcDbEntity
  8
7_ALL_FEATURES
100
AcDbLine
 62
9
  6
CONTINUOUS
 10
120.3126744241
 20
252.5378045987
 11
120.3126744241
 21
223.0378045987
  0
LINE
  5
49D
100
AcDbEntity
  8
02___PRT_ALL_AXES
100
AcDbLine
 62
9
  6
CONTINUOUS
 10
120.7984704057
 20
223.0378045987
 11
120.7984704057
 21
252.5378045987
  0
LINE
  5
49E
100
AcDbEntity
  8
02___PRT_ALL_AXES
100
AcDbLine
 62
7
  6
CONTINUOUS
 10
121.3389922597
 20
252.5378045987
 11
121.3389922597
 21
223.0378045987
  0
LINE
  5
49F
100
AcDbEntity
  8
02___PRT_ALL_AXES
100
AcDbLine
 62
9
  6
CONTINUOUS
 10
122.0834336943
 20
223.0378045987
 11
122.0834336943
 21
252.5378045987
  0
LINE
  5
4A0
100
AcDbEntity
  8
02___PRT_ALL_AXES
100
AcDbLine
 62
7
  6
CONTINUOUS
 10
139.0134068711
 20
201.7914865948
 11
139.6670888672
 21
201.1378045987
  0
LINE
  5
4A1
100
AcDbEntity
  8
02___PRT_ALL_AXES
100
AcDbLine
 62
9
  6
CONTINUOUS
 10
125.0932971777
 20
223.0378045987
 11
125.0932971777
 21
252.5378045987
  0
LINE
  5
4A2
100
AcDbEntity
  8
02___PRT_ALL_AXES
100
AcDbLine
 62
7
  6
CONTINUOUS
 10
126.124901781
 20
252.5378045987
 11
126.124901781
 21
223.0378045987
  0
LINE
  5
4A3
100
AcDbEntity
  8
02___PRT_ALL_AXES
100
AcDbLine
 62
9
  6
CONTINUOUS
 10
128.132546986
 20
223.0378045987
 11
128.132546986
 21
252.5378045987
  0
LINE
  5
4A4
100
AcDbEntity
  8
02___PRT_ALL_AXES
100
AcDbLine
 62
7
  6
CONTINUOUS
 10
129.134037344
 20
252.5378045987
 11
129.134037344
 21
223.0378045987
  0
LINE
  5
4A5
100
AcDbEntity
  8
02___PRT_ALL_AXES
100
AcDbLine
 62
9
  6
CONTINUOUS
 10
131.954694685
 20
223.0378045987
 11
131.954694685
 21
252.5378045987
  0
LINE
  5
4A6
100
AcDbEntity
  8
02___PRT_ALL_AXES
100
AcDbLine
 62
7
  6
CONTINUOUS
 10
132.7200764029
 20
252.5378045987
 11
132.7200764029
 21
223.0378045987
  0
LINE
  5
4A7
100
AcDbEntity
  8
02___PRT_ALL_AXES
100
AcDbLine
 62
9
  6
CONTINUOUS
 10
133.0967450577
 20
223.0378045987
 11
133.0967450577
 21
252.5378045987
  0
LINE
  5
4A8
100
AcDbEntity
  8
02___PRT_ALL_AXES
100
AcDbLine
 62
7
  6
CONTINUOUS
 10
133.8214938373
 20
252.5378045987
 11
133.8214938373
 21
223.0378045987
  0
LINE
  5
4A9
100
AcDbEntity
  8
7_ALL_FEATURES
100
AcDbLine
 62
7
  6
CONTINUOUS
 10
134.0690927795
 20
188.1685744957
 11
134.0690927795
 21
179.1378045987
  0
LINE
  5
4AA
100
AcDbEntity
  8
7_ALL_FEATURES
100
AcDbLine
 62
3
  6
CONTINUOUS
 10
134.2956697263
 20
188.1685744957
 11
134.2956697263
 21
179.1378045987
  0
LINE
  5
4AB
100
AcDbEntity
  8
02___PRT_ALL_AXES
100
AcDbLine
 62
7
  6
CONTINUOUS
 10
139.0032167424
 20
204.5378045987
 11
139.0032167424
 21
202.5378045987
  0
LINE
  5
4AC
100
AcDbEntity
  8
02___PRT_ALL_AXES
100
AcDbLine
 62
7
  6
CONTINUOUS
 10
139.1170888672
 20
223.0378045987
 11
139.1170888672
 21
207.0378057081
  0
LINE
  5
4AD
100
AcDbEntity
  8
7_ALL_FEATURES
100
AcDbLine
 62
7
  6
CONTINUOUS
 10
139.1170888672
 20
200.1415376147
 11
139.1170888672
 21
200.0466282546
  0
LINE
  5
4AE
100
AcDbEntity
  8
02___PRT_ALL_AXES
100
AcDbLine
 62
7
  6
CONTINUOUS
 10
139.1170888672
 20
200.0378034906
 11
139.1170888672
 21
197.820637173
  0
LINE
  5
4AF
100
AcDbEntity
  8
02___PRT_ALL_AXES
100
AcDbLine
 62
7
  6
CONTINUOUS
 10
139.1170888672
 20
178.1378045987
 11
139.1170888672
 21
178.0378045987
  0
LINE
  5
4B0
100
AcDbEntity
  8
7_ALL_FEATURES
100
AcDbLine
 62
7
  6
CONTINUOUS
 10
139.1170888672
 20
189.1685744957
 11
139.1170888672
 21
197.820637173
  0
LINE
  5
4B1
100
AcDbEntity
  8
7_ALL_FEATURES
100
AcDbLine
 62
9
  6
CONTINUOUS
 10
139.249973601
 20
178.1378045987
 11
139.249973601
 21
189.1685744957
  0
LINE
  5
4B2
100
AcDbEntity
  8
7_ALL_FEATURES
100
AcDbLine
 62
3
  6
CONTINUOUS
 10
139.3670888672
 20
178.1378045987
 11
139.3670888672
 21
200.1415376147
  0
LINE
  5
4B3
100
AcDbEntity
  8
02___PRT_ALL_AXES
100
AcDbLine
 62
7
  6
CONTINUOUS
 10
139.6670888672
 20
186.1378045987
 11
139.6670888672
 21
192.1378045987
  0
LINE
  5
4B4
100
AcDbEntity
  8
02___PRT_ALL_AXES
100
AcDbLine
 62
7
  6
CONTINUOUS
 10
139.6670888672
 20
201.1378045987
 11
139.6670888672
 21
207.1378045987
  0
LINE
  5
4B5
100
AcDbEntity
  8
02___PRT_ALL_AXES
100
AcDbLine
 62
7
  6
CONTINUOUS
 10
139.8670888672
 20
186.1378290356
 11
139.8670888672
 21
192.1377801619
  0
LINE
  5
4B6
100
AcDbEntity
  8
02___PRT_ALL_AXES
100
AcDbLine
 62
7
  6
CONTINUOUS
 10
139.8670888672
 20
201.1378290356
 11
139.8670888672
 21
207.1377801619
  0
LINE
  5
4B7
100
AcDbEntity
  8
02___PRT_ALL_AXES
100
AcDbLine
 62
7
  6
CONTINUOUS
 10
139.0768999724
 20
206.5476157039
 11
139.6670888672
 21
207.1378045987
  0
LINE
  5
4B8
100
AcDbEntity
  8
02___PRT_ALL_AXES
100
AcDbLine
 62
7
  6
CONTINUOUS
 10
142.6170888672
 20
178.0378045987
 11
142.6170888672
 21
176.5378045987
  0
LINE
  5
4B9
100
AcDbEntity
  8
02___PRT_ALL_AXES
100
AcDbLine
 62
7
  6
CONTINUOUS
 10
133.8211957662
 20
252.5378045987
 11
120.7984704057
 21
252.5378045987
  0
LINE
  5
4BA
100
AcDbEntity
  8
7_ALL_FEATURES
100
AcDbLine
 62
7
  6
CONTINUOUS
 10
120.7984704057
 20
252.5378045987
 11
119.9135601207
 21
252.5378045987
  0
LINE
  5
4BB
100
AcDbEntity
  8
02___PRT_ALL_AXES
100
AcDbLine
 62
7
  6
CONTINUOUS
 10
119.9135601207
 20
252.5378045987
 11
115.8099567189
 21
252.5378045987
  0
LINE
  5
4BC
100
AcDbEntity
  8
02___PRT_ALL_AXES
100
AcDbLine
 62
7
  6
CONTINUOUS
 10
115.8028581473
 20
252.5378045987
 11
113.4940552192
 21
252.5378045987
  0
LINE
  5
4BD
100
AcDbEntity
  8
7_ALL_FEATURES
100
AcDbLine
 62
7
  6
CONTINUOUS
 10
113.4940552192
 20
252.5378045987
 11
109.7872434833
 21
252.5378045987
  0
LINE
  5
4BE
100
AcDbEntity
  8
02___PRT_ALL_AXES
100
AcDbLine
 62
7
  6
CONTINUOUS
 10
109.7872434833
 20
252.5378045987
 11
103.320621348
 21
252.5378045987
  0
LINE
  5
4BF
100
AcDbEntity
  8
7_ALL_FEATURES
100
AcDbLine
 62
7
  6
CONTINUOUS
 10
103.320621348
 20
252.5378045987
 11
102.4357083424
 21
252.5378045987
  0
LINE
  5
4C0
100
AcDbEntity
  8
02___PRT_ALL_AXES
100
AcDbLine
 62
7
  6
CONTINUOUS
 10
102.4357083424
 20
252.5378045987
 11
101.8951854747
 21
252.5378045987
  0
LINE
  5
4C1
100
AcDbEntity
  8
02___PRT_ALL_AXES
100
AcDbLine
 62
7
  6
CONTINUOUS
 10
101.8946182856
 20
252.5378045987
 11
89.412992335
 21
252.5378045987
  0
LINE
  5
4C2
100
AcDbEntity
  8
02___PRT_ALL_AXES
100
AcDbLine
 62
7
  6
CONTINUOUS
 10
139.0768999724
 20
191.5476157039
 11
139.1170888672
 21
191.5878045987
  0
LINE
  5
4C3
100
AcDbEntity
  8
02___PRT_ALL_AXES
100
AcDbLine
 62
7
  6
CONTINUOUS
 10
139.3670888672
 20
191.8378045987
 11
139.6670888672
 21
192.1378045987
  0
LINE
  5
4C4
100
AcDbEntity
  8
02___PRT_ALL_AXES
100
AcDbLine
 62
7
  6
CONTINUOUS
 10
106.9104580035
 20
255.7878045987
 11
109.2001661417
 21
255.7878045987
  0
LINE
  5
4C5
100
AcDbEntity
  8
02___PRT_ALL_AXES
100
AcDbLine
 62
7
  6
CONTINUOUS
 10
98.2207337385
 20
256.1878045987
 11
106.9104580035
 21
256.1878045987
  0
LINE
  5
4C6
100
AcDbEntity
  8
02___PRT_ALL_AXES
100
AcDbLine
 62
7
  6
CONTINUOUS
 10
98.2207337385
 20
256.3878045987
 11
106.9104580035
 21
256.3878045987
  0
LINE
  5
4C7
100
AcDbEntity
  8
02___PRT_ALL_AXES
100
AcDbLine
 62
7
  6
CONTINUOUS
 10
106.9104580035
 20
256.7878045987
 11
109.2001661417
 21
256.7878045987
  0
LINE
  5
4C8
100
AcDbEntity
  8
7_ALL_FEATURES
100
AcDbLine
 62
7
  6
CONTINUOUS
 10
98.220733658
 20
260.0378045987
 11
109.2001661417
 21
260.0378045987
  0
LWPOLYLINE
  5
4C9
100
AcDbEntity
  8
0
100
AcDbPolyline
 62
2
  6
CONTINUOUS
 90
8
 70
0
 43
0.1500000036
 10
111.3670861816
 20
271.4832495117
 10
112.2242358398
 20
271.4832495117
 10
112.6527978516
 20
271.9118115234
 10
112.6527978516
 20
272.7689611816
 10
112.2242358398
 20
273.1975231934
 10
111.3670861816
 20
273.1975231934
 10
111.3670861816
 20
274.4832348633
 10
112.6527978516
 20
274.4832348633
  0
LINE
  5
4CA
100
AcDbEntity
  8
02___PRT_ALL_AXES
100
AcDbLine
 62
7
  6
CONTINUOUS
 10
233.7565153587
 20
176.5378045987
 11
295.7565153587
 21
176.5378045987
  0
LINE
  5
4CB
100
AcDbEntity
  8
02___PRT_ALL_AXES
100
AcDbLine
 62
7
  6
CONTINUOUS
 10
233.7565153587
 20
178.0378045987
 11
295.7565153587
 21
178.0378045987
  0
LINE
  5
4CC
100
AcDbEntity
  8
7_ALL_FEATURES
100
AcDbLine
 62
3
  6
CONTINUOUS
 10
249.510011373
 20
178.1378045987
 11
269.6480420454
 21
178.1378045987
  0
LINE
  5
4CD
100
AcDbEntity
  8
7_ALL_FEATURES
100
AcDbLine
 62
7
  6
CONTINUOUS
 10
237.2565153587
 20
188.1634192491
 11
220.9112788352
 21
195.7853282143
  0
LINE
  5
4CE
100
AcDbEntity
  8
02___PRT_ALL_AXES
100
AcDbLine
 62
7
  6
CONTINUOUS
 10
233.7565153587
 20
178.0378045987
 11
233.7565153587
 21
176.5378045987
  0
LINE
  5
4CF
100
AcDbEntity
  8
7_ALL_FEATURES
100
AcDbLine
 62
7
  6
CONTINUOUS
 10
264.1791650895
 20
188.1378045987
 11
265.3338656279
 21
188.1378045987
  0
LINE
  5
4D0
100
AcDbEntity
  8
02___PRT_ALL_AXES
100
AcDbLine
 62
7
  6
CONTINUOUS
 10
237.2565153587
 20
223.0378045987
 11
237.2565153587
 21
178.0378045987
  0
LINE
  5
4D1
100
AcDbEntity
  8
7_ALL_FEATURES
100
AcDbLine
 62
3
  6
CONTINUOUS
 10
259.2282425315
 20
189.1685744957
 11
259.7565153587
 21
189.1685744957
  0
LINE
  5
4D2
100
AcDbEntity
  8
7_ALL_FEATURES
100
AcDbLine
 62
7
  6
CONTINUOUS
 10
265.3338656279
 20
190.1378045987
 11
264.1791650895
 21
190.1378045987
  0
LINE
  5
4D3
100
AcDbEntity
  8
02___PRT_ALL_AXES
100
AcDbLine
 62
7
  6
CONTINUOUS
 10
242.5521121537
 20
252.5378045987
 11
242.5521121537
 21
223.0378045987
  0
LINE
  5
4D4
100
AcDbEntity
  8
02___PRT_ALL_AXES
100
AcDbLine
 62
9
  6
CONTINUOUS
 10
243.2768591681
 20
223.0378045987
 11
243.2768591681
 21
252.5378045987
  0
LINE
  5
4D5
100
AcDbEntity
  8
02___PRT_ALL_AXES
100
AcDbLine
 62
7
  6
CONTINUOUS
 10
243.6535164345
 20
252.5378045987
 11
243.6535164345
 21
223.0378045987
  0
LINE
  5
4D6
100
AcDbEntity
  8
02___PRT_ALL_AXES
100
AcDbLine
 62
9
  6
CONTINUOUS
 10
244.4189109364
 20
223.0378045987
 11
244.4189109364
 21
252.5378045987
  0
LINE
  5
4D7
100
AcDbEntity
  8
02___PRT_ALL_AXES
100
AcDbLine
 62
7
  6
CONTINUOUS
 10
247.2395788761
 20
252.5378045987
 11
247.2395788761
 21
223.0378045987
  0
LINE
  5
4D8
100
AcDbEntity
  8
02___PRT_ALL_AXES
100
AcDbLine
 62
9
  6
CONTINUOUS
 10
248.2410572399
 20
223.0378045987
 11
248.2410572399
 21
252.5378045987
  0
LINE
  5
4D9
100
AcDbEntity
  8
7_ALL_FEATURES
100
AcDbLine
 62
3
  6
CONTINUOUS
 10
248.6037035859
 20
188.1685744957
 11
248.6037035859
 21
179.1378045987
  0
LINE
  5
4DA
100
AcDbEntity
  8
02___PRT_ALL_AXES
100
AcDbLine
 62
7
  6
CONTINUOUS
 10
250.248691645
 20
252.5378045987
 11
250.248691645
 21
223.0378045987
  0
LINE
  5
4DB
100
AcDbEntity
  8
02___PRT_ALL_AXES
100
AcDbLine
 62
9
  6
CONTINUOUS
 10
251.2803063619
 20
223.0378045987
 11
251.2803063619
 21
252.5378045987
  0
LINE
  5
4DC
100
AcDbEntity
  8
7_ALL_FEATURES
100
AcDbLine
 62
7
  6
CONTINUOUS
 10
264.1791650895
 20
203.1378045987
 11
265.3338656279
 21
203.1378045987
  0
LINE
  5
4DD
100
AcDbEntity
  8
7_ALL_FEATURES
100
AcDbLine
 62
7
  6
CONTINUOUS
 10
265.3338656279
 20
205.1378045987
 11
264.1791650895
 21
205.1378045987
  0
LINE
  5
4DE
100
AcDbEntity
  8
7_ALL_FEATURES
100
AcDbLine
 62
7
  6
CONTINUOUS
 10
263.6018148203
 20
189.1378045987
 11
264.1791650895
 21
188.1378045987
  0
LINE
  5
4DF
100
AcDbEntity
  8
7_ALL_FEATURES
100
AcDbLine
 62
7
  6
CONTINUOUS
 10
265.911215897
 20
189.1378045987
 11
265.3338656279
 21
190.1378045987
  0
LINE
  5
4E0
100
AcDbEntity
  8
02___PRT_ALL_AXES
100
AcDbLine
 62
7
  6
CONTINUOUS
 10
253.7122444276
 20
260.0378045987
 11
253.7122444276
 21
257.1878045987
  0
LINE
  5
4E1
100
AcDbEntity
  8
02___PRT_ALL_AXES
100
AcDbLine
 62
7
  6
CONTINUOUS
 10
253.7122444276
 20
256.8632642812
 11
253.7122444276
 21
256.7878045987
  0
LINE
  5
4E2
100
AcDbEntity
  8
02___PRT_ALL_AXES
100
AcDbLine
 62
7
  6
CONTINUOUS
 10
253.7122444276
 20
255.7878045987
 11
253.7122444276
 21
255.7123449162
  0
LINE
  5
4E3
100
AcDbEntity
  8
02___PRT_ALL_AXES
100
AcDbLine
 62
7
  6
CONTINUOUS
 10
253.7122444276
 20
255.3878045987
 11
253.7122444276
 21
252.5378045987
  0
LINE
  5
4E4
100
AcDbEntity
  8
02___PRT_ALL_AXES
100
AcDbLine
 62
9
  6
CONTINUOUS
 10
254.2901705316
 20
223.0378045987
 11
254.2901705316
 21
252.5378045987
  0
LINE
  5
4E5
100
AcDbEntity
  8
02___PRT_ALL_AXES
100
AcDbLine
 62
7
  6
CONTINUOUS
 10
255.0346119662
 20
252.5378045987
 11
255.0346119662
 21
223.0378045987
  0
LINE
  5
4E6
100
AcDbEntity
  8
02___PRT_ALL_AXES
100
AcDbLine
 62
9
  6
CONTINUOUS
 10
255.5751340987
 20
223.0378045987
 11
255.5751340987
 21
252.5378045987
  0
LINE
  5
4E7
100
AcDbEntity
  8
7_ALL_FEATURES
100
AcDbLine
 62
9
  6
CONTINUOUS
 10
256.0609296958
 20
252.5378045987
 11
256.0609296958
 21
223.0378045987
  0
LINE
  5
4E8
100
AcDbEntity
  8
02___PRT_ALL_AXES
100
AcDbLine
 62
7
  6
CONTINUOUS
 10
256.4599250674
 20
252.5378045987
 11
256.4599250674
 21
223.0378045987
  0
LINE
  5
4E9
100
AcDbEntity
  8
02___PRT_ALL_AXES
100
AcDbLine
 62
9
  6
CONTINUOUS
 10
257.6305589772
 20
223.0378045987
 11
257.6305589772
 21
252.5378045987
  0
LINE
  5
4EA
100
AcDbEntity
  8
02___PRT_ALL_AXES
100
AcDbLine
 62
9
  6
CONTINUOUS
 10
258.1281964478
 20
223.0378045987
 11
258.1281964478
 21
252.5378045987
  0
LINE
  5
4EB
100
AcDbEntity
  8
02___PRT_ALL_AXES
100
AcDbLine
 62
9
  6
CONTINUOUS
 10
258.3721459173
 20
223.0378045987
 11
258.3721459173
 21
252.5378045987
  0
LINE
  5
4EC
100
AcDbEntity
  8
02___PRT_ALL_AXES
100
AcDbLine
 62
9
  6
CONTINUOUS
 10
259.0044801829
 20
223.0378045987
 11
259.0044801829
 21
252.5378045987
  0
LINE
  5
4ED
100
AcDbEntity
  8
02___PRT_ALL_AXES
100
AcDbLine
 62
7
  6
CONTINUOUS
 10
259.1509267527
 20
252.5378045987
 11
259.1509267527
 21
223.0378045987
  0
LINE
  5
4EE
100
AcDbEntity
  8
7_ALL_FEATURES
100
AcDbLine
 62
9
  6
CONTINUOUS
 10
259.2282425315
 20
178.1378045987
 11
259.2282425315
 21
189.1685744957
  0
LINE
  5
4EF
100
AcDbEntity
  8
7_ALL_FEATURES
100
AcDbLine
 62
9
  6
CONTINUOUS
 10
259.7565153587
 20
178.1378045987
 11
259.7565153587
 21
189.1685744957
  0
LINE
  5
4F0
100
AcDbEntity
  8
02___PRT_ALL_AXES
100
AcDbLine
 62
7
  6
CONTINUOUS
 10
260.5704639304
 20
252.5378045987
 11
260.5704639304
 21
223.0378045987
  0
LINE
  5
4F1
100
AcDbEntity
  8
7_ALL_FEATURES
100
AcDbLine
 62
7
  6
CONTINUOUS
 10
263.6018148203
 20
204.1378045987
 11
264.1791650895
 21
203.1378045987
  0
LINE
  5
4F2
100
AcDbEntity
  8
7_ALL_FEATURES
100
AcDbLine
 62
7
  6
CONTINUOUS
 10
265.911215897
 20
204.1378045987
 11
265.3338656279
 21
205.1378045987
  0
LINE
  5
4F3
100
AcDbEntity
  8
02___PRT_ALL_AXES
100
AcDbLine
 62
9
  6
CONTINUOUS
 10
261.752641623
 20
223.0378045987
 11
261.752641623
 21
252.5378045987
  0
LINE
  5
4F4
100
AcDbEntity
  8
02___PRT_ALL_AXES
100
AcDbLine
 62
7
  6
CONTINUOUS
 10
262.6788303294
 20
223.0378045987
 11
262.6788303294
 21
252.5378045987
  0
LINE
  5
4F5
100
AcDbEntity
  8
02___PRT_ALL_AXES
100
AcDbLine
 62
7
  6
CONTINUOUS
 10
262.9271820694
 20
252.5378045987
 11
262.9271820694
 21
223.0378045987
  0
LWPOLYLINE
  5
4F6
100
AcDbEntity
  8
0
100
AcDbPolyline
 62
2
  6
CONTINUOUS
 90
4
 70
0
 43
0.1500000036
 10
316.5936364746
 20
215.9306616211
 10
315.7365124512
 20
215.9306616211
 10
315.3079248047
 20
216.3592236328
 10
315.3079248047
 20
217.0020922852
  0
LINE
  5
4F7
100
AcDbEntity
  8
02___PRT_ALL_AXES
100
AcDbLine
 62
7
  6
CONTINUOUS
 10
265.4917705913
 20
255.7878045987
 11
265.4917705913
 21
256.1878045987
  0
LINE
  5
4F8
100
AcDbEntity
  8
02___PRT_ALL_AXES
100
AcDbLine
 62
7
  6
CONTINUOUS
 10
265.4917705913
 20
256.3878045987
 11
265.4917705913
 21
256.7878045987
  0
LINE
  5
4F9
100
AcDbEntity
  8
02___PRT_ALL_AXES
100
AcDbLine
 62
7
  6
CONTINUOUS
 10
266.6333837085
 20
252.5378045987
 11
266.6333837085
 21
223.0378045987
  0
LINE
  5
4FA
100
AcDbEntity
  8
02___PRT_ALL_AXES
100
AcDbLine
 62
9
  6
CONTINUOUS
 10
266.7121731488
 20
223.0378045987
 11
266.7121731488
 21
252.5378045987
  0
LINE
  5
4FB
100
AcDbEntity
  8
02___PRT_ALL_AXES
100
AcDbLine
 62
9
  6
CONTINUOUS
 10
267.760388558
 20
223.0378045987
 11
267.760388558
 21
252.5378045987
  0
LINE
  5
4FC
100
AcDbEntity
  8
7_ALL_FEATURES
100
AcDbLine
 62
7
  6
CONTINUOUS
 10
268.7315153587
 20
256.1878045987
 11
268.7315153587
 21
256.3878045987
  0
LINE
  5
4FD
100
AcDbEntity
  8
02___PRT_ALL_AXES
100
AcDbLine
 62
7
  6
CONTINUOUS
 10
268.9425642633
 20
252.5378045987
 11
268.9425642633
 21
223.0378045987
  0
LINE
  5
4FE
100
AcDbEntity
  8
02___PRT_ALL_AXES
100
AcDbLine
 62
9
  6
CONTINUOUS
 10
269.4182793126
 20
260.0378045987
 11
269.4182793126
 21
256.3878045987
  0
LINE
  5
4FF
100
AcDbEntity
  8
02___PRT_ALL_AXES
100
AcDbLine
 62
9
  6
CONTINUOUS
 10
269.4182793126
 20
256.1878045987
 11
269.4182793126
 21
252.5378045987
  0
LWPOLYLINE
  5
500
100
AcDbEntity
  8
0
100
AcDbPolyline
 62
2
  6
CONTINUOUS
 90
2
 70
0
 43
0.1500000036
 10
317.0222241211
 20
219.2878161621
 10
315.5222314453
 20
219.2878161621
  0
LINE
  5
501
100
AcDbEntity
  8
02___PRT_ALL_AXES
100
AcDbLine
 62
9
  6
CONTINUOUS
 10
270.5222219396
 20
223.0378045987
 11
270.5222219396
 21
252.5378045987
  0
LINE
  5
502
100
AcDbEntity
  8
7_ALL_FEATURES
100
AcDbLine
 62
7
  6
CONTINUOUS
 10
271.6315153587
 20
256.1878045987
 11
271.6315153587
 21
256.3878045987
  0
LINE
  5
503
100
AcDbEntity
  8
02___PRT_ALL_AXES
100
AcDbLine
 62
9
  6
CONTINUOUS
 10
271.8824717401
 20
223.0378045987
 11
271.8824717401
 21
252.5378045987
  0
LINE
  5
504
100
AcDbEntity
  8
02___PRT_ALL_AXES
100
AcDbLine
 62
7
  6
CONTINUOUS
 10
273.0531093501
 20
252.5378045987
 11
273.0531093501
 21
223.0378045987
  0
LINE
  5
505
100
AcDbEntity
  8
7_ALL_FEATURES
100
AcDbLine
 62
7
  6
CONTINUOUS
 10
264.1791650895
 20
205.1378045987
 11
263.6018148203
 21
204.1378045987
  0
LINE
  5
506
100
AcDbEntity
  8
7_ALL_FEATURES
100
AcDbLine
 62
7
  6
CONTINUOUS
 10
265.3338656279
 20
203.1378045987
 11
265.911215897
 21
204.1378045987
  0
LINE
  5
507
100
AcDbEntity
  8
02___PRT_ALL_AXES
100
AcDbLine
 62
7
  6
CONTINUOUS
 10
237.2565153587
 20
223.0378045987
 11
292.2565153587
 21
223.0378045987
  0
LINE
  5
508
100
AcDbEntity
  8
7_ALL_FEATURES
100
AcDbLine
 62
9
  6
CONTINUOUS
 10
273.6950436665
 20
223.0378045987
 11
273.6950436665
 21
252.5378045987
  0
LINE
  5
509
100
AcDbEntity
  8
02___PRT_ALL_AXES
100
AcDbLine
 62
9
  6
CONTINUOUS
 10
273.9378968971
 20
223.0378045987
 11
273.9378968971
 21
252.5378045987
  0
LINE
  5
50A
100
AcDbEntity
  8
7_ALL_FEATURES
100
AcDbLine
 62
7
  6
CONTINUOUS
 10
274.1815153587
 20
260.0378045987
 11
274.1815153587
 21
256.3878045987
  0
LINE
  5
50B
100
AcDbEntity
  8
7_ALL_FEATURES
100
AcDbLine
 62
7
  6
CONTINUOUS
 10
274.1815153587
 20
256.1878045987
 11
274.1815153587
 21
252.5378045987
  0
LINE
  5
50C
100
AcDbEntity
  8
02___PRT_ALL_AXES
100
AcDbLine
 62
7
  6
CONTINUOUS
 10
274.4784187512
 20
252.5378045987
 11
274.4784187512
 21
223.0378045987
  0
LINE
  5
50D
100
AcDbEntity
  8
02___PRT_ALL_AXES
100
AcDbLine
 62
9
  6
CONTINUOUS
 10
275.2228601858
 20
223.0378045987
 11
275.2228601858
 21
252.5378045987
  0
LINE
  5
50E
100
AcDbEntity
  8
02___PRT_ALL_AXES
100
AcDbLine
 62
9
  6
CONTINUOUS
 10
278.2327236692
 20
223.0378045987
 11
278.2327236692
 21
252.5378045987
  0
LINE
  5
50F
100
AcDbEntity
  8
02___PRT_ALL_AXES
100
AcDbLine
 62
7
  6
CONTINUOUS
 10
279.2643282724
 20
252.5378045987
 11
279.2643282724
 21
223.0378045987
  0
LINE
  5
510
100
AcDbEntity
  8
02___PRT_ALL_AXES
100
AcDbLine
 62
9
  6
CONTINUOUS
 10
281.2719734774
 20
223.0378045987
 11
281.2719734774
 21
252.5378045987
  0
LINE
  5
511
100
AcDbEntity
  8
7_ALL_FEATURES
100
AcDbLine
 62
7
  6
CONTINUOUS
 10
264.1791650895
 20
190.1378045987
 11
263.6018148203
 21
189.1378045987
  0
LINE
  5
512
100
AcDbEntity
  8
7_ALL_FEATURES
100
AcDbLine
 62
7
  6
CONTINUOUS
 10
265.3338656279
 20
188.1378045987
 11
265.911215897
 21
189.1378045987
  0
LINE
  5
513
100
AcDbEntity
  8
02___PRT_ALL_AXES
100
AcDbLine
 62
7
  6
CONTINUOUS
 10
282.2734638354
 20
252.5378045987
 11
282.2734638354
 21
223.0378045987
  0
LINE
  5
514
100
AcDbEntity
  8
02___PRT_ALL_AXES
100
AcDbLine
 62
9
  6
CONTINUOUS
 10
285.0941211765
 20
223.0378045987
 11
285.0941211765
 21
252.5378045987
  0
LINE
  5
515
100
AcDbEntity
  8
02___PRT_ALL_AXES
100
AcDbLine
 62
7
  6
CONTINUOUS
 10
285.8595028944
 20
252.5378045987
 11
285.8595028944
 21
223.0378045987
  0
LINE
  5
516
100
AcDbEntity
  8
02___PRT_ALL_AXES
100
AcDbLine
 62
9
  6
CONTINUOUS
 10
286.2361715492
 20
223.0378045987
 11
286.2361715492
 21
252.5378045987
  0
LINE
  5
517
100
AcDbEntity
  8
02___PRT_ALL_AXES
100
AcDbLine
 62
7
  6
CONTINUOUS
 10
286.9609203287
 20
252.5378045987
 11
286.9609203287
 21
223.0378045987
  0
LINE
  5
518
100
AcDbEntity
  8
02___PRT_ALL_AXES
100
AcDbLine
 62
7
  6
CONTINUOUS
 10
292.2565153587
 20
223.0378045987
 11
292.2565153587
 21
200.1396520154
  0
LINE
  5
519
100
AcDbEntity
  8
02___PRT_ALL_AXES
100
AcDbLine
 62
7
  6
CONTINUOUS
 10
292.2565153587
 20
188.1634192491
 11
292.2565153587
 21
178.0378045987
  0
LINE
  5
51A
100
AcDbEntity
  8
02___PRT_ALL_AXES
100
AcDbLine
 62
7
  6
CONTINUOUS
 10
295.7565153587
 20
178.0378045987
 11
295.7565153587
 21
176.5378045987
  0
LINE
  5
51B
100
AcDbEntity
  8
02___PRT_ALL_AXES
100
AcDbLine
 62
7
  6
CONTINUOUS
 10
286.9606222576
 20
252.5378045987
 11
268.9493832104
 21
252.5378045987
  0
LINE
  5
51C
100
AcDbEntity
  8
02___PRT_ALL_AXES
100
AcDbLine
 62
7
  6
CONTINUOUS
 10
255.034044777
 20
252.5378045987
 11
242.5524102232
 21
252.5378045987
  0
LINE
  5
51D
100
AcDbEntity
  8
02___PRT_ALL_AXES
100
AcDbLine
 62
7
  6
CONTINUOUS
 10
255.0346119662
 20
252.5378045987
 11
268.9422824716
 21
252.5378045987
  0
LINE
  5
51E
100
AcDbEntity
  8
7_ALL_FEATURES
100
AcDbLine
 62
7
  6
CONTINUOUS
 10
256.9738885861
 20
255.0378045987
 11
262.8797744744
 21
255.0378045987
  0
LWPOLYLINE
  5
51F
100
AcDbEntity
  8
0
100
AcDbPolyline
 62
2
  6
CONTINUOUS
 90
13
 70
0
 43
0.1500000036
 10
315.3079248047
 20
216.3592236328
 10
315.0936437988
 20
216.0735241699
 10
314.4508007812
 20
216.0735241699
 10
314.0222131348
 20
216.3592236328
 10
314.0222131348
 20
217.0020922852
 10
314.4508007812
 20
217.2878173828
 10
315.0936437988
 20
217.2878173828
 10
315.3079248047
 20
217.0020922852
 10
315.7365124512
 20
217.4306542969
 10
316.5936364746
 20
217.4306542969
 10
317.0222241211
 20
217.0020922852
 10
317.0222241211
 20
216.3592236328
 10
316.5936364746
 20
215.9306616211
  0
LINE
  5
520
100
AcDbEntity
  8
7_ALL_FEATURES
100
AcDbLine
 62
3
  6
CONTINUOUS
 10
271.7611333542
 20
178.6062656635
 11
308.6017518821
 21
195.7853282143
  0
LINE
  5
521
100
AcDbEntity
  8
02___PRT_ALL_AXES
100
AcDbLine
 62
7
  6
CONTINUOUS
 10
253.7122444276
 20
255.7878045987
 11
256.5504752019
 21
255.7878045987
  0
LINE
  5
522
100
AcDbEntity
  8
02___PRT_ALL_AXES
100
AcDbLine
 62
7
  6
CONTINUOUS
 10
264.1800119093
 20
255.7878045987
 11
265.4917705913
 21
255.7878045987
  0
LINE
  5
523
100
AcDbEntity
  8
02___PRT_ALL_AXES
100
AcDbLine
 62
7
  6
CONTINUOUS
 10
265.4917705913
 20
256.1878045987
 11
274.1814591839
 21
256.1878045987
  0
LINE
  5
524
100
AcDbEntity
  8
02___PRT_ALL_AXES
100
AcDbLine
 62
7
  6
CONTINUOUS
 10
274.1814591839
 20
256.3878045987
 11
265.4917705913
 21
256.3878045987
  0
LINE
  5
525
100
AcDbEntity
  8
02___PRT_ALL_AXES
100
AcDbLine
 62
7
  6
CONTINUOUS
 10
265.4917705913
 20
256.7878045987
 11
264.1800119093
 21
256.7878045987
  0
LINE
  5
526
100
AcDbEntity
  8
02___PRT_ALL_AXES
100
AcDbLine
 62
7
  6
CONTINUOUS
 10
253.7122444276
 20
256.7878045987
 11
256.5504752019
 21
256.7878045987
  0
LINE
  5
527
100
AcDbEntity
  8
7_ALL_FEATURES
100
AcDbLine
 62
7
  6
CONTINUOUS
 10
256.9738885861
 20
257.5378045987
 11
262.8797744744
 21
257.5378045987
  0
LINE
  5
528
100
AcDbEntity
  8
7_ALL_FEATURES
100
AcDbLine
 62
7
  6
CONTINUOUS
 10
253.7122444276
 20
260.0378045987
 11
274.181459216
 21
260.0378045987
  0
LWPOLYLINE
  5
529
100
AcDbEntity
  8
0
100
AcDbPolyline
 62
2
  6
CONTINUOUS
 90
3
 70
0
 43
0.1500000036
 10
316.3793554687
 20
219.7877966309
 10
316.3793554687
 20
218.2878039551
 10
314.0222131348
 20
218.9306726074
  0
ARC
  5
52A
100
AcDbEntity
  8
7_ALL_FEATURES
100
AcDbCircle
 62
7
  6
CONTINUOUS
 10
102.2207132361
 20
73.9444363459
 40
4.0
100
AcDbArc
 50
168.9999990576
 51
348.9999990576
  0
ARC
  5
52B
100
AcDbEntity
  8
7_ALL_FEATURES
100
AcDbCircle
 62
7
  6
CONTINUOUS
 10
110.6170888672
 20
65.8694363459
 40
3.5
100
AcDbArc
 50
255.7022913607
 51
348.4481906536
  0
CIRCLE
  5
52C
100
AcDbEntity
  8
02___PRT_ALL_AXES
100
AcDbCircle
 62
7
  6
CONTINUOUS
 10
102.2207132361
 20
73.9444363459
 40
3.25
  0
ARC
  5
52D
100
AcDbEntity
  8
7_ALL_FEATURES
100
AcDbCircle
 62
7
  6
CONTINUOUS
 10
111.6170888066
 20
65.8099944747
 40
2.7094418712
100
AcDbArc
 50
14.9999854868
 51
164.9999801389
  0
ARC
  5
52E
100
AcDbEntity
  8
7_ALL_FEATURES
100
AcDbCircle
 62
7
  6
CONTINUOUS
 10
104.8373678791
 20
67.6266152546
 40
2.7094418712
100
AcDbArc
 50
345.0000003948
 51
134.9999986378
  0
CIRCLE
  5
52F
100
AcDbEntity
  8
7_ALL_FEATURES
100
AcDbCircle
 62
7
  6
CONTINUOUS
 10
102.2207132361
 20
73.9444363459
 40
2.7
  0
ARC
  5
530
100
AcDbEntity
  8
02___PRT_ALL_AXES
100
AcDbCircle
 62
7
  6
CONTINUOUS
 10
107.0877555779
 20
62.4657343858
 40
2.7
100
AcDbArc
 50
335.2328576378
 51
45.0103004945
  0
ARC
  5
531
100
AcDbEntity
  8
02___PRT_ALL_AXES
100
AcDbCircle
 62
7
  6
CONTINUOUS
 10
107.0877555779
 20
62.4657343858
 40
2.7
100
AcDbArc
 50
104.9896995055
 51
174.7671423622
  0
ARC
  5
532
100
AcDbEntity
  8
02___PRT_ALL_AXES
100
AcDbCircle
 62
7
  6
CONTINUOUS
 10
94.7133869071
 20
74.8401030566
 40
2.6524652783
100
AcDbArc
 50
286.0
 51
337.9988203301
  0
ARC
  5
533
100
AcDbEntity
  8
02___PRT_ALL_AXES
100
AcDbCircle
 62
7
  6
CONTINUOUS
 10
94.7133873408
 20
74.8401027178
 40
2.6524652783
100
AcDbArc
 50
52.0011915573
 51
103.9999897867
  0
ARC
  5
534
100
AcDbEntity
  8
02___PRT_ALL_AXES
100
AcDbCircle
 62
7
  6
CONTINUOUS
 10
99.2427201964
 20
66.9950676751
 40
2.6524652783
100
AcDbArc
 50
316.0
 51
7.9988203301
  0
ARC
  5
535
100
AcDbEntity
  8
02___PRT_ALL_AXES
100
AcDbCircle
 62
7
  6
CONTINUOUS
 10
99.2427201964
 20
66.9950676751
 40
2.6524652783
100
AcDbArc
 50
82.0011796699
 51
134.0
  0
ARC
  5
536
100
AcDbEntity
  8
02___PRT_ALL_AXES
100
AcDbCircle
 62
7
  6
CONTINUOUS
 10
99.0270417125
 20
73.097170073
 40
2.0
100
AcDbArc
 50
110.351299461
 51
157.9988203301
  0
ARC
  5
537
100
AcDbEntity
  8
02___PRT_ALL_AXES
100
AcDbCircle
 62
7
  6
CONTINUOUS
 10
97.5776552068
 20
78.5063545855
 40
2.0
100
AcDbArc
 50
232.0011743312
 51
284.9999944354
  0
ARC
  5
538
100
AcDbEntity
  8
02___PRT_ALL_AXES
100
AcDbCircle
 62
7
  6
CONTINUOUS
 10
110.7540072215
 20
65.3300025386
 40
2.0
100
AcDbArc
 50
164.9999954504
 51
208.5136636136
  0
ARC
  5
539
100
AcDbEntity
  8
02___PRT_ALL_AXES
100
AcDbCircle
 62
7
  6
CONTINUOUS
 10
105.3448226193
 20
66.7793892065
 40
2.0
100
AcDbArc
 50
301.4863355456
 51
344.9999980504
  0
ARC
  5
53A
100
AcDbEntity
  8
02___PRT_ALL_AXES
100
AcDbCircle
 62
7
  6
CONTINUOUS
 10
103.8499213329
 20
67.6424708369
 40
2.0
100
AcDbArc
 50
134.9999725643
 51
187.9988203302
  0
ARC
  5
53B
100
AcDbEntity
  8
02___PRT_ALL_AXES
100
AcDbCircle
 62
7
  6
CONTINUOUS
 10
99.8901237536
 20
71.602268756
 40
2.0
100
AcDbArc
 50
262.001168233
 51
310.0375033955
  0
ARC
  5
53C
100
AcDbEntity
  8
02___PRT_ALL_AXES
100
AcDbCircle
 62
7
  6
CONTINUOUS
 10
94.7133889607
 20
74.8401037238
 40
1.3
100
AcDbArc
 50
287.9999095768
 51
102.0000962342
  0
ARC
  5
53D
100
AcDbEntity
  8
02___PRT_ALL_AXES
100
AcDbCircle
 62
7
  6
CONTINUOUS
 10
99.242720091
 20
66.995067558
 40
1.3
100
AcDbArc
 50
317.9999419382
 51
131.9999697187
  0
ARC
  5
53E
100
AcDbEntity
  8
02___PRT_ALL_AXES
100
AcDbCircle
 62
7
  6
CONTINUOUS
 10
107.0877555779
 20
62.4657343858
 40
1.3
100
AcDbArc
 50
301.1276202132
 51
208.8723797868
  0
ARC
  5
53F
100
AcDbEntity
  8
7_ALL_FEATURES
100
AcDbCircle
 62
7
  6
CONTINUOUS
 10
105.1642659924
 20
69.9692460847
 40
1.0
100
AcDbArc
 50
344.9999999999
 51
359.9871790425
  0
ARC
  5
540
100
AcDbEntity
  8
02___PRT_ALL_AXES
100
AcDbCircle
 62
7
  6
CONTINUOUS
 10
106.8008199548
 20
59.6728881105
 40
1.0
100
AcDbArc
 50
348.0000288724
 51
15.0000103253
  0
ARC
  5
541
100
AcDbEntity
  8
02___PRT_ALL_AXES
100
AcDbCircle
 62
7
  6
CONTINUOUS
 10
105.9398261784
 20
59.9035914239
 40
1.0
100
AcDbArc
 50
134.9999976773
 51
161.9999454398
  0
ARC
  5
542
100
AcDbEntity
  8
02___PRT_ALL_AXES
100
AcDbCircle
 62
7
  6
CONTINUOUS
 10
91.114089943
 20
71.6728423544
 40
0.6
100
AcDbArc
 50
107.9988565164
 51
286.001200887
  0
ARC
  5
543
100
AcDbEntity
  8
02___PRT_ALL_AXES
100
AcDbCircle
 62
7
  6
CONTINUOUS
 10
90.0126942791
 20
75.7833874413
 40
0.6
100
AcDbArc
 50
104.000574733
 51
281.999151341
  0
ARC
  5
544
100
AcDbEntity
  8
02___PRT_ALL_AXES
100
AcDbCircle
 62
7
  6
CONTINUOUS
 10
108.0310374389
 20
57.7650313758
 40
0.6
100
AcDbArc
 50
167.9998276834
 51
346.0001013798
  0
ARC
  5
545
100
AcDbEntity
  8
02___PRT_ALL_AXES
100
AcDbCircle
 62
7
  6
CONTINUOUS
 10
103.9204985759
 20
58.8664488102
 40
0.6
100
AcDbArc
 50
163.99996942
 51
342.0
  0
ARC
  5
546
100
AcDbEntity
  8
02___PRT_ALL_AXES
100
AcDbCircle
 62
7
  6
CONTINUOUS
 10
97.7092651535
 20
62.4524878691
 40
0.6
100
AcDbArc
 50
137.9984587451
 51
316.0014897229
  0
ARC
  5
547
100
AcDbEntity
  8
02___PRT_ALL_AXES
100
AcDbCircle
 62
7
  6
CONTINUOUS
 10
94.7001523846
 20
65.4616234321
 40
0.6
100
AcDbArc
 50
133.999797183
 51
312.0
  0
ARC
  5
548
100
AcDbEntity
  8
02___PRT_ALL_AXES
100
AcDbCircle
 62
7
  6
CONTINUOUS
 10
108.0182584572
 20
60.9249020161
 40
0.5
100
AcDbArc
 50
121.1276202131
 51
195.0
  0
ARC
  5
549
100
AcDbEntity
  8
02___PRT_ALL_AXES
100
AcDbCircle
 62
7
  6
CONTINUOUS
 10
105.5115002612
 20
61.5965858504
 40
0.5
100
AcDbArc
 50
315.000003123
 51
28.8723797868
  0
ARC
  5
54A
100
AcDbEntity
  8
7_ALL_FEATURES
100
AcDbCircle
 62
7
  6
CONTINUOUS
 10
110.6170888672
 20
92.8694363459
 40
3.5
100
AcDbArc
 50
11.5518093464
 51
104.8365494325
  0
ARC
  5
54B
100
AcDbEntity
  8
7_ALL_FEATURES
100
AcDbCircle
 62
7
  6
CONTINUOUS
 10
98.057646996
 20
79.3694364065
 40
2.7094418712
100
AcDbArc
 50
54.357948757
 51
74.9999801389
  0
ARC
  5
54C
100
AcDbEntity
  8
7_ALL_FEATURES
100
AcDbCircle
 62
7
  6
CONTINUOUS
 10
99.8742677759
 20
86.1491573339
 40
2.7094418712
100
AcDbArc
 50
255.0000003948
 51
272.5715970263
  0
ARC
  5
54D
100
AcDbEntity
  8
7_ALL_FEATURES
100
AcDbCircle
 62
7
  6
CONTINUOUS
 10
104.837367984
 20
91.1122574978
 40
2.7094418712
100
AcDbArc
 50
333.9873079173
 51
15.0000126228
  0
ARC
  5
54E
100
AcDbEntity
  8
02___PRT_ALL_AXES
100
AcDbCircle
 62
7
  6
CONTINUOUS
 10
94.7133869071
 20
83.8987696352
 40
2.7
100
AcDbArc
 50
245.2328576379
 51
315.0103004945
  0
ARC
  5
54F
100
AcDbEntity
  8
02___PRT_ALL_AXES
100
AcDbCircle
 62
7
  6
CONTINUOUS
 10
94.7133869071
 20
83.8987696352
 40
2.7
100
AcDbArc
 50
14.9896995054
 51
84.7671423622
  0
ARC
  5
550
100
AcDbEntity
  8
02___PRT_ALL_AXES
100
AcDbCircle
 62
7
  6
CONTINUOUS
 10
99.2427201964
 20
91.7438050166
 40
2.6524652783
100
AcDbArc
 50
226.0
 51
277.9988203301
  0
ARC
  5
551
100
AcDbEntity
  8
02___PRT_ALL_AXES
100
AcDbCircle
 62
7
  6
CONTINUOUS
 10
99.2427201964
 20
91.7438050166
 40
2.6524652783
100
AcDbArc
 50
352.0011796699
 51
44.0
  0
ARC
  5
552
100
AcDbEntity
  8
02___PRT_ALL_AXES
100
AcDbCircle
 62
7
  6
CONTINUOUS
 10
107.0877555779
 20
96.2731383059
 40
2.6524652783
100
AcDbArc
 50
196.0
 51
247.9988203301
  0
ARC
  5
553
100
AcDbEntity
  8
02___PRT_ALL_AXES
100
AcDbCircle
 62
7
  6
CONTINUOUS
 10
107.0877555779
 20
96.2731383059
 40
2.6524652783
100
AcDbArc
 50
322.0011796699
 51
14.0
  0
ARC
  5
554
100
AcDbEntity
  8
02___PRT_ALL_AXES
100
AcDbCircle
 62
7
  6
CONTINUOUS
 10
97.5776550599
 20
80.2325179916
 40
2.0
100
AcDbArc
 50
74.9999954504
 51
118.5136636136
  0
ARC
  5
555
100
AcDbEntity
  8
02___PRT_ALL_AXES
100
AcDbCircle
 62
7
  6
CONTINUOUS
 10
99.0270417278
 20
85.6417025938
 40
2.0
100
AcDbArc
 50
211.4863355456
 51
254.9999980504
  0
ARC
  5
556
100
AcDbEntity
  8
02___PRT_ALL_AXES
100
AcDbCircle
 62
7
  6
CONTINUOUS
 10
99.8901233582
 20
87.1366038802
 40
2.0
100
AcDbArc
 50
55.0581912345
 51
97.9988203301
  0
ARC
  5
557
100
AcDbEntity
  8
02___PRT_ALL_AXES
100
AcDbCircle
 62
7
  6
CONTINUOUS
 10
103.8499212773
 20
91.0964014595
 40
2.0
100
AcDbArc
 50
172.0011682329
 51
183.6343185215
  0
ARC
  5
558
100
AcDbEntity
  8
02___PRT_ALL_AXES
100
AcDbCircle
 62
7
  6
CONTINUOUS
 10
105.3448225943
 20
91.9594835006
 40
2.0
100
AcDbArc
 50
14.9999412239
 51
67.9988203302
  0
ARC
  5
559
100
AcDbEntity
  8
02___PRT_ALL_AXES
100
AcDbCircle
 62
7
  6
CONTINUOUS
 10
110.7540071068
 20
93.4088700063
 40
2.0
100
AcDbArc
 50
142.0011743313
 51
194.9999944354
  0
ARC
  5
55A
100
AcDbEntity
  8
02___PRT_ALL_AXES
100
AcDbCircle
 62
7
  6
CONTINUOUS
 10
99.2427200793
 20
91.7438051221
 40
1.3
100
AcDbArc
 50
227.9999419382
 51
41.9999697187
  0
ARC
  5
55B
100
AcDbEntity
  8
02___PRT_ALL_AXES
100
AcDbCircle
 62
7
  6
CONTINUOUS
 10
107.0877562452
 20
96.2731362523
 40
1.3
100
AcDbArc
 50
197.9999095768
 51
12.0000962342
  0
ARC
  5
55C
100
AcDbEntity
  8
02___PRT_ALL_AXES
100
AcDbCircle
 62
7
  6
CONTINUOUS
 10
94.7133869071
 20
83.8987696352
 40
1.3
100
AcDbArc
 50
211.1276202131
 51
118.8723797868
  0
ARC
  5
55D
100
AcDbEntity
  8
7_ALL_FEATURES
100
AcDbCircle
 62
3
  6
CONTINUOUS
 10
85.1170888672
 20
84.3694363459
 40
1.25
100
AcDbArc
 50
155.0
 51
180.0
  0
ARC
  5
55E
100
AcDbEntity
  8
7_ALL_FEATURES
100
AcDbCircle
 62
7
  6
CONTINUOUS
 10
85.1170888672
 20
84.3694363459
 40
1.0
100
AcDbArc
 50
155.0
 51
180.0
  0
ARC
  5
55F
100
AcDbEntity
  8
7_ALL_FEATURES
100
AcDbCircle
 62
7
  6
CONTINUOUS
 10
110.7288754621
 20
90.7366513499
 40
1.0
100
AcDbArc
 50
330.0128209097
 51
345.0
  0
ARC
  5
560
100
AcDbEntity
  8
02___PRT_ALL_AXES
100
AcDbCircle
 62
7
  6
CONTINUOUS
 10
91.9205406318
 20
84.1857052583
 40
1.0
100
AcDbArc
 50
258.0000288726
 51
285.0000103253
  0
ARC
  5
561
100
AcDbEntity
  8
02___PRT_ALL_AXES
100
AcDbCircle
 62
7
  6
CONTINUOUS
 10
92.1512439453
 20
85.0466990347
 40
1.0
100
AcDbArc
 50
44.9999976772
 51
71.9999454399
  0
ARC
  5
562
100
AcDbEntity
  8
02___PRT_ALL_AXES
100
AcDbCircle
 62
7
  6
CONTINUOUS
 10
90.0126838971
 20
82.9554877742
 40
0.6
100
AcDbArc
 50
77.999827684
 51
256.0001013791
  0
ARC
  5
563
100
AcDbEntity
  8
02___PRT_ALL_AXES
100
AcDbCircle
 62
7
  6
CONTINUOUS
 10
91.1141013315
 20
87.0660266371
 40
0.6
100
AcDbArc
 50
73.9999694199
 51
252.0
  0
ARC
  5
564
100
AcDbEntity
  8
02___PRT_ALL_AXES
100
AcDbCircle
 62
7
  6
CONTINUOUS
 10
94.7001403904
 20
93.2772600596
 40
0.6
100
AcDbArc
 50
47.9984587449
 51
226.001489723
  0
ARC
  5
565
100
AcDbEntity
  8
02___PRT_ALL_AXES
100
AcDbCircle
 62
7
  6
CONTINUOUS
 10
97.7092759534
 20
96.2863728285
 40
0.6
100
AcDbArc
 50
43.999797183
 51
222.0
  0
ARC
  5
566
100
AcDbEntity
  8
02___PRT_ALL_AXES
100
AcDbCircle
 62
7
  6
CONTINUOUS
 10
103.9204948757
 20
99.8724352701
 40
0.6
100
AcDbArc
 50
17.9988565162
 51
196.0012008873
  0
ARC
  5
567
100
AcDbEntity
  8
02___PRT_ALL_AXES
100
AcDbCircle
 62
7
  6
CONTINUOUS
 10
108.0310378141
 20
100.9738395509
 40
0.6
100
AcDbArc
 50
13.999726671
 51
192.0
  0
ARC
  5
568
100
AcDbEntity
  8
02___PRT_ALL_AXES
100
AcDbCircle
 62
7
  6
CONTINUOUS
 10
93.1725545374
 20
82.9682667558
 40
0.5
100
AcDbArc
 50
31.1276202132
 51
105.0
  0
ARC
  5
569
100
AcDbEntity
  8
02___PRT_ALL_AXES
100
AcDbCircle
 62
7
  6
CONTINUOUS
 10
93.8442383717
 20
85.4750249518
 40
0.5
100
AcDbArc
 50
225.000003123
 51
298.8723797868
  0
ARC
  5
56A
100
AcDbEntity
  8
7_ALL_FEATURES
100
AcDbCircle
 62
7
  6
CONTINUOUS
 10
125.1765307384
 20
79.3694362853
 40
2.7094418712
100
AcDbArc
 50
104.9999854868
 51
254.9999801389
  0
ARC
  5
56B
100
AcDbEntity
  8
7_ALL_FEATURES
100
AcDbCircle
 62
7
  6
CONTINUOUS
 10
123.3599099585
 20
72.5897153578
 40
2.7094418712
100
AcDbArc
 50
75.0000003948
 51
224.9999986378
  0
ARC
  5
56C
100
AcDbEntity
  8
7_ALL_FEATURES
100
AcDbCircle
 62
7
  6
CONTINUOUS
 10
118.3968097503
 20
67.626615194
 40
2.7094418712
100
AcDbArc
 50
44.9999657811
 51
195.0000126228
  0
ARC
  5
56D
100
AcDbEntity
  8
02___PRT_ALL_AXES
100
AcDbCircle
 62
7
  6
CONTINUOUS
 10
128.5207908272
 20
74.8401030566
 40
2.7
100
AcDbArc
 50
65.2328576379
 51
135.0103004945
  0
ARC
  5
56E
100
AcDbEntity
  8
02___PRT_ALL_AXES
100
AcDbCircle
 62
7
  6
CONTINUOUS
 10
128.5207908272
 20
74.8401030566
 40
2.7
100
AcDbArc
 50
194.9896995054
 51
264.7671423622
  0
ARC
  5
56F
100
AcDbEntity
  8
02___PRT_ALL_AXES
100
AcDbCircle
 62
7
  6
CONTINUOUS
 10
123.991457538
 20
66.9950676751
 40
2.6524652783
100
AcDbArc
 50
46.0
 51
97.9988203301
  0
ARC
  5
570
100
AcDbEntity
  8
02___PRT_ALL_AXES
100
AcDbCircle
 62
7
  6
CONTINUOUS
 10
123.991457538
 20
66.9950676751
 40
2.6524652783
100
AcDbArc
 50
172.00117967
 51
224.0
  0
ARC
  5
571
100
AcDbEntity
  8
02___PRT_ALL_AXES
100
AcDbCircle
 62
7
  6
CONTINUOUS
 10
116.1464221565
 20
62.4657343858
 40
2.6524652783
100
AcDbArc
 50
16.0
 51
67.9988203301
  0
ARC
  5
572
100
AcDbEntity
  8
02___PRT_ALL_AXES
100
AcDbCircle
 62
7
  6
CONTINUOUS
 10
116.1464221565
 20
62.4657343858
 40
2.6524652783
100
AcDbArc
 50
142.0011796699
 51
194.0
  0
ARC
  5
573
100
AcDbEntity
  8
02___PRT_ALL_AXES
100
AcDbCircle
 62
7
  6
CONTINUOUS
 10
125.6565226744
 20
78.5063547002
 40
2.0
100
AcDbArc
 50
254.9999954504
 51
298.5136636136
  0
ARC
  5
574
100
AcDbEntity
  8
02___PRT_ALL_AXES
100
AcDbCircle
 62
7
  6
CONTINUOUS
 10
124.2071360065
 20
73.097170098
 40
2.0
100
AcDbArc
 50
31.4863355456
 51
74.9999980504
  0
ARC
  5
575
100
AcDbEntity
  8
02___PRT_ALL_AXES
100
AcDbCircle
 62
7
  6
CONTINUOUS
 10
123.3440543762
 20
71.6022688115
 40
2.0
100
AcDbArc
 50
224.9999725643
 51
277.9988203301
  0
ARC
  5
576
100
AcDbEntity
  8
02___PRT_ALL_AXES
100
AcDbCircle
 62
7
  6
CONTINUOUS
 10
119.3842564571
 20
67.6424712322
 40
2.0
100
AcDbArc
 50
352.0011682327
 51
44.9999843532
  0
ARC
  5
577
100
AcDbEntity
  8
02___PRT_ALL_AXES
100
AcDbCircle
 62
7
  6
CONTINUOUS
 10
117.8893551401
 20
66.7793891912
 40
2.0
100
AcDbArc
 50
194.999941224
 51
247.9988203302
  0
ARC
  5
578
100
AcDbEntity
  8
02___PRT_ALL_AXES
100
AcDbCircle
 62
7
  6
CONTINUOUS
 10
112.4801706276
 20
65.3300026855
 40
2.0
100
AcDbArc
 50
322.0011743313
 51
14.9999944354
  0
ARC
  5
579
100
AcDbEntity
  8
02___PRT_ALL_AXES
100
AcDbCircle
 62
7
  6
CONTINUOUS
 10
123.9914576551
 20
66.9950675697
 40
1.3
100
AcDbArc
 50
47.9999419382
 51
221.9999697186
  0
ARC
  5
57A
100
AcDbEntity
  8
02___PRT_ALL_AXES
100
AcDbCircle
 62
7
  6
CONTINUOUS
 10
116.1464214892
 20
62.4657364394
 40
1.3
100
AcDbArc
 50
17.9999095768
 51
192.0000962341
  0
ARC
  5
57B
100
AcDbEntity
  8
02___PRT_ALL_AXES
100
AcDbCircle
 62
7
  6
CONTINUOUS
 10
128.5207908272
 20
74.8401030566
 40
1.3
100
AcDbArc
 50
31.1276202131
 51
298.8723797868
  0
ARC
  5
57C
100
AcDbEntity
  8
7_ALL_FEATURES
100
AcDbCircle
 62
3
  6
CONTINUOUS
 10
138.1170888672
 20
74.3694363459
 40
1.25
100
AcDbArc
 50
335.0
 51
360.0
  0
ARC
  5
57D
100
AcDbEntity
  8
7_ALL_FEATURES
100
AcDbCircle
 62
7
  6
CONTINUOUS
 10
138.1170888672
 20
74.3694363459
 40
1.0
100
AcDbArc
 50
335.0
 51
360.0
  0
ARC
  5
57E
100
AcDbEntity
  8
7_ALL_FEATURES
100
AcDbCircle
 62
7
  6
CONTINUOUS
 10
112.5053022722
 20
68.0022213419
 40
1.0
100
AcDbArc
 50
150.0128209078
 51
165.0
  0
ARC
  5
57F
100
AcDbEntity
  8
02___PRT_ALL_AXES
100
AcDbCircle
 62
7
  6
CONTINUOUS
 10
131.3136371026
 20
74.5531674335
 40
1.0
100
AcDbArc
 50
78.0000288725
 51
105.0000103253
  0
ARC
  5
580
100
AcDbEntity
  8
02___PRT_ALL_AXES
100
AcDbCircle
 62
7
  6
CONTINUOUS
 10
131.0829337891
 20
73.6921736571
 40
1.0
100
AcDbArc
 50
224.9999976773
 51
251.9999454399
  0
ARC
  5
581
100
AcDbEntity
  8
02___PRT_ALL_AXES
100
AcDbCircle
 62
7
  6
CONTINUOUS
 10
133.2214938373
 20
75.7833849176
 40
0.6
100
AcDbArc
 50
257.9998276836
 51
76.0001013795
  0
ARC
  5
582
100
AcDbEntity
  8
02___PRT_ALL_AXES
100
AcDbCircle
 62
7
  6
CONTINUOUS
 10
132.1200764029
 20
71.6728460546
 40
0.6
100
AcDbArc
 50
253.99996942
 51
72.0
  0
ARC
  5
583
100
AcDbEntity
  8
02___PRT_ALL_AXES
100
AcDbCircle
 62
7
  6
CONTINUOUS
 10
128.534037344
 20
65.4616126322
 40
0.6
100
AcDbArc
 50
227.9984587445
 51
46.0014897234
  0
ARC
  5
584
100
AcDbEntity
  8
02___PRT_ALL_AXES
100
AcDbCircle
 62
7
  6
CONTINUOUS
 10
125.524901781
 20
62.4524998633
 40
0.6
100
AcDbArc
 50
223.9997971831
 51
42.0
  0
ARC
  5
585
100
AcDbEntity
  8
02___PRT_ALL_AXES
100
AcDbCircle
 62
7
  6
CONTINUOUS
 10
119.3136828586
 20
58.8664374217
 40
0.6
100
AcDbArc
 50
197.9988565158
 51
16.0012008876
  0
ARC
  5
586
100
AcDbEntity
  8
02___PRT_ALL_AXES
100
AcDbCircle
 62
7
  6
CONTINUOUS
 10
115.2031399203
 20
57.7650331409
 40
0.6
100
AcDbArc
 50
193.999726671
 51
12.0
  0
ARC
  5
587
100
AcDbEntity
  8
02___PRT_ALL_AXES
100
AcDbCircle
 62
7
  6
CONTINUOUS
 10
130.061623197
 20
75.7706059359
 40
0.5
100
AcDbArc
 50
211.1276202132
 51
285.0
  0
ARC
  5
588
100
AcDbEntity
  8
02___PRT_ALL_AXES
100
AcDbCircle
 62
7
  6
CONTINUOUS
 10
129.3899393627
 20
73.2638477399
 40
0.5
100
AcDbArc
 50
45.000003123
 51
118.8723797868
  0
ARC
  5
589
100
AcDbEntity
  8
02___PRT_ALL_AXES
100
AcDbCircle
 62
7
  6
CONTINUOUS
 10
111.6170888672
 20
79.3694363459
 40
31.0
100
AcDbArc
 50
27.4721204369
 51
206.4666612906
  0
ARC
  5
58A
100
AcDbEntity
  8
02___PRT_ALL_AXES
100
AcDbCircle
 62
7
  6
CONTINUOUS
 10
111.6170888672
 20
79.3694363459
 40
31.0
100
AcDbArc
 50
207.4721204369
 51
26.4666612906
  0
CIRCLE
  5
58B
100
AcDbEntity
  8
02___PRT_ALL_AXES
100
AcDbCircle
 62
7
  6
CONTINUOUS
 10
111.6170888672
 20
79.3694363459
 40
27.5
  0
CIRCLE
  5
58C
100
AcDbEntity
  8
02___PRT_ALL_AXES
100
AcDbCircle
 62
7
  6
CONTINUOUS
 10
111.6170888672
 20
79.3694363459
 40
26.0
  0
ARC
  5
58D
100
AcDbEntity
  8
7_ALL_FEATURES
100
AcDbCircle
 62
7
  6
CONTINUOUS
 10
111.6170888672
 20
79.3694363459
 40
25.75
100
AcDbArc
 50
183.3396444193
 51
356.6603555807
  0
ARC
  5
58E
100
AcDbEntity
  8
7_ALL_FEATURES
100
AcDbCircle
 62
7
  6
CONTINUOUS
 10
111.6170888672
 20
79.3694363459
 40
25.75
100
AcDbArc
 50
3.3396444193
 51
176.6603555807
  0
ARC
  5
58F
100
AcDbEntity
  8
7_ALL_FEATURES
100
AcDbCircle
 62
9
  6
CONTINUOUS
 10
111.6170888672
 20
79.3694363459
 40
25.7342764069
100
AcDbArc
 50
3.3416575683
 51
176.6583424318
  0
ARC
  5
590
100
AcDbEntity
  8
7_ALL_FEATURES
100
AcDbCircle
 62
9
  6
CONTINUOUS
 10
111.6170888672
 20
79.3694363459
 40
25.7342764069
100
AcDbArc
 50
183.3416575683
 51
356.6583424318
  0
ARC
  5
591
100
AcDbEntity
  8
7_ALL_FEATURES
100
AcDbCircle
 62
9
  6
CONTINUOUS
 10
111.6170888672
 20
79.3694363459
 40
25.5342840223
100
AcDbArc
 50
170.7900602305
 51
176.6321391
  0
ARC
  5
592
100
AcDbEntity
  8
7_ALL_FEATURES
100
AcDbCircle
 62
9
  6
CONTINUOUS
 10
111.6170888672
 20
79.3694363459
 40
25.5342840223
100
AcDbArc
 50
183.3678594922
 51
189.2099367266
  0
ARC
  5
593
100
AcDbEntity
  8
7_ALL_FEATURES
100
AcDbCircle
 62
9
  6
CONTINUOUS
 10
111.6170888672
 20
79.3694363459
 40
25.5342840223
100
AcDbArc
 50
191.294564257
 51
348.7054059424
  0
ARC
  5
594
100
AcDbEntity
  8
7_ALL_FEATURES
100
AcDbCircle
 62
9
  6
CONTINUOUS
 10
111.6170888672
 20
79.3694363459
 40
25.5342840223
100
AcDbArc
 50
350.7900602305
 51
356.6321391
  0
ARC
  5
595
100
AcDbEntity
  8
7_ALL_FEATURES
100
AcDbCircle
 62
9
  6
CONTINUOUS
 10
111.6170888672
 20
79.3694363459
 40
25.5342840223
100
AcDbArc
 50
3.3678594923
 51
9.2099367266
  0
ARC
  5
596
100
AcDbEntity
  8
7_ALL_FEATURES
100
AcDbCircle
 62
9
  6
CONTINUOUS
 10
111.6170888672
 20
79.3694363459
 40
25.5342840223
100
AcDbArc
 50
11.294564257
 51
168.7054059424
  0
ARC
  5
597
100
AcDbEntity
  8
7_ALL_FEATURES
100
AcDbCircle
 62
7
  6
CONTINUOUS
 10
111.6170888672
 20
79.3694363459
 40
25.0
100
AcDbArc
 50
201.8748327164
 51
338.1251672836
  0
ARC
  5
598
100
AcDbEntity
  8
7_ALL_FEATURES
100
AcDbCircle
 62
7
  6
CONTINUOUS
 10
111.6170888672
 20
79.3694363459
 40
25.0
100
AcDbArc
 50
21.8748327164
 51
158.1251672836
  0
ARC
  5
599
100
AcDbEntity
  8
02___PRT_ALL_AXES
100
AcDbCircle
 62
7
  6
CONTINUOUS
 10
111.6170888672
 20
79.3694363459
 40
24.75
100
AcDbArc
 50
191.6740483854
 51
200.379937879
  0
ARC
  5
59A
100
AcDbEntity
  8
02___PRT_ALL_AXES
100
AcDbCircle
 62
7
  6
CONTINUOUS
 10
111.6170888672
 20
79.3694363459
 40
24.75
100
AcDbArc
 50
159.6225035554
 51
168.325484058
  0
ARC
  5
59B
100
AcDbEntity
  8
02___PRT_ALL_AXES
100
AcDbCircle
 62
7
  6
CONTINUOUS
 10
111.6170888672
 20
79.3694363459
 40
24.75
100
AcDbArc
 50
11.6740483854
 51
20.379937879
  0
ARC
  5
59C
100
AcDbEntity
  8
02___PRT_ALL_AXES
100
AcDbCircle
 62
7
  6
CONTINUOUS
 10
111.6170888672
 20
79.3694363459
 40
24.75
100
AcDbArc
 50
339.6225035554
 51
348.325484058
  0
ARC
  5
59D
100
AcDbEntity
  8
7_ALL_FEATURES
100
AcDbCircle
 62
7
  6
CONTINUOUS
 10
111.6170888672
 20
79.3694363459
 40
11.5
100
AcDbArc
 50
52.074445713
 51
61.6589972658
  0
ARC
  5
59E
100
AcDbEntity
  8
02___PRT_ALL_AXES
100
AcDbCircle
 62
7
  6
CONTINUOUS
 10
111.6170888672
 20
79.3694363459
 40
11.5
100
AcDbArc
 50
352.1312461778
 51
7.8595890686
  0
ARC
  5
59F
100
AcDbEntity
  8
7_ALL_FEATURES
100
AcDbCircle
 62
7
  6
CONTINUOUS
 10
111.6170888672
 20
79.3694363459
 40
11.5
100
AcDbArc
 50
298.3410027342
 51
307.9213322617
  0
ARC
  5
5A0
100
AcDbEntity
  8
7_ALL_FEATURES
100
AcDbCircle
 62
7
  6
CONTINUOUS
 10
111.6170888672
 20
79.3694363459
 40
11.5
100
AcDbArc
 50
232.0517227758
 51
241.2177953194
  0
ARC
  5
5A1
100
AcDbEntity
  8
7_ALL_FEATURES
100
AcDbCircle
 62
7
  6
CONTINUOUS
 10
111.6170888672
 20
79.3694363459
 40
11.25
100
AcDbArc
 50
2.5435004726
 51
6.3294534583
  0
ARC
  5
5A2
100
AcDbEntity
  8
7_ALL_FEATURES
100
AcDbCircle
 62
7
  6
CONTINUOUS
 10
111.6170888672
 20
79.3694363459
 40
11.25
100
AcDbArc
 50
293.692253663
 51
306.3409750532
  0
ARC
  5
5A3
100
AcDbEntity
  8
7_ALL_FEATURES
100
AcDbCircle
 62
7
  6
CONTINUOUS
 10
122.3564981462
 20
79.8464985406
 40
0.5
100
AcDbArc
 50
345.0000000002
 51
2.5435004729
  0
ARC
  5
5A4
100
AcDbEntity
  8
02___PRT_ALL_AXES
100
AcDbCircle
 62
7
  6
CONTINUOUS
 10
121.0134644982
 20
84.7944363459
 40
1.75
100
AcDbArc
 50
0.0
 51
60.0000214799
  0
ARC
  5
5A5
100
AcDbEntity
  8
02___PRT_ALL_AXES
100
AcDbCircle
 62
7
  6
CONTINUOUS
 10
121.0134644982
 20
84.7944363459
 40
1.6
100
AcDbArc
 50
359.6471074035
 51
60.0000000004
  0
ARC
  5
5A6
100
AcDbEntity
  8
02___PRT_ALL_AXES
100
AcDbCircle
 62
7
  6
CONTINUOUS
 10
121.0134644982
 20
84.7944363459
 40
1.45
100
AcDbArc
 50
357.4788226937
 51
62.5750108227
  0
ARC
  5
5A7
100
AcDbEntity
  8
7_ALL_FEATURES
100
AcDbCircle
 62
7
  6
CONTINUOUS
 10
121.0134644982
 20
84.7944363459
 40
1.3
100
AcDbArc
 50
73.6089606308
 51
346.3910393692
  0
ARC
  5
5A8
100
AcDbEntity
  8
7_ALL_FEATURES
100
AcDbCircle
 62
7
  6
CONTINUOUS
 10
118.0699117419
 20
88.7696266071
 40
1.0
100
AcDbArc
 50
164.9999999996
 51
179.98717904
  0
ARC
  5
5A9
100
AcDbEntity
  8
7_ALL_FEATURES
100
AcDbCircle
 62
7
  6
CONTINUOUS
 10
122.2173177704
 20
87.7776346255
 40
0.75
100
AcDbArc
 50
135.0000062289
 51
237.6631338787
  0
ARC
  5
5AA
100
AcDbEntity
  8
7_ALL_FEATURES
100
AcDbCircle
 62
7
  6
CONTINUOUS
 10
121.5486976329
 20
86.721487329
 40
0.5
100
AcDbArc
 50
330.0
 51
57.6631338787
  0
ARC
  5
5AB
100
AcDbEntity
  8
7_ALL_FEATURES
100
AcDbCircle
 62
7
  6
CONTINUOUS
 10
121.4931899188
 20
86.425345148
 40
0.4
100
AcDbArc
 50
253.6089606308
 51
330.0
  0
ARC
  5
5AC
100
AcDbEntity
  8
7_ALL_FEATURES
100
AcDbCircle
 62
7
  6
CONTINUOUS
 10
111.6170889278
 20
92.9288782171
 40
2.7094418712
100
AcDbArc
 50
194.9999854868
 51
344.9999801389
  0
ARC
  5
5AD
100
AcDbEntity
  8
7_ALL_FEATURES
100
AcDbCircle
 62
7
  6
CONTINUOUS
 10
118.3968098553
 20
91.1122574372
 40
2.7094418712
100
AcDbArc
 50
165.0000003948
 51
314.9999986378
  0
ARC
  5
5AE
100
AcDbEntity
  8
02___PRT_ALL_AXES
100
AcDbCircle
 62
7
  6
CONTINUOUS
 10
116.1464221565
 20
96.2731383059
 40
2.7
100
AcDbArc
 50
155.2328576378
 51
225.0103004945
  0
ARC
  5
5AF
100
AcDbEntity
  8
02___PRT_ALL_AXES
100
AcDbCircle
 62
7
  6
CONTINUOUS
 10
116.1464221565
 20
96.2731383059
 40
2.7
100
AcDbArc
 50
284.9896995055
 51
354.7671423622
  0
ARC
  5
5B0
100
AcDbEntity
  8
02___PRT_ALL_AXES
100
AcDbCircle
 62
7
  6
CONTINUOUS
 10
112.4801705129
 20
93.4088701531
 40
2.0
100
AcDbArc
 50
344.9999954504
 51
28.5136636136
  0
ARC
  5
5B1
100
AcDbEntity
  8
02___PRT_ALL_AXES
100
AcDbCircle
 62
7
  6
CONTINUOUS
 10
117.8893551151
 20
91.9594834852
 40
2.0
100
AcDbArc
 50
121.4863355456
 51
164.9999980504
  0
ARC
  5
5B2
100
AcDbEntity
  8
02___PRT_ALL_AXES
100
AcDbCircle
 62
7
  6
CONTINUOUS
 10
119.3842564015
 20
91.0964018549
 40
2.0
100
AcDbArc
 50
314.9999725643
 51
7.99882033
  0
ARC
  5
5B3
100
AcDbEntity
  8
02___PRT_ALL_AXES
100
AcDbCircle
 62
7
  6
CONTINUOUS
 10
116.1464221565
 20
96.2731383059
 40
1.3
100
AcDbArc
 50
121.1276202132
 51
28.8723797868
  0
ARC
  5
5B4
100
AcDbEntity
  8
02___PRT_ALL_AXES
100
AcDbCircle
 62
7
  6
CONTINUOUS
 10
116.4333577796
 20
99.0659845813
 40
1.0
100
AcDbArc
 50
168.0000288724
 51
195.0000103253
  0
ARC
  5
5B5
100
AcDbEntity
  8
02___PRT_ALL_AXES
100
AcDbCircle
 62
7
  6
CONTINUOUS
 10
117.294351556
 20
98.8352812678
 40
1.0
100
AcDbArc
 50
314.9999976773
 51
341.9999454398
  0
ARC
  5
5B6
100
AcDbEntity
  8
02___PRT_ALL_AXES
100
AcDbCircle
 62
7
  6
CONTINUOUS
 10
115.2031402955
 20
100.9738413159
 40
0.6
100
AcDbArc
 50
347.9998276834
 51
166.0001013798
  0
ARC
  5
5B7
100
AcDbEntity
  8
02___PRT_ALL_AXES
100
AcDbCircle
 62
7
  6
CONTINUOUS
 10
119.3136791584
 20
99.8724238816
 40
0.6
100
AcDbArc
 50
343.99996942
 51
162.0
  0
ARC
  5
5B8
100
AcDbEntity
  8
02___PRT_ALL_AXES
100
AcDbCircle
 62
7
  6
CONTINUOUS
 10
115.2159192771
 20
97.8139706756
 40
0.5
100
AcDbArc
 50
301.1276202132
 51
15.0
  0
ARC
  5
5B9
100
AcDbEntity
  8
02___PRT_ALL_AXES
100
AcDbCircle
 62
7
  6
CONTINUOUS
 10
117.7226774731
 20
97.1422868414
 40
0.5
100
AcDbArc
 50
135.000003123
 51
208.8723797868
  0
ARC
  5
5BA
100
AcDbEntity
  8
02___PRT_ALL_AXES
100
AcDbCircle
 62
7
  6
CONTINUOUS
 10
128.5207908272
 20
83.8987696352
 40
2.6524652783
100
AcDbArc
 50
106.0
 51
157.99882033
  0
ARC
  5
5BB
100
AcDbEntity
  8
02___PRT_ALL_AXES
100
AcDbCircle
 62
7
  6
CONTINUOUS
 10
128.5207908272
 20
83.8987696352
 40
2.6524652783
100
AcDbArc
 50
232.0011796699
 51
284.0
  0
ARC
  5
5BC
100
AcDbEntity
  8
02___PRT_ALL_AXES
100
AcDbCircle
 62
7
  6
CONTINUOUS
 10
123.3440539808
 20
87.1366039358
 40
2.0
100
AcDbArc
 50
82.0011682329
 51
134.9999843532
  0
ARC
  5
5BD
100
AcDbEntity
  8
02___PRT_ALL_AXES
100
AcDbCircle
 62
7
  6
CONTINUOUS
 10
124.2071360219
 20
85.6417026188
 40
2.0
100
AcDbArc
 50
284.999941224
 51
337.9988203302
  0
ARC
  5
5BE
100
AcDbEntity
  8
02___PRT_ALL_AXES
100
AcDbCircle
 62
7
  6
CONTINUOUS
 10
125.6565225276
 20
80.2325181063
 40
2.0
100
AcDbArc
 50
52.0011743314
 51
104.9999944354
  0
ARC
  5
5BF
100
AcDbEntity
  8
02___PRT_ALL_AXES
100
AcDbCircle
 62
7
  6
CONTINUOUS
 10
128.5207887736
 20
83.8987689679
 40
1.3
100
AcDbArc
 50
107.9999095768
 51
282.0000962342
  0
ARC
  5
5C0
100
AcDbEntity
  8
7_ALL_FEATURES
100
AcDbCircle
 62
7
  6
CONTINUOUS
 10
124.1989166289
 20
84.3454047239
 40
0.75
100
AcDbArc
 50
182.3368662023
 51
284.9999934835
  0
ARC
  5
5C1
100
AcDbEntity
  8
02___PRT_ALL_AXES
100
AcDbCircle
 62
7
  6
CONTINUOUS
 10
132.1200877914
 20
87.0660303373
 40
0.6
100
AcDbArc
 50
287.998856516
 51
106.0012008875
  0
ARC
  5
5C2
100
AcDbEntity
  8
02___PRT_ALL_AXES
100
AcDbCircle
 62
7
  6
CONTINUOUS
 10
133.2214920722
 20
82.955487399
 40
0.6
100
AcDbArc
 50
283.999726671
 51
102.0
  0
ARC
  5
5C3
100
AcDbEntity
  8
7_ALL_FEATURES
100
AcDbCircle
 62
7
  6
CONTINUOUS
 10
122.9499561714
 20
84.2944363459
 40
0.5
100
AcDbArc
 50
2.3368662023
 51
90.0
  0
ARC
  5
5C4
100
AcDbEntity
  8
7_ALL_FEATURES
100
AcDbCircle
 62
7
  6
CONTINUOUS
 10
122.6657356624
 20
84.3944363459
 40
0.4
100
AcDbArc
 50
90.0
 51
166.3910393692
  0
ARC
  5
5C5
100
AcDbEntity
  8
02___PRT_ALL_AXES
100
AcDbCircle
 62
7
  6
CONTINUOUS
 10
123.991457538
 20
91.7438050166
 40
2.6524652783
100
AcDbArc
 50
136.0
 51
187.9988203302
  0
ARC
  5
5C6
100
AcDbEntity
  8
02___PRT_ALL_AXES
100
AcDbCircle
 62
7
  6
CONTINUOUS
 10
123.991457538
 20
91.7438050166
 40
2.6524652783
100
AcDbArc
 50
262.0011796699
 51
314.0
  0
ARC
  5
5C7
100
AcDbEntity
  8
02___PRT_ALL_AXES
100
AcDbCircle
 62
7
  6
CONTINUOUS
 10
123.9914576434
 20
91.7438051338
 40
1.3
100
AcDbArc
 50
137.9999419382
 51
311.9999697186
  0
ARC
  5
5C8
100
AcDbEntity
  8
02___PRT_ALL_AXES
100
AcDbCircle
 62
7
  6
CONTINUOUS
 10
125.5249125809
 20
96.2863848227
 40
0.6
100
AcDbArc
 50
317.9984587446
 51
136.0014897233
  0
ARC
  5
5C9
100
AcDbEntity
  8
02___PRT_ALL_AXES
100
AcDbCircle
 62
7
  6
CONTINUOUS
 10
128.5340253498
 20
93.2772492596
 40
0.6
100
AcDbArc
 50
313.9997971831
 51
132.0
  0
ARC
  5
5CA
100
AcDbEntity
  8
02___PRT_ALL_AXES
100
AcDbCircle
 62
7
  6
CONTINUOUS
 10
56.260985864
 20
189.5051071373
 40
27.9710028024
100
AcDbArc
 50
4.7462312447
 51
5.0118052566
  0
ARC
  5
5CB
100
AcDbEntity
  8
02___PRT_ALL_AXES
100
AcDbCircle
 62
7
  6
CONTINUOUS
 10
166.970339441
 20
189.5053506246
 40
27.9681400074
100
AcDbArc
 50
174.9881811366
 51
175.2537823042
  0
ARC
  5
5CC
100
AcDbEntity
  8
02___PRT_ALL_AXES
100
AcDbCircle
 62
7
  6
CONTINUOUS
 10
166.7021401417
 20
202.5468662932
 40
27.6989248815
100
AcDbArc
 50
180.0187442964
 51
185.1933750721
  0
ARC
  5
5CD
100
AcDbEntity
  8
02___PRT_ALL_AXES
100
AcDbCircle
 62
7
  6
CONTINUOUS
 10
56.6050265336
 20
189.5317779662
 40
27.6259351157
100
AcDbArc
 50
0.0124991465
 51
4.7501458203
  0
ARC
  5
5CE
100
AcDbEntity
  8
02___PRT_ALL_AXES
100
AcDbCircle
 62
7
  6
CONTINUOUS
 10
56.670489303
 20
204.5348085241
 40
27.5604668188
100
AcDbArc
 50
0.0062285737
 51
5.2106822086
  0
ARC
  5
5CF
100
AcDbEntity
  8
02___PRT_ALL_AXES
100
AcDbCircle
 62
7
  6
CONTINUOUS
 10
166.5616957673
 20
204.5351354215
 40
27.5584791541
100
AcDbArc
 50
174.7933685076
 51
179.9944506158
  0
ARC
  5
5D0
100
AcDbEntity
  8
02___PRT_ALL_AXES
100
AcDbCircle
 62
7
  6
CONTINUOUS
 10
56.672499639
 20
187.5404730631
 40
27.5584614821
100
AcDbArc
 50
354.7934287546
 51
359.9944520942
  0
ARC
  5
5D1
100
AcDbEntity
  8
02___PRT_ALL_AXES
100
AcDbCircle
 62
7
  6
CONTINUOUS
 10
56.7010632046
 20
202.5396424084
 40
27.5298978487
100
AcDbArc
 50
355.0926671459
 51
359.9961751134
  0
ARC
  5
5D2
100
AcDbEntity
  8
02___PRT_ALL_AXES
100
AcDbCircle
 62
7
  6
CONTINUOUS
 10
166.5230192992
 20
189.5361915533
 40
27.519802604
100
AcDbArc
 50
175.2407133238
 51
179.9966416657
  0
ARC
  5
5D3
100
AcDbEntity
  8
7_ALL_FEATURES
100
AcDbCircle
 62
7
  6
CONTINUOUS
 10
238.1677182799
 20
-49.8584612988
 40
250.0
100
AcDbArc
 50
90.2088329959
 51
93.7942753262
  0
ARC
  5
5D4
100
AcDbEntity
  8
7_ALL_FEATURES
100
AcDbCircle
 62
3
  6
CONTINUOUS
 10
291.3453124374
 20
-49.8584612988
 40
250.0
100
AcDbArc
 50
86.2057246738
 51
95.1609216981
  0
ARC
  5
5D5
100
AcDbEntity
  8
7_ALL_FEATURES
100
AcDbCircle
 62
3
  6
CONTINUOUS
 10
269.7565153587
 20
189.1685744957
 40
10.0
100
AcDbArc
 50
95.1609216981
 51
180.0
  0
ARC
  5
5D6
100
AcDbEntity
  8
02___PRT_ALL_AXES
100
AcDbCircle
 62
7
  6
CONTINUOUS
 10
261.17100695
 20
262.1089365664
 40
7.8298162806
100
AcDbArc
 50
233.8344706555
 51
244.8491948505
  0
ARC
  5
5D7
100
AcDbEntity
  8
02___PRT_ALL_AXES
100
AcDbCircle
 62
7
  6
CONTINUOUS
 10
261.1627896402
 20
250.4805352039
 40
7.8137757644
100
AcDbArc
 50
115.1394642997
 51
126.1768701943
  0
ARC
  5
5D8
100
AcDbEntity
  8
7_ALL_FEATURES
100
AcDbCircle
 62
7
  6
CONTINUOUS
 10
260.2982193567
 20
250.5482449471
 40
7.7398397397
100
AcDbArc
 50
95.1286631748
 51
115.4364036266
  0
ARC
  5
5D9
100
AcDbEntity
  8
7_ALL_FEATURES
100
AcDbCircle
 62
7
  6
CONTINUOUS
 10
260.2982193567
 20
262.0273642504
 40
7.7398397397
100
AcDbArc
 50
244.5635963734
 51
264.8713368252
  0
ARC
  5
5DA
100
AcDbEntity
  8
7_ALL_FEATURES
100
AcDbCircle
 62
7
  6
CONTINUOUS
 10
260.2935253819
 20
250.5818480764
 40
7.7059517162
100
AcDbArc
 50
92.7069354572
 51
95.1162365286
  0
ARC
  5
5DB
100
AcDbEntity
  8
7_ALL_FEATURES
100
AcDbCircle
 62
7
  6
CONTINUOUS
 10
260.2935253819
 20
261.993761121
 40
7.7059517162
100
AcDbArc
 50
264.8837634714
 51
267.2930645428
  0
ARC
  5
5DC
100
AcDbEntity
  8
7_ALL_FEATURES
100
AcDbCircle
 62
3
  6
CONTINUOUS
 10
269.6480420454
 20
183.1378045987
 40
5.0
100
AcDbArc
 50
270.0
 51
295.0
  0
CIRCLE
  5
5DD
100
AcDbEntity
  8
02___PRT_ALL_AXES
100
AcDbCircle
 62
7
  6
CONTINUOUS
 10
264.7565153587
 20
204.1378045987
 40
3.0
  0
CIRCLE
  5
5DE
100
AcDbEntity
  8
02___PRT_ALL_AXES
100
AcDbCircle
 62
7
  6
CONTINUOUS
 10
264.7565153587
 20
189.1378045987
 40
3.0
  0
ARC
  5
5DF
100
AcDbEntity
  8
02___PRT_ALL_AXES
100
AcDbCircle
 62
7
  6
CONTINUOUS
 10
264.7565153587
 20
202.5378045987
 40
2.5
100
AcDbArc
 50
181.1743161829
 51
358.8256998311
  0
ARC
  5
5E0
100
AcDbEntity
  8
7_ALL_FEATURES
100
AcDbCircle
 62
7
  6
CONTINUOUS
 10
221.7565153587
 20
197.5979437884
 40
2.0
100
AcDbArc
 50
93.7942753262
 51
245.0
  0
ARC
  5
5E1
100
AcDbEntity
  8
7_ALL_FEATURES
100
AcDbCircle
 62
3
  6
CONTINUOUS
 10
307.7565153587
 20
197.5979437884
 40
2.0
100
AcDbArc
 50
295.0
 51
86.2057246738
  0
ARC
  5
5E2
100
AcDbEntity
  8
02___PRT_ALL_AXES
100
AcDbCircle
 62
7
  6
CONTINUOUS
 10
255.5377581626
 20
256.277406762
 40
0.6393544383
100
AcDbArc
 50
223.9105280634
 51
230.2339738618
  0
ARC
  5
5E3
100
AcDbEntity
  8
02___PRT_ALL_AXES
100
AcDbCircle
 62
7
  6
CONTINUOUS
 10
255.5377581626
 20
256.2982024354
 40
0.6393544383
100
AcDbArc
 50
129.7660261381
 51
136.0894719366
  0
SPLINE
  5
5E4
100
AcDbEntity
  8
7_ALL_FEATURES
100
AcDbSpline
 62
7
  6
CONTINUOUS
 70
0
 71
3
 72
16
 73
12
 74
0
 42
0.0000001
 43
0.0000001
 44
0.0000000001
 40
0.0
 40
0.0
 40
0.0
 40
0.0
 40
0.0728329201
 40
0.1568437805
 40
0.2582086729
 40
0.378586976
 40
0.4456048285
 40
0.5166911799
 40
0.669186537
 40
0.8320206472
 40
1.0
 40
1.0
 40
1.0
 40
1.0
 10
134.4917110413
 20
178.1378045987
 30
0.0
 10
134.4634997779
 20
178.1378045987
 30
0.0
 10
134.4022958794
 20
178.1533629979
 30
0.0
 10
134.3216248244
 20
178.2154088998
 30
0.0
 10
134.2495819141
 20
178.310549096
 30
0.0
 10
134.1993685751
 20
178.4110347466
 30
0.0
 10
134.1637304945
 20
178.5046414469
 30
0.0
 10
134.1302230359
 20
178.6121699882
 30
0.0
 10
134.0977831786
 20
178.758579838
 30
0.0
 10
134.0743575135
 20
178.9445323376
 30
0.0
 10
134.0690927795
 20
179.0727391068
 30
0.0
 10
134.0690927795
 20
179.1378045987
 30
0.0
  0
SPLINE
  5
5E5
100
AcDbEntity
  8
7_ALL_FEATURES
100
AcDbSpline
 62
7
  6
CONTINUOUS
 70
0
 71
3
 72
16
 73
12
 74
0
 42
0.0000001
 43
0.0000001
 44
0.0000000001
 40
0.0
 40
0.0
 40
0.0
 40
0.0
 40
0.1679793528
 40
0.330813463
 40
0.4833088201
 40
0.5543951715
 40
0.621413024
 40
0.7417913271
 40
0.8431562195
 40
0.9271670799
 40
1.0
 40
1.0
 40
1.0
 40
1.0
 10
134.0690927795
 20
188.1685744957
 30
0.0
 10
134.0690927795
 20
188.2336399876
 30
0.0
 10
134.0743575135
 20
188.3618467568
 30
0.0
 10
134.0977831786
 20
188.5477992564
 30
0.0
 10
134.1302230359
 20
188.6942091062
 30
0.0
 10
134.1637304945
 20
188.8017376475
 30
0.0
 10
134.1993685751
 20
188.8953443478
 30
0.0
 10
134.2495819141
 20
188.9958299983
 30
0.0
 10
134.3216248244
 20
189.0909701946
 30
0.0
 10
134.4022958794
 20
189.1530160965
 30
0.0
 10
134.4634997779
 20
189.1685744957
 30
0.0
 10
134.4917110413
 20
189.1685744957
 30
0.0
  0
SPLINE
  5
5E6
100
AcDbEntity
  8
02___PRT_ALL_AXES
100
AcDbSpline
 62
7
  6
CONTINUOUS
 70
0
 71
3
 72
16
 73
12
 74
0
 42
0.0000001
 43
0.0000001
 44
0.0000000001
 40
0.0
 40
0.0
 40
0.0
 40
0.0
 40
0.0326701873
 40
0.0666088973
 40
0.1423827251
 40
0.2340494393
 40
0.3450201935
 40
0.4768454121
 40
0.6300782211
 40
0.8046763661
 40
1.0
 40
1.0
 40
1.0
 40
1.0
 10
108.0553120726
 20
254.2878130954
 30
0.0
 10
108.0354223782
 20
254.2878130954
 30
0.0
 10
107.9947589073
 20
254.2920339063
 30
0.0
 10
107.9115412187
 20
254.3179984288
 30
0.0
 10
107.8070006828
 20
254.3860253593
 30
0.0
 10
107.6909831202
 20
254.5108722761
 30
0.0
 10
107.5778154678
 20
254.6809113729
 30
0.0
 10
107.4676654271
 20
254.8957763207
 30
0.0
 10
107.3608526976
 20
255.1546878741
 30
0.0
 10
107.2580625907
 20
255.4563072102
 30
0.0
 10
107.1959996197
 20
255.6728854062
 30
0.0
 10
107.165438084
 20
255.7878045987
 30
0.0
  0
SPLINE
  5
5E7
100
AcDbEntity
  8
02___PRT_ALL_AXES
100
AcDbSpline
 62
7
  6
CONTINUOUS
 70
0
 71
3
 72
16
 73
12
 74
0
 42
0.0000001
 43
0.0000001
 44
0.0000000001
 40
0.0
 40
0.0
 40
0.0
 40
0.0
 40
0.1953236339
 40
0.3699217789
 40
0.5231545879
 40
0.6549798065
 40
0.7659505607
 40
0.8576172749
 40
0.9333911027
 40
0.9673298127
 40
1.0
 40
1.0
 40
1.0
 40
1.0
 10
107.165438084
 20
256.7878045987
 30
0.0
 10
107.1959996197
 20
256.9027237912
 30
0.0
 10
107.2580625907
 20
257.1193019872
 30
0.0
 10
107.3608526976
 20
257.4209213233
 30
0.0
 10
107.4676654271
 20
257.6798328768
 30
0.0
 10
107.5778154678
 20
257.8946978246
 30
0.0
 10
107.6909831202
 20
258.0647369213
 30
0.0
 10
107.8070006828
 20
258.1895838382
 30
0.0
 10
107.9115412187
 20
258.2576107687
 30
0.0
 10
107.9947589073
 20
258.2835752911
 30
0.0
 10
108.0354223782
 20
258.287796102
 30
0.0
 10
108.0553120726
 20
258.287796102
 30
0.0
  0
SPLINE
  5
5E8
100
AcDbEntity
  8
02___PRT_ALL_AXES
100
AcDbSpline
 62
7
  6
CONTINUOUS
 70
0
 71
3
 72
19
 73
15
 74
0
 42
0.0000001
 43
0.0000001
 44
0.0000000001
 40
0.0
 40
0.0
 40
0.0
 40
0.0
 40
0.0344599213
 40
0.079081786
 40
0.1331895134
 40
0.1957387124
 40
0.3404334487
 40
0.5
 40
0.6595665513
 40
0.8042612876
 40
0.8668104866
 40
0.920918214
 40
0.9655400787
 40
1.0
 40
1.0
 40
1.0
 40
1.0
 10
109.2001661417
 20
257.1878045987
 30
0.0
 10
109.2106530562
 20
257.1696019457
 30
0.0
 10
109.2296404282
 20
257.1249896003
 30
0.0
 10
109.252805135
 20
257.047118883
 30
0.0
 10
109.2735823089
 20
256.950929677
 30
0.0
 10
109.2985494997
 20
256.7935230469
 30
0.0
 10
109.3188324239
 20
256.5705908214
 30
0.0
 10
109.3270006356
 20
256.2878045987
 30
0.0
 10
109.3188324239
 20
256.0050183761
 30
0.0
 10
109.2985494997
 20
255.7820861506
 30
0.0
 10
109.2735823089
 20
255.6246795204
 30
0.0
 10
109.252805135
 20
255.5284903145
 30
0.0
 10
109.2296404282
 20
255.4506195972
 30
0.0
 10
109.2106530562
 20
255.4060072517
 30
0.0
 10
109.2001661417
 20
255.3878045987
 30
0.0
  0
SPLINE
  5
5E9
100
AcDbEntity
  8
02___PRT_ALL_AXES
100
AcDbSpline
 62
7
  6
CONTINUOUS
 70
0
 71
3
 72
17
 73
13
 74
0
 42
0.0000001
 43
0.0000001
 44
0.0000000001
 40
0.0
 40
0.0
 40
0.0
 40
0.0
 40
0.0413986118
 40
0.090728175
 40
0.2098719931
 40
0.3495723905
 40
0.5
 40
0.6504276095
 40
0.7901280069
 40
0.909271825
 40
0.9586013882
 40
1.0
 40
1.0
 40
1.0
 40
1.0
 10
109.2001661417
 20
255.7123449162
 30
0.0
 10
109.2057130914
 20
255.7274029683
 30
0.0
 10
109.215973061
 20
255.7611001013
 30
0.0
 10
109.234189014
 20
255.8404236346
 30
0.0
 10
109.2514786933
 20
255.9587971876
 30
0.0
 10
109.2641112067
 20
256.1170061753
 30
0.0
 10
109.2684191755
 20
256.2878045987
 30
0.0
 10
109.2641112067
 20
256.4586030221
 30
0.0
 10
109.2514786933
 20
256.6168120098
 30
0.0
 10
109.234189014
 20
256.7351855629
 30
0.0
 10
109.215973061
 20
256.8145090962
 30
0.0
 10
109.2057130914
 20
256.8482062292
 30
0.0
 10
109.2001661417
 20
256.8632642812
 30
0.0
  0
SPLINE
  5
5EA
100
AcDbEntity
  8
02___PRT_ALL_AXES
100
AcDbSpline
 62
7
  6
CONTINUOUS
 70
0
 71
3
 72
16
 73
12
 74
0
 42
0.0000001
 43
0.0000001
 44
0.0000000001
 40
0.0
 40
0.0
 40
0.0
 40
0.0
 40
0.0326701873
 40
0.0666088973
 40
0.1423827251
 40
0.2340494393
 40
0.3450201935
 40
0.4768454121
 40
0.6300782211
 40
0.8046763661
 40
1.0
 40
1.0
 40
1.0
 40
1.0
 10
108.0553120726
 20
258.287796102
 30
0.0
 10
108.075201767
 20
258.287796102
 30
0.0
 10
108.1158652378
 20
258.2835752911
 30
0.0
 10
108.1990829265
 20
258.2576107687
 30
0.0
 10
108.3036234623
 20
258.1895838382
 30
0.0
 10
108.419641025
 20
258.0647369213
 30
0.0
 10
108.5328086774
 20
257.8946978246
 30
0.0
 10
108.642958718
 20
257.6798328768
 30
0.0
 10
108.7497714476
 20
257.4209213233
 30
0.0
 10
108.8525615545
 20
257.1193019872
 30
0.0
 10
108.9146245255
 20
256.9027237912
 30
0.0
 10
108.9451860612
 20
256.7878045987
 30
0.0
  0
SPLINE
  5
5EB
100
AcDbEntity
  8
02___PRT_ALL_AXES
100
AcDbSpline
 62
7
  6
CONTINUOUS
 70
0
 71
3
 72
16
 73
12
 74
0
 42
0.0000001
 43
0.0000001
 44
0.0000000001
 40
0.0
 40
0.0
 40
0.0
 40
0.0
 40
0.1953236339
 40
0.3699217789
 40
0.5231545879
 40
0.6549798065
 40
0.7659505607
 40
0.8576172749
 40
0.9333911027
 40
0.9673298127
 40
1.0
 40
1.0
 40
1.0
 40
1.0
 10
108.9451860612
 20
255.7878045987
 30
0.0
 10
108.9146245255
 20
255.6728854062
 30
0.0
 10
108.8525615545
 20
255.4563072102
 30
0.0
 10
108.7497714476
 20
255.1546878741
 30
0.0
 10
108.642958718
 20
254.8957763207
 30
0.0
 10
108.5328086774
 20
254.6809113729
 30
0.0
 10
108.419641025
 20
254.5108722761
 30
0.0
 10
108.3036234623
 20
254.3860253593
 30
0.0
 10
108.1990829265
 20
254.3179984288
 30
0.0
 10
108.1158652378
 20
254.2920339063
 30
0.0
 10
108.075201767
 20
254.2878130954
 30
0.0
 10
108.0553120726
 20
254.2878130954
 30
0.0
  0
LINE
  5
5EC
100
AcDbEntity
  8
02___PRT_ALL_AXES
100
AcDbLine
 62
7
  6
CONTINUOUS
 10
139.1169255987
 20
207.0360080058
 11
139.1170887861
 21
207.0378043713
  0
LINE
  5
5ED
100
AcDbEntity
  8
02___PRT_ALL_AXES
100
AcDbLine
 62
7
  6
CONTINUOUS
 10
84.1300462529
 20
200.1846127922
 11
84.118579119
 21
200.0542510212
  0
LINE
  5
5EE
100
AcDbEntity
  8
02___PRT_ALL_AXES
100
AcDbLine
 62
7
  6
CONTINUOUS
 10
139.1170887861
 20
200.0378048262
 11
139.1169229057
 21
200.0396308362
  0
SPLINE
  5
5EF
100
AcDbEntity
  8
7_ALL_FEATURES
100
AcDbSpline
 62
3
  6
CONTINUOUS
 70
0
 71
3
 72
9
 73
5
 74
0
 42
0.0000001
 43
0.0000001
 44
0.0000000001
 40
0.0
 40
0.0
 40
0.0
 40
0.0
 40
0.2396657116
 40
1.0
 40
1.0
 40
1.0
 40
1.0
 10
134.718287988
 20
189.1685744957
 30
0.0
 10
134.7090628206
 20
189.1685744957
 30
0.0
 10
134.6705557864
 20
189.1655826253
 30
0.0
 10
134.6336291114
 20
189.1501630386
 30
0.0
 10
134.6089063331
 20
189.134500322
 30
0.0
  0
SPLINE
  5
5F0
100
AcDbEntity
  8
7_ALL_FEATURES
100
AcDbSpline
 62
3
  6
CONTINUOUS
 70
0
 71
3
 72
9
 73
5
 74
0
 42
0.0000001
 43
0.0000001
 44
0.0000000001
 40
0.0
 40
0.0
 40
0.0
 40
0.0
 40
0.2275598845
 40
1.0
 40
1.0
 40
1.0
 40
1.0
 10
134.6089063331
 20
189.134500322
 30
0.0
 10
134.5997297911
 20
189.1286866721
 30
0.0
 10
134.5609753971
 20
189.1006470206
 30
0.0
 10
134.5287561888
 20
189.0643566143
 30
0.0
 10
134.5069788572
 20
189.0345998994
 30
0.0
  0
SPLINE
  5
5F1
100
AcDbEntity
  8
7_ALL_FEATURES
100
AcDbSpline
 62
3
  6
CONTINUOUS
 70
0
 71
3
 72
10
 73
6
 74
0
 42
0.0000001
 43
0.0000001
 44
0.0000000001
 40
0.0
 40
0.0
 40
0.0
 40
0.0
 40
0.2010621085
 40
0.442348661
 40
1.0
 40
1.0
 40
1.0
 40
1.0
 10
134.5069788572
 20
189.0345998994
 30
0.0
 10
134.4712627658
 20
188.9857971552
 30
0.0
 10
134.4091538781
 20
188.8664907937
 30
0.0
 10
134.3196287837
 20
188.5786320587
 30
0.0
 10
134.2956697263
 20
188.3363063706
 30
0.0
 10
134.2956697263
 20
188.1685744957
 30
0.0
  0
SPLINE
  5
5F2
100
AcDbEntity
  8
7_ALL_FEATURES
100
AcDbSpline
 62
3
  6
CONTINUOUS
 70
0
 71
3
 72
10
 73
6
 74
0
 42
0.0000001
 43
0.0000001
 44
0.0000000001
 40
0.0
 40
0.0
 40
0.0
 40
0.0
 40
0.557651339
 40
0.7989378915
 40
1.0
 40
1.0
 40
1.0
 40
1.0
 10
134.2956697263
 20
179.1378045987
 30
0.0
 10
134.2956697263
 20
178.9700727237
 30
0.0
 10
134.3196287837
 20
178.7277470357
 30
0.0
 10
134.4091538781
 20
178.4398883006
 30
0.0
 10
134.4712627658
 20
178.3205819392
 30
0.0
 10
134.5069788572
 20
178.2717791949
 30
0.0
  0
SPLINE
  5
5F3
100
AcDbEntity
  8
7_ALL_FEATURES
100
AcDbSpline
 62
3
  6
CONTINUOUS
 70
0
 71
3
 72
11
 73
7
 74
0
 42
0.0000001
 43
0.0000001
 44
0.0000000001
 40
0.0
 40
0.0
 40
0.0
 40
0.0
 40
0.2940317224
 40
0.5532590096
 40
0.7847161255
 40
1.0
 40
1.0
 40
1.0
 40
1.0
 10
134.5069788572
 20
178.2717791949
 30
0.0
 10
134.5219749239
 20
178.2512884531
 30
0.0
 10
134.5528437377
 20
178.2145180012
 30
0.0
 10
134.6054752447
 20
178.1710637383
 30
0.0
 10
134.6609107544
 20
178.1440989568
 30
0.0
 10
134.6996965135
 20
178.1378045987
 30
0.0
 10
134.718287988
 20
178.1378045987
 30
0.0
  0
SPLINE
  5
5F4
100
AcDbEntity
  8
02___PRT_ALL_AXES
100
AcDbSpline
 62
7
  6
CONTINUOUS
 70
0
 71
3
 72
11
 73
7
 74
0
 42
0.0000001
 43
0.0000001
 44
0.0000000001
 40
0.0
 40
0.0
 40
0.0
 40
0.0
 40
0.2494732163
 40
0.4991727309
 40
0.7492884072
 40
1.0
 40
1.0
 40
1.0
 40
1.0
 10
259.6020075095
 20
254.2878130954
 30
0.0
 10
260.0089313573
 20
254.2878130954
 30
0.0
 10
260.8246074595
 20
254.3525542162
 30
0.0
 10
262.0171980249
 20
254.6415943841
 30
0.0
 10
263.1513802051
 20
255.1152607222
 30
0.0
 10
263.8498579878
 20
255.546488576
 30
0.0
 10
264.1800119093
 20
255.7878045987
 30
0.0
  0
SPLINE
  5
5F5
100
AcDbEntity
  8
02___PRT_ALL_AXES
100
AcDbSpline
 62
7
  6
CONTINUOUS
 70
0
 71
3
 72
17
 73
13
 74
0
 42
0.0000001
 43
0.0000001
 44
0.0000000001
 40
0.0
 40
0.0
 40
0.0
 40
0.0
 40
0.1239650816
 40
0.1863763099
 40
0.2489695974
 40
0.3742794104
 40
0.5
 40
0.6257205896
 40
0.7510304026
 40
0.8136236901
 40
0.8760349184
 40
1.0
 40
1.0
 40
1.0
 40
1.0
 10
253.7122444276
 20
257.1878045987
 30
0.0
 10
253.620321174
 20
257.1567901077
 30
0.0
 10
253.4884341633
 20
257.0873540801
 30
0.0
 10
253.3416236686
 20
256.9583819898
 30
0.0
 10
253.2157691514
 20
256.8073252691
 30
0.0
 10
253.1045890747
 20
256.5837454468
 30
0.0
 10
253.0589607287
 20
256.2878045987
 30
0.0
 10
253.1045890747
 20
255.9918637507
 30
0.0
 10
253.2157691514
 20
255.7682839284
 30
0.0
 10
253.3416236686
 20
255.6172272076
 30
0.0
 10
253.4884341633
 20
255.4882551173
 30
0.0
 10
253.620321174
 20
255.4188190897
 30
0.0
 10
253.7122444276
 20
255.3878045987
 30
0.0
  0
SPLINE
  5
5F6
100
AcDbEntity
  8
02___PRT_ALL_AXES
100
AcDbSpline
 62
7
  6
CONTINUOUS
 70
0
 71
3
 72
11
 73
7
 74
0
 42
0.0000001
 43
0.0000001
 44
0.0000000001
 40
0.0
 40
0.0
 40
0.0
 40
0.0
 40
0.2507115928
 40
0.5008272691
 40
0.7505267837
 40
1.0
 40
1.0
 40
1.0
 40
1.0
 10
264.1800119093
 20
256.7878045987
 30
0.0
 10
263.8498579878
 20
257.0291206215
 30
0.0
 10
263.1513802051
 20
257.4603484753
 30
0.0
 10
262.0171980249
 20
257.9340148134
 30
0.0
 10
260.8246074595
 20
258.2230549812
 30
0.0
 10
260.0089313573
 20
258.287796102
 30
0.0
 10
259.6020075095
 20
258.287796102
 30
0.0
  0
SPLINE
  5
5F7
100
AcDbEntity
  8
02___PRT_ALL_AXES
100
AcDbSpline
 62
7
  6
CONTINUOUS
 70
0
 71
3
 72
11
 73
7
 74
0
 42
0.0000001
 43
0.0000001
 44
0.0000000001
 40
0.0
 40
0.0
 40
0.0
 40
0.0
 40
0.2493844497
 40
0.5
 40
0.7506155503
 40
1.0
 40
1.0
 40
1.0
 40
1.0
 10
255.0771520807
 20
255.833992582
 30
0.0
 10
255.0197231044
 20
255.8936439011
 30
0.0
 10
254.9270716375
 20
256.0372348528
 30
0.0
 10
254.8791536926
 20
256.2878045987
 30
0.0
 10
254.9270716375
 20
256.5383743446
 30
0.0
 10
255.0197231044
 20
256.6819652963
 30
0.0
 10
255.0771520807
 20
256.7416166154
 30
0.0
  0
SPLINE
  5
5F8
100
AcDbEntity
  8
02___PRT_ALL_AXES
100
AcDbSpline
 62
7
  6
CONTINUOUS
 70
0
 71
3
 72
11
 73
7
 74
0
 42
0.0000001
 43
0.0000001
 44
0.0000000001
 40
0.0
 40
0.0
 40
0.0
 40
0.0
 40
0.2494732163
 40
0.4991727309
 40
0.7492884072
 40
1.0
 40
1.0
 40
1.0
 40
1.0
 10
259.6020075095
 20
258.287796102
 30
0.0
 10
259.1950836617
 20
258.287796102
 30
0.0
 10
258.3794075595
 20
258.2230549812
 30
0.0
 10
257.186816994
 20
257.9340148134
 30
0.0
 10
256.0526348138
 20
257.4603484753
 30
0.0
 10
255.3541570311
 20
257.0291206215
 30
0.0
 10
255.0240031097
 20
256.7878045987
 30
0.0
  0
SPLINE
  5
5F9
100
AcDbEntity
  8
02___PRT_ALL_AXES
100
AcDbSpline
 62
7
  6
CONTINUOUS
 70
0
 71
3
 72
15
 73
11
 74
0
 42
0.0000001
 43
0.0000001
 44
0.0000000001
 40
0.0
 40
0.0
 40
0.0
 40
0.0
 40
0.1241774907
 40
0.2489771111
 40
0.374327853
 40
0.5
 40
0.625672147
 40
0.7510228889
 40
0.8758225093
 40
1.0
 40
1.0
 40
1.0
 40
1.0
 10
253.7122444276
 20
255.7123449162
 30
0.0
 10
253.66084265
 20
255.7394683717
 30
0.0
 10
253.5648355902
 20
255.8085402679
 30
0.0
 10
253.4543294945
 20
255.9471556915
 30
0.0
 10
253.3845476799
 20
256.1109751063
 30
0.0
 10
253.3607283702
 20
256.2878045987
 30
0.0
 10
253.3845476799
 20
256.4646340912
 30
0.0
 10
253.4543294945
 20
256.628453506
 30
0.0
 10
253.5648355902
 20
256.7670689295
 30
0.0
 10
253.66084265
 20
256.8361408258
 30
0.0
 10
253.7122444276
 20
256.8632642812
 30
0.0
  0
SPLINE
  5
5FA
100
AcDbEntity
  8
02___PRT_ALL_AXES
100
AcDbSpline
 62
7
  6
CONTINUOUS
 70
0
 71
3
 72
11
 73
7
 74
0
 42
0.0000001
 43
0.0000001
 44
0.0000000001
 40
0.0
 40
0.0
 40
0.0
 40
0.0
 40
0.2507115928
 40
0.5008272691
 40
0.7505267837
 40
1.0
 40
1.0
 40
1.0
 40
1.0
 10
255.0240031097
 20
255.7878045987
 30
0.0
 10
255.3541570311
 20
255.546488576
 30
0.0
 10
256.0526348138
 20
255.1152607222
 30
0.0
 10
257.186816994
 20
254.6415943841
 30
0.0
 10
258.3794075595
 20
254.3525542162
 30
0.0
 10
259.1950836617
 20
254.2878130954
 30
0.0
 10
259.6020075095
 20
254.2878130954
 30
0.0
  0
SPLINE
  5
5FB
100
AcDbEntity
  8
7_ALL_FEATURES
100
AcDbSpline
 62
3
  6
CONTINUOUS
 70
0
 71
3
 72
13
 73
9
 74
0
 42
0.0000001
 43
0.0000001
 44
0.0000000001
 40
0.0
 40
0.0
 40
0.0
 40
0.0
 40
0.2605656707
 40
0.5146750406
 40
0.6388230001
 40
0.7606860915
 40
0.8808688468
 40
1.0
 40
1.0
 40
1.0
 40
1.0
 10
248.6037035859
 20
179.1378045987
 30
0.0
 10
248.6037035859
 20
179.0081778025
 30
0.0
 10
248.6492489911
 20
178.7498484911
 30
0.0
 10
248.8165930225
 20
178.4703032261
 30
0.0
 10
249.0018539329
 20
178.3020342531
 30
0.0
 10
249.1597448446
 20
178.2084808064
 30
0.0
 10
249.3313013353
 20
178.1508561054
 30
0.0
 10
249.4507457388
 20
178.1378045987
 30
0.0
 10
249.510011373
 20
178.1378045987
 30
0.0
  0
SPLINE
  5
5FC
100
AcDbEntity
  8
7_ALL_FEATURES
100
AcDbSpline
 62
3
  6
CONTINUOUS
 70
0
 71
3
 72
13
 73
9
 74
0
 42
0.0000001
 43
0.0000001
 44
0.0000000001
 40
0.0
 40
0.0
 40
0.0
 40
0.0
 40
0.1191311532
 40
0.2393139085
 40
0.3611769999
 40
0.4853249594
 40
0.7394343293
 40
1.0
 40
1.0
 40
1.0
 40
1.0
 10
249.510011373
 20
189.1685744957
 30
0.0
 10
249.4507457388
 20
189.1685744957
 30
0.0
 10
249.3313013353
 20
189.155522989
 30
0.0
 10
249.1597448446
 20
189.097898288
 30
0.0
 10
249.0018539329
 20
189.0043448413
 30
0.0
 10
248.8165930225
 20
188.8360758683
 30
0.0
 10
248.6492489911
 20
188.5565306032
 30
0.0
 10
248.6037035859
 20
188.2982012919
 30
0.0
 10
248.6037035859
 20
188.1685744957
 30
0.0
  0
ENDSEC
  0
SECTION
  2
OBJECTS
  0
DICTIONARY
  5
C
100
AcDbDictionary
280
0
281
1
  3
ACAD_GROUP
350
D
  3
ACAD_MLINESTYLE
350
17
  3
ACAD_LAYOUT
350
1A
  3
ACAD_PLOTSETTINGS
350
19
  3
ACAD_PLOTSTYLENAME
350
E
  3
ACAD_TABLESTYLE
350
       5FD
  0
DICTIONARY
  5
D
102
{ACAD_REACTORS
330
C
102
}
100
AcDbDictionary
280
0
281
1
  0
ACDBDICTIONARYWDFLT
  5
E
102
{ACAD_REACTORS
330
C
102
}
100
AcDbDictionary
281
1
  3
Normal
350
F
100
AcDbDictionaryWithDefault
340
F
  0
DICTIONARY
  5
17
102
{ACAD_REACTORS
330
C
102
}
100
AcDbDictionary
280
0
281
1
  3
Standard
350
18
  0
DICTIONARY
  5
5FD
330
C
100
AcDbDictionary
281
1
  3
Standard
350
       600
  3
Standard1
350
       601
  0
DICTIONARY
  5
19
102
{ACAD_REACTORS
330
C
102
}
100
AcDbDictionary
281
1
  0
DICTIONARY
  5
1A
102
{ACAD_REACTORS
330
C
102
}
100
AcDbDictionary
281
1
  3
Model
350
5FE
  3
Layout1
350
5FF
  0
ACDBPLACEHOLDER
  5
F
102
{ACAD_REACTORS
330
E
102
}
  0
MLINESTYLE
  5
18
102
{ACAD_REACTORS
330
17
102
}
100
AcDbMlineStyle
  2
STANDARD
 70
0
  3

 62
256
 51
90.0
 52
90.0
 71
2
 49
0.5
 62
256
  6
BYLAYER
 49
-0.5
 62
256
  6
BYLAYER
  0
LAYOUT
  5
5FE
102
{ACAD_REACTORS
330
1A
102
}
100
AcDbPlotSettings
  1

  2
none_device
  4
ISO_A3_(420.00_x_297.00_MM)
  6

 40
0.0
 41
0.0
 42
0.0
 43
0.0
 44
420.0
 45
297.0
 46
0.0
 47
0.0
 48
0.0
 49
0.0
140
0.0
141
0.0
142
1.0
143
1.0
 70
1024
 72
1
 73
0
 74
0
  7

 75
0
147
1.0
148
0.0
149
0.0
100
AcDbLayout
  1
Model
 70
0
 71
0
 10
0.0
 20
0.0
 11
420.0
 21
297.0
 12
0.0
 22
0.0
 32
0.0
 14
0.0
 24
0.0
 34
0.0
 15
0.0
 25
0.0
 35
0.0
146
0.0
 13
0.0
 23
0.0
 33
0.0
 16
1.0
 26
0.0
 36
0.0
 17
0.0
 27
1.0
 37
0.0
 76
0
330
220
345
0
346
0
  0
LAYOUT
  5
5FF
102
{ACAD_REACTORS
330
1A
102
}
100
AcDbPlotSettings
  1

  2
none_device
  4
ISO_A3_(420.00_x_297.00_MM)
  6

 40
0.0
 41
0.0
 42
0.0
 43
0.0
 44
420.0
 45
297.0
 46
0.0
 47
0.0
 48
0.0
 49
0.0
140
0.0
141
0.0
142
1.0
143
1.0
 70
0
 72
1
 73
0
 74
0
  7

 75
0
147
1.0
148
0.0
149
0.0
100
AcDbLayout
  1
Layout1
 70
0
 71
1
 10
0.0
 20
0.0
 11
420.0
 21
297.0
 12
0.0
 22
0.0
 32
0.0
 14
0.0
 24
0.0
 34
0.0
 15
0.0
 25
0.0
 35
0.0
146
0.0
 13
0.0
 23
0.0
 33
0.0
 16
1.0
 26
0.0
 36
0.0
 17
0.0
 27
1.0
 37
0.0
 76
0
330
221
345
0
346
0
  0
TABLESTYLE
  5
600
102
{ACAD_REACTORS
330
5FD
330
391
102
}
330
5FD
100
AcDbTableStyle
  3
Standard
 70
0
 71
0
 40
0.06
 41
0.06
280
1
281
1
  7
Standard
140
0.18
170
1
 62
0
 63
7
283
0
  7
Standard
140
0.18
170
1
 62
0
 63
7
283
0
  7
Standard
140
0.18
170
1
 62
0
 63
7
283
0
  0
TABLESTYLE
  5
601
102
{ACAD_REACTORS
330
5FD
102
}
330
5FD
100
AcDbTableStyle
  3
Standard1
 70
1
 71
0
 40
0.06
 41
0.06
280
1
281
1
  7
Standard
140
0.18
170
1
 62
0
 63
7
283
0
  7
Standard
140
0.18
170
1
 62
0
 63
7
283
0
  7
Standard
140
0.18
170
1
 62
0
 63
7
283
0
  0
ENDSEC
  0
EOF
