  0
SECTION
  2
HEADER
  9
$ACADVER
  1
AC1027
  9
$ACADMAINTVER
 70
     8
  9
$DWGCODEPAGE
  3
ANSI_1252
  9
$REQUIREDVERSIONS
160
                 0
  9
$INSBASE
 10
0.0
 20
0.0
 30
0.0
  9
$EXTMIN
 10
0.0
 20
0.0
 30
0.0
  9
$EXTMAX
 10
4266.666667
 20
3333.333333
 30
0.0
  9
$LIMMIN
 10
0.0
 20
0.0
  9
$LIMMAX
 10
4266.666667
 20
3333.333333
  9
$ORTHOMODE
 70
     0
  9
$REGENMODE
 70
     1
  9
$FILLMODE
 70
     1
  9
$QTEXTMODE
 70
     0
  9
$MIRRTEXT
 70
     1
  9
$LTSCALE
 40
234.666667
  9
$ATTMODE
 70
     1
  9
$TEXTSIZE
 40
0.2
  9
$TRACEWID
 40
0.05
  9
$TEXTSTYLE
  7
STANDARD
  9
$CLAYER
  8
0
  9
$CELTYPE
  6
BYLAYER
  9
$CECOLOR
 62
   256
  9
$CELTSCALE
 40
1.0
  9
$DISPSILH
 70
     0
  9
$DIMSCALE
 40
1.0
  9
$DIMASZ
 40
3.333333
  9
$DIMEXO
 40
0.75
  9
$DIMDLI
 40
162.133333
  9
$DIMRND
 40
0.0
  9
$DIMDLE
 40
0.0
  9
$DIMEXE
 40
0.75
  9
$DIMTP
 40
0.01
  9
$DIMTM
 40
0.01
  9
$DIMTXT
 40
4.0
  9
$DIMCEN
 40
38.4
  9
$DIMTSZ
 40
0.0
  9
$DIMTOL
 70
     1
  9
$DIMLIM
 70
     0
  9
$DIMTIH
 70
     1
  9
$DIMTOH
 70
     1
  9
$DIMSE1
 70
     0
  9
$DIMSE2
 70
     0
  9
$DIMTAD
 70
     0
  9
$DIMZIN
 70
     0
  9
$DIMBLK
  1
CLOSED
  9
$DIMASO
 70
     1
  9
$DIMSHO
 70
     1
  9
$DIMPOST
  1

  9
$DIMAPOST
  1

  9
$DIMALT
 70
     0
  9
$DIMALTD
 70
     2
  9
$DIMALTF
 40
25.4
  9
$DIMLFAC
 40
1.0
  9
$DIMTOFL
 70
     0
  9
$DIMTVP
 40
0.0
  9
$DIMTIX
 70
     0
  9
$DIMSOXD
 70
     0
  9
$DIMSAH
 70
     0
  9
$DIMBLK1
  1

  9
$DIMBLK2
  1

  9
$DIMSTYLE
  2
STANDARD
  9
$DIMCLRD
 70
     0
  9
$DIMCLRE
 70
     0
  9
$DIMCLRT
 70
     0
  9
$DIMTFAC
 40
1.0
  9
$DIMGAP
 40
0.625
  9
$DIMJUST
 70
     0
  9
$DIMSD1
 70
     0
  9
$DIMSD2
 70
     0
  9
$DIMTOLJ
 70
     1
  9
$DIMTZIN
 70
     0
  9
$DIMALTZ
 70
     0
  9
$DIMALTTZ
 70
     0
  9
$DIMUPT
 70
     0
  9
$DIMDEC
 70
     4
  9
$DIMTDEC
 70
     4
  9
$DIMALTU
 70
     2
  9
$DIMALTTD
 70
     2
  9
$DIMTXSTY
  7
STANDARD
  9
$DIMAUNIT
 70
     0
  9
$DIMADEC
 70
     0
  9
$DIMALTRND
 40
0.0
  9
$DIMAZIN
 70
     0
  9
$DIMDSEP
 70
    44
  9
$DIMATFIT
 70
     3
  9
$DIMFRAC
 70
     0
  9
$DIMLDRBLK
  1

  9
$DIMLUNIT
 70
     2
  9
$DIMLWD
 70
    -2
  9
$DIMLWE
 70
    -2
  9
$DIMTMOVE
 70
     0
  9
$DIMFXL
 40
1.0
  9
$DIMFXLON
 70
     0
  9
$DIMJOGANG
 40
0.785398
  9
$DIMTFILL
 70
     0
  9
$DIMTFILLCLR
 70
     0
  9
$DIMARCSYM
 70
     0
  9
$DIMLTYPE
  6

  9
$DIMLTEX1
  6

  9
$DIMLTEX2
  6

  9
$DIMTXTDIRECTION
 70
     0
  9
$LUNITS
 70
     2
  9
$LUPREC
 70
     4
  9
$SKETCHINC
 40
0.1
  9
$FILLETRAD
 40
0.5
  9
$AUNITS
 70
     0
  9
$AUPREC
 70
     0
  9
$MENU
  1
.
  9
$ELEVATION
 40
0.0
  9
$PELEVATION
 40
0.0
  9
$THICKNESS
 40
0.0
  9
$LIMCHECK
 70
     0
  9
$CHAMFERA
 40
0.0
  9
$CHAMFERB
 40
0.0
  9
$CHAMFERC
 40
0.0
  9
$CHAMFERD
 40
0.0
  9
$SKPOLY
 70
     0
  9
$TDCREATE
 40
2447893.083333333
  9
$TDUCREATE
 40
0.0
  9
$TDUPDATE
 40
2460208.457161076
  9
$TDUUPDATE
 40
2460208.373827743
  9
$TDINDWG
 40
0.0
  9
$TDUSRTIMER
 40
0.0
  9
$USRTIMER
 70
     1
  9
$ANGBASE
 50
0.0
  9
$ANGDIR
 70
     0
  9
$PDMODE
 70
     3
  9
$PDSIZE
 40
0.3125
  9
$PLINEWID
 40
0.0
  9
$SPLFRAME
 70
     0
  9
$SPLINETYPE
 70
     6
  9
$SPLINESEGS
 70
     8
  9
$HANDSEED
  5
4D2
  9
$SURFTAB1
 70
     6
  9
$SURFTAB2
 70
     6
  9
$SURFTYPE
 70
     6
  9
$SURFU
 70
     6
  9
$SURFV
 70
     6
  9
$UCSBASE
  2

  9
$UCSNAME
  2

  9
$UCSORG
 10
0.0
 20
0.0
 30
0.0
  9
$UCSXDIR
 10
1.0
 20
0.0
 30
0.0
  9
$UCSYDIR
 10
0.0
 20
1.0
 30
0.0
  9
$UCSORTHOREF
  2

  9
$UCSORTHOVIEW
 70
     0
  9
$UCSORGTOP
 10
0.0
 20
0.0
 30
0.0
  9
$UCSORGBOTTOM
 10
0.0
 20
0.0
 30
0.0
  9
$UCSORGLEFT
 10
0.0
 20
0.0
 30
0.0
  9
$UCSORGRIGHT
 10
0.0
 20
0.0
 30
0.0
  9
$UCSORGFRONT
 10
0.0
 20
0.0
 30
0.0
  9
$UCSORGBACK
 10
0.0
 20
0.0
 30
0.0
  9
$PUCSBASE
  2

  9
$PUCSNAME
  2

  9
$PUCSORG
 10
0.0
 20
0.0
 30
0.0
  9
$PUCSXDIR
 10
1.0
 20
0.0
 30
0.0
  9
$PUCSYDIR
 10
0.0
 20
1.0
 30
0.0
  9
$PUCSORTHOREF
  2

  9
$PUCSORTHOVIEW
 70
     0
  9
$PUCSORGTOP
 10
0.0
 20
0.0
 30
0.0
  9
$PUCSORGBOTTOM
 10
0.0
 20
0.0
 30
0.0
  9
$PUCSORGLEFT
 10
0.0
 20
0.0
 30
0.0
  9
$PUCSORGRIGHT
 10
0.0
 20
0.0
 30
0.0
  9
$PUCSORGFRONT
 10
0.0
 20
0.0
 30
0.0
  9
$PUCSORGBACK
 10
0.0
 20
0.0
 30
0.0
  9
$USERI1
 70
     0
  9
$USERI2
 70
     0
  9
$USERI3
 70
     0
  9
$USERI4
 70
     0
  9
$USERI5
 70
     0
  9
$USERR1
 40
0.0
  9
$USERR2
 40
0.0
  9
$USERR3
 40
0.0
  9
$USERR4
 40
0.0
  9
$USERR5
 40
0.0
  9
$WORLDVIEW
 70
     1
  9
$SHADEDGE
 70
     3
  9
$SHADEDIF
 70
    70
  9
$TILEMODE
 70
     1
  9
$MAXACTVP
 70
    64
  9
$PINSBASE
 10
0.0
 20
0.0
 30
0.0
  9
$PLIMCHECK
 70
     0
  9
$PEXTMIN
 10
1.000000E+20
 20
1.000000E+20
 30
1.000000E+20
  9
$PEXTMAX
 10
-1.000000E+20
 20
-1.000000E+20
 30
-1.000000E+20
  9
$PLIMMIN
 10
0.0
 20
0.0
  9
$PLIMMAX
 10
12.0
 20
9.0
  9
$UNITMODE
 70
     0
  9
$VISRETAIN
 70
     1
  9
$PLINEGEN
 70
     0
  9
$PSLTSCALE
 70
     0
  9
$TREEDEPTH
 70
  3020
  9
$CMLSTYLE
  2

  9
$CMLJUST
 70
     0
  9
$CMLSCALE
 40
1.0
  9
$PROXYGRAPHICS
 70
     1
  9
$MEASUREMENT
 70
     1
  9
$CELWEIGHT
370
    -1
  9
$ENDCAPS
280
     0
  9
$JOINSTYLE
280
     0
  9
$LWDISPLAY
290
     0
  9
$INSUNITS
 70
     4
  9
$HYPERLINKBASE
  1

  9
$STYLESHEET
  1

  9
$XEDIT
290
     1
  9
$CEPSNTYPE
380
     0
  9
$PSTYLEMODE
290
     1
  9
$FINGERPRINTGUID
  2
{27F8F5A1-635E-428E-8966-077E33175EC9}
  9
$VERSIONGUID
  2
{FAEB1C32-E019-11D5-929B-00C0DF256EC4}
  9
$EXTNAMES
290
     1
  9
$PSVPSCALE
 40
0.0
  9
$OLESTARTUP
290
     0
  9
$SORTENTS
280
   127
  9
$INDEXCTL
280
     0
  9
$HIDETEXT
280
     1
  9
$XCLIPFRAME
280
     2
  9
$HALOGAP
280
     0
  9
$OBSCOLOR
 70
   257
  9
$OBSLTYPE
280
     0
  9
$INTERSECTIONDISPLAY
280
     0
  9
$INTERSECTIONCOLOR
 70
   257
  9
$DIMASSOC
280
     2
  9
$PROJECTNAME
  1

  9
$CAMERADISPLAY
290
     0
  9
$LENSLENGTH
 40
50.0
  9
$CAMERAHEIGHT
 40
0.0
  9
$STEPSPERSEC
 40
2.0
  9
$STEPSIZE
 40
6.0
  9
$3DDWFPREC
 40
2.0
  9
$PSOLWIDTH
 40
0.25
  9
$PSOLHEIGHT
 40
4.0
  9
$LOFTANG1
 40
1.570796
  9
$LOFTANG2
 40
1.570796
  9
$LOFTMAG1
 40
0.0
  9
$LOFTMAG2
 40
0.0
  9
$LOFTPARAM
 70
     7
  9
$LOFTNORMALS
280
     1
  9
$LATITUDE
 40
37.795
  9
$LONGITUDE
 40
-122.394
  9
$NORTHDIRECTION
 40
0.0
  9
$TIMEZONE
 70
 -8000
  9
$LIGHTGLYPHDISPLAY
280
     1
  9
$TILEMODELIGHTSYNCH
280
     1
  9
$SOLIDHIST
280
     1
  9
$SHOWHIST
280
     1
  9
$DWFFRAME
280
     2
  9
$DGNFRAME
280
     2
  9
$REALWORLDSCALE
290
     1
  9
$INTERFERECOLOR
 62
   256
  9
$CSHADOW
280
     0
  9
$SHADOWPLANELOCATION
 40
0.0
  0
ENDSEC
  0
SECTION
  2
CLASSES
  0
CLASS
  1
ACDBDICTIONARYWDFLT
  2
AcDbDictionaryWithDefault
  3
ObjectDBX Classes
 90
        0
 91
        6
280
     0
281
     0
  0
CLASS
  1
ACDBPLACEHOLDER
  2
AcDbPlaceHolder
  3
ObjectDBX Classes
 90
        0
 91
        1
280
     0
281
     0
  0
CLASS
  1
LAYOUT
  2
AcDbLayout
  3
ObjectDBX Classes
 90
        0
 91
        1
280
     0
281
     0
  0
CLASS
  1
TABLESTYLE
  2
AcDbTableStyle
  3
ObjectDBX Classes
 90
     4095
 91
        5
280
     0
281
     0
  0
CLASS
  1
ACAD_TABLE
  2
AcDbTable
  3
ObjectDBX Classes
 90
     1025
 91
        5
280
     0
281
     1
  0
CLASS
  1
SCALE
  2
AcDbScale
  3
ObjectDBX Classes
 90
     1153
 91
        5
280
     0
281
     0
  0
CLASS
  1
TABLEGEOMETRY
  2
AcDbTableGeometry
  3
ObjectDBX Classes
 90
     1152
 91
        4
280
     0
281
     0
  0
CLASS
  1
VISUALSTYLE
  2
AcDbVisualStyle
  3
ObjectDBX Classes
 90
     4095
 91
        5
280
     0
281
     0
  0
CLASS
  1
MATERIAL
  2
AcDbMaterial
  3
ObjectDBX Classes
 90
     1153
 91
        5
280
     0
281
     0
  0
CLASS
  1
SUN
  2
AcDbSun
  3
SCENEOE
 90
     1153
 91
        5
280
     0
281
     0
  0
CLASS
  1
CSACDOCUMENTOPTIONS
  2
CDocDataContainer
  3
"DERU003_CSAPP"
 90
     4095
 91
        4
280
     0
281
     0
  0
CLASS
  1
TABLECONTENT
  2
AcDbTableContent
  3
ObjectDBX Classes
 90
     1152
 91
        4
280
     0
281
     0
  0
CLASS
  1
DICTIONARYVAR
  2
AcDbDictionaryVar
  3
ObjectDBX Classes
 90
        0
 91
        4
280
     0
281
     0
  0
CLASS
  1
CELLSTYLEMAP
  2
AcDbCellStyleMap
  3
ObjectDBX Classes
 90
     1152
 91
        4
280
     0
281
     0
  0
ENDSEC
  0
SECTION
  2
TABLES
  0
TABLE
  2
VPORT
  5
8
330
0
100
AcDbSymbolTable
 70
     1
  0
VPORT
  5
1F4
330
8
100
AcDbSymbolTableRecord
100
AcDbViewportTableRecord
  2
*ACTIVE
 70
     0
 10
0.0
 20
0.0
 11
1.0
 21
1.0
 12
2133.333333
 22
1666.666667
 13
0.0
 23
0.0
 14
1.0
 24
1.0
 15
0.0
 25
0.0
 16
0.0
 26
0.0
 36
1.0
 17
0.0
 27
0.0
 37
0.0
 40
3333.333333
 41
1.818286
 42
50.0
 43
0.0
 44
0.0
 50
0.0
 51
0.0
 71
    16
 72
   100
 73
     1
 74
     1
 75
     0
 76
     0
 77
     0
 78
     0
281
     0
 65
     1
110
0.0
120
0.0
130
0.0
111
1.0
121
0.0
131
0.0
112
0.0
122
1.0
132
0.0
 79
     0
146
0.0
 60
     3
 61
     5
292
     1
282
     1
141
0.0
142
0.0
 63
   256
361
4BD
  0
ENDTAB
  0
TABLE
  2
LTYPE
  5
5
330
0
100
AcDbSymbolTable
 70
     6
  0
LTYPE
  5
14
330
5
100
AcDbSymbolTableRecord
100
AcDbLinetypeTableRecord
  2
BYBLOCK
 70
     0
  3

 72
    65
 73
     0
 40
0.0
  0
LTYPE
  5
15
330
5
100
AcDbSymbolTableRecord
100
AcDbLinetypeTableRecord
  2
BYLAYER
 70
     0
  3

 72
    65
 73
     0
 40
0.0
  0
LTYPE
  5
16
330
5
100
AcDbSymbolTableRecord
100
AcDbLinetypeTableRecord
  2
CONTINUOUS
 70
     0
  3
Solid line
 72
    65
 73
     0
 40
0.0
  0
LTYPE
  5
1F5
330
5
100
AcDbSymbolTableRecord
100
AcDbLinetypeTableRecord
  2
CENTER
 70
     0
  3
____ _ ____ _ ____ _ ____ _ ____ _ ____ _ ____
 72
    65
 73
     4
 40
0.6
 49
0.375
 74
     0
 49
-0.075
 74
     0
 49
0.075
 74
     0
 49
-0.075
 74
     0
  0
LTYPE
  5
1F6
330
5
100
AcDbSymbolTableRecord
100
AcDbLinetypeTableRecord
  2
HIDDEN
 70
     0
  3
- - - - - - - - - - - - - - - - - - - -
 72
    65
 73
     2
 40
0.2
 49
0.1
 74
     0
 49
-0.1
 74
     0
  0
LTYPE
  5
1F7
330
5
100
AcDbSymbolTableRecord
100
AcDbLinetypeTableRecord
  2
PHANTOM
 70
     0
  3
_____ _ _ _____ _ _ _____ _ _ _____
 72
    65
 73
     6
 40
0.8
 49
0.45
 74
     0
 49
-0.05
 74
     0
 49
0.1
 74
     0
 49
-0.05
 74
     0
 49
0.1
 74
     0
 49
-0.05
 74
     0
  0
LTYPE
  5
1F8
330
5
100
AcDbSymbolTableRecord
100
AcDbLinetypeTableRecord
  2
DOT
 70
     0
  3
. . . . . . . . . . . . . . . . . . . .
 72
    65
 73
     2
 40
0.2
 49
0.1
 74
     0
 49
-0.1
 74
     0
  0
LTYPE
  5
1F9
330
5
100
AcDbSymbolTableRecord
100
AcDbLinetypeTableRecord
  2
DASHED
 70
     0
  3
- - - - - - - - - - - - - - - - - - - -
 72
    65
 73
     2
 40
0.2
 49
0.1
 74
     0
 49
-0.1
 74
     0
  0
ENDTAB
  0
TABLE
  2
LAYER
  5
2
330
0
100
AcDbSymbolTable
 70
    41
  0
LAYER
  5
10
330
2
100
AcDbSymbolTableRecord
100
AcDbLayerTableRecord
  2
0
 70
     0
 62
     7
  6
CONTINUOUS
370
    -3
390
F
347
4B7
348
0
  0
LAYER
  5
1FA
330
2
100
AcDbSymbolTableRecord
100
AcDbLayerTableRecord
  2
DEFAULT_1
 70
     0
 62
     7
  6
CENTER
370
    -3
390
F
347
4B7
348
0
  0
LAYER
  5
1FB
330
2
100
AcDbSymbolTableRecord
100
AcDbLayerTableRecord
  2
DEFAULT_2
 70
     0
 62
     8
  6
HIDDEN
370
    -3
390
F
347
4B7
348
0
  0
LAYER
  5
1FC
330
2
100
AcDbSymbolTableRecord
100
AcDbLayerTableRecord
  2
DEFAULT_3
 70
     0
 62
     7
  6
PHANTOM
370
    -3
390
F
347
4B7
348
0
  0
LAYER
  5
1FD
330
2
100
AcDbSymbolTableRecord
100
AcDbLayerTableRecord
  2
01_ALL_DTM_PLN
 70
     0
 62
     7
  6
CONTINUOUS
370
    -3
390
F
347
4B7
348
0
  0
LAYER
  5
1FE
330
2
100
AcDbSymbolTableRecord
100
AcDbLayerTableRecord
  2
01__ASM_ALL_DTM_PLN
 70
     0
 62
     7
  6
CONTINUOUS
370
    -3
390
F
347
4B7
348
0
  0
LAYER
  5
1FF
330
2
100
AcDbSymbolTableRecord
100
AcDbLayerTableRecord
  2
01__ASM_DEF_DTM_PLN
 70
     0
 62
     7
  6
CONTINUOUS
370
    -3
390
F
347
4B7
348
0
  0
LAYER
  5
200
330
2
100
AcDbSymbolTableRecord
100
AcDbLayerTableRecord
  2
01___PRT_ALL_DTM_PLN
 70
     0
 62
     7
  6
CONTINUOUS
370
    -3
390
F
347
4B7
348
0
  0
LAYER
  5
201
330
2
100
AcDbSymbolTableRecord
100
AcDbLayerTableRecord
  2
01___PRT_DEF_DTM_PLN
 70
     0
 62
     7
  6
CONTINUOUS
370
    -3
390
F
347
4B7
348
0
  0
LAYER
  5
202
330
2
100
AcDbSymbolTableRecord
100
AcDbLayerTableRecord
  2
02_ALL_AXES
 70
     0
 62
     7
  6
CONTINUOUS
370
    -3
390
F
347
4B7
348
0
  0
LAYER
  5
203
330
2
100
AcDbSymbolTableRecord
100
AcDbLayerTableRecord
  2
02__ASM_ALL_AXES
 70
     0
 62
     7
  6
CONTINUOUS
370
    -3
390
F
347
4B7
348
0
  0
LAYER
  5
204
330
2
100
AcDbSymbolTableRecord
100
AcDbLayerTableRecord
  2
02___PRT_ALL_AXES
 70
     0
 62
     7
  6
CONTINUOUS
370
    -3
390
F
347
4B7
348
0
  0
LAYER
  5
205
330
2
100
AcDbSymbolTableRecord
100
AcDbLayerTableRecord
  2
03_ALL_CURVES
 70
     0
 62
     7
  6
CONTINUOUS
370
    -3
390
F
347
4B7
348
0
  0
LAYER
  5
206
330
2
100
AcDbSymbolTableRecord
100
AcDbLayerTableRecord
  2
03__ASM_ALL_CURVES
 70
     0
 62
     7
  6
CONTINUOUS
370
    -3
390
F
347
4B7
348
0
  0
LAYER
  5
207
330
2
100
AcDbSymbolTableRecord
100
AcDbLayerTableRecord
  2
03___PRT_ALL_CURVES
 70
     0
 62
     7
  6
CONTINUOUS
370
    -3
390
F
347
4B7
348
0
  0
LAYER
  5
208
330
2
100
AcDbSymbolTableRecord
100
AcDbLayerTableRecord
  2
04_ALL_DTM_PNT
 70
     0
 62
     7
  6
CONTINUOUS
370
    -3
390
F
347
4B7
348
0
  0
LAYER
  5
209
330
2
100
AcDbSymbolTableRecord
100
AcDbLayerTableRecord
  2
04__ASM_ALL_DTM_PNT
 70
     0
 62
     7
  6
CONTINUOUS
370
    -3
390
F
347
4B7
348
0
  0
LAYER
  5
20A
330
2
100
AcDbSymbolTableRecord
100
AcDbLayerTableRecord
  2
04___PRT_ALL_DTM_PNT
 70
     0
 62
     7
  6
CONTINUOUS
370
    -3
390
F
347
4B7
348
0
  0
LAYER
  5
20B
330
2
100
AcDbSymbolTableRecord
100
AcDbLayerTableRecord
  2
05_ALL_DTM_CSYS
 70
     0
 62
     7
  6
CONTINUOUS
370
    -3
390
F
347
4B7
348
0
  0
LAYER
  5
20C
330
2
100
AcDbSymbolTableRecord
100
AcDbLayerTableRecord
  2
05__ASM_ALL_DTM_CSYS
 70
     0
 62
     7
  6
CONTINUOUS
370
    -3
390
F
347
4B7
348
0
  0
LAYER
  5
20D
330
2
100
AcDbSymbolTableRecord
100
AcDbLayerTableRecord
  2
05__ASM_DEF_DTM_CSYS
 70
     0
 62
     7
  6
CONTINUOUS
370
    -3
390
F
347
4B7
348
0
  0
LAYER
  5
20E
330
2
100
AcDbSymbolTableRecord
100
AcDbLayerTableRecord
  2
05___PRT_ALL_DTM_CSYS
 70
     0
 62
     7
  6
CONTINUOUS
370
    -3
390
F
347
4B7
348
0
  0
LAYER
  5
20F
330
2
100
AcDbSymbolTableRecord
100
AcDbLayerTableRecord
  2
05___PRT_DEF_DTM_CSYS
 70
     0
 62
     7
  6
CONTINUOUS
370
    -3
390
F
347
4B7
348
0
  0
LAYER
  5
210
330
2
100
AcDbSymbolTableRecord
100
AcDbLayerTableRecord
  2
06_ALL_SURFS
 70
     0
 62
     7
  6
CONTINUOUS
370
    -3
390
F
347
4B7
348
0
  0
LAYER
  5
211
330
2
100
AcDbSymbolTableRecord
100
AcDbLayerTableRecord
  2
06__ASM_ALL_SURFS
 70
     0
 62
     7
  6
CONTINUOUS
370
    -3
390
F
347
4B7
348
0
  0
LAYER
  5
212
330
2
100
AcDbSymbolTableRecord
100
AcDbLayerTableRecord
  2
06___PRT_ALL_SURFS
 70
     0
 62
     7
  6
CONTINUOUS
370
    -3
390
F
347
4B7
348
0
  0
LAYER
  5
213
330
2
100
AcDbSymbolTableRecord
100
AcDbLayerTableRecord
  2
07__ASM_ALL_SKELETONS
 70
     0
 62
     7
  6
CONTINUOUS
370
    -3
390
F
347
4B7
348
0
  0
LAYER
  5
214
330
2
100
AcDbSymbolTableRecord
100
AcDbLayerTableRecord
  2
1_ALL_PLANES
 70
     0
 62
     7
  6
CONTINUOUS
370
    -3
390
F
347
4B7
348
0
  0
LAYER
  5
215
330
2
100
AcDbSymbolTableRecord
100
AcDbLayerTableRecord
  2
2_ALL_CSYS
 70
     0
 62
     7
  6
CONTINUOUS
370
    -3
390
F
347
4B7
348
0
  0
LAYER
  5
216
330
2
100
AcDbSymbolTableRecord
100
AcDbLayerTableRecord
  2
3_ALL_AXES
 70
     0
 62
     7
  6
CONTINUOUS
370
    -3
390
F
347
4B7
348
0
  0
LAYER
  5
217
330
2
100
AcDbSymbolTableRecord
100
AcDbLayerTableRecord
  2
4_ALL_POINTS
 70
     0
 62
     7
  6
CONTINUOUS
370
    -3
390
F
347
4B7
348
0
  0
LAYER
  5
218
330
2
100
AcDbSymbolTableRecord
100
AcDbLayerTableRecord
  2
5_ALL_CURVES
 70
     0
 62
     7
  6
CONTINUOUS
370
    -3
390
F
347
4B7
348
0
  0
LAYER
  5
219
330
2
100
AcDbSymbolTableRecord
100
AcDbLayerTableRecord
  2
6_ALL_SURFS
 70
     0
 62
     7
  6
CONTINUOUS
370
    -3
390
F
347
4B7
348
0
  0
LAYER
  5
21A
330
2
100
AcDbSymbolTableRecord
100
AcDbLayerTableRecord
  2
7_ALL_FEATURES
 70
     0
 62
     7
  6
CONTINUOUS
370
    -3
390
F
347
4B7
348
0
  0
LAYER
  5
21B
330
2
100
AcDbSymbolTableRecord
100
AcDbLayerTableRecord
  2
7_ALL_FEATURES_16
 70
     0
 62
     7
  6
CONTINUOUS
370
    -3
390
F
347
4B7
348
0
  0
LAYER
  5
21C
330
2
100
AcDbSymbolTableRecord
100
AcDbLayerTableRecord
  2
7_ALL_FEATURES_17
 70
     0
 62
     7
  6
CONTINUOUS
370
    -3
390
F
347
4B7
348
0
  0
LAYER
  5
21D
330
2
100
AcDbSymbolTableRecord
100
AcDbLayerTableRecord
  2
7_ALL_FEATURES_6
 70
     0
 62
     7
  6
CONTINUOUS
370
    -3
390
F
347
4B7
348
0
  0
LAYER
  5
21E
330
2
100
AcDbSymbolTableRecord
100
AcDbLayerTableRecord
  2
8_ALL_NOTES_BALLOONS_SYMBOLS_GT
 70
     0
 62
     7
  6
CONTINUOUS
370
    -3
390
F
347
4B7
348
0
  0
LAYER
  5
21F
330
2
100
AcDbSymbolTableRecord
100
AcDbLayerTableRecord
  2
9_SOLID
 70
     0
 62
     7
  6
CONTINUOUS
370
    -3
390
F
347
4B7
348
0
  0
LAYER
  5
220
330
2
100
AcDbSymbolTableRecord
100
AcDbLayerTableRecord
  2
XSEC_DATUMS
 70
     0
 62
     7
  6
CONTINUOUS
370
    -3
390
F
347
4B7
348
0
  0
LAYER
  5
221
330
2
100
AcDbSymbolTableRecord
100
AcDbLayerTableRecord
  2
XXX_SOLIDO
 70
     0
 62
     7
  6
CONTINUOUS
370
    -3
390
F
347
4B7
348
0
  0
ENDTAB
  0
TABLE
  2
STYLE
  5
3
330
0
100
AcDbSymbolTable
 70
     3
  0
STYLE
  5
11
330
3
100
AcDbSymbolTableRecord
100
AcDbTextStyleTableRecord
  2
STANDARD
 70
     0
 40
0.0
 41
0.85
 50
0.0
 71
     0
 42
0.2
  3
txt
  4

  0
STYLE
  5
222
330
3
100
AcDbSymbolTableRecord
100
AcDbTextStyleTableRecord
  2
TEXTSTYLE_1
 70
     0
 40
0.0
 41
0.8
 50
0.0
 71
     0
 42
0.2
  3
gdt
  4

  0
STYLE
  5
223
330
3
100
AcDbSymbolTableRecord
100
AcDbTextStyleTableRecord
  2
TEXTSTYLE_2
 70
     0
 40
0.0
 41
0.85
 50
0.0
 71
     0
 42
0.2
  3
gdt
  4

  0
ENDTAB
  0
TABLE
  2
VIEW
  5
6
330
0
100
AcDbSymbolTable
 70
     0
  0
ENDTAB
  0
TABLE
  2
UCS
  5
7
330
0
100
AcDbSymbolTable
 70
     0
  0
ENDTAB
  0
TABLE
  2
APPID
  5
9
330
0
100
AcDbSymbolTable
 70
     6
  0
APPID
  5
224
330
9
100
AcDbSymbolTableRecord
100
AcDbRegAppTableRecord
  2
ACAD
 70
     0
  0
APPID
  5
4B8
330
9
100
AcDbSymbolTableRecord
100
AcDbRegAppTableRecord
  2
MCS_DIM1
 70
     0
  0
APPID
  5
4B9
330
9
100
AcDbSymbolTableRecord
100
AcDbRegAppTableRecord
  2
McsXdata5
 70
     0
  0
APPID
  5
4BC
330
9
100
AcDbSymbolTableRecord
100
AcDbRegAppTableRecord
  2
MCS_DOCUMENT_ID
 70
     0
  0
APPID
  5
4C2
330
9
100
AcDbSymbolTableRecord
100
AcDbRegAppTableRecord
  2
MCS_PARAMS_DATA
 70
     0
  0
APPID
  5
4C4
330
9
100
AcDbSymbolTableRecord
100
AcDbRegAppTableRecord
  2
MC_VERSION_DATA
 70
     0
  0
ENDTAB
  0
TABLE
  2
DIMSTYLE
  5
A
330
0
100
AcDbSymbolTable
 70
     4
100
AcDbDimStyleTable
  0
DIMSTYLE
105
22D
330
A
100
AcDbSymbolTableRecord
100
AcDbDimStyleTableRecord
  2
STANDARD
 70
     0
 41
3.333333
 42
0.75
 44
0.75
 47
0.01
 48
0.01
 71
     1
 73
     0
 74
     0
 77
     1
 78
     8
 79
     2
140
4.0
147
0.625
171
     1
178
     0
179
     2
271
     2
272
     2
278
    44
284
     8
340
11
341
227
342
227
343
227
344
227
  0
DIMSTYLE
105
22E
330
A
100
AcDbSymbolTableRecord
100
AcDbDimStyleTableRecord
  2
DIMSTYLE_1
 70
     0
 41
3.333333
 42
0.75
 44
0.75
 47
1.2
 48
1.2
 73
     0
 74
     0
 77
     1
 78
     8
 79
     2
140
16.0
147
3.0
171
     1
178
     0
179
     2
271
     2
272
    -1
278
    44
284
     8
340
11
341
227
342
227
343
227
344
227
  0
DIMSTYLE
105
22F
330
A
100
AcDbSymbolTableRecord
100
AcDbDimStyleTableRecord
  2
DIMSTYLE_2
 70
     0
 41
3.333333
 42
0.75
 44
0.75
 47
0.2
 48
0.2
 73
     0
 74
     0
 77
     1
 78
     8
 79
     2
140
16.0
147
3.0
171
     1
178
     0
179
     2
271
     2
272
     2
278
    44
284
     8
340
11
341
227
342
227
343
227
344
227
  0
DIMSTYLE
105
230
330
A
100
AcDbSymbolTableRecord
100
AcDbDimStyleTableRecord
  2
DIMSTYLE_3
 70
     0
 41
3.333333
 42
0.75
 44
0.75
 47
0.3
 48
0.3
 73
     0
 74
     0
 77
     1
 78
     8
 79
     2
140
16.0
147
3.0
171
     1
178
     0
271
     0
272
    -1
278
    44
284
     8
340
11
341
227
342
227
343
227
344
227
  0
ENDTAB
  0
TABLE
  2
BLOCK_RECORD
  5
1
330
0
100
AcDbSymbolTable
 70
     6
  0
BLOCK_RECORD
  5
225
330
1
100
AcDbSymbolTableRecord
100
AcDbBlockTableRecord
  2
*Model_Space
340
472
 70
     0
280
     1
281
     0
  0
BLOCK_RECORD
  5
226
330
1
100
AcDbSymbolTableRecord
100
AcDbBlockTableRecord
  2
*Paper_Space
340
473
 70
     0
280
     1
281
     0
  0
BLOCK_RECORD
  5
227
330
1
100
AcDbSymbolTableRecord
100
AcDbBlockTableRecord
  2
_CLOSED
340
0
102
{BLKREFS
331
279
331
27A
331
284
331
285
331
28F
331
290
102
}
 70
     0
280
     1
281
     0
  0
BLOCK_RECORD
  5
228
330
1
100
AcDbSymbolTableRecord
100
AcDbBlockTableRecord
  2
*D1
340
0
 70
     0
280
     1
281
     0
  0
BLOCK_RECORD
  5
229
330
1
100
AcDbSymbolTableRecord
100
AcDbBlockTableRecord
  2
*D2
340
0
 70
     0
280
     1
281
     0
  0
BLOCK_RECORD
  5
22A
330
1
100
AcDbSymbolTableRecord
100
AcDbBlockTableRecord
  2
*D3
340
0
 70
     0
280
     1
281
     0
  0
BLOCK_RECORD
  5
22B
330
1
100
AcDbSymbolTableRecord
100
AcDbBlockTableRecord
  2
LOGO2_BL0
340
0
102
{BLKREFS
331
46F
102
}
 70
     0
280
     1
281
     0
  0
BLOCK_RECORD
  5
22C
330
1
100
AcDbSymbolTableRecord
100
AcDbBlockTableRecord
  2
*T5
340
0
102
{BLKREFS
331
470
102
}
 70
     0
280
     1
281
     0
  0
ENDTAB
  0
ENDSEC
  0
SECTION
  2
BLOCKS
  0
BLOCK
  5
20
330
225
100
AcDbEntity
  8
0
100
AcDbBlockBegin
  2
*Model_Space
 70
     0
 10
0.0
 20
0.0
 30
0.0
  3
*Model_Space
  1
*Model_Space
  0
ENDBLK
  5
21
330
225
100
AcDbEntity
  8
0
100
AcDbBlockEnd
  0
BLOCK
  5
1C
330
226
100
AcDbEntity
 67
     1
  8
0
100
AcDbBlockBegin
  2
*Paper_Space
 70
     0
 10
0.0
 20
0.0
 30
0.0
  3
*Paper_Space
  1
*Paper_Space
  0
ENDBLK
  5
1D
330
226
100
AcDbEntity
 67
     1
  8
0
100
AcDbBlockEnd
  0
BLOCK
  5
26D
330
227
100
AcDbEntity
  8
0
100
AcDbBlockBegin
  2
_CLOSED
 70
     0
 10
0.0
 20
0.0
 30
0.0
  3
_CLOSED
  1
_CLOSED
  0
LINE
  5
26E
330
227
100
AcDbEntity
  8
0
  6
ByBlock
 62
     0
100
AcDbLine
 10
0.0
 20
0.0
 30
0.0
 11
-1.0
 21
0.2
 31
0.0
  0
LINE
  5
26F
330
227
100
AcDbEntity
  8
0
  6
ByBlock
 62
     0
100
AcDbLine
 10
-1.0
 20
0.2
 30
0.0
 11
-1.0
 21
-0.2
 31
0.0
  0
LINE
  5
270
330
227
100
AcDbEntity
  8
0
  6
ByBlock
 62
     0
100
AcDbLine
 10
-1.0
 20
-0.2
 30
0.0
 11
0.0
 21
0.0
 31
0.0
  0
LINE
  5
271
330
227
100
AcDbEntity
  8
0
  6
ByBlock
 62
     0
100
AcDbLine
 10
-1.0
 20
0.0
 30
0.0
 11
0.0
 21
0.0
 31
0.0
  0
ENDBLK
  5
272
330
227
100
AcDbEntity
  8
0
  6
ByBlock
 62
     0
100
AcDbBlockEnd
  0
BLOCK
  5
273
330
228
100
AcDbEntity
  8
0
100
AcDbBlockBegin
  2
*D1
 70
     1
 10
0.0
 20
0.0
 30
0.0
  3
*D1
  1
*D1
  0
MTEXT
  5
274
330
228
100
AcDbEntity
  8
0
  6
Continuous
 62
     2
100
AcDbMText
 10
1290.076381
 20
2249.026049
 30
0.0
 40
16.0
 41
68.571429
 46
0.0
 71
     2
 72
     1
  1
1803
 73
     1
 44
0.9
  0
LINE
  5
275
330
228
100
AcDbEntity
  8
0
  6
Continuous
 62
     2
100
AcDbLine
 10
388.576381
 20
2202.859382
 30
0.0
 11
388.576381
 21
2230.026049
 31
0.0
  0
LINE
  5
276
330
228
100
AcDbEntity
  8
0
  6
Continuous
 62
     2
100
AcDbLine
 10
2191.576381
 20
2197.751207
 30
0.0
 11
2191.576381
 21
2230.026049
 31
0.0
  0
LINE
  5
277
330
228
100
AcDbEntity
  8
0
  6
Continuous
 62
     2
100
AcDbLine
 10
388.576381
 20
2229.026049
 30
0.0
 11
1290.076381
 21
2229.026049
 31
0.0
  0
LINE
  5
278
330
228
100
AcDbEntity
  8
0
  6
Continuous
 62
     2
100
AcDbLine
 10
2191.576381
 20
2229.026049
 30
0.0
 11
1290.076381
 21
2229.026049
 31
0.0
  0
INSERT
  5
279
330
228
100
AcDbEntity
  8
0
  6
Continuous
 62
     2
100
AcDbBlockReference
  2
_CLOSED
 10
388.576381
 20
2229.026049
 30
0.0
 41
3.333333
 42
3.333333
 43
3.333333
 50
180.0
  0
INSERT
  5
27A
330
228
100
AcDbEntity
  8
0
  6
Continuous
 62
     2
100
AcDbBlockReference
  2
_CLOSED
 10
2191.576381
 20
2229.026049
 30
0.0
 41
3.333333
 42
3.333333
 43
3.333333
  0
ENDBLK
  5
27B
330
228
100
AcDbEntity
  8
0
  6
ByBlock
 62
     0
100
AcDbBlockEnd
  0
BLOCK
  5
27C
330
229
100
AcDbEntity
  8
0
100
AcDbBlockBegin
  2
*D2
 70
     1
 10
0.0
 20
0.0
 30
0.0
  3
*D2
  1
*D2
  0
MTEXT
  5
27D
330
229
100
AcDbEntity
  8
0
  6
Continuous
 62
     2
100
AcDbMText
 10
2257.091043
 20
2136.916784
 30
0.0
 40
16.0
 41
68.0
 46
0.0
 71
     3
 72
     1
  1
{\Fgdt;n}\Ftxt;25
  7
TEXTSTYLE_2
 11
0.0
 21
1.0
 31
0.0
 73
     1
 44
0.9
  0
LINE
  5
27E
330
229
100
AcDbEntity
  8
0
  6
Continuous
 62
     2
100
AcDbLine
 10
2230.356145
 20
2173.413054
 30
0.0
 11
2278.091043
 21
2173.413054
 31
0.0
  0
LINE
  5
27F
330
229
100
AcDbEntity
  8
0
  6
Continuous
 62
     2
100
AcDbLine
 10
2230.070475
 20
2148.413054
 30
0.0
 11
2278.091043
 21
2148.413054
 31
0.0
  0
LINE
  5
280
330
229
100
AcDbEntity
  8
0
  6
Continuous
 62
     2
100
AcDbLine
 10
2277.091043
 20
2173.413054
 30
0.0
 11
2277.091043
 21
2174.746388
 31
0.0
  0
LINE
  5
281
330
229
100
AcDbEntity
  8
0
  6
Continuous
 62
     2
100
AcDbLine
 10
2277.091043
 20
2174.746388
 30
0.0
 11
2277.091043
 21
2160.913054
 31
0.0
  0
LINE
  5
282
330
229
100
AcDbEntity
  8
0
  6
Continuous
 62
     2
100
AcDbLine
 10
2277.091043
 20
2148.413054
 30
0.0
 11
2277.091043
 21
2091.583451
 31
0.0
  0
LINE
  5
283
330
229
100
AcDbEntity
  8
0
  6
Continuous
 62
     2
100
AcDbLine
 10
2277.091043
 20
2091.583451
 30
0.0
 11
2277.091043
 21
2160.913054
 31
0.0
  0
INSERT
  5
284
330
229
100
AcDbEntity
  8
0
  6
Continuous
 62
     2
100
AcDbBlockReference
  2
_CLOSED
 10
2277.091043
 20
2173.413054
 30
0.0
 41
3.333333
 42
3.333333
 43
3.333333
 50
270.0
  0
INSERT
  5
285
330
229
100
AcDbEntity
  8
0
  6
Continuous
 62
     2
100
AcDbBlockReference
  2
_CLOSED
 10
2277.091043
 20
2148.413054
 30
0.0
 41
3.333333
 42
3.333333
 43
3.333333
 50
90.0
  0
ENDBLK
  5
286
330
229
100
AcDbEntity
  8
0
  6
ByBlock
 62
     0
100
AcDbBlockEnd
  0
BLOCK
  5
287
330
22A
100
AcDbEntity
  8
0
100
AcDbBlockBegin
  2
*D3
 70
     1
 10
0.0
 20
0.0
 30
0.0
  3
*D3
  1
*D3
  0
MTEXT
  5
288
330
22A
100
AcDbEntity
  8
0
  6
Continuous
 62
     2
100
AcDbMText
 10
3274.276483
 20
2719.010187
 30
0.0
 40
16.0
 41
37.714286
 46
0.0
 71
     2
 72
     1
  1
40
 73
     1
 44
0.9
  0
LINE
  5
289
330
22A
100
AcDbEntity
  8
0
  6
Continuous
 62
     2
100
AcDbLine
 10
3293.876483
 20
2733.230495
 30
0.0
 11
3293.876483
 21
2703.010187
 31
0.0
  0
LINE
  5
28A
330
22A
100
AcDbEntity
  8
0
  6
Continuous
 62
     2
100
AcDbLine
 10
3293.876483
 20
2703.010187
 30
0.0
 11
3293.876483
 21
2698.010187
 31
0.0
  0
LINE
  5
28B
330
22A
100
AcDbEntity
  8
0
  6
Continuous
 62
     2
100
AcDbLine
 10
3254.676483
 20
2732.880955
 30
0.0
 11
3254.676483
 21
2703.010187
 31
0.0
  0
LINE
  5
28C
330
22A
100
AcDbEntity
  8
0
  6
Continuous
 62
     2
100
AcDbLine
 10
3254.676483
 20
2703.010187
 30
0.0
 11
3254.676483
 21
2698.010187
 31
0.0
  0
LINE
  5
28D
330
22A
100
AcDbEntity
  8
0
  6
Continuous
 62
     2
100
AcDbLine
 10
3293.876483
 20
2699.010187
 30
0.0
 11
3274.276483
 21
2699.010187
 31
0.0
  0
LINE
  5
28E
330
22A
100
AcDbEntity
  8
0
  6
Continuous
 62
     2
100
AcDbLine
 10
3254.676483
 20
2699.010187
 30
0.0
 11
3274.276483
 21
2699.010187
 31
0.0
  0
INSERT
  5
28F
330
22A
100
AcDbEntity
  8
0
  6
Continuous
 62
     2
100
AcDbBlockReference
  2
_CLOSED
 10
3293.876483
 20
2699.010187
 30
0.0
 41
3.333333
 42
3.333333
 43
3.333333
  0
INSERT
  5
290
330
22A
100
AcDbEntity
  8
0
  6
Continuous
 62
     2
100
AcDbBlockReference
  2
_CLOSED
 10
3254.676483
 20
2699.010187
 30
0.0
 41
3.333333
 42
3.333333
 43
3.333333
 50
180.0
  0
ENDBLK
  5
291
330
22A
100
AcDbEntity
  8
0
  6
ByBlock
 62
     0
100
AcDbBlockEnd
  0
BLOCK
  5
231
330
22B
100
AcDbEntity
  8
0
100
AcDbBlockBegin
  2
LOGO2_BL0
 70
     0
 10
4151.169025
 20
49.703489
 30
0.0
  3
LOGO2_BL0
  1
LOGO2_BL0
  0
LINE
  5
232
330
22B
100
AcDbEntity
  8
0
  6
Continuous
 62
     7
100
AcDbLine
 10
4140.159592
 20
53.964145
 30
0.0
 11
4138.42047
 21
53.964145
 31
0.0
  0
LINE
  5
233
330
22B
100
AcDbEntity
  8
0
  6
Continuous
 62
     7
100
AcDbLine
 10
4138.42047
 20
53.964145
 30
0.0
 11
4138.42047
 21
40.018723
 31
0.0
  0
LINE
  5
234
330
22B
100
AcDbEntity
  8
0
  6
Continuous
 62
     7
100
AcDbLine
 10
4138.42047
 20
40.018723
 30
0.0
 11
4144.39521
 21
40.018723
 31
0.0
  0
LINE
  5
235
330
22B
100
AcDbEntity
  8
0
  6
Continuous
 62
     7
100
AcDbLine
 10
4144.39521
 20
40.018723
 30
0.0
 11
4144.39521
 21
41.609196
 31
0.0
  0
LINE
  5
236
330
22B
100
AcDbEntity
  8
0
  6
Continuous
 62
     7
100
AcDbLine
 10
4144.39521
 20
41.609196
 30
0.0
 11
4140.159592
 21
41.609196
 31
0.0
  0
LINE
  5
237
330
22B
100
AcDbEntity
  8
0
  6
Continuous
 62
     7
100
AcDbLine
 10
4140.159592
 20
41.609196
 30
0.0
 11
4140.159592
 21
53.964145
 31
0.0
  0
LINE
  5
238
330
22B
100
AcDbEntity
  8
0
  6
Continuous
 62
     7
100
AcDbLine
 10
4160.074693
 20
53.964145
 30
0.0
 11
4158.33627
 21
53.964145
 31
0.0
  0
LINE
  5
239
330
22B
100
AcDbEntity
  8
0
  6
Continuous
 62
     7
100
AcDbLine
 10
4158.33627
 20
53.964145
 30
0.0
 11
4158.33627
 21
40.018723
 31
0.0
  0
LINE
  5
23A
330
22B
100
AcDbEntity
  8
0
  6
Continuous
 62
     7
100
AcDbLine
 10
4158.33627
 20
40.018723
 30
0.0
 11
4164.311184
 21
40.018723
 31
0.0
  0
LINE
  5
23B
330
22B
100
AcDbEntity
  8
0
  6
Continuous
 62
     7
100
AcDbLine
 10
4164.311184
 20
40.018723
 30
0.0
 11
4164.311184
 21
41.609196
 31
0.0
  0
LINE
  5
23C
330
22B
100
AcDbEntity
  8
0
  6
Continuous
 62
     7
100
AcDbLine
 10
4164.311184
 20
41.609196
 30
0.0
 11
4160.074693
 21
41.609196
 31
0.0
  0
LINE
  5
23D
330
22B
100
AcDbEntity
  8
0
  6
Continuous
 62
     7
100
AcDbLine
 10
4160.074693
 20
41.609196
 30
0.0
 11
4160.074693
 21
53.964145
 31
0.0
  0
LWPOLYLINE
  5
23E
330
22B
100
AcDbEntity
  8
0
  6
Continuous
 62
     7
100
AcDbPolyline
 90
        2
 70
     0
 43
0.266667
 10
4136.22633
 20
35.560655
 10
4136.22633
 20
33.08457
  0
LWPOLYLINE
  5
23F
330
22B
100
AcDbEntity
  8
0
  6
Continuous
 62
     7
100
AcDbPolyline
 90
        2
 70
     0
 43
0.266667
 10
4136.22633
 20
33.08457
 10
4137.287285
 20
33.08457
  0
LWPOLYLINE
  5
240
330
22B
100
AcDbEntity
  8
0
  6
Continuous
 62
     7
100
AcDbPolyline
 90
        2
 70
     0
 43
0.266667
 10
4137.287285
 20
33.08457
 10
4137.287285
 20
33.367212
  0
LWPOLYLINE
  5
241
330
22B
100
AcDbEntity
  8
0
  6
Continuous
 62
     7
100
AcDbPolyline
 90
        2
 70
     0
 43
0.266667
 10
4137.287285
 20
33.367212
 10
4136.535143
 20
33.367212
  0
LWPOLYLINE
  5
242
330
22B
100
AcDbEntity
  8
0
  6
Continuous
 62
     7
100
AcDbPolyline
 90
        2
 70
     0
 43
0.266667
 10
4136.535143
 20
33.367212
 10
4136.535143
 20
35.560655
  0
LWPOLYLINE
  5
243
330
22B
100
AcDbEntity
  8
0
  6
Continuous
 62
     7
100
AcDbPolyline
 90
        2
 70
     0
 43
0.266667
 10
4136.535143
 20
35.560655
 10
4136.22633
 20
35.560655
  0
SPLINE
  5
244
330
22B
100
AcDbEntity
  8
0
  6
Continuous
 62
     7
100
AcDbSpline
 70
     3
 71
     3
 72
    35
 73
    31
 74
     0
 42
0.000000001
 43
0.0000001
 40
0.0
 40
0.0
 40
0.0
 40
0.0
 40
1.0
 40
1.0
 40
1.0
 40
2.0
 40
2.0
 40
2.0
 40
3.0
 40
3.0
 40
3.0
 40
4.0
 40
4.0
 40
4.0
 40
5.0
 40
5.0
 40
5.0
 40
6.0
 40
6.0
 40
6.0
 40
7.0
 40
7.0
 40
7.0
 40
8.0
 40
8.0
 40
8.0
 40
9.0
 40
9.0
 40
9.0
 40
10.0
 40
10.0
 40
10.0
 40
10.0
 10
4139.1516759362
 20
34.6213059365
 30
0.0
 10
4139.1516759362
 20
34.6213059365
 30
0.0
 10
4139.1516759362
 20
33.7384855643
 30
0.0
 10
4139.1516759362
 20
33.7384855643
 30
0.0
 10
4139.1516759362
 20
33.3183607706
 30
0.0
 10
4139.3488275213
 20
33.0322292665
 30
0.0
 10
4139.8022761671
 20
33.0322292665
 30
0.0
 10
4140.2550269311
 20
33.0322292665
 30
0.0
 10
4140.452527457
 20
33.3183607706
 30
0.0
 10
4140.452527457
 20
33.7384855643
 30
0.0
 10
4140.452527457
 20
33.7384855643
 30
0.0
 10
4140.452527457
 20
34.6213059365
 30
0.0
 10
4140.452527457
 20
34.6213059365
 30
0.0
 10
4140.452527457
 20
34.6213059365
 30
0.0
 10
4140.1564511385
 20
34.6213059365
 30
0.0
 10
4140.1564511385
 20
34.6213059365
 30
0.0
 10
4140.1564511385
 20
34.6213059365
 30
0.0
 10
4140.1564511385
 20
33.7719838867
 30
0.0
 10
4140.1564511385
 20
33.7719838867
 30
0.0
 10
4140.1564511385
 20
33.5242358771
 30
0.0
 10
4140.0941651953
 20
33.3071946631
 30
0.0
 10
4139.8022761671
 20
33.3071946631
 30
0.0
 10
4139.5096892571
 20
33.3071946631
 30
0.0
 10
4139.4474033139
 20
33.5242358771
 30
0.0
 10
4139.4474033139
 20
33.7719838867
 30
0.0
 10
4139.4474033139
 20
33.7719838867
 30
0.0
 10
4139.4474033139
 20
34.6213059365
 30
0.0
 10
4139.4474033139
 20
34.6213059365
 30
0.0
 10
4139.4474033139
 20
34.6213059365
 30
0.0
 10
4139.1516759362
 20
34.6213059365
 30
0.0
 10
4139.1516759362
 20
34.6213059365
 30
0.0
  0
SPLINE
  5
245
330
22B
100
AcDbEntity
  8
0
  6
Continuous
 62
     7
100
AcDbSpline
 70
     3
 71
     3
 72
    35
 73
    31
 74
     0
 42
0.000000001
 43
0.0000001
 40
0.0
 40
0.0
 40
0.0
 40
0.0
 40
1.0
 40
1.0
 40
1.0
 40
2.0
 40
2.0
 40
2.0
 40
3.0
 40
3.0
 40
3.0
 40
4.0
 40
4.0
 40
4.0
 40
5.0
 40
5.0
 40
5.0
 40
6.0
 40
6.0
 40
6.0
 40
7.0
 40
7.0
 40
7.0
 40
8.0
 40
8.0
 40
8.0
 40
9.0
 40
9.0
 40
9.0
 40
10.0
 40
10.0
 40
10.0
 40
10.0
 10
4143.6833708666
 20
34.5661732808
 30
0.0
 10
4143.5654288564
 20
34.6345656891
 30
0.0
 10
4143.4141629942
 20
34.6680640116
 30
0.0
 10
4143.2759824142
 20
34.6680640116
 30
0.0
 10
4142.80281861
 20
34.6680640116
 30
0.0
 10
4142.4355583563
 20
34.3163316261
 30
0.0
 10
4142.4355583563
 20
33.8396784133
 30
0.0
 10
4142.4355583563
 20
33.3797743617
 30
0.0
 10
4142.8068314299
 20
33.0329271482
 30
0.0
 10
4143.2595821939
 20
33.0329271482
 30
0.0
 10
4143.4141629942
 20
33.0329271482
 30
0.0
 10
4143.5485052248
 20
33.0622381804
 30
0.0
 10
4143.6833708666
 20
33.1341199972
 30
0.0
 10
4143.6833708666
 20
33.1341199972
 30
0.0
 10
4143.6833708666
 20
33.5109761245
 30
0.0
 10
4143.6833708666
 20
33.5109761245
 30
0.0
 10
4143.5715353214
 20
33.3867531788
 30
0.0
 10
4143.4335292119
 20
33.3078925448
 30
0.0
 10
4143.2627226616
 20
33.3078925448
 30
0.0
 10
4142.9511184749
 20
33.3078925448
 30
0.0
 10
4142.7307623227
 20
33.5374956298
 30
0.0
 10
4142.7307623227
 20
33.8529381659
 30
0.0
 10
4142.7307623227
 20
34.1355802614
 30
0.0
 10
4142.954433413
 20
34.3917028516
 30
0.0
 10
4143.2435309144
 20
34.3917028516
 30
0.0
 10
4143.4206184001
 20
34.3917028516
 30
0.0
 10
4143.5654288564
 20
34.3198210347
 30
0.0
 10
4143.6833708666
 20
34.1851298633
 30
0.0
 10
4143.6833708666
 20
34.1851298633
 30
0.0
 10
4143.6833708666
 20
34.5661732808
 30
0.0
 10
4143.6833708666
 20
34.5661732808
 30
0.0
  0
SPLINE
  5
246
330
22B
100
AcDbEntity
  8
0
  6
Continuous
 62
     7
100
AcDbSpline
 70
     3
 71
     3
 72
    32
 73
    28
 74
     0
 42
0.000000001
 43
0.0000001
 40
0.0
 40
0.0
 40
0.0
 40
0.0
 40
1.0
 40
1.0
 40
1.0
 40
2.0
 40
2.0
 40
2.0
 40
3.0
 40
3.0
 40
3.0
 40
4.0
 40
4.0
 40
4.0
 40
5.0
 40
5.0
 40
5.0
 40
6.0
 40
6.0
 40
6.0
 40
7.0
 40
7.0
 40
7.0
 40
8.0
 40
8.0
 40
8.0
 40
9.0
 40
9.0
 40
9.0
 40
9.0
 10
4147.0591992029
 20
33.8040864457
 30
0.0
 10
4147.0591992029
 20
33.8040864457
 30
0.0
 10
4147.0591992029
 20
33.8494487573
 30
0.0
 10
4147.0591992029
 20
33.8494487573
 30
0.0
 10
4147.0591992029
 20
34.3058634003
 30
0.0
 10
4146.8287237658
 20
34.6680640116
 30
0.0
 10
4146.339857623
 20
34.6680640116
 30
0.0
 10
4145.8443616038
 20
34.6680640116
 30
0.0
 10
4145.5913794813
 20
34.3128422175
 30
0.0
 10
4145.5913794813
 20
33.8396784133
 30
0.0
 10
4145.5913794813
 20
33.3867531788
 30
0.0
 10
4145.8768131036
 20
33.0322292665
 30
0.0
 10
4146.3463130289
 20
33.0322292665
 30
0.0
 10
4146.6450064038
 20
33.0322292665
 30
0.0
 10
4146.9145632171
 20
33.186461126
 30
0.0
 10
4147.0591992029
 20
33.4523540603
 30
0.0
 10
4147.0591992029
 20
33.4523540603
 30
0.0
 10
4146.8090086073
 20
33.5947219306
 30
0.0
 10
4146.8090086073
 20
33.5947219306
 30
0.0
 10
4146.6976964735
 20
33.4097832755
 30
0.0
 10
4146.5760905842
 20
33.2953306739
 30
0.0
 10
4146.3499769079
 20
33.2953306739
 30
0.0
 10
4146.0673348124
 20
33.2953306739
 30
0.0
 10
4145.8900728563
 20
33.5416829201
 30
0.0
 10
4145.8869323885
 20
33.8040864457
 30
0.0
 10
4145.8869323885
 20
33.8040864457
 30
0.0
 10
4147.0591992029
 20
33.8040864457
 30
0.0
 10
4147.0591992029
 20
33.8040864457
 30
0.0
  0
SPLINE
  5
247
330
22B
100
AcDbEntity
  8
0
  6
Continuous
 62
     7
100
AcDbSpline
 70
     3
 71
     3
 72
    14
 73
    10
 74
     0
 42
0.000000001
 43
0.0000001
 40
0.0
 40
0.0
 40
0.0
 40
0.0
 40
1.0
 40
1.0
 40
1.0
 40
2.0
 40
2.0
 40
2.0
 40
3.0
 40
3.0
 40
3.0
 40
3.0
 10
4145.902983668
 20
34.0274085952
 30
0.0
 10
4145.9397969286
 20
34.2472413361
 30
0.0
 10
4146.110254538
 20
34.4112435396
 30
0.0
 10
4146.339857623
 20
34.4112435396
 30
0.0
 10
4146.5760905842
 20
34.4112435396
 30
0.0
 10
4146.7273564464
 20
34.2570116801
 30
0.0
 10
4146.7636462957
 20
34.0274085952
 30
0.0
 10
4146.7636462957
 20
34.0274085952
 30
0.0
 10
4145.902983668
 20
34.0274085952
 30
0.0
 10
4145.902983668
 20
34.0274085952
 30
0.0
  0
SPLINE
  5
248
330
22B
100
AcDbEntity
  8
0
  6
Continuous
 62
     7
100
AcDbSpline
 70
     3
 71
     3
 72
    20
 73
    16
 74
     0
 42
0.000000001
 43
0.0000001
 40
0.0
 40
0.0
 40
0.0
 40
0.0
 40
1.0
 40
1.0
 40
1.0
 40
2.0
 40
2.0
 40
2.0
 40
3.0
 40
3.0
 40
3.0
 40
4.0
 40
4.0
 40
4.0
 40
5.0
 40
5.0
 40
5.0
 40
5.0
 10
4149.7579078032
 20
34.3065612821
 30
0.0
 10
4149.7579078032
 20
34.3065612821
 30
0.0
 10
4150.306093892
 20
33.6365948336
 30
0.0
 10
4150.306093892
 20
33.6365948336
 30
0.0
 10
4150.1513386212
 20
33.4823629741
 30
0.0
 10
4149.9676212592
 20
33.3085904265
 30
0.0
 10
4149.7383671151
 20
33.3085904265
 30
0.0
 10
4149.501785213
 20
33.3085904265
 30
0.0
 10
4149.2784630635
 20
33.5277252857
 30
0.0
 10
4149.2784630635
 20
33.7636093061
 30
0.0
 10
4149.2784630635
 20
34.0008890899
 30
0.0
 10
4149.5581391617
 20
34.1690785838
 30
0.0
 10
4149.7282478302
 20
34.2863227123
 30
0.0
 10
4149.7282478302
 20
34.2863227123
 30
0.0
 10
4149.7579078032
 20
34.3065612821
 30
0.0
 10
4149.7579078032
 20
34.3065612821
 30
0.0
  0
SPLINE
  5
249
330
22B
100
AcDbEntity
  8
0
  6
Continuous
 62
     7
100
AcDbSpline
 70
     3
 71
     3
 72
    23
 73
    19
 74
     0
 42
0.000000001
 43
0.0000001
 40
0.0
 40
0.0
 40
0.0
 40
0.0
 40
1.0
 40
1.0
 40
1.0
 40
2.0
 40
2.0
 40
2.0
 40
3.0
 40
3.0
 40
3.0
 40
4.0
 40
4.0
 40
4.0
 40
5.0
 40
5.0
 40
5.0
 40
6.0
 40
6.0
 40
6.0
 40
6.0
 10
4149.823683155
 20
34.6945835168
 30
0.0
 10
4149.823683155
 20
34.6945835168
 30
0.0
 10
4149.7415075828
 20
34.7992657744
 30
0.0
 10
4149.7415075828
 20
34.7992657744
 30
0.0
 10
4149.669625766
 20
34.8906882793
 30
0.0
 10
4149.5939055997
 20
34.982808666
 30
0.0
 10
4149.5939055997
 20
35.1077294934
 30
0.0
 10
4149.5939055997
 20
35.2661486432
 30
0.0
 10
4149.7217924243
 20
35.3694351373
 30
0.0
 10
4149.8697433484
 20
35.3694351373
 30
0.0
 10
4150.0340944928
 20
35.3694351373
 30
0.0
 10
4150.1584919088
 20
35.2745232238
 30
0.0
 10
4150.1584919088
 20
35.1007506762
 30
0.0
 10
4150.1584919088
 20
34.9206971932
 30
0.0
 10
4149.9876853586
 20
34.8188064625
 30
0.0
 10
4149.8629390016
 20
34.7204051403
 30
0.0
 10
4149.8629390016
 20
34.7204051403
 30
0.0
 10
4149.823683155
 20
34.6945835168
 30
0.0
 10
4149.823683155
 20
34.6945835168
 30
0.0
  0
SPLINE
  5
24A
330
22B
100
AcDbEntity
  8
0
  6
Continuous
 62
     7
100
AcDbSpline
 70
     3
 71
     3
 72
    50
 73
    46
 74
     0
 42
0.000000001
 43
0.0000001
 40
0.0
 40
0.0
 40
0.0
 40
0.0
 40
1.0
 40
1.0
 40
1.0
 40
2.0
 40
2.0
 40
2.0
 40
3.0
 40
3.0
 40
3.0
 40
4.0
 40
4.0
 40
4.0
 40
5.0
 40
5.0
 40
5.0
 40
6.0
 40
6.0
 40
6.0
 40
7.0
 40
7.0
 40
7.0
 40
8.0
 40
8.0
 40
8.0
 40
9.0
 40
9.0
 40
9.0
 40
10.0
 40
10.0
 40
10.0
 40
11.0
 40
11.0
 40
11.0
 40
12.0
 40
12.0
 40
12.0
 40
13.0
 40
13.0
 40
13.0
 40
14.0
 40
14.0
 40
14.0
 40
15.0
 40
15.0
 40
15.0
 40
15.0
 10
4150.7598914786
 20
33.085268277
 30
0.0
 10
4150.7598914786
 20
33.085268277
 30
0.0
 10
4151.1404114849
 20
33.085268277
 30
0.0
 10
4151.1404114849
 20
33.085268277
 30
0.0
 10
4151.1404114849
 20
33.085268277
 30
0.0
 10
4150.6972565945
 20
33.633105425
 30
0.0
 10
4150.6972565945
 20
33.633105425
 30
0.0
 10
4150.6972565945
 20
33.633105425
 30
0.0
 10
4150.9992649076
 20
33.9876293373
 30
0.0
 10
4150.9992649076
 20
33.9876293373
 30
0.0
 10
4150.9992649076
 20
33.9876293373
 30
0.0
 10
4150.8015899112
 20
34.1914107987
 30
0.0
 10
4150.8015899112
 20
34.1914107987
 30
0.0
 10
4150.8015899112
 20
34.1914107987
 30
0.0
 10
4150.5137137029
 20
33.8564275745
 30
0.0
 10
4150.5137137029
 20
33.8564275745
 30
0.0
 10
4150.5137137029
 20
33.8564275745
 30
0.0
 10
4149.997630173
 20
34.4803338296
 30
0.0
 10
4149.997630173
 20
34.4803338296
 30
0.0
 10
4150.204901043
 20
34.632472044
 30
0.0
 10
4150.447938351
 20
34.8188064625
 30
0.0
 10
4150.447938351
 20
35.0979591493
 30
0.0
 10
4150.447938351
 20
35.4231720295
 30
0.0
 10
4150.1785560082
 20
35.61439162
 30
0.0
 10
4149.8765476951
 20
35.61439162
 30
0.0
 10
4149.5509858741
 20
35.61439162
 30
0.0
 10
4149.3051570392
 20
35.4134016855
 30
0.0
 10
4149.3051570392
 20
35.0714396441
 30
0.0
 10
4149.3051570392
 20
34.8613772472
 30
0.0
 10
4149.4367077429
 20
34.6778343556
 30
0.0
 10
4149.5771564385
 20
34.5298834316
 30
0.0
 10
4149.5771564385
 20
34.5298834316
 30
0.0
 10
4149.4230990494
 20
34.4182223568
 30
0.0
 10
4149.4230990494
 20
34.4182223568
 30
0.0
 10
4149.1861682064
 20
34.2472413361
 30
0.0
 10
4148.989714503
 20
34.0769581971
 30
0.0
 10
4148.989714503
 20
33.7608177792
 30
0.0
 10
4148.989714503
 20
33.3337141683
 30
0.0
 10
4149.3344680713
 20
33.0322292665
 30
0.0
 10
4149.7483119296
 20
33.0322292665
 30
0.0
 10
4150.0402009578
 20
33.0322292665
 30
0.0
 10
4150.3031278947
 20
33.1990229969
 30
0.0
 10
4150.4901601949
 20
33.4202515013
 30
0.0
 10
4150.4901601949
 20
33.4202515013
 30
0.0
 10
4150.7598914786
 20
33.085268277
 30
0.0
 10
4150.7598914786
 20
33.085268277
 30
0.0
  0
LWPOLYLINE
  5
24B
330
22B
100
AcDbEntity
  8
0
  6
Continuous
 62
     7
100
AcDbPolyline
 90
        2
 70
     0
 43
0.266667
 10
4153.340484
 20
35.560655
 10
4153.03202
 20
35.560655
  0
LWPOLYLINE
  5
24C
330
22B
100
AcDbEntity
  8
0
  6
Continuous
 62
     7
100
AcDbPolyline
 90
        2
 70
     0
 43
0.266667
 10
4153.03202
 20
35.560655
 10
4153.03202
 20
33.08457
  0
LWPOLYLINE
  5
24D
330
22B
100
AcDbEntity
  8
0
  6
Continuous
 62
     7
100
AcDbPolyline
 90
        2
 70
     0
 43
0.266667
 10
4153.03202
 20
33.08457
 10
4154.092451
 20
33.08457
  0
LWPOLYLINE
  5
24E
330
22B
100
AcDbEntity
  8
0
  6
Continuous
 62
     7
100
AcDbPolyline
 90
        2
 70
     0
 43
0.266667
 10
4154.092451
 20
33.08457
 10
4154.092451
 20
33.367212
  0
LWPOLYLINE
  5
24F
330
22B
100
AcDbEntity
  8
0
  6
Continuous
 62
     7
100
AcDbPolyline
 90
        2
 70
     0
 43
0.266667
 10
4154.092451
 20
33.367212
 10
4153.340484
 20
33.367212
  0
LWPOLYLINE
  5
250
330
22B
100
AcDbEntity
  8
0
  6
Continuous
 62
     7
100
AcDbPolyline
 90
        2
 70
     0
 43
0.266667
 10
4153.340484
 20
33.367212
 10
4153.340484
 20
35.560655
  0
LWPOLYLINE
  5
251
330
22B
100
AcDbEntity
  8
0
  6
Continuous
 62
     7
100
AcDbPolyline
 90
        2
 70
     0
 43
0.266667
 10
4156.331256
 20
34.621306
 10
4156.036401
 20
34.621306
  0
LWPOLYLINE
  5
252
330
22B
100
AcDbEntity
  8
0
  6
Continuous
 62
     7
100
AcDbPolyline
 90
        2
 70
     0
 43
0.266667
 10
4156.036401
 20
34.621306
 10
4156.036401
 20
33.085268
  0
LWPOLYLINE
  5
253
330
22B
100
AcDbEntity
  8
0
  6
Continuous
 62
     7
100
AcDbPolyline
 90
        2
 70
     0
 43
0.266667
 10
4156.036401
 20
33.085268
 10
4156.331256
 20
33.085268
  0
LWPOLYLINE
  5
254
330
22B
100
AcDbEntity
  8
0
  6
Continuous
 62
     7
100
AcDbPolyline
 90
        2
 70
     0
 43
0.266667
 10
4156.331256
 20
33.085268
 10
4156.331256
 20
34.621306
  0
LWPOLYLINE
  5
255
330
22B
100
AcDbEntity
  8
0
  6
Continuous
 62
     7
100
AcDbPolyline
 90
        2
 70
     1
 43
0.266667
 10
4155.980558
 20
35.327911
 42
1.0
 10
4156.387447
 20
35.327911
 42
1.0
  0
SPLINE
  5
256
330
22B
100
AcDbEntity
  8
0
  6
Continuous
 62
     7
100
AcDbSpline
 70
     3
 71
     3
 72
    17
 73
    13
 74
     0
 42
0.000000001
 43
0.0000001
 40
0.0
 40
0.0
 40
0.0
 40
0.0
 40
1.0
 40
1.0
 40
1.0
 40
2.0
 40
2.0
 40
2.0
 40
3.0
 40
3.0
 40
3.0
 40
4.0
 40
4.0
 40
4.0
 40
4.0
 10
4159.171634286
 20
33.2953306739
 30
0.0
 10
4158.8596811584
 20
33.2953306739
 30
0.0
 10
4158.6859086108
 20
33.5647130167
 30
0.0
 10
4158.6859086108
 20
33.8529381659
 30
0.0
 10
4158.6859086108
 20
34.1390696699
 30
0.0
 10
4158.8670089164
 20
34.4042647225
 30
0.0
 10
4159.171634286
 20
34.4042647225
 30
0.0
 10
4159.4909151716
 20
34.4042647225
 30
0.0
 10
4159.6716665363
 20
34.1523294226
 30
0.0
 10
4159.6716665363
 20
33.8529381659
 30
0.0
 10
4159.6716665363
 20
33.5514532641
 30
0.0
 10
4159.4940556393
 20
33.2953306739
 30
0.0
 10
4159.171634286
 20
33.2953306739
 30
0.0
  0
SPLINE
  5
257
330
22B
100
AcDbEntity
  8
0
  6
Continuous
 62
     7
100
AcDbSpline
 70
     3
 71
     3
 72
    50
 73
    46
 74
     0
 42
0.000000001
 43
0.0000001
 40
0.0
 40
0.0
 40
0.0
 40
0.0
 40
1.0
 40
1.0
 40
1.0
 40
2.0
 40
2.0
 40
2.0
 40
3.0
 40
3.0
 40
3.0
 40
4.0
 40
4.0
 40
4.0
 40
5.0
 40
5.0
 40
5.0
 40
6.0
 40
6.0
 40
6.0
 40
7.0
 40
7.0
 40
7.0
 40
8.0
 40
8.0
 40
8.0
 40
9.0
 40
9.0
 40
9.0
 40
10.0
 40
10.0
 40
10.0
 40
11.0
 40
11.0
 40
11.0
 40
12.0
 40
12.0
 40
12.0
 40
13.0
 40
13.0
 40
13.0
 40
14.0
 40
14.0
 40
14.0
 40
15.0
 40
15.0
 40
15.0
 40
15.0
 10
4159.9504702823
 20
34.6220038182
 30
0.0
 10
4159.9504702823
 20
34.6220038182
 30
0.0
 10
4159.6549173751
 20
34.6220038182
 30
0.0
 10
4159.6549173751
 20
34.6220038182
 30
0.0
 10
4159.6549173751
 20
34.6220038182
 30
0.0
 10
4159.6549173751
 20
34.3589024108
 30
0.0
 10
4159.6549173751
 20
34.3589024108
 30
0.0
 10
4159.6549173751
 20
34.3589024108
 30
0.0
 10
4159.6486364397
 20
34.3589024108
 30
0.0
 10
4159.6486364397
 20
34.3589024108
 30
0.0
 10
4159.52685608
 20
34.5494241196
 30
0.0
 10
4159.3429642475
 20
34.6673661298
 30
0.0
 10
4159.1126632809
 20
34.6673661298
 30
0.0
 10
4158.6695083905
 20
34.6673661298
 30
0.0
 10
4158.3907046445
 20
34.2835311854
 30
0.0
 10
4158.3907046445
 20
33.8627085099
 30
0.0
 10
4158.3907046445
 20
33.4230430281
 30
0.0
 10
4158.653457111
 20
33.0322292665
 30
0.0
 10
4159.1266209152
 20
33.0322292665
 30
0.0
 10
4159.3429642475
 20
33.0322292665
 30
0.0
 10
4159.5296476069
 20
33.1501712767
 30
0.0
 10
4159.6486364397
 20
33.324641706
 30
0.0
 10
4159.6486364397
 20
33.324641706
 30
0.0
 10
4159.6549173751
 20
33.324641706
 30
0.0
 10
4159.6549173751
 20
33.324641706
 30
0.0
 10
4159.6549173751
 20
33.324641706
 30
0.0
 10
4159.6549173751
 20
33.0322292665
 30
0.0
 10
4159.6549173751
 20
33.0322292665
 30
0.0
 10
4159.6549173751
 20
32.7167867304
 30
0.0
 10
4159.5795461497
 20
32.4676429573
 30
0.0
 10
4159.2152518933
 20
32.4676429573
 30
0.0
 10
4158.9455206096
 20
32.4676429573
 30
0.0
 10
4158.7553478417
 20
32.6253642254
 30
0.0
 10
4158.7553478417
 20
32.900329622
 30
0.0
 10
4158.7553478417
 20
32.900329622
 30
0.0
 10
4158.4597949345
 20
32.900329622
 30
0.0
 10
4158.4597949345
 20
32.900329622
 30
0.0
 10
4158.4664248108
 20
32.4676429573
 30
0.0
 10
4158.7745395889
 20
32.2052394317
 30
0.0
 10
4159.2016431998
 20
32.2052394317
 30
0.0
 10
4159.7990299497
 20
32.2052394317
 30
0.0
 10
4159.9504702823
 20
32.5855849675
 30
0.0
 10
4159.9504702823
 20
33.1145793092
 30
0.0
 10
4159.9504702823
 20
33.1145793092
 30
0.0
 10
4159.9504702823
 20
34.6220038182
 30
0.0
 10
4159.9504702823
 20
34.6220038182
 30
0.0
  0
SPLINE
  5
258
330
22B
100
AcDbEntity
  8
0
  6
Continuous
 62
     7
100
AcDbSpline
 70
     3
 71
     3
 72
    44
 73
    40
 74
     0
 42
0.000000001
 43
0.0000001
 40
0.0
 40
0.0
 40
0.0
 40
0.0
 40
1.0
 40
1.0
 40
1.0
 40
2.0
 40
2.0
 40
2.0
 40
3.0
 40
3.0
 40
3.0
 40
4.0
 40
4.0
 40
4.0
 40
5.0
 40
5.0
 40
5.0
 40
6.0
 40
6.0
 40
6.0
 40
7.0
 40
7.0
 40
7.0
 40
8.0
 40
8.0
 40
8.0
 40
9.0
 40
9.0
 40
9.0
 40
10.0
 40
10.0
 40
10.0
 40
11.0
 40
11.0
 40
11.0
 40
12.0
 40
12.0
 40
12.0
 40
13.0
 40
13.0
 40
13.0
 40
13.0
 10
4162.0423707295
 20
35.9354172099
 30
0.0
 10
4162.0423707295
 20
35.9354172099
 30
0.0
 10
4162.0423707295
 20
33.0845703953
 30
0.0
 10
4162.0423707295
 20
33.0845703953
 30
0.0
 10
4162.0423707295
 20
33.0845703953
 30
0.0
 10
4162.3375746959
 20
33.0845703953
 30
0.0
 10
4162.3375746959
 20
33.0845703953
 30
0.0
 10
4162.3375746959
 20
33.0845703953
 30
0.0
 10
4162.3375746959
 20
33.7908266931
 30
0.0
 10
4162.3375746959
 20
33.7908266931
 30
0.0
 10
4162.3375746959
 20
34.0706772617
 30
0.0
 10
4162.3375746959
 20
34.4049626042
 30
0.0
 10
4162.7179202317
 20
34.4049626042
 30
0.0
 10
4163.0204519561
 20
34.4049626042
 30
0.0
 10
4163.0563928645
 20
34.227700648
 30
0.0
 10
4163.0563928645
 20
33.9659950041
 30
0.0
 10
4163.0563928645
 20
33.9659950041
 30
0.0
 10
4163.0563928645
 20
33.0845703953
 30
0.0
 10
4163.0563928645
 20
33.0845703953
 30
0.0
 10
4163.0563928645
 20
33.0845703953
 30
0.0
 10
4163.3522947126
 20
33.0845703953
 30
0.0
 10
4163.3522947126
 20
33.0845703953
 30
0.0
 10
4163.3522947126
 20
33.0845703953
 30
0.0
 10
4163.3522947126
 20
34.0008890899
 30
0.0
 10
4163.3522947126
 20
34.0008890899
 30
0.0
 10
4163.3522947126
 20
34.3749536903
 30
0.0
 10
4163.240284697
 20
34.6680640116
 30
0.0
 10
4162.8069001507
 20
34.6680640116
 30
0.0
 10
4162.6205657322
 20
34.6680640116
 30
0.0
 10
4162.4363249588
 20
34.5794330335
 30
0.0
 10
4162.3438556313
 20
34.4154308299
 30
0.0
 10
4162.3438556313
 20
34.4154308299
 30
0.0
 10
4162.3375746959
 20
34.4154308299
 30
0.0
 10
4162.3375746959
 20
34.4154308299
 30
0.0
 10
4162.3375746959
 20
34.4154308299
 30
0.0
 10
4162.3375746959
 20
35.9354172099
 30
0.0
 10
4162.3375746959
 20
35.9354172099
 30
0.0
 10
4162.3375746959
 20
35.9354172099
 30
0.0
 10
4162.0423707295
 20
35.9354172099
 30
0.0
 10
4162.0423707295
 20
35.9354172099
 30
0.0
  0
LWPOLYLINE
  5
259
330
22B
100
AcDbEntity
  8
0
  6
Continuous
 62
     7
100
AcDbPolyline
 90
        2
 70
     0
 43
0.266667
 10
4165.805349
 20
34.345643
 10
4166.093923
 20
34.345643
  0
LWPOLYLINE
  5
25A
330
22B
100
AcDbEntity
  8
0
  6
Continuous
 62
     7
100
AcDbPolyline
 90
        2
 70
     0
 43
0.266667
 10
4166.093923
 20
34.345643
 10
4166.093923
 20
34.621306
  0
LWPOLYLINE
  5
25B
330
22B
100
AcDbEntity
  8
0
  6
Continuous
 62
     7
100
AcDbPolyline
 90
        2
 70
     0
 43
0.266667
 10
4166.093923
 20
34.621306
 10
4165.805349
 20
34.621306
  0
LWPOLYLINE
  5
25C
330
22B
100
AcDbEntity
  8
0
  6
Continuous
 62
     7
100
AcDbPolyline
 90
        2
 70
     0
 43
0.266667
 10
4165.805349
 20
34.621306
 10
4165.805349
 20
35.208922
  0
LWPOLYLINE
  5
25D
330
22B
100
AcDbEntity
  8
0
  6
Continuous
 62
     7
100
AcDbPolyline
 90
        2
 70
     0
 43
0.266667
 10
4165.805349
 20
35.208922
 10
4165.509796
 20
35.208922
  0
LWPOLYLINE
  5
25E
330
22B
100
AcDbEntity
  8
0
  6
Continuous
 62
     7
100
AcDbPolyline
 90
        2
 70
     0
 43
0.266667
 10
4165.509796
 20
35.208922
 10
4165.509796
 20
34.621306
  0
LWPOLYLINE
  5
25F
330
22B
100
AcDbEntity
  8
0
  6
Continuous
 62
     7
100
AcDbPolyline
 90
        2
 70
     0
 43
0.266667
 10
4165.509796
 20
34.621306
 10
4165.348934
 20
34.621306
  0
LWPOLYLINE
  5
260
330
22B
100
AcDbEntity
  8
0
  6
Continuous
 62
     7
100
AcDbPolyline
 90
        2
 70
     0
 43
0.266667
 10
4165.348934
 20
34.621306
 10
4165.348934
 20
34.345643
  0
LWPOLYLINE
  5
261
330
22B
100
AcDbEntity
  8
0
  6
Continuous
 62
     7
100
AcDbPolyline
 90
        2
 70
     0
 43
0.266667
 10
4165.348934
 20
34.345643
 10
4165.509796
 20
34.345643
  0
LWPOLYLINE
  5
262
330
22B
100
AcDbEntity
  8
0
  6
Continuous
 62
     7
100
AcDbPolyline
 90
        2
 70
     0
 43
0.266667
 10
4165.509796
 20
34.345643
 10
4165.509796
 20
33.08457
  0
LWPOLYLINE
  5
263
330
22B
100
AcDbEntity
  8
0
  6
Continuous
 62
     7
100
AcDbPolyline
 90
        2
 70
     0
 43
0.266667
 10
4165.509796
 20
33.08457
 10
4165.805349
 20
33.08457
  0
LWPOLYLINE
  5
264
330
22B
100
AcDbEntity
  8
0
  6
Continuous
 62
     7
100
AcDbPolyline
 90
        2
 70
     0
 43
0.266667
 10
4165.805349
 20
33.08457
 10
4165.805349
 20
34.345643
  0
SPLINE
  5
265
330
22B
100
AcDbEntity
  8
0
  6
Continuous
 62
     7
100
AcDbSpline
 70
     3
 71
     3
 72
    20
 73
    16
 74
     0
 42
0.000000001
 43
0.0000001
 40
0.0
 40
0.0
 40
0.0
 40
0.0
 40
1.0
 40
1.0
 40
1.0
 40
2.0
 40
2.0
 40
2.0
 40
3.0
 40
3.0
 40
3.0
 40
4.0
 40
4.0
 40
4.0
 40
5.0
 40
5.0
 40
5.0
 40
5.0
 10
4149.5146960248
 20
46.8991389865
 30
0.0
 10
4149.5146960248
 20
46.8991389865
 30
0.0
 10
4152.6031715641
 20
43.1263904235
 30
0.0
 10
4152.6031715641
 20
43.1263904235
 30
0.0
 10
4151.7343088262
 20
42.256829804
 30
0.0
 10
4150.6984778875
 20
41.2756081096
 30
0.0
 10
4149.4035583613
 20
41.2756081096
 30
0.0
 10
4148.0721745154
 20
41.2756081096
 30
0.0
 10
4146.8144171906
 20
42.5150460393
 30
0.0
 10
4146.8144171906
 20
43.8473022374
 30
0.0
 10
4146.8144171906
 20
45.1795584354
 30
0.0
 10
4148.3862212881
 20
46.1216987536
 30
0.0
 10
4149.3482512352
 20
46.7881757935
 30
0.0
 10
4149.3482512352
 20
46.7881757935
 30
0.0
 10
4149.5146960248
 20
46.8991389865
 30
0.0
 10
4149.5146960248
 20
46.8991389865
 30
0.0
  0
SPLINE
  5
266
330
22B
100
AcDbEntity
  8
0
  6
Continuous
 62
     7
100
AcDbSpline
 70
     3
 71
     3
 72
    23
 73
    19
 74
     0
 42
0.000000001
 43
0.0000001
 40
0.0
 40
0.0
 40
0.0
 40
0.0
 40
1.0
 40
1.0
 40
1.0
 40
2.0
 40
2.0
 40
2.0
 40
3.0
 40
3.0
 40
3.0
 40
4.0
 40
4.0
 40
4.0
 40
5.0
 40
5.0
 40
5.0
 40
6.0
 40
6.0
 40
6.0
 40
6.0
 10
4149.8845733349
 20
49.0828108795
 30
0.0
 10
4149.8845733349
 20
49.0828108795
 30
0.0
 10
4149.4225756381
 20
49.6739166939
 30
0.0
 10
4149.4225756381
 20
49.6739166939
 30
0.0
 10
4149.0148382449
 20
50.1913959872
 30
0.0
 10
4148.5896538087
 20
50.7093986918
 30
0.0
 10
4148.5896538087
 20
51.4119911105
 30
0.0
 10
4148.5896538087
 20
52.300220066
 30
0.0
 10
4149.3114379746
 20
52.8918492918
 30
0.0
 10
4150.1433129815
 20
52.8918492918
 30
0.0
 10
4151.0683551976
 20
52.8918492918
 30
0.0
 10
4151.7712965572
 20
52.3555271921
 30
0.0
 10
4151.7712965572
 20
51.3755267908
 30
0.0
 10
4151.7712965572
 20
50.3578407767
 30
0.0
 10
4150.809615551
 20
49.7843564757
 30
0.0
 10
4150.1068486618
 20
49.2300639218
 30
0.0
 10
4150.1068486618
 20
49.2300639218
 30
0.0
 10
4149.8845733349
 20
49.0828108795
 30
0.0
 10
4149.8845733349
 20
49.0828108795
 30
0.0
  0
SPLINE
  5
267
330
22B
100
AcDbEntity
  8
0
  6
Continuous
 62
     7
100
AcDbSpline
 70
     3
 71
     3
 72
    50
 73
    46
 74
     0
 42
0.000000001
 43
0.0000001
 40
0.0
 40
0.0
 40
0.0
 40
0.0
 40
1.0
 40
1.0
 40
1.0
 40
2.0
 40
2.0
 40
2.0
 40
3.0
 40
3.0
 40
3.0
 40
4.0
 40
4.0
 40
4.0
 40
5.0
 40
5.0
 40
5.0
 40
6.0
 40
6.0
 40
6.0
 40
7.0
 40
7.0
 40
7.0
 40
8.0
 40
8.0
 40
8.0
 40
9.0
 40
9.0
 40
9.0
 40
10.0
 40
10.0
 40
10.0
 40
11.0
 40
11.0
 40
11.0
 40
12.0
 40
12.0
 40
12.0
 40
13.0
 40
13.0
 40
13.0
 40
14.0
 40
14.0
 40
14.0
 40
15.0
 40
15.0
 40
15.0
 40
15.0
 10
4155.1560228854
 20
40.0180252553
 30
0.0
 10
4155.1560228854
 20
40.0180252553
 30
0.0
 10
4157.3016602248
 20
40.0180252553
 30
0.0
 10
4157.3016602248
 20
40.0180252553
 30
0.0
 10
4157.3016602248
 20
40.0180252553
 30
0.0
 10
4154.8042905
 20
43.1075476172
 30
0.0
 10
4154.8042905
 20
43.1075476172
 30
0.0
 10
4154.8042905
 20
43.1075476172
 30
0.0
 10
4156.5060750673
 20
45.10418721
 30
0.0
 10
4156.5060750673
 20
45.10418721
 30
0.0
 10
4156.5060750673
 20
45.10418721
 30
0.0
 10
4155.396443137
 20
46.2522026347
 30
0.0
 10
4155.396443137
 20
46.2522026347
 30
0.0
 10
4155.396443137
 20
46.2522026347
 30
0.0
 10
4153.7689829726
 20
44.3651304715
 30
0.0
 10
4153.7689829726
 20
44.3651304715
 30
0.0
 10
4153.7689829726
 20
44.3651304715
 30
0.0
 10
4150.8650971475
 20
47.8789649174
 30
0.0
 10
4150.8650971475
 20
47.8789649174
 30
0.0
 10
4152.0298617334
 20
48.7296827306
 30
0.0
 10
4153.3987567216
 20
49.7843564757
 30
0.0
 10
4153.3987567216
 20
51.3561605731
 30
0.0
 10
4153.3987567216
 20
53.1877511398
 30
0.0
 10
4151.8815618685
 20
54.2603953391
 30
0.0
 10
4150.1811730647
 20
54.2603953391
 30
0.0
 10
4148.3499314388
 20
54.2603953391
 30
0.0
 10
4146.9620191738
 20
53.1320950729
 30
0.0
 10
4146.9620191738
 20
51.20855859
 30
0.0
 10
4146.9620191738
 20
50.0251256681
 30
0.0
 10
4147.7024716757
 20
48.9892947294
 30
0.0
 10
4148.4973589516
 20
48.1567218408
 30
0.0
 10
4148.4973589516
 20
48.1567218408
 30
0.0
 10
4147.6281472729
 20
47.5279304137
 30
0.0
 10
4147.6281472729
 20
47.5279304137
 30
0.0
 10
4146.2967634269
 20
46.5662494074
 30
0.0
 10
4145.1862591445
 20
45.6045684012
 30
0.0
 10
4145.1862591445
 20
43.8291573127
 30
0.0
 10
4145.1862591445
 20
41.4242569154
 30
0.0
 10
4147.1289873747
 20
39.7221234072
 30
0.0
 10
4149.4590399578
 20
39.7221234072
 30
0.0
 10
4151.105517399
 20
39.7221234072
 30
0.0
 10
4152.5846776986
 20
40.6663573705
 30
0.0
 10
4153.6391769732
 20
41.9043995368
 30
0.0
 10
4153.6391769732
 20
41.9043995368
 30
0.0
 10
4155.1560228854
 20
40.0180252553
 30
0.0
 10
4155.1560228854
 20
40.0180252553
 30
0.0
  0
LINE
  5
268
330
22B
100
AcDbEntity
  8
0
  6
Continuous
 62
     7
100
AcDbLine
 10
4136.226505
 20
37.316525
 30
0.0
 11
4166.111719
 21
37.316525
 31
0.0
  0
LINE
  5
269
330
22B
100
AcDbEntity
  8
0
  6
Continuous
 62
     7
100
AcDbLine
 10
4166.111719
 20
37.316525
 30
0.0
 11
4166.111719
 21
67.201739
 31
0.0
  0
LINE
  5
26A
330
22B
100
AcDbEntity
  8
0
  6
Continuous
 62
     7
100
AcDbLine
 10
4166.111719
 20
67.201739
 30
0.0
 11
4136.226505
 21
67.201739
 31
0.0
  0
LINE
  5
26B
330
22B
100
AcDbEntity
  8
0
  6
Continuous
 62
     7
100
AcDbLine
 10
4136.226505
 20
67.201739
 30
0.0
 11
4136.226505
 21
37.316525
 31
0.0
  0
ENDBLK
  5
26C
330
22B
100
AcDbEntity
  8
0
  6
ByBlock
 62
     0
100
AcDbBlockEnd
  0
BLOCK
  5
292
330
22C
100
AcDbEntity
  8
0
100
AcDbBlockBegin
  2
*T5
 70
     1
 10
0.0
 20
0.0
 30
0.0
  3
*T5
  1
*T5
  0
LINE
  5
293
330
22C
100
AcDbEntity
  8
0
  6
Continuous
 62
     2
100
AcDbLine
 10
0.0
 20
0.0
 30
0.0
 11
120.0
 21
0.0
 31
0.0
  0
LINE
  5
294
330
22C
100
AcDbEntity
  8
0
  6
Continuous
 62
     2
100
AcDbLine
 10
0.0
 20
0.0
 30
0.0
 11
0.0
 21
-53.333333
 31
0.0
  0
LINE
  5
295
330
22C
100
AcDbEntity
  8
0
  6
Continuous
 62
     2
100
AcDbLine
 10
40.0
 20
-8.0
 30
0.0
 11
120.0
 21
-8.0
 31
0.0
  0
LINE
  5
296
330
22C
100
AcDbEntity
  8
0
  6
Continuous
 62
     2
100
AcDbLine
 10
40.0
 20
-16.0
 30
0.0
 11
120.0
 21
-16.0
 31
0.0
  0
LINE
  5
297
330
22C
100
AcDbEntity
  8
0
  6
Continuous
 62
     2
100
AcDbLine
 10
40.0
 20
-29.333333
 30
0.0
 11
120.0
 21
-29.333333
 31
0.0
  0
LINE
  5
298
330
22C
100
AcDbEntity
  8
0
  6
Continuous
 62
     2
100
AcDbLine
 10
0.0
 20
-36.0
 30
0.0
 11
120.0
 21
-36.0
 31
0.0
  0
LINE
  5
299
330
22C
100
AcDbEntity
  8
0
  6
Continuous
 62
     2
100
AcDbLine
 10
0.0
 20
-53.333333
 30
0.0
 11
120.0
 21
-53.333333
 31
0.0
  0
LINE
  5
29A
330
22C
100
AcDbEntity
  8
0
  6
Continuous
 62
     2
100
AcDbLine
 10
40.0
 20
0.0
 30
0.0
 11
40.0
 21
-36.0
 31
0.0
  0
LINE
  5
29B
330
22C
100
AcDbEntity
  8
0
  6
Continuous
 62
     2
100
AcDbLine
 10
93.333333
 20
0.0
 30
0.0
 11
93.333333
 21
-16.0
 31
0.0
  0
LINE
  5
29C
330
22C
100
AcDbEntity
  8
0
  6
Continuous
 62
     2
100
AcDbLine
 10
120.0
 20
0.0
 30
0.0
 11
120.0
 21
-53.333333
 31
0.0
  0
MTEXT
  5
29D
330
22C
100
AcDbEntity
  8
9_SOLID
  6
Continuous
 62
     2
100
AcDbMText
 10
41.983333
 20
-2.0
 30
0.0
 40
4.0
 41
57.333333
 46
0.0
 71
     1
 72
     1
  1
5B0_C_056
 73
     1
 44
0.9
  0
MTEXT
  5
29E
330
22C
100
AcDbEntity
  8
9_SOLID
  6
Continuous
 62
     2
100
AcDbMText
 10
95.316667
 20
-2.333333
 30
0.0
 40
4.666667
 41
38.444444
 46
0.0
 71
     1
 72
     1
  1
Rev:01
 73
     1
 44
0.9
  0
MTEXT
  5
29F
330
22C
100
AcDbEntity
  8
9_SOLID
  6
Continuous
 62
     2
100
AcDbMText
 10
41.983333
 20
-10.333333
 30
0.0
 40
4.666667
 41
50.444444
 46
0.0
 71
     1
 72
     1
  1
Scale:1:1
 73
     1
 44
0.9
  0
MTEXT
  5
2A0
330
22C
100
AcDbEntity
  8
9_SOLID
  6
Continuous
 62
     2
100
AcDbMText
 10
95.316667
 20
-10.666667
 30
0.0
 40
2.666667
 41
49.269841
 46
0.0
 71
     1
 72
     1
  1
3200 by 2500
 73
     1
 44
0.9
  0
MTEXT
  5
2A1
330
22C
100
AcDbEntity
  8
9_SOLID
  6
Continuous
 62
     2
100
AcDbMText
 10
41.983333
 20
-20.333333
 30
0.0
 40
4.666667
 41
62.888889
 46
0.0
 71
     1
 72
     1
  1
TREVI 1.2
 73
     1
 44
0.9
  0
MTEXT
  5
2A2
330
22C
100
AcDbEntity
  8
9_SOLID
  6
Continuous
 62
     2
100
AcDbMText
 10
41.983333
 20
-31.0
 30
0.0
 40
3.333333
 41
25.873016
 46
0.0
 71
     1
 72
     1
  1
DATE:
 73
     1
 44
0.9
  0
MTEXT
  5
2A3
330
22C
100
AcDbEntity
  8
9_SOLID
  6
Continuous
 62
     2
100
AcDbMText
 10
1.983333
 20
-36.416667
 30
0.0
 40
3.0
 41
239.285714
 46
0.0
 71
     1
 72
     1
  1
Any integral or partial reproductions are prohibited \Pwithout prior authorisation of L {\Ftxt.shx;\W0.190476;\H3.000000; }& L Luce & Light s.r.l., \Pin accordance with the law in force. \PAll rights reserved.
 73
     1
 44
0.9
  0
ENDBLK
  5
2A4
330
22C
100
AcDbEntity
  8
0
  6
ByBlock
 62
     0
100
AcDbBlockEnd
  0
ENDSEC
  0
SECTION
  2
ENTITIES
  0
LINE
  5
2A5
330
225
100
AcDbEntity
  8
0
  6
Continuous
 62
     7
100
AcDbLine
 10
0.0
 20
0.0
 30
0.0
 11
4266.666667
 21
0.0
 31
0.0
  0
LINE
  5
2A6
330
225
100
AcDbEntity
  8
0
  6
Continuous
 62
     7
100
AcDbLine
 10
4266.666667
 20
0.0
 30
0.0
 11
4266.666667
 21
3333.333333
 31
0.0
  0
LINE
  5
2A7
330
225
100
AcDbEntity
  8
0
  6
Continuous
 62
     7
100
AcDbLine
 10
0.0
 20
3333.333333
 30
0.0
 11
4266.666667
 21
3333.333333
 31
0.0
  0
LINE
  5
2A8
330
225
100
AcDbEntity
  8
0
  6
Continuous
 62
     7
100
AcDbLine
 10
0.0
 20
0.0
 30
0.0
 11
0.0
 21
3333.333333
 31
0.0
  0
ARC
  5
2A9
330
225
100
AcDbEntity
  8
7_ALL_FEATURES
  6
Continuous
 62
     7
100
AcDbCircle
 10
2180.576381
 20
2160.913054
 30
0.0
 40
1.6999999391
100
AcDbArc
 50
90.0
 51
270.0
  0
ARC
  5
2AA
330
225
100
AcDbEntity
  8
7_ALL_FEATURES
  6
Continuous
 62
     7
100
AcDbCircle
 10
2180.576381
 20
2160.913054
 30
0.0
 40
1.3
100
AcDbArc
 50
0.0
 51
180.0
  0
ARC
  5
2AB
330
225
100
AcDbEntity
  8
7_ALL_FEATURES
  6
Continuous
 62
     7
100
AcDbCircle
 10
2180.576381
 20
2160.913054
 30
0.0
 40
1.3
100
AcDbArc
 50
180.0
 51
360.0
  0
ARC
  5
2AC
330
225
100
AcDbEntity
  8
7_ALL_FEATURES
  6
Continuous
 62
     7
100
AcDbCircle
 10
2180.576381
 20
2160.913054
 30
0.0
 40
1.6999999391
100
AcDbArc
 50
270.0
 51
90.0
  0
ARC
  5
2AD
330
225
100
AcDbEntity
  8
7_ALL_FEATURES
  6
Continuous
 62
     7
100
AcDbCircle
 10
415.576381
 20
2160.913054
 30
0.0
 40
1.6999999391
100
AcDbArc
 50
90.0
 51
270.0
  0
ARC
  5
2AE
330
225
100
AcDbEntity
  8
7_ALL_FEATURES
  6
Continuous
 62
     7
100
AcDbCircle
 10
415.576381
 20
2160.913054
 30
0.0
 40
1.3
100
AcDbArc
 50
0.0
 51
180.0
  0
ARC
  5
2AF
330
225
100
AcDbEntity
  8
7_ALL_FEATURES
  6
Continuous
 62
     7
100
AcDbCircle
 10
415.576381
 20
2160.913054
 30
0.0
 40
1.3
100
AcDbArc
 50
180.0
 51
360.0
  0
ARC
  5
2B0
330
225
100
AcDbEntity
  8
7_ALL_FEATURES
  6
Continuous
 62
     7
100
AcDbCircle
 10
415.576381
 20
2160.913054
 30
0.0
 40
1.6999999391
100
AcDbArc
 50
270.0
 51
90.0
  0
LINE
  5
2B1
330
225
100
AcDbEntity
  8
7_ALL_FEATURES
  6
Continuous
 62
     7
100
AcDbLine
 10
400.826381
 20
2104.213054
 30
0.0
 11
397.576381
 21
2104.213054
 31
0.0
  0
LINE
  5
2B2
330
225
100
AcDbEntity
  8
7_ALL_FEATURES
  6
Continuous
 62
     7
100
AcDbLine
 10
400.826381
 20
2120.111691
 30
0.0
 11
400.826381
 21
2104.213054
 31
0.0
  0
LINE
  5
2B3
330
225
100
AcDbEntity
  8
7_ALL_FEATURES
  6
Continuous
 62
     7
100
AcDbLine
 10
394.326381
 20
2120.111691
 30
0.0
 11
394.326381
 21
2104.213054
 31
0.0
  0
LINE
  5
2B4
330
225
100
AcDbEntity
  8
7_ALL_FEATURES
  6
Continuous
 62
     7
100
AcDbLine
 10
397.576381
 20
2104.213054
 30
0.0
 11
394.326381
 21
2104.213054
 31
0.0
  0
LINE
  5
2B5
330
225
100
AcDbEntity
  8
7_ALL_FEATURES
  6
Continuous
 62
     7
100
AcDbLine
 10
400.826381
 20
2124.560631
 30
0.0
 11
400.826381
 21
2120.111691
 31
0.0
  0
LINE
  5
2B6
330
225
100
AcDbEntity
  8
7_ALL_FEATURES
  6
Continuous
 62
     7
100
AcDbLine
 10
394.326381
 20
2124.560631
 30
0.0
 11
394.326381
 21
2120.111691
 31
0.0
  0
LINE
  5
2B7
330
225
100
AcDbEntity
  8
7_ALL_FEATURES
  6
Continuous
 62
     7
100
AcDbLine
 10
400.826381
 20
2128.984883
 30
0.0
 11
400.826381
 21
2124.560631
 31
0.0
  0
LINE
  5
2B8
330
225
100
AcDbEntity
  8
7_ALL_FEATURES
  6
Continuous
 62
     7
100
AcDbLine
 10
394.326381
 20
2134.213054
 30
0.0
 11
394.326381
 21
2128.984883
 31
0.0
  0
LINE
  5
2B9
330
225
100
AcDbEntity
  8
7_ALL_FEATURES
  6
Continuous
 62
     7
100
AcDbLine
 10
394.326381
 20
2128.984883
 30
0.0
 11
394.326381
 21
2124.560631
 31
0.0
  0
LINE
  5
2BA
330
225
100
AcDbEntity
  8
7_ALL_FEATURES
  6
Continuous
 62
     7
100
AcDbLine
 10
400.826381
 20
2134.213054
 30
0.0
 11
400.826381
 21
2128.984883
 31
0.0
  0
LINE
  5
2BB
330
225
100
AcDbEntity
  8
7_ALL_FEATURES
  6
Continuous
 62
     9
100
AcDbLine
 10
400.826381
 20
2120.111691
 30
0.0
 11
397.576381
 21
2120.111691
 31
0.0
  0
LINE
  5
2BC
330
225
100
AcDbEntity
  8
7_ALL_FEATURES
  6
Continuous
 62
     9
100
AcDbLine
 10
397.576381
 20
2120.111691
 30
0.0
 11
394.326381
 21
2120.111691
 31
0.0
  0
SPLINE
  5
2BD
330
225
100
AcDbEntity
  8
7_ALL_FEATURES
  6
Continuous
 62
     9
100
AcDbSpline
 70
     0
 71
     3
 72
    13
 73
     9
 74
     0
 42
0.000000001
 43
0.0000001
 40
0.0
 40
0.0
 40
0.0
 40
0.0
 40
0.0705739235
 40
0.152998598
 40
0.2537157908
 40
0.3742163812
 40
0.6662982614
 40
1.0
 40
1.0
 40
1.0
 40
1.0
 10
400.826380816
 20
2124.5606306593
 30
0.0
 10
400.826380816
 20
2124.4726678931
 30
0.0
 10
400.7749984343
 20
2124.2805984014
 30
0.0
 10
400.5724980328
 20
2124.0303915408
 30
0.0
 10
400.2636824048
 20
2123.8068306981
 30
0.0
 10
399.6838367489
 20
2123.530731146
 30
0.0
 10
398.7730449191
 20
2123.3057236863
 30
0.0
 10
397.9923039585
 20
2123.2464102158
 30
0.0
 10
397.576380816
 20
2123.2464102158
 30
0.0
  0
SPLINE
  5
2BE
330
225
100
AcDbEntity
  8
7_ALL_FEATURES
  6
Continuous
 62
     9
100
AcDbSpline
 70
     0
 71
     3
 72
    13
 73
     9
 74
     0
 42
0.000000001
 43
0.0000001
 40
0.0
 40
0.0
 40
0.0
 40
0.0
 40
0.3337017386
 40
0.6257836188
 40
0.7462842092
 40
0.847001402
 40
0.9294260765
 40
1.0
 40
1.0
 40
1.0
 40
1.0
 10
397.576380816
 20
2127.6706626429
 30
0.0
 10
397.1604576736
 20
2127.6706626429
 30
0.0
 10
396.3797167129
 20
2127.7299761135
 30
0.0
 10
395.4689248831
 20
2127.9549835732
 30
0.0
 10
394.8890792272
 20
2128.2310831253
 30
0.0
 10
394.5802635992
 20
2128.4546439679
 30
0.0
 10
394.3777631977
 20
2128.7048508285
 30
0.0
 10
394.326380816
 20
2128.8969203202
 30
0.0
 10
394.326380816
 20
2128.9848830865
 30
0.0
  0
SPLINE
  5
2BF
330
225
100
AcDbEntity
  8
7_ALL_FEATURES
  6
Continuous
 62
     9
100
AcDbSpline
 70
     0
 71
     3
 72
    13
 73
     9
 74
     0
 42
0.000000001
 43
0.0000001
 40
0.0
 40
0.0
 40
0.0
 40
0.0
 40
0.3337017386
 40
0.6257836188
 40
0.7462842092
 40
0.847001402
 40
0.9294260765
 40
1.0
 40
1.0
 40
1.0
 40
1.0
 10
397.576380816
 20
2123.2464102158
 30
0.0
 10
397.1604576736
 20
2123.2464102158
 30
0.0
 10
396.3797167129
 20
2123.3057236863
 30
0.0
 10
395.4689248831
 20
2123.530731146
 30
0.0
 10
394.8890792272
 20
2123.8068306981
 30
0.0
 10
394.5802635992
 20
2124.0303915408
 30
0.0
 10
394.3777631977
 20
2124.2805984014
 30
0.0
 10
394.326380816
 20
2124.4726678931
 30
0.0
 10
394.326380816
 20
2124.5606306593
 30
0.0
  0
SPLINE
  5
2C0
330
225
100
AcDbEntity
  8
7_ALL_FEATURES
  6
Continuous
 62
     9
100
AcDbSpline
 70
     0
 71
     3
 72
    13
 73
     9
 74
     0
 42
0.000000001
 43
0.0000001
 40
0.0
 40
0.0
 40
0.0
 40
0.0
 40
0.0705739235
 40
0.152998598
 40
0.2537157908
 40
0.3742163812
 40
0.6662982614
 40
1.0
 40
1.0
 40
1.0
 40
1.0
 10
400.826380816
 20
2128.9848830865
 30
0.0
 10
400.826380816
 20
2128.8969203202
 30
0.0
 10
400.7749984343
 20
2128.7048508285
 30
0.0
 10
400.5724980328
 20
2128.4546439679
 30
0.0
 10
400.2636824048
 20
2128.2310831253
 30
0.0
 10
399.6838367489
 20
2127.9549835732
 30
0.0
 10
398.7730449191
 20
2127.7299761135
 30
0.0
 10
397.9923039585
 20
2127.6706626429
 30
0.0
 10
397.576380816
 20
2127.6706626429
 30
0.0
  0
LINE
  5
2C1
330
225
100
AcDbEntity
  8
7_ALL_FEATURES
  6
Continuous
 62
     7
100
AcDbLine
 10
394.076381
 20
2134.213054
 30
0.0
 11
394.287457
 21
2134.213054
 31
0.0
  0
LINE
  5
2C2
330
225
100
AcDbEntity
  8
7_ALL_FEATURES
  6
Continuous
 62
     7
100
AcDbLine
 10
394.287457
 20
2134.213054
 30
0.0
 11
394.326381
 21
2134.213054
 31
0.0
  0
LINE
  5
2C3
330
225
100
AcDbEntity
  8
7_ALL_FEATURES
  6
Continuous
 62
     7
100
AcDbLine
 10
394.326381
 20
2134.213054
 30
0.0
 11
397.576381
 21
2134.213054
 31
0.0
  0
LINE
  5
2C4
330
225
100
AcDbEntity
  8
3_ALL_AXES
  6
Continuous
 62
     7
100
AcDbLine
 10
401.845429
 20
2150.213054
 30
0.0
 11
401.576381
 21
2150.213054
 31
0.0
  0
LINE
  5
2C5
330
225
100
AcDbEntity
  8
3_ALL_AXES
  6
Continuous
 62
     7
100
AcDbLine
 10
405.576381
 20
2148.913054
 30
0.0
 11
405.576381
 21
2146.713054
 31
0.0
  0
LINE
  5
2C6
330
225
100
AcDbEntity
  8
3_ALL_AXES
  6
Continuous
 62
     7
100
AcDbLine
 10
405.576381
 20
2146.713054
 30
0.0
 11
403.576381
 21
2146.713054
 31
0.0
  0
LINE
  5
2C7
330
225
100
AcDbEntity
  8
3_ALL_AXES
  6
Continuous
 62
     7
100
AcDbLine
 10
403.576381
 20
2146.713054
 30
0.0
 11
401.576381
 21
2146.713054
 31
0.0
  0
LINE
  5
2C8
330
225
100
AcDbEntity
  8
3_ALL_AXES
  6
Continuous
 62
     7
100
AcDbLine
 10
405.576381
 20
2143.713054
 30
0.0
 11
403.576381
 21
2143.713054
 31
0.0
  0
LINE
  5
2C9
330
225
100
AcDbEntity
  8
3_ALL_AXES
  6
Continuous
 62
     7
100
AcDbLine
 10
403.576381
 20
2143.713054
 30
0.0
 11
401.576381
 21
2143.713054
 31
0.0
  0
LINE
  5
2CA
330
225
100
AcDbEntity
  8
3_ALL_AXES
  6
Continuous
 62
     7
100
AcDbLine
 10
405.576381
 20
2143.713054
 30
0.0
 11
405.576381
 21
2139.213054
 31
0.0
  0
LINE
  5
2CB
330
225
100
AcDbEntity
  8
3_ALL_AXES
  6
Continuous
 62
     7
100
AcDbLine
 10
401.576381
 20
2150.213054
 30
0.0
 11
393.576381
 21
2150.213054
 31
0.0
  0
LINE
  5
2CC
330
225
100
AcDbEntity
  8
3_ALL_AXES
  6
Continuous
 62
     7
100
AcDbLine
 10
401.576381
 20
2146.713054
 30
0.0
 11
393.576381
 21
2146.713054
 31
0.0
  0
LINE
  5
2CD
330
225
100
AcDbEntity
  8
3_ALL_AXES
  6
Continuous
 62
     7
100
AcDbLine
 10
401.576381
 20
2143.713054
 30
0.0
 11
393.576381
 21
2143.713054
 31
0.0
  0
LINE
  5
2CE
330
225
100
AcDbEntity
  8
3_ALL_AXES
  6
Continuous
 62
     7
100
AcDbLine
 10
393.576381
 20
2150.213054
 30
0.0
 11
393.307332
 21
2150.213054
 31
0.0
  0
LINE
  5
2CF
330
225
100
AcDbEntity
  8
3_ALL_AXES
  6
Continuous
 62
     7
100
AcDbLine
 10
393.576381
 20
2146.713054
 30
0.0
 11
391.576381
 21
2146.713054
 31
0.0
  0
LINE
  5
2D0
330
225
100
AcDbEntity
  8
3_ALL_AXES
  6
Continuous
 62
     7
100
AcDbLine
 10
391.576381
 20
2146.713054
 30
0.0
 11
389.576381
 21
2146.713054
 31
0.0
  0
LINE
  5
2D1
330
225
100
AcDbEntity
  8
3_ALL_AXES
  6
Continuous
 62
     7
100
AcDbLine
 10
393.576381
 20
2143.713054
 30
0.0
 11
391.576381
 21
2143.713054
 31
0.0
  0
LINE
  5
2D2
330
225
100
AcDbEntity
  8
3_ALL_AXES
  6
Continuous
 62
     7
100
AcDbLine
 10
391.576381
 20
2143.713054
 30
0.0
 11
389.576381
 21
2143.713054
 31
0.0
  0
LINE
  5
2D3
330
225
100
AcDbEntity
  8
3_ALL_AXES
  6
Continuous
 62
     7
100
AcDbLine
 10
391.576381
 20
2143.713054
 30
0.0
 11
391.576381
 21
2146.713054
 31
0.0
  0
LINE
  5
2D4
330
225
100
AcDbEntity
  8
3_ALL_AXES
  6
Continuous
 62
     7
100
AcDbLine
 10
389.576381
 20
2143.713054
 30
0.0
 11
389.576381
 21
2139.213054
 31
0.0
  0
ARC
  5
2D5
330
225
100
AcDbEntity
  8
3_ALL_AXES
  6
Continuous
 62
     7
100
AcDbCircle
 10
394.076381
 20
2137.713054
 30
0.0
 40
3.5
100
AcDbArc
 50
259.330363
 51
270.0
  0
ARC
  5
2D6
330
225
100
AcDbEntity
  8
3_ALL_AXES
  6
Continuous
 62
     7
100
AcDbCircle
 10
394.076381
 20
2137.713054
 30
0.0
 40
3.5
100
AcDbArc
 50
190.669637
 51
259.330363
  0
ARC
  5
2D7
330
225
100
AcDbEntity
  8
3_ALL_AXES
  6
Continuous
 62
     7
100
AcDbCircle
 10
394.076381
 20
2137.713054
 30
0.0
 40
3.5
100
AcDbArc
 50
180.0
 51
190.669637
  0
LINE
  5
2D8
330
225
100
AcDbEntity
  8
3_ALL_AXES
  6
Continuous
 62
     7
100
AcDbLine
 10
394.076381
 20
2134.213054
 30
0.0
 11
394.287457
 21
2134.213054
 31
0.0
  0
LINE
  5
2D9
330
225
100
AcDbEntity
  8
3_ALL_AXES
  6
Continuous
 62
     7
100
AcDbLine
 10
394.287457
 20
2134.213054
 30
0.0
 11
394.326381
 21
2134.213054
 31
0.0
  0
LINE
  5
2DA
330
225
100
AcDbEntity
  8
3_ALL_AXES
  6
Continuous
 62
     7
100
AcDbLine
 10
394.326381
 20
2134.213054
 30
0.0
 11
397.576381
 21
2134.213054
 31
0.0
  0
LINE
  5
2DB
330
225
100
AcDbEntity
  8
3_ALL_AXES
  6
Continuous
 62
     7
100
AcDbLine
 10
397.576381
 20
2134.213054
 30
0.0
 11
400.826381
 21
2134.213054
 31
0.0
  0
LINE
  5
2DC
330
225
100
AcDbEntity
  8
3_ALL_AXES
  6
Continuous
 62
     7
100
AcDbLine
 10
400.826381
 20
2134.213054
 30
0.0
 11
400.865305
 21
2134.213054
 31
0.0
  0
LINE
  5
2DD
330
225
100
AcDbEntity
  8
3_ALL_AXES
  6
Continuous
 62
     7
100
AcDbLine
 10
400.865305
 20
2134.213054
 30
0.0
 11
401.076381
 21
2134.213054
 31
0.0
  0
LINE
  5
2DE
330
225
100
AcDbEntity
  8
3_ALL_AXES
  6
Continuous
 62
     7
100
AcDbLine
 10
403.576381
 20
2143.713054
 30
0.0
 11
403.576381
 21
2146.713054
 31
0.0
  0
ARC
  5
2DF
330
225
100
AcDbEntity
  8
3_ALL_AXES
  6
Continuous
 62
     7
100
AcDbCircle
 10
401.076381
 20
2137.713054
 30
0.0
 40
3.5
100
AcDbArc
 50
270.0
 51
280.669637
  0
ARC
  5
2E0
330
225
100
AcDbEntity
  8
3_ALL_AXES
  6
Continuous
 62
     7
100
AcDbCircle
 10
401.076381
 20
2137.713054
 30
0.0
 40
3.5
100
AcDbArc
 50
280.669637
 51
349.330363
  0
ARC
  5
2E1
330
225
100
AcDbEntity
  8
3_ALL_AXES
  6
Continuous
 62
     7
100
AcDbCircle
 10
401.076381
 20
2137.713054
 30
0.0
 40
3.5
100
AcDbArc
 50
349.330363
 51
360.0
  0
LINE
  5
2E2
330
225
100
AcDbEntity
  8
3_ALL_AXES
  6
Continuous
 62
     7
100
AcDbLine
 10
389.576381
 20
2150.213054
 30
0.0
 11
389.576381
 21
2146.713054
 31
0.0
  0
LINE
  5
2E3
330
225
100
AcDbEntity
  8
3_ALL_AXES
  6
Continuous
 62
     7
100
AcDbLine
 10
404.576381
 20
2137.713054
 30
0.0
 11
404.576381
 21
2138.213054
 31
0.0
  0
LINE
  5
2E4
330
225
100
AcDbEntity
  8
3_ALL_AXES
  6
Continuous
 62
     7
100
AcDbLine
 10
390.576381
 20
2137.713054
 30
0.0
 11
390.576381
 21
2138.213054
 31
0.0
  0
LINE
  5
2E5
330
225
100
AcDbEntity
  8
3_ALL_AXES
  6
Continuous
 62
     7
100
AcDbLine
 10
404.576381
 20
2138.213054
 30
0.0
 11
405.576381
 21
2139.213054
 31
0.0
  0
LINE
  5
2E6
330
225
100
AcDbEntity
  8
3_ALL_AXES
  6
Continuous
 62
     7
100
AcDbLine
 10
390.576381
 20
2138.213054
 30
0.0
 11
389.576381
 21
2139.213054
 31
0.0
  0
LINE
  5
2E7
330
225
100
AcDbEntity
  8
3_ALL_AXES
  6
Continuous
 62
     7
100
AcDbLine
 10
391.576381
 20
2146.713054
 30
0.0
 11
391.576381
 21
2143.713054
 31
0.0
  0
LINE
  5
2E8
330
225
100
AcDbEntity
  8
3_ALL_AXES
  6
Continuous
 62
     7
100
AcDbLine
 10
403.576381
 20
2146.713054
 30
0.0
 11
403.576381
 21
2143.713054
 31
0.0
  0
LINE
  5
2E9
330
225
100
AcDbEntity
  8
7_ALL_FEATURES
  6
Continuous
 62
     7
100
AcDbLine
 10
397.576381
 20
2134.213054
 30
0.0
 11
400.826381
 21
2134.213054
 31
0.0
  0
LINE
  5
2EA
330
225
100
AcDbEntity
  8
7_ALL_FEATURES
  6
Continuous
 62
     7
100
AcDbLine
 10
400.826381
 20
2134.213054
 30
0.0
 11
400.865305
 21
2134.213054
 31
0.0
  0
LINE
  5
2EB
330
225
100
AcDbEntity
  8
7_ALL_FEATURES
  6
Continuous
 62
     7
100
AcDbLine
 10
400.865305
 20
2134.213054
 30
0.0
 11
401.076381
 21
2134.213054
 31
0.0
  0
ARC
  5
2EC
330
225
100
AcDbEntity
  8
7_ALL_FEATURES
  6
Continuous
 62
     7
100
AcDbCircle
 10
401.076381
 20
2137.713054
 30
0.0
 40
3.5
100
AcDbArc
 50
349.336305
 51
360.0
  0
ARC
  5
2ED
330
225
100
AcDbEntity
  8
7_ALL_FEATURES
  6
Continuous
 62
     7
100
AcDbCircle
 10
401.076381
 20
2137.713054
 30
0.0
 40
3.5
100
AcDbArc
 50
280.663695
 51
349.336305
  0
ARC
  5
2EE
330
225
100
AcDbEntity
  8
7_ALL_FEATURES
  6
Continuous
 62
     7
100
AcDbCircle
 10
401.076381
 20
2137.713054
 30
0.0
 40
3.5
100
AcDbArc
 50
270.0
 51
280.663695
  0
ARC
  5
2EF
330
225
100
AcDbEntity
  8
7_ALL_FEATURES
  6
Continuous
 62
     7
100
AcDbCircle
 10
394.076381
 20
2137.713054
 30
0.0
 40
3.5
100
AcDbArc
 50
180.0
 51
190.663695
  0
ARC
  5
2F0
330
225
100
AcDbEntity
  8
7_ALL_FEATURES
  6
Continuous
 62
     7
100
AcDbCircle
 10
394.076381
 20
2137.713054
 30
0.0
 40
3.5
100
AcDbArc
 50
190.663695
 51
259.336305
  0
ARC
  5
2F1
330
225
100
AcDbEntity
  8
7_ALL_FEATURES
  6
Continuous
 62
     7
100
AcDbCircle
 10
394.076381
 20
2137.713054
 30
0.0
 40
3.5
100
AcDbArc
 50
259.336305
 51
270.0
  0
LINE
  5
2F2
330
225
100
AcDbEntity
  8
3_ALL_AXES
  6
Continuous
 62
     7
100
AcDbLine
 10
398.576381
 20
2137.713054
 30
0.0
 11
398.576381
 21
2138.213054
 31
0.0
  0
SPLINE
  5
2F3
330
225
100
AcDbEntity
  8
3_ALL_AXES
  6
Continuous
 62
     7
100
AcDbSpline
 70
     0
 71
     3
 72
    15
 73
    11
 74
     0
 42
0.000000001
 43
0.0000001
 40
0.0
 40
0.0
 40
0.0
 40
0.0
 40
0.1240866186
 40
0.2491207329
 40
0.3745365586
 40
0.5000585013
 40
0.6255719033
 40
0.7509716798
 40
0.8759791531
 40
1.0
 40
1.0
 40
1.0
 40
1.0
 10
396.576380816
 20
2137.7130541987
 30
0.0
 10
396.576380816
 20
2137.6022103045
 30
0.0
 10
396.6587428109
 20
2137.3771393381
 30
0.0
 10
396.9225413189
 20
2137.1574633459
 30
0.0
 10
397.2393398721
 20
2137.0339293782
 30
0.0
 10
397.57653502
 20
2136.9946627675
 30
0.0
 10
397.913702351
 20
2137.0340118468
 30
0.0
 10
398.2304407471
 20
2137.1575805397
 30
0.0
 10
398.4940899707
 20
2137.3772856845
 30
0.0
 10
398.576380816
 20
2137.6022690569
 30
0.0
 10
398.576380816
 20
2137.7130541987
 30
0.0
  0
LINE
  5
2F4
330
225
100
AcDbEntity
  8
3_ALL_AXES
  6
Continuous
 62
     7
100
AcDbLine
 10
396.576381
 20
2137.713054
 30
0.0
 11
396.576381
 21
2138.213054
 31
0.0
  0
SPLINE
  5
2F5
330
225
100
AcDbEntity
  8
3_ALL_AXES
  6
Continuous
 62
     7
100
AcDbSpline
 70
     0
 71
     3
 72
     9
 73
     5
 74
     0
 42
0.000000001
 43
0.0000001
 40
0.0
 40
0.0
 40
0.0
 40
0.0
 40
0.7496773138
 40
1.0
 40
1.0
 40
1.0
 40
1.0
 10
393.576380816
 20
2139.2130541987
 30
0.0
 10
394.2851137495
 20
2138.858687732
 30
0.0
 10
395.2758982506
 20
2138.4566934785
 30
0.0
 10
396.3144560888
 20
2138.2504720169
 30
0.0
 10
396.576380816
 20
2138.2130541987
 30
0.0
  0
LINE
  5
2F6
330
225
100
AcDbEntity
  8
3_ALL_AXES
  6
Continuous
 62
     7
100
AcDbLine
 10
403.076381
 20
2137.713054
 30
0.0
 11
403.076381
 21
2138.213054
 31
0.0
  0
LINE
  5
2F7
330
225
100
AcDbEntity
  8
3_ALL_AXES
  6
Continuous
 62
     7
100
AcDbLine
 10
393.576381
 20
2150.213054
 30
0.0
 11
393.576381
 21
2146.713054
 31
0.0
  0
SPLINE
  5
2F8
330
225
100
AcDbEntity
  8
3_ALL_AXES
  6
Continuous
 62
     7
100
AcDbSpline
 70
     0
 71
     3
 72
     9
 73
     5
 74
     0
 42
0.000000001
 43
0.0000001
 40
0.0
 40
0.0
 40
0.0
 40
0.0
 40
0.5276143562
 40
1.0
 40
1.0
 40
1.0
 40
1.0
 10
401.576380816
 20
2139.2130541987
 30
0.0
 10
401.8022928466
 20
2138.9871421681
 30
0.0
 10
402.2558655584
 20
2138.5830587578
 30
0.0
 10
402.801341646
 20
2138.2916368187
 30
0.0
 10
403.076380816
 20
2138.2130541987
 30
0.0
  0
SPLINE
  5
2F9
330
225
100
AcDbEntity
  8
3_ALL_AXES
  6
Continuous
 62
     7
100
AcDbSpline
 70
     0
 71
     3
 72
     9
 73
     5
 74
     0
 42
0.000000001
 43
0.0000001
 40
0.0
 40
0.0
 40
0.0
 40
0.0
 40
0.4723856656
 40
1.0
 40
1.0
 40
1.0
 40
1.0
 10
404.076380816
 20
2138.2130541987
 30
0.0
 10
404.3514199986
 20
2138.2916368223
 30
0.0
 10
404.8968960829
 20
2138.5830587691
 30
0.0
 10
405.3504687948
 20
2138.9871421775
 30
0.0
 10
405.576380816
 20
2139.2130541987
 30
0.0
  0
LINE
  5
2FA
330
225
100
AcDbEntity
  8
3_ALL_AXES
  6
Continuous
 62
     7
100
AcDbLine
 10
393.576381
 20
2143.713054
 30
0.0
 11
393.576381
 21
2139.213054
 31
0.0
  0
SPLINE
  5
2FB
330
225
100
AcDbEntity
  8
3_ALL_AXES
  6
Continuous
 62
     7
100
AcDbSpline
 70
     0
 71
     3
 72
     9
 73
     5
 74
     0
 42
0.000000001
 43
0.0000001
 40
0.0
 40
0.0
 40
0.0
 40
0.0
 40
0.5276143562
 40
1.0
 40
1.0
 40
1.0
 40
1.0
 10
389.576380816
 20
2139.2130541987
 30
0.0
 10
389.8022928466
 20
2138.9871421681
 30
0.0
 10
390.2558655584
 20
2138.5830587578
 30
0.0
 10
390.801341646
 20
2138.2916368187
 30
0.0
 10
391.076380816
 20
2138.2130541987
 30
0.0
  0
LINE
  5
2FC
330
225
100
AcDbEntity
  8
3_ALL_AXES
  6
Continuous
 62
     7
100
AcDbLine
 10
390.576381
 20
2138.213054
 30
0.0
 11
391.076381
 21
2138.213054
 31
0.0
  0
SPLINE
  5
2FD
330
225
100
AcDbEntity
  8
3_ALL_AXES
  6
Continuous
 62
     7
100
AcDbSpline
 70
     0
 71
     3
 72
     9
 73
     5
 74
     0
 42
0.000000001
 43
0.0000001
 40
0.0
 40
0.0
 40
0.0
 40
0.0
 40
0.4723856656
 40
1.0
 40
1.0
 40
1.0
 40
1.0
 10
392.076380816
 20
2138.2130541987
 30
0.0
 10
392.3514199986
 20
2138.2916368223
 30
0.0
 10
392.8968960829
 20
2138.5830587691
 30
0.0
 10
393.3504687948
 20
2138.9871421775
 30
0.0
 10
393.576380816
 20
2139.2130541987
 30
0.0
  0
LINE
  5
2FE
330
225
100
AcDbEntity
  8
3_ALL_AXES
  6
Continuous
 62
     7
100
AcDbLine
 10
392.076381
 20
2137.713054
 30
0.0
 11
392.076381
 21
2138.213054
 31
0.0
  0
SPLINE
  5
2FF
330
225
100
AcDbEntity
  8
3_ALL_AXES
  6
Continuous
 62
     7
100
AcDbSpline
 70
     0
 71
     3
 72
    15
 73
    11
 74
     0
 42
0.000000001
 43
0.0000001
 40
0.0
 40
0.0
 40
0.0
 40
0.0
 40
0.1686889682
 40
0.3038155322
 40
0.4094422526
 40
0.5000398214
 40
0.5906390971
 40
0.6962706796
 40
0.8313936487
 40
1.0
 40
1.0
 40
1.0
 40
1.0
 10
391.076380816
 20
2137.7130541987
 30
0.0
 10
391.076380816
 20
2137.6064485235
 30
0.0
 10
391.1067469469
 20
2137.4125789649
 30
0.0
 10
391.2300806428
 20
2137.1793963431
 30
0.0
 10
391.393999187
 20
2137.0396038774
 30
0.0
 10
391.5764628689
 20
2136.9930512751
 30
0.0
 10
391.7589018896
 20
2137.0396918443
 30
0.0
 10
391.9227865838
 20
2137.1795215893
 30
0.0
 10
392.0460302507
 20
2137.4126926834
 30
0.0
 10
392.076380816
 20
2137.6065007346
 30
0.0
 10
392.076380816
 20
2137.7130541987
 30
0.0
  0
LINE
  5
300
330
225
100
AcDbEntity
  8
3_ALL_AXES
  6
Continuous
 62
     7
100
AcDbLine
 10
391.076381
 20
2137.713054
 30
0.0
 11
391.076381
 21
2138.213054
 31
0.0
  0
LINE
  5
301
330
225
100
AcDbEntity
  8
3_ALL_AXES
  6
Continuous
 62
     7
100
AcDbLine
 10
401.576381
 20
2150.213054
 30
0.0
 11
401.576381
 21
2146.713054
 31
0.0
  0
LINE
  5
302
330
225
100
AcDbEntity
  8
3_ALL_AXES
  6
Continuous
 62
     7
100
AcDbLine
 10
404.076381
 20
2137.713054
 30
0.0
 11
404.076381
 21
2138.213054
 31
0.0
  0
SPLINE
  5
303
330
225
100
AcDbEntity
  8
3_ALL_AXES
  6
Continuous
 62
     7
100
AcDbSpline
 70
     0
 71
     3
 72
    15
 73
    11
 74
     0
 42
0.000000001
 43
0.0000001
 40
0.0
 40
0.0
 40
0.0
 40
0.0
 40
0.1686964145
 40
0.303825837
 40
0.4094560199
 40
0.5000450187
 40
0.5906383609
 40
0.6962584594
 40
0.831376692
 40
1.0
 40
1.0
 40
1.0
 40
1.0
 10
403.076380816
 20
2137.7130541987
 30
0.0
 10
403.076380816
 20
2137.6064438664
 30
0.0
 10
403.1067504511
 20
2137.4125682727
 30
0.0
 10
403.2300910658
 20
2137.1793781104
 30
0.0
 10
403.3940183281
 20
2137.0395971707
 30
0.0
 10
403.5764750222
 20
2136.9930525864
 30
0.0
 10
403.7588962651
 20
2137.0396925412
 30
0.0
 10
403.9227715396
 20
2137.1795080986
 30
0.0
 10
404.0460284525
 20
2137.4126728959
 30
0.0
 10
404.076380816
 20
2137.6064900672
 30
0.0
 10
404.076380816
 20
2137.7130541987
 30
0.0
  0
LINE
  5
304
330
225
100
AcDbEntity
  8
3_ALL_AXES
  6
Continuous
 62
     9
100
AcDbLine
 10
404.576381
 20
2137.713054
 30
0.0
 11
404.076381
 21
2137.713054
 31
0.0
  0
LINE
  5
305
330
225
100
AcDbEntity
  8
3_ALL_AXES
  6
Continuous
 62
     9
100
AcDbLine
 10
403.076381
 20
2137.713054
 30
0.0
 11
398.576381
 21
2137.713054
 31
0.0
  0
LINE
  5
306
330
225
100
AcDbEntity
  8
3_ALL_AXES
  6
Continuous
 62
     9
100
AcDbLine
 10
396.576381
 20
2137.713054
 30
0.0
 11
392.076381
 21
2137.713054
 31
0.0
  0
LINE
  5
307
330
225
100
AcDbEntity
  8
3_ALL_AXES
  6
Continuous
 62
     9
100
AcDbLine
 10
391.076381
 20
2137.713054
 30
0.0
 11
390.576381
 21
2137.713054
 31
0.0
  0
LINE
  5
308
330
225
100
AcDbEntity
  8
3_ALL_AXES
  6
Continuous
 62
     7
100
AcDbLine
 10
401.576381
 20
2143.713054
 30
0.0
 11
401.576381
 21
2139.213054
 31
0.0
  0
SPLINE
  5
309
330
225
100
AcDbEntity
  8
3_ALL_AXES
  6
Continuous
 62
     7
100
AcDbSpline
 70
     0
 71
     3
 72
     9
 73
     5
 74
     0
 42
0.000000001
 43
0.0000001
 40
0.0
 40
0.0
 40
0.0
 40
0.0
 40
0.250322705
 40
1.0
 40
1.0
 40
1.0
 40
1.0
 10
398.576380816
 20
2138.2130541987
 30
0.0
 10
398.8383055629
 20
2138.2504720197
 30
0.0
 10
399.8768634007
 20
2138.4566934858
 30
0.0
 10
400.8676479003
 20
2138.8586877408
 30
0.0
 10
401.576380816
 20
2139.2130541987
 30
0.0
  0
LINE
  5
30A
330
225
100
AcDbEntity
  8
3_ALL_AXES
  6
Continuous
 62
     7
100
AcDbLine
 10
396.576381
 20
2138.213054
 30
0.0
 11
392.076381
 21
2138.213054
 31
0.0
  0
LINE
  5
30B
330
225
100
AcDbEntity
  8
3_ALL_AXES
  6
Continuous
 62
     7
100
AcDbLine
 10
403.076381
 20
2138.213054
 30
0.0
 11
398.576381
 21
2138.213054
 31
0.0
  0
LINE
  5
30C
330
225
100
AcDbEntity
  8
3_ALL_AXES
  6
Continuous
 62
     7
100
AcDbLine
 10
404.076381
 20
2138.213054
 30
0.0
 11
404.576381
 21
2138.213054
 31
0.0
  0
LINE
  5
30D
330
225
100
AcDbEntity
  8
7_ALL_FEATURES
  6
Continuous
 62
     7
100
AcDbLine
 10
2191.076381
 20
2148.413054
 30
0.0
 11
2189.576381
 21
2148.413054
 31
0.0
  0
LINE
  5
30E
330
225
100
AcDbEntity
  8
7_ALL_FEATURES
  6
Continuous
 62
     7
100
AcDbLine
 10
2191.576381
 20
2172.913054
 30
0.0
 11
2191.076381
 21
2173.413054
 31
0.0
  0
LINE
  5
30F
330
225
100
AcDbEntity
  8
7_ALL_FEATURES
  6
Continuous
 62
     7
100
AcDbLine
 10
2191.576381
 20
2148.913054
 30
0.0
 11
2191.576381
 21
2172.913054
 31
0.0
  0
LINE
  5
310
330
225
100
AcDbEntity
  8
7_ALL_FEATURES
  6
Continuous
 62
     7
100
AcDbLine
 10
2191.576381
 20
2148.913054
 30
0.0
 11
2191.076381
 21
2148.413054
 31
0.0
  0
LINE
  5
311
330
225
100
AcDbEntity
  8
7_ALL_FEATURES
  6
Continuous
 62
     7
100
AcDbLine
 10
2191.576381
 20
2172.913054
 30
0.0
 11
2191.076381
 21
2173.413054
 31
0.0
  0
LINE
  5
312
330
225
100
AcDbEntity
  8
7_ALL_FEATURES
  6
Continuous
 62
     7
100
AcDbLine
 10
2191.576381
 20
2148.913054
 30
0.0
 11
2191.076381
 21
2148.413054
 31
0.0
  0
LINE
  5
313
330
225
100
AcDbEntity
  8
7_ALL_FEATURES
  6
Continuous
 62
     7
100
AcDbLine
 10
2189.076381
 20
2148.913054
 30
0.0
 11
2189.576381
 21
2148.413054
 31
0.0
  0
LINE
  5
314
330
225
100
AcDbEntity
  8
7_ALL_FEATURES
  6
Continuous
 62
     7
100
AcDbLine
 10
2189.076381
 20
2172.913054
 30
0.0
 11
2189.576381
 21
2173.413054
 31
0.0
  0
LINE
  5
315
330
225
100
AcDbEntity
  8
7_ALL_FEATURES
  6
Continuous
 62
     7
100
AcDbLine
 10
2189.076381
 20
2148.913054
 30
0.0
 11
2189.576381
 21
2148.413054
 31
0.0
  0
LINE
  5
316
330
225
100
AcDbEntity
  8
7_ALL_FEATURES
  6
Continuous
 62
     7
100
AcDbLine
 10
2189.076381
 20
2172.913054
 30
0.0
 11
2189.576381
 21
2173.413054
 31
0.0
  0
LINE
  5
317
330
225
100
AcDbEntity
  8
3_ALL_AXES
  6
Continuous
 62
     7
100
AcDbLine
 10
2189.576381
 20
2173.413054
 30
0.0
 11
2191.076381
 21
2173.413054
 31
0.0
  0
LINE
  5
318
330
225
100
AcDbEntity
  8
3_ALL_AXES
  6
Continuous
 62
     7
100
AcDbLine
 10
2189.576381
 20
2148.413054
 30
0.0
 11
2191.076381
 21
2148.413054
 31
0.0
  0
LINE
  5
319
330
225
100
AcDbEntity
  8
3_ALL_AXES
  6
Continuous
 62
     7
100
AcDbLine
 10
2189.576381
 20
2173.413054
 30
0.0
 11
2191.076381
 21
2173.413054
 31
0.0
  0
LINE
  5
31A
330
225
100
AcDbEntity
  8
7_ALL_FEATURES
  6
Continuous
 62
     7
100
AcDbLine
 10
2191.076381
 20
2148.413054
 30
0.0
 11
2191.076381
 21
2173.413054
 31
0.0
  0
LINE
  5
31B
330
225
100
AcDbEntity
  8
7_ALL_FEATURES
  6
Continuous
 62
     7
100
AcDbLine
 10
2189.576381
 20
2148.413054
 30
0.0
 11
2189.576381
 21
2173.413054
 31
0.0
  0
LINE
  5
31C
330
225
100
AcDbEntity
  8
7_ALL_FEATURES
  6
Continuous
 62
     7
100
AcDbLine
 10
404.276381
 20
2150.213054
 30
0.0
 11
401.845429
 21
2150.213054
 31
0.0
  0
LINE
  5
31D
330
225
100
AcDbEntity
  8
7_ALL_FEATURES
  6
Continuous
 62
     7
100
AcDbLine
 10
393.307332
 20
2150.213054
 30
0.0
 11
389.576381
 21
2150.213054
 31
0.0
  0
LINE
  5
31E
330
225
100
AcDbEntity
  8
7_ALL_FEATURES
  6
Continuous
 62
     7
100
AcDbLine
 10
389.576381
 20
2150.213054
 30
0.0
 11
389.076381
 21
2150.213054
 31
0.0
  0
LINE
  5
31F
330
225
100
AcDbEntity
  8
7_ALL_FEATURES
  6
Continuous
 62
     7
100
AcDbLine
 10
389.076381
 20
2150.213054
 30
0.0
 11
388.576381
 21
2150.213054
 31
0.0
  0
LINE
  5
320
330
225
100
AcDbEntity
  8
3_ALL_AXES
  6
Continuous
 62
     7
100
AcDbLine
 10
404.276381
 20
2150.213054
 30
0.0
 11
406.055818
 21
2148.433617
 31
0.0
  0
LINE
  5
321
330
225
100
AcDbEntity
  8
3_ALL_AXES
  6
Continuous
 62
     7
100
AcDbLine
 10
406.055818
 20
2148.433617
 30
0.0
 11
406.07635
 21
2148.413085
 31
0.0
  0
SPLINE
  5
322
330
225
100
AcDbEntity
  8
3_ALL_AXES
  6
Continuous
 62
     7
100
AcDbSpline
 70
     0
 71
     3
 72
     8
 73
     4
 74
     0
 42
0.000000001
 43
0.0000001
 40
0.0
 40
0.0
 40
0.0
 40
0.0
 40
1.0
 40
1.0
 40
1.0
 40
1.0
 10
406.0763479664
 20
2148.4130870483
 30
0.0
 10
406.0763485114
 20
2148.4130865033
 30
0.0
 10
406.0763490564
 20
2148.4130859583
 30
0.0
 10
406.0763496014
 20
2148.4130854133
 30
0.0
  0
LINE
  5
323
330
225
100
AcDbEntity
  8
7_ALL_FEATURES
  6
Continuous
 62
     7
100
AcDbLine
 10
388.576381
 20
2150.213054
 30
0.0
 11
388.576381
 21
2172.913054
 31
0.0
  0
LINE
  5
324
330
225
100
AcDbEntity
  8
7_ALL_FEATURES
  6
Continuous
 62
     7
100
AcDbLine
 10
388.576381
 20
2172.913054
 30
0.0
 11
389.076381
 21
2173.413054
 31
0.0
  0
LINE
  5
325
330
225
100
AcDbEntity
  8
7_ALL_FEATURES
  6
Continuous
 62
     7
100
AcDbLine
 10
407.076381
 20
2148.913054
 30
0.0
 11
406.576381
 21
2148.413054
 31
0.0
  0
LINE
  5
326
330
225
100
AcDbEntity
  8
7_ALL_FEATURES
  6
Continuous
 62
     7
100
AcDbLine
 10
407.076381
 20
2172.913054
 30
0.0
 11
406.576381
 21
2173.413054
 31
0.0
  0
LINE
  5
327
330
225
100
AcDbEntity
  8
3_ALL_AXES
  6
Continuous
 62
     7
100
AcDbLine
 10
406.576381
 20
2148.413054
 30
0.0
 11
406.076381
 21
2148.413054
 31
0.0
  0
LINE
  5
328
330
225
100
AcDbEntity
  8
3_ALL_AXES
  6
Continuous
 62
     7
100
AcDbLine
 10
406.076381
 20
2148.413054
 30
0.0
 11
406.055819
 21
2148.413054
 31
0.0
  0
LINE
  5
329
330
225
100
AcDbEntity
  8
3_ALL_AXES
  6
Continuous
 62
     7
100
AcDbLine
 10
406.576381
 20
2173.413054
 30
0.0
 11
389.076381
 21
2173.413054
 31
0.0
  0
LINE
  5
32A
330
225
100
AcDbEntity
  8
7_ALL_FEATURES
  6
Continuous
 62
     7
100
AcDbLine
 10
389.076381
 20
2160.913054
 30
0.0
 11
389.076381
 21
2150.213054
 31
0.0
  0
LINE
  5
32B
330
225
100
AcDbEntity
  8
7_ALL_FEATURES
  6
Continuous
 62
     7
100
AcDbLine
 10
406.576381
 20
2160.913054
 30
0.0
 11
406.576381
 21
2148.413054
 31
0.0
  0
LINE
  5
32C
330
225
100
AcDbEntity
  8
7_ALL_FEATURES
  6
Continuous
 62
     7
100
AcDbLine
 10
406.576381
 20
2173.413054
 30
0.0
 11
406.576381
 21
2160.913054
 31
0.0
  0
LINE
  5
32D
330
225
100
AcDbEntity
  8
7_ALL_FEATURES
  6
Continuous
 62
     7
100
AcDbLine
 10
389.076381
 20
2173.413054
 30
0.0
 11
389.076381
 21
2160.913054
 31
0.0
  0
LINE
  5
32E
330
225
100
AcDbEntity
  8
3_ALL_AXES
  6
Continuous
 62
     7
100
AcDbLine
 10
407.076381
 20
2148.413054
 30
0.0
 11
407.076381
 21
2148.776281
 31
0.0
  0
LINE
  5
32F
330
225
100
AcDbEntity
  8
3_ALL_AXES
  6
Continuous
 62
     7
100
AcDbLine
 10
407.076381
 20
2148.776281
 30
0.0
 11
407.076381
 21
2149.056349
 31
0.0
  0
LINE
  5
330
330
225
100
AcDbEntity
  8
3_ALL_AXES
  6
Continuous
 62
     7
100
AcDbLine
 10
407.076381
 20
2149.056349
 30
0.0
 11
407.076381
 21
2150.625756
 31
0.0
  0
LINE
  5
331
330
225
100
AcDbEntity
  8
3_ALL_AXES
  6
Continuous
 62
     7
100
AcDbLine
 10
407.076381
 20
2150.625756
 30
0.0
 11
407.076381
 21
2160.913054
 31
0.0
  0
LINE
  5
332
330
225
100
AcDbEntity
  8
3_ALL_AXES
  6
Continuous
 62
     7
100
AcDbLine
 10
407.076381
 20
2160.913054
 30
0.0
 11
407.076381
 21
2171.200353
 31
0.0
  0
LINE
  5
333
330
225
100
AcDbEntity
  8
3_ALL_AXES
  6
Continuous
 62
     7
100
AcDbLine
 10
407.076381
 20
2171.200353
 30
0.0
 11
407.076381
 21
2172.76976
 31
0.0
  0
LINE
  5
334
330
225
100
AcDbEntity
  8
3_ALL_AXES
  6
Continuous
 62
     7
100
AcDbLine
 10
407.076381
 20
2172.76976
 30
0.0
 11
407.076381
 21
2173.049827
 31
0.0
  0
LINE
  5
335
330
225
100
AcDbEntity
  8
3_ALL_AXES
  6
Continuous
 62
     7
100
AcDbLine
 10
407.076381
 20
2173.049827
 30
0.0
 11
407.076381
 21
2173.413054
 31
0.0
  0
LINE
  5
336
330
225
100
AcDbEntity
  8
3_ALL_AXES
  6
Continuous
 62
     7
100
AcDbLine
 10
2189.076381
 20
2148.413054
 30
0.0
 11
2189.076381
 21
2148.776281
 31
0.0
  0
LINE
  5
337
330
225
100
AcDbEntity
  8
3_ALL_AXES
  6
Continuous
 62
     7
100
AcDbLine
 10
2189.076381
 20
2148.776281
 30
0.0
 11
2189.076381
 21
2149.056349
 31
0.0
  0
LINE
  5
338
330
225
100
AcDbEntity
  8
3_ALL_AXES
  6
Continuous
 62
     7
100
AcDbLine
 10
2189.076381
 20
2149.056349
 30
0.0
 11
2189.076381
 21
2150.625756
 31
0.0
  0
LINE
  5
339
330
225
100
AcDbEntity
  8
3_ALL_AXES
  6
Continuous
 62
     7
100
AcDbLine
 10
2189.076381
 20
2150.625756
 30
0.0
 11
2189.076381
 21
2171.200353
 31
0.0
  0
LINE
  5
33A
330
225
100
AcDbEntity
  8
3_ALL_AXES
  6
Continuous
 62
     7
100
AcDbLine
 10
2189.076381
 20
2171.200353
 30
0.0
 11
2189.076381
 21
2172.76976
 31
0.0
  0
LINE
  5
33B
330
225
100
AcDbEntity
  8
3_ALL_AXES
  6
Continuous
 62
     7
100
AcDbLine
 10
2189.076381
 20
2172.76976
 30
0.0
 11
2189.076381
 21
2173.049827
 31
0.0
  0
LINE
  5
33C
330
225
100
AcDbEntity
  8
3_ALL_AXES
  6
Continuous
 62
     7
100
AcDbLine
 10
2189.076381
 20
2173.049827
 30
0.0
 11
2189.076381
 21
2173.413054
 31
0.0
  0
LINE
  5
33D
330
225
100
AcDbEntity
  8
3_ALL_AXES
  6
Continuous
 62
     7
100
AcDbLine
 10
2189.076381
 20
2148.413054
 30
0.0
 11
407.076381
 21
2148.413054
 31
0.0
  0
LINE
  5
33E
330
225
100
AcDbEntity
  8
3_ALL_AXES
  6
Continuous
 62
     7
100
AcDbLine
 10
2189.076381
 20
2173.413054
 30
0.0
 11
407.076381
 21
2173.413054
 31
0.0
  0
LINE
  5
33F
330
225
100
AcDbEntity
  8
3_ALL_AXES
  6
Continuous
 62
     7
100
AcDbLine
 10
2189.076381
 20
2173.413054
 30
0.0
 11
407.076381
 21
2173.413054
 31
0.0
  0
ARC
  5
340
330
225
100
AcDbEntity
  8
3_ALL_AXES
  6
Continuous
 62
     7
100
AcDbCircle
 10
2180.576381
 20
2160.913054
 30
0.0
 40
0.825
100
AcDbArc
 50
270.0
 51
90.0
  0
ARC
  5
341
330
225
100
AcDbEntity
  8
3_ALL_AXES
  6
Continuous
 62
     7
100
AcDbCircle
 10
2180.576381
 20
2160.913054
 30
0.0
 40
0.825
100
AcDbArc
 50
90.0
 51
270.0
  0
LINE
  5
342
330
225
100
AcDbEntity
  8
3_ALL_AXES
  6
Continuous
 62
     7
100
AcDbLine
 10
2189.076381
 20
2148.413054
 30
0.0
 11
407.076381
 21
2148.413054
 31
0.0
  0
ARC
  5
343
330
225
100
AcDbEntity
  8
3_ALL_AXES
  6
Continuous
 62
     7
100
AcDbCircle
 10
415.576381
 20
2160.913054
 30
0.0
 40
0.825
100
AcDbArc
 50
270.0
 51
90.0
  0
ARC
  5
344
330
225
100
AcDbEntity
  8
3_ALL_AXES
  6
Continuous
 62
     7
100
AcDbCircle
 10
415.576381
 20
2160.913054
 30
0.0
 40
0.825
100
AcDbArc
 50
90.0
 51
270.0
  0
LINE
  5
345
330
225
100
AcDbEntity
  8
7_ALL_FEATURES
  6
Continuous
 62
     7
100
AcDbLine
 10
2178.876381
 20
2746.655736
 30
0.0
 11
2179.030018
 21
2746.655736
 31
0.0
  0
LINE
  5
346
330
225
100
AcDbEntity
  8
7_ALL_FEATURES
  6
Continuous
 62
     7
100
AcDbLine
 10
2179.030018
 20
2746.655736
 30
0.0
 11
2179.276381
 21
2746.655736
 31
0.0
  0
LINE
  5
347
330
225
100
AcDbEntity
  8
7_ALL_FEATURES
  6
Continuous
 62
     7
100
AcDbLine
 10
2179.276381
 20
2746.655736
 30
0.0
 11
2179.291635
 21
2746.655736
 31
0.0
  0
LINE
  5
348
330
225
100
AcDbEntity
  8
7_ALL_FEATURES
  6
Continuous
 62
     7
100
AcDbLine
 10
2179.291635
 20
2746.655736
 30
0.0
 11
2180.576381
 21
2746.655736
 31
0.0
  0
LINE
  5
349
330
225
100
AcDbEntity
  8
7_ALL_FEATURES
  6
Continuous
 62
     7
100
AcDbLine
 10
2180.576381
 20
2746.655736
 30
0.0
 11
2181.861131
 21
2746.655736
 31
0.0
  0
LINE
  5
34A
330
225
100
AcDbEntity
  8
7_ALL_FEATURES
  6
Continuous
 62
     7
100
AcDbLine
 10
2181.861131
 20
2746.655736
 30
0.0
 11
2181.876381
 21
2746.655736
 31
0.0
  0
LINE
  5
34B
330
225
100
AcDbEntity
  8
7_ALL_FEATURES
  6
Continuous
 62
     7
100
AcDbLine
 10
2181.876381
 20
2746.655736
 30
0.0
 11
2182.122747
 21
2746.655736
 31
0.0
  0
LINE
  5
34C
330
225
100
AcDbEntity
  8
7_ALL_FEATURES
  6
Continuous
 62
     7
100
AcDbLine
 10
2182.122747
 20
2746.655736
 30
0.0
 11
2182.276381
 21
2746.655736
 31
0.0
  0
LINE
  5
34D
330
225
100
AcDbEntity
  8
7_ALL_FEATURES
  6
Continuous
 62
     7
100
AcDbLine
 10
2180.576381
 20
2771.655736
 30
0.0
 11
2179.870226
 21
2771.655736
 31
0.0
  0
LINE
  5
34E
330
225
100
AcDbEntity
  8
7_ALL_FEATURES
  6
Continuous
 62
     7
100
AcDbLine
 10
2179.870226
 20
2771.655736
 30
0.0
 11
2179.657336
 21
2771.655736
 31
0.0
  0
LINE
  5
34F
330
225
100
AcDbEntity
  8
7_ALL_FEATURES
  6
Continuous
 62
     7
100
AcDbLine
 10
2179.657336
 20
2771.655736
 30
0.0
 11
2179.291631
 21
2771.655736
 31
0.0
  0
LINE
  5
350
330
225
100
AcDbEntity
  8
7_ALL_FEATURES
  6
Continuous
 62
     7
100
AcDbLine
 10
2179.291631
 20
2771.655736
 30
0.0
 11
2179.276381
 21
2771.655736
 31
0.0
  0
LINE
  5
351
330
225
100
AcDbEntity
  8
7_ALL_FEATURES
  6
Continuous
 62
     7
100
AcDbLine
 10
2179.276381
 20
2771.655736
 30
0.0
 11
2178.876381
 21
2771.655736
 31
0.0
  0
LINE
  5
352
330
225
100
AcDbEntity
  8
7_ALL_FEATURES
  6
Continuous
 62
     7
100
AcDbLine
 10
2182.276381
 20
2771.655736
 30
0.0
 11
2181.876381
 21
2771.655736
 31
0.0
  0
LINE
  5
353
330
225
100
AcDbEntity
  8
7_ALL_FEATURES
  6
Continuous
 62
     7
100
AcDbLine
 10
2181.876381
 20
2771.655736
 30
0.0
 11
2181.861126
 21
2771.655736
 31
0.0
  0
LINE
  5
354
330
225
100
AcDbEntity
  8
7_ALL_FEATURES
  6
Continuous
 62
     7
100
AcDbLine
 10
2181.861126
 20
2771.655736
 30
0.0
 11
2181.49542
 21
2771.655736
 31
0.0
  0
LINE
  5
355
330
225
100
AcDbEntity
  8
7_ALL_FEATURES
  6
Continuous
 62
     7
100
AcDbLine
 10
2181.49542
 20
2771.655736
 30
0.0
 11
2181.28253
 21
2771.655736
 31
0.0
  0
LINE
  5
356
330
225
100
AcDbEntity
  8
7_ALL_FEATURES
  6
Continuous
 62
     7
100
AcDbLine
 10
2181.28253
 20
2771.655736
 30
0.0
 11
2180.576381
 21
2771.655736
 31
0.0
  0
LINE
  5
357
330
225
100
AcDbEntity
  8
7_ALL_FEATURES
  6
Continuous
 62
     7
100
AcDbLine
 10
415.576381
 20
2771.655736
 30
0.0
 11
414.870226
 21
2771.655736
 31
0.0
  0
LINE
  5
358
330
225
100
AcDbEntity
  8
7_ALL_FEATURES
  6
Continuous
 62
     7
100
AcDbLine
 10
414.870226
 20
2771.655736
 30
0.0
 11
414.657336
 21
2771.655736
 31
0.0
  0
LINE
  5
359
330
225
100
AcDbEntity
  8
7_ALL_FEATURES
  6
Continuous
 62
     7
100
AcDbLine
 10
414.657336
 20
2771.655736
 30
0.0
 11
414.291631
 21
2771.655736
 31
0.0
  0
LINE
  5
35A
330
225
100
AcDbEntity
  8
7_ALL_FEATURES
  6
Continuous
 62
     7
100
AcDbLine
 10
414.291631
 20
2771.655736
 30
0.0
 11
414.276381
 21
2771.655736
 31
0.0
  0
LINE
  5
35B
330
225
100
AcDbEntity
  8
7_ALL_FEATURES
  6
Continuous
 62
     7
100
AcDbLine
 10
414.276381
 20
2771.655736
 30
0.0
 11
413.876381
 21
2771.655736
 31
0.0
  0
LINE
  5
35C
330
225
100
AcDbEntity
  8
7_ALL_FEATURES
  6
Continuous
 62
     7
100
AcDbLine
 10
417.276381
 20
2771.655736
 30
0.0
 11
416.876381
 21
2771.655736
 31
0.0
  0
LINE
  5
35D
330
225
100
AcDbEntity
  8
7_ALL_FEATURES
  6
Continuous
 62
     7
100
AcDbLine
 10
416.876381
 20
2771.655736
 30
0.0
 11
416.861126
 21
2771.655736
 31
0.0
  0
LINE
  5
35E
330
225
100
AcDbEntity
  8
7_ALL_FEATURES
  6
Continuous
 62
     7
100
AcDbLine
 10
416.861126
 20
2771.655736
 30
0.0
 11
416.49542
 21
2771.655736
 31
0.0
  0
LINE
  5
35F
330
225
100
AcDbEntity
  8
7_ALL_FEATURES
  6
Continuous
 62
     7
100
AcDbLine
 10
416.49542
 20
2771.655736
 30
0.0
 11
416.28253
 21
2771.655736
 31
0.0
  0
LINE
  5
360
330
225
100
AcDbEntity
  8
7_ALL_FEATURES
  6
Continuous
 62
     7
100
AcDbLine
 10
416.28253
 20
2771.655736
 30
0.0
 11
415.576381
 21
2771.655736
 31
0.0
  0
LINE
  5
361
330
225
100
AcDbEntity
  8
7_ALL_FEATURES
  6
Continuous
 62
     7
100
AcDbLine
 10
416.476381
 20
2746.655736
 30
0.0
 11
416.594878
 21
2746.774234
 31
0.0
  0
LINE
  5
362
330
225
100
AcDbEntity
  8
7_ALL_FEATURES
  6
Continuous
 62
     7
100
AcDbLine
 10
413.076381
 20
2746.655736
 30
0.0
 11
413.476381
 21
2746.655736
 31
0.0
  0
LINE
  5
363
330
225
100
AcDbEntity
  8
7_ALL_FEATURES
  6
Continuous
 62
     7
100
AcDbLine
 10
413.476381
 20
2746.655736
 30
0.0
 11
413.491635
 21
2746.655736
 31
0.0
  0
LINE
  5
364
330
225
100
AcDbEntity
  8
7_ALL_FEATURES
  6
Continuous
 62
     7
100
AcDbLine
 10
413.491635
 20
2746.655736
 30
0.0
 11
413.66316
 21
2746.655736
 31
0.0
  0
LINE
  5
365
330
225
100
AcDbEntity
  8
7_ALL_FEATURES
  6
Continuous
 62
     7
100
AcDbLine
 10
413.66316
 20
2746.655736
 30
0.0
 11
414.776381
 21
2746.655736
 31
0.0
  0
LINE
  5
366
330
225
100
AcDbEntity
  8
7_ALL_FEATURES
  6
Continuous
 62
     7
100
AcDbLine
 10
414.776381
 20
2746.655736
 30
0.0
 11
416.061131
 21
2746.655736
 31
0.0
  0
LINE
  5
367
330
225
100
AcDbEntity
  8
7_ALL_FEATURES
  6
Continuous
 62
     7
100
AcDbLine
 10
416.061131
 20
2746.655736
 30
0.0
 11
416.076381
 21
2746.655736
 31
0.0
  0
LINE
  5
368
330
225
100
AcDbEntity
  8
7_ALL_FEATURES
  6
Continuous
 62
     7
100
AcDbLine
 10
416.076381
 20
2746.655736
 30
0.0
 11
416.476381
 21
2746.655736
 31
0.0
  0
LINE
  5
369
330
225
100
AcDbEntity
  8
7_ALL_FEATURES
  6
Continuous
 62
     7
100
AcDbLine
 10
400.826381
 20
2756.095384
 30
0.0
 11
400.826381
 21
2755.155736
 31
0.0
  0
LINE
  5
36A
330
225
100
AcDbEntity
  8
7_ALL_FEATURES
  6
Continuous
 62
     7
100
AcDbLine
 10
394.326381
 20
2756.095384
 30
0.0
 11
394.326381
 21
2755.155736
 31
0.0
  0
ARC
  5
36B
330
225
100
AcDbEntity
  8
7_ALL_FEATURES
  6
Continuous
 62
     7
100
AcDbCircle
 10
397.576381
 20
2759.155736
 30
0.0
 40
3.25
100
AcDbArc
 50
90.0
 51
102.110598
  0
ARC
  5
36C
330
225
100
AcDbEntity
  8
7_ALL_FEATURES
  6
Continuous
 62
     7
100
AcDbCircle
 10
397.576381
 20
2759.155736
 30
0.0
 40
3.25
100
AcDbArc
 50
102.110598
 51
106.075226
  0
ARC
  5
36D
330
225
100
AcDbEntity
  8
7_ALL_FEATURES
  6
Continuous
 62
     7
100
AcDbCircle
 10
397.576381
 20
2759.155736
 30
0.0
 40
3.25
100
AcDbArc
 50
106.075226
 51
114.24575
  0
ARC
  5
36E
330
225
100
AcDbEntity
  8
7_ALL_FEATURES
  6
Continuous
 62
     7
100
AcDbCircle
 10
397.576381
 20
2759.155736
 30
0.0
 40
3.25
100
AcDbArc
 50
114.24575
 51
118.934903
  0
ARC
  5
36F
330
225
100
AcDbEntity
  8
7_ALL_FEATURES
  6
Continuous
 62
     7
100
AcDbCircle
 10
397.576381
 20
2759.155736
 30
0.0
 40
3.25
100
AcDbArc
 50
118.934903
 51
126.42012
  0
ARC
  5
370
330
225
100
AcDbEntity
  8
7_ALL_FEATURES
  6
Continuous
 62
     7
100
AcDbCircle
 10
397.576381
 20
2759.155736
 30
0.0
 40
3.25
100
AcDbArc
 50
126.42012
 51
131.334494
  0
ARC
  5
371
330
225
100
AcDbEntity
  8
7_ALL_FEATURES
  6
Continuous
 62
     7
100
AcDbCircle
 10
397.576381
 20
2759.155736
 30
0.0
 40
3.25
100
AcDbArc
 50
131.334494
 51
138.665506
  0
ARC
  5
372
330
225
100
AcDbEntity
  8
7_ALL_FEATURES
  6
Continuous
 62
     7
100
AcDbCircle
 10
397.576381
 20
2759.155736
 30
0.0
 40
3.25
100
AcDbArc
 50
138.665506
 51
143.57988
  0
ARC
  5
373
330
225
100
AcDbEntity
  8
7_ALL_FEATURES
  6
Continuous
 62
     7
100
AcDbCircle
 10
397.576381
 20
2759.155736
 30
0.0
 40
3.25
100
AcDbArc
 50
143.57988
 51
151.065097
  0
ARC
  5
374
330
225
100
AcDbEntity
  8
7_ALL_FEATURES
  6
Continuous
 62
     7
100
AcDbCircle
 10
397.576381
 20
2759.155736
 30
0.0
 40
3.25
100
AcDbArc
 50
151.065097
 51
155.75425
  0
ARC
  5
375
330
225
100
AcDbEntity
  8
7_ALL_FEATURES
  6
Continuous
 62
     7
100
AcDbCircle
 10
397.576381
 20
2759.155736
 30
0.0
 40
3.25
100
AcDbArc
 50
155.75425
 51
163.924774
  0
ARC
  5
376
330
225
100
AcDbEntity
  8
7_ALL_FEATURES
  6
Continuous
 62
     7
100
AcDbCircle
 10
397.576381
 20
2759.155736
 30
0.0
 40
3.25
100
AcDbArc
 50
163.924774
 51
167.889402
  0
ARC
  5
377
330
225
100
AcDbEntity
  8
7_ALL_FEATURES
  6
Continuous
 62
     7
100
AcDbCircle
 10
397.576381
 20
2759.155736
 30
0.0
 40
3.25
100
AcDbArc
 50
167.889402
 51
180.0
  0
LINE
  5
378
330
225
100
AcDbEntity
  8
7_ALL_FEATURES
  6
Continuous
 62
     7
100
AcDbLine
 10
400.826381
 20
2758.05151
 30
0.0
 11
400.826381
 21
2756.095384
 31
0.0
  0
LINE
  5
379
330
225
100
AcDbEntity
  8
7_ALL_FEATURES
  6
Continuous
 62
     7
100
AcDbLine
 10
394.326381
 20
2758.05151
 30
0.0
 11
394.326381
 21
2756.095384
 31
0.0
  0
ARC
  5
37A
330
225
100
AcDbEntity
  8
7_ALL_FEATURES
  6
Continuous
 62
     7
100
AcDbCircle
 10
397.576381
 20
2759.155736
 30
0.0
 40
3.25
100
AcDbArc
 50
77.879831
 51
90.0
  0
ARC
  5
37B
330
225
100
AcDbEntity
  8
7_ALL_FEATURES
  6
Continuous
 62
     7
100
AcDbCircle
 10
397.576381
 20
2759.155736
 30
0.0
 40
3.25
100
AcDbArc
 50
73.932368
 51
77.879831
  0
ARC
  5
37C
330
225
100
AcDbEntity
  8
7_ALL_FEATURES
  6
Continuous
 62
     7
100
AcDbCircle
 10
397.576381
 20
2759.155736
 30
0.0
 40
3.25
100
AcDbArc
 50
65.739259
 51
73.932368
  0
ARC
  5
37D
330
225
100
AcDbEntity
  8
7_ALL_FEATURES
  6
Continuous
 62
     7
100
AcDbCircle
 10
397.576381
 20
2759.155736
 30
0.0
 40
3.25
100
AcDbArc
 50
61.077758
 51
65.739259
  0
ARC
  5
37E
330
225
100
AcDbEntity
  8
7_ALL_FEATURES
  6
Continuous
 62
     7
100
AcDbCircle
 10
397.576381
 20
2759.155736
 30
0.0
 40
3.25
100
AcDbArc
 50
53.562981
 51
61.077758
  0
ARC
  5
37F
330
225
100
AcDbEntity
  8
7_ALL_FEATURES
  6
Continuous
 62
     7
100
AcDbCircle
 10
397.576381
 20
2759.155736
 30
0.0
 40
3.25
100
AcDbArc
 50
48.68143
 51
53.562981
  0
ARC
  5
380
330
225
100
AcDbEntity
  8
7_ALL_FEATURES
  6
Continuous
 62
     7
100
AcDbCircle
 10
397.576381
 20
2759.155736
 30
0.0
 40
3.25
100
AcDbArc
 50
41.31857
 51
48.68143
  0
ARC
  5
381
330
225
100
AcDbEntity
  8
7_ALL_FEATURES
  6
Continuous
 62
     7
100
AcDbCircle
 10
397.576381
 20
2759.155736
 30
0.0
 40
3.25
100
AcDbArc
 50
36.437019
 51
41.31857
  0
ARC
  5
382
330
225
100
AcDbEntity
  8
7_ALL_FEATURES
  6
Continuous
 62
     7
100
AcDbCircle
 10
397.576381
 20
2759.155736
 30
0.0
 40
3.25
100
AcDbArc
 50
28.922242
 51
36.437019
  0
ARC
  5
383
330
225
100
AcDbEntity
  8
7_ALL_FEATURES
  6
Continuous
 62
     7
100
AcDbCircle
 10
397.576381
 20
2759.155736
 30
0.0
 40
3.25
100
AcDbArc
 50
24.260741
 51
28.922242
  0
ARC
  5
384
330
225
100
AcDbEntity
  8
7_ALL_FEATURES
  6
Continuous
 62
     7
100
AcDbCircle
 10
397.576381
 20
2759.155736
 30
0.0
 40
3.25
100
AcDbArc
 50
16.067632
 51
24.260741
  0
ARC
  5
385
330
225
100
AcDbEntity
  8
7_ALL_FEATURES
  6
Continuous
 62
     7
100
AcDbCircle
 10
397.576381
 20
2759.155736
 30
0.0
 40
3.25
100
AcDbArc
 50
12.120169
 51
16.067632
  0
ARC
  5
386
330
225
100
AcDbEntity
  8
7_ALL_FEATURES
  6
Continuous
 62
     7
100
AcDbCircle
 10
397.576381
 20
2759.155736
 30
0.0
 40
3.25
100
AcDbArc
 50
0.0
 51
12.120169
  0
ARC
  5
387
330
225
100
AcDbEntity
  8
7_ALL_FEATURES
  6
Continuous
 62
     7
100
AcDbCircle
 10
397.576381
 20
2755.155736
 30
0.0
 40
3.25
100
AcDbArc
 50
90.0
 51
270.0
  0
ARC
  5
388
330
225
100
AcDbEntity
  8
7_ALL_FEATURES
  6
Continuous
 62
     7
100
AcDbCircle
 10
397.576381
 20
2755.155736
 30
0.0
 40
3.25
100
AcDbArc
 50
270.0
 51
90.0
  0
ARC
  5
389
330
225
100
AcDbEntity
  8
7_ALL_FEATURES
  6
Continuous
 62
     7
100
AcDbCircle
 10
397.576381
 20
2759.155736
 30
0.0
 40
3.25
100
AcDbArc
 50
0.0
 51
12.110598
  0
ARC
  5
38A
330
225
100
AcDbEntity
  8
7_ALL_FEATURES
  6
Continuous
 62
     7
100
AcDbCircle
 10
397.576381
 20
2759.155736
 30
0.0
 40
3.25
100
AcDbArc
 50
12.110598
 51
16.075226
  0
ARC
  5
38B
330
225
100
AcDbEntity
  8
7_ALL_FEATURES
  6
Continuous
 62
     7
100
AcDbCircle
 10
397.576381
 20
2759.155736
 30
0.0
 40
3.25
100
AcDbArc
 50
16.075226
 51
24.24575
  0
ARC
  5
38C
330
225
100
AcDbEntity
  8
7_ALL_FEATURES
  6
Continuous
 62
     7
100
AcDbCircle
 10
397.576381
 20
2759.155736
 30
0.0
 40
3.25
100
AcDbArc
 50
24.24575
 51
28.934903
  0
ARC
  5
38D
330
225
100
AcDbEntity
  8
7_ALL_FEATURES
  6
Continuous
 62
     7
100
AcDbCircle
 10
397.576381
 20
2759.155736
 30
0.0
 40
3.25
100
AcDbArc
 50
28.934903
 51
36.42012
  0
ARC
  5
38E
330
225
100
AcDbEntity
  8
7_ALL_FEATURES
  6
Continuous
 62
     7
100
AcDbCircle
 10
397.576381
 20
2759.155736
 30
0.0
 40
3.25
100
AcDbArc
 50
36.42012
 51
41.334494
  0
ARC
  5
38F
330
225
100
AcDbEntity
  8
7_ALL_FEATURES
  6
Continuous
 62
     7
100
AcDbCircle
 10
397.576381
 20
2759.155736
 30
0.0
 40
3.25
100
AcDbArc
 50
41.334494
 51
48.665506
  0
ARC
  5
390
330
225
100
AcDbEntity
  8
7_ALL_FEATURES
  6
Continuous
 62
     7
100
AcDbCircle
 10
397.576381
 20
2759.155736
 30
0.0
 40
3.25
100
AcDbArc
 50
48.665506
 51
53.57988
  0
ARC
  5
391
330
225
100
AcDbEntity
  8
7_ALL_FEATURES
  6
Continuous
 62
     7
100
AcDbCircle
 10
397.576381
 20
2759.155736
 30
0.0
 40
3.25
100
AcDbArc
 50
53.57988
 51
61.065097
  0
ARC
  5
392
330
225
100
AcDbEntity
  8
7_ALL_FEATURES
  6
Continuous
 62
     7
100
AcDbCircle
 10
397.576381
 20
2759.155736
 30
0.0
 40
3.25
100
AcDbArc
 50
61.065097
 51
65.75425
  0
ARC
  5
393
330
225
100
AcDbEntity
  8
7_ALL_FEATURES
  6
Continuous
 62
     7
100
AcDbCircle
 10
397.576381
 20
2759.155736
 30
0.0
 40
3.25
100
AcDbArc
 50
65.75425
 51
73.924774
  0
ARC
  5
394
330
225
100
AcDbEntity
  8
7_ALL_FEATURES
  6
Continuous
 62
     7
100
AcDbCircle
 10
397.576381
 20
2759.155736
 30
0.0
 40
3.25
100
AcDbArc
 50
73.924774
 51
77.889402
  0
ARC
  5
395
330
225
100
AcDbEntity
  8
7_ALL_FEATURES
  6
Continuous
 62
     7
100
AcDbCircle
 10
397.576381
 20
2759.155736
 30
0.0
 40
3.25
100
AcDbArc
 50
77.889402
 51
90.0
  0
LINE
  5
396
330
225
100
AcDbEntity
  8
7_ALL_FEATURES
  6
Continuous
 62
     7
100
AcDbLine
 10
400.826381
 20
2759.155736
 30
0.0
 11
400.826381
 21
2758.05151
 31
0.0
  0
LINE
  5
397
330
225
100
AcDbEntity
  8
7_ALL_FEATURES
  6
Continuous
 62
     7
100
AcDbLine
 10
394.326381
 20
2759.155736
 30
0.0
 11
394.326381
 21
2758.05151
 31
0.0
  0
ARC
  5
398
330
225
100
AcDbEntity
  8
7_ALL_FEATURES
  6
Continuous
 62
     7
100
AcDbCircle
 10
397.576381
 20
2759.155736
 30
0.0
 40
3.25
100
AcDbArc
 50
167.879831
 51
180.0
  0
ARC
  5
399
330
225
100
AcDbEntity
  8
7_ALL_FEATURES
  6
Continuous
 62
     7
100
AcDbCircle
 10
397.576381
 20
2759.155736
 30
0.0
 40
3.25
100
AcDbArc
 50
163.932368
 51
167.879831
  0
ARC
  5
39A
330
225
100
AcDbEntity
  8
7_ALL_FEATURES
  6
Continuous
 62
     7
100
AcDbCircle
 10
397.576381
 20
2759.155736
 30
0.0
 40
3.25
100
AcDbArc
 50
155.739259
 51
163.932368
  0
ARC
  5
39B
330
225
100
AcDbEntity
  8
7_ALL_FEATURES
  6
Continuous
 62
     7
100
AcDbCircle
 10
397.576381
 20
2759.155736
 30
0.0
 40
3.25
100
AcDbArc
 50
151.077758
 51
155.739259
  0
ARC
  5
39C
330
225
100
AcDbEntity
  8
7_ALL_FEATURES
  6
Continuous
 62
     7
100
AcDbCircle
 10
397.576381
 20
2759.155736
 30
0.0
 40
3.25
100
AcDbArc
 50
143.562981
 51
151.077758
  0
ARC
  5
39D
330
225
100
AcDbEntity
  8
7_ALL_FEATURES
  6
Continuous
 62
     7
100
AcDbCircle
 10
397.576381
 20
2759.155736
 30
0.0
 40
3.25
100
AcDbArc
 50
138.68143
 51
143.562981
  0
ARC
  5
39E
330
225
100
AcDbEntity
  8
7_ALL_FEATURES
  6
Continuous
 62
     7
100
AcDbCircle
 10
397.576381
 20
2759.155736
 30
0.0
 40
3.25
100
AcDbArc
 50
131.31857
 51
138.68143
  0
ARC
  5
39F
330
225
100
AcDbEntity
  8
7_ALL_FEATURES
  6
Continuous
 62
     7
100
AcDbCircle
 10
397.576381
 20
2759.155736
 30
0.0
 40
3.25
100
AcDbArc
 50
126.437019
 51
131.31857
  0
ARC
  5
3A0
330
225
100
AcDbEntity
  8
7_ALL_FEATURES
  6
Continuous
 62
     7
100
AcDbCircle
 10
397.576381
 20
2759.155736
 30
0.0
 40
3.25
100
AcDbArc
 50
118.922242
 51
126.437019
  0
ARC
  5
3A1
330
225
100
AcDbEntity
  8
7_ALL_FEATURES
  6
Continuous
 62
     7
100
AcDbCircle
 10
397.576381
 20
2759.155736
 30
0.0
 40
3.25
100
AcDbArc
 50
114.260741
 51
118.922242
  0
ARC
  5
3A2
330
225
100
AcDbEntity
  8
7_ALL_FEATURES
  6
Continuous
 62
     7
100
AcDbCircle
 10
397.576381
 20
2759.155736
 30
0.0
 40
3.25
100
AcDbArc
 50
106.067632
 51
114.260741
  0
ARC
  5
3A3
330
225
100
AcDbEntity
  8
7_ALL_FEATURES
  6
Continuous
 62
     7
100
AcDbCircle
 10
397.576381
 20
2759.155736
 30
0.0
 40
3.25
100
AcDbArc
 50
102.120169
 51
106.067632
  0
ARC
  5
3A4
330
225
100
AcDbEntity
  8
7_ALL_FEATURES
  6
Continuous
 62
     7
100
AcDbCircle
 10
397.576381
 20
2759.155736
 30
0.0
 40
3.25
100
AcDbArc
 50
90.0
 51
102.120169
  0
SPLINE
  5
3A5
330
225
100
AcDbEntity
  8
7_ALL_FEATURES
  6
Continuous
 62
     9
100
AcDbSpline
 70
     0
 71
     3
 72
    11
 73
     7
 74
     0
 42
0.000000001
 43
0.0000001
 40
0.0
 40
0.0
 40
0.0
 40
0.0
 40
0.2396160349
 40
0.4854405447
 40
0.7397839675
 40
1.0
 40
1.0
 40
1.0
 40
1.0
 10
400.826380816
 20
2756.0953836705
 30
0.0
 10
400.826380816
 20
2756.4834135659
 30
0.0
 10
400.6514687726
 20
2757.2790735968
 30
0.0
 10
399.9175083421
 20
2758.2663299762
 30
0.0
 10
398.8390337805
 20
2758.9175085302
 30
0.0
 10
397.9977699769
 20
2759.0678110667
 30
0.0
 10
397.576380816
 20
2759.0678110667
 30
0.0
  0
SPLINE
  5
3A6
330
225
100
AcDbEntity
  8
7_ALL_FEATURES
  6
Continuous
 62
     9
100
AcDbSpline
 70
     0
 71
     3
 72
    11
 73
     7
 74
     0
 42
0.000000001
 43
0.0000001
 40
0.0
 40
0.0
 40
0.0
 40
0.0
 40
0.2396160349
 40
0.4854405447
 40
0.7397839675
 40
1.0
 40
1.0
 40
1.0
 40
1.0
 10
400.826380816
 20
2758.05150983
 30
0.0
 10
400.826380816
 20
2758.4395397255
 30
0.0
 10
400.6514687726
 20
2759.2351997563
 30
0.0
 10
399.9175083421
 20
2760.2224561358
 30
0.0
 10
398.8390337805
 20
2760.8736346898
 30
0.0
 10
397.9977699769
 20
2761.0239372263
 30
0.0
 10
397.576380816
 20
2761.0239372263
 30
0.0
  0
SPLINE
  5
3A7
330
225
100
AcDbEntity
  8
7_ALL_FEATURES
  6
Continuous
 62
     9
100
AcDbSpline
 70
     0
 71
     3
 72
    11
 73
     7
 74
     0
 42
0.000000001
 43
0.0000001
 40
0.0
 40
0.0
 40
0.0
 40
0.0
 40
0.2602160325
 40
0.5145594553
 40
0.7603839651
 40
1.0
 40
1.0
 40
1.0
 40
1.0
 10
397.576380816
 20
2759.0678110667
 30
0.0
 10
397.1549916551
 20
2759.0678110667
 30
0.0
 10
396.3137278515
 20
2758.9175085302
 30
0.0
 10
395.2352532899
 20
2758.2663299762
 30
0.0
 10
394.5012928595
 20
2757.2790735968
 30
0.0
 10
394.326380816
 20
2756.4834135659
 30
0.0
 10
394.326380816
 20
2756.0953836705
 30
0.0
  0
SPLINE
  5
3A8
330
225
100
AcDbEntity
  8
7_ALL_FEATURES
  6
Continuous
 62
     9
100
AcDbSpline
 70
     0
 71
     3
 72
    11
 73
     7
 74
     0
 42
0.000000001
 43
0.0000001
 40
0.0
 40
0.0
 40
0.0
 40
0.0
 40
0.2602160325
 40
0.5145594553
 40
0.7603839651
 40
1.0
 40
1.0
 40
1.0
 40
1.0
 10
397.576380816
 20
2761.0239372263
 30
0.0
 10
397.1549916551
 20
2761.0239372263
 30
0.0
 10
396.3137278515
 20
2760.8736346898
 30
0.0
 10
395.2352532899
 20
2760.2224561358
 30
0.0
 10
394.5012928595
 20
2759.2351997563
 30
0.0
 10
394.326380816
 20
2758.4395397255
 30
0.0
 10
394.326380816
 20
2758.05150983
 30
0.0
  0
ARC
  5
3A9
330
225
100
AcDbEntity
  8
7_ALL_FEATURES
  6
Continuous
 62
     7
100
AcDbCircle
 10
397.576381
 20
2759.155736
 30
0.0
 40
3.5
100
AcDbArc
 50
0.0
 51
90.0
  0
ARC
  5
3AA
330
225
100
AcDbEntity
  8
3_ALL_AXES
  6
Continuous
 62
     7
100
AcDbCircle
 10
397.576381
 20
2759.155736
 30
0.0
 40
7.0
100
AcDbArc
 50
0.0
 51
21.786789
  0
ARC
  5
3AB
330
225
100
AcDbEntity
  8
3_ALL_AXES
  6
Continuous
 62
     7
100
AcDbCircle
 10
397.576381
 20
2759.155736
 30
0.0
 40
7.0
100
AcDbArc
 50
38.213211
 51
81.786789
  0
ARC
  5
3AC
330
225
100
AcDbEntity
  8
3_ALL_AXES
  6
Continuous
 62
     7
100
AcDbCircle
 10
397.576381
 20
2759.155736
 30
0.0
 40
7.0
100
AcDbArc
 50
98.213211
 51
141.786789
  0
ARC
  5
3AD
330
225
100
AcDbEntity
  8
3_ALL_AXES
  6
Continuous
 62
     7
100
AcDbCircle
 10
397.576381
 20
2759.155736
 30
0.0
 40
7.0
100
AcDbArc
 50
158.213211
 51
180.0
  0
ARC
  5
3AE
330
225
100
AcDbEntity
  8
7_ALL_FEATURES
  6
Continuous
 62
     7
100
AcDbCircle
 10
397.576381
 20
2759.155736
 30
0.0
 40
3.5
100
AcDbArc
 50
90.0
 51
180.0
  0
LINE
  5
3AF
330
225
100
AcDbEntity
  8
3_ALL_AXES
  6
Continuous
 62
     7
100
AcDbLine
 10
404.076381
 20
2761.753813
 30
0.0
 11
405.576381
 21
2759.155736
 31
0.0
  0
ARC
  5
3B0
330
225
100
AcDbEntity
  8
3_ALL_AXES
  6
Continuous
 62
     7
100
AcDbCircle
 10
397.576381
 20
2759.155736
 30
0.0
 40
7.0
100
AcDbArc
 50
180.0
 51
201.786789
  0
LINE
  5
3B1
330
225
100
AcDbEntity
  8
3_ALL_AXES
  6
Continuous
 62
     7
100
AcDbLine
 10
403.076381
 20
2763.485863
 30
0.0
 11
404.076381
 21
2761.753813
 31
0.0
  0
ARC
  5
3B2
330
225
100
AcDbEntity
  8
3_ALL_AXES
  6
Continuous
 62
     7
100
AcDbCircle
 10
397.576381
 20
2759.155736
 30
0.0
 40
7.0
100
AcDbArc
 50
218.213211
 51
256.271628
  0
LINE
  5
3B3
330
225
100
AcDbEntity
  8
3_ALL_AXES
  6
Continuous
 62
     7
100
AcDbLine
 10
401.576381
 20
2766.08394
 30
0.0
 11
403.076381
 21
2763.485863
 31
0.0
  0
ARC
  5
3B4
330
225
100
AcDbEntity
  8
3_ALL_AXES
  6
Continuous
 62
     7
100
AcDbCircle
 10
397.576381
 20
2759.155736
 30
0.0
 40
7.0
100
AcDbArc
 50
283.728372
 51
321.786789
  0
ARC
  5
3B5
330
225
100
AcDbEntity
  8
3_ALL_AXES
  6
Continuous
 62
     7
100
AcDbCircle
 10
397.576381
 20
2759.155736
 30
0.0
 40
7.0
100
AcDbArc
 50
338.213211
 51
360.0
  0
ARC
  5
3B6
330
225
100
AcDbEntity
  8
7_ALL_FEATURES
  6
Continuous
 62
     7
100
AcDbCircle
 10
397.576381
 20
2759.155736
 30
0.0
 40
3.5
100
AcDbArc
 50
341.304825
 51
360.0
  0
ARC
  5
3B7
330
225
100
AcDbEntity
  8
7_ALL_FEATURES
  6
Continuous
 62
     7
100
AcDbCircle
 10
397.576381
 20
2759.155736
 30
0.0
 40
3.5
100
AcDbArc
 50
340.0
 51
341.304825
  0
ARC
  5
3B8
330
225
100
AcDbEntity
  8
7_ALL_FEATURES
  6
Continuous
 62
     7
100
AcDbCircle
 10
397.576381
 20
2759.155736
 30
0.0
 40
3.5
100
AcDbArc
 50
338.490347
 51
340.0
  0
ARC
  5
3B9
330
225
100
AcDbEntity
  8
7_ALL_FEATURES
  6
Continuous
 62
     7
100
AcDbCircle
 10
397.576381
 20
2759.155736
 30
0.0
 40
3.5
100
AcDbArc
 50
200.0
 51
201.509653
  0
ARC
  5
3BA
330
225
100
AcDbEntity
  8
7_ALL_FEATURES
  6
Continuous
 62
     7
100
AcDbCircle
 10
397.576381
 20
2759.155736
 30
0.0
 40
3.5
100
AcDbArc
 50
198.695175
 51
200.0
  0
ARC
  5
3BB
330
225
100
AcDbEntity
  8
7_ALL_FEATURES
  6
Continuous
 62
     7
100
AcDbCircle
 10
397.576381
 20
2759.155736
 30
0.0
 40
3.5
100
AcDbArc
 50
180.0
 51
198.695175
  0
LINE
  5
3BC
330
225
100
AcDbEntity
  8
3_ALL_AXES
  6
Continuous
 62
     7
100
AcDbLine
 10
398.576381
 20
2766.08394
 30
0.0
 11
401.576381
 21
2766.08394
 31
0.0
  0
LINE
  5
3BD
330
225
100
AcDbEntity
  8
3_ALL_AXES
  6
Continuous
 62
     7
100
AcDbLine
 10
396.576381
 20
2766.08394
 30
0.0
 11
398.576381
 21
2766.08394
 31
0.0
  0
LINE
  5
3BE
330
225
100
AcDbEntity
  8
3_ALL_AXES
  6
Continuous
 62
     7
100
AcDbLine
 10
404.076381
 20
2756.55766
 30
0.0
 11
403.076381
 21
2754.825609
 31
0.0
  0
LINE
  5
3BF
330
225
100
AcDbEntity
  8
3_ALL_AXES
  6
Continuous
 62
     7
100
AcDbLine
 10
393.576381
 20
2766.08394
 30
0.0
 11
396.576381
 21
2766.08394
 31
0.0
  0
LINE
  5
3C0
330
225
100
AcDbEntity
  8
3_ALL_AXES
  6
Continuous
 62
     7
100
AcDbLine
 10
403.076381
 20
2754.825609
 30
0.0
 11
401.576381
 21
2752.227533
 31
0.0
  0
LINE
  5
3C1
330
225
100
AcDbEntity
  8
3_ALL_AXES
  6
Continuous
 62
     7
100
AcDbLine
 10
405.576381
 20
2759.155736
 30
0.0
 11
404.076381
 21
2756.55766
 31
0.0
  0
LINE
  5
3C2
330
225
100
AcDbEntity
  8
3_ALL_AXES
  6
Continuous
 62
     7
100
AcDbLine
 10
392.076381
 20
2763.485863
 30
0.0
 11
393.576381
 21
2766.08394
 31
0.0
  0
LINE
  5
3C3
330
225
100
AcDbEntity
  8
3_ALL_AXES
  6
Continuous
 62
     7
100
AcDbLine
 10
396.166414
 20
2752.227533
 30
0.0
 11
393.576381
 21
2752.227533
 31
0.0
  0
LINE
  5
3C4
330
225
100
AcDbEntity
  8
3_ALL_AXES
  6
Continuous
 62
     7
100
AcDbLine
 10
391.076381
 20
2761.753813
 30
0.0
 11
392.076381
 21
2763.485863
 31
0.0
  0
LINE
  5
3C5
330
225
100
AcDbEntity
  8
3_ALL_AXES
  6
Continuous
 62
     7
100
AcDbLine
 10
401.576381
 20
2752.227533
 30
0.0
 11
398.986347
 21
2752.227533
 31
0.0
  0
LINE
  5
3C6
330
225
100
AcDbEntity
  8
3_ALL_AXES
  6
Continuous
 62
     7
100
AcDbLine
 10
389.576381
 20
2759.155736
 30
0.0
 11
391.076381
 21
2761.753813
 31
0.0
  0
LINE
  5
3C7
330
225
100
AcDbEntity
  8
3_ALL_AXES
  6
Continuous
 62
     7
100
AcDbLine
 10
393.576381
 20
2752.227533
 30
0.0
 11
392.076381
 21
2754.825609
 31
0.0
  0
LINE
  5
3C8
330
225
100
AcDbEntity
  8
3_ALL_AXES
  6
Continuous
 62
     7
100
AcDbLine
 10
392.076381
 20
2754.825609
 30
0.0
 11
391.076381
 21
2756.55766
 31
0.0
  0
LINE
  5
3C9
330
225
100
AcDbEntity
  8
3_ALL_AXES
  6
Continuous
 62
     7
100
AcDbLine
 10
391.076381
 20
2756.55766
 30
0.0
 11
389.576381
 21
2759.155736
 31
0.0
  0
LINE
  5
3CA
330
225
100
AcDbEntity
  8
7_ALL_FEATURES
  6
Continuous
 62
     7
100
AcDbLine
 10
2191.576381
 20
2759.155736
 30
0.0
 11
2191.576381
 21
2771.155736
 31
0.0
  0
LINE
  5
3CB
330
225
100
AcDbEntity
  8
7_ALL_FEATURES
  6
Continuous
 62
     7
100
AcDbLine
 10
2191.576381
 20
2771.155736
 30
0.0
 11
2191.076381
 21
2771.655736
 31
0.0
  0
LINE
  5
3CC
330
225
100
AcDbEntity
  8
7_ALL_FEATURES
  6
Continuous
 62
     7
100
AcDbLine
 10
2191.576381
 20
2747.155736
 30
0.0
 11
2191.576381
 21
2759.155736
 31
0.0
  0
LINE
  5
3CD
330
225
100
AcDbEntity
  8
7_ALL_FEATURES
  6
Continuous
 62
     7
100
AcDbLine
 10
2191.576381
 20
2747.155736
 30
0.0
 11
2191.076381
 21
2746.655736
 31
0.0
  0
LINE
  5
3CE
330
225
100
AcDbEntity
  8
7_ALL_FEATURES
  6
Continuous
 62
     7
100
AcDbLine
 10
2189.076381
 20
2771.155736
 30
0.0
 11
2189.576381
 21
2771.655736
 31
0.0
  0
LINE
  5
3CF
330
225
100
AcDbEntity
  8
7_ALL_FEATURES
  6
Continuous
 62
     7
100
AcDbLine
 10
2189.076381
 20
2747.155736
 30
0.0
 11
2189.576381
 21
2746.655736
 31
0.0
  0
LINE
  5
3D0
330
225
100
AcDbEntity
  8
3_ALL_AXES
  6
Continuous
 62
     7
100
AcDbLine
 10
2189.576381
 20
2771.655736
 30
0.0
 11
2191.076381
 21
2771.655736
 31
0.0
  0
LINE
  5
3D1
330
225
100
AcDbEntity
  8
3_ALL_AXES
  6
Continuous
 62
     7
100
AcDbLine
 10
2189.576381
 20
2746.655736
 30
0.0
 11
2191.076381
 21
2746.655736
 31
0.0
  0
LINE
  5
3D2
330
225
100
AcDbEntity
  8
7_ALL_FEATURES
  6
Continuous
 62
     7
100
AcDbLine
 10
2189.576381
 20
2759.155736
 30
0.0
 11
2189.576381
 21
2771.655736
 31
0.0
  0
LINE
  5
3D3
330
225
100
AcDbEntity
  8
7_ALL_FEATURES
  6
Continuous
 62
     7
100
AcDbLine
 10
2191.076381
 20
2759.155736
 30
0.0
 11
2191.076381
 21
2771.655736
 31
0.0
  0
LINE
  5
3D4
330
225
100
AcDbEntity
  8
7_ALL_FEATURES
  6
Continuous
 62
     7
100
AcDbLine
 10
2189.576381
 20
2746.655736
 30
0.0
 11
2189.576381
 21
2759.155736
 31
0.0
  0
LINE
  5
3D5
330
225
100
AcDbEntity
  8
7_ALL_FEATURES
  6
Continuous
 62
     7
100
AcDbLine
 10
2191.076381
 20
2746.655736
 30
0.0
 11
2191.076381
 21
2759.155736
 31
0.0
  0
LINE
  5
3D6
330
225
100
AcDbEntity
  8
7_ALL_FEATURES
  6
Continuous
 62
     7
100
AcDbLine
 10
388.576381
 20
2764.588047
 30
0.0
 11
388.576381
 21
2753.723426
 31
0.0
  0
LINE
  5
3D7
330
225
100
AcDbEntity
  8
7_ALL_FEATURES
  6
Continuous
 62
     7
100
AcDbLine
 10
389.076381
 20
2746.655736
 30
0.0
 11
406.576381
 21
2746.655736
 31
0.0
  0
ARC
  5
3D8
330
225
100
AcDbEntity
  8
3_ALL_AXES
  6
Continuous
 62
     7
100
AcDbCircle
 10
393.576381
 20
2759.155736
 30
0.0
 40
12.5
100
AcDbArc
 50
328.870387
 51
31.129613
  0
LINE
  5
3D9
330
225
100
AcDbEntity
  8
7_ALL_FEATURES
  6
Continuous
 62
     7
100
AcDbLine
 10
388.576381
 20
2764.588047
 30
0.0
 11
388.576381
 21
2771.155607
 31
0.0
  0
LINE
  5
3DA
330
225
100
AcDbEntity
  8
3_ALL_AXES
  6
Continuous
 62
     7
100
AcDbLine
 10
406.576381
 20
2746.655736
 30
0.0
 11
389.076381
 21
2746.655736
 31
0.0
  0
LINE
  5
3DB
330
225
100
AcDbEntity
  8
7_ALL_FEATURES
  6
Continuous
 62
     7
100
AcDbLine
 10
388.576381
 20
2747.155866
 30
0.0
 11
388.576381
 21
2753.723426
 31
0.0
  0
LINE
  5
3DC
330
225
100
AcDbEntity
  8
3_ALL_AXES
  6
Continuous
 62
     7
100
AcDbLine
 10
406.576381
 20
2771.655736
 30
0.0
 11
389.076381
 21
2771.655736
 31
0.0
  0
LINE
  5
3DD
330
225
100
AcDbEntity
  8
7_ALL_FEATURES
  6
Continuous
 62
     7
100
AcDbLine
 10
388.576381
 20
2747.155736
 30
0.0
 11
389.076381
 21
2746.655736
 31
0.0
  0
LINE
  5
3DE
330
225
100
AcDbEntity
  8
7_ALL_FEATURES
  6
Continuous
 62
     7
100
AcDbLine
 10
388.576381
 20
2771.155736
 30
0.0
 11
389.076381
 21
2771.655736
 31
0.0
  0
LINE
  5
3DF
330
225
100
AcDbEntity
  8
7_ALL_FEATURES
  6
Continuous
 62
     7
100
AcDbLine
 10
407.076381
 20
2771.155736
 30
0.0
 11
406.576381
 21
2771.655736
 31
0.0
  0
LINE
  5
3E0
330
225
100
AcDbEntity
  8
7_ALL_FEATURES
  6
Continuous
 62
     7
100
AcDbLine
 10
407.076381
 20
2747.155736
 30
0.0
 11
406.576381
 21
2746.655736
 31
0.0
  0
LINE
  5
3E1
330
225
100
AcDbEntity
  8
7_ALL_FEATURES
  6
Continuous
 62
     7
100
AcDbLine
 10
407.076381
 20
2771.155736
 30
0.0
 11
406.576381
 21
2771.655736
 31
0.0
  0
LINE
  5
3E2
330
225
100
AcDbEntity
  8
7_ALL_FEATURES
  6
Continuous
 62
     7
100
AcDbLine
 10
407.076381
 20
2747.155736
 30
0.0
 11
406.576381
 21
2746.655736
 31
0.0
  0
LINE
  5
3E3
330
225
100
AcDbEntity
  8
3_ALL_AXES
  6
Continuous
 62
     7
100
AcDbLine
 10
406.576381
 20
2771.655736
 30
0.0
 11
389.076381
 21
2771.655736
 31
0.0
  0
ARC
  5
3E4
330
225
100
AcDbEntity
  8
7_ALL_FEATURES
  6
Continuous
 62
     7
100
AcDbCircle
 10
408.613649
 20
2755.496467
 30
0.0
 40
22.0033848541
100
AcDbArc
 50
152.613156
 51
155.594612
  0
ARC
  5
3E5
330
225
100
AcDbEntity
  8
7_ALL_FEATURES
  6
Continuous
 62
     7
100
AcDbCircle
 10
408.613649
 20
2762.815006
 30
0.0
 40
22.0033848541
100
AcDbArc
 50
204.405388
 51
207.386844
  0
LINE
  5
3E6
330
225
100
AcDbEntity
  8
7_ALL_FEATURES
  6
Continuous
 62
     7
100
AcDbLine
 10
389.076381
 20
2752.693539
 30
0.0
 11
389.076381
 21
2746.655736
 31
0.0
  0
LINE
  5
3E7
330
225
100
AcDbEntity
  8
7_ALL_FEATURES
  6
Continuous
 62
     7
100
AcDbLine
 10
404.276381
 20
2752.693539
 30
0.0
 11
401.845429
 21
2752.693539
 31
0.0
  0
LINE
  5
3E8
330
225
100
AcDbEntity
  8
7_ALL_FEATURES
  6
Continuous
 62
     7
100
AcDbLine
 10
393.307332
 20
2752.693539
 30
0.0
 11
389.076381
 21
2752.693539
 31
0.0
  0
LINE
  5
3E9
330
225
100
AcDbEntity
  8
7_ALL_FEATURES
  6
Continuous
 62
     7
100
AcDbLine
 10
406.576381
 20
2771.655736
 30
0.0
 11
406.576381
 21
2746.655736
 31
0.0
  0
LINE
  5
3EA
330
225
100
AcDbEntity
  8
7_ALL_FEATURES
  6
Continuous
 62
     7
100
AcDbLine
 10
389.076381
 20
2771.655736
 30
0.0
 11
389.076381
 21
2765.617934
 31
0.0
  0
LINE
  5
3EB
330
225
100
AcDbEntity
  8
7_ALL_FEATURES
  6
Continuous
 62
     7
100
AcDbLine
 10
404.276381
 20
2765.617934
 30
0.0
 11
401.845429
 21
2765.617934
 31
0.0
  0
LINE
  5
3EC
330
225
100
AcDbEntity
  8
7_ALL_FEATURES
  6
Continuous
 62
     7
100
AcDbLine
 10
393.307332
 20
2765.617934
 30
0.0
 11
389.076381
 21
2765.617934
 31
0.0
  0
LINE
  5
3ED
330
225
100
AcDbEntity
  8
3_ALL_AXES
  6
Continuous
 62
     7
100
AcDbLine
 10
2189.076381
 20
2759.155736
 30
0.0
 11
2189.076381
 21
2769.443035
 31
0.0
  0
LINE
  5
3EE
330
225
100
AcDbEntity
  8
3_ALL_AXES
  6
Continuous
 62
     7
100
AcDbLine
 10
2189.076381
 20
2769.443035
 30
0.0
 11
2189.076381
 21
2771.012442
 31
0.0
  0
LINE
  5
3EF
330
225
100
AcDbEntity
  8
3_ALL_AXES
  6
Continuous
 62
     7
100
AcDbLine
 10
2189.076381
 20
2771.012442
 30
0.0
 11
2189.076381
 21
2771.292509
 31
0.0
  0
LINE
  5
3F0
330
225
100
AcDbEntity
  8
3_ALL_AXES
  6
Continuous
 62
     7
100
AcDbLine
 10
2189.076381
 20
2771.292509
 30
0.0
 11
2189.076381
 21
2771.655736
 31
0.0
  0
LINE
  5
3F1
330
225
100
AcDbEntity
  8
3_ALL_AXES
  6
Continuous
 62
     7
100
AcDbLine
 10
407.076381
 20
2759.155736
 30
0.0
 11
407.076381
 21
2769.443035
 31
0.0
  0
LINE
  5
3F2
330
225
100
AcDbEntity
  8
3_ALL_AXES
  6
Continuous
 62
     7
100
AcDbLine
 10
407.076381
 20
2769.443035
 30
0.0
 11
407.076381
 21
2771.012442
 31
0.0
  0
LINE
  5
3F3
330
225
100
AcDbEntity
  8
3_ALL_AXES
  6
Continuous
 62
     7
100
AcDbLine
 10
407.076381
 20
2771.012442
 30
0.0
 11
407.076381
 21
2771.292509
 31
0.0
  0
LINE
  5
3F4
330
225
100
AcDbEntity
  8
3_ALL_AXES
  6
Continuous
 62
     7
100
AcDbLine
 10
407.076381
 20
2771.292509
 30
0.0
 11
407.076381
 21
2771.655736
 31
0.0
  0
LINE
  5
3F5
330
225
100
AcDbEntity
  8
3_ALL_AXES
  6
Continuous
 62
     7
100
AcDbLine
 10
2189.076381
 20
2746.655736
 30
0.0
 11
2182.276381
 21
2746.655736
 31
0.0
  0
LINE
  5
3F6
330
225
100
AcDbEntity
  8
3_ALL_AXES
  6
Continuous
 62
     7
100
AcDbLine
 10
2189.076381
 20
2746.655736
 30
0.0
 11
2189.076381
 21
2747.018964
 31
0.0
  0
LINE
  5
3F7
330
225
100
AcDbEntity
  8
3_ALL_AXES
  6
Continuous
 62
     7
100
AcDbLine
 10
2189.076381
 20
2747.018964
 30
0.0
 11
2189.076381
 21
2747.299031
 31
0.0
  0
LINE
  5
3F8
330
225
100
AcDbEntity
  8
3_ALL_AXES
  6
Continuous
 62
     7
100
AcDbLine
 10
2189.076381
 20
2747.299031
 30
0.0
 11
2189.076381
 21
2748.868438
 31
0.0
  0
LINE
  5
3F9
330
225
100
AcDbEntity
  8
3_ALL_AXES
  6
Continuous
 62
     7
100
AcDbLine
 10
2189.076381
 20
2748.868438
 30
0.0
 11
2189.076381
 21
2759.155736
 31
0.0
  0
LINE
  5
3FA
330
225
100
AcDbEntity
  8
3_ALL_AXES
  6
Continuous
 62
     7
100
AcDbLine
 10
2178.876381
 20
2746.655736
 30
0.0
 11
417.569619
 21
2746.655736
 31
0.0
  0
SPLINE
  5
3FB
330
225
100
AcDbEntity
  8
3_ALL_AXES
  6
Continuous
 62
     7
100
AcDbSpline
 70
     0
 71
     3
 72
     9
 73
     5
 74
     0
 42
0.000000001
 43
0.0000001
 40
0.0
 40
0.0
 40
0.0
 40
0.0
 40
0.0674640327
 40
1.0
 40
1.0
 40
1.0
 40
1.0
 10
417.5763765111
 20
2746.6557388838
 30
0.0
 10
417.5947389207
 20
2746.6536771506
 30
0.0
 10
417.0345796797
 20
2746.7357805105
 30
0.0
 10
417.0156255336
 20
2746.735699963
 30
0.0
 10
416.7613711441
 20
2746.7600027012
 30
0.0
  0
ARC
  5
3FC
330
225
100
AcDbEntity
  8
3_ALL_AXES
  6
Continuous
 62
     7
100
AcDbCircle
 10
415.560082
 20
2734.195679
 30
0.0
 40
12.6216210693
100
AcDbArc
 50
84.538488
 51
85.610747
  0
ARC
  5
3FD
330
225
100
AcDbEntity
  8
3_ALL_AXES
  6
Continuous
 62
     7
100
AcDbCircle
 10
415.569785
 20
2734.317504
 30
0.0
 40
12.4994109505
100
AcDbArc
 50
85.612358
 51
85.796046
  0
ARC
  5
3FE
330
225
100
AcDbEntity
  8
3_ALL_AXES
  6
Continuous
 62
     7
100
AcDbCircle
 10
415.573561
 20
2734.378916
 30
0.0
 40
12.4378873565
100
AcDbArc
 50
85.792652
 51
89.061813
  0
ARC
  5
3FF
330
225
100
AcDbEntity
  8
3_ALL_AXES
  6
Continuous
 62
     7
100
AcDbCircle
 10
415.576078
 20
2734.463252
 30
0.0
 40
12.3535213981
100
AcDbArc
 50
89.067084
 51
89.998597
  0
LINE
  5
400
330
225
100
AcDbEntity
  8
3_ALL_AXES
  6
Continuous
 62
     7
100
AcDbLine
 10
413.076381
 20
2746.655736
 30
0.0
 11
407.076381
 21
2746.655736
 31
0.0
  0
LINE
  5
401
330
225
100
AcDbEntity
  8
3_ALL_AXES
  6
Continuous
 62
     7
100
AcDbLine
 10
407.076381
 20
2746.655736
 30
0.0
 11
407.076381
 21
2747.018964
 31
0.0
  0
LINE
  5
402
330
225
100
AcDbEntity
  8
3_ALL_AXES
  6
Continuous
 62
     7
100
AcDbLine
 10
407.076381
 20
2747.018964
 30
0.0
 11
407.076381
 21
2747.299031
 31
0.0
  0
LINE
  5
403
330
225
100
AcDbEntity
  8
3_ALL_AXES
  6
Continuous
 62
     7
100
AcDbLine
 10
407.076381
 20
2747.299031
 30
0.0
 11
407.076381
 21
2748.868438
 31
0.0
  0
LINE
  5
404
330
225
100
AcDbEntity
  8
3_ALL_AXES
  6
Continuous
 62
     7
100
AcDbLine
 10
407.076381
 20
2748.868438
 30
0.0
 11
407.076381
 21
2759.155736
 31
0.0
  0
LINE
  5
405
330
225
100
AcDbEntity
  8
3_ALL_AXES
  6
Continuous
 62
     7
100
AcDbLine
 10
2189.076381
 20
2771.655736
 30
0.0
 11
2182.276381
 21
2771.655736
 31
0.0
  0
LINE
  5
406
330
225
100
AcDbEntity
  8
3_ALL_AXES
  6
Continuous
 62
     7
100
AcDbLine
 10
413.876381
 20
2771.655736
 30
0.0
 11
407.076381
 21
2771.655736
 31
0.0
  0
LINE
  5
407
330
225
100
AcDbEntity
  8
3_ALL_AXES
  6
Continuous
 62
     7
100
AcDbLine
 10
2178.876381
 20
2771.655736
 30
0.0
 11
417.276381
 21
2771.655736
 31
0.0
  0
LINE
  5
408
330
225
100
AcDbEntity
  8
7_ALL_FEATURES
  6
Continuous
 62
     7
100
AcDbLine
 10
3268.876483
 20
2771.655736
 30
0.0
 11
3269.012689
 21
2771.51953
 31
0.0
  0
LINE
  5
409
330
225
100
AcDbEntity
  8
7_ALL_FEATURES
  6
Continuous
 62
     7
100
AcDbLine
 10
3265.476483
 20
2771.655736
 30
0.0
 11
3265.338305
 21
2771.517558
 31
0.0
  0
LINE
  5
40A
330
225
100
AcDbEntity
  8
7_ALL_FEATURES
  6
Continuous
 62
     7
100
AcDbLine
 10
3268.876483
 20
2771.655736
 30
0.0
 11
3269.012689
 21
2771.51953
 31
0.0
  0
LINE
  5
40B
330
225
100
AcDbEntity
  8
7_ALL_FEATURES
  6
Continuous
 62
     7
100
AcDbLine
 10
3268.876483
 20
2771.655736
 30
0.0
 11
3268.476483
 21
2771.655736
 31
0.0
  0
LINE
  5
40C
330
225
100
AcDbEntity
  8
7_ALL_FEATURES
  6
Continuous
 62
     7
100
AcDbLine
 10
3268.476483
 20
2771.655736
 30
0.0
 11
3268.461289
 21
2771.655736
 31
0.0
  0
LINE
  5
40D
330
225
100
AcDbEntity
  8
7_ALL_FEATURES
  6
Continuous
 62
     7
100
AcDbLine
 10
3268.461289
 20
2771.655736
 30
0.0
 11
3267.176483
 21
2771.655736
 31
0.0
  0
LINE
  5
40E
330
225
100
AcDbEntity
  8
7_ALL_FEATURES
  6
Continuous
 62
     7
100
AcDbLine
 10
3267.176483
 20
2771.655736
 30
0.0
 11
3265.891672
 21
2771.655736
 31
0.0
  0
LINE
  5
40F
330
225
100
AcDbEntity
  8
7_ALL_FEATURES
  6
Continuous
 62
     7
100
AcDbLine
 10
3265.891672
 20
2771.655736
 30
0.0
 11
3265.876483
 21
2771.655736
 31
0.0
  0
LINE
  5
410
330
225
100
AcDbEntity
  8
7_ALL_FEATURES
  6
Continuous
 62
     7
100
AcDbLine
 10
3265.876483
 20
2771.655736
 30
0.0
 11
3265.476483
 21
2771.655736
 31
0.0
  0
LINE
  5
411
330
225
100
AcDbEntity
  8
7_ALL_FEATURES
  6
Continuous
 62
     7
100
AcDbLine
 10
3265.476483
 20
2771.655736
 30
0.0
 11
3265.338305
 21
2771.517558
 31
0.0
  0
LINE
  5
412
330
225
100
AcDbEntity
  8
7_ALL_FEATURES
  6
Continuous
 62
     7
100
AcDbLine
 10
3265.476483
 20
2746.655736
 30
0.0
 11
3265.338305
 21
2746.793914
 31
0.0
  0
LINE
  5
413
330
225
100
AcDbEntity
  8
7_ALL_FEATURES
  6
Continuous
 62
     7
100
AcDbLine
 10
3268.876483
 20
2746.655736
 30
0.0
 11
3269.012689
 21
2746.791943
 31
0.0
  0
LINE
  5
414
330
225
100
AcDbEntity
  8
7_ALL_FEATURES
  6
Continuous
 62
     7
100
AcDbLine
 10
3265.476483
 20
2746.655736
 30
0.0
 11
3265.338305
 21
2746.793914
 31
0.0
  0
LINE
  5
415
330
225
100
AcDbEntity
  8
7_ALL_FEATURES
  6
Continuous
 62
     7
100
AcDbLine
 10
3265.476483
 20
2746.655736
 30
0.0
 11
3265.876483
 21
2746.655736
 31
0.0
  0
LINE
  5
416
330
225
100
AcDbEntity
  8
7_ALL_FEATURES
  6
Continuous
 62
     7
100
AcDbLine
 10
3265.876483
 20
2746.655736
 30
0.0
 11
3265.891677
 21
2746.655736
 31
0.0
  0
LINE
  5
417
330
225
100
AcDbEntity
  8
7_ALL_FEATURES
  6
Continuous
 62
     7
100
AcDbLine
 10
3265.891677
 20
2746.655736
 30
0.0
 11
3267.176483
 21
2746.655736
 31
0.0
  0
LINE
  5
418
330
225
100
AcDbEntity
  8
7_ALL_FEATURES
  6
Continuous
 62
     7
100
AcDbLine
 10
3267.176483
 20
2746.655736
 30
0.0
 11
3268.461294
 21
2746.655736
 31
0.0
  0
LINE
  5
419
330
225
100
AcDbEntity
  8
7_ALL_FEATURES
  6
Continuous
 62
     7
100
AcDbLine
 10
3268.461294
 20
2746.655736
 30
0.0
 11
3268.476483
 21
2746.655736
 31
0.0
  0
LINE
  5
41A
330
225
100
AcDbEntity
  8
7_ALL_FEATURES
  6
Continuous
 62
     7
100
AcDbLine
 10
3268.476483
 20
2746.655736
 30
0.0
 11
3268.876483
 21
2746.655736
 31
0.0
  0
LINE
  5
41B
330
225
100
AcDbEntity
  8
7_ALL_FEATURES
  6
Continuous
 62
     7
100
AcDbLine
 10
3268.876483
 20
2746.655736
 30
0.0
 11
3269.012689
 21
2746.791943
 31
0.0
  0
LINE
  5
41C
330
225
100
AcDbEntity
  8
7_ALL_FEATURES
  6
Continuous
 62
     7
100
AcDbLine
 10
3293.876483
 20
2755.655736
 30
0.0
 11
3293.876483
 21
2755.708909
 31
0.0
  0
LINE
  5
41D
330
225
100
AcDbEntity
  8
7_ALL_FEATURES
  6
Continuous
 62
     7
100
AcDbLine
 10
3293.876483
 20
2755.708909
 30
0.0
 11
3293.876483
 21
2755.866812
 31
0.0
  0
LINE
  5
41E
330
225
100
AcDbEntity
  8
7_ALL_FEATURES
  6
Continuous
 62
     7
100
AcDbLine
 10
3293.876483
 20
2755.866812
 30
0.0
 11
3293.876483
 21
2755.905736
 31
0.0
  0
LINE
  5
41F
330
225
100
AcDbEntity
  8
7_ALL_FEATURES
  6
Continuous
 62
     7
100
AcDbLine
 10
3293.876483
 20
2755.905736
 30
0.0
 11
3293.876483
 21
2759.155736
 31
0.0
  0
LINE
  5
420
330
225
100
AcDbEntity
  8
3_ALL_AXES
  6
Continuous
 62
     7
100
AcDbLine
 10
3284.376483
 20
2765.155736
 30
0.0
 11
3281.376483
 21
2765.155736
 31
0.0
  0
ARC
  5
421
330
225
100
AcDbEntity
  8
3_ALL_AXES
  6
Continuous
 62
     7
100
AcDbCircle
 10
3290.376483
 20
2762.655736
 30
0.0
 40
3.5
100
AcDbArc
 50
0.0
 51
78.431635
  0
LINE
  5
422
330
225
100
AcDbEntity
  8
3_ALL_AXES
  6
Continuous
 62
     7
100
AcDbLine
 10
3293.876483
 20
2762.643782
 30
0.0
 11
3293.876483
 21
2762.655736
 31
0.0
  0
LINE
  5
423
330
225
100
AcDbEntity
  8
3_ALL_AXES
  6
Continuous
 62
     7
100
AcDbLine
 10
3293.876483
 20
2759.155736
 30
0.0
 11
3293.876483
 21
2762.602563
 31
0.0
  0
LINE
  5
424
330
225
100
AcDbEntity
  8
3_ALL_AXES
  6
Continuous
 62
     7
100
AcDbLine
 10
3293.876483
 20
2762.602563
 30
0.0
 11
3293.876483
 21
2762.643782
 31
0.0
  0
LINE
  5
425
330
225
100
AcDbEntity
  8
3_ALL_AXES
  6
Continuous
 62
     7
100
AcDbLine
 10
3284.376483
 20
2753.155736
 30
0.0
 11
3281.376483
 21
2753.155736
 31
0.0
  0
LINE
  5
426
330
225
100
AcDbEntity
  8
3_ALL_AXES
  6
Continuous
 62
     7
100
AcDbLine
 10
3291.081645
 20
2752.227533
 30
0.0
 11
3290.376483
 21
2752.227533
 31
0.0
  0
ARC
  5
427
330
225
100
AcDbEntity
  8
3_ALL_AXES
  6
Continuous
 62
     7
100
AcDbCircle
 10
3290.376483
 20
2755.655736
 30
0.0
 40
3.5
100
AcDbArc
 50
281.568365
 51
360.0
  0
LINE
  5
428
330
225
100
AcDbEntity
  8
3_ALL_AXES
  6
Continuous
 62
     7
100
AcDbLine
 10
3293.876483
 20
2755.655736
 30
0.0
 11
3293.876483
 21
2755.708909
 31
0.0
  0
LINE
  5
429
330
225
100
AcDbEntity
  8
3_ALL_AXES
  6
Continuous
 62
     7
100
AcDbLine
 10
3293.876483
 20
2755.708909
 30
0.0
 11
3293.876483
 21
2755.866812
 31
0.0
  0
LINE
  5
42A
330
225
100
AcDbEntity
  8
3_ALL_AXES
  6
Continuous
 62
     7
100
AcDbLine
 10
3293.876483
 20
2755.866812
 30
0.0
 11
3293.876483
 21
2755.905736
 31
0.0
  0
LINE
  5
42B
330
225
100
AcDbEntity
  8
3_ALL_AXES
  6
Continuous
 62
     7
100
AcDbLine
 10
3293.876483
 20
2755.905736
 30
0.0
 11
3293.876483
 21
2759.155736
 31
0.0
  0
LINE
  5
42C
330
225
100
AcDbEntity
  8
3_ALL_AXES
  6
Continuous
 62
     7
100
AcDbLine
 10
3290.376483
 20
2766.08394
 30
0.0
 11
3291.081645
 21
2766.08394
 31
0.0
  0
LINE
  5
42D
330
225
100
AcDbEntity
  8
3_ALL_AXES
  6
Continuous
 62
     7
100
AcDbLine
 10
3290.376483
 20
2766.08394
 30
0.0
 11
3289.876483
 21
2766.08394
 31
0.0
  0
LINE
  5
42E
330
225
100
AcDbEntity
  8
3_ALL_AXES
  6
Continuous
 62
     7
100
AcDbLine
 10
3288.876483
 20
2766.08394
 30
0.0
 11
3289.876483
 21
2766.08394
 31
0.0
  0
LINE
  5
42F
330
225
100
AcDbEntity
  8
3_ALL_AXES
  6
Continuous
 62
     7
100
AcDbLine
 10
3277.876483
 20
2766.08394
 30
0.0
 11
3277.876483
 21
2765.617934
 31
0.0
  0
LINE
  5
430
330
225
100
AcDbEntity
  8
3_ALL_AXES
  6
Continuous
 62
     7
100
AcDbLine
 10
3277.876483
 20
2766.08394
 30
0.0
 11
3281.376483
 21
2766.08394
 31
0.0
  0
LINE
  5
431
330
225
100
AcDbEntity
  8
3_ALL_AXES
  6
Continuous
 62
     7
100
AcDbLine
 10
3281.376483
 20
2766.08394
 30
0.0
 11
3281.376483
 21
2759.155736
 31
0.0
  0
LINE
  5
432
330
225
100
AcDbEntity
  8
3_ALL_AXES
  6
Continuous
 62
     7
100
AcDbLine
 10
3284.376483
 20
2766.08394
 30
0.0
 11
3284.376483
 21
2759.155736
 31
0.0
  0
LINE
  5
433
330
225
100
AcDbEntity
  8
3_ALL_AXES
  6
Continuous
 62
     7
100
AcDbLine
 10
3284.376483
 20
2766.08394
 30
0.0
 11
3288.876483
 21
2766.08394
 31
0.0
  0
LINE
  5
434
330
225
100
AcDbEntity
  8
3_ALL_AXES
  6
Continuous
 62
     7
100
AcDbLine
 10
3284.376483
 20
2759.155736
 30
0.0
 11
3284.376483
 21
2752.227533
 31
0.0
  0
LINE
  5
435
330
225
100
AcDbEntity
  8
3_ALL_AXES
  6
Continuous
 62
     7
100
AcDbLine
 10
3277.876483
 20
2752.693539
 30
0.0
 11
3277.876483
 21
2752.227533
 31
0.0
  0
LINE
  5
436
330
225
100
AcDbEntity
  8
3_ALL_AXES
  6
Continuous
 62
     7
100
AcDbLine
 10
3281.376483
 20
2759.155736
 30
0.0
 11
3281.376483
 21
2752.227533
 31
0.0
  0
LINE
  5
437
330
225
100
AcDbEntity
  8
3_ALL_AXES
  6
Continuous
 62
     7
100
AcDbLine
 10
3284.376483
 20
2752.227533
 30
0.0
 11
3288.876483
 21
2752.227533
 31
0.0
  0
LINE
  5
438
330
225
100
AcDbEntity
  8
3_ALL_AXES
  6
Continuous
 62
     7
100
AcDbLine
 10
3289.876483
 20
2752.227533
 30
0.0
 11
3288.876483
 21
2752.227533
 31
0.0
  0
LINE
  5
439
330
225
100
AcDbEntity
  8
3_ALL_AXES
  6
Continuous
 62
     7
100
AcDbLine
 10
3290.376483
 20
2752.227533
 30
0.0
 11
3289.876483
 21
2752.227533
 31
0.0
  0
LINE
  5
43A
330
225
100
AcDbEntity
  8
7_ALL_FEATURES
  6
Continuous
 62
     7
100
AcDbLine
 10
3293.876483
 20
2759.155736
 30
0.0
 11
3293.876483
 21
2762.405736
 31
0.0
  0
LINE
  5
43B
330
225
100
AcDbEntity
  8
7_ALL_FEATURES
  6
Continuous
 62
     7
100
AcDbLine
 10
3293.876483
 20
2762.405736
 30
0.0
 11
3293.876483
 21
2762.444661
 31
0.0
  0
LINE
  5
43C
330
225
100
AcDbEntity
  8
7_ALL_FEATURES
  6
Continuous
 62
     7
100
AcDbLine
 10
3293.876483
 20
2762.444661
 30
0.0
 11
3293.876483
 21
2762.602563
 31
0.0
  0
LINE
  5
43D
330
225
100
AcDbEntity
  8
7_ALL_FEATURES
  6
Continuous
 62
     7
100
AcDbLine
 10
3293.876483
 20
2762.602563
 30
0.0
 11
3293.876483
 21
2762.655736
 31
0.0
  0
LINE
  5
43E
330
225
100
AcDbEntity
  8
3_ALL_AXES
  6
Continuous
 62
     7
100
AcDbLine
 10
3277.876483
 20
2752.227533
 30
0.0
 11
3281.376483
 21
2752.227533
 31
0.0
  0
SPLINE
  5
43F
330
225
100
AcDbEntity
  8
3_ALL_AXES
  6
Continuous
 62
     7
100
AcDbSpline
 70
     0
 71
     3
 72
     9
 73
     5
 74
     0
 42
0.000000001
 43
0.0000001
 40
0.0
 40
0.0
 40
0.0
 40
0.0
 40
0.2534785526
 40
1.0
 40
1.0
 40
1.0
 40
1.0
 10
3288.876482791
 20
2759.1557363514
 30
0.0
 10
3288.9944044455
 20
2759.3599826483
 30
0.0
 10
3289.4362454066
 20
2760.1775659783
 30
0.0
 10
3289.76343394
 20
2761.0684903251
 30
0.0
 10
3289.876482791
 20
2761.7538125628
 30
0.0
  0
SPLINE
  5
440
330
225
100
AcDbEntity
  8
3_ALL_AXES
  6
Continuous
 62
     7
100
AcDbSpline
 70
     0
 71
     3
 72
     9
 73
     5
 74
     0
 42
0.000000001
 43
0.0000001
 40
0.0
 40
0.0
 40
0.0
 40
0.0
 40
0.2534785526
 40
1.0
 40
1.0
 40
1.0
 40
1.0
 10
3288.876482791
 20
2752.2275331211
 30
0.0
 10
3288.9944044455
 20
2752.4317794181
 30
0.0
 10
3289.4362454066
 20
2753.249362748
 30
0.0
 10
3289.76343394
 20
2754.1402870948
 30
0.0
 10
3289.876482791
 20
2754.8256093325
 30
0.0
  0
LINE
  5
441
330
225
100
AcDbEntity
  8
3_ALL_AXES
  6
Continuous
 62
     7
100
AcDbLine
 10
3284.376483
 20
2759.155736
 30
0.0
 11
3288.876483
 21
2759.155736
 31
0.0
  0
SPLINE
  5
442
330
225
100
AcDbEntity
  8
3_ALL_AXES
  6
Continuous
 62
     7
100
AcDbSpline
 70
     0
 71
     3
 72
     9
 73
     5
 74
     0
 42
0.000000001
 43
0.0000001
 40
0.0
 40
0.0
 40
0.0
 40
0.0
 40
0.2475968882
 40
1.0
 40
1.0
 40
1.0
 40
1.0
 10
3289.876482791
 20
2756.5576601401
 30
0.0
 10
3289.83895906
 20
2756.7851356696
 30
0.0
 10
3289.6299429752
 20
2757.6947861025
 30
0.0
 10
3289.2267825966
 20
2758.5489992902
 30
0.0
 10
3288.876482791
 20
2759.1557363514
 30
0.0
  0
LINE
  5
443
330
225
100
AcDbEntity
  8
3_ALL_AXES
  6
Continuous
 62
     7
100
AcDbLine
 10
3290.376483
 20
2756.55766
 30
0.0
 11
3289.876483
 21
2756.55766
 31
0.0
  0
SPLINE
  5
444
330
225
100
AcDbEntity
  8
3_ALL_AXES
  6
Continuous
 62
     7
100
AcDbSpline
 70
     0
 71
     3
 72
    15
 73
    11
 74
     0
 42
0.000000001
 43
0.0000001
 40
0.0
 40
0.0
 40
0.0
 40
0.0
 40
0.1335877079
 40
0.2601193291
 40
0.3812730814
 40
0.5000601277
 40
0.6188435308
 40
0.7399684271
 40
0.8664731372
 40
1.0
 40
1.0
 40
1.0
 40
1.0
 10
3290.376482791
 20
2754.8256093325
 30
0.0
 10
3290.4859363159
 20
2754.8256093325
 30
0.0
 10
3290.7025328537
 20
2754.8911886273
 30
0.0
 10
3290.9286151443
 20
2755.1190727588
 30
0.0
 10
3291.0549611035
 20
2755.3968800615
 30
0.0
 10
3291.095061015
 20
2755.691784552
 30
0.0
 10
3291.0548744093
 20
2755.9866510135
 30
0.0
 10
3290.9284871635
 20
2756.2643852163
 30
0.0
 10
3290.7024052676
 20
2756.4921322218
 30
0.0
 10
3290.4858864631
 20
2756.5576601401
 30
0.0
 10
3290.376482791
 20
2756.5576601401
 30
0.0
  0
LINE
  5
445
330
225
100
AcDbEntity
  8
3_ALL_AXES
  6
Continuous
 62
     7
100
AcDbLine
 10
3290.376483
 20
2754.825609
 30
0.0
 11
3289.876483
 21
2754.825609
 31
0.0
  0
LINE
  5
446
330
225
100
AcDbEntity
  8
3_ALL_AXES
  6
Continuous
 62
     7
100
AcDbLine
 10
3277.876483
 20
2759.155736
 30
0.0
 11
3281.376483
 21
2759.155736
 31
0.0
  0
LINE
  5
447
330
225
100
AcDbEntity
  8
3_ALL_AXES
  6
Continuous
 62
     9
100
AcDbLine
 10
3290.376483
 20
2766.08394
 30
0.0
 11
3290.376483
 21
2763.485863
 31
0.0
  0
LINE
  5
448
330
225
100
AcDbEntity
  8
3_ALL_AXES
  6
Continuous
 62
     9
100
AcDbLine
 10
3290.376483
 20
2761.753813
 30
0.0
 11
3290.376483
 21
2759.155736
 31
0.0
  0
SPLINE
  5
449
330
225
100
AcDbEntity
  8
3_ALL_AXES
  6
Continuous
 62
     7
100
AcDbSpline
 70
     0
 71
     3
 72
     9
 73
     5
 74
     0
 42
0.000000001
 43
0.0000001
 40
0.0
 40
0.0
 40
0.0
 40
0.0
 40
0.2475968882
 40
1.0
 40
1.0
 40
1.0
 40
1.0
 10
3289.876482791
 20
2763.4858633703
 30
0.0
 10
3289.83895906
 20
2763.7133388999
 30
0.0
 10
3289.6299429752
 20
2764.6229893328
 30
0.0
 10
3289.2267825966
 20
2765.4772025205
 30
0.0
 10
3288.876482791
 20
2766.0839395817
 30
0.0
  0
LINE
  5
44A
330
225
100
AcDbEntity
  8
3_ALL_AXES
  6
Continuous
 62
     7
100
AcDbLine
 10
3290.376483
 20
2763.485863
 30
0.0
 11
3289.876483
 21
2763.485863
 31
0.0
  0
LINE
  5
44B
330
225
100
AcDbEntity
  8
3_ALL_AXES
  6
Continuous
 62
     9
100
AcDbLine
 10
3290.376483
 20
2756.55766
 30
0.0
 11
3290.376483
 21
2759.155736
 31
0.0
  0
SPLINE
  5
44C
330
225
100
AcDbEntity
  8
3_ALL_AXES
  6
Continuous
 62
     7
100
AcDbSpline
 70
     0
 71
     3
 72
    15
 73
    11
 74
     0
 42
0.000000001
 43
0.0000001
 40
0.0
 40
0.0
 40
0.0
 40
0.0
 40
0.1335814136
 40
0.2601087981
 40
0.3812555105
 40
0.5000530485
 40
0.6188445158
 40
0.7399814918
 40
0.8664871921
 40
1.0
 40
1.0
 40
1.0
 40
1.0
 10
3290.376482791
 20
2761.7538125628
 30
0.0
 10
3290.4859312319
 20
2761.7538125628
 30
0.0
 10
3290.7025198273
 20
2761.8193844386
 30
0.0
 10
3290.9285958267
 20
2762.047253597
 30
0.0
 10
3291.0549564323
 20
2762.325053183
 30
0.0
 10
3291.0950618329
 20
2762.6199681079
 30
0.0
 10
3291.0548756367
 20
2762.9148600221
 30
0.0
 10
3290.9284779986
 20
2763.1926114478
 30
0.0
 10
3290.7023811371
 20
2763.4203434704
 30
0.0
 10
3290.4858750206
 20
2763.4858633703
 30
0.0
 10
3290.376482791
 20
2763.4858633703
 30
0.0
  0
LINE
  5
44D
330
225
100
AcDbEntity
  8
3_ALL_AXES
  6
Continuous
 62
     9
100
AcDbLine
 10
3290.376483
 20
2752.227533
 30
0.0
 11
3290.376483
 21
2754.825609
 31
0.0
  0
LINE
  5
44E
330
225
100
AcDbEntity
  8
3_ALL_AXES
  6
Continuous
 62
     7
100
AcDbLine
 10
3290.376483
 20
2761.753813
 30
0.0
 11
3289.876483
 21
2761.753813
 31
0.0
  0
LINE
  5
44F
330
225
100
AcDbEntity
  8
3_ALL_AXES
  6
Continuous
 62
     7
100
AcDbLine
 10
3289.876483
 20
2756.55766
 30
0.0
 11
3289.876483
 21
2761.753813
 31
0.0
  0
LINE
  5
450
330
225
100
AcDbEntity
  8
3_ALL_AXES
  6
Continuous
 62
     7
100
AcDbLine
 10
3289.876483
 20
2752.227533
 30
0.0
 11
3289.876483
 21
2754.825609
 31
0.0
  0
LINE
  5
451
330
225
100
AcDbEntity
  8
3_ALL_AXES
  6
Continuous
 62
     7
100
AcDbLine
 10
3289.876483
 20
2766.08394
 30
0.0
 11
3289.876483
 21
2763.485863
 31
0.0
  0
LINE
  5
452
330
225
100
AcDbEntity
  8
7_ALL_FEATURES
  6
Continuous
 62
     7
100
AcDbLine
 10
3307.977846
 20
2751.905736
 30
0.0
 11
3323.876483
 21
2751.905736
 31
0.0
  0
LINE
  5
453
330
225
100
AcDbEntity
  8
7_ALL_FEATURES
  6
Continuous
 62
     7
100
AcDbLine
 10
3323.876483
 20
2758.405736
 30
0.0
 11
3323.876483
 21
2751.905736
 31
0.0
  0
ARC
  5
454
330
225
100
AcDbEntity
  8
7_ALL_FEATURES
  6
Continuous
 62
     7
100
AcDbCircle
 10
3293.876483
 20
2746.226736
 30
0.0
 40
16.179
100
AcDbArc
 50
66.148
 51
90.0
  0
LINE
  5
455
330
225
100
AcDbEntity
  8
7_ALL_FEATURES
  6
Continuous
 62
     7
100
AcDbLine
 10
3307.977846
 20
2758.405736
 30
0.0
 11
3323.876483
 21
2758.405736
 31
0.0
  0
ARC
  5
456
330
225
100
AcDbEntity
  8
7_ALL_FEATURES
  6
Continuous
 62
     7
100
AcDbCircle
 10
3293.876483
 20
2746.226736
 30
0.0
 40
9.679
100
AcDbArc
 50
66.148
 51
90.0
  0
ARC
  5
457
330
225
100
AcDbEntity
  8
7_ALL_FEATURES
  6
Continuous
 62
     7
100
AcDbCircle
 10
3307.977846
 20
2766.157736
 30
0.0
 40
7.752
100
AcDbArc
 50
246.148
 51
270.0
  0
LINE
  5
458
330
225
100
AcDbEntity
  8
7_ALL_FEATURES
  6
Continuous
 62
     7
100
AcDbLine
 10
3300.418874
 20
2761.023937
 30
0.0
 11
3304.843127
 21
2759.067811
 31
0.0
  0
LINE
  5
459
330
225
100
AcDbEntity
  8
7_ALL_FEATURES
  6
Continuous
 62
     7
100
AcDbLine
 10
3297.790433
 20
2755.079082
 30
0.0
 11
3302.214686
 21
2753.122956
 31
0.0
  0
LINE
  5
45A
330
225
100
AcDbEntity
  8
7_ALL_FEATURES
  6
Continuous
 62
     7
100
AcDbLine
 10
3297.790433
 20
2755.079082
 30
0.0
 11
3302.214686
 21
2753.122956
 31
0.0
  0
ARC
  5
45B
330
225
100
AcDbEntity
  8
7_ALL_FEATURES
  6
Continuous
 62
     7
100
AcDbCircle
 10
3307.977846
 20
2766.157736
 30
0.0
 40
7.752
100
AcDbArc
 50
246.148
 51
270.0
  0
ARC
  5
45C
330
225
100
AcDbEntity
  8
7_ALL_FEATURES
  6
Continuous
 62
     7
100
AcDbCircle
 10
3307.977846
 20
2766.157736
 30
0.0
 40
14.252
100
AcDbArc
 50
246.148
 51
270.0
  0
LINE
  5
45D
330
225
100
AcDbEntity
  8
7_ALL_FEATURES
  6
Continuous
 62
     7
100
AcDbLine
 10
3300.418874
 20
2761.023937
 30
0.0
 11
3304.843127
 21
2759.067811
 31
0.0
  0
ARC
  5
45E
330
225
100
AcDbEntity
  8
7_ALL_FEATURES
  6
Continuous
 62
     7
100
AcDbCircle
 10
3293.876483
 20
2746.226736
 30
0.0
 40
9.679
100
AcDbArc
 50
66.148
 51
90.0
  0
LINE
  5
45F
330
225
100
AcDbEntity
  8
7_ALL_FEATURES
  6
Continuous
 62
     7
100
AcDbLine
 10
3307.977846
 20
2758.405736
 30
0.0
 11
3323.876483
 21
2758.405736
 31
0.0
  0
LINE
  5
460
330
225
100
AcDbEntity
  8
7_ALL_FEATURES
  6
Continuous
 62
     7
100
AcDbLine
 10
3307.977846
 20
2751.905736
 30
0.0
 11
3323.876483
 21
2751.905736
 31
0.0
  0
LINE
  5
461
330
225
100
AcDbEntity
  8
7_ALL_FEATURES
  6
Continuous
 62
     9
100
AcDbLine
 10
3300.418874
 20
2761.023937
 30
0.0
 11
3297.790433
 21
2755.079082
 31
0.0
  0
LINE
  5
462
330
225
100
AcDbEntity
  8
7_ALL_FEATURES
  6
Continuous
 62
     9
100
AcDbLine
 10
3304.843127
 20
2759.067811
 30
0.0
 11
3302.214686
 21
2753.122956
 31
0.0
  0
LINE
  5
463
330
225
100
AcDbEntity
  8
7_ALL_FEATURES
  6
Continuous
 62
     9
100
AcDbLine
 10
3307.977846
 20
2758.405736
 30
0.0
 11
3307.977846
 21
2751.905736
 31
0.0
  0
LINE
  5
464
330
225
100
AcDbEntity
  8
7_ALL_FEATURES
  6
Continuous
 62
     7
100
AcDbLine
 10
3277.876483
 20
2764.588047
 30
0.0
 11
3277.876483
 21
2753.723426
 31
0.0
  0
ARC
  5
465
330
225
100
AcDbEntity
  8
7_ALL_FEATURES
  6
Continuous
 62
     7
100
AcDbCircle
 10
3267.176483
 20
2759.155736
 30
0.0
 40
12.5
100
AcDbArc
 50
270.0
 51
328.870387
  0
ARC
  5
466
330
225
100
AcDbEntity
  8
7_ALL_FEATURES
  6
Continuous
 62
     7
100
AcDbCircle
 10
3267.176483
 20
2759.155736
 30
0.0
 40
12.5
100
AcDbArc
 50
31.129613
 51
90.0
  0
ARC
  5
467
330
225
100
AcDbEntity
  8
7_ALL_FEATURES
  6
Continuous
 62
     7
100
AcDbCircle
 10
3267.176483
 20
2759.155736
 30
0.0
 40
12.5
100
AcDbArc
 50
90.0
 51
270.0
  0
LINE
  5
468
330
225
100
AcDbEntity
  8
7_ALL_FEATURES
  6
Continuous
 62
     7
100
AcDbLine
 10
3277.876483
 20
2753.723426
 30
0.0
 11
3277.876483
 21
2752.693539
 31
0.0
  0
LINE
  5
469
330
225
100
AcDbEntity
  8
7_ALL_FEATURES
  6
Continuous
 62
     7
100
AcDbLine
 10
3277.876483
 20
2765.617934
 30
0.0
 11
3277.876483
 21
2764.588047
 31
0.0
  0
ARC
  5
46A
330
225
100
AcDbEntity
  8
7_ALL_FEATURES
  6
Continuous
 62
     7
100
AcDbCircle
 10
3267.176483
 20
2759.155736
 30
0.0
 40
12.0
100
AcDbArc
 50
26.916568
 51
214.02191
  0
ARC
  5
46B
330
225
100
AcDbEntity
  8
7_ALL_FEATURES
  6
Continuous
 62
     7
100
AcDbCircle
 10
3267.176483
 20
2759.155736
 30
0.0
 40
12.0
100
AcDbArc
 50
214.02191
 51
333.083432
  0
DIMENSION
  5
46C
330
225
100
AcDbEntity
  8
0
  6
Continuous
 62
     2
100
AcDbDimension
280
     0
  2
*D1
 10
2191.576381
 20
2229.026049
 30
0.0
 11
1287.79069
 21
2229.026049
 31
0.0
 70
   160
  1
1803
 71
     2
 42
1803.0
 73
     0
 74
     0
 75
     0
  3
DIMSTYLE_1
100
AcDbAlignedDimension
 13
388.576381
 23
2202.109382
 33
0.0
 14
2191.576381
 24
2197.001207
 34
0.0
100
AcDbRotatedDimension
  0
DIMENSION
  5
46D
330
225
100
AcDbEntity
  8
0
  6
Continuous
 62
     2
100
AcDbDimension
280
     0
  2
*D2
 10
2277.091043
 20
2148.413054
 30
0.0
 11
2277.091043
 21
2114.250118
 31
0.0
 70
   160
  1
%%c<>
 71
     3
 42
25.0
 73
     0
 74
     0
 75
     0
  3
DIMSTYLE_2
100
AcDbAlignedDimension
 13
2229.606145
 23
2173.413054
 33
0.0
 14
2229.320475
 24
2148.413054
 34
0.0
 50
270.0
100
AcDbRotatedDimension
  0
DIMENSION
  5
46E
330
225
100
AcDbEntity
  8
0
  6
Continuous
 62
     2
100
AcDbDimension
280
     0
  2
*D3
 10
3254.676483
 20
2699.010187
 30
0.0
 11
3271.990755
 21
2699.010187
 31
0.0
 70
   160
  1
40
 71
     2
 42
39.2
 73
     0
 74
     0
 75
     0
  3
DIMSTYLE_3
100
AcDbAlignedDimension
 13
3293.876483
 23
2733.980495
 33
0.0
 14
3254.676483
 24
2733.630955
 34
0.0
 50
180.0
100
AcDbRotatedDimension
  0
INSERT
  5
46F
330
225
100
AcDbEntity
  8
0
  6
Continuous
 62
     2
100
AcDbBlockReference
  2
LOGO2_BL0
 10
4151.169025
 20
49.703489
 30
0.0
  0
ACAD_TABLE
  5
470
102
{ACAD_XDICTIONARY
360
4C7
102
}
330
225
100
AcDbEntity
  8
0
  6
Continuous
 62
     2
160
              3544
310
D80D000019000000880000001D000000000000000000F03F0000000000000000000000000000000049E3C5FABB24B0400000000000000000000000000000F03F0000000000000000EC8E89F805ED504000000000000000000000000000000000000000000000F03F0000000000000000000000000000000000000000000000
310
000000000000000000000000000000F03F5400000020000000020000000000000000000000000000000000000000000000000000000000000000005E400000000000000000000000000000000000000000000000000000000000000000000000000000F03F5400000020000000020000000000000000000000000000000000
310
0000000000000000000000000000000000005798AAAAAAAA4AC0000000000000000000000000000000000000000000000000000000000000F03F540000002000000002000000000000000000444000000000000020C000000000000000000000000000005E4000000000000020C00000000000000000000000000000000000
310
00000000000000000000000000F03F540000002000000002000000000000000000444000000000000030C000000000000000000000000000005E4000000000000030C0000000000000000000000000000000000000000000000000000000000000F03F5400000020000000020000000000000000004440AF30555555553DC0
310
00000000000000000000000000005E40AF30555555553DC0000000000000000000000000000000000000000000000000000000000000F03F540000002000000002000000000000000000000000000000000042C000000000000000000000000000005E4000000000000042C000000000000000000000000000000000000000
310
0000000000000000000000F03F54000000200000000200000000000000000000005798AAAAAAAA4AC000000000000000000000000000005E405798AAAAAAAA4AC0000000000000000000000000000000000000000000000000000000000000F03F540000002000000002000000000000000000444000000000000000000000
310
000000000000000000000000444000000000000042C0000000000000000000000000000000000000000000000000000000000000F03F5400000020000000020000002C4C555555555740000000000000000000000000000000002C4C55555555574000000000000030C0000000000000000000000000000000000000000000
310
000000000000000000F03F5400000020000000020000000000000000005E40000000000000000000000000000000000000000000005E405798AAAAAAAA4AC0000000000000000000000000000000000000000000000000000000000000F03F0C0000001000000026000000C0000000260000008BCBDDDDDDFD444000000000
310
000018C0000000000000000000000000000000000000000000000000000000000000F03F000000000000F03F000000000000000000000000000000003500420030005F0043005F00300035003600000012000000010000000000000000001040333333333333EB3F0000000000000000000000000000F03F00000000000000
310
000000000000000000000000000000000000000000000000000000000000000000740078007400000000000000BC000000260000006E4D444444D457400000000000001CC0000000000000000000000000000000000000000000000000000000000000F03F000000000000F03F000000000000000000000000000000005200
310
650076003A0030003100000000000C00000001000000453DABAAAAAA1240333333333333EB3F0000000000000000000000000000F03F00000000000000000000000000000000000000000000000000000000000000000000000000000000740078007400000000000000C0000000260000008BCBDDDDDDFD44400000000000
310
002EC0000000000000000000000000000000000000000000000000000000000000F03F000000000000F03F000000000000000000000000000000005300630061006C0065003A0031003A00310000001200000001000000453DABAAAAAA1240333333333333EB3F0000000000000000000000000000F03F0000000000000000
310
0000000000000000000000000000000000000000000000000000000000000000740078007400000000000000C8000000260000006E4D444444D45740443DABAAAAAA2AC0000000000000000000000000000000000000000000000000000000000000F03F000000000000F03F00000000000000000000000000000000330032
310
003000300020006200790020003200350030003000000000001800000001000000897A565555550540333333333333EB3F0000000000000000000000000000F03F00000000000000000000000000000000000000000000000000000000000000000000000000000000740078007400000000000000C0000000260000008BCB
310
DDDDDDFD444000000000000039C0000000000000000000000000000000000000000000000000000000000000F03F000000000000F03F0000000000000000000000000000000054005200450056004900200031002E00320000001200000001000000453DABAAAAAA1240333333333333EB3F00000000000000000000000000
310
00F03F00000000000000000000000000000000000000000000000000000000000000000000000000000000740078007400000000000000B8000000260000008BCBDDDDDDFD44405798AAAAAA2A41C0000000000000000000000000000000000000000000000000000000000000F03F000000000000F03F0000000000000000
310
000000000000000044004100540045003A0000000A000000010000007785A9AAAAAA0A40333333333333EB3F0000000000000000000000000000F03F0000000000000000000000000000000000000000000000000000000000000000000000000000000074007800740000000000000018010000260000005471B9BBBBBBFF
310
3FA967555555B543C0000000000000000000000000000000000000000000000000000000000000F03F000000000000F03F0000000000000000000000000000000041006E007900200069006E00740065006700720061006C0020006F00720020007000610072007400690061006C00200072006500700072006F0064007500
310
6300740069006F006E00730020006100720065002000700072006F0068006900620069007400650064000000000068000000010000000000000000000840333333333333EB3F0000000000000000000000000000F03F0000000000000000000000000000000000000000000000000000000000000000000000000000000074
310
0078007400000000000000F0000000260000005471B9BBBBBBFF3FA967555555F545C0000000000000000000000000000000000000000000000000000000000000F03F000000000000F03F0000000000000000000000000000000077006900740068006F007500740020007000720069006F00720020006100750074006800
310
6F007200690073006100740069006F006E0020006F00660020004C002000000042000000010000000000000000000840333333333333EB3F0000000000000000000000000000F03F00000000000000000000000000000000000000000000000000000000000000000000000000000000740078007400000000000000B80000
310
00260000002C4C555555D55340A967555555F545C0000000000000000000000000000000000000000000000000000000000000F03F000000000000F03F0000000000000000000000000000000020000000020000000100000000000000000008407521567F8461C83F0000000000000000000000000000F03F000000000000
310
000000000000000000000000000000000000000000000000000000000000000000007400780074002E00730068007800000000000000E0000000260000005E4D149CE7F95340A967555555F545C0000000000000000000000000000000000000000000000000000000000000F03F000000000000F03F000000000000000000
310
00000000000000260020004C0020004C007500630065002000260020004C006900670068007400200073002E0072002E006C002E002C000000000030000000010000000000000000000840333333333333EB3F0000000000000000000000000000F03F00000000000000000000000000000000000000000000000000000000
310
000000000000000000000000740078007400000000000000F8000000260000005471B9BBBBBBFF3FA9675555553548C0000000000000000000000000000000000000000000000000000000000000F03F000000000000F03F0000000000000000000000000000000069006E0020006100630063006F007200640061006E0063
310
00650020007700690074006800200074006800650020006C0061007700200069006E00200066006F007200630065002E000000000048000000010000000000000000000840333333333333EB3F0000000000000000000000000000F03F00000000000000000000000000000000000000000000000000000000000000000000
310
000000000000740078007400000000000000D8000000260000005471B9BBBBBBFF3FA967555555754AC0000000000000000000000000000000000000000000000000000000000000F03F000000000000F03F0000000000000000000000000000000041006C006C002000720069006700680074007300200072006500730065
310
0072007600650064002E000000000028000000010000000000000000000840333333333333EB3F0000000000000000000000000000F03F00000000000000000000000000000000000000000000000000000000000000000000000000000000740078007400000000000000080000001F000000
100
AcDbBlockReference
  2
*T5
 10
4132.734295
 20
67.703489
 30
0.0
100
AcDbTable
342
499
343
22C
 11
1.0
 21
0.0
 31
0.0
 90
       22
 91
        5
 92
        5
 93
        0
 94
        0
 95
        0
 96
        0
141
8.0
141
8.0
141
13.333333
141
6.666667
141
17.333333
142
13.333333
142
13.333333
142
13.333333
142
53.333333
142
26.666667
171
     1
172
     0
173
     0
174
     0
175
     3
176
     4
 91
       32
178
     0
145
0.0
140
4.666667
 92
        0
301
CELL_VALUE
 93
        2
 90
        4
  1
 
 94
        0
300

302
 
304
ACVALUE_END
171
     1
172
     0
173
     1
174
     0
175
     1
176
     1
 91
        0
178
     0
145
0.0
 92
        0
301
CELL_VALUE
 93
        3
 90
        0
 91
        0
 94
        0
300

302

304
ACVALUE_END
171
     1
172
     0
173
     1
174
     0
175
     1
176
     1
 91
        0
178
     0
145
0.0
 92
        0
301
CELL_VALUE
 93
        3
 90
        0
 91
        0
 94
        0
300

302

304
ACVALUE_END
171
     1
172
     0
173
     0
174
     0
175
     1
176
     1
 91
       33
178
     0
145
0.0
170
     4
140
4.0
 92
        0
301
CELL_VALUE
 93
        2
 90
        4
  1
5B0_C_056
 94
        0
300

302
5B0_C_056
304
ACVALUE_END
171
     1
172
     0
173
     0
174
     0
175
     1
176
     1
 91
       33
178
     0
145
0.0
170
     1
140
4.666667
 92
        0
301
CELL_VALUE
 93
        2
 90
        4
  1
Rev:01
 94
        0
300

302
Rev:01
304
ACVALUE_END
171
     1
172
     0
173
     1
174
     0
175
     1
176
     1
 91
        0
178
     0
145
0.0
 92
        0
301
CELL_VALUE
 93
        3
 90
        0
 91
        0
 94
        0
300

302

304
ACVALUE_END
171
     1
172
     0
173
     1
174
     0
175
     1
176
     1
 91
        0
178
     0
145
0.0
 92
        0
301
CELL_VALUE
 93
        3
 90
        0
 91
        0
 94
        0
300

302

304
ACVALUE_END
171
     1
172
     0
173
     1
174
     0
175
     1
176
     1
 91
        0
178
     0
145
0.0
 92
        0
301
CELL_VALUE
 93
        3
 90
        0
 91
        0
 94
        0
300

302

304
ACVALUE_END
171
     1
172
     0
173
     0
174
     0
175
     1
176
     1
 91
       33
178
     0
145
0.0
170
     1
140
4.666667
 92
        0
301
CELL_VALUE
 93
        2
 90
        4
  1
Scale:1:1
 94
        0
300

302
Scale:1:1
304
ACVALUE_END
171
     1
172
     0
173
     0
174
     0
175
     1
176
     1
 91
       33
178
     0
145
0.0
170
     4
140
2.666667
 92
        0
301
CELL_VALUE
 93
        2
 90
        4
  1
3200 by 2500
 94
        0
300

302
3200 by 2500
304
ACVALUE_END
171
     1
172
     0
173
     1
174
     0
175
     1
176
     1
 91
        0
178
     0
145
0.0
 92
        0
301
CELL_VALUE
 93
        3
 90
        0
 91
        0
 94
        0
300

302

304
ACVALUE_END
171
     1
172
     0
173
     1
174
     0
175
     1
176
     1
 91
        0
178
     0
145
0.0
 92
        0
301
CELL_VALUE
 93
        3
 90
        0
 91
        0
 94
        0
300

302

304
ACVALUE_END
171
     1
172
     0
173
     1
174
     0
175
     1
176
     1
 91
        0
178
     0
145
0.0
 92
        0
301
CELL_VALUE
 93
        3
 90
        0
 91
        0
 94
        0
300

302

304
ACVALUE_END
171
     1
172
     0
173
     0
174
     0
175
     2
176
     1
 91
       33
178
     0
145
0.0
170
     4
140
4.666667
 92
        0
301
CELL_VALUE
 93
        2
 90
        4
  1
TREVI 1.2
 94
        0
300

302
TREVI 1.2
304
ACVALUE_END
171
     1
172
     0
173
     1
174
     0
175
     1
176
     1
 91
        0
178
     0
145
0.0
 92
        0
301
CELL_VALUE
 93
        3
 90
        0
 91
        0
 94
        0
300

302

304
ACVALUE_END
171
     1
172
     0
173
     1
174
     0
175
     1
176
     1
 91
        0
178
     0
145
0.0
 92
        0
301
CELL_VALUE
 93
        3
 90
        0
 91
        0
 94
        0
300

302

304
ACVALUE_END
171
     1
172
     0
173
     1
174
     0
175
     1
176
     1
 91
        0
178
     0
145
0.0
 92
        0
301
CELL_VALUE
 93
        3
 90
        0
 91
        0
 94
        0
300

302

304
ACVALUE_END
171
     1
172
     0
173
     1
174
     0
175
     1
176
     1
 91
        0
178
     0
145
0.0
 92
        0
301
CELL_VALUE
 93
        3
 90
        0
 91
        0
 94
        0
300

302

304
ACVALUE_END
171
     1
172
     0
173
     0
174
     0
175
     2
176
     1
 91
       33
178
     0
145
0.0
170
     4
140
3.333333
 92
        0
301
CELL_VALUE
 93
        2
 90
        4
  1
DATE:
 94
        0
300

302
DATE:
304
ACVALUE_END
171
     1
172
     0
173
     1
174
     0
175
     1
176
     1
 91
        0
178
     0
145
0.0
 92
        0
301
CELL_VALUE
 93
        3
 90
        0
 91
        0
 94
        0
300

302

304
ACVALUE_END
171
     1
172
     0
173
     0
174
     0
175
     5
176
     1
 91
       33
178
     0
145
0.0
170
     4
140
3.0
 92
        0
301
CELL_VALUE
 93
        2
 90
        4
  1
Any integral or partial reproductions are prohibited \Pwithout prior authorisation of L {\Ftxt.shx;\W0.190476;\H3.000000; }& L Luce & Light s.r.l., \Pin accordance with the law in force. \PAll rights reserved.
 94
        0
300

302
Any integral or partial reproductions are prohibited \Pwithout prior authorisation of L {\Ftxt.shx;\W0.190476;\H3.000000; }& L Luce & Light s.r.l., \Pin accordance with the law in force. \PAll rights reserved.
304
ACVALUE_END
171
     1
172
     0
173
     1
174
     0
175
     1
176
     1
 91
        0
178
     0
145
0.0
 92
        0
301
CELL_VALUE
 93
        3
 90
        0
 91
        0
 94
        0
300

302

304
ACVALUE_END
171
     1
172
     0
173
     1
174
     0
175
     1
176
     1
 91
        0
178
     0
145
0.0
 92
        0
301
CELL_VALUE
 93
        3
 90
        0
 91
        0
 94
        0
300

302

304
ACVALUE_END
171
     1
172
     0
173
     1
174
     0
175
     1
176
     1
 91
        0
178
     0
145
0.0
 92
        0
301
CELL_VALUE
 93
        3
 90
        0
 91
        0
 94
        0
300

302

304
ACVALUE_END
171
     1
172
     0
173
     1
174
     0
175
     1
176
     1
 91
        0
178
     0
145
0.0
 92
        0
301
CELL_VALUE
 93
        3
 90
        0
 91
        0
 94
        0
300

302

304
ACVALUE_END
  0
ENDSEC
  0
SECTION
  2
OBJECTS
  0
DICTIONARY
  5
C
330
0
100
AcDbDictionary
281
     1
  3
ACAD_DETAILVIEWSTYLE
350
4D0
  3
ACAD_GROUP
350
D
  3
ACAD_IMAGE_DICT
350
4C0
  3
ACAD_LAYOUT
350
1A
  3
ACAD_MATERIAL
350
4B4
  3
ACAD_MLEADERSTYLE
350
4CF
  3
ACAD_MLINESTYLE
350
17
  3
ACAD_PLOTSETTINGS
350
19
  3
ACAD_PLOTSTYLENAME
350
E
  3
ACAD_SCALELIST
350
476
  3
ACAD_SECTIONVIEWSTYLE
350
4D1
  3
ACAD_TABLESTYLE
350
498
  3
ACAD_VISUALSTYLE
350
49B
  3
ACDB_RECOMPOSE_DATA
350
4CD
  3
AcDbVariableDictionary
350
4C9
  3
HOST_DOC_SETTINGS
350
4BE
  3
MCS_STREAM_DICT
350
4BA
  0
SUN
  5
4BD
330
1F4
100
AcDbSun
 90
        1
290
     0
 63
     7
421
 16777215
 40
1.0
291
     1
 91
  2455826
 92
 54000000
292
     0
 70
     2
 71
   256
280
     1
  0
DICTIONARY
  5
4C7
330
470
100
AcDbDictionary
280
     1
281
     1
  3
ACAD_XREC_ROUNDTRIP
360
4C8
  0
DICTIONARY
  5
4D0
102
{ACAD_REACTORS
330
C
102
}
330
C
100
AcDbDictionary
281
     1
  0
DICTIONARY
  5
D
102
{ACAD_REACTORS
330
C
102
}
330
C
100
AcDbDictionary
281
     1
  0
DICTIONARY
  5
4C0
102
{ACAD_REACTORS
330
C
102
}
330
C
100
AcDbDictionary
281
     1
  0
DICTIONARY
  5
1A
102
{ACAD_REACTORS
330
C
102
}
330
C
100
AcDbDictionary
281
     1
  3
Layout1
350
473
  3
Model
350
472
  0
DICTIONARY
  5
4B4
102
{ACAD_REACTORS
330
C
102
}
330
C
100
AcDbDictionary
281
     1
  3
ByBlock
350
4B6
  3
ByLayer
350
4B5
  3
Global
350
4B7
  0
DICTIONARY
  5
4CF
102
{ACAD_REACTORS
330
C
102
}
330
C
100
AcDbDictionary
281
     1
  0
DICTIONARY
  5
17
102
{ACAD_REACTORS
330
C
102
}
330
C
100
AcDbDictionary
281
     1
  3
Standard
350
18
  0
DICTIONARY
  5
19
102
{ACAD_REACTORS
330
C
102
}
330
C
100
AcDbDictionary
281
     1
  0
ACDBDICTIONARYWDFLT
  5
E
102
{ACAD_REACTORS
330
C
102
}
330
C
100
AcDbDictionary
281
     1
  3
Normal
350
F
100
AcDbDictionaryWithDefault
340
F
  0
DICTIONARY
  5
476
102
{ACAD_REACTORS
330
C
102
}
330
C
100
AcDbDictionary
281
     1
  3
A0
350
477
  3
A1
350
478
  3
A2
350
479
  3
A3
350
47A
  3
A4
350
47B
  3
A5
350
47C
  3
A6
350
47D
  3
A7
350
47E
  3
A8
350
47F
  3
A9
350
480
  3
B0
350
481
  3
B1
350
482
  3
B2
350
483
  3
B3
350
484
  3
B4
350
485
  3
B5
350
486
  3
B6
350
487
  3
B7
350
488
  3
B8
350
489
  3
B9
350
48A
  3
C0
350
48B
  3
C1
350
48C
  3
C2
350
48D
  3
C3
350
48E
  3
C4
350
48F
  3
C5
350
490
  3
C6
350
491
  3
C7
350
492
  3
C8
350
493
  3
C9
350
494
  3
D0
350
495
  3
D1
350
496
  3
D2
350
497
  0
DICTIONARY
  5
4D1
102
{ACAD_REACTORS
330
C
102
}
330
C
100
AcDbDictionary
281
     1
  0
DICTIONARY
  5
498
102
{ACAD_REACTORS
330
C
102
}
330
C
100
AcDbDictionary
281
     1
  3
Standard
350
499
  0
DICTIONARY
  5
49B
102
{ACAD_REACTORS
330
C
102
}
330
C
100
AcDbDictionary
281
     1
  3
2dWireframe
350
4A0
  3
Basic
350
4A3
  3
Brighten
350
4A7
  3
ColorChange
350
4AB
  3
Conceptual
350
4A5
  3
Dim
350
4A6
  3
EdgeColorOff
350
4AE
  3
Facepattern
350
4AA
  3
Flat
350
49C
  3
FlatWithEdges
350
49D
  3
Gouraud
350
49E
  3
GouraudWithEdges
350
49F
  3
Hidden
350
4A2
  3
JitterOff
350
4AC
  3
Linepattern
350
4A9
  3
OverhangOff
350
4AD
  3
Realistic
350
4A4
  3
Shaded
350
4B3
  3
Shaded with edges
350
4B2
  3
Shades of Gray
350
4AF
  3
Sketchy
350
4B0
  3
Thicken
350
4A8
  3
Wireframe
350
4A1
  3
X-Ray
350
4B1
  0
XRECORD
  5
4CD
102
{ACAD_REACTORS
330
C
102
}
330
C
100
AcDbXrecord
280
     1
 90
        1
330
470
330
499
  0
DICTIONARY
  5
4C9
102
{ACAD_REACTORS
330
C
102
}
330
C
100
AcDbDictionary
281
     1
  3
CANNOSCALE
350
4CA
  3
CTABLESTYLE
350
4CE
  0
DICTIONARY
  5
4BE
102
{ACAD_REACTORS
330
C
102
}
330
C
100
AcDbDictionary
281
     1
  3
NCDocParameters
350
4BF
  0
DICTIONARY
  5
4BA
102
{ACAD_REACTORS
330
C
102
}
330
C
100
AcDbDictionary
281
     1
  3
MC_VERSION_DATA
350
4C3
  3
MCS_DOCUMENT_ID
350
4BB
  3
MCS_PARAMS_DATA
350
4C1
  0
XRECORD
  5
4C8
102
{ACAD_REACTORS
330
4C7
102
}
330
4C7
100
AcDbXrecord
280
     1
102
ACAD_ROUNDTRIP_2008_TABLE_ENTITY
360
4C5
 70
     2
 90
        1
 10
0.0
 20
0.0
 30
0.0
 90
        0
 90
        4
361
4C6
  0
LAYOUT
  5
473
102
{ACAD_REACTORS
330
1A
102
}
330
1A
100
AcDbPlotSettings
  1

  2
none_device
  4

  6

 40
0.0
 41
0.0
 42
0.0
 43
0.0
 44
3200.0
 45
2500.0
 46
0.0
 47
0.0
 48
0.0
 49
0.0
140
0.0
141
0.0
142
1.0
143
1.0
 70
     0
 72
     1
 73
     0
 74
     0
  7

 75
     0
 76
     0
 77
     2
 78
   300
147
1.0
148
0.0
149
0.0
100
AcDbLayout
  1
Layout1
 70
     0
 71
     1
 10
0.0
 20
0.0
 11
3200.0
 21
2500.0
 12
0.0
 22
0.0
 32
0.0
 14
0.0
 24
0.0
 34
0.0
 15
0.0
 25
0.0
 35
0.0
146
0.0
 13
0.0
 23
0.0
 33
0.0
 16
1.0
 26
0.0
 36
0.0
 17
0.0
 27
1.0
 37
0.0
 76
     0
330
226
  0
LAYOUT
  5
472
102
{ACAD_REACTORS
330
1A
102
}
330
1A
100
AcDbPlotSettings
  1

  2
none_device
  4

  6

 40
0.0
 41
0.0
 42
0.0
 43
0.0
 44
3200.0
 45
2500.0
 46
0.0
 47
0.0
 48
0.0
 49
0.0
140
0.0
141
0.0
142
1.0
143
1.0
 70
  1024
 72
     1
 73
     0
 74
     0
  7

 75
     0
 76
     0
 77
     2
 78
   300
147
1.0
148
0.0
149
0.0
100
AcDbLayout
  1
Model
 70
     0
 71
     0
 10
0.0
 20
0.0
 11
3200.0
 21
2500.0
 12
0.0
 22
0.0
 32
0.0
 14
0.0
 24
0.0
 34
0.0
 15
0.0
 25
0.0
 35
0.0
146
0.0
 13
0.0
 23
0.0
 33
0.0
 16
1.0
 26
0.0
 36
0.0
 17
0.0
 27
1.0
 37
0.0
 76
     0
330
225
331
1F4
  0
MATERIAL
  5
4B6
102
{ACAD_REACTORS
330
4B4
102
}
330
4B4
100
AcDbMaterial
  1
ByBlock
 72
     1
 94
      127
  0
MATERIAL
  5
4B5
102
{ACAD_REACTORS
330
4B4
102
}
330
4B4
100
AcDbMaterial
  1
ByLayer
 72
     1
 94
      127
  0
MATERIAL
  5
4B7
102
{ACAD_REACTORS
330
4B4
102
}
330
4B4
100
AcDbMaterial
  1
Global
 72
     1
 94
      127
  0
MLINESTYLE
  5
18
102
{ACAD_REACTORS
330
17
102
}
330
17
100
AcDbMlineStyle
  2
STANDARD
 70
     0
  3

 62
   256
 51
90.0
 52
90.0
 71
     2
 49
0.5
 62
   256
  6
BYLAYER
 49
-0.5
 62
   256
  6
BYLAYER
  0
ACDBPLACEHOLDER
  5
F
102
{ACAD_REACTORS
330
E
102
}
330
E
  0
SCALE
  5
477
102
{ACAD_REACTORS
330
476
102
}
330
476
100
AcDbScale
 70
     0
300
1:1
140
1.0
141
1.0
290
     1
  0
SCALE
  5
478
102
{ACAD_REACTORS
330
476
102
}
330
476
100
AcDbScale
 70
     0
300
1:2
140
1.0
141
2.0
290
     0
  0
SCALE
  5
479
102
{ACAD_REACTORS
330
476
102
}
330
476
100
AcDbScale
 70
     0
300
1:4
140
1.0
141
4.0
290
     0
  0
SCALE
  5
47A
102
{ACAD_REACTORS
330
476
102
}
330
476
100
AcDbScale
 70
     0
300
1:5
140
1.0
141
5.0
290
     0
  0
SCALE
  5
47B
102
{ACAD_REACTORS
330
476
102
}
330
476
100
AcDbScale
 70
     0
300
1:8
140
1.0
141
8.0
290
     0
  0
SCALE
  5
47C
102
{ACAD_REACTORS
330
476
102
}
330
476
100
AcDbScale
 70
     0
300
1:10
140
1.0
141
10.0
290
     0
  0
SCALE
  5
47D
102
{ACAD_REACTORS
330
476
102
}
330
476
100
AcDbScale
 70
     0
300
1:16
140
1.0
141
16.0
290
     0
  0
SCALE
  5
47E
102
{ACAD_REACTORS
330
476
102
}
330
476
100
AcDbScale
 70
     0
300
1:20
140
1.0
141
20.0
290
     0
  0
SCALE
  5
47F
102
{ACAD_REACTORS
330
476
102
}
330
476
100
AcDbScale
 70
     0
300
1:30
140
1.0
141
30.0
290
     0
  0
SCALE
  5
480
102
{ACAD_REACTORS
330
476
102
}
330
476
100
AcDbScale
 70
     0
300
1:40
140
1.0
141
40.0
290
     0
  0
SCALE
  5
481
102
{ACAD_REACTORS
330
476
102
}
330
476
100
AcDbScale
 70
     0
300
1:50
140
1.0
141
50.0
290
     0
  0
SCALE
  5
482
102
{ACAD_REACTORS
330
476
102
}
330
476
100
AcDbScale
 70
     0
300
1:100
140
1.0
141
100.0
290
     0
  0
SCALE
  5
483
102
{ACAD_REACTORS
330
476
102
}
330
476
100
AcDbScale
 70
     0
300
2:1
140
2.0
141
1.0
290
     0
  0
SCALE
  5
484
102
{ACAD_REACTORS
330
476
102
}
330
476
100
AcDbScale
 70
     0
300
4:1
140
4.0
141
1.0
290
     0
  0
SCALE
  5
485
102
{ACAD_REACTORS
330
476
102
}
330
476
100
AcDbScale
 70
     0
300
8:1
140
8.0
141
1.0
290
     0
  0
SCALE
  5
486
102
{ACAD_REACTORS
330
476
102
}
330
476
100
AcDbScale
 70
     0
300
10:1
140
10.0
141
1.0
290
     0
  0
SCALE
  5
487
102
{ACAD_REACTORS
330
476
102
}
330
476
100
AcDbScale
 70
     0
300
100:1
140
100.0
141
1.0
290
     0
  0
SCALE
  5
488
102
{ACAD_REACTORS
330
476
102
}
330
476
100
AcDbScale
 70
     0
300
1/128" = 1'-0"
140
0.007812
141
12.0
290
     0
  0
SCALE
  5
489
102
{ACAD_REACTORS
330
476
102
}
330
476
100
AcDbScale
 70
     0
300
1/64" = 1'-0"
140
0.015625
141
12.0
290
     0
  0
SCALE
  5
48A
102
{ACAD_REACTORS
330
476
102
}
330
476
100
AcDbScale
 70
     0
300
1/32" = 1'-0"
140
0.03125
141
12.0
290
     0
  0
SCALE
  5
48B
102
{ACAD_REACTORS
330
476
102
}
330
476
100
AcDbScale
 70
     0
300
1/16" = 1'-0"
140
0.0625
141
12.0
290
     0
  0
SCALE
  5
48C
102
{ACAD_REACTORS
330
476
102
}
330
476
100
AcDbScale
 70
     0
300
3/32" = 1'-0"
140
0.09375
141
12.0
290
     0
  0
SCALE
  5
48D
102
{ACAD_REACTORS
330
476
102
}
330
476
100
AcDbScale
 70
     0
300
1/8" = 1'-0"
140
0.125
141
12.0
290
     0
  0
SCALE
  5
48E
102
{ACAD_REACTORS
330
476
102
}
330
476
100
AcDbScale
 70
     0
300
3/16" = 1'-0"
140
0.1875
141
12.0
290
     0
  0
SCALE
  5
48F
102
{ACAD_REACTORS
330
476
102
}
330
476
100
AcDbScale
 70
     0
300
1/4" = 1'-0"
140
0.25
141
12.0
290
     0
  0
SCALE
  5
490
102
{ACAD_REACTORS
330
476
102
}
330
476
100
AcDbScale
 70
     0
300
3/8" = 1'-0"
140
0.375
141
12.0
290
     0
  0
SCALE
  5
491
102
{ACAD_REACTORS
330
476
102
}
330
476
100
AcDbScale
 70
     0
300
1/2" = 1'-0"
140
0.5
141
12.0
290
     0
  0
SCALE
  5
492
102
{ACAD_REACTORS
330
476
102
}
330
476
100
AcDbScale
 70
     0
300
3/4" = 1'-0"
140
0.75
141
12.0
290
     0
  0
SCALE
  5
493
102
{ACAD_REACTORS
330
476
102
}
330
476
100
AcDbScale
 70
     0
300
1" = 1'-0"
140
1.0
141
12.0
290
     0
  0
SCALE
  5
494
102
{ACAD_REACTORS
330
476
102
}
330
476
100
AcDbScale
 70
     0
300
1-1/2" = 1'-0"
140
1.5
141
12.0
290
     0
  0
SCALE
  5
495
102
{ACAD_REACTORS
330
476
102
}
330
476
100
AcDbScale
 70
     0
300
3" = 1'-0"
140
3.0
141
12.0
290
     0
  0
SCALE
  5
496
102
{ACAD_REACTORS
330
476
102
}
330
476
100
AcDbScale
 70
     0
300
6" = 1'-0"
140
6.0
141
12.0
290
     0
  0
SCALE
  5
497
102
{ACAD_REACTORS
330
476
102
}
330
476
100
AcDbScale
 70
     0
300
1'-0" = 1'-0"
140
12.0
141
12.0
290
     0
  0
TABLESTYLE
  5
499
102
{ACAD_REACTORS
330
498
102
}
102
{ACAD_XDICTIONARY
360
4CB
102
}
330
498
100
AcDbTableStyle
  3
Standard
 70
     0
 71
     0
 40
0.06
 41
0.06
280
     0
281
     0
  7
STANDARD
140
4.5
170
     2
 62
     0
 63
   257
283
     0
 90
        4
 91
        0
  1

274
    -2
284
     1
 64
     0
275
    -2
285
     1
 65
     0
276
    -2
286
     1
 66
     0
277
    -2
287
     1
 67
     0
278
    -2
288
     1
 68
     0
279
    -2
289
     1
 69
     0
  7
STANDARD
140
6.0
170
     5
 62
     0
 63
   257
283
     0
 90
        4
 91
        0
  1

274
    -2
284
     1
 64
     0
275
    -2
285
     1
 65
     0
276
    -2
286
     1
 66
     0
277
    -2
287
     1
 67
     0
278
    -2
288
     1
 68
     0
279
    -2
289
     1
 69
     0
  7
STANDARD
140
4.5
170
     5
 62
     0
 63
   257
283
     0
 90
        4
 91
        0
  1

274
    -2
284
     1
 64
     0
275
    -2
285
     1
 65
     0
276
    -2
286
     1
 66
     0
277
    -2
287
     1
 67
     0
278
    -2
288
     1
 68
     0
279
    -2
289
     1
 69
     0
  0
VISUALSTYLE
  5
4A0
102
{ACAD_REACTORS
330
49B
102
}
330
49B
100
AcDbVisualStyle
  2
2dWireframe
 70
     4
177
     3
291
     0
 70
    58
 90
        0
176
     1
 90
        2
176
     1
 90
        0
176
     1
 90
        0
176
     1
 40
0.6
176
     1
 40
30.0
176
     1
 62
     7
420
 16777215
176
     1
 90
        1
176
     1
 90
        4
176
     1
 62
     7
176
     1
 62
   257
176
     1
 90
        1
176
     1
 90
        1
176
     1
 40
1.0
176
     1
 90
        0
176
     1
 62
   257
176
     1
 40
1.0
176
     1
 90
        1
176
     1
 90
        6
176
     1
 90
        2
176
     1
 62
     7
176
     1
 90
        5
176
     1
 90
        0
176
     1
 90
        0
176
     1
290
     0
176
     1
 90
        1
176
     1
 40
0.0
176
     1
 90
        0
176
     1
290
     1
176
     1
290
     1
176
     1
290
     0
176
     1
290
     0
176
     1
290
     0
176
     1
290
     0
176
     1
290
     0
176
     1
290
     0
176
     1
290
     0
176
     1
 90
       50
176
     1
 40
0.0
176
     1
 40
1.0
176
     1
 90
        0
176
     1
 62
    18
420
        0
176
     1
 90
       50
176
     1
 90
        3
176
     1
 62
     5
420
      255
176
     1
290
     0
176
     1
 90
       50
176
     1
 90
       50
176
     1
 90
       50
176
     1
290
     0
176
     1
 90
       50
176
     1
 62
   256
176
     0
 40
1.0
176
     0
 90
        2
176
     1
  1
strokes_ogs.tif
176
     1
290
     0
176
     1
 40
1.0
176
     1
 40
1.0
176
     1
  0
VISUALSTYLE
  5
4A3
102
{ACAD_REACTORS
330
49B
102
}
330
49B
100
AcDbVisualStyle
  2
Basic
 70
     7
177
     3
291
     1
 70
    58
 90
        1
176
     1
 90
        0
176
     1
 90
        1
176
     1
 90
        0
176
     1
 40
0.6
176
     1
 40
30.0
176
     1
 62
     7
420
 16777215
176
     1
 90
        0
176
     1
 90
        4
176
     1
 62
     7
176
     1
 62
   257
176
     1
 90
        1
176
     1
 90
        1
176
     1
 40
1.0
176
     1
 90
        8
176
     1
 62
     7
176
     1
 40
1.0
176
     1
 90
        1
176
     1
 90
        6
176
     1
 90
        2
176
     1
 62
     7
176
     1
 90
        5
176
     1
 90
        0
176
     1
 90
        0
176
     1
290
     0
176
     1
 90
        1
176
     1
 40
0.0
176
     1
 90
        0
176
     1
290
     0
176
     1
290
     1
176
     1
290
     1
176
     1
290
     0
176
     1
290
     0
176
     1
290
     0
176
     1
290
     0
176
     1
290
     0
176
     1
290
     0
176
     1
 90
       50
176
     1
 40
0.0
176
     1
 40
1.0
176
     1
 90
        0
176
     1
 62
    18
420
        0
176
     1
 90
       50
176
     1
 90
        3
176
     1
 62
     5
420
      255
176
     1
290
     0
176
     1
 90
       50
176
     1
 90
       50
176
     1
 90
       50
176
     1
290
     0
176
     1
 90
       50
176
     1
 62
   256
176
     0
 40
1.0
176
     0
 90
        2
176
     1
  1
strokes_ogs.tif
176
     1
290
     0
176
     1
 40
1.0
176
     1
 40
1.0
176
     1
  0
VISUALSTYLE
  5
4A7
102
{ACAD_REACTORS
330
49B
102
}
330
49B
100
AcDbVisualStyle
  2
Brighten
 70
    12
177
     3
291
     1
 70
    58
 90
        2
176
     1
 90
        2
176
     1
 90
        0
176
     1
 90
        0
176
     1
 40
0.6
176
     1
 40
30.0
176
     1
 62
     7
420
 16777215
176
     1
 90
        1
176
     1
 90
        4
176
     1
 62
     7
176
     1
 62
   257
176
     1
 90
        1
176
     1
 90
        1
176
     1
 40
1.0
176
     1
 90
        8
176
     1
 62
     7
176
     1
 40
1.0
176
     1
 90
        1
176
     1
 90
        6
176
     1
 90
        2
176
     1
 62
     7
176
     1
 90
        5
176
     1
 90
        0
176
     1
 90
        0
176
     1
290
     0
176
     1
 90
        1
176
     1
 40
50.0
176
     1
 90
        0
176
     1
290
     0
176
     1
290
     1
176
     1
290
     1
176
     1
290
     0
176
     1
290
     0
176
     1
290
     0
176
     1
290
     0
176
     1
290
     0
176
     1
290
     0
176
     1
 90
       50
176
     1
 40
0.0
176
     1
 40
1.0
176
     1
 90
        0
176
     1
 62
    18
420
        0
176
     1
 90
       50
176
     1
 90
        3
176
     1
 62
     5
420
      255
176
     1
290
     0
176
     1
 90
       50
176
     1
 90
       50
176
     1
 90
       50
176
     1
290
     0
176
     1
 90
       50
176
     1
 62
   256
176
     0
 40
1.0
176
     0
 90
        2
176
     1
  1
strokes_ogs.tif
176
     1
290
     0
176
     1
 40
1.0
176
     1
 40
1.0
176
     1
  0
VISUALSTYLE
  5
4AB
102
{ACAD_REACTORS
330
49B
102
}
330
49B
100
AcDbVisualStyle
  2
ColorChange
 70
    16
177
     3
291
     1
 70
    58
 90
        2
176
     1
 90
        2
176
     1
 90
        3
176
     1
 90
        0
176
     1
 40
0.6
176
     1
 40
30.0
176
     1
 62
     8
420
  8421504
176
     1
 90
        1
176
     1
 90
        4
176
     1
 62
     7
176
     1
 62
   257
176
     1
 90
        1
176
     1
 90
        1
176
     1
 40
1.0
176
     1
 90
        8
176
     1
 62
     8
420
  8421504
176
     1
 40
1.0
176
     1
 90
        1
176
     1
 90
        6
176
     1
 90
        2
176
     1
 62
     7
176
     1
 90
        5
176
     1
 90
        0
176
     1
 90
        0
176
     1
290
     0
176
     1
 90
        1
176
     1
 40
0.0
176
     1
 90
        0
176
     1
290
     0
176
     1
290
     1
176
     1
290
     1
176
     1
290
     0
176
     1
290
     0
176
     1
290
     0
176
     1
290
     0
176
     1
290
     0
176
     1
290
     0
176
     1
 90
       50
176
     1
 40
0.0
176
     1
 40
1.0
176
     1
 90
        0
176
     1
 62
    18
420
        0
176
     1
 90
       50
176
     1
 90
        3
176
     1
 62
     5
420
      255
176
     1
290
     0
176
     1
 90
       50
176
     1
 90
       50
176
     1
 90
       50
176
     1
290
     0
176
     1
 90
       50
176
     1
 62
   256
176
     0
 40
1.0
176
     0
 90
        2
176
     1
  1
strokes_ogs.tif
176
     1
290
     0
176
     1
 40
1.0
176
     1
 40
1.0
176
     1
  0
VISUALSTYLE
  5
4A5
102
{ACAD_REACTORS
330
49B
102
}
330
49B
100
AcDbVisualStyle
  2
Conceptual
 70
     9
177
     3
291
     0
 70
    58
 90
        3
176
     1
 90
        2
176
     1
 90
        0
176
     1
 90
        0
176
     1
 40
0.6
176
     1
 40
30.0
176
     1
 62
     7
420
 16777215
176
     1
 90
        2
176
     1
 90
        2
176
     1
 62
     7
176
     1
 62
   257
176
     1
 90
        1
176
     1
 90
        1
176
     1
 40
179.0
176
     1
 90
        8
176
     1
 62
     7
176
     1
 40
1.0
176
     1
 90
        1
176
     1
 90
        6
176
     1
 90
        2
176
     1
 62
     7
176
     1
 90
        3
176
     1
 90
        0
176
     1
 90
        0
176
     1
290
     0
176
     1
 90
        1
176
     1
 40
0.0
176
     1
 90
        0
176
     1
290
     0
176
     1
290
     1
176
     1
290
     1
176
     1
290
     0
176
     1
290
     0
176
     1
290
     0
176
     1
290
     0
176
     1
290
     0
176
     1
290
     0
176
     1
 90
       50
176
     1
 40
0.0
176
     1
 40
1.0
176
     1
 90
        0
176
     1
 62
    18
420
        0
176
     1
 90
       50
176
     1
 90
        3
176
     1
 62
     5
420
      255
176
     1
290
     0
176
     1
 90
       50
176
     1
 90
       50
176
     1
 90
       50
176
     1
290
     0
176
     1
 90
       50
176
     1
 62
   256
176
     0
 40
1.0
176
     0
 90
        2
176
     1
  1
strokes_ogs.tif
176
     1
290
     0
176
     1
 40
1.0
176
     1
 40
1.0
176
     1
  0
VISUALSTYLE
  5
4A6
102
{ACAD_REACTORS
330
49B
102
}
330
49B
100
AcDbVisualStyle
  2
Dim
 70
    11
177
     3
291
     1
 70
    58
 90
        2
176
     1
 90
        2
176
     1
 90
        0
176
     1
 90
        0
176
     1
 40
0.6
176
     1
 40
30.0
176
     1
 62
     7
420
 16777215
176
     1
 90
        1
176
     1
 90
        4
176
     1
 62
     7
176
     1
 62
   257
176
     1
 90
        1
176
     1
 90
        1
176
     1
 40
1.0
176
     1
 90
        8
176
     1
 62
     7
176
     1
 40
1.0
176
     1
 90
        1
176
     1
 90
        6
176
     1
 90
        2
176
     1
 62
     7
176
     1
 90
        5
176
     1
 90
        0
176
     1
 90
        0
176
     1
290
     0
176
     1
 90
        1
176
     1
 40
-50.0
176
     1
 90
        0
176
     1
290
     0
176
     1
290
     1
176
     1
290
     1
176
     1
290
     0
176
     1
290
     0
176
     1
290
     0
176
     1
290
     0
176
     1
290
     0
176
     1
290
     0
176
     1
 90
       50
176
     1
 40
0.0
176
     1
 40
1.0
176
     1
 90
        0
176
     1
 62
    18
420
        0
176
     1
 90
       50
176
     1
 90
        3
176
     1
 62
     5
420
      255
176
     1
290
     0
176
     1
 90
       50
176
     1
 90
       50
176
     1
 90
       50
176
     1
290
     0
176
     1
 90
       50
176
     1
 62
   256
176
     0
 40
1.0
176
     0
 90
        2
176
     1
  1
strokes_ogs.tif
176
     1
290
     0
176
     1
 40
1.0
176
     1
 40
1.0
176
     1
  0
VISUALSTYLE
  5
4AE
102
{ACAD_REACTORS
330
49B
102
}
330
49B
100
AcDbVisualStyle
  2
EdgeColorOff
 70
    22
177
     3
291
     1
 70
    58
 90
        2
176
     0
 90
        2
176
     0
 90
        0
176
     0
 90
        0
176
     0
 40
0.6
176
     0
 40
30.0
176
     0
 62
     7
420
 16777215
176
     0
 90
        1
176
     0
 90
        4
176
     0
 62
     7
176
     0
 62
   257
176
     0
 90
        1
176
     0
 90
        1
176
     0
 40
1.0
176
     0
 90
        8
176
     2
 62
     7
176
     0
 40
1.0
176
     0
 90
        1
176
     0
 90
        6
176
     0
 90
        2
176
     0
 62
     7
176
     0
 90
        5
176
     0
 90
        0
176
     0
 90
        0
176
     0
290
     0
176
     0
 90
        1
176
     0
 40
0.0
176
     0
 90
        0
176
     0
290
     0
176
     0
290
     1
176
     0
290
     1
176
     0
290
     0
176
     0
290
     0
176
     0
290
     0
176
     0
290
     0
176
     0
290
     0
176
     0
290
     0
176
     0
 90
       50
176
     0
 40
0.0
176
     0
 40
1.0
176
     0
 90
        0
176
     0
 62
    18
420
        0
176
     0
 90
       50
176
     0
 90
        3
176
     0
 62
     5
420
      255
176
     0
290
     0
176
     0
 90
       50
176
     0
 90
       50
176
     0
 90
       50
176
     0
290
     0
176
     0
 90
       50
176
     0
 62
   256
176
     0
 40
1.0
176
     0
 90
        2
176
     0
  1
strokes_ogs.tif
176
     0
290
     0
176
     0
 40
1.0
176
     0
 40
1.0
176
     0
  0
VISUALSTYLE
  5
4AA
102
{ACAD_REACTORS
330
49B
102
}
330
49B
100
AcDbVisualStyle
  2
Facepattern
 70
    15
177
     3
291
     1
 70
    58
 90
        2
176
     1
 90
        2
176
     1
 90
        0
176
     1
 90
        0
176
     1
 40
0.6
176
     1
 40
30.0
176
     1
 62
     7
420
 16777215
176
     1
 90
        1
176
     1
 90
        4
176
     1
 62
     7
176
     1
 62
   257
176
     1
 90
        1
176
     1
 90
        1
176
     1
 40
1.0
176
     1
 90
        8
176
     1
 62
     7
176
     1
 40
1.0
176
     1
 90
        1
176
     1
 90
        6
176
     1
 90
        2
176
     1
 62
     7
176
     1
 90
        5
176
     1
 90
        0
176
     1
 90
        0
176
     1
290
     0
176
     1
 90
        1
176
     1
 40
0.0
176
     1
 90
        0
176
     1
290
     0
176
     1
290
     1
176
     1
290
     1
176
     1
290
     0
176
     1
290
     0
176
     1
290
     0
176
     1
290
     0
176
     1
290
     0
176
     1
290
     0
176
     1
 90
       50
176
     1
 40
0.0
176
     1
 40
1.0
176
     1
 90
        0
176
     1
 62
    18
420
        0
176
     1
 90
       50
176
     1
 90
        3
176
     1
 62
     5
420
      255
176
     1
290
     0
176
     1
 90
       50
176
     1
 90
       50
176
     1
 90
       50
176
     1
290
     0
176
     1
 90
       50
176
     1
 62
   256
176
     0
 40
1.0
176
     0
 90
        2
176
     1
  1
strokes_ogs.tif
176
     1
290
     0
176
     1
 40
1.0
176
     1
 40
1.0
176
     1
  0
VISUALSTYLE
  5
49C
102
{ACAD_REACTORS
330
49B
102
}
330
49B
100
AcDbVisualStyle
  2
Flat
 70
     0
177
     3
291
     1
 70
    58
 90
        2
176
     1
 90
        1
176
     1
 90
        1
176
     1
 90
        2
176
     1
 40
0.6
176
     1
 40
30.0
176
     1
 62
     7
420
 16777215
176
     1
 90
        0
176
     1
 90
        0
176
     1
 62
     7
176
     1
 62
   257
176
     1
 90
        1
176
     1
 90
        1
176
     1
 40
1.0
176
     1
 90
        8
176
     1
 62
     7
176
     1
 40
1.0
176
     1
 90
        1
176
     1
 90
        6
176
     1
 90
        2
176
     1
 62
     7
176
     1
 90
        5
176
     1
 90
        0
176
     1
 90
        0
176
     1
290
     0
176
     1
 90
       13
176
     1
 40
0.0
176
     1
 90
        0
176
     1
290
     0
176
     1
290
     1
176
     1
290
     1
176
     1
290
     0
176
     1
290
     0
176
     1
290
     0
176
     1
290
     0
176
     1
290
     0
176
     1
290
     0
176
     1
 90
       50
176
     1
 40
0.0
176
     1
 40
1.0
176
     1
 90
        0
176
     1
 62
    18
420
        0
176
     1
 90
       50
176
     1
 90
        3
176
     1
 62
     5
420
      255
176
     1
290
     0
176
     1
 90
       50
176
     1
 90
       50
176
     1
 90
       50
176
     1
290
     0
176
     1
 90
       50
176
     1
 62
   256
176
     0
 40
1.0
176
     0
 90
        2
176
     1
  1
strokes_ogs.tif
176
     1
290
     0
176
     1
 40
1.0
176
     1
 40
1.0
176
     1
  0
VISUALSTYLE
  5
49D
102
{ACAD_REACTORS
330
49B
102
}
330
49B
100
AcDbVisualStyle
  2
FlatWithEdges
 70
     1
177
     3
291
     1
 70
    58
 90
        2
176
     1
 90
        1
176
     1
 90
        1
176
     1
 90
        2
176
     1
 40
0.6
176
     1
 40
30.0
176
     1
 62
     7
420
 16777215
176
     1
 90
        1
176
     1
 90
        0
176
     1
 62
     7
176
     1
 62
   257
176
     1
 90
        1
176
     1
 90
        1
176
     1
 40
1.0
176
     1
 90
        0
176
     1
 62
   257
176
     1
 40
1.0
176
     1
 90
        1
176
     1
 90
        6
176
     1
 90
        2
176
     1
 62
     7
176
     1
 90
        5
176
     1
 90
        0
176
     1
 90
        0
176
     1
290
     0
176
     1
 90
       13
176
     1
 40
0.0
176
     1
 90
        0
176
     1
290
     0
176
     1
290
     1
176
     1
290
     1
176
     1
290
     0
176
     1
290
     0
176
     1
290
     0
176
     1
290
     0
176
     1
290
     0
176
     1
290
     0
176
     1
 90
       50
176
     1
 40
0.0
176
     1
 40
1.0
176
     1
 90
        0
176
     1
 62
    18
420
        0
176
     1
 90
       50
176
     1
 90
        3
176
     1
 62
     5
420
      255
176
     1
290
     0
176
     1
 90
       50
176
     1
 90
       50
176
     1
 90
       50
176
     1
290
     0
176
     1
 90
       50
176
     1
 62
   256
176
     0
 40
1.0
176
     0
 90
        2
176
     1
  1
strokes_ogs.tif
176
     1
290
     0
176
     1
 40
1.0
176
     1
 40
1.0
176
     1
  0
VISUALSTYLE
  5
49E
102
{ACAD_REACTORS
330
49B
102
}
330
49B
100
AcDbVisualStyle
  2
Gouraud
 70
     2
177
     3
291
     1
 70
    58
 90
        2
176
     1
 90
        2
176
     1
 90
        1
176
     1
 90
        2
176
     1
 40
0.6
176
     1
 40
30.0
176
     1
 62
     7
420
 16777215
176
     1
 90
        0
176
     1
 90
        0
176
     1
 62
     7
176
     1
 62
   257
176
     1
 90
        1
176
     1
 90
        1
176
     1
 40
1.0
176
     1
 90
        0
176
     1
 62
     7
176
     1
 40
1.0
176
     1
 90
        1
176
     1
 90
        6
176
     1
 90
        2
176
     1
 62
     7
176
     1
 90
        5
176
     1
 90
        0
176
     1
 90
        0
176
     1
290
     0
176
     1
 90
       13
176
     1
 40
0.0
176
     1
 90
        0
176
     1
290
     0
176
     1
290
     1
176
     1
290
     1
176
     1
290
     0
176
     1
290
     0
176
     1
290
     0
176
     1
290
     0
176
     1
290
     0
176
     1
290
     0
176
     1
 90
       50
176
     1
 40
0.0
176
     1
 40
1.0
176
     1
 90
        0
176
     1
 62
    18
420
        0
176
     1
 90
       50
176
     1
 90
        3
176
     1
 62
     5
420
      255
176
     1
290
     0
176
     1
 90
       50
176
     1
 90
       50
176
     1
 90
       50
176
     1
290
     0
176
     1
 90
       50
176
     1
 62
   256
176
     0
 40
1.0
176
     0
 90
        2
176
     1
  1
strokes_ogs.tif
176
     1
290
     0
176
     1
 40
1.0
176
     1
 40
1.0
176
     1
  0
VISUALSTYLE
  5
49F
102
{ACAD_REACTORS
330
49B
102
}
330
49B
100
AcDbVisualStyle
  2
GouraudWithEdges
 70
     3
177
     3
291
     1
 70
    58
 90
        2
176
     1
 90
        2
176
     1
 90
        1
176
     1
 90
        2
176
     1
 40
0.6
176
     1
 40
30.0
176
     1
 62
     7
420
 16777215
176
     1
 90
        1
176
     1
 90
        0
176
     1
 62
     7
176
     1
 62
   257
176
     1
 90
        1
176
     1
 90
        1
176
     1
 40
1.0
176
     1
 90
        0
176
     1
 62
   257
176
     1
 40
1.0
176
     1
 90
        1
176
     1
 90
        6
176
     1
 90
        2
176
     1
 62
     7
176
     1
 90
        5
176
     1
 90
        0
176
     1
 90
        0
176
     1
290
     0
176
     1
 90
       13
176
     1
 40
0.0
176
     1
 90
        0
176
     1
290
     0
176
     1
290
     1
176
     1
290
     1
176
     1
290
     0
176
     1
290
     0
176
     1
290
     0
176
     1
290
     0
176
     1
290
     0
176
     1
290
     0
176
     1
 90
       50
176
     1
 40
0.0
176
     1
 40
1.0
176
     1
 90
        0
176
     1
 62
    18
420
        0
176
     1
 90
       50
176
     1
 90
        3
176
     1
 62
     5
420
      255
176
     1
290
     0
176
     1
 90
       50
176
     1
 90
       50
176
     1
 90
       50
176
     1
290
     0
176
     1
 90
       50
176
     1
 62
   256
176
     0
 40
1.0
176
     0
 90
        2
176
     1
  1
strokes_ogs.tif
176
     1
290
     0
176
     1
 40
1.0
176
     1
 40
1.0
176
     1
  0
VISUALSTYLE
  5
4A2
102
{ACAD_REACTORS
330
49B
102
}
330
49B
100
AcDbVisualStyle
  2
Hidden
 70
     6
177
     3
291
     0
 70
    58
 90
        1
176
     1
 90
        2
176
     1
 90
        2
176
     1
 90
        0
176
     1
 40
0.6
176
     1
 40
30.0
176
     1
 62
     7
420
 16777215
176
     1
 90
        2
176
     1
 90
        2
176
     1
 62
     7
176
     1
 62
   257
176
     1
 90
        2
176
     1
 90
        1
176
     1
 40
40.0
176
     1
 90
        0
176
     1
 62
   257
176
     1
 40
1.0
176
     1
 90
        1
176
     1
 90
        6
176
     1
 90
        2
176
     1
 62
     7
176
     1
 90
        3
176
     1
 90
        0
176
     1
 90
        0
176
     1
290
     0
176
     1
 90
        1
176
     1
 40
0.0
176
     1
 90
        0
176
     1
290
     0
176
     1
290
     1
176
     1
290
     1
176
     1
290
     0
176
     1
290
     0
176
     1
290
     0
176
     1
290
     0
176
     1
290
     0
176
     1
290
     0
176
     1
 90
       50
176
     1
 40
0.0
176
     1
 40
1.0
176
     1
 90
        0
176
     1
 62
    18
420
        0
176
     1
 90
       50
176
     1
 90
        3
176
     1
 62
     5
420
      255
176
     1
290
     0
176
     1
 90
       50
176
     1
 90
       50
176
     1
 90
       50
176
     1
290
     0
176
     1
 90
       50
176
     1
 62
   256
176
     0
 40
1.0
176
     0
 90
        2
176
     1
  1
strokes_ogs.tif
176
     1
290
     0
176
     1
 40
1.0
176
     1
 40
1.0
176
     1
  0
VISUALSTYLE
  5
4AC
102
{ACAD_REACTORS
330
49B
102
}
330
49B
100
AcDbVisualStyle
  2
JitterOff
 70
    20
177
     3
291
     1
 70
    58
 90
        2
176
     0
 90
        2
176
     0
 90
        0
176
     0
 90
        0
176
     0
 40
0.6
176
     0
 40
30.0
176
     0
 62
     7
420
 16777215
176
     0
 90
        1
176
     0
 90
        4
176
     0
 62
     7
176
     0
 62
   257
176
     0
 90
        1
176
     0
 90
        1
176
     0
 40
1.0
176
     0
 90
       10
176
     2
 62
     7
176
     0
 40
1.0
176
     0
 90
        1
176
     0
 90
        6
176
     0
 90
        2
176
     0
 62
     7
176
     0
 90
        5
176
     0
 90
        0
176
     0
 90
        0
176
     0
290
     0
176
     0
 90
        1
176
     0
 40
0.0
176
     0
 90
        0
176
     0
290
     0
176
     0
290
     1
176
     0
290
     1
176
     0
290
     0
176
     0
290
     0
176
     0
290
     0
176
     0
290
     0
176
     0
290
     0
176
     0
290
     0
176
     0
 90
       50
176
     0
 40
0.0
176
     0
 40
1.0
176
     0
 90
        0
176
     0
 62
    18
420
        0
176
     0
 90
       50
176
     0
 90
        3
176
     0
 62
     5
420
      255
176
     0
290
     0
176
     0
 90
       50
176
     0
 90
       50
176
     0
 90
       50
176
     0
290
     0
176
     0
 90
       50
176
     0
 62
   256
176
     0
 40
1.0
176
     0
 90
        2
176
     0
  1
strokes_ogs.tif
176
     0
290
     0
176
     0
 40
1.0
176
     0
 40
1.0
176
     0
  0
VISUALSTYLE
  5
4A9
102
{ACAD_REACTORS
330
49B
102
}
330
49B
100
AcDbVisualStyle
  2
Linepattern
 70
    14
177
     3
291
     1
 70
    58
 90
        2
176
     1
 90
        2
176
     1
 90
        0
176
     1
 90
        0
176
     1
 40
0.6
176
     1
 40
30.0
176
     1
 62
     7
420
 16777215
176
     1
 90
        1
176
     1
 90
        4
176
     1
 62
     7
176
     1
 62
   257
176
     1
 90
        7
176
     1
 90
        7
176
     1
 40
1.0
176
     1
 90
        8
176
     1
 62
     7
176
     1
 40
1.0
176
     1
 90
        1
176
     1
 90
        6
176
     1
 90
        2
176
     1
 62
     7
176
     1
 90
        5
176
     1
 90
        0
176
     1
 90
        0
176
     1
290
     0
176
     1
 90
        1
176
     1
 40
0.0
176
     1
 90
        0
176
     1
290
     0
176
     1
290
     1
176
     1
290
     1
176
     1
290
     0
176
     1
290
     0
176
     1
290
     0
176
     1
290
     0
176
     1
290
     0
176
     1
290
     0
176
     1
 90
       50
176
     1
 40
0.0
176
     1
 40
1.0
176
     1
 90
        0
176
     1
 62
    18
420
        0
176
     1
 90
       50
176
     1
 90
        3
176
     1
 62
     5
420
      255
176
     1
290
     0
176
     1
 90
       50
176
     1
 90
       50
176
     1
 90
       50
176
     1
290
     0
176
     1
 90
       50
176
     1
 62
   256
176
     0
 40
1.0
176
     0
 90
        2
176
     1
  1
strokes_ogs.tif
176
     1
290
     0
176
     1
 40
1.0
176
     1
 40
1.0
176
     1
  0
VISUALSTYLE
  5
4AD
102
{ACAD_REACTORS
330
49B
102
}
330
49B
100
AcDbVisualStyle
  2
OverhangOff
 70
    21
177
     3
291
     1
 70
    58
 90
        2
176
     0
 90
        2
176
     0
 90
        0
176
     0
 90
        0
176
     0
 40
0.6
176
     0
 40
30.0
176
     0
 62
     7
420
 16777215
176
     0
 90
        1
176
     0
 90
        4
176
     0
 62
     7
176
     0
 62
   257
176
     0
 90
        1
176
     0
 90
        1
176
     0
 40
1.0
176
     0
 90
        9
176
     2
 62
     7
176
     0
 40
1.0
176
     0
 90
        1
176
     0
 90
        6
176
     0
 90
        2
176
     0
 62
     7
176
     0
 90
        5
176
     0
 90
        0
176
     0
 90
        0
176
     0
290
     0
176
     0
 90
        1
176
     0
 40
0.0
176
     0
 90
        0
176
     0
290
     0
176
     0
290
     1
176
     0
290
     1
176
     0
290
     0
176
     0
290
     0
176
     0
290
     0
176
     0
290
     0
176
     0
290
     0
176
     0
290
     0
176
     0
 90
       50
176
     0
 40
0.0
176
     0
 40
1.0
176
     0
 90
        0
176
     0
 62
    18
420
        0
176
     0
 90
       50
176
     0
 90
        3
176
     0
 62
     5
420
      255
176
     0
290
     0
176
     0
 90
       50
176
     0
 90
       50
176
     0
 90
       50
176
     0
290
     0
176
     0
 90
       50
176
     0
 62
   256
176
     0
 40
1.0
176
     0
 90
        2
176
     0
  1
strokes_ogs.tif
176
     0
290
     0
176
     0
 40
1.0
176
     0
 40
1.0
176
     0
  0
VISUALSTYLE
  5
4A4
102
{ACAD_REACTORS
330
49B
102
}
330
49B
100
AcDbVisualStyle
  2
Realistic
 70
     8
177
     3
291
     0
 70
    58
 90
        2
176
     1
 90
        3
176
     1
 90
        0
176
     1
 90
        2
176
     1
 40
0.6
176
     1
 40
30.0
176
     1
 62
     7
420
 16777215
176
     1
 90
        0
176
     1
 90
        0
176
     1
 62
     7
176
     1
 62
   257
176
     1
 90
        1
176
     1
 90
        1
176
     1
 40
1.0
176
     1
 90
        8
176
     1
 62
   257
176
     1
 40
1.0
176
     1
 90
        1
176
     1
 90
        6
176
     1
 90
        2
176
     1
 62
     7
176
     1
 90
        3
176
     1
 90
        0
176
     1
 90
        0
176
     1
290
     0
176
     1
 90
       13
176
     1
 40
0.0
176
     1
 90
        0
176
     1
290
     0
176
     1
290
     1
176
     1
290
     1
176
     1
290
     0
176
     1
290
     0
176
     1
290
     0
176
     1
290
     0
176
     1
290
     0
176
     1
290
     0
176
     1
 90
       50
176
     1
 40
0.0
176
     1
 40
1.0
176
     1
 90
        0
176
     1
 62
    18
420
        0
176
     1
 90
       50
176
     1
 90
        3
176
     1
 62
     5
420
      255
176
     1
290
     0
176
     1
 90
       50
176
     1
 90
       50
176
     1
 90
       50
176
     1
290
     0
176
     1
 90
       50
176
     1
 62
   256
176
     0
 40
1.0
176
     0
 90
        2
176
     1
  1
strokes_ogs.tif
176
     1
290
     0
176
     1
 40
1.0
176
     1
 40
1.0
176
     1
  0
VISUALSTYLE
  5
4B3
102
{ACAD_REACTORS
330
49B
102
}
330
49B
100
AcDbVisualStyle
  2
Shaded
 70
    27
177
     3
291
     0
 70
    58
 90
        2
176
     1
 90
        2
176
     1
 90
        1
176
     1
 90
        2
176
     1
 40
0.6
176
     1
 40
30.0
176
     1
 62
     7
420
 16777215
176
     1
 90
        0
176
     1
 90
        4
176
     1
 62
     7
176
     1
 62
   257
176
     1
 90
        1
176
     1
 90
        1
176
     1
 40
1.0
176
     1
 90
        8
176
     1
 62
   257
176
     1
 40
1.0
176
     1
 90
        1
176
     1
 90
        6
176
     1
 90
        2
176
     1
 62
     8
420
  7895160
176
     1
 90
        3
176
     1
 90
        0
176
     1
 90
        0
176
     1
290
     0
176
     1
 90
        5
176
     1
 40
0.0
176
     1
 90
        0
176
     1
290
     0
176
     1
290
     1
176
     1
290
     1
176
     1
290
     0
176
     1
290
     0
176
     1
290
     0
176
     1
290
     0
176
     1
290
     0
176
     1
290
     0
176
     1
 90
       50
176
     1
 40
0.0
176
     1
 40
1.0
176
     1
 90
        0
176
     1
 62
    18
420
        0
176
     1
 90
       50
176
     1
 90
        3
176
     1
 62
     5
420
      255
176
     1
290
     0
176
     1
 90
       50
176
     1
 90
       50
176
     1
 90
       50
176
     1
290
     0
176
     1
 90
       50
176
     1
 62
   256
176
     0
 40
1.0
176
     0
 90
        2
176
     1
  1
strokes_ogs.tif
176
     1
290
     0
176
     1
 40
1.0
176
     1
 40
1.0
176
     1
  0
VISUALSTYLE
  5
4B2
102
{ACAD_REACTORS
330
49B
102
}
330
49B
100
AcDbVisualStyle
  2
Shaded with edges
 70
    26
177
     3
291
     0
 70
    58
 90
        2
176
     1
 90
        2
176
     1
 90
        1
176
     1
 90
        2
176
     1
 40
0.6
176
     1
 40
30.0
176
     1
 62
     7
420
 16777215
176
     1
 90
        1
176
     1
 90
       10
176
     1
 62
     7
176
     1
 62
   257
176
     1
 90
        2
176
     1
 90
        1
176
     1
 40
1.0
176
     1
 90
        8
176
     1
 62
   257
176
     1
 40
1.0
176
     1
 90
        1
176
     1
 90
        6
176
     1
 90
        2
176
     1
 62
     7
176
     1
 90
        3
176
     1
 90
        0
176
     1
 90
        0
176
     1
290
     0
176
     1
 90
        5
176
     1
 40
0.0
176
     1
 90
        0
176
     1
290
     0
176
     1
290
     1
176
     1
290
     1
176
     1
290
     0
176
     1
290
     0
176
     1
290
     0
176
     1
290
     0
176
     1
290
     0
176
     1
290
     0
176
     1
 90
       50
176
     1
 40
0.0
176
     1
 40
1.0
176
     1
 90
        0
176
     1
 62
    18
420
        0
176
     1
 90
       50
176
     1
 90
        3
176
     1
 62
     5
420
      255
176
     1
290
     0
176
     1
 90
       50
176
     1
 90
       50
176
     1
 90
       50
176
     1
290
     0
176
     1
 90
       50
176
     1
 62
   256
176
     0
 40
1.0
176
     0
 90
        2
176
     1
  1
strokes_ogs.tif
176
     1
290
     0
176
     1
 40
1.0
176
     1
 40
1.0
176
     1
  0
VISUALSTYLE
  5
4AF
102
{ACAD_REACTORS
330
49B
102
}
330
49B
100
AcDbVisualStyle
  2
Shades of Gray
 70
    23
177
     3
291
     0
 70
    58
 90
        2
176
     1
 90
        2
176
     1
 90
        3
176
     1
 90
        0
176
     1
 40
0.6
176
     1
 40
30.0
176
     1
 62
     7
420
 16777215
176
     1
 90
        2
176
     1
 90
        2
176
     1
 62
     7
176
     1
 62
     7
176
     1
 90
        1
176
     1
 90
        1
176
     1
 40
40.0
176
     1
 90
        8
176
     1
 62
     7
176
     1
 40
1.0
176
     1
 90
        1
176
     1
 90
        6
176
     1
 90
        2
176
     1
 62
     7
176
     1
 90
        3
176
     1
 90
        0
176
     1
 90
        0
176
     1
290
     0
176
     1
 90
        1
176
     1
 40
0.0
176
     1
 90
        0
176
     1
290
     0
176
     1
290
     1
176
     1
290
     1
176
     1
290
     0
176
     1
290
     0
176
     1
290
     0
176
     1
290
     0
176
     1
290
     0
176
     1
290
     0
176
     1
 90
       50
176
     1
 40
0.0
176
     1
 40
1.0
176
     1
 90
        0
176
     1
 62
    18
420
        0
176
     1
 90
       50
176
     1
 90
        3
176
     1
 62
     5
420
      255
176
     1
290
     0
176
     1
 90
       50
176
     1
 90
       50
176
     1
 90
       50
176
     1
290
     0
176
     1
 90
       50
176
     1
 62
   256
176
     0
 40
1.0
176
     0
 90
        2
176
     1
  1
strokes_ogs.tif
176
     1
290
     0
176
     1
 40
1.0
176
     1
 40
1.0
176
     1
  0
VISUALSTYLE
  5
4B0
102
{ACAD_REACTORS
330
49B
102
}
330
49B
100
AcDbVisualStyle
  2
Sketchy
 70
    24
177
     3
291
     0
 70
    58
 90
        1
176
     1
 90
        2
176
     1
 90
        2
176
     1
 90
        0
176
     1
 40
0.6
176
     1
 40
30.0
176
     1
 62
     7
420
 16777215
176
     1
 90
        2
176
     1
 90
        2
176
     1
 62
     7
176
     1
 62
     7
176
     1
 90
        1
176
     1
 90
        1
176
     1
 40
40.0
176
     1
 90
       11
176
     1
 62
     7
176
     1
 40
1.0
176
     1
 90
        1
176
     1
 90
        6
176
     1
 90
        2
176
     1
 62
     7
176
     1
 90
        6
176
     1
 90
        0
176
     1
 90
        0
176
     1
290
     0
176
     1
 90
        1
176
     1
 40
0.0
176
     1
 90
        0
176
     1
290
     0
176
     1
290
     1
176
     1
290
     1
176
     1
290
     0
176
     1
290
     0
176
     1
290
     0
176
     1
290
     0
176
     1
290
     0
176
     1
290
     0
176
     1
 90
       50
176
     1
 40
0.0
176
     1
 40
1.0
176
     1
 90
        0
176
     1
 62
    18
420
        0
176
     1
 90
       50
176
     1
 90
        3
176
     1
 62
     5
420
      255
176
     1
290
     0
176
     1
 90
       50
176
     1
 90
       50
176
     1
 90
       50
176
     1
290
     0
176
     1
 90
       50
176
     1
 62
   256
176
     0
 40
1.0
176
     0
 90
        2
176
     1
  1
strokes_ogs.tif
176
     1
290
     0
176
     1
 40
1.0
176
     1
 40
1.0
176
     1
  0
VISUALSTYLE
  5
4A8
102
{ACAD_REACTORS
330
49B
102
}
330
49B
100
AcDbVisualStyle
  2
Thicken
 70
    13
177
     3
291
     1
 70
    58
 90
        2
176
     1
 90
        2
176
     1
 90
        0
176
     1
 90
        0
176
     1
 40
0.6
176
     1
 40
30.0
176
     1
 62
     7
420
 16777215
176
     1
 90
        1
176
     1
 90
        4
176
     1
 62
     7
176
     1
 62
   257
176
     1
 90
        1
176
     1
 90
        1
176
     1
 40
1.0
176
     1
 90
       12
176
     1
 62
     7
176
     1
 40
1.0
176
     1
 90
        1
176
     1
 90
        6
176
     1
 90
        2
176
     1
 62
     7
176
     1
 90
        5
176
     1
 90
        0
176
     1
 90
        0
176
     1
290
     0
176
     1
 90
        1
176
     1
 40
0.0
176
     1
 90
        0
176
     1
290
     0
176
     1
290
     1
176
     1
290
     1
176
     1
290
     0
176
     1
290
     0
176
     1
290
     0
176
     1
290
     0
176
     1
290
     0
176
     1
290
     0
176
     1
 90
       50
176
     1
 40
0.0
176
     1
 40
1.0
176
     1
 90
        0
176
     1
 62
    18
420
        0
176
     1
 90
       50
176
     1
 90
        3
176
     1
 62
     5
420
      255
176
     1
290
     0
176
     1
 90
       50
176
     1
 90
       50
176
     1
 90
       50
176
     1
290
     0
176
     1
 90
       50
176
     1
 62
   256
176
     0
 40
1.0
176
     0
 90
        2
176
     1
  1
strokes_ogs.tif
176
     1
290
     0
176
     1
 40
1.0
176
     1
 40
1.0
176
     1
  0
VISUALSTYLE
  5
4A1
102
{ACAD_REACTORS
330
49B
102
}
330
49B
100
AcDbVisualStyle
  2
Wireframe
 70
     5
177
     3
291
     0
 70
    58
 90
        0
176
     1
 90
        2
176
     1
 90
        0
176
     1
 90
        0
176
     1
 40
0.6
176
     1
 40
30.0
176
     1
 62
     7
420
 16777215
176
     1
 90
        1
176
     1
 90
        4
176
     1
 62
     7
176
     1
 62
   257
176
     1
 90
        1
176
     1
 90
        1
176
     1
 40
1.0
176
     1
 90
        0
176
     1
 62
   257
176
     1
 40
1.0
176
     1
 90
        1
176
     1
 90
        6
176
     1
 90
        2
176
     1
 62
     7
176
     1
 90
        3
176
     1
 90
        0
176
     1
 90
        0
176
     1
290
     0
176
     1
 90
        1
176
     1
 40
0.0
176
     1
 90
        0
176
     1
290
     0
176
     1
290
     1
176
     1
290
     1
176
     1
290
     0
176
     1
290
     0
176
     1
290
     0
176
     1
290
     0
176
     1
290
     0
176
     1
290
     0
176
     1
 90
       50
176
     1
 40
0.0
176
     1
 40
1.0
176
     1
 90
        0
176
     1
 62
    18
420
        0
176
     1
 90
       50
176
     1
 90
        3
176
     1
 62
     5
420
      255
176
     1
290
     0
176
     1
 90
       50
176
     1
 90
       50
176
     1
 90
       50
176
     1
290
     0
176
     1
 90
       50
176
     1
 62
   256
176
     0
 40
1.0
176
     0
 90
        2
176
     1
  1
strokes_ogs.tif
176
     1
290
     0
176
     1
 40
1.0
176
     1
 40
1.0
176
     1
  0
VISUALSTYLE
  5
4B1
102
{ACAD_REACTORS
330
49B
102
}
330
49B
100
AcDbVisualStyle
  2
X-Ray
 70
    25
177
     3
291
     0
 70
    58
 90
        2
176
     1
 90
        2
176
     1
 90
        1
176
     1
 90
        1
176
     1
 40
0.5
176
     1
 40
30.0
176
     1
 62
     7
420
 16777215
176
     1
 90
        1
176
     1
 90
        0
176
     1
 62
     7
176
     1
 62
   257
176
     1
 90
        1
176
     1
 90
        1
176
     1
 40
1.0
176
     1
 90
        8
176
     1
 62
     7
176
     1
 40
1.0
176
     1
 90
        1
176
     1
 90
        6
176
     1
 90
        2
176
     1
 62
     7
176
     1
 90
        3
176
     1
 90
        0
176
     1
 90
        0
176
     1
290
     0
176
     1
 90
       13
176
     1
 40
0.0
176
     1
 90
        0
176
     1
290
     0
176
     1
290
     1
176
     1
290
     1
176
     1
290
     0
176
     1
290
     0
176
     1
290
     0
176
     1
290
     0
176
     1
290
     0
176
     1
290
     0
176
     1
 90
       50
176
     1
 40
0.0
176
     1
 40
1.0
176
     1
 90
        0
176
     1
 62
    18
420
        0
176
     1
 90
       50
176
     1
 90
        3
176
     1
 62
     5
420
      255
176
     1
290
     0
176
     1
 90
       50
176
     1
 90
       50
176
     1
 90
       50
176
     1
290
     0
176
     1
 90
       50
176
     1
 62
   256
176
     0
 40
1.0
176
     0
 90
        2
176
     1
  1
strokes_ogs.tif
176
     1
290
     0
176
     1
 40
1.0
176
     1
 40
1.0
176
     1
  0
DICTIONARYVAR
  5
4CA
102
{ACAD_REACTORS
330
4C9
102
}
330
4C9
100
DictionaryVariables
280
     0
  1
1:1
  0
DICTIONARYVAR
  5
4CE
102
{ACAD_REACTORS
330
4C9
102
}
330
4C9
100
DictionaryVariables
280
     0
  1
Standard
  0
CSACDOCUMENTOPTIONS
  5
4BF
102
{ACAD_REACTORS
330
4BE
102
}
330
4BE
  0
XRECORD
  5
4C3
102
{ACAD_REACTORS
330
4BA
102
}
330
4BA
100
AcDbXrecord
280
     1
300
MC_VERSION_DATA
 90
       95
310
0600000002000000570000001C000000E404000000000000000000007801936764E5D8CF7A8393818115C460606066E0646662626666706006F214793899F8DE3171E725E6E53B3BBA2878E6951050AF75FEFFFFFF520032DE0F3057000000
  0
XRECORD
  5
4BB
102
{ACAD_REACTORS
330
4BA
102
}
330
4BA
100
AcDbXrecord
280
     1
300
MCS_DOCUMENT_ID
 90
       60
310
0600000002000000150000001C000000E404000000000000000000007801E3E565BA20676457E9B8A04B61D979AD4BDFFE030100536D0AE215000000
  0
XRECORD
  5
4C1
102
{ACAD_REACTORS
330
4BA
102
}
330
4BA
100
AcDbXrecord
280
     1
300
MCS_PARAMS_DATA
 90
     3313
310
0600000002000000F64B00001C000000E404000000000000000000007801C55C5B905C45199EE99EBDCCE67E5DA218172C303B91307B4B8C459531245054850D55591F78B236BB49B9BAC9E6B22A082A9655BE5865596569A965F9209288CF16503EC8834088C10B092404211702988430422E9084CDAEFFD7A7FBF4DFA7CF
310
D9D99D9D39930798FF3F7DCEF7DFFAFBBBFBCC6CDBFC46297252EECB48F9CDF5ED5234493921A5206D76815820B252E4F3225F128D7D5F59BF69E3162948D9A2D485B3131313747328BF06593E960915079422437734AA3BDAA5CCD053F5ED4FD2557D257BAB94DF007A03479F859BB2B22193C9108EC1CDCADC0464C27506
310
28605703E48886E0B986E10F03BF91E33707F8E3140E7A9091C8268236920C1C662240B94888A1C8E07600AE99C32D5131CA8B3925D172EFE62D7D6D9DABBA8ADDD6F17CE16D13F0457AE8AC9268DE32DABF73B07FCFA013F9BF8491D7C17E2550D8E8FFCA8DFE4E98B3929B331718B291824FFF72EB941D9E8E2211D5A93C
310
784A44C557923911258BD0C8640531AEEC61A924855B11378280384364A422680C0A928DB9C10CD89D581114199665B722B26E4590C82B0222AB08FAA8A60626C028E0044F81BA246F5360E167F2D27C56A10E05C058C13C59DEC6207679103AFC5DEADF992F2B284F67B31C8EE359B64A9665A62453228F64269D98455E3B
310
A4B35817F7EC92C86FB8EFFE8DBD5BEEDBDCAB0CD3B5FC8E99065A7E55D536E39DE7826237F1C8BBBCB3CFADFC93302087C80397EE69C2FF69CA32234F0763E41851010DA578E8294D435524988818E84710A7B2643B4F7C034F6CE5C9368F203BE8094C6268541D70D35EE4B585DAE170F4942EB8D2D422560A9917F34B62
310
CE86919D9F1F6DDBB36DD770FFC0B6BC682E898607BEB5737424F8D83B323AF07529CFC0B69BB96D9FD3CFF9B410ED79B1A42416161FEA29AEEDEEEC5ADF532C76DEF3C5AEEEB5CAECF97A60330D2C1C3579EAD0DA7621F20269BD6768746FDBF0D0DE51F3B0EE356B3ABBD6F474F7740D76770EACED08FCFC92BEAF13F701
310
B5AF7FEBF0B6B691ED6D7D23C3DBF6F4EF840FDA9AD583C58E81E240FFEAADDD5BD70EAC0E669D2A25F27FB610851F9335859F059541B9E5971EC7A5A7E83F2CE53DB9A4040555A2661A4DDBF2C560B2E54E7D5483931EF871F7C88E5DFDA3435B878687461F6EDB313248FE3596847C70DBDEBC682809D13B22E56A5856E4
310
E9998738519B6E2A89DCE6EDDBDB542AF4E4380F8F61A4965F57116093E5A052A06AF588670205D9A715FB49B140D81A90855F902680EBB8B3A3187EEA96F2B224E392BAF898328CB1AD47DA34C1601A1B421AD816D190715CC3F276A5DE067C546F03AED6DB808FEB6DC0B57A1BB00853B49EB3E0937A47E07ABD0D188301
310
71CB797197D3603B1D06BFCB6DB024827C0C834324E60945463B3712E196397079076E990B47228783C8E09631B8F129C211385B3E540C97413DC70673C524DEAD70BD23917B079179B782793791AE77D944EFDCDC5529988B13E1069D6092C472A7F777A6F648E4C184C88239C8822913E16AE29D48176E29E0727C316496
310
EF2A967C95165E504B0C2B218EEE82DD5C63513CD614C5091F6D6FA7551865CC5C5030A1E0A3E84BEC86CFD04EC5DD01AA74CBDB05AB8C403295A124BB2908C4B032B4682A032283FB103E391B4E03172C7199C4E0F88E871E8855ADA1482D3238FA1846E0B807A77785BFF935FE1D74369F5647D0D171CA5F4F09337C2559
310
105132935A503D6DBC7A94B54D2B6DF1E0339960F436A97441791E5EC104D40283580888C4FDED577B1FD8B4B9AF6FE30605D8AAD7F1F34A62F6DD5BBEC62E92057A31FEA25A9DB3F5FBD3C1729D9CD723B0BF0DE8402BB05A67160DDE4416E59079C0D9EAA575B7321F67115FC018C76AB5B3A33D06B68CBD9BFBDC93C073
310
800CC384FD360C544F539B6F02B1820953BE9D01DE01C0D85A6C50369A5AC4065C7760793B965800321749E4B50891C0C2AB0CAE9808178444974C70F875952A9381563C01BE9D08EAFA481283ABD8C7EF7870DAABE068E68833DFAC8EA0A3E3F87C0B07AA507B2311F0889285BDC333294C4E2DB27C67BA70ABD2857B688A
310
70552AA7873DB8489E55063D5D2DCBE9BB9E49F1E554A5083C922EDCA3E9C27D2F5DB8EF7B705EE9D87E1E920E88313AAE6AECF4FBD668D3D30DB4E51ADA9BEDB0D7AFCEB4DDED85F7C4ECF6551B3BCE2AFF6E835E49458EC94883D6E73C45753FAE614C3C0A0362777435D915EC025C33F7578776011DE6F3D066954C59D6
310
D76F86AC9CD58A53F4122CF0552BAE070AEA3B5AF15752304F1F47569D50AB71F41A31FA5A51C904CD43C6B0F51D2ACEFC112ACC4CC1B0FF086CE7AD5A4D096A005126387AAD451EE384D9C035A925859E39C1AA865EE9A9B8DA21CEE289167F7CF1D4C4BC7A125EC5AED5D8BB0B5A9D9144D134CFA71BF85A8D44BE568348
310
F6AA55A2F3CAEA4F6982FD21118CC249D3CBF852A586F244BA70FBD285DB9F085793EDE56E143F0AD06C6B4CB2242BDD3DD1419166C2865E81F9CE1648F3CBD84597B22E28992A3DDCE24C77F3F311A01C8A722828EC3CF15F7D987933F818F8E59BC138E5CD4CE8AC24C94E68BA32F5C3CBAB808B6B06B9936E642F9F804C
310
903AF2F3709D37832318A078E4B37AEBDCFAA66859945B9EBB25776BAE2DD3995995E9CA1433DDFA4DAC7ECE6FE93696E96BB06712968ED2661884A9EE40230F60D0D73DE8C858453B9E8E4212D5A9B0784A762662599FEDD18C9299F4094C728A91F536658E91CDA6DFC8E89F363B15B4CB31404FD2581CF722BBF229B517
310
430944E56AB2E2A8E3461950730F2B7ECA7BC570E389706E8BA9D241C744225C40C29385944F707279EA277D998065D9EAD604B1263E66D38513E9C2490F4EE7CC6E8AA89C3D9DA588701CA708AB6414C194931EE3FC0D4515D71A4FBFE712F8CB4A26532A6E8DCF01CA61A3745BE3F3C09F6E6B442F0CD7BAD36A8D2F002E
310
AE359E3BE646F6B8926D6BBC0CD9926FBEF08C5220B9BAE91D0E14769FF44B52301E3C00E8FA74C117BD24F396E22C7F1005F2DA2902EB76053DE720B0D3EE397F2F036AE8B24A3DE750225C4DF8F8A544B81AF69C7F2482D6C4C77F067093EF36FE359541FF8E0E8A50399BA22F63681CEF0EBDEBB2C3834A9E09EF1E0654
310
1D79F708F0A7CBBB956F495E015C1CEFEE3EEC46B65FC996771F856C09285F58A7148C77872F6104D6DC9A8897D30896D457015D1FDE3DEA25B91CEFF2EBD6EB0A68F718A0D3A6DDD7CA805699768F27C2D584925E4F84AB9476A39B03E744D09CD6610FF59F44E89A78FA46BA70DDDE0ADC144A4DBCEBF1E0221D416DC23D
310
1D715254A766A8A7AC60C1FF26021ED7783E889CD89C52F24C1ACF0940D5B1F19C047E7A8DE714E0E21ACFD5436EE339AB64DB78E44B91C6730003ECCB897CE1D28548E3798246B0C6731AD0536D3CB3E90740046E0B5FD5161351555C247A084506FA9607AAEBD39C44F1E2B63A5BDCA18E17B755B2E2664A322602C34C3A
310
0393625B51C09BC60D77315EF1E1C8DB80730A9C37D5B8CD0EBF3EA3A6FB4EA2A7C18B1B2746D53A5F7BB70C687C78291FE10E3A386EE3054657F9CB297E9CF703B0E71DFC4DA3397B4068C3CF33A1A81F02C2C920DB8E7ABF712005813923946BAE06DE453454B45CC32AF6311810C751E3F85A979E7874424F9299B34AB2
310
210DC430A45A3473162283FB2F3218C7FE178FBB1CF59692CDAD957C0DECAC3739580882F7E26636C4FC0874E66F42CE013F2EB274A4C323CBB88082C5B980AE4CFD4DC879C0C5B1FFF5E7DDC89E57324556799F2F34BC006EC70CD18A8318C0D9FF0AB6807CDBB19F46B0A4BE07E8B4D9FF8207EA504E3D7E65FA3E4C7226
310
B329B0E8D703AAFEBAA304E869379E693123CD68457958A4FF2F11AE86ECFF4119D078F6E7138AD87FF2370F86D6E1E38789702D76FED2134932CCA824CB8C811832A3160D33426421BD980847AF6F0C11D33DEECB1CFE9B7175D1F926045DE5BD8DBFBDBE94081764D0049324E6DDB40A8607F372225C4D16463974B5B836
310
F393232E193EA2E499B49986C93A780A6DA631A981D7A6CD34012EAECDFCFC5937B23F52B26D33BF83CCDBCC56A5C0ECD07DE7A7A7226D661D8D6033A419D0536D33E07F56B8C4CA7C0D48229F9610695A461A0883CE7B494E8DD95B004DF38E8247AB09FE45AC1A52EDAC32A0861DD8DA85D8A76276989D08579353913989
310
700119397510D9BB4CAB9DF096393711B4263ECE4B176E7EBA700B3C389DB3F0B5335AA6A7234288EA142D784A9083AFB414616018456CF24C3293C4CD2F49D3E5A5F0410CEE7E0F2E6A6FEA11580893E29AEE529C2FC11C4DF48D4AA628982DB44A422820F8563073C8F989CF2240392BED74F7768B819FDEDE6E09E0E29A
310
EE72FA030B3CB273954C91D5916E87CC9BEEFB4FAB1E6B73B10CFB6CBEB73B4423589D2D05F4CC9AAE2E4C768646F0614DBB4BD40606DDEA2539B5A67B13A0D36EBACBCA809A9055A7E9E24B8E0D79912B896C91FE0C1655C17843E129FA335B3277F4E8510807513CB9CC44868E210AF7FE19028691B0917E39482B125CF8
310
D4FF01F0B312DAF64B0000
  0
TABLECONTENT
  5
4C5
330
4C8
100
AcDbLinkedData
  1

300

100
AcDbLinkedTableData
 90
        5
300
COLUMN
  1
LINKEDTABLEDATACOLUMN_BEGIN
300

 91
        0
301
CUSTOMDATA
  1
DATAMAP_BEGIN
 90
        0
309
DATAMAP_END
309
LINKEDTABLEDATACOLUMN_END
  1
FORMATTEDTABLEDATACOLUMN_BEGIN
300
COLUMNTABLEFORMAT
  1
TABLEFORMAT_BEGIN
 90
        3
170
     0
309
TABLEFORMAT_END
309
FORMATTEDTABLEDATACOLUMN_END
  1
TABLECOLUMN_BEGIN
 90
        0
 40
13.333333
309
TABLECOLUMN_END
300
COLUMN
  1
LINKEDTABLEDATACOLUMN_BEGIN
300

 91
        0
301
CUSTOMDATA
  1
DATAMAP_BEGIN
 90
        0
309
DATAMAP_END
309
LINKEDTABLEDATACOLUMN_END
  1
FORMATTEDTABLEDATACOLUMN_BEGIN
300
COLUMNTABLEFORMAT
  1
TABLEFORMAT_BEGIN
 90
        3
170
     0
309
TABLEFORMAT_END
309
FORMATTEDTABLEDATACOLUMN_END
  1
TABLECOLUMN_BEGIN
 90
        0
 40
13.333333
309
TABLECOLUMN_END
300
COLUMN
  1
LINKEDTABLEDATACOLUMN_BEGIN
300

 91
        0
301
CUSTOMDATA
  1
DATAMAP_BEGIN
 90
        0
309
DATAMAP_END
309
LINKEDTABLEDATACOLUMN_END
  1
FORMATTEDTABLEDATACOLUMN_BEGIN
300
COLUMNTABLEFORMAT
  1
TABLEFORMAT_BEGIN
 90
        3
170
     0
309
TABLEFORMAT_END
309
FORMATTEDTABLEDATACOLUMN_END
  1
TABLECOLUMN_BEGIN
 90
        0
 40
13.333333
309
TABLECOLUMN_END
300
COLUMN
  1
LINKEDTABLEDATACOLUMN_BEGIN
300

 91
        0
301
CUSTOMDATA
  1
DATAMAP_BEGIN
 90
        0
309
DATAMAP_END
309
LINKEDTABLEDATACOLUMN_END
  1
FORMATTEDTABLEDATACOLUMN_BEGIN
300
COLUMNTABLEFORMAT
  1
TABLEFORMAT_BEGIN
 90
        3
170
     0
309
TABLEFORMAT_END
309
FORMATTEDTABLEDATACOLUMN_END
  1
TABLECOLUMN_BEGIN
 90
        0
 40
53.333333
309
TABLECOLUMN_END
300
COLUMN
  1
LINKEDTABLEDATACOLUMN_BEGIN
300

 91
        0
301
CUSTOMDATA
  1
DATAMAP_BEGIN
 90
        0
309
DATAMAP_END
309
LINKEDTABLEDATACOLUMN_END
  1
FORMATTEDTABLEDATACOLUMN_BEGIN
300
COLUMNTABLEFORMAT
  1
TABLEFORMAT_BEGIN
 90
        3
170
     0
309
TABLEFORMAT_END
309
FORMATTEDTABLEDATACOLUMN_END
  1
TABLECOLUMN_BEGIN
 90
        0
 40
26.666667
309
TABLECOLUMN_END
 91
        5
301
ROW
  1
LINKEDTABLEDATAROW_BEGIN
 90
        5
300
CELL
  1
LINKEDTABLEDATACELL_BEGIN
 90
        0
300

 91
        0
301
CUSTOMDATA
  1
DATAMAP_BEGIN
 90
        1
300
ACAD_ROUNDTRIP_2008_CELL_CHECKSUM
301
DATAMAP_VALUE
 93
        2
 90
        2
140
32.0
 94
        0
300

302

304
ACVALUE_END
309
DATAMAP_END
 92
        0
 95
        1
302
CONTENT
  1
CELLCONTENT_BEGIN
 90
        1
300
VALUE
 93
        2
 90
        4
  1
 
 94
        0
300

302
 
304
ACVALUE_END
 91
        0
309
CELLCONTENT_END
  1
FORMATTEDCELLCONTENT_BEGIN
170
     1
300
CONTENTFORMAT
  1
CONTENTFORMAT_BEGIN
 90
      132
 91
        0
 92
      512
 93
        0
300

 40
0.0
140
1.0
 94
        1
 62
     0
340
0
144
4.666667
309
CONTENTFORMAT_END
309
FORMATTEDCELLCONTENT_END
309
LINKEDTABLEDATACELL_END
  1
FORMATTEDTABLEDATACELL_BEGIN
300
CELLTABLEFORMAT
  1
TABLEFORMAT_BEGIN
 90
        1
170
     1
 91
        0
 92
        0
 62
   257
 93
        1
300
CONTENTFORMAT
  1
CONTENTFORMAT_BEGIN
 90
        0
 91
        0
 92
      512
 93
        0
300

 40
0.0
140
1.0
 94
        1
 62
     0
340
0
144
0.18
309
CONTENTFORMAT_END
171
     0
 94
        0
309
TABLEFORMAT_END
309
FORMATTEDTABLEDATACELL_END
  1
TABLECELL_BEGIN
 90
        0
 91
        0
309
TABLECELL_END
300
CELL
  1
LINKEDTABLEDATACELL_BEGIN
 90
        0
300

 91
        0
301
CUSTOMDATA
  1
DATAMAP_BEGIN
 90
        0
309
DATAMAP_END
 92
        0
 95
        0
309
LINKEDTABLEDATACELL_END
  1
FORMATTEDTABLEDATACELL_BEGIN
300
CELLTABLEFORMAT
  1
TABLEFORMAT_BEGIN
 90
        1
170
     1
 91
        0
 92
        0
 62
   257
 93
        1
300
CONTENTFORMAT
  1
CONTENTFORMAT_BEGIN
 90
        0
 91
        0
 92
      512
 93
        0
300

 40
0.0
140
1.0
 94
        1
 62
     0
340
0
144
0.18
309
CONTENTFORMAT_END
171
     0
 94
        0
309
TABLEFORMAT_END
309
FORMATTEDTABLEDATACELL_END
  1
TABLECELL_BEGIN
 90
        0
 91
        0
309
TABLECELL_END
300
CELL
  1
LINKEDTABLEDATACELL_BEGIN
 90
        0
300

 91
        0
301
CUSTOMDATA
  1
DATAMAP_BEGIN
 90
        0
309
DATAMAP_END
 92
        0
 95
        0
309
LINKEDTABLEDATACELL_END
  1
FORMATTEDTABLEDATACELL_BEGIN
300
CELLTABLEFORMAT
  1
TABLEFORMAT_BEGIN
 90
        1
170
     1
 91
        0
 92
        0
 62
   257
 93
        1
300
CONTENTFORMAT
  1
CONTENTFORMAT_BEGIN
 90
        0
 91
        0
 92
      512
 93
        0
300

 40
0.0
140
1.0
 94
        1
 62
     0
340
0
144
0.18
309
CONTENTFORMAT_END
171
     0
 94
        0
309
TABLEFORMAT_END
309
FORMATTEDTABLEDATACELL_END
  1
TABLECELL_BEGIN
 90
        0
 91
        0
309
TABLECELL_END
300
CELL
  1
LINKEDTABLEDATACELL_BEGIN
 90
        0
300

 91
        0
301
CUSTOMDATA
  1
DATAMAP_BEGIN
 90
        1
300
ACAD_ROUNDTRIP_2008_CELL_CHECKSUM
301
DATAMAP_VALUE
 93
        2
 90
        2
140
2860.0
 94
        0
300

302

304
ACVALUE_END
309
DATAMAP_END
 92
        0
 95
        1
302
CONTENT
  1
CELLCONTENT_BEGIN
 90
        1
300
VALUE
 93
        2
 90
        4
  1
5B0_C_056
 94
        0
300

302
5B0_C_056
304
ACVALUE_END
 91
        0
309
CELLCONTENT_END
  1
FORMATTEDCELLCONTENT_BEGIN
170
     1
300
CONTENTFORMAT
  1
CONTENTFORMAT_BEGIN
 90
      132
 91
        0
 92
      512
 93
        0
300

 40
0.0
140
1.0
 94
        1
 62
     0
340
0
144
4.0
309
CONTENTFORMAT_END
309
FORMATTEDCELLCONTENT_END
309
LINKEDTABLEDATACELL_END
  1
FORMATTEDTABLEDATACELL_BEGIN
300
CELLTABLEFORMAT
  1
TABLEFORMAT_BEGIN
 90
        1
170
     1
 91
       16
 92
        0
 62
   257
 93
        1
300
CONTENTFORMAT
  1
CONTENTFORMAT_BEGIN
 90
       16
 91
        0
 92
      512
 93
        0
300

 40
0.0
140
1.0
 94
        4
 62
     0
340
0
144
0.18
309
CONTENTFORMAT_END
171
     0
 94
        4
 95
        1
302
GRIDFORMAT
  1
GRIDFORMAT_BEGIN
 90
       26
 91
        1
 62
     0
 92
       -2
340
0
 93
        0
 40
0.045
309
GRIDFORMAT_END
 95
        4
302
GRIDFORMAT
  1
GRIDFORMAT_BEGIN
 90
       26
 91
        1
 62
     0
 92
       -2
340
0
 93
        0
 40
0.045
309
GRIDFORMAT_END
 95
        8
302
GRIDFORMAT
  1
GRIDFORMAT_BEGIN
 90
       26
 91
        1
 62
     0
 92
       -2
340
0
 93
        0
 40
0.045
309
GRIDFORMAT_END
 95
       32
302
GRIDFORMAT
  1
GRIDFORMAT_BEGIN
 90
       26
 91
        1
 62
     0
 92
       -2
340
0
 93
        0
 40
0.045
309
GRIDFORMAT_END
309
TABLEFORMAT_END
309
FORMATTEDTABLEDATACELL_END
  1
TABLECELL_BEGIN
 90
        0
 91
        0
309
TABLECELL_END
300
CELL
  1
LINKEDTABLEDATACELL_BEGIN
 90
        0
300

 91
        0
301
CUSTOMDATA
  1
DATAMAP_BEGIN
 90
        1
300
ACAD_ROUNDTRIP_2008_CELL_CHECKSUM
301
DATAMAP_VALUE
 93
        2
 90
        2
140
1404.0
 94
        0
300

302

304
ACVALUE_END
309
DATAMAP_END
 92
        0
 95
        1
302
CONTENT
  1
CELLCONTENT_BEGIN
 90
        1
300
VALUE
 93
        2
 90
        4
  1
Rev:01
 94
        0
300

302
Rev:01
304
ACVALUE_END
 91
        0
309
CELLCONTENT_END
  1
FORMATTEDCELLCONTENT_BEGIN
170
     1
300
CONTENTFORMAT
  1
CONTENTFORMAT_BEGIN
 90
      132
 91
        0
 92
      512
 93
        0
300

 40
0.0
140
1.0
 94
        1
 62
     0
340
0
144
4.666667
309
CONTENTFORMAT_END
309
FORMATTEDCELLCONTENT_END
309
LINKEDTABLEDATACELL_END
  1
FORMATTEDTABLEDATACELL_BEGIN
300
CELLTABLEFORMAT
  1
TABLEFORMAT_BEGIN
 90
        1
170
     1
 91
       16
 92
        0
 62
   257
 93
        1
300
CONTENTFORMAT
  1
CONTENTFORMAT_BEGIN
 90
       16
 91
        0
 92
      512
 93
        0
300

 40
0.0
140
1.0
 94
        1
 62
     0
340
0
144
0.18
309
CONTENTFORMAT_END
171
     0
 94
        4
 95
        1
302
GRIDFORMAT
  1
GRIDFORMAT_BEGIN
 90
       26
 91
        1
 62
     0
 92
       -2
340
0
 93
        0
 40
0.045
309
GRIDFORMAT_END
 95
        4
302
GRIDFORMAT
  1
GRIDFORMAT_BEGIN
 90
       26
 91
        1
 62
     0
 92
       -2
340
0
 93
        0
 40
0.045
309
GRIDFORMAT_END
 95
        8
302
GRIDFORMAT
  1
GRIDFORMAT_BEGIN
 90
       26
 91
        1
 62
     0
 92
       -2
340
0
 93
        0
 40
0.045
309
GRIDFORMAT_END
 95
       32
302
GRIDFORMAT
  1
GRIDFORMAT_BEGIN
 90
       26
 91
        1
 62
     0
 92
       -2
340
0
 93
        0
 40
0.045
309
GRIDFORMAT_END
309
TABLEFORMAT_END
309
FORMATTEDTABLEDATACELL_END
  1
TABLECELL_BEGIN
 90
        0
 91
        0
309
TABLECELL_END
 91
        0
301
CUSTOMDATA
  1
DATAMAP_BEGIN
 90
        0
309
DATAMAP_END
309
LINKEDTABLEDATAROW_END
  1
FORMATTEDTABLEDATAROW_BEGIN
300
ROWTABLEFORMAT
  1
TABLEFORMAT_BEGIN
 90
        2
170
     0
309
TABLEFORMAT_END
309
FORMATTEDTABLEDATAROW_END
  1
TABLEROW_BEGIN
 90
        1
 40
8.0
309
TABLEROW_END
301
ROW
  1
LINKEDTABLEDATAROW_BEGIN
 90
        5
300
CELL
  1
LINKEDTABLEDATACELL_BEGIN
 90
        0
300

 91
        0
301
CUSTOMDATA
  1
DATAMAP_BEGIN
 90
        0
309
DATAMAP_END
 92
        0
 95
        0
309
LINKEDTABLEDATACELL_END
  1
FORMATTEDTABLEDATACELL_BEGIN
300
CELLTABLEFORMAT
  1
TABLEFORMAT_BEGIN
 90
        1
170
     1
 91
        0
 92
        0
 62
   257
 93
        1
300
CONTENTFORMAT
  1
CONTENTFORMAT_BEGIN
 90
        0
 91
        0
 92
      512
 93
        0
300

 40
0.0
140
1.0
 94
        1
 62
     0
340
0
144
0.18
309
CONTENTFORMAT_END
171
     0
 94
        0
309
TABLEFORMAT_END
309
FORMATTEDTABLEDATACELL_END
  1
TABLECELL_BEGIN
 90
        0
 91
        0
309
TABLECELL_END
300
CELL
  1
LINKEDTABLEDATACELL_BEGIN
 90
        0
300

 91
        0
301
CUSTOMDATA
  1
DATAMAP_BEGIN
 90
        0
309
DATAMAP_END
 92
        0
 95
        0
309
LINKEDTABLEDATACELL_END
  1
FORMATTEDTABLEDATACELL_BEGIN
300
CELLTABLEFORMAT
  1
TABLEFORMAT_BEGIN
 90
        1
170
     1
 91
        0
 92
        0
 62
   257
 93
        1
300
CONTENTFORMAT
  1
CONTENTFORMAT_BEGIN
 90
        0
 91
        0
 92
      512
 93
        0
300

 40
0.0
140
1.0
 94
        1
 62
     0
340
0
144
0.18
309
CONTENTFORMAT_END
171
     0
 94
        0
309
TABLEFORMAT_END
309
FORMATTEDTABLEDATACELL_END
  1
TABLECELL_BEGIN
 90
        0
 91
        0
309
TABLECELL_END
300
CELL
  1
LINKEDTABLEDATACELL_BEGIN
 90
        0
300

 91
        0
301
CUSTOMDATA
  1
DATAMAP_BEGIN
 90
        0
309
DATAMAP_END
 92
        0
 95
        0
309
LINKEDTABLEDATACELL_END
  1
FORMATTEDTABLEDATACELL_BEGIN
300
CELLTABLEFORMAT
  1
TABLEFORMAT_BEGIN
 90
        1
170
     1
 91
        0
 92
        0
 62
   257
 93
        1
300
CONTENTFORMAT
  1
CONTENTFORMAT_BEGIN
 90
        0
 91
        0
 92
      512
 93
        0
300

 40
0.0
140
1.0
 94
        1
 62
     0
340
0
144
0.18
309
CONTENTFORMAT_END
171
     0
 94
        0
309
TABLEFORMAT_END
309
FORMATTEDTABLEDATACELL_END
  1
TABLECELL_BEGIN
 90
        0
 91
        0
309
TABLECELL_END
300
CELL
  1
LINKEDTABLEDATACELL_BEGIN
 90
        0
300

 91
        0
301
CUSTOMDATA
  1
DATAMAP_BEGIN
 90
        1
300
ACAD_ROUNDTRIP_2008_CELL_CHECKSUM
301
DATAMAP_VALUE
 93
        2
 90
        2
140
3105.0
 94
        0
300

302

304
ACVALUE_END
309
DATAMAP_END
 92
        0
 95
        1
302
CONTENT
  1
CELLCONTENT_BEGIN
 90
        1
300
VALUE
 93
        2
 90
        4
  1
Scale:1:1
 94
        0
300

302
Scale:1:1
304
ACVALUE_END
 91
        0
309
CELLCONTENT_END
  1
FORMATTEDCELLCONTENT_BEGIN
170
     1
300
CONTENTFORMAT
  1
CONTENTFORMAT_BEGIN
 90
      132
 91
        0
 92
      512
 93
        0
300

 40
0.0
140
1.0
 94
        1
 62
     0
340
0
144
4.666667
309
CONTENTFORMAT_END
309
FORMATTEDCELLCONTENT_END
309
LINKEDTABLEDATACELL_END
  1
FORMATTEDTABLEDATACELL_BEGIN
300
CELLTABLEFORMAT
  1
TABLEFORMAT_BEGIN
 90
        1
170
     1
 91
       16
 92
        0
 62
   257
 93
        1
300
CONTENTFORMAT
  1
CONTENTFORMAT_BEGIN
 90
       16
 91
        0
 92
      512
 93
        0
300

 40
0.0
140
1.0
 94
        1
 62
     0
340
0
144
0.18
309
CONTENTFORMAT_END
171
     0
 94
        4
 95
        1
302
GRIDFORMAT
  1
GRIDFORMAT_BEGIN
 90
       26
 91
        1
 62
     0
 92
       -2
340
0
 93
        0
 40
0.045
309
GRIDFORMAT_END
 95
        4
302
GRIDFORMAT
  1
GRIDFORMAT_BEGIN
 90
       26
 91
        1
 62
     0
 92
       -2
340
0
 93
        0
 40
0.045
309
GRIDFORMAT_END
 95
        8
302
GRIDFORMAT
  1
GRIDFORMAT_BEGIN
 90
       26
 91
        1
 62
     0
 92
       -2
340
0
 93
        0
 40
0.045
309
GRIDFORMAT_END
 95
       32
302
GRIDFORMAT
  1
GRIDFORMAT_BEGIN
 90
       26
 91
        1
 62
     0
 92
       -2
340
0
 93
        0
 40
0.045
309
GRIDFORMAT_END
309
TABLEFORMAT_END
309
FORMATTEDTABLEDATACELL_END
  1
TABLECELL_BEGIN
 90
        0
 91
        0
309
TABLECELL_END
300
CELL
  1
LINKEDTABLEDATACELL_BEGIN
 90
        0
300

 91
        0
301
CUSTOMDATA
  1
DATAMAP_BEGIN
 90
        1
300
ACAD_ROUNDTRIP_2008_CELL_CHECKSUM
301
DATAMAP_VALUE
 93
        2
 90
        2
140
4422.0
 94
        0
300

302

304
ACVALUE_END
309
DATAMAP_END
 92
        0
 95
        1
302
CONTENT
  1
CELLCONTENT_BEGIN
 90
        1
300
VALUE
 93
        2
 90
        4
  1
3200 by 2500
 94
        0
300

302
3200 by 2500
304
ACVALUE_END
 91
        0
309
CELLCONTENT_END
  1
FORMATTEDCELLCONTENT_BEGIN
170
     1
300
CONTENTFORMAT
  1
CONTENTFORMAT_BEGIN
 90
      132
 91
        0
 92
      512
 93
        0
300

 40
0.0
140
1.0
 94
        1
 62
     0
340
0
144
2.666667
309
CONTENTFORMAT_END
309
FORMATTEDCELLCONTENT_END
309
LINKEDTABLEDATACELL_END
  1
FORMATTEDTABLEDATACELL_BEGIN
300
CELLTABLEFORMAT
  1
TABLEFORMAT_BEGIN
 90
        1
170
     1
 91
       16
 92
        0
 62
   257
 93
        1
300
CONTENTFORMAT
  1
CONTENTFORMAT_BEGIN
 90
       16
 91
        0
 92
      512
 93
        0
300

 40
0.0
140
1.0
 94
        4
 62
     0
340
0
144
0.18
309
CONTENTFORMAT_END
171
     0
 94
        4
 95
        1
302
GRIDFORMAT
  1
GRIDFORMAT_BEGIN
 90
       26
 91
        1
 62
     0
 92
       -2
340
0
 93
        0
 40
0.045
309
GRIDFORMAT_END
 95
        4
302
GRIDFORMAT
  1
GRIDFORMAT_BEGIN
 90
       26
 91
        1
 62
     0
 92
       -2
340
0
 93
        0
 40
0.045
309
GRIDFORMAT_END
 95
        8
302
GRIDFORMAT
  1
GRIDFORMAT_BEGIN
 90
       26
 91
        1
 62
     0
 92
       -2
340
0
 93
        0
 40
0.045
309
GRIDFORMAT_END
 95
       32
302
GRIDFORMAT
  1
GRIDFORMAT_BEGIN
 90
       26
 91
        1
 62
     0
 92
       -2
340
0
 93
        0
 40
0.045
309
GRIDFORMAT_END
309
TABLEFORMAT_END
309
FORMATTEDTABLEDATACELL_END
  1
TABLECELL_BEGIN
 90
        0
 91
        0
309
TABLECELL_END
 91
        0
301
CUSTOMDATA
  1
DATAMAP_BEGIN
 90
        0
309
DATAMAP_END
309
LINKEDTABLEDATAROW_END
  1
FORMATTEDTABLEDATAROW_BEGIN
300
ROWTABLEFORMAT
  1
TABLEFORMAT_BEGIN
 90
        2
170
     0
309
TABLEFORMAT_END
309
FORMATTEDTABLEDATAROW_END
  1
TABLEROW_BEGIN
 90
        2
 40
8.0
309
TABLEROW_END
301
ROW
  1
LINKEDTABLEDATAROW_BEGIN
 90
        5
300
CELL
  1
LINKEDTABLEDATACELL_BEGIN
 90
        0
300

 91
        0
301
CUSTOMDATA
  1
DATAMAP_BEGIN
 90
        0
309
DATAMAP_END
 92
        0
 95
        0
309
LINKEDTABLEDATACELL_END
  1
FORMATTEDTABLEDATACELL_BEGIN
300
CELLTABLEFORMAT
  1
TABLEFORMAT_BEGIN
 90
        1
170
     1
 91
        0
 92
        0
 62
   257
 93
        1
300
CONTENTFORMAT
  1
CONTENTFORMAT_BEGIN
 90
        0
 91
        0
 92
      512
 93
        0
300

 40
0.0
140
1.0
 94
        1
 62
     0
340
0
144
0.18
309
CONTENTFORMAT_END
171
     0
 94
        0
309
TABLEFORMAT_END
309
FORMATTEDTABLEDATACELL_END
  1
TABLECELL_BEGIN
 90
        0
 91
        0
309
TABLECELL_END
300
CELL
  1
LINKEDTABLEDATACELL_BEGIN
 90
        0
300

 91
        0
301
CUSTOMDATA
  1
DATAMAP_BEGIN
 90
        0
309
DATAMAP_END
 92
        0
 95
        0
309
LINKEDTABLEDATACELL_END
  1
FORMATTEDTABLEDATACELL_BEGIN
300
CELLTABLEFORMAT
  1
TABLEFORMAT_BEGIN
 90
        1
170
     1
 91
        0
 92
        0
 62
   257
 93
        1
300
CONTENTFORMAT
  1
CONTENTFORMAT_BEGIN
 90
        0
 91
        0
 92
      512
 93
        0
300

 40
0.0
140
1.0
 94
        1
 62
     0
340
0
144
0.18
309
CONTENTFORMAT_END
171
     0
 94
        0
309
TABLEFORMAT_END
309
FORMATTEDTABLEDATACELL_END
  1
TABLECELL_BEGIN
 90
        0
 91
        0
309
TABLECELL_END
300
CELL
  1
LINKEDTABLEDATACELL_BEGIN
 90
        0
300

 91
        0
301
CUSTOMDATA
  1
DATAMAP_BEGIN
 90
        0
309
DATAMAP_END
 92
        0
 95
        0
309
LINKEDTABLEDATACELL_END
  1
FORMATTEDTABLEDATACELL_BEGIN
300
CELLTABLEFORMAT
  1
TABLEFORMAT_BEGIN
 90
        1
170
     1
 91
        0
 92
        0
 62
   257
 93
        1
300
CONTENTFORMAT
  1
CONTENTFORMAT_BEGIN
 90
        0
 91
        0
 92
      512
 93
        0
300

 40
0.0
140
1.0
 94
        1
 62
     0
340
0
144
0.18
309
CONTENTFORMAT_END
171
     0
 94
        0
309
TABLEFORMAT_END
309
FORMATTEDTABLEDATACELL_END
  1
TABLECELL_BEGIN
 90
        0
 91
        0
309
TABLECELL_END
300
CELL
  1
LINKEDTABLEDATACELL_BEGIN
 90
        0
300

 91
        0
301
CUSTOMDATA
  1
DATAMAP_BEGIN
 90
        1
300
ACAD_ROUNDTRIP_2008_CELL_CHECKSUM
301
DATAMAP_VALUE
 93
        2
 90
        2
140
2517.0
 94
        0
300

302

304
ACVALUE_END
309
DATAMAP_END
 92
        0
 95
        1
302
CONTENT
  1
CELLCONTENT_BEGIN
 90
        1
300
VALUE
 93
        2
 90
        4
  1
TREVI 1.2
 94
        0
300

302
TREVI 1.2
304
ACVALUE_END
 91
        0
309
CELLCONTENT_END
  1
FORMATTEDCELLCONTENT_BEGIN
170
     1
300
CONTENTFORMAT
  1
CONTENTFORMAT_BEGIN
 90
      132
 91
        0
 92
      512
 93
        0
300

 40
0.0
140
1.0
 94
        1
 62
     0
340
0
144
4.666667
309
CONTENTFORMAT_END
309
FORMATTEDCELLCONTENT_END
309
LINKEDTABLEDATACELL_END
  1
FORMATTEDTABLEDATACELL_BEGIN
300
CELLTABLEFORMAT
  1
TABLEFORMAT_BEGIN
 90
        1
170
     1
 91
       16
 92
        0
 62
   257
 93
        1
300
CONTENTFORMAT
  1
CONTENTFORMAT_BEGIN
 90
       16
 91
        0
 92
      512
 93
        0
300

 40
0.0
140
1.0
 94
        4
 62
     0
340
0
144
0.18
309
CONTENTFORMAT_END
171
     0
 94
        4
 95
        1
302
GRIDFORMAT
  1
GRIDFORMAT_BEGIN
 90
       26
 91
        1
 62
     0
 92
       -2
340
0
 93
        0
 40
0.045
309
GRIDFORMAT_END
 95
        4
302
GRIDFORMAT
  1
GRIDFORMAT_BEGIN
 90
       26
 91
        1
 62
     0
 92
       -2
340
0
 93
        0
 40
0.045
309
GRIDFORMAT_END
 95
        8
302
GRIDFORMAT
  1
GRIDFORMAT_BEGIN
 90
       26
 91
        1
 62
     0
 92
       -2
340
0
 93
        0
 40
0.045
309
GRIDFORMAT_END
 95
       32
302
GRIDFORMAT
  1
GRIDFORMAT_BEGIN
 90
       26
 91
        1
 62
     0
 92
       -2
340
0
 93
        0
 40
0.045
309
GRIDFORMAT_END
309
TABLEFORMAT_END
309
FORMATTEDTABLEDATACELL_END
  1
TABLECELL_BEGIN
 90
        0
 91
        0
309
TABLECELL_END
300
CELL
  1
LINKEDTABLEDATACELL_BEGIN
 90
        0
300

 91
        0
301
CUSTOMDATA
  1
DATAMAP_BEGIN
 90
        0
309
DATAMAP_END
 92
        0
 95
        0
309
LINKEDTABLEDATACELL_END
  1
FORMATTEDTABLEDATACELL_BEGIN
300
CELLTABLEFORMAT
  1
TABLEFORMAT_BEGIN
 90
        1
170
     1
 91
        0
 92
        0
 62
   257
 93
        1
300
CONTENTFORMAT
  1
CONTENTFORMAT_BEGIN
 90
        0
 91
        0
 92
      512
 93
        0
300

 40
0.0
140
1.0
 94
        1
 62
     0
340
0
144
0.18
309
CONTENTFORMAT_END
171
     0
 94
        0
309
TABLEFORMAT_END
309
FORMATTEDTABLEDATACELL_END
  1
TABLECELL_BEGIN
 90
        0
 91
        0
309
TABLECELL_END
 91
        0
301
CUSTOMDATA
  1
DATAMAP_BEGIN
 90
        0
309
DATAMAP_END
309
LINKEDTABLEDATAROW_END
  1
FORMATTEDTABLEDATAROW_BEGIN
300
ROWTABLEFORMAT
  1
TABLEFORMAT_BEGIN
 90
        2
170
     0
309
TABLEFORMAT_END
309
FORMATTEDTABLEDATAROW_END
  1
TABLEROW_BEGIN
 90
        3
 40
13.333333
309
TABLEROW_END
301
ROW
  1
LINKEDTABLEDATAROW_BEGIN
 90
        5
300
CELL
  1
LINKEDTABLEDATACELL_BEGIN
 90
        0
300

 91
        0
301
CUSTOMDATA
  1
DATAMAP_BEGIN
 90
        0
309
DATAMAP_END
 92
        0
 95
        0
309
LINKEDTABLEDATACELL_END
  1
FORMATTEDTABLEDATACELL_BEGIN
300
CELLTABLEFORMAT
  1
TABLEFORMAT_BEGIN
 90
        1
170
     1
 91
        0
 92
        0
 62
   257
 93
        1
300
CONTENTFORMAT
  1
CONTENTFORMAT_BEGIN
 90
        0
 91
        0
 92
      512
 93
        0
300

 40
0.0
140
1.0
 94
        1
 62
     0
340
0
144
0.18
309
CONTENTFORMAT_END
171
     0
 94
        0
309
TABLEFORMAT_END
309
FORMATTEDTABLEDATACELL_END
  1
TABLECELL_BEGIN
 90
        0
 91
        0
309
TABLECELL_END
300
CELL
  1
LINKEDTABLEDATACELL_BEGIN
 90
        0
300

 91
        0
301
CUSTOMDATA
  1
DATAMAP_BEGIN
 90
        0
309
DATAMAP_END
 92
        0
 95
        0
309
LINKEDTABLEDATACELL_END
  1
FORMATTEDTABLEDATACELL_BEGIN
300
CELLTABLEFORMAT
  1
TABLEFORMAT_BEGIN
 90
        1
170
     1
 91
        0
 92
        0
 62
   257
 93
        1
300
CONTENTFORMAT
  1
CONTENTFORMAT_BEGIN
 90
        0
 91
        0
 92
      512
 93
        0
300

 40
0.0
140
1.0
 94
        1
 62
     0
340
0
144
0.18
309
CONTENTFORMAT_END
171
     0
 94
        0
309
TABLEFORMAT_END
309
FORMATTEDTABLEDATACELL_END
  1
TABLECELL_BEGIN
 90
        0
 91
        0
309
TABLECELL_END
300
CELL
  1
LINKEDTABLEDATACELL_BEGIN
 90
        0
300

 91
        0
301
CUSTOMDATA
  1
DATAMAP_BEGIN
 90
        0
309
DATAMAP_END
 92
        0
 95
        0
309
LINKEDTABLEDATACELL_END
  1
FORMATTEDTABLEDATACELL_BEGIN
300
CELLTABLEFORMAT
  1
TABLEFORMAT_BEGIN
 90
        1
170
     1
 91
        0
 92
        0
 62
   257
 93
        1
300
CONTENTFORMAT
  1
CONTENTFORMAT_BEGIN
 90
        0
 91
        0
 92
      512
 93
        0
300

 40
0.0
140
1.0
 94
        1
 62
     0
340
0
144
0.18
309
CONTENTFORMAT_END
171
     0
 94
        0
309
TABLEFORMAT_END
309
FORMATTEDTABLEDATACELL_END
  1
TABLECELL_BEGIN
 90
        0
 91
        0
309
TABLECELL_END
300
CELL
  1
LINKEDTABLEDATACELL_BEGIN
 90
        0
300

 91
        0
301
CUSTOMDATA
  1
DATAMAP_BEGIN
 90
        1
300
ACAD_ROUNDTRIP_2008_CELL_CHECKSUM
301
DATAMAP_VALUE
 93
        2
 90
        2
140
1016.0
 94
        0
300

302

304
ACVALUE_END
309
DATAMAP_END
 92
        0
 95
        1
302
CONTENT
  1
CELLCONTENT_BEGIN
 90
        1
300
VALUE
 93
        2
 90
        4
  1
DATE:
 94
        0
300

302
DATE:
304
ACVALUE_END
 91
        0
309
CELLCONTENT_END
  1
FORMATTEDCELLCONTENT_BEGIN
170
     1
300
CONTENTFORMAT
  1
CONTENTFORMAT_BEGIN
 90
      132
 91
        0
 92
      512
 93
        0
300

 40
0.0
140
1.0
 94
        1
 62
     0
340
0
144
3.333333
309
CONTENTFORMAT_END
309
FORMATTEDCELLCONTENT_END
309
LINKEDTABLEDATACELL_END
  1
FORMATTEDTABLEDATACELL_BEGIN
300
CELLTABLEFORMAT
  1
TABLEFORMAT_BEGIN
 90
        1
170
     1
 91
       16
 92
        0
 62
   257
 93
        1
300
CONTENTFORMAT
  1
CONTENTFORMAT_BEGIN
 90
       16
 91
        0
 92
      512
 93
        0
300

 40
0.0
140
1.0
 94
        4
 62
     0
340
0
144
0.18
309
CONTENTFORMAT_END
171
     0
 94
        4
 95
        1
302
GRIDFORMAT
  1
GRIDFORMAT_BEGIN
 90
       26
 91
        1
 62
     0
 92
       -2
340
0
 93
        0
 40
0.045
309
GRIDFORMAT_END
 95
        4
302
GRIDFORMAT
  1
GRIDFORMAT_BEGIN
 90
       26
 91
        1
 62
     0
 92
       -2
340
0
 93
        0
 40
0.045
309
GRIDFORMAT_END
 95
        8
302
GRIDFORMAT
  1
GRIDFORMAT_BEGIN
 90
       26
 91
        1
 62
     0
 92
       -2
340
0
 93
        0
 40
0.045
309
GRIDFORMAT_END
 95
       32
302
GRIDFORMAT
  1
GRIDFORMAT_BEGIN
 90
       26
 91
        1
 62
     0
 92
       -2
340
0
 93
        0
 40
0.045
309
GRIDFORMAT_END
309
TABLEFORMAT_END
309
FORMATTEDTABLEDATACELL_END
  1
TABLECELL_BEGIN
 90
        0
 91
        0
309
TABLECELL_END
300
CELL
  1
LINKEDTABLEDATACELL_BEGIN
 90
        0
300

 91
        0
301
CUSTOMDATA
  1
DATAMAP_BEGIN
 90
        0
309
DATAMAP_END
 92
        0
 95
        0
309
LINKEDTABLEDATACELL_END
  1
FORMATTEDTABLEDATACELL_BEGIN
300
CELLTABLEFORMAT
  1
TABLEFORMAT_BEGIN
 90
        1
170
     1
 91
        0
 92
        0
 62
   257
 93
        1
300
CONTENTFORMAT
  1
CONTENTFORMAT_BEGIN
 90
        0
 91
        0
 92
      512
 93
        0
300

 40
0.0
140
1.0
 94
        1
 62
     0
340
0
144
0.18
309
CONTENTFORMAT_END
171
     0
 94
        0
309
TABLEFORMAT_END
309
FORMATTEDTABLEDATACELL_END
  1
TABLECELL_BEGIN
 90
        0
 91
        0
309
TABLECELL_END
 91
        0
301
CUSTOMDATA
  1
DATAMAP_BEGIN
 90
        0
309
DATAMAP_END
309
LINKEDTABLEDATAROW_END
  1
FORMATTEDTABLEDATAROW_BEGIN
300
ROWTABLEFORMAT
  1
TABLEFORMAT_BEGIN
 90
        2
170
     0
309
TABLEFORMAT_END
309
FORMATTEDTABLEDATAROW_END
  1
TABLEROW_BEGIN
 90
        3
 40
6.666667
309
TABLEROW_END
301
ROW
  1
LINKEDTABLEDATAROW_BEGIN
 90
        5
300
CELL
  1
LINKEDTABLEDATACELL_BEGIN
 90
        0
300

 91
        0
301
CUSTOMDATA
  1
DATAMAP_BEGIN
 90
        1
300
ACAD_ROUNDTRIP_2008_CELL_CHECKSUM
301
DATAMAP_VALUE
 93
        2
 90
        2
140
1877690.0
 94
        0
300

302

304
ACVALUE_END
309
DATAMAP_END
 92
        0
 95
        1
302
CONTENT
  1
CELLCONTENT_BEGIN
 90
        1
300
VALUE
 93
        2
 90
        4
  1
Any integral or partial reproductions are prohibited \Pwithout prior authorisation of L {\Ftxt.shx;\W0.190476;\H3.000000; }& L Luce & Light s.r.l., \Pin accordance with the law in force. \PAll rights reserved.
 94
        0
300

302
Any integral or partial reproductions are prohibited \Pwithout prior authorisation of L {\Ftxt.shx;\W0.190476;\H3.000000; }& L Luce & Light s.r.l., \Pin accordance with the law in force. \PAll rights reserved.
304
ACVALUE_END
 91
        0
309
CELLCONTENT_END
  1
FORMATTEDCELLCONTENT_BEGIN
170
     1
300
CONTENTFORMAT
  1
CONTENTFORMAT_BEGIN
 90
      132
 91
        0
 92
      512
 93
        0
300

 40
0.0
140
1.0
 94
        1
 62
     0
340
0
144
3.0
309
CONTENTFORMAT_END
309
FORMATTEDCELLCONTENT_END
309
LINKEDTABLEDATACELL_END
  1
FORMATTEDTABLEDATACELL_BEGIN
300
CELLTABLEFORMAT
  1
TABLEFORMAT_BEGIN
 90
        1
170
     1
 91
       16
 92
        0
 62
   257
 93
        1
300
CONTENTFORMAT
  1
CONTENTFORMAT_BEGIN
 90
       16
 91
        0
 92
      512
 93
        0
300

 40
0.0
140
1.0
 94
        4
 62
     0
340
0
144
0.18
309
CONTENTFORMAT_END
171
     0
 94
        4
 95
        1
302
GRIDFORMAT
  1
GRIDFORMAT_BEGIN
 90
       26
 91
        1
 62
     0
 92
       -2
340
0
 93
        0
 40
0.045
309
GRIDFORMAT_END
 95
        4
302
GRIDFORMAT
  1
GRIDFORMAT_BEGIN
 90
       26
 91
        1
 62
     0
 92
       -2
340
0
 93
        0
 40
0.045
309
GRIDFORMAT_END
 95
        8
302
GRIDFORMAT
  1
GRIDFORMAT_BEGIN
 90
       26
 91
        1
 62
     0
 92
       -2
340
0
 93
        0
 40
0.045
309
GRIDFORMAT_END
 95
       32
302
GRIDFORMAT
  1
GRIDFORMAT_BEGIN
 90
       26
 91
        1
 62
     0
 92
       -2
340
0
 93
        0
 40
0.045
309
GRIDFORMAT_END
309
TABLEFORMAT_END
309
FORMATTEDTABLEDATACELL_END
  1
TABLECELL_BEGIN
 90
        0
 91
        0
309
TABLECELL_END
300
CELL
  1
LINKEDTABLEDATACELL_BEGIN
 90
        0
300

 91
        0
301
CUSTOMDATA
  1
DATAMAP_BEGIN
 90
        0
309
DATAMAP_END
 92
        0
 95
        0
309
LINKEDTABLEDATACELL_END
  1
FORMATTEDTABLEDATACELL_BEGIN
300
CELLTABLEFORMAT
  1
TABLEFORMAT_BEGIN
 90
        1
170
     1
 91
        0
 92
        0
 62
   257
 93
        1
300
CONTENTFORMAT
  1
CONTENTFORMAT_BEGIN
 90
        0
 91
        0
 92
      512
 93
        0
300

 40
0.0
140
1.0
 94
        1
 62
     0
340
0
144
0.18
309
CONTENTFORMAT_END
171
     0
 94
        0
309
TABLEFORMAT_END
309
FORMATTEDTABLEDATACELL_END
  1
TABLECELL_BEGIN
 90
        0
 91
        0
309
TABLECELL_END
300
CELL
  1
LINKEDTABLEDATACELL_BEGIN
 90
        0
300

 91
        0
301
CUSTOMDATA
  1
DATAMAP_BEGIN
 90
        0
309
DATAMAP_END
 92
        0
 95
        0
309
LINKEDTABLEDATACELL_END
  1
FORMATTEDTABLEDATACELL_BEGIN
300
CELLTABLEFORMAT
  1
TABLEFORMAT_BEGIN
 90
        1
170
     1
 91
        0
 92
        0
 62
   257
 93
        1
300
CONTENTFORMAT
  1
CONTENTFORMAT_BEGIN
 90
        0
 91
        0
 92
      512
 93
        0
300

 40
0.0
140
1.0
 94
        1
 62
     0
340
0
144
0.18
309
CONTENTFORMAT_END
171
     0
 94
        0
309
TABLEFORMAT_END
309
FORMATTEDTABLEDATACELL_END
  1
TABLECELL_BEGIN
 90
        0
 91
        0
309
TABLECELL_END
300
CELL
  1
LINKEDTABLEDATACELL_BEGIN
 90
        0
300

 91
        0
301
CUSTOMDATA
  1
DATAMAP_BEGIN
 90
        0
309
DATAMAP_END
 92
        0
 95
        0
309
LINKEDTABLEDATACELL_END
  1
FORMATTEDTABLEDATACELL_BEGIN
300
CELLTABLEFORMAT
  1
TABLEFORMAT_BEGIN
 90
        1
170
     1
 91
        0
 92
        0
 62
   257
 93
        1
300
CONTENTFORMAT
  1
CONTENTFORMAT_BEGIN
 90
        0
 91
        0
 92
      512
 93
        0
300

 40
0.0
140
1.0
 94
        1
 62
     0
340
0
144
0.18
309
CONTENTFORMAT_END
171
     0
 94
        0
309
TABLEFORMAT_END
309
FORMATTEDTABLEDATACELL_END
  1
TABLECELL_BEGIN
 90
        0
 91
        0
309
TABLECELL_END
300
CELL
  1
LINKEDTABLEDATACELL_BEGIN
 90
        0
300

 91
        0
301
CUSTOMDATA
  1
DATAMAP_BEGIN
 90
        0
309
DATAMAP_END
 92
        0
 95
        0
309
LINKEDTABLEDATACELL_END
  1
FORMATTEDTABLEDATACELL_BEGIN
300
CELLTABLEFORMAT
  1
TABLEFORMAT_BEGIN
 90
        1
170
     1
 91
        0
 92
        0
 62
   257
 93
        1
300
CONTENTFORMAT
  1
CONTENTFORMAT_BEGIN
 90
        0
 91
        0
 92
      512
 93
        0
300

 40
0.0
140
1.0
 94
        1
 62
     0
340
0
144
0.18
309
CONTENTFORMAT_END
171
     0
 94
        0
309
TABLEFORMAT_END
309
FORMATTEDTABLEDATACELL_END
  1
TABLECELL_BEGIN
 90
        0
 91
        0
309
TABLECELL_END
 91
        0
301
CUSTOMDATA
  1
DATAMAP_BEGIN
 90
        0
309
DATAMAP_END
309
LINKEDTABLEDATAROW_END
  1
FORMATTEDTABLEDATAROW_BEGIN
300
ROWTABLEFORMAT
  1
TABLEFORMAT_BEGIN
 90
        2
170
     0
309
TABLEFORMAT_END
309
FORMATTEDTABLEDATAROW_END
  1
TABLEROW_BEGIN
 90
        3
 40
17.333333
309
TABLEROW_END
100
AcDbFormattedTableData
300
TABLEFORMAT
  1
TABLEFORMAT_BEGIN
 90
        4
170
     1
 91
    15360
 92
        0
 62
   257
 93
        1
300
CONTENTFORMAT
  1
CONTENTFORMAT_BEGIN
 90
        0
 91
        0
 92
      512
 93
        0
300

 40
0.0
140
1.0
 94
        1
 62
     0
340
0
144
0.18
309
CONTENTFORMAT_END
171
     1
301
MARGIN
  1
CELLMARGIN_BEGIN
 40
0.06
 40
0.06
 40
0.06
 40
0.06
 40
0.06
 40
0.06
309
CELLMARGIN_END
 94
        0
309
TABLEFORMAT_END
 90
        4
 91
        0
 92
        0
 93
        3
 94
        2
 91
        2
 92
        3
 93
        2
 94
        4
 91
        3
 92
        3
 93
        3
 94
        4
 91
        4
 92
        0
 93
        4
 94
        4
100
AcDbTableContent
340
499
  0
TABLEGEOMETRY
  5
4C6
330
4C8
100
AcDbTableGeometry
 90
        5
 91
        5
 92
       25
 93
        0
 40
0.0
 41
0.0
330
0
 94
        0
 93
        0
 40
0.0
 41
0.0
330
0
 94
        0
 93
        0
 40
0.0
 41
0.0
330
0
 94
        0
 93
        0
 40
0.0
 41
0.0
330
0
 94
        0
 93
        0
 40
0.0
 41
0.0
330
0
 94
        0
 93
        0
 40
0.0
 41
0.0
330
0
 94
        0
 93
        0
 40
0.0
 41
0.0
330
0
 94
        0
 93
        0
 40
0.0
 41
0.0
330
0
 94
        0
 93
        0
 40
0.0
 41
0.0
330
0
 94
        0
 93
        0
 40
0.0
 41
0.0
330
0
 94
        0
 93
        0
 40
0.0
 41
0.0
330
0
 94
        0
 93
        0
 40
0.0
 41
0.0
330
0
 94
        0
 93
        0
 40
0.0
 41
0.0
330
0
 94
        0
 93
        0
 40
0.0
 41
0.0
330
0
 94
        0
 93
        0
 40
0.0
 41
0.0
330
0
 94
        0
 93
        0
 40
0.0
 41
0.0
330
0
 94
        0
 93
        0
 40
0.0
 41
0.0
330
0
 94
        0
 93
        0
 40
0.0
 41
0.0
330
0
 94
        0
 93
        0
 40
0.0
 41
0.0
330
0
 94
        0
 93
        0
 40
0.0
 41
0.0
330
0
 94
        0
 93
        0
 40
0.0
 41
0.0
330
0
 94
        0
 93
        0
 40
0.0
 41
0.0
330
0
 94
        0
 93
        0
 40
0.0
 41
0.0
330
0
 94
        0
 93
        0
 40
0.0
 41
0.0
330
0
 94
        0
 93
        0
 40
0.0
 41
0.0
330
0
 94
        0
  0
DICTIONARY
  5
4CB
330
499
100
AcDbDictionary
280
     1
281
     1
  3
ACAD_ROUNDTRIP_2008_TABLESTYLE_CELLSTYLEMAP
360
4CC
  0
CELLSTYLEMAP
  5
4CC
102
{ACAD_REACTORS
330
4CB
102
}
330
4CB
100
AcDbCellStyleMap
 90
        3
300
CELLSTYLE
  1
TABLEFORMAT_BEGIN
 90
        5
170
     1
 91
        0
 92
        0
 62
   257
 93
        1
300
CONTENTFORMAT
  1
CONTENTFORMAT_BEGIN
 90
        0
 91
        0
 92
        4
 93
        0
300

 40
0.0
140
1.0
 94
        5
 62
     0
340
11
144
6.0
309
CONTENTFORMAT_END
171
     1
301
MARGIN
  1
CELLMARGIN_BEGIN
 40
1.5
 40
1.5
 40
1.5
 40
1.5
 40
1.5
 40
1.5
309
CELLMARGIN_END
 94
        6
 95
        1
302
GRIDFORMAT
  1
GRIDFORMAT_BEGIN
 90
        0
 91
        1
 62
     0
 92
       -2
340
14
 93
        0
 40
0.045
309
GRIDFORMAT_END
 95
        2
302
GRIDFORMAT
  1
GRIDFORMAT_BEGIN
 90
        0
 91
        1
 62
     0
 92
       -2
340
14
 93
        0
 40
0.045
309
GRIDFORMAT_END
 95
        4
302
GRIDFORMAT
  1
GRIDFORMAT_BEGIN
 90
        0
 91
        1
 62
     0
 92
       -2
340
14
 93
        0
 40
0.045
309
GRIDFORMAT_END
 95
        8
302
GRIDFORMAT
  1
GRIDFORMAT_BEGIN
 90
        0
 91
        1
 62
     0
 92
       -2
340
14
 93
        0
 40
0.045
309
GRIDFORMAT_END
 95
       16
302
GRIDFORMAT
  1
GRIDFORMAT_BEGIN
 90
        0
 91
        1
 62
     0
 92
       -2
340
14
 93
        0
 40
0.045
309
GRIDFORMAT_END
 95
       32
302
GRIDFORMAT
  1
GRIDFORMAT_BEGIN
 90
        0
 91
        1
 62
     0
 92
       -2
340
14
 93
        0
 40
0.045
309
GRIDFORMAT_END
309
TABLEFORMAT_END
  1
CELLSTYLE_BEGIN
 90
        1
 91
        1
300
_TITLE
309
CELLSTYLE_END
300
CELLSTYLE
  1
TABLEFORMAT_BEGIN
 90
        5
170
     1
 91
        0
 92
        0
 62
   257
 93
        1
300
CONTENTFORMAT
  1
CONTENTFORMAT_BEGIN
 90
        0
 91
        0
 92
        4
 93
        0
300

 40
0.0
140
1.0
 94
        5
 62
     0
340
11
144
4.5
309
CONTENTFORMAT_END
171
     1
301
MARGIN
  1
CELLMARGIN_BEGIN
 40
1.5
 40
1.5
 40
1.5
 40
1.5
 40
1.5
 40
1.5
309
CELLMARGIN_END
 94
        6
 95
        1
302
GRIDFORMAT
  1
GRIDFORMAT_BEGIN
 90
        0
 91
        1
 62
     0
 92
       -2
340
14
 93
        0
 40
0.045
309
GRIDFORMAT_END
 95
        2
302
GRIDFORMAT
  1
GRIDFORMAT_BEGIN
 90
        0
 91
        1
 62
     0
 92
       -2
340
14
 93
        0
 40
0.045
309
GRIDFORMAT_END
 95
        4
302
GRIDFORMAT
  1
GRIDFORMAT_BEGIN
 90
        0
 91
        1
 62
     0
 92
       -2
340
14
 93
        0
 40
0.045
309
GRIDFORMAT_END
 95
        8
302
GRIDFORMAT
  1
GRIDFORMAT_BEGIN
 90
        0
 91
        1
 62
     0
 92
       -2
340
14
 93
        0
 40
0.045
309
GRIDFORMAT_END
 95
       16
302
GRIDFORMAT
  1
GRIDFORMAT_BEGIN
 90
        0
 91
        1
 62
     0
 92
       -2
340
14
 93
        0
 40
0.045
309
GRIDFORMAT_END
 95
       32
302
GRIDFORMAT
  1
GRIDFORMAT_BEGIN
 90
        0
 91
        1
 62
     0
 92
       -2
340
14
 93
        0
 40
0.045
309
GRIDFORMAT_END
309
TABLEFORMAT_END
  1
CELLSTYLE_BEGIN
 90
        2
 91
        1
300
_HEADER
309
CELLSTYLE_END
300
CELLSTYLE
  1
TABLEFORMAT_BEGIN
 90
        5
170
     1
 91
        0
 92
        0
 62
   257
 93
        1
300
CONTENTFORMAT
  1
CONTENTFORMAT_BEGIN
 90
        0
 91
        0
 92
        4
 93
        0
300

 40
0.0
140
1.0
 94
        2
 62
     0
340
11
144
4.5
309
CONTENTFORMAT_END
171
     1
301
MARGIN
  1
CELLMARGIN_BEGIN
 40
1.5
 40
1.5
 40
1.5
 40
1.5
 40
1.5
 40
1.5
309
CELLMARGIN_END
 94
        6
 95
        1
302
GRIDFORMAT
  1
GRIDFORMAT_BEGIN
 90
        0
 91
        1
 62
     0
 92
       -2
340
14
 93
        0
 40
0.045
309
GRIDFORMAT_END
 95
        2
302
GRIDFORMAT
  1
GRIDFORMAT_BEGIN
 90
        0
 91
        1
 62
     0
 92
       -2
340
14
 93
        0
 40
0.045
309
GRIDFORMAT_END
 95
        4
302
GRIDFORMAT
  1
GRIDFORMAT_BEGIN
 90
        0
 91
        1
 62
     0
 92
       -2
340
14
 93
        0
 40
0.045
309
GRIDFORMAT_END
 95
        8
302
GRIDFORMAT
  1
GRIDFORMAT_BEGIN
 90
        0
 91
        1
 62
     0
 92
       -2
340
14
 93
        0
 40
0.045
309
GRIDFORMAT_END
 95
       16
302
GRIDFORMAT
  1
GRIDFORMAT_BEGIN
 90
        0
 91
        1
 62
     0
 92
       -2
340
14
 93
        0
 40
0.045
309
GRIDFORMAT_END
 95
       32
302
GRIDFORMAT
  1
GRIDFORMAT_BEGIN
 90
        0
 91
        1
 62
     0
 92
       -2
340
14
 93
        0
 40
0.045
309
GRIDFORMAT_END
309
TABLEFORMAT_END
  1
CELLSTYLE_BEGIN
 90
        3
 91
        2
300
_DATA
309
CELLSTYLE_END
  0
ENDSEC
  0
EOF
