  0
SECTION
  2
HEADER
  9
$ACADVER
  1
AC1027
  9
$ACADMAINTVER
 70
     8
  9
$DWGCODEPAGE
  3
ANSI_1252
  9
$REQUIREDVERSIONS
160
                 0
  9
$INSBASE
 10
0.0
 20
0.0
 30
0.0
  9
$EXTMIN
 10
0.0
 20
0.0
 30
0.0
  9
$EXTMAX
 10
1585.333333
 20
1121.333333
 30
0.0
  9
$LIMMIN
 10
0.0
 20
0.0
  9
$LIMMAX
 10
1585.333333
 20
1121.333333
  9
$ORTHOMODE
 70
     0
  9
$REGENMODE
 70
     1
  9
$FILLMODE
 70
     1
  9
$QTEXTMODE
 70
     0
  9
$MIRRTEXT
 70
     1
  9
$LTSCALE
 40
87.193333
  9
$ATTMODE
 70
     1
  9
$TEXTSIZE
 40
0.2
  9
$TRACEWID
 40
0.05
  9
$TEXTSTYLE
  7
STANDARD
  9
$CLAYER
  8
0
  9
$CELTYPE
  6
BYLAYER
  9
$CECOLOR
 62
   256
  9
$CELTSCALE
 40
1.0
  9
$DISPSILH
 70
     0
  9
$DIMSCALE
 40
1.0
  9
$DIMASZ
 40
3.333333
  9
$DIMEXO
 40
0.75
  9
$DIMDLI
 40
60.242667
  9
$DIMRND
 40
0.0
  9
$DIMDLE
 40
0.0
  9
$DIMEXE
 40
0.75
  9
$DIMTP
 40
0.01
  9
$DIMTM
 40
0.01
  9
$DIMTXT
 40
4.0
  9
$DIMCEN
 40
14.268
  9
$DIMTSZ
 40
0.0
  9
$DIMTOL
 70
     1
  9
$DIMLIM
 70
     0
  9
$DIMTIH
 70
     1
  9
$DIMTOH
 70
     1
  9
$DIMSE1
 70
     0
  9
$DIMSE2
 70
     0
  9
$DIMTAD
 70
     0
  9
$DIMZIN
 70
     0
  9
$DIMBLK
  1
CLOSED
  9
$DIMASO
 70
     1
  9
$DIMSHO
 70
     1
  9
$DIMPOST
  1

  9
$DIMAPOST
  1

  9
$DIMALT
 70
     0
  9
$DIMALTD
 70
     2
  9
$DIMALTF
 40
25.4
  9
$DIMLFAC
 40
1.0
  9
$DIMTOFL
 70
     0
  9
$DIMTVP
 40
0.0
  9
$DIMTIX
 70
     0
  9
$DIMSOXD
 70
     0
  9
$DIMSAH
 70
     0
  9
$DIMBLK1
  1

  9
$DIMBLK2
  1

  9
$DIMSTYLE
  2
STANDARD
  9
$DIMCLRD
 70
     0
  9
$DIMCLRE
 70
     0
  9
$DIMCLRT
 70
     0
  9
$DIMTFAC
 40
1.0
  9
$DIMGAP
 40
0.625
  9
$DIMJUST
 70
     0
  9
$DIMSD1
 70
     0
  9
$DIMSD2
 70
     0
  9
$DIMTOLJ
 70
     1
  9
$DIMTZIN
 70
     0
  9
$DIMALTZ
 70
     0
  9
$DIMALTTZ
 70
     0
  9
$DIMUPT
 70
     0
  9
$DIMDEC
 70
     4
  9
$DIMTDEC
 70
     4
  9
$DIMALTU
 70
     2
  9
$DIMALTTD
 70
     2
  9
$DIMTXSTY
  7
STANDARD
  9
$DIMAUNIT
 70
     0
  9
$DIMADEC
 70
     0
  9
$DIMALTRND
 40
0.0
  9
$DIMAZIN
 70
     0
  9
$DIMDSEP
 70
    44
  9
$DIMATFIT
 70
     3
  9
$DIMFRAC
 70
     0
  9
$DIMLDRBLK
  1

  9
$DIMLUNIT
 70
     2
  9
$DIMLWD
 70
    -2
  9
$DIMLWE
 70
    -2
  9
$DIMTMOVE
 70
     0
  9
$DIMFXL
 40
1.0
  9
$DIMFXLON
 70
     0
  9
$DIMJOGANG
 40
0.785398
  9
$DIMTFILL
 70
     0
  9
$DIMTFILLCLR
 70
     0
  9
$DIMARCSYM
 70
     0
  9
$DIMLTYPE
  6

  9
$DIMLTEX1
  6

  9
$DIMLTEX2
  6

  9
$DIMTXTDIRECTION
 70
     0
  9
$LUNITS
 70
     2
  9
$LUPREC
 70
     4
  9
$SKETCHINC
 40
0.1
  9
$FILLETRAD
 40
0.5
  9
$AUNITS
 70
     0
  9
$AUPREC
 70
     0
  9
$MENU
  1
.
  9
$ELEVATION
 40
0.0
  9
$PELEVATION
 40
0.0
  9
$THICKNESS
 40
0.0
  9
$LIMCHECK
 70
     0
  9
$CHAMFERA
 40
0.0
  9
$CHAMFERB
 40
0.0
  9
$CHAMFERC
 40
0.0
  9
$CHAMFERD
 40
0.0
  9
$SKPOLY
 70
     0
  9
$TDCREATE
 40
2447893.083333333
  9
$TDUCREATE
 40
0.0
  9
$TDUPDATE
 40
2460208.456487396
  9
$TDUUPDATE
 40
2460208.373154062
  9
$TDINDWG
 40
0.0
  9
$TDUSRTIMER
 40
0.0
  9
$USRTIMER
 70
     1
  9
$ANGBASE
 50
0.0
  9
$ANGDIR
 70
     0
  9
$PDMODE
 70
     3
  9
$PDSIZE
 40
0.3125
  9
$PLINEWID
 40
0.0
  9
$SPLFRAME
 70
     0
  9
$SPLINETYPE
 70
     6
  9
$SPLINESEGS
 70
     8
  9
$HANDSEED
  5
4DA
  9
$SURFTAB1
 70
     6
  9
$SURFTAB2
 70
     6
  9
$SURFTYPE
 70
     6
  9
$SURFU
 70
     6
  9
$SURFV
 70
     6
  9
$UCSBASE
  2

  9
$UCSNAME
  2

  9
$UCSORG
 10
0.0
 20
0.0
 30
0.0
  9
$UCSXDIR
 10
1.0
 20
0.0
 30
0.0
  9
$UCSYDIR
 10
0.0
 20
1.0
 30
0.0
  9
$UCSORTHOREF
  2

  9
$UCSORTHOVIEW
 70
     0
  9
$UCSORGTOP
 10
0.0
 20
0.0
 30
0.0
  9
$UCSORGBOTTOM
 10
0.0
 20
0.0
 30
0.0
  9
$UCSORGLEFT
 10
0.0
 20
0.0
 30
0.0
  9
$UCSORGRIGHT
 10
0.0
 20
0.0
 30
0.0
  9
$UCSORGFRONT
 10
0.0
 20
0.0
 30
0.0
  9
$UCSORGBACK
 10
0.0
 20
0.0
 30
0.0
  9
$PUCSBASE
  2

  9
$PUCSNAME
  2

  9
$PUCSORG
 10
0.0
 20
0.0
 30
0.0
  9
$PUCSXDIR
 10
1.0
 20
0.0
 30
0.0
  9
$PUCSYDIR
 10
0.0
 20
1.0
 30
0.0
  9
$PUCSORTHOREF
  2

  9
$PUCSORTHOVIEW
 70
     0
  9
$PUCSORGTOP
 10
0.0
 20
0.0
 30
0.0
  9
$PUCSORGBOTTOM
 10
0.0
 20
0.0
 30
0.0
  9
$PUCSORGLEFT
 10
0.0
 20
0.0
 30
0.0
  9
$PUCSORGRIGHT
 10
0.0
 20
0.0
 30
0.0
  9
$PUCSORGFRONT
 10
0.0
 20
0.0
 30
0.0
  9
$PUCSORGBACK
 10
0.0
 20
0.0
 30
0.0
  9
$USERI1
 70
     0
  9
$USERI2
 70
     0
  9
$USERI3
 70
     0
  9
$USERI4
 70
     0
  9
$USERI5
 70
     0
  9
$USERR1
 40
0.0
  9
$USERR2
 40
0.0
  9
$USERR3
 40
0.0
  9
$USERR4
 40
0.0
  9
$USERR5
 40
0.0
  9
$WORLDVIEW
 70
     1
  9
$SHADEDGE
 70
     3
  9
$SHADEDIF
 70
    70
  9
$TILEMODE
 70
     1
  9
$MAXACTVP
 70
    64
  9
$PINSBASE
 10
0.0
 20
0.0
 30
0.0
  9
$PLIMCHECK
 70
     0
  9
$PEXTMIN
 10
1.000000E+20
 20
1.000000E+20
 30
1.000000E+20
  9
$PEXTMAX
 10
-1.000000E+20
 20
-1.000000E+20
 30
-1.000000E+20
  9
$PLIMMIN
 10
0.0
 20
0.0
  9
$PLIMMAX
 10
12.0
 20
9.0
  9
$UNITMODE
 70
     0
  9
$VISRETAIN
 70
     1
  9
$PLINEGEN
 70
     0
  9
$PSLTSCALE
 70
     0
  9
$TREEDEPTH
 70
  3020
  9
$CMLSTYLE
  2

  9
$CMLJUST
 70
     0
  9
$CMLSCALE
 40
1.0
  9
$PROXYGRAPHICS
 70
     1
  9
$MEASUREMENT
 70
     1
  9
$CELWEIGHT
370
    -1
  9
$ENDCAPS
280
     0
  9
$JOINSTYLE
280
     0
  9
$LWDISPLAY
290
     0
  9
$INSUNITS
 70
     4
  9
$HYPERLINKBASE
  1

  9
$STYLESHEET
  1

  9
$XEDIT
290
     1
  9
$CEPSNTYPE
380
     0
  9
$PSTYLEMODE
290
     1
  9
$FINGERPRINTGUID
  2
{53E08A58-61B7-4DC4-8F68-F620CCEB9FBB}
  9
$VERSIONGUID
  2
{FAEB1C32-E019-11D5-929B-00C0DF256EC4}
  9
$EXTNAMES
290
     1
  9
$PSVPSCALE
 40
0.0
  9
$OLESTARTUP
290
     0
  9
$SORTENTS
280
   127
  9
$INDEXCTL
280
     0
  9
$HIDETEXT
280
     1
  9
$XCLIPFRAME
280
     2
  9
$HALOGAP
280
     0
  9
$OBSCOLOR
 70
   257
  9
$OBSLTYPE
280
     0
  9
$INTERSECTIONDISPLAY
280
     0
  9
$INTERSECTIONCOLOR
 70
   257
  9
$DIMASSOC
280
     2
  9
$PROJECTNAME
  1

  9
$CAMERADISPLAY
290
     0
  9
$LENSLENGTH
 40
50.0
  9
$CAMERAHEIGHT
 40
0.0
  9
$STEPSPERSEC
 40
2.0
  9
$STEPSIZE
 40
6.0
  9
$3DDWFPREC
 40
2.0
  9
$PSOLWIDTH
 40
0.25
  9
$PSOLHEIGHT
 40
4.0
  9
$LOFTANG1
 40
1.570796
  9
$LOFTANG2
 40
1.570796
  9
$LOFTMAG1
 40
0.0
  9
$LOFTMAG2
 40
0.0
  9
$LOFTPARAM
 70
     7
  9
$LOFTNORMALS
280
     1
  9
$LATITUDE
 40
37.795
  9
$LONGITUDE
 40
-122.394
  9
$NORTHDIRECTION
 40
0.0
  9
$TIMEZONE
 70
 -8000
  9
$LIGHTGLYPHDISPLAY
280
     1
  9
$TILEMODELIGHTSYNCH
280
     1
  9
$SOLIDHIST
280
     1
  9
$SHOWHIST
280
     1
  9
$DWFFRAME
280
     2
  9
$DGNFRAME
280
     2
  9
$REALWORLDSCALE
290
     1
  9
$INTERFERECOLOR
 62
   256
  9
$CSHADOW
280
     0
  9
$SHADOWPLANELOCATION
 40
0.0
  0
ENDSEC
  0
SECTION
  2
CLASSES
  0
CLASS
  1
ACDBDICTIONARYWDFLT
  2
AcDbDictionaryWithDefault
  3
ObjectDBX Classes
 90
        0
 91
        6
280
     0
281
     0
  0
CLASS
  1
ACDBPLACEHOLDER
  2
AcDbPlaceHolder
  3
ObjectDBX Classes
 90
        0
 91
        1
280
     0
281
     0
  0
CLASS
  1
LAYOUT
  2
AcDbLayout
  3
ObjectDBX Classes
 90
        0
 91
        1
280
     0
281
     0
  0
CLASS
  1
TABLESTYLE
  2
AcDbTableStyle
  3
ObjectDBX Classes
 90
     4095
 91
        5
280
     0
281
     0
  0
CLASS
  1
ACAD_TABLE
  2
AcDbTable
  3
ObjectDBX Classes
 90
     1025
 91
        5
280
     0
281
     1
  0
CLASS
  1
SCALE
  2
AcDbScale
  3
ObjectDBX Classes
 90
     1153
 91
        5
280
     0
281
     0
  0
CLASS
  1
TABLEGEOMETRY
  2
AcDbTableGeometry
  3
ObjectDBX Classes
 90
     1152
 91
        4
280
     0
281
     0
  0
CLASS
  1
VISUALSTYLE
  2
AcDbVisualStyle
  3
ObjectDBX Classes
 90
     4095
 91
        5
280
     0
281
     0
  0
CLASS
  1
MATERIAL
  2
AcDbMaterial
  3
ObjectDBX Classes
 90
     1153
 91
        5
280
     0
281
     0
  0
CLASS
  1
SUN
  2
AcDbSun
  3
SCENEOE
 90
     1153
 91
        5
280
     0
281
     0
  0
CLASS
  1
CSACDOCUMENTOPTIONS
  2
CDocDataContainer
  3
"DERU003_CSAPP"
 90
     4095
 91
        4
280
     0
281
     0
  0
CLASS
  1
TABLECONTENT
  2
AcDbTableContent
  3
ObjectDBX Classes
 90
     1152
 91
        4
280
     0
281
     0
  0
CLASS
  1
DICTIONARYVAR
  2
AcDbDictionaryVar
  3
ObjectDBX Classes
 90
        0
 91
        4
280
     0
281
     0
  0
CLASS
  1
CELLSTYLEMAP
  2
AcDbCellStyleMap
  3
ObjectDBX Classes
 90
     1152
 91
        4
280
     0
281
     0
  0
ENDSEC
  0
SECTION
  2
TABLES
  0
TABLE
  2
VPORT
  5
8
330
0
100
AcDbSymbolTable
 70
     1
  0
VPORT
  5
1F4
330
8
100
AcDbSymbolTableRecord
100
AcDbViewportTableRecord
  2
*ACTIVE
 70
     0
 10
0.0
 20
0.0
 11
1.0
 21
1.0
 12
792.666667
 22
560.666667
 13
0.0
 23
0.0
 14
1.0
 24
1.0
 15
0.0
 25
0.0
 16
0.0
 26
0.0
 36
1.0
 17
0.0
 27
0.0
 37
0.0
 40
1121.333333
 41
1.818286
 42
50.0
 43
0.0
 44
0.0
 50
0.0
 51
0.0
 71
    16
 72
   100
 73
     1
 74
     1
 75
     0
 76
     0
 77
     0
 78
     0
281
     0
 65
     1
110
0.0
120
0.0
130
0.0
111
1.0
121
0.0
131
0.0
112
0.0
122
1.0
132
0.0
 79
     0
146
0.0
 60
     3
 61
     5
292
     1
282
     1
141
0.0
142
0.0
 63
   256
361
4C5
  0
ENDTAB
  0
TABLE
  2
LTYPE
  5
5
330
0
100
AcDbSymbolTable
 70
     6
  0
LTYPE
  5
14
330
5
100
AcDbSymbolTableRecord
100
AcDbLinetypeTableRecord
  2
BYBLOCK
 70
     0
  3

 72
    65
 73
     0
 40
0.0
  0
LTYPE
  5
15
330
5
100
AcDbSymbolTableRecord
100
AcDbLinetypeTableRecord
  2
BYLAYER
 70
     0
  3

 72
    65
 73
     0
 40
0.0
  0
LTYPE
  5
16
330
5
100
AcDbSymbolTableRecord
100
AcDbLinetypeTableRecord
  2
CONTINUOUS
 70
     0
  3
Solid line
 72
    65
 73
     0
 40
0.0
  0
LTYPE
  5
1F5
330
5
100
AcDbSymbolTableRecord
100
AcDbLinetypeTableRecord
  2
CENTER
 70
     0
  3
____ _ ____ _ ____ _ ____ _ ____ _ ____ _ ____
 72
    65
 73
     4
 40
0.6
 49
0.375
 74
     0
 49
-0.075
 74
     0
 49
0.075
 74
     0
 49
-0.075
 74
     0
  0
LTYPE
  5
1F6
330
5
100
AcDbSymbolTableRecord
100
AcDbLinetypeTableRecord
  2
HIDDEN
 70
     0
  3
- - - - - - - - - - - - - - - - - - - -
 72
    65
 73
     2
 40
0.2
 49
0.1
 74
     0
 49
-0.1
 74
     0
  0
LTYPE
  5
1F7
330
5
100
AcDbSymbolTableRecord
100
AcDbLinetypeTableRecord
  2
PHANTOM
 70
     0
  3
_____ _ _ _____ _ _ _____ _ _ _____
 72
    65
 73
     6
 40
0.8
 49
0.45
 74
     0
 49
-0.05
 74
     0
 49
0.1
 74
     0
 49
-0.05
 74
     0
 49
0.1
 74
     0
 49
-0.05
 74
     0
  0
LTYPE
  5
1F8
330
5
100
AcDbSymbolTableRecord
100
AcDbLinetypeTableRecord
  2
DOT
 70
     0
  3
. . . . . . . . . . . . . . . . . . . .
 72
    65
 73
     2
 40
0.2
 49
0.1
 74
     0
 49
-0.1
 74
     0
  0
LTYPE
  5
1F9
330
5
100
AcDbSymbolTableRecord
100
AcDbLinetypeTableRecord
  2
DASHED
 70
     0
  3
- - - - - - - - - - - - - - - - - - - -
 72
    65
 73
     2
 40
0.2
 49
0.1
 74
     0
 49
-0.1
 74
     0
  0
ENDTAB
  0
TABLE
  2
LAYER
  5
2
330
0
100
AcDbSymbolTable
 70
    40
  0
LAYER
  5
10
330
2
100
AcDbSymbolTableRecord
100
AcDbLayerTableRecord
  2
0
 70
     0
 62
     7
  6
CONTINUOUS
370
    -3
390
F
347
4BF
348
0
  0
LAYER
  5
1FA
330
2
100
AcDbSymbolTableRecord
100
AcDbLayerTableRecord
  2
DEFAULT_1
 70
     0
 62
     7
  6
CENTER
370
    -3
390
F
347
4BF
348
0
  0
LAYER
  5
1FB
330
2
100
AcDbSymbolTableRecord
100
AcDbLayerTableRecord
  2
DEFAULT_2
 70
     0
 62
     8
  6
HIDDEN
370
    -3
390
F
347
4BF
348
0
  0
LAYER
  5
1FC
330
2
100
AcDbSymbolTableRecord
100
AcDbLayerTableRecord
  2
DEFAULT_3
 70
     0
 62
     7
  6
PHANTOM
370
    -3
390
F
347
4BF
348
0
  0
LAYER
  5
1FD
330
2
100
AcDbSymbolTableRecord
100
AcDbLayerTableRecord
  2
01_ALL_DTM_PLN
 70
     0
 62
     7
  6
CONTINUOUS
370
    -3
390
F
347
4BF
348
0
  0
LAYER
  5
1FE
330
2
100
AcDbSymbolTableRecord
100
AcDbLayerTableRecord
  2
01__ASM_ALL_DTM_PLN
 70
     0
 62
     7
  6
CONTINUOUS
370
    -3
390
F
347
4BF
348
0
  0
LAYER
  5
1FF
330
2
100
AcDbSymbolTableRecord
100
AcDbLayerTableRecord
  2
01__ASM_DEF_DTM_PLN
 70
     0
 62
     7
  6
CONTINUOUS
370
    -3
390
F
347
4BF
348
0
  0
LAYER
  5
200
330
2
100
AcDbSymbolTableRecord
100
AcDbLayerTableRecord
  2
01___PRT_ALL_DTM_PLN
 70
     0
 62
     7
  6
CONTINUOUS
370
    -3
390
F
347
4BF
348
0
  0
LAYER
  5
201
330
2
100
AcDbSymbolTableRecord
100
AcDbLayerTableRecord
  2
01___PRT_DEF_DTM_PLN
 70
     0
 62
     7
  6
CONTINUOUS
370
    -3
390
F
347
4BF
348
0
  0
LAYER
  5
202
330
2
100
AcDbSymbolTableRecord
100
AcDbLayerTableRecord
  2
02_ALL_AXES
 70
     0
 62
     7
  6
CONTINUOUS
370
    -3
390
F
347
4BF
348
0
  0
LAYER
  5
203
330
2
100
AcDbSymbolTableRecord
100
AcDbLayerTableRecord
  2
02__ASM_ALL_AXES
 70
     0
 62
     7
  6
CONTINUOUS
370
    -3
390
F
347
4BF
348
0
  0
LAYER
  5
204
330
2
100
AcDbSymbolTableRecord
100
AcDbLayerTableRecord
  2
02___PRT_ALL_AXES
 70
     0
 62
     7
  6
CONTINUOUS
370
    -3
390
F
347
4BF
348
0
  0
LAYER
  5
205
330
2
100
AcDbSymbolTableRecord
100
AcDbLayerTableRecord
  2
03_ALL_CURVES
 70
     0
 62
     7
  6
CONTINUOUS
370
    -3
390
F
347
4BF
348
0
  0
LAYER
  5
206
330
2
100
AcDbSymbolTableRecord
100
AcDbLayerTableRecord
  2
03__ASM_ALL_CURVES
 70
     0
 62
     7
  6
CONTINUOUS
370
    -3
390
F
347
4BF
348
0
  0
LAYER
  5
207
330
2
100
AcDbSymbolTableRecord
100
AcDbLayerTableRecord
  2
03___PRT_ALL_CURVES
 70
     0
 62
     7
  6
CONTINUOUS
370
    -3
390
F
347
4BF
348
0
  0
LAYER
  5
208
330
2
100
AcDbSymbolTableRecord
100
AcDbLayerTableRecord
  2
04_ALL_DTM_PNT
 70
     0
 62
     7
  6
CONTINUOUS
370
    -3
390
F
347
4BF
348
0
  0
LAYER
  5
209
330
2
100
AcDbSymbolTableRecord
100
AcDbLayerTableRecord
  2
04__ASM_ALL_DTM_PNT
 70
     0
 62
     7
  6
CONTINUOUS
370
    -3
390
F
347
4BF
348
0
  0
LAYER
  5
20A
330
2
100
AcDbSymbolTableRecord
100
AcDbLayerTableRecord
  2
04___PRT_ALL_DTM_PNT
 70
     0
 62
     7
  6
CONTINUOUS
370
    -3
390
F
347
4BF
348
0
  0
LAYER
  5
20B
330
2
100
AcDbSymbolTableRecord
100
AcDbLayerTableRecord
  2
05_ALL_DTM_CSYS
 70
     0
 62
     7
  6
CONTINUOUS
370
    -3
390
F
347
4BF
348
0
  0
LAYER
  5
20C
330
2
100
AcDbSymbolTableRecord
100
AcDbLayerTableRecord
  2
05__ASM_ALL_DTM_CSYS
 70
     0
 62
     7
  6
CONTINUOUS
370
    -3
390
F
347
4BF
348
0
  0
LAYER
  5
20D
330
2
100
AcDbSymbolTableRecord
100
AcDbLayerTableRecord
  2
05__ASM_DEF_DTM_CSYS
 70
     0
 62
     7
  6
CONTINUOUS
370
    -3
390
F
347
4BF
348
0
  0
LAYER
  5
20E
330
2
100
AcDbSymbolTableRecord
100
AcDbLayerTableRecord
  2
05___PRT_ALL_DTM_CSYS
 70
     0
 62
     7
  6
CONTINUOUS
370
    -3
390
F
347
4BF
348
0
  0
LAYER
  5
20F
330
2
100
AcDbSymbolTableRecord
100
AcDbLayerTableRecord
  2
05___PRT_DEF_DTM_CSYS
 70
     0
 62
     7
  6
CONTINUOUS
370
    -3
390
F
347
4BF
348
0
  0
LAYER
  5
210
330
2
100
AcDbSymbolTableRecord
100
AcDbLayerTableRecord
  2
06_ALL_SURFS
 70
     0
 62
     7
  6
CONTINUOUS
370
    -3
390
F
347
4BF
348
0
  0
LAYER
  5
211
330
2
100
AcDbSymbolTableRecord
100
AcDbLayerTableRecord
  2
06__ASM_ALL_SURFS
 70
     0
 62
     7
  6
CONTINUOUS
370
    -3
390
F
347
4BF
348
0
  0
LAYER
  5
212
330
2
100
AcDbSymbolTableRecord
100
AcDbLayerTableRecord
  2
06___PRT_ALL_SURFS
 70
     0
 62
     7
  6
CONTINUOUS
370
    -3
390
F
347
4BF
348
0
  0
LAYER
  5
213
330
2
100
AcDbSymbolTableRecord
100
AcDbLayerTableRecord
  2
07__ASM_ALL_SKELETONS
 70
     0
 62
     7
  6
CONTINUOUS
370
    -3
390
F
347
4BF
348
0
  0
LAYER
  5
214
330
2
100
AcDbSymbolTableRecord
100
AcDbLayerTableRecord
  2
1_ALL_PLANES
 70
     0
 62
     7
  6
CONTINUOUS
370
    -3
390
F
347
4BF
348
0
  0
LAYER
  5
215
330
2
100
AcDbSymbolTableRecord
100
AcDbLayerTableRecord
  2
2_ALL_CSYS
 70
     0
 62
     7
  6
CONTINUOUS
370
    -3
390
F
347
4BF
348
0
  0
LAYER
  5
216
330
2
100
AcDbSymbolTableRecord
100
AcDbLayerTableRecord
  2
3_ALL_AXES
 70
     0
 62
     7
  6
CONTINUOUS
370
    -3
390
F
347
4BF
348
0
  0
LAYER
  5
217
330
2
100
AcDbSymbolTableRecord
100
AcDbLayerTableRecord
  2
4_ALL_POINTS
 70
     0
 62
     7
  6
CONTINUOUS
370
    -3
390
F
347
4BF
348
0
  0
LAYER
  5
218
330
2
100
AcDbSymbolTableRecord
100
AcDbLayerTableRecord
  2
5_ALL_CURVES
 70
     0
 62
     7
  6
CONTINUOUS
370
    -3
390
F
347
4BF
348
0
  0
LAYER
  5
219
330
2
100
AcDbSymbolTableRecord
100
AcDbLayerTableRecord
  2
6_ALL_SURFS
 70
     0
 62
     7
  6
CONTINUOUS
370
    -3
390
F
347
4BF
348
0
  0
LAYER
  5
21A
330
2
100
AcDbSymbolTableRecord
100
AcDbLayerTableRecord
  2
7_ALL_FEATURES
 70
     0
 62
     7
  6
CONTINUOUS
370
    -3
390
F
347
4BF
348
0
  0
LAYER
  5
21B
330
2
100
AcDbSymbolTableRecord
100
AcDbLayerTableRecord
  2
7_ALL_FEATURES_16
 70
     0
 62
     7
  6
CONTINUOUS
370
    -3
390
F
347
4BF
348
0
  0
LAYER
  5
21C
330
2
100
AcDbSymbolTableRecord
100
AcDbLayerTableRecord
  2
7_ALL_FEATURES_17
 70
     0
 62
     7
  6
CONTINUOUS
370
    -3
390
F
347
4BF
348
0
  0
LAYER
  5
21D
330
2
100
AcDbSymbolTableRecord
100
AcDbLayerTableRecord
  2
7_ALL_FEATURES_6
 70
     0
 62
     7
  6
CONTINUOUS
370
    -3
390
F
347
4BF
348
0
  0
LAYER
  5
21E
330
2
100
AcDbSymbolTableRecord
100
AcDbLayerTableRecord
  2
8_ALL_NOTES_BALLOONS_SYMBOLS_GT
 70
     0
 62
     7
  6
CONTINUOUS
370
    -3
390
F
347
4BF
348
0
  0
LAYER
  5
21F
330
2
100
AcDbSymbolTableRecord
100
AcDbLayerTableRecord
  2
9_SOLID
 70
     0
 62
     7
  6
CONTINUOUS
370
    -3
390
F
347
4BF
348
0
  0
LAYER
  5
220
330
2
100
AcDbSymbolTableRecord
100
AcDbLayerTableRecord
  2
XXX_SOLIDO
 70
     0
 62
     7
  6
CONTINUOUS
370
    -3
390
F
347
4BF
348
0
  0
ENDTAB
  0
TABLE
  2
STYLE
  5
3
330
0
100
AcDbSymbolTable
 70
     3
  0
STYLE
  5
11
330
3
100
AcDbSymbolTableRecord
100
AcDbTextStyleTableRecord
  2
STANDARD
 70
     0
 40
0.0
 41
0.85
 50
0.0
 71
     0
 42
0.2
  3
txt
  4

  0
STYLE
  5
221
330
3
100
AcDbSymbolTableRecord
100
AcDbTextStyleTableRecord
  2
TEXTSTYLE_1
 70
     0
 40
0.0
 41
0.8
 50
0.0
 71
     0
 42
0.2
  3
gdt
  4

  0
STYLE
  5
222
330
3
100
AcDbSymbolTableRecord
100
AcDbTextStyleTableRecord
  2
TEXTSTYLE_2
 70
     0
 40
0.0
 41
0.85
 50
0.0
 71
     0
 42
0.2
  3
gdt
  4

  0
ENDTAB
  0
TABLE
  2
VIEW
  5
6
330
0
100
AcDbSymbolTable
 70
     0
  0
ENDTAB
  0
TABLE
  2
UCS
  5
7
330
0
100
AcDbSymbolTable
 70
     0
  0
ENDTAB
  0
TABLE
  2
APPID
  5
9
330
0
100
AcDbSymbolTable
 70
     6
  0
APPID
  5
223
330
9
100
AcDbSymbolTableRecord
100
AcDbRegAppTableRecord
  2
ACAD
 70
     0
  0
APPID
  5
4C0
330
9
100
AcDbSymbolTableRecord
100
AcDbRegAppTableRecord
  2
MCS_DIM1
 70
     0
  0
APPID
  5
4C1
330
9
100
AcDbSymbolTableRecord
100
AcDbRegAppTableRecord
  2
McsXdata5
 70
     0
  0
APPID
  5
4C4
330
9
100
AcDbSymbolTableRecord
100
AcDbRegAppTableRecord
  2
MCS_DOCUMENT_ID
 70
     0
  0
APPID
  5
4CA
330
9
100
AcDbSymbolTableRecord
100
AcDbRegAppTableRecord
  2
MCS_PARAMS_DATA
 70
     0
  0
APPID
  5
4CC
330
9
100
AcDbSymbolTableRecord
100
AcDbRegAppTableRecord
  2
MC_VERSION_DATA
 70
     0
  0
ENDTAB
  0
TABLE
  2
DIMSTYLE
  5
A
330
0
100
AcDbSymbolTable
 70
     4
100
AcDbDimStyleTable
  0
DIMSTYLE
105
22C
330
A
100
AcDbSymbolTableRecord
100
AcDbDimStyleTableRecord
  2
STANDARD
 70
     0
 41
3.333333
 42
0.75
 44
0.75
 47
0.01
 48
0.01
 71
     1
 73
     0
 74
     0
 77
     1
 78
     8
 79
     2
140
4.0
147
0.625
171
     1
178
     0
179
     2
271
     2
272
     2
278
    44
284
     8
340
11
341
226
342
226
343
226
344
226
  0
DIMSTYLE
105
22D
330
A
100
AcDbSymbolTableRecord
100
AcDbDimStyleTableRecord
  2
DIMSTYLE_1
 70
     0
 41
3.333333
 42
0.75
 44
0.75
 47
1.2
 48
1.2
 73
     0
 74
     0
 77
     1
 78
     8
 79
     2
140
10.666667
147
2.0
171
     1
178
     0
179
     2
271
     2
272
    -1
278
    44
284
     8
340
11
341
226
342
226
343
226
344
226
  0
DIMSTYLE
105
22E
330
A
100
AcDbSymbolTableRecord
100
AcDbDimStyleTableRecord
  2
DIMSTYLE_2
 70
     0
 41
3.333333
 42
0.75
 44
0.75
 47
0.2
 48
0.2
 73
     0
 74
     0
 77
     1
 78
     8
 79
     2
140
10.666667
147
2.0
171
     1
178
     0
179
     2
271
     2
272
     2
278
    44
284
     8
340
11
341
226
342
226
343
226
344
226
  0
DIMSTYLE
105
22F
330
A
100
AcDbSymbolTableRecord
100
AcDbDimStyleTableRecord
  2
DIMSTYLE_3
 70
     0
 41
3.333333
 42
0.75
 44
0.75
 47
0.3
 48
0.3
 73
     0
 74
     0
 77
     1
 78
     8
 79
     2
140
10.666667
147
2.0
171
     1
178
     0
271
     0
272
    -1
278
    44
284
     8
340
11
341
226
342
226
343
226
344
226
  0
ENDTAB
  0
TABLE
  2
BLOCK_RECORD
  5
1
330
0
100
AcDbSymbolTable
 70
     6
  0
BLOCK_RECORD
  5
224
330
1
100
AcDbSymbolTableRecord
100
AcDbBlockTableRecord
  2
*Model_Space
340
47A
 70
     0
280
     1
281
     0
  0
BLOCK_RECORD
  5
225
330
1
100
AcDbSymbolTableRecord
100
AcDbBlockTableRecord
  2
*Paper_Space
340
47B
 70
     0
280
     1
281
     0
  0
BLOCK_RECORD
  5
226
330
1
100
AcDbSymbolTableRecord
100
AcDbBlockTableRecord
  2
_CLOSED
340
0
102
{BLKREFS
331
278
331
279
331
283
331
284
331
28E
331
28F
102
}
 70
     0
280
     1
281
     0
  0
BLOCK_RECORD
  5
227
330
1
100
AcDbSymbolTableRecord
100
AcDbBlockTableRecord
  2
*D1
340
0
 70
     0
280
     1
281
     0
  0
BLOCK_RECORD
  5
228
330
1
100
AcDbSymbolTableRecord
100
AcDbBlockTableRecord
  2
*D2
340
0
 70
     0
280
     1
281
     0
  0
BLOCK_RECORD
  5
229
330
1
100
AcDbSymbolTableRecord
100
AcDbBlockTableRecord
  2
*D3
340
0
 70
     0
280
     1
281
     0
  0
BLOCK_RECORD
  5
22A
330
1
100
AcDbSymbolTableRecord
100
AcDbBlockTableRecord
  2
LOGO2_BL0
340
0
102
{BLKREFS
331
477
102
}
 70
     0
280
     1
281
     0
  0
BLOCK_RECORD
  5
22B
330
1
100
AcDbSymbolTableRecord
100
AcDbBlockTableRecord
  2
*T5
340
0
102
{BLKREFS
331
478
102
}
 70
     0
280
     1
281
     0
  0
ENDTAB
  0
ENDSEC
  0
SECTION
  2
BLOCKS
  0
BLOCK
  5
20
330
224
100
AcDbEntity
  8
0
100
AcDbBlockBegin
  2
*Model_Space
 70
     0
 10
0.0
 20
0.0
 30
0.0
  3
*Model_Space
  1
*Model_Space
  0
ENDBLK
  5
21
330
224
100
AcDbEntity
  8
0
100
AcDbBlockEnd
  0
BLOCK
  5
1C
330
225
100
AcDbEntity
 67
     1
  8
0
100
AcDbBlockBegin
  2
*Paper_Space
 70
     0
 10
0.0
 20
0.0
 30
0.0
  3
*Paper_Space
  1
*Paper_Space
  0
ENDBLK
  5
1D
330
225
100
AcDbEntity
 67
     1
  8
0
100
AcDbBlockEnd
  0
BLOCK
  5
26C
330
226
100
AcDbEntity
  8
0
100
AcDbBlockBegin
  2
_CLOSED
 70
     0
 10
0.0
 20
0.0
 30
0.0
  3
_CLOSED
  1
_CLOSED
  0
LINE
  5
26D
330
226
100
AcDbEntity
  8
0
  6
ByBlock
 62
     0
100
AcDbLine
 10
0.0
 20
0.0
 30
0.0
 11
-1.0
 21
0.2
 31
0.0
  0
LINE
  5
26E
330
226
100
AcDbEntity
  8
0
  6
ByBlock
 62
     0
100
AcDbLine
 10
-1.0
 20
0.2
 30
0.0
 11
-1.0
 21
-0.2
 31
0.0
  0
LINE
  5
26F
330
226
100
AcDbEntity
  8
0
  6
ByBlock
 62
     0
100
AcDbLine
 10
-1.0
 20
-0.2
 30
0.0
 11
0.0
 21
0.0
 31
0.0
  0
LINE
  5
270
330
226
100
AcDbEntity
  8
0
  6
ByBlock
 62
     0
100
AcDbLine
 10
-1.0
 20
0.0
 30
0.0
 11
0.0
 21
0.0
 31
0.0
  0
ENDBLK
  5
271
330
226
100
AcDbEntity
  8
0
  6
ByBlock
 62
     0
100
AcDbBlockEnd
  0
BLOCK
  5
272
330
227
100
AcDbEntity
  8
0
100
AcDbBlockBegin
  2
*D1
 70
     1
 10
0.0
 20
0.0
 30
0.0
  3
*D1
  1
*D1
  0
MTEXT
  5
273
330
227
100
AcDbEntity
  8
0
  6
Continuous
 62
     2
100
AcDbMText
 10
674.573239
 20
791.100526
 30
0.0
 40
10.666667
 41
46.857143
 46
0.0
 71
     2
 72
     1
  1
1208
 73
     1
 44
0.9
  0
LINE
  5
274
330
227
100
AcDbEntity
  8
0
  6
Continuous
 62
     2
100
AcDbLine
 10
1278.573239
 20
758.04584
 30
0.0
 11
1278.573239
 21
778.767193
 31
0.0
  0
LINE
  5
275
330
227
100
AcDbEntity
  8
0
  6
Continuous
 62
     2
100
AcDbLine
 10
70.573239
 20
756.029208
 30
0.0
 11
70.573239
 21
778.767193
 31
0.0
  0
LINE
  5
276
330
227
100
AcDbEntity
  8
0
  6
Continuous
 62
     2
100
AcDbLine
 10
1278.573239
 20
777.767193
 30
0.0
 11
674.573239
 21
777.767193
 31
0.0
  0
LINE
  5
277
330
227
100
AcDbEntity
  8
0
  6
Continuous
 62
     2
100
AcDbLine
 10
70.573239
 20
777.767193
 30
0.0
 11
674.573239
 21
777.767193
 31
0.0
  0
INSERT
  5
278
330
227
100
AcDbEntity
  8
0
  6
Continuous
 62
     2
100
AcDbBlockReference
  2
_CLOSED
 10
1278.573239
 20
777.767193
 30
0.0
 41
3.333333
 42
3.333333
 43
3.333333
  0
INSERT
  5
279
330
227
100
AcDbEntity
  8
0
  6
Continuous
 62
     2
100
AcDbBlockReference
  2
_CLOSED
 10
70.573239
 20
777.767193
 30
0.0
 41
3.333333
 42
3.333333
 43
3.333333
 50
180.0
  0
ENDBLK
  5
27A
330
227
100
AcDbEntity
  8
0
  6
ByBlock
 62
     0
100
AcDbBlockEnd
  0
BLOCK
  5
27B
330
228
100
AcDbEntity
  8
0
100
AcDbBlockBegin
  2
*D2
 70
     1
 10
0.0
 20
0.0
 30
0.0
  3
*D2
  1
*D2
  0
MTEXT
  5
27C
330
228
100
AcDbEntity
  8
0
  6
Continuous
 62
     2
100
AcDbMText
 10
1325.854063
 20
694.514138
 30
0.0
 40
10.666667
 41
45.333333
 46
0.0
 71
     3
 72
     1
  1
{\Fgdt;n}\Ftxt;25
  7
TEXTSTYLE_2
 11
0.0
 21
1.0
 31
0.0
 73
     1
 44
0.9
  0
LINE
  5
27D
330
228
100
AcDbEntity
  8
0
  6
Continuous
 62
     2
100
AcDbLine
 10
1304.987354
 20
730.855124
 30
0.0
 11
1340.187396
 21
730.855124
 31
0.0
  0
LINE
  5
27E
330
228
100
AcDbEntity
  8
0
  6
Continuous
 62
     2
100
AcDbLine
 10
1303.950789
 20
705.855124
 30
0.0
 11
1340.187396
 21
705.855124
 31
0.0
  0
LINE
  5
27F
330
228
100
AcDbEntity
  8
0
  6
Continuous
 62
     2
100
AcDbLine
 10
1339.187396
 20
730.855124
 30
0.0
 11
1339.187396
 21
732.188457
 31
0.0
  0
LINE
  5
280
330
228
100
AcDbEntity
  8
0
  6
Continuous
 62
     2
100
AcDbLine
 10
1339.187396
 20
732.188457
 30
0.0
 11
1339.187396
 21
718.355124
 31
0.0
  0
LINE
  5
281
330
228
100
AcDbEntity
  8
0
  6
Continuous
 62
     2
100
AcDbLine
 10
1339.187396
 20
705.855124
 30
0.0
 11
1339.187396
 21
664.291916
 31
0.0
  0
LINE
  5
282
330
228
100
AcDbEntity
  8
0
  6
Continuous
 62
     2
100
AcDbLine
 10
1339.187396
 20
664.291916
 30
0.0
 11
1339.187396
 21
718.355124
 31
0.0
  0
INSERT
  5
283
330
228
100
AcDbEntity
  8
0
  6
Continuous
 62
     2
100
AcDbBlockReference
  2
_CLOSED
 10
1339.187396
 20
730.855124
 30
0.0
 41
3.333333
 42
3.333333
 43
3.333333
 50
270.0
  0
INSERT
  5
284
330
228
100
AcDbEntity
  8
0
  6
Continuous
 62
     2
100
AcDbBlockReference
  2
_CLOSED
 10
1339.187396
 20
705.855124
 30
0.0
 41
3.333333
 42
3.333333
 43
3.333333
 50
90.0
  0
ENDBLK
  5
285
330
228
100
AcDbEntity
  8
0
  6
ByBlock
 62
     0
100
AcDbBlockEnd
  0
BLOCK
  5
286
330
229
100
AcDbEntity
  8
0
100
AcDbBlockBegin
  2
*D3
 70
     1
 10
0.0
 20
0.0
 30
0.0
  3
*D3
  1
*D3
  0
MTEXT
  5
287
330
229
100
AcDbEntity
  8
0
  6
Continuous
 62
     2
100
AcDbMText
 10
1430.928074
 20
917.822722
 30
0.0
 40
10.666667
 41
25.142857
 46
0.0
 71
     2
 72
     1
  1
40
 73
     1
 44
0.9
  0
LINE
  5
288
330
229
100
AcDbEntity
  8
0
  6
Continuous
 62
     2
100
AcDbLine
 10
1411.328074
 20
923.305048
 30
0.0
 11
1411.328074
 21
907.156055
 31
0.0
  0
LINE
  5
289
330
229
100
AcDbEntity
  8
0
  6
Continuous
 62
     2
100
AcDbLine
 10
1411.328074
 20
907.156055
 30
0.0
 11
1411.328074
 21
903.489388
 31
0.0
  0
LINE
  5
28A
330
229
100
AcDbEntity
  8
0
  6
Continuous
 62
     2
100
AcDbLine
 10
1450.528074
 20
923.566124
 30
0.0
 11
1450.528074
 21
907.156055
 31
0.0
  0
LINE
  5
28B
330
229
100
AcDbEntity
  8
0
  6
Continuous
 62
     2
100
AcDbLine
 10
1450.528074
 20
907.156055
 30
0.0
 11
1450.528074
 21
903.489388
 31
0.0
  0
LINE
  5
28C
330
229
100
AcDbEntity
  8
0
  6
Continuous
 62
     2
100
AcDbLine
 10
1411.328074
 20
904.489388
 30
0.0
 11
1430.928074
 21
904.489388
 31
0.0
  0
LINE
  5
28D
330
229
100
AcDbEntity
  8
0
  6
Continuous
 62
     2
100
AcDbLine
 10
1450.528074
 20
904.489388
 30
0.0
 11
1430.928074
 21
904.489388
 31
0.0
  0
INSERT
  5
28E
330
229
100
AcDbEntity
  8
0
  6
Continuous
 62
     2
100
AcDbBlockReference
  2
_CLOSED
 10
1411.328074
 20
904.489388
 30
0.0
 41
3.333333
 42
3.333333
 43
3.333333
 50
180.0
  0
INSERT
  5
28F
330
229
100
AcDbEntity
  8
0
  6
Continuous
 62
     2
100
AcDbBlockReference
  2
_CLOSED
 10
1450.528074
 20
904.489388
 30
0.0
 41
3.333333
 42
3.333333
 43
3.333333
  0
ENDBLK
  5
290
330
229
100
AcDbEntity
  8
0
  6
ByBlock
 62
     0
100
AcDbBlockEnd
  0
BLOCK
  5
230
330
22A
100
AcDbEntity
  8
0
100
AcDbBlockBegin
  2
LOGO2_BL0
 70
     0
 10
1470.408888
 20
48.692739
 30
0.0
  3
LOGO2_BL0
  1
LOGO2_BL0
  0
LINE
  5
231
330
22A
100
AcDbEntity
  8
0
  6
Continuous
 62
     7
100
AcDbLine
 10
1459.399455
 20
52.953394
 30
0.0
 11
1457.660334
 21
52.953394
 31
0.0
  0
LINE
  5
232
330
22A
100
AcDbEntity
  8
0
  6
Continuous
 62
     7
100
AcDbLine
 10
1457.660334
 20
52.953394
 30
0.0
 11
1457.660334
 21
39.007973
 31
0.0
  0
LINE
  5
233
330
22A
100
AcDbEntity
  8
0
  6
Continuous
 62
     7
100
AcDbLine
 10
1457.660334
 20
39.007973
 30
0.0
 11
1463.635074
 21
39.007973
 31
0.0
  0
LINE
  5
234
330
22A
100
AcDbEntity
  8
0
  6
Continuous
 62
     7
100
AcDbLine
 10
1463.635074
 20
39.007973
 30
0.0
 11
1463.635074
 21
40.598445
 31
0.0
  0
LINE
  5
235
330
22A
100
AcDbEntity
  8
0
  6
Continuous
 62
     7
100
AcDbLine
 10
1463.635074
 20
40.598445
 30
0.0
 11
1459.399455
 21
40.598445
 31
0.0
  0
LINE
  5
236
330
22A
100
AcDbEntity
  8
0
  6
Continuous
 62
     7
100
AcDbLine
 10
1459.399455
 20
40.598445
 30
0.0
 11
1459.399455
 21
52.953394
 31
0.0
  0
LINE
  5
237
330
22A
100
AcDbEntity
  8
0
  6
Continuous
 62
     7
100
AcDbLine
 10
1479.314557
 20
52.953394
 30
0.0
 11
1477.576133
 21
52.953394
 31
0.0
  0
LINE
  5
238
330
22A
100
AcDbEntity
  8
0
  6
Continuous
 62
     7
100
AcDbLine
 10
1477.576133
 20
52.953394
 30
0.0
 11
1477.576133
 21
39.007973
 31
0.0
  0
LINE
  5
239
330
22A
100
AcDbEntity
  8
0
  6
Continuous
 62
     7
100
AcDbLine
 10
1477.576133
 20
39.007973
 30
0.0
 11
1483.551048
 21
39.007973
 31
0.0
  0
LINE
  5
23A
330
22A
100
AcDbEntity
  8
0
  6
Continuous
 62
     7
100
AcDbLine
 10
1483.551048
 20
39.007973
 30
0.0
 11
1483.551048
 21
40.598445
 31
0.0
  0
LINE
  5
23B
330
22A
100
AcDbEntity
  8
0
  6
Continuous
 62
     7
100
AcDbLine
 10
1483.551048
 20
40.598445
 30
0.0
 11
1479.314557
 21
40.598445
 31
0.0
  0
LINE
  5
23C
330
22A
100
AcDbEntity
  8
0
  6
Continuous
 62
     7
100
AcDbLine
 10
1479.314557
 20
40.598445
 30
0.0
 11
1479.314557
 21
52.953394
 31
0.0
  0
LWPOLYLINE
  5
23D
330
22A
100
AcDbEntity
  8
0
  6
Continuous
 62
     7
100
AcDbPolyline
 90
        2
 70
     0
 43
0.266667
 10
1455.466194
 20
34.549905
 10
1455.466194
 20
32.07382
  0
LWPOLYLINE
  5
23E
330
22A
100
AcDbEntity
  8
0
  6
Continuous
 62
     7
100
AcDbPolyline
 90
        2
 70
     0
 43
0.266667
 10
1455.466194
 20
32.07382
 10
1456.527148
 20
32.07382
  0
LWPOLYLINE
  5
23F
330
22A
100
AcDbEntity
  8
0
  6
Continuous
 62
     7
100
AcDbPolyline
 90
        2
 70
     0
 43
0.266667
 10
1456.527148
 20
32.07382
 10
1456.527148
 20
32.356462
  0
LWPOLYLINE
  5
240
330
22A
100
AcDbEntity
  8
0
  6
Continuous
 62
     7
100
AcDbPolyline
 90
        2
 70
     0
 43
0.266667
 10
1456.527148
 20
32.356462
 10
1455.775006
 20
32.356462
  0
LWPOLYLINE
  5
241
330
22A
100
AcDbEntity
  8
0
  6
Continuous
 62
     7
100
AcDbPolyline
 90
        2
 70
     0
 43
0.266667
 10
1455.775006
 20
32.356462
 10
1455.775006
 20
34.549905
  0
LWPOLYLINE
  5
242
330
22A
100
AcDbEntity
  8
0
  6
Continuous
 62
     7
100
AcDbPolyline
 90
        2
 70
     0
 43
0.266667
 10
1455.775006
 20
34.549905
 10
1455.466194
 20
34.549905
  0
SPLINE
  5
243
330
22A
100
AcDbEntity
  8
0
  6
Continuous
 62
     7
100
AcDbSpline
 70
     3
 71
     3
 72
    35
 73
    31
 74
     0
 42
0.000000001
 43
0.0000001
 40
0.0
 40
0.0
 40
0.0
 40
0.0
 40
1.0
 40
1.0
 40
1.0
 40
2.0
 40
2.0
 40
2.0
 40
3.0
 40
3.0
 40
3.0
 40
4.0
 40
4.0
 40
4.0
 40
5.0
 40
5.0
 40
5.0
 40
6.0
 40
6.0
 40
6.0
 40
7.0
 40
7.0
 40
7.0
 40
8.0
 40
8.0
 40
8.0
 40
9.0
 40
9.0
 40
9.0
 40
10.0
 40
10.0
 40
10.0
 40
10.0
 10
1458.3915393434
 20
33.6105557611
 30
0.0
 10
1458.3915393434
 20
33.6105557611
 30
0.0
 10
1458.3915393434
 20
32.7277353889
 30
0.0
 10
1458.3915393434
 20
32.7277353889
 30
0.0
 10
1458.3915393434
 20
32.3076105952
 30
0.0
 10
1458.5886909285
 20
32.0214790912
 30
0.0
 10
1459.0421395742
 20
32.0214790912
 30
0.0
 10
1459.4948903382
 20
32.0214790912
 30
0.0
 10
1459.6923908642
 20
32.3076105952
 30
0.0
 10
1459.6923908642
 20
32.7277353889
 30
0.0
 10
1459.6923908642
 20
32.7277353889
 30
0.0
 10
1459.6923908642
 20
33.6105557611
 30
0.0
 10
1459.6923908642
 20
33.6105557611
 30
0.0
 10
1459.6923908642
 20
33.6105557611
 30
0.0
 10
1459.3963145456
 20
33.6105557611
 30
0.0
 10
1459.3963145456
 20
33.6105557611
 30
0.0
 10
1459.3963145456
 20
33.6105557611
 30
0.0
 10
1459.3963145456
 20
32.7612337114
 30
0.0
 10
1459.3963145456
 20
32.7612337114
 30
0.0
 10
1459.3963145456
 20
32.5134857018
 30
0.0
 10
1459.3340286024
 20
32.2964444877
 30
0.0
 10
1459.0421395742
 20
32.2964444877
 30
0.0
 10
1458.7495526643
 20
32.2964444877
 30
0.0
 10
1458.687266721
 20
32.5134857018
 30
0.0
 10
1458.687266721
 20
32.7612337114
 30
0.0
 10
1458.687266721
 20
32.7612337114
 30
0.0
 10
1458.687266721
 20
33.6105557611
 30
0.0
 10
1458.687266721
 20
33.6105557611
 30
0.0
 10
1458.687266721
 20
33.6105557611
 30
0.0
 10
1458.3915393434
 20
33.6105557611
 30
0.0
 10
1458.3915393434
 20
33.6105557611
 30
0.0
  0
SPLINE
  5
244
330
22A
100
AcDbEntity
  8
0
  6
Continuous
 62
     7
100
AcDbSpline
 70
     3
 71
     3
 72
    35
 73
    31
 74
     0
 42
0.000000001
 43
0.0000001
 40
0.0
 40
0.0
 40
0.0
 40
0.0
 40
1.0
 40
1.0
 40
1.0
 40
2.0
 40
2.0
 40
2.0
 40
3.0
 40
3.0
 40
3.0
 40
4.0
 40
4.0
 40
4.0
 40
5.0
 40
5.0
 40
5.0
 40
6.0
 40
6.0
 40
6.0
 40
7.0
 40
7.0
 40
7.0
 40
8.0
 40
8.0
 40
8.0
 40
9.0
 40
9.0
 40
9.0
 40
10.0
 40
10.0
 40
10.0
 40
10.0
 10
1462.9232342737
 20
33.5554231055
 30
0.0
 10
1462.8052922635
 20
33.6238155138
 30
0.0
 10
1462.6540264014
 20
33.6573138362
 30
0.0
 10
1462.5158458214
 20
33.6573138362
 30
0.0
 10
1462.0426820171
 20
33.6573138362
 30
0.0
 10
1461.6754217635
 20
33.3055814507
 30
0.0
 10
1461.6754217635
 20
32.8289282379
 30
0.0
 10
1461.6754217635
 20
32.3690241863
 30
0.0
 10
1462.046694837
 20
32.0221769729
 30
0.0
 10
1462.499445601
 20
32.0221769729
 30
0.0
 10
1462.6540264014
 20
32.0221769729
 30
0.0
 10
1462.7883686319
 20
32.051488005
 30
0.0
 10
1462.9232342737
 20
32.1233698219
 30
0.0
 10
1462.9232342737
 20
32.1233698219
 30
0.0
 10
1462.9232342737
 20
32.5002259491
 30
0.0
 10
1462.9232342737
 20
32.5002259491
 30
0.0
 10
1462.8113987286
 20
32.3760030035
 30
0.0
 10
1462.673392619
 20
32.2971423694
 30
0.0
 10
1462.5025860687
 20
32.2971423694
 30
0.0
 10
1462.190981882
 20
32.2971423694
 30
0.0
 10
1461.9706257298
 20
32.5267454544
 30
0.0
 10
1461.9706257298
 20
32.8421879906
 30
0.0
 10
1461.9706257298
 20
33.124830086
 30
0.0
 10
1462.1942968202
 20
33.3809526762
 30
0.0
 10
1462.4833943215
 20
33.3809526762
 30
0.0
 10
1462.6604818072
 20
33.3809526762
 30
0.0
 10
1462.8052922635
 20
33.3090708593
 30
0.0
 10
1462.9232342737
 20
33.1743796879
 30
0.0
 10
1462.9232342737
 20
33.1743796879
 30
0.0
 10
1462.9232342737
 20
33.5554231055
 30
0.0
 10
1462.9232342737
 20
33.5554231055
 30
0.0
  0
SPLINE
  5
245
330
22A
100
AcDbEntity
  8
0
  6
Continuous
 62
     7
100
AcDbSpline
 70
     3
 71
     3
 72
    32
 73
    28
 74
     0
 42
0.000000001
 43
0.0000001
 40
0.0
 40
0.0
 40
0.0
 40
0.0
 40
1.0
 40
1.0
 40
1.0
 40
2.0
 40
2.0
 40
2.0
 40
3.0
 40
3.0
 40
3.0
 40
4.0
 40
4.0
 40
4.0
 40
5.0
 40
5.0
 40
5.0
 40
6.0
 40
6.0
 40
6.0
 40
7.0
 40
7.0
 40
7.0
 40
8.0
 40
8.0
 40
8.0
 40
9.0
 40
9.0
 40
9.0
 40
9.0
 10
1466.2990626101
 20
32.7933362703
 30
0.0
 10
1466.2990626101
 20
32.7933362703
 30
0.0
 10
1466.2990626101
 20
32.838698582
 30
0.0
 10
1466.2990626101
 20
32.838698582
 30
0.0
 10
1466.2990626101
 20
33.295113225
 30
0.0
 10
1466.068587173
 20
33.6573138362
 30
0.0
 10
1465.5797210301
 20
33.6573138362
 30
0.0
 10
1465.0842250109
 20
33.6573138362
 30
0.0
 10
1464.8312428885
 20
33.3020920422
 30
0.0
 10
1464.8312428885
 20
32.8289282379
 30
0.0
 10
1464.8312428885
 20
32.3760030035
 30
0.0
 10
1465.1166765108
 20
32.0214790912
 30
0.0
 10
1465.586176436
 20
32.0214790912
 30
0.0
 10
1465.8848698109
 20
32.0214790912
 30
0.0
 10
1466.1544266242
 20
32.1757109507
 30
0.0
 10
1466.2990626101
 20
32.4416038849
 30
0.0
 10
1466.2990626101
 20
32.4416038849
 30
0.0
 10
1466.0488720145
 20
32.5839717552
 30
0.0
 10
1466.0488720145
 20
32.5839717552
 30
0.0
 10
1465.9375598806
 20
32.3990331002
 30
0.0
 10
1465.8159539914
 20
32.2845804985
 30
0.0
 10
1465.589840315
 20
32.2845804985
 30
0.0
 10
1465.3071982196
 20
32.2845804985
 30
0.0
 10
1465.1299362634
 20
32.5309327447
 30
0.0
 10
1465.1267957957
 20
32.7933362703
 30
0.0
 10
1465.1267957957
 20
32.7933362703
 30
0.0
 10
1466.2990626101
 20
32.7933362703
 30
0.0
 10
1466.2990626101
 20
32.7933362703
 30
0.0
  0
SPLINE
  5
246
330
22A
100
AcDbEntity
  8
0
  6
Continuous
 62
     7
100
AcDbSpline
 70
     3
 71
     3
 72
    14
 73
    10
 74
     0
 42
0.000000001
 43
0.0000001
 40
0.0
 40
0.0
 40
0.0
 40
0.0
 40
1.0
 40
1.0
 40
1.0
 40
2.0
 40
2.0
 40
2.0
 40
3.0
 40
3.0
 40
3.0
 40
3.0
 10
1465.1428470752
 20
33.0166584198
 30
0.0
 10
1465.1796603358
 20
33.2364911607
 30
0.0
 10
1465.3501179452
 20
33.4004933643
 30
0.0
 10
1465.5797210301
 20
33.4004933643
 30
0.0
 10
1465.8159539914
 20
33.4004933643
 30
0.0
 10
1465.9672198536
 20
33.2462615048
 30
0.0
 10
1466.0035097029
 20
33.0166584198
 30
0.0
 10
1466.0035097029
 20
33.0166584198
 30
0.0
 10
1465.1428470752
 20
33.0166584198
 30
0.0
 10
1465.1428470752
 20
33.0166584198
 30
0.0
  0
SPLINE
  5
247
330
22A
100
AcDbEntity
  8
0
  6
Continuous
 62
     7
100
AcDbSpline
 70
     3
 71
     3
 72
    20
 73
    16
 74
     0
 42
0.000000001
 43
0.0000001
 40
0.0
 40
0.0
 40
0.0
 40
0.0
 40
1.0
 40
1.0
 40
1.0
 40
2.0
 40
2.0
 40
2.0
 40
3.0
 40
3.0
 40
3.0
 40
4.0
 40
4.0
 40
4.0
 40
5.0
 40
5.0
 40
5.0
 40
5.0
 10
1468.9977712103
 20
33.2958111067
 30
0.0
 10
1468.9977712103
 20
33.2958111067
 30
0.0
 10
1469.5459572992
 20
32.6258446582
 30
0.0
 10
1469.5459572992
 20
32.6258446582
 30
0.0
 10
1469.3912020284
 20
32.4716127987
 30
0.0
 10
1469.2074846663
 20
32.2978402512
 30
0.0
 10
1468.9782305223
 20
32.2978402512
 30
0.0
 10
1468.7416486201
 20
32.2978402512
 30
0.0
 10
1468.5183264706
 20
32.5169751104
 30
0.0
 10
1468.5183264706
 20
32.7528591308
 30
0.0
 10
1468.5183264706
 20
32.9901389146
 30
0.0
 10
1468.7980025688
 20
33.1583284084
 30
0.0
 10
1468.9681112374
 20
33.2755725369
 30
0.0
 10
1468.9681112374
 20
33.2755725369
 30
0.0
 10
1468.9977712103
 20
33.2958111067
 30
0.0
 10
1468.9977712103
 20
33.2958111067
 30
0.0
  0
SPLINE
  5
248
330
22A
100
AcDbEntity
  8
0
  6
Continuous
 62
     7
100
AcDbSpline
 70
     3
 71
     3
 72
    23
 73
    19
 74
     0
 42
0.000000001
 43
0.0000001
 40
0.0
 40
0.0
 40
0.0
 40
0.0
 40
1.0
 40
1.0
 40
1.0
 40
2.0
 40
2.0
 40
2.0
 40
3.0
 40
3.0
 40
3.0
 40
4.0
 40
4.0
 40
4.0
 40
5.0
 40
5.0
 40
5.0
 40
6.0
 40
6.0
 40
6.0
 40
6.0
 10
1469.0635465622
 20
33.6838333414
 30
0.0
 10
1469.0635465622
 20
33.6838333414
 30
0.0
 10
1468.98137099
 20
33.788515599
 30
0.0
 10
1468.98137099
 20
33.788515599
 30
0.0
 10
1468.9094891731
 20
33.879938104
 30
0.0
 10
1468.8337690068
 20
33.9720584906
 30
0.0
 10
1468.8337690068
 20
34.096979318
 30
0.0
 10
1468.8337690068
 20
34.2553984678
 30
0.0
 10
1468.9616558315
 20
34.3586849619
 30
0.0
 10
1469.1096067555
 20
34.3586849619
 30
0.0
 10
1469.2739578999
 20
34.3586849619
 30
0.0
 10
1469.398355316
 20
34.2637730484
 30
0.0
 10
1469.398355316
 20
34.0900005008
 30
0.0
 10
1469.398355316
 20
33.9099470178
 30
0.0
 10
1469.2275487657
 20
33.8080562871
 30
0.0
 10
1469.1028024088
 20
33.709654965
 30
0.0
 10
1469.1028024088
 20
33.709654965
 30
0.0
 10
1469.0635465622
 20
33.6838333414
 30
0.0
 10
1469.0635465622
 20
33.6838333414
 30
0.0
  0
SPLINE
  5
249
330
22A
100
AcDbEntity
  8
0
  6
Continuous
 62
     7
100
AcDbSpline
 70
     3
 71
     3
 72
    50
 73
    46
 74
     0
 42
0.000000001
 43
0.0000001
 40
0.0
 40
0.0
 40
0.0
 40
0.0
 40
1.0
 40
1.0
 40
1.0
 40
2.0
 40
2.0
 40
2.0
 40
3.0
 40
3.0
 40
3.0
 40
4.0
 40
4.0
 40
4.0
 40
5.0
 40
5.0
 40
5.0
 40
6.0
 40
6.0
 40
6.0
 40
7.0
 40
7.0
 40
7.0
 40
8.0
 40
8.0
 40
8.0
 40
9.0
 40
9.0
 40
9.0
 40
10.0
 40
10.0
 40
10.0
 40
11.0
 40
11.0
 40
11.0
 40
12.0
 40
12.0
 40
12.0
 40
13.0
 40
13.0
 40
13.0
 40
14.0
 40
14.0
 40
14.0
 40
15.0
 40
15.0
 40
15.0
 40
15.0
 10
1469.9997548857
 20
32.0745181017
 30
0.0
 10
1469.9997548857
 20
32.0745181017
 30
0.0
 10
1470.380274892
 20
32.0745181017
 30
0.0
 10
1470.380274892
 20
32.0745181017
 30
0.0
 10
1470.380274892
 20
32.0745181017
 30
0.0
 10
1469.9371200016
 20
32.6223552496
 30
0.0
 10
1469.9371200016
 20
32.6223552496
 30
0.0
 10
1469.9371200016
 20
32.6223552496
 30
0.0
 10
1470.2391283147
 20
32.976879162
 30
0.0
 10
1470.2391283147
 20
32.976879162
 30
0.0
 10
1470.2391283147
 20
32.976879162
 30
0.0
 10
1470.0414533184
 20
33.1806606234
 30
0.0
 10
1470.0414533184
 20
33.1806606234
 30
0.0
 10
1470.0414533184
 20
33.1806606234
 30
0.0
 10
1469.75357711
 20
32.8456773991
 30
0.0
 10
1469.75357711
 20
32.8456773991
 30
0.0
 10
1469.75357711
 20
32.8456773991
 30
0.0
 10
1469.2374935802
 20
33.4695836543
 30
0.0
 10
1469.2374935802
 20
33.4695836543
 30
0.0
 10
1469.4447644502
 20
33.6217218686
 30
0.0
 10
1469.6878017582
 20
33.8080562871
 30
0.0
 10
1469.6878017582
 20
34.087208974
 30
0.0
 10
1469.6878017582
 20
34.4124218542
 30
0.0
 10
1469.4184194154
 20
34.6036414447
 30
0.0
 10
1469.1164111023
 20
34.6036414447
 30
0.0
 10
1468.7908492812
 20
34.6036414447
 30
0.0
 10
1468.5450204463
 20
34.4026515101
 30
0.0
 10
1468.5450204463
 20
34.0606894687
 30
0.0
 10
1468.5450204463
 20
33.8506270718
 30
0.0
 10
1468.67657115
 20
33.6670841802
 30
0.0
 10
1468.8170198456
 20
33.5191332562
 30
0.0
 10
1468.8170198456
 20
33.5191332562
 30
0.0
 10
1468.6629624565
 20
33.4074721815
 30
0.0
 10
1468.6629624565
 20
33.4074721815
 30
0.0
 10
1468.4260316136
 20
33.2364911607
 30
0.0
 10
1468.2295779102
 20
33.0662080218
 30
0.0
 10
1468.2295779102
 20
32.7500676039
 30
0.0
 10
1468.2295779102
 20
32.322963993
 30
0.0
 10
1468.5743314785
 20
32.0214790912
 30
0.0
 10
1468.9881753367
 20
32.0214790912
 30
0.0
 10
1469.2800643649
 20
32.0214790912
 30
0.0
 10
1469.5429913019
 20
32.1882728216
 30
0.0
 10
1469.7300236021
 20
32.4095013259
 30
0.0
 10
1469.7300236021
 20
32.4095013259
 30
0.0
 10
1469.9997548857
 20
32.0745181017
 30
0.0
 10
1469.9997548857
 20
32.0745181017
 30
0.0
  0
LWPOLYLINE
  5
24A
330
22A
100
AcDbEntity
  8
0
  6
Continuous
 62
     7
100
AcDbPolyline
 90
        2
 70
     0
 43
0.266667
 10
1472.580347
 20
34.549905
 10
1472.271883
 20
34.549905
  0
LWPOLYLINE
  5
24B
330
22A
100
AcDbEntity
  8
0
  6
Continuous
 62
     7
100
AcDbPolyline
 90
        2
 70
     0
 43
0.266667
 10
1472.271883
 20
34.549905
 10
1472.271883
 20
32.07382
  0
LWPOLYLINE
  5
24C
330
22A
100
AcDbEntity
  8
0
  6
Continuous
 62
     7
100
AcDbPolyline
 90
        2
 70
     0
 43
0.266667
 10
1472.271883
 20
32.07382
 10
1473.332315
 20
32.07382
  0
LWPOLYLINE
  5
24D
330
22A
100
AcDbEntity
  8
0
  6
Continuous
 62
     7
100
AcDbPolyline
 90
        2
 70
     0
 43
0.266667
 10
1473.332315
 20
32.07382
 10
1473.332315
 20
32.356462
  0
LWPOLYLINE
  5
24E
330
22A
100
AcDbEntity
  8
0
  6
Continuous
 62
     7
100
AcDbPolyline
 90
        2
 70
     0
 43
0.266667
 10
1473.332315
 20
32.356462
 10
1472.580347
 20
32.356462
  0
LWPOLYLINE
  5
24F
330
22A
100
AcDbEntity
  8
0
  6
Continuous
 62
     7
100
AcDbPolyline
 90
        2
 70
     0
 43
0.266667
 10
1472.580347
 20
32.356462
 10
1472.580347
 20
34.549905
  0
LWPOLYLINE
  5
250
330
22A
100
AcDbEntity
  8
0
  6
Continuous
 62
     7
100
AcDbPolyline
 90
        2
 70
     0
 43
0.266667
 10
1475.571119
 20
33.610556
 10
1475.276264
 20
33.610556
  0
LWPOLYLINE
  5
251
330
22A
100
AcDbEntity
  8
0
  6
Continuous
 62
     7
100
AcDbPolyline
 90
        2
 70
     0
 43
0.266667
 10
1475.276264
 20
33.610556
 10
1475.276264
 20
32.074518
  0
LWPOLYLINE
  5
252
330
22A
100
AcDbEntity
  8
0
  6
Continuous
 62
     7
100
AcDbPolyline
 90
        2
 70
     0
 43
0.266667
 10
1475.276264
 20
32.074518
 10
1475.571119
 20
32.074518
  0
LWPOLYLINE
  5
253
330
22A
100
AcDbEntity
  8
0
  6
Continuous
 62
     7
100
AcDbPolyline
 90
        2
 70
     0
 43
0.266667
 10
1475.571119
 20
32.074518
 10
1475.571119
 20
33.610556
  0
LWPOLYLINE
  5
254
330
22A
100
AcDbEntity
  8
0
  6
Continuous
 62
     7
100
AcDbPolyline
 90
        2
 70
     1
 43
0.266667
 10
1475.220421
 20
34.317161
 42
1.0
 10
1475.627311
 20
34.317161
 42
1.0
  0
SPLINE
  5
255
330
22A
100
AcDbEntity
  8
0
  6
Continuous
 62
     7
100
AcDbSpline
 70
     3
 71
     3
 72
    17
 73
    13
 74
     0
 42
0.000000001
 43
0.0000001
 40
0.0
 40
0.0
 40
0.0
 40
0.0
 40
1.0
 40
1.0
 40
1.0
 40
2.0
 40
2.0
 40
2.0
 40
3.0
 40
3.0
 40
3.0
 40
4.0
 40
4.0
 40
4.0
 40
4.0
 10
1478.4114976931
 20
32.2845804985
 30
0.0
 10
1478.0995445655
 20
32.2845804985
 30
0.0
 10
1477.925772018
 20
32.5539628414
 30
0.0
 10
1477.925772018
 20
32.8421879906
 30
0.0
 10
1477.925772018
 20
33.1283194946
 30
0.0
 10
1478.1068723236
 20
33.3935145471
 30
0.0
 10
1478.4114976931
 20
33.3935145471
 30
0.0
 10
1478.7307785787
 20
33.3935145471
 30
0.0
 10
1478.9115299435
 20
33.1415792472
 30
0.0
 10
1478.9115299435
 20
32.8421879906
 30
0.0
 10
1478.9115299435
 20
32.5407030887
 30
0.0
 10
1478.7339190464
 20
32.2845804985
 30
0.0
 10
1478.4114976931
 20
32.2845804985
 30
0.0
  0
SPLINE
  5
256
330
22A
100
AcDbEntity
  8
0
  6
Continuous
 62
     7
100
AcDbSpline
 70
     3
 71
     3
 72
    50
 73
    46
 74
     0
 42
0.000000001
 43
0.0000001
 40
0.0
 40
0.0
 40
0.0
 40
0.0
 40
1.0
 40
1.0
 40
1.0
 40
2.0
 40
2.0
 40
2.0
 40
3.0
 40
3.0
 40
3.0
 40
4.0
 40
4.0
 40
4.0
 40
5.0
 40
5.0
 40
5.0
 40
6.0
 40
6.0
 40
6.0
 40
7.0
 40
7.0
 40
7.0
 40
8.0
 40
8.0
 40
8.0
 40
9.0
 40
9.0
 40
9.0
 40
10.0
 40
10.0
 40
10.0
 40
11.0
 40
11.0
 40
11.0
 40
12.0
 40
12.0
 40
12.0
 40
13.0
 40
13.0
 40
13.0
 40
14.0
 40
14.0
 40
14.0
 40
15.0
 40
15.0
 40
15.0
 40
15.0
 10
1479.1903336895
 20
33.6112536429
 30
0.0
 10
1479.1903336895
 20
33.6112536429
 30
0.0
 10
1478.8947807822
 20
33.6112536429
 30
0.0
 10
1478.8947807822
 20
33.6112536429
 30
0.0
 10
1478.8947807822
 20
33.6112536429
 30
0.0
 10
1478.8947807822
 20
33.3481522355
 30
0.0
 10
1478.8947807822
 20
33.3481522355
 30
0.0
 10
1478.8947807822
 20
33.3481522355
 30
0.0
 10
1478.8884998468
 20
33.3481522355
 30
0.0
 10
1478.8884998468
 20
33.3481522355
 30
0.0
 10
1478.7667194871
 20
33.5386739443
 30
0.0
 10
1478.5828276547
 20
33.6566159545
 30
0.0
 10
1478.352526688
 20
33.6566159545
 30
0.0
 10
1477.9093717976
 20
33.6566159545
 30
0.0
 10
1477.6305680516
 20
33.27278101
 30
0.0
 10
1477.6305680516
 20
32.8519583346
 30
0.0
 10
1477.6305680516
 20
32.4122928528
 30
0.0
 10
1477.8933205181
 20
32.0214790912
 30
0.0
 10
1478.3664843224
 20
32.0214790912
 30
0.0
 10
1478.5828276547
 20
32.0214790912
 30
0.0
 10
1478.769511014
 20
32.1394211014
 30
0.0
 10
1478.8884998468
 20
32.3138915307
 30
0.0
 10
1478.8884998468
 20
32.3138915307
 30
0.0
 10
1478.8947807822
 20
32.3138915307
 30
0.0
 10
1478.8947807822
 20
32.3138915307
 30
0.0
 10
1478.8947807822
 20
32.3138915307
 30
0.0
 10
1478.8947807822
 20
32.0214790912
 30
0.0
 10
1478.8947807822
 20
32.0214790912
 30
0.0
 10
1478.8947807822
 20
31.706036555
 30
0.0
 10
1478.8194095568
 20
31.456892782
 30
0.0
 10
1478.4551153004
 20
31.456892782
 30
0.0
 10
1478.1853840168
 20
31.456892782
 30
0.0
 10
1477.9952112488
 20
31.6146140501
 30
0.0
 10
1477.9952112488
 20
31.8895794466
 30
0.0
 10
1477.9952112488
 20
31.8895794466
 30
0.0
 10
1477.6996583416
 20
31.8895794466
 30
0.0
 10
1477.6996583416
 20
31.8895794466
 30
0.0
 10
1477.7062882179
 20
31.456892782
 30
0.0
 10
1478.014402996
 20
31.1944892563
 30
0.0
 10
1478.4415066069
 20
31.1944892563
 30
0.0
 10
1479.0388933568
 20
31.1944892563
 30
0.0
 10
1479.1903336895
 20
31.5748347922
 30
0.0
 10
1479.1903336895
 20
32.1038291338
 30
0.0
 10
1479.1903336895
 20
32.1038291338
 30
0.0
 10
1479.1903336895
 20
33.6112536429
 30
0.0
 10
1479.1903336895
 20
33.6112536429
 30
0.0
  0
SPLINE
  5
257
330
22A
100
AcDbEntity
  8
0
  6
Continuous
 62
     7
100
AcDbSpline
 70
     3
 71
     3
 72
    44
 73
    40
 74
     0
 42
0.000000001
 43
0.0000001
 40
0.0
 40
0.0
 40
0.0
 40
0.0
 40
1.0
 40
1.0
 40
1.0
 40
2.0
 40
2.0
 40
2.0
 40
3.0
 40
3.0
 40
3.0
 40
4.0
 40
4.0
 40
4.0
 40
5.0
 40
5.0
 40
5.0
 40
6.0
 40
6.0
 40
6.0
 40
7.0
 40
7.0
 40
7.0
 40
8.0
 40
8.0
 40
8.0
 40
9.0
 40
9.0
 40
9.0
 40
10.0
 40
10.0
 40
10.0
 40
11.0
 40
11.0
 40
11.0
 40
12.0
 40
12.0
 40
12.0
 40
13.0
 40
13.0
 40
13.0
 40
13.0
 10
1481.2822341366
 20
34.9246670346
 30
0.0
 10
1481.2822341366
 20
34.9246670346
 30
0.0
 10
1481.2822341366
 20
32.07382022
 30
0.0
 10
1481.2822341366
 20
32.07382022
 30
0.0
 10
1481.2822341366
 20
32.07382022
 30
0.0
 10
1481.577438103
 20
32.07382022
 30
0.0
 10
1481.577438103
 20
32.07382022
 30
0.0
 10
1481.577438103
 20
32.07382022
 30
0.0
 10
1481.577438103
 20
32.7800765177
 30
0.0
 10
1481.577438103
 20
32.7800765177
 30
0.0
 10
1481.577438103
 20
33.0599270863
 30
0.0
 10
1481.577438103
 20
33.3942124288
 30
0.0
 10
1481.9577836389
 20
33.3942124288
 30
0.0
 10
1482.2603153632
 20
33.3942124288
 30
0.0
 10
1482.2962562717
 20
33.2169504727
 30
0.0
 10
1482.2962562717
 20
32.9552448287
 30
0.0
 10
1482.2962562717
 20
32.9552448287
 30
0.0
 10
1482.2962562717
 20
32.07382022
 30
0.0
 10
1482.2962562717
 20
32.07382022
 30
0.0
 10
1482.2962562717
 20
32.07382022
 30
0.0
 10
1482.5921581198
 20
32.07382022
 30
0.0
 10
1482.5921581198
 20
32.07382022
 30
0.0
 10
1482.5921581198
 20
32.07382022
 30
0.0
 10
1482.5921581198
 20
32.9901389146
 30
0.0
 10
1482.5921581198
 20
32.9901389146
 30
0.0
 10
1482.5921581198
 20
33.364203515
 30
0.0
 10
1482.4801481042
 20
33.6573138362
 30
0.0
 10
1482.0467635578
 20
33.6573138362
 30
0.0
 10
1481.8604291393
 20
33.6573138362
 30
0.0
 10
1481.676188366
 20
33.5686828581
 30
0.0
 10
1481.5837190385
 20
33.4046806546
 30
0.0
 10
1481.5837190385
 20
33.4046806546
 30
0.0
 10
1481.577438103
 20
33.4046806546
 30
0.0
 10
1481.577438103
 20
33.4046806546
 30
0.0
 10
1481.577438103
 20
33.4046806546
 30
0.0
 10
1481.577438103
 20
34.9246670346
 30
0.0
 10
1481.577438103
 20
34.9246670346
 30
0.0
 10
1481.577438103
 20
34.9246670346
 30
0.0
 10
1481.2822341366
 20
34.9246670346
 30
0.0
 10
1481.2822341366
 20
34.9246670346
 30
0.0
  0
LWPOLYLINE
  5
258
330
22A
100
AcDbEntity
  8
0
  6
Continuous
 62
     7
100
AcDbPolyline
 90
        2
 70
     0
 43
0.266667
 10
1485.045212
 20
33.334892
 10
1485.333786
 20
33.334892
  0
LWPOLYLINE
  5
259
330
22A
100
AcDbEntity
  8
0
  6
Continuous
 62
     7
100
AcDbPolyline
 90
        2
 70
     0
 43
0.266667
 10
1485.333786
 20
33.334892
 10
1485.333786
 20
33.610556
  0
LWPOLYLINE
  5
25A
330
22A
100
AcDbEntity
  8
0
  6
Continuous
 62
     7
100
AcDbPolyline
 90
        2
 70
     0
 43
0.266667
 10
1485.333786
 20
33.610556
 10
1485.045212
 20
33.610556
  0
LWPOLYLINE
  5
25B
330
22A
100
AcDbEntity
  8
0
  6
Continuous
 62
     7
100
AcDbPolyline
 90
        2
 70
     0
 43
0.266667
 10
1485.045212
 20
33.610556
 10
1485.045212
 20
34.198172
  0
LWPOLYLINE
  5
25C
330
22A
100
AcDbEntity
  8
0
  6
Continuous
 62
     7
100
AcDbPolyline
 90
        2
 70
     0
 43
0.266667
 10
1485.045212
 20
34.198172
 10
1484.749659
 20
34.198172
  0
LWPOLYLINE
  5
25D
330
22A
100
AcDbEntity
  8
0
  6
Continuous
 62
     7
100
AcDbPolyline
 90
        2
 70
     0
 43
0.266667
 10
1484.749659
 20
34.198172
 10
1484.749659
 20
33.610556
  0
LWPOLYLINE
  5
25E
330
22A
100
AcDbEntity
  8
0
  6
Continuous
 62
     7
100
AcDbPolyline
 90
        2
 70
     0
 43
0.266667
 10
1484.749659
 20
33.610556
 10
1484.588798
 20
33.610556
  0
LWPOLYLINE
  5
25F
330
22A
100
AcDbEntity
  8
0
  6
Continuous
 62
     7
100
AcDbPolyline
 90
        2
 70
     0
 43
0.266667
 10
1484.588798
 20
33.610556
 10
1484.588798
 20
33.334892
  0
LWPOLYLINE
  5
260
330
22A
100
AcDbEntity
  8
0
  6
Continuous
 62
     7
100
AcDbPolyline
 90
        2
 70
     0
 43
0.266667
 10
1484.588798
 20
33.334892
 10
1484.749659
 20
33.334892
  0
LWPOLYLINE
  5
261
330
22A
100
AcDbEntity
  8
0
  6
Continuous
 62
     7
100
AcDbPolyline
 90
        2
 70
     0
 43
0.266667
 10
1484.749659
 20
33.334892
 10
1484.749659
 20
32.07382
  0
LWPOLYLINE
  5
262
330
22A
100
AcDbEntity
  8
0
  6
Continuous
 62
     7
100
AcDbPolyline
 90
        2
 70
     0
 43
0.266667
 10
1484.749659
 20
32.07382
 10
1485.045212
 20
32.07382
  0
LWPOLYLINE
  5
263
330
22A
100
AcDbEntity
  8
0
  6
Continuous
 62
     7
100
AcDbPolyline
 90
        2
 70
     0
 43
0.266667
 10
1485.045212
 20
32.07382
 10
1485.045212
 20
33.334892
  0
SPLINE
  5
264
330
22A
100
AcDbEntity
  8
0
  6
Continuous
 62
     7
100
AcDbSpline
 70
     3
 71
     3
 72
    20
 73
    16
 74
     0
 42
0.000000001
 43
0.0000001
 40
0.0
 40
0.0
 40
0.0
 40
0.0
 40
1.0
 40
1.0
 40
1.0
 40
2.0
 40
2.0
 40
2.0
 40
3.0
 40
3.0
 40
3.0
 40
4.0
 40
4.0
 40
4.0
 40
5.0
 40
5.0
 40
5.0
 40
5.0
 10
1468.7545594319
 20
45.8883888111
 30
0.0
 10
1468.7545594319
 20
45.8883888111
 30
0.0
 10
1471.8430349712
 20
42.1156402482
 30
0.0
 10
1471.8430349712
 20
42.1156402482
 30
0.0
 10
1470.9741722333
 20
41.2460796286
 30
0.0
 10
1469.9383412946
 20
40.2648579343
 30
0.0
 10
1468.6434217684
 20
40.2648579343
 30
0.0
 10
1467.3120379225
 20
40.2648579343
 30
0.0
 10
1466.0542805978
 20
41.5042958639
 30
0.0
 10
1466.0542805978
 20
42.836552062
 30
0.0
 10
1466.0542805978
 20
44.1688082601
 30
0.0
 10
1467.6260846953
 20
45.1109485782
 30
0.0
 10
1468.5881146424
 20
45.7774256181
 30
0.0
 10
1468.5881146424
 20
45.7774256181
 30
0.0
 10
1468.7545594319
 20
45.8883888111
 30
0.0
 10
1468.7545594319
 20
45.8883888111
 30
0.0
  0
SPLINE
  5
265
330
22A
100
AcDbEntity
  8
0
  6
Continuous
 62
     7
100
AcDbSpline
 70
     3
 71
     3
 72
    23
 73
    19
 74
     0
 42
0.000000001
 43
0.0000001
 40
0.0
 40
0.0
 40
0.0
 40
0.0
 40
1.0
 40
1.0
 40
1.0
 40
2.0
 40
2.0
 40
2.0
 40
3.0
 40
3.0
 40
3.0
 40
4.0
 40
4.0
 40
4.0
 40
5.0
 40
5.0
 40
5.0
 40
6.0
 40
6.0
 40
6.0
 40
6.0
 10
1469.124436742
 20
48.0720607041
 30
0.0
 10
1469.124436742
 20
48.0720607041
 30
0.0
 10
1468.6624390452
 20
48.6631665186
 30
0.0
 10
1468.6624390452
 20
48.6631665186
 30
0.0
 10
1468.254701652
 20
49.1806458118
 30
0.0
 10
1467.8295172158
 20
49.6986485164
 30
0.0
 10
1467.8295172158
 20
50.4012409352
 30
0.0
 10
1467.8295172158
 20
51.2894698907
 30
0.0
 10
1468.5513013818
 20
51.8810991164
 30
0.0
 10
1469.3831763886
 20
51.8810991164
 30
0.0
 10
1470.3082186047
 20
51.8810991164
 30
0.0
 10
1471.0111599643
 20
51.3447770168
 30
0.0
 10
1471.0111599643
 20
50.3647766154
 30
0.0
 10
1471.0111599643
 20
49.3470906014
 30
0.0
 10
1470.0494789581
 20
48.7736063003
 30
0.0
 10
1469.3467120689
 20
48.2193137465
 30
0.0
 10
1469.3467120689
 20
48.2193137465
 30
0.0
 10
1469.124436742
 20
48.0720607041
 30
0.0
 10
1469.124436742
 20
48.0720607041
 30
0.0
  0
SPLINE
  5
266
330
22A
100
AcDbEntity
  8
0
  6
Continuous
 62
     7
100
AcDbSpline
 70
     3
 71
     3
 72
    50
 73
    46
 74
     0
 42
0.000000001
 43
0.0000001
 40
0.0
 40
0.0
 40
0.0
 40
0.0
 40
1.0
 40
1.0
 40
1.0
 40
2.0
 40
2.0
 40
2.0
 40
3.0
 40
3.0
 40
3.0
 40
4.0
 40
4.0
 40
4.0
 40
5.0
 40
5.0
 40
5.0
 40
6.0
 40
6.0
 40
6.0
 40
7.0
 40
7.0
 40
7.0
 40
8.0
 40
8.0
 40
8.0
 40
9.0
 40
9.0
 40
9.0
 40
10.0
 40
10.0
 40
10.0
 40
11.0
 40
11.0
 40
11.0
 40
12.0
 40
12.0
 40
12.0
 40
13.0
 40
13.0
 40
13.0
 40
14.0
 40
14.0
 40
14.0
 40
15.0
 40
15.0
 40
15.0
 40
15.0
 10
1474.3958862926
 20
39.0072750799
 30
0.0
 10
1474.3958862926
 20
39.0072750799
 30
0.0
 10
1476.541523632
 20
39.0072750799
 30
0.0
 10
1476.541523632
 20
39.0072750799
 30
0.0
 10
1476.541523632
 20
39.0072750799
 30
0.0
 10
1474.0441539071
 20
42.0967974418
 30
0.0
 10
1474.0441539071
 20
42.0967974418
 30
0.0
 10
1474.0441539071
 20
42.0967974418
 30
0.0
 10
1475.7459384744
 20
44.0934370346
 30
0.0
 10
1475.7459384744
 20
44.0934370346
 30
0.0
 10
1475.7459384744
 20
44.0934370346
 30
0.0
 10
1474.6363065441
 20
45.2414524593
 30
0.0
 10
1474.6363065441
 20
45.2414524593
 30
0.0
 10
1474.6363065441
 20
45.2414524593
 30
0.0
 10
1473.0088463797
 20
43.3543802961
 30
0.0
 10
1473.0088463797
 20
43.3543802961
 30
0.0
 10
1473.0088463797
 20
43.3543802961
 30
0.0
 10
1470.1049605546
 20
46.868214742
 30
0.0
 10
1470.1049605546
 20
46.868214742
 30
0.0
 10
1471.2697251406
 20
47.7189325553
 30
0.0
 10
1472.6386201288
 20
48.7736063003
 30
0.0
 10
1472.6386201288
 20
50.3454103978
 30
0.0
 10
1472.6386201288
 20
52.1770009645
 30
0.0
 10
1471.1214252757
 20
53.2496451637
 30
0.0
 10
1469.4210364718
 20
53.2496451637
 30
0.0
 10
1467.589794846
 20
53.2496451637
 30
0.0
 10
1466.201882581
 20
52.1213448975
 30
0.0
 10
1466.201882581
 20
50.1978084146
 30
0.0
 10
1466.201882581
 20
49.0143754927
 30
0.0
 10
1466.9423350829
 20
47.978544554
 30
0.0
 10
1467.7372223587
 20
47.1459716655
 30
0.0
 10
1467.7372223587
 20
47.1459716655
 30
0.0
 10
1466.86801068
 20
46.5171802383
 30
0.0
 10
1466.86801068
 20
46.5171802383
 30
0.0
 10
1465.5366268341
 20
45.5554992321
 30
0.0
 10
1464.4261225517
 20
44.5938182258
 30
0.0
 10
1464.4261225517
 20
42.8184071374
 30
0.0
 10
1464.4261225517
 20
40.41350674
 30
0.0
 10
1466.3688507818
 20
38.7113732319
 30
0.0
 10
1468.698903365
 20
38.7113732319
 30
0.0
 10
1470.3453808062
 20
38.7113732319
 30
0.0
 10
1471.8245411057
 20
39.6556071952
 30
0.0
 10
1472.8790403803
 20
40.8936493614
 30
0.0
 10
1472.8790403803
 20
40.8936493614
 30
0.0
 10
1474.3958862926
 20
39.0072750799
 30
0.0
 10
1474.3958862926
 20
39.0072750799
 30
0.0
  0
LINE
  5
267
330
22A
100
AcDbEntity
  8
0
  6
Continuous
 62
     7
100
AcDbLine
 10
1455.466368
 20
36.305775
 30
0.0
 11
1485.351582
 21
36.305775
 31
0.0
  0
LINE
  5
268
330
22A
100
AcDbEntity
  8
0
  6
Continuous
 62
     7
100
AcDbLine
 10
1485.351582
 20
36.305775
 30
0.0
 11
1485.351582
 21
66.190989
 31
0.0
  0
LINE
  5
269
330
22A
100
AcDbEntity
  8
0
  6
Continuous
 62
     7
100
AcDbLine
 10
1485.351582
 20
66.190989
 30
0.0
 11
1455.466368
 21
66.190989
 31
0.0
  0
LINE
  5
26A
330
22A
100
AcDbEntity
  8
0
  6
Continuous
 62
     7
100
AcDbLine
 10
1455.466368
 20
66.190989
 30
0.0
 11
1455.466368
 21
36.305775
 31
0.0
  0
ENDBLK
  5
26B
330
22A
100
AcDbEntity
  8
0
  6
ByBlock
 62
     0
100
AcDbBlockEnd
  0
BLOCK
  5
291
330
22B
100
AcDbEntity
  8
0
100
AcDbBlockBegin
  2
*T5
 70
     1
 10
0.0
 20
0.0
 30
0.0
  3
*T5
  1
*T5
  0
LINE
  5
292
330
22B
100
AcDbEntity
  8
0
  6
Continuous
 62
     2
100
AcDbLine
 10
0.0
 20
0.0
 30
0.0
 11
120.0
 21
0.0
 31
0.0
  0
LINE
  5
293
330
22B
100
AcDbEntity
  8
0
  6
Continuous
 62
     2
100
AcDbLine
 10
0.0
 20
0.0
 30
0.0
 11
0.0
 21
-53.333333
 31
0.0
  0
LINE
  5
294
330
22B
100
AcDbEntity
  8
0
  6
Continuous
 62
     2
100
AcDbLine
 10
40.0
 20
-8.0
 30
0.0
 11
120.0
 21
-8.0
 31
0.0
  0
LINE
  5
295
330
22B
100
AcDbEntity
  8
0
  6
Continuous
 62
     2
100
AcDbLine
 10
40.0
 20
-16.0
 30
0.0
 11
120.0
 21
-16.0
 31
0.0
  0
LINE
  5
296
330
22B
100
AcDbEntity
  8
0
  6
Continuous
 62
     2
100
AcDbLine
 10
40.0
 20
-29.333333
 30
0.0
 11
120.0
 21
-29.333333
 31
0.0
  0
LINE
  5
297
330
22B
100
AcDbEntity
  8
0
  6
Continuous
 62
     2
100
AcDbLine
 10
0.0
 20
-36.0
 30
0.0
 11
120.0
 21
-36.0
 31
0.0
  0
LINE
  5
298
330
22B
100
AcDbEntity
  8
0
  6
Continuous
 62
     2
100
AcDbLine
 10
0.0
 20
-53.333333
 30
0.0
 11
120.0
 21
-53.333333
 31
0.0
  0
LINE
  5
299
330
22B
100
AcDbEntity
  8
0
  6
Continuous
 62
     2
100
AcDbLine
 10
40.0
 20
0.0
 30
0.0
 11
40.0
 21
-36.0
 31
0.0
  0
LINE
  5
29A
330
22B
100
AcDbEntity
  8
0
  6
Continuous
 62
     2
100
AcDbLine
 10
93.333333
 20
0.0
 30
0.0
 11
93.333333
 21
-16.0
 31
0.0
  0
LINE
  5
29B
330
22B
100
AcDbEntity
  8
0
  6
Continuous
 62
     2
100
AcDbLine
 10
120.0
 20
0.0
 30
0.0
 11
120.0
 21
-53.333333
 31
0.0
  0
MTEXT
  5
29C
330
22B
100
AcDbEntity
  8
9_SOLID
  6
Continuous
 62
     2
100
AcDbMText
 10
41.983333
 20
-2.0
 30
0.0
 40
4.0
 41
57.333333
 46
0.0
 71
     1
 72
     1
  1
5B0_C_052
 73
     1
 44
0.9
  0
MTEXT
  5
29D
330
22B
100
AcDbEntity
  8
9_SOLID
  6
Continuous
 62
     2
100
AcDbMText
 10
95.316667
 20
-2.333333
 30
0.0
 40
4.666667
 41
38.444444
 46
0.0
 71
     1
 72
     1
  1
Rev:01
 73
     1
 44
0.9
  0
MTEXT
  5
29E
330
22B
100
AcDbEntity
  8
9_SOLID
  6
Continuous
 62
     2
100
AcDbMText
 10
41.983333
 20
-10.333333
 30
0.0
 40
4.666667
 41
50.444444
 46
0.0
 71
     1
 72
     1
  1
Scale:1:1
 73
     1
 44
0.9
  0
MTEXT
  5
29F
330
22B
100
AcDbEntity
  8
9_SOLID
  6
Continuous
 62
     2
100
AcDbMText
 10
95.316667
 20
-9.666667
 30
0.0
 40
4.666667
 41
17.111111
 46
0.0
 71
     1
 72
     1
  1
A0
 73
     1
 44
0.9
  0
MTEXT
  5
2A0
330
22B
100
AcDbEntity
  8
9_SOLID
  6
Continuous
 62
     2
100
AcDbMText
 10
41.983333
 20
-20.333333
 30
0.0
 40
4.666667
 41
60.888889
 46
0.0
 71
     1
 72
     1
  1
TREVI 1.1
 73
     1
 44
0.9
  0
MTEXT
  5
2A1
330
22B
100
AcDbEntity
  8
9_SOLID
  6
Continuous
 62
     2
100
AcDbMText
 10
41.983333
 20
-31.0
 30
0.0
 40
3.333333
 41
25.873016
 46
0.0
 71
     1
 72
     1
  1
DATE:
 73
     1
 44
0.9
  0
MTEXT
  5
2A2
330
22B
100
AcDbEntity
  8
9_SOLID
  6
Continuous
 62
     2
100
AcDbMText
 10
1.983333
 20
-36.416667
 30
0.0
 40
3.0
 41
239.285714
 46
0.0
 71
     1
 72
     1
  1
Any integral or partial reproductions are prohibited \Pwithout prior authorisation of L {\Ftxt.shx;\W0.190476;\H3.000000; }& L Luce & Light s.r.l., \Pin accordance with the law in force. \PAll rights reserved.
 73
     1
 44
0.9
  0
ENDBLK
  5
2A3
330
22B
100
AcDbEntity
  8
0
  6
ByBlock
 62
     0
100
AcDbBlockEnd
  0
ENDSEC
  0
SECTION
  2
ENTITIES
  0
LINE
  5
2A4
330
224
100
AcDbEntity
  8
0
  6
Continuous
 62
     7
100
AcDbLine
 10
1585.333333
 20
0.0
 30
0.0
 11
1585.333333
 21
1121.333333
 31
0.0
  0
LINE
  5
2A5
330
224
100
AcDbEntity
  8
0
  6
Continuous
 62
     7
100
AcDbLine
 10
0.0
 20
1121.333333
 30
0.0
 11
1585.333333
 21
1121.333333
 31
0.0
  0
LINE
  5
2A6
330
224
100
AcDbEntity
  8
0
  6
Continuous
 62
     7
100
AcDbLine
 10
0.0
 20
0.0
 30
0.0
 11
0.0
 21
1121.333333
 31
0.0
  0
LINE
  5
2A7
330
224
100
AcDbEntity
  8
0
  6
Continuous
 62
     7
100
AcDbLine
 10
0.0
 20
0.0
 30
0.0
 11
1585.333333
 21
0.0
 31
0.0
  0
ARC
  5
2A8
330
224
100
AcDbEntity
  8
7_ALL_FEATURES
  6
Continuous
 62
     7
100
AcDbCircle
 10
1267.573239
 20
718.355124
 30
0.0
 40
1.6999999391
100
AcDbArc
 50
90.0
 51
270.0
  0
ARC
  5
2A9
330
224
100
AcDbEntity
  8
7_ALL_FEATURES
  6
Continuous
 62
     7
100
AcDbCircle
 10
1267.573239
 20
718.355124
 30
0.0
 40
1.3
100
AcDbArc
 50
0.0
 51
180.0
  0
ARC
  5
2AA
330
224
100
AcDbEntity
  8
7_ALL_FEATURES
  6
Continuous
 62
     7
100
AcDbCircle
 10
1267.573239
 20
718.355124
 30
0.0
 40
1.3
100
AcDbArc
 50
180.0
 51
360.0
  0
ARC
  5
2AB
330
224
100
AcDbEntity
  8
7_ALL_FEATURES
  6
Continuous
 62
     7
100
AcDbCircle
 10
1267.573239
 20
718.355124
 30
0.0
 40
1.6999999391
100
AcDbArc
 50
270.0
 51
90.0
  0
ARC
  5
2AC
330
224
100
AcDbEntity
  8
7_ALL_FEATURES
  6
Continuous
 62
     7
100
AcDbCircle
 10
97.573239
 20
718.355124
 30
0.0
 40
1.6999999391
100
AcDbArc
 50
90.0
 51
270.0
  0
ARC
  5
2AD
330
224
100
AcDbEntity
  8
7_ALL_FEATURES
  6
Continuous
 62
     7
100
AcDbCircle
 10
97.573239
 20
718.355124
 30
0.0
 40
1.3
100
AcDbArc
 50
0.0
 51
180.0
  0
ARC
  5
2AE
330
224
100
AcDbEntity
  8
7_ALL_FEATURES
  6
Continuous
 62
     7
100
AcDbCircle
 10
97.573239
 20
718.355124
 30
0.0
 40
1.3
100
AcDbArc
 50
180.0
 51
360.0
  0
ARC
  5
2AF
330
224
100
AcDbEntity
  8
7_ALL_FEATURES
  6
Continuous
 62
     7
100
AcDbCircle
 10
97.573239
 20
718.355124
 30
0.0
 40
1.6999999391
100
AcDbArc
 50
270.0
 51
90.0
  0
LINE
  5
2B0
330
224
100
AcDbEntity
  8
7_ALL_FEATURES
  6
Continuous
 62
     7
100
AcDbLine
 10
82.823239
 20
661.655124
 30
0.0
 11
79.573239
 21
661.655124
 31
0.0
  0
LINE
  5
2B1
330
224
100
AcDbEntity
  8
7_ALL_FEATURES
  6
Continuous
 62
     7
100
AcDbLine
 10
82.823239
 20
677.553761
 30
0.0
 11
82.823239
 21
661.655124
 31
0.0
  0
LINE
  5
2B2
330
224
100
AcDbEntity
  8
7_ALL_FEATURES
  6
Continuous
 62
     7
100
AcDbLine
 10
76.323239
 20
677.553761
 30
0.0
 11
76.323239
 21
661.655124
 31
0.0
  0
LINE
  5
2B3
330
224
100
AcDbEntity
  8
7_ALL_FEATURES
  6
Continuous
 62
     7
100
AcDbLine
 10
79.573239
 20
661.655124
 30
0.0
 11
76.323239
 21
661.655124
 31
0.0
  0
LINE
  5
2B4
330
224
100
AcDbEntity
  8
7_ALL_FEATURES
  6
Continuous
 62
     7
100
AcDbLine
 10
82.823239
 20
682.0027
 30
0.0
 11
82.823239
 21
677.553761
 31
0.0
  0
LINE
  5
2B5
330
224
100
AcDbEntity
  8
7_ALL_FEATURES
  6
Continuous
 62
     7
100
AcDbLine
 10
76.323239
 20
682.0027
 30
0.0
 11
76.323239
 21
677.553761
 31
0.0
  0
LINE
  5
2B6
330
224
100
AcDbEntity
  8
7_ALL_FEATURES
  6
Continuous
 62
     7
100
AcDbLine
 10
82.823239
 20
686.426953
 30
0.0
 11
82.823239
 21
682.0027
 31
0.0
  0
LINE
  5
2B7
330
224
100
AcDbEntity
  8
7_ALL_FEATURES
  6
Continuous
 62
     7
100
AcDbLine
 10
76.323239
 20
691.655124
 30
0.0
 11
76.323239
 21
686.426953
 31
0.0
  0
LINE
  5
2B8
330
224
100
AcDbEntity
  8
7_ALL_FEATURES
  6
Continuous
 62
     7
100
AcDbLine
 10
76.323239
 20
686.426953
 30
0.0
 11
76.323239
 21
682.0027
 31
0.0
  0
LINE
  5
2B9
330
224
100
AcDbEntity
  8
7_ALL_FEATURES
  6
Continuous
 62
     7
100
AcDbLine
 10
82.823239
 20
691.655124
 30
0.0
 11
82.823239
 21
686.426953
 31
0.0
  0
LINE
  5
2BA
330
224
100
AcDbEntity
  8
7_ALL_FEATURES
  6
Continuous
 62
     9
100
AcDbLine
 10
82.823239
 20
677.553761
 30
0.0
 11
79.573239
 21
677.553761
 31
0.0
  0
LINE
  5
2BB
330
224
100
AcDbEntity
  8
7_ALL_FEATURES
  6
Continuous
 62
     9
100
AcDbLine
 10
79.573239
 20
677.553761
 30
0.0
 11
76.323239
 21
677.553761
 31
0.0
  0
SPLINE
  5
2BC
330
224
100
AcDbEntity
  8
7_ALL_FEATURES
  6
Continuous
 62
     9
100
AcDbSpline
 70
     0
 71
     3
 72
    14
 73
    10
 74
     0
 42
0.000000001
 43
0.0000001
 40
0.0
 40
0.0
 40
0.0
 40
0.0
 40
0.0705441873
 40
0.1529341324
 40
0.2536088882
 40
0.3740587058
 40
0.5127788104
 40
0.666438866
 40
1.0
 40
1.0
 40
1.0
 40
1.0
 10
82.8232388191
 20
682.0027001132
 30
0.0
 10
82.8232388191
 20
681.914737347
 30
0.0
 10
82.7718552876
 20
681.7226707121
 30
0.0
 10
82.569361247
 20
681.4724480483
 30
0.0
 10
82.2605143311
 20
681.2489649368
 30
0.0
 10
81.8539983853
 20
681.0549492441
 30
0.0
 10
81.3631913953
 20
680.8958779553
 30
0.0
 10
80.5987167293
 20
680.7339873098
 30
0.0
 10
79.9891619616
 20
680.6884796697
 30
0.0
 10
79.5732388191
 20
680.6884796697
 30
0.0
  0
SPLINE
  5
2BD
330
224
100
AcDbEntity
  8
7_ALL_FEATURES
  6
Continuous
 62
     9
100
AcDbSpline
 70
     0
 71
     3
 72
    14
 73
    10
 74
     0
 42
0.000000001
 43
0.0000001
 40
0.0
 40
0.0
 40
0.0
 40
0.0
 40
0.333561134
 40
0.4872211896
 40
0.6259412942
 40
0.7463911118
 40
0.8470658676
 40
0.9294558127
 40
1.0
 40
1.0
 40
1.0
 40
1.0
 10
79.5732388191
 20
685.1127320968
 30
0.0
 10
79.1573156767
 20
685.1127320968
 30
0.0
 10
78.547760909
 20
685.158239737
 30
0.0
 10
77.7832862429
 20
685.3201303825
 30
0.0
 10
77.292479253
 20
685.4792016712
 30
0.0
 10
76.8859633071
 20
685.6732173639
 30
0.0
 10
76.5771163912
 20
685.8967004754
 30
0.0
 10
76.3746223507
 20
686.1469231392
 30
0.0
 10
76.3232388191
 20
686.3389897741
 30
0.0
 10
76.3232388191
 20
686.4269525404
 30
0.0
  0
SPLINE
  5
2BE
330
224
100
AcDbEntity
  8
7_ALL_FEATURES
  6
Continuous
 62
     9
100
AcDbSpline
 70
     0
 71
     3
 72
    14
 73
    10
 74
     0
 42
0.000000001
 43
0.0000001
 40
0.0
 40
0.0
 40
0.0
 40
0.0
 40
0.333561134
 40
0.4872211896
 40
0.6259412942
 40
0.7463911118
 40
0.8470658676
 40
0.9294558127
 40
1.0
 40
1.0
 40
1.0
 40
1.0
 10
79.5732388191
 20
680.6884796697
 30
0.0
 10
79.1573156767
 20
680.6884796697
 30
0.0
 10
78.547760909
 20
680.7339873098
 30
0.0
 10
77.7832862429
 20
680.8958779553
 30
0.0
 10
77.292479253
 20
681.0549492441
 30
0.0
 10
76.8859633071
 20
681.2489649368
 30
0.0
 10
76.5771163912
 20
681.4724480483
 30
0.0
 10
76.3746223507
 20
681.7226707121
 30
0.0
 10
76.3232388191
 20
681.914737347
 30
0.0
 10
76.3232388191
 20
682.0027001132
 30
0.0
  0
SPLINE
  5
2BF
330
224
100
AcDbEntity
  8
7_ALL_FEATURES
  6
Continuous
 62
     9
100
AcDbSpline
 70
     0
 71
     3
 72
    14
 73
    10
 74
     0
 42
0.000000001
 43
0.0000001
 40
0.0
 40
0.0
 40
0.0
 40
0.0
 40
0.0705441873
 40
0.1529341324
 40
0.2536088882
 40
0.3740587058
 40
0.5127788104
 40
0.666438866
 40
1.0
 40
1.0
 40
1.0
 40
1.0
 10
82.8232388191
 20
686.4269525404
 30
0.0
 10
82.8232388191
 20
686.3389897741
 30
0.0
 10
82.7718552876
 20
686.1469231392
 30
0.0
 10
82.569361247
 20
685.8967004754
 30
0.0
 10
82.2605143311
 20
685.6732173639
 30
0.0
 10
81.8539983853
 20
685.4792016712
 30
0.0
 10
81.3631913953
 20
685.3201303825
 30
0.0
 10
80.5987167293
 20
685.158239737
 30
0.0
 10
79.9891619616
 20
685.1127320968
 30
0.0
 10
79.5732388191
 20
685.1127320968
 30
0.0
  0
LINE
  5
2C0
330
224
100
AcDbEntity
  8
7_ALL_FEATURES
  6
Continuous
 62
     7
100
AcDbLine
 10
76.073239
 20
691.655124
 30
0.0
 11
76.284315
 21
691.655124
 31
0.0
  0
LINE
  5
2C1
330
224
100
AcDbEntity
  8
7_ALL_FEATURES
  6
Continuous
 62
     7
100
AcDbLine
 10
76.284315
 20
691.655124
 30
0.0
 11
76.323239
 21
691.655124
 31
0.0
  0
LINE
  5
2C2
330
224
100
AcDbEntity
  8
7_ALL_FEATURES
  6
Continuous
 62
     7
100
AcDbLine
 10
76.323239
 20
691.655124
 30
0.0
 11
79.573239
 21
691.655124
 31
0.0
  0
LINE
  5
2C3
330
224
100
AcDbEntity
  8
3_ALL_AXES
  6
Continuous
 62
     7
100
AcDbLine
 10
83.842287
 20
707.655124
 30
0.0
 11
83.573239
 21
707.655124
 31
0.0
  0
LINE
  5
2C4
330
224
100
AcDbEntity
  8
3_ALL_AXES
  6
Continuous
 62
     7
100
AcDbLine
 10
87.573239
 20
706.355124
 30
0.0
 11
87.573239
 21
704.155124
 31
0.0
  0
LINE
  5
2C5
330
224
100
AcDbEntity
  8
3_ALL_AXES
  6
Continuous
 62
     7
100
AcDbLine
 10
87.573239
 20
704.155124
 30
0.0
 11
85.573239
 21
704.155124
 31
0.0
  0
LINE
  5
2C6
330
224
100
AcDbEntity
  8
3_ALL_AXES
  6
Continuous
 62
     7
100
AcDbLine
 10
85.573239
 20
704.155124
 30
0.0
 11
83.573239
 21
704.155124
 31
0.0
  0
LINE
  5
2C7
330
224
100
AcDbEntity
  8
3_ALL_AXES
  6
Continuous
 62
     7
100
AcDbLine
 10
87.573239
 20
701.155124
 30
0.0
 11
85.573239
 21
701.155124
 31
0.0
  0
LINE
  5
2C8
330
224
100
AcDbEntity
  8
3_ALL_AXES
  6
Continuous
 62
     7
100
AcDbLine
 10
85.573239
 20
701.155124
 30
0.0
 11
83.573239
 21
701.155124
 31
0.0
  0
LINE
  5
2C9
330
224
100
AcDbEntity
  8
3_ALL_AXES
  6
Continuous
 62
     7
100
AcDbLine
 10
87.573239
 20
701.155124
 30
0.0
 11
87.573239
 21
696.655124
 31
0.0
  0
LINE
  5
2CA
330
224
100
AcDbEntity
  8
3_ALL_AXES
  6
Continuous
 62
     7
100
AcDbLine
 10
83.573239
 20
707.655124
 30
0.0
 11
75.573239
 21
707.655124
 31
0.0
  0
LINE
  5
2CB
330
224
100
AcDbEntity
  8
3_ALL_AXES
  6
Continuous
 62
     7
100
AcDbLine
 10
83.573239
 20
704.155124
 30
0.0
 11
75.573239
 21
704.155124
 31
0.0
  0
LINE
  5
2CC
330
224
100
AcDbEntity
  8
3_ALL_AXES
  6
Continuous
 62
     7
100
AcDbLine
 10
83.573239
 20
701.155124
 30
0.0
 11
75.573239
 21
701.155124
 31
0.0
  0
LINE
  5
2CD
330
224
100
AcDbEntity
  8
3_ALL_AXES
  6
Continuous
 62
     7
100
AcDbLine
 10
75.573239
 20
707.655124
 30
0.0
 11
75.30419
 21
707.655124
 31
0.0
  0
LINE
  5
2CE
330
224
100
AcDbEntity
  8
3_ALL_AXES
  6
Continuous
 62
     7
100
AcDbLine
 10
75.573239
 20
704.155124
 30
0.0
 11
73.573239
 21
704.155124
 31
0.0
  0
LINE
  5
2CF
330
224
100
AcDbEntity
  8
3_ALL_AXES
  6
Continuous
 62
     7
100
AcDbLine
 10
73.573239
 20
704.155124
 30
0.0
 11
71.573239
 21
704.155124
 31
0.0
  0
LINE
  5
2D0
330
224
100
AcDbEntity
  8
3_ALL_AXES
  6
Continuous
 62
     7
100
AcDbLine
 10
75.573239
 20
701.155124
 30
0.0
 11
73.573239
 21
701.155124
 31
0.0
  0
LINE
  5
2D1
330
224
100
AcDbEntity
  8
3_ALL_AXES
  6
Continuous
 62
     7
100
AcDbLine
 10
73.573239
 20
701.155124
 30
0.0
 11
71.573239
 21
701.155124
 31
0.0
  0
LINE
  5
2D2
330
224
100
AcDbEntity
  8
3_ALL_AXES
  6
Continuous
 62
     7
100
AcDbLine
 10
73.573239
 20
701.155124
 30
0.0
 11
73.573239
 21
704.155124
 31
0.0
  0
LINE
  5
2D3
330
224
100
AcDbEntity
  8
3_ALL_AXES
  6
Continuous
 62
     7
100
AcDbLine
 10
71.573239
 20
701.155124
 30
0.0
 11
71.573239
 21
696.655124
 31
0.0
  0
ARC
  5
2D4
330
224
100
AcDbEntity
  8
3_ALL_AXES
  6
Continuous
 62
     7
100
AcDbCircle
 10
76.073239
 20
695.155124
 30
0.0
 40
3.5
100
AcDbArc
 50
259.330363
 51
270.0
  0
ARC
  5
2D5
330
224
100
AcDbEntity
  8
3_ALL_AXES
  6
Continuous
 62
     7
100
AcDbCircle
 10
76.073239
 20
695.155124
 30
0.0
 40
3.5
100
AcDbArc
 50
190.669637
 51
259.330363
  0
ARC
  5
2D6
330
224
100
AcDbEntity
  8
3_ALL_AXES
  6
Continuous
 62
     7
100
AcDbCircle
 10
76.073239
 20
695.155124
 30
0.0
 40
3.5
100
AcDbArc
 50
180.0
 51
190.669637
  0
LINE
  5
2D7
330
224
100
AcDbEntity
  8
3_ALL_AXES
  6
Continuous
 62
     7
100
AcDbLine
 10
76.073239
 20
691.655124
 30
0.0
 11
76.284315
 21
691.655124
 31
0.0
  0
LINE
  5
2D8
330
224
100
AcDbEntity
  8
3_ALL_AXES
  6
Continuous
 62
     7
100
AcDbLine
 10
76.284315
 20
691.655124
 30
0.0
 11
76.323239
 21
691.655124
 31
0.0
  0
LINE
  5
2D9
330
224
100
AcDbEntity
  8
3_ALL_AXES
  6
Continuous
 62
     7
100
AcDbLine
 10
76.323239
 20
691.655124
 30
0.0
 11
79.573239
 21
691.655124
 31
0.0
  0
LINE
  5
2DA
330
224
100
AcDbEntity
  8
3_ALL_AXES
  6
Continuous
 62
     7
100
AcDbLine
 10
79.573239
 20
691.655124
 30
0.0
 11
82.823239
 21
691.655124
 31
0.0
  0
LINE
  5
2DB
330
224
100
AcDbEntity
  8
3_ALL_AXES
  6
Continuous
 62
     7
100
AcDbLine
 10
82.823239
 20
691.655124
 30
0.0
 11
82.862163
 21
691.655124
 31
0.0
  0
LINE
  5
2DC
330
224
100
AcDbEntity
  8
3_ALL_AXES
  6
Continuous
 62
     7
100
AcDbLine
 10
82.862163
 20
691.655124
 30
0.0
 11
83.073239
 21
691.655124
 31
0.0
  0
LINE
  5
2DD
330
224
100
AcDbEntity
  8
3_ALL_AXES
  6
Continuous
 62
     7
100
AcDbLine
 10
85.573239
 20
701.155124
 30
0.0
 11
85.573239
 21
704.155124
 31
0.0
  0
ARC
  5
2DE
330
224
100
AcDbEntity
  8
3_ALL_AXES
  6
Continuous
 62
     7
100
AcDbCircle
 10
83.073239
 20
695.155124
 30
0.0
 40
3.5
100
AcDbArc
 50
270.0
 51
280.669637
  0
ARC
  5
2DF
330
224
100
AcDbEntity
  8
3_ALL_AXES
  6
Continuous
 62
     7
100
AcDbCircle
 10
83.073239
 20
695.155124
 30
0.0
 40
3.5
100
AcDbArc
 50
280.669637
 51
349.330363
  0
ARC
  5
2E0
330
224
100
AcDbEntity
  8
3_ALL_AXES
  6
Continuous
 62
     7
100
AcDbCircle
 10
83.073239
 20
695.155124
 30
0.0
 40
3.5
100
AcDbArc
 50
349.330363
 51
360.0
  0
LINE
  5
2E1
330
224
100
AcDbEntity
  8
3_ALL_AXES
  6
Continuous
 62
     7
100
AcDbLine
 10
71.573239
 20
707.655124
 30
0.0
 11
71.573239
 21
704.155124
 31
0.0
  0
LINE
  5
2E2
330
224
100
AcDbEntity
  8
3_ALL_AXES
  6
Continuous
 62
     7
100
AcDbLine
 10
86.573239
 20
695.155124
 30
0.0
 11
86.573239
 21
695.655124
 31
0.0
  0
LINE
  5
2E3
330
224
100
AcDbEntity
  8
3_ALL_AXES
  6
Continuous
 62
     7
100
AcDbLine
 10
72.573239
 20
695.155124
 30
0.0
 11
72.573239
 21
695.655124
 31
0.0
  0
LINE
  5
2E4
330
224
100
AcDbEntity
  8
3_ALL_AXES
  6
Continuous
 62
     7
100
AcDbLine
 10
86.573239
 20
695.655124
 30
0.0
 11
87.573239
 21
696.655124
 31
0.0
  0
LINE
  5
2E5
330
224
100
AcDbEntity
  8
3_ALL_AXES
  6
Continuous
 62
     7
100
AcDbLine
 10
72.573239
 20
695.655124
 30
0.0
 11
71.573239
 21
696.655124
 31
0.0
  0
LINE
  5
2E6
330
224
100
AcDbEntity
  8
3_ALL_AXES
  6
Continuous
 62
     7
100
AcDbLine
 10
73.573239
 20
704.155124
 30
0.0
 11
73.573239
 21
701.155124
 31
0.0
  0
LINE
  5
2E7
330
224
100
AcDbEntity
  8
3_ALL_AXES
  6
Continuous
 62
     7
100
AcDbLine
 10
85.573239
 20
704.155124
 30
0.0
 11
85.573239
 21
701.155124
 31
0.0
  0
LINE
  5
2E8
330
224
100
AcDbEntity
  8
7_ALL_FEATURES
  6
Continuous
 62
     7
100
AcDbLine
 10
79.573239
 20
691.655124
 30
0.0
 11
82.823239
 21
691.655124
 31
0.0
  0
LINE
  5
2E9
330
224
100
AcDbEntity
  8
7_ALL_FEATURES
  6
Continuous
 62
     7
100
AcDbLine
 10
82.823239
 20
691.655124
 30
0.0
 11
82.862163
 21
691.655124
 31
0.0
  0
LINE
  5
2EA
330
224
100
AcDbEntity
  8
7_ALL_FEATURES
  6
Continuous
 62
     7
100
AcDbLine
 10
82.862163
 20
691.655124
 30
0.0
 11
83.073239
 21
691.655124
 31
0.0
  0
ARC
  5
2EB
330
224
100
AcDbEntity
  8
7_ALL_FEATURES
  6
Continuous
 62
     7
100
AcDbCircle
 10
83.073239
 20
695.155124
 30
0.0
 40
3.5
100
AcDbArc
 50
349.336305
 51
360.0
  0
ARC
  5
2EC
330
224
100
AcDbEntity
  8
7_ALL_FEATURES
  6
Continuous
 62
     7
100
AcDbCircle
 10
83.073239
 20
695.155124
 30
0.0
 40
3.5
100
AcDbArc
 50
280.663695
 51
349.336305
  0
ARC
  5
2ED
330
224
100
AcDbEntity
  8
7_ALL_FEATURES
  6
Continuous
 62
     7
100
AcDbCircle
 10
83.073239
 20
695.155124
 30
0.0
 40
3.5
100
AcDbArc
 50
270.0
 51
280.663695
  0
ARC
  5
2EE
330
224
100
AcDbEntity
  8
7_ALL_FEATURES
  6
Continuous
 62
     7
100
AcDbCircle
 10
76.073239
 20
695.155124
 30
0.0
 40
3.5
100
AcDbArc
 50
180.0
 51
190.663695
  0
ARC
  5
2EF
330
224
100
AcDbEntity
  8
7_ALL_FEATURES
  6
Continuous
 62
     7
100
AcDbCircle
 10
76.073239
 20
695.155124
 30
0.0
 40
3.5
100
AcDbArc
 50
190.663695
 51
259.336305
  0
ARC
  5
2F0
330
224
100
AcDbEntity
  8
7_ALL_FEATURES
  6
Continuous
 62
     7
100
AcDbCircle
 10
76.073239
 20
695.155124
 30
0.0
 40
3.5
100
AcDbArc
 50
259.336305
 51
270.0
  0
LINE
  5
2F1
330
224
100
AcDbEntity
  8
3_ALL_AXES
  6
Continuous
 62
     7
100
AcDbLine
 10
80.573239
 20
695.155124
 30
0.0
 11
80.573239
 21
695.655124
 31
0.0
  0
SPLINE
  5
2F2
330
224
100
AcDbEntity
  8
3_ALL_AXES
  6
Continuous
 62
     7
100
AcDbSpline
 70
     0
 71
     3
 72
    19
 73
    15
 74
     0
 42
0.000000001
 43
0.0000001
 40
0.0
 40
0.0
 40
0.0
 40
0.0
 40
0.062499569
 40
0.1250450196
 40
0.1876243679
 40
0.2502137548
 40
0.3750836247
 40
0.5000591496
 40
0.6250261711
 40
0.7498800617
 40
0.8124624827
 40
0.8750225901
 40
0.9375286272
 40
1.0
 40
1.0
 40
1.0
 40
1.0
 10
78.5732388191
 20
695.1551236526
 30
0.0
 10
78.5732388191
 20
695.0990500409
 30
0.0
 10
78.5927479342
 20
694.986060947
 30
0.0
 10
78.6725319043
 20
694.8353385637
 30
0.0
 10
78.7875913588
 20
694.7102888548
 30
0.0
 10
78.9710350585
 20
694.5791229888
 30
0.0
 10
79.2364349958
 20
694.4759922376
 30
0.0
 10
79.5733927069
 20
694.436735815
 30
0.0
 10
79.91032454
 20
694.4760735271
 30
0.0
 10
80.1756787268
 20
694.5792418449
 30
0.0
 10
80.359060354
 20
694.7104330011
 30
0.0
 10
80.474031124
 20
694.8354830303
 30
0.0
 10
80.5537488997
 20
694.9861471337
 30
0.0
 10
80.5732388191
 20
695.099075338
 30
0.0
 10
80.5732388191
 20
695.1551236526
 30
0.0
  0
LINE
  5
2F3
330
224
100
AcDbEntity
  8
3_ALL_AXES
  6
Continuous
 62
     7
100
AcDbLine
 10
78.573239
 20
695.155124
 30
0.0
 11
78.573239
 21
695.655124
 31
0.0
  0
SPLINE
  5
2F4
330
224
100
AcDbEntity
  8
3_ALL_AXES
  6
Continuous
 62
     7
100
AcDbSpline
 70
     0
 71
     3
 72
     9
 73
     5
 74
     0
 42
0.000000001
 43
0.0000001
 40
0.0
 40
0.0
 40
0.0
 40
0.0
 40
0.5001651926
 40
1.0
 40
1.0
 40
1.0
 40
1.0
 10
75.5732388191
 20
696.6551236526
 30
0.0
 10
76.0463253856
 20
696.4185803694
 30
0.0
 10
77.0181410875
 20
695.9943465609
 30
0.0
 10
78.0499738133
 20
695.7298757963
 30
0.0
 10
78.5732388191
 20
695.6551236526
 30
0.0
  0
LINE
  5
2F5
330
224
100
AcDbEntity
  8
3_ALL_AXES
  6
Continuous
 62
     7
100
AcDbLine
 10
85.073239
 20
695.155124
 30
0.0
 11
85.073239
 21
695.655124
 31
0.0
  0
LINE
  5
2F6
330
224
100
AcDbEntity
  8
3_ALL_AXES
  6
Continuous
 62
     7
100
AcDbLine
 10
75.573239
 20
707.655124
 30
0.0
 11
75.573239
 21
704.155124
 31
0.0
  0
SPLINE
  5
2F7
330
224
100
AcDbEntity
  8
3_ALL_AXES
  6
Continuous
 62
     7
100
AcDbSpline
 70
     0
 71
     3
 72
     9
 73
     5
 74
     0
 42
0.000000001
 43
0.0000001
 40
0.0
 40
0.0
 40
0.0
 40
0.0
 40
0.5276143562
 40
1.0
 40
1.0
 40
1.0
 40
1.0
 10
83.5732388191
 20
696.6551236526
 30
0.0
 10
83.7991508497
 20
696.429211622
 30
0.0
 10
84.2527235615
 20
696.0251282117
 30
0.0
 10
84.7981996491
 20
695.7337062726
 30
0.0
 10
85.0732388191
 20
695.6551236526
 30
0.0
  0
SPLINE
  5
2F8
330
224
100
AcDbEntity
  8
3_ALL_AXES
  6
Continuous
 62
     7
100
AcDbSpline
 70
     0
 71
     3
 72
     9
 73
     5
 74
     0
 42
0.000000001
 43
0.0000001
 40
0.0
 40
0.0
 40
0.0
 40
0.0
 40
0.4723856656
 40
1.0
 40
1.0
 40
1.0
 40
1.0
 10
86.0732388191
 20
695.6551236526
 30
0.0
 10
86.3482780017
 20
695.7337062762
 30
0.0
 10
86.8937540861
 20
696.025128223
 30
0.0
 10
87.347326798
 20
696.4292116314
 30
0.0
 10
87.5732388191
 20
696.6551236526
 30
0.0
  0
LINE
  5
2F9
330
224
100
AcDbEntity
  8
3_ALL_AXES
  6
Continuous
 62
     7
100
AcDbLine
 10
75.573239
 20
701.155124
 30
0.0
 11
75.573239
 21
696.655124
 31
0.0
  0
SPLINE
  5
2FA
330
224
100
AcDbEntity
  8
3_ALL_AXES
  6
Continuous
 62
     7
100
AcDbSpline
 70
     0
 71
     3
 72
     9
 73
     5
 74
     0
 42
0.000000001
 43
0.0000001
 40
0.0
 40
0.0
 40
0.0
 40
0.0
 40
0.5276143562
 40
1.0
 40
1.0
 40
1.0
 40
1.0
 10
71.5732388191
 20
696.6551236526
 30
0.0
 10
71.7991508497
 20
696.429211622
 30
0.0
 10
72.2527235615
 20
696.0251282117
 30
0.0
 10
72.7981996491
 20
695.7337062726
 30
0.0
 10
73.0732388191
 20
695.6551236526
 30
0.0
  0
LINE
  5
2FB
330
224
100
AcDbEntity
  8
3_ALL_AXES
  6
Continuous
 62
     7
100
AcDbLine
 10
72.573239
 20
695.655124
 30
0.0
 11
73.073239
 21
695.655124
 31
0.0
  0
SPLINE
  5
2FC
330
224
100
AcDbEntity
  8
3_ALL_AXES
  6
Continuous
 62
     7
100
AcDbSpline
 70
     0
 71
     3
 72
     9
 73
     5
 74
     0
 42
0.000000001
 43
0.0000001
 40
0.0
 40
0.0
 40
0.0
 40
0.0
 40
0.4723856656
 40
1.0
 40
1.0
 40
1.0
 40
1.0
 10
74.0732388191
 20
695.6551236526
 30
0.0
 10
74.3482780017
 20
695.7337062762
 30
0.0
 10
74.8937540861
 20
696.025128223
 30
0.0
 10
75.347326798
 20
696.4292116314
 30
0.0
 10
75.5732388191
 20
696.6551236526
 30
0.0
  0
LINE
  5
2FD
330
224
100
AcDbEntity
  8
3_ALL_AXES
  6
Continuous
 62
     7
100
AcDbLine
 10
74.073239
 20
695.155124
 30
0.0
 11
74.073239
 21
695.655124
 31
0.0
  0
SPLINE
  5
2FE
330
224
100
AcDbEntity
  8
3_ALL_AXES
  6
Continuous
 62
     7
100
AcDbSpline
 70
     0
 71
     3
 72
    15
 73
    11
 74
     0
 42
0.000000001
 43
0.0000001
 40
0.0
 40
0.0
 40
0.0
 40
0.0
 40
0.1686889682
 40
0.3038155322
 40
0.4094422526
 40
0.5000398214
 40
0.5906390971
 40
0.6962706796
 40
0.8313936487
 40
1.0
 40
1.0
 40
1.0
 40
1.0
 10
73.0732388191
 20
695.1551236526
 30
0.0
 10
73.0732388191
 20
695.0485179774
 30
0.0
 10
73.10360495
 20
694.8546484188
 30
0.0
 10
73.226938646
 20
694.621465797
 30
0.0
 10
73.3908571901
 20
694.4816733313
 30
0.0
 10
73.573320872
 20
694.435120729
 30
0.0
 10
73.7557598928
 20
694.4817612982
 30
0.0
 10
73.9196445869
 20
694.6215910432
 30
0.0
 10
74.0428882539
 20
694.8547621373
 30
0.0
 10
74.0732388191
 20
695.0485701885
 30
0.0
 10
74.0732388191
 20
695.1551236526
 30
0.0
  0
LINE
  5
2FF
330
224
100
AcDbEntity
  8
3_ALL_AXES
  6
Continuous
 62
     7
100
AcDbLine
 10
73.073239
 20
695.155124
 30
0.0
 11
73.073239
 21
695.655124
 31
0.0
  0
LINE
  5
300
330
224
100
AcDbEntity
  8
3_ALL_AXES
  6
Continuous
 62
     7
100
AcDbLine
 10
83.573239
 20
707.655124
 30
0.0
 11
83.573239
 21
704.155124
 31
0.0
  0
LINE
  5
301
330
224
100
AcDbEntity
  8
3_ALL_AXES
  6
Continuous
 62
     7
100
AcDbLine
 10
86.073239
 20
695.155124
 30
0.0
 11
86.073239
 21
695.655124
 31
0.0
  0
SPLINE
  5
302
330
224
100
AcDbEntity
  8
3_ALL_AXES
  6
Continuous
 62
     7
100
AcDbSpline
 70
     0
 71
     3
 72
    15
 73
    11
 74
     0
 42
0.000000001
 43
0.0000001
 40
0.0
 40
0.0
 40
0.0
 40
0.0
 40
0.1686964145
 40
0.303825837
 40
0.4094560199
 40
0.5000450187
 40
0.5906383609
 40
0.6962584594
 40
0.831376692
 40
1.0
 40
1.0
 40
1.0
 40
1.0
 10
85.0732388191
 20
695.1551236526
 30
0.0
 10
85.0732388191
 20
695.0485133203
 30
0.0
 10
85.1036084542
 20
694.8546377266
 30
0.0
 10
85.2269490689
 20
694.6214475643
 30
0.0
 10
85.3908763313
 20
694.4816666246
 30
0.0
 10
85.5733330253
 20
694.4351220403
 30
0.0
 10
85.7557542682
 20
694.4817619951
 30
0.0
 10
85.9196295428
 20
694.6215775525
 30
0.0
 10
86.0428864556
 20
694.8547423498
 30
0.0
 10
86.0732388191
 20
695.0485595211
 30
0.0
 10
86.0732388191
 20
695.1551236526
 30
0.0
  0
LINE
  5
303
330
224
100
AcDbEntity
  8
3_ALL_AXES
  6
Continuous
 62
     9
100
AcDbLine
 10
86.573239
 20
695.155124
 30
0.0
 11
86.073239
 21
695.155124
 31
0.0
  0
LINE
  5
304
330
224
100
AcDbEntity
  8
3_ALL_AXES
  6
Continuous
 62
     9
100
AcDbLine
 10
85.073239
 20
695.155124
 30
0.0
 11
80.573239
 21
695.155124
 31
0.0
  0
LINE
  5
305
330
224
100
AcDbEntity
  8
3_ALL_AXES
  6
Continuous
 62
     9
100
AcDbLine
 10
78.573239
 20
695.155124
 30
0.0
 11
74.073239
 21
695.155124
 31
0.0
  0
LINE
  5
306
330
224
100
AcDbEntity
  8
3_ALL_AXES
  6
Continuous
 62
     9
100
AcDbLine
 10
73.073239
 20
695.155124
 30
0.0
 11
72.573239
 21
695.155124
 31
0.0
  0
LINE
  5
307
330
224
100
AcDbEntity
  8
3_ALL_AXES
  6
Continuous
 62
     7
100
AcDbLine
 10
83.573239
 20
701.155124
 30
0.0
 11
83.573239
 21
696.655124
 31
0.0
  0
SPLINE
  5
308
330
224
100
AcDbEntity
  8
3_ALL_AXES
  6
Continuous
 62
     7
100
AcDbSpline
 70
     0
 71
     3
 72
     9
 73
     5
 74
     0
 42
0.000000001
 43
0.0000001
 40
0.0
 40
0.0
 40
0.0
 40
0.0
 40
0.4998348289
 40
1.0
 40
1.0
 40
1.0
 40
1.0
 10
80.5732388191
 20
695.6551236526
 30
0.0
 10
81.0965038474
 20
695.7298757995
 30
0.0
 10
82.1283365716
 20
695.9943465721
 30
0.0
 10
83.1001522731
 20
696.4185803796
 30
0.0
 10
83.5732388191
 20
696.6551236526
 30
0.0
  0
LINE
  5
309
330
224
100
AcDbEntity
  8
3_ALL_AXES
  6
Continuous
 62
     7
100
AcDbLine
 10
78.573239
 20
695.655124
 30
0.0
 11
74.073239
 21
695.655124
 31
0.0
  0
LINE
  5
30A
330
224
100
AcDbEntity
  8
3_ALL_AXES
  6
Continuous
 62
     7
100
AcDbLine
 10
85.073239
 20
695.655124
 30
0.0
 11
80.573239
 21
695.655124
 31
0.0
  0
LINE
  5
30B
330
224
100
AcDbEntity
  8
3_ALL_AXES
  6
Continuous
 62
     7
100
AcDbLine
 10
86.073239
 20
695.655124
 30
0.0
 11
86.573239
 21
695.655124
 31
0.0
  0
LINE
  5
30C
330
224
100
AcDbEntity
  8
7_ALL_FEATURES
  6
Continuous
 62
     7
100
AcDbLine
 10
1278.573239
 20
718.355124
 30
0.0
 11
1278.573239
 21
730.355124
 31
0.0
  0
LINE
  5
30D
330
224
100
AcDbEntity
  8
7_ALL_FEATURES
  6
Continuous
 62
     7
100
AcDbLine
 10
1278.573239
 20
730.355124
 30
0.0
 11
1278.073239
 21
730.855124
 31
0.0
  0
LINE
  5
30E
330
224
100
AcDbEntity
  8
7_ALL_FEATURES
  6
Continuous
 62
     7
100
AcDbLine
 10
1278.573239
 20
706.355124
 30
0.0
 11
1278.573239
 21
718.355124
 31
0.0
  0
LINE
  5
30F
330
224
100
AcDbEntity
  8
7_ALL_FEATURES
  6
Continuous
 62
     7
100
AcDbLine
 10
1278.573239
 20
706.355124
 30
0.0
 11
1278.073239
 21
705.855124
 31
0.0
  0
LINE
  5
310
330
224
100
AcDbEntity
  8
7_ALL_FEATURES
  6
Continuous
 62
     7
100
AcDbLine
 10
1276.073239
 20
730.355124
 30
0.0
 11
1276.573239
 21
730.855124
 31
0.0
  0
LINE
  5
311
330
224
100
AcDbEntity
  8
7_ALL_FEATURES
  6
Continuous
 62
     7
100
AcDbLine
 10
1276.073239
 20
706.355124
 30
0.0
 11
1276.573239
 21
705.855124
 31
0.0
  0
LINE
  5
312
330
224
100
AcDbEntity
  8
3_ALL_AXES
  6
Continuous
 62
     7
100
AcDbLine
 10
1276.573239
 20
730.855124
 30
0.0
 11
1278.073239
 21
730.855124
 31
0.0
  0
LINE
  5
313
330
224
100
AcDbEntity
  8
3_ALL_AXES
  6
Continuous
 62
     7
100
AcDbLine
 10
1276.573239
 20
705.855124
 30
0.0
 11
1278.073239
 21
705.855124
 31
0.0
  0
LINE
  5
314
330
224
100
AcDbEntity
  8
7_ALL_FEATURES
  6
Continuous
 62
     7
100
AcDbLine
 10
1276.573239
 20
718.355124
 30
0.0
 11
1276.573239
 21
730.855124
 31
0.0
  0
LINE
  5
315
330
224
100
AcDbEntity
  8
7_ALL_FEATURES
  6
Continuous
 62
     7
100
AcDbLine
 10
1278.073239
 20
718.355124
 30
0.0
 11
1278.073239
 21
730.855124
 31
0.0
  0
LINE
  5
316
330
224
100
AcDbEntity
  8
7_ALL_FEATURES
  6
Continuous
 62
     7
100
AcDbLine
 10
1276.573239
 20
705.855124
 30
0.0
 11
1276.573239
 21
718.355124
 31
0.0
  0
LINE
  5
317
330
224
100
AcDbEntity
  8
7_ALL_FEATURES
  6
Continuous
 62
     7
100
AcDbLine
 10
1278.073239
 20
705.855124
 30
0.0
 11
1278.073239
 21
718.355124
 31
0.0
  0
LINE
  5
318
330
224
100
AcDbEntity
  8
7_ALL_FEATURES
  6
Continuous
 62
     7
100
AcDbLine
 10
86.273239
 20
707.655124
 30
0.0
 11
83.842287
 21
707.655124
 31
0.0
  0
LINE
  5
319
330
224
100
AcDbEntity
  8
7_ALL_FEATURES
  6
Continuous
 62
     7
100
AcDbLine
 10
75.30419
 20
707.655124
 30
0.0
 11
71.573239
 21
707.655124
 31
0.0
  0
LINE
  5
31A
330
224
100
AcDbEntity
  8
7_ALL_FEATURES
  6
Continuous
 62
     7
100
AcDbLine
 10
71.573239
 20
707.655124
 30
0.0
 11
71.073239
 21
707.655124
 31
0.0
  0
LINE
  5
31B
330
224
100
AcDbEntity
  8
7_ALL_FEATURES
  6
Continuous
 62
     7
100
AcDbLine
 10
71.073239
 20
707.655124
 30
0.0
 11
70.573239
 21
707.655124
 31
0.0
  0
LINE
  5
31C
330
224
100
AcDbEntity
  8
3_ALL_AXES
  6
Continuous
 62
     7
100
AcDbLine
 10
86.273239
 20
707.655124
 30
0.0
 11
88.052676
 21
705.875686
 31
0.0
  0
LINE
  5
31D
330
224
100
AcDbEntity
  8
3_ALL_AXES
  6
Continuous
 62
     7
100
AcDbLine
 10
88.052676
 20
705.875686
 30
0.0
 11
88.073208
 21
705.855155
 31
0.0
  0
SPLINE
  5
31E
330
224
100
AcDbEntity
  8
3_ALL_AXES
  6
Continuous
 62
     7
100
AcDbSpline
 70
     0
 71
     3
 72
     8
 73
     4
 74
     0
 42
0.000000001
 43
0.0000001
 40
0.0
 40
0.0
 40
0.0
 40
0.0
 40
1.0
 40
1.0
 40
1.0
 40
1.0
 10
88.0732059695
 20
705.8551565022
 30
0.0
 10
88.0732065145
 20
705.8551559572
 30
0.0
 10
88.0732070595
 20
705.8551554122
 30
0.0
 10
88.0732076045
 20
705.8551548672
 30
0.0
  0
LINE
  5
31F
330
224
100
AcDbEntity
  8
7_ALL_FEATURES
  6
Continuous
 62
     7
100
AcDbLine
 10
70.573239
 20
707.655124
 30
0.0
 11
70.573239
 21
730.355124
 31
0.0
  0
LINE
  5
320
330
224
100
AcDbEntity
  8
7_ALL_FEATURES
  6
Continuous
 62
     7
100
AcDbLine
 10
70.573239
 20
730.355124
 30
0.0
 11
71.073239
 21
730.855124
 31
0.0
  0
LINE
  5
321
330
224
100
AcDbEntity
  8
7_ALL_FEATURES
  6
Continuous
 62
     7
100
AcDbLine
 10
89.073239
 20
706.355124
 30
0.0
 11
88.573239
 21
705.855124
 31
0.0
  0
LINE
  5
322
330
224
100
AcDbEntity
  8
7_ALL_FEATURES
  6
Continuous
 62
     7
100
AcDbLine
 10
89.073239
 20
730.355124
 30
0.0
 11
88.573239
 21
730.855124
 31
0.0
  0
LINE
  5
323
330
224
100
AcDbEntity
  8
3_ALL_AXES
  6
Continuous
 62
     7
100
AcDbLine
 10
88.573239
 20
705.855124
 30
0.0
 11
88.073239
 21
705.855124
 31
0.0
  0
LINE
  5
324
330
224
100
AcDbEntity
  8
3_ALL_AXES
  6
Continuous
 62
     7
100
AcDbLine
 10
88.073239
 20
705.855124
 30
0.0
 11
88.052677
 21
705.855124
 31
0.0
  0
LINE
  5
325
330
224
100
AcDbEntity
  8
3_ALL_AXES
  6
Continuous
 62
     7
100
AcDbLine
 10
88.573239
 20
730.855124
 30
0.0
 11
71.073239
 21
730.855124
 31
0.0
  0
LINE
  5
326
330
224
100
AcDbEntity
  8
7_ALL_FEATURES
  6
Continuous
 62
     7
100
AcDbLine
 10
71.073239
 20
718.355124
 30
0.0
 11
71.073239
 21
707.655124
 31
0.0
  0
LINE
  5
327
330
224
100
AcDbEntity
  8
7_ALL_FEATURES
  6
Continuous
 62
     7
100
AcDbLine
 10
88.573239
 20
718.355124
 30
0.0
 11
88.573239
 21
705.855124
 31
0.0
  0
LINE
  5
328
330
224
100
AcDbEntity
  8
7_ALL_FEATURES
  6
Continuous
 62
     7
100
AcDbLine
 10
88.573239
 20
730.855124
 30
0.0
 11
88.573239
 21
718.355124
 31
0.0
  0
LINE
  5
329
330
224
100
AcDbEntity
  8
7_ALL_FEATURES
  6
Continuous
 62
     7
100
AcDbLine
 10
71.073239
 20
730.855124
 30
0.0
 11
71.073239
 21
718.355124
 31
0.0
  0
LINE
  5
32A
330
224
100
AcDbEntity
  8
3_ALL_AXES
  6
Continuous
 62
     7
100
AcDbLine
 10
89.073239
 20
705.855124
 30
0.0
 11
89.073239
 21
706.218351
 31
0.0
  0
LINE
  5
32B
330
224
100
AcDbEntity
  8
3_ALL_AXES
  6
Continuous
 62
     7
100
AcDbLine
 10
89.073239
 20
706.218351
 30
0.0
 11
89.073239
 21
706.498418
 31
0.0
  0
LINE
  5
32C
330
224
100
AcDbEntity
  8
3_ALL_AXES
  6
Continuous
 62
     7
100
AcDbLine
 10
89.073239
 20
706.498418
 30
0.0
 11
89.073239
 21
707.790248
 31
0.0
  0
LINE
  5
32D
330
224
100
AcDbEntity
  8
3_ALL_AXES
  6
Continuous
 62
     7
100
AcDbLine
 10
89.073239
 20
707.790248
 30
0.0
 11
89.073239
 21
708.067825
 31
0.0
  0
LINE
  5
32E
330
224
100
AcDbEntity
  8
3_ALL_AXES
  6
Continuous
 62
     7
100
AcDbLine
 10
89.073239
 20
708.067825
 30
0.0
 11
89.073239
 21
718.355124
 31
0.0
  0
LINE
  5
32F
330
224
100
AcDbEntity
  8
3_ALL_AXES
  6
Continuous
 62
     7
100
AcDbLine
 10
89.073239
 20
718.355124
 30
0.0
 11
89.073239
 21
728.642422
 31
0.0
  0
LINE
  5
330
330
224
100
AcDbEntity
  8
3_ALL_AXES
  6
Continuous
 62
     7
100
AcDbLine
 10
89.073239
 20
728.642422
 30
0.0
 11
89.073239
 21
728.92
 31
0.0
  0
LINE
  5
331
330
224
100
AcDbEntity
  8
3_ALL_AXES
  6
Continuous
 62
     7
100
AcDbLine
 10
89.073239
 20
728.92
 30
0.0
 11
89.073239
 21
730.211829
 31
0.0
  0
LINE
  5
332
330
224
100
AcDbEntity
  8
3_ALL_AXES
  6
Continuous
 62
     7
100
AcDbLine
 10
89.073239
 20
730.211829
 30
0.0
 11
89.073239
 21
730.491896
 31
0.0
  0
LINE
  5
333
330
224
100
AcDbEntity
  8
3_ALL_AXES
  6
Continuous
 62
     7
100
AcDbLine
 10
89.073239
 20
730.491896
 30
0.0
 11
89.073239
 21
730.855124
 31
0.0
  0
LINE
  5
334
330
224
100
AcDbEntity
  8
3_ALL_AXES
  6
Continuous
 62
     7
100
AcDbLine
 10
1276.073239
 20
705.855124
 30
0.0
 11
1276.073239
 21
706.218351
 31
0.0
  0
LINE
  5
335
330
224
100
AcDbEntity
  8
3_ALL_AXES
  6
Continuous
 62
     7
100
AcDbLine
 10
1276.073239
 20
706.218351
 30
0.0
 11
1276.073239
 21
706.498418
 31
0.0
  0
LINE
  5
336
330
224
100
AcDbEntity
  8
3_ALL_AXES
  6
Continuous
 62
     7
100
AcDbLine
 10
1276.073239
 20
706.498418
 30
0.0
 11
1276.073239
 21
707.790248
 31
0.0
  0
LINE
  5
337
330
224
100
AcDbEntity
  8
3_ALL_AXES
  6
Continuous
 62
     7
100
AcDbLine
 10
1276.073239
 20
707.790248
 30
0.0
 11
1276.073239
 21
708.067825
 31
0.0
  0
LINE
  5
338
330
224
100
AcDbEntity
  8
3_ALL_AXES
  6
Continuous
 62
     7
100
AcDbLine
 10
1276.073239
 20
708.067825
 30
0.0
 11
1276.073239
 21
718.355124
 31
0.0
  0
LINE
  5
339
330
224
100
AcDbEntity
  8
3_ALL_AXES
  6
Continuous
 62
     7
100
AcDbLine
 10
1276.073239
 20
718.355124
 30
0.0
 11
1276.073239
 21
728.642422
 31
0.0
  0
LINE
  5
33A
330
224
100
AcDbEntity
  8
3_ALL_AXES
  6
Continuous
 62
     7
100
AcDbLine
 10
1276.073239
 20
728.642422
 30
0.0
 11
1276.073239
 21
728.92
 31
0.0
  0
LINE
  5
33B
330
224
100
AcDbEntity
  8
3_ALL_AXES
  6
Continuous
 62
     7
100
AcDbLine
 10
1276.073239
 20
728.92
 30
0.0
 11
1276.073239
 21
730.211829
 31
0.0
  0
LINE
  5
33C
330
224
100
AcDbEntity
  8
3_ALL_AXES
  6
Continuous
 62
     7
100
AcDbLine
 10
1276.073239
 20
730.211829
 30
0.0
 11
1276.073239
 21
730.491896
 31
0.0
  0
LINE
  5
33D
330
224
100
AcDbEntity
  8
3_ALL_AXES
  6
Continuous
 62
     7
100
AcDbLine
 10
1276.073239
 20
730.491896
 30
0.0
 11
1276.073239
 21
730.855124
 31
0.0
  0
LINE
  5
33E
330
224
100
AcDbEntity
  8
3_ALL_AXES
  6
Continuous
 62
     7
100
AcDbLine
 10
1276.073239
 20
705.855124
 30
0.0
 11
89.073239
 21
705.855124
 31
0.0
  0
LINE
  5
33F
330
224
100
AcDbEntity
  8
3_ALL_AXES
  6
Continuous
 62
     7
100
AcDbLine
 10
1276.073239
 20
730.855124
 30
0.0
 11
89.073239
 21
730.855124
 31
0.0
  0
LINE
  5
340
330
224
100
AcDbEntity
  8
3_ALL_AXES
  6
Continuous
 62
     7
100
AcDbLine
 10
1276.073239
 20
730.855124
 30
0.0
 11
89.073239
 21
730.855124
 31
0.0
  0
ARC
  5
341
330
224
100
AcDbEntity
  8
3_ALL_AXES
  6
Continuous
 62
     7
100
AcDbCircle
 10
1267.573239
 20
718.355124
 30
0.0
 40
0.825
100
AcDbArc
 50
270.0
 51
90.0
  0
ARC
  5
342
330
224
100
AcDbEntity
  8
3_ALL_AXES
  6
Continuous
 62
     7
100
AcDbCircle
 10
1267.573239
 20
718.355124
 30
0.0
 40
0.825
100
AcDbArc
 50
90.0
 51
270.0
  0
LINE
  5
343
330
224
100
AcDbEntity
  8
3_ALL_AXES
  6
Continuous
 62
     7
100
AcDbLine
 10
1276.073239
 20
705.855124
 30
0.0
 11
89.073239
 21
705.855124
 31
0.0
  0
ARC
  5
344
330
224
100
AcDbEntity
  8
3_ALL_AXES
  6
Continuous
 62
     7
100
AcDbCircle
 10
97.573239
 20
718.355124
 30
0.0
 40
0.825
100
AcDbArc
 50
270.0
 51
90.0
  0
ARC
  5
345
330
224
100
AcDbEntity
  8
3_ALL_AXES
  6
Continuous
 62
     7
100
AcDbCircle
 10
97.573239
 20
718.355124
 30
0.0
 40
0.825
100
AcDbArc
 50
90.0
 51
270.0
  0
LINE
  5
346
330
224
100
AcDbEntity
  8
7_ALL_FEATURES
  6
Continuous
 62
     7
100
AcDbLine
 10
1267.573239
 20
963.785171
 30
0.0
 11
1266.867084
 21
963.785171
 31
0.0
  0
LINE
  5
347
330
224
100
AcDbEntity
  8
7_ALL_FEATURES
  6
Continuous
 62
     7
100
AcDbLine
 10
1266.867084
 20
963.785171
 30
0.0
 11
1266.654194
 21
963.785171
 31
0.0
  0
LINE
  5
348
330
224
100
AcDbEntity
  8
7_ALL_FEATURES
  6
Continuous
 62
     7
100
AcDbLine
 10
1266.654194
 20
963.785171
 30
0.0
 11
1266.288489
 21
963.785171
 31
0.0
  0
LINE
  5
349
330
224
100
AcDbEntity
  8
7_ALL_FEATURES
  6
Continuous
 62
     7
100
AcDbLine
 10
1266.288489
 20
963.785171
 30
0.0
 11
1266.273239
 21
963.785171
 31
0.0
  0
LINE
  5
34A
330
224
100
AcDbEntity
  8
7_ALL_FEATURES
  6
Continuous
 62
     7
100
AcDbLine
 10
1266.273239
 20
963.785171
 30
0.0
 11
1265.873239
 21
963.785171
 31
0.0
  0
LINE
  5
34B
330
224
100
AcDbEntity
  8
7_ALL_FEATURES
  6
Continuous
 62
     7
100
AcDbLine
 10
1269.273239
 20
963.785171
 30
0.0
 11
1268.873239
 21
963.785171
 31
0.0
  0
LINE
  5
34C
330
224
100
AcDbEntity
  8
7_ALL_FEATURES
  6
Continuous
 62
     7
100
AcDbLine
 10
1268.873239
 20
963.785171
 30
0.0
 11
1268.857984
 21
963.785171
 31
0.0
  0
LINE
  5
34D
330
224
100
AcDbEntity
  8
7_ALL_FEATURES
  6
Continuous
 62
     7
100
AcDbLine
 10
1268.857984
 20
963.785171
 30
0.0
 11
1268.492278
 21
963.785171
 31
0.0
  0
LINE
  5
34E
330
224
100
AcDbEntity
  8
7_ALL_FEATURES
  6
Continuous
 62
     7
100
AcDbLine
 10
1268.492278
 20
963.785171
 30
0.0
 11
1268.279388
 21
963.785171
 31
0.0
  0
LINE
  5
34F
330
224
100
AcDbEntity
  8
7_ALL_FEATURES
  6
Continuous
 62
     7
100
AcDbLine
 10
1268.279388
 20
963.785171
 30
0.0
 11
1267.573239
 21
963.785171
 31
0.0
  0
LINE
  5
350
330
224
100
AcDbEntity
  8
7_ALL_FEATURES
  6
Continuous
 62
     7
100
AcDbLine
 10
97.573239
 20
963.785171
 30
0.0
 11
96.867084
 21
963.785171
 31
0.0
  0
LINE
  5
351
330
224
100
AcDbEntity
  8
7_ALL_FEATURES
  6
Continuous
 62
     7
100
AcDbLine
 10
96.867084
 20
963.785171
 30
0.0
 11
96.654194
 21
963.785171
 31
0.0
  0
LINE
  5
352
330
224
100
AcDbEntity
  8
7_ALL_FEATURES
  6
Continuous
 62
     7
100
AcDbLine
 10
96.654194
 20
963.785171
 30
0.0
 11
96.288489
 21
963.785171
 31
0.0
  0
LINE
  5
353
330
224
100
AcDbEntity
  8
7_ALL_FEATURES
  6
Continuous
 62
     7
100
AcDbLine
 10
96.288489
 20
963.785171
 30
0.0
 11
96.273239
 21
963.785171
 31
0.0
  0
LINE
  5
354
330
224
100
AcDbEntity
  8
7_ALL_FEATURES
  6
Continuous
 62
     7
100
AcDbLine
 10
96.273239
 20
963.785171
 30
0.0
 11
95.873239
 21
963.785171
 31
0.0
  0
LINE
  5
355
330
224
100
AcDbEntity
  8
7_ALL_FEATURES
  6
Continuous
 62
     7
100
AcDbLine
 10
99.273239
 20
963.785171
 30
0.0
 11
98.873239
 21
963.785171
 31
0.0
  0
LINE
  5
356
330
224
100
AcDbEntity
  8
7_ALL_FEATURES
  6
Continuous
 62
     7
100
AcDbLine
 10
98.873239
 20
963.785171
 30
0.0
 11
98.857984
 21
963.785171
 31
0.0
  0
LINE
  5
357
330
224
100
AcDbEntity
  8
7_ALL_FEATURES
  6
Continuous
 62
     7
100
AcDbLine
 10
98.857984
 20
963.785171
 30
0.0
 11
98.492278
 21
963.785171
 31
0.0
  0
LINE
  5
358
330
224
100
AcDbEntity
  8
7_ALL_FEATURES
  6
Continuous
 62
     7
100
AcDbLine
 10
98.492278
 20
963.785171
 30
0.0
 11
98.279388
 21
963.785171
 31
0.0
  0
LINE
  5
359
330
224
100
AcDbEntity
  8
7_ALL_FEATURES
  6
Continuous
 62
     7
100
AcDbLine
 10
98.279388
 20
963.785171
 30
0.0
 11
97.573239
 21
963.785171
 31
0.0
  0
LINE
  5
35A
330
224
100
AcDbEntity
  8
7_ALL_FEATURES
  6
Continuous
 62
     7
100
AcDbLine
 10
96.773239
 20
938.785171
 30
0.0
 11
98.057989
 21
938.785171
 31
0.0
  0
LINE
  5
35B
330
224
100
AcDbEntity
  8
7_ALL_FEATURES
  6
Continuous
 62
     7
100
AcDbLine
 10
98.057989
 20
938.785171
 30
0.0
 11
98.073239
 21
938.785171
 31
0.0
  0
LINE
  5
35C
330
224
100
AcDbEntity
  8
7_ALL_FEATURES
  6
Continuous
 62
     7
100
AcDbLine
 10
98.073239
 20
938.785171
 30
0.0
 11
98.473239
 21
938.785171
 31
0.0
  0
LINE
  5
35D
330
224
100
AcDbEntity
  8
7_ALL_FEATURES
  6
Continuous
 62
     7
100
AcDbLine
 10
98.473239
 20
938.785171
 30
0.0
 11
98.591663
 21
938.903595
 31
0.0
  0
LINE
  5
35E
330
224
100
AcDbEntity
  8
7_ALL_FEATURES
  6
Continuous
 62
     7
100
AcDbLine
 10
95.073239
 20
938.785171
 30
0.0
 11
95.473239
 21
938.785171
 31
0.0
  0
LINE
  5
35F
330
224
100
AcDbEntity
  8
7_ALL_FEATURES
  6
Continuous
 62
     7
100
AcDbLine
 10
95.473239
 20
938.785171
 30
0.0
 11
95.488493
 21
938.785171
 31
0.0
  0
LINE
  5
360
330
224
100
AcDbEntity
  8
7_ALL_FEATURES
  6
Continuous
 62
     7
100
AcDbLine
 10
95.488493
 20
938.785171
 30
0.0
 11
95.660018
 21
938.785171
 31
0.0
  0
LINE
  5
361
330
224
100
AcDbEntity
  8
7_ALL_FEATURES
  6
Continuous
 62
     7
100
AcDbLine
 10
95.660018
 20
938.785171
 30
0.0
 11
96.773239
 21
938.785171
 31
0.0
  0
LINE
  5
362
330
224
100
AcDbEntity
  8
7_ALL_FEATURES
  6
Continuous
 62
     7
100
AcDbLine
 10
1267.573239
 20
938.785171
 30
0.0
 11
1268.857989
 21
938.785171
 31
0.0
  0
LINE
  5
363
330
224
100
AcDbEntity
  8
7_ALL_FEATURES
  6
Continuous
 62
     7
100
AcDbLine
 10
1268.857989
 20
938.785171
 30
0.0
 11
1268.873239
 21
938.785171
 31
0.0
  0
LINE
  5
364
330
224
100
AcDbEntity
  8
7_ALL_FEATURES
  6
Continuous
 62
     7
100
AcDbLine
 10
1268.873239
 20
938.785171
 30
0.0
 11
1269.119605
 21
938.785171
 31
0.0
  0
LINE
  5
365
330
224
100
AcDbEntity
  8
7_ALL_FEATURES
  6
Continuous
 62
     7
100
AcDbLine
 10
1269.119605
 20
938.785171
 30
0.0
 11
1269.255935
 21
938.785171
 31
0.0
  0
LINE
  5
366
330
224
100
AcDbEntity
  8
7_ALL_FEATURES
  6
Continuous
 62
     7
100
AcDbLine
 10
1269.255935
 20
938.785171
 30
0.0
 11
1269.273239
 21
938.785171
 31
0.0
  0
LINE
  5
367
330
224
100
AcDbEntity
  8
7_ALL_FEATURES
  6
Continuous
 62
     7
100
AcDbLine
 10
1265.873239
 20
938.785171
 30
0.0
 11
1265.942107
 21
938.785171
 31
0.0
  0
LINE
  5
368
330
224
100
AcDbEntity
  8
7_ALL_FEATURES
  6
Continuous
 62
     7
100
AcDbLine
 10
1265.942107
 20
938.785171
 30
0.0
 11
1266.026876
 21
938.785171
 31
0.0
  0
LINE
  5
369
330
224
100
AcDbEntity
  8
7_ALL_FEATURES
  6
Continuous
 62
     7
100
AcDbLine
 10
1266.026876
 20
938.785171
 30
0.0
 11
1266.273239
 21
938.785171
 31
0.0
  0
LINE
  5
36A
330
224
100
AcDbEntity
  8
7_ALL_FEATURES
  6
Continuous
 62
     7
100
AcDbLine
 10
1266.273239
 20
938.785171
 30
0.0
 11
1266.288493
 21
938.785171
 31
0.0
  0
LINE
  5
36B
330
224
100
AcDbEntity
  8
7_ALL_FEATURES
  6
Continuous
 62
     7
100
AcDbLine
 10
1266.288493
 20
938.785171
 30
0.0
 11
1267.573239
 21
938.785171
 31
0.0
  0
LINE
  5
36C
330
224
100
AcDbEntity
  8
7_ALL_FEATURES
  6
Continuous
 62
     7
100
AcDbLine
 10
82.823239
 20
948.224818
 30
0.0
 11
82.823239
 21
947.285171
 31
0.0
  0
LINE
  5
36D
330
224
100
AcDbEntity
  8
7_ALL_FEATURES
  6
Continuous
 62
     7
100
AcDbLine
 10
76.323239
 20
948.224818
 30
0.0
 11
76.323239
 21
947.285171
 31
0.0
  0
ARC
  5
36E
330
224
100
AcDbEntity
  8
7_ALL_FEATURES
  6
Continuous
 62
     7
100
AcDbCircle
 10
79.573239
 20
951.285171
 30
0.0
 40
3.25
100
AcDbArc
 50
90.0
 51
102.110598
  0
ARC
  5
36F
330
224
100
AcDbEntity
  8
7_ALL_FEATURES
  6
Continuous
 62
     7
100
AcDbCircle
 10
79.573239
 20
951.285171
 30
0.0
 40
3.25
100
AcDbArc
 50
102.110598
 51
106.075226
  0
ARC
  5
370
330
224
100
AcDbEntity
  8
7_ALL_FEATURES
  6
Continuous
 62
     7
100
AcDbCircle
 10
79.573239
 20
951.285171
 30
0.0
 40
3.25
100
AcDbArc
 50
106.075226
 51
114.24575
  0
ARC
  5
371
330
224
100
AcDbEntity
  8
7_ALL_FEATURES
  6
Continuous
 62
     7
100
AcDbCircle
 10
79.573239
 20
951.285171
 30
0.0
 40
3.25
100
AcDbArc
 50
114.24575
 51
118.934903
  0
ARC
  5
372
330
224
100
AcDbEntity
  8
7_ALL_FEATURES
  6
Continuous
 62
     7
100
AcDbCircle
 10
79.573239
 20
951.285171
 30
0.0
 40
3.25
100
AcDbArc
 50
118.934903
 51
126.42012
  0
ARC
  5
373
330
224
100
AcDbEntity
  8
7_ALL_FEATURES
  6
Continuous
 62
     7
100
AcDbCircle
 10
79.573239
 20
951.285171
 30
0.0
 40
3.25
100
AcDbArc
 50
126.42012
 51
131.334494
  0
ARC
  5
374
330
224
100
AcDbEntity
  8
7_ALL_FEATURES
  6
Continuous
 62
     7
100
AcDbCircle
 10
79.573239
 20
951.285171
 30
0.0
 40
3.25
100
AcDbArc
 50
131.334494
 51
138.665506
  0
ARC
  5
375
330
224
100
AcDbEntity
  8
7_ALL_FEATURES
  6
Continuous
 62
     7
100
AcDbCircle
 10
79.573239
 20
951.285171
 30
0.0
 40
3.25
100
AcDbArc
 50
138.665506
 51
143.57988
  0
ARC
  5
376
330
224
100
AcDbEntity
  8
7_ALL_FEATURES
  6
Continuous
 62
     7
100
AcDbCircle
 10
79.573239
 20
951.285171
 30
0.0
 40
3.25
100
AcDbArc
 50
143.57988
 51
151.065097
  0
ARC
  5
377
330
224
100
AcDbEntity
  8
7_ALL_FEATURES
  6
Continuous
 62
     7
100
AcDbCircle
 10
79.573239
 20
951.285171
 30
0.0
 40
3.25
100
AcDbArc
 50
151.065097
 51
155.75425
  0
ARC
  5
378
330
224
100
AcDbEntity
  8
7_ALL_FEATURES
  6
Continuous
 62
     7
100
AcDbCircle
 10
79.573239
 20
951.285171
 30
0.0
 40
3.25
100
AcDbArc
 50
155.75425
 51
163.924774
  0
ARC
  5
379
330
224
100
AcDbEntity
  8
7_ALL_FEATURES
  6
Continuous
 62
     7
100
AcDbCircle
 10
79.573239
 20
951.285171
 30
0.0
 40
3.25
100
AcDbArc
 50
163.924774
 51
167.889402
  0
ARC
  5
37A
330
224
100
AcDbEntity
  8
7_ALL_FEATURES
  6
Continuous
 62
     7
100
AcDbCircle
 10
79.573239
 20
951.285171
 30
0.0
 40
3.25
100
AcDbArc
 50
167.889402
 51
180.0
  0
LINE
  5
37B
330
224
100
AcDbEntity
  8
7_ALL_FEATURES
  6
Continuous
 62
     7
100
AcDbLine
 10
82.823239
 20
950.180944
 30
0.0
 11
82.823239
 21
948.224818
 31
0.0
  0
LINE
  5
37C
330
224
100
AcDbEntity
  8
7_ALL_FEATURES
  6
Continuous
 62
     7
100
AcDbLine
 10
76.323239
 20
950.180944
 30
0.0
 11
76.323239
 21
948.224818
 31
0.0
  0
ARC
  5
37D
330
224
100
AcDbEntity
  8
7_ALL_FEATURES
  6
Continuous
 62
     7
100
AcDbCircle
 10
79.573239
 20
951.285171
 30
0.0
 40
3.25
100
AcDbArc
 50
77.879831
 51
90.0
  0
ARC
  5
37E
330
224
100
AcDbEntity
  8
7_ALL_FEATURES
  6
Continuous
 62
     7
100
AcDbCircle
 10
79.573239
 20
951.285171
 30
0.0
 40
3.25
100
AcDbArc
 50
73.932368
 51
77.879831
  0
ARC
  5
37F
330
224
100
AcDbEntity
  8
7_ALL_FEATURES
  6
Continuous
 62
     7
100
AcDbCircle
 10
79.573239
 20
951.285171
 30
0.0
 40
3.25
100
AcDbArc
 50
65.739259
 51
73.932368
  0
ARC
  5
380
330
224
100
AcDbEntity
  8
7_ALL_FEATURES
  6
Continuous
 62
     7
100
AcDbCircle
 10
79.573239
 20
951.285171
 30
0.0
 40
3.25
100
AcDbArc
 50
61.077758
 51
65.739259
  0
ARC
  5
381
330
224
100
AcDbEntity
  8
7_ALL_FEATURES
  6
Continuous
 62
     7
100
AcDbCircle
 10
79.573239
 20
951.285171
 30
0.0
 40
3.25
100
AcDbArc
 50
53.562981
 51
61.077758
  0
ARC
  5
382
330
224
100
AcDbEntity
  8
7_ALL_FEATURES
  6
Continuous
 62
     7
100
AcDbCircle
 10
79.573239
 20
951.285171
 30
0.0
 40
3.25
100
AcDbArc
 50
48.68143
 51
53.562981
  0
ARC
  5
383
330
224
100
AcDbEntity
  8
7_ALL_FEATURES
  6
Continuous
 62
     7
100
AcDbCircle
 10
79.573239
 20
951.285171
 30
0.0
 40
3.25
100
AcDbArc
 50
41.31857
 51
48.68143
  0
ARC
  5
384
330
224
100
AcDbEntity
  8
7_ALL_FEATURES
  6
Continuous
 62
     7
100
AcDbCircle
 10
79.573239
 20
951.285171
 30
0.0
 40
3.25
100
AcDbArc
 50
36.437019
 51
41.31857
  0
ARC
  5
385
330
224
100
AcDbEntity
  8
7_ALL_FEATURES
  6
Continuous
 62
     7
100
AcDbCircle
 10
79.573239
 20
951.285171
 30
0.0
 40
3.25
100
AcDbArc
 50
28.922242
 51
36.437019
  0
ARC
  5
386
330
224
100
AcDbEntity
  8
7_ALL_FEATURES
  6
Continuous
 62
     7
100
AcDbCircle
 10
79.573239
 20
951.285171
 30
0.0
 40
3.25
100
AcDbArc
 50
24.260741
 51
28.922242
  0
ARC
  5
387
330
224
100
AcDbEntity
  8
7_ALL_FEATURES
  6
Continuous
 62
     7
100
AcDbCircle
 10
79.573239
 20
951.285171
 30
0.0
 40
3.25
100
AcDbArc
 50
16.067632
 51
24.260741
  0
ARC
  5
388
330
224
100
AcDbEntity
  8
7_ALL_FEATURES
  6
Continuous
 62
     7
100
AcDbCircle
 10
79.573239
 20
951.285171
 30
0.0
 40
3.25
100
AcDbArc
 50
12.120169
 51
16.067632
  0
ARC
  5
389
330
224
100
AcDbEntity
  8
7_ALL_FEATURES
  6
Continuous
 62
     7
100
AcDbCircle
 10
79.573239
 20
951.285171
 30
0.0
 40
3.25
100
AcDbArc
 50
0.0
 51
12.120169
  0
ARC
  5
38A
330
224
100
AcDbEntity
  8
7_ALL_FEATURES
  6
Continuous
 62
     7
100
AcDbCircle
 10
79.573239
 20
947.285171
 30
0.0
 40
3.25
100
AcDbArc
 50
90.0
 51
270.0
  0
ARC
  5
38B
330
224
100
AcDbEntity
  8
7_ALL_FEATURES
  6
Continuous
 62
     7
100
AcDbCircle
 10
79.573239
 20
947.285171
 30
0.0
 40
3.25
100
AcDbArc
 50
270.0
 51
90.0
  0
ARC
  5
38C
330
224
100
AcDbEntity
  8
7_ALL_FEATURES
  6
Continuous
 62
     7
100
AcDbCircle
 10
79.573239
 20
951.285171
 30
0.0
 40
3.25
100
AcDbArc
 50
0.0
 51
12.110598
  0
ARC
  5
38D
330
224
100
AcDbEntity
  8
7_ALL_FEATURES
  6
Continuous
 62
     7
100
AcDbCircle
 10
79.573239
 20
951.285171
 30
0.0
 40
3.25
100
AcDbArc
 50
12.110598
 51
16.075226
  0
ARC
  5
38E
330
224
100
AcDbEntity
  8
7_ALL_FEATURES
  6
Continuous
 62
     7
100
AcDbCircle
 10
79.573239
 20
951.285171
 30
0.0
 40
3.25
100
AcDbArc
 50
16.075226
 51
24.24575
  0
ARC
  5
38F
330
224
100
AcDbEntity
  8
7_ALL_FEATURES
  6
Continuous
 62
     7
100
AcDbCircle
 10
79.573239
 20
951.285171
 30
0.0
 40
3.25
100
AcDbArc
 50
24.24575
 51
28.934903
  0
ARC
  5
390
330
224
100
AcDbEntity
  8
7_ALL_FEATURES
  6
Continuous
 62
     7
100
AcDbCircle
 10
79.573239
 20
951.285171
 30
0.0
 40
3.25
100
AcDbArc
 50
28.934903
 51
36.42012
  0
ARC
  5
391
330
224
100
AcDbEntity
  8
7_ALL_FEATURES
  6
Continuous
 62
     7
100
AcDbCircle
 10
79.573239
 20
951.285171
 30
0.0
 40
3.25
100
AcDbArc
 50
36.42012
 51
41.334494
  0
ARC
  5
392
330
224
100
AcDbEntity
  8
7_ALL_FEATURES
  6
Continuous
 62
     7
100
AcDbCircle
 10
79.573239
 20
951.285171
 30
0.0
 40
3.25
100
AcDbArc
 50
41.334494
 51
48.665506
  0
ARC
  5
393
330
224
100
AcDbEntity
  8
7_ALL_FEATURES
  6
Continuous
 62
     7
100
AcDbCircle
 10
79.573239
 20
951.285171
 30
0.0
 40
3.25
100
AcDbArc
 50
48.665506
 51
53.57988
  0
ARC
  5
394
330
224
100
AcDbEntity
  8
7_ALL_FEATURES
  6
Continuous
 62
     7
100
AcDbCircle
 10
79.573239
 20
951.285171
 30
0.0
 40
3.25
100
AcDbArc
 50
53.57988
 51
61.065097
  0
ARC
  5
395
330
224
100
AcDbEntity
  8
7_ALL_FEATURES
  6
Continuous
 62
     7
100
AcDbCircle
 10
79.573239
 20
951.285171
 30
0.0
 40
3.25
100
AcDbArc
 50
61.065097
 51
65.75425
  0
ARC
  5
396
330
224
100
AcDbEntity
  8
7_ALL_FEATURES
  6
Continuous
 62
     7
100
AcDbCircle
 10
79.573239
 20
951.285171
 30
0.0
 40
3.25
100
AcDbArc
 50
65.75425
 51
73.924774
  0
ARC
  5
397
330
224
100
AcDbEntity
  8
7_ALL_FEATURES
  6
Continuous
 62
     7
100
AcDbCircle
 10
79.573239
 20
951.285171
 30
0.0
 40
3.25
100
AcDbArc
 50
73.924774
 51
77.889402
  0
ARC
  5
398
330
224
100
AcDbEntity
  8
7_ALL_FEATURES
  6
Continuous
 62
     7
100
AcDbCircle
 10
79.573239
 20
951.285171
 30
0.0
 40
3.25
100
AcDbArc
 50
77.889402
 51
90.0
  0
LINE
  5
399
330
224
100
AcDbEntity
  8
7_ALL_FEATURES
  6
Continuous
 62
     7
100
AcDbLine
 10
82.823239
 20
951.285171
 30
0.0
 11
82.823239
 21
950.180944
 31
0.0
  0
LINE
  5
39A
330
224
100
AcDbEntity
  8
7_ALL_FEATURES
  6
Continuous
 62
     7
100
AcDbLine
 10
76.323239
 20
951.285171
 30
0.0
 11
76.323239
 21
950.180944
 31
0.0
  0
ARC
  5
39B
330
224
100
AcDbEntity
  8
7_ALL_FEATURES
  6
Continuous
 62
     7
100
AcDbCircle
 10
79.573239
 20
951.285171
 30
0.0
 40
3.25
100
AcDbArc
 50
167.879831
 51
180.0
  0
ARC
  5
39C
330
224
100
AcDbEntity
  8
7_ALL_FEATURES
  6
Continuous
 62
     7
100
AcDbCircle
 10
79.573239
 20
951.285171
 30
0.0
 40
3.25
100
AcDbArc
 50
163.932368
 51
167.879831
  0
ARC
  5
39D
330
224
100
AcDbEntity
  8
7_ALL_FEATURES
  6
Continuous
 62
     7
100
AcDbCircle
 10
79.573239
 20
951.285171
 30
0.0
 40
3.25
100
AcDbArc
 50
155.739259
 51
163.932368
  0
ARC
  5
39E
330
224
100
AcDbEntity
  8
7_ALL_FEATURES
  6
Continuous
 62
     7
100
AcDbCircle
 10
79.573239
 20
951.285171
 30
0.0
 40
3.25
100
AcDbArc
 50
151.077758
 51
155.739259
  0
ARC
  5
39F
330
224
100
AcDbEntity
  8
7_ALL_FEATURES
  6
Continuous
 62
     7
100
AcDbCircle
 10
79.573239
 20
951.285171
 30
0.0
 40
3.25
100
AcDbArc
 50
143.562981
 51
151.077758
  0
ARC
  5
3A0
330
224
100
AcDbEntity
  8
7_ALL_FEATURES
  6
Continuous
 62
     7
100
AcDbCircle
 10
79.573239
 20
951.285171
 30
0.0
 40
3.25
100
AcDbArc
 50
138.68143
 51
143.562981
  0
ARC
  5
3A1
330
224
100
AcDbEntity
  8
7_ALL_FEATURES
  6
Continuous
 62
     7
100
AcDbCircle
 10
79.573239
 20
951.285171
 30
0.0
 40
3.25
100
AcDbArc
 50
131.31857
 51
138.68143
  0
ARC
  5
3A2
330
224
100
AcDbEntity
  8
7_ALL_FEATURES
  6
Continuous
 62
     7
100
AcDbCircle
 10
79.573239
 20
951.285171
 30
0.0
 40
3.25
100
AcDbArc
 50
126.437019
 51
131.31857
  0
ARC
  5
3A3
330
224
100
AcDbEntity
  8
7_ALL_FEATURES
  6
Continuous
 62
     7
100
AcDbCircle
 10
79.573239
 20
951.285171
 30
0.0
 40
3.25
100
AcDbArc
 50
118.922242
 51
126.437019
  0
ARC
  5
3A4
330
224
100
AcDbEntity
  8
7_ALL_FEATURES
  6
Continuous
 62
     7
100
AcDbCircle
 10
79.573239
 20
951.285171
 30
0.0
 40
3.25
100
AcDbArc
 50
114.260741
 51
118.922242
  0
ARC
  5
3A5
330
224
100
AcDbEntity
  8
7_ALL_FEATURES
  6
Continuous
 62
     7
100
AcDbCircle
 10
79.573239
 20
951.285171
 30
0.0
 40
3.25
100
AcDbArc
 50
106.067632
 51
114.260741
  0
ARC
  5
3A6
330
224
100
AcDbEntity
  8
7_ALL_FEATURES
  6
Continuous
 62
     7
100
AcDbCircle
 10
79.573239
 20
951.285171
 30
0.0
 40
3.25
100
AcDbArc
 50
102.120169
 51
106.067632
  0
ARC
  5
3A7
330
224
100
AcDbEntity
  8
7_ALL_FEATURES
  6
Continuous
 62
     7
100
AcDbCircle
 10
79.573239
 20
951.285171
 30
0.0
 40
3.25
100
AcDbArc
 50
90.0
 51
102.120169
  0
SPLINE
  5
3A8
330
224
100
AcDbEntity
  8
7_ALL_FEATURES
  6
Continuous
 62
     9
100
AcDbSpline
 70
     0
 71
     3
 72
    13
 73
     9
 74
     0
 42
0.000000001
 43
0.0000001
 40
0.0
 40
0.0
 40
0.0
 40
0.0
 40
0.1197402588
 40
0.2403491791
 40
0.3625472792
 40
0.4867900665
 40
0.7404664294
 40
1.0
 40
1.0
 40
1.0
 40
1.0
 10
82.8232388191
 20
948.2248181802
 30
0.0
 10
82.8232388191
 20
948.4192332882
 30
0.0
 10
82.7809616834
 20
948.8107513578
 30
0.0
 10
82.5936470513
 20
949.3732095496
 30
0.0
 10
82.2898510204
 20
949.8910037088
 30
0.0
 10
81.7434775245
 20
950.4981471399
 30
0.0
 10
80.8354833222
 20
951.0474890154
 30
0.0
 10
79.99462798
 20
951.1972455764
 30
0.0
 10
79.5732388191
 20
951.1972455764
 30
0.0
  0
SPLINE
  5
3A9
330
224
100
AcDbEntity
  8
7_ALL_FEATURES
  6
Continuous
 62
     9
100
AcDbSpline
 70
     0
 71
     3
 72
    13
 73
     9
 74
     0
 42
0.000000001
 43
0.0000001
 40
0.0
 40
0.0
 40
0.0
 40
0.0
 40
0.1197402588
 40
0.2403491791
 40
0.3625472792
 40
0.4867900665
 40
0.7404664294
 40
1.0
 40
1.0
 40
1.0
 40
1.0
 10
82.8232388191
 20
950.1809443398
 30
0.0
 10
82.8232388191
 20
950.3753594478
 30
0.0
 10
82.7809616834
 20
950.7668775174
 30
0.0
 10
82.5936470513
 20
951.3293357092
 30
0.0
 10
82.2898510204
 20
951.8471298684
 30
0.0
 10
81.7434775245
 20
952.4542732995
 30
0.0
 10
80.8354833222
 20
953.003615175
 30
0.0
 10
79.99462798
 20
953.153371736
 30
0.0
 10
79.5732388191
 20
953.153371736
 30
0.0
  0
SPLINE
  5
3AA
330
224
100
AcDbEntity
  8
7_ALL_FEATURES
  6
Continuous
 62
     9
100
AcDbSpline
 70
     0
 71
     3
 72
    13
 73
     9
 74
     0
 42
0.000000001
 43
0.0000001
 40
0.0
 40
0.0
 40
0.0
 40
0.0
 40
0.2595335706
 40
0.5132099335
 40
0.6374527208
 40
0.7596508209
 40
0.8802597412
 40
1.0
 40
1.0
 40
1.0
 40
1.0
 10
79.5732388191
 20
951.1972455764
 30
0.0
 10
79.1518496582
 20
951.1972455764
 30
0.0
 10
78.3109943161
 20
951.0474890154
 30
0.0
 10
77.4030001138
 20
950.4981471399
 30
0.0
 10
76.8566266178
 20
949.8910037088
 30
0.0
 10
76.5528305869
 20
949.3732095496
 30
0.0
 10
76.3655159549
 20
948.8107513578
 30
0.0
 10
76.3232388191
 20
948.4192332882
 30
0.0
 10
76.3232388191
 20
948.2248181802
 30
0.0
  0
SPLINE
  5
3AB
330
224
100
AcDbEntity
  8
7_ALL_FEATURES
  6
Continuous
 62
     9
100
AcDbSpline
 70
     0
 71
     3
 72
    13
 73
     9
 74
     0
 42
0.000000001
 43
0.0000001
 40
0.0
 40
0.0
 40
0.0
 40
0.0
 40
0.2595335706
 40
0.5132099335
 40
0.6374527208
 40
0.7596508209
 40
0.8802597412
 40
1.0
 40
1.0
 40
1.0
 40
1.0
 10
79.5732388191
 20
953.153371736
 30
0.0
 10
79.1518496582
 20
953.153371736
 30
0.0
 10
78.3109943161
 20
953.003615175
 30
0.0
 10
77.4030001138
 20
952.4542732995
 30
0.0
 10
76.8566266178
 20
951.8471298684
 30
0.0
 10
76.5528305869
 20
951.3293357092
 30
0.0
 10
76.3655159549
 20
950.7668775174
 30
0.0
 10
76.3232388191
 20
950.3753594478
 30
0.0
 10
76.3232388191
 20
950.1809443398
 30
0.0
  0
ARC
  5
3AC
330
224
100
AcDbEntity
  8
7_ALL_FEATURES
  6
Continuous
 62
     7
100
AcDbCircle
 10
79.573239
 20
951.285171
 30
0.0
 40
3.5
100
AcDbArc
 50
0.0
 51
90.0
  0
ARC
  5
3AD
330
224
100
AcDbEntity
  8
3_ALL_AXES
  6
Continuous
 62
     7
100
AcDbCircle
 10
79.573239
 20
951.285171
 30
0.0
 40
7.0
100
AcDbArc
 50
0.0
 51
21.786789
  0
ARC
  5
3AE
330
224
100
AcDbEntity
  8
3_ALL_AXES
  6
Continuous
 62
     7
100
AcDbCircle
 10
79.573239
 20
951.285171
 30
0.0
 40
7.0
100
AcDbArc
 50
38.213211
 51
81.786789
  0
ARC
  5
3AF
330
224
100
AcDbEntity
  8
3_ALL_AXES
  6
Continuous
 62
     7
100
AcDbCircle
 10
79.573239
 20
951.285171
 30
0.0
 40
7.0
100
AcDbArc
 50
98.213211
 51
141.786789
  0
ARC
  5
3B0
330
224
100
AcDbEntity
  8
3_ALL_AXES
  6
Continuous
 62
     7
100
AcDbCircle
 10
79.573239
 20
951.285171
 30
0.0
 40
7.0
100
AcDbArc
 50
158.213211
 51
180.0
  0
ARC
  5
3B1
330
224
100
AcDbEntity
  8
7_ALL_FEATURES
  6
Continuous
 62
     7
100
AcDbCircle
 10
79.573239
 20
951.285171
 30
0.0
 40
3.5
100
AcDbArc
 50
90.0
 51
180.0
  0
LINE
  5
3B2
330
224
100
AcDbEntity
  8
3_ALL_AXES
  6
Continuous
 62
     7
100
AcDbLine
 10
86.073239
 20
953.883247
 30
0.0
 11
87.573239
 21
951.285171
 31
0.0
  0
ARC
  5
3B3
330
224
100
AcDbEntity
  8
3_ALL_AXES
  6
Continuous
 62
     7
100
AcDbCircle
 10
79.573239
 20
951.285171
 30
0.0
 40
7.0
100
AcDbArc
 50
180.0
 51
201.786789
  0
LINE
  5
3B4
330
224
100
AcDbEntity
  8
3_ALL_AXES
  6
Continuous
 62
     7
100
AcDbLine
 10
85.073239
 20
955.615298
 30
0.0
 11
86.073239
 21
953.883247
 31
0.0
  0
ARC
  5
3B5
330
224
100
AcDbEntity
  8
3_ALL_AXES
  6
Continuous
 62
     7
100
AcDbCircle
 10
79.573239
 20
951.285171
 30
0.0
 40
7.0
100
AcDbArc
 50
218.213211
 51
256.271628
  0
LINE
  5
3B6
330
224
100
AcDbEntity
  8
3_ALL_AXES
  6
Continuous
 62
     7
100
AcDbLine
 10
83.573239
 20
958.213374
 30
0.0
 11
85.073239
 21
955.615298
 31
0.0
  0
ARC
  5
3B7
330
224
100
AcDbEntity
  8
3_ALL_AXES
  6
Continuous
 62
     7
100
AcDbCircle
 10
79.573239
 20
951.285171
 30
0.0
 40
7.0
100
AcDbArc
 50
283.728372
 51
321.786789
  0
ARC
  5
3B8
330
224
100
AcDbEntity
  8
3_ALL_AXES
  6
Continuous
 62
     7
100
AcDbCircle
 10
79.573239
 20
951.285171
 30
0.0
 40
7.0
100
AcDbArc
 50
338.213211
 51
360.0
  0
ARC
  5
3B9
330
224
100
AcDbEntity
  8
7_ALL_FEATURES
  6
Continuous
 62
     7
100
AcDbCircle
 10
79.573239
 20
951.285171
 30
0.0
 40
3.5
100
AcDbArc
 50
341.304825
 51
360.0
  0
ARC
  5
3BA
330
224
100
AcDbEntity
  8
7_ALL_FEATURES
  6
Continuous
 62
     7
100
AcDbCircle
 10
79.573239
 20
951.285171
 30
0.0
 40
3.5
100
AcDbArc
 50
340.0
 51
341.304825
  0
ARC
  5
3BB
330
224
100
AcDbEntity
  8
7_ALL_FEATURES
  6
Continuous
 62
     7
100
AcDbCircle
 10
79.573239
 20
951.285171
 30
0.0
 40
3.5
100
AcDbArc
 50
338.490347
 51
340.0
  0
ARC
  5
3BC
330
224
100
AcDbEntity
  8
7_ALL_FEATURES
  6
Continuous
 62
     7
100
AcDbCircle
 10
79.573239
 20
951.285171
 30
0.0
 40
3.5
100
AcDbArc
 50
200.0
 51
201.509653
  0
ARC
  5
3BD
330
224
100
AcDbEntity
  8
7_ALL_FEATURES
  6
Continuous
 62
     7
100
AcDbCircle
 10
79.573239
 20
951.285171
 30
0.0
 40
3.5
100
AcDbArc
 50
198.695175
 51
200.0
  0
ARC
  5
3BE
330
224
100
AcDbEntity
  8
7_ALL_FEATURES
  6
Continuous
 62
     7
100
AcDbCircle
 10
79.573239
 20
951.285171
 30
0.0
 40
3.5
100
AcDbArc
 50
180.0
 51
198.695175
  0
LINE
  5
3BF
330
224
100
AcDbEntity
  8
3_ALL_AXES
  6
Continuous
 62
     7
100
AcDbLine
 10
80.573239
 20
958.213374
 30
0.0
 11
83.573239
 21
958.213374
 31
0.0
  0
LINE
  5
3C0
330
224
100
AcDbEntity
  8
3_ALL_AXES
  6
Continuous
 62
     7
100
AcDbLine
 10
78.573239
 20
958.213374
 30
0.0
 11
80.573239
 21
958.213374
 31
0.0
  0
LINE
  5
3C1
330
224
100
AcDbEntity
  8
3_ALL_AXES
  6
Continuous
 62
     7
100
AcDbLine
 10
86.073239
 20
948.687095
 30
0.0
 11
85.073239
 21
946.955044
 31
0.0
  0
LINE
  5
3C2
330
224
100
AcDbEntity
  8
3_ALL_AXES
  6
Continuous
 62
     7
100
AcDbLine
 10
75.573239
 20
958.213374
 30
0.0
 11
78.573239
 21
958.213374
 31
0.0
  0
LINE
  5
3C3
330
224
100
AcDbEntity
  8
3_ALL_AXES
  6
Continuous
 62
     7
100
AcDbLine
 10
85.073239
 20
946.955044
 30
0.0
 11
83.573239
 21
944.356968
 31
0.0
  0
LINE
  5
3C4
330
224
100
AcDbEntity
  8
3_ALL_AXES
  6
Continuous
 62
     7
100
AcDbLine
 10
87.573239
 20
951.285171
 30
0.0
 11
86.073239
 21
948.687095
 31
0.0
  0
LINE
  5
3C5
330
224
100
AcDbEntity
  8
3_ALL_AXES
  6
Continuous
 62
     7
100
AcDbLine
 10
74.073239
 20
955.615298
 30
0.0
 11
75.573239
 21
958.213374
 31
0.0
  0
LINE
  5
3C6
330
224
100
AcDbEntity
  8
3_ALL_AXES
  6
Continuous
 62
     7
100
AcDbLine
 10
78.163272
 20
944.356968
 30
0.0
 11
75.573239
 21
944.356968
 31
0.0
  0
LINE
  5
3C7
330
224
100
AcDbEntity
  8
3_ALL_AXES
  6
Continuous
 62
     7
100
AcDbLine
 10
73.073239
 20
953.883247
 30
0.0
 11
74.073239
 21
955.615298
 31
0.0
  0
LINE
  5
3C8
330
224
100
AcDbEntity
  8
3_ALL_AXES
  6
Continuous
 62
     7
100
AcDbLine
 10
83.573239
 20
944.356968
 30
0.0
 11
80.983205
 21
944.356968
 31
0.0
  0
LINE
  5
3C9
330
224
100
AcDbEntity
  8
3_ALL_AXES
  6
Continuous
 62
     7
100
AcDbLine
 10
71.573239
 20
951.285171
 30
0.0
 11
73.073239
 21
953.883247
 31
0.0
  0
LINE
  5
3CA
330
224
100
AcDbEntity
  8
3_ALL_AXES
  6
Continuous
 62
     7
100
AcDbLine
 10
75.573239
 20
944.356968
 30
0.0
 11
74.073239
 21
946.955044
 31
0.0
  0
LINE
  5
3CB
330
224
100
AcDbEntity
  8
3_ALL_AXES
  6
Continuous
 62
     7
100
AcDbLine
 10
74.073239
 20
946.955044
 30
0.0
 11
73.073239
 21
948.687095
 31
0.0
  0
LINE
  5
3CC
330
224
100
AcDbEntity
  8
3_ALL_AXES
  6
Continuous
 62
     7
100
AcDbLine
 10
73.073239
 20
948.687095
 30
0.0
 11
71.573239
 21
951.285171
 31
0.0
  0
LINE
  5
3CD
330
224
100
AcDbEntity
  8
7_ALL_FEATURES
  6
Continuous
 62
     7
100
AcDbLine
 10
1278.073239
 20
963.785171
 30
0.0
 11
1276.573239
 21
963.785171
 31
0.0
  0
LINE
  5
3CE
330
224
100
AcDbEntity
  8
7_ALL_FEATURES
  6
Continuous
 62
     7
100
AcDbLine
 10
1278.573239
 20
963.285171
 30
0.0
 11
1278.073239
 21
963.785171
 31
0.0
  0
LINE
  5
3CF
330
224
100
AcDbEntity
  8
7_ALL_FEATURES
  6
Continuous
 62
     7
100
AcDbLine
 10
1278.573239
 20
939.285171
 30
0.0
 11
1278.073239
 21
938.785171
 31
0.0
  0
LINE
  5
3D0
330
224
100
AcDbEntity
  8
7_ALL_FEATURES
  6
Continuous
 62
     7
100
AcDbLine
 10
1278.573239
 20
963.285171
 30
0.0
 11
1278.073239
 21
963.785171
 31
0.0
  0
LINE
  5
3D1
330
224
100
AcDbEntity
  8
7_ALL_FEATURES
  6
Continuous
 62
     7
100
AcDbLine
 10
1278.573239
 20
939.285171
 30
0.0
 11
1278.573239
 21
963.285171
 31
0.0
  0
LINE
  5
3D2
330
224
100
AcDbEntity
  8
7_ALL_FEATURES
  6
Continuous
 62
     7
100
AcDbLine
 10
1278.573239
 20
939.285171
 30
0.0
 11
1278.073239
 21
938.785171
 31
0.0
  0
LINE
  5
3D3
330
224
100
AcDbEntity
  8
7_ALL_FEATURES
  6
Continuous
 62
     7
100
AcDbLine
 10
1276.073239
 20
939.285171
 30
0.0
 11
1276.573239
 21
938.785171
 31
0.0
  0
LINE
  5
3D4
330
224
100
AcDbEntity
  8
7_ALL_FEATURES
  6
Continuous
 62
     7
100
AcDbLine
 10
1276.073239
 20
963.285171
 30
0.0
 11
1276.573239
 21
963.785171
 31
0.0
  0
LINE
  5
3D5
330
224
100
AcDbEntity
  8
7_ALL_FEATURES
  6
Continuous
 62
     7
100
AcDbLine
 10
1276.073239
 20
939.285171
 30
0.0
 11
1276.573239
 21
938.785171
 31
0.0
  0
LINE
  5
3D6
330
224
100
AcDbEntity
  8
7_ALL_FEATURES
  6
Continuous
 62
     7
100
AcDbLine
 10
1276.073239
 20
963.285171
 30
0.0
 11
1276.573239
 21
963.785171
 31
0.0
  0
LINE
  5
3D7
330
224
100
AcDbEntity
  8
3_ALL_AXES
  6
Continuous
 62
     7
100
AcDbLine
 10
1276.573239
 20
963.785171
 30
0.0
 11
1278.073239
 21
963.785171
 31
0.0
  0
LINE
  5
3D8
330
224
100
AcDbEntity
  8
3_ALL_AXES
  6
Continuous
 62
     7
100
AcDbLine
 10
1276.573239
 20
938.785171
 30
0.0
 11
1278.073239
 21
938.785171
 31
0.0
  0
LINE
  5
3D9
330
224
100
AcDbEntity
  8
3_ALL_AXES
  6
Continuous
 62
     7
100
AcDbLine
 10
1276.573239
 20
938.785171
 30
0.0
 11
1278.073239
 21
938.785171
 31
0.0
  0
LINE
  5
3DA
330
224
100
AcDbEntity
  8
7_ALL_FEATURES
  6
Continuous
 62
     7
100
AcDbLine
 10
1276.573239
 20
938.785171
 30
0.0
 11
1276.573239
 21
963.785171
 31
0.0
  0
LINE
  5
3DB
330
224
100
AcDbEntity
  8
7_ALL_FEATURES
  6
Continuous
 62
     7
100
AcDbLine
 10
1278.073239
 20
938.785171
 30
0.0
 11
1278.073239
 21
963.785171
 31
0.0
  0
LINE
  5
3DC
330
224
100
AcDbEntity
  8
7_ALL_FEATURES
  6
Continuous
 62
     7
100
AcDbLine
 10
70.573239
 20
956.717482
 30
0.0
 11
70.573239
 21
945.85286
 31
0.0
  0
LINE
  5
3DD
330
224
100
AcDbEntity
  8
7_ALL_FEATURES
  6
Continuous
 62
     7
100
AcDbLine
 10
71.073239
 20
938.785171
 30
0.0
 11
88.573239
 21
938.785171
 31
0.0
  0
ARC
  5
3DE
330
224
100
AcDbEntity
  8
3_ALL_AXES
  6
Continuous
 62
     7
100
AcDbCircle
 10
75.573239
 20
951.285171
 30
0.0
 40
12.5
100
AcDbArc
 50
328.870387
 51
31.129613
  0
LINE
  5
3DF
330
224
100
AcDbEntity
  8
7_ALL_FEATURES
  6
Continuous
 62
     7
100
AcDbLine
 10
70.573239
 20
956.717482
 30
0.0
 11
70.573239
 21
963.285042
 31
0.0
  0
LINE
  5
3E0
330
224
100
AcDbEntity
  8
3_ALL_AXES
  6
Continuous
 62
     7
100
AcDbLine
 10
88.573239
 20
938.785171
 30
0.0
 11
71.073239
 21
938.785171
 31
0.0
  0
LINE
  5
3E1
330
224
100
AcDbEntity
  8
7_ALL_FEATURES
  6
Continuous
 62
     7
100
AcDbLine
 10
70.573239
 20
939.285301
 30
0.0
 11
70.573239
 21
945.85286
 31
0.0
  0
LINE
  5
3E2
330
224
100
AcDbEntity
  8
3_ALL_AXES
  6
Continuous
 62
     7
100
AcDbLine
 10
88.573239
 20
963.785171
 30
0.0
 11
71.073239
 21
963.785171
 31
0.0
  0
LINE
  5
3E3
330
224
100
AcDbEntity
  8
7_ALL_FEATURES
  6
Continuous
 62
     7
100
AcDbLine
 10
70.573239
 20
939.285171
 30
0.0
 11
71.073239
 21
938.785171
 31
0.0
  0
LINE
  5
3E4
330
224
100
AcDbEntity
  8
7_ALL_FEATURES
  6
Continuous
 62
     7
100
AcDbLine
 10
70.573239
 20
963.285171
 30
0.0
 11
71.073239
 21
963.785171
 31
0.0
  0
LINE
  5
3E5
330
224
100
AcDbEntity
  8
7_ALL_FEATURES
  6
Continuous
 62
     7
100
AcDbLine
 10
89.073239
 20
963.285171
 30
0.0
 11
88.573239
 21
963.785171
 31
0.0
  0
LINE
  5
3E6
330
224
100
AcDbEntity
  8
7_ALL_FEATURES
  6
Continuous
 62
     7
100
AcDbLine
 10
89.073239
 20
939.285171
 30
0.0
 11
88.573239
 21
938.785171
 31
0.0
  0
LINE
  5
3E7
330
224
100
AcDbEntity
  8
7_ALL_FEATURES
  6
Continuous
 62
     7
100
AcDbLine
 10
89.073239
 20
963.285171
 30
0.0
 11
88.573239
 21
963.785171
 31
0.0
  0
LINE
  5
3E8
330
224
100
AcDbEntity
  8
7_ALL_FEATURES
  6
Continuous
 62
     7
100
AcDbLine
 10
89.073239
 20
939.285171
 30
0.0
 11
88.573239
 21
938.785171
 31
0.0
  0
LINE
  5
3E9
330
224
100
AcDbEntity
  8
3_ALL_AXES
  6
Continuous
 62
     7
100
AcDbLine
 10
88.573239
 20
963.785171
 30
0.0
 11
71.073239
 21
963.785171
 31
0.0
  0
ARC
  5
3EA
330
224
100
AcDbEntity
  8
7_ALL_FEATURES
  6
Continuous
 62
     7
100
AcDbCircle
 10
90.610507
 20
947.625901
 30
0.0
 40
22.0033848541
100
AcDbArc
 50
152.613156
 51
155.594612
  0
ARC
  5
3EB
330
224
100
AcDbEntity
  8
7_ALL_FEATURES
  6
Continuous
 62
     7
100
AcDbCircle
 10
90.610507
 20
954.94444
 30
0.0
 40
22.0033848541
100
AcDbArc
 50
204.405388
 51
207.386844
  0
LINE
  5
3EC
330
224
100
AcDbEntity
  8
7_ALL_FEATURES
  6
Continuous
 62
     7
100
AcDbLine
 10
71.073239
 20
944.822973
 30
0.0
 11
71.073239
 21
938.785171
 31
0.0
  0
LINE
  5
3ED
330
224
100
AcDbEntity
  8
7_ALL_FEATURES
  6
Continuous
 62
     7
100
AcDbLine
 10
86.273239
 20
944.822973
 30
0.0
 11
83.842287
 21
944.822973
 31
0.0
  0
LINE
  5
3EE
330
224
100
AcDbEntity
  8
7_ALL_FEATURES
  6
Continuous
 62
     7
100
AcDbLine
 10
75.30419
 20
944.822973
 30
0.0
 11
71.073239
 21
944.822973
 31
0.0
  0
LINE
  5
3EF
330
224
100
AcDbEntity
  8
7_ALL_FEATURES
  6
Continuous
 62
     7
100
AcDbLine
 10
88.573239
 20
963.785171
 30
0.0
 11
88.573239
 21
938.785171
 31
0.0
  0
LINE
  5
3F0
330
224
100
AcDbEntity
  8
7_ALL_FEATURES
  6
Continuous
 62
     7
100
AcDbLine
 10
71.073239
 20
963.785171
 30
0.0
 11
71.073239
 21
957.747369
 31
0.0
  0
LINE
  5
3F1
330
224
100
AcDbEntity
  8
7_ALL_FEATURES
  6
Continuous
 62
     7
100
AcDbLine
 10
86.273239
 20
957.747369
 30
0.0
 11
83.842287
 21
957.747369
 31
0.0
  0
LINE
  5
3F2
330
224
100
AcDbEntity
  8
7_ALL_FEATURES
  6
Continuous
 62
     7
100
AcDbLine
 10
75.30419
 20
957.747369
 30
0.0
 11
71.073239
 21
957.747369
 31
0.0
  0
LINE
  5
3F3
330
224
100
AcDbEntity
  8
3_ALL_AXES
  6
Continuous
 62
     7
100
AcDbLine
 10
1276.073239
 20
951.285171
 30
0.0
 11
1276.073239
 21
961.572469
 31
0.0
  0
LINE
  5
3F4
330
224
100
AcDbEntity
  8
3_ALL_AXES
  6
Continuous
 62
     7
100
AcDbLine
 10
1276.073239
 20
961.572469
 30
0.0
 11
1276.073239
 21
961.850047
 31
0.0
  0
LINE
  5
3F5
330
224
100
AcDbEntity
  8
3_ALL_AXES
  6
Continuous
 62
     7
100
AcDbLine
 10
1276.073239
 20
961.850047
 30
0.0
 11
1276.073239
 21
963.141876
 31
0.0
  0
LINE
  5
3F6
330
224
100
AcDbEntity
  8
3_ALL_AXES
  6
Continuous
 62
     7
100
AcDbLine
 10
1276.073239
 20
963.141876
 30
0.0
 11
1276.073239
 21
963.421944
 31
0.0
  0
LINE
  5
3F7
330
224
100
AcDbEntity
  8
3_ALL_AXES
  6
Continuous
 62
     7
100
AcDbLine
 10
1276.073239
 20
963.421944
 30
0.0
 11
1276.073239
 21
963.785171
 31
0.0
  0
LINE
  5
3F8
330
224
100
AcDbEntity
  8
3_ALL_AXES
  6
Continuous
 62
     7
100
AcDbLine
 10
89.073239
 20
951.285171
 30
0.0
 11
89.073239
 21
961.572469
 31
0.0
  0
LINE
  5
3F9
330
224
100
AcDbEntity
  8
3_ALL_AXES
  6
Continuous
 62
     7
100
AcDbLine
 10
89.073239
 20
961.572469
 30
0.0
 11
89.073239
 21
961.850047
 31
0.0
  0
LINE
  5
3FA
330
224
100
AcDbEntity
  8
3_ALL_AXES
  6
Continuous
 62
     7
100
AcDbLine
 10
89.073239
 20
961.850047
 30
0.0
 11
89.073239
 21
963.141876
 31
0.0
  0
LINE
  5
3FB
330
224
100
AcDbEntity
  8
3_ALL_AXES
  6
Continuous
 62
     7
100
AcDbLine
 10
89.073239
 20
963.141876
 30
0.0
 11
89.073239
 21
963.421944
 31
0.0
  0
LINE
  5
3FC
330
224
100
AcDbEntity
  8
3_ALL_AXES
  6
Continuous
 62
     7
100
AcDbLine
 10
89.073239
 20
963.421944
 30
0.0
 11
89.073239
 21
963.785171
 31
0.0
  0
LINE
  5
3FD
330
224
100
AcDbEntity
  8
3_ALL_AXES
  6
Continuous
 62
     7
100
AcDbLine
 10
95.873239
 20
963.785171
 30
0.0
 11
89.073239
 21
963.785171
 31
0.0
  0
LINE
  5
3FE
330
224
100
AcDbEntity
  8
3_ALL_AXES
  6
Continuous
 62
     7
100
AcDbLine
 10
1276.073239
 20
938.785171
 30
0.0
 11
1269.273239
 21
938.785171
 31
0.0
  0
LINE
  5
3FF
330
224
100
AcDbEntity
  8
3_ALL_AXES
  6
Continuous
 62
     7
100
AcDbLine
 10
1276.073239
 20
938.785171
 30
0.0
 11
1276.073239
 21
939.148398
 31
0.0
  0
LINE
  5
400
330
224
100
AcDbEntity
  8
3_ALL_AXES
  6
Continuous
 62
     7
100
AcDbLine
 10
1276.073239
 20
939.148398
 30
0.0
 11
1276.073239
 21
939.428465
 31
0.0
  0
LINE
  5
401
330
224
100
AcDbEntity
  8
3_ALL_AXES
  6
Continuous
 62
     7
100
AcDbLine
 10
1276.073239
 20
939.428465
 30
0.0
 11
1276.073239
 21
940.720295
 31
0.0
  0
LINE
  5
402
330
224
100
AcDbEntity
  8
3_ALL_AXES
  6
Continuous
 62
     7
100
AcDbLine
 10
1276.073239
 20
940.720295
 30
0.0
 11
1276.073239
 21
940.997873
 31
0.0
  0
LINE
  5
403
330
224
100
AcDbEntity
  8
3_ALL_AXES
  6
Continuous
 62
     7
100
AcDbLine
 10
1276.073239
 20
940.997873
 30
0.0
 11
1276.073239
 21
951.285171
 31
0.0
  0
LINE
  5
404
330
224
100
AcDbEntity
  8
3_ALL_AXES
  6
Continuous
 62
     7
100
AcDbLine
 10
1265.873239
 20
938.785171
 30
0.0
 11
99.567704
 21
938.785171
 31
0.0
  0
ARC
  5
405
330
224
100
AcDbEntity
  8
3_ALL_AXES
  6
Continuous
 62
     7
100
AcDbCircle
 10
97.519946
 20
925.957189
 30
0.0
 40
12.9912728869
100
AcDbArc
 50
80.906185
 51
85.74014
  0
ARC
  5
406
330
224
100
AcDbEntity
  8
3_ALL_AXES
  6
Continuous
 62
     7
100
AcDbCircle
 10
97.570287
 20
926.505725
 30
0.0
 40
12.4405165775
100
AcDbArc
 50
85.783692
 51
89.062211
  0
ARC
  5
407
330
224
100
AcDbEntity
  8
3_ALL_AXES
  6
Continuous
 62
     7
100
AcDbCircle
 10
97.573004
 20
926.590907
 30
0.0
 40
12.3553012963
100
AcDbArc
 50
89.068344
 51
89.99891
  0
LINE
  5
408
330
224
100
AcDbEntity
  8
3_ALL_AXES
  6
Continuous
 62
     7
100
AcDbLine
 10
95.073239
 20
938.785171
 30
0.0
 11
89.073239
 21
938.785171
 31
0.0
  0
LINE
  5
409
330
224
100
AcDbEntity
  8
3_ALL_AXES
  6
Continuous
 62
     7
100
AcDbLine
 10
89.073239
 20
938.785171
 30
0.0
 11
89.073239
 21
939.148398
 31
0.0
  0
LINE
  5
40A
330
224
100
AcDbEntity
  8
3_ALL_AXES
  6
Continuous
 62
     7
100
AcDbLine
 10
89.073239
 20
939.148398
 30
0.0
 11
89.073239
 21
939.428465
 31
0.0
  0
LINE
  5
40B
330
224
100
AcDbEntity
  8
3_ALL_AXES
  6
Continuous
 62
     7
100
AcDbLine
 10
89.073239
 20
939.428465
 30
0.0
 11
89.073239
 21
940.720295
 31
0.0
  0
LINE
  5
40C
330
224
100
AcDbEntity
  8
3_ALL_AXES
  6
Continuous
 62
     7
100
AcDbLine
 10
89.073239
 20
940.720295
 30
0.0
 11
89.073239
 21
940.997873
 31
0.0
  0
LINE
  5
40D
330
224
100
AcDbEntity
  8
3_ALL_AXES
  6
Continuous
 62
     7
100
AcDbLine
 10
89.073239
 20
940.997873
 30
0.0
 11
89.073239
 21
951.285171
 31
0.0
  0
LINE
  5
40E
330
224
100
AcDbEntity
  8
3_ALL_AXES
  6
Continuous
 62
     7
100
AcDbLine
 10
1276.073239
 20
963.785171
 30
0.0
 11
1269.273239
 21
963.785171
 31
0.0
  0
LINE
  5
40F
330
224
100
AcDbEntity
  8
3_ALL_AXES
  6
Continuous
 62
     7
100
AcDbLine
 10
1265.873239
 20
963.785171
 30
0.0
 11
99.273239
 21
963.785171
 31
0.0
  0
LINE
  5
410
330
224
100
AcDbEntity
  8
7_ALL_FEATURES
  6
Continuous
 62
     7
100
AcDbLine
 10
1425.528074
 20
963.785171
 30
0.0
 11
1425.66428
 21
963.648964
 31
0.0
  0
LINE
  5
411
330
224
100
AcDbEntity
  8
7_ALL_FEATURES
  6
Continuous
 62
     7
100
AcDbLine
 10
1422.128074
 20
963.785171
 30
0.0
 11
1421.990367
 21
963.647464
 31
0.0
  0
LINE
  5
412
330
224
100
AcDbEntity
  8
7_ALL_FEATURES
  6
Continuous
 62
     7
100
AcDbLine
 10
1425.528074
 20
963.785171
 30
0.0
 11
1425.66428
 21
963.648964
 31
0.0
  0
LINE
  5
413
330
224
100
AcDbEntity
  8
7_ALL_FEATURES
  6
Continuous
 62
     7
100
AcDbLine
 10
1425.528074
 20
963.785171
 30
0.0
 11
1425.128074
 21
963.785171
 31
0.0
  0
LINE
  5
414
330
224
100
AcDbEntity
  8
7_ALL_FEATURES
  6
Continuous
 62
     7
100
AcDbLine
 10
1425.128074
 20
963.785171
 30
0.0
 11
1425.11288
 21
963.785171
 31
0.0
  0
LINE
  5
415
330
224
100
AcDbEntity
  8
7_ALL_FEATURES
  6
Continuous
 62
     7
100
AcDbLine
 10
1425.11288
 20
963.785171
 30
0.0
 11
1423.828074
 21
963.785171
 31
0.0
  0
LINE
  5
416
330
224
100
AcDbEntity
  8
7_ALL_FEATURES
  6
Continuous
 62
     7
100
AcDbLine
 10
1423.828074
 20
963.785171
 30
0.0
 11
1422.543263
 21
963.785171
 31
0.0
  0
LINE
  5
417
330
224
100
AcDbEntity
  8
7_ALL_FEATURES
  6
Continuous
 62
     7
100
AcDbLine
 10
1422.543263
 20
963.785171
 30
0.0
 11
1422.528074
 21
963.785171
 31
0.0
  0
LINE
  5
418
330
224
100
AcDbEntity
  8
7_ALL_FEATURES
  6
Continuous
 62
     7
100
AcDbLine
 10
1422.528074
 20
963.785171
 30
0.0
 11
1422.128074
 21
963.785171
 31
0.0
  0
LINE
  5
419
330
224
100
AcDbEntity
  8
7_ALL_FEATURES
  6
Continuous
 62
     7
100
AcDbLine
 10
1422.128074
 20
963.785171
 30
0.0
 11
1421.990367
 21
963.647464
 31
0.0
  0
LINE
  5
41A
330
224
100
AcDbEntity
  8
7_ALL_FEATURES
  6
Continuous
 62
     7
100
AcDbLine
 10
1422.128074
 20
938.785171
 30
0.0
 11
1421.990367
 21
938.922878
 31
0.0
  0
LINE
  5
41B
330
224
100
AcDbEntity
  8
7_ALL_FEATURES
  6
Continuous
 62
     7
100
AcDbLine
 10
1425.528074
 20
938.785171
 30
0.0
 11
1425.66428
 21
938.921377
 31
0.0
  0
LINE
  5
41C
330
224
100
AcDbEntity
  8
7_ALL_FEATURES
  6
Continuous
 62
     7
100
AcDbLine
 10
1422.128074
 20
938.785171
 30
0.0
 11
1421.990367
 21
938.922878
 31
0.0
  0
LINE
  5
41D
330
224
100
AcDbEntity
  8
7_ALL_FEATURES
  6
Continuous
 62
     7
100
AcDbLine
 10
1422.128074
 20
938.785171
 30
0.0
 11
1422.528074
 21
938.785171
 31
0.0
  0
LINE
  5
41E
330
224
100
AcDbEntity
  8
7_ALL_FEATURES
  6
Continuous
 62
     7
100
AcDbLine
 10
1422.528074
 20
938.785171
 30
0.0
 11
1422.543268
 21
938.785171
 31
0.0
  0
LINE
  5
41F
330
224
100
AcDbEntity
  8
7_ALL_FEATURES
  6
Continuous
 62
     7
100
AcDbLine
 10
1422.543268
 20
938.785171
 30
0.0
 11
1423.828074
 21
938.785171
 31
0.0
  0
LINE
  5
420
330
224
100
AcDbEntity
  8
7_ALL_FEATURES
  6
Continuous
 62
     7
100
AcDbLine
 10
1423.828074
 20
938.785171
 30
0.0
 11
1425.112885
 21
938.785171
 31
0.0
  0
LINE
  5
421
330
224
100
AcDbEntity
  8
7_ALL_FEATURES
  6
Continuous
 62
     7
100
AcDbLine
 10
1425.112885
 20
938.785171
 30
0.0
 11
1425.128074
 21
938.785171
 31
0.0
  0
LINE
  5
422
330
224
100
AcDbEntity
  8
7_ALL_FEATURES
  6
Continuous
 62
     7
100
AcDbLine
 10
1425.128074
 20
938.785171
 30
0.0
 11
1425.528074
 21
938.785171
 31
0.0
  0
LINE
  5
423
330
224
100
AcDbEntity
  8
7_ALL_FEATURES
  6
Continuous
 62
     7
100
AcDbLine
 10
1425.528074
 20
938.785171
 30
0.0
 11
1425.66428
 21
938.921377
 31
0.0
  0
LINE
  5
424
330
224
100
AcDbEntity
  8
7_ALL_FEATURES
  6
Continuous
 62
     7
100
AcDbLine
 10
1450.528074
 20
947.785171
 30
0.0
 11
1450.528074
 21
947.838344
 31
0.0
  0
LINE
  5
425
330
224
100
AcDbEntity
  8
7_ALL_FEATURES
  6
Continuous
 62
     7
100
AcDbLine
 10
1450.528074
 20
947.838344
 30
0.0
 11
1450.528074
 21
947.996247
 31
0.0
  0
LINE
  5
426
330
224
100
AcDbEntity
  8
7_ALL_FEATURES
  6
Continuous
 62
     7
100
AcDbLine
 10
1450.528074
 20
947.996247
 30
0.0
 11
1450.528074
 21
948.035171
 31
0.0
  0
LINE
  5
427
330
224
100
AcDbEntity
  8
7_ALL_FEATURES
  6
Continuous
 62
     7
100
AcDbLine
 10
1450.528074
 20
948.035171
 30
0.0
 11
1450.528074
 21
951.285171
 31
0.0
  0
LINE
  5
428
330
224
100
AcDbEntity
  8
3_ALL_AXES
  6
Continuous
 62
     7
100
AcDbLine
 10
1441.028074
 20
957.285171
 30
0.0
 11
1438.028074
 21
957.285171
 31
0.0
  0
ARC
  5
429
330
224
100
AcDbEntity
  8
3_ALL_AXES
  6
Continuous
 62
     7
100
AcDbCircle
 10
1447.028074
 20
954.785171
 30
0.0
 40
3.5
100
AcDbArc
 50
0.0
 51
78.431635
  0
LINE
  5
42A
330
224
100
AcDbEntity
  8
3_ALL_AXES
  6
Continuous
 62
     7
100
AcDbLine
 10
1450.528074
 20
954.773217
 30
0.0
 11
1450.528074
 21
954.785171
 31
0.0
  0
LINE
  5
42B
330
224
100
AcDbEntity
  8
3_ALL_AXES
  6
Continuous
 62
     7
100
AcDbLine
 10
1450.528074
 20
951.285171
 30
0.0
 11
1450.528074
 21
954.731998
 31
0.0
  0
LINE
  5
42C
330
224
100
AcDbEntity
  8
3_ALL_AXES
  6
Continuous
 62
     7
100
AcDbLine
 10
1450.528074
 20
954.731998
 30
0.0
 11
1450.528074
 21
954.773217
 31
0.0
  0
LINE
  5
42D
330
224
100
AcDbEntity
  8
3_ALL_AXES
  6
Continuous
 62
     7
100
AcDbLine
 10
1441.028074
 20
945.285171
 30
0.0
 11
1438.028074
 21
945.285171
 31
0.0
  0
LINE
  5
42E
330
224
100
AcDbEntity
  8
3_ALL_AXES
  6
Continuous
 62
     7
100
AcDbLine
 10
1447.733236
 20
944.356968
 30
0.0
 11
1447.028074
 21
944.356968
 31
0.0
  0
ARC
  5
42F
330
224
100
AcDbEntity
  8
3_ALL_AXES
  6
Continuous
 62
     7
100
AcDbCircle
 10
1447.028074
 20
947.785171
 30
0.0
 40
3.5
100
AcDbArc
 50
281.568365
 51
360.0
  0
LINE
  5
430
330
224
100
AcDbEntity
  8
3_ALL_AXES
  6
Continuous
 62
     7
100
AcDbLine
 10
1450.528074
 20
947.785171
 30
0.0
 11
1450.528074
 21
947.838344
 31
0.0
  0
LINE
  5
431
330
224
100
AcDbEntity
  8
3_ALL_AXES
  6
Continuous
 62
     7
100
AcDbLine
 10
1450.528074
 20
947.838344
 30
0.0
 11
1450.528074
 21
947.996247
 31
0.0
  0
LINE
  5
432
330
224
100
AcDbEntity
  8
3_ALL_AXES
  6
Continuous
 62
     7
100
AcDbLine
 10
1450.528074
 20
947.996247
 30
0.0
 11
1450.528074
 21
948.035171
 31
0.0
  0
LINE
  5
433
330
224
100
AcDbEntity
  8
3_ALL_AXES
  6
Continuous
 62
     7
100
AcDbLine
 10
1450.528074
 20
948.035171
 30
0.0
 11
1450.528074
 21
951.285171
 31
0.0
  0
LINE
  5
434
330
224
100
AcDbEntity
  8
3_ALL_AXES
  6
Continuous
 62
     7
100
AcDbLine
 10
1447.028074
 20
958.213374
 30
0.0
 11
1447.733236
 21
958.213374
 31
0.0
  0
LINE
  5
435
330
224
100
AcDbEntity
  8
3_ALL_AXES
  6
Continuous
 62
     7
100
AcDbLine
 10
1447.028074
 20
958.213374
 30
0.0
 11
1446.528074
 21
958.213374
 31
0.0
  0
LINE
  5
436
330
224
100
AcDbEntity
  8
3_ALL_AXES
  6
Continuous
 62
     7
100
AcDbLine
 10
1445.528074
 20
958.213374
 30
0.0
 11
1446.528074
 21
958.213374
 31
0.0
  0
LINE
  5
437
330
224
100
AcDbEntity
  8
3_ALL_AXES
  6
Continuous
 62
     7
100
AcDbLine
 10
1434.528074
 20
958.213374
 30
0.0
 11
1434.528074
 21
957.747369
 31
0.0
  0
LINE
  5
438
330
224
100
AcDbEntity
  8
3_ALL_AXES
  6
Continuous
 62
     7
100
AcDbLine
 10
1434.528074
 20
958.213374
 30
0.0
 11
1438.028074
 21
958.213374
 31
0.0
  0
LINE
  5
439
330
224
100
AcDbEntity
  8
3_ALL_AXES
  6
Continuous
 62
     7
100
AcDbLine
 10
1438.028074
 20
958.213374
 30
0.0
 11
1438.028074
 21
951.285171
 31
0.0
  0
LINE
  5
43A
330
224
100
AcDbEntity
  8
3_ALL_AXES
  6
Continuous
 62
     7
100
AcDbLine
 10
1441.028074
 20
958.213374
 30
0.0
 11
1441.028074
 21
951.285171
 31
0.0
  0
LINE
  5
43B
330
224
100
AcDbEntity
  8
3_ALL_AXES
  6
Continuous
 62
     7
100
AcDbLine
 10
1441.028074
 20
958.213374
 30
0.0
 11
1445.528074
 21
958.213374
 31
0.0
  0
LINE
  5
43C
330
224
100
AcDbEntity
  8
3_ALL_AXES
  6
Continuous
 62
     7
100
AcDbLine
 10
1441.028074
 20
951.285171
 30
0.0
 11
1441.028074
 21
944.356968
 31
0.0
  0
LINE
  5
43D
330
224
100
AcDbEntity
  8
3_ALL_AXES
  6
Continuous
 62
     7
100
AcDbLine
 10
1434.528074
 20
944.822973
 30
0.0
 11
1434.528074
 21
944.356968
 31
0.0
  0
LINE
  5
43E
330
224
100
AcDbEntity
  8
3_ALL_AXES
  6
Continuous
 62
     7
100
AcDbLine
 10
1438.028074
 20
951.285171
 30
0.0
 11
1438.028074
 21
944.356968
 31
0.0
  0
LINE
  5
43F
330
224
100
AcDbEntity
  8
3_ALL_AXES
  6
Continuous
 62
     7
100
AcDbLine
 10
1441.028074
 20
944.356968
 30
0.0
 11
1445.528074
 21
944.356968
 31
0.0
  0
LINE
  5
440
330
224
100
AcDbEntity
  8
3_ALL_AXES
  6
Continuous
 62
     7
100
AcDbLine
 10
1446.528074
 20
944.356968
 30
0.0
 11
1445.528074
 21
944.356968
 31
0.0
  0
LINE
  5
441
330
224
100
AcDbEntity
  8
3_ALL_AXES
  6
Continuous
 62
     7
100
AcDbLine
 10
1447.028074
 20
944.356968
 30
0.0
 11
1446.528074
 21
944.356968
 31
0.0
  0
LINE
  5
442
330
224
100
AcDbEntity
  8
7_ALL_FEATURES
  6
Continuous
 62
     7
100
AcDbLine
 10
1450.528074
 20
951.285171
 30
0.0
 11
1450.528074
 21
954.535171
 31
0.0
  0
LINE
  5
443
330
224
100
AcDbEntity
  8
7_ALL_FEATURES
  6
Continuous
 62
     7
100
AcDbLine
 10
1450.528074
 20
954.535171
 30
0.0
 11
1450.528074
 21
954.574095
 31
0.0
  0
LINE
  5
444
330
224
100
AcDbEntity
  8
7_ALL_FEATURES
  6
Continuous
 62
     7
100
AcDbLine
 10
1450.528074
 20
954.574095
 30
0.0
 11
1450.528074
 21
954.731998
 31
0.0
  0
LINE
  5
445
330
224
100
AcDbEntity
  8
7_ALL_FEATURES
  6
Continuous
 62
     7
100
AcDbLine
 10
1450.528074
 20
954.731998
 30
0.0
 11
1450.528074
 21
954.785171
 31
0.0
  0
LINE
  5
446
330
224
100
AcDbEntity
  8
3_ALL_AXES
  6
Continuous
 62
     7
100
AcDbLine
 10
1434.528074
 20
944.356968
 30
0.0
 11
1438.028074
 21
944.356968
 31
0.0
  0
SPLINE
  5
447
330
224
100
AcDbEntity
  8
3_ALL_AXES
  6
Continuous
 62
     7
100
AcDbSpline
 70
     0
 71
     3
 72
     9
 73
     5
 74
     0
 42
0.000000001
 43
0.0000001
 40
0.0
 40
0.0
 40
0.0
 40
0.0
 40
0.5040298865
 40
1.0
 40
1.0
 40
1.0
 40
1.0
 10
1445.5280737686
 20
951.2851708611
 30
0.0
 10
1445.7628786059
 20
951.6918647692
 30
0.0
 10
1446.1846205948
 20
952.5259712465
 30
0.0
 10
1446.4528633898
 20
953.4273083819
 30
0.0
 10
1446.5280737686
 20
953.8832470725
 30
0.0
  0
SPLINE
  5
448
330
224
100
AcDbEntity
  8
3_ALL_AXES
  6
Continuous
 62
     7
100
AcDbSpline
 70
     0
 71
     3
 72
     9
 73
     5
 74
     0
 42
0.000000001
 43
0.0000001
 40
0.0
 40
0.0
 40
0.0
 40
0.0
 40
0.5040298865
 40
1.0
 40
1.0
 40
1.0
 40
1.0
 10
1445.5280737686
 20
944.3569676309
 30
0.0
 10
1445.7628786059
 20
944.7636615389
 30
0.0
 10
1446.1846205948
 20
945.5977680162
 30
0.0
 10
1446.4528633898
 20
946.4991051517
 30
0.0
 10
1446.5280737686
 20
946.9550438422
 30
0.0
  0
LINE
  5
449
330
224
100
AcDbEntity
  8
3_ALL_AXES
  6
Continuous
 62
     7
100
AcDbLine
 10
1441.028074
 20
951.285171
 30
0.0
 11
1445.528074
 21
951.285171
 31
0.0
  0
SPLINE
  5
44A
330
224
100
AcDbEntity
  8
3_ALL_AXES
  6
Continuous
 62
     7
100
AcDbSpline
 70
     0
 71
     3
 72
     9
 73
     5
 74
     0
 42
0.000000001
 43
0.0000001
 40
0.0
 40
0.0
 40
0.0
 40
0.0
 40
0.495970135
 40
1.0
 40
1.0
 40
1.0
 40
1.0
 10
1446.5280737686
 20
948.6870946498
 30
0.0
 10
1446.4528633866
 20
949.1430333601
 30
0.0
 10
1446.1846205835
 20
950.0443704937
 30
0.0
 10
1445.7628785959
 20
950.8784769705
 30
0.0
 10
1445.5280737686
 20
951.2851708611
 30
0.0
  0
LINE
  5
44B
330
224
100
AcDbEntity
  8
3_ALL_AXES
  6
Continuous
 62
     7
100
AcDbLine
 10
1447.028074
 20
948.687095
 30
0.0
 11
1446.528074
 21
948.687095
 31
0.0
  0
SPLINE
  5
44C
330
224
100
AcDbEntity
  8
3_ALL_AXES
  6
Continuous
 62
     7
100
AcDbSpline
 70
     0
 71
     3
 72
    17
 73
    13
 74
     0
 42
0.000000001
 43
0.0000001
 40
0.0
 40
0.0
 40
0.0
 40
0.0
 40
0.0680341774
 40
0.1345238276
 40
0.260732487
 40
0.3815770041
 40
0.5000608561
 40
0.6185410742
 40
0.7393568089
 40
0.865538626
 40
0.9319972678
 40
1.0
 40
1.0
 40
1.0
 40
1.0
 10
1447.0280737686
 20
946.9550438422
 30
0.0
 10
1447.0839594191
 20
946.9550438422
 30
0.0
 10
1447.1951151686
 20
946.9714640004
 30
0.0
 10
1447.3922712086
 20
947.0606344104
 30
0.0
 10
1447.5807005571
 20
947.2485044216
 30
0.0
 10
1447.7064163602
 20
947.5263152574
 30
0.0
 10
1447.7467191652
 20
947.8212190489
 30
0.0
 10
1447.7063297552
 20
948.116084889
 30
0.0
 10
1447.5805721115
 20
948.3938223828
 30
0.0
 10
1447.3921395553
 20
948.5815856707
 30
0.0
 10
1447.195037067
 20
948.6706876397
 30
0.0
 10
1447.0839335889
 20
948.6870946498
 30
0.0
 10
1447.0280737686
 20
948.6870946498
 30
0.0
  0
LINE
  5
44D
330
224
100
AcDbEntity
  8
3_ALL_AXES
  6
Continuous
 62
     7
100
AcDbLine
 10
1447.028074
 20
946.955044
 30
0.0
 11
1446.528074
 21
946.955044
 31
0.0
  0
LINE
  5
44E
330
224
100
AcDbEntity
  8
3_ALL_AXES
  6
Continuous
 62
     7
100
AcDbLine
 10
1434.528074
 20
951.285171
 30
0.0
 11
1438.028074
 21
951.285171
 31
0.0
  0
LINE
  5
44F
330
224
100
AcDbEntity
  8
3_ALL_AXES
  6
Continuous
 62
     9
100
AcDbLine
 10
1447.028074
 20
958.213374
 30
0.0
 11
1447.028074
 21
955.615298
 31
0.0
  0
LINE
  5
450
330
224
100
AcDbEntity
  8
3_ALL_AXES
  6
Continuous
 62
     9
100
AcDbLine
 10
1447.028074
 20
953.883247
 30
0.0
 11
1447.028074
 21
951.285171
 31
0.0
  0
SPLINE
  5
451
330
224
100
AcDbEntity
  8
3_ALL_AXES
  6
Continuous
 62
     7
100
AcDbSpline
 70
     0
 71
     3
 72
     9
 73
     5
 74
     0
 42
0.000000001
 43
0.0000001
 40
0.0
 40
0.0
 40
0.0
 40
0.0
 40
0.495970135
 40
1.0
 40
1.0
 40
1.0
 40
1.0
 10
1446.5280737686
 20
955.6152978801
 30
0.0
 10
1446.4528633866
 20
956.0712365903
 30
0.0
 10
1446.1846205835
 20
956.9725737239
 30
0.0
 10
1445.7628785959
 20
957.8066802008
 30
0.0
 10
1445.5280737686
 20
958.2133740914
 30
0.0
  0
LINE
  5
452
330
224
100
AcDbEntity
  8
3_ALL_AXES
  6
Continuous
 62
     7
100
AcDbLine
 10
1447.028074
 20
955.615298
 30
0.0
 11
1446.528074
 21
955.615298
 31
0.0
  0
LINE
  5
453
330
224
100
AcDbEntity
  8
3_ALL_AXES
  6
Continuous
 62
     9
100
AcDbLine
 10
1447.028074
 20
948.687095
 30
0.0
 11
1447.028074
 21
951.285171
 31
0.0
  0
SPLINE
  5
454
330
224
100
AcDbEntity
  8
3_ALL_AXES
  6
Continuous
 62
     7
100
AcDbSpline
 70
     0
 71
     3
 72
    17
 73
    13
 74
     0
 42
0.000000001
 43
0.0000001
 40
0.0
 40
0.0
 40
0.0
 40
0.0
 40
0.0680258958
 40
0.1345173298
 40
0.2607218393
 40
0.3815594072
 40
0.5000537954
 40
0.6185421284
 40
0.7393699848
 40
0.8655528654
 40
0.9320018853
 40
1.0
 40
1.0
 40
1.0
 40
1.0
 10
1447.0280737686
 20
953.8832470725
 30
0.0
 10
1447.0839526201
 20
953.8832470725
 30
0.0
 10
1447.1951023687
 20
953.8996661209
 30
0.0
 10
1447.392254931
 20
953.9888235428
 30
0.0
 10
1447.5806809622
 20
954.1766856086
 30
0.0
 10
1447.7064117396
 20
954.4544882852
 30
0.0
 10
1447.746719981
 20
954.7494026442
 30
0.0
 10
1447.7063309486
 20
955.0442938322
 30
0.0
 10
1447.5805630882
 20
955.3220488453
 30
0.0
 10
1447.392115338
 20
955.5098013397
 30
0.0
 10
1447.1950217768
 20
955.5988943733
 30
0.0
 10
1447.0839297998
 20
955.6152978801
 30
0.0
 10
1447.0280737686
 20
955.6152978801
 30
0.0
  0
LINE
  5
455
330
224
100
AcDbEntity
  8
3_ALL_AXES
  6
Continuous
 62
     9
100
AcDbLine
 10
1447.028074
 20
944.356968
 30
0.0
 11
1447.028074
 21
946.955044
 31
0.0
  0
LINE
  5
456
330
224
100
AcDbEntity
  8
3_ALL_AXES
  6
Continuous
 62
     7
100
AcDbLine
 10
1447.028074
 20
953.883247
 30
0.0
 11
1446.528074
 21
953.883247
 31
0.0
  0
LINE
  5
457
330
224
100
AcDbEntity
  8
3_ALL_AXES
  6
Continuous
 62
     7
100
AcDbLine
 10
1446.528074
 20
948.687095
 30
0.0
 11
1446.528074
 21
953.883247
 31
0.0
  0
LINE
  5
458
330
224
100
AcDbEntity
  8
3_ALL_AXES
  6
Continuous
 62
     7
100
AcDbLine
 10
1446.528074
 20
944.356968
 30
0.0
 11
1446.528074
 21
946.955044
 31
0.0
  0
LINE
  5
459
330
224
100
AcDbEntity
  8
3_ALL_AXES
  6
Continuous
 62
     7
100
AcDbLine
 10
1446.528074
 20
958.213374
 30
0.0
 11
1446.528074
 21
955.615298
 31
0.0
  0
LINE
  5
45A
330
224
100
AcDbEntity
  8
7_ALL_FEATURES
  6
Continuous
 62
     7
100
AcDbLine
 10
1464.629437
 20
944.035171
 30
0.0
 11
1480.528074
 21
944.035171
 31
0.0
  0
LINE
  5
45B
330
224
100
AcDbEntity
  8
7_ALL_FEATURES
  6
Continuous
 62
     7
100
AcDbLine
 10
1480.528074
 20
950.535171
 30
0.0
 11
1480.528074
 21
944.035171
 31
0.0
  0
ARC
  5
45C
330
224
100
AcDbEntity
  8
7_ALL_FEATURES
  6
Continuous
 62
     7
100
AcDbCircle
 10
1450.528074
 20
938.356171
 30
0.0
 40
16.179
100
AcDbArc
 50
66.148
 51
90.0
  0
LINE
  5
45D
330
224
100
AcDbEntity
  8
7_ALL_FEATURES
  6
Continuous
 62
     7
100
AcDbLine
 10
1464.629437
 20
950.535171
 30
0.0
 11
1480.528074
 21
950.535171
 31
0.0
  0
ARC
  5
45E
330
224
100
AcDbEntity
  8
7_ALL_FEATURES
  6
Continuous
 62
     7
100
AcDbCircle
 10
1450.528074
 20
938.356171
 30
0.0
 40
9.679
100
AcDbArc
 50
66.148
 51
90.0
  0
ARC
  5
45F
330
224
100
AcDbEntity
  8
7_ALL_FEATURES
  6
Continuous
 62
     7
100
AcDbCircle
 10
1464.629437
 20
958.287171
 30
0.0
 40
7.752
100
AcDbArc
 50
246.148
 51
270.0
  0
LINE
  5
460
330
224
100
AcDbEntity
  8
7_ALL_FEATURES
  6
Continuous
 62
     7
100
AcDbLine
 10
1457.070465
 20
953.153372
 30
0.0
 11
1461.494718
 21
951.197246
 31
0.0
  0
LINE
  5
461
330
224
100
AcDbEntity
  8
7_ALL_FEATURES
  6
Continuous
 62
     7
100
AcDbLine
 10
1454.442024
 20
947.208517
 30
0.0
 11
1458.866277
 21
945.252391
 31
0.0
  0
LINE
  5
462
330
224
100
AcDbEntity
  8
7_ALL_FEATURES
  6
Continuous
 62
     7
100
AcDbLine
 10
1454.442024
 20
947.208517
 30
0.0
 11
1458.866277
 21
945.252391
 31
0.0
  0
ARC
  5
463
330
224
100
AcDbEntity
  8
7_ALL_FEATURES
  6
Continuous
 62
     7
100
AcDbCircle
 10
1464.629437
 20
958.287171
 30
0.0
 40
7.752
100
AcDbArc
 50
246.148
 51
270.0
  0
ARC
  5
464
330
224
100
AcDbEntity
  8
7_ALL_FEATURES
  6
Continuous
 62
     7
100
AcDbCircle
 10
1464.629437
 20
958.287171
 30
0.0
 40
14.252
100
AcDbArc
 50
246.148
 51
270.0
  0
LINE
  5
465
330
224
100
AcDbEntity
  8
7_ALL_FEATURES
  6
Continuous
 62
     7
100
AcDbLine
 10
1457.070465
 20
953.153372
 30
0.0
 11
1461.494718
 21
951.197246
 31
0.0
  0
ARC
  5
466
330
224
100
AcDbEntity
  8
7_ALL_FEATURES
  6
Continuous
 62
     7
100
AcDbCircle
 10
1450.528074
 20
938.356171
 30
0.0
 40
9.679
100
AcDbArc
 50
66.148
 51
90.0
  0
LINE
  5
467
330
224
100
AcDbEntity
  8
7_ALL_FEATURES
  6
Continuous
 62
     7
100
AcDbLine
 10
1464.629437
 20
950.535171
 30
0.0
 11
1480.528074
 21
950.535171
 31
0.0
  0
LINE
  5
468
330
224
100
AcDbEntity
  8
7_ALL_FEATURES
  6
Continuous
 62
     7
100
AcDbLine
 10
1464.629437
 20
944.035171
 30
0.0
 11
1480.528074
 21
944.035171
 31
0.0
  0
LINE
  5
469
330
224
100
AcDbEntity
  8
7_ALL_FEATURES
  6
Continuous
 62
     9
100
AcDbLine
 10
1457.070465
 20
953.153372
 30
0.0
 11
1454.442024
 21
947.208517
 31
0.0
  0
LINE
  5
46A
330
224
100
AcDbEntity
  8
7_ALL_FEATURES
  6
Continuous
 62
     9
100
AcDbLine
 10
1461.494718
 20
951.197246
 30
0.0
 11
1458.866277
 21
945.252391
 31
0.0
  0
LINE
  5
46B
330
224
100
AcDbEntity
  8
7_ALL_FEATURES
  6
Continuous
 62
     9
100
AcDbLine
 10
1464.629437
 20
950.535171
 30
0.0
 11
1464.629437
 21
944.035171
 31
0.0
  0
LINE
  5
46C
330
224
100
AcDbEntity
  8
7_ALL_FEATURES
  6
Continuous
 62
     7
100
AcDbLine
 10
1434.528074
 20
956.717482
 30
0.0
 11
1434.528074
 21
945.85286
 31
0.0
  0
ARC
  5
46D
330
224
100
AcDbEntity
  8
7_ALL_FEATURES
  6
Continuous
 62
     7
100
AcDbCircle
 10
1423.828074
 20
951.285171
 30
0.0
 40
12.5
100
AcDbArc
 50
270.0
 51
328.870387
  0
ARC
  5
46E
330
224
100
AcDbEntity
  8
7_ALL_FEATURES
  6
Continuous
 62
     7
100
AcDbCircle
 10
1423.828074
 20
951.285171
 30
0.0
 40
12.5
100
AcDbArc
 50
31.129613
 51
90.0
  0
ARC
  5
46F
330
224
100
AcDbEntity
  8
7_ALL_FEATURES
  6
Continuous
 62
     7
100
AcDbCircle
 10
1423.828074
 20
951.285171
 30
0.0
 40
12.5
100
AcDbArc
 50
90.0
 51
270.0
  0
LINE
  5
470
330
224
100
AcDbEntity
  8
7_ALL_FEATURES
  6
Continuous
 62
     7
100
AcDbLine
 10
1434.528074
 20
945.85286
 30
0.0
 11
1434.528074
 21
944.822973
 31
0.0
  0
LINE
  5
471
330
224
100
AcDbEntity
  8
7_ALL_FEATURES
  6
Continuous
 62
     7
100
AcDbLine
 10
1434.528074
 20
957.747369
 30
0.0
 11
1434.528074
 21
956.717482
 31
0.0
  0
ARC
  5
472
330
224
100
AcDbEntity
  8
7_ALL_FEATURES
  6
Continuous
 62
     7
100
AcDbCircle
 10
1423.828074
 20
951.285171
 30
0.0
 40
12.0
100
AcDbArc
 50
26.916568
 51
214.02191
  0
ARC
  5
473
330
224
100
AcDbEntity
  8
7_ALL_FEATURES
  6
Continuous
 62
     7
100
AcDbCircle
 10
1423.828074
 20
951.285171
 30
0.0
 40
12.0
100
AcDbArc
 50
214.02191
 51
333.083432
  0
DIMENSION
  5
474
330
224
100
AcDbEntity
  8
0
  6
Continuous
 62
     2
100
AcDbDimension
280
     0
  2
*D1
 10
70.573239
 20
777.767193
 30
0.0
 11
673.049425
 21
777.767193
 31
0.0
 70
   160
  1
1208
 71
     2
 42
1208.0
 73
     0
 74
     0
 75
     0
  3
DIMSTYLE_1
100
AcDbAlignedDimension
 13
1278.573239
 23
757.29584
 33
0.0
 14
70.573239
 24
755.279208
 34
0.0
 50
180.0
100
AcDbRotatedDimension
  0
DIMENSION
  5
475
330
224
100
AcDbEntity
  8
0
  6
Continuous
 62
     2
100
AcDbDimension
280
     0
  2
*D2
 10
1339.187396
 20
705.855124
 30
0.0
 11
1339.187396
 21
679.403027
 31
0.0
 70
   160
  1
%%c<>
 71
     3
 42
25.0
 73
     0
 74
     0
 75
     0
  3
DIMSTYLE_2
100
AcDbAlignedDimension
 13
1304.237354
 23
730.855124
 33
0.0
 14
1303.200789
 24
705.855124
 34
0.0
 50
270.0
100
AcDbRotatedDimension
  0
DIMENSION
  5
476
330
224
100
AcDbEntity
  8
0
  6
Continuous
 62
     2
100
AcDbDimension
280
     0
  2
*D3
 10
1450.528074
 20
904.489388
 30
0.0
 11
1429.404276
 21
904.489388
 31
0.0
 70
   160
  1
40
 71
     2
 42
39.2
 73
     0
 74
     0
 75
     0
  3
DIMSTYLE_3
100
AcDbAlignedDimension
 13
1411.328074
 23
924.055048
 33
0.0
 14
1450.528074
 24
924.316124
 34
0.0
100
AcDbRotatedDimension
  0
INSERT
  5
477
330
224
100
AcDbEntity
  8
0
  6
Continuous
 62
     2
100
AcDbBlockReference
  2
LOGO2_BL0
 10
1470.408888
 20
48.692739
 30
0.0
  0
ACAD_TABLE
  5
478
102
{ACAD_XDICTIONARY
360
4CF
102
}
330
224
100
AcDbEntity
  8
0
  6
Continuous
 62
     2
160
              3524
310
C40D000019000000880000001D000000000000000000F03F000000000000000000000000000000002751D889E5AF96400000000000000000000000000000F03F0000000000000000B09D08D755AC504000000000000000000000000000000000000000000000F03F0000000000000000000000000000000000000000000000
310
000000000000000000000000000000F03F5400000020000000020000000000000000000000000000000000000000000000000000000000000000005E400000000000000000000000000000000000000000000000000000000000000000000000000000F03F5400000020000000020000000000000000000000000000000000
310
0000000000000000000000000000000000005798AAAAAAAA4AC0000000000000000000000000000000000000000000000000000000000000F03F540000002000000002000000000000000000444000000000000020C000000000000000000000000000005E4000000000000020C00000000000000000000000000000000000
310
00000000000000000000000000F03F540000002000000002000000000000000000444000000000000030C000000000000000000000000000005E4000000000000030C0000000000000000000000000000000000000000000000000000000000000F03F5400000020000000020000000000000000004440AF30555555553DC0
310
00000000000000000000000000005E40AF30555555553DC0000000000000000000000000000000000000000000000000000000000000F03F540000002000000002000000000000000000000000000000000042C000000000000000000000000000005E4000000000000042C000000000000000000000000000000000000000
310
0000000000000000000000F03F54000000200000000200000000000000000000005798AAAAAAAA4AC000000000000000000000000000005E405798AAAAAAAA4AC0000000000000000000000000000000000000000000000000000000000000F03F540000002000000002000000000000000000444000000000000000000000
310
000000000000000000000000444000000000000042C0000000000000000000000000000000000000000000000000000000000000F03F5400000020000000020000002C4C555555555740000000000000000000000000000000002C4C55555555574000000000000030C0000000000000000000000000000000000000000000
310
000000000000000000F03F5400000020000000020000000000000000005E40000000000000000000000000000000000000000000005E405798AAAAAAAA4AC0000000000000000000000000000000000000000000000000000000000000F03F0C0000001000000026000000C0000000260000008BCBDDDDDDFD444000000000
310
000018C0000000000000000000000000000000000000000000000000000000000000F03F000000000000F03F000000000000000000000000000000003500420030005F0043005F00300035003200000012000000010000000000000000001040333333333333EB3F0000000000000000000000000000F03F00000000000000
310
000000000000000000000000000000000000000000000000000000000000000000740078007400000000000000BC000000260000006E4D444444D457400000000000001CC0000000000000000000000000000000000000000000000000000000000000F03F000000000000F03F000000000000000000000000000000005200
310
650076003A0030003100000000000C00000001000000453DABAAAAAA1240333333333333EB3F0000000000000000000000000000F03F00000000000000000000000000000000000000000000000000000000000000000000000000000000740078007400000000000000C0000000260000008BCBDDDDDDFD44400000000000
310
002EC0000000000000000000000000000000000000000000000000000000000000F03F000000000000F03F000000000000000000000000000000005300630061006C0065003A0031003A00310000001200000001000000453DABAAAAAA1240333333333333EB3F0000000000000000000000000000F03F0000000000000000
310
0000000000000000000000000000000000000000000000000000000000000000740078007400000000000000B4000000260000006E4D444444D45740443DABAAAAAA2CC0000000000000000000000000000000000000000000000000000000000000F03F000000000000F03F00000000000000000000000000000000410030
310
00000000000400000001000000453DABAAAAAA1240333333333333EB3F0000000000000000000000000000F03F00000000000000000000000000000000000000000000000000000000000000000000000000000000740078007400000000000000C0000000260000008BCBDDDDDDFD444000000000000039C0000000000000
310
000000000000000000000000000000000000000000000000F03F000000000000F03F0000000000000000000000000000000054005200450056004900200031002E00310000001200000001000000453DABAAAAAA1240333333333333EB3F0000000000000000000000000000F03F0000000000000000000000000000000000
310
0000000000000000000000000000000000000000000000740078007400000000000000B8000000260000008BCBDDDDDDFD44405798AAAAAA2A41C0000000000000000000000000000000000000000000000000000000000000F03F000000000000F03F0000000000000000000000000000000044004100540045003A000000
310
0A000000010000007785A9AAAAAA0A40333333333333EB3F0000000000000000000000000000F03F0000000000000000000000000000000000000000000000000000000000000000000000000000000074007800740000000000000018010000260000005471B9BBBBBBFF3FA967555555B543C00000000000000000000000
310
00000000000000000000000000000000000000F03F000000000000F03F0000000000000000000000000000000041006E007900200069006E00740065006700720061006C0020006F00720020007000610072007400690061006C00200072006500700072006F00640075006300740069006F006E0073002000610072006500
310
2000700072006F0068006900620069007400650064000000000068000000010000000000000000000840333333333333EB3F0000000000000000000000000000F03F00000000000000000000000000000000000000000000000000000000000000000000000000000000740078007400000000000000F00000002600000054
310
71B9BBBBBBFF3FA967555555F545C0000000000000000000000000000000000000000000000000000000000000F03F000000000000F03F0000000000000000000000000000000077006900740068006F007500740020007000720069006F007200200061007500740068006F007200690073006100740069006F006E002000
310
6F00660020004C002000000042000000010000000000000000000840333333333333EB3F0000000000000000000000000000F03F00000000000000000000000000000000000000000000000000000000000000000000000000000000740078007400000000000000B8000000260000002C4C555555D55340A967555555F545
310
C0000000000000000000000000000000000000000000000000000000000000F03F000000000000F03F0000000000000000000000000000000020000000020000000100000000000000000008407521567F8461C83F0000000000000000000000000000F03F0000000000000000000000000000000000000000000000000000
310
00000000000000000000000000007400780074002E00730068007800000000000000E0000000260000005E4D149CE7F95340A967555555F545C0000000000000000000000000000000000000000000000000000000000000F03F000000000000F03F00000000000000000000000000000000260020004C0020004C00750063
310
0065002000260020004C006900670068007400200073002E0072002E006C002E002C000000000030000000010000000000000000000840333333333333EB3F0000000000000000000000000000F03F000000000000000000000000000000000000000000000000000000000000000000000000000000007400780074000000
310
00000000F8000000260000005471B9BBBBBBFF3FA9675555553548C0000000000000000000000000000000000000000000000000000000000000F03F000000000000F03F0000000000000000000000000000000069006E0020006100630063006F007200640061006E00630065002000770069007400680020007400680065
310
0020006C0061007700200069006E00200066006F007200630065002E000000000048000000010000000000000000000840333333333333EB3F0000000000000000000000000000F03F00000000000000000000000000000000000000000000000000000000000000000000000000000000740078007400000000000000D800
310
0000260000005471B9BBBBBBFF3FA967555555754AC0000000000000000000000000000000000000000000000000000000000000F03F000000000000F03F0000000000000000000000000000000041006C006C0020007200690067006800740073002000720065007300650072007600650064002E00000000002800000001
310
0000000000000000000840333333333333EB3F0000000000000000000000000000F03F00000000000000000000000000000000000000000000000000000000000000000000000000000000740078007400000000000000080000001F000000
100
AcDbBlockReference
  2
*T5
 10
1451.974159
 20
66.692739
 30
0.0
100
AcDbTable
342
4A1
343
22B
 11
1.0
 21
0.0
 31
0.0
 90
       22
 91
        5
 92
        5
 93
        0
 94
        0
 95
        0
 96
        0
141
8.0
141
8.0
141
13.333333
141
6.666667
141
17.333333
142
13.333333
142
13.333333
142
13.333333
142
53.333333
142
26.666667
171
     1
172
     0
173
     0
174
     0
175
     3
176
     4
 91
       32
178
     0
145
0.0
140
4.666667
 92
        0
301
CELL_VALUE
 93
        2
 90
        4
  1
 
 94
        0
300

302
 
304
ACVALUE_END
171
     1
172
     0
173
     1
174
     0
175
     1
176
     1
 91
        0
178
     0
145
0.0
 92
        0
301
CELL_VALUE
 93
        3
 90
        0
 91
        0
 94
        0
300

302

304
ACVALUE_END
171
     1
172
     0
173
     1
174
     0
175
     1
176
     1
 91
        0
178
     0
145
0.0
 92
        0
301
CELL_VALUE
 93
        3
 90
        0
 91
        0
 94
        0
300

302

304
ACVALUE_END
171
     1
172
     0
173
     0
174
     0
175
     1
176
     1
 91
       33
178
     0
145
0.0
170
     4
140
4.0
 92
        0
301
CELL_VALUE
 93
        2
 90
        4
  1
5B0_C_052
 94
        0
300

302
5B0_C_052
304
ACVALUE_END
171
     1
172
     0
173
     0
174
     0
175
     1
176
     1
 91
       33
178
     0
145
0.0
170
     1
140
4.666667
 92
        0
301
CELL_VALUE
 93
        2
 90
        4
  1
Rev:01
 94
        0
300

302
Rev:01
304
ACVALUE_END
171
     1
172
     0
173
     1
174
     0
175
     1
176
     1
 91
        0
178
     0
145
0.0
 92
        0
301
CELL_VALUE
 93
        3
 90
        0
 91
        0
 94
        0
300

302

304
ACVALUE_END
171
     1
172
     0
173
     1
174
     0
175
     1
176
     1
 91
        0
178
     0
145
0.0
 92
        0
301
CELL_VALUE
 93
        3
 90
        0
 91
        0
 94
        0
300

302

304
ACVALUE_END
171
     1
172
     0
173
     1
174
     0
175
     1
176
     1
 91
        0
178
     0
145
0.0
 92
        0
301
CELL_VALUE
 93
        3
 90
        0
 91
        0
 94
        0
300

302

304
ACVALUE_END
171
     1
172
     0
173
     0
174
     0
175
     1
176
     1
 91
       33
178
     0
145
0.0
170
     1
140
4.666667
 92
        0
301
CELL_VALUE
 93
        2
 90
        4
  1
Scale:1:1
 94
        0
300

302
Scale:1:1
304
ACVALUE_END
171
     1
172
     0
173
     0
174
     0
175
     1
176
     1
 91
       33
178
     0
145
0.0
170
     4
140
4.666667
 92
        0
301
CELL_VALUE
 93
        2
 90
        4
  1
A0
 94
        0
300

302
A0
304
ACVALUE_END
171
     1
172
     0
173
     1
174
     0
175
     1
176
     1
 91
        0
178
     0
145
0.0
 92
        0
301
CELL_VALUE
 93
        3
 90
        0
 91
        0
 94
        0
300

302

304
ACVALUE_END
171
     1
172
     0
173
     1
174
     0
175
     1
176
     1
 91
        0
178
     0
145
0.0
 92
        0
301
CELL_VALUE
 93
        3
 90
        0
 91
        0
 94
        0
300

302

304
ACVALUE_END
171
     1
172
     0
173
     1
174
     0
175
     1
176
     1
 91
        0
178
     0
145
0.0
 92
        0
301
CELL_VALUE
 93
        3
 90
        0
 91
        0
 94
        0
300

302

304
ACVALUE_END
171
     1
172
     0
173
     0
174
     0
175
     2
176
     1
 91
       33
178
     0
145
0.0
170
     4
140
4.666667
 92
        0
301
CELL_VALUE
 93
        2
 90
        4
  1
TREVI 1.1
 94
        0
300

302
TREVI 1.1
304
ACVALUE_END
171
     1
172
     0
173
     1
174
     0
175
     1
176
     1
 91
        0
178
     0
145
0.0
 92
        0
301
CELL_VALUE
 93
        3
 90
        0
 91
        0
 94
        0
300

302

304
ACVALUE_END
171
     1
172
     0
173
     1
174
     0
175
     1
176
     1
 91
        0
178
     0
145
0.0
 92
        0
301
CELL_VALUE
 93
        3
 90
        0
 91
        0
 94
        0
300

302

304
ACVALUE_END
171
     1
172
     0
173
     1
174
     0
175
     1
176
     1
 91
        0
178
     0
145
0.0
 92
        0
301
CELL_VALUE
 93
        3
 90
        0
 91
        0
 94
        0
300

302

304
ACVALUE_END
171
     1
172
     0
173
     1
174
     0
175
     1
176
     1
 91
        0
178
     0
145
0.0
 92
        0
301
CELL_VALUE
 93
        3
 90
        0
 91
        0
 94
        0
300

302

304
ACVALUE_END
171
     1
172
     0
173
     0
174
     0
175
     2
176
     1
 91
       33
178
     0
145
0.0
170
     4
140
3.333333
 92
        0
301
CELL_VALUE
 93
        2
 90
        4
  1
DATE:
 94
        0
300

302
DATE:
304
ACVALUE_END
171
     1
172
     0
173
     1
174
     0
175
     1
176
     1
 91
        0
178
     0
145
0.0
 92
        0
301
CELL_VALUE
 93
        3
 90
        0
 91
        0
 94
        0
300

302

304
ACVALUE_END
171
     1
172
     0
173
     0
174
     0
175
     5
176
     1
 91
       33
178
     0
145
0.0
170
     4
140
3.0
 92
        0
301
CELL_VALUE
 93
        2
 90
        4
  1
Any integral or partial reproductions are prohibited \Pwithout prior authorisation of L {\Ftxt.shx;\W0.190476;\H3.000000; }& L Luce & Light s.r.l., \Pin accordance with the law in force. \PAll rights reserved.
 94
        0
300

302
Any integral or partial reproductions are prohibited \Pwithout prior authorisation of L {\Ftxt.shx;\W0.190476;\H3.000000; }& L Luce & Light s.r.l., \Pin accordance with the law in force. \PAll rights reserved.
304
ACVALUE_END
171
     1
172
     0
173
     1
174
     0
175
     1
176
     1
 91
        0
178
     0
145
0.0
 92
        0
301
CELL_VALUE
 93
        3
 90
        0
 91
        0
 94
        0
300

302

304
ACVALUE_END
171
     1
172
     0
173
     1
174
     0
175
     1
176
     1
 91
        0
178
     0
145
0.0
 92
        0
301
CELL_VALUE
 93
        3
 90
        0
 91
        0
 94
        0
300

302

304
ACVALUE_END
171
     1
172
     0
173
     1
174
     0
175
     1
176
     1
 91
        0
178
     0
145
0.0
 92
        0
301
CELL_VALUE
 93
        3
 90
        0
 91
        0
 94
        0
300

302

304
ACVALUE_END
171
     1
172
     0
173
     1
174
     0
175
     1
176
     1
 91
        0
178
     0
145
0.0
 92
        0
301
CELL_VALUE
 93
        3
 90
        0
 91
        0
 94
        0
300

302

304
ACVALUE_END
  0
ENDSEC
  0
SECTION
  2
OBJECTS
  0
DICTIONARY
  5
C
330
0
100
AcDbDictionary
281
     1
  3
ACAD_DETAILVIEWSTYLE
350
4D8
  3
ACAD_GROUP
350
D
  3
ACAD_IMAGE_DICT
350
4C8
  3
ACAD_LAYOUT
350
1A
  3
ACAD_MATERIAL
350
4BC
  3
ACAD_MLEADERSTYLE
350
4D7
  3
ACAD_MLINESTYLE
350
17
  3
ACAD_PLOTSETTINGS
350
19
  3
ACAD_PLOTSTYLENAME
350
E
  3
ACAD_SCALELIST
350
47E
  3
ACAD_SECTIONVIEWSTYLE
350
4D9
  3
ACAD_TABLESTYLE
350
4A0
  3
ACAD_VISUALSTYLE
350
4A3
  3
ACDB_RECOMPOSE_DATA
350
4D5
  3
AcDbVariableDictionary
350
4D1
  3
HOST_DOC_SETTINGS
350
4C6
  3
MCS_STREAM_DICT
350
4C2
  0
SUN
  5
4C5
330
1F4
100
AcDbSun
 90
        1
290
     0
 63
     7
421
 16777215
 40
1.0
291
     1
 91
  2455826
 92
 54000000
292
     0
 70
     2
 71
   256
280
     1
  0
DICTIONARY
  5
4CF
330
478
100
AcDbDictionary
280
     1
281
     1
  3
ACAD_XREC_ROUNDTRIP
360
4D0
  0
DICTIONARY
  5
4D8
102
{ACAD_REACTORS
330
C
102
}
330
C
100
AcDbDictionary
281
     1
  0
DICTIONARY
  5
D
102
{ACAD_REACTORS
330
C
102
}
330
C
100
AcDbDictionary
281
     1
  0
DICTIONARY
  5
4C8
102
{ACAD_REACTORS
330
C
102
}
330
C
100
AcDbDictionary
281
     1
  0
DICTIONARY
  5
1A
102
{ACAD_REACTORS
330
C
102
}
330
C
100
AcDbDictionary
281
     1
  3
Layout1
350
47B
  3
Model
350
47A
  0
DICTIONARY
  5
4BC
102
{ACAD_REACTORS
330
C
102
}
330
C
100
AcDbDictionary
281
     1
  3
ByBlock
350
4BE
  3
ByLayer
350
4BD
  3
Global
350
4BF
  0
DICTIONARY
  5
4D7
102
{ACAD_REACTORS
330
C
102
}
330
C
100
AcDbDictionary
281
     1
  0
DICTIONARY
  5
17
102
{ACAD_REACTORS
330
C
102
}
330
C
100
AcDbDictionary
281
     1
  3
Standard
350
18
  0
DICTIONARY
  5
19
102
{ACAD_REACTORS
330
C
102
}
330
C
100
AcDbDictionary
281
     1
  0
ACDBDICTIONARYWDFLT
  5
E
102
{ACAD_REACTORS
330
C
102
}
330
C
100
AcDbDictionary
281
     1
  3
Normal
350
F
100
AcDbDictionaryWithDefault
340
F
  0
DICTIONARY
  5
47E
102
{ACAD_REACTORS
330
C
102
}
330
C
100
AcDbDictionary
281
     1
  3
A0
350
47F
  3
A1
350
480
  3
A2
350
481
  3
A3
350
482
  3
A4
350
483
  3
A5
350
484
  3
A6
350
485
  3
A7
350
486
  3
A8
350
487
  3
A9
350
488
  3
B0
350
489
  3
B1
350
48A
  3
B2
350
48B
  3
B3
350
48C
  3
B4
350
48D
  3
B5
350
48E
  3
B6
350
48F
  3
B7
350
490
  3
B8
350
491
  3
B9
350
492
  3
C0
350
493
  3
C1
350
494
  3
C2
350
495
  3
C3
350
496
  3
C4
350
497
  3
C5
350
498
  3
C6
350
499
  3
C7
350
49A
  3
C8
350
49B
  3
C9
350
49C
  3
D0
350
49D
  3
D1
350
49E
  3
D2
350
49F
  0
DICTIONARY
  5
4D9
102
{ACAD_REACTORS
330
C
102
}
330
C
100
AcDbDictionary
281
     1
  0
DICTIONARY
  5
4A0
102
{ACAD_REACTORS
330
C
102
}
330
C
100
AcDbDictionary
281
     1
  3
Standard
350
4A1
  0
DICTIONARY
  5
4A3
102
{ACAD_REACTORS
330
C
102
}
330
C
100
AcDbDictionary
281
     1
  3
2dWireframe
350
4A8
  3
Basic
350
4AB
  3
Brighten
350
4AF
  3
ColorChange
350
4B3
  3
Conceptual
350
4AD
  3
Dim
350
4AE
  3
EdgeColorOff
350
4B6
  3
Facepattern
350
4B2
  3
Flat
350
4A4
  3
FlatWithEdges
350
4A5
  3
Gouraud
350
4A6
  3
GouraudWithEdges
350
4A7
  3
Hidden
350
4AA
  3
JitterOff
350
4B4
  3
Linepattern
350
4B1
  3
OverhangOff
350
4B5
  3
Realistic
350
4AC
  3
Shaded
350
4BB
  3
Shaded with edges
350
4BA
  3
Shades of Gray
350
4B7
  3
Sketchy
350
4B8
  3
Thicken
350
4B0
  3
Wireframe
350
4A9
  3
X-Ray
350
4B9
  0
XRECORD
  5
4D5
102
{ACAD_REACTORS
330
C
102
}
330
C
100
AcDbXrecord
280
     1
 90
        1
330
478
330
4A1
  0
DICTIONARY
  5
4D1
102
{ACAD_REACTORS
330
C
102
}
330
C
100
AcDbDictionary
281
     1
  3
CANNOSCALE
350
4D2
  3
CTABLESTYLE
350
4D6
  0
DICTIONARY
  5
4C6
102
{ACAD_REACTORS
330
C
102
}
330
C
100
AcDbDictionary
281
     1
  3
NCDocParameters
350
4C7
  0
DICTIONARY
  5
4C2
102
{ACAD_REACTORS
330
C
102
}
330
C
100
AcDbDictionary
281
     1
  3
MC_VERSION_DATA
350
4CB
  3
MCS_DOCUMENT_ID
350
4C3
  3
MCS_PARAMS_DATA
350
4C9
  0
XRECORD
  5
4D0
102
{ACAD_REACTORS
330
4CF
102
}
330
4CF
100
AcDbXrecord
280
     1
102
ACAD_ROUNDTRIP_2008_TABLE_ENTITY
360
4CD
 70
     2
 90
        1
 10
0.0
 20
0.0
 30
0.0
 90
        0
 90
        4
361
4CE
  0
LAYOUT
  5
47B
102
{ACAD_REACTORS
330
1A
102
}
330
1A
100
AcDbPlotSettings
  1

  2
none_device
  4
ISO_A0_(1189.00_x_841.00_MM)
  6

 40
0.0
 41
0.0
 42
0.0
 43
0.0
 44
1189.0
 45
841.0
 46
0.0
 47
0.0
 48
0.0
 49
0.0
140
0.0
141
0.0
142
1.0
143
1.0
 70
     0
 72
     1
 73
     0
 74
     0
  7

 75
     0
 76
     0
 77
     2
 78
   300
147
1.0
148
0.0
149
0.0
100
AcDbLayout
  1
Layout1
 70
     0
 71
     1
 10
0.0
 20
0.0
 11
1189.0
 21
841.0
 12
0.0
 22
0.0
 32
0.0
 14
0.0
 24
0.0
 34
0.0
 15
0.0
 25
0.0
 35
0.0
146
0.0
 13
0.0
 23
0.0
 33
0.0
 16
1.0
 26
0.0
 36
0.0
 17
0.0
 27
1.0
 37
0.0
 76
     0
330
225
  0
LAYOUT
  5
47A
102
{ACAD_REACTORS
330
1A
102
}
330
1A
100
AcDbPlotSettings
  1

  2
none_device
  4
ISO_A0_(1189.00_x_841.00_MM)
  6

 40
0.0
 41
0.0
 42
0.0
 43
0.0
 44
1189.0
 45
841.0
 46
0.0
 47
0.0
 48
0.0
 49
0.0
140
0.0
141
0.0
142
1.0
143
1.0
 70
  1024
 72
     1
 73
     0
 74
     0
  7

 75
     0
 76
     0
 77
     2
 78
   300
147
1.0
148
0.0
149
0.0
100
AcDbLayout
  1
Model
 70
     0
 71
     0
 10
0.0
 20
0.0
 11
1189.0
 21
841.0
 12
0.0
 22
0.0
 32
0.0
 14
0.0
 24
0.0
 34
0.0
 15
0.0
 25
0.0
 35
0.0
146
0.0
 13
0.0
 23
0.0
 33
0.0
 16
1.0
 26
0.0
 36
0.0
 17
0.0
 27
1.0
 37
0.0
 76
     0
330
224
331
1F4
  0
MATERIAL
  5
4BE
102
{ACAD_REACTORS
330
4BC
102
}
330
4BC
100
AcDbMaterial
  1
ByBlock
 72
     1
 94
      127
  0
MATERIAL
  5
4BD
102
{ACAD_REACTORS
330
4BC
102
}
330
4BC
100
AcDbMaterial
  1
ByLayer
 72
     1
 94
      127
  0
MATERIAL
  5
4BF
102
{ACAD_REACTORS
330
4BC
102
}
330
4BC
100
AcDbMaterial
  1
Global
 72
     1
 94
      127
  0
MLINESTYLE
  5
18
102
{ACAD_REACTORS
330
17
102
}
330
17
100
AcDbMlineStyle
  2
STANDARD
 70
     0
  3

 62
   256
 51
90.0
 52
90.0
 71
     2
 49
0.5
 62
   256
  6
BYLAYER
 49
-0.5
 62
   256
  6
BYLAYER
  0
ACDBPLACEHOLDER
  5
F
102
{ACAD_REACTORS
330
E
102
}
330
E
  0
SCALE
  5
47F
102
{ACAD_REACTORS
330
47E
102
}
330
47E
100
AcDbScale
 70
     0
300
1:1
140
1.0
141
1.0
290
     1
  0
SCALE
  5
480
102
{ACAD_REACTORS
330
47E
102
}
330
47E
100
AcDbScale
 70
     0
300
1:2
140
1.0
141
2.0
290
     0
  0
SCALE
  5
481
102
{ACAD_REACTORS
330
47E
102
}
330
47E
100
AcDbScale
 70
     0
300
1:4
140
1.0
141
4.0
290
     0
  0
SCALE
  5
482
102
{ACAD_REACTORS
330
47E
102
}
330
47E
100
AcDbScale
 70
     0
300
1:5
140
1.0
141
5.0
290
     0
  0
SCALE
  5
483
102
{ACAD_REACTORS
330
47E
102
}
330
47E
100
AcDbScale
 70
     0
300
1:8
140
1.0
141
8.0
290
     0
  0
SCALE
  5
484
102
{ACAD_REACTORS
330
47E
102
}
330
47E
100
AcDbScale
 70
     0
300
1:10
140
1.0
141
10.0
290
     0
  0
SCALE
  5
485
102
{ACAD_REACTORS
330
47E
102
}
330
47E
100
AcDbScale
 70
     0
300
1:16
140
1.0
141
16.0
290
     0
  0
SCALE
  5
486
102
{ACAD_REACTORS
330
47E
102
}
330
47E
100
AcDbScale
 70
     0
300
1:20
140
1.0
141
20.0
290
     0
  0
SCALE
  5
487
102
{ACAD_REACTORS
330
47E
102
}
330
47E
100
AcDbScale
 70
     0
300
1:30
140
1.0
141
30.0
290
     0
  0
SCALE
  5
488
102
{ACAD_REACTORS
330
47E
102
}
330
47E
100
AcDbScale
 70
     0
300
1:40
140
1.0
141
40.0
290
     0
  0
SCALE
  5
489
102
{ACAD_REACTORS
330
47E
102
}
330
47E
100
AcDbScale
 70
     0
300
1:50
140
1.0
141
50.0
290
     0
  0
SCALE
  5
48A
102
{ACAD_REACTORS
330
47E
102
}
330
47E
100
AcDbScale
 70
     0
300
1:100
140
1.0
141
100.0
290
     0
  0
SCALE
  5
48B
102
{ACAD_REACTORS
330
47E
102
}
330
47E
100
AcDbScale
 70
     0
300
2:1
140
2.0
141
1.0
290
     0
  0
SCALE
  5
48C
102
{ACAD_REACTORS
330
47E
102
}
330
47E
100
AcDbScale
 70
     0
300
4:1
140
4.0
141
1.0
290
     0
  0
SCALE
  5
48D
102
{ACAD_REACTORS
330
47E
102
}
330
47E
100
AcDbScale
 70
     0
300
8:1
140
8.0
141
1.0
290
     0
  0
SCALE
  5
48E
102
{ACAD_REACTORS
330
47E
102
}
330
47E
100
AcDbScale
 70
     0
300
10:1
140
10.0
141
1.0
290
     0
  0
SCALE
  5
48F
102
{ACAD_REACTORS
330
47E
102
}
330
47E
100
AcDbScale
 70
     0
300
100:1
140
100.0
141
1.0
290
     0
  0
SCALE
  5
490
102
{ACAD_REACTORS
330
47E
102
}
330
47E
100
AcDbScale
 70
     0
300
1/128" = 1'-0"
140
0.007812
141
12.0
290
     0
  0
SCALE
  5
491
102
{ACAD_REACTORS
330
47E
102
}
330
47E
100
AcDbScale
 70
     0
300
1/64" = 1'-0"
140
0.015625
141
12.0
290
     0
  0
SCALE
  5
492
102
{ACAD_REACTORS
330
47E
102
}
330
47E
100
AcDbScale
 70
     0
300
1/32" = 1'-0"
140
0.03125
141
12.0
290
     0
  0
SCALE
  5
493
102
{ACAD_REACTORS
330
47E
102
}
330
47E
100
AcDbScale
 70
     0
300
1/16" = 1'-0"
140
0.0625
141
12.0
290
     0
  0
SCALE
  5
494
102
{ACAD_REACTORS
330
47E
102
}
330
47E
100
AcDbScale
 70
     0
300
3/32" = 1'-0"
140
0.09375
141
12.0
290
     0
  0
SCALE
  5
495
102
{ACAD_REACTORS
330
47E
102
}
330
47E
100
AcDbScale
 70
     0
300
1/8" = 1'-0"
140
0.125
141
12.0
290
     0
  0
SCALE
  5
496
102
{ACAD_REACTORS
330
47E
102
}
330
47E
100
AcDbScale
 70
     0
300
3/16" = 1'-0"
140
0.1875
141
12.0
290
     0
  0
SCALE
  5
497
102
{ACAD_REACTORS
330
47E
102
}
330
47E
100
AcDbScale
 70
     0
300
1/4" = 1'-0"
140
0.25
141
12.0
290
     0
  0
SCALE
  5
498
102
{ACAD_REACTORS
330
47E
102
}
330
47E
100
AcDbScale
 70
     0
300
3/8" = 1'-0"
140
0.375
141
12.0
290
     0
  0
SCALE
  5
499
102
{ACAD_REACTORS
330
47E
102
}
330
47E
100
AcDbScale
 70
     0
300
1/2" = 1'-0"
140
0.5
141
12.0
290
     0
  0
SCALE
  5
49A
102
{ACAD_REACTORS
330
47E
102
}
330
47E
100
AcDbScale
 70
     0
300
3/4" = 1'-0"
140
0.75
141
12.0
290
     0
  0
SCALE
  5
49B
102
{ACAD_REACTORS
330
47E
102
}
330
47E
100
AcDbScale
 70
     0
300
1" = 1'-0"
140
1.0
141
12.0
290
     0
  0
SCALE
  5
49C
102
{ACAD_REACTORS
330
47E
102
}
330
47E
100
AcDbScale
 70
     0
300
1-1/2" = 1'-0"
140
1.5
141
12.0
290
     0
  0
SCALE
  5
49D
102
{ACAD_REACTORS
330
47E
102
}
330
47E
100
AcDbScale
 70
     0
300
3" = 1'-0"
140
3.0
141
12.0
290
     0
  0
SCALE
  5
49E
102
{ACAD_REACTORS
330
47E
102
}
330
47E
100
AcDbScale
 70
     0
300
6" = 1'-0"
140
6.0
141
12.0
290
     0
  0
SCALE
  5
49F
102
{ACAD_REACTORS
330
47E
102
}
330
47E
100
AcDbScale
 70
     0
300
1'-0" = 1'-0"
140
12.0
141
12.0
290
     0
  0
TABLESTYLE
  5
4A1
102
{ACAD_REACTORS
330
4A0
102
}
102
{ACAD_XDICTIONARY
360
4D3
102
}
330
4A0
100
AcDbTableStyle
  3
Standard
 70
     0
 71
     0
 40
0.06
 41
0.06
280
     0
281
     0
  7
STANDARD
140
4.5
170
     2
 62
     0
 63
   257
283
     0
 90
        4
 91
        0
  1

274
    -2
284
     1
 64
     0
275
    -2
285
     1
 65
     0
276
    -2
286
     1
 66
     0
277
    -2
287
     1
 67
     0
278
    -2
288
     1
 68
     0
279
    -2
289
     1
 69
     0
  7
STANDARD
140
6.0
170
     5
 62
     0
 63
   257
283
     0
 90
        4
 91
        0
  1

274
    -2
284
     1
 64
     0
275
    -2
285
     1
 65
     0
276
    -2
286
     1
 66
     0
277
    -2
287
     1
 67
     0
278
    -2
288
     1
 68
     0
279
    -2
289
     1
 69
     0
  7
STANDARD
140
4.5
170
     5
 62
     0
 63
   257
283
     0
 90
        4
 91
        0
  1

274
    -2
284
     1
 64
     0
275
    -2
285
     1
 65
     0
276
    -2
286
     1
 66
     0
277
    -2
287
     1
 67
     0
278
    -2
288
     1
 68
     0
279
    -2
289
     1
 69
     0
  0
VISUALSTYLE
  5
4A8
102
{ACAD_REACTORS
330
4A3
102
}
330
4A3
100
AcDbVisualStyle
  2
2dWireframe
 70
     4
177
     3
291
     0
 70
    58
 90
        0
176
     1
 90
        2
176
     1
 90
        0
176
     1
 90
        0
176
     1
 40
0.6
176
     1
 40
30.0
176
     1
 62
     7
420
 16777215
176
     1
 90
        1
176
     1
 90
        4
176
     1
 62
     7
176
     1
 62
   257
176
     1
 90
        1
176
     1
 90
        1
176
     1
 40
1.0
176
     1
 90
        0
176
     1
 62
   257
176
     1
 40
1.0
176
     1
 90
        1
176
     1
 90
        6
176
     1
 90
        2
176
     1
 62
     7
176
     1
 90
        5
176
     1
 90
        0
176
     1
 90
        0
176
     1
290
     0
176
     1
 90
        1
176
     1
 40
0.0
176
     1
 90
        0
176
     1
290
     1
176
     1
290
     1
176
     1
290
     0
176
     1
290
     0
176
     1
290
     0
176
     1
290
     0
176
     1
290
     0
176
     1
290
     0
176
     1
290
     0
176
     1
 90
       50
176
     1
 40
0.0
176
     1
 40
1.0
176
     1
 90
        0
176
     1
 62
    18
420
        0
176
     1
 90
       50
176
     1
 90
        3
176
     1
 62
     5
420
      255
176
     1
290
     0
176
     1
 90
       50
176
     1
 90
       50
176
     1
 90
       50
176
     1
290
     0
176
     1
 90
       50
176
     1
 62
   256
176
     0
 40
1.0
176
     0
 90
        2
176
     1
  1
strokes_ogs.tif
176
     1
290
     0
176
     1
 40
1.0
176
     1
 40
1.0
176
     1
  0
VISUALSTYLE
  5
4AB
102
{ACAD_REACTORS
330
4A3
102
}
330
4A3
100
AcDbVisualStyle
  2
Basic
 70
     7
177
     3
291
     1
 70
    58
 90
        1
176
     1
 90
        0
176
     1
 90
        1
176
     1
 90
        0
176
     1
 40
0.6
176
     1
 40
30.0
176
     1
 62
     7
420
 16777215
176
     1
 90
        0
176
     1
 90
        4
176
     1
 62
     7
176
     1
 62
   257
176
     1
 90
        1
176
     1
 90
        1
176
     1
 40
1.0
176
     1
 90
        8
176
     1
 62
     7
176
     1
 40
1.0
176
     1
 90
        1
176
     1
 90
        6
176
     1
 90
        2
176
     1
 62
     7
176
     1
 90
        5
176
     1
 90
        0
176
     1
 90
        0
176
     1
290
     0
176
     1
 90
        1
176
     1
 40
0.0
176
     1
 90
        0
176
     1
290
     0
176
     1
290
     1
176
     1
290
     1
176
     1
290
     0
176
     1
290
     0
176
     1
290
     0
176
     1
290
     0
176
     1
290
     0
176
     1
290
     0
176
     1
 90
       50
176
     1
 40
0.0
176
     1
 40
1.0
176
     1
 90
        0
176
     1
 62
    18
420
        0
176
     1
 90
       50
176
     1
 90
        3
176
     1
 62
     5
420
      255
176
     1
290
     0
176
     1
 90
       50
176
     1
 90
       50
176
     1
 90
       50
176
     1
290
     0
176
     1
 90
       50
176
     1
 62
   256
176
     0
 40
1.0
176
     0
 90
        2
176
     1
  1
strokes_ogs.tif
176
     1
290
     0
176
     1
 40
1.0
176
     1
 40
1.0
176
     1
  0
VISUALSTYLE
  5
4AF
102
{ACAD_REACTORS
330
4A3
102
}
330
4A3
100
AcDbVisualStyle
  2
Brighten
 70
    12
177
     3
291
     1
 70
    58
 90
        2
176
     1
 90
        2
176
     1
 90
        0
176
     1
 90
        0
176
     1
 40
0.6
176
     1
 40
30.0
176
     1
 62
     7
420
 16777215
176
     1
 90
        1
176
     1
 90
        4
176
     1
 62
     7
176
     1
 62
   257
176
     1
 90
        1
176
     1
 90
        1
176
     1
 40
1.0
176
     1
 90
        8
176
     1
 62
     7
176
     1
 40
1.0
176
     1
 90
        1
176
     1
 90
        6
176
     1
 90
        2
176
     1
 62
     7
176
     1
 90
        5
176
     1
 90
        0
176
     1
 90
        0
176
     1
290
     0
176
     1
 90
        1
176
     1
 40
50.0
176
     1
 90
        0
176
     1
290
     0
176
     1
290
     1
176
     1
290
     1
176
     1
290
     0
176
     1
290
     0
176
     1
290
     0
176
     1
290
     0
176
     1
290
     0
176
     1
290
     0
176
     1
 90
       50
176
     1
 40
0.0
176
     1
 40
1.0
176
     1
 90
        0
176
     1
 62
    18
420
        0
176
     1
 90
       50
176
     1
 90
        3
176
     1
 62
     5
420
      255
176
     1
290
     0
176
     1
 90
       50
176
     1
 90
       50
176
     1
 90
       50
176
     1
290
     0
176
     1
 90
       50
176
     1
 62
   256
176
     0
 40
1.0
176
     0
 90
        2
176
     1
  1
strokes_ogs.tif
176
     1
290
     0
176
     1
 40
1.0
176
     1
 40
1.0
176
     1
  0
VISUALSTYLE
  5
4B3
102
{ACAD_REACTORS
330
4A3
102
}
330
4A3
100
AcDbVisualStyle
  2
ColorChange
 70
    16
177
     3
291
     1
 70
    58
 90
        2
176
     1
 90
        2
176
     1
 90
        3
176
     1
 90
        0
176
     1
 40
0.6
176
     1
 40
30.0
176
     1
 62
     8
420
  8421504
176
     1
 90
        1
176
     1
 90
        4
176
     1
 62
     7
176
     1
 62
   257
176
     1
 90
        1
176
     1
 90
        1
176
     1
 40
1.0
176
     1
 90
        8
176
     1
 62
     8
420
  8421504
176
     1
 40
1.0
176
     1
 90
        1
176
     1
 90
        6
176
     1
 90
        2
176
     1
 62
     7
176
     1
 90
        5
176
     1
 90
        0
176
     1
 90
        0
176
     1
290
     0
176
     1
 90
        1
176
     1
 40
0.0
176
     1
 90
        0
176
     1
290
     0
176
     1
290
     1
176
     1
290
     1
176
     1
290
     0
176
     1
290
     0
176
     1
290
     0
176
     1
290
     0
176
     1
290
     0
176
     1
290
     0
176
     1
 90
       50
176
     1
 40
0.0
176
     1
 40
1.0
176
     1
 90
        0
176
     1
 62
    18
420
        0
176
     1
 90
       50
176
     1
 90
        3
176
     1
 62
     5
420
      255
176
     1
290
     0
176
     1
 90
       50
176
     1
 90
       50
176
     1
 90
       50
176
     1
290
     0
176
     1
 90
       50
176
     1
 62
   256
176
     0
 40
1.0
176
     0
 90
        2
176
     1
  1
strokes_ogs.tif
176
     1
290
     0
176
     1
 40
1.0
176
     1
 40
1.0
176
     1
  0
VISUALSTYLE
  5
4AD
102
{ACAD_REACTORS
330
4A3
102
}
330
4A3
100
AcDbVisualStyle
  2
Conceptual
 70
     9
177
     3
291
     0
 70
    58
 90
        3
176
     1
 90
        2
176
     1
 90
        0
176
     1
 90
        0
176
     1
 40
0.6
176
     1
 40
30.0
176
     1
 62
     7
420
 16777215
176
     1
 90
        2
176
     1
 90
        2
176
     1
 62
     7
176
     1
 62
   257
176
     1
 90
        1
176
     1
 90
        1
176
     1
 40
179.0
176
     1
 90
        8
176
     1
 62
     7
176
     1
 40
1.0
176
     1
 90
        1
176
     1
 90
        6
176
     1
 90
        2
176
     1
 62
     7
176
     1
 90
        3
176
     1
 90
        0
176
     1
 90
        0
176
     1
290
     0
176
     1
 90
        1
176
     1
 40
0.0
176
     1
 90
        0
176
     1
290
     0
176
     1
290
     1
176
     1
290
     1
176
     1
290
     0
176
     1
290
     0
176
     1
290
     0
176
     1
290
     0
176
     1
290
     0
176
     1
290
     0
176
     1
 90
       50
176
     1
 40
0.0
176
     1
 40
1.0
176
     1
 90
        0
176
     1
 62
    18
420
        0
176
     1
 90
       50
176
     1
 90
        3
176
     1
 62
     5
420
      255
176
     1
290
     0
176
     1
 90
       50
176
     1
 90
       50
176
     1
 90
       50
176
     1
290
     0
176
     1
 90
       50
176
     1
 62
   256
176
     0
 40
1.0
176
     0
 90
        2
176
     1
  1
strokes_ogs.tif
176
     1
290
     0
176
     1
 40
1.0
176
     1
 40
1.0
176
     1
  0
VISUALSTYLE
  5
4AE
102
{ACAD_REACTORS
330
4A3
102
}
330
4A3
100
AcDbVisualStyle
  2
Dim
 70
    11
177
     3
291
     1
 70
    58
 90
        2
176
     1
 90
        2
176
     1
 90
        0
176
     1
 90
        0
176
     1
 40
0.6
176
     1
 40
30.0
176
     1
 62
     7
420
 16777215
176
     1
 90
        1
176
     1
 90
        4
176
     1
 62
     7
176
     1
 62
   257
176
     1
 90
        1
176
     1
 90
        1
176
     1
 40
1.0
176
     1
 90
        8
176
     1
 62
     7
176
     1
 40
1.0
176
     1
 90
        1
176
     1
 90
        6
176
     1
 90
        2
176
     1
 62
     7
176
     1
 90
        5
176
     1
 90
        0
176
     1
 90
        0
176
     1
290
     0
176
     1
 90
        1
176
     1
 40
-50.0
176
     1
 90
        0
176
     1
290
     0
176
     1
290
     1
176
     1
290
     1
176
     1
290
     0
176
     1
290
     0
176
     1
290
     0
176
     1
290
     0
176
     1
290
     0
176
     1
290
     0
176
     1
 90
       50
176
     1
 40
0.0
176
     1
 40
1.0
176
     1
 90
        0
176
     1
 62
    18
420
        0
176
     1
 90
       50
176
     1
 90
        3
176
     1
 62
     5
420
      255
176
     1
290
     0
176
     1
 90
       50
176
     1
 90
       50
176
     1
 90
       50
176
     1
290
     0
176
     1
 90
       50
176
     1
 62
   256
176
     0
 40
1.0
176
     0
 90
        2
176
     1
  1
strokes_ogs.tif
176
     1
290
     0
176
     1
 40
1.0
176
     1
 40
1.0
176
     1
  0
VISUALSTYLE
  5
4B6
102
{ACAD_REACTORS
330
4A3
102
}
330
4A3
100
AcDbVisualStyle
  2
EdgeColorOff
 70
    22
177
     3
291
     1
 70
    58
 90
        2
176
     0
 90
        2
176
     0
 90
        0
176
     0
 90
        0
176
     0
 40
0.6
176
     0
 40
30.0
176
     0
 62
     7
420
 16777215
176
     0
 90
        1
176
     0
 90
        4
176
     0
 62
     7
176
     0
 62
   257
176
     0
 90
        1
176
     0
 90
        1
176
     0
 40
1.0
176
     0
 90
        8
176
     2
 62
     7
176
     0
 40
1.0
176
     0
 90
        1
176
     0
 90
        6
176
     0
 90
        2
176
     0
 62
     7
176
     0
 90
        5
176
     0
 90
        0
176
     0
 90
        0
176
     0
290
     0
176
     0
 90
        1
176
     0
 40
0.0
176
     0
 90
        0
176
     0
290
     0
176
     0
290
     1
176
     0
290
     1
176
     0
290
     0
176
     0
290
     0
176
     0
290
     0
176
     0
290
     0
176
     0
290
     0
176
     0
290
     0
176
     0
 90
       50
176
     0
 40
0.0
176
     0
 40
1.0
176
     0
 90
        0
176
     0
 62
    18
420
        0
176
     0
 90
       50
176
     0
 90
        3
176
     0
 62
     5
420
      255
176
     0
290
     0
176
     0
 90
       50
176
     0
 90
       50
176
     0
 90
       50
176
     0
290
     0
176
     0
 90
       50
176
     0
 62
   256
176
     0
 40
1.0
176
     0
 90
        2
176
     0
  1
strokes_ogs.tif
176
     0
290
     0
176
     0
 40
1.0
176
     0
 40
1.0
176
     0
  0
VISUALSTYLE
  5
4B2
102
{ACAD_REACTORS
330
4A3
102
}
330
4A3
100
AcDbVisualStyle
  2
Facepattern
 70
    15
177
     3
291
     1
 70
    58
 90
        2
176
     1
 90
        2
176
     1
 90
        0
176
     1
 90
        0
176
     1
 40
0.6
176
     1
 40
30.0
176
     1
 62
     7
420
 16777215
176
     1
 90
        1
176
     1
 90
        4
176
     1
 62
     7
176
     1
 62
   257
176
     1
 90
        1
176
     1
 90
        1
176
     1
 40
1.0
176
     1
 90
        8
176
     1
 62
     7
176
     1
 40
1.0
176
     1
 90
        1
176
     1
 90
        6
176
     1
 90
        2
176
     1
 62
     7
176
     1
 90
        5
176
     1
 90
        0
176
     1
 90
        0
176
     1
290
     0
176
     1
 90
        1
176
     1
 40
0.0
176
     1
 90
        0
176
     1
290
     0
176
     1
290
     1
176
     1
290
     1
176
     1
290
     0
176
     1
290
     0
176
     1
290
     0
176
     1
290
     0
176
     1
290
     0
176
     1
290
     0
176
     1
 90
       50
176
     1
 40
0.0
176
     1
 40
1.0
176
     1
 90
        0
176
     1
 62
    18
420
        0
176
     1
 90
       50
176
     1
 90
        3
176
     1
 62
     5
420
      255
176
     1
290
     0
176
     1
 90
       50
176
     1
 90
       50
176
     1
 90
       50
176
     1
290
     0
176
     1
 90
       50
176
     1
 62
   256
176
     0
 40
1.0
176
     0
 90
        2
176
     1
  1
strokes_ogs.tif
176
     1
290
     0
176
     1
 40
1.0
176
     1
 40
1.0
176
     1
  0
VISUALSTYLE
  5
4A4
102
{ACAD_REACTORS
330
4A3
102
}
330
4A3
100
AcDbVisualStyle
  2
Flat
 70
     0
177
     3
291
     1
 70
    58
 90
        2
176
     1
 90
        1
176
     1
 90
        1
176
     1
 90
        2
176
     1
 40
0.6
176
     1
 40
30.0
176
     1
 62
     7
420
 16777215
176
     1
 90
        0
176
     1
 90
        0
176
     1
 62
     7
176
     1
 62
   257
176
     1
 90
        1
176
     1
 90
        1
176
     1
 40
1.0
176
     1
 90
        8
176
     1
 62
     7
176
     1
 40
1.0
176
     1
 90
        1
176
     1
 90
        6
176
     1
 90
        2
176
     1
 62
     7
176
     1
 90
        5
176
     1
 90
        0
176
     1
 90
        0
176
     1
290
     0
176
     1
 90
       13
176
     1
 40
0.0
176
     1
 90
        0
176
     1
290
     0
176
     1
290
     1
176
     1
290
     1
176
     1
290
     0
176
     1
290
     0
176
     1
290
     0
176
     1
290
     0
176
     1
290
     0
176
     1
290
     0
176
     1
 90
       50
176
     1
 40
0.0
176
     1
 40
1.0
176
     1
 90
        0
176
     1
 62
    18
420
        0
176
     1
 90
       50
176
     1
 90
        3
176
     1
 62
     5
420
      255
176
     1
290
     0
176
     1
 90
       50
176
     1
 90
       50
176
     1
 90
       50
176
     1
290
     0
176
     1
 90
       50
176
     1
 62
   256
176
     0
 40
1.0
176
     0
 90
        2
176
     1
  1
strokes_ogs.tif
176
     1
290
     0
176
     1
 40
1.0
176
     1
 40
1.0
176
     1
  0
VISUALSTYLE
  5
4A5
102
{ACAD_REACTORS
330
4A3
102
}
330
4A3
100
AcDbVisualStyle
  2
FlatWithEdges
 70
     1
177
     3
291
     1
 70
    58
 90
        2
176
     1
 90
        1
176
     1
 90
        1
176
     1
 90
        2
176
     1
 40
0.6
176
     1
 40
30.0
176
     1
 62
     7
420
 16777215
176
     1
 90
        1
176
     1
 90
        0
176
     1
 62
     7
176
     1
 62
   257
176
     1
 90
        1
176
     1
 90
        1
176
     1
 40
1.0
176
     1
 90
        0
176
     1
 62
   257
176
     1
 40
1.0
176
     1
 90
        1
176
     1
 90
        6
176
     1
 90
        2
176
     1
 62
     7
176
     1
 90
        5
176
     1
 90
        0
176
     1
 90
        0
176
     1
290
     0
176
     1
 90
       13
176
     1
 40
0.0
176
     1
 90
        0
176
     1
290
     0
176
     1
290
     1
176
     1
290
     1
176
     1
290
     0
176
     1
290
     0
176
     1
290
     0
176
     1
290
     0
176
     1
290
     0
176
     1
290
     0
176
     1
 90
       50
176
     1
 40
0.0
176
     1
 40
1.0
176
     1
 90
        0
176
     1
 62
    18
420
        0
176
     1
 90
       50
176
     1
 90
        3
176
     1
 62
     5
420
      255
176
     1
290
     0
176
     1
 90
       50
176
     1
 90
       50
176
     1
 90
       50
176
     1
290
     0
176
     1
 90
       50
176
     1
 62
   256
176
     0
 40
1.0
176
     0
 90
        2
176
     1
  1
strokes_ogs.tif
176
     1
290
     0
176
     1
 40
1.0
176
     1
 40
1.0
176
     1
  0
VISUALSTYLE
  5
4A6
102
{ACAD_REACTORS
330
4A3
102
}
330
4A3
100
AcDbVisualStyle
  2
Gouraud
 70
     2
177
     3
291
     1
 70
    58
 90
        2
176
     1
 90
        2
176
     1
 90
        1
176
     1
 90
        2
176
     1
 40
0.6
176
     1
 40
30.0
176
     1
 62
     7
420
 16777215
176
     1
 90
        0
176
     1
 90
        0
176
     1
 62
     7
176
     1
 62
   257
176
     1
 90
        1
176
     1
 90
        1
176
     1
 40
1.0
176
     1
 90
        0
176
     1
 62
     7
176
     1
 40
1.0
176
     1
 90
        1
176
     1
 90
        6
176
     1
 90
        2
176
     1
 62
     7
176
     1
 90
        5
176
     1
 90
        0
176
     1
 90
        0
176
     1
290
     0
176
     1
 90
       13
176
     1
 40
0.0
176
     1
 90
        0
176
     1
290
     0
176
     1
290
     1
176
     1
290
     1
176
     1
290
     0
176
     1
290
     0
176
     1
290
     0
176
     1
290
     0
176
     1
290
     0
176
     1
290
     0
176
     1
 90
       50
176
     1
 40
0.0
176
     1
 40
1.0
176
     1
 90
        0
176
     1
 62
    18
420
        0
176
     1
 90
       50
176
     1
 90
        3
176
     1
 62
     5
420
      255
176
     1
290
     0
176
     1
 90
       50
176
     1
 90
       50
176
     1
 90
       50
176
     1
290
     0
176
     1
 90
       50
176
     1
 62
   256
176
     0
 40
1.0
176
     0
 90
        2
176
     1
  1
strokes_ogs.tif
176
     1
290
     0
176
     1
 40
1.0
176
     1
 40
1.0
176
     1
  0
VISUALSTYLE
  5
4A7
102
{ACAD_REACTORS
330
4A3
102
}
330
4A3
100
AcDbVisualStyle
  2
GouraudWithEdges
 70
     3
177
     3
291
     1
 70
    58
 90
        2
176
     1
 90
        2
176
     1
 90
        1
176
     1
 90
        2
176
     1
 40
0.6
176
     1
 40
30.0
176
     1
 62
     7
420
 16777215
176
     1
 90
        1
176
     1
 90
        0
176
     1
 62
     7
176
     1
 62
   257
176
     1
 90
        1
176
     1
 90
        1
176
     1
 40
1.0
176
     1
 90
        0
176
     1
 62
   257
176
     1
 40
1.0
176
     1
 90
        1
176
     1
 90
        6
176
     1
 90
        2
176
     1
 62
     7
176
     1
 90
        5
176
     1
 90
        0
176
     1
 90
        0
176
     1
290
     0
176
     1
 90
       13
176
     1
 40
0.0
176
     1
 90
        0
176
     1
290
     0
176
     1
290
     1
176
     1
290
     1
176
     1
290
     0
176
     1
290
     0
176
     1
290
     0
176
     1
290
     0
176
     1
290
     0
176
     1
290
     0
176
     1
 90
       50
176
     1
 40
0.0
176
     1
 40
1.0
176
     1
 90
        0
176
     1
 62
    18
420
        0
176
     1
 90
       50
176
     1
 90
        3
176
     1
 62
     5
420
      255
176
     1
290
     0
176
     1
 90
       50
176
     1
 90
       50
176
     1
 90
       50
176
     1
290
     0
176
     1
 90
       50
176
     1
 62
   256
176
     0
 40
1.0
176
     0
 90
        2
176
     1
  1
strokes_ogs.tif
176
     1
290
     0
176
     1
 40
1.0
176
     1
 40
1.0
176
     1
  0
VISUALSTYLE
  5
4AA
102
{ACAD_REACTORS
330
4A3
102
}
330
4A3
100
AcDbVisualStyle
  2
Hidden
 70
     6
177
     3
291
     0
 70
    58
 90
        1
176
     1
 90
        2
176
     1
 90
        2
176
     1
 90
        0
176
     1
 40
0.6
176
     1
 40
30.0
176
     1
 62
     7
420
 16777215
176
     1
 90
        2
176
     1
 90
        2
176
     1
 62
     7
176
     1
 62
   257
176
     1
 90
        2
176
     1
 90
        1
176
     1
 40
40.0
176
     1
 90
        0
176
     1
 62
   257
176
     1
 40
1.0
176
     1
 90
        1
176
     1
 90
        6
176
     1
 90
        2
176
     1
 62
     7
176
     1
 90
        3
176
     1
 90
        0
176
     1
 90
        0
176
     1
290
     0
176
     1
 90
        1
176
     1
 40
0.0
176
     1
 90
        0
176
     1
290
     0
176
     1
290
     1
176
     1
290
     1
176
     1
290
     0
176
     1
290
     0
176
     1
290
     0
176
     1
290
     0
176
     1
290
     0
176
     1
290
     0
176
     1
 90
       50
176
     1
 40
0.0
176
     1
 40
1.0
176
     1
 90
        0
176
     1
 62
    18
420
        0
176
     1
 90
       50
176
     1
 90
        3
176
     1
 62
     5
420
      255
176
     1
290
     0
176
     1
 90
       50
176
     1
 90
       50
176
     1
 90
       50
176
     1
290
     0
176
     1
 90
       50
176
     1
 62
   256
176
     0
 40
1.0
176
     0
 90
        2
176
     1
  1
strokes_ogs.tif
176
     1
290
     0
176
     1
 40
1.0
176
     1
 40
1.0
176
     1
  0
VISUALSTYLE
  5
4B4
102
{ACAD_REACTORS
330
4A3
102
}
330
4A3
100
AcDbVisualStyle
  2
JitterOff
 70
    20
177
     3
291
     1
 70
    58
 90
        2
176
     0
 90
        2
176
     0
 90
        0
176
     0
 90
        0
176
     0
 40
0.6
176
     0
 40
30.0
176
     0
 62
     7
420
 16777215
176
     0
 90
        1
176
     0
 90
        4
176
     0
 62
     7
176
     0
 62
   257
176
     0
 90
        1
176
     0
 90
        1
176
     0
 40
1.0
176
     0
 90
       10
176
     2
 62
     7
176
     0
 40
1.0
176
     0
 90
        1
176
     0
 90
        6
176
     0
 90
        2
176
     0
 62
     7
176
     0
 90
        5
176
     0
 90
        0
176
     0
 90
        0
176
     0
290
     0
176
     0
 90
        1
176
     0
 40
0.0
176
     0
 90
        0
176
     0
290
     0
176
     0
290
     1
176
     0
290
     1
176
     0
290
     0
176
     0
290
     0
176
     0
290
     0
176
     0
290
     0
176
     0
290
     0
176
     0
290
     0
176
     0
 90
       50
176
     0
 40
0.0
176
     0
 40
1.0
176
     0
 90
        0
176
     0
 62
    18
420
        0
176
     0
 90
       50
176
     0
 90
        3
176
     0
 62
     5
420
      255
176
     0
290
     0
176
     0
 90
       50
176
     0
 90
       50
176
     0
 90
       50
176
     0
290
     0
176
     0
 90
       50
176
     0
 62
   256
176
     0
 40
1.0
176
     0
 90
        2
176
     0
  1
strokes_ogs.tif
176
     0
290
     0
176
     0
 40
1.0
176
     0
 40
1.0
176
     0
  0
VISUALSTYLE
  5
4B1
102
{ACAD_REACTORS
330
4A3
102
}
330
4A3
100
AcDbVisualStyle
  2
Linepattern
 70
    14
177
     3
291
     1
 70
    58
 90
        2
176
     1
 90
        2
176
     1
 90
        0
176
     1
 90
        0
176
     1
 40
0.6
176
     1
 40
30.0
176
     1
 62
     7
420
 16777215
176
     1
 90
        1
176
     1
 90
        4
176
     1
 62
     7
176
     1
 62
   257
176
     1
 90
        7
176
     1
 90
        7
176
     1
 40
1.0
176
     1
 90
        8
176
     1
 62
     7
176
     1
 40
1.0
176
     1
 90
        1
176
     1
 90
        6
176
     1
 90
        2
176
     1
 62
     7
176
     1
 90
        5
176
     1
 90
        0
176
     1
 90
        0
176
     1
290
     0
176
     1
 90
        1
176
     1
 40
0.0
176
     1
 90
        0
176
     1
290
     0
176
     1
290
     1
176
     1
290
     1
176
     1
290
     0
176
     1
290
     0
176
     1
290
     0
176
     1
290
     0
176
     1
290
     0
176
     1
290
     0
176
     1
 90
       50
176
     1
 40
0.0
176
     1
 40
1.0
176
     1
 90
        0
176
     1
 62
    18
420
        0
176
     1
 90
       50
176
     1
 90
        3
176
     1
 62
     5
420
      255
176
     1
290
     0
176
     1
 90
       50
176
     1
 90
       50
176
     1
 90
       50
176
     1
290
     0
176
     1
 90
       50
176
     1
 62
   256
176
     0
 40
1.0
176
     0
 90
        2
176
     1
  1
strokes_ogs.tif
176
     1
290
     0
176
     1
 40
1.0
176
     1
 40
1.0
176
     1
  0
VISUALSTYLE
  5
4B5
102
{ACAD_REACTORS
330
4A3
102
}
330
4A3
100
AcDbVisualStyle
  2
OverhangOff
 70
    21
177
     3
291
     1
 70
    58
 90
        2
176
     0
 90
        2
176
     0
 90
        0
176
     0
 90
        0
176
     0
 40
0.6
176
     0
 40
30.0
176
     0
 62
     7
420
 16777215
176
     0
 90
        1
176
     0
 90
        4
176
     0
 62
     7
176
     0
 62
   257
176
     0
 90
        1
176
     0
 90
        1
176
     0
 40
1.0
176
     0
 90
        9
176
     2
 62
     7
176
     0
 40
1.0
176
     0
 90
        1
176
     0
 90
        6
176
     0
 90
        2
176
     0
 62
     7
176
     0
 90
        5
176
     0
 90
        0
176
     0
 90
        0
176
     0
290
     0
176
     0
 90
        1
176
     0
 40
0.0
176
     0
 90
        0
176
     0
290
     0
176
     0
290
     1
176
     0
290
     1
176
     0
290
     0
176
     0
290
     0
176
     0
290
     0
176
     0
290
     0
176
     0
290
     0
176
     0
290
     0
176
     0
 90
       50
176
     0
 40
0.0
176
     0
 40
1.0
176
     0
 90
        0
176
     0
 62
    18
420
        0
176
     0
 90
       50
176
     0
 90
        3
176
     0
 62
     5
420
      255
176
     0
290
     0
176
     0
 90
       50
176
     0
 90
       50
176
     0
 90
       50
176
     0
290
     0
176
     0
 90
       50
176
     0
 62
   256
176
     0
 40
1.0
176
     0
 90
        2
176
     0
  1
strokes_ogs.tif
176
     0
290
     0
176
     0
 40
1.0
176
     0
 40
1.0
176
     0
  0
VISUALSTYLE
  5
4AC
102
{ACAD_REACTORS
330
4A3
102
}
330
4A3
100
AcDbVisualStyle
  2
Realistic
 70
     8
177
     3
291
     0
 70
    58
 90
        2
176
     1
 90
        3
176
     1
 90
        0
176
     1
 90
        2
176
     1
 40
0.6
176
     1
 40
30.0
176
     1
 62
     7
420
 16777215
176
     1
 90
        0
176
     1
 90
        0
176
     1
 62
     7
176
     1
 62
   257
176
     1
 90
        1
176
     1
 90
        1
176
     1
 40
1.0
176
     1
 90
        8
176
     1
 62
   257
176
     1
 40
1.0
176
     1
 90
        1
176
     1
 90
        6
176
     1
 90
        2
176
     1
 62
     7
176
     1
 90
        3
176
     1
 90
        0
176
     1
 90
        0
176
     1
290
     0
176
     1
 90
       13
176
     1
 40
0.0
176
     1
 90
        0
176
     1
290
     0
176
     1
290
     1
176
     1
290
     1
176
     1
290
     0
176
     1
290
     0
176
     1
290
     0
176
     1
290
     0
176
     1
290
     0
176
     1
290
     0
176
     1
 90
       50
176
     1
 40
0.0
176
     1
 40
1.0
176
     1
 90
        0
176
     1
 62
    18
420
        0
176
     1
 90
       50
176
     1
 90
        3
176
     1
 62
     5
420
      255
176
     1
290
     0
176
     1
 90
       50
176
     1
 90
       50
176
     1
 90
       50
176
     1
290
     0
176
     1
 90
       50
176
     1
 62
   256
176
     0
 40
1.0
176
     0
 90
        2
176
     1
  1
strokes_ogs.tif
176
     1
290
     0
176
     1
 40
1.0
176
     1
 40
1.0
176
     1
  0
VISUALSTYLE
  5
4BB
102
{ACAD_REACTORS
330
4A3
102
}
330
4A3
100
AcDbVisualStyle
  2
Shaded
 70
    27
177
     3
291
     0
 70
    58
 90
        2
176
     1
 90
        2
176
     1
 90
        1
176
     1
 90
        2
176
     1
 40
0.6
176
     1
 40
30.0
176
     1
 62
     7
420
 16777215
176
     1
 90
        0
176
     1
 90
        4
176
     1
 62
     7
176
     1
 62
   257
176
     1
 90
        1
176
     1
 90
        1
176
     1
 40
1.0
176
     1
 90
        8
176
     1
 62
   257
176
     1
 40
1.0
176
     1
 90
        1
176
     1
 90
        6
176
     1
 90
        2
176
     1
 62
     8
420
  7895160
176
     1
 90
        3
176
     1
 90
        0
176
     1
 90
        0
176
     1
290
     0
176
     1
 90
        5
176
     1
 40
0.0
176
     1
 90
        0
176
     1
290
     0
176
     1
290
     1
176
     1
290
     1
176
     1
290
     0
176
     1
290
     0
176
     1
290
     0
176
     1
290
     0
176
     1
290
     0
176
     1
290
     0
176
     1
 90
       50
176
     1
 40
0.0
176
     1
 40
1.0
176
     1
 90
        0
176
     1
 62
    18
420
        0
176
     1
 90
       50
176
     1
 90
        3
176
     1
 62
     5
420
      255
176
     1
290
     0
176
     1
 90
       50
176
     1
 90
       50
176
     1
 90
       50
176
     1
290
     0
176
     1
 90
       50
176
     1
 62
   256
176
     0
 40
1.0
176
     0
 90
        2
176
     1
  1
strokes_ogs.tif
176
     1
290
     0
176
     1
 40
1.0
176
     1
 40
1.0
176
     1
  0
VISUALSTYLE
  5
4BA
102
{ACAD_REACTORS
330
4A3
102
}
330
4A3
100
AcDbVisualStyle
  2
Shaded with edges
 70
    26
177
     3
291
     0
 70
    58
 90
        2
176
     1
 90
        2
176
     1
 90
        1
176
     1
 90
        2
176
     1
 40
0.6
176
     1
 40
30.0
176
     1
 62
     7
420
 16777215
176
     1
 90
        1
176
     1
 90
       10
176
     1
 62
     7
176
     1
 62
   257
176
     1
 90
        2
176
     1
 90
        1
176
     1
 40
1.0
176
     1
 90
        8
176
     1
 62
   257
176
     1
 40
1.0
176
     1
 90
        1
176
     1
 90
        6
176
     1
 90
        2
176
     1
 62
     7
176
     1
 90
        3
176
     1
 90
        0
176
     1
 90
        0
176
     1
290
     0
176
     1
 90
        5
176
     1
 40
0.0
176
     1
 90
        0
176
     1
290
     0
176
     1
290
     1
176
     1
290
     1
176
     1
290
     0
176
     1
290
     0
176
     1
290
     0
176
     1
290
     0
176
     1
290
     0
176
     1
290
     0
176
     1
 90
       50
176
     1
 40
0.0
176
     1
 40
1.0
176
     1
 90
        0
176
     1
 62
    18
420
        0
176
     1
 90
       50
176
     1
 90
        3
176
     1
 62
     5
420
      255
176
     1
290
     0
176
     1
 90
       50
176
     1
 90
       50
176
     1
 90
       50
176
     1
290
     0
176
     1
 90
       50
176
     1
 62
   256
176
     0
 40
1.0
176
     0
 90
        2
176
     1
  1
strokes_ogs.tif
176
     1
290
     0
176
     1
 40
1.0
176
     1
 40
1.0
176
     1
  0
VISUALSTYLE
  5
4B7
102
{ACAD_REACTORS
330
4A3
102
}
330
4A3
100
AcDbVisualStyle
  2
Shades of Gray
 70
    23
177
     3
291
     0
 70
    58
 90
        2
176
     1
 90
        2
176
     1
 90
        3
176
     1
 90
        0
176
     1
 40
0.6
176
     1
 40
30.0
176
     1
 62
     7
420
 16777215
176
     1
 90
        2
176
     1
 90
        2
176
     1
 62
     7
176
     1
 62
     7
176
     1
 90
        1
176
     1
 90
        1
176
     1
 40
40.0
176
     1
 90
        8
176
     1
 62
     7
176
     1
 40
1.0
176
     1
 90
        1
176
     1
 90
        6
176
     1
 90
        2
176
     1
 62
     7
176
     1
 90
        3
176
     1
 90
        0
176
     1
 90
        0
176
     1
290
     0
176
     1
 90
        1
176
     1
 40
0.0
176
     1
 90
        0
176
     1
290
     0
176
     1
290
     1
176
     1
290
     1
176
     1
290
     0
176
     1
290
     0
176
     1
290
     0
176
     1
290
     0
176
     1
290
     0
176
     1
290
     0
176
     1
 90
       50
176
     1
 40
0.0
176
     1
 40
1.0
176
     1
 90
        0
176
     1
 62
    18
420
        0
176
     1
 90
       50
176
     1
 90
        3
176
     1
 62
     5
420
      255
176
     1
290
     0
176
     1
 90
       50
176
     1
 90
       50
176
     1
 90
       50
176
     1
290
     0
176
     1
 90
       50
176
     1
 62
   256
176
     0
 40
1.0
176
     0
 90
        2
176
     1
  1
strokes_ogs.tif
176
     1
290
     0
176
     1
 40
1.0
176
     1
 40
1.0
176
     1
  0
VISUALSTYLE
  5
4B8
102
{ACAD_REACTORS
330
4A3
102
}
330
4A3
100
AcDbVisualStyle
  2
Sketchy
 70
    24
177
     3
291
     0
 70
    58
 90
        1
176
     1
 90
        2
176
     1
 90
        2
176
     1
 90
        0
176
     1
 40
0.6
176
     1
 40
30.0
176
     1
 62
     7
420
 16777215
176
     1
 90
        2
176
     1
 90
        2
176
     1
 62
     7
176
     1
 62
     7
176
     1
 90
        1
176
     1
 90
        1
176
     1
 40
40.0
176
     1
 90
       11
176
     1
 62
     7
176
     1
 40
1.0
176
     1
 90
        1
176
     1
 90
        6
176
     1
 90
        2
176
     1
 62
     7
176
     1
 90
        6
176
     1
 90
        0
176
     1
 90
        0
176
     1
290
     0
176
     1
 90
        1
176
     1
 40
0.0
176
     1
 90
        0
176
     1
290
     0
176
     1
290
     1
176
     1
290
     1
176
     1
290
     0
176
     1
290
     0
176
     1
290
     0
176
     1
290
     0
176
     1
290
     0
176
     1
290
     0
176
     1
 90
       50
176
     1
 40
0.0
176
     1
 40
1.0
176
     1
 90
        0
176
     1
 62
    18
420
        0
176
     1
 90
       50
176
     1
 90
        3
176
     1
 62
     5
420
      255
176
     1
290
     0
176
     1
 90
       50
176
     1
 90
       50
176
     1
 90
       50
176
     1
290
     0
176
     1
 90
       50
176
     1
 62
   256
176
     0
 40
1.0
176
     0
 90
        2
176
     1
  1
strokes_ogs.tif
176
     1
290
     0
176
     1
 40
1.0
176
     1
 40
1.0
176
     1
  0
VISUALSTYLE
  5
4B0
102
{ACAD_REACTORS
330
4A3
102
}
330
4A3
100
AcDbVisualStyle
  2
Thicken
 70
    13
177
     3
291
     1
 70
    58
 90
        2
176
     1
 90
        2
176
     1
 90
        0
176
     1
 90
        0
176
     1
 40
0.6
176
     1
 40
30.0
176
     1
 62
     7
420
 16777215
176
     1
 90
        1
176
     1
 90
        4
176
     1
 62
     7
176
     1
 62
   257
176
     1
 90
        1
176
     1
 90
        1
176
     1
 40
1.0
176
     1
 90
       12
176
     1
 62
     7
176
     1
 40
1.0
176
     1
 90
        1
176
     1
 90
        6
176
     1
 90
        2
176
     1
 62
     7
176
     1
 90
        5
176
     1
 90
        0
176
     1
 90
        0
176
     1
290
     0
176
     1
 90
        1
176
     1
 40
0.0
176
     1
 90
        0
176
     1
290
     0
176
     1
290
     1
176
     1
290
     1
176
     1
290
     0
176
     1
290
     0
176
     1
290
     0
176
     1
290
     0
176
     1
290
     0
176
     1
290
     0
176
     1
 90
       50
176
     1
 40
0.0
176
     1
 40
1.0
176
     1
 90
        0
176
     1
 62
    18
420
        0
176
     1
 90
       50
176
     1
 90
        3
176
     1
 62
     5
420
      255
176
     1
290
     0
176
     1
 90
       50
176
     1
 90
       50
176
     1
 90
       50
176
     1
290
     0
176
     1
 90
       50
176
     1
 62
   256
176
     0
 40
1.0
176
     0
 90
        2
176
     1
  1
strokes_ogs.tif
176
     1
290
     0
176
     1
 40
1.0
176
     1
 40
1.0
176
     1
  0
VISUALSTYLE
  5
4A9
102
{ACAD_REACTORS
330
4A3
102
}
330
4A3
100
AcDbVisualStyle
  2
Wireframe
 70
     5
177
     3
291
     0
 70
    58
 90
        0
176
     1
 90
        2
176
     1
 90
        0
176
     1
 90
        0
176
     1
 40
0.6
176
     1
 40
30.0
176
     1
 62
     7
420
 16777215
176
     1
 90
        1
176
     1
 90
        4
176
     1
 62
     7
176
     1
 62
   257
176
     1
 90
        1
176
     1
 90
        1
176
     1
 40
1.0
176
     1
 90
        0
176
     1
 62
   257
176
     1
 40
1.0
176
     1
 90
        1
176
     1
 90
        6
176
     1
 90
        2
176
     1
 62
     7
176
     1
 90
        3
176
     1
 90
        0
176
     1
 90
        0
176
     1
290
     0
176
     1
 90
        1
176
     1
 40
0.0
176
     1
 90
        0
176
     1
290
     0
176
     1
290
     1
176
     1
290
     1
176
     1
290
     0
176
     1
290
     0
176
     1
290
     0
176
     1
290
     0
176
     1
290
     0
176
     1
290
     0
176
     1
 90
       50
176
     1
 40
0.0
176
     1
 40
1.0
176
     1
 90
        0
176
     1
 62
    18
420
        0
176
     1
 90
       50
176
     1
 90
        3
176
     1
 62
     5
420
      255
176
     1
290
     0
176
     1
 90
       50
176
     1
 90
       50
176
     1
 90
       50
176
     1
290
     0
176
     1
 90
       50
176
     1
 62
   256
176
     0
 40
1.0
176
     0
 90
        2
176
     1
  1
strokes_ogs.tif
176
     1
290
     0
176
     1
 40
1.0
176
     1
 40
1.0
176
     1
  0
VISUALSTYLE
  5
4B9
102
{ACAD_REACTORS
330
4A3
102
}
330
4A3
100
AcDbVisualStyle
  2
X-Ray
 70
    25
177
     3
291
     0
 70
    58
 90
        2
176
     1
 90
        2
176
     1
 90
        1
176
     1
 90
        1
176
     1
 40
0.5
176
     1
 40
30.0
176
     1
 62
     7
420
 16777215
176
     1
 90
        1
176
     1
 90
        0
176
     1
 62
     7
176
     1
 62
   257
176
     1
 90
        1
176
     1
 90
        1
176
     1
 40
1.0
176
     1
 90
        8
176
     1
 62
     7
176
     1
 40
1.0
176
     1
 90
        1
176
     1
 90
        6
176
     1
 90
        2
176
     1
 62
     7
176
     1
 90
        3
176
     1
 90
        0
176
     1
 90
        0
176
     1
290
     0
176
     1
 90
       13
176
     1
 40
0.0
176
     1
 90
        0
176
     1
290
     0
176
     1
290
     1
176
     1
290
     1
176
     1
290
     0
176
     1
290
     0
176
     1
290
     0
176
     1
290
     0
176
     1
290
     0
176
     1
290
     0
176
     1
 90
       50
176
     1
 40
0.0
176
     1
 40
1.0
176
     1
 90
        0
176
     1
 62
    18
420
        0
176
     1
 90
       50
176
     1
 90
        3
176
     1
 62
     5
420
      255
176
     1
290
     0
176
     1
 90
       50
176
     1
 90
       50
176
     1
 90
       50
176
     1
290
     0
176
     1
 90
       50
176
     1
 62
   256
176
     0
 40
1.0
176
     0
 90
        2
176
     1
  1
strokes_ogs.tif
176
     1
290
     0
176
     1
 40
1.0
176
     1
 40
1.0
176
     1
  0
DICTIONARYVAR
  5
4D2
102
{ACAD_REACTORS
330
4D1
102
}
330
4D1
100
DictionaryVariables
280
     0
  1
1:1
  0
DICTIONARYVAR
  5
4D6
102
{ACAD_REACTORS
330
4D1
102
}
330
4D1
100
DictionaryVariables
280
     0
  1
Standard
  0
CSACDOCUMENTOPTIONS
  5
4C7
102
{ACAD_REACTORS
330
4C6
102
}
330
4C6
  0
XRECORD
  5
4CB
102
{ACAD_REACTORS
330
4C2
102
}
330
4C2
100
AcDbXrecord
280
     1
300
MC_VERSION_DATA
 90
       95
310
0600000002000000570000001C000000E404000000000000000000007801936764E5D8CF7A8393818115C460606066E0646662626666706006F214793899F8DE3171E725E6E53B3BBA2878E6951050AF75FEFFFFFF520032DE0F3057000000
  0
XRECORD
  5
4C3
102
{ACAD_REACTORS
330
4C2
102
}
330
4C2
100
AcDbXrecord
280
     1
300
MCS_DOCUMENT_ID
 90
       60
310
0600000002000000150000001C000000E404000000000000000000007801E37DB8D4497356B18EEFA60F535A1C7789DAFD0702006CE00B8915000000
  0
XRECORD
  5
4C9
102
{ACAD_REACTORS
330
4C2
102
}
330
4C2
100
AcDbXrecord
280
     1
300
MCS_PARAMS_DATA
 90
     3313
310
0600000002000000F64B00001C000000E404000000000000000000007801C55C5B905C45199EE99EBDCCE67E5DA218172C303B91307B4B8C459531245054850D55591F78B236BB49B9BAC9E6B22A082A9655BE5865596569A965F9209288CF16503EC8834088C10B092404211702988430422E9084CDAEFFD7A7FBF4DFA7CF
310
D9D99D9D39930798FF3F7DCEF7DFFAFBBBFBCC6CDBFC46297252EECB48F9CDF5ED5234493921A5206D76815820B252E4F3225F128D7D5F59BF69E3162948D9A2D485B3131313747328BF06593E960915079422437734AA3BDAA5CCD053F5ED4FD2557D257BAB94DF007A03479F859BB2B22193C9108EC1CDCADC0464C27506
310
28605703E48886E0B986E10F03BF91E33707F8E3140E7A9091C8268236920C1C662240B94888A1C8E07600AE99C32D5131CA8B3925D172EFE62D7D6D9DABBA8ADDD6F17CE16D13F0457AE8AC9268DE32DABF73B07FCFA013F9BF8491D7C17E2550D8E8FFCA8DFE4E98B3929B331718B291824FFF72EB941D9E8E2211D5A93C
310
784A44C557923911258BD0C8640531AEEC61A924855B11378280384364A422680C0A928DB9C10CD89D581114199665B722B26E4590C82B0222AB08FAA8A60626C028E0044F81BA246F5360E167F2D27C56A10E05C058C13C59DEC6207679103AFC5DEADF992F2B284F67B31C8EE359B64A9665A62453228F64269D98455E3B
310
A4B35817F7EC92C86FB8EFFE8DBD5BEEDBDCAB0CD3B5FC8E99065A7E55D536E39DE7826237F1C8BBBCB3CFADFC93302087C80397EE69C2FF69CA32234F0763E41851010DA578E8294D435524988818E84710A7B2643B4F7C034F6CE5C9368F203BE8094C6268541D70D35EE4B585DAE170F4942EB8D2D422560A9917F34B62
310
CE86919D9F1F6DDBB36DD770FFC0B6BC682E898607BEB5737424F8D83B323AF07529CFC0B69BB96D9FD3CFF9B410ED79B1A42416161FEA29AEEDEEEC5ADF532C76DEF3C5AEEEB5CAECF97A60330D2C1C3579EAD0DA7621F20269BD6768746FDBF0D0DE51F3B0EE356B3ABBD6F474F7740D76770EACED08FCFC92BEAF13F701
310
B5AF7FEBF0B6B691ED6D7D23C3DBF6F4EF840FDA9AD583C58E81E240FFEAADDD5BD70EAC0E669D2A25F27FB610851F9335859F059541B9E5971EC7A5A7E83F2CE53DB9A4040555A2661A4DDBF2C560B2E54E7D5483931EF871F7C88E5DFDA3435B878687461F6EDB313248FE3596847C70DBDEBC682809D13B22E56A5856E4
310
E9998738519B6E2A89DCE6EDDBDB542AF4E4380F8F61A4965F57116093E5A052A06AF588670205D9A715FB49B140D81A90855F902680EBB8B3A3187EEA96F2B224E392BAF898328CB1AD47DA34C1601A1B421AD816D190715CC3F276A5DE067C546F03AED6DB808FEB6DC0B57A1BB00853B49EB3E0937A47E07ABD0D188301
310
71CB797197D3603B1D06BFCB6DB024827C0C834324E60945463B3712E196397079076E990B47228783C8E09631B8F129C211385B3E540C97413DC70673C524DEAD70BD23917B079179B782793791AE77D944EFDCDC5529988B13E1069D6092C472A7F777A6F648E4C184C88239C8822913E16AE29D48176E29E0727C316496
310
EF2A967C95165E504B0C2B218EEE82DD5C63513CD614C5091F6D6FA7551865CC5C5030A1E0A3E84BEC86CFD04EC5DD01AA74CBDB05AB8C403295A124BB2908C4B032B4682A032283FB103E391B4E03172C7199C4E0F88E871E8855ADA1482D3238FA1846E0B807A77785BFF935FE1D74369F5647D0D171CA5F4F09337C2559
310
105132935A503D6DBC7A94B54D2B6DF1E0339960F436A97441791E5EC104D40283580888C4FDED577B1FD8B4B9AF6FE30605D8AAD7F1F34A62F6DD5BBEC62E92057A31FEA25A9DB3F5FBD3C1729D9CD723B0BF0DE8402BB05A67160DDE4416E59079C0D9EAA575B7321F67115FC018C76AB5B3A33D06B68CBD9BFBDC93C073
310
800CC384FD360C544F539B6F02B1820953BE9D01DE01C0D85A6C50369A5AC4065C7760793B965800321749E4B50891C0C2AB0CAE9808178444974C70F875952A9381563C01BE9D08EAFA481283ABD8C7EF7870DAABE068E68833DFAC8EA0A3E3F87C0B07AA507B2311F0889285BDC333294C4E2DB27C67BA70ABD2857B688A
310
70552AA7873DB8489E55063D5D2DCBE9BB9E49F1E554A5083C922EDCA3E9C27D2F5DB8EF7B705EE9D87E1E920E88313AAE6AECF4FBD668D3D30DB4E51ADA9BEDB0D7AFCEB4DDED85F7C4ECF6551B3BCE2AFF6E835E49458EC94883D6E73C45753FAE614C3C0A0362777435D915EC025C33F7578776011DE6F3D066954C59D6
310
D76F86AC9CD58A53F4122CF0552BAE070AEA3B5AF15752304F1F47569D50AB71F41A31FA5A51C904CD43C6B0F51D2ACEFC112ACC4CC1B0FF086CE7AD5A4D096A005126387AAD451EE384D9C035A925859E39C1AA865EE9A9B8DA21CEE289167F7CF1D4C4BC7A125EC5AED5D8BB0B5A9D9144D134CFA71BF85A8D44BE568348
310
F6AA55A2F3CAEA4F6982FD21118CC249D3CBF852A586F244BA70FBD285DB9F085793EDE56E143F0AD06C6B4CB2242BDD3DD1419166C2865E81F9CE1648F3CBD84597B22E28992A3DDCE24C77F3F311A01C8A722828EC3CF15F7D987933F818F8E59BC138E5CD4CE8AC24C94E68BA32F5C3CBAB808B6B06B9936E642F9F804C
310
903AF2F3709D37832318A078E4B37AEBDCFAA66859945B9EBB25776BAE2DD3995995E9CA1433DDFA4DAC7ECE6FE93696E96BB06712968ED2661884A9EE40230F60D0D73DE8C858453B9E8E4212D5A9B0784A762662599FEDD18C9299F4094C728A91F536658E91CDA6DFC8E89F363B15B4CB31404FD2581CF722BBF229B517
310
430944E56AB2E2A8E3461950730F2B7ECA7BC570E389706E8BA9D241C744225C40C29385944F707279EA277D998065D9EAD604B1263E66D38513E9C2490F4EE7CC6E8AA89C3D9DA588701CA708AB6414C194931EE3FC0D4515D71A4FBFE712F8CB4A26532A6E8DCF01CA61A3745BE3F3C09F6E6B442F0CD7BAD36A8D2F002E
310
AE359E3BE646F6B8926D6BBC0CD9926FBEF08C5220B9BAE91D0E14769FF44B52301E3C00E8FA74C117BD24F396E22C7F1005F2DA2902EB76053DE720B0D3EE397F2F036AE8B24A3DE750225C4DF8F8A544B81AF69C7F2482D6C4C77F067093EF36FE359541FF8E0E8A50399BA22F63681CEF0EBDEBB2C3834A9E09EF1E0654
310
1D79F708F0A7CBBB956F495E015C1CEFEE3EEC46B65FC996771F856C09285F58A7148C77872F6104D6DC9A8897D30896D457015D1FDE3DEA25B91CEFF2EBD6EB0A68F718A0D3A6DDD7CA805699768F27C2D584925E4F84AB9476A39B03E744D09CD6610FF59F44E89A78FA46BA70DDDE0ADC144A4DBCEBF1E0221D416DC23D
310
1D715254A766A8A7AC60C1FF26021ED7783E889CD89C52F24C1ACF0940D5B1F19C047E7A8DE714E0E21ACFD5436EE339AB64DB78E44B91C6730003ECCB897CE1D28548E3798246B0C6731AD0536D3CB3E90740046E0B5FD5161351555C247A084506FA9607AAEBD39C44F1E2B63A5BDCA18E17B755B2E2664A322602C34C3A
310
0393625B51C09BC60D77315EF1E1C8DB80730A9C37D5B8CD0EBF3EA3A6FB4EA2A7C18B1B2746D53A5F7BB70C687C78291FE10E3A386EE3054657F9CB297E9CF703B0E71DFC4DA3397B4068C3CF33A1A81F02C2C920DB8E7ABF712005813923946BAE06DE453454B45CC32AF6311810C751E3F85A979E7874424F9299B34AB2
310
210DC430A45A3473162283FB2F3218C7FE178FBB1CF59692CDAD957C0DECAC3739580882F7E26636C4FC0874E66F42CE013F2EB274A4C323CBB88082C5B980AE4CFD4DC879C0C5B1FFF5E7DDC89E57324556799F2F34BC006EC70CD18A8318C0D9FF0AB6807CDBB19F46B0A4BE07E8B4D9FF8207EA504E3D7E65FA3E4C7226
310
B329B0E8D703AAFEBAA304E869379E693123CD68457958A4FF2F11AE86ECFF4119D078F6E7138AD87FF2370F86D6E1E38789702D76FED2134932CCA824CB8C811832A3160D33426421BD980847AF6F0C11D33DEECB1CFE9B7175D1F926045DE5BD8DBFBDBE94081764D0049324E6DDB40A8607F372225C4D16463974B5B836
310
F393232E193EA2E499B49986C93A780A6DA631A981D7A6CD34012EAECDFCFC5937B23F52B26D33BF83CCDBCC56A5C0ECD07DE7A7A7226D661D8D6033A419D0536D33E07F56B8C4CA7C0D48229F9610695A461A0883CE7B494E8DD95B004DF38E8247AB09FE45AC1A52EDAC32A0861DD8DA85D8A76276989D08579353913989
310
700119397510D9BB4CAB9DF096393711B4263ECE4B176E7EBA700B3C389DB3F0B5335AA6A7234288EA142D784A9083AFB414616018456CF24C3293C4CD2F49D3E5A5F0410CEE7E0F2E6A6FEA11580893E29AEE529C2FC11C4DF48D4AA628982DB44A422820F8563073C8F989CF2240392BED74F7768B819FDEDE6E09E0E29A
310
EE72FA030B3CB273954C91D5916E87CC9BEEFB4FAB1E6B73B10CFB6CBEB73B4423589D2D05F4CC9AAE2E4C768646F0614DBB4BD40606DDEA2539B5A67B13A0D36EBACBCA809A9055A7E9E24B8E0D79912B896C91FE0C1655C17843E129FA335B3277F4E8510807513CB9CC44868E210AF7FE19028691B0917E39482B125CF8
310
D4FF01F0B312DAF64B0000
  0
TABLECONTENT
  5
4CD
330
4D0
100
AcDbLinkedData
  1

300

100
AcDbLinkedTableData
 90
        5
300
COLUMN
  1
LINKEDTABLEDATACOLUMN_BEGIN
300

 91
        0
301
CUSTOMDATA
  1
DATAMAP_BEGIN
 90
        0
309
DATAMAP_END
309
LINKEDTABLEDATACOLUMN_END
  1
FORMATTEDTABLEDATACOLUMN_BEGIN
300
COLUMNTABLEFORMAT
  1
TABLEFORMAT_BEGIN
 90
        3
170
     0
309
TABLEFORMAT_END
309
FORMATTEDTABLEDATACOLUMN_END
  1
TABLECOLUMN_BEGIN
 90
        0
 40
13.333333
309
TABLECOLUMN_END
300
COLUMN
  1
LINKEDTABLEDATACOLUMN_BEGIN
300

 91
        0
301
CUSTOMDATA
  1
DATAMAP_BEGIN
 90
        0
309
DATAMAP_END
309
LINKEDTABLEDATACOLUMN_END
  1
FORMATTEDTABLEDATACOLUMN_BEGIN
300
COLUMNTABLEFORMAT
  1
TABLEFORMAT_BEGIN
 90
        3
170
     0
309
TABLEFORMAT_END
309
FORMATTEDTABLEDATACOLUMN_END
  1
TABLECOLUMN_BEGIN
 90
        0
 40
13.333333
309
TABLECOLUMN_END
300
COLUMN
  1
LINKEDTABLEDATACOLUMN_BEGIN
300

 91
        0
301
CUSTOMDATA
  1
DATAMAP_BEGIN
 90
        0
309
DATAMAP_END
309
LINKEDTABLEDATACOLUMN_END
  1
FORMATTEDTABLEDATACOLUMN_BEGIN
300
COLUMNTABLEFORMAT
  1
TABLEFORMAT_BEGIN
 90
        3
170
     0
309
TABLEFORMAT_END
309
FORMATTEDTABLEDATACOLUMN_END
  1
TABLECOLUMN_BEGIN
 90
        0
 40
13.333333
309
TABLECOLUMN_END
300
COLUMN
  1
LINKEDTABLEDATACOLUMN_BEGIN
300

 91
        0
301
CUSTOMDATA
  1
DATAMAP_BEGIN
 90
        0
309
DATAMAP_END
309
LINKEDTABLEDATACOLUMN_END
  1
FORMATTEDTABLEDATACOLUMN_BEGIN
300
COLUMNTABLEFORMAT
  1
TABLEFORMAT_BEGIN
 90
        3
170
     0
309
TABLEFORMAT_END
309
FORMATTEDTABLEDATACOLUMN_END
  1
TABLECOLUMN_BEGIN
 90
        0
 40
53.333333
309
TABLECOLUMN_END
300
COLUMN
  1
LINKEDTABLEDATACOLUMN_BEGIN
300

 91
        0
301
CUSTOMDATA
  1
DATAMAP_BEGIN
 90
        0
309
DATAMAP_END
309
LINKEDTABLEDATACOLUMN_END
  1
FORMATTEDTABLEDATACOLUMN_BEGIN
300
COLUMNTABLEFORMAT
  1
TABLEFORMAT_BEGIN
 90
        3
170
     0
309
TABLEFORMAT_END
309
FORMATTEDTABLEDATACOLUMN_END
  1
TABLECOLUMN_BEGIN
 90
        0
 40
26.666667
309
TABLECOLUMN_END
 91
        5
301
ROW
  1
LINKEDTABLEDATAROW_BEGIN
 90
        5
300
CELL
  1
LINKEDTABLEDATACELL_BEGIN
 90
        0
300

 91
        0
301
CUSTOMDATA
  1
DATAMAP_BEGIN
 90
        1
300
ACAD_ROUNDTRIP_2008_CELL_CHECKSUM
301
DATAMAP_VALUE
 93
        2
 90
        2
140
32.0
 94
        0
300

302

304
ACVALUE_END
309
DATAMAP_END
 92
        0
 95
        1
302
CONTENT
  1
CELLCONTENT_BEGIN
 90
        1
300
VALUE
 93
        2
 90
        4
  1
 
 94
        0
300

302
 
304
ACVALUE_END
 91
        0
309
CELLCONTENT_END
  1
FORMATTEDCELLCONTENT_BEGIN
170
     1
300
CONTENTFORMAT
  1
CONTENTFORMAT_BEGIN
 90
      132
 91
        0
 92
      512
 93
        0
300

 40
0.0
140
1.0
 94
        1
 62
     0
340
0
144
4.666667
309
CONTENTFORMAT_END
309
FORMATTEDCELLCONTENT_END
309
LINKEDTABLEDATACELL_END
  1
FORMATTEDTABLEDATACELL_BEGIN
300
CELLTABLEFORMAT
  1
TABLEFORMAT_BEGIN
 90
        1
170
     1
 91
        0
 92
        0
 62
   257
 93
        1
300
CONTENTFORMAT
  1
CONTENTFORMAT_BEGIN
 90
        0
 91
        0
 92
      512
 93
        0
300

 40
0.0
140
1.0
 94
        1
 62
     0
340
0
144
0.18
309
CONTENTFORMAT_END
171
     0
 94
        0
309
TABLEFORMAT_END
309
FORMATTEDTABLEDATACELL_END
  1
TABLECELL_BEGIN
 90
        0
 91
        0
309
TABLECELL_END
300
CELL
  1
LINKEDTABLEDATACELL_BEGIN
 90
        0
300

 91
        0
301
CUSTOMDATA
  1
DATAMAP_BEGIN
 90
        0
309
DATAMAP_END
 92
        0
 95
        0
309
LINKEDTABLEDATACELL_END
  1
FORMATTEDTABLEDATACELL_BEGIN
300
CELLTABLEFORMAT
  1
TABLEFORMAT_BEGIN
 90
        1
170
     1
 91
        0
 92
        0
 62
   257
 93
        1
300
CONTENTFORMAT
  1
CONTENTFORMAT_BEGIN
 90
        0
 91
        0
 92
      512
 93
        0
300

 40
0.0
140
1.0
 94
        1
 62
     0
340
0
144
0.18
309
CONTENTFORMAT_END
171
     0
 94
        0
309
TABLEFORMAT_END
309
FORMATTEDTABLEDATACELL_END
  1
TABLECELL_BEGIN
 90
        0
 91
        0
309
TABLECELL_END
300
CELL
  1
LINKEDTABLEDATACELL_BEGIN
 90
        0
300

 91
        0
301
CUSTOMDATA
  1
DATAMAP_BEGIN
 90
        0
309
DATAMAP_END
 92
        0
 95
        0
309
LINKEDTABLEDATACELL_END
  1
FORMATTEDTABLEDATACELL_BEGIN
300
CELLTABLEFORMAT
  1
TABLEFORMAT_BEGIN
 90
        1
170
     1
 91
        0
 92
        0
 62
   257
 93
        1
300
CONTENTFORMAT
  1
CONTENTFORMAT_BEGIN
 90
        0
 91
        0
 92
      512
 93
        0
300

 40
0.0
140
1.0
 94
        1
 62
     0
340
0
144
0.18
309
CONTENTFORMAT_END
171
     0
 94
        0
309
TABLEFORMAT_END
309
FORMATTEDTABLEDATACELL_END
  1
TABLECELL_BEGIN
 90
        0
 91
        0
309
TABLECELL_END
300
CELL
  1
LINKEDTABLEDATACELL_BEGIN
 90
        0
300

 91
        0
301
CUSTOMDATA
  1
DATAMAP_BEGIN
 90
        1
300
ACAD_ROUNDTRIP_2008_CELL_CHECKSUM
301
DATAMAP_VALUE
 93
        2
 90
        2
140
2824.0
 94
        0
300

302

304
ACVALUE_END
309
DATAMAP_END
 92
        0
 95
        1
302
CONTENT
  1
CELLCONTENT_BEGIN
 90
        1
300
VALUE
 93
        2
 90
        4
  1
5B0_C_052
 94
        0
300

302
5B0_C_052
304
ACVALUE_END
 91
        0
309
CELLCONTENT_END
  1
FORMATTEDCELLCONTENT_BEGIN
170
     1
300
CONTENTFORMAT
  1
CONTENTFORMAT_BEGIN
 90
      132
 91
        0
 92
      512
 93
        0
300

 40
0.0
140
1.0
 94
        1
 62
     0
340
0
144
4.0
309
CONTENTFORMAT_END
309
FORMATTEDCELLCONTENT_END
309
LINKEDTABLEDATACELL_END
  1
FORMATTEDTABLEDATACELL_BEGIN
300
CELLTABLEFORMAT
  1
TABLEFORMAT_BEGIN
 90
        1
170
     1
 91
       16
 92
        0
 62
   257
 93
        1
300
CONTENTFORMAT
  1
CONTENTFORMAT_BEGIN
 90
       16
 91
        0
 92
      512
 93
        0
300

 40
0.0
140
1.0
 94
        4
 62
     0
340
0
144
0.18
309
CONTENTFORMAT_END
171
     0
 94
        4
 95
        1
302
GRIDFORMAT
  1
GRIDFORMAT_BEGIN
 90
       26
 91
        1
 62
     0
 92
       -2
340
0
 93
        0
 40
0.045
309
GRIDFORMAT_END
 95
        4
302
GRIDFORMAT
  1
GRIDFORMAT_BEGIN
 90
       26
 91
        1
 62
     0
 92
       -2
340
0
 93
        0
 40
0.045
309
GRIDFORMAT_END
 95
        8
302
GRIDFORMAT
  1
GRIDFORMAT_BEGIN
 90
       26
 91
        1
 62
     0
 92
       -2
340
0
 93
        0
 40
0.045
309
GRIDFORMAT_END
 95
       32
302
GRIDFORMAT
  1
GRIDFORMAT_BEGIN
 90
       26
 91
        1
 62
     0
 92
       -2
340
0
 93
        0
 40
0.045
309
GRIDFORMAT_END
309
TABLEFORMAT_END
309
FORMATTEDTABLEDATACELL_END
  1
TABLECELL_BEGIN
 90
        0
 91
        0
309
TABLECELL_END
300
CELL
  1
LINKEDTABLEDATACELL_BEGIN
 90
        0
300

 91
        0
301
CUSTOMDATA
  1
DATAMAP_BEGIN
 90
        1
300
ACAD_ROUNDTRIP_2008_CELL_CHECKSUM
301
DATAMAP_VALUE
 93
        2
 90
        2
140
1404.0
 94
        0
300

302

304
ACVALUE_END
309
DATAMAP_END
 92
        0
 95
        1
302
CONTENT
  1
CELLCONTENT_BEGIN
 90
        1
300
VALUE
 93
        2
 90
        4
  1
Rev:01
 94
        0
300

302
Rev:01
304
ACVALUE_END
 91
        0
309
CELLCONTENT_END
  1
FORMATTEDCELLCONTENT_BEGIN
170
     1
300
CONTENTFORMAT
  1
CONTENTFORMAT_BEGIN
 90
      132
 91
        0
 92
      512
 93
        0
300

 40
0.0
140
1.0
 94
        1
 62
     0
340
0
144
4.666667
309
CONTENTFORMAT_END
309
FORMATTEDCELLCONTENT_END
309
LINKEDTABLEDATACELL_END
  1
FORMATTEDTABLEDATACELL_BEGIN
300
CELLTABLEFORMAT
  1
TABLEFORMAT_BEGIN
 90
        1
170
     1
 91
       16
 92
        0
 62
   257
 93
        1
300
CONTENTFORMAT
  1
CONTENTFORMAT_BEGIN
 90
       16
 91
        0
 92
      512
 93
        0
300

 40
0.0
140
1.0
 94
        1
 62
     0
340
0
144
0.18
309
CONTENTFORMAT_END
171
     0
 94
        4
 95
        1
302
GRIDFORMAT
  1
GRIDFORMAT_BEGIN
 90
       26
 91
        1
 62
     0
 92
       -2
340
0
 93
        0
 40
0.045
309
GRIDFORMAT_END
 95
        4
302
GRIDFORMAT
  1
GRIDFORMAT_BEGIN
 90
       26
 91
        1
 62
     0
 92
       -2
340
0
 93
        0
 40
0.045
309
GRIDFORMAT_END
 95
        8
302
GRIDFORMAT
  1
GRIDFORMAT_BEGIN
 90
       26
 91
        1
 62
     0
 92
       -2
340
0
 93
        0
 40
0.045
309
GRIDFORMAT_END
 95
       32
302
GRIDFORMAT
  1
GRIDFORMAT_BEGIN
 90
       26
 91
        1
 62
     0
 92
       -2
340
0
 93
        0
 40
0.045
309
GRIDFORMAT_END
309
TABLEFORMAT_END
309
FORMATTEDTABLEDATACELL_END
  1
TABLECELL_BEGIN
 90
        0
 91
        0
309
TABLECELL_END
 91
        0
301
CUSTOMDATA
  1
DATAMAP_BEGIN
 90
        0
309
DATAMAP_END
309
LINKEDTABLEDATAROW_END
  1
FORMATTEDTABLEDATAROW_BEGIN
300
ROWTABLEFORMAT
  1
TABLEFORMAT_BEGIN
 90
        2
170
     0
309
TABLEFORMAT_END
309
FORMATTEDTABLEDATAROW_END
  1
TABLEROW_BEGIN
 90
        1
 40
8.0
309
TABLEROW_END
301
ROW
  1
LINKEDTABLEDATAROW_BEGIN
 90
        5
300
CELL
  1
LINKEDTABLEDATACELL_BEGIN
 90
        0
300

 91
        0
301
CUSTOMDATA
  1
DATAMAP_BEGIN
 90
        0
309
DATAMAP_END
 92
        0
 95
        0
309
LINKEDTABLEDATACELL_END
  1
FORMATTEDTABLEDATACELL_BEGIN
300
CELLTABLEFORMAT
  1
TABLEFORMAT_BEGIN
 90
        1
170
     1
 91
        0
 92
        0
 62
   257
 93
        1
300
CONTENTFORMAT
  1
CONTENTFORMAT_BEGIN
 90
        0
 91
        0
 92
      512
 93
        0
300

 40
0.0
140
1.0
 94
        1
 62
     0
340
0
144
0.18
309
CONTENTFORMAT_END
171
     0
 94
        0
309
TABLEFORMAT_END
309
FORMATTEDTABLEDATACELL_END
  1
TABLECELL_BEGIN
 90
        0
 91
        0
309
TABLECELL_END
300
CELL
  1
LINKEDTABLEDATACELL_BEGIN
 90
        0
300

 91
        0
301
CUSTOMDATA
  1
DATAMAP_BEGIN
 90
        0
309
DATAMAP_END
 92
        0
 95
        0
309
LINKEDTABLEDATACELL_END
  1
FORMATTEDTABLEDATACELL_BEGIN
300
CELLTABLEFORMAT
  1
TABLEFORMAT_BEGIN
 90
        1
170
     1
 91
        0
 92
        0
 62
   257
 93
        1
300
CONTENTFORMAT
  1
CONTENTFORMAT_BEGIN
 90
        0
 91
        0
 92
      512
 93
        0
300

 40
0.0
140
1.0
 94
        1
 62
     0
340
0
144
0.18
309
CONTENTFORMAT_END
171
     0
 94
        0
309
TABLEFORMAT_END
309
FORMATTEDTABLEDATACELL_END
  1
TABLECELL_BEGIN
 90
        0
 91
        0
309
TABLECELL_END
300
CELL
  1
LINKEDTABLEDATACELL_BEGIN
 90
        0
300

 91
        0
301
CUSTOMDATA
  1
DATAMAP_BEGIN
 90
        0
309
DATAMAP_END
 92
        0
 95
        0
309
LINKEDTABLEDATACELL_END
  1
FORMATTEDTABLEDATACELL_BEGIN
300
CELLTABLEFORMAT
  1
TABLEFORMAT_BEGIN
 90
        1
170
     1
 91
        0
 92
        0
 62
   257
 93
        1
300
CONTENTFORMAT
  1
CONTENTFORMAT_BEGIN
 90
        0
 91
        0
 92
      512
 93
        0
300

 40
0.0
140
1.0
 94
        1
 62
     0
340
0
144
0.18
309
CONTENTFORMAT_END
171
     0
 94
        0
309
TABLEFORMAT_END
309
FORMATTEDTABLEDATACELL_END
  1
TABLECELL_BEGIN
 90
        0
 91
        0
309
TABLECELL_END
300
CELL
  1
LINKEDTABLEDATACELL_BEGIN
 90
        0
300

 91
        0
301
CUSTOMDATA
  1
DATAMAP_BEGIN
 90
        1
300
ACAD_ROUNDTRIP_2008_CELL_CHECKSUM
301
DATAMAP_VALUE
 93
        2
 90
        2
140
3105.0
 94
        0
300

302

304
ACVALUE_END
309
DATAMAP_END
 92
        0
 95
        1
302
CONTENT
  1
CELLCONTENT_BEGIN
 90
        1
300
VALUE
 93
        2
 90
        4
  1
Scale:1:1
 94
        0
300

302
Scale:1:1
304
ACVALUE_END
 91
        0
309
CELLCONTENT_END
  1
FORMATTEDCELLCONTENT_BEGIN
170
     1
300
CONTENTFORMAT
  1
CONTENTFORMAT_BEGIN
 90
      132
 91
        0
 92
      512
 93
        0
300

 40
0.0
140
1.0
 94
        1
 62
     0
340
0
144
4.666667
309
CONTENTFORMAT_END
309
FORMATTEDCELLCONTENT_END
309
LINKEDTABLEDATACELL_END
  1
FORMATTEDTABLEDATACELL_BEGIN
300
CELLTABLEFORMAT
  1
TABLEFORMAT_BEGIN
 90
        1
170
     1
 91
       16
 92
        0
 62
   257
 93
        1
300
CONTENTFORMAT
  1
CONTENTFORMAT_BEGIN
 90
       16
 91
        0
 92
      512
 93
        0
300

 40
0.0
140
1.0
 94
        1
 62
     0
340
0
144
0.18
309
CONTENTFORMAT_END
171
     0
 94
        4
 95
        1
302
GRIDFORMAT
  1
GRIDFORMAT_BEGIN
 90
       26
 91
        1
 62
     0
 92
       -2
340
0
 93
        0
 40
0.045
309
GRIDFORMAT_END
 95
        4
302
GRIDFORMAT
  1
GRIDFORMAT_BEGIN
 90
       26
 91
        1
 62
     0
 92
       -2
340
0
 93
        0
 40
0.045
309
GRIDFORMAT_END
 95
        8
302
GRIDFORMAT
  1
GRIDFORMAT_BEGIN
 90
       26
 91
        1
 62
     0
 92
       -2
340
0
 93
        0
 40
0.045
309
GRIDFORMAT_END
 95
       32
302
GRIDFORMAT
  1
GRIDFORMAT_BEGIN
 90
       26
 91
        1
 62
     0
 92
       -2
340
0
 93
        0
 40
0.045
309
GRIDFORMAT_END
309
TABLEFORMAT_END
309
FORMATTEDTABLEDATACELL_END
  1
TABLECELL_BEGIN
 90
        0
 91
        0
309
TABLECELL_END
300
CELL
  1
LINKEDTABLEDATACELL_BEGIN
 90
        0
300

 91
        0
301
CUSTOMDATA
  1
DATAMAP_BEGIN
 90
        1
300
ACAD_ROUNDTRIP_2008_CELL_CHECKSUM
301
DATAMAP_VALUE
 93
        2
 90
        2
140
161.0
 94
        0
300

302

304
ACVALUE_END
309
DATAMAP_END
 92
        0
 95
        1
302
CONTENT
  1
CELLCONTENT_BEGIN
 90
        1
300
VALUE
 93
        2
 90
        4
  1
A0
 94
        0
300

302
A0
304
ACVALUE_END
 91
        0
309
CELLCONTENT_END
  1
FORMATTEDCELLCONTENT_BEGIN
170
     1
300
CONTENTFORMAT
  1
CONTENTFORMAT_BEGIN
 90
      132
 91
        0
 92
      512
 93
        0
300

 40
0.0
140
1.0
 94
        1
 62
     0
340
0
144
4.666667
309
CONTENTFORMAT_END
309
FORMATTEDCELLCONTENT_END
309
LINKEDTABLEDATACELL_END
  1
FORMATTEDTABLEDATACELL_BEGIN
300
CELLTABLEFORMAT
  1
TABLEFORMAT_BEGIN
 90
        1
170
     1
 91
       16
 92
        0
 62
   257
 93
        1
300
CONTENTFORMAT
  1
CONTENTFORMAT_BEGIN
 90
       16
 91
        0
 92
      512
 93
        0
300

 40
0.0
140
1.0
 94
        4
 62
     0
340
0
144
0.18
309
CONTENTFORMAT_END
171
     0
 94
        4
 95
        1
302
GRIDFORMAT
  1
GRIDFORMAT_BEGIN
 90
       26
 91
        1
 62
     0
 92
       -2
340
0
 93
        0
 40
0.045
309
GRIDFORMAT_END
 95
        4
302
GRIDFORMAT
  1
GRIDFORMAT_BEGIN
 90
       26
 91
        1
 62
     0
 92
       -2
340
0
 93
        0
 40
0.045
309
GRIDFORMAT_END
 95
        8
302
GRIDFORMAT
  1
GRIDFORMAT_BEGIN
 90
       26
 91
        1
 62
     0
 92
       -2
340
0
 93
        0
 40
0.045
309
GRIDFORMAT_END
 95
       32
302
GRIDFORMAT
  1
GRIDFORMAT_BEGIN
 90
       26
 91
        1
 62
     0
 92
       -2
340
0
 93
        0
 40
0.045
309
GRIDFORMAT_END
309
TABLEFORMAT_END
309
FORMATTEDTABLEDATACELL_END
  1
TABLECELL_BEGIN
 90
        0
 91
        0
309
TABLECELL_END
 91
        0
301
CUSTOMDATA
  1
DATAMAP_BEGIN
 90
        0
309
DATAMAP_END
309
LINKEDTABLEDATAROW_END
  1
FORMATTEDTABLEDATAROW_BEGIN
300
ROWTABLEFORMAT
  1
TABLEFORMAT_BEGIN
 90
        2
170
     0
309
TABLEFORMAT_END
309
FORMATTEDTABLEDATAROW_END
  1
TABLEROW_BEGIN
 90
        2
 40
8.0
309
TABLEROW_END
301
ROW
  1
LINKEDTABLEDATAROW_BEGIN
 90
        5
300
CELL
  1
LINKEDTABLEDATACELL_BEGIN
 90
        0
300

 91
        0
301
CUSTOMDATA
  1
DATAMAP_BEGIN
 90
        0
309
DATAMAP_END
 92
        0
 95
        0
309
LINKEDTABLEDATACELL_END
  1
FORMATTEDTABLEDATACELL_BEGIN
300
CELLTABLEFORMAT
  1
TABLEFORMAT_BEGIN
 90
        1
170
     1
 91
        0
 92
        0
 62
   257
 93
        1
300
CONTENTFORMAT
  1
CONTENTFORMAT_BEGIN
 90
        0
 91
        0
 92
      512
 93
        0
300

 40
0.0
140
1.0
 94
        1
 62
     0
340
0
144
0.18
309
CONTENTFORMAT_END
171
     0
 94
        0
309
TABLEFORMAT_END
309
FORMATTEDTABLEDATACELL_END
  1
TABLECELL_BEGIN
 90
        0
 91
        0
309
TABLECELL_END
300
CELL
  1
LINKEDTABLEDATACELL_BEGIN
 90
        0
300

 91
        0
301
CUSTOMDATA
  1
DATAMAP_BEGIN
 90
        0
309
DATAMAP_END
 92
        0
 95
        0
309
LINKEDTABLEDATACELL_END
  1
FORMATTEDTABLEDATACELL_BEGIN
300
CELLTABLEFORMAT
  1
TABLEFORMAT_BEGIN
 90
        1
170
     1
 91
        0
 92
        0
 62
   257
 93
        1
300
CONTENTFORMAT
  1
CONTENTFORMAT_BEGIN
 90
        0
 91
        0
 92
      512
 93
        0
300

 40
0.0
140
1.0
 94
        1
 62
     0
340
0
144
0.18
309
CONTENTFORMAT_END
171
     0
 94
        0
309
TABLEFORMAT_END
309
FORMATTEDTABLEDATACELL_END
  1
TABLECELL_BEGIN
 90
        0
 91
        0
309
TABLECELL_END
300
CELL
  1
LINKEDTABLEDATACELL_BEGIN
 90
        0
300

 91
        0
301
CUSTOMDATA
  1
DATAMAP_BEGIN
 90
        0
309
DATAMAP_END
 92
        0
 95
        0
309
LINKEDTABLEDATACELL_END
  1
FORMATTEDTABLEDATACELL_BEGIN
300
CELLTABLEFORMAT
  1
TABLEFORMAT_BEGIN
 90
        1
170
     1
 91
        0
 92
        0
 62
   257
 93
        1
300
CONTENTFORMAT
  1
CONTENTFORMAT_BEGIN
 90
        0
 91
        0
 92
      512
 93
        0
300

 40
0.0
140
1.0
 94
        1
 62
     0
340
0
144
0.18
309
CONTENTFORMAT_END
171
     0
 94
        0
309
TABLEFORMAT_END
309
FORMATTEDTABLEDATACELL_END
  1
TABLECELL_BEGIN
 90
        0
 91
        0
309
TABLECELL_END
300
CELL
  1
LINKEDTABLEDATACELL_BEGIN
 90
        0
300

 91
        0
301
CUSTOMDATA
  1
DATAMAP_BEGIN
 90
        1
300
ACAD_ROUNDTRIP_2008_CELL_CHECKSUM
301
DATAMAP_VALUE
 93
        2
 90
        2
140
2508.0
 94
        0
300

302

304
ACVALUE_END
309
DATAMAP_END
 92
        0
 95
        1
302
CONTENT
  1
CELLCONTENT_BEGIN
 90
        1
300
VALUE
 93
        2
 90
        4
  1
TREVI 1.1
 94
        0
300

302
TREVI 1.1
304
ACVALUE_END
 91
        0
309
CELLCONTENT_END
  1
FORMATTEDCELLCONTENT_BEGIN
170
     1
300
CONTENTFORMAT
  1
CONTENTFORMAT_BEGIN
 90
      132
 91
        0
 92
      512
 93
        0
300

 40
0.0
140
1.0
 94
        1
 62
     0
340
0
144
4.666667
309
CONTENTFORMAT_END
309
FORMATTEDCELLCONTENT_END
309
LINKEDTABLEDATACELL_END
  1
FORMATTEDTABLEDATACELL_BEGIN
300
CELLTABLEFORMAT
  1
TABLEFORMAT_BEGIN
 90
        1
170
     1
 91
       16
 92
        0
 62
   257
 93
        1
300
CONTENTFORMAT
  1
CONTENTFORMAT_BEGIN
 90
       16
 91
        0
 92
      512
 93
        0
300

 40
0.0
140
1.0
 94
        4
 62
     0
340
0
144
0.18
309
CONTENTFORMAT_END
171
     0
 94
        4
 95
        1
302
GRIDFORMAT
  1
GRIDFORMAT_BEGIN
 90
       26
 91
        1
 62
     0
 92
       -2
340
0
 93
        0
 40
0.045
309
GRIDFORMAT_END
 95
        4
302
GRIDFORMAT
  1
GRIDFORMAT_BEGIN
 90
       26
 91
        1
 62
     0
 92
       -2
340
0
 93
        0
 40
0.045
309
GRIDFORMAT_END
 95
        8
302
GRIDFORMAT
  1
GRIDFORMAT_BEGIN
 90
       26
 91
        1
 62
     0
 92
       -2
340
0
 93
        0
 40
0.045
309
GRIDFORMAT_END
 95
       32
302
GRIDFORMAT
  1
GRIDFORMAT_BEGIN
 90
       26
 91
        1
 62
     0
 92
       -2
340
0
 93
        0
 40
0.045
309
GRIDFORMAT_END
309
TABLEFORMAT_END
309
FORMATTEDTABLEDATACELL_END
  1
TABLECELL_BEGIN
 90
        0
 91
        0
309
TABLECELL_END
300
CELL
  1
LINKEDTABLEDATACELL_BEGIN
 90
        0
300

 91
        0
301
CUSTOMDATA
  1
DATAMAP_BEGIN
 90
        0
309
DATAMAP_END
 92
        0
 95
        0
309
LINKEDTABLEDATACELL_END
  1
FORMATTEDTABLEDATACELL_BEGIN
300
CELLTABLEFORMAT
  1
TABLEFORMAT_BEGIN
 90
        1
170
     1
 91
        0
 92
        0
 62
   257
 93
        1
300
CONTENTFORMAT
  1
CONTENTFORMAT_BEGIN
 90
        0
 91
        0
 92
      512
 93
        0
300

 40
0.0
140
1.0
 94
        1
 62
     0
340
0
144
0.18
309
CONTENTFORMAT_END
171
     0
 94
        0
309
TABLEFORMAT_END
309
FORMATTEDTABLEDATACELL_END
  1
TABLECELL_BEGIN
 90
        0
 91
        0
309
TABLECELL_END
 91
        0
301
CUSTOMDATA
  1
DATAMAP_BEGIN
 90
        0
309
DATAMAP_END
309
LINKEDTABLEDATAROW_END
  1
FORMATTEDTABLEDATAROW_BEGIN
300
ROWTABLEFORMAT
  1
TABLEFORMAT_BEGIN
 90
        2
170
     0
309
TABLEFORMAT_END
309
FORMATTEDTABLEDATAROW_END
  1
TABLEROW_BEGIN
 90
        3
 40
13.333333
309
TABLEROW_END
301
ROW
  1
LINKEDTABLEDATAROW_BEGIN
 90
        5
300
CELL
  1
LINKEDTABLEDATACELL_BEGIN
 90
        0
300

 91
        0
301
CUSTOMDATA
  1
DATAMAP_BEGIN
 90
        0
309
DATAMAP_END
 92
        0
 95
        0
309
LINKEDTABLEDATACELL_END
  1
FORMATTEDTABLEDATACELL_BEGIN
300
CELLTABLEFORMAT
  1
TABLEFORMAT_BEGIN
 90
        1
170
     1
 91
        0
 92
        0
 62
   257
 93
        1
300
CONTENTFORMAT
  1
CONTENTFORMAT_BEGIN
 90
        0
 91
        0
 92
      512
 93
        0
300

 40
0.0
140
1.0
 94
        1
 62
     0
340
0
144
0.18
309
CONTENTFORMAT_END
171
     0
 94
        0
309
TABLEFORMAT_END
309
FORMATTEDTABLEDATACELL_END
  1
TABLECELL_BEGIN
 90
        0
 91
        0
309
TABLECELL_END
300
CELL
  1
LINKEDTABLEDATACELL_BEGIN
 90
        0
300

 91
        0
301
CUSTOMDATA
  1
DATAMAP_BEGIN
 90
        0
309
DATAMAP_END
 92
        0
 95
        0
309
LINKEDTABLEDATACELL_END
  1
FORMATTEDTABLEDATACELL_BEGIN
300
CELLTABLEFORMAT
  1
TABLEFORMAT_BEGIN
 90
        1
170
     1
 91
        0
 92
        0
 62
   257
 93
        1
300
CONTENTFORMAT
  1
CONTENTFORMAT_BEGIN
 90
        0
 91
        0
 92
      512
 93
        0
300

 40
0.0
140
1.0
 94
        1
 62
     0
340
0
144
0.18
309
CONTENTFORMAT_END
171
     0
 94
        0
309
TABLEFORMAT_END
309
FORMATTEDTABLEDATACELL_END
  1
TABLECELL_BEGIN
 90
        0
 91
        0
309
TABLECELL_END
300
CELL
  1
LINKEDTABLEDATACELL_BEGIN
 90
        0
300

 91
        0
301
CUSTOMDATA
  1
DATAMAP_BEGIN
 90
        0
309
DATAMAP_END
 92
        0
 95
        0
309
LINKEDTABLEDATACELL_END
  1
FORMATTEDTABLEDATACELL_BEGIN
300
CELLTABLEFORMAT
  1
TABLEFORMAT_BEGIN
 90
        1
170
     1
 91
        0
 92
        0
 62
   257
 93
        1
300
CONTENTFORMAT
  1
CONTENTFORMAT_BEGIN
 90
        0
 91
        0
 92
      512
 93
        0
300

 40
0.0
140
1.0
 94
        1
 62
     0
340
0
144
0.18
309
CONTENTFORMAT_END
171
     0
 94
        0
309
TABLEFORMAT_END
309
FORMATTEDTABLEDATACELL_END
  1
TABLECELL_BEGIN
 90
        0
 91
        0
309
TABLECELL_END
300
CELL
  1
LINKEDTABLEDATACELL_BEGIN
 90
        0
300

 91
        0
301
CUSTOMDATA
  1
DATAMAP_BEGIN
 90
        1
300
ACAD_ROUNDTRIP_2008_CELL_CHECKSUM
301
DATAMAP_VALUE
 93
        2
 90
        2
140
1016.0
 94
        0
300

302

304
ACVALUE_END
309
DATAMAP_END
 92
        0
 95
        1
302
CONTENT
  1
CELLCONTENT_BEGIN
 90
        1
300
VALUE
 93
        2
 90
        4
  1
DATE:
 94
        0
300

302
DATE:
304
ACVALUE_END
 91
        0
309
CELLCONTENT_END
  1
FORMATTEDCELLCONTENT_BEGIN
170
     1
300
CONTENTFORMAT
  1
CONTENTFORMAT_BEGIN
 90
      132
 91
        0
 92
      512
 93
        0
300

 40
0.0
140
1.0
 94
        1
 62
     0
340
0
144
3.333333
309
CONTENTFORMAT_END
309
FORMATTEDCELLCONTENT_END
309
LINKEDTABLEDATACELL_END
  1
FORMATTEDTABLEDATACELL_BEGIN
300
CELLTABLEFORMAT
  1
TABLEFORMAT_BEGIN
 90
        1
170
     1
 91
       16
 92
        0
 62
   257
 93
        1
300
CONTENTFORMAT
  1
CONTENTFORMAT_BEGIN
 90
       16
 91
        0
 92
      512
 93
        0
300

 40
0.0
140
1.0
 94
        4
 62
     0
340
0
144
0.18
309
CONTENTFORMAT_END
171
     0
 94
        4
 95
        1
302
GRIDFORMAT
  1
GRIDFORMAT_BEGIN
 90
       26
 91
        1
 62
     0
 92
       -2
340
0
 93
        0
 40
0.045
309
GRIDFORMAT_END
 95
        4
302
GRIDFORMAT
  1
GRIDFORMAT_BEGIN
 90
       26
 91
        1
 62
     0
 92
       -2
340
0
 93
        0
 40
0.045
309
GRIDFORMAT_END
 95
        8
302
GRIDFORMAT
  1
GRIDFORMAT_BEGIN
 90
       26
 91
        1
 62
     0
 92
       -2
340
0
 93
        0
 40
0.045
309
GRIDFORMAT_END
 95
       32
302
GRIDFORMAT
  1
GRIDFORMAT_BEGIN
 90
       26
 91
        1
 62
     0
 92
       -2
340
0
 93
        0
 40
0.045
309
GRIDFORMAT_END
309
TABLEFORMAT_END
309
FORMATTEDTABLEDATACELL_END
  1
TABLECELL_BEGIN
 90
        0
 91
        0
309
TABLECELL_END
300
CELL
  1
LINKEDTABLEDATACELL_BEGIN
 90
        0
300

 91
        0
301
CUSTOMDATA
  1
DATAMAP_BEGIN
 90
        0
309
DATAMAP_END
 92
        0
 95
        0
309
LINKEDTABLEDATACELL_END
  1
FORMATTEDTABLEDATACELL_BEGIN
300
CELLTABLEFORMAT
  1
TABLEFORMAT_BEGIN
 90
        1
170
     1
 91
        0
 92
        0
 62
   257
 93
        1
300
CONTENTFORMAT
  1
CONTENTFORMAT_BEGIN
 90
        0
 91
        0
 92
      512
 93
        0
300

 40
0.0
140
1.0
 94
        1
 62
     0
340
0
144
0.18
309
CONTENTFORMAT_END
171
     0
 94
        0
309
TABLEFORMAT_END
309
FORMATTEDTABLEDATACELL_END
  1
TABLECELL_BEGIN
 90
        0
 91
        0
309
TABLECELL_END
 91
        0
301
CUSTOMDATA
  1
DATAMAP_BEGIN
 90
        0
309
DATAMAP_END
309
LINKEDTABLEDATAROW_END
  1
FORMATTEDTABLEDATAROW_BEGIN
300
ROWTABLEFORMAT
  1
TABLEFORMAT_BEGIN
 90
        2
170
     0
309
TABLEFORMAT_END
309
FORMATTEDTABLEDATAROW_END
  1
TABLEROW_BEGIN
 90
        3
 40
6.666667
309
TABLEROW_END
301
ROW
  1
LINKEDTABLEDATAROW_BEGIN
 90
        5
300
CELL
  1
LINKEDTABLEDATACELL_BEGIN
 90
        0
300

 91
        0
301
CUSTOMDATA
  1
DATAMAP_BEGIN
 90
        1
300
ACAD_ROUNDTRIP_2008_CELL_CHECKSUM
301
DATAMAP_VALUE
 93
        2
 90
        2
140
1877690.0
 94
        0
300

302

304
ACVALUE_END
309
DATAMAP_END
 92
        0
 95
        1
302
CONTENT
  1
CELLCONTENT_BEGIN
 90
        1
300
VALUE
 93
        2
 90
        4
  1
Any integral or partial reproductions are prohibited \Pwithout prior authorisation of L {\Ftxt.shx;\W0.190476;\H3.000000; }& L Luce & Light s.r.l., \Pin accordance with the law in force. \PAll rights reserved.
 94
        0
300

302
Any integral or partial reproductions are prohibited \Pwithout prior authorisation of L {\Ftxt.shx;\W0.190476;\H3.000000; }& L Luce & Light s.r.l., \Pin accordance with the law in force. \PAll rights reserved.
304
ACVALUE_END
 91
        0
309
CELLCONTENT_END
  1
FORMATTEDCELLCONTENT_BEGIN
170
     1
300
CONTENTFORMAT
  1
CONTENTFORMAT_BEGIN
 90
      132
 91
        0
 92
      512
 93
        0
300

 40
0.0
140
1.0
 94
        1
 62
     0
340
0
144
3.0
309
CONTENTFORMAT_END
309
FORMATTEDCELLCONTENT_END
309
LINKEDTABLEDATACELL_END
  1
FORMATTEDTABLEDATACELL_BEGIN
300
CELLTABLEFORMAT
  1
TABLEFORMAT_BEGIN
 90
        1
170
     1
 91
       16
 92
        0
 62
   257
 93
        1
300
CONTENTFORMAT
  1
CONTENTFORMAT_BEGIN
 90
       16
 91
        0
 92
      512
 93
        0
300

 40
0.0
140
1.0
 94
        4
 62
     0
340
0
144
0.18
309
CONTENTFORMAT_END
171
     0
 94
        4
 95
        1
302
GRIDFORMAT
  1
GRIDFORMAT_BEGIN
 90
       26
 91
        1
 62
     0
 92
       -2
340
0
 93
        0
 40
0.045
309
GRIDFORMAT_END
 95
        4
302
GRIDFORMAT
  1
GRIDFORMAT_BEGIN
 90
       26
 91
        1
 62
     0
 92
       -2
340
0
 93
        0
 40
0.045
309
GRIDFORMAT_END
 95
        8
302
GRIDFORMAT
  1
GRIDFORMAT_BEGIN
 90
       26
 91
        1
 62
     0
 92
       -2
340
0
 93
        0
 40
0.045
309
GRIDFORMAT_END
 95
       32
302
GRIDFORMAT
  1
GRIDFORMAT_BEGIN
 90
       26
 91
        1
 62
     0
 92
       -2
340
0
 93
        0
 40
0.045
309
GRIDFORMAT_END
309
TABLEFORMAT_END
309
FORMATTEDTABLEDATACELL_END
  1
TABLECELL_BEGIN
 90
        0
 91
        0
309
TABLECELL_END
300
CELL
  1
LINKEDTABLEDATACELL_BEGIN
 90
        0
300

 91
        0
301
CUSTOMDATA
  1
DATAMAP_BEGIN
 90
        0
309
DATAMAP_END
 92
        0
 95
        0
309
LINKEDTABLEDATACELL_END
  1
FORMATTEDTABLEDATACELL_BEGIN
300
CELLTABLEFORMAT
  1
TABLEFORMAT_BEGIN
 90
        1
170
     1
 91
        0
 92
        0
 62
   257
 93
        1
300
CONTENTFORMAT
  1
CONTENTFORMAT_BEGIN
 90
        0
 91
        0
 92
      512
 93
        0
300

 40
0.0
140
1.0
 94
        1
 62
     0
340
0
144
0.18
309
CONTENTFORMAT_END
171
     0
 94
        0
309
TABLEFORMAT_END
309
FORMATTEDTABLEDATACELL_END
  1
TABLECELL_BEGIN
 90
        0
 91
        0
309
TABLECELL_END
300
CELL
  1
LINKEDTABLEDATACELL_BEGIN
 90
        0
300

 91
        0
301
CUSTOMDATA
  1
DATAMAP_BEGIN
 90
        0
309
DATAMAP_END
 92
        0
 95
        0
309
LINKEDTABLEDATACELL_END
  1
FORMATTEDTABLEDATACELL_BEGIN
300
CELLTABLEFORMAT
  1
TABLEFORMAT_BEGIN
 90
        1
170
     1
 91
        0
 92
        0
 62
   257
 93
        1
300
CONTENTFORMAT
  1
CONTENTFORMAT_BEGIN
 90
        0
 91
        0
 92
      512
 93
        0
300

 40
0.0
140
1.0
 94
        1
 62
     0
340
0
144
0.18
309
CONTENTFORMAT_END
171
     0
 94
        0
309
TABLEFORMAT_END
309
FORMATTEDTABLEDATACELL_END
  1
TABLECELL_BEGIN
 90
        0
 91
        0
309
TABLECELL_END
300
CELL
  1
LINKEDTABLEDATACELL_BEGIN
 90
        0
300

 91
        0
301
CUSTOMDATA
  1
DATAMAP_BEGIN
 90
        0
309
DATAMAP_END
 92
        0
 95
        0
309
LINKEDTABLEDATACELL_END
  1
FORMATTEDTABLEDATACELL_BEGIN
300
CELLTABLEFORMAT
  1
TABLEFORMAT_BEGIN
 90
        1
170
     1
 91
        0
 92
        0
 62
   257
 93
        1
300
CONTENTFORMAT
  1
CONTENTFORMAT_BEGIN
 90
        0
 91
        0
 92
      512
 93
        0
300

 40
0.0
140
1.0
 94
        1
 62
     0
340
0
144
0.18
309
CONTENTFORMAT_END
171
     0
 94
        0
309
TABLEFORMAT_END
309
FORMATTEDTABLEDATACELL_END
  1
TABLECELL_BEGIN
 90
        0
 91
        0
309
TABLECELL_END
300
CELL
  1
LINKEDTABLEDATACELL_BEGIN
 90
        0
300

 91
        0
301
CUSTOMDATA
  1
DATAMAP_BEGIN
 90
        0
309
DATAMAP_END
 92
        0
 95
        0
309
LINKEDTABLEDATACELL_END
  1
FORMATTEDTABLEDATACELL_BEGIN
300
CELLTABLEFORMAT
  1
TABLEFORMAT_BEGIN
 90
        1
170
     1
 91
        0
 92
        0
 62
   257
 93
        1
300
CONTENTFORMAT
  1
CONTENTFORMAT_BEGIN
 90
        0
 91
        0
 92
      512
 93
        0
300

 40
0.0
140
1.0
 94
        1
 62
     0
340
0
144
0.18
309
CONTENTFORMAT_END
171
     0
 94
        0
309
TABLEFORMAT_END
309
FORMATTEDTABLEDATACELL_END
  1
TABLECELL_BEGIN
 90
        0
 91
        0
309
TABLECELL_END
 91
        0
301
CUSTOMDATA
  1
DATAMAP_BEGIN
 90
        0
309
DATAMAP_END
309
LINKEDTABLEDATAROW_END
  1
FORMATTEDTABLEDATAROW_BEGIN
300
ROWTABLEFORMAT
  1
TABLEFORMAT_BEGIN
 90
        2
170
     0
309
TABLEFORMAT_END
309
FORMATTEDTABLEDATAROW_END
  1
TABLEROW_BEGIN
 90
        3
 40
17.333333
309
TABLEROW_END
100
AcDbFormattedTableData
300
TABLEFORMAT
  1
TABLEFORMAT_BEGIN
 90
        4
170
     1
 91
    15360
 92
        0
 62
   257
 93
        1
300
CONTENTFORMAT
  1
CONTENTFORMAT_BEGIN
 90
        0
 91
        0
 92
      512
 93
        0
300

 40
0.0
140
1.0
 94
        1
 62
     0
340
0
144
0.18
309
CONTENTFORMAT_END
171
     1
301
MARGIN
  1
CELLMARGIN_BEGIN
 40
0.06
 40
0.06
 40
0.06
 40
0.06
 40
0.06
 40
0.06
309
CELLMARGIN_END
 94
        0
309
TABLEFORMAT_END
 90
        4
 91
        0
 92
        0
 93
        3
 94
        2
 91
        2
 92
        3
 93
        2
 94
        4
 91
        3
 92
        3
 93
        3
 94
        4
 91
        4
 92
        0
 93
        4
 94
        4
100
AcDbTableContent
340
4A1
  0
TABLEGEOMETRY
  5
4CE
330
4D0
100
AcDbTableGeometry
 90
        5
 91
        5
 92
       25
 93
        0
 40
0.0
 41
0.0
330
0
 94
        0
 93
        0
 40
0.0
 41
0.0
330
0
 94
        0
 93
        0
 40
0.0
 41
0.0
330
0
 94
        0
 93
        0
 40
0.0
 41
0.0
330
0
 94
        0
 93
        0
 40
0.0
 41
0.0
330
0
 94
        0
 93
        0
 40
0.0
 41
0.0
330
0
 94
        0
 93
        0
 40
0.0
 41
0.0
330
0
 94
        0
 93
        0
 40
0.0
 41
0.0
330
0
 94
        0
 93
        0
 40
0.0
 41
0.0
330
0
 94
        0
 93
        0
 40
0.0
 41
0.0
330
0
 94
        0
 93
        0
 40
0.0
 41
0.0
330
0
 94
        0
 93
        0
 40
0.0
 41
0.0
330
0
 94
        0
 93
        0
 40
0.0
 41
0.0
330
0
 94
        0
 93
        0
 40
0.0
 41
0.0
330
0
 94
        0
 93
        0
 40
0.0
 41
0.0
330
0
 94
        0
 93
        0
 40
0.0
 41
0.0
330
0
 94
        0
 93
        0
 40
0.0
 41
0.0
330
0
 94
        0
 93
        0
 40
0.0
 41
0.0
330
0
 94
        0
 93
        0
 40
0.0
 41
0.0
330
0
 94
        0
 93
        0
 40
0.0
 41
0.0
330
0
 94
        0
 93
        0
 40
0.0
 41
0.0
330
0
 94
        0
 93
        0
 40
0.0
 41
0.0
330
0
 94
        0
 93
        0
 40
0.0
 41
0.0
330
0
 94
        0
 93
        0
 40
0.0
 41
0.0
330
0
 94
        0
 93
        0
 40
0.0
 41
0.0
330
0
 94
        0
  0
DICTIONARY
  5
4D3
330
4A1
100
AcDbDictionary
280
     1
281
     1
  3
ACAD_ROUNDTRIP_2008_TABLESTYLE_CELLSTYLEMAP
360
4D4
  0
CELLSTYLEMAP
  5
4D4
102
{ACAD_REACTORS
330
4D3
102
}
330
4D3
100
AcDbCellStyleMap
 90
        3
300
CELLSTYLE
  1
TABLEFORMAT_BEGIN
 90
        5
170
     1
 91
        0
 92
        0
 62
   257
 93
        1
300
CONTENTFORMAT
  1
CONTENTFORMAT_BEGIN
 90
        0
 91
        0
 92
        4
 93
        0
300

 40
0.0
140
1.0
 94
        5
 62
     0
340
11
144
6.0
309
CONTENTFORMAT_END
171
     1
301
MARGIN
  1
CELLMARGIN_BEGIN
 40
1.5
 40
1.5
 40
1.5
 40
1.5
 40
1.5
 40
1.5
309
CELLMARGIN_END
 94
        6
 95
        1
302
GRIDFORMAT
  1
GRIDFORMAT_BEGIN
 90
        0
 91
        1
 62
     0
 92
       -2
340
14
 93
        0
 40
0.045
309
GRIDFORMAT_END
 95
        2
302
GRIDFORMAT
  1
GRIDFORMAT_BEGIN
 90
        0
 91
        1
 62
     0
 92
       -2
340
14
 93
        0
 40
0.045
309
GRIDFORMAT_END
 95
        4
302
GRIDFORMAT
  1
GRIDFORMAT_BEGIN
 90
        0
 91
        1
 62
     0
 92
       -2
340
14
 93
        0
 40
0.045
309
GRIDFORMAT_END
 95
        8
302
GRIDFORMAT
  1
GRIDFORMAT_BEGIN
 90
        0
 91
        1
 62
     0
 92
       -2
340
14
 93
        0
 40
0.045
309
GRIDFORMAT_END
 95
       16
302
GRIDFORMAT
  1
GRIDFORMAT_BEGIN
 90
        0
 91
        1
 62
     0
 92
       -2
340
14
 93
        0
 40
0.045
309
GRIDFORMAT_END
 95
       32
302
GRIDFORMAT
  1
GRIDFORMAT_BEGIN
 90
        0
 91
        1
 62
     0
 92
       -2
340
14
 93
        0
 40
0.045
309
GRIDFORMAT_END
309
TABLEFORMAT_END
  1
CELLSTYLE_BEGIN
 90
        1
 91
        1
300
_TITLE
309
CELLSTYLE_END
300
CELLSTYLE
  1
TABLEFORMAT_BEGIN
 90
        5
170
     1
 91
        0
 92
        0
 62
   257
 93
        1
300
CONTENTFORMAT
  1
CONTENTFORMAT_BEGIN
 90
        0
 91
        0
 92
        4
 93
        0
300

 40
0.0
140
1.0
 94
        5
 62
     0
340
11
144
4.5
309
CONTENTFORMAT_END
171
     1
301
MARGIN
  1
CELLMARGIN_BEGIN
 40
1.5
 40
1.5
 40
1.5
 40
1.5
 40
1.5
 40
1.5
309
CELLMARGIN_END
 94
        6
 95
        1
302
GRIDFORMAT
  1
GRIDFORMAT_BEGIN
 90
        0
 91
        1
 62
     0
 92
       -2
340
14
 93
        0
 40
0.045
309
GRIDFORMAT_END
 95
        2
302
GRIDFORMAT
  1
GRIDFORMAT_BEGIN
 90
        0
 91
        1
 62
     0
 92
       -2
340
14
 93
        0
 40
0.045
309
GRIDFORMAT_END
 95
        4
302
GRIDFORMAT
  1
GRIDFORMAT_BEGIN
 90
        0
 91
        1
 62
     0
 92
       -2
340
14
 93
        0
 40
0.045
309
GRIDFORMAT_END
 95
        8
302
GRIDFORMAT
  1
GRIDFORMAT_BEGIN
 90
        0
 91
        1
 62
     0
 92
       -2
340
14
 93
        0
 40
0.045
309
GRIDFORMAT_END
 95
       16
302
GRIDFORMAT
  1
GRIDFORMAT_BEGIN
 90
        0
 91
        1
 62
     0
 92
       -2
340
14
 93
        0
 40
0.045
309
GRIDFORMAT_END
 95
       32
302
GRIDFORMAT
  1
GRIDFORMAT_BEGIN
 90
        0
 91
        1
 62
     0
 92
       -2
340
14
 93
        0
 40
0.045
309
GRIDFORMAT_END
309
TABLEFORMAT_END
  1
CELLSTYLE_BEGIN
 90
        2
 91
        1
300
_HEADER
309
CELLSTYLE_END
300
CELLSTYLE
  1
TABLEFORMAT_BEGIN
 90
        5
170
     1
 91
        0
 92
        0
 62
   257
 93
        1
300
CONTENTFORMAT
  1
CONTENTFORMAT_BEGIN
 90
        0
 91
        0
 92
        4
 93
        0
300

 40
0.0
140
1.0
 94
        2
 62
     0
340
11
144
4.5
309
CONTENTFORMAT_END
171
     1
301
MARGIN
  1
CELLMARGIN_BEGIN
 40
1.5
 40
1.5
 40
1.5
 40
1.5
 40
1.5
 40
1.5
309
CELLMARGIN_END
 94
        6
 95
        1
302
GRIDFORMAT
  1
GRIDFORMAT_BEGIN
 90
        0
 91
        1
 62
     0
 92
       -2
340
14
 93
        0
 40
0.045
309
GRIDFORMAT_END
 95
        2
302
GRIDFORMAT
  1
GRIDFORMAT_BEGIN
 90
        0
 91
        1
 62
     0
 92
       -2
340
14
 93
        0
 40
0.045
309
GRIDFORMAT_END
 95
        4
302
GRIDFORMAT
  1
GRIDFORMAT_BEGIN
 90
        0
 91
        1
 62
     0
 92
       -2
340
14
 93
        0
 40
0.045
309
GRIDFORMAT_END
 95
        8
302
GRIDFORMAT
  1
GRIDFORMAT_BEGIN
 90
        0
 91
        1
 62
     0
 92
       -2
340
14
 93
        0
 40
0.045
309
GRIDFORMAT_END
 95
       16
302
GRIDFORMAT
  1
GRIDFORMAT_BEGIN
 90
        0
 91
        1
 62
     0
 92
       -2
340
14
 93
        0
 40
0.045
309
GRIDFORMAT_END
 95
       32
302
GRIDFORMAT
  1
GRIDFORMAT_BEGIN
 90
        0
 91
        1
 62
     0
 92
       -2
340
14
 93
        0
 40
0.045
309
GRIDFORMAT_END
309
TABLEFORMAT_END
  1
CELLSTYLE_BEGIN
 90
        3
 91
        2
300
_DATA
309
CELLSTYLE_END
  0
ENDSEC
  0
EOF
