  0
SECTION
  2
HEADER
  9
$ACADVER
  1
AC1027
  9
$ACADMAINTVER
 70
     8
  9
$DWGCODEPAGE
  3
ANSI_1252
  9
$REQUIREDVERSIONS
160
                 0
  9
$INSBASE
 10
0.0
 20
0.0
 30
0.0
  9
$EXTMIN
 10
0.0
 20
0.0
 30
0.0
  9
$EXTMAX
 10
1121.333333
 20
792.0
 30
0.0
  9
$LIMMIN
 10
0.0
 20
0.0
  9
$LIMMAX
 10
1121.333333
 20
792.0
  9
$ORTHOMODE
 70
     0
  9
$REGENMODE
 70
     1
  9
$FILLMODE
 70
     1
  9
$QTEXTMODE
 70
     0
  9
$MIRRTEXT
 70
     1
  9
$LTSCALE
 40
61.673333
  9
$ATTMODE
 70
     1
  9
$TEXTSIZE
 40
0.2
  9
$TRACEWID
 40
0.05
  9
$TEXTSTYLE
  7
STANDARD
  9
$CLAYER
  8
0
  9
$CELTYPE
  6
BYLAYER
  9
$CECOLOR
 62
   256
  9
$CELTSCALE
 40
1.0
  9
$DISPSILH
 70
     0
  9
$DIMSCALE
 40
1.0
  9
$DIMASZ
 40
3.333333
  9
$DIMEXO
 40
0.75
  9
$DIMDLI
 40
42.610667
  9
$DIMRND
 40
0.0
  9
$DIMDLE
 40
0.0
  9
$DIMEXE
 40
0.75
  9
$DIMTP
 40
0.01
  9
$DIMTM
 40
0.01
  9
$DIMTXT
 40
4.0
  9
$DIMCEN
 40
10.092
  9
$DIMTSZ
 40
0.0
  9
$DIMTOL
 70
     1
  9
$DIMLIM
 70
     0
  9
$DIMTIH
 70
     1
  9
$DIMTOH
 70
     1
  9
$DIMSE1
 70
     0
  9
$DIMSE2
 70
     0
  9
$DIMTAD
 70
     0
  9
$DIMZIN
 70
     0
  9
$DIMBLK
  1
CLOSED
  9
$DIMASO
 70
     1
  9
$DIMSHO
 70
     1
  9
$DIMPOST
  1

  9
$DIMAPOST
  1

  9
$DIMALT
 70
     0
  9
$DIMALTD
 70
     2
  9
$DIMALTF
 40
25.4
  9
$DIMLFAC
 40
1.0
  9
$DIMTOFL
 70
     0
  9
$DIMTVP
 40
0.0
  9
$DIMTIX
 70
     0
  9
$DIMSOXD
 70
     0
  9
$DIMSAH
 70
     0
  9
$DIMBLK1
  1

  9
$DIMBLK2
  1

  9
$DIMSTYLE
  2
STANDARD
  9
$DIMCLRD
 70
     0
  9
$DIMCLRE
 70
     0
  9
$DIMCLRT
 70
     0
  9
$DIMTFAC
 40
1.0
  9
$DIMGAP
 40
0.625
  9
$DIMJUST
 70
     0
  9
$DIMSD1
 70
     0
  9
$DIMSD2
 70
     0
  9
$DIMTOLJ
 70
     1
  9
$DIMTZIN
 70
     0
  9
$DIMALTZ
 70
     0
  9
$DIMALTTZ
 70
     0
  9
$DIMUPT
 70
     0
  9
$DIMDEC
 70
     4
  9
$DIMTDEC
 70
     4
  9
$DIMALTU
 70
     2
  9
$DIMALTTD
 70
     2
  9
$DIMTXSTY
  7
STANDARD
  9
$DIMAUNIT
 70
     0
  9
$DIMADEC
 70
     0
  9
$DIMALTRND
 40
0.0
  9
$DIMAZIN
 70
     0
  9
$DIMDSEP
 70
    44
  9
$DIMATFIT
 70
     3
  9
$DIMFRAC
 70
     0
  9
$DIMLDRBLK
  1

  9
$DIMLUNIT
 70
     2
  9
$DIMLWD
 70
    -2
  9
$DIMLWE
 70
    -2
  9
$DIMTMOVE
 70
     0
  9
$DIMFXL
 40
1.0
  9
$DIMFXLON
 70
     0
  9
$DIMJOGANG
 40
0.785398
  9
$DIMTFILL
 70
     0
  9
$DIMTFILLCLR
 70
     0
  9
$DIMARCSYM
 70
     0
  9
$DIMLTYPE
  6

  9
$DIMLTEX1
  6

  9
$DIMLTEX2
  6

  9
$DIMTXTDIRECTION
 70
     0
  9
$LUNITS
 70
     2
  9
$LUPREC
 70
     4
  9
$SKETCHINC
 40
0.1
  9
$FILLETRAD
 40
0.5
  9
$AUNITS
 70
     0
  9
$AUPREC
 70
     0
  9
$MENU
  1
.
  9
$ELEVATION
 40
0.0
  9
$PELEVATION
 40
0.0
  9
$THICKNESS
 40
0.0
  9
$LIMCHECK
 70
     0
  9
$CHAMFERA
 40
0.0
  9
$CHAMFERB
 40
0.0
  9
$CHAMFERC
 40
0.0
  9
$CHAMFERD
 40
0.0
  9
$SKPOLY
 70
     0
  9
$TDCREATE
 40
2447893.083333333
  9
$TDUCREATE
 40
0.0
  9
$TDUPDATE
 40
2460208.455886551
  9
$TDUUPDATE
 40
2460208.372553218
  9
$TDINDWG
 40
0.0
  9
$TDUSRTIMER
 40
0.0
  9
$USRTIMER
 70
     1
  9
$ANGBASE
 50
0.0
  9
$ANGDIR
 70
     0
  9
$PDMODE
 70
     3
  9
$PDSIZE
 40
0.3125
  9
$PLINEWID
 40
0.0
  9
$SPLFRAME
 70
     0
  9
$SPLINETYPE
 70
     6
  9
$SPLINESEGS
 70
     8
  9
$HANDSEED
  5
4E5
  9
$SURFTAB1
 70
     6
  9
$SURFTAB2
 70
     6
  9
$SURFTYPE
 70
     6
  9
$SURFU
 70
     6
  9
$SURFV
 70
     6
  9
$UCSBASE
  2

  9
$UCSNAME
  2

  9
$UCSORG
 10
0.0
 20
0.0
 30
0.0
  9
$UCSXDIR
 10
1.0
 20
0.0
 30
0.0
  9
$UCSYDIR
 10
0.0
 20
1.0
 30
0.0
  9
$UCSORTHOREF
  2

  9
$UCSORTHOVIEW
 70
     0
  9
$UCSORGTOP
 10
0.0
 20
0.0
 30
0.0
  9
$UCSORGBOTTOM
 10
0.0
 20
0.0
 30
0.0
  9
$UCSORGLEFT
 10
0.0
 20
0.0
 30
0.0
  9
$UCSORGRIGHT
 10
0.0
 20
0.0
 30
0.0
  9
$UCSORGFRONT
 10
0.0
 20
0.0
 30
0.0
  9
$UCSORGBACK
 10
0.0
 20
0.0
 30
0.0
  9
$PUCSBASE
  2

  9
$PUCSNAME
  2

  9
$PUCSORG
 10
0.0
 20
0.0
 30
0.0
  9
$PUCSXDIR
 10
1.0
 20
0.0
 30
0.0
  9
$PUCSYDIR
 10
0.0
 20
1.0
 30
0.0
  9
$PUCSORTHOREF
  2

  9
$PUCSORTHOVIEW
 70
     0
  9
$PUCSORGTOP
 10
0.0
 20
0.0
 30
0.0
  9
$PUCSORGBOTTOM
 10
0.0
 20
0.0
 30
0.0
  9
$PUCSORGLEFT
 10
0.0
 20
0.0
 30
0.0
  9
$PUCSORGRIGHT
 10
0.0
 20
0.0
 30
0.0
  9
$PUCSORGFRONT
 10
0.0
 20
0.0
 30
0.0
  9
$PUCSORGBACK
 10
0.0
 20
0.0
 30
0.0
  9
$USERI1
 70
     0
  9
$USERI2
 70
     0
  9
$USERI3
 70
     0
  9
$USERI4
 70
     0
  9
$USERI5
 70
     0
  9
$USERR1
 40
0.0
  9
$USERR2
 40
0.0
  9
$USERR3
 40
0.0
  9
$USERR4
 40
0.0
  9
$USERR5
 40
0.0
  9
$WORLDVIEW
 70
     1
  9
$SHADEDGE
 70
     3
  9
$SHADEDIF
 70
    70
  9
$TILEMODE
 70
     1
  9
$MAXACTVP
 70
    64
  9
$PINSBASE
 10
0.0
 20
0.0
 30
0.0
  9
$PLIMCHECK
 70
     0
  9
$PEXTMIN
 10
1.000000E+20
 20
1.000000E+20
 30
1.000000E+20
  9
$PEXTMAX
 10
-1.000000E+20
 20
-1.000000E+20
 30
-1.000000E+20
  9
$PLIMMIN
 10
0.0
 20
0.0
  9
$PLIMMAX
 10
12.0
 20
9.0
  9
$UNITMODE
 70
     0
  9
$VISRETAIN
 70
     1
  9
$PLINEGEN
 70
     0
  9
$PSLTSCALE
 70
     0
  9
$TREEDEPTH
 70
  3020
  9
$CMLSTYLE
  2

  9
$CMLJUST
 70
     0
  9
$CMLSCALE
 40
1.0
  9
$PROXYGRAPHICS
 70
     1
  9
$MEASUREMENT
 70
     1
  9
$CELWEIGHT
370
    -1
  9
$ENDCAPS
280
     0
  9
$JOINSTYLE
280
     0
  9
$LWDISPLAY
290
     0
  9
$INSUNITS
 70
     4
  9
$HYPERLINKBASE
  1

  9
$STYLESHEET
  1

  9
$XEDIT
290
     1
  9
$CEPSNTYPE
380
     0
  9
$PSTYLEMODE
290
     1
  9
$FINGERPRINTGUID
  2
{DF4B3CC8-0418-4047-8DA5-EBA2DB3AEB4D}
  9
$VERSIONGUID
  2
{FAEB1C32-E019-11D5-929B-00C0DF256EC4}
  9
$EXTNAMES
290
     1
  9
$PSVPSCALE
 40
0.0
  9
$OLESTARTUP
290
     0
  9
$SORTENTS
280
   127
  9
$INDEXCTL
280
     0
  9
$HIDETEXT
280
     1
  9
$XCLIPFRAME
280
     2
  9
$HALOGAP
280
     0
  9
$OBSCOLOR
 70
   257
  9
$OBSLTYPE
280
     0
  9
$INTERSECTIONDISPLAY
280
     0
  9
$INTERSECTIONCOLOR
 70
   257
  9
$DIMASSOC
280
     2
  9
$PROJECTNAME
  1

  9
$CAMERADISPLAY
290
     0
  9
$LENSLENGTH
 40
50.0
  9
$CAMERAHEIGHT
 40
0.0
  9
$STEPSPERSEC
 40
2.0
  9
$STEPSIZE
 40
6.0
  9
$3DDWFPREC
 40
2.0
  9
$PSOLWIDTH
 40
0.25
  9
$PSOLHEIGHT
 40
4.0
  9
$LOFTANG1
 40
1.570796
  9
$LOFTANG2
 40
1.570796
  9
$LOFTMAG1
 40
0.0
  9
$LOFTMAG2
 40
0.0
  9
$LOFTPARAM
 70
     7
  9
$LOFTNORMALS
280
     1
  9
$LATITUDE
 40
37.795
  9
$LONGITUDE
 40
-122.394
  9
$NORTHDIRECTION
 40
0.0
  9
$TIMEZONE
 70
 -8000
  9
$LIGHTGLYPHDISPLAY
280
     1
  9
$TILEMODELIGHTSYNCH
280
     1
  9
$SOLIDHIST
280
     1
  9
$SHOWHIST
280
     1
  9
$DWFFRAME
280
     2
  9
$DGNFRAME
280
     2
  9
$REALWORLDSCALE
290
     1
  9
$INTERFERECOLOR
 62
   256
  9
$CSHADOW
280
     0
  9
$SHADOWPLANELOCATION
 40
0.0
  0
ENDSEC
  0
SECTION
  2
CLASSES
  0
CLASS
  1
ACDBDICTIONARYWDFLT
  2
AcDbDictionaryWithDefault
  3
ObjectDBX Classes
 90
        0
 91
        6
280
     0
281
     0
  0
CLASS
  1
ACDBPLACEHOLDER
  2
AcDbPlaceHolder
  3
ObjectDBX Classes
 90
        0
 91
        1
280
     0
281
     0
  0
CLASS
  1
LAYOUT
  2
AcDbLayout
  3
ObjectDBX Classes
 90
        0
 91
        1
280
     0
281
     0
  0
CLASS
  1
TABLESTYLE
  2
AcDbTableStyle
  3
ObjectDBX Classes
 90
     4095
 91
        5
280
     0
281
     0
  0
CLASS
  1
ACAD_TABLE
  2
AcDbTable
  3
ObjectDBX Classes
 90
     1025
 91
        5
280
     0
281
     1
  0
CLASS
  1
SCALE
  2
AcDbScale
  3
ObjectDBX Classes
 90
     1153
 91
        5
280
     0
281
     0
  0
CLASS
  1
TABLEGEOMETRY
  2
AcDbTableGeometry
  3
ObjectDBX Classes
 90
     1152
 91
        4
280
     0
281
     0
  0
CLASS
  1
VISUALSTYLE
  2
AcDbVisualStyle
  3
ObjectDBX Classes
 90
     4095
 91
        5
280
     0
281
     0
  0
CLASS
  1
MATERIAL
  2
AcDbMaterial
  3
ObjectDBX Classes
 90
     1153
 91
        5
280
     0
281
     0
  0
CLASS
  1
SUN
  2
AcDbSun
  3
SCENEOE
 90
     1153
 91
        5
280
     0
281
     0
  0
CLASS
  1
CSACDOCUMENTOPTIONS
  2
CDocDataContainer
  3
"DERU003_CSAPP"
 90
     4095
 91
        4
280
     0
281
     0
  0
CLASS
  1
TABLECONTENT
  2
AcDbTableContent
  3
ObjectDBX Classes
 90
     1152
 91
        4
280
     0
281
     0
  0
CLASS
  1
DICTIONARYVAR
  2
AcDbDictionaryVar
  3
ObjectDBX Classes
 90
        0
 91
        4
280
     0
281
     0
  0
CLASS
  1
CELLSTYLEMAP
  2
AcDbCellStyleMap
  3
ObjectDBX Classes
 90
     1152
 91
        4
280
     0
281
     0
  0
ENDSEC
  0
SECTION
  2
TABLES
  0
TABLE
  2
VPORT
  5
8
330
0
100
AcDbSymbolTable
 70
     1
  0
VPORT
  5
1F4
330
8
100
AcDbSymbolTableRecord
100
AcDbViewportTableRecord
  2
*ACTIVE
 70
     0
 10
0.0
 20
0.0
 11
1.0
 21
1.0
 12
560.666667
 22
396.0
 13
0.0
 23
0.0
 14
1.0
 24
1.0
 15
0.0
 25
0.0
 16
0.0
 26
0.0
 36
1.0
 17
0.0
 27
0.0
 37
0.0
 40
792.0
 41
1.818286
 42
50.0
 43
0.0
 44
0.0
 50
0.0
 51
0.0
 71
    16
 72
   100
 73
     1
 74
     1
 75
     0
 76
     0
 77
     0
 78
     0
281
     0
 65
     1
110
0.0
120
0.0
130
0.0
111
1.0
121
0.0
131
0.0
112
0.0
122
1.0
132
0.0
 79
     0
146
0.0
 60
     3
 61
     5
292
     1
282
     1
141
0.0
142
0.0
 63
   256
361
4D0
  0
ENDTAB
  0
TABLE
  2
LTYPE
  5
5
330
0
100
AcDbSymbolTable
 70
     6
  0
LTYPE
  5
14
330
5
100
AcDbSymbolTableRecord
100
AcDbLinetypeTableRecord
  2
BYBLOCK
 70
     0
  3

 72
    65
 73
     0
 40
0.0
  0
LTYPE
  5
15
330
5
100
AcDbSymbolTableRecord
100
AcDbLinetypeTableRecord
  2
BYLAYER
 70
     0
  3

 72
    65
 73
     0
 40
0.0
  0
LTYPE
  5
16
330
5
100
AcDbSymbolTableRecord
100
AcDbLinetypeTableRecord
  2
CONTINUOUS
 70
     0
  3
Solid line
 72
    65
 73
     0
 40
0.0
  0
LTYPE
  5
1F5
330
5
100
AcDbSymbolTableRecord
100
AcDbLinetypeTableRecord
  2
CENTER
 70
     0
  3
____ _ ____ _ ____ _ ____ _ ____ _ ____ _ ____
 72
    65
 73
     4
 40
0.6
 49
0.375
 74
     0
 49
-0.075
 74
     0
 49
0.075
 74
     0
 49
-0.075
 74
     0
  0
LTYPE
  5
1F6
330
5
100
AcDbSymbolTableRecord
100
AcDbLinetypeTableRecord
  2
HIDDEN
 70
     0
  3
- - - - - - - - - - - - - - - - - - - -
 72
    65
 73
     2
 40
0.2
 49
0.1
 74
     0
 49
-0.1
 74
     0
  0
LTYPE
  5
1F7
330
5
100
AcDbSymbolTableRecord
100
AcDbLinetypeTableRecord
  2
PHANTOM
 70
     0
  3
_____ _ _ _____ _ _ _____ _ _ _____
 72
    65
 73
     6
 40
0.8
 49
0.45
 74
     0
 49
-0.05
 74
     0
 49
0.1
 74
     0
 49
-0.05
 74
     0
 49
0.1
 74
     0
 49
-0.05
 74
     0
  0
LTYPE
  5
1F8
330
5
100
AcDbSymbolTableRecord
100
AcDbLinetypeTableRecord
  2
DOT
 70
     0
  3
. . . . . . . . . . . . . . . . . . . .
 72
    65
 73
     2
 40
0.2
 49
0.1
 74
     0
 49
-0.1
 74
     0
  0
LTYPE
  5
1F9
330
5
100
AcDbSymbolTableRecord
100
AcDbLinetypeTableRecord
  2
DASHED
 70
     0
  3
- - - - - - - - - - - - - - - - - - - -
 72
    65
 73
     2
 40
0.2
 49
0.1
 74
     0
 49
-0.1
 74
     0
  0
ENDTAB
  0
TABLE
  2
LAYER
  5
2
330
0
100
AcDbSymbolTable
 70
    41
  0
LAYER
  5
10
330
2
100
AcDbSymbolTableRecord
100
AcDbLayerTableRecord
  2
0
 70
     0
 62
     7
  6
CONTINUOUS
370
    -3
390
F
347
4CA
348
0
  0
LAYER
  5
1FA
330
2
100
AcDbSymbolTableRecord
100
AcDbLayerTableRecord
  2
DEFAULT_1
 70
     0
 62
     7
  6
CENTER
370
    -3
390
F
347
4CA
348
0
  0
LAYER
  5
1FB
330
2
100
AcDbSymbolTableRecord
100
AcDbLayerTableRecord
  2
DEFAULT_2
 70
     0
 62
     8
  6
HIDDEN
370
    -3
390
F
347
4CA
348
0
  0
LAYER
  5
1FC
330
2
100
AcDbSymbolTableRecord
100
AcDbLayerTableRecord
  2
DEFAULT_3
 70
     0
 62
     7
  6
PHANTOM
370
    -3
390
F
347
4CA
348
0
  0
LAYER
  5
1FD
330
2
100
AcDbSymbolTableRecord
100
AcDbLayerTableRecord
  2
01_ALL_DTM_PLN
 70
     0
 62
     7
  6
CONTINUOUS
370
    -3
390
F
347
4CA
348
0
  0
LAYER
  5
1FE
330
2
100
AcDbSymbolTableRecord
100
AcDbLayerTableRecord
  2
01__ASM_ALL_DTM_PLN
 70
     0
 62
     7
  6
CONTINUOUS
370
    -3
390
F
347
4CA
348
0
  0
LAYER
  5
1FF
330
2
100
AcDbSymbolTableRecord
100
AcDbLayerTableRecord
  2
01__ASM_DEF_DTM_PLN
 70
     0
 62
     7
  6
CONTINUOUS
370
    -3
390
F
347
4CA
348
0
  0
LAYER
  5
200
330
2
100
AcDbSymbolTableRecord
100
AcDbLayerTableRecord
  2
01___PRT_ALL_DTM_PLN
 70
     0
 62
     7
  6
CONTINUOUS
370
    -3
390
F
347
4CA
348
0
  0
LAYER
  5
201
330
2
100
AcDbSymbolTableRecord
100
AcDbLayerTableRecord
  2
01___PRT_DEF_DTM_PLN
 70
     0
 62
     7
  6
CONTINUOUS
370
    -3
390
F
347
4CA
348
0
  0
LAYER
  5
202
330
2
100
AcDbSymbolTableRecord
100
AcDbLayerTableRecord
  2
02_ALL_AXES
 70
     0
 62
     7
  6
CONTINUOUS
370
    -3
390
F
347
4CA
348
0
  0
LAYER
  5
203
330
2
100
AcDbSymbolTableRecord
100
AcDbLayerTableRecord
  2
02__ASM_ALL_AXES
 70
     0
 62
     7
  6
CONTINUOUS
370
    -3
390
F
347
4CA
348
0
  0
LAYER
  5
204
330
2
100
AcDbSymbolTableRecord
100
AcDbLayerTableRecord
  2
02___PRT_ALL_AXES
 70
     0
 62
     7
  6
CONTINUOUS
370
    -3
390
F
347
4CA
348
0
  0
LAYER
  5
205
330
2
100
AcDbSymbolTableRecord
100
AcDbLayerTableRecord
  2
03_ALL_CURVES
 70
     0
 62
     7
  6
CONTINUOUS
370
    -3
390
F
347
4CA
348
0
  0
LAYER
  5
206
330
2
100
AcDbSymbolTableRecord
100
AcDbLayerTableRecord
  2
03__ASM_ALL_CURVES
 70
     0
 62
     7
  6
CONTINUOUS
370
    -3
390
F
347
4CA
348
0
  0
LAYER
  5
207
330
2
100
AcDbSymbolTableRecord
100
AcDbLayerTableRecord
  2
03___PRT_ALL_CURVES
 70
     0
 62
     7
  6
CONTINUOUS
370
    -3
390
F
347
4CA
348
0
  0
LAYER
  5
208
330
2
100
AcDbSymbolTableRecord
100
AcDbLayerTableRecord
  2
04_ALL_DTM_PNT
 70
     0
 62
     7
  6
CONTINUOUS
370
    -3
390
F
347
4CA
348
0
  0
LAYER
  5
209
330
2
100
AcDbSymbolTableRecord
100
AcDbLayerTableRecord
  2
04__ASM_ALL_DTM_PNT
 70
     0
 62
     7
  6
CONTINUOUS
370
    -3
390
F
347
4CA
348
0
  0
LAYER
  5
20A
330
2
100
AcDbSymbolTableRecord
100
AcDbLayerTableRecord
  2
04___PRT_ALL_DTM_PNT
 70
     0
 62
     7
  6
CONTINUOUS
370
    -3
390
F
347
4CA
348
0
  0
LAYER
  5
20B
330
2
100
AcDbSymbolTableRecord
100
AcDbLayerTableRecord
  2
05_ALL_DTM_CSYS
 70
     0
 62
     7
  6
CONTINUOUS
370
    -3
390
F
347
4CA
348
0
  0
LAYER
  5
20C
330
2
100
AcDbSymbolTableRecord
100
AcDbLayerTableRecord
  2
05__ASM_ALL_DTM_CSYS
 70
     0
 62
     7
  6
CONTINUOUS
370
    -3
390
F
347
4CA
348
0
  0
LAYER
  5
20D
330
2
100
AcDbSymbolTableRecord
100
AcDbLayerTableRecord
  2
05__ASM_DEF_DTM_CSYS
 70
     0
 62
     7
  6
CONTINUOUS
370
    -3
390
F
347
4CA
348
0
  0
LAYER
  5
20E
330
2
100
AcDbSymbolTableRecord
100
AcDbLayerTableRecord
  2
05___PRT_ALL_DTM_CSYS
 70
     0
 62
     7
  6
CONTINUOUS
370
    -3
390
F
347
4CA
348
0
  0
LAYER
  5
20F
330
2
100
AcDbSymbolTableRecord
100
AcDbLayerTableRecord
  2
05___PRT_DEF_DTM_CSYS
 70
     0
 62
     7
  6
CONTINUOUS
370
    -3
390
F
347
4CA
348
0
  0
LAYER
  5
210
330
2
100
AcDbSymbolTableRecord
100
AcDbLayerTableRecord
  2
06_ALL_SURFS
 70
     0
 62
     7
  6
CONTINUOUS
370
    -3
390
F
347
4CA
348
0
  0
LAYER
  5
211
330
2
100
AcDbSymbolTableRecord
100
AcDbLayerTableRecord
  2
06__ASM_ALL_SURFS
 70
     0
 62
     7
  6
CONTINUOUS
370
    -3
390
F
347
4CA
348
0
  0
LAYER
  5
212
330
2
100
AcDbSymbolTableRecord
100
AcDbLayerTableRecord
  2
06___PRT_ALL_SURFS
 70
     0
 62
     7
  6
CONTINUOUS
370
    -3
390
F
347
4CA
348
0
  0
LAYER
  5
213
330
2
100
AcDbSymbolTableRecord
100
AcDbLayerTableRecord
  2
07__ASM_ALL_SKELETONS
 70
     0
 62
     7
  6
CONTINUOUS
370
    -3
390
F
347
4CA
348
0
  0
LAYER
  5
214
330
2
100
AcDbSymbolTableRecord
100
AcDbLayerTableRecord
  2
1_ALL_PLANES
 70
     0
 62
     7
  6
CONTINUOUS
370
    -3
390
F
347
4CA
348
0
  0
LAYER
  5
215
330
2
100
AcDbSymbolTableRecord
100
AcDbLayerTableRecord
  2
2_ALL_CSYS
 70
     0
 62
     7
  6
CONTINUOUS
370
    -3
390
F
347
4CA
348
0
  0
LAYER
  5
216
330
2
100
AcDbSymbolTableRecord
100
AcDbLayerTableRecord
  2
3_ALL_AXES
 70
     0
 62
     7
  6
CONTINUOUS
370
    -3
390
F
347
4CA
348
0
  0
LAYER
  5
217
330
2
100
AcDbSymbolTableRecord
100
AcDbLayerTableRecord
  2
4_ALL_POINTS
 70
     0
 62
     7
  6
CONTINUOUS
370
    -3
390
F
347
4CA
348
0
  0
LAYER
  5
218
330
2
100
AcDbSymbolTableRecord
100
AcDbLayerTableRecord
  2
5_ALL_CURVES
 70
     0
 62
     7
  6
CONTINUOUS
370
    -3
390
F
347
4CA
348
0
  0
LAYER
  5
219
330
2
100
AcDbSymbolTableRecord
100
AcDbLayerTableRecord
  2
6_ALL_SURFS
 70
     0
 62
     7
  6
CONTINUOUS
370
    -3
390
F
347
4CA
348
0
  0
LAYER
  5
21A
330
2
100
AcDbSymbolTableRecord
100
AcDbLayerTableRecord
  2
7_ALL_FEATURES
 70
     0
 62
     7
  6
CONTINUOUS
370
    -3
390
F
347
4CA
348
0
  0
LAYER
  5
21B
330
2
100
AcDbSymbolTableRecord
100
AcDbLayerTableRecord
  2
7_ALL_FEATURES_16
 70
     0
 62
     7
  6
CONTINUOUS
370
    -3
390
F
347
4CA
348
0
  0
LAYER
  5
21C
330
2
100
AcDbSymbolTableRecord
100
AcDbLayerTableRecord
  2
7_ALL_FEATURES_17
 70
     0
 62
     7
  6
CONTINUOUS
370
    -3
390
F
347
4CA
348
0
  0
LAYER
  5
21D
330
2
100
AcDbSymbolTableRecord
100
AcDbLayerTableRecord
  2
7_ALL_FEATURES_6
 70
     0
 62
     7
  6
CONTINUOUS
370
    -3
390
F
347
4CA
348
0
  0
LAYER
  5
21E
330
2
100
AcDbSymbolTableRecord
100
AcDbLayerTableRecord
  2
8_ALL_NOTES_BALLOONS_SYMBOLS_GT
 70
     0
 62
     7
  6
CONTINUOUS
370
    -3
390
F
347
4CA
348
0
  0
LAYER
  5
21F
330
2
100
AcDbSymbolTableRecord
100
AcDbLayerTableRecord
  2
9_SOLID
 70
     0
 62
     7
  6
CONTINUOUS
370
    -3
390
F
347
4CA
348
0
  0
LAYER
  5
220
330
2
100
AcDbSymbolTableRecord
100
AcDbLayerTableRecord
  2
XSEC_DATUMS
 70
     0
 62
     7
  6
CONTINUOUS
370
    -3
390
F
347
4CA
348
0
  0
LAYER
  5
221
330
2
100
AcDbSymbolTableRecord
100
AcDbLayerTableRecord
  2
XXX_SOLIDO
 70
     0
 62
     7
  6
CONTINUOUS
370
    -3
390
F
347
4CA
348
0
  0
ENDTAB
  0
TABLE
  2
STYLE
  5
3
330
0
100
AcDbSymbolTable
 70
     3
  0
STYLE
  5
11
330
3
100
AcDbSymbolTableRecord
100
AcDbTextStyleTableRecord
  2
STANDARD
 70
     0
 40
0.0
 41
0.85
 50
0.0
 71
     0
 42
0.2
  3
txt
  4

  0
STYLE
  5
222
330
3
100
AcDbSymbolTableRecord
100
AcDbTextStyleTableRecord
  2
TEXTSTYLE_1
 70
     0
 40
0.0
 41
0.8
 50
0.0
 71
     0
 42
0.2
  3
gdt
  4

  0
STYLE
  5
223
330
3
100
AcDbSymbolTableRecord
100
AcDbTextStyleTableRecord
  2
TEXTSTYLE_2
 70
     0
 40
0.0
 41
0.85
 50
0.0
 71
     0
 42
0.2
  3
gdt
  4

  0
ENDTAB
  0
TABLE
  2
VIEW
  5
6
330
0
100
AcDbSymbolTable
 70
     0
  0
ENDTAB
  0
TABLE
  2
UCS
  5
7
330
0
100
AcDbSymbolTable
 70
     0
  0
ENDTAB
  0
TABLE
  2
APPID
  5
9
330
0
100
AcDbSymbolTable
 70
     6
  0
APPID
  5
224
330
9
100
AcDbSymbolTableRecord
100
AcDbRegAppTableRecord
  2
ACAD
 70
     0
  0
APPID
  5
4CB
330
9
100
AcDbSymbolTableRecord
100
AcDbRegAppTableRecord
  2
MCS_DIM1
 70
     0
  0
APPID
  5
4CC
330
9
100
AcDbSymbolTableRecord
100
AcDbRegAppTableRecord
  2
McsXdata5
 70
     0
  0
APPID
  5
4CF
330
9
100
AcDbSymbolTableRecord
100
AcDbRegAppTableRecord
  2
MCS_DOCUMENT_ID
 70
     0
  0
APPID
  5
4D5
330
9
100
AcDbSymbolTableRecord
100
AcDbRegAppTableRecord
  2
MCS_PARAMS_DATA
 70
     0
  0
APPID
  5
4D7
330
9
100
AcDbSymbolTableRecord
100
AcDbRegAppTableRecord
  2
MC_VERSION_DATA
 70
     0
  0
ENDTAB
  0
TABLE
  2
DIMSTYLE
  5
A
330
0
100
AcDbSymbolTable
 70
     4
100
AcDbDimStyleTable
  0
DIMSTYLE
105
22D
330
A
100
AcDbSymbolTableRecord
100
AcDbDimStyleTableRecord
  2
STANDARD
 70
     0
 41
3.333333
 42
0.75
 44
0.75
 47
0.01
 48
0.01
 71
     1
 73
     0
 74
     0
 77
     1
 78
     8
 79
     2
140
4.0
147
0.625
171
     1
178
     0
179
     2
271
     2
272
     2
278
    44
284
     8
340
11
341
227
342
227
343
227
344
227
  0
DIMSTYLE
105
22E
330
A
100
AcDbSymbolTableRecord
100
AcDbDimStyleTableRecord
  2
DIMSTYLE_1
 70
     0
 41
3.333333
 42
0.75
 44
0.75
 47
0.2
 48
0.2
 73
     0
 74
     0
 77
     1
 78
     8
 79
     2
140
10.666667
147
2.0
171
     1
178
     0
179
     2
271
     2
272
     2
278
    44
284
     8
340
11
341
227
342
227
343
227
344
227
  0
DIMSTYLE
105
22F
330
A
100
AcDbSymbolTableRecord
100
AcDbDimStyleTableRecord
  2
DIMSTYLE_2
 70
     0
 41
3.333333
 42
0.75
 44
0.75
 47
0.3
 48
0.3
 73
     0
 74
     0
 77
     1
 78
     8
 79
     2
140
10.666667
147
2.0
171
     1
178
     0
271
     0
272
    -1
278
    44
284
     8
340
11
341
227
342
227
343
227
344
227
  0
DIMSTYLE
105
230
330
A
100
AcDbSymbolTableRecord
100
AcDbDimStyleTableRecord
  2
DIMSTYLE_3
 70
     0
 41
3.333333
 42
0.75
 44
0.75
 47
0.8
 48
0.8
 73
     0
 74
     0
 77
     1
 78
     8
 79
     2
140
10.666667
147
2.0
171
     1
178
     0
179
     2
271
     2
272
    -1
278
    44
284
     8
340
11
341
227
342
227
343
227
344
227
  0
ENDTAB
  0
TABLE
  2
BLOCK_RECORD
  5
1
330
0
100
AcDbSymbolTable
 70
     6
  0
BLOCK_RECORD
  5
225
330
1
100
AcDbSymbolTableRecord
100
AcDbBlockTableRecord
  2
*Model_Space
340
485
 70
     0
280
     1
281
     0
  0
BLOCK_RECORD
  5
226
330
1
100
AcDbSymbolTableRecord
100
AcDbBlockTableRecord
  2
*Paper_Space
340
486
 70
     0
280
     1
281
     0
  0
BLOCK_RECORD
  5
227
330
1
100
AcDbSymbolTableRecord
100
AcDbBlockTableRecord
  2
_CLOSED
340
0
102
{BLKREFS
331
27B
331
27C
331
286
331
287
331
28F
331
290
102
}
 70
     0
280
     1
281
     0
  0
BLOCK_RECORD
  5
228
330
1
100
AcDbSymbolTableRecord
100
AcDbBlockTableRecord
  2
*D1
340
0
 70
     0
280
     1
281
     0
  0
BLOCK_RECORD
  5
229
330
1
100
AcDbSymbolTableRecord
100
AcDbBlockTableRecord
  2
*D2
340
0
 70
     0
280
     1
281
     0
  0
BLOCK_RECORD
  5
22A
330
1
100
AcDbSymbolTableRecord
100
AcDbBlockTableRecord
  2
*D3
340
0
 70
     0
280
     1
281
     0
  0
BLOCK_RECORD
  5
22B
330
1
100
AcDbSymbolTableRecord
100
AcDbBlockTableRecord
  2
LOGO2_BL0
340
0
102
{BLKREFS
331
482
102
}
 70
     0
280
     1
281
     0
  0
BLOCK_RECORD
  5
22C
330
1
100
AcDbSymbolTableRecord
100
AcDbBlockTableRecord
  2
*T5
340
0
102
{BLKREFS
331
483
102
}
 70
     0
280
     1
281
     0
  0
ENDTAB
  0
ENDSEC
  0
SECTION
  2
BLOCKS
  0
BLOCK
  5
20
330
225
100
AcDbEntity
  8
0
100
AcDbBlockBegin
  2
*Model_Space
 70
     0
 10
0.0
 20
0.0
 30
0.0
  3
*Model_Space
  1
*Model_Space
  0
ENDBLK
  5
21
330
225
100
AcDbEntity
  8
0
100
AcDbBlockEnd
  0
BLOCK
  5
1C
330
226
100
AcDbEntity
 67
     1
  8
0
100
AcDbBlockBegin
  2
*Paper_Space
 70
     0
 10
0.0
 20
0.0
 30
0.0
  3
*Paper_Space
  1
*Paper_Space
  0
ENDBLK
  5
1D
330
226
100
AcDbEntity
 67
     1
  8
0
100
AcDbBlockEnd
  0
BLOCK
  5
26D
330
227
100
AcDbEntity
  8
0
100
AcDbBlockBegin
  2
_CLOSED
 70
     0
 10
0.0
 20
0.0
 30
0.0
  3
_CLOSED
  1
_CLOSED
  0
LINE
  5
26E
330
227
100
AcDbEntity
  8
0
  6
ByBlock
 62
     0
100
AcDbLine
 10
0.0
 20
0.0
 30
0.0
 11
-1.0
 21
0.2
 31
0.0
  0
LINE
  5
26F
330
227
100
AcDbEntity
  8
0
  6
ByBlock
 62
     0
100
AcDbLine
 10
-1.0
 20
0.2
 30
0.0
 11
-1.0
 21
-0.2
 31
0.0
  0
LINE
  5
270
330
227
100
AcDbEntity
  8
0
  6
ByBlock
 62
     0
100
AcDbLine
 10
-1.0
 20
-0.2
 30
0.0
 11
0.0
 21
0.0
 31
0.0
  0
LINE
  5
271
330
227
100
AcDbEntity
  8
0
  6
ByBlock
 62
     0
100
AcDbLine
 10
-1.0
 20
0.0
 30
0.0
 11
0.0
 21
0.0
 31
0.0
  0
ENDBLK
  5
272
330
227
100
AcDbEntity
  8
0
  6
ByBlock
 62
     0
100
AcDbBlockEnd
  0
BLOCK
  5
273
330
228
100
AcDbEntity
  8
0
100
AcDbBlockBegin
  2
*D1
 70
     1
 10
0.0
 20
0.0
 30
0.0
  3
*D1
  1
*D1
  0
MTEXT
  5
274
330
228
100
AcDbEntity
  8
0
  6
Continuous
 62
     2
100
AcDbMText
 10
744.186947
 20
481.500044
 30
0.0
 40
10.666667
 41
45.333333
 46
0.0
 71
     3
 72
     1
  1
{\Fgdt;n}\Ftxt;25
  7
TEXTSTYLE_2
 11
0.0
 21
1.0
 31
0.0
 73
     1
 44
0.9
  0
LINE
  5
275
330
228
100
AcDbEntity
  8
0
  6
Continuous
 62
     2
100
AcDbLine
 10
734.277168
 20
514.294461
 30
0.0
 11
758.520281
 21
514.294461
 31
0.0
  0
LINE
  5
276
330
228
100
AcDbEntity
  8
0
  6
Continuous
 62
     2
100
AcDbLine
 10
734.277168
 20
489.294461
 30
0.0
 11
758.520281
 21
489.294461
 31
0.0
  0
LINE
  5
277
330
228
100
AcDbEntity
  8
0
  6
Continuous
 62
     2
100
AcDbLine
 10
757.520281
 20
514.294461
 30
0.0
 11
757.520281
 21
515.627795
 31
0.0
  0
LINE
  5
278
330
228
100
AcDbEntity
  8
0
  6
Continuous
 62
     2
100
AcDbLine
 10
757.520281
 20
515.627795
 30
0.0
 11
757.520281
 21
501.794461
 31
0.0
  0
LINE
  5
279
330
228
100
AcDbEntity
  8
0
  6
Continuous
 62
     2
100
AcDbLine
 10
757.520281
 20
489.294461
 30
0.0
 11
757.520281
 21
451.277821
 31
0.0
  0
LINE
  5
27A
330
228
100
AcDbEntity
  8
0
  6
Continuous
 62
     2
100
AcDbLine
 10
757.520281
 20
451.277821
 30
0.0
 11
757.520281
 21
501.794461
 31
0.0
  0
INSERT
  5
27B
330
228
100
AcDbEntity
  8
0
  6
Continuous
 62
     2
100
AcDbBlockReference
  2
_CLOSED
 10
757.520281
 20
514.294461
 30
0.0
 41
3.333333
 42
3.333333
 43
3.333333
 50
270.0
  0
INSERT
  5
27C
330
228
100
AcDbEntity
  8
0
  6
Continuous
 62
     2
100
AcDbBlockReference
  2
_CLOSED
 10
757.520281
 20
489.294461
 30
0.0
 41
3.333333
 42
3.333333
 43
3.333333
 50
90.0
  0
ENDBLK
  5
27D
330
228
100
AcDbEntity
  8
0
  6
ByBlock
 62
     0
100
AcDbBlockEnd
  0
BLOCK
  5
27E
330
229
100
AcDbEntity
  8
0
100
AcDbBlockBegin
  2
*D2
 70
     1
 10
0.0
 20
0.0
 30
0.0
  3
*D2
  1
*D2
  0
MTEXT
  5
27F
330
229
100
AcDbEntity
  8
0
  6
Continuous
 62
     2
100
AcDbMText
 10
888.760929
 20
594.160566
 30
0.0
 40
10.666667
 41
25.142857
 46
0.0
 71
     2
 72
     1
  1
40
 73
     1
 44
0.9
  0
LINE
  5
280
330
229
100
AcDbEntity
  8
0
  6
Continuous
 62
     2
100
AcDbLine
 10
908.360929
 20
602.87484
 30
0.0
 11
908.360929
 21
583.4939
 31
0.0
  0
LINE
  5
281
330
229
100
AcDbEntity
  8
0
  6
Continuous
 62
     2
100
AcDbLine
 10
908.360929
 20
583.4939
 30
0.0
 11
908.360929
 21
579.827233
 31
0.0
  0
LINE
  5
282
330
229
100
AcDbEntity
  8
0
  6
Continuous
 62
     2
100
AcDbLine
 10
869.160929
 20
604.920294
 30
0.0
 11
869.160929
 21
583.4939
 31
0.0
  0
LINE
  5
283
330
229
100
AcDbEntity
  8
0
  6
Continuous
 62
     2
100
AcDbLine
 10
869.160929
 20
583.4939
 30
0.0
 11
869.160929
 21
579.827233
 31
0.0
  0
LINE
  5
284
330
229
100
AcDbEntity
  8
0
  6
Continuous
 62
     2
100
AcDbLine
 10
908.360929
 20
580.827233
 30
0.0
 11
888.760929
 21
580.827233
 31
0.0
  0
LINE
  5
285
330
229
100
AcDbEntity
  8
0
  6
Continuous
 62
     2
100
AcDbLine
 10
869.160929
 20
580.827233
 30
0.0
 11
888.760929
 21
580.827233
 31
0.0
  0
INSERT
  5
286
330
229
100
AcDbEntity
  8
0
  6
Continuous
 62
     2
100
AcDbBlockReference
  2
_CLOSED
 10
908.360929
 20
580.827233
 30
0.0
 41
3.333333
 42
3.333333
 43
3.333333
  0
INSERT
  5
287
330
229
100
AcDbEntity
  8
0
  6
Continuous
 62
     2
100
AcDbBlockReference
  2
_CLOSED
 10
869.160929
 20
580.827233
 30
0.0
 41
3.333333
 42
3.333333
 43
3.333333
 50
180.0
  0
ENDBLK
  5
288
330
229
100
AcDbEntity
  8
0
  6
ByBlock
 62
     0
100
AcDbBlockEnd
  0
BLOCK
  5
289
330
22A
100
AcDbEntity
  8
0
100
AcDbBlockBegin
  2
*D3
 70
     1
 10
0.0
 20
0.0
 30
0.0
  3
*D3
  1
*D3
  0
MTEXT
  5
28A
330
22A
100
AcDbEntity
  8
0
  6
Continuous
 62
     2
100
AcDbMText
 10
409.635029
 20
554.294461
 30
0.0
 40
10.666667
 41
33.142857
 46
0.0
 71
     2
 72
     1
  1
613
 73
     1
 44
0.9
  0
LINE
  5
28B
330
22A
100
AcDbEntity
  8
0
  6
Continuous
 62
     2
100
AcDbLine
 10
103.135029
 20
524.303782
 30
0.0
 11
103.135029
 21
541.961128
 31
0.0
  0
LINE
  5
28C
330
22A
100
AcDbEntity
  8
0
  6
Continuous
 62
     2
100
AcDbLine
 10
716.135029
 20
524.863154
 30
0.0
 11
716.135029
 21
541.961128
 31
0.0
  0
LINE
  5
28D
330
22A
100
AcDbEntity
  8
0
  6
Continuous
 62
     2
100
AcDbLine
 10
103.135029
 20
540.961128
 30
0.0
 11
409.635029
 21
540.961128
 31
0.0
  0
LINE
  5
28E
330
22A
100
AcDbEntity
  8
0
  6
Continuous
 62
     2
100
AcDbLine
 10
716.135029
 20
540.961128
 30
0.0
 11
409.635029
 21
540.961128
 31
0.0
  0
INSERT
  5
28F
330
22A
100
AcDbEntity
  8
0
  6
Continuous
 62
     2
100
AcDbBlockReference
  2
_CLOSED
 10
103.135029
 20
540.961128
 30
0.0
 41
3.333333
 42
3.333333
 43
3.333333
 50
180.0
  0
INSERT
  5
290
330
22A
100
AcDbEntity
  8
0
  6
Continuous
 62
     2
100
AcDbBlockReference
  2
_CLOSED
 10
716.135029
 20
540.961128
 30
0.0
 41
3.333333
 42
3.333333
 43
3.333333
  0
ENDBLK
  5
291
330
22A
100
AcDbEntity
  8
0
  6
ByBlock
 62
     0
100
AcDbBlockEnd
  0
BLOCK
  5
231
330
22B
100
AcDbEntity
  8
0
100
AcDbBlockBegin
  2
LOGO2_BL0
 70
     0
 10
1006.527559
 20
48.775416
 30
0.0
  3
LOGO2_BL0
  1
LOGO2_BL0
  0
LINE
  5
232
330
22B
100
AcDbEntity
  8
0
  6
Continuous
 62
     7
100
AcDbLine
 10
995.518126
 20
53.036071
 30
0.0
 11
993.779005
 21
53.036071
 31
0.0
  0
LINE
  5
233
330
22B
100
AcDbEntity
  8
0
  6
Continuous
 62
     7
100
AcDbLine
 10
993.779005
 20
53.036071
 30
0.0
 11
993.779005
 21
39.090649
 31
0.0
  0
LINE
  5
234
330
22B
100
AcDbEntity
  8
0
  6
Continuous
 62
     7
100
AcDbLine
 10
993.779005
 20
39.090649
 30
0.0
 11
999.753745
 21
39.090649
 31
0.0
  0
LINE
  5
235
330
22B
100
AcDbEntity
  8
0
  6
Continuous
 62
     7
100
AcDbLine
 10
999.753745
 20
39.090649
 30
0.0
 11
999.753745
 21
40.681122
 31
0.0
  0
LINE
  5
236
330
22B
100
AcDbEntity
  8
0
  6
Continuous
 62
     7
100
AcDbLine
 10
999.753745
 20
40.681122
 30
0.0
 11
995.518126
 21
40.681122
 31
0.0
  0
LINE
  5
237
330
22B
100
AcDbEntity
  8
0
  6
Continuous
 62
     7
100
AcDbLine
 10
995.518126
 20
40.681122
 30
0.0
 11
995.518126
 21
53.036071
 31
0.0
  0
LINE
  5
238
330
22B
100
AcDbEntity
  8
0
  6
Continuous
 62
     7
100
AcDbLine
 10
1015.433228
 20
53.036071
 30
0.0
 11
1013.694804
 21
53.036071
 31
0.0
  0
LINE
  5
239
330
22B
100
AcDbEntity
  8
0
  6
Continuous
 62
     7
100
AcDbLine
 10
1013.694804
 20
53.036071
 30
0.0
 11
1013.694804
 21
39.090649
 31
0.0
  0
LINE
  5
23A
330
22B
100
AcDbEntity
  8
0
  6
Continuous
 62
     7
100
AcDbLine
 10
1013.694804
 20
39.090649
 30
0.0
 11
1019.669719
 21
39.090649
 31
0.0
  0
LINE
  5
23B
330
22B
100
AcDbEntity
  8
0
  6
Continuous
 62
     7
100
AcDbLine
 10
1019.669719
 20
39.090649
 30
0.0
 11
1019.669719
 21
40.681122
 31
0.0
  0
LINE
  5
23C
330
22B
100
AcDbEntity
  8
0
  6
Continuous
 62
     7
100
AcDbLine
 10
1019.669719
 20
40.681122
 30
0.0
 11
1015.433228
 21
40.681122
 31
0.0
  0
LINE
  5
23D
330
22B
100
AcDbEntity
  8
0
  6
Continuous
 62
     7
100
AcDbLine
 10
1015.433228
 20
40.681122
 30
0.0
 11
1015.433228
 21
53.036071
 31
0.0
  0
LWPOLYLINE
  5
23E
330
22B
100
AcDbEntity
  8
0
  6
Continuous
 62
     7
100
AcDbPolyline
 90
        2
 70
     0
 43
0.266667
 10
991.584865
 20
34.632581
 10
991.584865
 20
32.156497
  0
LWPOLYLINE
  5
23F
330
22B
100
AcDbEntity
  8
0
  6
Continuous
 62
     7
100
AcDbPolyline
 90
        2
 70
     0
 43
0.266667
 10
991.584865
 20
32.156497
 10
992.64582
 20
32.156497
  0
LWPOLYLINE
  5
240
330
22B
100
AcDbEntity
  8
0
  6
Continuous
 62
     7
100
AcDbPolyline
 90
        2
 70
     0
 43
0.266667
 10
992.64582
 20
32.156497
 10
992.64582
 20
32.439139
  0
LWPOLYLINE
  5
241
330
22B
100
AcDbEntity
  8
0
  6
Continuous
 62
     7
100
AcDbPolyline
 90
        2
 70
     0
 43
0.266667
 10
992.64582
 20
32.439139
 10
991.893677
 20
32.439139
  0
LWPOLYLINE
  5
242
330
22B
100
AcDbEntity
  8
0
  6
Continuous
 62
     7
100
AcDbPolyline
 90
        2
 70
     0
 43
0.266667
 10
991.893677
 20
32.439139
 10
991.893677
 20
34.632581
  0
LWPOLYLINE
  5
243
330
22B
100
AcDbEntity
  8
0
  6
Continuous
 62
     7
100
AcDbPolyline
 90
        2
 70
     0
 43
0.266667
 10
991.893677
 20
34.632581
 10
991.584865
 20
34.632581
  0
SPLINE
  5
244
330
22B
100
AcDbEntity
  8
0
  6
Continuous
 62
     7
100
AcDbSpline
 70
     3
 71
     3
 72
    35
 73
    31
 74
     0
 42
0.000000001
 43
0.0000001
 40
0.0
 40
0.0
 40
0.0
 40
0.0
 40
1.0
 40
1.0
 40
1.0
 40
2.0
 40
2.0
 40
2.0
 40
3.0
 40
3.0
 40
3.0
 40
4.0
 40
4.0
 40
4.0
 40
5.0
 40
5.0
 40
5.0
 40
6.0
 40
6.0
 40
6.0
 40
7.0
 40
7.0
 40
7.0
 40
8.0
 40
8.0
 40
8.0
 40
9.0
 40
9.0
 40
9.0
 40
10.0
 40
10.0
 40
10.0
 40
10.0
 10
994.5102105163
 20
33.6932321221
 30
0.0
 10
994.5102105163
 20
33.6932321221
 30
0.0
 10
994.5102105163
 20
32.8104117499
 30
0.0
 10
994.5102105163
 20
32.8104117499
 30
0.0
 10
994.5102105163
 20
32.3902869562
 30
0.0
 10
994.7073621014
 20
32.1041554521
 30
0.0
 10
995.1608107471
 20
32.1041554521
 30
0.0
 10
995.6135615111
 20
32.1041554521
 30
0.0
 10
995.8110620371
 20
32.3902869562
 30
0.0
 10
995.8110620371
 20
32.8104117499
 30
0.0
 10
995.8110620371
 20
32.8104117499
 30
0.0
 10
995.8110620371
 20
33.6932321221
 30
0.0
 10
995.8110620371
 20
33.6932321221
 30
0.0
 10
995.8110620371
 20
33.6932321221
 30
0.0
 10
995.5149857186
 20
33.6932321221
 30
0.0
 10
995.5149857186
 20
33.6932321221
 30
0.0
 10
995.5149857186
 20
33.6932321221
 30
0.0
 10
995.5149857186
 20
32.8439100723
 30
0.0
 10
995.5149857186
 20
32.8439100723
 30
0.0
 10
995.5149857186
 20
32.5961620627
 30
0.0
 10
995.4526997753
 20
32.3791208487
 30
0.0
 10
995.1608107471
 20
32.3791208487
 30
0.0
 10
994.8682238372
 20
32.3791208487
 30
0.0
 10
994.8059378939
 20
32.5961620627
 30
0.0
 10
994.8059378939
 20
32.8439100723
 30
0.0
 10
994.8059378939
 20
32.8439100723
 30
0.0
 10
994.8059378939
 20
33.6932321221
 30
0.0
 10
994.8059378939
 20
33.6932321221
 30
0.0
 10
994.8059378939
 20
33.6932321221
 30
0.0
 10
994.5102105163
 20
33.6932321221
 30
0.0
 10
994.5102105163
 20
33.6932321221
 30
0.0
  0
SPLINE
  5
245
330
22B
100
AcDbEntity
  8
0
  6
Continuous
 62
     7
100
AcDbSpline
 70
     3
 71
     3
 72
    35
 73
    31
 74
     0
 42
0.000000001
 43
0.0000001
 40
0.0
 40
0.0
 40
0.0
 40
0.0
 40
1.0
 40
1.0
 40
1.0
 40
2.0
 40
2.0
 40
2.0
 40
3.0
 40
3.0
 40
3.0
 40
4.0
 40
4.0
 40
4.0
 40
5.0
 40
5.0
 40
5.0
 40
6.0
 40
6.0
 40
6.0
 40
7.0
 40
7.0
 40
7.0
 40
8.0
 40
8.0
 40
8.0
 40
9.0
 40
9.0
 40
9.0
 40
10.0
 40
10.0
 40
10.0
 40
10.0
 10
999.0419054467
 20
33.6380994664
 30
0.0
 10
998.9239634365
 20
33.7064918747
 30
0.0
 10
998.7726975743
 20
33.7399901971
 30
0.0
 10
998.6345169943
 20
33.7399901971
 30
0.0
 10
998.16135319
 20
33.7399901971
 30
0.0
 10
997.7940929364
 20
33.3882578117
 30
0.0
 10
997.7940929364
 20
32.9116045989
 30
0.0
 10
997.7940929364
 20
32.4517005473
 30
0.0
 10
998.1653660099
 20
32.1048533338
 30
0.0
 10
998.6181167739
 20
32.1048533338
 30
0.0
 10
998.7726975743
 20
32.1048533338
 30
0.0
 10
998.9070398048
 20
32.134164366
 30
0.0
 10
999.0419054467
 20
32.2060461828
 30
0.0
 10
999.0419054467
 20
32.2060461828
 30
0.0
 10
999.0419054467
 20
32.5829023101
 30
0.0
 10
999.0419054467
 20
32.5829023101
 30
0.0
 10
998.9300699015
 20
32.4586793644
 30
0.0
 10
998.7920637919
 20
32.3798187304
 30
0.0
 10
998.6212572417
 20
32.3798187304
 30
0.0
 10
998.3096530549
 20
32.3798187304
 30
0.0
 10
998.0892969028
 20
32.6094218153
 30
0.0
 10
998.0892969028
 20
32.9248643515
 30
0.0
 10
998.0892969028
 20
33.207506447
 30
0.0
 10
998.3129679931
 20
33.4636290371
 30
0.0
 10
998.6020654944
 20
33.4636290371
 30
0.0
 10
998.7791529802
 20
33.4636290371
 30
0.0
 10
998.9239634365
 20
33.3917472203
 30
0.0
 10
999.0419054467
 20
33.2570560489
 30
0.0
 10
999.0419054467
 20
33.2570560489
 30
0.0
 10
999.0419054467
 20
33.6380994664
 30
0.0
 10
999.0419054467
 20
33.6380994664
 30
0.0
  0
SPLINE
  5
246
330
22B
100
AcDbEntity
  8
0
  6
Continuous
 62
     7
100
AcDbSpline
 70
     3
 71
     3
 72
    32
 73
    28
 74
     0
 42
0.000000001
 43
0.0000001
 40
0.0
 40
0.0
 40
0.0
 40
0.0
 40
1.0
 40
1.0
 40
1.0
 40
2.0
 40
2.0
 40
2.0
 40
3.0
 40
3.0
 40
3.0
 40
4.0
 40
4.0
 40
4.0
 40
5.0
 40
5.0
 40
5.0
 40
6.0
 40
6.0
 40
6.0
 40
7.0
 40
7.0
 40
7.0
 40
8.0
 40
8.0
 40
8.0
 40
9.0
 40
9.0
 40
9.0
 40
9.0
 10
1002.417733783
 20
32.8760126313
 30
0.0
 10
1002.417733783
 20
32.8760126313
 30
0.0
 10
1002.417733783
 20
32.9213749429
 30
0.0
 10
1002.417733783
 20
32.9213749429
 30
0.0
 10
1002.417733783
 20
33.3777895859
 30
0.0
 10
1002.1872583459
 20
33.7399901971
 30
0.0
 10
1001.698392203
 20
33.7399901971
 30
0.0
 10
1001.2028961839
 20
33.7399901971
 30
0.0
 10
1000.9499140614
 20
33.3847684031
 30
0.0
 10
1000.9499140614
 20
32.9116045989
 30
0.0
 10
1000.9499140614
 20
32.4586793644
 30
0.0
 10
1001.2353476837
 20
32.1041554521
 30
0.0
 10
1001.7048476089
 20
32.1041554521
 30
0.0
 10
1002.0035409839
 20
32.1041554521
 30
0.0
 10
1002.2730977971
 20
32.2583873116
 30
0.0
 10
1002.417733783
 20
32.5242802459
 30
0.0
 10
1002.417733783
 20
32.5242802459
 30
0.0
 10
1002.1675431874
 20
32.6666481162
 30
0.0
 10
1002.1675431874
 20
32.6666481162
 30
0.0
 10
1002.0562310535
 20
32.4817094611
 30
0.0
 10
1001.9346251643
 20
32.3672568595
 30
0.0
 10
1001.7085114879
 20
32.3672568595
 30
0.0
 10
1001.4258693925
 20
32.3672568595
 30
0.0
 10
1001.2486074363
 20
32.6136091056
 30
0.0
 10
1001.2454669686
 20
32.8760126313
 30
0.0
 10
1001.2454669686
 20
32.8760126313
 30
0.0
 10
1002.417733783
 20
32.8760126313
 30
0.0
 10
1002.417733783
 20
32.8760126313
 30
0.0
  0
SPLINE
  5
247
330
22B
100
AcDbEntity
  8
0
  6
Continuous
 62
     7
100
AcDbSpline
 70
     3
 71
     3
 72
    14
 73
    10
 74
     0
 42
0.000000001
 43
0.0000001
 40
0.0
 40
0.0
 40
0.0
 40
0.0
 40
1.0
 40
1.0
 40
1.0
 40
2.0
 40
2.0
 40
2.0
 40
3.0
 40
3.0
 40
3.0
 40
3.0
 10
1001.2615182481
 20
33.0993347808
 30
0.0
 10
1001.2983315087
 20
33.3191675217
 30
0.0
 10
1001.4687891181
 20
33.4831697252
 30
0.0
 10
1001.698392203
 20
33.4831697252
 30
0.0
 10
1001.9346251643
 20
33.4831697252
 30
0.0
 10
1002.0858910265
 20
33.3289378657
 30
0.0
 10
1002.1221808758
 20
33.0993347808
 30
0.0
 10
1002.1221808758
 20
33.0993347808
 30
0.0
 10
1001.2615182481
 20
33.0993347808
 30
0.0
 10
1001.2615182481
 20
33.0993347808
 30
0.0
  0
SPLINE
  5
248
330
22B
100
AcDbEntity
  8
0
  6
Continuous
 62
     7
100
AcDbSpline
 70
     3
 71
     3
 72
    20
 73
    16
 74
     0
 42
0.000000001
 43
0.0000001
 40
0.0
 40
0.0
 40
0.0
 40
0.0
 40
1.0
 40
1.0
 40
1.0
 40
2.0
 40
2.0
 40
2.0
 40
3.0
 40
3.0
 40
3.0
 40
4.0
 40
4.0
 40
4.0
 40
5.0
 40
5.0
 40
5.0
 40
5.0
 10
1005.1164423833
 20
33.3784874677
 30
0.0
 10
1005.1164423833
 20
33.3784874677
 30
0.0
 10
1005.6646284721
 20
32.7085210192
 30
0.0
 10
1005.6646284721
 20
32.7085210192
 30
0.0
 10
1005.5098732013
 20
32.5542891597
 30
0.0
 10
1005.3261558393
 20
32.3805166121
 30
0.0
 10
1005.0969016952
 20
32.3805166121
 30
0.0
 10
1004.8603197931
 20
32.3805166121
 30
0.0
 10
1004.6369976436
 20
32.5996514713
 30
0.0
 10
1004.6369976436
 20
32.8355354917
 30
0.0
 10
1004.6369976436
 20
33.0728152755
 30
0.0
 10
1004.9166737417
 20
33.2410047694
 30
0.0
 10
1005.0867824103
 20
33.3582488979
 30
0.0
 10
1005.0867824103
 20
33.3582488979
 30
0.0
 10
1005.1164423833
 20
33.3784874677
 30
0.0
 10
1005.1164423833
 20
33.3784874677
 30
0.0
  0
SPLINE
  5
249
330
22B
100
AcDbEntity
  8
0
  6
Continuous
 62
     7
100
AcDbSpline
 70
     3
 71
     3
 72
    23
 73
    19
 74
     0
 42
0.000000001
 43
0.0000001
 40
0.0
 40
0.0
 40
0.0
 40
0.0
 40
1.0
 40
1.0
 40
1.0
 40
2.0
 40
2.0
 40
2.0
 40
3.0
 40
3.0
 40
3.0
 40
4.0
 40
4.0
 40
4.0
 40
5.0
 40
5.0
 40
5.0
 40
6.0
 40
6.0
 40
6.0
 40
6.0
 10
1005.1822177351
 20
33.7665097024
 30
0.0
 10
1005.1822177351
 20
33.7665097024
 30
0.0
 10
1005.1000421629
 20
33.87119196
 30
0.0
 10
1005.1000421629
 20
33.87119196
 30
0.0
 10
1005.028160346
 20
33.9626144649
 30
0.0
 10
1004.9524401797
 20
34.0547348516
 30
0.0
 10
1004.9524401797
 20
34.179655679
 30
0.0
 10
1004.9524401797
 20
34.3380748288
 30
0.0
 10
1005.0803270044
 20
34.4413613229
 30
0.0
 10
1005.2282779284
 20
34.4413613229
 30
0.0
 10
1005.3926290728
 20
34.4413613229
 30
0.0
 10
1005.5170264889
 20
34.3464494094
 30
0.0
 10
1005.5170264889
 20
34.1726768618
 30
0.0
 10
1005.5170264889
 20
33.9926233788
 30
0.0
 10
1005.3462199386
 20
33.8907326481
 30
0.0
 10
1005.2214735817
 20
33.7923313259
 30
0.0
 10
1005.2214735817
 20
33.7923313259
 30
0.0
 10
1005.1822177351
 20
33.7665097024
 30
0.0
 10
1005.1822177351
 20
33.7665097024
 30
0.0
  0
SPLINE
  5
24A
330
22B
100
AcDbEntity
  8
0
  6
Continuous
 62
     7
100
AcDbSpline
 70
     3
 71
     3
 72
    50
 73
    46
 74
     0
 42
0.000000001
 43
0.0000001
 40
0.0
 40
0.0
 40
0.0
 40
0.0
 40
1.0
 40
1.0
 40
1.0
 40
2.0
 40
2.0
 40
2.0
 40
3.0
 40
3.0
 40
3.0
 40
4.0
 40
4.0
 40
4.0
 40
5.0
 40
5.0
 40
5.0
 40
6.0
 40
6.0
 40
6.0
 40
7.0
 40
7.0
 40
7.0
 40
8.0
 40
8.0
 40
8.0
 40
9.0
 40
9.0
 40
9.0
 40
10.0
 40
10.0
 40
10.0
 40
11.0
 40
11.0
 40
11.0
 40
12.0
 40
12.0
 40
12.0
 40
13.0
 40
13.0
 40
13.0
 40
14.0
 40
14.0
 40
14.0
 40
15.0
 40
15.0
 40
15.0
 40
15.0
 10
1006.1184260587
 20
32.1571944626
 30
0.0
 10
1006.1184260587
 20
32.1571944626
 30
0.0
 10
1006.498946065
 20
32.1571944626
 30
0.0
 10
1006.498946065
 20
32.1571944626
 30
0.0
 10
1006.498946065
 20
32.1571944626
 30
0.0
 10
1006.0557911746
 20
32.7050316106
 30
0.0
 10
1006.0557911746
 20
32.7050316106
 30
0.0
 10
1006.0557911746
 20
32.7050316106
 30
0.0
 10
1006.3577994877
 20
33.0595555229
 30
0.0
 10
1006.3577994877
 20
33.0595555229
 30
0.0
 10
1006.3577994877
 20
33.0595555229
 30
0.0
 10
1006.1601244913
 20
33.2633369843
 30
0.0
 10
1006.1601244913
 20
33.2633369843
 30
0.0
 10
1006.1601244913
 20
33.2633369843
 30
0.0
 10
1005.872248283
 20
32.9283537601
 30
0.0
 10
1005.872248283
 20
32.9283537601
 30
0.0
 10
1005.872248283
 20
32.9283537601
 30
0.0
 10
1005.3561647531
 20
33.5522600152
 30
0.0
 10
1005.3561647531
 20
33.5522600152
 30
0.0
 10
1005.5634356231
 20
33.7043982296
 30
0.0
 10
1005.8064729311
 20
33.8907326481
 30
0.0
 10
1005.8064729311
 20
34.1698853349
 30
0.0
 10
1005.8064729311
 20
34.4950982151
 30
0.0
 10
1005.5370905883
 20
34.6863178056
 30
0.0
 10
1005.2350822752
 20
34.6863178056
 30
0.0
 10
1004.9095204541
 20
34.6863178056
 30
0.0
 10
1004.6636916193
 20
34.4853278711
 30
0.0
 10
1004.6636916193
 20
34.1433658297
 30
0.0
 10
1004.6636916193
 20
33.9333034328
 30
0.0
 10
1004.7952423229
 20
33.7497605412
 30
0.0
 10
1004.9356910185
 20
33.6018096171
 30
0.0
 10
1004.9356910185
 20
33.6018096171
 30
0.0
 10
1004.7816336295
 20
33.4901485424
 30
0.0
 10
1004.7816336295
 20
33.4901485424
 30
0.0
 10
1004.5447027865
 20
33.3191675217
 30
0.0
 10
1004.3482490831
 20
33.1488843827
 30
0.0
 10
1004.3482490831
 20
32.8327439648
 30
0.0
 10
1004.3482490831
 20
32.4056403539
 30
0.0
 10
1004.6930026514
 20
32.1041554521
 30
0.0
 10
1005.1068465097
 20
32.1041554521
 30
0.0
 10
1005.3987355379
 20
32.1041554521
 30
0.0
 10
1005.6616624748
 20
32.2709491825
 30
0.0
 10
1005.848694775
 20
32.4921776869
 30
0.0
 10
1005.848694775
 20
32.4921776869
 30
0.0
 10
1006.1184260587
 20
32.1571944626
 30
0.0
 10
1006.1184260587
 20
32.1571944626
 30
0.0
  0
LWPOLYLINE
  5
24B
330
22B
100
AcDbEntity
  8
0
  6
Continuous
 62
     7
100
AcDbPolyline
 90
        2
 70
     0
 43
0.266667
 10
1008.699018
 20
34.632581
 10
1008.390554
 20
34.632581
  0
LWPOLYLINE
  5
24C
330
22B
100
AcDbEntity
  8
0
  6
Continuous
 62
     7
100
AcDbPolyline
 90
        2
 70
     0
 43
0.266667
 10
1008.390554
 20
34.632581
 10
1008.390554
 20
32.156497
  0
LWPOLYLINE
  5
24D
330
22B
100
AcDbEntity
  8
0
  6
Continuous
 62
     7
100
AcDbPolyline
 90
        2
 70
     0
 43
0.266667
 10
1008.390554
 20
32.156497
 10
1009.450986
 20
32.156497
  0
LWPOLYLINE
  5
24E
330
22B
100
AcDbEntity
  8
0
  6
Continuous
 62
     7
100
AcDbPolyline
 90
        2
 70
     0
 43
0.266667
 10
1009.450986
 20
32.156497
 10
1009.450986
 20
32.439139
  0
LWPOLYLINE
  5
24F
330
22B
100
AcDbEntity
  8
0
  6
Continuous
 62
     7
100
AcDbPolyline
 90
        2
 70
     0
 43
0.266667
 10
1009.450986
 20
32.439139
 10
1008.699018
 20
32.439139
  0
LWPOLYLINE
  5
250
330
22B
100
AcDbEntity
  8
0
  6
Continuous
 62
     7
100
AcDbPolyline
 90
        2
 70
     0
 43
0.266667
 10
1008.699018
 20
32.439139
 10
1008.699018
 20
34.632581
  0
LWPOLYLINE
  5
251
330
22B
100
AcDbEntity
  8
0
  6
Continuous
 62
     7
100
AcDbPolyline
 90
        2
 70
     0
 43
0.266667
 10
1011.68979
 20
33.693232
 10
1011.394935
 20
33.693232
  0
LWPOLYLINE
  5
252
330
22B
100
AcDbEntity
  8
0
  6
Continuous
 62
     7
100
AcDbPolyline
 90
        2
 70
     0
 43
0.266667
 10
1011.394935
 20
33.693232
 10
1011.394935
 20
32.157194
  0
LWPOLYLINE
  5
253
330
22B
100
AcDbEntity
  8
0
  6
Continuous
 62
     7
100
AcDbPolyline
 90
        2
 70
     0
 43
0.266667
 10
1011.394935
 20
32.157194
 10
1011.68979
 20
32.157194
  0
LWPOLYLINE
  5
254
330
22B
100
AcDbEntity
  8
0
  6
Continuous
 62
     7
100
AcDbPolyline
 90
        2
 70
     0
 43
0.266667
 10
1011.68979
 20
32.157194
 10
1011.68979
 20
33.693232
  0
LWPOLYLINE
  5
255
330
22B
100
AcDbEntity
  8
0
  6
Continuous
 62
     7
100
AcDbPolyline
 90
        2
 70
     1
 43
0.266667
 10
1011.339093
 20
34.399837
 42
1.0
 10
1011.745982
 20
34.399837
 42
1.0
  0
SPLINE
  5
256
330
22B
100
AcDbEntity
  8
0
  6
Continuous
 62
     7
100
AcDbSpline
 70
     3
 71
     3
 72
    17
 73
    13
 74
     0
 42
0.000000001
 43
0.0000001
 40
0.0
 40
0.0
 40
0.0
 40
0.0
 40
1.0
 40
1.0
 40
1.0
 40
2.0
 40
2.0
 40
2.0
 40
3.0
 40
3.0
 40
3.0
 40
4.0
 40
4.0
 40
4.0
 40
4.0
 10
1014.530168866
 20
32.3672568595
 30
0.0
 10
1014.2182157385
 20
32.3672568595
 30
0.0
 10
1014.0444431909
 20
32.6366392023
 30
0.0
 10
1014.0444431909
 20
32.9248643515
 30
0.0
 10
1014.0444431909
 20
33.2109958555
 30
0.0
 10
1014.2255434965
 20
33.4761909081
 30
0.0
 10
1014.530168866
 20
33.4761909081
 30
0.0
 10
1014.8494497516
 20
33.4761909081
 30
0.0
 10
1015.0302011164
 20
33.2242556082
 30
0.0
 10
1015.0302011164
 20
32.9248643515
 30
0.0
 10
1015.0302011164
 20
32.6233794497
 30
0.0
 10
1014.8525902194
 20
32.3672568595
 30
0.0
 10
1014.530168866
 20
32.3672568595
 30
0.0
  0
SPLINE
  5
257
330
22B
100
AcDbEntity
  8
0
  6
Continuous
 62
     7
100
AcDbSpline
 70
     3
 71
     3
 72
    50
 73
    46
 74
     0
 42
0.000000001
 43
0.0000001
 40
0.0
 40
0.0
 40
0.0
 40
0.0
 40
1.0
 40
1.0
 40
1.0
 40
2.0
 40
2.0
 40
2.0
 40
3.0
 40
3.0
 40
3.0
 40
4.0
 40
4.0
 40
4.0
 40
5.0
 40
5.0
 40
5.0
 40
6.0
 40
6.0
 40
6.0
 40
7.0
 40
7.0
 40
7.0
 40
8.0
 40
8.0
 40
8.0
 40
9.0
 40
9.0
 40
9.0
 40
10.0
 40
10.0
 40
10.0
 40
11.0
 40
11.0
 40
11.0
 40
12.0
 40
12.0
 40
12.0
 40
13.0
 40
13.0
 40
13.0
 40
14.0
 40
14.0
 40
14.0
 40
15.0
 40
15.0
 40
15.0
 40
15.0
 10
1015.3090048624
 20
33.6939300038
 30
0.0
 10
1015.3090048624
 20
33.6939300038
 30
0.0
 10
1015.0134519552
 20
33.6939300038
 30
0.0
 10
1015.0134519552
 20
33.6939300038
 30
0.0
 10
1015.0134519552
 20
33.6939300038
 30
0.0
 10
1015.0134519552
 20
33.4308285964
 30
0.0
 10
1015.0134519552
 20
33.4308285964
 30
0.0
 10
1015.0134519552
 20
33.4308285964
 30
0.0
 10
1015.0071710197
 20
33.4308285964
 30
0.0
 10
1015.0071710197
 20
33.4308285964
 30
0.0
 10
1014.8853906601
 20
33.6213503052
 30
0.0
 10
1014.7014988276
 20
33.7392923154
 30
0.0
 10
1014.4711978609
 20
33.7392923154
 30
0.0
 10
1014.0280429705
 20
33.7392923154
 30
0.0
 10
1013.7492392245
 20
33.355457371
 30
0.0
 10
1013.7492392245
 20
32.9346346955
 30
0.0
 10
1013.7492392245
 20
32.4949692137
 30
0.0
 10
1014.011991691
 20
32.1041554521
 30
0.0
 10
1014.4851554953
 20
32.1041554521
 30
0.0
 10
1014.7014988276
 20
32.1041554521
 30
0.0
 10
1014.8881821869
 20
32.2220974623
 30
0.0
 10
1015.0071710197
 20
32.3965678916
 30
0.0
 10
1015.0071710197
 20
32.3965678916
 30
0.0
 10
1015.0134519552
 20
32.3965678916
 30
0.0
 10
1015.0134519552
 20
32.3965678916
 30
0.0
 10
1015.0134519552
 20
32.3965678916
 30
0.0
 10
1015.0134519552
 20
32.1041554521
 30
0.0
 10
1015.0134519552
 20
32.1041554521
 30
0.0
 10
1015.0134519552
 20
31.788712916
 30
0.0
 10
1014.9380807297
 20
31.5395691429
 30
0.0
 10
1014.5737864734
 20
31.5395691429
 30
0.0
 10
1014.3040551897
 20
31.5395691429
 30
0.0
 10
1014.1138824218
 20
31.697290411
 30
0.0
 10
1014.1138824218
 20
31.9722558076
 30
0.0
 10
1014.1138824218
 20
31.9722558076
 30
0.0
 10
1013.8183295145
 20
31.9722558076
 30
0.0
 10
1013.8183295145
 20
31.9722558076
 30
0.0
 10
1013.8249593908
 20
31.5395691429
 30
0.0
 10
1014.133074169
 20
31.2771656173
 30
0.0
 10
1014.5601777799
 20
31.2771656173
 30
0.0
 10
1015.1575645298
 20
31.2771656173
 30
0.0
 10
1015.3090048624
 20
31.6575111531
 30
0.0
 10
1015.3090048624
 20
32.1865054947
 30
0.0
 10
1015.3090048624
 20
32.1865054947
 30
0.0
 10
1015.3090048624
 20
33.6939300038
 30
0.0
 10
1015.3090048624
 20
33.6939300038
 30
0.0
  0
SPLINE
  5
258
330
22B
100
AcDbEntity
  8
0
  6
Continuous
 62
     7
100
AcDbSpline
 70
     3
 71
     3
 72
    44
 73
    40
 74
     0
 42
0.000000001
 43
0.0000001
 40
0.0
 40
0.0
 40
0.0
 40
0.0
 40
1.0
 40
1.0
 40
1.0
 40
2.0
 40
2.0
 40
2.0
 40
3.0
 40
3.0
 40
3.0
 40
4.0
 40
4.0
 40
4.0
 40
5.0
 40
5.0
 40
5.0
 40
6.0
 40
6.0
 40
6.0
 40
7.0
 40
7.0
 40
7.0
 40
8.0
 40
8.0
 40
8.0
 40
9.0
 40
9.0
 40
9.0
 40
10.0
 40
10.0
 40
10.0
 40
11.0
 40
11.0
 40
11.0
 40
12.0
 40
12.0
 40
12.0
 40
13.0
 40
13.0
 40
13.0
 40
13.0
 10
1017.4009053096
 20
35.0073433955
 30
0.0
 10
1017.4009053096
 20
35.0073433955
 30
0.0
 10
1017.4009053096
 20
32.1564965809
 30
0.0
 10
1017.4009053096
 20
32.1564965809
 30
0.0
 10
1017.4009053096
 20
32.1564965809
 30
0.0
 10
1017.6961092759
 20
32.1564965809
 30
0.0
 10
1017.6961092759
 20
32.1564965809
 30
0.0
 10
1017.6961092759
 20
32.1564965809
 30
0.0
 10
1017.6961092759
 20
32.8627528787
 30
0.0
 10
1017.6961092759
 20
32.8627528787
 30
0.0
 10
1017.6961092759
 20
33.1426034473
 30
0.0
 10
1017.6961092759
 20
33.4768887898
 30
0.0
 10
1018.0764548118
 20
33.4768887898
 30
0.0
 10
1018.3789865362
 20
33.4768887898
 30
0.0
 10
1018.4149274446
 20
33.2996268336
 30
0.0
 10
1018.4149274446
 20
33.0379211897
 30
0.0
 10
1018.4149274446
 20
33.0379211897
 30
0.0
 10
1018.4149274446
 20
32.1564965809
 30
0.0
 10
1018.4149274446
 20
32.1564965809
 30
0.0
 10
1018.4149274446
 20
32.1564965809
 30
0.0
 10
1018.7108292927
 20
32.1564965809
 30
0.0
 10
1018.7108292927
 20
32.1564965809
 30
0.0
 10
1018.7108292927
 20
32.1564965809
 30
0.0
 10
1018.7108292927
 20
33.0728152755
 30
0.0
 10
1018.7108292927
 20
33.0728152755
 30
0.0
 10
1018.7108292927
 20
33.4468798759
 30
0.0
 10
1018.5988192771
 20
33.7399901971
 30
0.0
 10
1018.1654347307
 20
33.7399901971
 30
0.0
 10
1017.9791003122
 20
33.7399901971
 30
0.0
 10
1017.7948595389
 20
33.6513592191
 30
0.0
 10
1017.7023902114
 20
33.4873570155
 30
0.0
 10
1017.7023902114
 20
33.4873570155
 30
0.0
 10
1017.6961092759
 20
33.4873570155
 30
0.0
 10
1017.6961092759
 20
33.4873570155
 30
0.0
 10
1017.6961092759
 20
33.4873570155
 30
0.0
 10
1017.6961092759
 20
35.0073433955
 30
0.0
 10
1017.6961092759
 20
35.0073433955
 30
0.0
 10
1017.6961092759
 20
35.0073433955
 30
0.0
 10
1017.4009053096
 20
35.0073433955
 30
0.0
 10
1017.4009053096
 20
35.0073433955
 30
0.0
  0
LWPOLYLINE
  5
259
330
22B
100
AcDbEntity
  8
0
  6
Continuous
 62
     7
100
AcDbPolyline
 90
        2
 70
     0
 43
0.266667
 10
1021.163884
 20
33.417569
 10
1021.452458
 20
33.417569
  0
LWPOLYLINE
  5
25A
330
22B
100
AcDbEntity
  8
0
  6
Continuous
 62
     7
100
AcDbPolyline
 90
        2
 70
     0
 43
0.266667
 10
1021.452458
 20
33.417569
 10
1021.452458
 20
33.693232
  0
LWPOLYLINE
  5
25B
330
22B
100
AcDbEntity
  8
0
  6
Continuous
 62
     7
100
AcDbPolyline
 90
        2
 70
     0
 43
0.266667
 10
1021.452458
 20
33.693232
 10
1021.163884
 20
33.693232
  0
LWPOLYLINE
  5
25C
330
22B
100
AcDbEntity
  8
0
  6
Continuous
 62
     7
100
AcDbPolyline
 90
        2
 70
     0
 43
0.266667
 10
1021.163884
 20
33.693232
 10
1021.163884
 20
34.280849
  0
LWPOLYLINE
  5
25D
330
22B
100
AcDbEntity
  8
0
  6
Continuous
 62
     7
100
AcDbPolyline
 90
        2
 70
     0
 43
0.266667
 10
1021.163884
 20
34.280849
 10
1020.868331
 20
34.280849
  0
LWPOLYLINE
  5
25E
330
22B
100
AcDbEntity
  8
0
  6
Continuous
 62
     7
100
AcDbPolyline
 90
        2
 70
     0
 43
0.266667
 10
1020.868331
 20
34.280849
 10
1020.868331
 20
33.693232
  0
LWPOLYLINE
  5
25F
330
22B
100
AcDbEntity
  8
0
  6
Continuous
 62
     7
100
AcDbPolyline
 90
        2
 70
     0
 43
0.266667
 10
1020.868331
 20
33.693232
 10
1020.707469
 20
33.693232
  0
LWPOLYLINE
  5
260
330
22B
100
AcDbEntity
  8
0
  6
Continuous
 62
     7
100
AcDbPolyline
 90
        2
 70
     0
 43
0.266667
 10
1020.707469
 20
33.693232
 10
1020.707469
 20
33.417569
  0
LWPOLYLINE
  5
261
330
22B
100
AcDbEntity
  8
0
  6
Continuous
 62
     7
100
AcDbPolyline
 90
        2
 70
     0
 43
0.266667
 10
1020.707469
 20
33.417569
 10
1020.868331
 20
33.417569
  0
LWPOLYLINE
  5
262
330
22B
100
AcDbEntity
  8
0
  6
Continuous
 62
     7
100
AcDbPolyline
 90
        2
 70
     0
 43
0.266667
 10
1020.868331
 20
33.417569
 10
1020.868331
 20
32.156497
  0
LWPOLYLINE
  5
263
330
22B
100
AcDbEntity
  8
0
  6
Continuous
 62
     7
100
AcDbPolyline
 90
        2
 70
     0
 43
0.266667
 10
1020.868331
 20
32.156497
 10
1021.163884
 20
32.156497
  0
LWPOLYLINE
  5
264
330
22B
100
AcDbEntity
  8
0
  6
Continuous
 62
     7
100
AcDbPolyline
 90
        2
 70
     0
 43
0.266667
 10
1021.163884
 20
32.156497
 10
1021.163884
 20
33.417569
  0
SPLINE
  5
265
330
22B
100
AcDbEntity
  8
0
  6
Continuous
 62
     7
100
AcDbSpline
 70
     3
 71
     3
 72
    20
 73
    16
 74
     0
 42
0.000000001
 43
0.0000001
 40
0.0
 40
0.0
 40
0.0
 40
0.0
 40
1.0
 40
1.0
 40
1.0
 40
2.0
 40
2.0
 40
2.0
 40
3.0
 40
3.0
 40
3.0
 40
4.0
 40
4.0
 40
4.0
 40
5.0
 40
5.0
 40
5.0
 40
5.0
 10
1004.8732306048
 20
45.9710651721
 30
0.0
 10
1004.8732306048
 20
45.9710651721
 30
0.0
 10
1007.9617061441
 20
42.1983166091
 30
0.0
 10
1007.9617061441
 20
42.1983166091
 30
0.0
 10
1007.0928434063
 20
41.3287559895
 30
0.0
 10
1006.0570124676
 20
40.3475342952
 30
0.0
 10
1004.7620929414
 20
40.3475342952
 30
0.0
 10
1003.4307090955
 20
40.3475342952
 30
0.0
 10
1002.1729517707
 20
41.5869722249
 30
0.0
 10
1002.1729517707
 20
42.919228423
 30
0.0
 10
1002.1729517707
 20
44.251484621
 30
0.0
 10
1003.7447558682
 20
45.1936249392
 30
0.0
 10
1004.7067858153
 20
45.8601019791
 30
0.0
 10
1004.7067858153
 20
45.8601019791
 30
0.0
 10
1004.8732306048
 20
45.9710651721
 30
0.0
 10
1004.8732306048
 20
45.9710651721
 30
0.0
  0
SPLINE
  5
266
330
22B
100
AcDbEntity
  8
0
  6
Continuous
 62
     7
100
AcDbSpline
 70
     3
 71
     3
 72
    23
 73
    19
 74
     0
 42
0.000000001
 43
0.0000001
 40
0.0
 40
0.0
 40
0.0
 40
0.0
 40
1.0
 40
1.0
 40
1.0
 40
2.0
 40
2.0
 40
2.0
 40
3.0
 40
3.0
 40
3.0
 40
4.0
 40
4.0
 40
4.0
 40
5.0
 40
5.0
 40
5.0
 40
6.0
 40
6.0
 40
6.0
 40
6.0
 10
1005.2431079149
 20
48.1547370651
 30
0.0
 10
1005.2431079149
 20
48.1547370651
 30
0.0
 10
1004.7811102182
 20
48.7458428795
 30
0.0
 10
1004.7811102182
 20
48.7458428795
 30
0.0
 10
1004.3733728249
 20
49.2633221728
 30
0.0
 10
1003.9481883887
 20
49.7813248774
 30
0.0
 10
1003.9481883887
 20
50.4839172961
 30
0.0
 10
1003.9481883887
 20
51.3721462516
 30
0.0
 10
1004.6699725547
 20
51.9637754773
 30
0.0
 10
1005.5018475616
 20
51.9637754773
 30
0.0
 10
1006.4268897777
 20
51.9637754773
 30
0.0
 10
1007.1298311373
 20
51.4274533777
 30
0.0
 10
1007.1298311373
 20
50.4474529764
 30
0.0
 10
1007.1298311373
 20
49.4297669623
 30
0.0
 10
1006.168150131
 20
48.8562826613
 30
0.0
 10
1005.4653832418
 20
48.3019901074
 30
0.0
 10
1005.4653832418
 20
48.3019901074
 30
0.0
 10
1005.2431079149
 20
48.1547370651
 30
0.0
 10
1005.2431079149
 20
48.1547370651
 30
0.0
  0
SPLINE
  5
267
330
22B
100
AcDbEntity
  8
0
  6
Continuous
 62
     7
100
AcDbSpline
 70
     3
 71
     3
 72
    50
 73
    46
 74
     0
 42
0.000000001
 43
0.0000001
 40
0.0
 40
0.0
 40
0.0
 40
0.0
 40
1.0
 40
1.0
 40
1.0
 40
2.0
 40
2.0
 40
2.0
 40
3.0
 40
3.0
 40
3.0
 40
4.0
 40
4.0
 40
4.0
 40
5.0
 40
5.0
 40
5.0
 40
6.0
 40
6.0
 40
6.0
 40
7.0
 40
7.0
 40
7.0
 40
8.0
 40
8.0
 40
8.0
 40
9.0
 40
9.0
 40
9.0
 40
10.0
 40
10.0
 40
10.0
 40
11.0
 40
11.0
 40
11.0
 40
12.0
 40
12.0
 40
12.0
 40
13.0
 40
13.0
 40
13.0
 40
14.0
 40
14.0
 40
14.0
 40
15.0
 40
15.0
 40
15.0
 40
15.0
 10
1010.5145574655
 20
39.0899514409
 30
0.0
 10
1010.5145574655
 20
39.0899514409
 30
0.0
 10
1012.6601948049
 20
39.0899514409
 30
0.0
 10
1012.6601948049
 20
39.0899514409
 30
0.0
 10
1012.6601948049
 20
39.0899514409
 30
0.0
 10
1010.1628250801
 20
42.1794738028
 30
0.0
 10
1010.1628250801
 20
42.1794738028
 30
0.0
 10
1010.1628250801
 20
42.1794738028
 30
0.0
 10
1011.8646096473
 20
44.1761133956
 30
0.0
 10
1011.8646096473
 20
44.1761133956
 30
0.0
 10
1011.8646096473
 20
44.1761133956
 30
0.0
 10
1010.7549777171
 20
45.3241288203
 30
0.0
 10
1010.7549777171
 20
45.3241288203
 30
0.0
 10
1010.7549777171
 20
45.3241288203
 30
0.0
 10
1009.1275175526
 20
43.4370566571
 30
0.0
 10
1009.1275175526
 20
43.4370566571
 30
0.0
 10
1009.1275175526
 20
43.4370566571
 30
0.0
 10
1006.2236317275
 20
46.950891103
 30
0.0
 10
1006.2236317275
 20
46.950891103
 30
0.0
 10
1007.3883963135
 20
47.8016089162
 30
0.0
 10
1008.7572913017
 20
48.8562826613
 30
0.0
 10
1008.7572913017
 20
50.4280867587
 30
0.0
 10
1008.7572913017
 20
52.2596773254
 30
0.0
 10
1007.2400964486
 20
53.3323215247
 30
0.0
 10
1005.5397076447
 20
53.3323215247
 30
0.0
 10
1003.7084660189
 20
53.3323215247
 30
0.0
 10
1002.3205537539
 20
52.2040212585
 30
0.0
 10
1002.3205537539
 20
50.2804847756
 30
0.0
 10
1002.3205537539
 20
49.0970518537
 30
0.0
 10
1003.0610062558
 20
48.061220915
 30
0.0
 10
1003.8558935316
 20
47.2286480264
 30
0.0
 10
1003.8558935316
 20
47.2286480264
 30
0.0
 10
1002.9866818529
 20
46.5998565993
 30
0.0
 10
1002.9866818529
 20
46.5998565993
 30
0.0
 10
1001.655298007
 20
45.638175593
 30
0.0
 10
1000.5447937246
 20
44.6764945868
 30
0.0
 10
1000.5447937246
 20
42.9010834983
 30
0.0
 10
1000.5447937246
 20
40.496183101
 30
0.0
 10
1002.4875219547
 20
38.7940495928
 30
0.0
 10
1004.8175745379
 20
38.7940495928
 30
0.0
 10
1006.4640519791
 20
38.7940495928
 30
0.0
 10
1007.9432122786
 20
39.7382835561
 30
0.0
 10
1008.9977115533
 20
40.9763257224
 30
0.0
 10
1008.9977115533
 20
40.9763257224
 30
0.0
 10
1010.5145574655
 20
39.0899514409
 30
0.0
 10
1010.5145574655
 20
39.0899514409
 30
0.0
  0
LINE
  5
268
330
22B
100
AcDbEntity
  8
0
  6
Continuous
 62
     7
100
AcDbLine
 10
991.585039
 20
36.388451
 30
0.0
 11
1021.470254
 21
36.388451
 31
0.0
  0
LINE
  5
269
330
22B
100
AcDbEntity
  8
0
  6
Continuous
 62
     7
100
AcDbLine
 10
1021.470254
 20
36.388451
 30
0.0
 11
1021.470254
 21
66.273666
 31
0.0
  0
LINE
  5
26A
330
22B
100
AcDbEntity
  8
0
  6
Continuous
 62
     7
100
AcDbLine
 10
1021.470254
 20
66.273666
 30
0.0
 11
991.585039
 21
66.273666
 31
0.0
  0
LINE
  5
26B
330
22B
100
AcDbEntity
  8
0
  6
Continuous
 62
     7
100
AcDbLine
 10
991.585039
 20
66.273666
 30
0.0
 11
991.585039
 21
36.388451
 31
0.0
  0
ENDBLK
  5
26C
330
22B
100
AcDbEntity
  8
0
  6
ByBlock
 62
     0
100
AcDbBlockEnd
  0
BLOCK
  5
292
330
22C
100
AcDbEntity
  8
0
100
AcDbBlockBegin
  2
*T5
 70
     1
 10
0.0
 20
0.0
 30
0.0
  3
*T5
  1
*T5
  0
LINE
  5
293
330
22C
100
AcDbEntity
  8
0
  6
Continuous
 62
     2
100
AcDbLine
 10
0.0
 20
0.0
 30
0.0
 11
120.0
 21
0.0
 31
0.0
  0
LINE
  5
294
330
22C
100
AcDbEntity
  8
0
  6
Continuous
 62
     2
100
AcDbLine
 10
0.0
 20
0.0
 30
0.0
 11
0.0
 21
-53.333333
 31
0.0
  0
LINE
  5
295
330
22C
100
AcDbEntity
  8
0
  6
Continuous
 62
     2
100
AcDbLine
 10
40.0
 20
-8.0
 30
0.0
 11
120.0
 21
-8.0
 31
0.0
  0
LINE
  5
296
330
22C
100
AcDbEntity
  8
0
  6
Continuous
 62
     2
100
AcDbLine
 10
40.0
 20
-16.0
 30
0.0
 11
120.0
 21
-16.0
 31
0.0
  0
LINE
  5
297
330
22C
100
AcDbEntity
  8
0
  6
Continuous
 62
     2
100
AcDbLine
 10
40.0
 20
-29.333333
 30
0.0
 11
120.0
 21
-29.333333
 31
0.0
  0
LINE
  5
298
330
22C
100
AcDbEntity
  8
0
  6
Continuous
 62
     2
100
AcDbLine
 10
0.0
 20
-36.0
 30
0.0
 11
120.0
 21
-36.0
 31
0.0
  0
LINE
  5
299
330
22C
100
AcDbEntity
  8
0
  6
Continuous
 62
     2
100
AcDbLine
 10
0.0
 20
-53.333333
 30
0.0
 11
120.0
 21
-53.333333
 31
0.0
  0
LINE
  5
29A
330
22C
100
AcDbEntity
  8
0
  6
Continuous
 62
     2
100
AcDbLine
 10
40.0
 20
0.0
 30
0.0
 11
40.0
 21
-36.0
 31
0.0
  0
LINE
  5
29B
330
22C
100
AcDbEntity
  8
0
  6
Continuous
 62
     2
100
AcDbLine
 10
93.333333
 20
0.0
 30
0.0
 11
93.333333
 21
-16.0
 31
0.0
  0
LINE
  5
29C
330
22C
100
AcDbEntity
  8
0
  6
Continuous
 62
     2
100
AcDbLine
 10
120.0
 20
0.0
 30
0.0
 11
120.0
 21
-53.333333
 31
0.0
  0
MTEXT
  5
29D
330
22C
100
AcDbEntity
  8
9_SOLID
  6
Continuous
 62
     2
100
AcDbMText
 10
41.983333
 20
-2.0
 30
0.0
 40
4.0
 41
57.333333
 46
0.0
 71
     1
 72
     1
  1
5B0_C_054
 73
     1
 44
0.9
  0
MTEXT
  5
29E
330
22C
100
AcDbEntity
  8
9_SOLID
  6
Continuous
 62
     2
100
AcDbMText
 10
95.316667
 20
-2.333333
 30
0.0
 40
4.666667
 41
38.444444
 46
0.0
 71
     1
 72
     1
  1
Rev:01
 73
     1
 44
0.9
  0
MTEXT
  5
29F
330
22C
100
AcDbEntity
  8
9_SOLID
  6
Continuous
 62
     2
100
AcDbMText
 10
41.983333
 20
-10.333333
 30
0.0
 40
4.666667
 41
50.444444
 46
0.0
 71
     1
 72
     1
  1
Scale:1:1
 73
     1
 44
0.9
  0
MTEXT
  5
2A0
330
22C
100
AcDbEntity
  8
9_SOLID
  6
Continuous
 62
     2
100
AcDbMText
 10
95.316667
 20
-9.666667
 30
0.0
 40
4.666667
 41
15.111111
 46
0.0
 71
     1
 72
     1
  1
A1
 73
     1
 44
0.9
  0
MTEXT
  5
2A1
330
22C
100
AcDbEntity
  8
9_SOLID
  6
Continuous
 62
     2
100
AcDbMText
 10
41.983333
 20
-20.333333
 30
0.0
 40
4.666667
 41
62.888889
 46
0.0
 71
     1
 72
     1
  1
TREVI 1.0
 73
     1
 44
0.9
  0
MTEXT
  5
2A2
330
22C
100
AcDbEntity
  8
9_SOLID
  6
Continuous
 62
     2
100
AcDbMText
 10
41.983333
 20
-31.0
 30
0.0
 40
3.333333
 41
25.873016
 46
0.0
 71
     1
 72
     1
  1
DATE:
 73
     1
 44
0.9
  0
MTEXT
  5
2A3
330
22C
100
AcDbEntity
  8
9_SOLID
  6
Continuous
 62
     2
100
AcDbMText
 10
1.983333
 20
-36.416667
 30
0.0
 40
3.0
 41
239.285714
 46
0.0
 71
     1
 72
     1
  1
Any integral or partial reproductions are prohibited \Pwithout prior authorisation of L {\Ftxt.shx;\W0.190476;\H3.000000; }& L Luce & Light s.r.l., \Pin accordance with the law in force. \PAll rights reserved.
 73
     1
 44
0.9
  0
ENDBLK
  5
2A4
330
22C
100
AcDbEntity
  8
0
  6
ByBlock
 62
     0
100
AcDbBlockEnd
  0
ENDSEC
  0
SECTION
  2
ENTITIES
  0
LINE
  5
2A5
330
225
100
AcDbEntity
  8
0
  6
Continuous
 62
     7
100
AcDbLine
 10
0.0
 20
0.0
 30
0.0
 11
1121.333333
 21
0.0
 31
0.0
  0
LINE
  5
2A6
330
225
100
AcDbEntity
  8
0
  6
Continuous
 62
     7
100
AcDbLine
 10
1121.333333
 20
0.0
 30
0.0
 11
1121.333333
 21
792.0
 31
0.0
  0
LINE
  5
2A7
330
225
100
AcDbEntity
  8
0
  6
Continuous
 62
     7
100
AcDbLine
 10
0.0
 20
792.0
 30
0.0
 11
1121.333333
 21
792.0
 31
0.0
  0
LINE
  5
2A8
330
225
100
AcDbEntity
  8
0
  6
Continuous
 62
     7
100
AcDbLine
 10
0.0
 20
0.0
 30
0.0
 11
0.0
 21
792.0
 31
0.0
  0
ARC
  5
2A9
330
225
100
AcDbEntity
  8
0
  6
Continuous
 62
     2
100
AcDbCircle
 10
705.135029
 20
501.794461
 30
0.0
 40
2.0
100
AcDbArc
 50
270.0
 51
359.999483
  0
ARC
  5
2AA
330
225
100
AcDbEntity
  8
0
  6
Continuous
 62
     2
100
AcDbCircle
 10
705.135029
 20
501.794461
 30
0.0
 40
2.0
100
AcDbArc
 50
359.999483
 51
90.0
  0
ARC
  5
2AB
330
225
100
AcDbEntity
  8
0
  6
Continuous
 62
     2
100
AcDbCircle
 10
705.135029
 20
501.794461
 30
0.0
 40
2.0
100
AcDbArc
 50
90.0
 51
179.999483
  0
ARC
  5
2AC
330
225
100
AcDbEntity
  8
0
  6
Continuous
 62
     2
100
AcDbCircle
 10
705.136985
 20
501.79471
 30
0.0
 40
2.0019619345
100
AcDbArc
 50
180.006588
 51
194.935849
  0
ARC
  5
2AD
330
225
100
AcDbEntity
  8
0
  6
Continuous
 62
     2
100
AcDbCircle
 10
705.135046
 20
501.79466
 30
0.0
 40
2.0001989177
100
AcDbArc
 50
255.058247
 51
269.999491
  0
ARC
  5
2AE
330
225
100
AcDbEntity
  8
0
  6
Continuous
 62
     2
100
AcDbCircle
 10
130.135029
 20
501.794461
 30
0.0
 40
2.0
100
AcDbArc
 50
90.0
 51
179.972511
  0
ARC
  5
2AF
330
225
100
AcDbEntity
  8
0
  6
Continuous
 62
     2
100
AcDbCircle
 10
130.136109
 20
501.794598
 30
0.0
 40
2.0010833018
100
AcDbArc
 50
179.976442
 51
194.961231
  0
ARC
  5
2B0
330
225
100
AcDbEntity
  8
0
  6
Continuous
 62
     2
100
AcDbCircle
 10
130.135044
 20
501.794638
 30
0.0
 40
2.0001762138
100
AcDbArc
 50
255.062588
 51
269.999552
  0
ARC
  5
2B1
330
225
100
AcDbEntity
  8
0
  6
Continuous
 62
     2
100
AcDbCircle
 10
130.135029
 20
501.794461
 30
0.0
 40
2.0
100
AcDbArc
 50
270.0
 51
359.972511
  0
ARC
  5
2B2
330
225
100
AcDbEntity
  8
0
  6
Continuous
 62
     2
100
AcDbCircle
 10
130.135029
 20
501.794461
 30
0.0
 40
2.0
100
AcDbArc
 50
359.972511
 51
90.0
  0
ARC
  5
2B3
330
225
100
AcDbEntity
  8
7_ALL_FEATURES
  6
Continuous
 62
     7
100
AcDbCircle
 10
130.135029
 20
501.794461
 30
0.0
 40
1.6999999391
100
AcDbArc
 50
90.0
 51
270.0
  0
ARC
  5
2B4
330
225
100
AcDbEntity
  8
7_ALL_FEATURES
  6
Continuous
 62
     7
100
AcDbCircle
 10
130.135029
 20
501.794461
 30
0.0
 40
1.3
100
AcDbArc
 50
0.0
 51
180.0
  0
ARC
  5
2B5
330
225
100
AcDbEntity
  8
7_ALL_FEATURES
  6
Continuous
 62
     7
100
AcDbCircle
 10
130.135029
 20
501.794461
 30
0.0
 40
1.3
100
AcDbArc
 50
180.0
 51
360.0
  0
ARC
  5
2B6
330
225
100
AcDbEntity
  8
7_ALL_FEATURES
  6
Continuous
 62
     7
100
AcDbCircle
 10
130.135029
 20
501.794461
 30
0.0
 40
1.6999999391
100
AcDbArc
 50
270.0
 51
90.0
  0
ARC
  5
2B7
330
225
100
AcDbEntity
  8
7_ALL_FEATURES
  6
Continuous
 62
     7
100
AcDbCircle
 10
705.135029
 20
501.794461
 30
0.0
 40
1.6999999391
100
AcDbArc
 50
90.0
 51
270.0
  0
ARC
  5
2B8
330
225
100
AcDbEntity
  8
7_ALL_FEATURES
  6
Continuous
 62
     7
100
AcDbCircle
 10
705.135029
 20
501.794461
 30
0.0
 40
1.3
100
AcDbArc
 50
0.0
 51
180.0
  0
ARC
  5
2B9
330
225
100
AcDbEntity
  8
7_ALL_FEATURES
  6
Continuous
 62
     7
100
AcDbCircle
 10
705.135029
 20
501.794461
 30
0.0
 40
1.3
100
AcDbArc
 50
180.0
 51
360.0
  0
ARC
  5
2BA
330
225
100
AcDbEntity
  8
7_ALL_FEATURES
  6
Continuous
 62
     7
100
AcDbCircle
 10
705.135029
 20
501.794461
 30
0.0
 40
1.6999999391
100
AcDbArc
 50
270.0
 51
90.0
  0
LINE
  5
2BB
330
225
100
AcDbEntity
  8
7_ALL_FEATURES
  6
Continuous
 62
     7
100
AcDbLine
 10
115.385029
 20
445.094461
 30
0.0
 11
112.135029
 21
445.094461
 31
0.0
  0
LINE
  5
2BC
330
225
100
AcDbEntity
  8
7_ALL_FEATURES
  6
Continuous
 62
     7
100
AcDbLine
 10
115.385029
 20
460.993098
 30
0.0
 11
115.385029
 21
445.094461
 31
0.0
  0
LINE
  5
2BD
330
225
100
AcDbEntity
  8
7_ALL_FEATURES
  6
Continuous
 62
     7
100
AcDbLine
 10
108.885029
 20
460.993098
 30
0.0
 11
108.885029
 21
445.094461
 31
0.0
  0
LINE
  5
2BE
330
225
100
AcDbEntity
  8
7_ALL_FEATURES
  6
Continuous
 62
     7
100
AcDbLine
 10
112.135029
 20
445.094461
 30
0.0
 11
108.885029
 21
445.094461
 31
0.0
  0
LINE
  5
2BF
330
225
100
AcDbEntity
  8
7_ALL_FEATURES
  6
Continuous
 62
     7
100
AcDbLine
 10
115.385029
 20
465.442038
 30
0.0
 11
115.385029
 21
460.993098
 31
0.0
  0
LINE
  5
2C0
330
225
100
AcDbEntity
  8
7_ALL_FEATURES
  6
Continuous
 62
     7
100
AcDbLine
 10
108.885029
 20
465.442038
 30
0.0
 11
108.885029
 21
460.993098
 31
0.0
  0
LINE
  5
2C1
330
225
100
AcDbEntity
  8
7_ALL_FEATURES
  6
Continuous
 62
     7
100
AcDbLine
 10
115.385029
 20
469.86629
 30
0.0
 11
115.385029
 21
465.442038
 31
0.0
  0
LINE
  5
2C2
330
225
100
AcDbEntity
  8
7_ALL_FEATURES
  6
Continuous
 62
     7
100
AcDbLine
 10
108.885029
 20
475.094461
 30
0.0
 11
108.885029
 21
469.86629
 31
0.0
  0
LINE
  5
2C3
330
225
100
AcDbEntity
  8
7_ALL_FEATURES
  6
Continuous
 62
     7
100
AcDbLine
 10
108.885029
 20
469.86629
 30
0.0
 11
108.885029
 21
465.442038
 31
0.0
  0
LINE
  5
2C4
330
225
100
AcDbEntity
  8
7_ALL_FEATURES
  6
Continuous
 62
     7
100
AcDbLine
 10
115.385029
 20
475.094461
 30
0.0
 11
115.385029
 21
469.86629
 31
0.0
  0
LINE
  5
2C5
330
225
100
AcDbEntity
  8
7_ALL_FEATURES
  6
Continuous
 62
     9
100
AcDbLine
 10
115.385029
 20
460.993098
 30
0.0
 11
112.135029
 21
460.993098
 31
0.0
  0
LINE
  5
2C6
330
225
100
AcDbEntity
  8
7_ALL_FEATURES
  6
Continuous
 62
     9
100
AcDbLine
 10
112.135029
 20
460.993098
 30
0.0
 11
108.885029
 21
460.993098
 31
0.0
  0
SPLINE
  5
2C7
330
225
100
AcDbEntity
  8
7_ALL_FEATURES
  6
Continuous
 62
     9
100
AcDbSpline
 70
     0
 71
     3
 72
    15
 73
    11
 74
     0
 42
0.000000001
 43
0.0000001
 40
0.0
 40
0.0
 40
0.0
 40
0.0
 40
0.0705242952
 40
0.1528910079
 40
0.2535373754
 40
0.3739532285
 40
0.5126342166
 40
0.6662509431
 40
0.8304330182
 40
1.0
 40
1.0
 40
1.0
 40
1.0
 10
115.385028624
 20
465.4420379319
 30
0.0
 10
115.385028624
 20
465.3540751656
 30
0.0
 10
115.3336451557
 20
465.1620085955
 30
0.0
 10
115.1311507648
 20
464.9117855732
 30
0.0
 10
114.8223055723
 20
464.688304225
 30
0.0
 10
114.4157812746
 20
464.4942799875
 30
0.0
 10
113.9250125756
 20
464.3352478738
 30
0.0
 10
113.3671816886
 20
464.2169831573
 30
0.0
 10
112.762996594
 20
464.1441488752
 30
0.0
 10
112.3465242617
 20
464.1278174883
 30
0.0
 10
112.135028624
 20
464.1278174883
 30
0.0
  0
SPLINE
  5
2C8
330
225
100
AcDbEntity
  8
7_ALL_FEATURES
  6
Continuous
 62
     9
100
AcDbSpline
 70
     0
 71
     3
 72
    15
 73
    11
 74
     0
 42
0.000000001
 43
0.0000001
 40
0.0
 40
0.0
 40
0.0
 40
0.0
 40
0.1695669818
 40
0.3337490569
 40
0.4873657834
 40
0.6260467715
 40
0.7464626246
 40
0.8471089921
 40
0.9294757048
 40
1.0
 40
1.0
 40
1.0
 40
1.0
 10
112.135028624
 20
468.5520699154
 30
0.0
 10
111.9235329862
 20
468.5520699154
 30
0.0
 10
111.5070606539
 20
468.5684013024
 30
0.0
 10
110.9028755593
 20
468.6412355844
 30
0.0
 10
110.3450446723
 20
468.759500301
 30
0.0
 10
109.8542759734
 20
468.9185324146
 30
0.0
 10
109.4477516756
 20
469.1125566521
 30
0.0
 10
109.1389064831
 20
469.3360380004
 30
0.0
 10
108.9364120922
 20
469.5862610227
 30
0.0
 10
108.885028624
 20
469.7783275928
 30
0.0
 10
108.885028624
 20
469.866290359
 30
0.0
  0
SPLINE
  5
2C9
330
225
100
AcDbEntity
  8
7_ALL_FEATURES
  6
Continuous
 62
     9
100
AcDbSpline
 70
     0
 71
     3
 72
    15
 73
    11
 74
     0
 42
0.000000001
 43
0.0000001
 40
0.0
 40
0.0
 40
0.0
 40
0.0
 40
0.1695669818
 40
0.3337490569
 40
0.4873657834
 40
0.6260467715
 40
0.7464626246
 40
0.8471089921
 40
0.9294757048
 40
1.0
 40
1.0
 40
1.0
 40
1.0
 10
112.135028624
 20
464.1278174883
 30
0.0
 10
111.9235329862
 20
464.1278174883
 30
0.0
 10
111.5070606539
 20
464.1441488752
 30
0.0
 10
110.9028755593
 20
464.2169831573
 30
0.0
 10
110.3450446723
 20
464.3352478738
 30
0.0
 10
109.8542759734
 20
464.4942799875
 30
0.0
 10
109.4477516756
 20
464.688304225
 30
0.0
 10
109.1389064831
 20
464.9117855732
 30
0.0
 10
108.9364120922
 20
465.1620085955
 30
0.0
 10
108.885028624
 20
465.3540751656
 30
0.0
 10
108.885028624
 20
465.4420379319
 30
0.0
  0
SPLINE
  5
2CA
330
225
100
AcDbEntity
  8
7_ALL_FEATURES
  6
Continuous
 62
     9
100
AcDbSpline
 70
     0
 71
     3
 72
    15
 73
    11
 74
     0
 42
0.000000001
 43
0.0000001
 40
0.0
 40
0.0
 40
0.0
 40
0.0
 40
0.0705242952
 40
0.1528910079
 40
0.2535373754
 40
0.3739532285
 40
0.5126342166
 40
0.6662509431
 40
0.8304330182
 40
1.0
 40
1.0
 40
1.0
 40
1.0
 10
115.385028624
 20
469.866290359
 30
0.0
 10
115.385028624
 20
469.7783275928
 30
0.0
 10
115.3336451557
 20
469.5862610227
 30
0.0
 10
115.1311507648
 20
469.3360380004
 30
0.0
 10
114.8223055723
 20
469.1125566521
 30
0.0
 10
114.4157812746
 20
468.9185324146
 30
0.0
 10
113.9250125756
 20
468.759500301
 30
0.0
 10
113.3671816886
 20
468.6412355844
 30
0.0
 10
112.762996594
 20
468.5684013024
 30
0.0
 10
112.3465242617
 20
468.5520699154
 30
0.0
 10
112.135028624
 20
468.5520699154
 30
0.0
  0
LINE
  5
2CB
330
225
100
AcDbEntity
  8
7_ALL_FEATURES
  6
Continuous
 62
     7
100
AcDbLine
 10
108.635029
 20
475.094461
 30
0.0
 11
108.846104
 21
475.094461
 31
0.0
  0
LINE
  5
2CC
330
225
100
AcDbEntity
  8
7_ALL_FEATURES
  6
Continuous
 62
     7
100
AcDbLine
 10
108.846104
 20
475.094461
 30
0.0
 11
108.885029
 21
475.094461
 31
0.0
  0
LINE
  5
2CD
330
225
100
AcDbEntity
  8
7_ALL_FEATURES
  6
Continuous
 62
     7
100
AcDbLine
 10
108.885029
 20
475.094461
 30
0.0
 11
112.135029
 21
475.094461
 31
0.0
  0
LINE
  5
2CE
330
225
100
AcDbEntity
  8
3_ALL_AXES
  6
Continuous
 62
     7
100
AcDbLine
 10
116.404077
 20
491.094461
 30
0.0
 11
116.135029
 21
491.094461
 31
0.0
  0
LINE
  5
2CF
330
225
100
AcDbEntity
  8
3_ALL_AXES
  6
Continuous
 62
     7
100
AcDbLine
 10
120.135029
 20
489.794461
 30
0.0
 11
120.135029
 21
487.594461
 31
0.0
  0
LINE
  5
2D0
330
225
100
AcDbEntity
  8
3_ALL_AXES
  6
Continuous
 62
     7
100
AcDbLine
 10
120.135029
 20
487.594461
 30
0.0
 11
118.135029
 21
487.594461
 31
0.0
  0
LINE
  5
2D1
330
225
100
AcDbEntity
  8
3_ALL_AXES
  6
Continuous
 62
     7
100
AcDbLine
 10
118.135029
 20
487.594461
 30
0.0
 11
116.135029
 21
487.594461
 31
0.0
  0
LINE
  5
2D2
330
225
100
AcDbEntity
  8
3_ALL_AXES
  6
Continuous
 62
     7
100
AcDbLine
 10
120.135029
 20
484.594461
 30
0.0
 11
118.135029
 21
484.594461
 31
0.0
  0
LINE
  5
2D3
330
225
100
AcDbEntity
  8
3_ALL_AXES
  6
Continuous
 62
     7
100
AcDbLine
 10
118.135029
 20
484.594461
 30
0.0
 11
116.135029
 21
484.594461
 31
0.0
  0
LINE
  5
2D4
330
225
100
AcDbEntity
  8
3_ALL_AXES
  6
Continuous
 62
     7
100
AcDbLine
 10
120.135029
 20
484.594461
 30
0.0
 11
120.135029
 21
480.094461
 31
0.0
  0
LINE
  5
2D5
330
225
100
AcDbEntity
  8
3_ALL_AXES
  6
Continuous
 62
     7
100
AcDbLine
 10
116.135029
 20
491.094461
 30
0.0
 11
108.135029
 21
491.094461
 31
0.0
  0
LINE
  5
2D6
330
225
100
AcDbEntity
  8
3_ALL_AXES
  6
Continuous
 62
     7
100
AcDbLine
 10
116.135029
 20
487.594461
 30
0.0
 11
108.135029
 21
487.594461
 31
0.0
  0
LINE
  5
2D7
330
225
100
AcDbEntity
  8
3_ALL_AXES
  6
Continuous
 62
     7
100
AcDbLine
 10
116.135029
 20
484.594461
 30
0.0
 11
108.135029
 21
484.594461
 31
0.0
  0
LINE
  5
2D8
330
225
100
AcDbEntity
  8
3_ALL_AXES
  6
Continuous
 62
     7
100
AcDbLine
 10
108.135029
 20
491.094461
 30
0.0
 11
107.86598
 21
491.094461
 31
0.0
  0
LINE
  5
2D9
330
225
100
AcDbEntity
  8
3_ALL_AXES
  6
Continuous
 62
     7
100
AcDbLine
 10
108.135029
 20
487.594461
 30
0.0
 11
106.135029
 21
487.594461
 31
0.0
  0
LINE
  5
2DA
330
225
100
AcDbEntity
  8
3_ALL_AXES
  6
Continuous
 62
     7
100
AcDbLine
 10
106.135029
 20
487.594461
 30
0.0
 11
104.135029
 21
487.594461
 31
0.0
  0
LINE
  5
2DB
330
225
100
AcDbEntity
  8
3_ALL_AXES
  6
Continuous
 62
     7
100
AcDbLine
 10
108.135029
 20
484.594461
 30
0.0
 11
106.135029
 21
484.594461
 31
0.0
  0
LINE
  5
2DC
330
225
100
AcDbEntity
  8
3_ALL_AXES
  6
Continuous
 62
     7
100
AcDbLine
 10
106.135029
 20
484.594461
 30
0.0
 11
104.135029
 21
484.594461
 31
0.0
  0
LINE
  5
2DD
330
225
100
AcDbEntity
  8
3_ALL_AXES
  6
Continuous
 62
     7
100
AcDbLine
 10
106.135029
 20
484.594461
 30
0.0
 11
106.135029
 21
487.594461
 31
0.0
  0
LINE
  5
2DE
330
225
100
AcDbEntity
  8
3_ALL_AXES
  6
Continuous
 62
     7
100
AcDbLine
 10
104.135029
 20
484.594461
 30
0.0
 11
104.135029
 21
480.094461
 31
0.0
  0
ARC
  5
2DF
330
225
100
AcDbEntity
  8
3_ALL_AXES
  6
Continuous
 62
     7
100
AcDbCircle
 10
108.635029
 20
478.594461
 30
0.0
 40
3.5
100
AcDbArc
 50
259.330363
 51
270.0
  0
ARC
  5
2E0
330
225
100
AcDbEntity
  8
3_ALL_AXES
  6
Continuous
 62
     7
100
AcDbCircle
 10
108.635029
 20
478.594461
 30
0.0
 40
3.5
100
AcDbArc
 50
190.669637
 51
259.330363
  0
ARC
  5
2E1
330
225
100
AcDbEntity
  8
3_ALL_AXES
  6
Continuous
 62
     7
100
AcDbCircle
 10
108.635029
 20
478.594461
 30
0.0
 40
3.5
100
AcDbArc
 50
180.0
 51
190.669637
  0
LINE
  5
2E2
330
225
100
AcDbEntity
  8
3_ALL_AXES
  6
Continuous
 62
     7
100
AcDbLine
 10
108.635029
 20
475.094461
 30
0.0
 11
108.846104
 21
475.094461
 31
0.0
  0
LINE
  5
2E3
330
225
100
AcDbEntity
  8
3_ALL_AXES
  6
Continuous
 62
     7
100
AcDbLine
 10
108.846104
 20
475.094461
 30
0.0
 11
108.885029
 21
475.094461
 31
0.0
  0
LINE
  5
2E4
330
225
100
AcDbEntity
  8
3_ALL_AXES
  6
Continuous
 62
     7
100
AcDbLine
 10
108.885029
 20
475.094461
 30
0.0
 11
112.135029
 21
475.094461
 31
0.0
  0
LINE
  5
2E5
330
225
100
AcDbEntity
  8
3_ALL_AXES
  6
Continuous
 62
     7
100
AcDbLine
 10
112.135029
 20
475.094461
 30
0.0
 11
115.385029
 21
475.094461
 31
0.0
  0
LINE
  5
2E6
330
225
100
AcDbEntity
  8
3_ALL_AXES
  6
Continuous
 62
     7
100
AcDbLine
 10
115.385029
 20
475.094461
 30
0.0
 11
115.423953
 21
475.094461
 31
0.0
  0
LINE
  5
2E7
330
225
100
AcDbEntity
  8
3_ALL_AXES
  6
Continuous
 62
     7
100
AcDbLine
 10
115.423953
 20
475.094461
 30
0.0
 11
115.635029
 21
475.094461
 31
0.0
  0
LINE
  5
2E8
330
225
100
AcDbEntity
  8
3_ALL_AXES
  6
Continuous
 62
     7
100
AcDbLine
 10
118.135029
 20
484.594461
 30
0.0
 11
118.135029
 21
487.594461
 31
0.0
  0
ARC
  5
2E9
330
225
100
AcDbEntity
  8
3_ALL_AXES
  6
Continuous
 62
     7
100
AcDbCircle
 10
115.635029
 20
478.594461
 30
0.0
 40
3.5
100
AcDbArc
 50
270.0
 51
280.669637
  0
ARC
  5
2EA
330
225
100
AcDbEntity
  8
3_ALL_AXES
  6
Continuous
 62
     7
100
AcDbCircle
 10
115.635029
 20
478.594461
 30
0.0
 40
3.5
100
AcDbArc
 50
280.669637
 51
349.330363
  0
ARC
  5
2EB
330
225
100
AcDbEntity
  8
3_ALL_AXES
  6
Continuous
 62
     7
100
AcDbCircle
 10
115.635029
 20
478.594461
 30
0.0
 40
3.5
100
AcDbArc
 50
349.330363
 51
360.0
  0
LINE
  5
2EC
330
225
100
AcDbEntity
  8
3_ALL_AXES
  6
Continuous
 62
     7
100
AcDbLine
 10
104.135029
 20
491.094461
 30
0.0
 11
104.135029
 21
487.594461
 31
0.0
  0
LINE
  5
2ED
330
225
100
AcDbEntity
  8
3_ALL_AXES
  6
Continuous
 62
     7
100
AcDbLine
 10
119.135029
 20
478.594461
 30
0.0
 11
119.135029
 21
479.094461
 31
0.0
  0
LINE
  5
2EE
330
225
100
AcDbEntity
  8
3_ALL_AXES
  6
Continuous
 62
     7
100
AcDbLine
 10
105.135029
 20
478.594461
 30
0.0
 11
105.135029
 21
479.094461
 31
0.0
  0
LINE
  5
2EF
330
225
100
AcDbEntity
  8
3_ALL_AXES
  6
Continuous
 62
     7
100
AcDbLine
 10
119.135029
 20
479.094461
 30
0.0
 11
120.135029
 21
480.094461
 31
0.0
  0
LINE
  5
2F0
330
225
100
AcDbEntity
  8
3_ALL_AXES
  6
Continuous
 62
     7
100
AcDbLine
 10
105.135029
 20
479.094461
 30
0.0
 11
104.135029
 21
480.094461
 31
0.0
  0
LINE
  5
2F1
330
225
100
AcDbEntity
  8
3_ALL_AXES
  6
Continuous
 62
     7
100
AcDbLine
 10
106.135029
 20
487.594461
 30
0.0
 11
106.135029
 21
484.594461
 31
0.0
  0
LINE
  5
2F2
330
225
100
AcDbEntity
  8
3_ALL_AXES
  6
Continuous
 62
     7
100
AcDbLine
 10
118.135029
 20
487.594461
 30
0.0
 11
118.135029
 21
484.594461
 31
0.0
  0
LINE
  5
2F3
330
225
100
AcDbEntity
  8
7_ALL_FEATURES
  6
Continuous
 62
     7
100
AcDbLine
 10
112.135029
 20
475.094461
 30
0.0
 11
115.385029
 21
475.094461
 31
0.0
  0
LINE
  5
2F4
330
225
100
AcDbEntity
  8
7_ALL_FEATURES
  6
Continuous
 62
     7
100
AcDbLine
 10
115.385029
 20
475.094461
 30
0.0
 11
115.423953
 21
475.094461
 31
0.0
  0
LINE
  5
2F5
330
225
100
AcDbEntity
  8
7_ALL_FEATURES
  6
Continuous
 62
     7
100
AcDbLine
 10
115.423953
 20
475.094461
 30
0.0
 11
115.635029
 21
475.094461
 31
0.0
  0
ARC
  5
2F6
330
225
100
AcDbEntity
  8
7_ALL_FEATURES
  6
Continuous
 62
     7
100
AcDbCircle
 10
115.635029
 20
478.594461
 30
0.0
 40
3.5
100
AcDbArc
 50
349.336305
 51
360.0
  0
ARC
  5
2F7
330
225
100
AcDbEntity
  8
7_ALL_FEATURES
  6
Continuous
 62
     7
100
AcDbCircle
 10
115.635029
 20
478.594461
 30
0.0
 40
3.5
100
AcDbArc
 50
280.663695
 51
349.336305
  0
ARC
  5
2F8
330
225
100
AcDbEntity
  8
7_ALL_FEATURES
  6
Continuous
 62
     7
100
AcDbCircle
 10
115.635029
 20
478.594461
 30
0.0
 40
3.5
100
AcDbArc
 50
270.0
 51
280.663695
  0
ARC
  5
2F9
330
225
100
AcDbEntity
  8
7_ALL_FEATURES
  6
Continuous
 62
     7
100
AcDbCircle
 10
108.635029
 20
478.594461
 30
0.0
 40
3.5
100
AcDbArc
 50
180.0
 51
190.663695
  0
ARC
  5
2FA
330
225
100
AcDbEntity
  8
7_ALL_FEATURES
  6
Continuous
 62
     7
100
AcDbCircle
 10
108.635029
 20
478.594461
 30
0.0
 40
3.5
100
AcDbArc
 50
190.663695
 51
259.336305
  0
ARC
  5
2FB
330
225
100
AcDbEntity
  8
7_ALL_FEATURES
  6
Continuous
 62
     7
100
AcDbCircle
 10
108.635029
 20
478.594461
 30
0.0
 40
3.5
100
AcDbArc
 50
259.336305
 51
270.0
  0
LINE
  5
2FC
330
225
100
AcDbEntity
  8
3_ALL_AXES
  6
Continuous
 62
     7
100
AcDbLine
 10
113.135029
 20
478.594461
 30
0.0
 11
113.135029
 21
479.094461
 31
0.0
  0
SPLINE
  5
2FD
330
225
100
AcDbEntity
  8
3_ALL_AXES
  6
Continuous
 62
     7
100
AcDbSpline
 70
     0
 71
     3
 72
    19
 73
    15
 74
     0
 42
0.000000001
 43
0.0000001
 40
0.0
 40
0.0
 40
0.0
 40
0.0
 40
0.062499569
 40
0.1250450196
 40
0.1876243679
 40
0.2502137548
 40
0.3750836247
 40
0.5000591496
 40
0.6250261711
 40
0.7498800617
 40
0.8124624827
 40
0.8750225901
 40
0.9375286272
 40
1.0
 40
1.0
 40
1.0
 40
1.0
 10
111.135028624
 20
478.5944614712
 30
0.0
 10
111.135028624
 20
478.5383878595
 30
0.0
 10
111.154537739
 20
478.4253987656
 30
0.0
 10
111.2343217091
 20
478.2746763823
 30
0.0
 10
111.3493811636
 20
478.1496266735
 30
0.0
 10
111.5328248633
 20
478.0184608075
 30
0.0
 10
111.7982248007
 20
477.9153300562
 30
0.0
 10
112.1351825118
 20
477.8760736336
 30
0.0
 10
112.4721143449
 20
477.9154113457
 30
0.0
 10
112.7374685316
 20
478.0185796635
 30
0.0
 10
112.9208501588
 20
478.1497708198
 30
0.0
 10
113.0358209289
 20
478.2748208489
 30
0.0
 10
113.1155387046
 20
478.4254849523
 30
0.0
 10
113.135028624
 20
478.5384131567
 30
0.0
 10
113.135028624
 20
478.5944614712
 30
0.0
  0
LINE
  5
2FE
330
225
100
AcDbEntity
  8
3_ALL_AXES
  6
Continuous
 62
     7
100
AcDbLine
 10
111.135029
 20
478.594461
 30
0.0
 11
111.135029
 21
479.094461
 31
0.0
  0
SPLINE
  5
2FF
330
225
100
AcDbEntity
  8
3_ALL_AXES
  6
Continuous
 62
     7
100
AcDbSpline
 70
     0
 71
     3
 72
     9
 73
     5
 74
     0
 42
0.000000001
 43
0.0000001
 40
0.0
 40
0.0
 40
0.0
 40
0.0
 40
0.5001651926
 40
1.0
 40
1.0
 40
1.0
 40
1.0
 10
108.135028624
 20
480.0944614712
 30
0.0
 10
108.6081151904
 20
479.857918188
 30
0.0
 10
109.5799308924
 20
479.4336843795
 30
0.0
 10
110.6117636181
 20
479.1692136149
 30
0.0
 10
111.135028624
 20
479.0944614712
 30
0.0
  0
LINE
  5
300
330
225
100
AcDbEntity
  8
3_ALL_AXES
  6
Continuous
 62
     7
100
AcDbLine
 10
117.635029
 20
478.594461
 30
0.0
 11
117.635029
 21
479.094461
 31
0.0
  0
LINE
  5
301
330
225
100
AcDbEntity
  8
3_ALL_AXES
  6
Continuous
 62
     7
100
AcDbLine
 10
108.135029
 20
491.094461
 30
0.0
 11
108.135029
 21
487.594461
 31
0.0
  0
SPLINE
  5
302
330
225
100
AcDbEntity
  8
3_ALL_AXES
  6
Continuous
 62
     7
100
AcDbSpline
 70
     0
 71
     3
 72
    10
 73
     6
 74
     0
 42
0.000000001
 43
0.0000001
 40
0.0
 40
0.0
 40
0.0
 40
0.0
 40
0.2703642709
 40
0.5278686738
 40
1.0
 40
1.0
 40
1.0
 40
1.0
 10
116.135028624
 20
480.0944614712
 30
0.0
 10
116.2508545889
 20
479.9786355063
 30
0.0
 10
116.4846477848
 20
479.7595047036
 30
0.0
 10
116.9609650892
 20
479.3858736325
 30
0.0
 10
117.359989454
 20
479.1730440912
 30
0.0
 10
117.635028624
 20
479.0944614712
 30
0.0
  0
SPLINE
  5
303
330
225
100
AcDbEntity
  8
3_ALL_AXES
  6
Continuous
 62
     7
100
AcDbSpline
 70
     0
 71
     3
 72
    10
 73
     6
 74
     0
 42
0.000000001
 43
0.0000001
 40
0.0
 40
0.0
 40
0.0
 40
0.0
 40
0.472131348
 40
0.7296357382
 40
1.0
 40
1.0
 40
1.0
 40
1.0
 10
118.635028624
 20
479.0944614712
 30
0.0
 10
118.9100678065
 20
479.1730440948
 30
0.0
 10
119.3090921744
 20
479.3858736439
 30
0.0
 10
119.7854094755
 20
479.7595047182
 30
0.0
 10
120.019202663
 20
479.9786355103
 30
0.0
 10
120.135028624
 20
480.0944614712
 30
0.0
  0
LINE
  5
304
330
225
100
AcDbEntity
  8
3_ALL_AXES
  6
Continuous
 62
     7
100
AcDbLine
 10
108.135029
 20
484.594461
 30
0.0
 11
108.135029
 21
480.094461
 31
0.0
  0
SPLINE
  5
305
330
225
100
AcDbEntity
  8
3_ALL_AXES
  6
Continuous
 62
     7
100
AcDbSpline
 70
     0
 71
     3
 72
    10
 73
     6
 74
     0
 42
0.000000001
 43
0.0000001
 40
0.0
 40
0.0
 40
0.0
 40
0.0
 40
0.2703642709
 40
0.5278686738
 40
1.0
 40
1.0
 40
1.0
 40
1.0
 10
104.135028624
 20
480.0944614712
 30
0.0
 10
104.2508545889
 20
479.9786355063
 30
0.0
 10
104.4846477848
 20
479.7595047036
 30
0.0
 10
104.9609650892
 20
479.3858736325
 30
0.0
 10
105.359989454
 20
479.1730440912
 30
0.0
 10
105.635028624
 20
479.0944614712
 30
0.0
  0
LINE
  5
306
330
225
100
AcDbEntity
  8
3_ALL_AXES
  6
Continuous
 62
     7
100
AcDbLine
 10
105.135029
 20
479.094461
 30
0.0
 11
105.635029
 21
479.094461
 31
0.0
  0
SPLINE
  5
307
330
225
100
AcDbEntity
  8
3_ALL_AXES
  6
Continuous
 62
     7
100
AcDbSpline
 70
     0
 71
     3
 72
    10
 73
     6
 74
     0
 42
0.000000001
 43
0.0000001
 40
0.0
 40
0.0
 40
0.0
 40
0.0
 40
0.472131348
 40
0.7296357382
 40
1.0
 40
1.0
 40
1.0
 40
1.0
 10
106.635028624
 20
479.0944614712
 30
0.0
 10
106.9100678065
 20
479.1730440948
 30
0.0
 10
107.3090921744
 20
479.3858736439
 30
0.0
 10
107.7854094755
 20
479.7595047182
 30
0.0
 10
108.019202663
 20
479.9786355103
 30
0.0
 10
108.135028624
 20
480.0944614712
 30
0.0
  0
LINE
  5
308
330
225
100
AcDbEntity
  8
3_ALL_AXES
  6
Continuous
 62
     7
100
AcDbLine
 10
106.635029
 20
478.594461
 30
0.0
 11
106.635029
 21
479.094461
 31
0.0
  0
SPLINE
  5
309
330
225
100
AcDbEntity
  8
3_ALL_AXES
  6
Continuous
 62
     7
100
AcDbSpline
 70
     0
 71
     3
 72
    15
 73
    11
 74
     0
 42
0.000000001
 43
0.0000001
 40
0.0
 40
0.0
 40
0.0
 40
0.0
 40
0.1686889682
 40
0.3038155322
 40
0.4094422526
 40
0.5000398214
 40
0.5906390971
 40
0.6962706796
 40
0.8313936487
 40
1.0
 40
1.0
 40
1.0
 40
1.0
 10
105.635028624
 20
478.5944614712
 30
0.0
 10
105.635028624
 20
478.487855796
 30
0.0
 10
105.6653947549
 20
478.2939862374
 30
0.0
 10
105.7887284508
 20
478.0608036157
 30
0.0
 10
105.9526469949
 20
477.9210111499
 30
0.0
 10
106.1351106769
 20
477.8744585476
 30
0.0
 10
106.3175496976
 20
477.9210991168
 30
0.0
 10
106.4814343918
 20
478.0609288618
 30
0.0
 10
106.6046780587
 20
478.2940999559
 30
0.0
 10
106.635028624
 20
478.4879080071
 30
0.0
 10
106.635028624
 20
478.5944614712
 30
0.0
  0
LINE
  5
30A
330
225
100
AcDbEntity
  8
3_ALL_AXES
  6
Continuous
 62
     7
100
AcDbLine
 10
105.635029
 20
478.594461
 30
0.0
 11
105.635029
 21
479.094461
 31
0.0
  0
LINE
  5
30B
330
225
100
AcDbEntity
  8
3_ALL_AXES
  6
Continuous
 62
     7
100
AcDbLine
 10
116.135029
 20
491.094461
 30
0.0
 11
116.135029
 21
487.594461
 31
0.0
  0
LINE
  5
30C
330
225
100
AcDbEntity
  8
3_ALL_AXES
  6
Continuous
 62
     7
100
AcDbLine
 10
118.635029
 20
478.594461
 30
0.0
 11
118.635029
 21
479.094461
 31
0.0
  0
SPLINE
  5
30D
330
225
100
AcDbEntity
  8
3_ALL_AXES
  6
Continuous
 62
     7
100
AcDbSpline
 70
     0
 71
     3
 72
    15
 73
    11
 74
     0
 42
0.000000001
 43
0.0000001
 40
0.0
 40
0.0
 40
0.0
 40
0.0
 40
0.1686964145
 40
0.303825837
 40
0.4094560199
 40
0.5000450187
 40
0.5906383609
 40
0.6962584594
 40
0.831376692
 40
1.0
 40
1.0
 40
1.0
 40
1.0
 10
117.635028624
 20
478.5944614712
 30
0.0
 10
117.635028624
 20
478.4878511389
 30
0.0
 10
117.665398259
 20
478.2939755452
 30
0.0
 10
117.7887388737
 20
478.060785383
 30
0.0
 10
117.9526661361
 20
477.9210044432
 30
0.0
 10
118.1351228301
 20
477.8744598589
 30
0.0
 10
118.317544073
 20
477.9210998138
 30
0.0
 10
118.4814193476
 20
478.0609153711
 30
0.0
 10
118.6046762605
 20
478.2940801684
 30
0.0
 10
118.635028624
 20
478.4878973397
 30
0.0
 10
118.635028624
 20
478.5944614712
 30
0.0
  0
LINE
  5
30E
330
225
100
AcDbEntity
  8
3_ALL_AXES
  6
Continuous
 62
     9
100
AcDbLine
 10
119.135029
 20
478.594461
 30
0.0
 11
118.635029
 21
478.594461
 31
0.0
  0
LINE
  5
30F
330
225
100
AcDbEntity
  8
3_ALL_AXES
  6
Continuous
 62
     9
100
AcDbLine
 10
117.635029
 20
478.594461
 30
0.0
 11
113.135029
 21
478.594461
 31
0.0
  0
LINE
  5
310
330
225
100
AcDbEntity
  8
3_ALL_AXES
  6
Continuous
 62
     9
100
AcDbLine
 10
111.135029
 20
478.594461
 30
0.0
 11
106.635029
 21
478.594461
 31
0.0
  0
LINE
  5
311
330
225
100
AcDbEntity
  8
3_ALL_AXES
  6
Continuous
 62
     9
100
AcDbLine
 10
105.635029
 20
478.594461
 30
0.0
 11
105.135029
 21
478.594461
 31
0.0
  0
LINE
  5
312
330
225
100
AcDbEntity
  8
3_ALL_AXES
  6
Continuous
 62
     7
100
AcDbLine
 10
116.135029
 20
484.594461
 30
0.0
 11
116.135029
 21
480.094461
 31
0.0
  0
SPLINE
  5
313
330
225
100
AcDbEntity
  8
3_ALL_AXES
  6
Continuous
 62
     7
100
AcDbSpline
 70
     0
 71
     3
 72
     9
 73
     5
 74
     0
 42
0.000000001
 43
0.0000001
 40
0.0
 40
0.0
 40
0.0
 40
0.0
 40
0.4998348289
 40
1.0
 40
1.0
 40
1.0
 40
1.0
 10
113.135028624
 20
479.0944614712
 30
0.0
 10
113.6582936523
 20
479.1692136181
 30
0.0
 10
114.6901263764
 20
479.4336843907
 30
0.0
 10
115.6619420779
 20
479.8579181982
 30
0.0
 10
116.135028624
 20
480.0944614712
 30
0.0
  0
LINE
  5
314
330
225
100
AcDbEntity
  8
3_ALL_AXES
  6
Continuous
 62
     7
100
AcDbLine
 10
111.135029
 20
479.094461
 30
0.0
 11
106.635029
 21
479.094461
 31
0.0
  0
LINE
  5
315
330
225
100
AcDbEntity
  8
3_ALL_AXES
  6
Continuous
 62
     7
100
AcDbLine
 10
117.635029
 20
479.094461
 30
0.0
 11
113.135029
 21
479.094461
 31
0.0
  0
LINE
  5
316
330
225
100
AcDbEntity
  8
3_ALL_AXES
  6
Continuous
 62
     7
100
AcDbLine
 10
118.635029
 20
479.094461
 30
0.0
 11
119.135029
 21
479.094461
 31
0.0
  0
LINE
  5
317
330
225
100
AcDbEntity
  8
7_ALL_FEATURES
  6
Continuous
 62
     7
100
AcDbLine
 10
716.135029
 20
501.794461
 30
0.0
 11
716.135029
 21
513.794461
 31
0.0
  0
LINE
  5
318
330
225
100
AcDbEntity
  8
7_ALL_FEATURES
  6
Continuous
 62
     7
100
AcDbLine
 10
716.135029
 20
513.794461
 30
0.0
 11
715.635029
 21
514.294461
 31
0.0
  0
LINE
  5
319
330
225
100
AcDbEntity
  8
7_ALL_FEATURES
  6
Continuous
 62
     7
100
AcDbLine
 10
716.135029
 20
489.794461
 30
0.0
 11
716.135029
 21
501.794461
 31
0.0
  0
LINE
  5
31A
330
225
100
AcDbEntity
  8
7_ALL_FEATURES
  6
Continuous
 62
     7
100
AcDbLine
 10
716.135029
 20
489.794461
 30
0.0
 11
715.635029
 21
489.294461
 31
0.0
  0
LINE
  5
31B
330
225
100
AcDbEntity
  8
7_ALL_FEATURES
  6
Continuous
 62
     7
100
AcDbLine
 10
713.635029
 20
513.794461
 30
0.0
 11
714.135029
 21
514.294461
 31
0.0
  0
LINE
  5
31C
330
225
100
AcDbEntity
  8
7_ALL_FEATURES
  6
Continuous
 62
     7
100
AcDbLine
 10
713.635029
 20
489.794461
 30
0.0
 11
714.135029
 21
489.294461
 31
0.0
  0
LINE
  5
31D
330
225
100
AcDbEntity
  8
3_ALL_AXES
  6
Continuous
 62
     7
100
AcDbLine
 10
714.135029
 20
514.294461
 30
0.0
 11
715.635029
 21
514.294461
 31
0.0
  0
LINE
  5
31E
330
225
100
AcDbEntity
  8
3_ALL_AXES
  6
Continuous
 62
     7
100
AcDbLine
 10
714.135029
 20
489.294461
 30
0.0
 11
715.635029
 21
489.294461
 31
0.0
  0
LINE
  5
31F
330
225
100
AcDbEntity
  8
7_ALL_FEATURES
  6
Continuous
 62
     7
100
AcDbLine
 10
714.135029
 20
501.794461
 30
0.0
 11
714.135029
 21
514.294461
 31
0.0
  0
LINE
  5
320
330
225
100
AcDbEntity
  8
7_ALL_FEATURES
  6
Continuous
 62
     7
100
AcDbLine
 10
715.635029
 20
501.794461
 30
0.0
 11
715.635029
 21
514.294461
 31
0.0
  0
LINE
  5
321
330
225
100
AcDbEntity
  8
7_ALL_FEATURES
  6
Continuous
 62
     7
100
AcDbLine
 10
714.135029
 20
489.294461
 30
0.0
 11
714.135029
 21
501.794461
 31
0.0
  0
LINE
  5
322
330
225
100
AcDbEntity
  8
7_ALL_FEATURES
  6
Continuous
 62
     7
100
AcDbLine
 10
715.635029
 20
489.294461
 30
0.0
 11
715.635029
 21
501.794461
 31
0.0
  0
LINE
  5
323
330
225
100
AcDbEntity
  8
7_ALL_FEATURES
  6
Continuous
 62
     7
100
AcDbLine
 10
118.835029
 20
491.094461
 30
0.0
 11
116.404077
 21
491.094461
 31
0.0
  0
LINE
  5
324
330
225
100
AcDbEntity
  8
7_ALL_FEATURES
  6
Continuous
 62
     7
100
AcDbLine
 10
107.86598
 20
491.094461
 30
0.0
 11
104.135029
 21
491.094461
 31
0.0
  0
LINE
  5
325
330
225
100
AcDbEntity
  8
7_ALL_FEATURES
  6
Continuous
 62
     7
100
AcDbLine
 10
104.135029
 20
491.094461
 30
0.0
 11
103.635029
 21
491.094461
 31
0.0
  0
LINE
  5
326
330
225
100
AcDbEntity
  8
7_ALL_FEATURES
  6
Continuous
 62
     7
100
AcDbLine
 10
103.635029
 20
491.094461
 30
0.0
 11
103.135029
 21
491.094461
 31
0.0
  0
LINE
  5
327
330
225
100
AcDbEntity
  8
3_ALL_AXES
  6
Continuous
 62
     7
100
AcDbLine
 10
118.835029
 20
491.094461
 30
0.0
 11
120.614466
 21
489.315024
 31
0.0
  0
LINE
  5
328
330
225
100
AcDbEntity
  8
3_ALL_AXES
  6
Continuous
 62
     7
100
AcDbLine
 10
120.614466
 20
489.315024
 30
0.0
 11
120.634997
 21
489.294493
 31
0.0
  0
SPLINE
  5
329
330
225
100
AcDbEntity
  8
3_ALL_AXES
  6
Continuous
 62
     7
100
AcDbSpline
 70
     0
 71
     3
 72
     8
 73
     4
 74
     0
 42
0.000000001
 43
0.0000001
 40
0.0
 40
0.0
 40
0.0
 40
0.0
 40
1.0
 40
1.0
 40
1.0
 40
1.0
 10
120.6349957743
 20
489.2944943209
 30
0.0
 10
120.6349963193
 20
489.2944937759
 30
0.0
 10
120.6349968643
 20
489.2944932309
 30
0.0
 10
120.6349974093
 20
489.2944926859
 30
0.0
  0
LINE
  5
32A
330
225
100
AcDbEntity
  8
7_ALL_FEATURES
  6
Continuous
 62
     7
100
AcDbLine
 10
103.135029
 20
491.094461
 30
0.0
 11
103.135029
 21
513.794461
 31
0.0
  0
LINE
  5
32B
330
225
100
AcDbEntity
  8
7_ALL_FEATURES
  6
Continuous
 62
     7
100
AcDbLine
 10
103.135029
 20
513.794461
 30
0.0
 11
103.635029
 21
514.294461
 31
0.0
  0
LINE
  5
32C
330
225
100
AcDbEntity
  8
7_ALL_FEATURES
  6
Continuous
 62
     7
100
AcDbLine
 10
121.635029
 20
489.794461
 30
0.0
 11
121.135029
 21
489.294461
 31
0.0
  0
LINE
  5
32D
330
225
100
AcDbEntity
  8
7_ALL_FEATURES
  6
Continuous
 62
     7
100
AcDbLine
 10
121.635029
 20
513.794461
 30
0.0
 11
121.135029
 21
514.294461
 31
0.0
  0
LINE
  5
32E
330
225
100
AcDbEntity
  8
3_ALL_AXES
  6
Continuous
 62
     7
100
AcDbLine
 10
121.135029
 20
489.294461
 30
0.0
 11
120.635029
 21
489.294461
 31
0.0
  0
LINE
  5
32F
330
225
100
AcDbEntity
  8
3_ALL_AXES
  6
Continuous
 62
     7
100
AcDbLine
 10
120.635029
 20
489.294461
 30
0.0
 11
120.614467
 21
489.294461
 31
0.0
  0
LINE
  5
330
330
225
100
AcDbEntity
  8
3_ALL_AXES
  6
Continuous
 62
     7
100
AcDbLine
 10
121.135029
 20
514.294461
 30
0.0
 11
103.635029
 21
514.294461
 31
0.0
  0
LINE
  5
331
330
225
100
AcDbEntity
  8
7_ALL_FEATURES
  6
Continuous
 62
     7
100
AcDbLine
 10
103.635029
 20
501.794461
 30
0.0
 11
103.635029
 21
491.094461
 31
0.0
  0
LINE
  5
332
330
225
100
AcDbEntity
  8
7_ALL_FEATURES
  6
Continuous
 62
     7
100
AcDbLine
 10
121.135029
 20
501.794461
 30
0.0
 11
121.135029
 21
489.294461
 31
0.0
  0
LINE
  5
333
330
225
100
AcDbEntity
  8
7_ALL_FEATURES
  6
Continuous
 62
     7
100
AcDbLine
 10
121.135029
 20
514.294461
 30
0.0
 11
121.135029
 21
501.794461
 31
0.0
  0
LINE
  5
334
330
225
100
AcDbEntity
  8
7_ALL_FEATURES
  6
Continuous
 62
     7
100
AcDbLine
 10
103.635029
 20
514.294461
 30
0.0
 11
103.635029
 21
501.794461
 31
0.0
  0
LINE
  5
335
330
225
100
AcDbEntity
  8
3_ALL_AXES
  6
Continuous
 62
     7
100
AcDbLine
 10
713.635029
 20
514.294461
 30
0.0
 11
121.635029
 21
514.294461
 31
0.0
  0
LINE
  5
336
330
225
100
AcDbEntity
  8
3_ALL_AXES
  6
Continuous
 62
     7
100
AcDbLine
 10
713.635029
 20
489.294461
 30
0.0
 11
121.635029
 21
489.294461
 31
0.0
  0
ARC
  5
337
330
225
100
AcDbEntity
  8
3_ALL_AXES
  6
Continuous
 62
     7
100
AcDbCircle
 10
130.135029
 20
501.794461
 30
0.0
 40
0.825
100
AcDbArc
 50
270.0
 51
90.0
  0
ARC
  5
338
330
225
100
AcDbEntity
  8
3_ALL_AXES
  6
Continuous
 62
     7
100
AcDbCircle
 10
130.135029
 20
501.794461
 30
0.0
 40
0.825
100
AcDbArc
 50
90.0
 51
270.0
  0
ARC
  5
339
330
225
100
AcDbEntity
  8
3_ALL_AXES
  6
Continuous
 62
     7
100
AcDbCircle
 10
705.135029
 20
501.794461
 30
0.0
 40
0.825
100
AcDbArc
 50
90.0
 51
270.0
  0
ARC
  5
33A
330
225
100
AcDbEntity
  8
3_ALL_AXES
  6
Continuous
 62
     7
100
AcDbCircle
 10
705.135029
 20
501.794461
 30
0.0
 40
0.825
100
AcDbArc
 50
270.0
 51
90.0
  0
LINE
  5
33B
330
225
100
AcDbEntity
  8
3_ALL_AXES
  6
Continuous
 62
     7
100
AcDbLine
 10
713.635029
 20
514.294461
 30
0.0
 11
121.635029
 21
514.294461
 31
0.0
  0
LINE
  5
33C
330
225
100
AcDbEntity
  8
3_ALL_AXES
  6
Continuous
 62
     7
100
AcDbLine
 10
713.635029
 20
489.294461
 30
0.0
 11
121.635029
 21
489.294461
 31
0.0
  0
LINE
  5
33D
330
225
100
AcDbEntity
  8
3_ALL_AXES
  6
Continuous
 62
     7
100
AcDbLine
 10
713.635029
 20
489.294461
 30
0.0
 11
713.635029
 21
489.787985
 31
0.0
  0
LINE
  5
33E
330
225
100
AcDbEntity
  8
3_ALL_AXES
  6
Continuous
 62
     7
100
AcDbLine
 10
713.635029
 20
489.787985
 30
0.0
 11
713.635029
 21
489.794461
 31
0.0
  0
LINE
  5
33F
330
225
100
AcDbEntity
  8
3_ALL_AXES
  6
Continuous
 62
     7
100
AcDbLine
 10
713.635029
 20
489.794461
 30
0.0
 11
713.635029
 21
491.294461
 31
0.0
  0
LINE
  5
340
330
225
100
AcDbEntity
  8
3_ALL_AXES
  6
Continuous
 62
     7
100
AcDbLine
 10
713.635029
 20
491.294461
 30
0.0
 11
713.635029
 21
501.794461
 31
0.0
  0
LINE
  5
341
330
225
100
AcDbEntity
  8
3_ALL_AXES
  6
Continuous
 62
     7
100
AcDbLine
 10
713.635029
 20
501.794461
 30
0.0
 11
713.635029
 21
512.294461
 31
0.0
  0
LINE
  5
342
330
225
100
AcDbEntity
  8
3_ALL_AXES
  6
Continuous
 62
     7
100
AcDbLine
 10
713.635029
 20
512.294461
 30
0.0
 11
713.635029
 21
513.794461
 31
0.0
  0
LINE
  5
343
330
225
100
AcDbEntity
  8
3_ALL_AXES
  6
Continuous
 62
     7
100
AcDbLine
 10
713.635029
 20
513.794461
 30
0.0
 11
713.635029
 21
513.800938
 31
0.0
  0
LINE
  5
344
330
225
100
AcDbEntity
  8
3_ALL_AXES
  6
Continuous
 62
     7
100
AcDbLine
 10
713.635029
 20
513.800938
 30
0.0
 11
713.635029
 21
514.294461
 31
0.0
  0
LINE
  5
345
330
225
100
AcDbEntity
  8
3_ALL_AXES
  6
Continuous
 62
     7
100
AcDbLine
 10
121.635029
 20
489.294461
 30
0.0
 11
121.635029
 21
489.787985
 31
0.0
  0
LINE
  5
346
330
225
100
AcDbEntity
  8
3_ALL_AXES
  6
Continuous
 62
     7
100
AcDbLine
 10
121.635029
 20
489.787985
 30
0.0
 11
121.635029
 21
489.794602
 31
0.0
  0
LINE
  5
347
330
225
100
AcDbEntity
  8
3_ALL_AXES
  6
Continuous
 62
     7
100
AcDbLine
 10
121.635029
 20
489.794602
 30
0.0
 11
121.635029
 21
491.294461
 31
0.0
  0
LINE
  5
348
330
225
100
AcDbEntity
  8
3_ALL_AXES
  6
Continuous
 62
     7
100
AcDbLine
 10
121.635029
 20
491.294461
 30
0.0
 11
121.635029
 21
501.794461
 31
0.0
  0
LINE
  5
349
330
225
100
AcDbEntity
  8
3_ALL_AXES
  6
Continuous
 62
     7
100
AcDbLine
 10
121.635029
 20
501.794461
 30
0.0
 11
121.635029
 21
512.294461
 31
0.0
  0
LINE
  5
34A
330
225
100
AcDbEntity
  8
3_ALL_AXES
  6
Continuous
 62
     7
100
AcDbLine
 10
121.635029
 20
512.294461
 30
0.0
 11
121.635029
 21
513.794321
 31
0.0
  0
LINE
  5
34B
330
225
100
AcDbEntity
  8
3_ALL_AXES
  6
Continuous
 62
     7
100
AcDbLine
 10
121.635029
 20
513.794321
 30
0.0
 11
121.635029
 21
513.800938
 31
0.0
  0
LINE
  5
34C
330
225
100
AcDbEntity
  8
3_ALL_AXES
  6
Continuous
 62
     7
100
AcDbLine
 10
121.635029
 20
513.800938
 30
0.0
 11
121.635029
 21
514.294461
 31
0.0
  0
SPLINE
  5
34D
330
225
100
AcDbEntity
  8
0
  6
Continuous
 62
     2
100
AcDbSpline
 70
     0
 71
     3
 72
    20
 73
    16
 74
     0
 42
0.000000001
 43
0.0000001
 40
0.0
 40
0.0
 40
0.0
 40
0.0
 40
0.0769230769
 40
0.1538461538
 40
0.2307692308
 40
0.3076923077
 40
0.3846153846
 40
0.4615384615
 40
0.5384615385
 40
0.6153846154
 40
0.6923076923
 40
0.7692307692
 40
0.8461538462
 40
0.9230769231
 40
1.0
 40
1.0
 40
1.0
 40
1.0
 10
705.135028624
 20
632.3328628055
 30
0.0
 10
705.2151411916
 20
632.3328628055
 30
0.0
 10
705.3754726752
 20
632.3344296533
 30
0.0
 10
705.6129983605
 20
632.3413759586
 30
0.0
 10
705.8435133608
 20
632.3524962882
 30
0.0
 10
706.0649018356
 20
632.3672330828
 30
0.0
 10
706.2722968137
 20
632.3846280746
 30
0.0
 10
706.4643485691
 20
632.4038219538
 30
0.0
 10
706.6358643437
 20
632.4234615644
 30
0.0
 10
706.7861849846
 20
632.4425989803
 30
0.0
 10
706.9111674712
 20
632.4598774441
 30
0.0
 10
707.0105842806
 20
632.4744992236
 30
0.0
 10
707.0820277938
 20
632.4854885022
 30
0.0
 10
707.1254015348
 20
632.4923541464
 30
0.0
 10
707.135027901
 20
632.4939000677
 30
0.0
 10
707.1350286239
 20
632.4939002991
 30
0.0
  0
SPLINE
  5
34E
330
225
100
AcDbEntity
  8
0
  6
Continuous
 62
     2
100
AcDbSpline
 70
     0
 71
     3
 72
    20
 73
    16
 74
     0
 42
0.000000001
 43
0.0000001
 40
0.0
 40
0.0
 40
0.0
 40
0.0
 40
0.0769230769
 40
0.1538461538
 40
0.2307692308
 40
0.3076923077
 40
0.3846153846
 40
0.4615384615
 40
0.5384615385
 40
0.6153846154
 40
0.6923076923
 40
0.7692307692
 40
0.8461538462
 40
0.9230769231
 40
1.0
 40
1.0
 40
1.0
 40
1.0
 10
703.135028624
 20
632.4939002991
 30
0.0
 10
703.1350279011
 20
632.4939002991
 30
0.0
 10
703.1446517902
 20
632.4923547711
 30
0.0
 10
703.1880228279
 20
632.4854895475
 30
0.0
 10
703.2594612464
 20
632.474500972
 30
0.0
 10
703.3588826716
 20
632.459878492
 30
0.0
 10
703.483852302
 20
632.4426015834
 30
0.0
 10
703.6341920929
 20
632.4234617152
 30
0.0
 10
703.8056828292
 20
632.4038246569
 30
0.0
 10
703.9977695098
 20
632.3846272755
 30
0.0
 10
704.2051288372
 20
632.3672350526
 30
0.0
 10
704.4265580971
 20
632.3524954312
 30
0.0
 10
704.657042635
 20
632.3413766155
 30
0.0
 10
704.8946029036
 20
632.3344291365
 30
0.0
 10
705.0549236157
 20
632.3328628055
 30
0.0
 10
705.135028624
 20
632.3328628055
 30
0.0
  0
SPLINE
  5
34F
330
225
100
AcDbEntity
  8
0
  6
Continuous
 62
     2
100
AcDbSpline
 70
     0
 71
     3
 72
    20
 73
    16
 74
     0
 42
0.000000001
 43
0.0000001
 40
0.0
 40
0.0
 40
0.0
 40
0.0
 40
0.0769230769
 40
0.1538461538
 40
0.2307692308
 40
0.3076923077
 40
0.3846153846
 40
0.4615384615
 40
0.5384615385
 40
0.6153846154
 40
0.6923076923
 40
0.7692307692
 40
0.8461538462
 40
0.9230769231
 40
1.0
 40
1.0
 40
1.0
 40
1.0
 10
128.1350288541
 20
632.4939093082
 30
0.0
 10
128.1349901911
 20
632.4939093124
 30
0.0
 10
128.1446690103
 20
632.4923506357
 30
0.0
 10
128.1880172093
 20
632.4854908052
 30
0.0
 10
128.259464074
 20
632.4745004537
 30
0.0
 10
128.3588774164
 20
632.459879242
 30
0.0
 10
128.4838593197
 20
632.4426006902
 30
0.0
 10
128.6341794804
 20
632.4234631879
 30
0.0
 10
128.8056957981
 20
632.4038233291
 30
0.0
 10
128.9977485598
 20
632.3846291574
 30
0.0
 10
129.2051452893
 20
632.3672338324
 30
0.0
 10
129.426535838
 20
632.3524967357
 30
0.0
 10
129.6570533631
 20
632.3413761558
 30
0.0
 10
129.8945817381
 20
632.3344296906
 30
0.0
 10
130.0549151126
 20
632.3328628055
 30
0.0
 10
130.135028624
 20
632.3328628055
 30
0.0
  0
SPLINE
  5
350
330
225
100
AcDbEntity
  8
0
  6
Continuous
 62
     2
100
AcDbSpline
 70
     0
 71
     3
 72
    20
 73
    16
 74
     0
 42
0.000000001
 43
0.0000001
 40
0.0
 40
0.0
 40
0.0
 40
0.0
 40
0.0769230769
 40
0.1538461538
 40
0.2307692308
 40
0.3076923077
 40
0.3846153846
 40
0.4615384615
 40
0.5384615385
 40
0.6153846154
 40
0.6923076923
 40
0.7692307692
 40
0.8461538462
 40
0.9230769231
 40
1.0
 40
1.0
 40
1.0
 40
1.0
 10
130.135028624
 20
632.3328628055
 30
0.0
 10
130.2150843389
 20
632.3328628055
 30
0.0
 10
130.3753062913
 20
632.3344271885
 30
0.0
 10
130.6127259721
 20
632.341366315
 30
0.0
 10
130.8430787716
 20
632.3524720701
 30
0.0
 10
131.064399405
 20
632.3671958843
 30
0.0
 10
131.2716676996
 20
632.3845707656
 30
0.0
 10
131.4637008551
 20
632.4037527083
 30
0.0
 10
131.6351653266
 20
632.4233772484
 30
0.0
 10
131.7855234566
 20
632.4425110594
 30
0.0
 10
131.9105466812
 20
632.4597888523
 30
0.0
 10
132.0100638851
 20
632.4744206368
 30
0.0
 10
132.0816437901
 20
632.4854288204
 30
0.0
 10
132.1251679488
 20
632.4923154029
 30
0.0
 10
132.1349897533
 20
632.49389694
 30
0.0
 10
132.1350283938
 20
632.4939093082
 30
0.0
  0
LINE
  5
351
330
225
100
AcDbEntity
  8
0
  6
Continuous
 62
     2
100
AcDbLine
 10
707.135018
 20
607.493902
 30
0.0
 11
707.135029
 21
607.4939
 31
0.0
  0
SPLINE
  5
352
330
225
100
AcDbEntity
  8
0
  6
Continuous
 62
     2
100
AcDbSpline
 70
     0
 71
     3
 72
    20
 73
    16
 74
     0
 42
0.000000001
 43
0.0000001
 40
0.0
 40
0.0
 40
0.0
 40
0.0
 40
0.0769230769
 40
0.1538461538
 40
0.2307692308
 40
0.3076923077
 40
0.3846153846
 40
0.4615384615
 40
0.5384615385
 40
0.6153846154
 40
0.6923076923
 40
0.7692307692
 40
0.8461538462
 40
0.9230769231
 40
1.0
 40
1.0
 40
1.0
 40
1.0
 10
707.1350214644
 20
607.4939012551
 30
0.0
 10
707.1348074879
 20
607.4939354912
 30
0.0
 10
707.1247894864
 20
607.4955439652
 30
0.0
 10
707.0809295255
 20
607.5024835465
 30
0.0
 10
707.0091122434
 20
607.5135229026
 30
0.0
 10
706.9094254262
 20
607.5281715163
 30
0.0
 10
706.7842973693
 20
607.5454518888
 30
0.0
 10
706.6339248232
 20
607.5645726916
 30
0.0
 10
706.4624834634
 20
607.5841774289
 30
0.0
 10
706.270579061
 20
607.6033286599
 30
0.0
 10
706.0634372517
 20
607.6206755488
 30
0.0
 10
705.8423490607
 20
607.6353686355
 30
0.0
 10
705.6121992736
 20
607.6464527916
 30
0.0
 10
705.3750626721
 20
607.6533759936
 30
0.0
 10
705.2150046847
 20
607.654937447
 30
0.0
 10
705.135028624
 20
607.654937447
 30
0.0
  0
SPLINE
  5
353
330
225
100
AcDbEntity
  8
0
  6
Continuous
 62
     2
100
AcDbSpline
 70
     0
 71
     3
 72
    20
 73
    16
 74
     0
 42
0.000000001
 43
0.0000001
 40
0.0
 40
0.0
 40
0.0
 40
0.0
 40
0.0769230769
 40
0.1538461538
 40
0.2307692308
 40
0.3076923077
 40
0.3846153846
 40
0.4615384615
 40
0.5384615385
 40
0.6153846154
 40
0.6923076923
 40
0.7692307692
 40
0.8461538462
 40
0.9230769231
 40
1.0
 40
1.0
 40
1.0
 40
1.0
 10
705.135028624
 20
607.654937447
 30
0.0
 10
705.0550937763
 20
607.654937447
 30
0.0
 10
704.8951139798
 20
607.6533778352
 30
0.0
 10
704.6580390718
 20
607.6464591695
 30
0.0
 10
704.4280093446
 20
607.6353854097
 30
0.0
 10
704.2069553453
 20
607.6207003422
 30
0.0
 10
703.999910412
 20
607.6033679663
 30
0.0
 10
703.8080091813
 20
607.5842239336
 30
0.0
 10
703.6366095028
 20
607.5646301524
 30
0.0
 10
703.4862071529
 20
607.5455112775
 30
0.0
 10
703.3610545219
 20
607.5282317966
 30
0.0
 10
703.261298231
 20
607.5135761339
 30
0.0
 10
703.1893931211
 20
607.5025250374
 30
0.0
 10
703.1454168492
 20
607.4955678083
 30
0.0
 10
703.1353044561
 20
607.4939442336
 30
0.0
 10
703.1350396015
 20
607.4939018571
 30
0.0
  0
LINE
  5
354
330
225
100
AcDbEntity
  8
0
  6
Continuous
 62
     2
100
AcDbLine
 10
703.13504
 20
607.493902
 30
0.0
 11
703.135029
 21
607.4939
 31
0.0
  0
LINE
  5
355
330
225
100
AcDbEntity
  8
7_ALL_FEATURES
  6
Continuous
 62
     7
100
AcDbLine
 10
705.135029
 20
607.4939
 30
0.0
 11
706.419779
 21
607.4939
 31
0.0
  0
LINE
  5
356
330
225
100
AcDbEntity
  8
7_ALL_FEATURES
  6
Continuous
 62
     7
100
AcDbLine
 10
706.419779
 20
607.4939
 30
0.0
 11
706.435029
 21
607.4939
 31
0.0
  0
LINE
  5
357
330
225
100
AcDbEntity
  8
7_ALL_FEATURES
  6
Continuous
 62
     7
100
AcDbLine
 10
706.435029
 20
607.4939
 30
0.0
 11
706.766163
 21
607.4939
 31
0.0
  0
LINE
  5
358
330
225
100
AcDbEntity
  8
7_ALL_FEATURES
  6
Continuous
 62
     7
100
AcDbLine
 10
706.766163
 20
607.4939
 30
0.0
 11
706.835029
 21
607.4939
 31
0.0
  0
LINE
  5
359
330
225
100
AcDbEntity
  8
7_ALL_FEATURES
  6
Continuous
 62
     7
100
AcDbLine
 10
703.435029
 20
607.4939
 30
0.0
 11
703.503896
 21
607.4939
 31
0.0
  0
LINE
  5
35A
330
225
100
AcDbEntity
  8
7_ALL_FEATURES
  6
Continuous
 62
     7
100
AcDbLine
 10
703.503896
 20
607.4939
 30
0.0
 11
703.835029
 21
607.4939
 31
0.0
  0
LINE
  5
35B
330
225
100
AcDbEntity
  8
7_ALL_FEATURES
  6
Continuous
 62
     7
100
AcDbLine
 10
703.835029
 20
607.4939
 30
0.0
 11
703.850283
 21
607.4939
 31
0.0
  0
LINE
  5
35C
330
225
100
AcDbEntity
  8
7_ALL_FEATURES
  6
Continuous
 62
     7
100
AcDbLine
 10
703.850283
 20
607.4939
 30
0.0
 11
705.135029
 21
607.4939
 31
0.0
  0
LINE
  5
35D
330
225
100
AcDbEntity
  8
7_ALL_FEATURES
  6
Continuous
 62
     7
100
AcDbLine
 10
130.135029
 20
632.4939
 30
0.0
 11
129.310029
 21
632.4939
 31
0.0
  0
LINE
  5
35E
330
225
100
AcDbEntity
  8
7_ALL_FEATURES
  6
Continuous
 62
     7
100
AcDbLine
 10
129.310029
 20
632.4939
 30
0.0
 11
128.850278
 21
632.4939
 31
0.0
  0
LINE
  5
35F
330
225
100
AcDbEntity
  8
7_ALL_FEATURES
  6
Continuous
 62
     7
100
AcDbLine
 10
128.850278
 20
632.4939
 30
0.0
 11
128.835029
 21
632.4939
 31
0.0
  0
LINE
  5
360
330
225
100
AcDbEntity
  8
7_ALL_FEATURES
  6
Continuous
 62
     7
100
AcDbLine
 10
128.835029
 20
632.4939
 30
0.0
 11
128.435029
 21
632.4939
 31
0.0
  0
LINE
  5
361
330
225
100
AcDbEntity
  8
7_ALL_FEATURES
  6
Continuous
 62
     7
100
AcDbLine
 10
131.835029
 20
632.4939
 30
0.0
 11
131.435029
 21
632.4939
 31
0.0
  0
LINE
  5
362
330
225
100
AcDbEntity
  8
7_ALL_FEATURES
  6
Continuous
 62
     7
100
AcDbLine
 10
131.435029
 20
632.4939
 30
0.0
 11
131.419774
 21
632.4939
 31
0.0
  0
LINE
  5
363
330
225
100
AcDbEntity
  8
7_ALL_FEATURES
  6
Continuous
 62
     7
100
AcDbLine
 10
131.419774
 20
632.4939
 30
0.0
 11
130.960029
 21
632.4939
 31
0.0
  0
LINE
  5
364
330
225
100
AcDbEntity
  8
7_ALL_FEATURES
  6
Continuous
 62
     7
100
AcDbLine
 10
130.960029
 20
632.4939
 30
0.0
 11
130.135029
 21
632.4939
 31
0.0
  0
LINE
  5
365
330
225
100
AcDbEntity
  8
7_ALL_FEATURES
  6
Continuous
 62
     7
100
AcDbLine
 10
129.335029
 20
607.4939
 30
0.0
 11
130.619779
 21
607.4939
 31
0.0
  0
LINE
  5
366
330
225
100
AcDbEntity
  8
7_ALL_FEATURES
  6
Continuous
 62
     7
100
AcDbLine
 10
130.619779
 20
607.4939
 30
0.0
 11
130.635029
 21
607.4939
 31
0.0
  0
LINE
  5
367
330
225
100
AcDbEntity
  8
7_ALL_FEATURES
  6
Continuous
 62
     7
100
AcDbLine
 10
130.635029
 20
607.4939
 30
0.0
 11
131.035029
 21
607.4939
 31
0.0
  0
LINE
  5
368
330
225
100
AcDbEntity
  8
7_ALL_FEATURES
  6
Continuous
 62
     7
100
AcDbLine
 10
131.035029
 20
607.4939
 30
0.0
 11
131.153728
 21
607.612599
 31
0.0
  0
LINE
  5
369
330
225
100
AcDbEntity
  8
7_ALL_FEATURES
  6
Continuous
 62
     7
100
AcDbLine
 10
127.635029
 20
607.4939
 30
0.0
 11
128.035029
 21
607.4939
 31
0.0
  0
LINE
  5
36A
330
225
100
AcDbEntity
  8
7_ALL_FEATURES
  6
Continuous
 62
     7
100
AcDbLine
 10
128.035029
 20
607.4939
 30
0.0
 11
128.050283
 21
607.4939
 31
0.0
  0
LINE
  5
36B
330
225
100
AcDbEntity
  8
7_ALL_FEATURES
  6
Continuous
 62
     7
100
AcDbLine
 10
128.050283
 20
607.4939
 30
0.0
 11
128.135036
 21
607.4939
 31
0.0
  0
LINE
  5
36C
330
225
100
AcDbEntity
  8
7_ALL_FEATURES
  6
Continuous
 62
     7
100
AcDbLine
 10
128.135036
 20
607.4939
 30
0.0
 11
128.138934
 21
607.4939
 31
0.0
  0
LINE
  5
36D
330
225
100
AcDbEntity
  8
7_ALL_FEATURES
  6
Continuous
 62
     7
100
AcDbLine
 10
128.138934
 20
607.4939
 30
0.0
 11
129.335029
 21
607.4939
 31
0.0
  0
LINE
  5
36E
330
225
100
AcDbEntity
  8
7_ALL_FEATURES
  6
Continuous
 62
     7
100
AcDbLine
 10
705.135029
 20
632.4939
 30
0.0
 11
704.310029
 21
632.4939
 31
0.0
  0
LINE
  5
36F
330
225
100
AcDbEntity
  8
7_ALL_FEATURES
  6
Continuous
 62
     7
100
AcDbLine
 10
704.310029
 20
632.4939
 30
0.0
 11
703.850278
 21
632.4939
 31
0.0
  0
LINE
  5
370
330
225
100
AcDbEntity
  8
7_ALL_FEATURES
  6
Continuous
 62
     7
100
AcDbLine
 10
703.850278
 20
632.4939
 30
0.0
 11
703.835029
 21
632.4939
 31
0.0
  0
LINE
  5
371
330
225
100
AcDbEntity
  8
7_ALL_FEATURES
  6
Continuous
 62
     7
100
AcDbLine
 10
703.835029
 20
632.4939
 30
0.0
 11
703.435029
 21
632.4939
 31
0.0
  0
LINE
  5
372
330
225
100
AcDbEntity
  8
7_ALL_FEATURES
  6
Continuous
 62
     7
100
AcDbLine
 10
706.835029
 20
632.4939
 30
0.0
 11
706.435029
 21
632.4939
 31
0.0
  0
LINE
  5
373
330
225
100
AcDbEntity
  8
7_ALL_FEATURES
  6
Continuous
 62
     7
100
AcDbLine
 10
706.435029
 20
632.4939
 30
0.0
 11
706.419774
 21
632.4939
 31
0.0
  0
LINE
  5
374
330
225
100
AcDbEntity
  8
7_ALL_FEATURES
  6
Continuous
 62
     7
100
AcDbLine
 10
706.419774
 20
632.4939
 30
0.0
 11
705.960029
 21
632.4939
 31
0.0
  0
LINE
  5
375
330
225
100
AcDbEntity
  8
7_ALL_FEATURES
  6
Continuous
 62
     7
100
AcDbLine
 10
705.960029
 20
632.4939
 30
0.0
 11
705.135029
 21
632.4939
 31
0.0
  0
LINE
  5
376
330
225
100
AcDbEntity
  8
7_ALL_FEATURES
  6
Continuous
 62
     7
100
AcDbLine
 10
115.385029
 20
616.933547
 30
0.0
 11
115.385029
 21
615.9939
 31
0.0
  0
LINE
  5
377
330
225
100
AcDbEntity
  8
7_ALL_FEATURES
  6
Continuous
 62
     7
100
AcDbLine
 10
108.885029
 20
616.933547
 30
0.0
 11
108.885029
 21
615.9939
 31
0.0
  0
ARC
  5
378
330
225
100
AcDbEntity
  8
7_ALL_FEATURES
  6
Continuous
 62
     7
100
AcDbCircle
 10
112.135029
 20
619.9939
 30
0.0
 40
3.25
100
AcDbArc
 50
90.0
 51
102.110598
  0
ARC
  5
379
330
225
100
AcDbEntity
  8
7_ALL_FEATURES
  6
Continuous
 62
     7
100
AcDbCircle
 10
112.135029
 20
619.9939
 30
0.0
 40
3.25
100
AcDbArc
 50
102.110598
 51
106.075226
  0
ARC
  5
37A
330
225
100
AcDbEntity
  8
7_ALL_FEATURES
  6
Continuous
 62
     7
100
AcDbCircle
 10
112.135029
 20
619.9939
 30
0.0
 40
3.25
100
AcDbArc
 50
106.075226
 51
114.24575
  0
ARC
  5
37B
330
225
100
AcDbEntity
  8
7_ALL_FEATURES
  6
Continuous
 62
     7
100
AcDbCircle
 10
112.135029
 20
619.9939
 30
0.0
 40
3.25
100
AcDbArc
 50
114.24575
 51
118.934903
  0
ARC
  5
37C
330
225
100
AcDbEntity
  8
7_ALL_FEATURES
  6
Continuous
 62
     7
100
AcDbCircle
 10
112.135029
 20
619.9939
 30
0.0
 40
3.25
100
AcDbArc
 50
118.934903
 51
126.42012
  0
ARC
  5
37D
330
225
100
AcDbEntity
  8
7_ALL_FEATURES
  6
Continuous
 62
     7
100
AcDbCircle
 10
112.135029
 20
619.9939
 30
0.0
 40
3.25
100
AcDbArc
 50
126.42012
 51
131.334494
  0
ARC
  5
37E
330
225
100
AcDbEntity
  8
7_ALL_FEATURES
  6
Continuous
 62
     7
100
AcDbCircle
 10
112.135029
 20
619.9939
 30
0.0
 40
3.25
100
AcDbArc
 50
131.334494
 51
138.665506
  0
ARC
  5
37F
330
225
100
AcDbEntity
  8
7_ALL_FEATURES
  6
Continuous
 62
     7
100
AcDbCircle
 10
112.135029
 20
619.9939
 30
0.0
 40
3.25
100
AcDbArc
 50
138.665506
 51
143.57988
  0
ARC
  5
380
330
225
100
AcDbEntity
  8
7_ALL_FEATURES
  6
Continuous
 62
     7
100
AcDbCircle
 10
112.135029
 20
619.9939
 30
0.0
 40
3.25
100
AcDbArc
 50
143.57988
 51
151.065097
  0
ARC
  5
381
330
225
100
AcDbEntity
  8
7_ALL_FEATURES
  6
Continuous
 62
     7
100
AcDbCircle
 10
112.135029
 20
619.9939
 30
0.0
 40
3.25
100
AcDbArc
 50
151.065097
 51
155.75425
  0
ARC
  5
382
330
225
100
AcDbEntity
  8
7_ALL_FEATURES
  6
Continuous
 62
     7
100
AcDbCircle
 10
112.135029
 20
619.9939
 30
0.0
 40
3.25
100
AcDbArc
 50
155.75425
 51
163.924774
  0
ARC
  5
383
330
225
100
AcDbEntity
  8
7_ALL_FEATURES
  6
Continuous
 62
     7
100
AcDbCircle
 10
112.135029
 20
619.9939
 30
0.0
 40
3.25
100
AcDbArc
 50
163.924774
 51
167.889402
  0
ARC
  5
384
330
225
100
AcDbEntity
  8
7_ALL_FEATURES
  6
Continuous
 62
     7
100
AcDbCircle
 10
112.135029
 20
619.9939
 30
0.0
 40
3.25
100
AcDbArc
 50
167.889402
 51
180.0
  0
LINE
  5
385
330
225
100
AcDbEntity
  8
7_ALL_FEATURES
  6
Continuous
 62
     7
100
AcDbLine
 10
115.385029
 20
618.889674
 30
0.0
 11
115.385029
 21
616.933547
 31
0.0
  0
LINE
  5
386
330
225
100
AcDbEntity
  8
7_ALL_FEATURES
  6
Continuous
 62
     7
100
AcDbLine
 10
108.885029
 20
618.889674
 30
0.0
 11
108.885029
 21
616.933547
 31
0.0
  0
ARC
  5
387
330
225
100
AcDbEntity
  8
7_ALL_FEATURES
  6
Continuous
 62
     7
100
AcDbCircle
 10
112.135029
 20
619.9939
 30
0.0
 40
3.25
100
AcDbArc
 50
77.879831
 51
90.0
  0
ARC
  5
388
330
225
100
AcDbEntity
  8
7_ALL_FEATURES
  6
Continuous
 62
     7
100
AcDbCircle
 10
112.135029
 20
619.9939
 30
0.0
 40
3.25
100
AcDbArc
 50
73.932368
 51
77.879831
  0
ARC
  5
389
330
225
100
AcDbEntity
  8
7_ALL_FEATURES
  6
Continuous
 62
     7
100
AcDbCircle
 10
112.135029
 20
619.9939
 30
0.0
 40
3.25
100
AcDbArc
 50
65.739259
 51
73.932368
  0
ARC
  5
38A
330
225
100
AcDbEntity
  8
7_ALL_FEATURES
  6
Continuous
 62
     7
100
AcDbCircle
 10
112.135029
 20
619.9939
 30
0.0
 40
3.25
100
AcDbArc
 50
61.077758
 51
65.739259
  0
ARC
  5
38B
330
225
100
AcDbEntity
  8
7_ALL_FEATURES
  6
Continuous
 62
     7
100
AcDbCircle
 10
112.135029
 20
619.9939
 30
0.0
 40
3.25
100
AcDbArc
 50
53.562981
 51
61.077758
  0
ARC
  5
38C
330
225
100
AcDbEntity
  8
7_ALL_FEATURES
  6
Continuous
 62
     7
100
AcDbCircle
 10
112.135029
 20
619.9939
 30
0.0
 40
3.25
100
AcDbArc
 50
48.68143
 51
53.562981
  0
ARC
  5
38D
330
225
100
AcDbEntity
  8
7_ALL_FEATURES
  6
Continuous
 62
     7
100
AcDbCircle
 10
112.135029
 20
619.9939
 30
0.0
 40
3.25
100
AcDbArc
 50
41.31857
 51
48.68143
  0
ARC
  5
38E
330
225
100
AcDbEntity
  8
7_ALL_FEATURES
  6
Continuous
 62
     7
100
AcDbCircle
 10
112.135029
 20
619.9939
 30
0.0
 40
3.25
100
AcDbArc
 50
36.437019
 51
41.31857
  0
ARC
  5
38F
330
225
100
AcDbEntity
  8
7_ALL_FEATURES
  6
Continuous
 62
     7
100
AcDbCircle
 10
112.135029
 20
619.9939
 30
0.0
 40
3.25
100
AcDbArc
 50
28.922242
 51
36.437019
  0
ARC
  5
390
330
225
100
AcDbEntity
  8
7_ALL_FEATURES
  6
Continuous
 62
     7
100
AcDbCircle
 10
112.135029
 20
619.9939
 30
0.0
 40
3.25
100
AcDbArc
 50
24.260741
 51
28.922242
  0
ARC
  5
391
330
225
100
AcDbEntity
  8
7_ALL_FEATURES
  6
Continuous
 62
     7
100
AcDbCircle
 10
112.135029
 20
619.9939
 30
0.0
 40
3.25
100
AcDbArc
 50
16.067632
 51
24.260741
  0
ARC
  5
392
330
225
100
AcDbEntity
  8
7_ALL_FEATURES
  6
Continuous
 62
     7
100
AcDbCircle
 10
112.135029
 20
619.9939
 30
0.0
 40
3.25
100
AcDbArc
 50
12.120169
 51
16.067632
  0
ARC
  5
393
330
225
100
AcDbEntity
  8
7_ALL_FEATURES
  6
Continuous
 62
     7
100
AcDbCircle
 10
112.135029
 20
619.9939
 30
0.0
 40
3.25
100
AcDbArc
 50
0.0
 51
12.120169
  0
ARC
  5
394
330
225
100
AcDbEntity
  8
7_ALL_FEATURES
  6
Continuous
 62
     7
100
AcDbCircle
 10
112.135029
 20
615.9939
 30
0.0
 40
3.25
100
AcDbArc
 50
90.0
 51
270.0
  0
ARC
  5
395
330
225
100
AcDbEntity
  8
7_ALL_FEATURES
  6
Continuous
 62
     7
100
AcDbCircle
 10
112.135029
 20
615.9939
 30
0.0
 40
3.25
100
AcDbArc
 50
270.0
 51
90.0
  0
ARC
  5
396
330
225
100
AcDbEntity
  8
7_ALL_FEATURES
  6
Continuous
 62
     7
100
AcDbCircle
 10
112.135029
 20
619.9939
 30
0.0
 40
3.25
100
AcDbArc
 50
0.0
 51
12.110598
  0
ARC
  5
397
330
225
100
AcDbEntity
  8
7_ALL_FEATURES
  6
Continuous
 62
     7
100
AcDbCircle
 10
112.135029
 20
619.9939
 30
0.0
 40
3.25
100
AcDbArc
 50
12.110598
 51
16.075226
  0
ARC
  5
398
330
225
100
AcDbEntity
  8
7_ALL_FEATURES
  6
Continuous
 62
     7
100
AcDbCircle
 10
112.135029
 20
619.9939
 30
0.0
 40
3.25
100
AcDbArc
 50
16.075226
 51
24.24575
  0
ARC
  5
399
330
225
100
AcDbEntity
  8
7_ALL_FEATURES
  6
Continuous
 62
     7
100
AcDbCircle
 10
112.135029
 20
619.9939
 30
0.0
 40
3.25
100
AcDbArc
 50
24.24575
 51
28.934903
  0
ARC
  5
39A
330
225
100
AcDbEntity
  8
7_ALL_FEATURES
  6
Continuous
 62
     7
100
AcDbCircle
 10
112.135029
 20
619.9939
 30
0.0
 40
3.25
100
AcDbArc
 50
28.934903
 51
36.42012
  0
ARC
  5
39B
330
225
100
AcDbEntity
  8
7_ALL_FEATURES
  6
Continuous
 62
     7
100
AcDbCircle
 10
112.135029
 20
619.9939
 30
0.0
 40
3.25
100
AcDbArc
 50
36.42012
 51
41.334494
  0
ARC
  5
39C
330
225
100
AcDbEntity
  8
7_ALL_FEATURES
  6
Continuous
 62
     7
100
AcDbCircle
 10
112.135029
 20
619.9939
 30
0.0
 40
3.25
100
AcDbArc
 50
41.334494
 51
48.665506
  0
ARC
  5
39D
330
225
100
AcDbEntity
  8
7_ALL_FEATURES
  6
Continuous
 62
     7
100
AcDbCircle
 10
112.135029
 20
619.9939
 30
0.0
 40
3.25
100
AcDbArc
 50
48.665506
 51
53.57988
  0
ARC
  5
39E
330
225
100
AcDbEntity
  8
7_ALL_FEATURES
  6
Continuous
 62
     7
100
AcDbCircle
 10
112.135029
 20
619.9939
 30
0.0
 40
3.25
100
AcDbArc
 50
53.57988
 51
61.065097
  0
ARC
  5
39F
330
225
100
AcDbEntity
  8
7_ALL_FEATURES
  6
Continuous
 62
     7
100
AcDbCircle
 10
112.135029
 20
619.9939
 30
0.0
 40
3.25
100
AcDbArc
 50
61.065097
 51
65.75425
  0
ARC
  5
3A0
330
225
100
AcDbEntity
  8
7_ALL_FEATURES
  6
Continuous
 62
     7
100
AcDbCircle
 10
112.135029
 20
619.9939
 30
0.0
 40
3.25
100
AcDbArc
 50
65.75425
 51
73.924774
  0
ARC
  5
3A1
330
225
100
AcDbEntity
  8
7_ALL_FEATURES
  6
Continuous
 62
     7
100
AcDbCircle
 10
112.135029
 20
619.9939
 30
0.0
 40
3.25
100
AcDbArc
 50
73.924774
 51
77.889402
  0
ARC
  5
3A2
330
225
100
AcDbEntity
  8
7_ALL_FEATURES
  6
Continuous
 62
     7
100
AcDbCircle
 10
112.135029
 20
619.9939
 30
0.0
 40
3.25
100
AcDbArc
 50
77.889402
 51
90.0
  0
LINE
  5
3A3
330
225
100
AcDbEntity
  8
7_ALL_FEATURES
  6
Continuous
 62
     7
100
AcDbLine
 10
115.385029
 20
619.9939
 30
0.0
 11
115.385029
 21
618.889674
 31
0.0
  0
LINE
  5
3A4
330
225
100
AcDbEntity
  8
7_ALL_FEATURES
  6
Continuous
 62
     7
100
AcDbLine
 10
108.885029
 20
619.9939
 30
0.0
 11
108.885029
 21
618.889674
 31
0.0
  0
ARC
  5
3A5
330
225
100
AcDbEntity
  8
7_ALL_FEATURES
  6
Continuous
 62
     7
100
AcDbCircle
 10
112.135029
 20
619.9939
 30
0.0
 40
3.25
100
AcDbArc
 50
167.879831
 51
180.0
  0
ARC
  5
3A6
330
225
100
AcDbEntity
  8
7_ALL_FEATURES
  6
Continuous
 62
     7
100
AcDbCircle
 10
112.135029
 20
619.9939
 30
0.0
 40
3.25
100
AcDbArc
 50
163.932368
 51
167.879831
  0
ARC
  5
3A7
330
225
100
AcDbEntity
  8
7_ALL_FEATURES
  6
Continuous
 62
     7
100
AcDbCircle
 10
112.135029
 20
619.9939
 30
0.0
 40
3.25
100
AcDbArc
 50
155.739259
 51
163.932368
  0
ARC
  5
3A8
330
225
100
AcDbEntity
  8
7_ALL_FEATURES
  6
Continuous
 62
     7
100
AcDbCircle
 10
112.135029
 20
619.9939
 30
0.0
 40
3.25
100
AcDbArc
 50
151.077758
 51
155.739259
  0
ARC
  5
3A9
330
225
100
AcDbEntity
  8
7_ALL_FEATURES
  6
Continuous
 62
     7
100
AcDbCircle
 10
112.135029
 20
619.9939
 30
0.0
 40
3.25
100
AcDbArc
 50
143.562981
 51
151.077758
  0
ARC
  5
3AA
330
225
100
AcDbEntity
  8
7_ALL_FEATURES
  6
Continuous
 62
     7
100
AcDbCircle
 10
112.135029
 20
619.9939
 30
0.0
 40
3.25
100
AcDbArc
 50
138.68143
 51
143.562981
  0
ARC
  5
3AB
330
225
100
AcDbEntity
  8
7_ALL_FEATURES
  6
Continuous
 62
     7
100
AcDbCircle
 10
112.135029
 20
619.9939
 30
0.0
 40
3.25
100
AcDbArc
 50
131.31857
 51
138.68143
  0
ARC
  5
3AC
330
225
100
AcDbEntity
  8
7_ALL_FEATURES
  6
Continuous
 62
     7
100
AcDbCircle
 10
112.135029
 20
619.9939
 30
0.0
 40
3.25
100
AcDbArc
 50
126.437019
 51
131.31857
  0
ARC
  5
3AD
330
225
100
AcDbEntity
  8
7_ALL_FEATURES
  6
Continuous
 62
     7
100
AcDbCircle
 10
112.135029
 20
619.9939
 30
0.0
 40
3.25
100
AcDbArc
 50
118.922242
 51
126.437019
  0
ARC
  5
3AE
330
225
100
AcDbEntity
  8
7_ALL_FEATURES
  6
Continuous
 62
     7
100
AcDbCircle
 10
112.135029
 20
619.9939
 30
0.0
 40
3.25
100
AcDbArc
 50
114.260741
 51
118.922242
  0
ARC
  5
3AF
330
225
100
AcDbEntity
  8
7_ALL_FEATURES
  6
Continuous
 62
     7
100
AcDbCircle
 10
112.135029
 20
619.9939
 30
0.0
 40
3.25
100
AcDbArc
 50
106.067632
 51
114.260741
  0
ARC
  5
3B0
330
225
100
AcDbEntity
  8
7_ALL_FEATURES
  6
Continuous
 62
     7
100
AcDbCircle
 10
112.135029
 20
619.9939
 30
0.0
 40
3.25
100
AcDbArc
 50
102.120169
 51
106.067632
  0
ARC
  5
3B1
330
225
100
AcDbEntity
  8
7_ALL_FEATURES
  6
Continuous
 62
     7
100
AcDbCircle
 10
112.135029
 20
619.9939
 30
0.0
 40
3.25
100
AcDbArc
 50
90.0
 51
102.120169
  0
SPLINE
  5
3B2
330
225
100
AcDbEntity
  8
7_ALL_FEATURES
  6
Continuous
 62
     9
100
AcDbSpline
 70
     0
 71
     3
 72
    13
 73
     9
 74
     0
 42
0.000000001
 43
0.0000001
 40
0.0
 40
0.0
 40
0.0
 40
0.0
 40
0.1197402588
 40
0.2403491791
 40
0.3625472792
 40
0.4867900665
 40
0.7404664294
 40
1.0
 40
1.0
 40
1.0
 40
1.0
 10
115.385028624
 20
616.9335474453
 30
0.0
 10
115.385028624
 20
617.1279625533
 30
0.0
 10
115.3427514882
 20
617.519480623
 30
0.0
 10
115.1554368562
 20
618.0819388147
 30
0.0
 10
114.8516408253
 20
618.599732974
 30
0.0
 10
114.3052673293
 20
619.206876405
 30
0.0
 10
113.397273127
 20
619.7562182805
 30
0.0
 10
112.5564177849
 20
619.9059748415
 30
0.0
 10
112.135028624
 20
619.9059748415
 30
0.0
  0
SPLINE
  5
3B3
330
225
100
AcDbEntity
  8
7_ALL_FEATURES
  6
Continuous
 62
     9
100
AcDbSpline
 70
     0
 71
     3
 72
    13
 73
     9
 74
     0
 42
0.000000001
 43
0.0000001
 40
0.0
 40
0.0
 40
0.0
 40
0.0
 40
0.1197402588
 40
0.2403491791
 40
0.3625472792
 40
0.4867900665
 40
0.7404664294
 40
1.0
 40
1.0
 40
1.0
 40
1.0
 10
115.385028624
 20
618.8896736049
 30
0.0
 10
115.385028624
 20
619.0840887129
 30
0.0
 10
115.3427514882
 20
619.4756067825
 30
0.0
 10
115.1554368562
 20
620.0380649743
 30
0.0
 10
114.8516408253
 20
620.5558591336
 30
0.0
 10
114.3052673293
 20
621.1630025646
 30
0.0
 10
113.397273127
 20
621.7123444401
 30
0.0
 10
112.5564177849
 20
621.8621010011
 30
0.0
 10
112.135028624
 20
621.8621010011
 30
0.0
  0
SPLINE
  5
3B4
330
225
100
AcDbEntity
  8
7_ALL_FEATURES
  6
Continuous
 62
     9
100
AcDbSpline
 70
     0
 71
     3
 72
    13
 73
     9
 74
     0
 42
0.000000001
 43
0.0000001
 40
0.0
 40
0.0
 40
0.0
 40
0.0
 40
0.2595335706
 40
0.5132099335
 40
0.6374527208
 40
0.7596508209
 40
0.8802597412
 40
1.0
 40
1.0
 40
1.0
 40
1.0
 10
112.135028624
 20
619.9059748415
 30
0.0
 10
111.713639463
 20
619.9059748415
 30
0.0
 10
110.8727841209
 20
619.7562182805
 30
0.0
 10
109.9647899186
 20
619.206876405
 30
0.0
 10
109.4184164226
 20
618.599732974
 30
0.0
 10
109.1146203918
 20
618.0819388147
 30
0.0
 10
108.9273057597
 20
617.519480623
 30
0.0
 10
108.885028624
 20
617.1279625533
 30
0.0
 10
108.885028624
 20
616.9335474453
 30
0.0
  0
SPLINE
  5
3B5
330
225
100
AcDbEntity
  8
7_ALL_FEATURES
  6
Continuous
 62
     9
100
AcDbSpline
 70
     0
 71
     3
 72
    13
 73
     9
 74
     0
 42
0.000000001
 43
0.0000001
 40
0.0
 40
0.0
 40
0.0
 40
0.0
 40
0.2595335706
 40
0.5132099335
 40
0.6374527208
 40
0.7596508209
 40
0.8802597412
 40
1.0
 40
1.0
 40
1.0
 40
1.0
 10
112.135028624
 20
621.8621010011
 30
0.0
 10
111.713639463
 20
621.8621010011
 30
0.0
 10
110.8727841209
 20
621.7123444401
 30
0.0
 10
109.9647899186
 20
621.1630025646
 30
0.0
 10
109.4184164226
 20
620.5558591336
 30
0.0
 10
109.1146203918
 20
620.0380649743
 30
0.0
 10
108.9273057597
 20
619.4756067826
 30
0.0
 10
108.885028624
 20
619.0840887129
 30
0.0
 10
108.885028624
 20
618.8896736049
 30
0.0
  0
ARC
  5
3B6
330
225
100
AcDbEntity
  8
7_ALL_FEATURES
  6
Continuous
 62
     7
100
AcDbCircle
 10
112.135029
 20
619.9939
 30
0.0
 40
3.5
100
AcDbArc
 50
0.0
 51
90.0
  0
ARC
  5
3B7
330
225
100
AcDbEntity
  8
3_ALL_AXES
  6
Continuous
 62
     7
100
AcDbCircle
 10
112.135029
 20
619.9939
 30
0.0
 40
7.0
100
AcDbArc
 50
0.0
 51
21.786789
  0
ARC
  5
3B8
330
225
100
AcDbEntity
  8
3_ALL_AXES
  6
Continuous
 62
     7
100
AcDbCircle
 10
112.135029
 20
619.9939
 30
0.0
 40
7.0
100
AcDbArc
 50
38.213211
 51
81.786789
  0
ARC
  5
3B9
330
225
100
AcDbEntity
  8
3_ALL_AXES
  6
Continuous
 62
     7
100
AcDbCircle
 10
112.135029
 20
619.9939
 30
0.0
 40
7.0
100
AcDbArc
 50
98.213211
 51
141.786789
  0
ARC
  5
3BA
330
225
100
AcDbEntity
  8
3_ALL_AXES
  6
Continuous
 62
     7
100
AcDbCircle
 10
112.135029
 20
619.9939
 30
0.0
 40
7.0
100
AcDbArc
 50
158.213211
 51
180.0
  0
ARC
  5
3BB
330
225
100
AcDbEntity
  8
7_ALL_FEATURES
  6
Continuous
 62
     7
100
AcDbCircle
 10
112.135029
 20
619.9939
 30
0.0
 40
3.5
100
AcDbArc
 50
90.0
 51
180.0
  0
LINE
  5
3BC
330
225
100
AcDbEntity
  8
3_ALL_AXES
  6
Continuous
 62
     7
100
AcDbLine
 10
118.635029
 20
622.591976
 30
0.0
 11
120.135029
 21
619.9939
 31
0.0
  0
ARC
  5
3BD
330
225
100
AcDbEntity
  8
3_ALL_AXES
  6
Continuous
 62
     7
100
AcDbCircle
 10
112.135029
 20
619.9939
 30
0.0
 40
7.0
100
AcDbArc
 50
180.0
 51
201.786789
  0
LINE
  5
3BE
330
225
100
AcDbEntity
  8
3_ALL_AXES
  6
Continuous
 62
     7
100
AcDbLine
 10
117.635029
 20
624.324027
 30
0.0
 11
118.635029
 21
622.591976
 31
0.0
  0
ARC
  5
3BF
330
225
100
AcDbEntity
  8
3_ALL_AXES
  6
Continuous
 62
     7
100
AcDbCircle
 10
112.135029
 20
619.9939
 30
0.0
 40
7.0
100
AcDbArc
 50
218.213211
 51
256.271628
  0
LINE
  5
3C0
330
225
100
AcDbEntity
  8
3_ALL_AXES
  6
Continuous
 62
     7
100
AcDbLine
 10
116.135029
 20
626.922103
 30
0.0
 11
117.635029
 21
624.324027
 31
0.0
  0
ARC
  5
3C1
330
225
100
AcDbEntity
  8
3_ALL_AXES
  6
Continuous
 62
     7
100
AcDbCircle
 10
112.135029
 20
619.9939
 30
0.0
 40
7.0
100
AcDbArc
 50
283.728372
 51
321.786789
  0
ARC
  5
3C2
330
225
100
AcDbEntity
  8
3_ALL_AXES
  6
Continuous
 62
     7
100
AcDbCircle
 10
112.135029
 20
619.9939
 30
0.0
 40
7.0
100
AcDbArc
 50
338.213211
 51
360.0
  0
ARC
  5
3C3
330
225
100
AcDbEntity
  8
7_ALL_FEATURES
  6
Continuous
 62
     7
100
AcDbCircle
 10
112.135029
 20
619.9939
 30
0.0
 40
3.5
100
AcDbArc
 50
341.304825
 51
360.0
  0
ARC
  5
3C4
330
225
100
AcDbEntity
  8
7_ALL_FEATURES
  6
Continuous
 62
     7
100
AcDbCircle
 10
112.135029
 20
619.9939
 30
0.0
 40
3.5
100
AcDbArc
 50
340.0
 51
341.304825
  0
ARC
  5
3C5
330
225
100
AcDbEntity
  8
7_ALL_FEATURES
  6
Continuous
 62
     7
100
AcDbCircle
 10
112.135029
 20
619.9939
 30
0.0
 40
3.5
100
AcDbArc
 50
338.490347
 51
340.0
  0
ARC
  5
3C6
330
225
100
AcDbEntity
  8
7_ALL_FEATURES
  6
Continuous
 62
     7
100
AcDbCircle
 10
112.135029
 20
619.9939
 30
0.0
 40
3.5
100
AcDbArc
 50
200.0
 51
201.509653
  0
ARC
  5
3C7
330
225
100
AcDbEntity
  8
7_ALL_FEATURES
  6
Continuous
 62
     7
100
AcDbCircle
 10
112.135029
 20
619.9939
 30
0.0
 40
3.5
100
AcDbArc
 50
198.695175
 51
200.0
  0
ARC
  5
3C8
330
225
100
AcDbEntity
  8
7_ALL_FEATURES
  6
Continuous
 62
     7
100
AcDbCircle
 10
112.135029
 20
619.9939
 30
0.0
 40
3.5
100
AcDbArc
 50
180.0
 51
198.695175
  0
LINE
  5
3C9
330
225
100
AcDbEntity
  8
3_ALL_AXES
  6
Continuous
 62
     7
100
AcDbLine
 10
113.135029
 20
626.922103
 30
0.0
 11
116.135029
 21
626.922103
 31
0.0
  0
LINE
  5
3CA
330
225
100
AcDbEntity
  8
3_ALL_AXES
  6
Continuous
 62
     7
100
AcDbLine
 10
111.135029
 20
626.922103
 30
0.0
 11
113.135029
 21
626.922103
 31
0.0
  0
LINE
  5
3CB
330
225
100
AcDbEntity
  8
3_ALL_AXES
  6
Continuous
 62
     7
100
AcDbLine
 10
118.635029
 20
617.395824
 30
0.0
 11
117.635029
 21
615.663773
 31
0.0
  0
LINE
  5
3CC
330
225
100
AcDbEntity
  8
3_ALL_AXES
  6
Continuous
 62
     7
100
AcDbLine
 10
108.135029
 20
626.922103
 30
0.0
 11
111.135029
 21
626.922103
 31
0.0
  0
LINE
  5
3CD
330
225
100
AcDbEntity
  8
3_ALL_AXES
  6
Continuous
 62
     7
100
AcDbLine
 10
117.635029
 20
615.663773
 30
0.0
 11
116.135029
 21
613.065697
 31
0.0
  0
LINE
  5
3CE
330
225
100
AcDbEntity
  8
3_ALL_AXES
  6
Continuous
 62
     7
100
AcDbLine
 10
120.135029
 20
619.9939
 30
0.0
 11
118.635029
 21
617.395824
 31
0.0
  0
LINE
  5
3CF
330
225
100
AcDbEntity
  8
3_ALL_AXES
  6
Continuous
 62
     7
100
AcDbLine
 10
106.635029
 20
624.324027
 30
0.0
 11
108.135029
 21
626.922103
 31
0.0
  0
LINE
  5
3D0
330
225
100
AcDbEntity
  8
3_ALL_AXES
  6
Continuous
 62
     7
100
AcDbLine
 10
110.725062
 20
613.065697
 30
0.0
 11
108.135029
 21
613.065697
 31
0.0
  0
LINE
  5
3D1
330
225
100
AcDbEntity
  8
3_ALL_AXES
  6
Continuous
 62
     7
100
AcDbLine
 10
105.635029
 20
622.591976
 30
0.0
 11
106.635029
 21
624.324027
 31
0.0
  0
LINE
  5
3D2
330
225
100
AcDbEntity
  8
3_ALL_AXES
  6
Continuous
 62
     7
100
AcDbLine
 10
116.135029
 20
613.065697
 30
0.0
 11
113.544995
 21
613.065697
 31
0.0
  0
LINE
  5
3D3
330
225
100
AcDbEntity
  8
3_ALL_AXES
  6
Continuous
 62
     7
100
AcDbLine
 10
104.135029
 20
619.9939
 30
0.0
 11
105.635029
 21
622.591976
 31
0.0
  0
LINE
  5
3D4
330
225
100
AcDbEntity
  8
3_ALL_AXES
  6
Continuous
 62
     7
100
AcDbLine
 10
108.135029
 20
613.065697
 30
0.0
 11
106.635029
 21
615.663773
 31
0.0
  0
LINE
  5
3D5
330
225
100
AcDbEntity
  8
3_ALL_AXES
  6
Continuous
 62
     7
100
AcDbLine
 10
106.635029
 20
615.663773
 30
0.0
 11
105.635029
 21
617.395824
 31
0.0
  0
LINE
  5
3D6
330
225
100
AcDbEntity
  8
3_ALL_AXES
  6
Continuous
 62
     7
100
AcDbLine
 10
105.635029
 20
617.395824
 30
0.0
 11
104.135029
 21
619.9939
 31
0.0
  0
LINE
  5
3D7
330
225
100
AcDbEntity
  8
7_ALL_FEATURES
  6
Continuous
 62
     7
100
AcDbLine
 10
715.635029
 20
632.4939
 30
0.0
 11
714.135029
 21
632.4939
 31
0.0
  0
LINE
  5
3D8
330
225
100
AcDbEntity
  8
7_ALL_FEATURES
  6
Continuous
 62
     7
100
AcDbLine
 10
716.135029
 20
631.9939
 30
0.0
 11
715.635029
 21
632.4939
 31
0.0
  0
LINE
  5
3D9
330
225
100
AcDbEntity
  8
7_ALL_FEATURES
  6
Continuous
 62
     7
100
AcDbLine
 10
716.135029
 20
607.9939
 30
0.0
 11
715.635029
 21
607.4939
 31
0.0
  0
LINE
  5
3DA
330
225
100
AcDbEntity
  8
7_ALL_FEATURES
  6
Continuous
 62
     7
100
AcDbLine
 10
716.135029
 20
631.9939
 30
0.0
 11
715.635029
 21
632.4939
 31
0.0
  0
LINE
  5
3DB
330
225
100
AcDbEntity
  8
7_ALL_FEATURES
  6
Continuous
 62
     7
100
AcDbLine
 10
716.135029
 20
607.9939
 30
0.0
 11
716.135029
 21
631.9939
 31
0.0
  0
LINE
  5
3DC
330
225
100
AcDbEntity
  8
7_ALL_FEATURES
  6
Continuous
 62
     7
100
AcDbLine
 10
716.135029
 20
607.9939
 30
0.0
 11
715.635029
 21
607.4939
 31
0.0
  0
LINE
  5
3DD
330
225
100
AcDbEntity
  8
7_ALL_FEATURES
  6
Continuous
 62
     7
100
AcDbLine
 10
713.635029
 20
607.9939
 30
0.0
 11
714.135029
 21
607.4939
 31
0.0
  0
LINE
  5
3DE
330
225
100
AcDbEntity
  8
7_ALL_FEATURES
  6
Continuous
 62
     7
100
AcDbLine
 10
713.635029
 20
631.9939
 30
0.0
 11
714.135029
 21
632.4939
 31
0.0
  0
LINE
  5
3DF
330
225
100
AcDbEntity
  8
7_ALL_FEATURES
  6
Continuous
 62
     7
100
AcDbLine
 10
713.635029
 20
607.9939
 30
0.0
 11
714.135029
 21
607.4939
 31
0.0
  0
LINE
  5
3E0
330
225
100
AcDbEntity
  8
7_ALL_FEATURES
  6
Continuous
 62
     7
100
AcDbLine
 10
713.635029
 20
631.9939
 30
0.0
 11
714.135029
 21
632.4939
 31
0.0
  0
LINE
  5
3E1
330
225
100
AcDbEntity
  8
3_ALL_AXES
  6
Continuous
 62
     7
100
AcDbLine
 10
714.135029
 20
632.4939
 30
0.0
 11
715.635029
 21
632.4939
 31
0.0
  0
LINE
  5
3E2
330
225
100
AcDbEntity
  8
3_ALL_AXES
  6
Continuous
 62
     7
100
AcDbLine
 10
714.135029
 20
607.4939
 30
0.0
 11
715.635029
 21
607.4939
 31
0.0
  0
LINE
  5
3E3
330
225
100
AcDbEntity
  8
3_ALL_AXES
  6
Continuous
 62
     7
100
AcDbLine
 10
714.135029
 20
607.4939
 30
0.0
 11
715.635029
 21
607.4939
 31
0.0
  0
LINE
  5
3E4
330
225
100
AcDbEntity
  8
7_ALL_FEATURES
  6
Continuous
 62
     7
100
AcDbLine
 10
714.135029
 20
607.4939
 30
0.0
 11
714.135029
 21
632.4939
 31
0.0
  0
LINE
  5
3E5
330
225
100
AcDbEntity
  8
7_ALL_FEATURES
  6
Continuous
 62
     7
100
AcDbLine
 10
715.635029
 20
607.4939
 30
0.0
 11
715.635029
 21
632.4939
 31
0.0
  0
LINE
  5
3E6
330
225
100
AcDbEntity
  8
7_ALL_FEATURES
  6
Continuous
 62
     7
100
AcDbLine
 10
103.135029
 20
625.426211
 30
0.0
 11
103.135029
 21
614.561589
 31
0.0
  0
LINE
  5
3E7
330
225
100
AcDbEntity
  8
7_ALL_FEATURES
  6
Continuous
 62
     7
100
AcDbLine
 10
103.635029
 20
607.4939
 30
0.0
 11
121.135029
 21
607.4939
 31
0.0
  0
ARC
  5
3E8
330
225
100
AcDbEntity
  8
3_ALL_AXES
  6
Continuous
 62
     7
100
AcDbCircle
 10
108.135029
 20
619.9939
 30
0.0
 40
12.5
100
AcDbArc
 50
328.870387
 51
31.129613
  0
LINE
  5
3E9
330
225
100
AcDbEntity
  8
7_ALL_FEATURES
  6
Continuous
 62
     7
100
AcDbLine
 10
103.135029
 20
625.426211
 30
0.0
 11
103.135029
 21
631.993771
 31
0.0
  0
LINE
  5
3EA
330
225
100
AcDbEntity
  8
3_ALL_AXES
  6
Continuous
 62
     7
100
AcDbLine
 10
121.135029
 20
607.4939
 30
0.0
 11
103.635029
 21
607.4939
 31
0.0
  0
LINE
  5
3EB
330
225
100
AcDbEntity
  8
7_ALL_FEATURES
  6
Continuous
 62
     7
100
AcDbLine
 10
103.135029
 20
607.99403
 30
0.0
 11
103.135029
 21
614.561589
 31
0.0
  0
LINE
  5
3EC
330
225
100
AcDbEntity
  8
3_ALL_AXES
  6
Continuous
 62
     7
100
AcDbLine
 10
121.135029
 20
632.4939
 30
0.0
 11
103.635029
 21
632.4939
 31
0.0
  0
LINE
  5
3ED
330
225
100
AcDbEntity
  8
7_ALL_FEATURES
  6
Continuous
 62
     7
100
AcDbLine
 10
103.135029
 20
607.9939
 30
0.0
 11
103.635029
 21
607.4939
 31
0.0
  0
LINE
  5
3EE
330
225
100
AcDbEntity
  8
7_ALL_FEATURES
  6
Continuous
 62
     7
100
AcDbLine
 10
103.135029
 20
631.9939
 30
0.0
 11
103.635029
 21
632.4939
 31
0.0
  0
LINE
  5
3EF
330
225
100
AcDbEntity
  8
7_ALL_FEATURES
  6
Continuous
 62
     7
100
AcDbLine
 10
121.635029
 20
631.9939
 30
0.0
 11
121.135029
 21
632.4939
 31
0.0
  0
LINE
  5
3F0
330
225
100
AcDbEntity
  8
7_ALL_FEATURES
  6
Continuous
 62
     7
100
AcDbLine
 10
121.635029
 20
607.9939
 30
0.0
 11
121.135029
 21
607.4939
 31
0.0
  0
LINE
  5
3F1
330
225
100
AcDbEntity
  8
7_ALL_FEATURES
  6
Continuous
 62
     7
100
AcDbLine
 10
121.635029
 20
631.9939
 30
0.0
 11
121.135029
 21
632.4939
 31
0.0
  0
LINE
  5
3F2
330
225
100
AcDbEntity
  8
7_ALL_FEATURES
  6
Continuous
 62
     7
100
AcDbLine
 10
121.635029
 20
607.9939
 30
0.0
 11
121.135029
 21
607.4939
 31
0.0
  0
LINE
  5
3F3
330
225
100
AcDbEntity
  8
3_ALL_AXES
  6
Continuous
 62
     7
100
AcDbLine
 10
121.135029
 20
632.4939
 30
0.0
 11
103.635029
 21
632.4939
 31
0.0
  0
ARC
  5
3F4
330
225
100
AcDbEntity
  8
7_ALL_FEATURES
  6
Continuous
 62
     7
100
AcDbCircle
 10
123.172297
 20
616.334631
 30
0.0
 40
22.0033848543
100
AcDbArc
 50
152.613156
 51
155.594612
  0
ARC
  5
3F5
330
225
100
AcDbEntity
  8
7_ALL_FEATURES
  6
Continuous
 62
     7
100
AcDbCircle
 10
123.172297
 20
623.65317
 30
0.0
 40
22.0033848543
100
AcDbArc
 50
204.405388
 51
207.386844
  0
LINE
  5
3F6
330
225
100
AcDbEntity
  8
7_ALL_FEATURES
  6
Continuous
 62
     7
100
AcDbLine
 10
103.635029
 20
613.531702
 30
0.0
 11
103.635029
 21
607.4939
 31
0.0
  0
LINE
  5
3F7
330
225
100
AcDbEntity
  8
7_ALL_FEATURES
  6
Continuous
 62
     7
100
AcDbLine
 10
118.835029
 20
613.531702
 30
0.0
 11
116.404077
 21
613.531702
 31
0.0
  0
LINE
  5
3F8
330
225
100
AcDbEntity
  8
7_ALL_FEATURES
  6
Continuous
 62
     7
100
AcDbLine
 10
107.86598
 20
613.531702
 30
0.0
 11
103.635029
 21
613.531702
 31
0.0
  0
LINE
  5
3F9
330
225
100
AcDbEntity
  8
7_ALL_FEATURES
  6
Continuous
 62
     7
100
AcDbLine
 10
121.135029
 20
632.4939
 30
0.0
 11
121.135029
 21
607.4939
 31
0.0
  0
LINE
  5
3FA
330
225
100
AcDbEntity
  8
7_ALL_FEATURES
  6
Continuous
 62
     7
100
AcDbLine
 10
103.635029
 20
632.4939
 30
0.0
 11
103.635029
 21
626.456098
 31
0.0
  0
LINE
  5
3FB
330
225
100
AcDbEntity
  8
7_ALL_FEATURES
  6
Continuous
 62
     7
100
AcDbLine
 10
118.835029
 20
626.456098
 30
0.0
 11
116.404077
 21
626.456098
 31
0.0
  0
LINE
  5
3FC
330
225
100
AcDbEntity
  8
7_ALL_FEATURES
  6
Continuous
 62
     7
100
AcDbLine
 10
107.86598
 20
626.456098
 30
0.0
 11
103.635029
 21
626.456098
 31
0.0
  0
LINE
  5
3FD
330
225
100
AcDbEntity
  8
3_ALL_AXES
  6
Continuous
 62
     7
100
AcDbLine
 10
713.635029
 20
619.9939
 30
0.0
 11
713.635029
 21
630.493899
 31
0.0
  0
LINE
  5
3FE
330
225
100
AcDbEntity
  8
3_ALL_AXES
  6
Continuous
 62
     7
100
AcDbLine
 10
713.635029
 20
630.493899
 30
0.0
 11
713.635029
 21
631.9939
 31
0.0
  0
LINE
  5
3FF
330
225
100
AcDbEntity
  8
3_ALL_AXES
  6
Continuous
 62
     7
100
AcDbLine
 10
713.635029
 20
631.9939
 30
0.0
 11
713.635029
 21
632.000377
 31
0.0
  0
LINE
  5
400
330
225
100
AcDbEntity
  8
3_ALL_AXES
  6
Continuous
 62
     7
100
AcDbLine
 10
713.635029
 20
632.000377
 30
0.0
 11
713.635029
 21
632.4939
 31
0.0
  0
LINE
  5
401
330
225
100
AcDbEntity
  8
3_ALL_AXES
  6
Continuous
 62
     7
100
AcDbLine
 10
121.635029
 20
619.9939
 30
0.0
 11
121.635029
 21
630.493899
 31
0.0
  0
LINE
  5
402
330
225
100
AcDbEntity
  8
3_ALL_AXES
  6
Continuous
 62
     7
100
AcDbLine
 10
121.635029
 20
630.493899
 30
0.0
 11
121.635029
 21
631.9939
 31
0.0
  0
LINE
  5
403
330
225
100
AcDbEntity
  8
3_ALL_AXES
  6
Continuous
 62
     7
100
AcDbLine
 10
121.635029
 20
631.9939
 30
0.0
 11
121.635029
 21
632.000377
 31
0.0
  0
LINE
  5
404
330
225
100
AcDbEntity
  8
3_ALL_AXES
  6
Continuous
 62
     7
100
AcDbLine
 10
121.635029
 20
632.000377
 30
0.0
 11
121.635029
 21
632.4939
 31
0.0
  0
LINE
  5
405
330
225
100
AcDbEntity
  8
3_ALL_AXES
  6
Continuous
 62
     7
100
AcDbLine
 10
713.635029
 20
607.4939
 30
0.0
 11
707.135018
 21
607.4939
 31
0.0
  0
LINE
  5
406
330
225
100
AcDbEntity
  8
3_ALL_AXES
  6
Continuous
 62
     7
100
AcDbLine
 10
707.135018
 20
607.4939
 30
0.0
 11
706.835029
 21
607.4939
 31
0.0
  0
LINE
  5
407
330
225
100
AcDbEntity
  8
3_ALL_AXES
  6
Continuous
 62
     7
100
AcDbLine
 10
713.635029
 20
607.4939
 30
0.0
 11
713.635029
 21
607.987424
 31
0.0
  0
LINE
  5
408
330
225
100
AcDbEntity
  8
3_ALL_AXES
  6
Continuous
 62
     7
100
AcDbLine
 10
713.635029
 20
607.987424
 30
0.0
 11
713.635029
 21
607.9939
 31
0.0
  0
LINE
  5
409
330
225
100
AcDbEntity
  8
3_ALL_AXES
  6
Continuous
 62
     7
100
AcDbLine
 10
713.635029
 20
607.9939
 30
0.0
 11
713.635029
 21
609.493901
 31
0.0
  0
LINE
  5
40A
330
225
100
AcDbEntity
  8
3_ALL_AXES
  6
Continuous
 62
     7
100
AcDbLine
 10
713.635029
 20
609.493901
 30
0.0
 11
713.635029
 21
619.9939
 31
0.0
  0
LINE
  5
40B
330
225
100
AcDbEntity
  8
3_ALL_AXES
  6
Continuous
 62
     7
100
AcDbLine
 10
703.435029
 20
607.4939
 30
0.0
 11
703.13504
 21
607.4939
 31
0.0
  0
LINE
  5
40C
330
225
100
AcDbEntity
  8
3_ALL_AXES
  6
Continuous
 62
     7
100
AcDbLine
 10
703.13504
 20
607.4939
 30
0.0
 11
132.131123
 21
607.4939
 31
0.0
  0
SPLINE
  5
40D
330
225
100
AcDbEntity
  8
3_ALL_AXES
  6
Continuous
 62
     7
100
AcDbSpline
 70
     0
 71
     3
 72
     9
 73
     5
 74
     0
 42
0.000000001
 43
0.0000001
 40
0.0
 40
0.0
 40
0.0
 40
0.0
 40
0.0750062741
 40
1.0
 40
1.0
 40
1.0
 40
1.0
 10
132.135027203
 20
607.4939009598
 30
0.0
 10
132.0904251021
 20
607.5010405684
 30
0.0
 10
131.4951745475
 20
607.5931719307
 30
0.0
 10
130.8924911232
 20
607.6442714896
 30
0.0
 10
130.3354210102
 20
607.6533097712
 30
0.0
  0
ARC
  5
40E
330
225
100
AcDbEntity
  8
3_ALL_AXES
  6
Continuous
 62
     7
100
AcDbCircle
 10
130.134896
 20
595.30202
 30
0.0
 40
12.352917583
100
AcDbArc
 50
89.069874
 51
89.999383
  0
LINE
  5
40F
330
225
100
AcDbEntity
  8
3_ALL_AXES
  6
Continuous
 62
     7
100
AcDbLine
 10
127.635029
 20
607.4939
 30
0.0
 11
121.635029
 21
607.4939
 31
0.0
  0
LINE
  5
410
330
225
100
AcDbEntity
  8
3_ALL_AXES
  6
Continuous
 62
     7
100
AcDbLine
 10
121.635029
 20
607.4939
 30
0.0
 11
121.635029
 21
607.987424
 31
0.0
  0
LINE
  5
411
330
225
100
AcDbEntity
  8
3_ALL_AXES
  6
Continuous
 62
     7
100
AcDbLine
 10
121.635029
 20
607.987424
 30
0.0
 11
121.635029
 21
607.9939
 31
0.0
  0
LINE
  5
412
330
225
100
AcDbEntity
  8
3_ALL_AXES
  6
Continuous
 62
     7
100
AcDbLine
 10
121.635029
 20
607.9939
 30
0.0
 11
121.635029
 21
609.493901
 31
0.0
  0
LINE
  5
413
330
225
100
AcDbEntity
  8
3_ALL_AXES
  6
Continuous
 62
     7
100
AcDbLine
 10
121.635029
 20
609.493901
 30
0.0
 11
121.635029
 21
619.9939
 31
0.0
  0
LINE
  5
414
330
225
100
AcDbEntity
  8
3_ALL_AXES
  6
Continuous
 62
     7
100
AcDbLine
 10
713.635029
 20
632.4939
 30
0.0
 11
707.135029
 21
632.4939
 31
0.0
  0
LINE
  5
415
330
225
100
AcDbEntity
  8
3_ALL_AXES
  6
Continuous
 62
     7
100
AcDbLine
 10
707.135029
 20
632.4939
 30
0.0
 11
706.835029
 21
632.4939
 31
0.0
  0
LINE
  5
416
330
225
100
AcDbEntity
  8
3_ALL_AXES
  6
Continuous
 62
     7
100
AcDbLine
 10
703.435029
 20
632.4939
 30
0.0
 11
703.135029
 21
632.4939
 31
0.0
  0
LINE
  5
417
330
225
100
AcDbEntity
  8
3_ALL_AXES
  6
Continuous
 62
     7
100
AcDbLine
 10
703.135029
 20
632.4939
 30
0.0
 11
132.135028
 21
632.4939
 31
0.0
  0
LINE
  5
418
330
225
100
AcDbEntity
  8
3_ALL_AXES
  6
Continuous
 62
     7
100
AcDbLine
 10
132.135028
 20
632.4939
 30
0.0
 11
131.835029
 21
632.4939
 31
0.0
  0
LINE
  5
419
330
225
100
AcDbEntity
  8
3_ALL_AXES
  6
Continuous
 62
     7
100
AcDbLine
 10
128.435029
 20
632.4939
 30
0.0
 11
128.135029
 21
632.4939
 31
0.0
  0
LINE
  5
41A
330
225
100
AcDbEntity
  8
3_ALL_AXES
  6
Continuous
 62
     7
100
AcDbLine
 10
128.135029
 20
632.4939
 30
0.0
 11
121.635029
 21
632.4939
 31
0.0
  0
LINE
  5
41B
330
225
100
AcDbEntity
  8
7_ALL_FEATURES
  6
Continuous
 62
     7
100
AcDbLine
 10
883.360929
 20
632.4939
 30
0.0
 11
883.497136
 21
632.357694
 31
0.0
  0
LINE
  5
41C
330
225
100
AcDbEntity
  8
7_ALL_FEATURES
  6
Continuous
 62
     7
100
AcDbLine
 10
879.960929
 20
632.4939
 30
0.0
 11
879.823222
 21
632.356193
 31
0.0
  0
LINE
  5
41D
330
225
100
AcDbEntity
  8
7_ALL_FEATURES
  6
Continuous
 62
     7
100
AcDbLine
 10
883.360929
 20
632.4939
 30
0.0
 11
883.497136
 21
632.357694
 31
0.0
  0
LINE
  5
41E
330
225
100
AcDbEntity
  8
7_ALL_FEATURES
  6
Continuous
 62
     7
100
AcDbLine
 10
883.360929
 20
632.4939
 30
0.0
 11
882.960929
 21
632.4939
 31
0.0
  0
LINE
  5
41F
330
225
100
AcDbEntity
  8
7_ALL_FEATURES
  6
Continuous
 62
     7
100
AcDbLine
 10
882.960929
 20
632.4939
 30
0.0
 11
882.945735
 21
632.4939
 31
0.0
  0
LINE
  5
420
330
225
100
AcDbEntity
  8
7_ALL_FEATURES
  6
Continuous
 62
     7
100
AcDbLine
 10
882.945735
 20
632.4939
 30
0.0
 11
881.661889
 21
632.4939
 31
0.0
  0
LINE
  5
421
330
225
100
AcDbEntity
  8
7_ALL_FEATURES
  6
Continuous
 62
     7
100
AcDbLine
 10
881.65997
 20
632.4939
 30
0.0
 11
880.376118
 21
632.4939
 31
0.0
  0
LINE
  5
422
330
225
100
AcDbEntity
  8
7_ALL_FEATURES
  6
Continuous
 62
     7
100
AcDbLine
 10
880.376118
 20
632.4939
 30
0.0
 11
880.360929
 21
632.4939
 31
0.0
  0
LINE
  5
423
330
225
100
AcDbEntity
  8
7_ALL_FEATURES
  6
Continuous
 62
     7
100
AcDbLine
 10
880.360929
 20
632.4939
 30
0.0
 11
879.960929
 21
632.4939
 31
0.0
  0
LINE
  5
424
330
225
100
AcDbEntity
  8
7_ALL_FEATURES
  6
Continuous
 62
     7
100
AcDbLine
 10
879.960929
 20
632.4939
 30
0.0
 11
879.823222
 21
632.356193
 31
0.0
  0
LINE
  5
425
330
225
100
AcDbEntity
  8
7_ALL_FEATURES
  6
Continuous
 62
     7
100
AcDbLine
 10
879.960929
 20
607.4939
 30
0.0
 11
879.823222
 21
607.631607
 31
0.0
  0
LINE
  5
426
330
225
100
AcDbEntity
  8
7_ALL_FEATURES
  6
Continuous
 62
     7
100
AcDbLine
 10
883.360929
 20
607.4939
 30
0.0
 11
883.497136
 21
607.630107
 31
0.0
  0
LINE
  5
427
330
225
100
AcDbEntity
  8
7_ALL_FEATURES
  6
Continuous
 62
     7
100
AcDbLine
 10
879.960929
 20
607.4939
 30
0.0
 11
879.823222
 21
607.631607
 31
0.0
  0
LINE
  5
428
330
225
100
AcDbEntity
  8
7_ALL_FEATURES
  6
Continuous
 62
     7
100
AcDbLine
 10
879.960929
 20
607.4939
 30
0.0
 11
880.360929
 21
607.4939
 31
0.0
  0
LINE
  5
429
330
225
100
AcDbEntity
  8
7_ALL_FEATURES
  6
Continuous
 62
     7
100
AcDbLine
 10
880.360929
 20
607.4939
 30
0.0
 11
880.376123
 21
607.4939
 31
0.0
  0
LINE
  5
42A
330
225
100
AcDbEntity
  8
7_ALL_FEATURES
  6
Continuous
 62
     7
100
AcDbLine
 10
880.376123
 20
607.4939
 30
0.0
 11
881.660929
 21
607.4939
 31
0.0
  0
LINE
  5
42B
330
225
100
AcDbEntity
  8
7_ALL_FEATURES
  6
Continuous
 62
     7
100
AcDbLine
 10
881.660929
 20
607.4939
 30
0.0
 11
882.94574
 21
607.4939
 31
0.0
  0
LINE
  5
42C
330
225
100
AcDbEntity
  8
7_ALL_FEATURES
  6
Continuous
 62
     7
100
AcDbLine
 10
882.94574
 20
607.4939
 30
0.0
 11
882.960929
 21
607.4939
 31
0.0
  0
LINE
  5
42D
330
225
100
AcDbEntity
  8
7_ALL_FEATURES
  6
Continuous
 62
     7
100
AcDbLine
 10
882.960929
 20
607.4939
 30
0.0
 11
883.360929
 21
607.4939
 31
0.0
  0
LINE
  5
42E
330
225
100
AcDbEntity
  8
7_ALL_FEATURES
  6
Continuous
 62
     7
100
AcDbLine
 10
883.360929
 20
607.4939
 30
0.0
 11
883.497136
 21
607.630107
 31
0.0
  0
LINE
  5
42F
330
225
100
AcDbEntity
  8
7_ALL_FEATURES
  6
Continuous
 62
     7
100
AcDbLine
 10
908.360929
 20
616.4939
 30
0.0
 11
908.360929
 21
616.547073
 31
0.0
  0
LINE
  5
430
330
225
100
AcDbEntity
  8
7_ALL_FEATURES
  6
Continuous
 62
     7
100
AcDbLine
 10
908.360929
 20
616.547073
 30
0.0
 11
908.360929
 21
616.704976
 31
0.0
  0
LINE
  5
431
330
225
100
AcDbEntity
  8
7_ALL_FEATURES
  6
Continuous
 62
     7
100
AcDbLine
 10
908.360929
 20
616.704976
 30
0.0
 11
908.360929
 21
616.7439
 31
0.0
  0
LINE
  5
432
330
225
100
AcDbEntity
  8
7_ALL_FEATURES
  6
Continuous
 62
     7
100
AcDbLine
 10
908.360929
 20
616.7439
 30
0.0
 11
908.360929
 21
619.9939
 31
0.0
  0
LINE
  5
433
330
225
100
AcDbEntity
  8
3_ALL_AXES
  6
Continuous
 62
     7
100
AcDbLine
 10
898.860929
 20
625.9939
 30
0.0
 11
895.860929
 21
625.9939
 31
0.0
  0
ARC
  5
434
330
225
100
AcDbEntity
  8
3_ALL_AXES
  6
Continuous
 62
     7
100
AcDbCircle
 10
904.860929
 20
623.4939
 30
0.0
 40
3.5
100
AcDbArc
 50
0.0
 51
78.431635
  0
LINE
  5
435
330
225
100
AcDbEntity
  8
3_ALL_AXES
  6
Continuous
 62
     7
100
AcDbLine
 10
908.360929
 20
623.481946
 30
0.0
 11
908.360929
 21
623.4939
 31
0.0
  0
LINE
  5
436
330
225
100
AcDbEntity
  8
3_ALL_AXES
  6
Continuous
 62
     7
100
AcDbLine
 10
908.360929
 20
619.9939
 30
0.0
 11
908.360929
 21
623.440727
 31
0.0
  0
LINE
  5
437
330
225
100
AcDbEntity
  8
3_ALL_AXES
  6
Continuous
 62
     7
100
AcDbLine
 10
908.360929
 20
623.440727
 30
0.0
 11
908.360929
 21
623.481946
 31
0.0
  0
LINE
  5
438
330
225
100
AcDbEntity
  8
3_ALL_AXES
  6
Continuous
 62
     7
100
AcDbLine
 10
898.860929
 20
613.9939
 30
0.0
 11
895.860929
 21
613.9939
 31
0.0
  0
LINE
  5
439
330
225
100
AcDbEntity
  8
3_ALL_AXES
  6
Continuous
 62
     7
100
AcDbLine
 10
905.566091
 20
613.065697
 30
0.0
 11
904.860929
 21
613.065697
 31
0.0
  0
ARC
  5
43A
330
225
100
AcDbEntity
  8
3_ALL_AXES
  6
Continuous
 62
     7
100
AcDbCircle
 10
904.860929
 20
616.4939
 30
0.0
 40
3.5
100
AcDbArc
 50
281.568365
 51
360.0
  0
LINE
  5
43B
330
225
100
AcDbEntity
  8
3_ALL_AXES
  6
Continuous
 62
     7
100
AcDbLine
 10
908.360929
 20
616.4939
 30
0.0
 11
908.360929
 21
616.547073
 31
0.0
  0
LINE
  5
43C
330
225
100
AcDbEntity
  8
3_ALL_AXES
  6
Continuous
 62
     7
100
AcDbLine
 10
908.360929
 20
616.547073
 30
0.0
 11
908.360929
 21
616.704976
 31
0.0
  0
LINE
  5
43D
330
225
100
AcDbEntity
  8
3_ALL_AXES
  6
Continuous
 62
     7
100
AcDbLine
 10
908.360929
 20
616.704976
 30
0.0
 11
908.360929
 21
616.7439
 31
0.0
  0
LINE
  5
43E
330
225
100
AcDbEntity
  8
3_ALL_AXES
  6
Continuous
 62
     7
100
AcDbLine
 10
908.360929
 20
616.7439
 30
0.0
 11
908.360929
 21
619.9939
 31
0.0
  0
LINE
  5
43F
330
225
100
AcDbEntity
  8
3_ALL_AXES
  6
Continuous
 62
     7
100
AcDbLine
 10
904.860929
 20
626.922103
 30
0.0
 11
905.566091
 21
626.922103
 31
0.0
  0
LINE
  5
440
330
225
100
AcDbEntity
  8
3_ALL_AXES
  6
Continuous
 62
     7
100
AcDbLine
 10
904.860929
 20
626.922103
 30
0.0
 11
904.360929
 21
626.922103
 31
0.0
  0
LINE
  5
441
330
225
100
AcDbEntity
  8
3_ALL_AXES
  6
Continuous
 62
     7
100
AcDbLine
 10
903.360929
 20
626.922103
 30
0.0
 11
904.360929
 21
626.922103
 31
0.0
  0
LINE
  5
442
330
225
100
AcDbEntity
  8
3_ALL_AXES
  6
Continuous
 62
     7
100
AcDbLine
 10
892.360929
 20
626.922103
 30
0.0
 11
892.360929
 21
626.456098
 31
0.0
  0
LINE
  5
443
330
225
100
AcDbEntity
  8
3_ALL_AXES
  6
Continuous
 62
     7
100
AcDbLine
 10
892.360929
 20
626.922103
 30
0.0
 11
895.860929
 21
626.922103
 31
0.0
  0
LINE
  5
444
330
225
100
AcDbEntity
  8
3_ALL_AXES
  6
Continuous
 62
     7
100
AcDbLine
 10
895.860929
 20
626.922103
 30
0.0
 11
895.860929
 21
619.9939
 31
0.0
  0
LINE
  5
445
330
225
100
AcDbEntity
  8
3_ALL_AXES
  6
Continuous
 62
     7
100
AcDbLine
 10
898.860929
 20
626.922103
 30
0.0
 11
898.860929
 21
619.9939
 31
0.0
  0
LINE
  5
446
330
225
100
AcDbEntity
  8
3_ALL_AXES
  6
Continuous
 62
     7
100
AcDbLine
 10
898.860929
 20
626.922103
 30
0.0
 11
903.360929
 21
626.922103
 31
0.0
  0
LINE
  5
447
330
225
100
AcDbEntity
  8
3_ALL_AXES
  6
Continuous
 62
     7
100
AcDbLine
 10
898.860929
 20
619.9939
 30
0.0
 11
898.860929
 21
613.065697
 31
0.0
  0
LINE
  5
448
330
225
100
AcDbEntity
  8
3_ALL_AXES
  6
Continuous
 62
     7
100
AcDbLine
 10
892.360929
 20
613.531702
 30
0.0
 11
892.360929
 21
613.065697
 31
0.0
  0
LINE
  5
449
330
225
100
AcDbEntity
  8
3_ALL_AXES
  6
Continuous
 62
     7
100
AcDbLine
 10
895.860929
 20
619.9939
 30
0.0
 11
895.860929
 21
613.065697
 31
0.0
  0
LINE
  5
44A
330
225
100
AcDbEntity
  8
3_ALL_AXES
  6
Continuous
 62
     7
100
AcDbLine
 10
898.860929
 20
613.065697
 30
0.0
 11
903.360929
 21
613.065697
 31
0.0
  0
LINE
  5
44B
330
225
100
AcDbEntity
  8
3_ALL_AXES
  6
Continuous
 62
     7
100
AcDbLine
 10
904.360929
 20
613.065697
 30
0.0
 11
903.360929
 21
613.065697
 31
0.0
  0
LINE
  5
44C
330
225
100
AcDbEntity
  8
3_ALL_AXES
  6
Continuous
 62
     7
100
AcDbLine
 10
904.860929
 20
613.065697
 30
0.0
 11
904.360929
 21
613.065697
 31
0.0
  0
LINE
  5
44D
330
225
100
AcDbEntity
  8
7_ALL_FEATURES
  6
Continuous
 62
     7
100
AcDbLine
 10
908.360929
 20
619.9939
 30
0.0
 11
908.360929
 21
623.2439
 31
0.0
  0
LINE
  5
44E
330
225
100
AcDbEntity
  8
7_ALL_FEATURES
  6
Continuous
 62
     7
100
AcDbLine
 10
908.360929
 20
623.2439
 30
0.0
 11
908.360929
 21
623.282824
 31
0.0
  0
LINE
  5
44F
330
225
100
AcDbEntity
  8
7_ALL_FEATURES
  6
Continuous
 62
     7
100
AcDbLine
 10
908.360929
 20
623.282824
 30
0.0
 11
908.360929
 21
623.440727
 31
0.0
  0
LINE
  5
450
330
225
100
AcDbEntity
  8
7_ALL_FEATURES
  6
Continuous
 62
     7
100
AcDbLine
 10
908.360929
 20
623.440727
 30
0.0
 11
908.360929
 21
623.4939
 31
0.0
  0
LINE
  5
451
330
225
100
AcDbEntity
  8
3_ALL_AXES
  6
Continuous
 62
     7
100
AcDbLine
 10
892.360929
 20
613.065697
 30
0.0
 11
895.860929
 21
613.065697
 31
0.0
  0
SPLINE
  5
452
330
225
100
AcDbEntity
  8
3_ALL_AXES
  6
Continuous
 62
     7
100
AcDbSpline
 70
     0
 71
     3
 72
     9
 73
     5
 74
     0
 42
0.000000001
 43
0.0000001
 40
0.0
 40
0.0
 40
0.0
 40
0.0
 40
0.5040298865
 40
1.0
 40
1.0
 40
1.0
 40
1.0
 10
903.3609291927
 20
619.9939001263
 30
0.0
 10
903.59573403
 20
620.4005940343
 30
0.0
 10
904.0174760188
 20
621.2347005116
 30
0.0
 10
904.2857188139
 20
622.1360376471
 30
0.0
 10
904.3609291927
 20
622.5919763376
 30
0.0
  0
SPLINE
  5
453
330
225
100
AcDbEntity
  8
3_ALL_AXES
  6
Continuous
 62
     7
100
AcDbSpline
 70
     0
 71
     3
 72
     9
 73
     5
 74
     0
 42
0.000000001
 43
0.0000001
 40
0.0
 40
0.0
 40
0.0
 40
0.0
 40
0.5040298865
 40
1.0
 40
1.0
 40
1.0
 40
1.0
 10
903.3609291927
 20
613.065696896
 30
0.0
 10
903.59573403
 20
613.4723908041
 30
0.0
 10
904.0174760188
 20
614.3064972813
 30
0.0
 10
904.2857188139
 20
615.2078344168
 30
0.0
 10
904.3609291927
 20
615.6637731073
 30
0.0
  0
LINE
  5
454
330
225
100
AcDbEntity
  8
3_ALL_AXES
  6
Continuous
 62
     7
100
AcDbLine
 10
898.860929
 20
619.9939
 30
0.0
 11
903.360929
 21
619.9939
 31
0.0
  0
SPLINE
  5
455
330
225
100
AcDbEntity
  8
3_ALL_AXES
  6
Continuous
 62
     7
100
AcDbSpline
 70
     0
 71
     3
 72
     9
 73
     5
 74
     0
 42
0.000000001
 43
0.0000001
 40
0.0
 40
0.0
 40
0.0
 40
0.0
 40
0.495970135
 40
1.0
 40
1.0
 40
1.0
 40
1.0
 10
904.3609291927
 20
617.3958239149
 30
0.0
 10
904.2857188107
 20
617.8517626252
 30
0.0
 10
904.0174760076
 20
618.7530997588
 30
0.0
 10
903.5957340199
 20
619.5872062356
 30
0.0
 10
903.3609291927
 20
619.9939001263
 30
0.0
  0
LINE
  5
456
330
225
100
AcDbEntity
  8
3_ALL_AXES
  6
Continuous
 62
     7
100
AcDbLine
 10
904.860929
 20
617.395824
 30
0.0
 11
904.360929
 21
617.395824
 31
0.0
  0
SPLINE
  5
457
330
225
100
AcDbEntity
  8
3_ALL_AXES
  6
Continuous
 62
     7
100
AcDbSpline
 70
     0
 71
     3
 72
    17
 73
    13
 74
     0
 42
0.000000001
 43
0.0000001
 40
0.0
 40
0.0
 40
0.0
 40
0.0
 40
0.0680341774
 40
0.1345238276
 40
0.260732487
 40
0.3815770041
 40
0.5000608561
 40
0.6185410742
 40
0.7393568089
 40
0.865538626
 40
0.9319972678
 40
1.0
 40
1.0
 40
1.0
 40
1.0
 10
904.8609291927
 20
615.6637731073
 30
0.0
 10
904.9168148432
 20
615.6637731073
 30
0.0
 10
905.0279705927
 20
615.6801932655
 30
0.0
 10
905.2251266327
 20
615.7693636755
 30
0.0
 10
905.4135559812
 20
615.9572336867
 30
0.0
 10
905.5392717843
 20
616.2350445225
 30
0.0
 10
905.5795745893
 20
616.529948314
 30
0.0
 10
905.5391851793
 20
616.8248141542
 30
0.0
 10
905.4134275356
 20
617.1025516479
 30
0.0
 10
905.2249949794
 20
617.2903149358
 30
0.0
 10
905.0278924911
 20
617.3794169049
 30
0.0
 10
904.916789013
 20
617.3958239149
 30
0.0
 10
904.8609291927
 20
617.3958239149
 30
0.0
  0
LINE
  5
458
330
225
100
AcDbEntity
  8
3_ALL_AXES
  6
Continuous
 62
     7
100
AcDbLine
 10
904.860929
 20
615.663773
 30
0.0
 11
904.360929
 21
615.663773
 31
0.0
  0
LINE
  5
459
330
225
100
AcDbEntity
  8
3_ALL_AXES
  6
Continuous
 62
     7
100
AcDbLine
 10
892.360929
 20
619.9939
 30
0.0
 11
895.860929
 21
619.9939
 31
0.0
  0
LINE
  5
45A
330
225
100
AcDbEntity
  8
3_ALL_AXES
  6
Continuous
 62
     9
100
AcDbLine
 10
904.860929
 20
626.922103
 30
0.0
 11
904.860929
 21
624.324027
 31
0.0
  0
LINE
  5
45B
330
225
100
AcDbEntity
  8
3_ALL_AXES
  6
Continuous
 62
     9
100
AcDbLine
 10
904.860929
 20
622.591976
 30
0.0
 11
904.860929
 21
619.9939
 31
0.0
  0
SPLINE
  5
45C
330
225
100
AcDbEntity
  8
3_ALL_AXES
  6
Continuous
 62
     7
100
AcDbSpline
 70
     0
 71
     3
 72
     9
 73
     5
 74
     0
 42
0.000000001
 43
0.0000001
 40
0.0
 40
0.0
 40
0.0
 40
0.0
 40
0.495970135
 40
1.0
 40
1.0
 40
1.0
 40
1.0
 10
904.3609291927
 20
624.3240271452
 30
0.0
 10
904.2857188107
 20
624.7799658555
 30
0.0
 10
904.0174760076
 20
625.6813029891
 30
0.0
 10
903.5957340199
 20
626.5154094659
 30
0.0
 10
903.3609291927
 20
626.9221033565
 30
0.0
  0
LINE
  5
45D
330
225
100
AcDbEntity
  8
3_ALL_AXES
  6
Continuous
 62
     7
100
AcDbLine
 10
904.860929
 20
624.324027
 30
0.0
 11
904.360929
 21
624.324027
 31
0.0
  0
LINE
  5
45E
330
225
100
AcDbEntity
  8
3_ALL_AXES
  6
Continuous
 62
     9
100
AcDbLine
 10
904.860929
 20
617.395824
 30
0.0
 11
904.860929
 21
619.9939
 31
0.0
  0
SPLINE
  5
45F
330
225
100
AcDbEntity
  8
3_ALL_AXES
  6
Continuous
 62
     7
100
AcDbSpline
 70
     0
 71
     3
 72
    17
 73
    13
 74
     0
 42
0.000000001
 43
0.0000001
 40
0.0
 40
0.0
 40
0.0
 40
0.0
 40
0.0680258958
 40
0.1345173298
 40
0.2607218393
 40
0.3815594072
 40
0.5000537954
 40
0.6185421284
 40
0.7393699848
 40
0.8655528654
 40
0.9320018853
 40
1.0
 40
1.0
 40
1.0
 40
1.0
 10
904.8609291927
 20
622.5919763376
 30
0.0
 10
904.9168080442
 20
622.5919763376
 30
0.0
 10
905.0279577927
 20
622.608395386
 30
0.0
 10
905.2251103551
 20
622.6975528079
 30
0.0
 10
905.4135363863
 20
622.8854148737
 30
0.0
 10
905.5392671637
 20
623.1632175504
 30
0.0
 10
905.5795754051
 20
623.4581319093
 30
0.0
 10
905.5391863726
 20
623.7530230973
 30
0.0
 10
905.4134185123
 20
624.0307781105
 30
0.0
 10
905.2249707621
 20
624.2185306048
 30
0.0
 10
905.0278772009
 20
624.3076236384
 30
0.0
 10
904.9167852238
 20
624.3240271452
 30
0.0
 10
904.8609291927
 20
624.3240271452
 30
0.0
  0
LINE
  5
460
330
225
100
AcDbEntity
  8
3_ALL_AXES
  6
Continuous
 62
     9
100
AcDbLine
 10
904.860929
 20
613.065697
 30
0.0
 11
904.860929
 21
615.663773
 31
0.0
  0
LINE
  5
461
330
225
100
AcDbEntity
  8
3_ALL_AXES
  6
Continuous
 62
     7
100
AcDbLine
 10
904.860929
 20
622.591976
 30
0.0
 11
904.360929
 21
622.591976
 31
0.0
  0
LINE
  5
462
330
225
100
AcDbEntity
  8
3_ALL_AXES
  6
Continuous
 62
     7
100
AcDbLine
 10
904.360929
 20
617.395824
 30
0.0
 11
904.360929
 21
622.591976
 31
0.0
  0
LINE
  5
463
330
225
100
AcDbEntity
  8
3_ALL_AXES
  6
Continuous
 62
     7
100
AcDbLine
 10
904.360929
 20
613.065697
 30
0.0
 11
904.360929
 21
615.663773
 31
0.0
  0
LINE
  5
464
330
225
100
AcDbEntity
  8
3_ALL_AXES
  6
Continuous
 62
     7
100
AcDbLine
 10
904.360929
 20
626.922103
 30
0.0
 11
904.360929
 21
624.324027
 31
0.0
  0
LINE
  5
465
330
225
100
AcDbEntity
  8
7_ALL_FEATURES
  6
Continuous
 62
     7
100
AcDbLine
 10
922.462292
 20
612.7439
 30
0.0
 11
938.360929
 21
612.7439
 31
0.0
  0
LINE
  5
466
330
225
100
AcDbEntity
  8
7_ALL_FEATURES
  6
Continuous
 62
     7
100
AcDbLine
 10
938.360929
 20
619.2439
 30
0.0
 11
938.360929
 21
612.7439
 31
0.0
  0
ARC
  5
467
330
225
100
AcDbEntity
  8
7_ALL_FEATURES
  6
Continuous
 62
     7
100
AcDbCircle
 10
908.360929
 20
607.0649
 30
0.0
 40
16.179
100
AcDbArc
 50
66.148
 51
90.0
  0
LINE
  5
468
330
225
100
AcDbEntity
  8
7_ALL_FEATURES
  6
Continuous
 62
     7
100
AcDbLine
 10
922.462292
 20
619.2439
 30
0.0
 11
938.360929
 21
619.2439
 31
0.0
  0
ARC
  5
469
330
225
100
AcDbEntity
  8
7_ALL_FEATURES
  6
Continuous
 62
     7
100
AcDbCircle
 10
908.360929
 20
607.0649
 30
0.0
 40
9.679
100
AcDbArc
 50
66.148
 51
90.0
  0
ARC
  5
46A
330
225
100
AcDbEntity
  8
7_ALL_FEATURES
  6
Continuous
 62
     7
100
AcDbCircle
 10
922.462292
 20
626.9959
 30
0.0
 40
7.752
100
AcDbArc
 50
246.148
 51
270.0
  0
LINE
  5
46B
330
225
100
AcDbEntity
  8
7_ALL_FEATURES
  6
Continuous
 62
     7
100
AcDbLine
 10
914.903321
 20
621.862101
 30
0.0
 11
919.327573
 21
619.905975
 31
0.0
  0
LINE
  5
46C
330
225
100
AcDbEntity
  8
7_ALL_FEATURES
  6
Continuous
 62
     7
100
AcDbLine
 10
912.27488
 20
615.917246
 30
0.0
 11
916.699132
 21
613.96112
 31
0.0
  0
LINE
  5
46D
330
225
100
AcDbEntity
  8
7_ALL_FEATURES
  6
Continuous
 62
     7
100
AcDbLine
 10
912.27488
 20
615.917246
 30
0.0
 11
916.699132
 21
613.96112
 31
0.0
  0
ARC
  5
46E
330
225
100
AcDbEntity
  8
7_ALL_FEATURES
  6
Continuous
 62
     7
100
AcDbCircle
 10
922.462292
 20
626.9959
 30
0.0
 40
7.752
100
AcDbArc
 50
246.148
 51
270.0
  0
ARC
  5
46F
330
225
100
AcDbEntity
  8
7_ALL_FEATURES
  6
Continuous
 62
     7
100
AcDbCircle
 10
922.462292
 20
626.9959
 30
0.0
 40
14.252
100
AcDbArc
 50
246.148
 51
270.0
  0
LINE
  5
470
330
225
100
AcDbEntity
  8
7_ALL_FEATURES
  6
Continuous
 62
     7
100
AcDbLine
 10
914.903321
 20
621.862101
 30
0.0
 11
919.327573
 21
619.905975
 31
0.0
  0
ARC
  5
471
330
225
100
AcDbEntity
  8
7_ALL_FEATURES
  6
Continuous
 62
     7
100
AcDbCircle
 10
908.360929
 20
607.0649
 30
0.0
 40
9.679
100
AcDbArc
 50
66.148
 51
90.0
  0
LINE
  5
472
330
225
100
AcDbEntity
  8
7_ALL_FEATURES
  6
Continuous
 62
     7
100
AcDbLine
 10
922.462292
 20
619.2439
 30
0.0
 11
938.360929
 21
619.2439
 31
0.0
  0
LINE
  5
473
330
225
100
AcDbEntity
  8
7_ALL_FEATURES
  6
Continuous
 62
     7
100
AcDbLine
 10
922.462292
 20
612.7439
 30
0.0
 11
938.360929
 21
612.7439
 31
0.0
  0
LINE
  5
474
330
225
100
AcDbEntity
  8
7_ALL_FEATURES
  6
Continuous
 62
     9
100
AcDbLine
 10
914.903321
 20
621.862101
 30
0.0
 11
912.27488
 21
615.917246
 31
0.0
  0
LINE
  5
475
330
225
100
AcDbEntity
  8
7_ALL_FEATURES
  6
Continuous
 62
     9
100
AcDbLine
 10
919.327573
 20
619.905975
 30
0.0
 11
916.699132
 21
613.96112
 31
0.0
  0
LINE
  5
476
330
225
100
AcDbEntity
  8
7_ALL_FEATURES
  6
Continuous
 62
     9
100
AcDbLine
 10
922.462292
 20
619.2439
 30
0.0
 11
922.462292
 21
612.7439
 31
0.0
  0
LINE
  5
477
330
225
100
AcDbEntity
  8
7_ALL_FEATURES
  6
Continuous
 62
     7
100
AcDbLine
 10
892.360929
 20
625.426211
 30
0.0
 11
892.360929
 21
614.561589
 31
0.0
  0
ARC
  5
478
330
225
100
AcDbEntity
  8
7_ALL_FEATURES
  6
Continuous
 62
     7
100
AcDbCircle
 10
881.660929
 20
619.9939
 30
0.0
 40
12.5
100
AcDbArc
 50
270.0
 51
328.870387
  0
ARC
  5
479
330
225
100
AcDbEntity
  8
7_ALL_FEATURES
  6
Continuous
 62
     7
100
AcDbCircle
 10
881.660929
 20
619.9939
 30
0.0
 40
12.5
100
AcDbArc
 50
31.129613
 51
90.0
  0
ARC
  5
47A
330
225
100
AcDbEntity
  8
7_ALL_FEATURES
  6
Continuous
 62
     7
100
AcDbCircle
 10
881.660929
 20
619.9939
 30
0.0
 40
12.5
100
AcDbArc
 50
90.0
 51
270.0
  0
LINE
  5
47B
330
225
100
AcDbEntity
  8
7_ALL_FEATURES
  6
Continuous
 62
     7
100
AcDbLine
 10
892.360929
 20
614.561589
 30
0.0
 11
892.360929
 21
613.531702
 31
0.0
  0
LINE
  5
47C
330
225
100
AcDbEntity
  8
7_ALL_FEATURES
  6
Continuous
 62
     7
100
AcDbLine
 10
892.360929
 20
626.456098
 30
0.0
 11
892.360929
 21
625.426211
 31
0.0
  0
ARC
  5
47D
330
225
100
AcDbEntity
  8
7_ALL_FEATURES
  6
Continuous
 62
     7
100
AcDbCircle
 10
881.660929
 20
619.9939
 30
0.0
 40
12.0
100
AcDbArc
 50
26.916568
 51
214.02191
  0
ARC
  5
47E
330
225
100
AcDbEntity
  8
7_ALL_FEATURES
  6
Continuous
 62
     7
100
AcDbCircle
 10
881.660929
 20
619.9939
 30
0.0
 40
12.0
100
AcDbArc
 50
214.02191
 51
333.083432
  0
DIMENSION
  5
47F
330
225
100
AcDbEntity
  8
0
  6
Continuous
 62
     2
100
AcDbDimension
280
     0
  2
*D1
 10
757.520281
 20
489.294461
 30
0.0
 11
757.520281
 21
466.388932
 31
0.0
 70
   160
  1
%%c<>
 71
     3
 42
25.0
 73
     0
 74
     0
 75
     0
  3
DIMSTYLE_1
100
AcDbAlignedDimension
 13
733.527168
 23
514.294461
 33
0.0
 14
733.527168
 24
489.294461
 34
0.0
 50
270.0
100
AcDbRotatedDimension
  0
DIMENSION
  5
480
330
225
100
AcDbEntity
  8
0
  6
Continuous
 62
     2
100
AcDbDimension
280
     0
  2
*D2
 10
869.160929
 20
580.827233
 30
0.0
 11
887.237137
 21
580.827233
 31
0.0
 70
   160
  1
40
 71
     2
 42
39.2
 73
     0
 74
     0
 75
     0
  3
DIMSTYLE_2
100
AcDbAlignedDimension
 13
908.360929
 23
603.62484
 33
0.0
 14
869.160929
 24
605.670294
 34
0.0
 50
180.0
100
AcDbRotatedDimension
  0
DIMENSION
  5
481
330
225
100
AcDbEntity
  8
0
  6
Continuous
 62
     2
100
AcDbDimension
280
     0
  2
*D3
 10
716.135029
 20
540.961128
 30
0.0
 11
408.111231
 21
540.961128
 31
0.0
 70
   160
  1
613
 71
     2
 42
613.0
 73
     0
 74
     0
 75
     0
  3
DIMSTYLE_3
100
AcDbAlignedDimension
 13
103.135029
 23
523.553782
 33
0.0
 14
716.135029
 24
524.113154
 34
0.0
100
AcDbRotatedDimension
  0
INSERT
  5
482
330
225
100
AcDbEntity
  8
0
  6
Continuous
 62
     2
100
AcDbBlockReference
  2
LOGO2_BL0
 10
1006.527559
 20
48.775416
 30
0.0
  0
ACAD_TABLE
  5
483
102
{ACAD_XDICTIONARY
360
4DA
102
}
330
225
100
AcDbEntity
  8
0
  6
Continuous
 62
     2
160
              3524
310
C40D000019000000880000001D000000000000000000F03F00000000000000000000000000000000FAD68F1DBEE08E400000000000000000000000000000F03F00000000000000001D47D368A0B1504000000000000000000000000000000000000000000000F03F0000000000000000000000000000000000000000000000
310
000000000000000000000000000000F03F5400000020000000020000000000000000000000000000000000000000000000000000000000000000005E400000000000000000000000000000000000000000000000000000000000000000000000000000F03F5400000020000000020000000000000000000000000000000000
310
0000000000000000000000000000000000005798AAAAAAAA4AC0000000000000000000000000000000000000000000000000000000000000F03F540000002000000002000000000000000000444000000000000020C000000000000000000000000000005E4000000000000020C00000000000000000000000000000000000
310
00000000000000000000000000F03F540000002000000002000000000000000000444000000000000030C000000000000000000000000000005E4000000000000030C0000000000000000000000000000000000000000000000000000000000000F03F5400000020000000020000000000000000004440AF30555555553DC0
310
00000000000000000000000000005E40AF30555555553DC0000000000000000000000000000000000000000000000000000000000000F03F540000002000000002000000000000000000000000000000000042C000000000000000000000000000005E4000000000000042C000000000000000000000000000000000000000
310
0000000000000000000000F03F54000000200000000200000000000000000000005798AAAAAAAA4AC000000000000000000000000000005E405798AAAAAAAA4AC0000000000000000000000000000000000000000000000000000000000000F03F540000002000000002000000000000000000444000000000000000000000
310
000000000000000000000000444000000000000042C0000000000000000000000000000000000000000000000000000000000000F03F5400000020000000020000002C4C555555555740000000000000000000000000000000002C4C55555555574000000000000030C0000000000000000000000000000000000000000000
310
000000000000000000F03F5400000020000000020000000000000000005E40000000000000000000000000000000000000000000005E405798AAAAAAAA4AC0000000000000000000000000000000000000000000000000000000000000F03F0C0000001000000026000000C0000000260000008BCBDDDDDDFD444000000000
310
000018C0000000000000000000000000000000000000000000000000000000000000F03F000000000000F03F000000000000000000000000000000003500420030005F0043005F00300035003400000012000000010000000000000000001040333333333333EB3F0000000000000000000000000000F03F00000000000000
310
000000000000000000000000000000000000000000000000000000000000000000740078007400000000000000BC000000260000006E4D444444D457400000000000001CC0000000000000000000000000000000000000000000000000000000000000F03F000000000000F03F000000000000000000000000000000005200
310
650076003A0030003100000000000C00000001000000453DABAAAAAA1240333333333333EB3F0000000000000000000000000000F03F00000000000000000000000000000000000000000000000000000000000000000000000000000000740078007400000000000000C0000000260000008BCBDDDDDDFD44400000000000
310
002EC0000000000000000000000000000000000000000000000000000000000000F03F000000000000F03F000000000000000000000000000000005300630061006C0065003A0031003A00310000001200000001000000453DABAAAAAA1240333333333333EB3F0000000000000000000000000000F03F0000000000000000
310
0000000000000000000000000000000000000000000000000000000000000000740078007400000000000000B4000000260000006E4D444444D45740443DABAAAAAA2CC0000000000000000000000000000000000000000000000000000000000000F03F000000000000F03F00000000000000000000000000000000410031
310
00000000000400000001000000453DABAAAAAA1240333333333333EB3F0000000000000000000000000000F03F00000000000000000000000000000000000000000000000000000000000000000000000000000000740078007400000000000000C0000000260000008BCBDDDDDDFD444000000000000039C0000000000000
310
000000000000000000000000000000000000000000000000F03F000000000000F03F0000000000000000000000000000000054005200450056004900200031002E00300000001200000001000000453DABAAAAAA1240333333333333EB3F0000000000000000000000000000F03F0000000000000000000000000000000000
310
0000000000000000000000000000000000000000000000740078007400000000000000B8000000260000008BCBDDDDDDFD44405798AAAAAA2A41C0000000000000000000000000000000000000000000000000000000000000F03F000000000000F03F0000000000000000000000000000000044004100540045003A000000
310
0A000000010000007785A9AAAAAA0A40333333333333EB3F0000000000000000000000000000F03F0000000000000000000000000000000000000000000000000000000000000000000000000000000074007800740000000000000018010000260000005471B9BBBBBBFF3FA967555555B543C00000000000000000000000
310
00000000000000000000000000000000000000F03F000000000000F03F0000000000000000000000000000000041006E007900200069006E00740065006700720061006C0020006F00720020007000610072007400690061006C00200072006500700072006F00640075006300740069006F006E0073002000610072006500
310
2000700072006F0068006900620069007400650064000000000068000000010000000000000000000840333333333333EB3F0000000000000000000000000000F03F00000000000000000000000000000000000000000000000000000000000000000000000000000000740078007400000000000000F00000002600000054
310
71B9BBBBBBFF3FA967555555F545C0000000000000000000000000000000000000000000000000000000000000F03F000000000000F03F0000000000000000000000000000000077006900740068006F007500740020007000720069006F007200200061007500740068006F007200690073006100740069006F006E002000
310
6F00660020004C002000000042000000010000000000000000000840333333333333EB3F0000000000000000000000000000F03F00000000000000000000000000000000000000000000000000000000000000000000000000000000740078007400000000000000B8000000260000002C4C555555D55340A967555555F545
310
C0000000000000000000000000000000000000000000000000000000000000F03F000000000000F03F0000000000000000000000000000000020000000020000000100000000000000000008407521567F8461C83F0000000000000000000000000000F03F0000000000000000000000000000000000000000000000000000
310
00000000000000000000000000007400780074002E00730068007800000000000000E0000000260000005E4D149CE7F95340A967555555F545C0000000000000000000000000000000000000000000000000000000000000F03F000000000000F03F00000000000000000000000000000000260020004C0020004C00750063
310
0065002000260020004C006900670068007400200073002E0072002E006C002E002C000000000030000000010000000000000000000840333333333333EB3F0000000000000000000000000000F03F000000000000000000000000000000000000000000000000000000000000000000000000000000007400780074000000
310
00000000F8000000260000005471B9BBBBBBFF3FA9675555553548C0000000000000000000000000000000000000000000000000000000000000F03F000000000000F03F0000000000000000000000000000000069006E0020006100630063006F007200640061006E00630065002000770069007400680020007400680065
310
0020006C0061007700200069006E00200066006F007200630065002E000000000048000000010000000000000000000840333333333333EB3F0000000000000000000000000000F03F00000000000000000000000000000000000000000000000000000000000000000000000000000000740078007400000000000000D800
310
0000260000005471B9BBBBBBFF3FA967555555754AC0000000000000000000000000000000000000000000000000000000000000F03F000000000000F03F0000000000000000000000000000000041006C006C0020007200690067006800740073002000720065007300650072007600650064002E00000000002800000001
310
0000000000000000000840333333333333EB3F0000000000000000000000000000F03F00000000000000000000000000000000000000000000000000000000000000000000000000000000740078007400000000000000080000001F000000
100
AcDbBlockReference
  2
*T5
 10
988.09283
 20
66.775416
 30
0.0
100
AcDbTable
342
4AC
343
22C
 11
1.0
 21
0.0
 31
0.0
 90
       22
 91
        5
 92
        5
 93
        0
 94
        0
 95
        0
 96
        0
141
8.0
141
8.0
141
13.333333
141
6.666667
141
17.333333
142
13.333333
142
13.333333
142
13.333333
142
53.333333
142
26.666667
171
     1
172
     0
173
     0
174
     0
175
     3
176
     4
 91
       32
178
     0
145
0.0
140
4.666667
 92
        0
301
CELL_VALUE
 93
        2
 90
        4
  1
 
 94
        0
300

302
 
304
ACVALUE_END
171
     1
172
     0
173
     1
174
     0
175
     1
176
     1
 91
        0
178
     0
145
0.0
 92
        0
301
CELL_VALUE
 93
        3
 90
        0
 91
        0
 94
        0
300

302

304
ACVALUE_END
171
     1
172
     0
173
     1
174
     0
175
     1
176
     1
 91
        0
178
     0
145
0.0
 92
        0
301
CELL_VALUE
 93
        3
 90
        0
 91
        0
 94
        0
300

302

304
ACVALUE_END
171
     1
172
     0
173
     0
174
     0
175
     1
176
     1
 91
       33
178
     0
145
0.0
170
     4
140
4.0
 92
        0
301
CELL_VALUE
 93
        2
 90
        4
  1
5B0_C_054
 94
        0
300

302
5B0_C_054
304
ACVALUE_END
171
     1
172
     0
173
     0
174
     0
175
     1
176
     1
 91
       33
178
     0
145
0.0
170
     1
140
4.666667
 92
        0
301
CELL_VALUE
 93
        2
 90
        4
  1
Rev:01
 94
        0
300

302
Rev:01
304
ACVALUE_END
171
     1
172
     0
173
     1
174
     0
175
     1
176
     1
 91
        0
178
     0
145
0.0
 92
        0
301
CELL_VALUE
 93
        3
 90
        0
 91
        0
 94
        0
300

302

304
ACVALUE_END
171
     1
172
     0
173
     1
174
     0
175
     1
176
     1
 91
        0
178
     0
145
0.0
 92
        0
301
CELL_VALUE
 93
        3
 90
        0
 91
        0
 94
        0
300

302

304
ACVALUE_END
171
     1
172
     0
173
     1
174
     0
175
     1
176
     1
 91
        0
178
     0
145
0.0
 92
        0
301
CELL_VALUE
 93
        3
 90
        0
 91
        0
 94
        0
300

302

304
ACVALUE_END
171
     1
172
     0
173
     0
174
     0
175
     1
176
     1
 91
       33
178
     0
145
0.0
170
     1
140
4.666667
 92
        0
301
CELL_VALUE
 93
        2
 90
        4
  1
Scale:1:1
 94
        0
300

302
Scale:1:1
304
ACVALUE_END
171
     1
172
     0
173
     0
174
     0
175
     1
176
     1
 91
       33
178
     0
145
0.0
170
     4
140
4.666667
 92
        0
301
CELL_VALUE
 93
        2
 90
        4
  1
A1
 94
        0
300

302
A1
304
ACVALUE_END
171
     1
172
     0
173
     1
174
     0
175
     1
176
     1
 91
        0
178
     0
145
0.0
 92
        0
301
CELL_VALUE
 93
        3
 90
        0
 91
        0
 94
        0
300

302

304
ACVALUE_END
171
     1
172
     0
173
     1
174
     0
175
     1
176
     1
 91
        0
178
     0
145
0.0
 92
        0
301
CELL_VALUE
 93
        3
 90
        0
 91
        0
 94
        0
300

302

304
ACVALUE_END
171
     1
172
     0
173
     1
174
     0
175
     1
176
     1
 91
        0
178
     0
145
0.0
 92
        0
301
CELL_VALUE
 93
        3
 90
        0
 91
        0
 94
        0
300

302

304
ACVALUE_END
171
     1
172
     0
173
     0
174
     0
175
     2
176
     1
 91
       33
178
     0
145
0.0
170
     4
140
4.666667
 92
        0
301
CELL_VALUE
 93
        2
 90
        4
  1
TREVI 1.0
 94
        0
300

302
TREVI 1.0
304
ACVALUE_END
171
     1
172
     0
173
     1
174
     0
175
     1
176
     1
 91
        0
178
     0
145
0.0
 92
        0
301
CELL_VALUE
 93
        3
 90
        0
 91
        0
 94
        0
300

302

304
ACVALUE_END
171
     1
172
     0
173
     1
174
     0
175
     1
176
     1
 91
        0
178
     0
145
0.0
 92
        0
301
CELL_VALUE
 93
        3
 90
        0
 91
        0
 94
        0
300

302

304
ACVALUE_END
171
     1
172
     0
173
     1
174
     0
175
     1
176
     1
 91
        0
178
     0
145
0.0
 92
        0
301
CELL_VALUE
 93
        3
 90
        0
 91
        0
 94
        0
300

302

304
ACVALUE_END
171
     1
172
     0
173
     1
174
     0
175
     1
176
     1
 91
        0
178
     0
145
0.0
 92
        0
301
CELL_VALUE
 93
        3
 90
        0
 91
        0
 94
        0
300

302

304
ACVALUE_END
171
     1
172
     0
173
     0
174
     0
175
     2
176
     1
 91
       33
178
     0
145
0.0
170
     4
140
3.333333
 92
        0
301
CELL_VALUE
 93
        2
 90
        4
  1
DATE:
 94
        0
300

302
DATE:
304
ACVALUE_END
171
     1
172
     0
173
     1
174
     0
175
     1
176
     1
 91
        0
178
     0
145
0.0
 92
        0
301
CELL_VALUE
 93
        3
 90
        0
 91
        0
 94
        0
300

302

304
ACVALUE_END
171
     1
172
     0
173
     0
174
     0
175
     5
176
     1
 91
       33
178
     0
145
0.0
170
     4
140
3.0
 92
        0
301
CELL_VALUE
 93
        2
 90
        4
  1
Any integral or partial reproductions are prohibited \Pwithout prior authorisation of L {\Ftxt.shx;\W0.190476;\H3.000000; }& L Luce & Light s.r.l., \Pin accordance with the law in force. \PAll rights reserved.
 94
        0
300

302
Any integral or partial reproductions are prohibited \Pwithout prior authorisation of L {\Ftxt.shx;\W0.190476;\H3.000000; }& L Luce & Light s.r.l., \Pin accordance with the law in force. \PAll rights reserved.
304
ACVALUE_END
171
     1
172
     0
173
     1
174
     0
175
     1
176
     1
 91
        0
178
     0
145
0.0
 92
        0
301
CELL_VALUE
 93
        3
 90
        0
 91
        0
 94
        0
300

302

304
ACVALUE_END
171
     1
172
     0
173
     1
174
     0
175
     1
176
     1
 91
        0
178
     0
145
0.0
 92
        0
301
CELL_VALUE
 93
        3
 90
        0
 91
        0
 94
        0
300

302

304
ACVALUE_END
171
     1
172
     0
173
     1
174
     0
175
     1
176
     1
 91
        0
178
     0
145
0.0
 92
        0
301
CELL_VALUE
 93
        3
 90
        0
 91
        0
 94
        0
300

302

304
ACVALUE_END
171
     1
172
     0
173
     1
174
     0
175
     1
176
     1
 91
        0
178
     0
145
0.0
 92
        0
301
CELL_VALUE
 93
        3
 90
        0
 91
        0
 94
        0
300

302

304
ACVALUE_END
  0
ENDSEC
  0
SECTION
  2
OBJECTS
  0
DICTIONARY
  5
C
330
0
100
AcDbDictionary
281
     1
  3
ACAD_DETAILVIEWSTYLE
350
4E3
  3
ACAD_GROUP
350
D
  3
ACAD_IMAGE_DICT
350
4D3
  3
ACAD_LAYOUT
350
1A
  3
ACAD_MATERIAL
350
4C7
  3
ACAD_MLEADERSTYLE
350
4E2
  3
ACAD_MLINESTYLE
350
17
  3
ACAD_PLOTSETTINGS
350
19
  3
ACAD_PLOTSTYLENAME
350
E
  3
ACAD_SCALELIST
350
489
  3
ACAD_SECTIONVIEWSTYLE
350
4E4
  3
ACAD_TABLESTYLE
350
4AB
  3
ACAD_VISUALSTYLE
350
4AE
  3
ACDB_RECOMPOSE_DATA
350
4E0
  3
AcDbVariableDictionary
350
4DC
  3
HOST_DOC_SETTINGS
350
4D1
  3
MCS_STREAM_DICT
350
4CD
  0
SUN
  5
4D0
330
1F4
100
AcDbSun
 90
        1
290
     0
 63
     7
421
 16777215
 40
1.0
291
     1
 91
  2455826
 92
 54000000
292
     0
 70
     2
 71
   256
280
     1
  0
DICTIONARY
  5
4DA
330
483
100
AcDbDictionary
280
     1
281
     1
  3
ACAD_XREC_ROUNDTRIP
360
4DB
  0
DICTIONARY
  5
4E3
102
{ACAD_REACTORS
330
C
102
}
330
C
100
AcDbDictionary
281
     1
  0
DICTIONARY
  5
D
102
{ACAD_REACTORS
330
C
102
}
330
C
100
AcDbDictionary
281
     1
  0
DICTIONARY
  5
4D3
102
{ACAD_REACTORS
330
C
102
}
330
C
100
AcDbDictionary
281
     1
  0
DICTIONARY
  5
1A
102
{ACAD_REACTORS
330
C
102
}
330
C
100
AcDbDictionary
281
     1
  3
Layout1
350
486
  3
Model
350
485
  0
DICTIONARY
  5
4C7
102
{ACAD_REACTORS
330
C
102
}
330
C
100
AcDbDictionary
281
     1
  3
ByBlock
350
4C9
  3
ByLayer
350
4C8
  3
Global
350
4CA
  0
DICTIONARY
  5
4E2
102
{ACAD_REACTORS
330
C
102
}
330
C
100
AcDbDictionary
281
     1
  0
DICTIONARY
  5
17
102
{ACAD_REACTORS
330
C
102
}
330
C
100
AcDbDictionary
281
     1
  3
Standard
350
18
  0
DICTIONARY
  5
19
102
{ACAD_REACTORS
330
C
102
}
330
C
100
AcDbDictionary
281
     1
  0
ACDBDICTIONARYWDFLT
  5
E
102
{ACAD_REACTORS
330
C
102
}
330
C
100
AcDbDictionary
281
     1
  3
Normal
350
F
100
AcDbDictionaryWithDefault
340
F
  0
DICTIONARY
  5
489
102
{ACAD_REACTORS
330
C
102
}
330
C
100
AcDbDictionary
281
     1
  3
A0
350
48A
  3
A1
350
48B
  3
A2
350
48C
  3
A3
350
48D
  3
A4
350
48E
  3
A5
350
48F
  3
A6
350
490
  3
A7
350
491
  3
A8
350
492
  3
A9
350
493
  3
B0
350
494
  3
B1
350
495
  3
B2
350
496
  3
B3
350
497
  3
B4
350
498
  3
B5
350
499
  3
B6
350
49A
  3
B7
350
49B
  3
B8
350
49C
  3
B9
350
49D
  3
C0
350
49E
  3
C1
350
49F
  3
C2
350
4A0
  3
C3
350
4A1
  3
C4
350
4A2
  3
C5
350
4A3
  3
C6
350
4A4
  3
C7
350
4A5
  3
C8
350
4A6
  3
C9
350
4A7
  3
D0
350
4A8
  3
D1
350
4A9
  3
D2
350
4AA
  0
DICTIONARY
  5
4E4
102
{ACAD_REACTORS
330
C
102
}
330
C
100
AcDbDictionary
281
     1
  0
DICTIONARY
  5
4AB
102
{ACAD_REACTORS
330
C
102
}
330
C
100
AcDbDictionary
281
     1
  3
Standard
350
4AC
  0
DICTIONARY
  5
4AE
102
{ACAD_REACTORS
330
C
102
}
330
C
100
AcDbDictionary
281
     1
  3
2dWireframe
350
4B3
  3
Basic
350
4B6
  3
Brighten
350
4BA
  3
ColorChange
350
4BE
  3
Conceptual
350
4B8
  3
Dim
350
4B9
  3
EdgeColorOff
350
4C1
  3
Facepattern
350
4BD
  3
Flat
350
4AF
  3
FlatWithEdges
350
4B0
  3
Gouraud
350
4B1
  3
GouraudWithEdges
350
4B2
  3
Hidden
350
4B5
  3
JitterOff
350
4BF
  3
Linepattern
350
4BC
  3
OverhangOff
350
4C0
  3
Realistic
350
4B7
  3
Shaded
350
4C6
  3
Shaded with edges
350
4C5
  3
Shades of Gray
350
4C2
  3
Sketchy
350
4C3
  3
Thicken
350
4BB
  3
Wireframe
350
4B4
  3
X-Ray
350
4C4
  0
XRECORD
  5
4E0
102
{ACAD_REACTORS
330
C
102
}
330
C
100
AcDbXrecord
280
     1
 90
        1
330
483
330
4AC
  0
DICTIONARY
  5
4DC
102
{ACAD_REACTORS
330
C
102
}
330
C
100
AcDbDictionary
281
     1
  3
CANNOSCALE
350
4DD
  3
CTABLESTYLE
350
4E1
  0
DICTIONARY
  5
4D1
102
{ACAD_REACTORS
330
C
102
}
330
C
100
AcDbDictionary
281
     1
  3
NCDocParameters
350
4D2
  0
DICTIONARY
  5
4CD
102
{ACAD_REACTORS
330
C
102
}
330
C
100
AcDbDictionary
281
     1
  3
MC_VERSION_DATA
350
4D6
  3
MCS_DOCUMENT_ID
350
4CE
  3
MCS_PARAMS_DATA
350
4D4
  0
XRECORD
  5
4DB
102
{ACAD_REACTORS
330
4DA
102
}
330
4DA
100
AcDbXrecord
280
     1
102
ACAD_ROUNDTRIP_2008_TABLE_ENTITY
360
4D8
 70
     2
 90
        1
 10
0.0
 20
0.0
 30
0.0
 90
        0
 90
        4
361
4D9
  0
LAYOUT
  5
486
102
{ACAD_REACTORS
330
1A
102
}
330
1A
100
AcDbPlotSettings
  1

  2
none_device
  4
ISO_A1_(594.00_x_841.00_MM)
  6

 40
0.0
 41
0.0
 42
0.0
 43
0.0
 44
841.0
 45
594.0
 46
0.0
 47
0.0
 48
0.0
 49
0.0
140
0.0
141
0.0
142
1.0
143
1.0
 70
     0
 72
     1
 73
     0
 74
     0
  7

 75
     0
 76
     0
 77
     2
 78
   300
147
1.0
148
0.0
149
0.0
100
AcDbLayout
  1
Layout1
 70
     0
 71
     1
 10
0.0
 20
0.0
 11
841.0
 21
594.0
 12
0.0
 22
0.0
 32
0.0
 14
0.0
 24
0.0
 34
0.0
 15
0.0
 25
0.0
 35
0.0
146
0.0
 13
0.0
 23
0.0
 33
0.0
 16
1.0
 26
0.0
 36
0.0
 17
0.0
 27
1.0
 37
0.0
 76
     0
330
226
  0
LAYOUT
  5
485
102
{ACAD_REACTORS
330
1A
102
}
330
1A
100
AcDbPlotSettings
  1

  2
none_device
  4
ISO_A1_(594.00_x_841.00_MM)
  6

 40
0.0
 41
0.0
 42
0.0
 43
0.0
 44
841.0
 45
594.0
 46
0.0
 47
0.0
 48
0.0
 49
0.0
140
0.0
141
0.0
142
1.0
143
1.0
 70
  1024
 72
     1
 73
     0
 74
     0
  7

 75
     0
 76
     0
 77
     2
 78
   300
147
1.0
148
0.0
149
0.0
100
AcDbLayout
  1
Model
 70
     0
 71
     0
 10
0.0
 20
0.0
 11
841.0
 21
594.0
 12
0.0
 22
0.0
 32
0.0
 14
0.0
 24
0.0
 34
0.0
 15
0.0
 25
0.0
 35
0.0
146
0.0
 13
0.0
 23
0.0
 33
0.0
 16
1.0
 26
0.0
 36
0.0
 17
0.0
 27
1.0
 37
0.0
 76
     0
330
225
331
1F4
  0
MATERIAL
  5
4C9
102
{ACAD_REACTORS
330
4C7
102
}
330
4C7
100
AcDbMaterial
  1
ByBlock
 72
     1
 94
      127
  0
MATERIAL
  5
4C8
102
{ACAD_REACTORS
330
4C7
102
}
330
4C7
100
AcDbMaterial
  1
ByLayer
 72
     1
 94
      127
  0
MATERIAL
  5
4CA
102
{ACAD_REACTORS
330
4C7
102
}
330
4C7
100
AcDbMaterial
  1
Global
 72
     1
 94
      127
  0
MLINESTYLE
  5
18
102
{ACAD_REACTORS
330
17
102
}
330
17
100
AcDbMlineStyle
  2
STANDARD
 70
     0
  3

 62
   256
 51
90.0
 52
90.0
 71
     2
 49
0.5
 62
   256
  6
BYLAYER
 49
-0.5
 62
   256
  6
BYLAYER
  0
ACDBPLACEHOLDER
  5
F
102
{ACAD_REACTORS
330
E
102
}
330
E
  0
SCALE
  5
48A
102
{ACAD_REACTORS
330
489
102
}
330
489
100
AcDbScale
 70
     0
300
1:1
140
1.0
141
1.0
290
     1
  0
SCALE
  5
48B
102
{ACAD_REACTORS
330
489
102
}
330
489
100
AcDbScale
 70
     0
300
1:2
140
1.0
141
2.0
290
     0
  0
SCALE
  5
48C
102
{ACAD_REACTORS
330
489
102
}
330
489
100
AcDbScale
 70
     0
300
1:4
140
1.0
141
4.0
290
     0
  0
SCALE
  5
48D
102
{ACAD_REACTORS
330
489
102
}
330
489
100
AcDbScale
 70
     0
300
1:5
140
1.0
141
5.0
290
     0
  0
SCALE
  5
48E
102
{ACAD_REACTORS
330
489
102
}
330
489
100
AcDbScale
 70
     0
300
1:8
140
1.0
141
8.0
290
     0
  0
SCALE
  5
48F
102
{ACAD_REACTORS
330
489
102
}
330
489
100
AcDbScale
 70
     0
300
1:10
140
1.0
141
10.0
290
     0
  0
SCALE
  5
490
102
{ACAD_REACTORS
330
489
102
}
330
489
100
AcDbScale
 70
     0
300
1:16
140
1.0
141
16.0
290
     0
  0
SCALE
  5
491
102
{ACAD_REACTORS
330
489
102
}
330
489
100
AcDbScale
 70
     0
300
1:20
140
1.0
141
20.0
290
     0
  0
SCALE
  5
492
102
{ACAD_REACTORS
330
489
102
}
330
489
100
AcDbScale
 70
     0
300
1:30
140
1.0
141
30.0
290
     0
  0
SCALE
  5
493
102
{ACAD_REACTORS
330
489
102
}
330
489
100
AcDbScale
 70
     0
300
1:40
140
1.0
141
40.0
290
     0
  0
SCALE
  5
494
102
{ACAD_REACTORS
330
489
102
}
330
489
100
AcDbScale
 70
     0
300
1:50
140
1.0
141
50.0
290
     0
  0
SCALE
  5
495
102
{ACAD_REACTORS
330
489
102
}
330
489
100
AcDbScale
 70
     0
300
1:100
140
1.0
141
100.0
290
     0
  0
SCALE
  5
496
102
{ACAD_REACTORS
330
489
102
}
330
489
100
AcDbScale
 70
     0
300
2:1
140
2.0
141
1.0
290
     0
  0
SCALE
  5
497
102
{ACAD_REACTORS
330
489
102
}
330
489
100
AcDbScale
 70
     0
300
4:1
140
4.0
141
1.0
290
     0
  0
SCALE
  5
498
102
{ACAD_REACTORS
330
489
102
}
330
489
100
AcDbScale
 70
     0
300
8:1
140
8.0
141
1.0
290
     0
  0
SCALE
  5
499
102
{ACAD_REACTORS
330
489
102
}
330
489
100
AcDbScale
 70
     0
300
10:1
140
10.0
141
1.0
290
     0
  0
SCALE
  5
49A
102
{ACAD_REACTORS
330
489
102
}
330
489
100
AcDbScale
 70
     0
300
100:1
140
100.0
141
1.0
290
     0
  0
SCALE
  5
49B
102
{ACAD_REACTORS
330
489
102
}
330
489
100
AcDbScale
 70
     0
300
1/128" = 1'-0"
140
0.007812
141
12.0
290
     0
  0
SCALE
  5
49C
102
{ACAD_REACTORS
330
489
102
}
330
489
100
AcDbScale
 70
     0
300
1/64" = 1'-0"
140
0.015625
141
12.0
290
     0
  0
SCALE
  5
49D
102
{ACAD_REACTORS
330
489
102
}
330
489
100
AcDbScale
 70
     0
300
1/32" = 1'-0"
140
0.03125
141
12.0
290
     0
  0
SCALE
  5
49E
102
{ACAD_REACTORS
330
489
102
}
330
489
100
AcDbScale
 70
     0
300
1/16" = 1'-0"
140
0.0625
141
12.0
290
     0
  0
SCALE
  5
49F
102
{ACAD_REACTORS
330
489
102
}
330
489
100
AcDbScale
 70
     0
300
3/32" = 1'-0"
140
0.09375
141
12.0
290
     0
  0
SCALE
  5
4A0
102
{ACAD_REACTORS
330
489
102
}
330
489
100
AcDbScale
 70
     0
300
1/8" = 1'-0"
140
0.125
141
12.0
290
     0
  0
SCALE
  5
4A1
102
{ACAD_REACTORS
330
489
102
}
330
489
100
AcDbScale
 70
     0
300
3/16" = 1'-0"
140
0.1875
141
12.0
290
     0
  0
SCALE
  5
4A2
102
{ACAD_REACTORS
330
489
102
}
330
489
100
AcDbScale
 70
     0
300
1/4" = 1'-0"
140
0.25
141
12.0
290
     0
  0
SCALE
  5
4A3
102
{ACAD_REACTORS
330
489
102
}
330
489
100
AcDbScale
 70
     0
300
3/8" = 1'-0"
140
0.375
141
12.0
290
     0
  0
SCALE
  5
4A4
102
{ACAD_REACTORS
330
489
102
}
330
489
100
AcDbScale
 70
     0
300
1/2" = 1'-0"
140
0.5
141
12.0
290
     0
  0
SCALE
  5
4A5
102
{ACAD_REACTORS
330
489
102
}
330
489
100
AcDbScale
 70
     0
300
3/4" = 1'-0"
140
0.75
141
12.0
290
     0
  0
SCALE
  5
4A6
102
{ACAD_REACTORS
330
489
102
}
330
489
100
AcDbScale
 70
     0
300
1" = 1'-0"
140
1.0
141
12.0
290
     0
  0
SCALE
  5
4A7
102
{ACAD_REACTORS
330
489
102
}
330
489
100
AcDbScale
 70
     0
300
1-1/2" = 1'-0"
140
1.5
141
12.0
290
     0
  0
SCALE
  5
4A8
102
{ACAD_REACTORS
330
489
102
}
330
489
100
AcDbScale
 70
     0
300
3" = 1'-0"
140
3.0
141
12.0
290
     0
  0
SCALE
  5
4A9
102
{ACAD_REACTORS
330
489
102
}
330
489
100
AcDbScale
 70
     0
300
6" = 1'-0"
140
6.0
141
12.0
290
     0
  0
SCALE
  5
4AA
102
{ACAD_REACTORS
330
489
102
}
330
489
100
AcDbScale
 70
     0
300
1'-0" = 1'-0"
140
12.0
141
12.0
290
     0
  0
TABLESTYLE
  5
4AC
102
{ACAD_REACTORS
330
4AB
102
}
102
{ACAD_XDICTIONARY
360
4DE
102
}
330
4AB
100
AcDbTableStyle
  3
Standard
 70
     0
 71
     0
 40
0.06
 41
0.06
280
     0
281
     0
  7
STANDARD
140
4.5
170
     2
 62
     0
 63
   257
283
     0
 90
        4
 91
        0
  1

274
    -2
284
     1
 64
     0
275
    -2
285
     1
 65
     0
276
    -2
286
     1
 66
     0
277
    -2
287
     1
 67
     0
278
    -2
288
     1
 68
     0
279
    -2
289
     1
 69
     0
  7
STANDARD
140
6.0
170
     5
 62
     0
 63
   257
283
     0
 90
        4
 91
        0
  1

274
    -2
284
     1
 64
     0
275
    -2
285
     1
 65
     0
276
    -2
286
     1
 66
     0
277
    -2
287
     1
 67
     0
278
    -2
288
     1
 68
     0
279
    -2
289
     1
 69
     0
  7
STANDARD
140
4.5
170
     5
 62
     0
 63
   257
283
     0
 90
        4
 91
        0
  1

274
    -2
284
     1
 64
     0
275
    -2
285
     1
 65
     0
276
    -2
286
     1
 66
     0
277
    -2
287
     1
 67
     0
278
    -2
288
     1
 68
     0
279
    -2
289
     1
 69
     0
  0
VISUALSTYLE
  5
4B3
102
{ACAD_REACTORS
330
4AE
102
}
330
4AE
100
AcDbVisualStyle
  2
2dWireframe
 70
     4
177
     3
291
     0
 70
    58
 90
        0
176
     1
 90
        2
176
     1
 90
        0
176
     1
 90
        0
176
     1
 40
0.6
176
     1
 40
30.0
176
     1
 62
     7
420
 16777215
176
     1
 90
        1
176
     1
 90
        4
176
     1
 62
     7
176
     1
 62
   257
176
     1
 90
        1
176
     1
 90
        1
176
     1
 40
1.0
176
     1
 90
        0
176
     1
 62
   257
176
     1
 40
1.0
176
     1
 90
        1
176
     1
 90
        6
176
     1
 90
        2
176
     1
 62
     7
176
     1
 90
        5
176
     1
 90
        0
176
     1
 90
        0
176
     1
290
     0
176
     1
 90
        1
176
     1
 40
0.0
176
     1
 90
        0
176
     1
290
     1
176
     1
290
     1
176
     1
290
     0
176
     1
290
     0
176
     1
290
     0
176
     1
290
     0
176
     1
290
     0
176
     1
290
     0
176
     1
290
     0
176
     1
 90
       50
176
     1
 40
0.0
176
     1
 40
1.0
176
     1
 90
        0
176
     1
 62
    18
420
        0
176
     1
 90
       50
176
     1
 90
        3
176
     1
 62
     5
420
      255
176
     1
290
     0
176
     1
 90
       50
176
     1
 90
       50
176
     1
 90
       50
176
     1
290
     0
176
     1
 90
       50
176
     1
 62
   256
176
     0
 40
1.0
176
     0
 90
        2
176
     1
  1
strokes_ogs.tif
176
     1
290
     0
176
     1
 40
1.0
176
     1
 40
1.0
176
     1
  0
VISUALSTYLE
  5
4B6
102
{ACAD_REACTORS
330
4AE
102
}
330
4AE
100
AcDbVisualStyle
  2
Basic
 70
     7
177
     3
291
     1
 70
    58
 90
        1
176
     1
 90
        0
176
     1
 90
        1
176
     1
 90
        0
176
     1
 40
0.6
176
     1
 40
30.0
176
     1
 62
     7
420
 16777215
176
     1
 90
        0
176
     1
 90
        4
176
     1
 62
     7
176
     1
 62
   257
176
     1
 90
        1
176
     1
 90
        1
176
     1
 40
1.0
176
     1
 90
        8
176
     1
 62
     7
176
     1
 40
1.0
176
     1
 90
        1
176
     1
 90
        6
176
     1
 90
        2
176
     1
 62
     7
176
     1
 90
        5
176
     1
 90
        0
176
     1
 90
        0
176
     1
290
     0
176
     1
 90
        1
176
     1
 40
0.0
176
     1
 90
        0
176
     1
290
     0
176
     1
290
     1
176
     1
290
     1
176
     1
290
     0
176
     1
290
     0
176
     1
290
     0
176
     1
290
     0
176
     1
290
     0
176
     1
290
     0
176
     1
 90
       50
176
     1
 40
0.0
176
     1
 40
1.0
176
     1
 90
        0
176
     1
 62
    18
420
        0
176
     1
 90
       50
176
     1
 90
        3
176
     1
 62
     5
420
      255
176
     1
290
     0
176
     1
 90
       50
176
     1
 90
       50
176
     1
 90
       50
176
     1
290
     0
176
     1
 90
       50
176
     1
 62
   256
176
     0
 40
1.0
176
     0
 90
        2
176
     1
  1
strokes_ogs.tif
176
     1
290
     0
176
     1
 40
1.0
176
     1
 40
1.0
176
     1
  0
VISUALSTYLE
  5
4BA
102
{ACAD_REACTORS
330
4AE
102
}
330
4AE
100
AcDbVisualStyle
  2
Brighten
 70
    12
177
     3
291
     1
 70
    58
 90
        2
176
     1
 90
        2
176
     1
 90
        0
176
     1
 90
        0
176
     1
 40
0.6
176
     1
 40
30.0
176
     1
 62
     7
420
 16777215
176
     1
 90
        1
176
     1
 90
        4
176
     1
 62
     7
176
     1
 62
   257
176
     1
 90
        1
176
     1
 90
        1
176
     1
 40
1.0
176
     1
 90
        8
176
     1
 62
     7
176
     1
 40
1.0
176
     1
 90
        1
176
     1
 90
        6
176
     1
 90
        2
176
     1
 62
     7
176
     1
 90
        5
176
     1
 90
        0
176
     1
 90
        0
176
     1
290
     0
176
     1
 90
        1
176
     1
 40
50.0
176
     1
 90
        0
176
     1
290
     0
176
     1
290
     1
176
     1
290
     1
176
     1
290
     0
176
     1
290
     0
176
     1
290
     0
176
     1
290
     0
176
     1
290
     0
176
     1
290
     0
176
     1
 90
       50
176
     1
 40
0.0
176
     1
 40
1.0
176
     1
 90
        0
176
     1
 62
    18
420
        0
176
     1
 90
       50
176
     1
 90
        3
176
     1
 62
     5
420
      255
176
     1
290
     0
176
     1
 90
       50
176
     1
 90
       50
176
     1
 90
       50
176
     1
290
     0
176
     1
 90
       50
176
     1
 62
   256
176
     0
 40
1.0
176
     0
 90
        2
176
     1
  1
strokes_ogs.tif
176
     1
290
     0
176
     1
 40
1.0
176
     1
 40
1.0
176
     1
  0
VISUALSTYLE
  5
4BE
102
{ACAD_REACTORS
330
4AE
102
}
330
4AE
100
AcDbVisualStyle
  2
ColorChange
 70
    16
177
     3
291
     1
 70
    58
 90
        2
176
     1
 90
        2
176
     1
 90
        3
176
     1
 90
        0
176
     1
 40
0.6
176
     1
 40
30.0
176
     1
 62
     8
420
  8421504
176
     1
 90
        1
176
     1
 90
        4
176
     1
 62
     7
176
     1
 62
   257
176
     1
 90
        1
176
     1
 90
        1
176
     1
 40
1.0
176
     1
 90
        8
176
     1
 62
     8
420
  8421504
176
     1
 40
1.0
176
     1
 90
        1
176
     1
 90
        6
176
     1
 90
        2
176
     1
 62
     7
176
     1
 90
        5
176
     1
 90
        0
176
     1
 90
        0
176
     1
290
     0
176
     1
 90
        1
176
     1
 40
0.0
176
     1
 90
        0
176
     1
290
     0
176
     1
290
     1
176
     1
290
     1
176
     1
290
     0
176
     1
290
     0
176
     1
290
     0
176
     1
290
     0
176
     1
290
     0
176
     1
290
     0
176
     1
 90
       50
176
     1
 40
0.0
176
     1
 40
1.0
176
     1
 90
        0
176
     1
 62
    18
420
        0
176
     1
 90
       50
176
     1
 90
        3
176
     1
 62
     5
420
      255
176
     1
290
     0
176
     1
 90
       50
176
     1
 90
       50
176
     1
 90
       50
176
     1
290
     0
176
     1
 90
       50
176
     1
 62
   256
176
     0
 40
1.0
176
     0
 90
        2
176
     1
  1
strokes_ogs.tif
176
     1
290
     0
176
     1
 40
1.0
176
     1
 40
1.0
176
     1
  0
VISUALSTYLE
  5
4B8
102
{ACAD_REACTORS
330
4AE
102
}
330
4AE
100
AcDbVisualStyle
  2
Conceptual
 70
     9
177
     3
291
     0
 70
    58
 90
        3
176
     1
 90
        2
176
     1
 90
        0
176
     1
 90
        0
176
     1
 40
0.6
176
     1
 40
30.0
176
     1
 62
     7
420
 16777215
176
     1
 90
        2
176
     1
 90
        2
176
     1
 62
     7
176
     1
 62
   257
176
     1
 90
        1
176
     1
 90
        1
176
     1
 40
179.0
176
     1
 90
        8
176
     1
 62
     7
176
     1
 40
1.0
176
     1
 90
        1
176
     1
 90
        6
176
     1
 90
        2
176
     1
 62
     7
176
     1
 90
        3
176
     1
 90
        0
176
     1
 90
        0
176
     1
290
     0
176
     1
 90
        1
176
     1
 40
0.0
176
     1
 90
        0
176
     1
290
     0
176
     1
290
     1
176
     1
290
     1
176
     1
290
     0
176
     1
290
     0
176
     1
290
     0
176
     1
290
     0
176
     1
290
     0
176
     1
290
     0
176
     1
 90
       50
176
     1
 40
0.0
176
     1
 40
1.0
176
     1
 90
        0
176
     1
 62
    18
420
        0
176
     1
 90
       50
176
     1
 90
        3
176
     1
 62
     5
420
      255
176
     1
290
     0
176
     1
 90
       50
176
     1
 90
       50
176
     1
 90
       50
176
     1
290
     0
176
     1
 90
       50
176
     1
 62
   256
176
     0
 40
1.0
176
     0
 90
        2
176
     1
  1
strokes_ogs.tif
176
     1
290
     0
176
     1
 40
1.0
176
     1
 40
1.0
176
     1
  0
VISUALSTYLE
  5
4B9
102
{ACAD_REACTORS
330
4AE
102
}
330
4AE
100
AcDbVisualStyle
  2
Dim
 70
    11
177
     3
291
     1
 70
    58
 90
        2
176
     1
 90
        2
176
     1
 90
        0
176
     1
 90
        0
176
     1
 40
0.6
176
     1
 40
30.0
176
     1
 62
     7
420
 16777215
176
     1
 90
        1
176
     1
 90
        4
176
     1
 62
     7
176
     1
 62
   257
176
     1
 90
        1
176
     1
 90
        1
176
     1
 40
1.0
176
     1
 90
        8
176
     1
 62
     7
176
     1
 40
1.0
176
     1
 90
        1
176
     1
 90
        6
176
     1
 90
        2
176
     1
 62
     7
176
     1
 90
        5
176
     1
 90
        0
176
     1
 90
        0
176
     1
290
     0
176
     1
 90
        1
176
     1
 40
-50.0
176
     1
 90
        0
176
     1
290
     0
176
     1
290
     1
176
     1
290
     1
176
     1
290
     0
176
     1
290
     0
176
     1
290
     0
176
     1
290
     0
176
     1
290
     0
176
     1
290
     0
176
     1
 90
       50
176
     1
 40
0.0
176
     1
 40
1.0
176
     1
 90
        0
176
     1
 62
    18
420
        0
176
     1
 90
       50
176
     1
 90
        3
176
     1
 62
     5
420
      255
176
     1
290
     0
176
     1
 90
       50
176
     1
 90
       50
176
     1
 90
       50
176
     1
290
     0
176
     1
 90
       50
176
     1
 62
   256
176
     0
 40
1.0
176
     0
 90
        2
176
     1
  1
strokes_ogs.tif
176
     1
290
     0
176
     1
 40
1.0
176
     1
 40
1.0
176
     1
  0
VISUALSTYLE
  5
4C1
102
{ACAD_REACTORS
330
4AE
102
}
330
4AE
100
AcDbVisualStyle
  2
EdgeColorOff
 70
    22
177
     3
291
     1
 70
    58
 90
        2
176
     0
 90
        2
176
     0
 90
        0
176
     0
 90
        0
176
     0
 40
0.6
176
     0
 40
30.0
176
     0
 62
     7
420
 16777215
176
     0
 90
        1
176
     0
 90
        4
176
     0
 62
     7
176
     0
 62
   257
176
     0
 90
        1
176
     0
 90
        1
176
     0
 40
1.0
176
     0
 90
        8
176
     2
 62
     7
176
     0
 40
1.0
176
     0
 90
        1
176
     0
 90
        6
176
     0
 90
        2
176
     0
 62
     7
176
     0
 90
        5
176
     0
 90
        0
176
     0
 90
        0
176
     0
290
     0
176
     0
 90
        1
176
     0
 40
0.0
176
     0
 90
        0
176
     0
290
     0
176
     0
290
     1
176
     0
290
     1
176
     0
290
     0
176
     0
290
     0
176
     0
290
     0
176
     0
290
     0
176
     0
290
     0
176
     0
290
     0
176
     0
 90
       50
176
     0
 40
0.0
176
     0
 40
1.0
176
     0
 90
        0
176
     0
 62
    18
420
        0
176
     0
 90
       50
176
     0
 90
        3
176
     0
 62
     5
420
      255
176
     0
290
     0
176
     0
 90
       50
176
     0
 90
       50
176
     0
 90
       50
176
     0
290
     0
176
     0
 90
       50
176
     0
 62
   256
176
     0
 40
1.0
176
     0
 90
        2
176
     0
  1
strokes_ogs.tif
176
     0
290
     0
176
     0
 40
1.0
176
     0
 40
1.0
176
     0
  0
VISUALSTYLE
  5
4BD
102
{ACAD_REACTORS
330
4AE
102
}
330
4AE
100
AcDbVisualStyle
  2
Facepattern
 70
    15
177
     3
291
     1
 70
    58
 90
        2
176
     1
 90
        2
176
     1
 90
        0
176
     1
 90
        0
176
     1
 40
0.6
176
     1
 40
30.0
176
     1
 62
     7
420
 16777215
176
     1
 90
        1
176
     1
 90
        4
176
     1
 62
     7
176
     1
 62
   257
176
     1
 90
        1
176
     1
 90
        1
176
     1
 40
1.0
176
     1
 90
        8
176
     1
 62
     7
176
     1
 40
1.0
176
     1
 90
        1
176
     1
 90
        6
176
     1
 90
        2
176
     1
 62
     7
176
     1
 90
        5
176
     1
 90
        0
176
     1
 90
        0
176
     1
290
     0
176
     1
 90
        1
176
     1
 40
0.0
176
     1
 90
        0
176
     1
290
     0
176
     1
290
     1
176
     1
290
     1
176
     1
290
     0
176
     1
290
     0
176
     1
290
     0
176
     1
290
     0
176
     1
290
     0
176
     1
290
     0
176
     1
 90
       50
176
     1
 40
0.0
176
     1
 40
1.0
176
     1
 90
        0
176
     1
 62
    18
420
        0
176
     1
 90
       50
176
     1
 90
        3
176
     1
 62
     5
420
      255
176
     1
290
     0
176
     1
 90
       50
176
     1
 90
       50
176
     1
 90
       50
176
     1
290
     0
176
     1
 90
       50
176
     1
 62
   256
176
     0
 40
1.0
176
     0
 90
        2
176
     1
  1
strokes_ogs.tif
176
     1
290
     0
176
     1
 40
1.0
176
     1
 40
1.0
176
     1
  0
VISUALSTYLE
  5
4AF
102
{ACAD_REACTORS
330
4AE
102
}
330
4AE
100
AcDbVisualStyle
  2
Flat
 70
     0
177
     3
291
     1
 70
    58
 90
        2
176
     1
 90
        1
176
     1
 90
        1
176
     1
 90
        2
176
     1
 40
0.6
176
     1
 40
30.0
176
     1
 62
     7
420
 16777215
176
     1
 90
        0
176
     1
 90
        0
176
     1
 62
     7
176
     1
 62
   257
176
     1
 90
        1
176
     1
 90
        1
176
     1
 40
1.0
176
     1
 90
        8
176
     1
 62
     7
176
     1
 40
1.0
176
     1
 90
        1
176
     1
 90
        6
176
     1
 90
        2
176
     1
 62
     7
176
     1
 90
        5
176
     1
 90
        0
176
     1
 90
        0
176
     1
290
     0
176
     1
 90
       13
176
     1
 40
0.0
176
     1
 90
        0
176
     1
290
     0
176
     1
290
     1
176
     1
290
     1
176
     1
290
     0
176
     1
290
     0
176
     1
290
     0
176
     1
290
     0
176
     1
290
     0
176
     1
290
     0
176
     1
 90
       50
176
     1
 40
0.0
176
     1
 40
1.0
176
     1
 90
        0
176
     1
 62
    18
420
        0
176
     1
 90
       50
176
     1
 90
        3
176
     1
 62
     5
420
      255
176
     1
290
     0
176
     1
 90
       50
176
     1
 90
       50
176
     1
 90
       50
176
     1
290
     0
176
     1
 90
       50
176
     1
 62
   256
176
     0
 40
1.0
176
     0
 90
        2
176
     1
  1
strokes_ogs.tif
176
     1
290
     0
176
     1
 40
1.0
176
     1
 40
1.0
176
     1
  0
VISUALSTYLE
  5
4B0
102
{ACAD_REACTORS
330
4AE
102
}
330
4AE
100
AcDbVisualStyle
  2
FlatWithEdges
 70
     1
177
     3
291
     1
 70
    58
 90
        2
176
     1
 90
        1
176
     1
 90
        1
176
     1
 90
        2
176
     1
 40
0.6
176
     1
 40
30.0
176
     1
 62
     7
420
 16777215
176
     1
 90
        1
176
     1
 90
        0
176
     1
 62
     7
176
     1
 62
   257
176
     1
 90
        1
176
     1
 90
        1
176
     1
 40
1.0
176
     1
 90
        0
176
     1
 62
   257
176
     1
 40
1.0
176
     1
 90
        1
176
     1
 90
        6
176
     1
 90
        2
176
     1
 62
     7
176
     1
 90
        5
176
     1
 90
        0
176
     1
 90
        0
176
     1
290
     0
176
     1
 90
       13
176
     1
 40
0.0
176
     1
 90
        0
176
     1
290
     0
176
     1
290
     1
176
     1
290
     1
176
     1
290
     0
176
     1
290
     0
176
     1
290
     0
176
     1
290
     0
176
     1
290
     0
176
     1
290
     0
176
     1
 90
       50
176
     1
 40
0.0
176
     1
 40
1.0
176
     1
 90
        0
176
     1
 62
    18
420
        0
176
     1
 90
       50
176
     1
 90
        3
176
     1
 62
     5
420
      255
176
     1
290
     0
176
     1
 90
       50
176
     1
 90
       50
176
     1
 90
       50
176
     1
290
     0
176
     1
 90
       50
176
     1
 62
   256
176
     0
 40
1.0
176
     0
 90
        2
176
     1
  1
strokes_ogs.tif
176
     1
290
     0
176
     1
 40
1.0
176
     1
 40
1.0
176
     1
  0
VISUALSTYLE
  5
4B1
102
{ACAD_REACTORS
330
4AE
102
}
330
4AE
100
AcDbVisualStyle
  2
Gouraud
 70
     2
177
     3
291
     1
 70
    58
 90
        2
176
     1
 90
        2
176
     1
 90
        1
176
     1
 90
        2
176
     1
 40
0.6
176
     1
 40
30.0
176
     1
 62
     7
420
 16777215
176
     1
 90
        0
176
     1
 90
        0
176
     1
 62
     7
176
     1
 62
   257
176
     1
 90
        1
176
     1
 90
        1
176
     1
 40
1.0
176
     1
 90
        0
176
     1
 62
     7
176
     1
 40
1.0
176
     1
 90
        1
176
     1
 90
        6
176
     1
 90
        2
176
     1
 62
     7
176
     1
 90
        5
176
     1
 90
        0
176
     1
 90
        0
176
     1
290
     0
176
     1
 90
       13
176
     1
 40
0.0
176
     1
 90
        0
176
     1
290
     0
176
     1
290
     1
176
     1
290
     1
176
     1
290
     0
176
     1
290
     0
176
     1
290
     0
176
     1
290
     0
176
     1
290
     0
176
     1
290
     0
176
     1
 90
       50
176
     1
 40
0.0
176
     1
 40
1.0
176
     1
 90
        0
176
     1
 62
    18
420
        0
176
     1
 90
       50
176
     1
 90
        3
176
     1
 62
     5
420
      255
176
     1
290
     0
176
     1
 90
       50
176
     1
 90
       50
176
     1
 90
       50
176
     1
290
     0
176
     1
 90
       50
176
     1
 62
   256
176
     0
 40
1.0
176
     0
 90
        2
176
     1
  1
strokes_ogs.tif
176
     1
290
     0
176
     1
 40
1.0
176
     1
 40
1.0
176
     1
  0
VISUALSTYLE
  5
4B2
102
{ACAD_REACTORS
330
4AE
102
}
330
4AE
100
AcDbVisualStyle
  2
GouraudWithEdges
 70
     3
177
     3
291
     1
 70
    58
 90
        2
176
     1
 90
        2
176
     1
 90
        1
176
     1
 90
        2
176
     1
 40
0.6
176
     1
 40
30.0
176
     1
 62
     7
420
 16777215
176
     1
 90
        1
176
     1
 90
        0
176
     1
 62
     7
176
     1
 62
   257
176
     1
 90
        1
176
     1
 90
        1
176
     1
 40
1.0
176
     1
 90
        0
176
     1
 62
   257
176
     1
 40
1.0
176
     1
 90
        1
176
     1
 90
        6
176
     1
 90
        2
176
     1
 62
     7
176
     1
 90
        5
176
     1
 90
        0
176
     1
 90
        0
176
     1
290
     0
176
     1
 90
       13
176
     1
 40
0.0
176
     1
 90
        0
176
     1
290
     0
176
     1
290
     1
176
     1
290
     1
176
     1
290
     0
176
     1
290
     0
176
     1
290
     0
176
     1
290
     0
176
     1
290
     0
176
     1
290
     0
176
     1
 90
       50
176
     1
 40
0.0
176
     1
 40
1.0
176
     1
 90
        0
176
     1
 62
    18
420
        0
176
     1
 90
       50
176
     1
 90
        3
176
     1
 62
     5
420
      255
176
     1
290
     0
176
     1
 90
       50
176
     1
 90
       50
176
     1
 90
       50
176
     1
290
     0
176
     1
 90
       50
176
     1
 62
   256
176
     0
 40
1.0
176
     0
 90
        2
176
     1
  1
strokes_ogs.tif
176
     1
290
     0
176
     1
 40
1.0
176
     1
 40
1.0
176
     1
  0
VISUALSTYLE
  5
4B5
102
{ACAD_REACTORS
330
4AE
102
}
330
4AE
100
AcDbVisualStyle
  2
Hidden
 70
     6
177
     3
291
     0
 70
    58
 90
        1
176
     1
 90
        2
176
     1
 90
        2
176
     1
 90
        0
176
     1
 40
0.6
176
     1
 40
30.0
176
     1
 62
     7
420
 16777215
176
     1
 90
        2
176
     1
 90
        2
176
     1
 62
     7
176
     1
 62
   257
176
     1
 90
        2
176
     1
 90
        1
176
     1
 40
40.0
176
     1
 90
        0
176
     1
 62
   257
176
     1
 40
1.0
176
     1
 90
        1
176
     1
 90
        6
176
     1
 90
        2
176
     1
 62
     7
176
     1
 90
        3
176
     1
 90
        0
176
     1
 90
        0
176
     1
290
     0
176
     1
 90
        1
176
     1
 40
0.0
176
     1
 90
        0
176
     1
290
     0
176
     1
290
     1
176
     1
290
     1
176
     1
290
     0
176
     1
290
     0
176
     1
290
     0
176
     1
290
     0
176
     1
290
     0
176
     1
290
     0
176
     1
 90
       50
176
     1
 40
0.0
176
     1
 40
1.0
176
     1
 90
        0
176
     1
 62
    18
420
        0
176
     1
 90
       50
176
     1
 90
        3
176
     1
 62
     5
420
      255
176
     1
290
     0
176
     1
 90
       50
176
     1
 90
       50
176
     1
 90
       50
176
     1
290
     0
176
     1
 90
       50
176
     1
 62
   256
176
     0
 40
1.0
176
     0
 90
        2
176
     1
  1
strokes_ogs.tif
176
     1
290
     0
176
     1
 40
1.0
176
     1
 40
1.0
176
     1
  0
VISUALSTYLE
  5
4BF
102
{ACAD_REACTORS
330
4AE
102
}
330
4AE
100
AcDbVisualStyle
  2
JitterOff
 70
    20
177
     3
291
     1
 70
    58
 90
        2
176
     0
 90
        2
176
     0
 90
        0
176
     0
 90
        0
176
     0
 40
0.6
176
     0
 40
30.0
176
     0
 62
     7
420
 16777215
176
     0
 90
        1
176
     0
 90
        4
176
     0
 62
     7
176
     0
 62
   257
176
     0
 90
        1
176
     0
 90
        1
176
     0
 40
1.0
176
     0
 90
       10
176
     2
 62
     7
176
     0
 40
1.0
176
     0
 90
        1
176
     0
 90
        6
176
     0
 90
        2
176
     0
 62
     7
176
     0
 90
        5
176
     0
 90
        0
176
     0
 90
        0
176
     0
290
     0
176
     0
 90
        1
176
     0
 40
0.0
176
     0
 90
        0
176
     0
290
     0
176
     0
290
     1
176
     0
290
     1
176
     0
290
     0
176
     0
290
     0
176
     0
290
     0
176
     0
290
     0
176
     0
290
     0
176
     0
290
     0
176
     0
 90
       50
176
     0
 40
0.0
176
     0
 40
1.0
176
     0
 90
        0
176
     0
 62
    18
420
        0
176
     0
 90
       50
176
     0
 90
        3
176
     0
 62
     5
420
      255
176
     0
290
     0
176
     0
 90
       50
176
     0
 90
       50
176
     0
 90
       50
176
     0
290
     0
176
     0
 90
       50
176
     0
 62
   256
176
     0
 40
1.0
176
     0
 90
        2
176
     0
  1
strokes_ogs.tif
176
     0
290
     0
176
     0
 40
1.0
176
     0
 40
1.0
176
     0
  0
VISUALSTYLE
  5
4BC
102
{ACAD_REACTORS
330
4AE
102
}
330
4AE
100
AcDbVisualStyle
  2
Linepattern
 70
    14
177
     3
291
     1
 70
    58
 90
        2
176
     1
 90
        2
176
     1
 90
        0
176
     1
 90
        0
176
     1
 40
0.6
176
     1
 40
30.0
176
     1
 62
     7
420
 16777215
176
     1
 90
        1
176
     1
 90
        4
176
     1
 62
     7
176
     1
 62
   257
176
     1
 90
        7
176
     1
 90
        7
176
     1
 40
1.0
176
     1
 90
        8
176
     1
 62
     7
176
     1
 40
1.0
176
     1
 90
        1
176
     1
 90
        6
176
     1
 90
        2
176
     1
 62
     7
176
     1
 90
        5
176
     1
 90
        0
176
     1
 90
        0
176
     1
290
     0
176
     1
 90
        1
176
     1
 40
0.0
176
     1
 90
        0
176
     1
290
     0
176
     1
290
     1
176
     1
290
     1
176
     1
290
     0
176
     1
290
     0
176
     1
290
     0
176
     1
290
     0
176
     1
290
     0
176
     1
290
     0
176
     1
 90
       50
176
     1
 40
0.0
176
     1
 40
1.0
176
     1
 90
        0
176
     1
 62
    18
420
        0
176
     1
 90
       50
176
     1
 90
        3
176
     1
 62
     5
420
      255
176
     1
290
     0
176
     1
 90
       50
176
     1
 90
       50
176
     1
 90
       50
176
     1
290
     0
176
     1
 90
       50
176
     1
 62
   256
176
     0
 40
1.0
176
     0
 90
        2
176
     1
  1
strokes_ogs.tif
176
     1
290
     0
176
     1
 40
1.0
176
     1
 40
1.0
176
     1
  0
VISUALSTYLE
  5
4C0
102
{ACAD_REACTORS
330
4AE
102
}
330
4AE
100
AcDbVisualStyle
  2
OverhangOff
 70
    21
177
     3
291
     1
 70
    58
 90
        2
176
     0
 90
        2
176
     0
 90
        0
176
     0
 90
        0
176
     0
 40
0.6
176
     0
 40
30.0
176
     0
 62
     7
420
 16777215
176
     0
 90
        1
176
     0
 90
        4
176
     0
 62
     7
176
     0
 62
   257
176
     0
 90
        1
176
     0
 90
        1
176
     0
 40
1.0
176
     0
 90
        9
176
     2
 62
     7
176
     0
 40
1.0
176
     0
 90
        1
176
     0
 90
        6
176
     0
 90
        2
176
     0
 62
     7
176
     0
 90
        5
176
     0
 90
        0
176
     0
 90
        0
176
     0
290
     0
176
     0
 90
        1
176
     0
 40
0.0
176
     0
 90
        0
176
     0
290
     0
176
     0
290
     1
176
     0
290
     1
176
     0
290
     0
176
     0
290
     0
176
     0
290
     0
176
     0
290
     0
176
     0
290
     0
176
     0
290
     0
176
     0
 90
       50
176
     0
 40
0.0
176
     0
 40
1.0
176
     0
 90
        0
176
     0
 62
    18
420
        0
176
     0
 90
       50
176
     0
 90
        3
176
     0
 62
     5
420
      255
176
     0
290
     0
176
     0
 90
       50
176
     0
 90
       50
176
     0
 90
       50
176
     0
290
     0
176
     0
 90
       50
176
     0
 62
   256
176
     0
 40
1.0
176
     0
 90
        2
176
     0
  1
strokes_ogs.tif
176
     0
290
     0
176
     0
 40
1.0
176
     0
 40
1.0
176
     0
  0
VISUALSTYLE
  5
4B7
102
{ACAD_REACTORS
330
4AE
102
}
330
4AE
100
AcDbVisualStyle
  2
Realistic
 70
     8
177
     3
291
     0
 70
    58
 90
        2
176
     1
 90
        3
176
     1
 90
        0
176
     1
 90
        2
176
     1
 40
0.6
176
     1
 40
30.0
176
     1
 62
     7
420
 16777215
176
     1
 90
        0
176
     1
 90
        0
176
     1
 62
     7
176
     1
 62
   257
176
     1
 90
        1
176
     1
 90
        1
176
     1
 40
1.0
176
     1
 90
        8
176
     1
 62
   257
176
     1
 40
1.0
176
     1
 90
        1
176
     1
 90
        6
176
     1
 90
        2
176
     1
 62
     7
176
     1
 90
        3
176
     1
 90
        0
176
     1
 90
        0
176
     1
290
     0
176
     1
 90
       13
176
     1
 40
0.0
176
     1
 90
        0
176
     1
290
     0
176
     1
290
     1
176
     1
290
     1
176
     1
290
     0
176
     1
290
     0
176
     1
290
     0
176
     1
290
     0
176
     1
290
     0
176
     1
290
     0
176
     1
 90
       50
176
     1
 40
0.0
176
     1
 40
1.0
176
     1
 90
        0
176
     1
 62
    18
420
        0
176
     1
 90
       50
176
     1
 90
        3
176
     1
 62
     5
420
      255
176
     1
290
     0
176
     1
 90
       50
176
     1
 90
       50
176
     1
 90
       50
176
     1
290
     0
176
     1
 90
       50
176
     1
 62
   256
176
     0
 40
1.0
176
     0
 90
        2
176
     1
  1
strokes_ogs.tif
176
     1
290
     0
176
     1
 40
1.0
176
     1
 40
1.0
176
     1
  0
VISUALSTYLE
  5
4C6
102
{ACAD_REACTORS
330
4AE
102
}
330
4AE
100
AcDbVisualStyle
  2
Shaded
 70
    27
177
     3
291
     0
 70
    58
 90
        2
176
     1
 90
        2
176
     1
 90
        1
176
     1
 90
        2
176
     1
 40
0.6
176
     1
 40
30.0
176
     1
 62
     7
420
 16777215
176
     1
 90
        0
176
     1
 90
        4
176
     1
 62
     7
176
     1
 62
   257
176
     1
 90
        1
176
     1
 90
        1
176
     1
 40
1.0
176
     1
 90
        8
176
     1
 62
   257
176
     1
 40
1.0
176
     1
 90
        1
176
     1
 90
        6
176
     1
 90
        2
176
     1
 62
     8
420
  7895160
176
     1
 90
        3
176
     1
 90
        0
176
     1
 90
        0
176
     1
290
     0
176
     1
 90
        5
176
     1
 40
0.0
176
     1
 90
        0
176
     1
290
     0
176
     1
290
     1
176
     1
290
     1
176
     1
290
     0
176
     1
290
     0
176
     1
290
     0
176
     1
290
     0
176
     1
290
     0
176
     1
290
     0
176
     1
 90
       50
176
     1
 40
0.0
176
     1
 40
1.0
176
     1
 90
        0
176
     1
 62
    18
420
        0
176
     1
 90
       50
176
     1
 90
        3
176
     1
 62
     5
420
      255
176
     1
290
     0
176
     1
 90
       50
176
     1
 90
       50
176
     1
 90
       50
176
     1
290
     0
176
     1
 90
       50
176
     1
 62
   256
176
     0
 40
1.0
176
     0
 90
        2
176
     1
  1
strokes_ogs.tif
176
     1
290
     0
176
     1
 40
1.0
176
     1
 40
1.0
176
     1
  0
VISUALSTYLE
  5
4C5
102
{ACAD_REACTORS
330
4AE
102
}
330
4AE
100
AcDbVisualStyle
  2
Shaded with edges
 70
    26
177
     3
291
     0
 70
    58
 90
        2
176
     1
 90
        2
176
     1
 90
        1
176
     1
 90
        2
176
     1
 40
0.6
176
     1
 40
30.0
176
     1
 62
     7
420
 16777215
176
     1
 90
        1
176
     1
 90
       10
176
     1
 62
     7
176
     1
 62
   257
176
     1
 90
        2
176
     1
 90
        1
176
     1
 40
1.0
176
     1
 90
        8
176
     1
 62
   257
176
     1
 40
1.0
176
     1
 90
        1
176
     1
 90
        6
176
     1
 90
        2
176
     1
 62
     7
176
     1
 90
        3
176
     1
 90
        0
176
     1
 90
        0
176
     1
290
     0
176
     1
 90
        5
176
     1
 40
0.0
176
     1
 90
        0
176
     1
290
     0
176
     1
290
     1
176
     1
290
     1
176
     1
290
     0
176
     1
290
     0
176
     1
290
     0
176
     1
290
     0
176
     1
290
     0
176
     1
290
     0
176
     1
 90
       50
176
     1
 40
0.0
176
     1
 40
1.0
176
     1
 90
        0
176
     1
 62
    18
420
        0
176
     1
 90
       50
176
     1
 90
        3
176
     1
 62
     5
420
      255
176
     1
290
     0
176
     1
 90
       50
176
     1
 90
       50
176
     1
 90
       50
176
     1
290
     0
176
     1
 90
       50
176
     1
 62
   256
176
     0
 40
1.0
176
     0
 90
        2
176
     1
  1
strokes_ogs.tif
176
     1
290
     0
176
     1
 40
1.0
176
     1
 40
1.0
176
     1
  0
VISUALSTYLE
  5
4C2
102
{ACAD_REACTORS
330
4AE
102
}
330
4AE
100
AcDbVisualStyle
  2
Shades of Gray
 70
    23
177
     3
291
     0
 70
    58
 90
        2
176
     1
 90
        2
176
     1
 90
        3
176
     1
 90
        0
176
     1
 40
0.6
176
     1
 40
30.0
176
     1
 62
     7
420
 16777215
176
     1
 90
        2
176
     1
 90
        2
176
     1
 62
     7
176
     1
 62
     7
176
     1
 90
        1
176
     1
 90
        1
176
     1
 40
40.0
176
     1
 90
        8
176
     1
 62
     7
176
     1
 40
1.0
176
     1
 90
        1
176
     1
 90
        6
176
     1
 90
        2
176
     1
 62
     7
176
     1
 90
        3
176
     1
 90
        0
176
     1
 90
        0
176
     1
290
     0
176
     1
 90
        1
176
     1
 40
0.0
176
     1
 90
        0
176
     1
290
     0
176
     1
290
     1
176
     1
290
     1
176
     1
290
     0
176
     1
290
     0
176
     1
290
     0
176
     1
290
     0
176
     1
290
     0
176
     1
290
     0
176
     1
 90
       50
176
     1
 40
0.0
176
     1
 40
1.0
176
     1
 90
        0
176
     1
 62
    18
420
        0
176
     1
 90
       50
176
     1
 90
        3
176
     1
 62
     5
420
      255
176
     1
290
     0
176
     1
 90
       50
176
     1
 90
       50
176
     1
 90
       50
176
     1
290
     0
176
     1
 90
       50
176
     1
 62
   256
176
     0
 40
1.0
176
     0
 90
        2
176
     1
  1
strokes_ogs.tif
176
     1
290
     0
176
     1
 40
1.0
176
     1
 40
1.0
176
     1
  0
VISUALSTYLE
  5
4C3
102
{ACAD_REACTORS
330
4AE
102
}
330
4AE
100
AcDbVisualStyle
  2
Sketchy
 70
    24
177
     3
291
     0
 70
    58
 90
        1
176
     1
 90
        2
176
     1
 90
        2
176
     1
 90
        0
176
     1
 40
0.6
176
     1
 40
30.0
176
     1
 62
     7
420
 16777215
176
     1
 90
        2
176
     1
 90
        2
176
     1
 62
     7
176
     1
 62
     7
176
     1
 90
        1
176
     1
 90
        1
176
     1
 40
40.0
176
     1
 90
       11
176
     1
 62
     7
176
     1
 40
1.0
176
     1
 90
        1
176
     1
 90
        6
176
     1
 90
        2
176
     1
 62
     7
176
     1
 90
        6
176
     1
 90
        0
176
     1
 90
        0
176
     1
290
     0
176
     1
 90
        1
176
     1
 40
0.0
176
     1
 90
        0
176
     1
290
     0
176
     1
290
     1
176
     1
290
     1
176
     1
290
     0
176
     1
290
     0
176
     1
290
     0
176
     1
290
     0
176
     1
290
     0
176
     1
290
     0
176
     1
 90
       50
176
     1
 40
0.0
176
     1
 40
1.0
176
     1
 90
        0
176
     1
 62
    18
420
        0
176
     1
 90
       50
176
     1
 90
        3
176
     1
 62
     5
420
      255
176
     1
290
     0
176
     1
 90
       50
176
     1
 90
       50
176
     1
 90
       50
176
     1
290
     0
176
     1
 90
       50
176
     1
 62
   256
176
     0
 40
1.0
176
     0
 90
        2
176
     1
  1
strokes_ogs.tif
176
     1
290
     0
176
     1
 40
1.0
176
     1
 40
1.0
176
     1
  0
VISUALSTYLE
  5
4BB
102
{ACAD_REACTORS
330
4AE
102
}
330
4AE
100
AcDbVisualStyle
  2
Thicken
 70
    13
177
     3
291
     1
 70
    58
 90
        2
176
     1
 90
        2
176
     1
 90
        0
176
     1
 90
        0
176
     1
 40
0.6
176
     1
 40
30.0
176
     1
 62
     7
420
 16777215
176
     1
 90
        1
176
     1
 90
        4
176
     1
 62
     7
176
     1
 62
   257
176
     1
 90
        1
176
     1
 90
        1
176
     1
 40
1.0
176
     1
 90
       12
176
     1
 62
     7
176
     1
 40
1.0
176
     1
 90
        1
176
     1
 90
        6
176
     1
 90
        2
176
     1
 62
     7
176
     1
 90
        5
176
     1
 90
        0
176
     1
 90
        0
176
     1
290
     0
176
     1
 90
        1
176
     1
 40
0.0
176
     1
 90
        0
176
     1
290
     0
176
     1
290
     1
176
     1
290
     1
176
     1
290
     0
176
     1
290
     0
176
     1
290
     0
176
     1
290
     0
176
     1
290
     0
176
     1
290
     0
176
     1
 90
       50
176
     1
 40
0.0
176
     1
 40
1.0
176
     1
 90
        0
176
     1
 62
    18
420
        0
176
     1
 90
       50
176
     1
 90
        3
176
     1
 62
     5
420
      255
176
     1
290
     0
176
     1
 90
       50
176
     1
 90
       50
176
     1
 90
       50
176
     1
290
     0
176
     1
 90
       50
176
     1
 62
   256
176
     0
 40
1.0
176
     0
 90
        2
176
     1
  1
strokes_ogs.tif
176
     1
290
     0
176
     1
 40
1.0
176
     1
 40
1.0
176
     1
  0
VISUALSTYLE
  5
4B4
102
{ACAD_REACTORS
330
4AE
102
}
330
4AE
100
AcDbVisualStyle
  2
Wireframe
 70
     5
177
     3
291
     0
 70
    58
 90
        0
176
     1
 90
        2
176
     1
 90
        0
176
     1
 90
        0
176
     1
 40
0.6
176
     1
 40
30.0
176
     1
 62
     7
420
 16777215
176
     1
 90
        1
176
     1
 90
        4
176
     1
 62
     7
176
     1
 62
   257
176
     1
 90
        1
176
     1
 90
        1
176
     1
 40
1.0
176
     1
 90
        0
176
     1
 62
   257
176
     1
 40
1.0
176
     1
 90
        1
176
     1
 90
        6
176
     1
 90
        2
176
     1
 62
     7
176
     1
 90
        3
176
     1
 90
        0
176
     1
 90
        0
176
     1
290
     0
176
     1
 90
        1
176
     1
 40
0.0
176
     1
 90
        0
176
     1
290
     0
176
     1
290
     1
176
     1
290
     1
176
     1
290
     0
176
     1
290
     0
176
     1
290
     0
176
     1
290
     0
176
     1
290
     0
176
     1
290
     0
176
     1
 90
       50
176
     1
 40
0.0
176
     1
 40
1.0
176
     1
 90
        0
176
     1
 62
    18
420
        0
176
     1
 90
       50
176
     1
 90
        3
176
     1
 62
     5
420
      255
176
     1
290
     0
176
     1
 90
       50
176
     1
 90
       50
176
     1
 90
       50
176
     1
290
     0
176
     1
 90
       50
176
     1
 62
   256
176
     0
 40
1.0
176
     0
 90
        2
176
     1
  1
strokes_ogs.tif
176
     1
290
     0
176
     1
 40
1.0
176
     1
 40
1.0
176
     1
  0
VISUALSTYLE
  5
4C4
102
{ACAD_REACTORS
330
4AE
102
}
330
4AE
100
AcDbVisualStyle
  2
X-Ray
 70
    25
177
     3
291
     0
 70
    58
 90
        2
176
     1
 90
        2
176
     1
 90
        1
176
     1
 90
        1
176
     1
 40
0.5
176
     1
 40
30.0
176
     1
 62
     7
420
 16777215
176
     1
 90
        1
176
     1
 90
        0
176
     1
 62
     7
176
     1
 62
   257
176
     1
 90
        1
176
     1
 90
        1
176
     1
 40
1.0
176
     1
 90
        8
176
     1
 62
     7
176
     1
 40
1.0
176
     1
 90
        1
176
     1
 90
        6
176
     1
 90
        2
176
     1
 62
     7
176
     1
 90
        3
176
     1
 90
        0
176
     1
 90
        0
176
     1
290
     0
176
     1
 90
       13
176
     1
 40
0.0
176
     1
 90
        0
176
     1
290
     0
176
     1
290
     1
176
     1
290
     1
176
     1
290
     0
176
     1
290
     0
176
     1
290
     0
176
     1
290
     0
176
     1
290
     0
176
     1
290
     0
176
     1
 90
       50
176
     1
 40
0.0
176
     1
 40
1.0
176
     1
 90
        0
176
     1
 62
    18
420
        0
176
     1
 90
       50
176
     1
 90
        3
176
     1
 62
     5
420
      255
176
     1
290
     0
176
     1
 90
       50
176
     1
 90
       50
176
     1
 90
       50
176
     1
290
     0
176
     1
 90
       50
176
     1
 62
   256
176
     0
 40
1.0
176
     0
 90
        2
176
     1
  1
strokes_ogs.tif
176
     1
290
     0
176
     1
 40
1.0
176
     1
 40
1.0
176
     1
  0
DICTIONARYVAR
  5
4DD
102
{ACAD_REACTORS
330
4DC
102
}
330
4DC
100
DictionaryVariables
280
     0
  1
1:1
  0
DICTIONARYVAR
  5
4E1
102
{ACAD_REACTORS
330
4DC
102
}
330
4DC
100
DictionaryVariables
280
     0
  1
Standard
  0
CSACDOCUMENTOPTIONS
  5
4D2
102
{ACAD_REACTORS
330
4D1
102
}
330
4D1
  0
XRECORD
  5
4D6
102
{ACAD_REACTORS
330
4CD
102
}
330
4CD
100
AcDbXrecord
280
     1
300
MC_VERSION_DATA
 90
       95
310
0600000002000000570000001C000000E404000000000000000000007801936764E5D8CF7A8393818115C460606066E0646662626666706006F214793899F8DE3171E725E6E53B3BBA2878E6951050AF75FEFFFFFF520032DE0F3057000000
  0
XRECORD
  5
4CE
102
{ACAD_REACTORS
330
4CD
102
}
330
4CD
100
AcDbXrecord
280
     1
300
MCS_DOCUMENT_ID
 90
       60
310
0600000002000000150000001C000000E404000000000000000000007801E3B5D5D3653DEA9BE4B7FFE9F73D0A2D299DFF8100005D9C0B5115000000
  0
XRECORD
  5
4D4
102
{ACAD_REACTORS
330
4CD
102
}
330
4CD
100
AcDbXrecord
280
     1
300
MCS_PARAMS_DATA
 90
     3313
310
0600000002000000F64B00001C000000E404000000000000000000007801C55C5B905C45199EE99EBDCCE67E5DA218172C303B91307B4B8C459531245054850D55591F78B236BB49B9BAC9E6B22A082A9655BE5865596569A965F9209288CF16503EC8834088C10B092404211702988430422E9084CDAEFFD7A7FBF4DFA7CF
310
D9D99D9D39930798FF3F7DCEF7DFFAFBBBFBCC6CDBFC46297252EECB48F9CDF5ED5234493921A5206D76815820B252E4F3225F128D7D5F59BF69E3162948D9A2D485B3131313747328BF06593E960915079422437734AA3BDAA5CCD053F5ED4FD2557D257BAB94DF007A03479F859BB2B22193C9108EC1CDCADC0464C27506
310
28605703E48886E0B986E10F03BF91E33707F8E3140E7A9091C8268236920C1C662240B94888A1C8E07600AE99C32D5131CA8B3925D172EFE62D7D6D9DABBA8ADDD6F17CE16D13F0457AE8AC9268DE32DABF73B07FCFA013F9BF8491D7C17E2550D8E8FFCA8DFE4E98B3929B331718B291824FFF72EB941D9E8E2211D5A93C
310
784A44C557923911258BD0C8640531AEEC61A924855B11378280384364A422680C0A928DB9C10CD89D581114199665B722B26E4590C82B0222AB08FAA8A60626C028E0044F81BA246F5360E167F2D27C56A10E05C058C13C59DEC6207679103AFC5DEADF992F2B284F67B31C8EE359B64A9665A62453228F64269D98455E3B
310
A4B35817F7EC92C86FB8EFFE8DBD5BEEDBDCAB0CD3B5FC8E99065A7E55D536E39DE7826237F1C8BBBCB3CFADFC93302087C80397EE69C2FF69CA32234F0763E41851010DA578E8294D435524988818E84710A7B2643B4F7C034F6CE5C9368F203BE8094C6268541D70D35EE4B585DAE170F4942EB8D2D422560A9917F34B62
310
CE86919D9F1F6DDBB36DD770FFC0B6BC682E898607BEB5737424F8D83B323AF07529CFC0B69BB96D9FD3CFF9B410ED79B1A42416161FEA29AEEDEEEC5ADF532C76DEF3C5AEEEB5CAECF97A60330D2C1C3579EAD0DA7621F20269BD6768746FDBF0D0DE51F3B0EE356B3ABBD6F474F7740D76770EACED08FCFC92BEAF13F701
310
B5AF7FEBF0B6B691ED6D7D23C3DBF6F4EF840FDA9AD583C58E81E240FFEAADDD5BD70EAC0E669D2A25F27FB610851F9335859F059541B9E5971EC7A5A7E83F2CE53DB9A4040555A2661A4DDBF2C560B2E54E7D5483931EF871F7C88E5DFDA3435B878687461F6EDB313248FE3596847C70DBDEBC682809D13B22E56A5856E4
310
E9998738519B6E2A89DCE6EDDBDB542AF4E4380F8F61A4965F57116093E5A052A06AF588670205D9A715FB49B140D81A90855F902680EBB8B3A3187EEA96F2B224E392BAF898328CB1AD47DA34C1601A1B421AD816D190715CC3F276A5DE067C546F03AED6DB808FEB6DC0B57A1BB00853B49EB3E0937A47E07ABD0D188301
310
71CB797197D3603B1D06BFCB6DB024827C0C834324E60945463B3712E196397079076E990B47228783C8E09631B8F129C211385B3E540C97413DC70673C524DEAD70BD23917B079179B782793791AE77D944EFDCDC5529988B13E1069D6092C472A7F777A6F648E4C184C88239C8822913E16AE29D48176E29E0727C316496
310
EF2A967C95165E504B0C2B218EEE82DD5C63513CD614C5091F6D6FA7551865CC5C5030A1E0A3E84BEC86CFD04EC5DD01AA74CBDB05AB8C403295A124BB2908C4B032B4682A032283FB103E391B4E03172C7199C4E0F88E871E8855ADA1482D3238FA1846E0B807A77785BFF935FE1D74369F5647D0D171CA5F4F09337C2559
310
105132935A503D6DBC7A94B54D2B6DF1E0339960F436A97441791E5EC104D40283580888C4FDED577B1FD8B4B9AF6FE30605D8AAD7F1F34A62F6DD5BBEC62E92057A31FEA25A9DB3F5FBD3C1729D9CD723B0BF0DE8402BB05A67160DDE4416E59079C0D9EAA575B7321F67115FC018C76AB5B3A33D06B68CBD9BFBDC93C073
310
800CC384FD360C544F539B6F02B1820953BE9D01DE01C0D85A6C50369A5AC4065C7760793B965800321749E4B50891C0C2AB0CAE9808178444974C70F875952A9381563C01BE9D08EAFA481283ABD8C7EF7870DAABE068E68833DFAC8EA0A3E3F87C0B07AA507B2311F0889285BDC333294C4E2DB27C67BA70ABD2857B688A
310
70552AA7873DB8489E55063D5D2DCBE9BB9E49F1E554A5083C922EDCA3E9C27D2F5DB8EF7B705EE9D87E1E920E88313AAE6AECF4FBD668D3D30DB4E51ADA9BEDB0D7AFCEB4DDED85F7C4ECF6551B3BCE2AFF6E835E49458EC94883D6E73C45753FAE614C3C0A0362777435D915EC025C33F7578776011DE6F3D066954C59D6
310
D76F86AC9CD58A53F4122CF0552BAE070AEA3B5AF15752304F1F47569D50AB71F41A31FA5A51C904CD43C6B0F51D2ACEFC112ACC4CC1B0FF086CE7AD5A4D096A005126387AAD451EE384D9C035A925859E39C1AA865EE9A9B8DA21CEE289167F7CF1D4C4BC7A125EC5AED5D8BB0B5A9D9144D134CFA71BF85A8D44BE568348
310
F6AA55A2F3CAEA4F6982FD21118CC249D3CBF852A586F244BA70FBD285DB9F085793EDE56E143F0AD06C6B4CB2242BDD3DD1419166C2865E81F9CE1648F3CBD84597B22E28992A3DDCE24C77F3F311A01C8A722828EC3CF15F7D987933F818F8E59BC138E5CD4CE8AC24C94E68BA32F5C3CBAB808B6B06B9936E642F9F804C
310
903AF2F3709D37832318A078E4B37AEBDCFAA66859945B9EBB25776BAE2DD3995995E9CA1433DDFA4DAC7ECE6FE93696E96BB06712968ED2661884A9EE40230F60D0D73DE8C858453B9E8E4212D5A9B0784A762662599FEDD18C9299F4094C728A91F536658E91CDA6DFC8E89F363B15B4CB31404FD2581CF722BBF229B517
310
430944E56AB2E2A8E3461950730F2B7ECA7BC570E389706E8BA9D241C744225C40C29385944F707279EA277D998065D9EAD604B1263E66D38513E9C2490F4EE7CC6E8AA89C3D9DA588701CA708AB6414C194931EE3FC0D4515D71A4FBFE712F8CB4A26532A6E8DCF01CA61A3745BE3F3C09F6E6B442F0CD7BAD36A8D2F002E
310
AE359E3BE646F6B8926D6BBC0CD9926FBEF08C5220B9BAE91D0E14769FF44B52301E3C00E8FA74C117BD24F396E22C7F1005F2DA2902EB76053DE720B0D3EE397F2F036AE8B24A3DE750225C4DF8F8A544B81AF69C7F2482D6C4C77F067093EF36FE359541FF8E0E8A50399BA22F63681CEF0EBDEBB2C3834A9E09EF1E0654
310
1D79F708F0A7CBBB956F495E015C1CEFEE3EEC46B65FC996771F856C09285F58A7148C77872F6104D6DC9A8897D30896D457015D1FDE3DEA25B91CEFF2EBD6EB0A68F718A0D3A6DDD7CA805699768F27C2D584925E4F84AB9476A39B03E744D09CD6610FF59F44E89A78FA46BA70DDDE0ADC144A4DBCEBF1E0221D416DC23D
310
1D715254A766A8A7AC60C1FF26021ED7783E889CD89C52F24C1ACF0940D5B1F19C047E7A8DE714E0E21ACFD5436EE339AB64DB78E44B91C6730003ECCB897CE1D28548E3798246B0C6731AD0536D3CB3E90740046E0B5FD5161351555C247A084506FA9607AAEBD39C44F1E2B63A5BDCA18E17B755B2E2664A322602C34C3A
310
0393625B51C09BC60D77315EF1E1C8DB80730A9C37D5B8CD0EBF3EA3A6FB4EA2A7C18B1B2746D53A5F7BB70C687C78291FE10E3A386EE3054657F9CB297E9CF703B0E71DFC4DA3397B4068C3CF33A1A81F02C2C920DB8E7ABF712005813923946BAE06DE453454B45CC32AF6311810C751E3F85A979E7874424F9299B34AB2
310
210DC430A45A3473162283FB2F3218C7FE178FBB1CF59692CDAD957C0DECAC3739580882F7E26636C4FC0874E66F42CE013F2EB274A4C323CBB88082C5B980AE4CFD4DC879C0C5B1FFF5E7DDC89E57324556799F2F34BC006EC70CD18A8318C0D9FF0AB6807CDBB19F46B0A4BE07E8B4D9FF8207EA504E3D7E65FA3E4C7226
310
B329B0E8D703AAFEBAA304E869379E693123CD68457958A4FF2F11AE86ECFF4119D078F6E7138AD87FF2370F86D6E1E38789702D76FED2134932CCA824CB8C811832A3160D33426421BD980847AF6F0C11D33DEECB1CFE9B7175D1F926045DE5BD8DBFBDBE94081764D0049324E6DDB40A8607F372225C4D16463974B5B836
310
F393232E193EA2E499B49986C93A780A6DA631A981D7A6CD34012EAECDFCFC5937B23F52B26D33BF83CCDBCC56A5C0ECD07DE7A7A7226D661D8D6033A419D0536D33E07F56B8C4CA7C0D48229F9610695A461A0883CE7B494E8DD95B004DF38E8247AB09FE45AC1A52EDAC32A0861DD8DA85D8A76276989D08579353913989
310
700119397510D9BB4CAB9DF096393711B4263ECE4B176E7EBA700B3C389DB3F0B5335AA6A7234288EA142D784A9083AFB414616018456CF24C3293C4CD2F49D3E5A5F0410CEE7E0F2E6A6FEA11580893E29AEE529C2FC11C4DF48D4AA628982DB44A422820F8563073C8F989CF2240392BED74F7768B819FDEDE6E09E0E29A
310
EE72FA030B3CB273954C91D5916E87CC9BEEFB4FAB1E6B73B10CFB6CBEB73B4423589D2D05F4CC9AAE2E4C768646F0614DBB4BD40606DDEA2539B5A67B13A0D36EBACBCA809A9055A7E9E24B8E0D79912B896C91FE0C1655C17843E129FA335B3277F4E8510807513CB9CC44868E210AF7FE19028691B0917E39482B125CF8
310
D4FF01F0B312DAF64B0000
  0
TABLECONTENT
  5
4D8
330
4DB
100
AcDbLinkedData
  1

300

100
AcDbLinkedTableData
 90
        5
300
COLUMN
  1
LINKEDTABLEDATACOLUMN_BEGIN
300

 91
        0
301
CUSTOMDATA
  1
DATAMAP_BEGIN
 90
        0
309
DATAMAP_END
309
LINKEDTABLEDATACOLUMN_END
  1
FORMATTEDTABLEDATACOLUMN_BEGIN
300
COLUMNTABLEFORMAT
  1
TABLEFORMAT_BEGIN
 90
        3
170
     0
309
TABLEFORMAT_END
309
FORMATTEDTABLEDATACOLUMN_END
  1
TABLECOLUMN_BEGIN
 90
        0
 40
13.333333
309
TABLECOLUMN_END
300
COLUMN
  1
LINKEDTABLEDATACOLUMN_BEGIN
300

 91
        0
301
CUSTOMDATA
  1
DATAMAP_BEGIN
 90
        0
309
DATAMAP_END
309
LINKEDTABLEDATACOLUMN_END
  1
FORMATTEDTABLEDATACOLUMN_BEGIN
300
COLUMNTABLEFORMAT
  1
TABLEFORMAT_BEGIN
 90
        3
170
     0
309
TABLEFORMAT_END
309
FORMATTEDTABLEDATACOLUMN_END
  1
TABLECOLUMN_BEGIN
 90
        0
 40
13.333333
309
TABLECOLUMN_END
300
COLUMN
  1
LINKEDTABLEDATACOLUMN_BEGIN
300

 91
        0
301
CUSTOMDATA
  1
DATAMAP_BEGIN
 90
        0
309
DATAMAP_END
309
LINKEDTABLEDATACOLUMN_END
  1
FORMATTEDTABLEDATACOLUMN_BEGIN
300
COLUMNTABLEFORMAT
  1
TABLEFORMAT_BEGIN
 90
        3
170
     0
309
TABLEFORMAT_END
309
FORMATTEDTABLEDATACOLUMN_END
  1
TABLECOLUMN_BEGIN
 90
        0
 40
13.333333
309
TABLECOLUMN_END
300
COLUMN
  1
LINKEDTABLEDATACOLUMN_BEGIN
300

 91
        0
301
CUSTOMDATA
  1
DATAMAP_BEGIN
 90
        0
309
DATAMAP_END
309
LINKEDTABLEDATACOLUMN_END
  1
FORMATTEDTABLEDATACOLUMN_BEGIN
300
COLUMNTABLEFORMAT
  1
TABLEFORMAT_BEGIN
 90
        3
170
     0
309
TABLEFORMAT_END
309
FORMATTEDTABLEDATACOLUMN_END
  1
TABLECOLUMN_BEGIN
 90
        0
 40
53.333333
309
TABLECOLUMN_END
300
COLUMN
  1
LINKEDTABLEDATACOLUMN_BEGIN
300

 91
        0
301
CUSTOMDATA
  1
DATAMAP_BEGIN
 90
        0
309
DATAMAP_END
309
LINKEDTABLEDATACOLUMN_END
  1
FORMATTEDTABLEDATACOLUMN_BEGIN
300
COLUMNTABLEFORMAT
  1
TABLEFORMAT_BEGIN
 90
        3
170
     0
309
TABLEFORMAT_END
309
FORMATTEDTABLEDATACOLUMN_END
  1
TABLECOLUMN_BEGIN
 90
        0
 40
26.666667
309
TABLECOLUMN_END
 91
        5
301
ROW
  1
LINKEDTABLEDATAROW_BEGIN
 90
        5
300
CELL
  1
LINKEDTABLEDATACELL_BEGIN
 90
        0
300

 91
        0
301
CUSTOMDATA
  1
DATAMAP_BEGIN
 90
        1
300
ACAD_ROUNDTRIP_2008_CELL_CHECKSUM
301
DATAMAP_VALUE
 93
        2
 90
        2
140
32.0
 94
        0
300

302

304
ACVALUE_END
309
DATAMAP_END
 92
        0
 95
        1
302
CONTENT
  1
CELLCONTENT_BEGIN
 90
        1
300
VALUE
 93
        2
 90
        4
  1
 
 94
        0
300

302
 
304
ACVALUE_END
 91
        0
309
CELLCONTENT_END
  1
FORMATTEDCELLCONTENT_BEGIN
170
     1
300
CONTENTFORMAT
  1
CONTENTFORMAT_BEGIN
 90
      132
 91
        0
 92
      512
 93
        0
300

 40
0.0
140
1.0
 94
        1
 62
     0
340
0
144
4.666667
309
CONTENTFORMAT_END
309
FORMATTEDCELLCONTENT_END
309
LINKEDTABLEDATACELL_END
  1
FORMATTEDTABLEDATACELL_BEGIN
300
CELLTABLEFORMAT
  1
TABLEFORMAT_BEGIN
 90
        1
170
     1
 91
        0
 92
        0
 62
   257
 93
        1
300
CONTENTFORMAT
  1
CONTENTFORMAT_BEGIN
 90
        0
 91
        0
 92
      512
 93
        0
300

 40
0.0
140
1.0
 94
        1
 62
     0
340
0
144
0.18
309
CONTENTFORMAT_END
171
     0
 94
        0
309
TABLEFORMAT_END
309
FORMATTEDTABLEDATACELL_END
  1
TABLECELL_BEGIN
 90
        0
 91
        0
309
TABLECELL_END
300
CELL
  1
LINKEDTABLEDATACELL_BEGIN
 90
        0
300

 91
        0
301
CUSTOMDATA
  1
DATAMAP_BEGIN
 90
        0
309
DATAMAP_END
 92
        0
 95
        0
309
LINKEDTABLEDATACELL_END
  1
FORMATTEDTABLEDATACELL_BEGIN
300
CELLTABLEFORMAT
  1
TABLEFORMAT_BEGIN
 90
        1
170
     1
 91
        0
 92
        0
 62
   257
 93
        1
300
CONTENTFORMAT
  1
CONTENTFORMAT_BEGIN
 90
        0
 91
        0
 92
      512
 93
        0
300

 40
0.0
140
1.0
 94
        1
 62
     0
340
0
144
0.18
309
CONTENTFORMAT_END
171
     0
 94
        0
309
TABLEFORMAT_END
309
FORMATTEDTABLEDATACELL_END
  1
TABLECELL_BEGIN
 90
        0
 91
        0
309
TABLECELL_END
300
CELL
  1
LINKEDTABLEDATACELL_BEGIN
 90
        0
300

 91
        0
301
CUSTOMDATA
  1
DATAMAP_BEGIN
 90
        0
309
DATAMAP_END
 92
        0
 95
        0
309
LINKEDTABLEDATACELL_END
  1
FORMATTEDTABLEDATACELL_BEGIN
300
CELLTABLEFORMAT
  1
TABLEFORMAT_BEGIN
 90
        1
170
     1
 91
        0
 92
        0
 62
   257
 93
        1
300
CONTENTFORMAT
  1
CONTENTFORMAT_BEGIN
 90
        0
 91
        0
 92
      512
 93
        0
300

 40
0.0
140
1.0
 94
        1
 62
     0
340
0
144
0.18
309
CONTENTFORMAT_END
171
     0
 94
        0
309
TABLEFORMAT_END
309
FORMATTEDTABLEDATACELL_END
  1
TABLECELL_BEGIN
 90
        0
 91
        0
309
TABLECELL_END
300
CELL
  1
LINKEDTABLEDATACELL_BEGIN
 90
        0
300

 91
        0
301
CUSTOMDATA
  1
DATAMAP_BEGIN
 90
        1
300
ACAD_ROUNDTRIP_2008_CELL_CHECKSUM
301
DATAMAP_VALUE
 93
        2
 90
        2
140
2842.0
 94
        0
300

302

304
ACVALUE_END
309
DATAMAP_END
 92
        0
 95
        1
302
CONTENT
  1
CELLCONTENT_BEGIN
 90
        1
300
VALUE
 93
        2
 90
        4
  1
5B0_C_054
 94
        0
300

302
5B0_C_054
304
ACVALUE_END
 91
        0
309
CELLCONTENT_END
  1
FORMATTEDCELLCONTENT_BEGIN
170
     1
300
CONTENTFORMAT
  1
CONTENTFORMAT_BEGIN
 90
      132
 91
        0
 92
      512
 93
        0
300

 40
0.0
140
1.0
 94
        1
 62
     0
340
0
144
4.0
309
CONTENTFORMAT_END
309
FORMATTEDCELLCONTENT_END
309
LINKEDTABLEDATACELL_END
  1
FORMATTEDTABLEDATACELL_BEGIN
300
CELLTABLEFORMAT
  1
TABLEFORMAT_BEGIN
 90
        1
170
     1
 91
       16
 92
        0
 62
   257
 93
        1
300
CONTENTFORMAT
  1
CONTENTFORMAT_BEGIN
 90
       16
 91
        0
 92
      512
 93
        0
300

 40
0.0
140
1.0
 94
        4
 62
     0
340
0
144
0.18
309
CONTENTFORMAT_END
171
     0
 94
        4
 95
        1
302
GRIDFORMAT
  1
GRIDFORMAT_BEGIN
 90
       26
 91
        1
 62
     0
 92
       -2
340
0
 93
        0
 40
0.045
309
GRIDFORMAT_END
 95
        4
302
GRIDFORMAT
  1
GRIDFORMAT_BEGIN
 90
       26
 91
        1
 62
     0
 92
       -2
340
0
 93
        0
 40
0.045
309
GRIDFORMAT_END
 95
        8
302
GRIDFORMAT
  1
GRIDFORMAT_BEGIN
 90
       26
 91
        1
 62
     0
 92
       -2
340
0
 93
        0
 40
0.045
309
GRIDFORMAT_END
 95
       32
302
GRIDFORMAT
  1
GRIDFORMAT_BEGIN
 90
       26
 91
        1
 62
     0
 92
       -2
340
0
 93
        0
 40
0.045
309
GRIDFORMAT_END
309
TABLEFORMAT_END
309
FORMATTEDTABLEDATACELL_END
  1
TABLECELL_BEGIN
 90
        0
 91
        0
309
TABLECELL_END
300
CELL
  1
LINKEDTABLEDATACELL_BEGIN
 90
        0
300

 91
        0
301
CUSTOMDATA
  1
DATAMAP_BEGIN
 90
        1
300
ACAD_ROUNDTRIP_2008_CELL_CHECKSUM
301
DATAMAP_VALUE
 93
        2
 90
        2
140
1404.0
 94
        0
300

302

304
ACVALUE_END
309
DATAMAP_END
 92
        0
 95
        1
302
CONTENT
  1
CELLCONTENT_BEGIN
 90
        1
300
VALUE
 93
        2
 90
        4
  1
Rev:01
 94
        0
300

302
Rev:01
304
ACVALUE_END
 91
        0
309
CELLCONTENT_END
  1
FORMATTEDCELLCONTENT_BEGIN
170
     1
300
CONTENTFORMAT
  1
CONTENTFORMAT_BEGIN
 90
      132
 91
        0
 92
      512
 93
        0
300

 40
0.0
140
1.0
 94
        1
 62
     0
340
0
144
4.666667
309
CONTENTFORMAT_END
309
FORMATTEDCELLCONTENT_END
309
LINKEDTABLEDATACELL_END
  1
FORMATTEDTABLEDATACELL_BEGIN
300
CELLTABLEFORMAT
  1
TABLEFORMAT_BEGIN
 90
        1
170
     1
 91
       16
 92
        0
 62
   257
 93
        1
300
CONTENTFORMAT
  1
CONTENTFORMAT_BEGIN
 90
       16
 91
        0
 92
      512
 93
        0
300

 40
0.0
140
1.0
 94
        1
 62
     0
340
0
144
0.18
309
CONTENTFORMAT_END
171
     0
 94
        4
 95
        1
302
GRIDFORMAT
  1
GRIDFORMAT_BEGIN
 90
       26
 91
        1
 62
     0
 92
       -2
340
0
 93
        0
 40
0.045
309
GRIDFORMAT_END
 95
        4
302
GRIDFORMAT
  1
GRIDFORMAT_BEGIN
 90
       26
 91
        1
 62
     0
 92
       -2
340
0
 93
        0
 40
0.045
309
GRIDFORMAT_END
 95
        8
302
GRIDFORMAT
  1
GRIDFORMAT_BEGIN
 90
       26
 91
        1
 62
     0
 92
       -2
340
0
 93
        0
 40
0.045
309
GRIDFORMAT_END
 95
       32
302
GRIDFORMAT
  1
GRIDFORMAT_BEGIN
 90
       26
 91
        1
 62
     0
 92
       -2
340
0
 93
        0
 40
0.045
309
GRIDFORMAT_END
309
TABLEFORMAT_END
309
FORMATTEDTABLEDATACELL_END
  1
TABLECELL_BEGIN
 90
        0
 91
        0
309
TABLECELL_END
 91
        0
301
CUSTOMDATA
  1
DATAMAP_BEGIN
 90
        0
309
DATAMAP_END
309
LINKEDTABLEDATAROW_END
  1
FORMATTEDTABLEDATAROW_BEGIN
300
ROWTABLEFORMAT
  1
TABLEFORMAT_BEGIN
 90
        2
170
     0
309
TABLEFORMAT_END
309
FORMATTEDTABLEDATAROW_END
  1
TABLEROW_BEGIN
 90
        1
 40
8.0
309
TABLEROW_END
301
ROW
  1
LINKEDTABLEDATAROW_BEGIN
 90
        5
300
CELL
  1
LINKEDTABLEDATACELL_BEGIN
 90
        0
300

 91
        0
301
CUSTOMDATA
  1
DATAMAP_BEGIN
 90
        0
309
DATAMAP_END
 92
        0
 95
        0
309
LINKEDTABLEDATACELL_END
  1
FORMATTEDTABLEDATACELL_BEGIN
300
CELLTABLEFORMAT
  1
TABLEFORMAT_BEGIN
 90
        1
170
     1
 91
        0
 92
        0
 62
   257
 93
        1
300
CONTENTFORMAT
  1
CONTENTFORMAT_BEGIN
 90
        0
 91
        0
 92
      512
 93
        0
300

 40
0.0
140
1.0
 94
        1
 62
     0
340
0
144
0.18
309
CONTENTFORMAT_END
171
     0
 94
        0
309
TABLEFORMAT_END
309
FORMATTEDTABLEDATACELL_END
  1
TABLECELL_BEGIN
 90
        0
 91
        0
309
TABLECELL_END
300
CELL
  1
LINKEDTABLEDATACELL_BEGIN
 90
        0
300

 91
        0
301
CUSTOMDATA
  1
DATAMAP_BEGIN
 90
        0
309
DATAMAP_END
 92
        0
 95
        0
309
LINKEDTABLEDATACELL_END
  1
FORMATTEDTABLEDATACELL_BEGIN
300
CELLTABLEFORMAT
  1
TABLEFORMAT_BEGIN
 90
        1
170
     1
 91
        0
 92
        0
 62
   257
 93
        1
300
CONTENTFORMAT
  1
CONTENTFORMAT_BEGIN
 90
        0
 91
        0
 92
      512
 93
        0
300

 40
0.0
140
1.0
 94
        1
 62
     0
340
0
144
0.18
309
CONTENTFORMAT_END
171
     0
 94
        0
309
TABLEFORMAT_END
309
FORMATTEDTABLEDATACELL_END
  1
TABLECELL_BEGIN
 90
        0
 91
        0
309
TABLECELL_END
300
CELL
  1
LINKEDTABLEDATACELL_BEGIN
 90
        0
300

 91
        0
301
CUSTOMDATA
  1
DATAMAP_BEGIN
 90
        0
309
DATAMAP_END
 92
        0
 95
        0
309
LINKEDTABLEDATACELL_END
  1
FORMATTEDTABLEDATACELL_BEGIN
300
CELLTABLEFORMAT
  1
TABLEFORMAT_BEGIN
 90
        1
170
     1
 91
        0
 92
        0
 62
   257
 93
        1
300
CONTENTFORMAT
  1
CONTENTFORMAT_BEGIN
 90
        0
 91
        0
 92
      512
 93
        0
300

 40
0.0
140
1.0
 94
        1
 62
     0
340
0
144
0.18
309
CONTENTFORMAT_END
171
     0
 94
        0
309
TABLEFORMAT_END
309
FORMATTEDTABLEDATACELL_END
  1
TABLECELL_BEGIN
 90
        0
 91
        0
309
TABLECELL_END
300
CELL
  1
LINKEDTABLEDATACELL_BEGIN
 90
        0
300

 91
        0
301
CUSTOMDATA
  1
DATAMAP_BEGIN
 90
        1
300
ACAD_ROUNDTRIP_2008_CELL_CHECKSUM
301
DATAMAP_VALUE
 93
        2
 90
        2
140
3105.0
 94
        0
300

302

304
ACVALUE_END
309
DATAMAP_END
 92
        0
 95
        1
302
CONTENT
  1
CELLCONTENT_BEGIN
 90
        1
300
VALUE
 93
        2
 90
        4
  1
Scale:1:1
 94
        0
300

302
Scale:1:1
304
ACVALUE_END
 91
        0
309
CELLCONTENT_END
  1
FORMATTEDCELLCONTENT_BEGIN
170
     1
300
CONTENTFORMAT
  1
CONTENTFORMAT_BEGIN
 90
      132
 91
        0
 92
      512
 93
        0
300

 40
0.0
140
1.0
 94
        1
 62
     0
340
0
144
4.666667
309
CONTENTFORMAT_END
309
FORMATTEDCELLCONTENT_END
309
LINKEDTABLEDATACELL_END
  1
FORMATTEDTABLEDATACELL_BEGIN
300
CELLTABLEFORMAT
  1
TABLEFORMAT_BEGIN
 90
        1
170
     1
 91
       16
 92
        0
 62
   257
 93
        1
300
CONTENTFORMAT
  1
CONTENTFORMAT_BEGIN
 90
       16
 91
        0
 92
      512
 93
        0
300

 40
0.0
140
1.0
 94
        1
 62
     0
340
0
144
0.18
309
CONTENTFORMAT_END
171
     0
 94
        4
 95
        1
302
GRIDFORMAT
  1
GRIDFORMAT_BEGIN
 90
       26
 91
        1
 62
     0
 92
       -2
340
0
 93
        0
 40
0.045
309
GRIDFORMAT_END
 95
        4
302
GRIDFORMAT
  1
GRIDFORMAT_BEGIN
 90
       26
 91
        1
 62
     0
 92
       -2
340
0
 93
        0
 40
0.045
309
GRIDFORMAT_END
 95
        8
302
GRIDFORMAT
  1
GRIDFORMAT_BEGIN
 90
       26
 91
        1
 62
     0
 92
       -2
340
0
 93
        0
 40
0.045
309
GRIDFORMAT_END
 95
       32
302
GRIDFORMAT
  1
GRIDFORMAT_BEGIN
 90
       26
 91
        1
 62
     0
 92
       -2
340
0
 93
        0
 40
0.045
309
GRIDFORMAT_END
309
TABLEFORMAT_END
309
FORMATTEDTABLEDATACELL_END
  1
TABLECELL_BEGIN
 90
        0
 91
        0
309
TABLECELL_END
300
CELL
  1
LINKEDTABLEDATACELL_BEGIN
 90
        0
300

 91
        0
301
CUSTOMDATA
  1
DATAMAP_BEGIN
 90
        1
300
ACAD_ROUNDTRIP_2008_CELL_CHECKSUM
301
DATAMAP_VALUE
 93
        2
 90
        2
140
163.0
 94
        0
300

302

304
ACVALUE_END
309
DATAMAP_END
 92
        0
 95
        1
302
CONTENT
  1
CELLCONTENT_BEGIN
 90
        1
300
VALUE
 93
        2
 90
        4
  1
A1
 94
        0
300

302
A1
304
ACVALUE_END
 91
        0
309
CELLCONTENT_END
  1
FORMATTEDCELLCONTENT_BEGIN
170
     1
300
CONTENTFORMAT
  1
CONTENTFORMAT_BEGIN
 90
      132
 91
        0
 92
      512
 93
        0
300

 40
0.0
140
1.0
 94
        1
 62
     0
340
0
144
4.666667
309
CONTENTFORMAT_END
309
FORMATTEDCELLCONTENT_END
309
LINKEDTABLEDATACELL_END
  1
FORMATTEDTABLEDATACELL_BEGIN
300
CELLTABLEFORMAT
  1
TABLEFORMAT_BEGIN
 90
        1
170
     1
 91
       16
 92
        0
 62
   257
 93
        1
300
CONTENTFORMAT
  1
CONTENTFORMAT_BEGIN
 90
       16
 91
        0
 92
      512
 93
        0
300

 40
0.0
140
1.0
 94
        4
 62
     0
340
0
144
0.18
309
CONTENTFORMAT_END
171
     0
 94
        4
 95
        1
302
GRIDFORMAT
  1
GRIDFORMAT_BEGIN
 90
       26
 91
        1
 62
     0
 92
       -2
340
0
 93
        0
 40
0.045
309
GRIDFORMAT_END
 95
        4
302
GRIDFORMAT
  1
GRIDFORMAT_BEGIN
 90
       26
 91
        1
 62
     0
 92
       -2
340
0
 93
        0
 40
0.045
309
GRIDFORMAT_END
 95
        8
302
GRIDFORMAT
  1
GRIDFORMAT_BEGIN
 90
       26
 91
        1
 62
     0
 92
       -2
340
0
 93
        0
 40
0.045
309
GRIDFORMAT_END
 95
       32
302
GRIDFORMAT
  1
GRIDFORMAT_BEGIN
 90
       26
 91
        1
 62
     0
 92
       -2
340
0
 93
        0
 40
0.045
309
GRIDFORMAT_END
309
TABLEFORMAT_END
309
FORMATTEDTABLEDATACELL_END
  1
TABLECELL_BEGIN
 90
        0
 91
        0
309
TABLECELL_END
 91
        0
301
CUSTOMDATA
  1
DATAMAP_BEGIN
 90
        0
309
DATAMAP_END
309
LINKEDTABLEDATAROW_END
  1
FORMATTEDTABLEDATAROW_BEGIN
300
ROWTABLEFORMAT
  1
TABLEFORMAT_BEGIN
 90
        2
170
     0
309
TABLEFORMAT_END
309
FORMATTEDTABLEDATAROW_END
  1
TABLEROW_BEGIN
 90
        2
 40
8.0
309
TABLEROW_END
301
ROW
  1
LINKEDTABLEDATAROW_BEGIN
 90
        5
300
CELL
  1
LINKEDTABLEDATACELL_BEGIN
 90
        0
300

 91
        0
301
CUSTOMDATA
  1
DATAMAP_BEGIN
 90
        0
309
DATAMAP_END
 92
        0
 95
        0
309
LINKEDTABLEDATACELL_END
  1
FORMATTEDTABLEDATACELL_BEGIN
300
CELLTABLEFORMAT
  1
TABLEFORMAT_BEGIN
 90
        1
170
     1
 91
        0
 92
        0
 62
   257
 93
        1
300
CONTENTFORMAT
  1
CONTENTFORMAT_BEGIN
 90
        0
 91
        0
 92
      512
 93
        0
300

 40
0.0
140
1.0
 94
        1
 62
     0
340
0
144
0.18
309
CONTENTFORMAT_END
171
     0
 94
        0
309
TABLEFORMAT_END
309
FORMATTEDTABLEDATACELL_END
  1
TABLECELL_BEGIN
 90
        0
 91
        0
309
TABLECELL_END
300
CELL
  1
LINKEDTABLEDATACELL_BEGIN
 90
        0
300

 91
        0
301
CUSTOMDATA
  1
DATAMAP_BEGIN
 90
        0
309
DATAMAP_END
 92
        0
 95
        0
309
LINKEDTABLEDATACELL_END
  1
FORMATTEDTABLEDATACELL_BEGIN
300
CELLTABLEFORMAT
  1
TABLEFORMAT_BEGIN
 90
        1
170
     1
 91
        0
 92
        0
 62
   257
 93
        1
300
CONTENTFORMAT
  1
CONTENTFORMAT_BEGIN
 90
        0
 91
        0
 92
      512
 93
        0
300

 40
0.0
140
1.0
 94
        1
 62
     0
340
0
144
0.18
309
CONTENTFORMAT_END
171
     0
 94
        0
309
TABLEFORMAT_END
309
FORMATTEDTABLEDATACELL_END
  1
TABLECELL_BEGIN
 90
        0
 91
        0
309
TABLECELL_END
300
CELL
  1
LINKEDTABLEDATACELL_BEGIN
 90
        0
300

 91
        0
301
CUSTOMDATA
  1
DATAMAP_BEGIN
 90
        0
309
DATAMAP_END
 92
        0
 95
        0
309
LINKEDTABLEDATACELL_END
  1
FORMATTEDTABLEDATACELL_BEGIN
300
CELLTABLEFORMAT
  1
TABLEFORMAT_BEGIN
 90
        1
170
     1
 91
        0
 92
        0
 62
   257
 93
        1
300
CONTENTFORMAT
  1
CONTENTFORMAT_BEGIN
 90
        0
 91
        0
 92
      512
 93
        0
300

 40
0.0
140
1.0
 94
        1
 62
     0
340
0
144
0.18
309
CONTENTFORMAT_END
171
     0
 94
        0
309
TABLEFORMAT_END
309
FORMATTEDTABLEDATACELL_END
  1
TABLECELL_BEGIN
 90
        0
 91
        0
309
TABLECELL_END
300
CELL
  1
LINKEDTABLEDATACELL_BEGIN
 90
        0
300

 91
        0
301
CUSTOMDATA
  1
DATAMAP_BEGIN
 90
        1
300
ACAD_ROUNDTRIP_2008_CELL_CHECKSUM
301
DATAMAP_VALUE
 93
        2
 90
        2
140
2499.0
 94
        0
300

302

304
ACVALUE_END
309
DATAMAP_END
 92
        0
 95
        1
302
CONTENT
  1
CELLCONTENT_BEGIN
 90
        1
300
VALUE
 93
        2
 90
        4
  1
TREVI 1.0
 94
        0
300

302
TREVI 1.0
304
ACVALUE_END
 91
        0
309
CELLCONTENT_END
  1
FORMATTEDCELLCONTENT_BEGIN
170
     1
300
CONTENTFORMAT
  1
CONTENTFORMAT_BEGIN
 90
      132
 91
        0
 92
      512
 93
        0
300

 40
0.0
140
1.0
 94
        1
 62
     0
340
0
144
4.666667
309
CONTENTFORMAT_END
309
FORMATTEDCELLCONTENT_END
309
LINKEDTABLEDATACELL_END
  1
FORMATTEDTABLEDATACELL_BEGIN
300
CELLTABLEFORMAT
  1
TABLEFORMAT_BEGIN
 90
        1
170
     1
 91
       16
 92
        0
 62
   257
 93
        1
300
CONTENTFORMAT
  1
CONTENTFORMAT_BEGIN
 90
       16
 91
        0
 92
      512
 93
        0
300

 40
0.0
140
1.0
 94
        4
 62
     0
340
0
144
0.18
309
CONTENTFORMAT_END
171
     0
 94
        4
 95
        1
302
GRIDFORMAT
  1
GRIDFORMAT_BEGIN
 90
       26
 91
        1
 62
     0
 92
       -2
340
0
 93
        0
 40
0.045
309
GRIDFORMAT_END
 95
        4
302
GRIDFORMAT
  1
GRIDFORMAT_BEGIN
 90
       26
 91
        1
 62
     0
 92
       -2
340
0
 93
        0
 40
0.045
309
GRIDFORMAT_END
 95
        8
302
GRIDFORMAT
  1
GRIDFORMAT_BEGIN
 90
       26
 91
        1
 62
     0
 92
       -2
340
0
 93
        0
 40
0.045
309
GRIDFORMAT_END
 95
       32
302
GRIDFORMAT
  1
GRIDFORMAT_BEGIN
 90
       26
 91
        1
 62
     0
 92
       -2
340
0
 93
        0
 40
0.045
309
GRIDFORMAT_END
309
TABLEFORMAT_END
309
FORMATTEDTABLEDATACELL_END
  1
TABLECELL_BEGIN
 90
        0
 91
        0
309
TABLECELL_END
300
CELL
  1
LINKEDTABLEDATACELL_BEGIN
 90
        0
300

 91
        0
301
CUSTOMDATA
  1
DATAMAP_BEGIN
 90
        0
309
DATAMAP_END
 92
        0
 95
        0
309
LINKEDTABLEDATACELL_END
  1
FORMATTEDTABLEDATACELL_BEGIN
300
CELLTABLEFORMAT
  1
TABLEFORMAT_BEGIN
 90
        1
170
     1
 91
        0
 92
        0
 62
   257
 93
        1
300
CONTENTFORMAT
  1
CONTENTFORMAT_BEGIN
 90
        0
 91
        0
 92
      512
 93
        0
300

 40
0.0
140
1.0
 94
        1
 62
     0
340
0
144
0.18
309
CONTENTFORMAT_END
171
     0
 94
        0
309
TABLEFORMAT_END
309
FORMATTEDTABLEDATACELL_END
  1
TABLECELL_BEGIN
 90
        0
 91
        0
309
TABLECELL_END
 91
        0
301
CUSTOMDATA
  1
DATAMAP_BEGIN
 90
        0
309
DATAMAP_END
309
LINKEDTABLEDATAROW_END
  1
FORMATTEDTABLEDATAROW_BEGIN
300
ROWTABLEFORMAT
  1
TABLEFORMAT_BEGIN
 90
        2
170
     0
309
TABLEFORMAT_END
309
FORMATTEDTABLEDATAROW_END
  1
TABLEROW_BEGIN
 90
        3
 40
13.333333
309
TABLEROW_END
301
ROW
  1
LINKEDTABLEDATAROW_BEGIN
 90
        5
300
CELL
  1
LINKEDTABLEDATACELL_BEGIN
 90
        0
300

 91
        0
301
CUSTOMDATA
  1
DATAMAP_BEGIN
 90
        0
309
DATAMAP_END
 92
        0
 95
        0
309
LINKEDTABLEDATACELL_END
  1
FORMATTEDTABLEDATACELL_BEGIN
300
CELLTABLEFORMAT
  1
TABLEFORMAT_BEGIN
 90
        1
170
     1
 91
        0
 92
        0
 62
   257
 93
        1
300
CONTENTFORMAT
  1
CONTENTFORMAT_BEGIN
 90
        0
 91
        0
 92
      512
 93
        0
300

 40
0.0
140
1.0
 94
        1
 62
     0
340
0
144
0.18
309
CONTENTFORMAT_END
171
     0
 94
        0
309
TABLEFORMAT_END
309
FORMATTEDTABLEDATACELL_END
  1
TABLECELL_BEGIN
 90
        0
 91
        0
309
TABLECELL_END
300
CELL
  1
LINKEDTABLEDATACELL_BEGIN
 90
        0
300

 91
        0
301
CUSTOMDATA
  1
DATAMAP_BEGIN
 90
        0
309
DATAMAP_END
 92
        0
 95
        0
309
LINKEDTABLEDATACELL_END
  1
FORMATTEDTABLEDATACELL_BEGIN
300
CELLTABLEFORMAT
  1
TABLEFORMAT_BEGIN
 90
        1
170
     1
 91
        0
 92
        0
 62
   257
 93
        1
300
CONTENTFORMAT
  1
CONTENTFORMAT_BEGIN
 90
        0
 91
        0
 92
      512
 93
        0
300

 40
0.0
140
1.0
 94
        1
 62
     0
340
0
144
0.18
309
CONTENTFORMAT_END
171
     0
 94
        0
309
TABLEFORMAT_END
309
FORMATTEDTABLEDATACELL_END
  1
TABLECELL_BEGIN
 90
        0
 91
        0
309
TABLECELL_END
300
CELL
  1
LINKEDTABLEDATACELL_BEGIN
 90
        0
300

 91
        0
301
CUSTOMDATA
  1
DATAMAP_BEGIN
 90
        0
309
DATAMAP_END
 92
        0
 95
        0
309
LINKEDTABLEDATACELL_END
  1
FORMATTEDTABLEDATACELL_BEGIN
300
CELLTABLEFORMAT
  1
TABLEFORMAT_BEGIN
 90
        1
170
     1
 91
        0
 92
        0
 62
   257
 93
        1
300
CONTENTFORMAT
  1
CONTENTFORMAT_BEGIN
 90
        0
 91
        0
 92
      512
 93
        0
300

 40
0.0
140
1.0
 94
        1
 62
     0
340
0
144
0.18
309
CONTENTFORMAT_END
171
     0
 94
        0
309
TABLEFORMAT_END
309
FORMATTEDTABLEDATACELL_END
  1
TABLECELL_BEGIN
 90
        0
 91
        0
309
TABLECELL_END
300
CELL
  1
LINKEDTABLEDATACELL_BEGIN
 90
        0
300

 91
        0
301
CUSTOMDATA
  1
DATAMAP_BEGIN
 90
        1
300
ACAD_ROUNDTRIP_2008_CELL_CHECKSUM
301
DATAMAP_VALUE
 93
        2
 90
        2
140
1016.0
 94
        0
300

302

304
ACVALUE_END
309
DATAMAP_END
 92
        0
 95
        1
302
CONTENT
  1
CELLCONTENT_BEGIN
 90
        1
300
VALUE
 93
        2
 90
        4
  1
DATE:
 94
        0
300

302
DATE:
304
ACVALUE_END
 91
        0
309
CELLCONTENT_END
  1
FORMATTEDCELLCONTENT_BEGIN
170
     1
300
CONTENTFORMAT
  1
CONTENTFORMAT_BEGIN
 90
      132
 91
        0
 92
      512
 93
        0
300

 40
0.0
140
1.0
 94
        1
 62
     0
340
0
144
3.333333
309
CONTENTFORMAT_END
309
FORMATTEDCELLCONTENT_END
309
LINKEDTABLEDATACELL_END
  1
FORMATTEDTABLEDATACELL_BEGIN
300
CELLTABLEFORMAT
  1
TABLEFORMAT_BEGIN
 90
        1
170
     1
 91
       16
 92
        0
 62
   257
 93
        1
300
CONTENTFORMAT
  1
CONTENTFORMAT_BEGIN
 90
       16
 91
        0
 92
      512
 93
        0
300

 40
0.0
140
1.0
 94
        4
 62
     0
340
0
144
0.18
309
CONTENTFORMAT_END
171
     0
 94
        4
 95
        1
302
GRIDFORMAT
  1
GRIDFORMAT_BEGIN
 90
       26
 91
        1
 62
     0
 92
       -2
340
0
 93
        0
 40
0.045
309
GRIDFORMAT_END
 95
        4
302
GRIDFORMAT
  1
GRIDFORMAT_BEGIN
 90
       26
 91
        1
 62
     0
 92
       -2
340
0
 93
        0
 40
0.045
309
GRIDFORMAT_END
 95
        8
302
GRIDFORMAT
  1
GRIDFORMAT_BEGIN
 90
       26
 91
        1
 62
     0
 92
       -2
340
0
 93
        0
 40
0.045
309
GRIDFORMAT_END
 95
       32
302
GRIDFORMAT
  1
GRIDFORMAT_BEGIN
 90
       26
 91
        1
 62
     0
 92
       -2
340
0
 93
        0
 40
0.045
309
GRIDFORMAT_END
309
TABLEFORMAT_END
309
FORMATTEDTABLEDATACELL_END
  1
TABLECELL_BEGIN
 90
        0
 91
        0
309
TABLECELL_END
300
CELL
  1
LINKEDTABLEDATACELL_BEGIN
 90
        0
300

 91
        0
301
CUSTOMDATA
  1
DATAMAP_BEGIN
 90
        0
309
DATAMAP_END
 92
        0
 95
        0
309
LINKEDTABLEDATACELL_END
  1
FORMATTEDTABLEDATACELL_BEGIN
300
CELLTABLEFORMAT
  1
TABLEFORMAT_BEGIN
 90
        1
170
     1
 91
        0
 92
        0
 62
   257
 93
        1
300
CONTENTFORMAT
  1
CONTENTFORMAT_BEGIN
 90
        0
 91
        0
 92
      512
 93
        0
300

 40
0.0
140
1.0
 94
        1
 62
     0
340
0
144
0.18
309
CONTENTFORMAT_END
171
     0
 94
        0
309
TABLEFORMAT_END
309
FORMATTEDTABLEDATACELL_END
  1
TABLECELL_BEGIN
 90
        0
 91
        0
309
TABLECELL_END
 91
        0
301
CUSTOMDATA
  1
DATAMAP_BEGIN
 90
        0
309
DATAMAP_END
309
LINKEDTABLEDATAROW_END
  1
FORMATTEDTABLEDATAROW_BEGIN
300
ROWTABLEFORMAT
  1
TABLEFORMAT_BEGIN
 90
        2
170
     0
309
TABLEFORMAT_END
309
FORMATTEDTABLEDATAROW_END
  1
TABLEROW_BEGIN
 90
        3
 40
6.666667
309
TABLEROW_END
301
ROW
  1
LINKEDTABLEDATAROW_BEGIN
 90
        5
300
CELL
  1
LINKEDTABLEDATACELL_BEGIN
 90
        0
300

 91
        0
301
CUSTOMDATA
  1
DATAMAP_BEGIN
 90
        1
300
ACAD_ROUNDTRIP_2008_CELL_CHECKSUM
301
DATAMAP_VALUE
 93
        2
 90
        2
140
1877690.0
 94
        0
300

302

304
ACVALUE_END
309
DATAMAP_END
 92
        0
 95
        1
302
CONTENT
  1
CELLCONTENT_BEGIN
 90
        1
300
VALUE
 93
        2
 90
        4
  1
Any integral or partial reproductions are prohibited \Pwithout prior authorisation of L {\Ftxt.shx;\W0.190476;\H3.000000; }& L Luce & Light s.r.l., \Pin accordance with the law in force. \PAll rights reserved.
 94
        0
300

302
Any integral or partial reproductions are prohibited \Pwithout prior authorisation of L {\Ftxt.shx;\W0.190476;\H3.000000; }& L Luce & Light s.r.l., \Pin accordance with the law in force. \PAll rights reserved.
304
ACVALUE_END
 91
        0
309
CELLCONTENT_END
  1
FORMATTEDCELLCONTENT_BEGIN
170
     1
300
CONTENTFORMAT
  1
CONTENTFORMAT_BEGIN
 90
      132
 91
        0
 92
      512
 93
        0
300

 40
0.0
140
1.0
 94
        1
 62
     0
340
0
144
3.0
309
CONTENTFORMAT_END
309
FORMATTEDCELLCONTENT_END
309
LINKEDTABLEDATACELL_END
  1
FORMATTEDTABLEDATACELL_BEGIN
300
CELLTABLEFORMAT
  1
TABLEFORMAT_BEGIN
 90
        1
170
     1
 91
       16
 92
        0
 62
   257
 93
        1
300
CONTENTFORMAT
  1
CONTENTFORMAT_BEGIN
 90
       16
 91
        0
 92
      512
 93
        0
300

 40
0.0
140
1.0
 94
        4
 62
     0
340
0
144
0.18
309
CONTENTFORMAT_END
171
     0
 94
        4
 95
        1
302
GRIDFORMAT
  1
GRIDFORMAT_BEGIN
 90
       26
 91
        1
 62
     0
 92
       -2
340
0
 93
        0
 40
0.045
309
GRIDFORMAT_END
 95
        4
302
GRIDFORMAT
  1
GRIDFORMAT_BEGIN
 90
       26
 91
        1
 62
     0
 92
       -2
340
0
 93
        0
 40
0.045
309
GRIDFORMAT_END
 95
        8
302
GRIDFORMAT
  1
GRIDFORMAT_BEGIN
 90
       26
 91
        1
 62
     0
 92
       -2
340
0
 93
        0
 40
0.045
309
GRIDFORMAT_END
 95
       32
302
GRIDFORMAT
  1
GRIDFORMAT_BEGIN
 90
       26
 91
        1
 62
     0
 92
       -2
340
0
 93
        0
 40
0.045
309
GRIDFORMAT_END
309
TABLEFORMAT_END
309
FORMATTEDTABLEDATACELL_END
  1
TABLECELL_BEGIN
 90
        0
 91
        0
309
TABLECELL_END
300
CELL
  1
LINKEDTABLEDATACELL_BEGIN
 90
        0
300

 91
        0
301
CUSTOMDATA
  1
DATAMAP_BEGIN
 90
        0
309
DATAMAP_END
 92
        0
 95
        0
309
LINKEDTABLEDATACELL_END
  1
FORMATTEDTABLEDATACELL_BEGIN
300
CELLTABLEFORMAT
  1
TABLEFORMAT_BEGIN
 90
        1
170
     1
 91
        0
 92
        0
 62
   257
 93
        1
300
CONTENTFORMAT
  1
CONTENTFORMAT_BEGIN
 90
        0
 91
        0
 92
      512
 93
        0
300

 40
0.0
140
1.0
 94
        1
 62
     0
340
0
144
0.18
309
CONTENTFORMAT_END
171
     0
 94
        0
309
TABLEFORMAT_END
309
FORMATTEDTABLEDATACELL_END
  1
TABLECELL_BEGIN
 90
        0
 91
        0
309
TABLECELL_END
300
CELL
  1
LINKEDTABLEDATACELL_BEGIN
 90
        0
300

 91
        0
301
CUSTOMDATA
  1
DATAMAP_BEGIN
 90
        0
309
DATAMAP_END
 92
        0
 95
        0
309
LINKEDTABLEDATACELL_END
  1
FORMATTEDTABLEDATACELL_BEGIN
300
CELLTABLEFORMAT
  1
TABLEFORMAT_BEGIN
 90
        1
170
     1
 91
        0
 92
        0
 62
   257
 93
        1
300
CONTENTFORMAT
  1
CONTENTFORMAT_BEGIN
 90
        0
 91
        0
 92
      512
 93
        0
300

 40
0.0
140
1.0
 94
        1
 62
     0
340
0
144
0.18
309
CONTENTFORMAT_END
171
     0
 94
        0
309
TABLEFORMAT_END
309
FORMATTEDTABLEDATACELL_END
  1
TABLECELL_BEGIN
 90
        0
 91
        0
309
TABLECELL_END
300
CELL
  1
LINKEDTABLEDATACELL_BEGIN
 90
        0
300

 91
        0
301
CUSTOMDATA
  1
DATAMAP_BEGIN
 90
        0
309
DATAMAP_END
 92
        0
 95
        0
309
LINKEDTABLEDATACELL_END
  1
FORMATTEDTABLEDATACELL_BEGIN
300
CELLTABLEFORMAT
  1
TABLEFORMAT_BEGIN
 90
        1
170
     1
 91
        0
 92
        0
 62
   257
 93
        1
300
CONTENTFORMAT
  1
CONTENTFORMAT_BEGIN
 90
        0
 91
        0
 92
      512
 93
        0
300

 40
0.0
140
1.0
 94
        1
 62
     0
340
0
144
0.18
309
CONTENTFORMAT_END
171
     0
 94
        0
309
TABLEFORMAT_END
309
FORMATTEDTABLEDATACELL_END
  1
TABLECELL_BEGIN
 90
        0
 91
        0
309
TABLECELL_END
300
CELL
  1
LINKEDTABLEDATACELL_BEGIN
 90
        0
300

 91
        0
301
CUSTOMDATA
  1
DATAMAP_BEGIN
 90
        0
309
DATAMAP_END
 92
        0
 95
        0
309
LINKEDTABLEDATACELL_END
  1
FORMATTEDTABLEDATACELL_BEGIN
300
CELLTABLEFORMAT
  1
TABLEFORMAT_BEGIN
 90
        1
170
     1
 91
        0
 92
        0
 62
   257
 93
        1
300
CONTENTFORMAT
  1
CONTENTFORMAT_BEGIN
 90
        0
 91
        0
 92
      512
 93
        0
300

 40
0.0
140
1.0
 94
        1
 62
     0
340
0
144
0.18
309
CONTENTFORMAT_END
171
     0
 94
        0
309
TABLEFORMAT_END
309
FORMATTEDTABLEDATACELL_END
  1
TABLECELL_BEGIN
 90
        0
 91
        0
309
TABLECELL_END
 91
        0
301
CUSTOMDATA
  1
DATAMAP_BEGIN
 90
        0
309
DATAMAP_END
309
LINKEDTABLEDATAROW_END
  1
FORMATTEDTABLEDATAROW_BEGIN
300
ROWTABLEFORMAT
  1
TABLEFORMAT_BEGIN
 90
        2
170
     0
309
TABLEFORMAT_END
309
FORMATTEDTABLEDATAROW_END
  1
TABLEROW_BEGIN
 90
        3
 40
17.333333
309
TABLEROW_END
100
AcDbFormattedTableData
300
TABLEFORMAT
  1
TABLEFORMAT_BEGIN
 90
        4
170
     1
 91
    15360
 92
        0
 62
   257
 93
        1
300
CONTENTFORMAT
  1
CONTENTFORMAT_BEGIN
 90
        0
 91
        0
 92
      512
 93
        0
300

 40
0.0
140
1.0
 94
        1
 62
     0
340
0
144
0.18
309
CONTENTFORMAT_END
171
     1
301
MARGIN
  1
CELLMARGIN_BEGIN
 40
0.06
 40
0.06
 40
0.06
 40
0.06
 40
0.06
 40
0.06
309
CELLMARGIN_END
 94
        0
309
TABLEFORMAT_END
 90
        4
 91
        0
 92
        0
 93
        3
 94
        2
 91
        2
 92
        3
 93
        2
 94
        4
 91
        3
 92
        3
 93
        3
 94
        4
 91
        4
 92
        0
 93
        4
 94
        4
100
AcDbTableContent
340
4AC
  0
TABLEGEOMETRY
  5
4D9
330
4DB
100
AcDbTableGeometry
 90
        5
 91
        5
 92
       25
 93
        0
 40
0.0
 41
0.0
330
0
 94
        0
 93
        0
 40
0.0
 41
0.0
330
0
 94
        0
 93
        0
 40
0.0
 41
0.0
330
0
 94
        0
 93
        0
 40
0.0
 41
0.0
330
0
 94
        0
 93
        0
 40
0.0
 41
0.0
330
0
 94
        0
 93
        0
 40
0.0
 41
0.0
330
0
 94
        0
 93
        0
 40
0.0
 41
0.0
330
0
 94
        0
 93
        0
 40
0.0
 41
0.0
330
0
 94
        0
 93
        0
 40
0.0
 41
0.0
330
0
 94
        0
 93
        0
 40
0.0
 41
0.0
330
0
 94
        0
 93
        0
 40
0.0
 41
0.0
330
0
 94
        0
 93
        0
 40
0.0
 41
0.0
330
0
 94
        0
 93
        0
 40
0.0
 41
0.0
330
0
 94
        0
 93
        0
 40
0.0
 41
0.0
330
0
 94
        0
 93
        0
 40
0.0
 41
0.0
330
0
 94
        0
 93
        0
 40
0.0
 41
0.0
330
0
 94
        0
 93
        0
 40
0.0
 41
0.0
330
0
 94
        0
 93
        0
 40
0.0
 41
0.0
330
0
 94
        0
 93
        0
 40
0.0
 41
0.0
330
0
 94
        0
 93
        0
 40
0.0
 41
0.0
330
0
 94
        0
 93
        0
 40
0.0
 41
0.0
330
0
 94
        0
 93
        0
 40
0.0
 41
0.0
330
0
 94
        0
 93
        0
 40
0.0
 41
0.0
330
0
 94
        0
 93
        0
 40
0.0
 41
0.0
330
0
 94
        0
 93
        0
 40
0.0
 41
0.0
330
0
 94
        0
  0
DICTIONARY
  5
4DE
330
4AC
100
AcDbDictionary
280
     1
281
     1
  3
ACAD_ROUNDTRIP_2008_TABLESTYLE_CELLSTYLEMAP
360
4DF
  0
CELLSTYLEMAP
  5
4DF
102
{ACAD_REACTORS
330
4DE
102
}
330
4DE
100
AcDbCellStyleMap
 90
        3
300
CELLSTYLE
  1
TABLEFORMAT_BEGIN
 90
        5
170
     1
 91
        0
 92
        0
 62
   257
 93
        1
300
CONTENTFORMAT
  1
CONTENTFORMAT_BEGIN
 90
        0
 91
        0
 92
        4
 93
        0
300

 40
0.0
140
1.0
 94
        5
 62
     0
340
11
144
6.0
309
CONTENTFORMAT_END
171
     1
301
MARGIN
  1
CELLMARGIN_BEGIN
 40
1.5
 40
1.5
 40
1.5
 40
1.5
 40
1.5
 40
1.5
309
CELLMARGIN_END
 94
        6
 95
        1
302
GRIDFORMAT
  1
GRIDFORMAT_BEGIN
 90
        0
 91
        1
 62
     0
 92
       -2
340
14
 93
        0
 40
0.045
309
GRIDFORMAT_END
 95
        2
302
GRIDFORMAT
  1
GRIDFORMAT_BEGIN
 90
        0
 91
        1
 62
     0
 92
       -2
340
14
 93
        0
 40
0.045
309
GRIDFORMAT_END
 95
        4
302
GRIDFORMAT
  1
GRIDFORMAT_BEGIN
 90
        0
 91
        1
 62
     0
 92
       -2
340
14
 93
        0
 40
0.045
309
GRIDFORMAT_END
 95
        8
302
GRIDFORMAT
  1
GRIDFORMAT_BEGIN
 90
        0
 91
        1
 62
     0
 92
       -2
340
14
 93
        0
 40
0.045
309
GRIDFORMAT_END
 95
       16
302
GRIDFORMAT
  1
GRIDFORMAT_BEGIN
 90
        0
 91
        1
 62
     0
 92
       -2
340
14
 93
        0
 40
0.045
309
GRIDFORMAT_END
 95
       32
302
GRIDFORMAT
  1
GRIDFORMAT_BEGIN
 90
        0
 91
        1
 62
     0
 92
       -2
340
14
 93
        0
 40
0.045
309
GRIDFORMAT_END
309
TABLEFORMAT_END
  1
CELLSTYLE_BEGIN
 90
        1
 91
        1
300
_TITLE
309
CELLSTYLE_END
300
CELLSTYLE
  1
TABLEFORMAT_BEGIN
 90
        5
170
     1
 91
        0
 92
        0
 62
   257
 93
        1
300
CONTENTFORMAT
  1
CONTENTFORMAT_BEGIN
 90
        0
 91
        0
 92
        4
 93
        0
300

 40
0.0
140
1.0
 94
        5
 62
     0
340
11
144
4.5
309
CONTENTFORMAT_END
171
     1
301
MARGIN
  1
CELLMARGIN_BEGIN
 40
1.5
 40
1.5
 40
1.5
 40
1.5
 40
1.5
 40
1.5
309
CELLMARGIN_END
 94
        6
 95
        1
302
GRIDFORMAT
  1
GRIDFORMAT_BEGIN
 90
        0
 91
        1
 62
     0
 92
       -2
340
14
 93
        0
 40
0.045
309
GRIDFORMAT_END
 95
        2
302
GRIDFORMAT
  1
GRIDFORMAT_BEGIN
 90
        0
 91
        1
 62
     0
 92
       -2
340
14
 93
        0
 40
0.045
309
GRIDFORMAT_END
 95
        4
302
GRIDFORMAT
  1
GRIDFORMAT_BEGIN
 90
        0
 91
        1
 62
     0
 92
       -2
340
14
 93
        0
 40
0.045
309
GRIDFORMAT_END
 95
        8
302
GRIDFORMAT
  1
GRIDFORMAT_BEGIN
 90
        0
 91
        1
 62
     0
 92
       -2
340
14
 93
        0
 40
0.045
309
GRIDFORMAT_END
 95
       16
302
GRIDFORMAT
  1
GRIDFORMAT_BEGIN
 90
        0
 91
        1
 62
     0
 92
       -2
340
14
 93
        0
 40
0.045
309
GRIDFORMAT_END
 95
       32
302
GRIDFORMAT
  1
GRIDFORMAT_BEGIN
 90
        0
 91
        1
 62
     0
 92
       -2
340
14
 93
        0
 40
0.045
309
GRIDFORMAT_END
309
TABLEFORMAT_END
  1
CELLSTYLE_BEGIN
 90
        2
 91
        1
300
_HEADER
309
CELLSTYLE_END
300
CELLSTYLE
  1
TABLEFORMAT_BEGIN
 90
        5
170
     1
 91
        0
 92
        0
 62
   257
 93
        1
300
CONTENTFORMAT
  1
CONTENTFORMAT_BEGIN
 90
        0
 91
        0
 92
        4
 93
        0
300

 40
0.0
140
1.0
 94
        2
 62
     0
340
11
144
4.5
309
CONTENTFORMAT_END
171
     1
301
MARGIN
  1
CELLMARGIN_BEGIN
 40
1.5
 40
1.5
 40
1.5
 40
1.5
 40
1.5
 40
1.5
309
CELLMARGIN_END
 94
        6
 95
        1
302
GRIDFORMAT
  1
GRIDFORMAT_BEGIN
 90
        0
 91
        1
 62
     0
 92
       -2
340
14
 93
        0
 40
0.045
309
GRIDFORMAT_END
 95
        2
302
GRIDFORMAT
  1
GRIDFORMAT_BEGIN
 90
        0
 91
        1
 62
     0
 92
       -2
340
14
 93
        0
 40
0.045
309
GRIDFORMAT_END
 95
        4
302
GRIDFORMAT
  1
GRIDFORMAT_BEGIN
 90
        0
 91
        1
 62
     0
 92
       -2
340
14
 93
        0
 40
0.045
309
GRIDFORMAT_END
 95
        8
302
GRIDFORMAT
  1
GRIDFORMAT_BEGIN
 90
        0
 91
        1
 62
     0
 92
       -2
340
14
 93
        0
 40
0.045
309
GRIDFORMAT_END
 95
       16
302
GRIDFORMAT
  1
GRIDFORMAT_BEGIN
 90
        0
 91
        1
 62
     0
 92
       -2
340
14
 93
        0
 40
0.045
309
GRIDFORMAT_END
 95
       32
302
GRIDFORMAT
  1
GRIDFORMAT_BEGIN
 90
        0
 91
        1
 62
     0
 92
       -2
340
14
 93
        0
 40
0.045
309
GRIDFORMAT_END
309
TABLEFORMAT_END
  1
CELLSTYLE_BEGIN
 90
        3
 91
        2
300
_DATA
309
CELLSTYLE_END
  0
ENDSEC
  0
EOF
