999
DXF file: bc7_c_020.dxf
999
Pro/ENGINEER 2011490 by Parametric Technology Corporation
  0
SECTION
  2
HEADER
  9
$ACADVER
  1
AC1021
  9
$DWGCODEPAGE
  3
ANSI_1252
  9
$EXTMAX
 10
420.0
 20
297.0
 30
0.0
  9
$EXTMIN
 10
0.0
 20
0.0
 30
0.0
  9
$LIMMIN
 10
0.0
 20
0.0
  9
$LIMMAX
 10
420.0
 20
297.0
  9
$VIEWCTR
 10
210.0
 20
148.5
  9
$VIEWSIZE
 40
297.0
  9
$CLAYER
  8
0
  9
$LTSCALE
 40
23.1
  9
$CELTYPE
  6
BYLAYER
  9
$DIMSCALE
 40
1.0
  9
$DIMASZ
 40
2.5
  9
$DIMEXO
 40
2.625
  9
$DIMDLI
 40
15.96
  9
$DIMEXE
 40
7.56
  9
$DIMCEN
 40
3.78
  9
$DIMLFAC
 40
1.0
  9
$DIMBLK
  1
_CLOSED
  9
$DIMTXT
 40
3.0
  9
$DIMTOL
 70
1
  9
$DIMLIM
 70
0
  9
$DIMTFAC
 40
1.0
  9
$DIMTP
 40
0.01
  9
$DIMTM
 40
0.01
  9
$PDMODE
 70
3
  9
$PDSIZE
 40
0.3125
  9
$HANDSEED
  5
51A
  9
$TILEMODE
 70
1
  9
$MEASUREMENT
 70
1
  9
$INSUNITS
 70
4
  0
ENDSEC
  0
SECTION
  2
CLASSES
  0
CLASS
  1
ACDBDICTIONARYWDFLT
  2
AcDbDictionaryWithDefault
  3
AutoCAD 2000
 90
0
 91
1
280
0
281
0
  0
CLASS
  1
ACDBPLACEHOLDER
  2
AcDbPlaceHolder
  3
AutoCAD 2000
 90
0
 91
1
280
0
281
0
  0
CLASS
  1
LAYOUT
  2
AcDbLayout
  3
AutoCAD 2000
 90
0
 91
0
280
0
281
0
  0
CLASS
  1
TABLESTYLE
  2
AcDbTableStyle
  3
ObjectDBX Classes
 90
2047
 91
1
280
0
281
0
  0
CLASS
  1
ACAD_TABLE
  2
AcDbTable
  3
ObjectDBX Classes
 90
1025
 91
1
280
0
281
1
  0
ENDSEC
  0
SECTION
  2
TABLES
  0
TABLE
  2
VPORT
  5
8
100
AcDbSymbolTable
 70
2
  0
VPORT
  5
1F4
100
AcDbSymbolTableRecord
100
AcDbViewportTableRecord
  2
*ACTIVE
 70
0
 10
0.0
 20
0.0
 11
1.0
 21
1.0
 12
210.0
 22
148.5
 13
0.0
 23
0.0
 14
1.0
 24
1.0
 15
0.0
 25
0.0
 16
0.0
 26
0.0
 36
1.0
 17
0.0
 27
0.0
 37
0.0
 40
297.0
 41
1.4141414141
 42
50.0
 43
0.0
 44
0.0
 50
0.0
 51
0.0
 71
0
 72
100
 73
1
 74
1
 75
0
 76
0
 77
0
 78
0
  0
ENDTAB
  0
TABLE
  2
LTYPE
  5
5
100
AcDbSymbolTable
 70
6
  0
LTYPE
  5
14
100
AcDbSymbolTableRecord
100
AcDbLinetypeTableRecord
  2
BYBLOCK
 70
0
  3

 72
65
 73
0
 40
0.0
  0
LTYPE
  5
15
100
AcDbSymbolTableRecord
100
AcDbLinetypeTableRecord
  2
BYLAYER
 70
0
  3

 72
65
 73
0
 40
0.0
  0
LTYPE
  5
16
100
AcDbSymbolTableRecord
100
AcDbLinetypeTableRecord
  2
CONTINUOUS
 70
64
  3
Solid line
 72
65
 73
0
 40
0.0
  0
LTYPE
  5
1F5
100
AcDbSymbolTableRecord
100
AcDbLinetypeTableRecord
  2
CENTER
 70
64
  3
____ _ ____ _ ____ _ ____ _ ____ _ ____ _ ____
 72
65
 73
4
 40
0.6
 49
0.375
 74
0
 49
-0.075
 74
0
 49
0.075
 74
0
 49
-0.075
 74
0
  0
LTYPE
  5
1F6
100
AcDbSymbolTableRecord
100
AcDbLinetypeTableRecord
  2
HIDDEN
 70
64
  3
- - - - - - - - - - - - - - - - - - - -
 72
65
 73
2
 40
0.2
 49
0.1
 74
0
 49
-0.1
 74
0
  0
LTYPE
  5
1F7
100
AcDbSymbolTableRecord
100
AcDbLinetypeTableRecord
  2
PHANTOM
 70
64
  3
_____ _ _ _____ _ _ _____ _ _ _____
 72
65
 73
6
 40
0.8
 49
0.45
 74
0
 49
-0.05
 74
0
 49
0.1
 74
0
 49
-0.05
 74
0
 49
0.1
 74
0
 49
-0.05
 74
0
  0
LTYPE
  5
1F8
100
AcDbSymbolTableRecord
100
AcDbLinetypeTableRecord
  2
DOT
 70
64
  3
. . . . . . . . . . . . . . . . . . . .
 72
65
 73
2
 40
0.2
 49
0.1
 74
0
 49
-0.1
 74
0
  0
LTYPE
  5
1F9
100
AcDbSymbolTableRecord
100
AcDbLinetypeTableRecord
  2
DASHED
 70
64
  3
- - - - - - - - - - - - - - - - - - - -
 72
65
 73
2
 40
0.2
 49
0.1
 74
0
 49
-0.1
 74
0
  0
ENDTAB
  0
TABLE
  2
LAYER
  5
2
100
AcDbSymbolTable
 70
36
  0
LAYER
  5
10
100
AcDbSymbolTableRecord
100
AcDbLayerTableRecord
  2
0
 70
0
 62
7
  6
CONTINUOUS
370
-3
390
F
  0
LAYER
  5
1FA
100
AcDbSymbolTableRecord
100
AcDbLayerTableRecord
  2
DEFAULT_1
 70
0
 62
7
  6
CENTER
370
-3
390
F
  0
LAYER
  5
1FB
100
AcDbSymbolTableRecord
100
AcDbLayerTableRecord
  2
DEFAULT_2
 70
0
 62
8
  6
HIDDEN
370
-3
390
F
  0
LAYER
  5
1FC
100
AcDbSymbolTableRecord
100
AcDbLayerTableRecord
  2
DEFAULT_3
 70
0
 62
7
  6
PHANTOM
370
-3
390
F
  0
LAYER
  5
1FD
100
AcDbSymbolTableRecord
100
AcDbLayerTableRecord
  2
01_ALL_DTM_PLN
 70
0
 62
7
  6
CONTINUOUS
370
-3
390
F
  0
LAYER
  5
1FE
100
AcDbSymbolTableRecord
100
AcDbLayerTableRecord
  2
01__ASM_ALL_DTM_PLN
 70
0
 62
7
  6
CONTINUOUS
370
-3
390
F
  0
LAYER
  5
1FF
100
AcDbSymbolTableRecord
100
AcDbLayerTableRecord
  2
01__ASM_DEF_DTM_PLN
 70
0
 62
7
  6
CONTINUOUS
370
-3
390
F
  0
LAYER
  5
200
100
AcDbSymbolTableRecord
100
AcDbLayerTableRecord
  2
01___PRT_ALL_DTM_PLN
 70
0
 62
7
  6
CONTINUOUS
370
-3
390
F
  0
LAYER
  5
201
100
AcDbSymbolTableRecord
100
AcDbLayerTableRecord
  2
01___PRT_DEF_DTM_PLN
 70
0
 62
7
  6
CONTINUOUS
370
-3
390
F
  0
LAYER
  5
202
100
AcDbSymbolTableRecord
100
AcDbLayerTableRecord
  2
02_ALL_AXES
 70
0
 62
7
  6
CONTINUOUS
370
-3
390
F
  0
LAYER
  5
203
100
AcDbSymbolTableRecord
100
AcDbLayerTableRecord
  2
02__ASM_ALL_AXES
 70
0
 62
7
  6
CONTINUOUS
370
-3
390
F
  0
LAYER
  5
204
100
AcDbSymbolTableRecord
100
AcDbLayerTableRecord
  2
02___PRT_ALL_AXES
 70
0
 62
7
  6
CONTINUOUS
370
-3
390
F
  0
LAYER
  5
205
100
AcDbSymbolTableRecord
100
AcDbLayerTableRecord
  2
03_ALL_CURVES
 70
0
 62
7
  6
CONTINUOUS
370
-3
390
F
  0
LAYER
  5
206
100
AcDbSymbolTableRecord
100
AcDbLayerTableRecord
  2
03__ASM_ALL_CURVES
 70
0
 62
7
  6
CONTINUOUS
370
-3
390
F
  0
LAYER
  5
207
100
AcDbSymbolTableRecord
100
AcDbLayerTableRecord
  2
03___PRT_ALL_CURVES
 70
0
 62
7
  6
CONTINUOUS
370
-3
390
F
  0
LAYER
  5
208
100
AcDbSymbolTableRecord
100
AcDbLayerTableRecord
  2
04_ALL_DTM_PNT
 70
0
 62
7
  6
CONTINUOUS
370
-3
390
F
  0
LAYER
  5
209
100
AcDbSymbolTableRecord
100
AcDbLayerTableRecord
  2
04__ASM_ALL_DTM_PNT
 70
0
 62
7
  6
CONTINUOUS
370
-3
390
F
  0
LAYER
  5
20A
100
AcDbSymbolTableRecord
100
AcDbLayerTableRecord
  2
04___PRT_ALL_DTM_PNT
 70
0
 62
7
  6
CONTINUOUS
370
-3
390
F
  0
LAYER
  5
20B
100
AcDbSymbolTableRecord
100
AcDbLayerTableRecord
  2
05_ALL_DTM_CSYS
 70
0
 62
7
  6
CONTINUOUS
370
-3
390
F
  0
LAYER
  5
20C
100
AcDbSymbolTableRecord
100
AcDbLayerTableRecord
  2
05__ASM_ALL_DTM_CSYS
 70
0
 62
7
  6
CONTINUOUS
370
-3
390
F
  0
LAYER
  5
20D
100
AcDbSymbolTableRecord
100
AcDbLayerTableRecord
  2
05__ASM_DEF_DTM_CSYS
 70
0
 62
7
  6
CONTINUOUS
370
-3
390
F
  0
LAYER
  5
20E
100
AcDbSymbolTableRecord
100
AcDbLayerTableRecord
  2
05___PRT_ALL_DTM_CSYS
 70
0
 62
7
  6
CONTINUOUS
370
-3
390
F
  0
LAYER
  5
20F
100
AcDbSymbolTableRecord
100
AcDbLayerTableRecord
  2
05___PRT_DEF_DTM_CSYS
 70
0
 62
7
  6
CONTINUOUS
370
-3
390
F
  0
LAYER
  5
210
100
AcDbSymbolTableRecord
100
AcDbLayerTableRecord
  2
06_ALL_SURFS
 70
0
 62
7
  6
CONTINUOUS
370
-3
390
F
  0
LAYER
  5
211
100
AcDbSymbolTableRecord
100
AcDbLayerTableRecord
  2
06__ASM_ALL_SURFS
 70
0
 62
7
  6
CONTINUOUS
370
-3
390
F
  0
LAYER
  5
212
100
AcDbSymbolTableRecord
100
AcDbLayerTableRecord
  2
06___PRT_ALL_SURFS
 70
0
 62
7
  6
CONTINUOUS
370
-3
390
F
  0
LAYER
  5
213
100
AcDbSymbolTableRecord
100
AcDbLayerTableRecord
  2
07__ASM_ALL_SKELETONS
 70
0
 62
7
  6
CONTINUOUS
370
-3
390
F
  0
LAYER
  5
214
100
AcDbSymbolTableRecord
100
AcDbLayerTableRecord
  2
1_ALL_PLANES
 70
0
 62
7
  6
CONTINUOUS
370
-3
390
F
  0
LAYER
  5
215
100
AcDbSymbolTableRecord
100
AcDbLayerTableRecord
  2
2_ALL_CSYS
 70
0
 62
7
  6
CONTINUOUS
370
-3
390
F
  0
LAYER
  5
216
100
AcDbSymbolTableRecord
100
AcDbLayerTableRecord
  2
3_ALL_AXES
 70
0
 62
7
  6
CONTINUOUS
370
-3
390
F
  0
LAYER
  5
217
100
AcDbSymbolTableRecord
100
AcDbLayerTableRecord
  2
4_ALL_POINTS
 70
0
 62
7
  6
CONTINUOUS
370
-3
390
F
  0
LAYER
  5
218
100
AcDbSymbolTableRecord
100
AcDbLayerTableRecord
  2
5_ALL_CURVES
 70
0
 62
7
  6
CONTINUOUS
370
-3
390
F
  0
LAYER
  5
219
100
AcDbSymbolTableRecord
100
AcDbLayerTableRecord
  2
6_ALL_SURFS
 70
0
 62
7
  6
CONTINUOUS
370
-3
390
F
  0
LAYER
  5
21A
100
AcDbSymbolTableRecord
100
AcDbLayerTableRecord
  2
7_ALL_FEATURES
 70
0
 62
7
  6
CONTINUOUS
370
-3
390
F
  0
LAYER
  5
21B
100
AcDbSymbolTableRecord
100
AcDbLayerTableRecord
  2
8_ALL_NOTES_BALLOONS_SYMBOLS_GT
 70
0
 62
7
  6
CONTINUOUS
370
-3
390
F
  0
LAYER
  5
21C
100
AcDbSymbolTableRecord
100
AcDbLayerTableRecord
  2
___SHELL
 70
0
 62
7
  6
CONTINUOUS
370
-3
390
F
  0
ENDTAB
  0
TABLE
  2
STYLE
  5
3
100
AcDbSymbolTable
 70
1
  0
STYLE
  5
11
100
AcDbSymbolTableRecord
100
AcDbTextStyleTableRecord
  2
STANDARD
 70
0
 40
0.0
 41
0.85
 50
0.0
 71
0
 42
0.2
  3
txt
  4

  0
STYLE
  5
21D
100
AcDbSymbolTableRecord
100
AcDbTextStyleTableRecord
  2
TEXTSTYLE_1
 70
0
 40
0.0
 41
0.8
 50
0.0
 71
0
 42
0.2
  3
gdt
  4

  0
STYLE
  5
21E
100
AcDbSymbolTableRecord
100
AcDbTextStyleTableRecord
  2
TEXTSTYLE_2
 70
0
 40
0.0
 41
0.9
 50
0.0
 71
0
 42
0.2
  3
txt
  4

  0
STYLE
  5
21F
100
AcDbSymbolTableRecord
100
AcDbTextStyleTableRecord
  2
TEXTSTYLE_3
 70
0
 40
0.0
 41
0.9
 50
0.0
 71
0
 42
0.2
  3
txt
  4

  0
STYLE
  5
220
100
AcDbSymbolTableRecord
100
AcDbTextStyleTableRecord
  2
TEXTSTYLE_4
 70
0
 40
0.0
 41
0.85
 50
0.0
 71
0
 42
0.2
  3
txt
  4

  0
ENDTAB
  0
TABLE
  2
VIEW
  5
6
100
AcDbSymbolTable
 70
0
  0
ENDTAB
  0
TABLE
  2
UCS
  5
7
100
AcDbSymbolTable
 70
0
  0
ENDTAB
  0
TABLE
  2
APPID
  5
9
100
AcDbSymbolTable
 70
1
  0
APPID
  5
221
100
AcDbSymbolTableRecord
100
AcDbRegAppTableRecord
  2
ACAD
 70
0
  0
ENDTAB
  0
TABLE
  2
BLOCK_RECORD
  5
1
100
AcDbSymbolTable
 70
0
  0
BLOCK_RECORD
  5
222
100
AcDbSymbolTableRecord
100
AcDbBlockTableRecord
  2
*Model_Space
  0
BLOCK_RECORD
  5
223
100
AcDbSymbolTableRecord
100
AcDbBlockTableRecord
  2
*Paper_Space
  0
BLOCK_RECORD
  5
224
100
AcDbSymbolTableRecord
100
AcDbBlockTableRecord
  2
_CLOSED
  0
BLOCK_RECORD
  5
225
100
AcDbSymbolTableRecord
100
AcDbBlockTableRecord
  2
*D0
  0
BLOCK_RECORD
  5
226
100
AcDbSymbolTableRecord
100
AcDbBlockTableRecord
  2
*D1
  0
BLOCK_RECORD
  5
227
100
AcDbSymbolTableRecord
100
AcDbBlockTableRecord
  2
LOGO2_BL0
  0
BLOCK_RECORD
  5
228
100
AcDbSymbolTableRecord
100
AcDbBlockTableRecord
  2
*T1
  0
ENDTAB
  0
TABLE
  2
DIMSTYLE
  5
A
100
AcDbSymbolTable
 70
1
100
AcDbDimStyleTable
 71
0
  0
DIMSTYLE
105
229
100
AcDbSymbolTableRecord
100
AcDbDimStyleTableRecord
  2
STANDARD
 70
0
  3

  4

 40
1.0
 41
2.5
 42
0.0625
 43
0.38
 44
0.18
 45
0.0
 46
0.0
 47
0.01
 48
0.01
140
3.0
141
0.09
142
0.0
143
25.4
144
1.0
145
0.0
146
1.0
147
0.09
 71
1.0
 72
0.0
 73
0
 74
0
 75
0
 76
0
 77
1
 78
8
170
0
171
2
172
0
173
0
174
0
175
0
176
0
177
0
178
0
270
2
271
2
272
2
273
2
274
2
275
0
280
0
281
0
282
0
283
1
284
8
285
0
286
0
287
3
288
0
340
11
341
224
342
224
343
224
344
224
  0
DIMSTYLE
105
22A
100
AcDbSymbolTableRecord
100
AcDbDimStyleTableRecord
  2
DIMSTYLE_1
 70
0
  3

  4

 40
1.0
 41
2.5
 42
0.0625
 43
0.38
 44
0.18
 45
0.0
 46
0.0
 47
0.3
 48
0.3
140
3.0
141
0.09
142
0.0
143
25.4
144
1.0
145
0.0
146
1.0
147
0.09
 71
0.0
 72
0.0
 73
0
 74
0
 75
0
 76
0
 77
1
 78
8
170
0
171
2
172
0
173
0
174
0
175
0
176
0
177
0
178
0
270
2
271
0
272
0
273
2
274
2
275
0
280
0
281
0
282
0
283
1
284
8
285
0
286
0
287
3
288
0
340
11
341
224
342
224
343
224
344
224
  0
DIMSTYLE
105
22B
100
AcDbSymbolTableRecord
100
AcDbDimStyleTableRecord
  2
DIMSTYLE_2
 70
0
  3

  4

 40
1.0
 41
2.5
 42
0.0625
 43
0.38
 44
0.18
 45
0.0
 46
0.0
 47
0.3
 48
0.3
140
3.0
141
0.09
142
0.0
143
25.4
144
1.0
145
0.0
146
1.0
147
0.09
 71
0.0
 72
0.0
 73
0
 74
0
 75
0
 76
0
 77
1
 78
8
170
0
171
2
172
0
173
0
174
0
175
0
176
0
177
0
178
0
270
2
271
2
272
2
273
2
274
2
275
0
280
0
281
0
282
0
283
1
284
8
285
0
286
0
287
3
288
0
340
11
341
224
342
224
343
224
344
224
  0
ENDTAB
  0
ENDSEC
  0
SECTION
  2
BLOCKS
  0
BLOCK
  5
20
100
AcDbEntity
  8
0
100
AcDbBlockBegin
  2
*Model_Space
 70
0
 10
0.0
 20
0.0
 30
0.0
  3
*Model_Space
  1

  0
ENDBLK
  5
21
100
AcDbEntity
  8
0
100
AcDbBlockEnd
  0
BLOCK
  5
1C
100
AcDbEntity
  8
0
100
AcDbBlockBegin
  2
*Paper_Space
 70
0
 10
0.0
 20
0.0
 30
0.0
  3
*Paper_Space
  1

  0
ENDBLK
  5
1D
100
AcDbEntity
  8
0
100
AcDbBlockEnd
  0
BLOCK
  5
22C
100
AcDbEntity
  8
0
100
AcDbBlockBegin
 62
2
  6
CONTINUOUS
  2
LOGO2_BL0
 70
64
 10
333.1473869546
 20
37.5239270671
  3
LOGO2_BL0
  1

  0
LINE
  5
22D
100
AcDbEntity
  8
0
100
AcDbLine
 62
7
  6
CONTINUOUS
 10
324.8903121828
 20
40.7194184059
 11
323.5859712535
 21
40.7194184059
  0
LINE
  5
22E
100
AcDbEntity
  8
0
100
AcDbLine
 62
7
  6
CONTINUOUS
 10
323.5859712535
 20
40.7194184059
 11
323.5859712535
 21
30.260352346
  0
LINE
  5
22F
100
AcDbEntity
  8
0
100
AcDbLine
 62
7
  6
CONTINUOUS
 10
323.5859712535
 20
30.260352346
 11
328.0670261417
 21
30.260352346
  0
LINE
  5
230
100
AcDbEntity
  8
0
100
AcDbLine
 62
7
  6
CONTINUOUS
 10
328.0670261417
 20
30.260352346
 11
328.0670261417
 21
31.4532066711
  0
LINE
  5
231
100
AcDbEntity
  8
0
100
AcDbLine
 62
7
  6
CONTINUOUS
 10
328.0670261417
 20
31.4532066711
 11
324.8903121828
 21
31.4532066711
  0
LINE
  5
232
100
AcDbEntity
  8
0
100
AcDbLine
 62
7
  6
CONTINUOUS
 10
324.8903121828
 20
31.4532066711
 11
324.8903121828
 21
40.7194184059
  0
LINE
  5
233
100
AcDbEntity
  8
0
100
AcDbLine
 62
7
  6
CONTINUOUS
 10
339.8266383991
 20
40.7194184059
 11
338.522820881
 21
40.7194184059
  0
LINE
  5
234
100
AcDbEntity
  8
0
100
AcDbLine
 62
7
  6
CONTINUOUS
 10
338.522820881
 20
40.7194184059
 11
338.522820881
 21
30.260352346
  0
LINE
  5
235
100
AcDbEntity
  8
0
100
AcDbLine
 62
7
  6
CONTINUOUS
 10
338.522820881
 20
30.260352346
 11
343.0040066221
 21
30.260352346
  0
LINE
  5
236
100
AcDbEntity
  8
0
100
AcDbLine
 62
7
  6
CONTINUOUS
 10
343.0040066221
 20
30.260352346
 11
343.0040066221
 21
31.4532066711
  0
LINE
  5
237
100
AcDbEntity
  8
0
100
AcDbLine
 62
7
  6
CONTINUOUS
 10
343.0040066221
 20
31.4532066711
 11
339.8266383991
 21
31.4532066711
  0
LINE
  5
238
100
AcDbEntity
  8
0
100
AcDbLine
 62
7
  6
CONTINUOUS
 10
339.8266383991
 20
31.4532066711
 11
339.8266383991
 21
40.7194184059
  0
LWPOLYLINE
  5
239
100
AcDbEntity
  8
0
100
AcDbPolyline
 62
7
  6
CONTINUOUS
 90
2
 70
0
 43
0.2
 10
321.9403661644
 20
26.9168010391
 10
321.9403661644
 20
25.0597377898
  0
LWPOLYLINE
  5
23A
100
AcDbEntity
  8
0
100
AcDbPolyline
 62
7
  6
CONTINUOUS
 90
2
 70
0
 43
0.2
 10
321.9403661644
 20
25.0597377898
 10
322.7360821748
 20
25.0597377898
  0
LWPOLYLINE
  5
23B
100
AcDbEntity
  8
0
100
AcDbPolyline
 62
7
  6
CONTINUOUS
 90
2
 70
0
 43
0.2
 10
322.7360821748
 20
25.0597377898
 10
322.7360821748
 20
25.2717193614
  0
LWPOLYLINE
  5
23C
100
AcDbEntity
  8
0
100
AcDbPolyline
 62
7
  6
CONTINUOUS
 90
2
 70
0
 43
0.2
 10
322.7360821748
 20
25.2717193614
 10
322.1719756593
 20
25.2717193614
  0
LWPOLYLINE
  5
23D
100
AcDbEntity
  8
0
100
AcDbPolyline
 62
7
  6
CONTINUOUS
 90
2
 70
0
 43
0.2
 10
322.1719756593
 20
25.2717193614
 10
322.1719756593
 20
26.9168010391
  0
LWPOLYLINE
  5
23E
100
AcDbEntity
  8
0
100
AcDbPolyline
 62
7
  6
CONTINUOUS
 90
2
 70
0
 43
0.2
 10
322.1719756593
 20
26.9168010391
 10
321.9403661644
 20
26.9168010391
  0
SPLINE
  5
23F
100
AcDbEntity
  8
0
100
AcDbSpline
 62
7
  6
CONTINUOUS
 70
2
 71
3
 72
35
 73
31
 74
0
 42
0.0000001
 43
0.0000001
 44
0.0000000001
 40
0.0
 40
0.0
 40
0.0
 40
0.0
 40
1.0
 40
1.0
 40
1.0
 40
2.0
 40
2.0
 40
2.0
 40
3.0
 40
3.0
 40
3.0
 40
4.0
 40
4.0
 40
4.0
 40
5.0
 40
5.0
 40
5.0
 40
6.0
 40
6.0
 40
6.0
 40
7.0
 40
7.0
 40
7.0
 40
8.0
 40
8.0
 40
8.0
 40
9.0
 40
9.0
 40
9.0
 40
10.0
 40
10.0
 40
10.0
 40
10.0
 10
324.1343754303
 20
26.2122894457
 30
0.0
 10
324.1343754303
 20
26.2122894457
 30
0.0
 10
324.1343754303
 20
25.5501741665
 30
0.0
 10
324.1343754303
 20
25.5501741665
 30
0.0
 10
324.1343754303
 20
25.2350805712
 30
0.0
 10
324.2822391191
 20
25.0204819432
 30
0.0
 10
324.6223256034
 20
25.0204819432
 30
0.0
 10
324.9618886764
 20
25.0204819432
 30
0.0
 10
325.1100140709
 20
25.2350805712
 30
0.0
 10
325.1100140709
 20
25.5501741665
 30
0.0
 10
325.1100140709
 20
25.5501741665
 30
0.0
 10
325.1100140709
 20
26.2122894457
 30
0.0
 10
325.1100140709
 20
26.2122894457
 30
0.0
 10
325.1100140709
 20
26.2122894457
 30
0.0
 10
324.887956832
 20
26.2122894457
 30
0.0
 10
324.887956832
 20
26.2122894457
 30
0.0
 10
324.887956832
 20
26.2122894457
 30
0.0
 10
324.887956832
 20
25.5752979083
 30
0.0
 10
324.887956832
 20
25.5752979083
 30
0.0
 10
324.887956832
 20
25.3894869011
 30
0.0
 10
324.8412423746
 20
25.2267059906
 30
0.0
 10
324.6223256034
 20
25.2267059906
 30
0.0
 10
324.402885421
 20
25.2267059906
 30
0.0
 10
324.3561709636
 20
25.3894869011
 30
0.0
 10
324.3561709636
 20
25.5752979083
 30
0.0
 10
324.3561709636
 20
25.5752979083
 30
0.0
 10
324.3561709636
 20
26.2122894457
 30
0.0
 10
324.3561709636
 20
26.2122894457
 30
0.0
 10
324.3561709636
 20
26.2122894457
 30
0.0
 10
324.1343754303
 20
26.2122894457
 30
0.0
 10
324.1343754303
 20
26.2122894457
 30
0.0
  0
SPLINE
  5
240
100
AcDbEntity
  8
0
100
AcDbSpline
 62
7
  6
CONTINUOUS
 70
2
 71
3
 72
35
 73
31
 74
0
 42
0.0000001
 43
0.0000001
 44
0.0000000001
 40
0.0
 40
0.0
 40
0.0
 40
0.0
 40
1.0
 40
1.0
 40
1.0
 40
2.0
 40
2.0
 40
2.0
 40
3.0
 40
3.0
 40
3.0
 40
4.0
 40
4.0
 40
4.0
 40
5.0
 40
5.0
 40
5.0
 40
6.0
 40
6.0
 40
6.0
 40
7.0
 40
7.0
 40
7.0
 40
8.0
 40
8.0
 40
8.0
 40
9.0
 40
9.0
 40
9.0
 40
10.0
 40
10.0
 40
10.0
 40
10.0
 10
327.5331466281
 20
26.1709399539
 30
0.0
 10
327.4446901205
 20
26.2222342601
 30
0.0
 10
327.3312407238
 20
26.2473580019
 30
0.0
 10
327.2276052888
 20
26.2473580019
 30
0.0
 10
326.8727324356
 20
26.2473580019
 30
0.0
 10
326.5972872454
 20
25.9835587129
 30
0.0
 10
326.5972872454
 20
25.6260688032
 30
0.0
 10
326.5972872454
 20
25.2811407645
 30
0.0
 10
326.8757420505
 20
25.0210053545
 30
0.0
 10
327.2153051235
 20
25.0210053545
 30
0.0
 10
327.3312407238
 20
25.0210053545
 30
0.0
 10
327.4319973967
 20
25.0429886286
 30
0.0
 10
327.5331466281
 20
25.0968999912
 30
0.0
 10
327.5331466281
 20
25.0968999912
 30
0.0
 10
327.5331466281
 20
25.3795420867
 30
0.0
 10
327.5331466281
 20
25.3795420867
 30
0.0
 10
327.4492699692
 20
25.2863748774
 30
0.0
 10
327.345765387
 20
25.2272294019
 30
0.0
 10
327.2176604743
 20
25.2272294019
 30
0.0
 10
326.9839573343
 20
25.2272294019
 30
0.0
 10
326.8186902202
 20
25.3994317156
 30
0.0
 10
326.8186902202
 20
25.6360136177
 30
0.0
 10
326.8186902202
 20
25.8479951893
 30
0.0
 10
326.9864435379
 20
26.040087132
 30
0.0
 10
327.2032666639
 20
26.040087132
 30
0.0
 10
327.3360822782
 20
26.040087132
 30
0.0
 10
327.4446901205
 20
25.9861757693
 30
0.0
 10
327.5331466281
 20
25.8851573907
 30
0.0
 10
327.5331466281
 20
25.8851573907
 30
0.0
 10
327.5331466281
 20
26.1709399539
 30
0.0
 10
327.5331466281
 20
26.1709399539
 30
0.0
  0
SPLINE
  5
241
100
AcDbEntity
  8
0
100
AcDbSpline
 62
7
  6
CONTINUOUS
 70
2
 71
3
 72
32
 73
28
 74
0
 42
0.0000001
 43
0.0000001
 44
0.0000000001
 40
0.0
 40
0.0
 40
0.0
 40
0.0
 40
1.0
 40
1.0
 40
1.0
 40
2.0
 40
2.0
 40
2.0
 40
3.0
 40
3.0
 40
3.0
 40
4.0
 40
4.0
 40
4.0
 40
5.0
 40
5.0
 40
5.0
 40
6.0
 40
6.0
 40
6.0
 40
7.0
 40
7.0
 40
7.0
 40
8.0
 40
8.0
 40
8.0
 40
9.0
 40
9.0
 40
9.0
 40
9.0
 10
330.0650178804
 20
25.5993748276
 30
0.0
 10
330.0650178804
 20
25.5993748276
 30
0.0
 10
330.0650178804
 20
25.6333965613
 30
0.0
 10
330.0650178804
 20
25.6333965613
 30
0.0
 10
330.0650178804
 20
25.9757075435
 30
0.0
 10
329.8921613025
 20
26.2473580019
 30
0.0
 10
329.5255116954
 20
26.2473580019
 30
0.0
 10
329.153889681
 20
26.2473580019
 30
0.0
 10
328.9641530891
 20
25.9809416564
 30
0.0
 10
328.9641530891
 20
25.6260688032
 30
0.0
 10
328.9641530891
 20
25.2863748774
 30
0.0
 10
329.1782283059
 20
25.0204819432
 30
0.0
 10
329.5303532498
 20
25.0204819432
 30
0.0
 10
329.754373281
 20
25.0204819432
 30
0.0
 10
329.9565408909
 20
25.1361558378
 30
0.0
 10
330.0650178804
 20
25.3355755385
 30
0.0
 10
330.0650178804
 20
25.3355755385
 30
0.0
 10
329.8773749337
 20
25.4423514412
 30
0.0
 10
329.8773749337
 20
25.4423514412
 30
0.0
 10
329.7938908332
 20
25.3036474499
 30
0.0
 10
329.7026864163
 20
25.2178079987
 30
0.0
 10
329.5331011591
 20
25.2178079987
 30
0.0
 10
329.3211195875
 20
25.2178079987
 30
0.0
 10
329.1881731204
 20
25.4025721833
 30
0.0
 10
329.1858177696
 20
25.5993748276
 30
0.0
 10
329.1858177696
 20
25.5993748276
 30
0.0
 10
330.0650178804
 20
25.5993748276
 30
0.0
 10
330.0650178804
 20
25.5993748276
 30
0.0
  0
SPLINE
  5
242
100
AcDbEntity
  8
0
100
AcDbSpline
 62
7
  6
CONTINUOUS
 70
2
 71
3
 72
14
 73
10
 74
0
 42
0.0000001
 43
0.0000001
 44
0.0000000001
 40
0.0
 40
0.0
 40
0.0
 40
0.0
 40
1.0
 40
1.0
 40
1.0
 40
2.0
 40
2.0
 40
2.0
 40
3.0
 40
3.0
 40
3.0
 40
3.0
 10
329.1978562292
 20
25.7668664397
 30
0.0
 10
329.2254661746
 20
25.9317409954
 30
0.0
 10
329.3533093817
 20
26.054742648
 30
0.0
 10
329.5255116954
 20
26.054742648
 30
0.0
 10
329.7026864163
 20
26.054742648
 30
0.0
 10
329.816135813
 20
25.9390687534
 30
0.0
 10
329.8433531999
 20
25.7668664397
 30
0.0
 10
329.8433531999
 20
25.7668664397
 30
0.0
 10
329.1978562292
 20
25.7668664397
 30
0.0
 10
329.1978562292
 20
25.7668664397
 30
0.0
  0
SPLINE
  5
243
100
AcDbEntity
  8
0
100
AcDbSpline
 62
7
  6
CONTINUOUS
 70
2
 71
3
 72
20
 73
16
 74
0
 42
0.0000001
 43
0.0000001
 44
0.0000000001
 40
0.0
 40
0.0
 40
0.0
 40
0.0
 40
1.0
 40
1.0
 40
1.0
 40
2.0
 40
2.0
 40
2.0
 40
3.0
 40
3.0
 40
3.0
 40
4.0
 40
4.0
 40
4.0
 40
5.0
 40
5.0
 40
5.0
 40
5.0
 10
332.0890493306
 20
25.9762309548
 30
0.0
 10
332.0890493306
 20
25.9762309548
 30
0.0
 10
332.5001888972
 20
25.4737561185
 30
0.0
 10
332.5001888972
 20
25.4737561185
 30
0.0
 10
332.3841224441
 20
25.3580822239
 30
0.0
 10
332.2463344226
 20
25.2277528132
 30
0.0
 10
332.0743938145
 20
25.2277528132
 30
0.0
 10
331.8969573879
 20
25.2277528132
 30
0.0
 10
331.7294657758
 20
25.3921039576
 30
0.0
 10
331.7294657758
 20
25.5690169729
 30
0.0
 10
331.7294657758
 20
25.7469768107
 30
0.0
 10
331.9392228494
 20
25.8731189311
 30
0.0
 10
332.0668043508
 20
25.9610520275
 30
0.0
 10
332.0668043508
 20
25.9610520275
 30
0.0
 10
332.0890493306
 20
25.9762309548
 30
0.0
 10
332.0890493306
 20
25.9762309548
 30
0.0
  0
SPLINE
  5
244
100
AcDbEntity
  8
0
100
AcDbSpline
 62
7
  6
CONTINUOUS
 70
2
 71
3
 72
23
 73
19
 74
0
 42
0.0000001
 43
0.0000001
 44
0.0000000001
 40
0.0
 40
0.0
 40
0.0
 40
0.0
 40
1.0
 40
1.0
 40
1.0
 40
2.0
 40
2.0
 40
2.0
 40
3.0
 40
3.0
 40
3.0
 40
4.0
 40
4.0
 40
4.0
 40
5.0
 40
5.0
 40
5.0
 40
6.0
 40
6.0
 40
6.0
 40
6.0
 10
332.1383808444
 20
26.2672476309
 30
0.0
 10
332.1383808444
 20
26.2672476309
 30
0.0
 10
332.0767491653
 20
26.3457593241
 30
0.0
 10
332.0767491653
 20
26.3457593241
 30
0.0
 10
332.0228378026
 20
26.4143262028
 30
0.0
 10
331.9660476779
 20
26.4834164928
 30
0.0
 10
331.9660476779
 20
26.5771071133
 30
0.0
 10
331.9660476779
 20
26.6959214757
 30
0.0
 10
332.0619627964
 20
26.7733863463
 30
0.0
 10
332.1729259894
 20
26.7733863463
 30
0.0
 10
332.2961893477
 20
26.7733863463
 30
0.0
 10
332.3894874098
 20
26.7022024111
 30
0.0
 10
332.3894874098
 20
26.5718730004
 30
0.0
 10
332.3894874098
 20
26.4368328882
 30
0.0
 10
332.2613824971
 20
26.3604148401
 30
0.0
 10
332.1678227294
 20
26.2866138485
 30
0.0
 10
332.1678227294
 20
26.2866138485
 30
0.0
 10
332.1383808444
 20
26.2672476309
 30
0.0
 10
332.1383808444
 20
26.2672476309
 30
0.0
  0
SPLINE
  5
245
100
AcDbEntity
  8
0
100
AcDbSpline
 62
7
  6
CONTINUOUS
 70
2
 71
3
 72
50
 73
46
 74
0
 42
0.0000001
 43
0.0000001
 44
0.0000000001
 40
0.0
 40
0.0
 40
0.0
 40
0.0
 40
1.0
 40
1.0
 40
1.0
 40
2.0
 40
2.0
 40
2.0
 40
3.0
 40
3.0
 40
3.0
 40
4.0
 40
4.0
 40
4.0
 40
5.0
 40
5.0
 40
5.0
 40
6.0
 40
6.0
 40
6.0
 40
7.0
 40
7.0
 40
7.0
 40
8.0
 40
8.0
 40
8.0
 40
9.0
 40
9.0
 40
9.0
 40
10.0
 40
10.0
 40
10.0
 40
11.0
 40
11.0
 40
11.0
 40
12.0
 40
12.0
 40
12.0
 40
13.0
 40
13.0
 40
13.0
 40
14.0
 40
14.0
 40
14.0
 40
15.0
 40
15.0
 40
15.0
 40
15.0
 10
332.8405370871
 20
25.0602612011
 30
0.0
 10
332.8405370871
 20
25.0602612011
 30
0.0
 10
333.1259270918
 20
25.0602612011
 30
0.0
 10
333.1259270918
 20
25.0602612011
 30
0.0
 10
333.1259270918
 20
25.0602612011
 30
0.0
 10
332.793560924
 20
25.471139062
 30
0.0
 10
332.793560924
 20
25.471139062
 30
0.0
 10
332.793560924
 20
25.471139062
 30
0.0
 10
333.0200671588
 20
25.7370319963
 30
0.0
 10
333.0200671588
 20
25.7370319963
 30
0.0
 10
333.0200671588
 20
25.7370319963
 30
0.0
 10
332.8718109116
 20
25.8898680923
 30
0.0
 10
332.8718109116
 20
25.8898680923
 30
0.0
 10
332.8718109116
 20
25.8898680923
 30
0.0
 10
332.6559037553
 20
25.6386306742
 30
0.0
 10
332.6559037553
 20
25.6386306742
 30
0.0
 10
332.6559037553
 20
25.6386306742
 30
0.0
 10
332.2688411079
 20
26.1065603655
 30
0.0
 10
332.2688411079
 20
26.1065603655
 30
0.0
 10
332.4242942604
 20
26.2206640263
 30
0.0
 10
332.6065722414
 20
26.3604148401
 30
0.0
 10
332.6065722414
 20
26.5697793553
 30
0.0
 10
332.6065722414
 20
26.8136890154
 30
0.0
 10
332.4045354843
 20
26.9571037083
 30
0.0
 10
332.1780292495
 20
26.9571037083
 30
0.0
 10
331.9338578837
 20
26.9571037083
 30
0.0
 10
331.7494862575
 20
26.8063612574
 30
0.0
 10
331.7494862575
 20
26.5498897263
 30
0.0
 10
331.7494862575
 20
26.3923429287
 30
0.0
 10
331.8481492853
 20
26.25468576
 30
0.0
 10
331.953485807
 20
26.1437225669
 30
0.0
 10
331.953485807
 20
26.1437225669
 30
0.0
 10
331.8379427652
 20
26.0599767609
 30
0.0
 10
331.8379427652
 20
26.0599767609
 30
0.0
 10
331.660244633
 20
25.9317409954
 30
0.0
 10
331.5129043554
 20
25.8040286411
 30
0.0
 10
331.5129043554
 20
25.5669233277
 30
0.0
 10
331.5129043554
 20
25.2465956195
 30
0.0
 10
331.7714695316
 20
25.0204819432
 30
0.0
 10
332.0818524253
 20
25.0204819432
 30
0.0
 10
332.3007691965
 20
25.0204819432
 30
0.0
 10
332.4979643992
 20
25.145577241
 30
0.0
 10
332.6382386243
 20
25.3114986192
 30
0.0
 10
332.6382386243
 20
25.3114986192
 30
0.0
 10
332.8405370871
 20
25.0602612011
 30
0.0
 10
332.8405370871
 20
25.0602612011
 30
0.0
  0
LWPOLYLINE
  5
246
100
AcDbEntity
  8
0
100
AcDbPolyline
 62
7
  6
CONTINUOUS
 90
2
 70
0
 43
0.2
 10
334.7759811768
 20
26.9168010391
 10
334.5446333876
 20
26.9168010391
  0
LWPOLYLINE
  5
247
100
AcDbEntity
  8
0
100
AcDbPolyline
 62
7
  6
CONTINUOUS
 90
2
 70
0
 43
0.2
 10
334.5446333876
 20
26.9168010391
 10
334.5446333876
 20
25.0597377898
  0
LWPOLYLINE
  5
248
100
AcDbEntity
  8
0
100
AcDbPolyline
 62
7
  6
CONTINUOUS
 90
2
 70
0
 43
0.2
 10
334.5446333876
 20
25.0597377898
 10
335.3399568395
 20
25.0597377898
  0
LWPOLYLINE
  5
249
100
AcDbEntity
  8
0
100
AcDbPolyline
 62
7
  6
CONTINUOUS
 90
2
 70
0
 43
0.2
 10
335.3399568395
 20
25.0597377898
 10
335.3399568395
 20
25.2717193614
  0
LWPOLYLINE
  5
24A
100
AcDbEntity
  8
0
100
AcDbPolyline
 62
7
  6
CONTINUOUS
 90
2
 70
0
 43
0.2
 10
335.3399568395
 20
25.2717193614
 10
334.7759811768
 20
25.2717193614
  0
LWPOLYLINE
  5
24B
100
AcDbEntity
  8
0
100
AcDbPolyline
 62
7
  6
CONTINUOUS
 90
2
 70
0
 43
0.2
 10
334.7759811768
 20
25.2717193614
 10
334.7759811768
 20
26.9168010391
  0
LWPOLYLINE
  5
24C
100
AcDbEntity
  8
0
100
AcDbPolyline
 62
7
  6
CONTINUOUS
 90
2
 70
0
 43
0.2
 10
337.019060251
 20
26.2122894457
 10
336.7979189819
 20
26.2122894457
  0
LWPOLYLINE
  5
24D
100
AcDbEntity
  8
0
100
AcDbPolyline
 62
7
  6
CONTINUOUS
 90
2
 70
0
 43
0.2
 10
336.7979189819
 20
26.2122894457
 10
336.7979189819
 20
25.0602612011
  0
LWPOLYLINE
  5
24E
100
AcDbEntity
  8
0
100
AcDbPolyline
 62
7
  6
CONTINUOUS
 90
2
 70
0
 43
0.2
 10
336.7979189819
 20
25.0602612011
 10
337.019060251
 20
25.0602612011
  0
LWPOLYLINE
  5
24F
100
AcDbEntity
  8
0
100
AcDbPolyline
 62
7
  6
CONTINUOUS
 90
2
 70
0
 43
0.2
 10
337.019060251
 20
25.0602612011
 10
337.019060251
 20
26.2122894457
  0
SPLINE
  5
250
100
AcDbEntity
  8
0
100
AcDbSpline
 62
7
  6
CONTINUOUS
 70
2
 71
3
 72
17
 73
13
 74
0
 42
0.0000001
 43
0.0000001
 44
0.0000000001
 40
0.0
 40
0.0
 40
0.0
 40
0.0
 40
1.0
 40
1.0
 40
1.0
 40
2.0
 40
2.0
 40
2.0
 40
3.0
 40
3.0
 40
3.0
 40
4.0
 40
4.0
 40
4.0
 40
4.0
 10
336.9086204693
 20
26.894817765
 30
0.0
 10
336.8246129576
 20
26.894817765
 30
0.0
 10
336.7560460788
 20
26.825727475
 30
0.0
 10
336.7560460788
 20
26.7398880238
 30
0.0
 10
336.7560460788
 20
26.6556188065
 30
0.0
 10
336.8246129576
 20
26.5896689842
 30
0.0
 10
336.9086204693
 20
26.5896689842
 30
0.0
 10
336.9923662753
 20
26.5896689842
 30
0.0
 10
337.0611948597
 20
26.6556188065
 30
0.0
 10
337.0611948597
 20
26.7398880238
 30
0.0
 10
337.0611948597
 20
26.825727475
 30
0.0
 10
336.9923662753
 20
26.894817765
 30
0.0
 10
336.9086204693
 20
26.894817765
 30
0.0
  0
SPLINE
  5
251
100
AcDbEntity
  8
0
100
AcDbSpline
 62
7
  6
CONTINUOUS
 70
2
 71
3
 72
17
 73
13
 74
0
 42
0.0000001
 43
0.0000001
 44
0.0000000001
 40
0.0
 40
0.0
 40
0.0
 40
0.0
 40
1.0
 40
1.0
 40
1.0
 40
2.0
 40
2.0
 40
2.0
 40
3.0
 40
3.0
 40
3.0
 40
4.0
 40
4.0
 40
4.0
 40
4.0
 10
339.1493441926
 20
25.2178079987
 30
0.0
 10
338.915379347
 20
25.2178079987
 30
0.0
 10
338.7850499363
 20
25.4198447558
 30
0.0
 10
338.7850499363
 20
25.6360136177
 30
0.0
 10
338.7850499363
 20
25.8506122457
 30
0.0
 10
338.9208751655
 20
26.0495085351
 30
0.0
 10
339.1493441926
 20
26.0495085351
 30
0.0
 10
339.3888048568
 20
26.0495085351
 30
0.0
 10
339.5243683804
 20
25.8605570602
 30
0.0
 10
339.5243683804
 20
25.6360136177
 30
0.0
 10
339.5243683804
 20
25.4098999414
 30
0.0
 10
339.3911602076
 20
25.2178079987
 30
0.0
 10
339.1493441926
 20
25.2178079987
 30
0.0
  0
SPLINE
  5
252
100
AcDbEntity
  8
0
100
AcDbSpline
 62
7
  6
CONTINUOUS
 70
2
 71
3
 72
50
 73
46
 74
0
 42
0.0000001
 43
0.0000001
 44
0.0000000001
 40
0.0
 40
0.0
 40
0.0
 40
0.0
 40
1.0
 40
1.0
 40
1.0
 40
2.0
 40
2.0
 40
2.0
 40
3.0
 40
3.0
 40
3.0
 40
4.0
 40
4.0
 40
4.0
 40
5.0
 40
5.0
 40
5.0
 40
6.0
 40
6.0
 40
6.0
 40
7.0
 40
7.0
 40
7.0
 40
8.0
 40
8.0
 40
8.0
 40
9.0
 40
9.0
 40
9.0
 40
10.0
 40
10.0
 40
10.0
 40
11.0
 40
11.0
 40
11.0
 40
12.0
 40
12.0
 40
12.0
 40
13.0
 40
13.0
 40
13.0
 40
14.0
 40
14.0
 40
14.0
 40
15.0
 40
15.0
 40
15.0
 40
15.0
 10
339.7334711899
 20
26.2128128569
 30
0.0
 10
339.7334711899
 20
26.2128128569
 30
0.0
 10
339.5118065095
 20
26.2128128569
 30
0.0
 10
339.5118065095
 20
26.2128128569
 30
0.0
 10
339.5118065095
 20
26.2128128569
 30
0.0
 10
339.5118065095
 20
26.0154868014
 30
0.0
 10
339.5118065095
 20
26.0154868014
 30
0.0
 10
339.5118065095
 20
26.0154868014
 30
0.0
 10
339.5070958079
 20
26.0154868014
 30
0.0
 10
339.5070958079
 20
26.0154868014
 30
0.0
 10
339.4157605382
 20
26.158378083
 30
0.0
 10
339.2778416638
 20
26.2468345907
 30
0.0
 10
339.1051159388
 20
26.2468345907
 30
0.0
 10
338.772749771
 20
26.2468345907
 30
0.0
 10
338.5636469615
 20
25.9589583823
 30
0.0
 10
338.5636469615
 20
25.6433413757
 30
0.0
 10
338.5636469615
 20
25.3135922644
 30
0.0
 10
338.7607113114
 20
25.0204819432
 30
0.0
 10
339.1155841646
 20
25.0204819432
 30
0.0
 10
339.2778416638
 20
25.0204819432
 30
0.0
 10
339.4178541833
 20
25.1089384508
 30
0.0
 10
339.5070958079
 20
25.2397912728
 30
0.0
 10
339.5070958079
 20
25.2397912728
 30
0.0
 10
339.5118065095
 20
25.2397912728
 30
0.0
 10
339.5118065095
 20
25.2397912728
 30
0.0
 10
339.5118065095
 20
25.2397912728
 30
0.0
 10
339.5118065095
 20
25.0204819432
 30
0.0
 10
339.5118065095
 20
25.0204819432
 30
0.0
 10
339.5118065095
 20
24.7839000411
 30
0.0
 10
339.4552780904
 20
24.5970422113
 30
0.0
 10
339.1820573981
 20
24.5970422113
 30
0.0
 10
338.9797589354
 20
24.5970422113
 30
0.0
 10
338.8371293594
 20
24.7153331624
 30
0.0
 10
338.8371293594
 20
24.9215572098
 30
0.0
 10
338.8371293594
 20
24.9215572098
 30
0.0
 10
338.615464679
 20
24.9215572098
 30
0.0
 10
338.615464679
 20
24.9215572098
 30
0.0
 10
338.6204370862
 20
24.5970422113
 30
0.0
 10
338.8515231698
 20
24.4002395671
 30
0.0
 10
339.171850878
 20
24.4002395671
 30
0.0
 10
339.6198909404
 20
24.4002395671
 30
0.0
 10
339.7334711899
 20
24.6854987189
 30
0.0
 10
339.7334711899
 20
25.0822444751
 30
0.0
 10
339.7334711899
 20
25.0822444751
 30
0.0
 10
339.7334711899
 20
26.2128128569
 30
0.0
 10
339.7334711899
 20
26.2128128569
 30
0.0
  0
SPLINE
  5
253
100
AcDbEntity
  8
0
100
AcDbSpline
 62
7
  6
CONTINUOUS
 70
2
 71
3
 72
44
 73
40
 74
0
 42
0.0000001
 43
0.0000001
 44
0.0000000001
 40
0.0
 40
0.0
 40
0.0
 40
0.0
 40
1.0
 40
1.0
 40
1.0
 40
2.0
 40
2.0
 40
2.0
 40
3.0
 40
3.0
 40
3.0
 40
4.0
 40
4.0
 40
4.0
 40
5.0
 40
5.0
 40
5.0
 40
6.0
 40
6.0
 40
6.0
 40
7.0
 40
7.0
 40
7.0
 40
8.0
 40
8.0
 40
8.0
 40
9.0
 40
9.0
 40
9.0
 40
10.0
 40
10.0
 40
10.0
 40
11.0
 40
11.0
 40
11.0
 40
12.0
 40
12.0
 40
12.0
 40
13.0
 40
13.0
 40
13.0
 40
13.0
 10
341.3023965253
 20
27.1978729007
 30
0.0
 10
341.3023965253
 20
27.1978729007
 30
0.0
 10
341.3023965253
 20
25.0597377898
 30
0.0
 10
341.3023965253
 20
25.0597377898
 30
0.0
 10
341.3023965253
 20
25.0597377898
 30
0.0
 10
341.5237995001
 20
25.0597377898
 30
0.0
 10
341.5237995001
 20
25.0597377898
 30
0.0
 10
341.5237995001
 20
25.0597377898
 30
0.0
 10
341.5237995001
 20
25.5894300131
 30
0.0
 10
341.5237995001
 20
25.5894300131
 30
0.0
 10
341.5237995001
 20
25.7993179395
 30
0.0
 10
341.5237995001
 20
26.0500319464
 30
0.0
 10
341.8090586519
 20
26.0500319464
 30
0.0
 10
342.0359574452
 20
26.0500319464
 30
0.0
 10
342.0629131266
 20
25.9170854793
 30
0.0
 10
342.0629131266
 20
25.7208062464
 30
0.0
 10
342.0629131266
 20
25.7208062464
 30
0.0
 10
342.0629131266
 20
25.0597377898
 30
0.0
 10
342.0629131266
 20
25.0597377898
 30
0.0
 10
342.0629131266
 20
25.0597377898
 30
0.0
 10
342.2848395126
 20
25.0597377898
 30
0.0
 10
342.2848395126
 20
25.0597377898
 30
0.0
 10
342.2848395126
 20
25.0597377898
 30
0.0
 10
342.2848395126
 20
25.7469768107
 30
0.0
 10
342.2848395126
 20
25.7469768107
 30
0.0
 10
342.2848395126
 20
26.027525261
 30
0.0
 10
342.2008320009
 20
26.2473580019
 30
0.0
 10
341.8757935911
 20
26.2473580019
 30
0.0
 10
341.7360427773
 20
26.2473580019
 30
0.0
 10
341.5978621973
 20
26.1808847684
 30
0.0
 10
341.5285102016
 20
26.0578831157
 30
0.0
 10
341.5285102016
 20
26.0578831157
 30
0.0
 10
341.5237995001
 20
26.0578831157
 30
0.0
 10
341.5237995001
 20
26.0578831157
 30
0.0
 10
341.5237995001
 20
26.0578831157
 30
0.0
 10
341.5237995001
 20
27.1978729007
 30
0.0
 10
341.5237995001
 20
27.1978729007
 30
0.0
 10
341.5237995001
 20
27.1978729007
 30
0.0
 10
341.3023965253
 20
27.1978729007
 30
0.0
 10
341.3023965253
 20
27.1978729007
 30
0.0
  0
LWPOLYLINE
  5
254
100
AcDbEntity
  8
0
100
AcDbPolyline
 62
7
  6
CONTINUOUS
 90
2
 70
0
 43
0.2
 10
344.1246301895
 20
26.005541987
 10
344.341060757
 20
26.005541987
  0
LWPOLYLINE
  5
255
100
AcDbEntity
  8
0
100
AcDbPolyline
 62
7
  6
CONTINUOUS
 90
2
 70
0
 43
0.2
 10
344.341060757
 20
26.005541987
 10
344.341060757
 20
26.2122894457
  0
LWPOLYLINE
  5
256
100
AcDbEntity
  8
0
100
AcDbPolyline
 62
7
  6
CONTINUOUS
 90
2
 70
0
 43
0.2
 10
344.341060757
 20
26.2122894457
 10
344.1246301895
 20
26.2122894457
  0
LWPOLYLINE
  5
257
100
AcDbEntity
  8
0
100
AcDbPolyline
 62
7
  6
CONTINUOUS
 90
2
 70
0
 43
0.2
 10
344.1246301895
 20
26.2122894457
 10
344.1246301895
 20
26.65300175
  0
LWPOLYLINE
  5
258
100
AcDbEntity
  8
0
100
AcDbPolyline
 62
7
  6
CONTINUOUS
 90
2
 70
0
 43
0.2
 10
344.1246301895
 20
26.65300175
 10
343.9029655091
 20
26.65300175
  0
LWPOLYLINE
  5
259
100
AcDbEntity
  8
0
100
AcDbPolyline
 62
7
  6
CONTINUOUS
 90
2
 70
0
 43
0.2
 10
343.9029655091
 20
26.65300175
 10
343.9029655091
 20
26.2122894457
  0
LWPOLYLINE
  5
25A
100
AcDbEntity
  8
0
100
AcDbPolyline
 62
7
  6
CONTINUOUS
 90
2
 70
0
 43
0.2
 10
343.9029655091
 20
26.2122894457
 10
343.7823192072
 20
26.2122894457
  0
LWPOLYLINE
  5
25B
100
AcDbEntity
  8
0
100
AcDbPolyline
 62
7
  6
CONTINUOUS
 90
2
 70
0
 43
0.2
 10
343.7823192072
 20
26.2122894457
 10
343.7823192072
 20
26.005541987
  0
LWPOLYLINE
  5
25C
100
AcDbEntity
  8
0
100
AcDbPolyline
 62
7
  6
CONTINUOUS
 90
2
 70
0
 43
0.2
 10
343.7823192072
 20
26.005541987
 10
343.9029655091
 20
26.005541987
  0
LWPOLYLINE
  5
25D
100
AcDbEntity
  8
0
100
AcDbPolyline
 62
7
  6
CONTINUOUS
 90
2
 70
0
 43
0.2
 10
343.9029655091
 20
26.005541987
 10
343.9029655091
 20
25.0597377898
  0
LWPOLYLINE
  5
25E
100
AcDbEntity
  8
0
100
AcDbPolyline
 62
7
  6
CONTINUOUS
 90
2
 70
0
 43
0.2
 10
343.9029655091
 20
25.0597377898
 10
344.1246301895
 20
25.0597377898
  0
LWPOLYLINE
  5
25F
100
AcDbEntity
  8
0
100
AcDbPolyline
 62
7
  6
CONTINUOUS
 90
2
 70
0
 43
0.2
 10
344.1246301895
 20
25.0597377898
 10
344.1246301895
 20
26.005541987
  0
SPLINE
  5
260
100
AcDbEntity
  8
0
100
AcDbSpline
 62
7
  6
CONTINUOUS
 70
2
 71
3
 72
20
 73
16
 74
0
 42
0.0000001
 43
0.0000001
 44
0.0000000001
 40
0.0
 40
0.0
 40
0.0
 40
0.0
 40
1.0
 40
1.0
 40
1.0
 40
2.0
 40
2.0
 40
2.0
 40
3.0
 40
3.0
 40
3.0
 40
4.0
 40
4.0
 40
4.0
 40
5.0
 40
5.0
 40
5.0
 40
5.0
 10
331.9066404967
 20
35.4206642332
 30
0.0
 10
331.9066404967
 20
35.4206642332
 30
0.0
 10
334.2229971512
 20
32.5911028109
 30
0.0
 10
334.2229971512
 20
32.5911028109
 30
0.0
 10
333.5713500978
 20
31.9389323462
 30
0.0
 10
332.7944768938
 20
31.2030160755
 30
0.0
 10
331.8232872491
 20
31.2030160755
 30
0.0
 10
330.8247493647
 20
31.2030160755
 30
0.0
 10
329.8814313711
 20
32.1325945228
 30
0.0
 10
329.8814313711
 20
33.1317866713
 30
0.0
 10
329.8814313711
 20
34.1309788198
 30
0.0
 10
331.0602844442
 20
34.8375840585
 30
0.0
 10
331.7818069046
 20
35.3374418384
 30
0.0
 10
331.7818069046
 20
35.3374418384
 30
0.0
 10
331.9066404967
 20
35.4206642332
 30
0.0
 10
331.9066404967
 20
35.4206642332
 30
0.0
  0
SPLINE
  5
261
100
AcDbEntity
  8
0
100
AcDbSpline
 62
7
  6
CONTINUOUS
 70
2
 71
3
 72
23
 73
19
 74
0
 42
0.0000001
 43
0.0000001
 44
0.0000000001
 40
0.0
 40
0.0
 40
0.0
 40
0.0
 40
1.0
 40
1.0
 40
1.0
 40
2.0
 40
2.0
 40
2.0
 40
3.0
 40
3.0
 40
3.0
 40
4.0
 40
4.0
 40
4.0
 40
5.0
 40
5.0
 40
5.0
 40
6.0
 40
6.0
 40
6.0
 40
6.0
 10
332.1840484793
 20
37.0584181529
 30
0.0
 10
332.1840484793
 20
37.0584181529
 30
0.0
 10
331.8375502067
 20
37.5017475137
 30
0.0
 10
331.8375502067
 20
37.5017475137
 30
0.0
 10
331.5317471618
 20
37.8898569837
 30
0.0
 10
331.2128588347
 20
38.2783590121
 30
0.0
 10
331.2128588347
 20
38.8053033262
 30
0.0
 10
331.2128588347
 20
39.4714750428
 30
0.0
 10
331.7541969591
 20
39.9151969621
 30
0.0
 10
332.3781032143
 20
39.9151969621
 30
0.0
 10
333.0718848763
 20
39.9151969621
 30
0.0
 10
333.5990908961
 20
39.5129553874
 30
0.0
 10
333.5990908961
 20
38.7779550864
 30
0.0
 10
333.5990908961
 20
38.0146905758
 30
0.0
 10
332.8778301414
 20
37.58457735
 30
0.0
 10
332.3507549745
 20
37.1688579346
 30
0.0
 10
332.3507549745
 20
37.1688579346
 30
0.0
 10
332.1840484793
 20
37.0584181529
 30
0.0
 10
332.1840484793
 20
37.0584181529
 30
0.0
  0
SPLINE
  5
262
100
AcDbEntity
  8
0
100
AcDbSpline
 62
7
  6
CONTINUOUS
 70
2
 71
3
 72
50
 73
46
 74
0
 42
0.0000001
 43
0.0000001
 44
0.0000000001
 40
0.0
 40
0.0
 40
0.0
 40
0.0
 40
1.0
 40
1.0
 40
1.0
 40
2.0
 40
2.0
 40
2.0
 40
3.0
 40
3.0
 40
3.0
 40
4.0
 40
4.0
 40
4.0
 40
5.0
 40
5.0
 40
5.0
 40
6.0
 40
6.0
 40
6.0
 40
7.0
 40
7.0
 40
7.0
 40
8.0
 40
8.0
 40
8.0
 40
9.0
 40
9.0
 40
9.0
 40
10.0
 40
10.0
 40
10.0
 40
11.0
 40
11.0
 40
11.0
 40
12.0
 40
12.0
 40
12.0
 40
13.0
 40
13.0
 40
13.0
 40
14.0
 40
14.0
 40
14.0
 40
15.0
 40
15.0
 40
15.0
 40
15.0
 10
336.1376356422
 20
30.2598289348
 30
0.0
 10
336.1376356422
 20
30.2598289348
 30
0.0
 10
337.7468636468
 20
30.2598289348
 30
0.0
 10
337.7468636468
 20
30.2598289348
 30
0.0
 10
337.7468636468
 20
30.2598289348
 30
0.0
 10
335.8738363531
 20
32.5769707062
 30
0.0
 10
335.8738363531
 20
32.5769707062
 30
0.0
 10
335.8738363531
 20
32.5769707062
 30
0.0
 10
337.1501747786
 20
34.0744504008
 30
0.0
 10
337.1501747786
 20
34.0744504008
 30
0.0
 10
337.1501747786
 20
34.0744504008
 30
0.0
 10
336.3179508309
 20
34.9354619693
 30
0.0
 10
336.3179508309
 20
34.9354619693
 30
0.0
 10
336.3179508309
 20
34.9354619693
 30
0.0
 10
335.0973557076
 20
33.5201578469
 30
0.0
 10
335.0973557076
 20
33.5201578469
 30
0.0
 10
335.0973557076
 20
33.5201578469
 30
0.0
 10
332.9194413388
 20
36.1555336813
 30
0.0
 10
332.9194413388
 20
36.1555336813
 30
0.0
 10
333.7930147782
 20
36.7935720412
 30
0.0
 10
334.8196860194
 20
37.58457735
 30
0.0
 10
334.8196860194
 20
38.7634304231
 30
0.0
 10
334.8196860194
 20
40.1371233482
 30
0.0
 10
333.6817898795
 20
40.9416064976
 30
0.0
 10
332.4064982766
 20
40.9416064976
 30
0.0
 10
331.0330670573
 20
40.9416064976
 30
0.0
 10
329.9921328585
 20
40.0953812979
 30
0.0
 10
329.9921328585
 20
38.6527289358
 30
0.0
 10
329.9921328585
 20
37.7651542444
 30
0.0
 10
330.547472235
 20
36.9882810403
 30
0.0
 10
331.1436376918
 20
36.3638513739
 30
0.0
 10
331.1436376918
 20
36.3638513739
 30
0.0
 10
330.4917289328
 20
35.8922578035
 30
0.0
 10
330.4917289328
 20
35.8922578035
 30
0.0
 10
329.4931910484
 20
35.1709970488
 30
0.0
 10
328.6603128365
 20
34.4497362942
 30
0.0
 10
328.6603128365
 20
33.1181779778
 30
0.0
 10
328.6603128365
 20
31.3145026798
 30
0.0
 10
330.1173590091
 20
30.0379025487
 30
0.0
 10
331.8648984465
 20
30.0379025487
 30
0.0
 10
333.0997565274
 20
30.0379025487
 30
0.0
 10
334.2091267521
 20
30.7460780212
 30
0.0
 10
335.000001208
 20
31.6746096459
 30
0.0
 10
335.000001208
 20
31.6746096459
 30
0.0
 10
336.1376356422
 20
30.2598289348
 30
0.0
 10
336.1376356422
 20
30.2598289348
 30
0.0
  0
LINE
  5
263
100
AcDbEntity
  8
0
100
AcDbLine
 62
7
  6
CONTINUOUS
 10
321.9404970172
 20
28.2337038394
 11
344.3544077449
 21
28.2337038394
  0
LINE
  5
264
100
AcDbEntity
  8
0
100
AcDbLine
 62
7
  6
CONTINUOUS
 10
344.3544077449
 20
28.2337038394
 11
344.3544077449
 21
50.6476145671
  0
LINE
  5
265
100
AcDbEntity
  8
0
100
AcDbLine
 62
7
  6
CONTINUOUS
 10
344.3544077449
 20
50.6476145671
 11
321.9404970172
 21
50.6476145671
  0
LINE
  5
266
100
AcDbEntity
  8
0
100
AcDbLine
 62
7
  6
CONTINUOUS
 10
321.9404970172
 20
50.6476145671
 11
321.9404970172
 21
28.2337038394
  0
ENDBLK
  5
267
100
AcDbEntity
  8
0
  6
BYBLOCK
 62
0
100
AcDbBlockEnd
  0
BLOCK
  5
268
100
AcDbEntity
  8
0
100
AcDbBlockBegin
  2
_CLOSED
 70
64
 10
0.0
 20
0.0
  3
_CLOSED
  1

  0
LINE
  5
269
100
AcDbEntity
  8
0
  6
BYBLOCK
 62
0
100
AcDbLine
 10
0.0
 20
0.0
 11
-1.0
 21
0.2
  0
LINE
  5
26A
100
AcDbEntity
  8
0
  6
BYBLOCK
 62
0
100
AcDbLine
 10
-1.0
 20
0.2
 11
-1.0
 21
-0.2
  0
LINE
  5
26B
100
AcDbEntity
  8
0
  6
BYBLOCK
 62
0
100
AcDbLine
 10
-1.0
 20
-0.2
 11
0.0
 21
0.0
  0
LINE
  5
26C
100
AcDbEntity
  8
0
  6
BYBLOCK
 62
0
100
AcDbLine
 10
-1.0
 20
0.0
 11
0.0
 21
0.0
  0
ENDBLK
  5
26D
100
AcDbEntity
  8
0
  6
BYBLOCK
 62
0
100
AcDbBlockEnd
  0
BLOCK
  5
26E
100
AcDbEntity
  8
0
100
AcDbBlockBegin
 62
2
  6
CONTINUOUS
  2
*D0
 70
65
 10
0.0
 20
0.0
  3
*D0
  1

  0
LINE
  5
26F
100
AcDbEntity
  8
0
100
AcDbLine
 62
2
  6
CONTINUOUS
 10
115.8657511547
 20
100.8205484084
 11
129.5139131217
 21
108.9306432273
  0
INSERT
  5
270
100
AcDbEntity
  8
0
100
AcDbBlockReference
 62
2
  6
CONTINUOUS
  2
_CLOSED
 10
115.8657511547
 20
100.8205484084
 41
2.5
 42
2.5
 43
2.5
 50
210.7198890762
  0
ENDBLK
  5
271
100
AcDbEntity
  8
0
  6
BYBLOCK
 62
0
100
AcDbBlockEnd
  0
BLOCK
  5
272
100
AcDbEntity
  8
0
100
AcDbBlockBegin
 62
2
  6
CONTINUOUS
  2
*D1
 70
65
 10
0.0
 20
0.0
  3
*D1
  1

  0
LINE
  5
273
100
AcDbEntity
  8
0
100
AcDbLine
 62
2
  6
CONTINUOUS
 10
124.1693174313
 20
257.4866479403
 11
135.559971025
 21
257.4866479403
  0
LINE
  5
274
100
AcDbEntity
  8
0
100
AcDbLine
 62
2
  6
CONTINUOUS
 10
124.0612388858
 20
157.4866479403
 11
135.559971025
 21
157.4866479403
  0
LINE
  5
275
100
AcDbEntity
  8
0
100
AcDbLine
 62
2
  6
CONTINUOUS
 10
134.809971025
 20
257.4866479403
 11
134.809971025
 21
207.4866479403
  0
LINE
  5
276
100
AcDbEntity
  8
0
100
AcDbLine
 62
2
  6
CONTINUOUS
 10
134.809971025
 20
157.4866479403
 11
134.809971025
 21
207.4866479403
  0
INSERT
  5
277
100
AcDbEntity
  8
0
100
AcDbBlockReference
 62
2
  6
CONTINUOUS
  2
_CLOSED
 10
134.809971025
 20
257.4866479403
 41
2.5
 42
2.5
 43
2.5
 50
90.0
  0
INSERT
  5
278
100
AcDbEntity
  8
0
100
AcDbBlockReference
 62
2
  6
CONTINUOUS
  2
_CLOSED
 10
134.809971025
 20
157.4866479403
 41
2.5
 42
2.5
 43
2.5
 50
270.0
  0
ENDBLK
  5
279
100
AcDbEntity
  8
0
  6
BYBLOCK
 62
0
100
AcDbBlockEnd
  0
BLOCK
  5
27A
100
AcDbEntity
  8
0
100
AcDbBlockBegin
  2
*T1
 70
1
 10
0.0
 20
0.0
  3
*T1
  1

  0
LINE
  5
27B
100
AcDbEntity
  8
0
100
AcDbLine
 62
2
  6
CONTINUOUS
 10
0.0
 20
0.0
 11
90.0
 21
0.0
  0
LINE
  5
27C
100
AcDbEntity
  8
0
100
AcDbLine
 62
2
  6
CONTINUOUS
 10
0.0
 20
0.0
 11
0.0
 21
-40.0
  0
LINE
  5
27D
100
AcDbEntity
  8
0
100
AcDbLine
 62
2
  6
CONTINUOUS
 10
30.0
 20
-6.0
 11
90.0
 21
-6.0
  0
LINE
  5
27E
100
AcDbEntity
  8
0
100
AcDbLine
 62
2
  6
CONTINUOUS
 10
30.0
 20
-12.0
 11
90.0
 21
-12.0
  0
LINE
  5
27F
100
AcDbEntity
  8
0
100
AcDbLine
 62
2
  6
CONTINUOUS
 10
30.0
 20
-22.0
 11
90.0
 21
-22.0
  0
LINE
  5
280
100
AcDbEntity
  8
0
100
AcDbLine
 62
2
  6
CONTINUOUS
 10
0.0
 20
-27.0
 11
90.0
 21
-27.0
  0
LINE
  5
281
100
AcDbEntity
  8
0
100
AcDbLine
 62
2
  6
CONTINUOUS
 10
0.0
 20
-40.0
 11
90.0
 21
-40.0
  0
LINE
  5
282
100
AcDbEntity
  8
0
100
AcDbLine
 62
2
  6
CONTINUOUS
 10
30.0
 20
0.0
 11
30.0
 21
-27.0
  0
LINE
  5
283
100
AcDbEntity
  8
0
100
AcDbLine
 62
2
  6
CONTINUOUS
 10
70.0
 20
0.0
 11
70.0
 21
-12.0
  0
LINE
  5
284
100
AcDbEntity
  8
0
100
AcDbLine
 62
2
  6
CONTINUOUS
 10
90.0
 20
0.0
 11
90.0
 21
-40.0
  0
ENDBLK
  5
285
100
AcDbEntity
  8
0
100
AcDbBlockEnd
  0
ENDSEC
  0
SECTION
  2
ENTITIES
  0
DIMENSION
  5
286
100
AcDbEntity
  8
0
100
AcDbDimension
 62
2
  6
CONTINUOUS
  2
*D0
 10
115.8657511547
 20
100.8205484084
 11
121.6393285673
 21
105.1237818422
 70
163
 71
1
 42
79.5
  1
<>
  3
DIMSTYLE_1
100
AcDbDiametricDimension
 15
47.5215890442
 25
60.2086596882
  0
DIMENSION
  5
287
100
AcDbEntity
  8
0
100
AcDbDimension
 62
2
  6
CONTINUOUS
  2
*D1
 10
134.809971025
 20
157.4866479403
 11
134.059971025
 21
204.2723622261
 70
160
 71
2
 42
100.0
  3
DIMSTYLE_2
100
AcDbAlignedDimension
 13
124.1693174313
 23
257.4866479403
 14
124.0612388858
 24
157.4866479403
 50
270.0
100
AcDbRotatedDimension
  0
INSERT
  5
288
100
AcDbEntity
  8
0
100
AcDbBlockReference
 62
2
  6
CONTINUOUS
  2
LOGO2_BL0
 10
333.1473869546
 20
37.5239270671
  0
LWPOLYLINE
  5
289
100
AcDbEntity
  8
0
100
AcDbPolyline
 62
2
  6
CONTINUOUS
 90
8
 70
0
 10
350.8088452148
 20
46.5239282227
 10
350.8088452148
 20
49.5239263916
 10
351.4516882324
 20
49.5239263916
 10
351.665994873
 20
49.4525015259
 10
352.0945568848
 20
49.0953579712
 10
352.0945568848
 20
48.4524957275
 10
351.665994873
 20
48.0239273071
 10
350.8088452148
 20
48.0239273071
  0
LWPOLYLINE
  5
28A
100
AcDbEntity
  8
0
100
AcDbPolyline
 62
2
  6
CONTINUOUS
 90
6
 70
0
 10
351.665994873
 20
48.0239273071
 10
351.8802758789
 20
48.0239273071
 10
352.3088378906
 20
47.595352478
 10
352.3088378906
 20
46.9524966431
 10
351.8802758789
 20
46.5239282227
 10
350.8088452148
 20
46.5239282227
  0
LWPOLYLINE
  5
28B
100
AcDbEntity
  8
0
100
AcDbPolyline
 62
2
  6
CONTINUOUS
 90
6
 70
0
 10
354.4516992187
 20
46.5239282227
 10
353.5945495605
 20
46.5239282227
 10
353.1659875488
 20
46.9524966431
 10
353.1659875488
 20
49.0953579712
 10
353.5945495605
 20
49.5239263916
 10
354.4516992187
 20
49.5239263916
  0
LWPOLYLINE
  5
28C
100
AcDbEntity
  8
0
100
AcDbPolyline
 62
2
  6
CONTINUOUS
 90
4
 70
0
 10
355.6659924316
 20
48.8810705566
 10
355.6659924316
 20
49.5239263916
 10
357.1659851074
 20
49.5239263916
 10
356.3088354492
 20
46.5239282227
  0
LINE
  5
28D
100
AcDbEntity
  8
0
100
AcDbLine
 62
2
  6
CONTINUOUS
 10
358.0231347656
 20
46.5239282227
 11
359.7374084473
 21
46.5239282227
  0
LWPOLYLINE
  5
28E
100
AcDbEntity
  8
0
100
AcDbPolyline
 62
2
  6
CONTINUOUS
 90
6
 70
0
 10
361.6659887695
 20
46.5239282227
 10
360.8088391113
 20
46.5239282227
 10
360.3802770996
 20
46.9524966431
 10
360.3802770996
 20
49.0953579712
 10
360.8088391113
 20
49.5239263916
 10
361.6659887695
 20
49.5239263916
  0
LINE
  5
28F
100
AcDbEntity
  8
0
100
AcDbLine
 62
2
  6
CONTINUOUS
 10
362.8802563477
 20
46.5239282227
 11
364.5945556641
 21
46.5239282227
  0
LWPOLYLINE
  5
290
100
AcDbEntity
  8
0
100
AcDbPolyline
 62
2
  6
CONTINUOUS
 90
13
 70
0
 10
365.2373986816
 20
47.3810714722
 10
365.2373986816
 20
48.6667831421
 10
365.4517053223
 20
49.0953579712
 10
365.880267334
 20
49.5239263916
 10
366.0945483398
 20
49.5239263916
 10
366.5231359863
 20
49.0953579712
 10
366.7374169922
 20
48.6667831421
 10
366.7374169922
 20
47.3810714722
 10
366.5231359863
 20
46.9524966431
 10
366.0945483398
 20
46.5239282227
 10
365.880267334
 20
46.5239282227
 10
365.4517053223
 20
46.9524966431
 10
365.2373986816
 20
47.3810714722
  0
LWPOLYLINE
  5
291
100
AcDbEntity
  8
0
100
AcDbPolyline
 62
2
  6
CONTINUOUS
 90
7
 70
0
 10
369.0945593262
 20
46.5239282227
 10
367.5945666504
 20
46.5239282227
 10
369.0945593262
 20
48.6667831421
 10
369.0945593262
 20
49.0953579712
 10
368.6659716797
 20
49.5239263916
 10
368.0231286621
 20
49.5239263916
 10
367.5945666504
 20
48.8810705566
  0
LWPOLYLINE
  5
292
100
AcDbEntity
  8
0
100
AcDbPolyline
 62
2
  6
CONTINUOUS
 90
13
 70
0
 10
369.9517089844
 20
47.3810714722
 10
369.9517089844
 20
48.6667831421
 10
370.1659899902
 20
49.0953579712
 10
370.594552002
 20
49.5239263916
 10
370.8088330078
 20
49.5239263916
 10
371.2374206543
 20
49.0953579712
 10
371.4517016602
 20
48.6667831421
 10
371.4517016602
 20
47.3810714722
 10
371.2374206543
 20
46.9524966431
 10
370.8088330078
 20
46.5239282227
 10
370.594552002
 20
46.5239282227
 10
370.1659899902
 20
46.9524966431
 10
369.9517089844
 20
47.3810714722
  0
LWPOLYLINE
  5
293
100
AcDbEntity
  8
0
100
AcDbPolyline
 62
2
  6
CONTINUOUS
 90
9
 70
0
 10
391.5525878906
 20
45.7739254761
 10
391.5525878906
 20
49.2739297485
 10
392.4822839355
 20
49.2739297485
 10
392.8541418457
 20
48.9822573853
 10
393.0400964355
 20
48.6905914307
 10
393.0400964355
 20
48.1072595215
 10
392.8541418457
 20
47.8155935669
 10
392.4822839355
 20
47.5239276123
 10
391.5525878906
 20
47.5239276123
  0
LINE
  5
294
100
AcDbEntity
  8
0
100
AcDbLine
 62
2
  6
CONTINUOUS
 10
392.4822839355
 20
47.5239276123
 11
393.0400964355
 21
45.7739254761
  0
LWPOLYLINE
  5
295
100
AcDbEntity
  8
0
100
AcDbPolyline
 62
2
  6
CONTINUOUS
 90
11
 70
0
 10
395.8291589355
 20
46.3572573853
 10
395.6432043457
 20
46.0655914307
 10
395.2713464355
 20
45.7739254761
 10
394.8994628906
 20
46.0655914307
 10
394.5275793457
 20
46.6489297485
 10
394.5275793457
 20
47.2322616577
 10
394.8994628906
 20
47.8155935669
 10
395.2713464355
 20
48.1072595215
 10
395.6432043457
 20
47.8155935669
 10
395.8291589355
 20
47.2322616577
 10
394.5275793457
 20
47.2322616577
  0
LWPOLYLINE
  5
296
100
AcDbEntity
  8
0
100
AcDbPolyline
 62
2
  6
CONTINUOUS
 90
3
 70
0
 10
397.6885253906
 20
48.1072595215
 10
398.2463378906
 20
45.7739254761
 10
398.8041503906
 20
48.1072595215
  0
LWPOLYLINE
  5
297
100
AcDbEntity
  8
0
100
AcDbPolyline
 62
2
  6
CONTINUOUS
 90
4
 70
0
 10
401.2213293457
 20
45.7739254761
 10
401.0354003906
 20
45.7739254761
 10
401.0354003906
 20
46.0655914307
 10
401.2213293457
 20
45.7739254761
  0
LWPOLYLINE
  5
298
100
AcDbEntity
  8
0
100
AcDbPolyline
 62
2
  6
CONTINUOUS
 90
4
 70
0
 10
401.2213293457
 20
48.1072595215
 10
401.2213293457
 20
47.8155935669
 10
401.0354003906
 20
48.1072595215
 10
401.2213293457
 20
48.1072595215
  0
LWPOLYLINE
  5
299
100
AcDbEntity
  8
0
100
AcDbPolyline
 62
2
  6
CONTINUOUS
 90
15
 70
0
 10
404.1963464355
 20
45.7739254761
 10
403.8244628906
 20
46.0655914307
 10
403.6385339355
 20
46.3572573853
 10
403.4525793457
 20
46.9405957031
 10
403.4525793457
 20
48.1072595215
 10
403.6385339355
 20
48.6905914307
 10
403.8244628906
 20
48.9822573853
 10
404.1963464355
 20
49.2739297485
 10
404.5682043457
 20
48.9822573853
 10
404.7541589355
 20
48.6905914307
 10
404.9400878906
 20
48.1072595215
 10
404.9400878906
 20
46.9405957031
 10
404.7541589355
 20
46.3572573853
 10
404.5682043457
 20
46.0655914307
 10
404.1963464355
 20
45.7739254761
  0
LINE
  5
29A
100
AcDbEntity
  8
0
100
AcDbLine
 62
2
  6
CONTINUOUS
 10
407.1713378906
 20
49.2739297485
 11
407.1713378906
 21
45.7739254761
  0
LWPOLYLINE
  5
29B
100
AcDbEntity
  8
0
100
AcDbPolyline
 62
2
  6
CONTINUOUS
 90
10
 70
0
 10
350.8088452148
 20
40.0239257812
 10
351.0588354492
 20
39.7739291382
 10
352.0588476563
 20
39.7739291382
 10
352.558828125
 20
40.273928833
 10
352.558828125
 20
40.7739285278
 10
350.8088452148
 20
42.2739276123
 10
350.8088452148
 20
42.7739273071
 10
351.3088513184
 20
43.273927002
 10
352.3088378906
 20
43.273927002
 10
352.558828125
 20
43.0239239502
  0
LWPOLYLINE
  5
29C
100
AcDbEntity
  8
0
100
AcDbPolyline
 62
2
  6
CONTINUOUS
 90
6
 70
0
 10
354.8088427734
 20
39.7739291382
 10
353.8088305664
 20
39.7739291382
 10
353.558840332
 20
40.0239257812
 10
353.558840332
 20
42.0239245605
 10
353.8088305664
 20
42.2739276123
 10
354.8088427734
 20
42.2739276123
  0
LWPOLYLINE
  5
29D
100
AcDbEntity
  8
0
100
AcDbPolyline
 62
2
  6
CONTINUOUS
 90
4
 70
0
 10
357.3088476563
 20
39.7739291382
 10
357.3088476563
 20
41.7739279175
 10
357.0588317871
 20
42.2739276123
 10
355.8088293457
 20
42.2739276123
  0
LWPOLYLINE
  5
29E
100
AcDbEntity
  8
0
100
AcDbPolyline
 62
2
  6
CONTINUOUS
 90
6
 70
0
 10
357.3088476563
 20
39.7739291382
 10
356.3088354492
 20
39.7739291382
 10
355.8088293457
 20
40.0239257812
 10
355.8088293457
 20
40.7739285278
 10
356.3088354492
 20
41.0239251709
 10
357.3088476563
 20
41.0239251709
  0
LWPOLYLINE
  5
29F
100
AcDbEntity
  8
0
100
AcDbPolyline
 62
2
  6
CONTINUOUS
 90
4
 70
0
 10
359.0588305664
 20
39.7739291382
 10
358.5588500977
 20
39.7739291382
 10
358.3088342285
 20
40.0239257812
 10
358.3088342285
 20
43.273927002
  0
LWPOLYLINE
  5
2A0
100
AcDbEntity
  8
0
100
AcDbPolyline
 62
2
  6
CONTINUOUS
 90
9
 70
0
 10
361.5588354492
 20
39.7739291382
 10
360.558848877
 20
39.7739291382
 10
360.0588427734
 20
40.273928833
 10
360.0588427734
 20
41.7739279175
 10
360.558848877
 20
42.2739276123
 10
361.0588293457
 20
42.2739276123
 10
361.5588354492
 20
41.7739279175
 10
361.5588354492
 20
41.0239251709
 10
360.0588427734
 20
41.0239251709
  0
LWPOLYLINE
  5
2A1
100
AcDbEntity
  8
0
100
AcDbPolyline
 62
2
  6
CONTINUOUS
 90
4
 70
0
 10
362.5588476563
 20
39.7739291382
 10
362.5588476563
 20
40.0239257812
 10
362.7254992676
 20
40.0239257812
 10
362.5588476563
 20
39.7739291382
  0
LWPOLYLINE
  5
2A2
100
AcDbEntity
  8
0
100
AcDbPolyline
 62
2
  6
CONTINUOUS
 90
4
 70
0
 10
362.5588476563
 20
41.2739282227
 10
362.5588476563
 20
41.5239248657
 10
362.7254992676
 20
41.5239248657
 10
362.5588476563
 20
41.2739282227
  0
LWPOLYLINE
  5
2A3
100
AcDbEntity
  8
0
100
AcDbPolyline
 62
2
  6
CONTINUOUS
 90
3
 70
0
 10
363.8088500977
 20
42.2739276123
 10
364.8088366699
 20
43.273927002
 10
364.8088366699
 20
39.7739291382
  0
LWPOLYLINE
  5
2A4
100
AcDbEntity
  8
0
100
AcDbPolyline
 62
2
  6
CONTINUOUS
 90
4
 70
0
 10
365.808848877
 20
39.7739291382
 10
365.808848877
 20
40.0239257812
 10
365.9755004883
 20
40.0239257812
 10
365.808848877
 20
39.7739291382
  0
LWPOLYLINE
  5
2A5
100
AcDbEntity
  8
0
100
AcDbPolyline
 62
2
  6
CONTINUOUS
 90
4
 70
0
 10
365.808848877
 20
41.2739282227
 10
365.808848877
 20
41.5239248657
 10
365.9755004883
 20
41.5239248657
 10
365.808848877
 20
41.2739282227
  0
LWPOLYLINE
  5
2A6
100
AcDbEntity
  8
0
100
AcDbPolyline
 62
2
  6
CONTINUOUS
 90
3
 70
0
 10
367.0588513184
 20
42.2739276123
 10
368.0588378906
 20
43.273927002
 10
368.0588378906
 20
39.7739291382
  0
LWPOLYLINE
  5
2A7
100
AcDbEntity
  8
0
100
AcDbPolyline
 62
2
  6
CONTINUOUS
 90
3
 70
0
 10
390.8088464355
 20
40.273928833
 10
391.8088330078
 20
43.7739266968
 10
392.8088452148
 20
40.273928833
  0
LINE
  5
2A8
100
AcDbEntity
  8
0
100
AcDbLine
 62
2
  6
CONTINUOUS
 10
391.142175293
 20
41.2739282227
 11
392.4755163574
 21
41.2739282227
  0
LWPOLYLINE
  5
2A9
100
AcDbEntity
  8
0
100
AcDbPolyline
 62
2
  6
CONTINUOUS
 90
6
 70
0
 10
393.8088317871
 20
40.273928833
 10
395.0588342285
 20
40.273928833
 10
395.3088500977
 20
40.5239254761
 10
395.3088500977
 20
41.7739279175
 10
394.8088439941
 20
42.2739276123
 10
394.3088378906
 20
42.2739276123
  0
LWPOLYLINE
  5
2AA
100
AcDbEntity
  8
0
100
AcDbPolyline
 62
2
  6
CONTINUOUS
 90
5
 70
0
 10
394.8088439941
 20
42.2739276123
 10
395.2255114746
 20
42.5239242554
 10
395.2255114746
 20
43.273927002
 10
394.8088439941
 20
43.7739266968
 10
393.8088317871
 20
43.7739266968
  0
LINE
  5
2AB
100
AcDbEntity
  8
0
100
AcDbLine
 62
2
  6
CONTINUOUS
 10
351.8088317871
 20
32.2739273071
 11
351.8088317871
 21
35.7739251709
  0
LINE
  5
2AC
100
AcDbEntity
  8
0
100
AcDbLine
 62
2
  6
CONTINUOUS
 10
350.8088452148
 20
35.7739251709
 11
352.8088439941
 21
35.7739251709
  0
LWPOLYLINE
  5
2AD
100
AcDbEntity
  8
0
100
AcDbPolyline
 62
2
  6
CONTINUOUS
 90
3
 70
0
 10
353.8088305664
 20
32.2739273071
 10
353.8088305664
 20
35.7739251709
 10
355.308848877
 20
35.7739251709
  0
LINE
  5
2AE
100
AcDbEntity
  8
0
100
AcDbLine
 62
2
  6
CONTINUOUS
 10
354.8088427734
 20
34.2739260864
 11
353.8088305664
 21
34.2739260864
  0
LINE
  5
2AF
100
AcDbEntity
  8
0
100
AcDbLine
 62
2
  6
CONTINUOUS
 10
353.8088305664
 20
32.2739273071
 11
355.308848877
 21
32.2739273071
  0
LINE
  5
2B0
100
AcDbEntity
  8
0
100
AcDbLine
 62
2
  6
CONTINUOUS
 10
356.3088354492
 20
32.2739273071
 11
356.3088354492
 21
35.7739251709
  0
LINE
  5
2B1
100
AcDbEntity
  8
0
100
AcDbLine
 62
2
  6
CONTINUOUS
 10
356.3088354492
 20
33.4405911255
 11
358.0588439941
 21
35.7739251709
  0
LINE
  5
2B2
100
AcDbEntity
  8
0
100
AcDbLine
 62
2
  6
CONTINUOUS
 10
357.0588317871
 20
34.2739260864
 11
358.0588439941
 21
32.2739273071
  0
LWPOLYLINE
  5
2B3
100
AcDbEntity
  8
0
100
AcDbPolyline
 62
2
  6
CONTINUOUS
 90
9
 70
0
 10
359.0588305664
 20
32.773927002
 10
359.0588305664
 20
35.2739254761
 10
359.5588366699
 20
35.7739251709
 10
360.3088330078
 20
35.7739251709
 10
360.8088391113
 20
35.2739254761
 10
360.8088391113
 20
32.773927002
 10
360.3088330078
 20
32.2739273071
 10
359.5588366699
 20
32.2739273071
 10
359.0588305664
 20
32.773927002
  0
LWPOLYLINE
  5
2B4
100
AcDbEntity
  8
0
100
AcDbPolyline
 62
2
  6
CONTINUOUS
 90
8
 70
0
 10
364.5588464355
 20
32.2739273071
 10
365.5588330078
 20
32.2739273071
 10
366.0588391113
 20
32.773927002
 10
366.0588391113
 20
33.7739263916
 10
365.5588330078
 20
34.2739260864
 10
364.5588464355
 20
34.2739260864
 10
364.5588464355
 20
35.7739251709
 10
366.0588391113
 20
35.7739251709
  0
LWPOLYLINE
  5
2B5
100
AcDbEntity
  8
0
100
AcDbPolyline
 62
2
  6
CONTINUOUS
 90
9
 70
0
 10
367.8088476563
 20
32.8572592163
 10
367.8921606445
 20
32.6905947876
 10
367.8921606445
 20
32.6072625732
 10
367.8088476563
 20
32.4405917358
 10
367.6421704102
 20
32.4405917358
 10
367.5588317871
 20
32.6072625732
 10
367.5588317871
 20
32.6905947876
 10
367.6421704102
 20
32.8572592163
 10
367.8088476563
 20
32.8572592163
  0
LWPOLYLINE
  5
2B6
100
AcDbEntity
  8
0
100
AcDbPolyline
 62
2
  6
CONTINUOUS
 90
3
 70
0
 10
369.0588500977
 20
34.7739257812
 10
370.0588366699
 20
35.7739251709
 10
370.0588366699
 20
32.2739273071
  0
LWPOLYLINE
  5
2B7
100
AcDbEntity
  8
0
100
AcDbPolyline
 62
2
  6
CONTINUOUS
 90
10
 70
0
 10
374.3088500977
 20
32.2739273071
 10
375.3088366699
 20
33.2739266968
 10
375.5588525391
 20
34.2739260864
 10
375.5588525391
 20
35.2739254761
 10
375.0588464355
 20
35.7739251709
 10
374.3088500977
 20
35.7739251709
 10
373.8088439941
 20
35.2739254761
 10
373.8088439941
 20
34.2739260864
 10
374.3088500977
 20
33.7739263916
 10
375.392175293
 20
33.7739263916
  0
LWPOLYLINE
  5
2B8
100
AcDbEntity
  8
0
100
AcDbPolyline
 62
2
  6
CONTINUOUS
 90
5
 70
0
 10
376.5588391113
 20
35.7739251709
 10
377.3088354492
 20
32.2739273071
 10
378.0588317871
 20
34.7739257812
 10
378.808828125
 20
32.2739273071
 10
379.5588500977
 20
35.7739251709
  0
LWPOLYLINE
  5
2B9
100
AcDbEntity
  8
0
100
AcDbPolyline
 62
2
  6
CONTINUOUS
 90
7
 70
0
 10
351.2850366211
 20
25.2739251709
 10
351.2850366211
 20
27.7739300537
 10
352.1778955078
 20
27.7739300537
 10
352.5350390625
 20
27.416786499
 10
352.5350390625
 20
25.6310687256
 10
352.1778955078
 20
25.2739251709
 10
351.2850366211
 20
25.2739251709
  0
LWPOLYLINE
  5
2BA
100
AcDbEntity
  8
0
100
AcDbPolyline
 62
2
  6
CONTINUOUS
 90
3
 70
0
 10
353.5469458008
 20
25.2739251709
 10
354.2612329102
 20
27.7739300537
 10
354.9754943848
 20
25.2739251709
  0
LINE
  5
2BB
100
AcDbEntity
  8
0
100
AcDbLine
 62
2
  6
CONTINUOUS
 10
353.7850415039
 20
25.9882122803
 11
354.7373986816
 21
25.9882122803
  0
LINE
  5
2BC
100
AcDbEntity
  8
0
100
AcDbLine
 62
2
  6
CONTINUOUS
 10
356.4040686035
 20
25.2739251709
 11
356.4040686035
 21
27.7739300537
  0
LINE
  5
2BD
100
AcDbEntity
  8
0
100
AcDbLine
 62
2
  6
CONTINUOUS
 10
355.6897814941
 20
27.7739300537
 11
357.1183557129
 21
27.7739300537
  0
LWPOLYLINE
  5
2BE
100
AcDbEntity
  8
0
100
AcDbPolyline
 62
2
  6
CONTINUOUS
 90
3
 70
0
 10
357.8326428223
 20
25.2739251709
 10
357.8326428223
 20
27.7739300537
 10
358.9040734863
 20
27.7739300537
  0
LINE
  5
2BF
100
AcDbEntity
  8
0
100
AcDbLine
 62
2
  6
CONTINUOUS
 10
358.5469299316
 20
26.7024993896
 11
357.8326428223
 21
26.7024993896
  0
LINE
  5
2C0
100
AcDbEntity
  8
0
100
AcDbLine
 62
2
  6
CONTINUOUS
 10
357.8326428223
 20
25.2739251709
 11
358.9040734863
 21
25.2739251709
  0
LWPOLYLINE
  5
2C1
100
AcDbEntity
  8
0
100
AcDbPolyline
 62
2
  6
CONTINUOUS
 90
4
 70
0
 10
359.6183605957
 20
25.2739251709
 10
359.6183605957
 20
25.4524969482
 10
359.7374084473
 20
25.4524969482
 10
359.6183605957
 20
25.2739251709
  0
LWPOLYLINE
  5
2C2
100
AcDbEntity
  8
0
100
AcDbPolyline
 62
2
  6
CONTINUOUS
 90
4
 70
0
 10
359.6183605957
 20
26.345355835
 10
359.6183605957
 20
26.5239276123
 10
359.7374084473
 20
26.5239276123
 10
359.6183605957
 20
26.345355835
  0
LWPOLYLINE
  5
2C3
100
AcDbEntity
  8
0
100
AcDbPolyline
 62
2
  6
CONTINUOUS
 90
7
 70
0
 10
361.7612219238
 20
25.2739251709
 10
360.5112194824
 20
25.2739251709
 10
361.7612219238
 20
27.0596429443
 10
361.7612219238
 20
27.416786499
 10
361.4040783691
 20
27.7739300537
 10
360.8683630371
 20
27.7739300537
 10
360.5112194824
 20
27.2382147217
  0
LWPOLYLINE
  5
2C4
100
AcDbEntity
  8
0
100
AcDbPolyline
 62
2
  6
CONTINUOUS
 90
4
 70
0
 10
362.4755090332
 20
27.2382147217
 10
362.4755090332
 20
27.7739300537
 10
363.7255114746
 20
27.7739300537
 10
363.0112243652
 20
25.2739251709
  0
LINE
  5
2C5
100
AcDbEntity
  8
0
100
AcDbLine
 62
2
  6
CONTINUOUS
 10
365.8683728027
 20
27.5358343506
 11
364.439798584
 21
25.3334490967
  0
LWPOLYLINE
  5
2C6
100
AcDbEntity
  8
0
100
AcDbPolyline
 62
2
  6
CONTINUOUS
 90
13
 70
0
 10
366.344564209
 20
25.9882122803
 10
366.344564209
 20
27.0596429443
 10
366.5231359863
 20
27.416786499
 10
366.880279541
 20
27.7739300537
 10
367.0588513184
 20
27.7739300537
 10
367.415994873
 20
27.416786499
 10
367.5945666504
 20
27.0596429443
 10
367.5945666504
 20
25.9882122803
 10
367.415994873
 20
25.6310687256
 10
367.0588513184
 20
25.2739251709
 10
366.880279541
 20
25.2739251709
 10
366.5231359863
 20
25.6310687256
 10
366.344564209
 20
25.9882122803
  0
LWPOLYLINE
  5
2C7
100
AcDbEntity
  8
0
100
AcDbPolyline
 62
2
  6
CONTINUOUS
 90
7
 70
0
 10
369.5588305664
 20
25.2739251709
 10
368.308828125
 20
25.2739251709
 10
369.5588305664
 20
27.0596429443
 10
369.5588305664
 20
27.416786499
 10
369.2016870117
 20
27.7739300537
 10
368.6659716797
 20
27.7739300537
 10
368.308828125
 20
27.2382147217
  0
LINE
  5
2C8
100
AcDbEntity
  8
0
100
AcDbLine
 62
2
  6
CONTINUOUS
 10
371.7016918945
 20
27.5358343506
 11
370.2731176758
 21
25.3334490967
  0
LWPOLYLINE
  5
2C9
100
AcDbEntity
  8
0
100
AcDbPolyline
 62
2
  6
CONTINUOUS
 90
7
 70
0
 10
373.4278857422
 20
25.2739251709
 10
372.1778833008
 20
25.2739251709
 10
373.4278857422
 20
27.0596429443
 10
373.4278857422
 20
27.416786499
 10
373.0707421875
 20
27.7739300537
 10
372.5350268555
 20
27.7739300537
 10
372.1778833008
 20
27.2382147217
  0
LWPOLYLINE
  5
2CA
100
AcDbEntity
  8
0
100
AcDbPolyline
 62
2
  6
CONTINUOUS
 90
13
 70
0
 10
374.1421728516
 20
25.9882122803
 10
374.1421728516
 20
27.0596429443
 10
374.3207446289
 20
27.416786499
 10
374.6778881836
 20
27.7739300537
 10
374.8564599609
 20
27.7739300537
 10
375.2136035156
 20
27.416786499
 10
375.392175293
 20
27.0596429443
 10
375.392175293
 20
25.9882122803
 10
375.2136035156
 20
25.6310687256
 10
374.8564599609
 20
25.2739251709
 10
374.6778881836
 20
25.2739251709
 10
374.3207446289
 20
25.6310687256
 10
374.1421728516
 20
25.9882122803
  0
LWPOLYLINE
  5
2CB
100
AcDbEntity
  8
0
100
AcDbPolyline
 62
2
  6
CONTINUOUS
 90
3
 70
0
 10
376.1064624023
 20
27.0596429443
 10
376.8207495117
 20
27.7739300537
 10
376.8207495117
 20
25.2739251709
  0
LWPOLYLINE
  5
2CC
100
AcDbEntity
  8
0
100
AcDbPolyline
 62
2
  6
CONTINUOUS
 90
8
 70
0
 10
377.5350366211
 20
25.2739251709
 10
378.2493237305
 20
25.2739251709
 10
378.6064672852
 20
25.6310687256
 10
378.6064672852
 20
26.345355835
 10
378.2493237305
 20
26.7024993896
 10
377.5350366211
 20
26.7024993896
 10
377.5350366211
 20
27.7739300537
 10
378.6064672852
 20
27.7739300537
  0
LWPOLYLINE
  5
2CD
100
AcDbEntity
  8
0
100
AcDbPolyline
 62
2
  6
CONTINUOUS
 90
3
 70
0
 10
321.1036889648
 20
20.4239268494
 10
321.5950817871
 20
22.273927002
 10
322.0865002441
 20
20.4239268494
  0
LINE
  5
2CE
100
AcDbEntity
  8
0
100
AcDbLine
 62
2
  6
CONTINUOUS
 10
321.3002563477
 20
21.0405935669
 11
321.8899328613
 21
21.0405935669
  0
LINE
  5
2CF
100
AcDbEntity
  8
0
100
AcDbLine
 62
2
  6
CONTINUOUS
 10
322.8727441406
 20
20.4239268494
 11
322.8727441406
 21
21.6572602844
  0
LWPOLYLINE
  5
2D0
100
AcDbEntity
  8
0
100
AcDbPolyline
 62
2
  6
CONTINUOUS
 90
5
 70
0
 10
322.8727441406
 20
21.3489285278
 10
323.0693115234
 20
21.6572602844
 10
323.2658789063
 20
21.6572602844
 10
323.4624462891
 20
21.3489285278
 10
323.4624462891
 20
20.4239268494
  0
LWPOLYLINE
  5
2D1
100
AcDbEntity
  8
0
100
AcDbPolyline
 62
2
  6
CONTINUOUS
 90
5
 70
0
 10
324.346973877
 20
21.6572602844
 10
324.7400830078
 20
20.5780943298
 10
324.6417993164
 20
20.1155950928
 10
324.4452575684
 20
19.8072601318
 10
324.2486901855
 20
19.8072601318
  0
LINE
  5
2D2
100
AcDbEntity
  8
0
100
AcDbLine
 62
2
  6
CONTINUOUS
 10
324.7400830078
 20
20.5780943298
 11
325.1332177734
 21
21.6572602844
  0
LINE
  5
2D3
100
AcDbEntity
  8
0
100
AcDbLine
 62
2
  6
CONTINUOUS
 10
327.8850842285
 20
22.273927002
 11
327.8850842285
 21
22.1197595215
  0
LINE
  5
2D4
100
AcDbEntity
  8
0
100
AcDbLine
 62
2
  6
CONTINUOUS
 10
327.8850842285
 20
21.6572602844
 11
327.8850842285
 21
20.4239268494
  0
LINE
  5
2D5
100
AcDbEntity
  8
0
100
AcDbLine
 62
2
  6
CONTINUOUS
 10
329.162746582
 20
20.4239268494
 11
329.162746582
 21
21.6572602844
  0
LWPOLYLINE
  5
2D6
100
AcDbEntity
  8
0
100
AcDbPolyline
 62
2
  6
CONTINUOUS
 90
5
 70
0
 10
329.162746582
 20
21.3489285278
 10
329.3593139648
 20
21.6572602844
 10
329.5558813477
 20
21.6572602844
 10
329.7524230957
 20
21.3489285278
 10
329.7524230957
 20
20.4239268494
  0
LINE
  5
2D7
100
AcDbEntity
  8
0
100
AcDbLine
 62
2
  6
CONTINUOUS
 10
331.0300854492
 20
20.4239268494
 11
331.0300854492
 21
22.273927002
  0
LINE
  5
2D8
100
AcDbEntity
  8
0
100
AcDbLine
 62
2
  6
CONTINUOUS
 10
330.735234375
 20
21.503092804
 11
331.3249365234
 21
21.503092804
  0
LWPOLYLINE
  5
2D9
100
AcDbEntity
  8
0
100
AcDbPolyline
 62
2
  6
CONTINUOUS
 90
11
 70
0
 10
332.8974243164
 20
20.7322618103
 10
332.799140625
 20
20.5780943298
 10
332.602598877
 20
20.4239268494
 10
332.4060314941
 20
20.5780943298
 10
332.2094641113
 20
20.8864260864
 10
332.2094641113
 20
21.1947610474
 10
332.4060314941
 20
21.503092804
 10
332.602598877
 20
21.6572602844
 10
332.799140625
 20
21.503092804
 10
332.8974243164
 20
21.1947610474
 10
332.2094641113
 20
21.1947610474
  0
LWPOLYLINE
  5
2DA
100
AcDbEntity
  8
0
100
AcDbPolyline
 62
2
  6
CONTINUOUS
 90
10
 70
0
 10
334.5682214355
 20
20.8864260864
 10
334.3716540527
 20
20.5780943298
 10
334.1750866699
 20
20.4239268494
 10
333.9785192871
 20
20.5780943298
 10
333.7819775391
 20
20.8864260864
 10
333.7819775391
 20
21.1947610474
 10
333.9785192871
 20
21.503092804
 10
334.1750866699
 20
21.6572602844
 10
334.3716540527
 20
21.503092804
 10
334.5682214355
 20
21.1947610474
  0
LWPOLYLINE
  5
2DB
100
AcDbEntity
  8
0
100
AcDbPolyline
 62
2
  6
CONTINUOUS
 90
6
 70
0
 10
334.5682214355
 20
21.6572602844
 10
334.5682214355
 20
20.2697593689
 10
334.4699377441
 20
19.9614276123
 10
334.3716540527
 20
19.8072601318
 10
333.9785192871
 20
19.8072601318
 10
333.8802355957
 20
19.9614276123
  0
LINE
  5
2DC
100
AcDbEntity
  8
0
100
AcDbLine
 62
2
  6
CONTINUOUS
 10
335.4527490234
 20
20.4239268494
 11
335.4527490234
 21
21.6572602844
  0
LWPOLYLINE
  5
2DD
100
AcDbEntity
  8
0
100
AcDbPolyline
 62
2
  6
CONTINUOUS
 90
4
 70
0
 10
335.4527490234
 20
21.3489285278
 10
335.6493164062
 20
21.6572602844
 10
335.8458837891
 20
21.6572602844
 10
335.9441418457
 20
21.503092804
  0
LWPOLYLINE
  5
2DE
100
AcDbEntity
  8
0
100
AcDbPolyline
 62
2
  6
CONTINUOUS
 90
10
 70
0
 10
337.7132226562
 20
20.8864260864
 10
337.5166552734
 20
20.5780943298
 10
337.3200878906
 20
20.4239268494
 10
337.1235205078
 20
20.5780943298
 10
336.926953125
 20
20.8864260864
 10
336.926953125
 20
21.1947610474
 10
337.1235205078
 20
21.503092804
 10
337.3200878906
 20
21.6572602844
 10
337.5166552734
 20
21.503092804
 10
337.7132226562
 20
21.1947610474
  0
LINE
  5
2DF
100
AcDbEntity
  8
0
100
AcDbLine
 62
2
  6
CONTINUOUS
 10
337.7132226562
 20
21.6572602844
 11
337.7132226562
 21
20.4239268494
  0
LINE
  5
2E0
100
AcDbEntity
  8
0
100
AcDbLine
 62
2
  6
CONTINUOUS
 10
338.8926013184
 20
20.4239268494
 11
338.8926013184
 21
22.273927002
  0
LWPOLYLINE
  5
2E1
100
AcDbEntity
  8
0
100
AcDbPolyline
 62
2
  6
CONTINUOUS
 90
11
 70
0
 10
342.4307116699
 20
20.8864260864
 10
342.2341442871
 20
20.5780943298
 10
342.0376025391
 20
20.4239268494
 10
341.8410351562
 20
20.5780943298
 10
341.6444677734
 20
20.8864260864
 10
341.6444677734
 20
21.1947610474
 10
341.8410351562
 20
21.503092804
 10
342.0376025391
 20
21.6572602844
 10
342.2341442871
 20
21.503092804
 10
342.4307116699
 20
21.1947610474
 10
342.4307116699
 20
20.8864260864
  0
LINE
  5
2E2
100
AcDbEntity
  8
0
100
AcDbLine
 62
2
  6
CONTINUOUS
 10
343.3152392578
 20
20.4239268494
 11
343.3152392578
 21
21.6572602844
  0
LWPOLYLINE
  5
2E3
100
AcDbEntity
  8
0
100
AcDbPolyline
 62
2
  6
CONTINUOUS
 90
4
 70
0
 10
343.3152392578
 20
21.3489285278
 10
343.5118066406
 20
21.6572602844
 10
343.7083740234
 20
21.6572602844
 10
343.8066577148
 20
21.503092804
  0
LWPOLYLINE
  5
2E4
100
AcDbEntity
  8
0
100
AcDbPolyline
 62
2
  6
CONTINUOUS
 90
10
 70
0
 10
346.3619567871
 20
21.1947610474
 10
346.5585241699
 20
21.503092804
 10
346.7550915527
 20
21.6572602844
 10
346.9516589355
 20
21.503092804
 10
347.1482263184
 20
21.1947610474
 10
347.1482263184
 20
20.8864260864
 10
346.9516589355
 20
20.5780943298
 10
346.7550915527
 20
20.4239268494
 10
346.5585241699
 20
20.4239268494
 10
346.3619567871
 20
20.8864260864
  0
LINE
  5
2E5
100
AcDbEntity
  8
0
100
AcDbLine
 62
2
  6
CONTINUOUS
 10
346.3619567871
 20
21.6572602844
 11
346.3619567871
 21
19.8072601318
  0
LWPOLYLINE
  5
2E6
100
AcDbEntity
  8
0
100
AcDbPolyline
 62
2
  6
CONTINUOUS
 90
10
 70
0
 10
348.7207141113
 20
20.8864260864
 10
348.5241467285
 20
20.5780943298
 10
348.3275793457
 20
20.4239268494
 10
348.1310375977
 20
20.5780943298
 10
347.9344702148
 20
20.8864260864
 10
347.9344702148
 20
21.1947610474
 10
348.1310375977
 20
21.503092804
 10
348.3275793457
 20
21.6572602844
 10
348.5241467285
 20
21.503092804
 10
348.7207141113
 20
21.1947610474
  0
LINE
  5
2E7
100
AcDbEntity
  8
0
100
AcDbLine
 62
2
  6
CONTINUOUS
 10
348.7207141113
 20
21.6572602844
 11
348.7207141113
 21
20.4239268494
  0
LINE
  5
2E8
100
AcDbEntity
  8
0
100
AcDbLine
 62
2
  6
CONTINUOUS
 10
349.6052416992
 20
20.4239268494
 11
349.6052416992
 21
21.6572602844
  0
LWPOLYLINE
  5
2E9
100
AcDbEntity
  8
0
100
AcDbPolyline
 62
2
  6
CONTINUOUS
 90
4
 70
0
 10
349.6052416992
 20
21.3489285278
 10
349.801809082
 20
21.6572602844
 10
349.9983764648
 20
21.6572602844
 10
350.0966601562
 20
21.503092804
  0
LINE
  5
2EA
100
AcDbEntity
  8
0
100
AcDbLine
 62
2
  6
CONTINUOUS
 10
351.4725805664
 20
20.4239268494
 11
351.4725805664
 21
22.273927002
  0
LINE
  5
2EB
100
AcDbEntity
  8
0
100
AcDbLine
 62
2
  6
CONTINUOUS
 10
351.177755127
 20
21.503092804
 11
351.7674316406
 21
21.503092804
  0
LINE
  5
2EC
100
AcDbEntity
  8
0
100
AcDbLine
 62
2
  6
CONTINUOUS
 10
353.0450939941
 20
22.273927002
 11
353.0450939941
 21
22.1197595215
  0
LINE
  5
2ED
100
AcDbEntity
  8
0
100
AcDbLine
 62
2
  6
CONTINUOUS
 10
353.0450939941
 20
21.6572602844
 11
353.0450939941
 21
20.4239268494
  0
LWPOLYLINE
  5
2EE
100
AcDbEntity
  8
0
100
AcDbPolyline
 62
2
  6
CONTINUOUS
 90
10
 70
0
 10
355.0107165527
 20
20.8864260864
 10
354.8141491699
 20
20.5780943298
 10
354.6175817871
 20
20.4239268494
 10
354.4210400391
 20
20.5780943298
 10
354.2244726562
 20
20.8864260864
 10
354.2244726562
 20
21.1947610474
 10
354.4210400391
 20
21.503092804
 10
354.6175817871
 20
21.6572602844
 10
354.8141491699
 20
21.503092804
 10
355.0107165527
 20
21.1947610474
  0
LINE
  5
2EF
100
AcDbEntity
  8
0
100
AcDbLine
 62
2
  6
CONTINUOUS
 10
355.0107165527
 20
21.6572602844
 11
355.0107165527
 21
20.4239268494
  0
LINE
  5
2F0
100
AcDbEntity
  8
0
100
AcDbLine
 62
2
  6
CONTINUOUS
 10
356.1900952148
 20
20.4239268494
 11
356.1900952148
 21
22.273927002
  0
LINE
  5
2F1
100
AcDbEntity
  8
0
100
AcDbLine
 62
2
  6
CONTINUOUS
 10
359.0402453613
 20
20.4239268494
 11
359.0402453613
 21
21.6572602844
  0
LWPOLYLINE
  5
2F2
100
AcDbEntity
  8
0
100
AcDbPolyline
 62
2
  6
CONTINUOUS
 90
4
 70
0
 10
359.0402453613
 20
21.3489285278
 10
359.2368127441
 20
21.6572602844
 10
359.433380127
 20
21.6572602844
 10
359.5316638184
 20
21.503092804
  0
LWPOLYLINE
  5
2F3
100
AcDbEntity
  8
0
100
AcDbPolyline
 62
2
  6
CONTINUOUS
 90
11
 70
0
 10
361.2024353027
 20
20.7322618103
 10
361.1041516113
 20
20.5780943298
 10
360.9075842285
 20
20.4239268494
 10
360.7110168457
 20
20.5780943298
 10
360.5144750977
 20
20.8864260864
 10
360.5144750977
 20
21.1947610474
 10
360.7110168457
 20
21.503092804
 10
360.9075842285
 20
21.6572602844
 10
361.1041516113
 20
21.503092804
 10
361.2024353027
 20
21.1947610474
 10
360.5144750977
 20
21.1947610474
  0
LWPOLYLINE
  5
2F4
100
AcDbEntity
  8
0
100
AcDbPolyline
 62
2
  6
CONTINUOUS
 90
10
 70
0
 10
362.0869628906
 20
21.1947610474
 10
362.2835302734
 20
21.503092804
 10
362.4800976562
 20
21.6572602844
 10
362.6766650391
 20
21.503092804
 10
362.8732067871
 20
21.1947610474
 10
362.8732067871
 20
20.8864260864
 10
362.6766650391
 20
20.5780943298
 10
362.4800976562
 20
20.4239268494
 10
362.2835302734
 20
20.4239268494
 10
362.0869628906
 20
20.8864260864
  0
LINE
  5
2F5
100
AcDbEntity
  8
0
100
AcDbLine
 62
2
  6
CONTINUOUS
 10
362.0869628906
 20
21.6572602844
 11
362.0869628906
 21
19.8072601318
  0
LINE
  5
2F6
100
AcDbEntity
  8
0
100
AcDbLine
 62
2
  6
CONTINUOUS
 10
363.757734375
 20
20.4239268494
 11
363.757734375
 21
21.6572602844
  0
LWPOLYLINE
  5
2F7
100
AcDbEntity
  8
0
100
AcDbPolyline
 62
2
  6
CONTINUOUS
 90
4
 70
0
 10
363.757734375
 20
21.3489285278
 10
363.9543017578
 20
21.6572602844
 10
364.1508691406
 20
21.6572602844
 10
364.249152832
 20
21.503092804
  0
LWPOLYLINE
  5
2F8
100
AcDbEntity
  8
0
100
AcDbPolyline
 62
2
  6
CONTINUOUS
 90
11
 70
0
 10
366.0182080078
 20
20.8864260864
 10
365.821640625
 20
20.5780943298
 10
365.625098877
 20
20.4239268494
 10
365.4285314941
 20
20.5780943298
 10
365.2319641113
 20
20.8864260864
 10
365.2319641113
 20
21.1947610474
 10
365.4285314941
 20
21.503092804
 10
365.625098877
 20
21.6572602844
 10
365.821640625
 20
21.503092804
 10
366.0182080078
 20
21.1947610474
 10
366.0182080078
 20
20.8864260864
  0
LWPOLYLINE
  5
2F9
100
AcDbEntity
  8
0
100
AcDbPolyline
 62
2
  6
CONTINUOUS
 90
10
 70
0
 10
367.5907214355
 20
20.8864260864
 10
367.3941540527
 20
20.5780943298
 10
367.1975866699
 20
20.4239268494
 10
367.0010192871
 20
20.5780943298
 10
366.8044775391
 20
20.8864260864
 10
366.8044775391
 20
21.1947610474
 10
367.0010192871
 20
21.503092804
 10
367.1975866699
 20
21.6572602844
 10
367.3941540527
 20
21.503092804
 10
367.5907214355
 20
21.1947610474
  0
LINE
  5
2FA
100
AcDbEntity
  8
0
100
AcDbLine
 62
2
  6
CONTINUOUS
 10
367.5907214355
 20
22.273927002
 11
367.5907214355
 21
20.4239268494
  0
LWPOLYLINE
  5
2FB
100
AcDbEntity
  8
0
100
AcDbPolyline
 62
2
  6
CONTINUOUS
 90
5
 70
0
 10
368.4752490234
 20
21.6572602844
 10
368.4752490234
 20
20.7322618103
 10
368.6718164063
 20
20.4239268494
 10
368.8683837891
 20
20.4239268494
 10
369.0649255371
 20
20.7322618103
  0
LINE
  5
2FC
100
AcDbEntity
  8
0
100
AcDbLine
 62
2
  6
CONTINUOUS
 10
369.0649255371
 20
21.6572602844
 11
369.0649255371
 21
20.4239268494
  0
LWPOLYLINE
  5
2FD
100
AcDbEntity
  8
0
100
AcDbPolyline
 62
2
  6
CONTINUOUS
 90
8
 70
0
 10
370.5391552734
 20
20.5780943298
 10
370.3425878906
 20
20.4239268494
 10
370.1460205078
 20
20.5780943298
 10
369.949453125
 20
20.8864260864
 10
369.949453125
 20
21.1947610474
 10
370.1460205078
 20
21.503092804
 10
370.3425878906
 20
21.6572602844
 10
370.5391552734
 20
21.503092804
  0
LINE
  5
2FE
100
AcDbEntity
  8
0
100
AcDbLine
 62
2
  6
CONTINUOUS
 10
371.9151013184
 20
20.4239268494
 11
371.9151013184
 21
22.273927002
  0
LINE
  5
2FF
100
AcDbEntity
  8
0
100
AcDbLine
 62
2
  6
CONTINUOUS
 10
371.6202502441
 20
21.503092804
 11
372.2099267578
 21
21.503092804
  0
LINE
  5
300
100
AcDbEntity
  8
0
100
AcDbLine
 62
2
  6
CONTINUOUS
 10
373.4875891113
 20
22.273927002
 11
373.4875891113
 21
22.1197595215
  0
LINE
  5
301
100
AcDbEntity
  8
0
100
AcDbLine
 62
2
  6
CONTINUOUS
 10
373.4875891113
 20
21.6572602844
 11
373.4875891113
 21
20.4239268494
  0
LWPOLYLINE
  5
302
100
AcDbEntity
  8
0
100
AcDbPolyline
 62
2
  6
CONTINUOUS
 90
11
 70
0
 10
375.4532116699
 20
20.8864260864
 10
375.2566442871
 20
20.5780943298
 10
375.0601025391
 20
20.4239268494
 10
374.8635351563
 20
20.5780943298
 10
374.6669677734
 20
20.8864260864
 10
374.6669677734
 20
21.1947610474
 10
374.8635351563
 20
21.503092804
 10
375.0601025391
 20
21.6572602844
 10
375.2566442871
 20
21.503092804
 10
375.4532116699
 20
21.1947610474
 10
375.4532116699
 20
20.8864260864
  0
LINE
  5
303
100
AcDbEntity
  8
0
100
AcDbLine
 62
2
  6
CONTINUOUS
 10
376.3377392578
 20
20.4239268494
 11
376.3377392578
 21
21.6572602844
  0
LWPOLYLINE
  5
304
100
AcDbEntity
  8
0
100
AcDbPolyline
 62
2
  6
CONTINUOUS
 90
5
 70
0
 10
376.3377392578
 20
21.3489285278
 10
376.5343066406
 20
21.6572602844
 10
376.7308740234
 20
21.6572602844
 10
376.9274414063
 20
21.3489285278
 10
376.9274414063
 20
20.4239268494
  0
LWPOLYLINE
  5
305
100
AcDbEntity
  8
0
100
AcDbPolyline
 62
2
  6
CONTINUOUS
 90
14
 70
0
 10
378.4016455078
 20
21.503092804
 10
378.3033618164
 20
21.6572602844
 10
378.1068200684
 20
21.6572602844
 10
378.008536377
 20
21.503092804
 10
378.008536377
 20
21.3489285278
 10
378.205078125
 20
21.1947610474
 10
378.4016455078
 20
21.0405935669
 10
378.4999291992
 20
20.8864260864
 10
378.4999291992
 20
20.7322618103
 10
378.4016455078
 20
20.5780943298
 10
378.3033618164
 20
20.4239268494
 10
378.1068200684
 20
20.4239268494
 10
378.008536377
 20
20.5780943298
 10
377.9102526855
 20
20.7322618103
  0
LWPOLYLINE
  5
306
100
AcDbEntity
  8
0
100
AcDbPolyline
 62
2
  6
CONTINUOUS
 90
10
 70
0
 10
381.7432141113
 20
20.8864260864
 10
381.5466467285
 20
20.5780943298
 10
381.3500793457
 20
20.4239268494
 10
381.1535375977
 20
20.5780943298
 10
380.9569702148
 20
20.8864260864
 10
380.9569702148
 20
21.1947610474
 10
381.1535375977
 20
21.503092804
 10
381.3500793457
 20
21.6572602844
 10
381.5466467285
 20
21.503092804
 10
381.7432141113
 20
21.1947610474
  0
LINE
  5
307
100
AcDbEntity
  8
0
100
AcDbLine
 62
2
  6
CONTINUOUS
 10
381.7432141113
 20
21.6572602844
 11
381.7432141113
 21
20.4239268494
  0
LINE
  5
308
100
AcDbEntity
  8
0
100
AcDbLine
 62
2
  6
CONTINUOUS
 10
382.6277416992
 20
20.4239268494
 11
382.6277416992
 21
21.6572602844
  0
LWPOLYLINE
  5
309
100
AcDbEntity
  8
0
100
AcDbPolyline
 62
2
  6
CONTINUOUS
 90
4
 70
0
 10
382.6277416992
 20
21.3489285278
 10
382.824309082
 20
21.6572602844
 10
383.0208764648
 20
21.6572602844
 10
383.1191601562
 20
21.503092804
  0
LWPOLYLINE
  5
30A
100
AcDbEntity
  8
0
100
AcDbPolyline
 62
2
  6
CONTINUOUS
 90
11
 70
0
 10
384.7899316406
 20
20.7322618103
 10
384.6916479492
 20
20.5780943298
 10
384.4950805664
 20
20.4239268494
 10
384.2985388184
 20
20.5780943298
 10
384.1019714355
 20
20.8864260864
 10
384.1019714355
 20
21.1947610474
 10
384.2985388184
 20
21.503092804
 10
384.4950805664
 20
21.6572602844
 10
384.6916479492
 20
21.503092804
 10
384.7899316406
 20
21.1947610474
 10
384.1019714355
 20
21.1947610474
  0
LWPOLYLINE
  5
30B
100
AcDbEntity
  8
0
100
AcDbPolyline
 62
2
  6
CONTINUOUS
 90
10
 70
0
 10
387.2469726562
 20
21.1947610474
 10
387.4435400391
 20
21.503092804
 10
387.6400817871
 20
21.6572602844
 10
387.8366491699
 20
21.503092804
 10
388.0332165527
 20
21.1947610474
 10
388.0332165527
 20
20.8864260864
 10
387.8366491699
 20
20.5780943298
 10
387.6400817871
 20
20.4239268494
 10
387.4435400391
 20
20.4239268494
 10
387.2469726562
 20
20.8864260864
  0
LINE
  5
30C
100
AcDbEntity
  8
0
100
AcDbLine
 62
2
  6
CONTINUOUS
 10
387.2469726562
 20
21.6572602844
 11
387.2469726562
 21
19.8072601318
  0
LINE
  5
30D
100
AcDbEntity
  8
0
100
AcDbLine
 62
2
  6
CONTINUOUS
 10
388.9177441406
 20
20.4239268494
 11
388.9177441406
 21
21.6572602844
  0
LWPOLYLINE
  5
30E
100
AcDbEntity
  8
0
100
AcDbPolyline
 62
2
  6
CONTINUOUS
 90
4
 70
0
 10
388.9177441406
 20
21.3489285278
 10
389.1143115234
 20
21.6572602844
 10
389.3108789062
 20
21.6572602844
 10
389.4091625977
 20
21.503092804
  0
LWPOLYLINE
  5
30F
100
AcDbEntity
  8
0
100
AcDbPolyline
 62
2
  6
CONTINUOUS
 90
11
 70
0
 10
391.1782177734
 20
20.8864260864
 10
390.9816503906
 20
20.5780943298
 10
390.7850830078
 20
20.4239268494
 10
390.588515625
 20
20.5780943298
 10
390.391973877
 20
20.8864260864
 10
390.391973877
 20
21.1947610474
 10
390.588515625
 20
21.503092804
 10
390.7850830078
 20
21.6572602844
 10
390.9816503906
 20
21.503092804
 10
391.1782177734
 20
21.1947610474
 10
391.1782177734
 20
20.8864260864
  0
LINE
  5
310
100
AcDbEntity
  8
0
100
AcDbLine
 62
2
  6
CONTINUOUS
 10
392.0627453613
 20
20.4239268494
 11
392.0627453613
 21
22.273927002
  0
LWPOLYLINE
  5
311
100
AcDbEntity
  8
0
100
AcDbPolyline
 62
2
  6
CONTINUOUS
 90
7
 70
0
 10
392.0627453613
 20
21.3489285278
 10
392.0627453613
 20
21.503092804
 10
392.2593127441
 20
21.6572602844
 10
392.3575964355
 20
21.6572602844
 10
392.455880127
 20
21.6572602844
 10
392.652421875
 20
21.3489285278
 10
392.652421875
 20
20.4239268494
  0
LINE
  5
312
100
AcDbEntity
  8
0
100
AcDbLine
 62
2
  6
CONTINUOUS
 10
393.9300842285
 20
22.273927002
 11
393.9300842285
 21
22.1197595215
  0
LINE
  5
313
100
AcDbEntity
  8
0
100
AcDbLine
 62
2
  6
CONTINUOUS
 10
393.9300842285
 20
21.6572602844
 11
393.9300842285
 21
20.4239268494
  0
LWPOLYLINE
  5
314
100
AcDbEntity
  8
0
100
AcDbPolyline
 62
2
  6
CONTINUOUS
 90
10
 70
0
 10
395.1094628906
 20
21.1947610474
 10
395.3060302734
 20
21.503092804
 10
395.5025976562
 20
21.6572602844
 10
395.6991650391
 20
21.503092804
 10
395.8957067871
 20
21.1947610474
 10
395.8957067871
 20
20.8864260864
 10
395.6991650391
 20
20.5780943298
 10
395.5025976562
 20
20.4239268494
 10
395.3060302734
 20
20.5780943298
 10
395.1094628906
 20
20.8864260864
  0
LINE
  5
315
100
AcDbEntity
  8
0
100
AcDbLine
 62
2
  6
CONTINUOUS
 10
395.1094628906
 20
22.273927002
 11
395.1094628906
 21
20.4239268494
  0
LINE
  5
316
100
AcDbEntity
  8
0
100
AcDbLine
 62
2
  6
CONTINUOUS
 10
397.0750854492
 20
22.273927002
 11
397.0750854492
 21
22.1197595215
  0
LINE
  5
317
100
AcDbEntity
  8
0
100
AcDbLine
 62
2
  6
CONTINUOUS
 10
397.0750854492
 20
21.6572602844
 11
397.0750854492
 21
20.4239268494
  0
LINE
  5
318
100
AcDbEntity
  8
0
100
AcDbLine
 62
2
  6
CONTINUOUS
 10
398.647598877
 20
20.4239268494
 11
398.647598877
 21
22.273927002
  0
LINE
  5
319
100
AcDbEntity
  8
0
100
AcDbLine
 62
2
  6
CONTINUOUS
 10
398.3527478027
 20
21.503092804
 11
398.9424243164
 21
21.503092804
  0
LWPOLYLINE
  5
31A
100
AcDbEntity
  8
0
100
AcDbPolyline
 62
2
  6
CONTINUOUS
 90
11
 70
0
 10
400.5149377441
 20
20.7322618103
 10
400.4166540527
 20
20.5780943298
 10
400.2200866699
 20
20.4239268494
 10
400.0235192871
 20
20.5780943298
 10
399.8269775391
 20
20.8864260864
 10
399.8269775391
 20
21.1947610474
 10
400.0235192871
 20
21.503092804
 10
400.2200866699
 20
21.6572602844
 10
400.4166540527
 20
21.503092804
 10
400.5149377441
 20
21.1947610474
 10
399.8269775391
 20
21.1947610474
  0
LWPOLYLINE
  5
31B
100
AcDbEntity
  8
0
100
AcDbPolyline
 62
2
  6
CONTINUOUS
 90
10
 70
0
 10
402.1857092285
 20
20.8864260864
 10
401.9891418457
 20
20.5780943298
 10
401.7926000977
 20
20.4239268494
 10
401.5960327148
 20
20.5780943298
 10
401.399465332
 20
20.8864260864
 10
401.399465332
 20
21.1947610474
 10
401.5960327148
 20
21.503092804
 10
401.7926000977
 20
21.6572602844
 10
401.9891418457
 20
21.503092804
 10
402.1857092285
 20
21.1947610474
  0
LINE
  5
31C
100
AcDbEntity
  8
0
100
AcDbLine
 62
2
  6
CONTINUOUS
 10
402.1857092285
 20
22.273927002
 11
402.1857092285
 21
20.4239268494
  0
LWPOLYLINE
  5
31D
100
AcDbEntity
  8
0
100
AcDbPolyline
 62
2
  6
CONTINUOUS
 90
5
 70
0
 10
321.1036889648
 20
18.8822616577
 10
321.3002563477
 20
17.6489282227
 10
321.5950817871
 20
18.8822616577
 10
321.7916491699
 20
17.6489282227
 10
322.0865002441
 20
18.8822616577
  0
LINE
  5
31E
100
AcDbEntity
  8
0
100
AcDbLine
 62
2
  6
CONTINUOUS
 10
323.1675952148
 20
19.4989283752
 11
323.1675952148
 21
19.3447608948
  0
LINE
  5
31F
100
AcDbEntity
  8
0
100
AcDbLine
 62
2
  6
CONTINUOUS
 10
323.1675952148
 20
18.8822616577
 11
323.1675952148
 21
17.6489282227
  0
LINE
  5
320
100
AcDbEntity
  8
0
100
AcDbLine
 62
2
  6
CONTINUOUS
 10
324.7400830078
 20
17.6489282227
 11
324.7400830078
 21
19.4989283752
  0
LINE
  5
321
100
AcDbEntity
  8
0
100
AcDbLine
 62
2
  6
CONTINUOUS
 10
324.4452575684
 20
18.7280941772
 11
325.034934082
 21
18.7280941772
  0
LINE
  5
322
100
AcDbEntity
  8
0
100
AcDbLine
 62
2
  6
CONTINUOUS
 10
326.0177453613
 20
17.6489282227
 11
326.0177453613
 21
19.4989283752
  0
LWPOLYLINE
  5
323
100
AcDbEntity
  8
0
100
AcDbPolyline
 62
2
  6
CONTINUOUS
 90
7
 70
0
 10
326.0177453613
 20
18.5739266968
 10
326.0177453613
 20
18.7280941772
 10
326.2143127441
 20
18.8822616577
 10
326.3125964355
 20
18.8822616577
 10
326.410880127
 20
18.8822616577
 10
326.607421875
 20
18.5739266968
 10
326.607421875
 20
17.6489282227
  0
LWPOLYLINE
  5
324
100
AcDbEntity
  8
0
100
AcDbPolyline
 62
2
  6
CONTINUOUS
 90
11
 70
0
 10
328.2782189941
 20
18.1114274597
 10
328.0816516113
 20
17.8030924988
 10
327.8850842285
 20
17.6489282227
 10
327.6885168457
 20
17.8030924988
 10
327.4919750977
 20
18.1114274597
 10
327.4919750977
 20
18.4197592163
 10
327.6885168457
 20
18.7280941772
 10
327.8850842285
 20
18.8822616577
 10
328.0816516113
 20
18.7280941772
 10
328.2782189941
 20
18.4197592163
 10
328.2782189941
 20
18.1114274597
  0
LWPOLYLINE
  5
325
100
AcDbEntity
  8
0
100
AcDbPolyline
 62
2
  6
CONTINUOUS
 90
5
 70
0
 10
329.162746582
 20
18.8822616577
 10
329.162746582
 20
17.9572599792
 10
329.3593139648
 20
17.6489282227
 10
329.5558813477
 20
17.6489282227
 10
329.7524230957
 20
17.9572599792
  0
LINE
  5
326
100
AcDbEntity
  8
0
100
AcDbLine
 62
2
  6
CONTINUOUS
 10
329.7524230957
 20
18.8822616577
 11
329.7524230957
 21
17.6489282227
  0
LINE
  5
327
100
AcDbEntity
  8
0
100
AcDbLine
 62
2
  6
CONTINUOUS
 10
331.0300854492
 20
17.6489282227
 11
331.0300854492
 21
19.4989283752
  0
LINE
  5
328
100
AcDbEntity
  8
0
100
AcDbLine
 62
2
  6
CONTINUOUS
 10
330.735234375
 20
18.7280941772
 11
331.3249365234
 21
18.7280941772
  0
LWPOLYLINE
  5
329
100
AcDbEntity
  8
0
100
AcDbPolyline
 62
2
  6
CONTINUOUS
 90
10
 70
0
 10
333.7819775391
 20
18.4197592163
 10
333.9785192871
 20
18.7280941772
 10
334.1750866699
 20
18.8822616577
 10
334.3716540527
 20
18.7280941772
 10
334.5682214355
 20
18.4197592163
 10
334.5682214355
 20
18.1114274597
 10
334.3716540527
 20
17.8030924988
 10
334.1750866699
 20
17.6489282227
 10
333.9785192871
 20
17.6489282227
 10
333.7819775391
 20
18.1114274597
  0
LINE
  5
32A
100
AcDbEntity
  8
0
100
AcDbLine
 62
2
  6
CONTINUOUS
 10
333.7819775391
 20
18.8822616577
 11
333.7819775391
 21
17.0322615051
  0
LINE
  5
32B
100
AcDbEntity
  8
0
100
AcDbLine
 62
2
  6
CONTINUOUS
 10
335.4527490234
 20
17.6489282227
 11
335.4527490234
 21
18.8822616577
  0
LWPOLYLINE
  5
32C
100
AcDbEntity
  8
0
100
AcDbPolyline
 62
2
  6
CONTINUOUS
 90
4
 70
0
 10
335.4527490234
 20
18.5739266968
 10
335.6493164062
 20
18.8822616577
 10
335.8458837891
 20
18.8822616577
 10
335.9441418457
 20
18.7280941772
  0
LINE
  5
32D
100
AcDbEntity
  8
0
100
AcDbLine
 62
2
  6
CONTINUOUS
 10
337.3200878906
 20
19.4989283752
 11
337.3200878906
 21
19.3447608948
  0
LINE
  5
32E
100
AcDbEntity
  8
0
100
AcDbLine
 62
2
  6
CONTINUOUS
 10
337.3200878906
 20
18.8822616577
 11
337.3200878906
 21
17.6489282227
  0
LWPOLYLINE
  5
32F
100
AcDbEntity
  8
0
100
AcDbPolyline
 62
2
  6
CONTINUOUS
 90
11
 70
0
 10
339.2857104492
 20
18.1114274597
 10
339.0891430664
 20
17.8030924988
 10
338.8926013184
 20
17.6489282227
 10
338.6960339355
 20
17.8030924988
 10
338.4994665527
 20
18.1114274597
 10
338.4994665527
 20
18.4197592163
 10
338.6960339355
 20
18.7280941772
 10
338.8926013184
 20
18.8822616577
 10
339.0891430664
 20
18.7280941772
 10
339.2857104492
 20
18.4197592163
 10
339.2857104492
 20
18.1114274597
  0
LINE
  5
330
100
AcDbEntity
  8
0
100
AcDbLine
 62
2
  6
CONTINUOUS
 10
340.1702380371
 20
17.6489282227
 11
340.1702380371
 21
18.8822616577
  0
LWPOLYLINE
  5
331
100
AcDbEntity
  8
0
100
AcDbPolyline
 62
2
  6
CONTINUOUS
 90
4
 70
0
 10
340.1702380371
 20
18.5739266968
 10
340.3668054199
 20
18.8822616577
 10
340.5633728027
 20
18.8822616577
 10
340.6616564941
 20
18.7280941772
  0
LWPOLYLINE
  5
332
100
AcDbEntity
  8
0
100
AcDbPolyline
 62
2
  6
CONTINUOUS
 90
10
 70
0
 10
344.0032250977
 20
18.1114274597
 10
343.8066577148
 20
17.8030924988
 10
343.610090332
 20
17.6489282227
 10
343.4135229492
 20
17.8030924988
 10
343.2169555664
 20
18.1114274597
 10
343.2169555664
 20
18.4197592163
 10
343.4135229492
 20
18.7280941772
 10
343.610090332
 20
18.8822616577
 10
343.8066577148
 20
18.7280941772
 10
344.0032250977
 20
18.4197592163
  0
LINE
  5
333
100
AcDbEntity
  8
0
100
AcDbLine
 62
2
  6
CONTINUOUS
 10
344.0032250977
 20
18.8822616577
 11
344.0032250977
 21
17.6489282227
  0
LWPOLYLINE
  5
334
100
AcDbEntity
  8
0
100
AcDbPolyline
 62
2
  6
CONTINUOUS
 90
5
 70
0
 10
344.8877526855
 20
18.8822616577
 10
344.8877526855
 20
17.9572599792
 10
345.0843200684
 20
17.6489282227
 10
345.2808618164
 20
17.6489282227
 10
345.4774291992
 20
17.9572599792
  0
LINE
  5
335
100
AcDbEntity
  8
0
100
AcDbLine
 62
2
  6
CONTINUOUS
 10
345.4774291992
 20
18.8822616577
 11
345.4774291992
 21
17.6489282227
  0
LINE
  5
336
100
AcDbEntity
  8
0
100
AcDbLine
 62
2
  6
CONTINUOUS
 10
346.7550915527
 20
17.6489282227
 11
346.7550915527
 21
19.4989283752
  0
LINE
  5
337
100
AcDbEntity
  8
0
100
AcDbLine
 62
2
  6
CONTINUOUS
 10
346.4602404785
 20
18.7280941772
 11
347.049942627
 21
18.7280941772
  0
LINE
  5
338
100
AcDbEntity
  8
0
100
AcDbLine
 62
2
  6
CONTINUOUS
 10
348.0327539062
 20
17.6489282227
 11
348.0327539062
 21
19.4989283752
  0
LWPOLYLINE
  5
339
100
AcDbEntity
  8
0
100
AcDbPolyline
 62
2
  6
CONTINUOUS
 90
7
 70
0
 10
348.0327539062
 20
18.5739266968
 10
348.0327539062
 20
18.7280941772
 10
348.2293212891
 20
18.8822616577
 10
348.3275793457
 20
18.8822616577
 10
348.4258630371
 20
18.8822616577
 10
348.6224304199
 20
18.5739266968
 10
348.6224304199
 20
17.6489282227
  0
LWPOLYLINE
  5
33A
100
AcDbEntity
  8
0
100
AcDbPolyline
 62
2
  6
CONTINUOUS
 90
11
 70
0
 10
350.2932275391
 20
18.1114274597
 10
350.0966601562
 20
17.8030924988
 10
349.9000927734
 20
17.6489282227
 10
349.7035253906
 20
17.8030924988
 10
349.5069580078
 20
18.1114274597
 10
349.5069580078
 20
18.4197592163
 10
349.7035253906
 20
18.7280941772
 10
349.9000927734
 20
18.8822616577
 10
350.0966601562
 20
18.7280941772
 10
350.2932275391
 20
18.4197592163
 10
350.2932275391
 20
18.1114274597
  0
LINE
  5
33B
100
AcDbEntity
  8
0
100
AcDbLine
 62
2
  6
CONTINUOUS
 10
351.177755127
 20
17.6489282227
 11
351.177755127
 21
18.8822616577
  0
LWPOLYLINE
  5
33C
100
AcDbEntity
  8
0
100
AcDbPolyline
 62
2
  6
CONTINUOUS
 90
4
 70
0
 10
351.177755127
 20
18.5739266968
 10
351.374296875
 20
18.8822616577
 10
351.5708642578
 20
18.8822616577
 10
351.6691479492
 20
18.7280941772
  0
LINE
  5
33D
100
AcDbEntity
  8
0
100
AcDbLine
 62
2
  6
CONTINUOUS
 10
353.0450939941
 20
19.4989283752
 11
353.0450939941
 21
19.3447608948
  0
LINE
  5
33E
100
AcDbEntity
  8
0
100
AcDbLine
 62
2
  6
CONTINUOUS
 10
353.0450939941
 20
18.8822616577
 11
353.0450939941
 21
17.6489282227
  0
LWPOLYLINE
  5
33F
100
AcDbEntity
  8
0
100
AcDbPolyline
 62
2
  6
CONTINUOUS
 90
14
 70
0
 10
354.8141491699
 20
18.7280941772
 10
354.7158654785
 20
18.8822616577
 10
354.5192980957
 20
18.8822616577
 10
354.4210400391
 20
18.7280941772
 10
354.4210400391
 20
18.5739266968
 10
354.6175817871
 20
18.4197592163
 10
354.8141491699
 20
18.2655949402
 10
354.9124328613
 20
18.1114274597
 10
354.9124328613
 20
17.9572599792
 10
354.8141491699
 20
17.8030924988
 10
354.7158654785
 20
17.6489282227
 10
354.5192980957
 20
17.6489282227
 10
354.4210400391
 20
17.8030924988
 10
354.3227563477
 20
17.9572599792
  0
LWPOLYLINE
  5
340
100
AcDbEntity
  8
0
100
AcDbPolyline
 62
2
  6
CONTINUOUS
 90
10
 70
0
 10
356.5832043457
 20
18.1114274597
 10
356.3866625977
 20
17.8030924988
 10
356.1900952148
 20
17.6489282227
 10
355.993527832
 20
17.8030924988
 10
355.7969604492
 20
18.1114274597
 10
355.7969604492
 20
18.4197592163
 10
355.993527832
 20
18.7280941772
 10
356.1900952148
 20
18.8822616577
 10
356.3866625977
 20
18.7280941772
 10
356.5832043457
 20
18.4197592163
  0
LINE
  5
341
100
AcDbEntity
  8
0
100
AcDbLine
 62
2
  6
CONTINUOUS
 10
356.5832043457
 20
18.8822616577
 11
356.5832043457
 21
17.6489282227
  0
LINE
  5
342
100
AcDbEntity
  8
0
100
AcDbLine
 62
2
  6
CONTINUOUS
 10
357.7625830078
 20
17.6489282227
 11
357.7625830078
 21
19.4989283752
  0
LINE
  5
343
100
AcDbEntity
  8
0
100
AcDbLine
 62
2
  6
CONTINUOUS
 10
357.4677575684
 20
18.7280941772
 11
358.057434082
 21
18.7280941772
  0
LINE
  5
344
100
AcDbEntity
  8
0
100
AcDbLine
 62
2
  6
CONTINUOUS
 10
359.3350964355
 20
19.4989283752
 11
359.3350964355
 21
19.3447608948
  0
LINE
  5
345
100
AcDbEntity
  8
0
100
AcDbLine
 62
2
  6
CONTINUOUS
 10
359.3350964355
 20
18.8822616577
 11
359.3350964355
 21
17.6489282227
  0
LWPOLYLINE
  5
346
100
AcDbEntity
  8
0
100
AcDbPolyline
 62
2
  6
CONTINUOUS
 90
11
 70
0
 10
361.3007189941
 20
18.1114274597
 10
361.1041516113
 20
17.8030924988
 10
360.9075842285
 20
17.6489282227
 10
360.7110168457
 20
17.8030924988
 10
360.5144750977
 20
18.1114274597
 10
360.5144750977
 20
18.4197592163
 10
360.7110168457
 20
18.7280941772
 10
360.9075842285
 20
18.8822616577
 10
361.1041516113
 20
18.7280941772
 10
361.3007189941
 20
18.4197592163
 10
361.3007189941
 20
18.1114274597
  0
LINE
  5
347
100
AcDbEntity
  8
0
100
AcDbLine
 62
2
  6
CONTINUOUS
 10
362.185246582
 20
17.6489282227
 11
362.185246582
 21
18.8822616577
  0
LWPOLYLINE
  5
348
100
AcDbEntity
  8
0
100
AcDbPolyline
 62
2
  6
CONTINUOUS
 90
5
 70
0
 10
362.185246582
 20
18.5739266968
 10
362.3818139648
 20
18.8822616577
 10
362.5783813477
 20
18.8822616577
 10
362.7749230957
 20
18.5739266968
 10
362.7749230957
 20
17.6489282227
  0
LWPOLYLINE
  5
349
100
AcDbEntity
  8
0
100
AcDbPolyline
 62
2
  6
CONTINUOUS
 90
11
 70
0
 10
366.0182080078
 20
18.1114274597
 10
365.821640625
 20
17.8030924988
 10
365.625098877
 20
17.6489282227
 10
365.4285314941
 20
17.8030924988
 10
365.2319641113
 20
18.1114274597
 10
365.2319641113
 20
18.4197592163
 10
365.4285314941
 20
18.7280941772
 10
365.625098877
 20
18.8822616577
 10
365.821640625
 20
18.7280941772
 10
366.0182080078
 20
18.4197592163
 10
366.0182080078
 20
18.1114274597
  0
LWPOLYLINE
  5
34A
100
AcDbEntity
  8
0
100
AcDbPolyline
 62
2
  6
CONTINUOUS
 90
5
 70
0
 10
367.1975866699
 20
17.6489282227
 10
367.1975866699
 20
19.1905934143
 10
367.3941540527
 20
19.4989283752
 10
367.4924377441
 20
19.4989283752
 10
367.5907214355
 20
19.3447608948
  0
LINE
  5
34B
100
AcDbEntity
  8
0
100
AcDbLine
 62
2
  6
CONTINUOUS
 10
367.0010192871
 20
18.7280941772
 11
367.3941540527
 21
18.7280941772
  0
LWPOLYLINE
  5
34C
100
AcDbEntity
  8
0
100
AcDbPolyline
 62
2
  6
CONTINUOUS
 90
3
 70
0
 10
369.949453125
 20
19.4989283752
 10
369.949453125
 20
17.6489282227
 10
370.7357226563
 20
17.6489282227
  0
LWPOLYLINE
  5
34D
100
AcDbEntity
  8
0
100
AcDbPolyline
 62
2
  6
CONTINUOUS
 90
19
 70
0
 10
373.9790075684
 20
18.1114274597
 10
373.880723877
 20
17.9572599792
 10
373.7824401855
 20
17.8030924988
 10
373.5858728027
 20
17.6489282227
 10
373.3893054199
 20
17.6489282227
 10
373.1927380371
 20
17.8030924988
 10
373.0944543457
 20
17.9572599792
 10
373.0944543457
 20
18.2655949402
 10
373.4875891113
 20
18.7280941772
 10
373.6841564941
 20
19.0364259338
 10
373.6841564941
 20
19.3447608948
 10
373.5858728027
 20
19.4989283752
 10
373.3893054199
 20
19.4989283752
 10
373.2910217285
 20
19.3447608948
 10
373.2910217285
 20
19.0364259338
 10
373.4875891113
 20
18.7280941772
 10
373.880723877
 20
17.9572599792
 10
373.9790075684
 20
17.8030924988
 10
374.077265625
 20
17.8030924988
  0
LWPOLYLINE
  5
34E
100
AcDbEntity
  8
0
100
AcDbPolyline
 62
2
  6
CONTINUOUS
 90
3
 70
0
 10
376.2394555664
 20
19.4989283752
 10
376.2394555664
 20
17.6489282227
 10
377.0257250977
 20
17.6489282227
  0
LWPOLYLINE
  5
34F
100
AcDbEntity
  8
0
100
AcDbPolyline
 62
2
  6
CONTINUOUS
 90
3
 70
0
 10
379.3844567871
 20
19.4989283752
 10
379.3844567871
 20
17.6489282227
 10
380.1707263184
 20
17.6489282227
  0
LWPOLYLINE
  5
350
100
AcDbEntity
  8
0
100
AcDbPolyline
 62
2
  6
CONTINUOUS
 90
5
 70
0
 10
381.0552539062
 20
18.8822616577
 10
381.0552539062
 20
17.9572599792
 10
381.2518212891
 20
17.6489282227
 10
381.4483630371
 20
17.6489282227
 10
381.6449304199
 20
17.9572599792
  0
LINE
  5
351
100
AcDbEntity
  8
0
100
AcDbLine
 62
2
  6
CONTINUOUS
 10
381.6449304199
 20
18.8822616577
 11
381.6449304199
 21
17.6489282227
  0
LWPOLYLINE
  5
352
100
AcDbEntity
  8
0
100
AcDbPolyline
 62
2
  6
CONTINUOUS
 90
8
 70
0
 10
383.1191601562
 20
17.8030924988
 10
382.9225927734
 20
17.6489282227
 10
382.7260253906
 20
17.8030924988
 10
382.5294580078
 20
18.1114274597
 10
382.5294580078
 20
18.4197592163
 10
382.7260253906
 20
18.7280941772
 10
382.9225927734
 20
18.8822616577
 10
383.1191601562
 20
18.7280941772
  0
LWPOLYLINE
  5
353
100
AcDbEntity
  8
0
100
AcDbPolyline
 62
2
  6
CONTINUOUS
 90
11
 70
0
 10
384.7899316406
 20
17.9572599792
 10
384.6916479492
 20
17.8030924988
 10
384.4950805664
 20
17.6489282227
 10
384.2985388184
 20
17.8030924988
 10
384.1019714355
 20
18.1114274597
 10
384.1019714355
 20
18.4197592163
 10
384.2985388184
 20
18.7280941772
 10
384.4950805664
 20
18.8822616577
 10
384.6916479492
 20
18.7280941772
 10
384.7899316406
 20
18.4197592163
 10
384.1019714355
 20
18.4197592163
  0
LWPOLYLINE
  5
354
100
AcDbEntity
  8
0
100
AcDbPolyline
 62
2
  6
CONTINUOUS
 90
19
 70
0
 10
388.1315002441
 20
18.1114274597
 10
388.0332165527
 20
17.9572599792
 10
387.9349328613
 20
17.8030924988
 10
387.7383654785
 20
17.6489282227
 10
387.5417980957
 20
17.6489282227
 10
387.3452563477
 20
17.8030924988
 10
387.2469726562
 20
17.9572599792
 10
387.2469726562
 20
18.2655949402
 10
387.6400817871
 20
18.7280941772
 10
387.8366491699
 20
19.0364259338
 10
387.8366491699
 20
19.3447608948
 10
387.7383654785
 20
19.4989283752
 10
387.5417980957
 20
19.4989283752
 10
387.4435400391
 20
19.3447608948
 10
387.4435400391
 20
19.0364259338
 10
387.6400817871
 20
18.7280941772
 10
388.0332165527
 20
17.9572599792
 10
388.1315002441
 20
17.8030924988
 10
388.2297839355
 20
17.8030924988
  0
LWPOLYLINE
  5
355
100
AcDbEntity
  8
0
100
AcDbPolyline
 62
2
  6
CONTINUOUS
 90
3
 70
0
 10
390.391973877
 20
19.4989283752
 10
390.391973877
 20
17.6489282227
 10
391.1782177734
 20
17.6489282227
  0
LINE
  5
356
100
AcDbEntity
  8
0
100
AcDbLine
 62
2
  6
CONTINUOUS
 10
392.3575964355
 20
19.4989283752
 11
392.3575964355
 21
19.3447608948
  0
LINE
  5
357
100
AcDbEntity
  8
0
100
AcDbLine
 62
2
  6
CONTINUOUS
 10
392.3575964355
 20
18.8822616577
 11
392.3575964355
 21
17.6489282227
  0
LWPOLYLINE
  5
358
100
AcDbEntity
  8
0
100
AcDbPolyline
 62
2
  6
CONTINUOUS
 90
10
 70
0
 10
394.3232189941
 20
18.1114274597
 10
394.1266516113
 20
17.8030924988
 10
393.9300842285
 20
17.6489282227
 10
393.7335168457
 20
17.8030924988
 10
393.5369750977
 20
18.1114274597
 10
393.5369750977
 20
18.4197592163
 10
393.7335168457
 20
18.7280941772
 10
393.9300842285
 20
18.8822616577
 10
394.1266516113
 20
18.7280941772
 10
394.3232189941
 20
18.4197592163
  0
LWPOLYLINE
  5
359
100
AcDbEntity
  8
0
100
AcDbPolyline
 62
2
  6
CONTINUOUS
 90
6
 70
0
 10
394.3232189941
 20
18.8822616577
 10
394.3232189941
 20
17.4947607422
 10
394.2249353027
 20
17.1864257812
 10
394.1266516113
 20
17.0322615051
 10
393.7335168457
 20
17.0322615051
 10
393.6352587891
 20
17.1864257812
  0
LINE
  5
35A
100
AcDbEntity
  8
0
100
AcDbLine
 62
2
  6
CONTINUOUS
 10
395.207746582
 20
17.6489282227
 11
395.207746582
 21
19.4989283752
  0
LWPOLYLINE
  5
35B
100
AcDbEntity
  8
0
100
AcDbPolyline
 62
2
  6
CONTINUOUS
 90
7
 70
0
 10
395.207746582
 20
18.5739266968
 10
395.207746582
 20
18.7280941772
 10
395.4043139648
 20
18.8822616577
 10
395.5025976562
 20
18.8822616577
 10
395.6008813477
 20
18.8822616577
 10
395.7974230957
 20
18.5739266968
 10
395.7974230957
 20
17.6489282227
  0
LINE
  5
35C
100
AcDbEntity
  8
0
100
AcDbLine
 62
2
  6
CONTINUOUS
 10
397.0750854492
 20
17.6489282227
 11
397.0750854492
 21
19.4989283752
  0
LINE
  5
35D
100
AcDbEntity
  8
0
100
AcDbLine
 62
2
  6
CONTINUOUS
 10
396.780234375
 20
18.7280941772
 11
397.3699365234
 21
18.7280941772
  0
LWPOLYLINE
  5
35E
100
AcDbEntity
  8
0
100
AcDbPolyline
 62
2
  6
CONTINUOUS
 90
14
 70
0
 10
400.4166540527
 20
18.7280941772
 10
400.3183703613
 20
18.8822616577
 10
400.1218029785
 20
18.8822616577
 10
400.0235192871
 20
18.7280941772
 10
400.0235192871
 20
18.5739266968
 10
400.2200866699
 20
18.4197592163
 10
400.4166540527
 20
18.2655949402
 10
400.5149377441
 20
18.1114274597
 10
400.5149377441
 20
17.9572599792
 10
400.4166540527
 20
17.8030924988
 10
400.3183703613
 20
17.6489282227
 10
400.1218029785
 20
17.6489282227
 10
400.0235192871
 20
17.8030924988
 10
399.9252355957
 20
17.9572599792
  0
LWPOLYLINE
  5
35F
100
AcDbEntity
  8
0
100
AcDbPolyline
 62
2
  6
CONTINUOUS
 90
4
 70
0
 10
401.7926000977
 20
17.6489282227
 10
401.6943164062
 20
17.6489282227
 10
401.6943164062
 20
17.8030924988
 10
401.7926000977
 20
17.6489282227
  0
LINE
  5
360
100
AcDbEntity
  8
0
100
AcDbLine
 62
2
  6
CONTINUOUS
 10
403.0702368164
 20
17.6489282227
 11
403.0702368164
 21
18.8822616577
  0
LWPOLYLINE
  5
361
100
AcDbEntity
  8
0
100
AcDbPolyline
 62
2
  6
CONTINUOUS
 90
4
 70
0
 10
403.0702368164
 20
18.5739266968
 10
403.2668041992
 20
18.8822616577
 10
403.463371582
 20
18.8822616577
 10
403.5616552734
 20
18.7280941772
  0
LWPOLYLINE
  5
362
100
AcDbEntity
  8
0
100
AcDbPolyline
 62
2
  6
CONTINUOUS
 90
4
 70
0
 10
404.9376013184
 20
17.6489282227
 10
404.839317627
 20
17.6489282227
 10
404.839317627
 20
17.8030924988
 10
404.9376013184
 20
17.6489282227
  0
LINE
  5
363
100
AcDbEntity
  8
0
100
AcDbLine
 62
2
  6
CONTINUOUS
 10
406.5100891113
 20
17.6489282227
 11
406.5100891113
 21
19.4989283752
  0
LWPOLYLINE
  5
364
100
AcDbEntity
  8
0
100
AcDbPolyline
 62
2
  6
CONTINUOUS
 90
4
 70
0
 10
408.0826025391
 20
17.6489282227
 10
407.9843188477
 20
17.6489282227
 10
407.9843188477
 20
17.8030924988
 10
408.0826025391
 20
17.6489282227
  0
LWPOLYLINE
  5
365
100
AcDbEntity
  8
0
100
AcDbPolyline
 62
2
  6
CONTINUOUS
 90
5
 70
0
 10
409.655090332
 20
17.6489282227
 10
409.5568066406
 20
17.8030924988
 10
409.655090332
 20
17.8030924988
 10
409.655090332
 20
17.6489282227
 10
409.4585229492
 20
17.3405932617
  0
LINE
  5
366
100
AcDbEntity
  8
0
100
AcDbLine
 62
2
  6
CONTINUOUS
 10
321.5950817871
 20
16.7239265442
 11
321.5950817871
 21
16.5697590637
  0
LINE
  5
367
100
AcDbEntity
  8
0
100
AcDbLine
 62
2
  6
CONTINUOUS
 10
321.5950817871
 20
16.1072598267
 11
321.5950817871
 21
14.8739263916
  0
LINE
  5
368
100
AcDbEntity
  8
0
100
AcDbLine
 62
2
  6
CONTINUOUS
 10
322.8727441406
 20
14.8739263916
 11
322.8727441406
 21
16.1072598267
  0
LWPOLYLINE
  5
369
100
AcDbEntity
  8
0
100
AcDbPolyline
 62
2
  6
CONTINUOUS
 90
5
 70
0
 10
322.8727441406
 20
15.7989280701
 10
323.0693115234
 20
16.1072598267
 10
323.2658789063
 20
16.1072598267
 10
323.4624462891
 20
15.7989280701
 10
323.4624462891
 20
14.8739263916
  0
LWPOLYLINE
  5
36A
100
AcDbEntity
  8
0
100
AcDbPolyline
 62
2
  6
CONTINUOUS
 90
10
 70
0
 10
326.7057055664
 20
15.3364256287
 10
326.5091638184
 20
15.0280938721
 10
326.3125964355
 20
14.8739263916
 10
326.1160290527
 20
15.0280938721
 10
325.9194616699
 20
15.3364256287
 10
325.9194616699
 20
15.6447605896
 10
326.1160290527
 20
15.9530923462
 10
326.3125964355
 20
16.1072598267
 10
326.5091638184
 20
15.9530923462
 10
326.7057055664
 20
15.6447605896
  0
LINE
  5
36B
100
AcDbEntity
  8
0
100
AcDbLine
 62
2
  6
CONTINUOUS
 10
326.7057055664
 20
16.1072598267
 11
326.7057055664
 21
14.8739263916
  0
LWPOLYLINE
  5
36C
100
AcDbEntity
  8
0
100
AcDbPolyline
 62
2
  6
CONTINUOUS
 90
8
 70
0
 10
328.0816516113
 20
15.0280938721
 10
327.8850842285
 20
14.8739263916
 10
327.6885168457
 20
15.0280938721
 10
327.4919750977
 20
15.3364256287
 10
327.4919750977
 20
15.6447605896
 10
327.6885168457
 20
15.9530923462
 10
327.8850842285
 20
16.1072598267
 10
328.0816516113
 20
15.9530923462
  0
LWPOLYLINE
  5
36D
100
AcDbEntity
  8
0
100
AcDbPolyline
 62
2
  6
CONTINUOUS
 90
8
 70
0
 10
329.6541650391
 20
15.0280938721
 10
329.4575976563
 20
14.8739263916
 10
329.2610302734
 20
15.0280938721
 10
329.0644628906
 20
15.3364256287
 10
329.0644628906
 20
15.6447605896
 10
329.2610302734
 20
15.9530923462
 10
329.4575976563
 20
16.1072598267
 10
329.6541650391
 20
15.9530923462
  0
LWPOLYLINE
  5
36E
100
AcDbEntity
  8
0
100
AcDbPolyline
 62
2
  6
CONTINUOUS
 90
11
 70
0
 10
331.4232202148
 20
15.3364256287
 10
331.226652832
 20
15.0280938721
 10
331.0300854492
 20
14.8739263916
 10
330.8335180664
 20
15.0280938721
 10
330.6369763184
 20
15.3364256287
 10
330.6369763184
 20
15.6447605896
 10
330.8335180664
 20
15.9530923462
 10
331.0300854492
 20
16.1072598267
 10
331.226652832
 20
15.9530923462
 10
331.4232202148
 20
15.6447605896
 10
331.4232202148
 20
15.3364256287
  0
LINE
  5
36F
100
AcDbEntity
  8
0
100
AcDbLine
 62
2
  6
CONTINUOUS
 10
332.3077478027
 20
14.8739263916
 11
332.3077478027
 21
16.1072598267
  0
LWPOLYLINE
  5
370
100
AcDbEntity
  8
0
100
AcDbPolyline
 62
2
  6
CONTINUOUS
 90
4
 70
0
 10
332.3077478027
 20
15.7989280701
 10
332.5043151855
 20
16.1072598267
 10
332.7008825684
 20
16.1072598267
 10
332.799140625
 20
15.9530923462
  0
LWPOLYLINE
  5
371
100
AcDbEntity
  8
0
100
AcDbPolyline
 62
2
  6
CONTINUOUS
 90
10
 70
0
 10
334.5682214355
 20
15.3364256287
 10
334.3716540527
 20
15.0280938721
 10
334.1750866699
 20
14.8739263916
 10
333.9785192871
 20
15.0280938721
 10
333.7819775391
 20
15.3364256287
 10
333.7819775391
 20
15.6447605896
 10
333.9785192871
 20
15.9530923462
 10
334.1750866699
 20
16.1072598267
 10
334.3716540527
 20
15.9530923462
 10
334.5682214355
 20
15.6447605896
  0
LINE
  5
372
100
AcDbEntity
  8
0
100
AcDbLine
 62
2
  6
CONTINUOUS
 10
334.5682214355
 20
16.7239265442
 11
334.5682214355
 21
14.8739263916
  0
LWPOLYLINE
  5
373
100
AcDbEntity
  8
0
100
AcDbPolyline
 62
2
  6
CONTINUOUS
 90
10
 70
0
 10
336.1407092285
 20
15.3364256287
 10
335.9441418457
 20
15.0280938721
 10
335.7476000977
 20
14.8739263916
 10
335.5510327148
 20
15.0280938721
 10
335.354465332
 20
15.3364256287
 10
335.354465332
 20
15.6447605896
 10
335.5510327148
 20
15.9530923462
 10
335.7476000977
 20
16.1072598267
 10
335.9441418457
 20
15.9530923462
 10
336.1407092285
 20
15.6447605896
  0
LINE
  5
374
100
AcDbEntity
  8
0
100
AcDbLine
 62
2
  6
CONTINUOUS
 10
336.1407092285
 20
16.1072598267
 11
336.1407092285
 21
14.8739263916
  0
LINE
  5
375
100
AcDbEntity
  8
0
100
AcDbLine
 62
2
  6
CONTINUOUS
 10
337.0252368164
 20
14.8739263916
 11
337.0252368164
 21
16.1072598267
  0
LWPOLYLINE
  5
376
100
AcDbEntity
  8
0
100
AcDbPolyline
 62
2
  6
CONTINUOUS
 90
5
 70
0
 10
337.0252368164
 20
15.7989280701
 10
337.2218041992
 20
16.1072598267
 10
337.418371582
 20
16.1072598267
 10
337.6149389648
 20
15.7989280701
 10
337.6149389648
 20
14.8739263916
  0
LWPOLYLINE
  5
377
100
AcDbEntity
  8
0
100
AcDbPolyline
 62
2
  6
CONTINUOUS
 90
8
 70
0
 10
339.0891430664
 20
15.0280938721
 10
338.8926013184
 20
14.8739263916
 10
338.6960339355
 20
15.0280938721
 10
338.4994665527
 20
15.3364256287
 10
338.4994665527
 20
15.6447605896
 10
338.6960339355
 20
15.9530923462
 10
338.8926013184
 20
16.1072598267
 10
339.0891430664
 20
15.9530923462
  0
LWPOLYLINE
  5
378
100
AcDbEntity
  8
0
100
AcDbPolyline
 62
2
  6
CONTINUOUS
 90
11
 70
0
 10
340.7599401855
 20
15.1822613525
 10
340.6616564941
 20
15.0280938721
 10
340.4650891113
 20
14.8739263916
 10
340.2685217285
 20
15.0280938721
 10
340.0719543457
 20
15.3364256287
 10
340.0719543457
 20
15.6447605896
 10
340.2685217285
 20
15.9530923462
 10
340.4650891113
 20
16.1072598267
 10
340.6616564941
 20
15.9530923462
 10
340.7599401855
 20
15.6447605896
 10
340.0719543457
 20
15.6447605896
  0
LWPOLYLINE
  5
379
100
AcDbEntity
  8
0
100
AcDbPolyline
 62
2
  6
CONTINUOUS
 90
5
 70
0
 10
343.118671875
 20
16.1072598267
 10
343.3152392578
 20
14.8739263916
 10
343.610090332
 20
16.1072598267
 10
343.8066577148
 20
14.8739263916
 10
344.1015087891
 20
16.1072598267
  0
LINE
  5
37A
100
AcDbEntity
  8
0
100
AcDbLine
 62
2
  6
CONTINUOUS
 10
345.182578125
 20
16.7239265442
 11
345.182578125
 21
16.5697590637
  0
LINE
  5
37B
100
AcDbEntity
  8
0
100
AcDbLine
 62
2
  6
CONTINUOUS
 10
345.182578125
 20
16.1072598267
 11
345.182578125
 21
14.8739263916
  0
LINE
  5
37C
100
AcDbEntity
  8
0
100
AcDbLine
 62
2
  6
CONTINUOUS
 10
346.7550915527
 20
14.8739263916
 11
346.7550915527
 21
16.7239265442
  0
LINE
  5
37D
100
AcDbEntity
  8
0
100
AcDbLine
 62
2
  6
CONTINUOUS
 10
346.4602404785
 20
15.9530923462
 11
347.049942627
 21
15.9530923462
  0
LINE
  5
37E
100
AcDbEntity
  8
0
100
AcDbLine
 62
2
  6
CONTINUOUS
 10
348.0327539062
 20
14.8739263916
 11
348.0327539062
 21
16.7239265442
  0
LWPOLYLINE
  5
37F
100
AcDbEntity
  8
0
100
AcDbPolyline
 62
2
  6
CONTINUOUS
 90
7
 70
0
 10
348.0327539062
 20
15.7989280701
 10
348.0327539062
 20
15.9530923462
 10
348.2293212891
 20
16.1072598267
 10
348.3275793457
 20
16.1072598267
 10
348.4258630371
 20
16.1072598267
 10
348.6224304199
 20
15.7989280701
 10
348.6224304199
 20
14.8739263916
  0
LINE
  5
380
100
AcDbEntity
  8
0
100
AcDbLine
 62
2
  6
CONTINUOUS
 10
351.4725805664
 20
14.8739263916
 11
351.4725805664
 21
16.7239265442
  0
LINE
  5
381
100
AcDbEntity
  8
0
100
AcDbLine
 62
2
  6
CONTINUOUS
 10
351.177755127
 20
15.9530923462
 11
351.7674316406
 21
15.9530923462
  0
LINE
  5
382
100
AcDbEntity
  8
0
100
AcDbLine
 62
2
  6
CONTINUOUS
 10
352.7502429199
 20
14.8739263916
 11
352.7502429199
 21
16.7239265442
  0
LWPOLYLINE
  5
383
100
AcDbEntity
  8
0
100
AcDbPolyline
 62
2
  6
CONTINUOUS
 90
7
 70
0
 10
352.7502429199
 20
15.7989280701
 10
352.7502429199
 20
15.9530923462
 10
352.9468103027
 20
16.1072598267
 10
353.0450939941
 20
16.1072598267
 10
353.1433776855
 20
16.1072598267
 10
353.3399450684
 20
15.7989280701
 10
353.3399450684
 20
14.8739263916
  0
LWPOLYLINE
  5
384
100
AcDbEntity
  8
0
100
AcDbPolyline
 62
2
  6
CONTINUOUS
 90
11
 70
0
 10
354.9124328613
 20
15.1822613525
 10
354.8141491699
 20
15.0280938721
 10
354.6175817871
 20
14.8739263916
 10
354.4210400391
 20
15.0280938721
 10
354.2244726562
 20
15.3364256287
 10
354.2244726562
 20
15.6447605896
 10
354.4210400391
 20
15.9530923462
 10
354.6175817871
 20
16.1072598267
 10
354.8141491699
 20
15.9530923462
 10
354.9124328613
 20
15.6447605896
 10
354.2244726562
 20
15.6447605896
  0
LINE
  5
385
100
AcDbEntity
  8
0
100
AcDbLine
 62
2
  6
CONTINUOUS
 10
357.7625830078
 20
14.8739263916
 11
357.7625830078
 21
16.7239265442
  0
LWPOLYLINE
  5
386
100
AcDbEntity
  8
0
100
AcDbPolyline
 62
2
  6
CONTINUOUS
 90
10
 70
0
 10
359.7282055664
 20
15.3364256287
 10
359.5316638184
 20
15.0280938721
 10
359.3350964355
 20
14.8739263916
 10
359.1385290527
 20
15.0280938721
 10
358.9419616699
 20
15.3364256287
 10
358.9419616699
 20
15.6447605896
 10
359.1385290527
 20
15.9530923462
 10
359.3350964355
 20
16.1072598267
 10
359.5316638184
 20
15.9530923462
 10
359.7282055664
 20
15.6447605896
  0
LINE
  5
387
100
AcDbEntity
  8
0
100
AcDbLine
 62
2
  6
CONTINUOUS
 10
359.7282055664
 20
16.1072598267
 11
359.7282055664
 21
14.8739263916
  0
LWPOLYLINE
  5
388
100
AcDbEntity
  8
0
100
AcDbPolyline
 62
2
  6
CONTINUOUS
 90
5
 70
0
 10
360.4161914062
 20
16.1072598267
 10
360.6127587891
 20
14.8739263916
 10
360.9075842285
 20
16.1072598267
 10
361.1041516113
 20
14.8739263916
 10
361.3990026855
 20
16.1072598267
  0
LINE
  5
389
100
AcDbEntity
  8
0
100
AcDbLine
 62
2
  6
CONTINUOUS
 10
364.0525854492
 20
16.7239265442
 11
364.0525854492
 21
16.5697590637
  0
LINE
  5
38A
100
AcDbEntity
  8
0
100
AcDbLine
 62
2
  6
CONTINUOUS
 10
364.0525854492
 20
16.1072598267
 11
364.0525854492
 21
14.8739263916
  0
LINE
  5
38B
100
AcDbEntity
  8
0
100
AcDbLine
 62
2
  6
CONTINUOUS
 10
365.3302478027
 20
14.8739263916
 11
365.3302478027
 21
16.1072598267
  0
LWPOLYLINE
  5
38C
100
AcDbEntity
  8
0
100
AcDbPolyline
 62
2
  6
CONTINUOUS
 90
5
 70
0
 10
365.3302478027
 20
15.7989280701
 10
365.5268151855
 20
16.1072598267
 10
365.7233825684
 20
16.1072598267
 10
365.9199243164
 20
15.7989280701
 10
365.9199243164
 20
14.8739263916
  0
LWPOLYLINE
  5
38D
100
AcDbEntity
  8
0
100
AcDbPolyline
 62
2
  6
CONTINUOUS
 90
5
 70
0
 10
368.7701000977
 20
14.8739263916
 10
368.7701000977
 20
16.4155947876
 10
368.9666418457
 20
16.7239265442
 10
369.0649255371
 20
16.7239265442
 10
369.1632092285
 20
16.5697590637
  0
LINE
  5
38E
100
AcDbEntity
  8
0
100
AcDbLine
 62
2
  6
CONTINUOUS
 10
368.5735327148
 20
15.9530923462
 11
368.9666418457
 21
15.9530923462
  0
LWPOLYLINE
  5
38F
100
AcDbEntity
  8
0
100
AcDbPolyline
 62
2
  6
CONTINUOUS
 90
11
 70
0
 10
370.7357226563
 20
15.3364256287
 10
370.5391552734
 20
15.0280938721
 10
370.3425878906
 20
14.8739263916
 10
370.1460205078
 20
15.0280938721
 10
369.949453125
 20
15.3364256287
 10
369.949453125
 20
15.6447605896
 10
370.1460205078
 20
15.9530923462
 10
370.3425878906
 20
16.1072598267
 10
370.5391552734
 20
15.9530923462
 10
370.7357226563
 20
15.6447605896
 10
370.7357226563
 20
15.3364256287
  0
LINE
  5
390
100
AcDbEntity
  8
0
100
AcDbLine
 62
2
  6
CONTINUOUS
 10
371.6202502441
 20
14.8739263916
 11
371.6202502441
 21
16.1072598267
  0
LWPOLYLINE
  5
391
100
AcDbEntity
  8
0
100
AcDbPolyline
 62
2
  6
CONTINUOUS
 90
4
 70
0
 10
371.6202502441
 20
15.7989280701
 10
371.816817627
 20
16.1072598267
 10
372.013359375
 20
16.1072598267
 10
372.1116430664
 20
15.9530923462
  0
LWPOLYLINE
  5
392
100
AcDbEntity
  8
0
100
AcDbPolyline
 62
2
  6
CONTINUOUS
 90
8
 70
0
 10
373.6841564941
 20
15.0280938721
 10
373.4875891113
 20
14.8739263916
 10
373.2910217285
 20
15.0280938721
 10
373.0944543457
 20
15.3364256287
 10
373.0944543457
 20
15.6447605896
 10
373.2910217285
 20
15.9530923462
 10
373.4875891113
 20
16.1072598267
 10
373.6841564941
 20
15.9530923462
  0
LWPOLYLINE
  5
393
100
AcDbEntity
  8
0
100
AcDbPolyline
 62
2
  6
CONTINUOUS
 90
11
 70
0
 10
375.3549279785
 20
15.1822613525
 10
375.2566442871
 20
15.0280938721
 10
375.0601025391
 20
14.8739263916
 10
374.8635351563
 20
15.0280938721
 10
374.6669677734
 20
15.3364256287
 10
374.6669677734
 20
15.6447605896
 10
374.8635351563
 20
15.9530923462
 10
375.0601025391
 20
16.1072598267
 10
375.2566442871
 20
15.9530923462
 10
375.3549279785
 20
15.6447605896
 10
374.6669677734
 20
15.6447605896
  0
LWPOLYLINE
  5
394
100
AcDbEntity
  8
0
100
AcDbPolyline
 62
2
  6
CONTINUOUS
 90
4
 70
0
 10
376.632590332
 20
14.8739263916
 10
376.5343066406
 20
14.8739263916
 10
376.5343066406
 20
15.0280938721
 10
376.632590332
 20
14.8739263916
  0
LWPOLYLINE
  5
395
100
AcDbEntity
  8
0
100
AcDbPolyline
 62
2
  6
CONTINUOUS
 90
3
 70
0
 10
321.1036889648
 20
12.0989277649
 10
321.5950817871
 20
13.9489279175
 10
322.0865002441
 20
12.0989277649
  0
LINE
  5
396
100
AcDbEntity
  8
0
100
AcDbLine
 62
2
  6
CONTINUOUS
 10
321.3002563477
 20
12.7155944824
 11
321.8899328613
 21
12.7155944824
  0
LINE
  5
397
100
AcDbEntity
  8
0
100
AcDbLine
 62
2
  6
CONTINUOUS
 10
323.1675952148
 20
12.0989277649
 11
323.1675952148
 21
13.9489279175
  0
LINE
  5
398
100
AcDbEntity
  8
0
100
AcDbLine
 62
2
  6
CONTINUOUS
 10
324.7400830078
 20
12.0989277649
 11
324.7400830078
 21
13.9489279175
  0
LINE
  5
399
100
AcDbEntity
  8
0
100
AcDbLine
 62
2
  6
CONTINUOUS
 10
327.5902587891
 20
12.0989277649
 11
327.5902587891
 21
13.3322612
  0
LWPOLYLINE
  5
39A
100
AcDbEntity
  8
0
100
AcDbPolyline
 62
2
  6
CONTINUOUS
 90
4
 70
0
 10
327.5902587891
 20
13.023926239
 10
327.7868005371
 20
13.3322612
 10
327.9833679199
 20
13.3322612
 10
328.0816516113
 20
13.1780937195
  0
LINE
  5
39B
100
AcDbEntity
  8
0
100
AcDbLine
 62
2
  6
CONTINUOUS
 10
329.4575976563
 20
13.9489279175
 11
329.4575976563
 21
13.794760437
  0
LINE
  5
39C
100
AcDbEntity
  8
0
100
AcDbLine
 62
2
  6
CONTINUOUS
 10
329.4575976563
 20
13.3322612
 11
329.4575976563
 21
12.0989277649
  0
LWPOLYLINE
  5
39D
100
AcDbEntity
  8
0
100
AcDbPolyline
 62
2
  6
CONTINUOUS
 90
10
 70
0
 10
331.4232202148
 20
12.561427002
 10
331.226652832
 20
12.2530952454
 10
331.0300854492
 20
12.0989277649
 10
330.8335180664
 20
12.2530952454
 10
330.6369763184
 20
12.561427002
 10
330.6369763184
 20
12.8697619629
 10
330.8335180664
 20
13.1780937195
 10
331.0300854492
 20
13.3322612
 10
331.226652832
 20
13.1780937195
 10
331.4232202148
 20
12.8697619629
  0
LWPOLYLINE
  5
39E
100
AcDbEntity
  8
0
100
AcDbPolyline
 62
2
  6
CONTINUOUS
 90
6
 70
0
 10
331.4232202148
 20
13.3322612
 10
331.4232202148
 20
11.9447602844
 10
331.3249365234
 20
11.6364285278
 10
331.226652832
 20
11.4822610474
 10
330.8335180664
 20
11.4822610474
 10
330.735234375
 20
11.6364285278
  0
LINE
  5
39F
100
AcDbEntity
  8
0
100
AcDbLine
 62
2
  6
CONTINUOUS
 10
332.3077478027
 20
12.0989277649
 11
332.3077478027
 21
13.9489279175
  0
LWPOLYLINE
  5
3A0
100
AcDbEntity
  8
0
100
AcDbPolyline
 62
2
  6
CONTINUOUS
 90
7
 70
0
 10
332.3077478027
 20
13.023926239
 10
332.3077478027
 20
13.1780937195
 10
332.5043151855
 20
13.3322612
 10
332.602598877
 20
13.3322612
 10
332.7008825684
 20
13.3322612
 10
332.8974243164
 20
13.023926239
 10
332.8974243164
 20
12.0989277649
  0
LINE
  5
3A1
100
AcDbEntity
  8
0
100
AcDbLine
 62
2
  6
CONTINUOUS
 10
334.1750866699
 20
12.0989277649
 11
334.1750866699
 21
13.9489279175
  0
LINE
  5
3A2
100
AcDbEntity
  8
0
100
AcDbLine
 62
2
  6
CONTINUOUS
 10
333.8802355957
 20
13.1780937195
 11
334.4699377441
 21
13.1780937195
  0
LWPOLYLINE
  5
3A3
100
AcDbEntity
  8
0
100
AcDbPolyline
 62
2
  6
CONTINUOUS
 90
14
 70
0
 10
335.9441418457
 20
13.1780937195
 10
335.8458837891
 20
13.3322612
 10
335.6493164062
 20
13.3322612
 10
335.5510327148
 20
13.1780937195
 10
335.5510327148
 20
13.023926239
 10
335.7476000977
 20
12.8697619629
 10
335.9441418457
 20
12.7155944824
 10
336.0424255371
 20
12.561427002
 10
336.0424255371
 20
12.4072595215
 10
335.9441418457
 20
12.2530952454
 10
335.8458837891
 20
12.0989277649
 10
335.6493164062
 20
12.0989277649
 10
335.5510327148
 20
12.2530952454
 10
335.4527490234
 20
12.4072595215
  0
LINE
  5
3A4
100
AcDbEntity
  8
0
100
AcDbLine
 62
2
  6
CONTINUOUS
 10
338.5977502441
 20
12.0989277649
 11
338.5977502441
 21
13.3322612
  0
LWPOLYLINE
  5
3A5
100
AcDbEntity
  8
0
100
AcDbPolyline
 62
2
  6
CONTINUOUS
 90
4
 70
0
 10
338.5977502441
 20
13.023926239
 10
338.794317627
 20
13.3322612
 10
338.990859375
 20
13.3322612
 10
339.0891430664
 20
13.1780937195
  0
LWPOLYLINE
  5
3A6
100
AcDbEntity
  8
0
100
AcDbPolyline
 62
2
  6
CONTINUOUS
 90
11
 70
0
 10
340.7599401855
 20
12.4072595215
 10
340.6616564941
 20
12.2530952454
 10
340.4650891113
 20
12.0989277649
 10
340.2685217285
 20
12.2530952454
 10
340.0719543457
 20
12.561427002
 10
340.0719543457
 20
12.8697619629
 10
340.2685217285
 20
13.1780937195
 10
340.4650891113
 20
13.3322612
 10
340.6616564941
 20
13.1780937195
 10
340.7599401855
 20
12.8697619629
 10
340.0719543457
 20
12.8697619629
  0
LWPOLYLINE
  5
3A7
100
AcDbEntity
  8
0
100
AcDbPolyline
 62
2
  6
CONTINUOUS
 90
14
 70
0
 10
342.2341442871
 20
13.1780937195
 10
342.1358605957
 20
13.3322612
 10
341.9393188477
 20
13.3322612
 10
341.8410351562
 20
13.1780937195
 10
341.8410351562
 20
13.023926239
 10
342.0376025391
 20
12.8697619629
 10
342.2341442871
 20
12.7155944824
 10
342.3324279785
 20
12.561427002
 10
342.3324279785
 20
12.4072595215
 10
342.2341442871
 20
12.2530952454
 10
342.1358605957
 20
12.0989277649
 10
341.9393188477
 20
12.0989277649
 10
341.8410351562
 20
12.2530952454
 10
341.7427514648
 20
12.4072595215
  0
LWPOLYLINE
  5
3A8
100
AcDbEntity
  8
0
100
AcDbPolyline
 62
2
  6
CONTINUOUS
 90
11
 70
0
 10
343.9049414062
 20
12.4072595215
 10
343.8066577148
 20
12.2530952454
 10
343.610090332
 20
12.0989277649
 10
343.4135229492
 20
12.2530952454
 10
343.2169555664
 20
12.561427002
 10
343.2169555664
 20
12.8697619629
 10
343.4135229492
 20
13.1780937195
 10
343.610090332
 20
13.3322612
 10
343.8066577148
 20
13.1780937195
 10
343.9049414062
 20
12.8697619629
 10
343.2169555664
 20
12.8697619629
  0
LINE
  5
3A9
100
AcDbEntity
  8
0
100
AcDbLine
 62
2
  6
CONTINUOUS
 10
344.8877526855
 20
12.0989277649
 11
344.8877526855
 21
13.3322612
  0
LWPOLYLINE
  5
3AA
100
AcDbEntity
  8
0
100
AcDbPolyline
 62
2
  6
CONTINUOUS
 90
4
 70
0
 10
344.8877526855
 20
13.023926239
 10
345.0843200684
 20
13.3322612
 10
345.2808618164
 20
13.3322612
 10
345.3791455078
 20
13.1780937195
  0
LWPOLYLINE
  5
3AB
100
AcDbEntity
  8
0
100
AcDbPolyline
 62
2
  6
CONTINUOUS
 90
3
 70
0
 10
346.4602404785
 20
13.3322612
 10
346.7550915527
 20
12.0989277649
 10
347.049942627
 20
13.3322612
  0
LWPOLYLINE
  5
3AC
100
AcDbEntity
  8
0
100
AcDbPolyline
 62
2
  6
CONTINUOUS
 90
11
 70
0
 10
348.6224304199
 20
12.4072595215
 10
348.5241467285
 20
12.2530952454
 10
348.3275793457
 20
12.0989277649
 10
348.1310375977
 20
12.2530952454
 10
347.9344702148
 20
12.561427002
 10
347.9344702148
 20
12.8697619629
 10
348.1310375977
 20
13.1780937195
 10
348.3275793457
 20
13.3322612
 10
348.5241467285
 20
13.1780937195
 10
348.6224304199
 20
12.8697619629
 10
347.9344702148
 20
12.8697619629
  0
LWPOLYLINE
  5
3AD
100
AcDbEntity
  8
0
100
AcDbPolyline
 62
2
  6
CONTINUOUS
 90
10
 70
0
 10
350.2932275391
 20
12.561427002
 10
350.0966601562
 20
12.2530952454
 10
349.9000927734
 20
12.0989277649
 10
349.7035253906
 20
12.2530952454
 10
349.5069580078
 20
12.561427002
 10
349.5069580078
 20
12.8697619629
 10
349.7035253906
 20
13.1780937195
 10
349.9000927734
 20
13.3322612
 10
350.0966601562
 20
13.1780937195
 10
350.2932275391
 20
12.8697619629
  0
LINE
  5
3AE
100
AcDbEntity
  8
0
100
AcDbLine
 62
2
  6
CONTINUOUS
 10
350.2932275391
 20
13.9489279175
 11
350.2932275391
 21
12.0989277649
  0
LWPOLYLINE
  5
3AF
100
AcDbEntity
  8
0
100
AcDbPolyline
 62
2
  6
CONTINUOUS
 90
4
 70
0
 10
351.4725805664
 20
12.0989277649
 10
351.374296875
 20
12.0989277649
 10
351.374296875
 20
12.2530952454
 10
351.4725805664
 20
12.0989277649
  0
ACAD_TABLE
  5
3B0
100
AcDbEntity
  8
0
 62
2
  6
CONTINUOUS
100
AcDbBlockReference
  2
*T1
 10
319.3213399098
 20
51.0239270671
 30
0.0
100
AcDbTable
342
       518
343
228
 11
1.0
 21
0.0
 31
0.0
 90
22
 91
5
 92
5
 93
0
 94
0
 95
0
 96
0
141
6.0
141
6.0
141
10.0
141
5.0
141
13.0
142
10.0
142
10.0
142
10.0
142
40.0
142
20.0
171
1
172
0
173
0
174
0
175
3
176
4
 91
1
178
0
145
0.0
170
5
171
1
172
0
173
1
174
0
175
1
176
1
 91
1
178
0
145
0.0
170
1
171
1
172
0
173
1
174
0
175
1
176
1
 91
1
178
0
145
0.0
170
1
171
1
172
0
173
0
174
0
175
1
176
1
 91
33
178
0
145
0.0
301
CELL_VALUE
 90
4
  1
{\Ftxt.shx;\W7.166667;\H3.000000; }
304
ACVALUE_END
170
4
140
3.0
171
1
172
0
173
0
174
0
175
1
176
1
 91
33
178
0
145
0.0
301
CELL_VALUE
 90
4
  1
{\Ftxt.shx;\W5.100000;\H3.500000; }
304
ACVALUE_END
170
1
140
3.5
171
1
172
0
173
1
174
0
175
1
176
1
 91
1
178
0
145
0.0
170
1
171
1
172
0
173
1
174
0
175
1
176
1
 91
1
178
0
145
0.0
170
1
171
1
172
0
173
1
174
0
175
1
176
1
 91
1
178
0
145
0.0
170
1
171
1
172
0
173
0
174
0
175
1
176
1
 91
33
178
0
145
0.0
301
CELL_VALUE
 90
4
  1
{\Ftxt.shx;\W3.714286;\H3.500000; }{\Ftxt.shx;\W1.500000;\H3.500000; }
304
ACVALUE_END
170
1
140
3.5
171
1
172
0
173
0
174
0
175
1
176
1
 91
33
178
0
145
0.0
301
CELL_VALUE
 90
4
  1
{\Ftxt.shx;\W1.571429;\H3.500000; }
304
ACVALUE_END
170
4
140
3.5
171
1
172
0
173
1
174
0
175
1
176
1
 91
1
178
0
145
0.0
170
1
171
1
172
0
173
1
174
0
175
1
176
1
 91
1
178
0
145
0.0
170
1
171
1
172
0
173
1
174
0
175
1
176
1
 91
1
178
0
145
0.0
170
1
171
1
172
0
173
0
174
0
175
2
176
1
 91
33
178
0
145
0.0
301
CELL_VALUE
 90
4
  1
{\Ftxt.shx;\W8.714286;\H3.500000; }{\Ftxt.shx;\W0.785714;\H3.500000; }
304
ACVALUE_END
170
4
140
3.5
171
1
172
0
173
1
174
0
175
1
176
1
 91
1
178
0
145
0.0
170
1
171
1
172
0
173
1
174
0
175
1
176
1
 91
1
178
0
145
0.0
170
1
171
1
172
0
173
1
174
0
175
1
176
1
 91
1
178
0
145
0.0
170
1
171
1
172
0
173
1
174
0
175
1
176
1
 91
1
178
0
145
0.0
170
1
171
1
172
0
173
0
174
0
175
2
176
1
 91
33
178
0
145
0.0
301
CELL_VALUE
 90
4
  1
{\Ftxt.shx;\W11.404762;\H2.500000; }
304
ACVALUE_END
170
4
140
2.5
171
1
172
0
173
1
174
0
175
1
176
1
 91
1
178
0
145
0.0
170
1
171
1
172
0
173
0
174
0
175
5
176
1
 91
33
178
0
145
0.0
301
CELL_VALUE
 90
4
  1
{\Ftxt.shx;\W45.050000;\H1.850000; }\P{\Ftxt.shx;\W28.050000;\H1.850000; }{\Ftxt.shx;\W7.650000;\H1.850000; }{\Ftxt.shx;\W13.600000;\H1.850000; }\P{\Ftxt.shx;\W31.450000;\H1.850000; }\P{\Ftxt.shx;\W17.000000;\H1.850000; }
304
ACVALUE_END
170
1
140
1.85
171
1
172
0
173
1
174
0
175
1
176
1
 91
1
178
0
145
0.0
170
1
171
1
172
0
173
1
174
0
175
1
176
1
 91
1
178
0
145
0.0
170
1
171
1
172
0
173
1
174
0
175
1
176
1
 91
1
178
0
145
0.0
170
1
171
1
172
0
173
1
174
0
175
1
176
1
 91
1
178
0
145
0.0
170
1
  0
LINE
  5
3B1
100
AcDbEntity
  8
0
100
AcDbLine
 62
7
  6
CONTINUOUS
 10
0.0
 20
0.0
 11
0.0
 21
297.0
  0
LWPOLYLINE
  5
3B2
100
AcDbEntity
  8
0
100
AcDbPolyline
 62
7
  6
CONTINUOUS
 90
2
 70
0
 43
0.1000000003
 10
7.0536312849
 20
0.0
 10
7.0536312849
 20
297.0
  0
LWPOLYLINE
  5
3B3
100
AcDbEntity
  8
0
100
AcDbPolyline
 62
7
  6
CONTINUOUS
 90
2
 70
0
 43
0.4999999952
 10
10.0536312849
 20
10.0318435754
 10
10.0536312849
 20
287.0
  0
LWPOLYLINE
  5
3B4
100
AcDbEntity
  8
0
100
AcDbPolyline
 62
2
  6
CONTINUOUS
 90
5
 70
0
 10
2.7895792007
 20
251.8807543945
 10
3.2657698059
 20
252.1664538574
 10
3.2657698059
 20
253.0236035156
 10
2.7895792007
 20
253.5950280762
 10
1.6467220688
 20
253.5950280762
  0
LINE
  5
3B5
100
AcDbEntity
  8
0
100
AcDbLine
 62
7
  6
CONTINUOUS
 10
0.0
 20
0.0
 11
420.0
 21
0.0
  0
LINE
  5
3B6
100
AcDbEntity
  8
0
100
AcDbLine
 62
2
  6
CONTINUOUS
 10
363.2799023437
 20
2.6920935059
 11
364.6298803711
 21
2.6920935059
  0
LINE
  5
3B7
100
AcDbEntity
  8
0
100
AcDbLine
 62
2
  6
CONTINUOUS
 10
262.8298937988
 20
3.6920928955
 11
264.4048937988
 21
3.6920928955
  0
LWPOLYLINE
  5
3B8
100
AcDbEntity
  8
0
100
AcDbPolyline
 62
2
  6
CONTINUOUS
 90
12
 70
0
 10
56.6978659058
 20
5.535344696
 10
57.5978704834
 20
5.535344696
 10
58.0478695679
 20
5.2020094299
 10
58.2728659058
 20
4.8686773682
 10
58.4978686523
 20
4.5353453064
 10
58.7228713989
 20
3.5353427124
 10
58.4978686523
 20
2.5353433228
 10
58.2728659058
 20
2.202011261
 10
58.0478695679
 20
1.8686759949
 10
57.5978704834
 20
1.5353439331
 10
56.6978659058
 20
1.5353439331
 10
56.6978659058
 20
5.535344696
  0
LWPOLYLINE
  5
3B9
100
AcDbEntity
  8
0
100
AcDbPolyline
 62
7
  6
CONTINUOUS
 90
2
 70
0
 43
0.1000000003
 10
0.0
 20
7.0318435754
 10
420.0
 20
7.0318435754
  0
LWPOLYLINE
  5
3BA
100
AcDbEntity
  8
0
100
AcDbPolyline
 62
7
  6
CONTINUOUS
 90
2
 70
0
 43
0.4999999952
 10
10.0536312849
 20
10.0318435754
 10
410.0
 20
10.0318435754
  0
LWPOLYLINE
  5
3BB
100
AcDbEntity
  8
0
100
AcDbPolyline
 62
2
  6
CONTINUOUS
 90
15
 70
0
 10
164.8548962402
 20
292.0254382324
 10
164.629887085
 20
291.6920837402
 10
164.1798944092
 20
291.3587548828
 10
163.729888916
 20
291.3587548828
 10
163.2798962402
 20
291.6920837402
 10
163.054887085
 20
292.0254382324
 10
162.8298907471
 20
292.3587670898
 10
162.6048944092
 20
293.3587536621
 10
162.8298907471
 20
294.3587658691
 10
163.054887085
 20
294.6920947266
 10
163.2798962402
 20
295.025423584
 10
163.729888916
 20
295.3587524414
 10
164.1798944092
 20
295.3587524414
 10
164.629887085
 20
295.025423584
 10
164.8548962402
 20
294.6920947266
  0
LINE
  5
3BC
100
AcDbEntity
  8
0
100
AcDbLine
 62
7
  6
CONTINUOUS
 10
113.0
 20
297.0
 11
113.0
 21
290.0
  0
LINE
  5
3BD
100
AcDbEntity
  8
0
100
AcDbLine
 62
7
  6
CONTINUOUS
 10
113.0
 20
7.0
 11
113.0
 21
0.0
  0
LWPOLYLINE
  5
3BE
100
AcDbEntity
  8
0
100
AcDbPolyline
 62
7
  6
CONTINUOUS
 90
2
 70
0
 43
0.1000000003
 10
123.0
 20
10.0
 10
123.0
 20
0.0
  0
LWPOLYLINE
  5
3BF
100
AcDbEntity
  8
0
100
AcDbPolyline
 62
7
  6
CONTINUOUS
 90
2
 70
0
 43
0.1000000003
 10
123.0
 20
287.0
 10
123.0
 20
297.0
  0
LWPOLYLINE
  5
3C0
100
AcDbEntity
  8
0
100
AcDbPolyline
 62
2
  6
CONTINUOUS
 90
3
 70
0
 10
1.6467220688
 20
52.4521728516
 10
2.7895792007
 20
53.5950283813
 10
2.7895792007
 20
49.5950244141
  0
LINE
  5
3C1
100
AcDbEntity
  8
0
100
AcDbLine
 62
7
  6
CONTINUOUS
 10
-0.0
 20
99.9681564246
 11
7.0
 21
99.9681564246
  0
LWPOLYLINE
  5
3C2
100
AcDbEntity
  8
0
100
AcDbPolyline
 62
2
  6
CONTINUOUS
 90
9
 70
0
 10
56.2378820801
 20
295.2461645508
 10
56.6878811646
 20
294.5794812012
 10
56.9128839111
 20
293.5794946289
 10
56.6878811646
 20
292.5794824219
 10
56.4628848267
 20
292.2461535645
 10
56.2378820801
 20
291.912824707
 10
55.7878829956
 20
291.5794958496
 10
54.8878848267
 20
291.5794958496
 10
54.8878848267
 20
295.5794934082
  0
LINE
  5
3C3
100
AcDbEntity
  8
0
100
AcDbLine
 62
7
  6
CONTINUOUS
 10
413.0
 20
107.0
 11
420.0
 21
107.0
  0
LWPOLYLINE
  5
3C4
100
AcDbEntity
  8
0
100
AcDbPolyline
 62
7
  6
CONTINUOUS
 90
2
 70
0
 43
0.1000000003
 10
210.0
 20
10.0
 10
210.0
 20
0.0
  0
LWPOLYLINE
  5
3C5
100
AcDbEntity
  8
0
100
AcDbPolyline
 62
7
  6
CONTINUOUS
 90
2
 70
0
 43
0.1000000003
 10
210.0
 20
287.0
 10
210.0
 20
297.0
  0
LWPOLYLINE
  5
3C6
100
AcDbEntity
  8
0
100
AcDbPolyline
 62
7
  6
CONTINUOUS
 90
2
 70
0
 43
0.1000000003
 10
10.0
 20
148.5
 10
0.0
 20
148.5
  0
LWPOLYLINE
  5
3C7
100
AcDbEntity
  8
0
100
AcDbPolyline
 62
7
  6
CONTINUOUS
 90
2
 70
0
 43
0.1000000003
 10
410.0
 20
148.5
 10
420.0
 20
148.5
  0
LWPOLYLINE
  5
3C8
100
AcDbEntity
  8
0
100
AcDbPolyline
 62
2
  6
CONTINUOUS
 90
7
 70
0
 10
3.6467220497
 20
149.5950274658
 10
1.6467220688
 20
149.5950274658
 10
3.6467220497
 20
152.4521759033
 10
3.6467220497
 20
153.0236004639
 10
3.0752934837
 20
153.5950250244
 10
2.2181506348
 20
153.5950250244
 10
1.6467220688
 20
152.7378881836
  0
LWPOLYLINE
  5
3C9
100
AcDbEntity
  8
0
100
AcDbPolyline
 62
2
  6
CONTINUOUS
 90
5
 70
0
 10
415.7895666504
 20
258.9125756836
 10
416.2657580566
 20
259.1983007812
 10
416.2657580566
 20
260.0554504395
 10
415.7895666504
 20
260.626875
 10
414.6467175293
 20
260.626875
  0
LWPOLYLINE
  5
3CA
100
AcDbEntity
  8
0
100
AcDbPolyline
 62
2
  6
CONTINUOUS
 90
7
 70
0
 10
416.6467163086
 20
156.6268743896
 10
414.6467175293
 20
156.6268743896
 10
416.6467163086
 20
159.4840100098
 10
416.6467163086
 20
160.0554473877
 10
416.075291748
 20
160.6268719482
 10
415.2181420898
 20
160.6268719482
 10
414.6467175293
 20
159.76972229
  0
LWPOLYLINE
  5
3CB
100
AcDbEntity
  8
0
100
AcDbPolyline
 62
2
  6
CONTINUOUS
 90
15
 70
0
 10
164.8548962402
 20
2.025426178
 10
164.629887085
 20
1.6920941162
 10
164.1798944092
 20
1.3587588501
 10
163.729888916
 20
1.3587588501
 10
163.2798962402
 20
1.6920941162
 10
163.054887085
 20
2.025426178
 10
162.8298907471
 20
2.3587614441
 10
162.6048944092
 20
3.3587608337
 10
162.8298907471
 20
4.3587602234
 10
163.054887085
 20
4.6920922852
 10
163.2798962402
 20
5.0254275513
 10
163.729888916
 20
5.358759613
 10
164.1798944092
 20
5.358759613
 10
164.629887085
 20
5.0254275513
 10
164.8548962402
 20
4.6920922852
  0
LWPOLYLINE
  5
3CC
100
AcDbEntity
  8
0
100
AcDbPolyline
 62
2
  6
CONTINUOUS
 90
6
 70
0
 10
262.8298937988
 20
295.3587524414
 10
262.8298937988
 20
291.3587548828
 10
264.4048937988
 20
291.3587548828
 10
264.6298901367
 20
291.6920837402
 10
264.8548864746
 20
292.0254382324
 10
264.8548864746
 20
293.0254248047
  0
LWPOLYLINE
  5
3CD
100
AcDbEntity
  8
0
100
AcDbPolyline
 62
2
  6
CONTINUOUS
 90
12
 70
0
 10
262.8298937988
 20
5.358759613
 10
262.8298937988
 20
1.3587588501
 10
264.4048937988
 20
1.3587588501
 10
264.6298901367
 20
1.6920941162
 10
264.8548864746
 20
2.025426178
 10
264.8548864746
 20
3.0254255676
 10
264.6298901367
 20
3.3587608337
 10
264.4048937988
 20
3.6920928955
 10
264.6298901367
 20
4.0254281616
 10
264.6298901367
 20
5.0254275513
 10
264.4048937988
 20
5.358759613
 10
262.8298937988
 20
5.358759613
  0
LINE
  5
3CE
100
AcDbEntity
  8
0
100
AcDbLine
 62
7
  6
CONTINUOUS
 10
-0.0
 20
199.9681564246
 11
7.0
 21
199.9681564246
  0
LWPOLYLINE
  5
3CF
100
AcDbEntity
  8
0
100
AcDbPolyline
 62
7
  6
CONTINUOUS
 90
2
 70
0
 43
0.1000000003
 10
10.0
 20
202.9681564246
 10
0.0
 20
202.9681564246
  0
LWPOLYLINE
  5
3D0
100
AcDbEntity
  8
0
100
AcDbPolyline
 62
7
  6
CONTINUOUS
 90
2
 70
0
 43
0.1000000003
 10
410.0
 20
210.0
 10
420.0
 20
210.0
  0
LINE
  5
3D1
100
AcDbEntity
  8
0
100
AcDbLine
 62
7
  6
CONTINUOUS
 10
313.0
 20
297.0
 11
313.0
 21
290.0
  0
LINE
  5
3D2
100
AcDbEntity
  8
0
100
AcDbLine
 62
7
  6
CONTINUOUS
 10
313.0
 20
7.0
 11
313.0
 21
0.0
  0
LWPOLYLINE
  5
3D3
100
AcDbEntity
  8
0
100
AcDbPolyline
 62
2
  6
CONTINUOUS
 90
6
 70
0
 10
1.6467220688
 20
249.5950305176
 10
3.0752934837
 20
249.5950305176
 10
3.3610077667
 20
249.8807299805
 10
3.3610077667
 20
251.3093041992
 10
2.7895792007
 20
251.8807543945
 10
2.2181506348
 20
251.8807543945
  0
LWPOLYLINE
  5
3D4
100
AcDbEntity
  8
0
100
AcDbPolyline
 62
2
  6
CONTINUOUS
 90
3
 70
0
 10
362.8298840332
 20
291.3587548828
 10
363.9548913574
 20
295.3587524414
 10
365.0798986816
 20
291.3587548828
  0
LWPOLYLINE
  5
3D5
100
AcDbEntity
  8
0
100
AcDbPolyline
 62
2
  6
CONTINUOUS
 90
6
 70
0
 10
414.6467175293
 20
256.6268774414
 10
416.075291748
 20
256.6268774414
 10
416.3610168457
 20
256.9125769043
 10
416.3610168457
 20
258.341151123
 10
415.7895666504
 20
258.9125756836
 10
415.2181420898
 20
258.9125756836
  0
LWPOLYLINE
  5
3D6
100
AcDbEntity
  8
0
100
AcDbPolyline
 62
2
  6
CONTINUOUS
 90
6
 70
0
 10
264.8548864746
 20
293.0254248047
 10
264.4048937988
 20
293.6920825195
 10
264.6298901367
 20
294.0254370117
 10
264.6298901367
 20
295.025423584
 10
264.4048937988
 20
295.3587524414
 10
262.8298937988
 20
295.3587524414
  0
LWPOLYLINE
  5
3D7
100
AcDbEntity
  8
0
100
AcDbPolyline
 62
7
  6
CONTINUOUS
 90
2
 70
0
 43
0.4999999952
 10
10.0536312849
 20
287.0
 10
410.0
 20
287.0
  0
LWPOLYLINE
  5
3D8
100
AcDbEntity
  8
0
100
AcDbPolyline
 62
7
  6
CONTINUOUS
 90
2
 70
0
 43
0.1000000003
 10
0.0
 20
290.0
 10
420.0
 20
290.0
  0
LINE
  5
3D9
100
AcDbEntity
  8
0
100
AcDbLine
 62
2
  6
CONTINUOUS
 10
363.2799023437
 20
292.6920959473
 11
364.6298803711
 21
292.6920959473
  0
LINE
  5
3DA
100
AcDbEntity
  8
0
100
AcDbLine
 62
2
  6
CONTINUOUS
 10
262.8298937988
 20
293.6920825195
 11
264.4048937988
 21
293.6920825195
  0
LWPOLYLINE
  5
3DB
100
AcDbEntity
  8
0
100
AcDbPolyline
 62
2
  6
CONTINUOUS
 90
3
 70
0
 10
54.8878848267
 20
295.5794934082
 10
55.7878829956
 20
295.5794934082
 10
56.2378820801
 20
295.2461645508
  0
LINE
  5
3DC
100
AcDbEntity
  8
0
100
AcDbLine
 62
7
  6
CONTINUOUS
 10
0.0
 20
297.0
 11
420.0
 21
297.0
  0
LWPOLYLINE
  5
3DD
100
AcDbEntity
  8
0
100
AcDbPolyline
 62
2
  6
CONTINUOUS
 90
3
 70
0
 10
362.8298840332
 20
1.3587588501
 10
363.9548913574
 20
5.358759613
 10
365.0798986816
 20
1.3587588501
  0
LWPOLYLINE
  5
3DE
100
AcDbEntity
  8
0
100
AcDbPolyline
 62
7
  6
CONTINUOUS
 90
2
 70
0
 43
0.4999999952
 10
410.0
 20
10.0318435754
 10
410.0
 20
287.0
  0
LWPOLYLINE
  5
3DF
100
AcDbEntity
  8
0
100
AcDbPolyline
 62
7
  6
CONTINUOUS
 90
2
 70
0
 43
0.1000000003
 10
413.0
 20
0.0
 10
413.0
 20
297.0
  0
LINE
  5
3E0
100
AcDbEntity
  8
0
100
AcDbLine
 62
7
  6
CONTINUOUS
 10
420.0
 20
0.0
 11
420.0
 21
297.0
  0
LWPOLYLINE
  5
3E1
100
AcDbEntity
  8
0
100
AcDbPolyline
 62
2
  6
CONTINUOUS
 90
3
 70
0
 10
414.6467175293
 20
59.4840133667
 10
415.7895666504
 20
60.6268688965
 10
415.7895666504
 20
56.6268713379
  0
LINE
  5
3E2
100
AcDbEntity
  8
7_ALL_FEATURES
100
AcDbLine
 62
7
  6
CONTINUOUS
 10
53.9533259091
 20
93.1383068494
 11
54.074221312
 21
96.6002982274
  0
LINE
  5
3E3
100
AcDbEntity
  8
7_ALL_FEATURES
100
AcDbLine
 62
7
  6
CONTINUOUS
 10
54.074221312
 20
96.6002982274
 11
57.1328414945
 21
98.2265954263
  0
LINE
  5
3E4
100
AcDbEntity
  8
7_ALL_FEATURES
100
AcDbLine
 62
7
  6
CONTINUOUS
 10
70.8863939386
 20
53.6642359404
 11
78.7494478816
 21
53.6642359404
  0
LINE
  5
3E5
100
AcDbEntity
  8
7_ALL_FEATURES
100
AcDbLine
 62
7
  6
CONTINUOUS
 10
72.0498092036
 20
54.6396040483
 11
79.5274561429
 21
54.6396040483
  0
LINE
  5
3E6
100
AcDbEntity
  8
7_ALL_FEATURES
100
AcDbLine
 62
7
  6
CONTINUOUS
 10
87.9211268098
 20
54.6396040483
 11
91.8084055425
 21
54.6396040483
  0
LINE
  5
3E7
100
AcDbEntity
  8
7_ALL_FEATURES
100
AcDbLine
 62
7
  6
CONTINUOUS
 10
81.5727746965
 20
48.5526126703
 11
78.6350499169
 21
50.3883068494
  0
LINE
  5
3E8
100
AcDbEntity
  8
7_ALL_FEATURES
100
AcDbLine
 62
7
  6
CONTINUOUS
 10
60.0705662741
 20
96.3909012472
 11
59.9496708712
 21
92.9289098692
  0
LINE
  5
3E9
100
AcDbEntity
  8
7_ALL_FEATURES
100
AcDbLine
 62
7
  6
CONTINUOUS
 10
78.7467480055
 20
55.6396040483
 11
72.7854148594
 21
55.6396040483
  0
LINE
  5
3EA
100
AcDbEntity
  8
7_ALL_FEATURES
100
AcDbLine
 62
7
  6
CONTINUOUS
 10
59.9496708712
 20
92.9289098692
 11
56.8910506887
 21
91.3026126703
  0
LINE
  5
3EB
100
AcDbEntity
  8
7_ALL_FEATURES
100
AcDbLine
 62
7
  6
CONTINUOUS
 10
77.1936700994
 20
61.3896040483
 11
87.4835962708
 21
61.3896040483
  0
LINE
  5
3EC
100
AcDbEntity
  8
7_ALL_FEATURES
100
AcDbLine
 62
7
  6
CONTINUOUS
 10
81.8145655023
 20
55.4765954263
 11
84.7522902819
 21
53.6409012472
  0
LINE
  5
3ED
100
AcDbEntity
  8
7_ALL_FEATURES
100
AcDbLine
 62
7
  6
CONTINUOUS
 10
68.1936700994
 20
86.1396040483
 11
68.1936700994
 21
64.6606313118
  0
LINE
  5
3EE
100
AcDbEntity
  8
7_ALL_FEATURES
100
AcDbLine
 62
7
  6
CONTINUOUS
 10
69.1936700994
 20
64.9167654761
 11
69.1936700994
 21
85.6396040483
  0
LINE
  5
3EF
100
AcDbEntity
  8
7_ALL_FEATURES
100
AcDbLine
 62
7
  6
CONTINUOUS
 10
89.6936700994
 20
67.3896040483
 11
77.1936700994
 21
67.3896040483
  0
LINE
  5
3F0
100
AcDbEntity
  8
7_ALL_FEATURES
100
AcDbLine
 62
7
  6
CONTINUOUS
 10
72.4436700994
 20
81.7896040483
 11
72.4436700994
 21
62.8368458896
  0
LINE
  5
3F1
100
AcDbEntity
  8
7_ALL_FEATURES
100
AcDbLine
 62
7
  6
CONTINUOUS
 10
73.1936700994
 20
62.4821672528
 11
73.1936700994
 21
83.8896040483
  0
LINE
  5
3F2
100
AcDbEntity
  8
7_ALL_FEATURES
100
AcDbLine
 62
7
  6
CONTINUOUS
 10
73.6936700994
 20
79.7896040483
 11
73.6936700994
 21
71.5896040483
  0
LINE
  5
3F3
100
AcDbEntity
  8
02___PRT_ALL_AXES
100
AcDbLine
 62
7
  6
CONTINUOUS
 10
85.1936700994
 20
71.5896040483
 11
81.4936700994
 21
71.5896040483
  0
LINE
  5
3F4
100
AcDbEntity
  8
7_ALL_FEATURES
100
AcDbLine
 62
7
  6
CONTINUOUS
 10
73.6936700994
 20
71.5896040483
 11
77.8936700994
 21
71.5896040483
  0
LINE
  5
3F5
100
AcDbEntity
  8
7_ALL_FEATURES
100
AcDbLine
 62
7
  6
CONTINUOUS
 10
77.0936700994
 20
69.3818876017
 11
77.0936700994
 21
63.0030293784
  0
LINE
  5
3F6
100
AcDbEntity
  8
7_ALL_FEATURES
100
AcDbLine
 62
7
  6
CONTINUOUS
 10
77.1936700994
 20
67.3896040483
 11
77.1936700994
 21
61.3896040483
  0
LINE
  5
3F7
100
AcDbEntity
  8
7_ALL_FEATURES
100
AcDbLine
 62
7
  6
CONTINUOUS
 10
77.8936700994
 20
71.5896040483
 11
77.8936700994
 21
77.9586559034
  0
LINE
  5
3F8
100
AcDbEntity
  8
7_ALL_FEATURES
100
AcDbLine
 62
7
  6
CONTINUOUS
 10
77.8936700994
 20
78.7291401045
 11
77.8936700994
 21
79.7896040483
  0
LINE
  5
3F9
100
AcDbEntity
  8
02___PRT_ALL_AXES
100
AcDbLine
 62
7
  6
CONTINUOUS
 10
77.8004716002
 20
77.9700992402
 11
78.5316876606
 21
83.92537615
  0
LINE
  5
3FA
100
AcDbEntity
  8
7_ALL_FEATURES
100
AcDbLine
 62
7
  6
CONTINUOUS
 10
103.4376693277
 20
96.6002982274
 11
106.4962895102
 21
98.2265954263
  0
LINE
  5
3FB
100
AcDbEntity
  8
06___PRT_ALL_SURFS
100
AcDbLine
 62
7
  6
CONTINUOUS
 10
96.3229699632
 20
74.6553379692
 11
96.5342787117
 21
74.6553379706
  0
LINE
  5
3FC
100
AcDbEntity
  8
06___PRT_ALL_SURFS
100
AcDbLine
 62
7
  6
CONTINUOUS
 10
95.0621012954
 20
74.8118253742
 11
95.2734104263
 21
74.8118253742
  0
LINE
  5
3FD
100
AcDbEntity
  8
7_ALL_FEATURES
100
AcDbLine
 62
7
  6
CONTINUOUS
 10
100.6560456673
 20
74.1562777887
 11
94.7007687574
 21
74.8874938491
  0
LINE
  5
3FE
100
AcDbEntity
  8
7_ALL_FEATURES
100
AcDbLine
 62
7
  6
CONTINUOUS
 10
56.8910506887
 20
91.3026126703
 11
53.9533259091
 21
93.1383068494
  0
LINE
  5
3FF
100
AcDbEntity
  8
02___PRT_ALL_AXES
100
AcDbLine
 62
7
  6
CONTINUOUS
 10
81.4936700994
 20
71.589651009
 11
81.4936700994
 21
77.5166314841
  0
LINE
  5
400
100
AcDbEntity
  8
7_ALL_FEATURES
100
AcDbLine
 62
7
  6
CONTINUOUS
 10
78.6350499169
 20
50.3883068494
 11
78.7559453198
 21
53.8502982274
  0
LINE
  5
401
100
AcDbEntity
  8
02___PRT_ALL_AXES
100
AcDbLine
 62
7
  6
CONTINUOUS
 10
90.2211175218
 20
81.4825848118
 11
93.7567799791
 21
81.908653247
  0
LINE
  5
402
100
AcDbEntity
  8
7_ALL_FEATURES
100
AcDbLine
 62
7
  6
CONTINUOUS
 10
100.3224452229
 20
77.3385142512
 11
99.8377633835
 21
77.3385142512
  0
LINE
  5
403
100
AcDbEntity
  8
06___PRT_ALL_SURFS
100
AcDbLine
 62
7
  6
CONTINUOUS
 10
100.3224452229
 20
77.5498233821
 11
99.8637088823
 21
77.5498233821
  0
LINE
  5
404
100
AcDbEntity
  8
7_ALL_FEATURES
100
AcDbLine
 62
7
  6
CONTINUOUS
 10
77.8936700994
 20
79.7896040483
 11
73.6936700994
 21
79.7896040483
  0
LINE
  5
405
100
AcDbEntity
  8
7_ALL_FEATURES
100
AcDbLine
 62
7
  6
CONTINUOUS
 10
100.322483203
 20
80.0721693016
 11
100.1734140185
 21
80.0721693016
  0
LINE
  5
406
100
AcDbEntity
  8
02___PRT_ALL_AXES
100
AcDbLine
 62
7
  6
CONTINUOUS
 10
83.1602208191
 20
77.3120047858
 11
77.8004716002
 21
77.9700992402
  0
LINE
  5
407
100
AcDbEntity
  8
7_ALL_FEATURES
100
AcDbLine
 62
7
  6
CONTINUOUS
 10
99.6173269646
 20
75.5432036903
 11
100.8083823465
 21
75.3969604782
  0
LINE
  5
408
100
AcDbEntity
  8
02___PRT_ALL_AXES
100
AcDbLine
 62
7
  6
CONTINUOUS
 10
89.6727054764
 20
77.0161271295
 11
83.2211554908
 21
77.8082778616
  0
LINE
  5
409
100
AcDbEntity
  8
02___PRT_ALL_AXES
100
AcDbLine
 62
7
  6
CONTINUOUS
 10
93.0612030365
 20
76.2436336596
 11
89.7336401481
 21
77.5124002053
  0
LINE
  5
40A
100
AcDbEntity
  8
06___PRT_ALL_SURFS
100
AcDbLine
 62
7
  6
CONTINUOUS
 10
101.2639036986
 20
59.6003197547
 11
101.4133218179
 21
59.4509016354
  0
LINE
  5
40B
100
AcDbEntity
  8
06___PRT_ALL_SURFS
100
AcDbLine
 62
7
  6
CONTINUOUS
 10
100.6319488768
 20
60.453527473
 11
100.5703235414
 21
60.5151528092
  0
LINE
  5
40C
100
AcDbEntity
  8
02___PRT_ALL_AXES
100
AcDbLine
 62
7
  6
CONTINUOUS
 10
85.1936700994
 20
71.589651009
 11
85.1936700994
 21
77.5660835215
  0
LINE
  5
40D
100
AcDbEntity
  8
7_ALL_FEATURES
100
AcDbLine
 62
7
  6
CONTINUOUS
 10
84.7522902819
 20
53.6409012472
 11
84.631394879
 21
50.1789098692
  0
LINE
  5
40E
100
AcDbEntity
  8
02___PRT_ALL_AXES
100
AcDbLine
 62
7
  6
CONTINUOUS
 10
83.1602208191
 20
77.3120047858
 11
83.8914368795
 21
83.2672816956
  0
LINE
  5
40F
100
AcDbEntity
  8
7_ALL_FEATURES
100
AcDbLine
 62
7
  6
CONTINUOUS
 10
109.3131188869
 20
92.9289098692
 11
106.2544987044
 21
91.3026126703
  0
LINE
  5
410
100
AcDbEntity
  8
7_ALL_FEATURES
100
AcDbLine
 62
7
  6
CONTINUOUS
 10
90.9436700994
 20
81.7896040483
 11
90.2588147439
 21
81.7896040483
  0
LINE
  5
411
100
AcDbEntity
  8
7_ALL_FEATURES
100
AcDbLine
 62
7
  6
CONTINUOUS
 10
75.5175089903
 20
81.7896040483
 11
74.7698312086
 21
81.7896040483
  0
LINE
  5
412
100
AcDbEntity
  8
7_ALL_FEATURES
100
AcDbLine
 62
7
  6
CONTINUOUS
 10
73.1936700994
 20
81.7896040483
 11
72.4436700994
 21
81.7896040483
  0
LINE
  5
413
100
AcDbEntity
  8
06___PRT_ALL_SURFS
100
AcDbLine
 62
7
  6
CONTINUOUS
 10
97.7957563458
 20
82.5988581787
 11
97.5844472149
 21
82.5988581787
  0
LINE
  5
414
100
AcDbEntity
  8
06___PRT_ALL_SURFS
100
AcDbLine
 62
7
  6
CONTINUOUS
 10
96.534887678
 20
82.7553455836
 11
96.3235789295
 21
82.7553455823
  0
LINE
  5
415
100
AcDbEntity
  8
7_ALL_FEATURES
100
AcDbLine
 62
7
  6
CONTINUOUS
 10
90.1936700994
 20
83.8896040483
 11
78.8230280494
 21
83.8896040483
  0
LINE
  5
416
100
AcDbEntity
  8
7_ALL_FEATURES
100
AcDbLine
 62
7
  6
CONTINUOUS
 10
78.5272953988
 20
83.8896040483
 11
73.1936700994
 21
83.8896040483
  0
LINE
  5
417
100
AcDbEntity
  8
02___PRT_ALL_AXES
100
AcDbLine
 62
7
  6
CONTINUOUS
 10
90.2820521935
 20
81.9788578877
 11
83.8305022078
 21
82.7710086198
  0
LINE
  5
418
100
AcDbEntity
  8
7_ALL_FEATURES
100
AcDbLine
 62
7
  6
CONTINUOUS
 10
101.4786637353
 20
80.8559643123
 11
100.2876083533
 21
81.0022075244
  0
LINE
  5
419
100
AcDbEntity
  8
02___PRT_ALL_AXES
100
AcDbLine
 62
7
  6
CONTINUOUS
 10
83.8914368795
 20
83.2672816956
 11
78.5316876606
 21
83.92537615
  0
LINE
  5
41A
100
AcDbEntity
  8
7_ALL_FEATURES
100
AcDbLine
 62
7
  6
CONTINUOUS
 10
95.6757235047
 20
82.8278630622
 11
101.6310004145
 21
82.0966470018
  0
LINE
  5
41B
100
AcDbEntity
  8
7_ALL_FEATURES
100
AcDbLine
 62
7
  6
CONTINUOUS
 10
57.1328414945
 20
98.2265954263
 11
60.0705662741
 21
96.3909012472
  0
LINE
  5
41C
100
AcDbEntity
  8
7_ALL_FEATURES
100
AcDbLine
 62
7
  6
CONTINUOUS
 10
69.1936700994
 20
85.6396040483
 11
94.1936700994
 21
85.6396040483
  0
LINE
  5
41D
100
AcDbEntity
  8
7_ALL_FEATURES
100
AcDbLine
 62
7
  6
CONTINUOUS
 10
94.6936700994
 20
86.6396040483
 11
68.6936700994
 21
86.6396040483
  0
LINE
  5
41E
100
AcDbEntity
  8
7_ALL_FEATURES
100
AcDbLine
 62
7
  6
CONTINUOUS
 10
89.6936700994
 20
62.2277011791
 11
89.6936700994
 21
67.3896040483
  0
LINE
  5
41F
100
AcDbEntity
  8
7_ALL_FEATURES
100
AcDbLine
 62
7
  6
CONTINUOUS
 10
90.1936700994
 20
62.4173095803
 11
90.1936700994
 21
77.3369953724
  0
LINE
  5
420
100
AcDbEntity
  8
7_ALL_FEATURES
100
AcDbLine
 62
7
  6
CONTINUOUS
 10
90.1936700994
 20
81.9897098443
 11
90.1936700994
 21
83.8896040483
  0
LINE
  5
421
100
AcDbEntity
  8
7_ALL_FEATURES
100
AcDbLine
 62
7
  6
CONTINUOUS
 10
90.9436700994
 20
62.8360078246
 11
90.9436700994
 21
77.0510278517
  0
LINE
  5
422
100
AcDbEntity
  8
7_ALL_FEATURES
100
AcDbLine
 62
7
  6
CONTINUOUS
 10
90.9436700994
 20
81.5696567113
 11
90.9436700994
 21
81.7896040483
  0
LINE
  5
423
100
AcDbEntity
  8
02___PRT_ALL_AXES
100
AcDbLine
 62
7
  6
CONTINUOUS
 10
89.6727054764
 20
77.0161271295
 11
90.2820521935
 21
81.9788578877
  0
LINE
  5
424
100
AcDbEntity
  8
7_ALL_FEATURES
100
AcDbLine
 62
7
  6
CONTINUOUS
 10
92.959415141
 20
77.1163248392
 11
93.4468925146
 21
81.0865094458
  0
LINE
  5
425
100
AcDbEntity
  8
06___PRT_ALL_SURFS
100
AcDbLine
 62
7
  6
CONTINUOUS
 10
92.8587220775
 20
76.7692848182
 11
92.9615463793
 21
76.8721091199
  0
LINE
  5
426
100
AcDbEntity
  8
7_ALL_FEATURES
100
AcDbLine
 62
7
  6
CONTINUOUS
 10
100.1485805391
 20
76.9186760815
 11
99.8258411521
 21
77.2414154685
  0
LINE
  5
427
100
AcDbEntity
  8
7_ALL_FEATURES
100
AcDbLine
 62
7
  6
CONTINUOUS
 10
94.1936700994
 20
85.6396040483
 11
94.1936700994
 21
82.4116773916
  0
LINE
  5
428
100
AcDbEntity
  8
7_ALL_FEATURES
100
AcDbLine
 62
7
  6
CONTINUOUS
 10
94.1936700994
 20
75.0191373476
 11
94.1936700994
 21
64.9844869328
  0
LINE
  5
429
100
AcDbEntity
  8
7_ALL_FEATURES
100
AcDbLine
 62
7
  6
CONTINUOUS
 10
95.0621012954
 20
74.8118253742
 11
95.0621012954
 21
74.8431277921
  0
LINE
  5
42A
100
AcDbEntity
  8
7_ALL_FEATURES
100
AcDbLine
 62
7
  6
CONTINUOUS
 10
95.1936700994
 20
65.8000497382
 11
95.1936700994
 21
74.7770555994
  0
LINE
  5
42B
100
AcDbEntity
  8
7_ALL_FEATURES
100
AcDbLine
 62
7
  6
CONTINUOUS
 10
95.1936700994
 20
82.8236562459
 11
95.1936700994
 21
86.1396040483
  0
LINE
  5
42C
100
AcDbEntity
  8
7_ALL_FEATURES
100
AcDbLine
 62
7
  6
CONTINUOUS
 10
97.7957563458
 20
82.5988581787
 11
97.7957563458
 21
82.5675557607
  0
LINE
  5
42D
100
AcDbEntity
  8
06___PRT_ALL_SURFS
100
AcDbLine
 62
7
  6
CONTINUOUS
 10
100.3224452229
 20
77.3385142512
 11
100.3224452229
 21
77.5498233821
  0
LINE
  5
42E
100
AcDbEntity
  8
06___PRT_ALL_SURFS
100
AcDbLine
 62
7
  6
CONTINUOUS
 10
100.4789326278
 20
78.599382919
 11
100.4789326265
 21
78.8106916675
  0
LINE
  5
42F
100
AcDbEntity
  8
7_ALL_FEATURES
100
AcDbLine
 62
7
  6
CONTINUOUS
 10
100.2876083533
 20
81.0022075244
 11
99.6173269646
 21
75.5432036903
  0
LINE
  5
430
100
AcDbEntity
  8
7_ALL_FEATURES
100
AcDbLine
 62
7
  6
CONTINUOUS
 10
103.3167739248
 20
93.1383068494
 11
103.4376693277
 21
96.6002982274
  0
LINE
  5
431
100
AcDbEntity
  8
7_ALL_FEATURES
100
AcDbLine
 62
7
  6
CONTINUOUS
 10
100.8083823465
 20
75.3969604782
 11
101.4786637353
 21
80.8559643123
  0
LINE
  5
432
100
AcDbEntity
  8
7_ALL_FEATURES
100
AcDbLine
 62
7
  6
CONTINUOUS
 10
78.7559453198
 20
53.8502982274
 11
81.8145655023
 21
55.4765954263
  0
LINE
  5
433
100
AcDbEntity
  8
7_ALL_FEATURES
100
AcDbLine
 62
7
  6
CONTINUOUS
 10
106.2544987044
 20
91.3026126703
 11
103.3167739248
 21
93.1383068494
  0
LINE
  5
434
100
AcDbEntity
  8
7_ALL_FEATURES
100
AcDbLine
 62
7
  6
CONTINUOUS
 10
109.4340142898
 20
96.3909012472
 11
109.3131188869
 21
92.9289098692
  0
LINE
  5
435
100
AcDbEntity
  8
06___PRT_ALL_SURFS
100
AcDbLine
 62
7
  6
CONTINUOUS
 10
101.2639036986
 20
59.6003197547
 11
101.2298892334
 21
59.5663052896
  0
LINE
  5
436
100
AcDbEntity
  8
7_ALL_FEATURES
100
AcDbLine
 62
7
  6
CONTINUOUS
 10
101.4133218179
 20
59.4509016354
 11
101.407015004
 21
59.4445948215
  0
LINE
  5
437
100
AcDbEntity
  8
7_ALL_FEATURES
100
AcDbLine
 62
7
  6
CONTINUOUS
 10
84.631394879
 20
50.1789098692
 11
81.5727746965
 21
48.5526126703
  0
LINE
  5
438
100
AcDbEntity
  8
7_ALL_FEATURES
100
AcDbLine
 62
7
  6
CONTINUOUS
 10
106.4962895102
 20
98.2265954263
 11
109.4340142898
 21
96.3909012472
  0
LWPOLYLINE
  5
439
100
AcDbEntity
  8
0
100
AcDbPolyline
 62
2
  6
CONTINUOUS
 90
13
 70
0
 43
0.1500000036
 10
124.5707336426
 20
108.8598083496
 10
124.2156408691
 20
108.8980682373
 10
123.8872467041
 20
109.450715332
 10
123.9139324951
 20
109.9651025391
 10
124.4665795898
 20
110.2934967041
 10
124.9311328125
 20
110.0710253906
 10
125.2595397949
 20
109.5183782959
 10
125.1233807373
 20
109.1882025146
 10
125.7107501221
 20
109.0387005615
 10
126.1486047363
 20
108.301842041
 10
125.9991027832
 20
107.7144726562
 10
125.4464556885
 20
107.3860784912
 10
124.8590991211
 20
107.5355804443
  0
LWPOLYLINE
  5
43A
100
AcDbEntity
  8
0
100
AcDbPolyline
 62
2
  6
CONTINUOUS
 90
2
 70
0
 43
0.1500000036
 10
122.2373803711
 20
104.6067315674
 10
122.0877758789
 20
109.7523724365
  0
LWPOLYLINE
  5
43B
100
AcDbEntity
  8
0
100
AcDbPolyline
 62
2
  6
CONTINUOUS
 90
13
 70
0
 43
0.1500000036
 10
120.8730725098
 20
106.4132904053
 10
120.7048571777
 20
107.1857556152
 10
120.879276123
 20
107.8710241699
 10
121.3963165283
 20
108.4690704346
 10
122.1687817383
 20
108.6372857666
 10
122.8540374756
 20
108.4628668213
 10
123.4520965576
 20
107.9458135986
 10
123.6202990723
 20
107.1733483887
 10
123.4458929443
 20
106.4880926514
 10
122.9288397217
 20
105.8900463867
 10
122.1563745117
 20
105.7218310547
 10
121.4711187744
 20
105.89625
 10
120.8730725098
 20
106.4132904053
  0
LWPOLYLINE
  5
43C
100
AcDbEntity
  8
0
100
AcDbPolyline
 62
2
  6
CONTINUOUS
 90
4
 70
0
 43
0.1500000036
 10
124.8590991211
 20
107.5355804443
 10
124.4212316895
 20
108.2724389648
 10
124.5707336426
 20
108.8598083496
 10
125.1233807373
 20
109.1882025146
  0
LWPOLYLINE
  5
43D
100
AcDbEntity
  8
0
100
AcDbPolyline
 62
2
  6
CONTINUOUS
 90
13
 70
0
 43
0.1500000036
 10
126.6665423584
 20
109.1081323242
 10
126.0097412109
 20
110.2134393311
 10
125.9750317383
 20
110.6913354492
 10
126.1245336914
 20
111.2786920166
 10
126.3087451172
 20
111.3881652832
 10
126.896114502
 20
111.2386633301
 10
127.2992596436
 20
110.9797009277
 10
127.9560479736
 20
109.8743939209
 10
127.9907702637
 20
109.3964978027
 10
127.8412683105
 20
108.8091412354
 10
127.6570568848
 20
108.6996679687
 10
127.0696875
 20
108.8491699219
 10
126.6665423584
 20
109.1081323242
  0
LINE
  5
43E
100
AcDbEntity
  8
7_ALL_FEATURES
100
AcDbLine
 62
7
  6
CONTINUOUS
 10
42.2436701001
 20
257.486647941
 11
41.9436701001
 21
257.186647941
  0
LINE
  5
43F
100
AcDbEntity
  8
7_ALL_FEATURES
100
AcDbLine
 62
7
  6
CONTINUOUS
 10
42.2436700997
 20
157.48664794
 11
41.9436700997
 21
157.78664794
  0
LINE
  5
440
100
AcDbEntity
  8
7_ALL_FEATURES
100
AcDbLine
 62
7
  6
CONTINUOUS
 10
42.2436700995
 20
157.4866479403
 11
121.1436700994
 21
157.4866479403
  0
LINE
  5
441
100
AcDbEntity
  8
7_ALL_FEATURES
100
AcDbLine
 62
7
  6
CONTINUOUS
 10
41.9436700994
 20
157.7866479403
 11
121.4436700994
 21
157.7866479403
  0
LINE
  5
442
100
AcDbEntity
  8
02___PRT_ALL_AXES
100
AcDbLine
 62
7
  6
CONTINUOUS
 10
41.9436700994
 20
257.1866479403
 11
41.9436700994
 21
157.7866479403
  0
LWPOLYLINE
  5
443
100
AcDbEntity
  8
0
100
AcDbPolyline
 62
2
  6
CONTINUOUS
 90
13
 70
0
 43
0.1500000036
 10
133.2028308105
 20
205.9866540527
 10
131.9171191406
 20
205.9866540527
 10
131.4885443115
 20
206.2009350586
 10
131.0599694824
 20
206.6294970703
 10
131.0599694824
 20
206.8437780762
 10
131.4885443115
 20
207.2723657227
 10
131.9171191406
 20
207.4866467285
 10
133.2028308105
 20
207.4866467285
 10
133.6314056396
 20
207.2723657227
 10
134.0599676514
 20
206.8437780762
 10
134.0599676514
 20
206.6294970703
 10
133.6314056396
 20
206.2009350586
 10
133.2028308105
 20
205.9866540527
  0
LWPOLYLINE
  5
444
100
AcDbEntity
  8
0
100
AcDbPolyline
 62
2
  6
CONTINUOUS
 90
13
 70
0
 43
0.1500000036
 10
133.2028308105
 20
208.3437963867
 10
131.9171191406
 20
208.3437963867
 10
131.4885443115
 20
208.5580773926
 10
131.0599694824
 20
208.9866394043
 10
131.0599694824
 20
209.2009460449
 10
131.4885443115
 20
209.6295080566
 10
131.9171191406
 20
209.8437890625
 10
133.2028308105
 20
209.8437890625
 10
133.6314056396
 20
209.6295080566
 10
134.0599676514
 20
209.2009460449
 10
134.0599676514
 20
208.9866394043
 10
133.6314056396
 20
208.5580773926
 10
133.2028308105
 20
208.3437963867
  0
LINE
  5
445
100
AcDbEntity
  8
02___PRT_ALL_AXES
100
AcDbLine
 62
7
  6
CONTINUOUS
 10
94.9289288206
 20
258.0866479403
 11
94.9289288206
 21
257.4866479403
  0
LINE
  5
446
100
AcDbEntity
  8
02___PRT_ALL_AXES
100
AcDbLine
 62
7
  6
CONTINUOUS
 10
97.9289288206
 20
258.0866479403
 11
97.9289288206
 21
257.7417419434
  0
LWPOLYLINE
  5
447
100
AcDbEntity
  8
0
100
AcDbPolyline
 62
2
  6
CONTINUOUS
 90
3
 70
0
 43
0.1500000036
 10
131.9171191406
 20
204.2723547363
 10
131.0599694824
 20
205.1295043945
 10
134.0599676514
 20
205.1295043945
  0
LINE
  5
448
100
AcDbEntity
  8
02___PRT_ALL_AXES
100
AcDbLine
 62
7
  6
CONTINUOUS
 10
121.4436700994
 20
257.1866479403
 11
121.4436700994
 21
157.7866479403
  0
LINE
  5
449
100
AcDbEntity
  8
7_ALL_FEATURES
100
AcDbLine
 62
7
  6
CONTINUOUS
 10
121.4436700994
 20
157.7866479403
 11
121.4436700994
 21
257.1866479403
  0
LINE
  5
44A
100
AcDbEntity
  8
7_ALL_FEATURES
100
AcDbLine
 62
7
  6
CONTINUOUS
 10
41.9436700994
 20
257.1866479403
 11
121.4436700994
 21
257.1866479403
  0
LINE
  5
44B
100
AcDbEntity
  8
7_ALL_FEATURES
100
AcDbLine
 62
7
  6
CONTINUOUS
 10
42.2436700995
 20
257.4866479403
 11
121.1436700994
 21
257.4866479403
  0
LINE
  5
44C
100
AcDbEntity
  8
02___PRT_ALL_AXES
100
AcDbLine
 62
7
  6
CONTINUOUS
 10
106.8732976255
 20
257.9866479403
 11
98.8732976255
 21
257.9866479403
  0
LINE
  5
44D
100
AcDbEntity
  8
02___PRT_ALL_AXES
100
AcDbLine
 62
7
  6
CONTINUOUS
 10
50.5886239202
 20
257.9866479403
 11
58.5884948498
 21
257.9866479403
  0
LINE
  5
44E
100
AcDbEntity
  8
02___PRT_ALL_AXES
100
AcDbLine
 62
7
  6
CONTINUOUS
 10
83.6192065963
 20
257.9866479403
 11
91.6190999791
 21
257.9866479403
  0
LINE
  5
44F
100
AcDbEntity
  8
02___PRT_ALL_AXES
100
AcDbLine
 62
7
  6
CONTINUOUS
 10
94.9289288206
 20
258.0866479403
 11
97.9289288206
 21
258.0866479403
  0
LINE
  5
450
100
AcDbEntity
  8
7_ALL_FEATURES
100
AcDbLine
 62
7
  6
CONTINUOUS
 10
121.1436700991
 20
157.48664794
 11
121.4436700991
 21
157.78664794
  0
LINE
  5
451
100
AcDbEntity
  8
7_ALL_FEATURES
100
AcDbLine
 62
7
  6
CONTINUOUS
 10
121.1436700991
 20
257.4866479407
 11
121.4436700991
 21
257.1866479407
  0
LINE
  5
452
100
AcDbEntity
  8
7_ALL_FEATURES
100
AcDbLine
 62
7
  6
CONTINUOUS
 10
149.5207326349
 20
257.4866479403
 11
149.2207326349
 21
257.1866479403
  0
LINE
  5
453
100
AcDbEntity
  8
7_ALL_FEATURES
100
AcDbLine
 62
7
  6
CONTINUOUS
 10
149.5207326349
 20
157.4866479403
 11
149.2207326349
 21
157.7866479403
  0
LINE
  5
454
100
AcDbEntity
  8
7_ALL_FEATURES
100
AcDbLine
 62
7
  6
CONTINUOUS
 10
149.5207326349
 20
157.4866479403
 11
228.4207326349
 21
157.4866479403
  0
LINE
  5
455
100
AcDbEntity
  8
7_ALL_FEATURES
100
AcDbLine
 62
7
  6
CONTINUOUS
 10
149.2207326349
 20
157.7866479403
 11
228.7207326349
 21
157.7866479403
  0
LINE
  5
456
100
AcDbEntity
  8
02___PRT_ALL_AXES
100
AcDbLine
 62
7
  6
CONTINUOUS
 10
149.2207326349
 20
257.1866479403
 11
149.2207326349
 21
157.7866479403
  0
LINE
  5
457
100
AcDbEntity
  8
02___PRT_ALL_AXES
100
AcDbLine
 62
7
  6
CONTINUOUS
 10
189.2799949068
 20
257.4866479403
 11
189.2799949068
 21
258.0866479403
  0
LINE
  5
458
100
AcDbEntity
  8
02___PRT_ALL_AXES
100
AcDbLine
 62
7
  6
CONTINUOUS
 10
192.2799949068
 20
257.4866479403
 11
192.2799949068
 21
258.0866479403
  0
LINE
  5
459
100
AcDbEntity
  8
02___PRT_ALL_AXES
100
AcDbLine
 62
7
  6
CONTINUOUS
 10
228.7207326349
 20
257.1866479403
 11
228.7207326349
 21
157.7866479403
  0
LINE
  5
45A
100
AcDbEntity
  8
7_ALL_FEATURES
100
AcDbLine
 62
7
  6
CONTINUOUS
 10
149.2207326349
 20
257.1866479403
 11
228.7207326349
 21
257.1866479403
  0
LINE
  5
45B
100
AcDbEntity
  8
7_ALL_FEATURES
100
AcDbLine
 62
7
  6
CONTINUOUS
 10
149.5207326349
 20
257.4866479403
 11
228.4207326349
 21
257.4866479403
  0
LINE
  5
45C
100
AcDbEntity
  8
02___PRT_ALL_AXES
100
AcDbLine
 62
7
  6
CONTINUOUS
 10
157.0935626198
 20
257.9866479403
 11
165.0934894082
 21
257.9866479403
  0
LINE
  5
45D
100
AcDbEntity
  8
02___PRT_ALL_AXES
100
AcDbLine
 62
7
  6
CONTINUOUS
 10
193.777726464
 20
257.9866479403
 11
201.7777074852
 21
257.9866479403
  0
LINE
  5
45E
100
AcDbEntity
  8
02___PRT_ALL_AXES
100
AcDbLine
 62
7
  6
CONTINUOUS
 10
204.0410229363
 20
257.9866479403
 11
212.0408868961
 21
257.9866479403
  0
LINE
  5
45F
100
AcDbEntity
  8
02___PRT_ALL_AXES
100
AcDbLine
 62
7
  6
CONTINUOUS
 10
189.2800211247
 20
258.0866479403
 11
192.2799686889
 21
258.0866479403
  0
LINE
  5
460
100
AcDbEntity
  8
7_ALL_FEATURES
100
AcDbLine
 62
7
  6
CONTINUOUS
 10
228.4207326349
 20
157.4866479403
 11
228.7207326349
 21
157.7866479403
  0
LINE
  5
461
100
AcDbEntity
  8
7_ALL_FEATURES
100
AcDbLine
 62
7
  6
CONTINUOUS
 10
228.4207326349
 20
257.4866479403
 11
228.7207326349
 21
257.1866479403
  0
LINE
  5
462
100
AcDbEntity
  8
7_ALL_FEATURES
100
AcDbLine
 62
7
  6
CONTINUOUS
 10
301.4976725854
 20
95.4441714811
 11
301.0562709807
 21
97.2086784013
  0
LINE
  5
463
100
AcDbEntity
  8
7_ALL_FEATURES
100
AcDbLine
 62
7
  6
CONTINUOUS
 10
303.4754628222
 20
95.5348250328
 11
303.0562701025
 21
97.210552638
  0
LINE
  5
464
100
AcDbEntity
  8
02___PRT_ALL_AXES
100
AcDbLine
 62
7
  6
CONTINUOUS
 10
300.9674379876
 20
192.0512510745
 11
301.0562709796
 21
97.2086795456
  0
LINE
  5
465
100
AcDbEntity
  8
02___PRT_ALL_AXES
100
AcDbLine
 62
7
  6
CONTINUOUS
 10
308.3011737546
 20
102.6541286839
 11
308.3020674467
 21
101.6999780649
  0
LINE
  5
466
100
AcDbEntity
  8
7_ALL_FEATURES
100
AcDbLine
 62
7
  6
CONTINUOUS
 10
380.1148345017
 20
99.0476501607
 11
380.5562361064
 21
97.2831432404
  0
LINE
  5
467
100
AcDbEntity
  8
02___PRT_ALL_AXES
100
AcDbLine
 62
7
  6
CONTINUOUS
 10
373.3011452428
 20
102.7150100145
 11
373.3020389349
 21
101.7608593955
  0
LINE
  5
468
100
AcDbEntity
  8
02___PRT_ALL_AXES
100
AcDbLine
 62
7
  6
CONTINUOUS
 10
380.4674031154
 20
192.125713625
 11
380.5562361075
 21
97.2831420961
  0
LINE
  5
469
100
AcDbEntity
  8
7_ALL_FEATURES
100
AcDbLine
 62
7
  6
CONTINUOUS
 10
380.0260015097
 20
193.8902216896
 11
380.4674031143
 21
192.1257147654
  0
ARC
  5
46A
100
AcDbEntity
  8
7_ALL_FEATURES
100
AcDbCircle
 62
7
  6
CONTINUOUS
 10
81.8331689408
 20
77.8528075889
 40
27.7345506349
100
AcDbArc
 50
275.8084740893
 51
289.5242696485
  0
CIRCLE
  5
46B
100
AcDbEntity
  8
02___PRT_ALL_AXES
100
AcDbCircle
 62
7
  6
CONTINUOUS
 10
54.588559385
 20
71.7076197086
 40
6.0
  0
ARC
  5
46C
100
AcDbEntity
  8
02___PRT_ALL_AXES
100
AcDbCircle
 62
7
  6
CONTINUOUS
 10
75.7681869111
 20
52.6373974274
 40
4.25
100
AcDbArc
 50
28.9347819059
 51
157.8758140714
  0
ARC
  5
46D
100
AcDbEntity
  8
02___PRT_ALL_AXES
100
AcDbCircle
 62
7
  6
CONTINUOUS
 10
75.7681869111
 20
52.6373974274
 40
4.25
100
AcDbArc
 50
178.1241859286
 51
316.504149479
  0
CIRCLE
  5
46E
100
AcDbEntity
  8
02___PRT_ALL_AXES
100
AcDbCircle
 62
9
  6
CONTINUOUS
 10
54.588559385
 20
71.7076197086
 40
4.0
  0
CIRCLE
  5
46F
100
AcDbEntity
  8
02___PRT_ALL_AXES
100
AcDbCircle
 62
7
  6
CONTINUOUS
 10
54.588559385
 20
71.7076197086
 40
2.5
  0
ARC
  5
470
100
AcDbEntity
  8
7_ALL_FEATURES
100
AcDbCircle
 62
7
  6
CONTINUOUS
 10
80.8004200743
 20
55.4193265048
 40
1.5
100
AcDbArc
 50
208.9347819059
 51
224.5057839398
  0
ARC
  5
471
100
AcDbEntity
  8
7_ALL_FEATURES
100
AcDbCircle
 62
7
  6
CONTINUOUS
 10
79.9393761829
 20
48.6796606929
 40
1.5
100
AcDbArc
 50
117.4842452394
 51
136.504149479
  0
ARC
  5
472
100
AcDbEntity
  8
02___PRT_ALL_AXES
100
AcDbCircle
 62
7
  6
CONTINUOUS
 10
68.3110579723
 20
65.6517075387
 40
1.0
100
AcDbArc
 50
136.5674562624
 51
319.4325437376
  0
ARC
  5
473
100
AcDbEntity
  8
02___PRT_ALL_AXES
100
AcDbCircle
 62
7
  6
CONTINUOUS
 10
71.611059608
 20
53.5210221134
 40
0.75
100
AcDbArc
 50
72.9379070357
 51
263.0620929643
  0
ARC
  5
474
100
AcDbEntity
  8
02___PRT_ALL_AXES
100
AcDbCircle
 62
7
  6
CONTINUOUS
 10
53.8164634785
 20
86.4400872366
 40
1.8
100
AcDbArc
 50
169.5242696485
 51
346.4703732727
  0
CIRCLE
  5
475
100
AcDbEntity
  8
02___PRT_ALL_AXES
100
AcDbCircle
 62
7
  6
CONTINUOUS
 10
65.582837437
 20
86.3784675867
 40
1.25
  0
ARC
  5
476
100
AcDbEntity
  8
7_ALL_FEATURES
100
AcDbCircle
 62
7
  6
CONTINUOUS
 10
66.6936700994
 20
103.5634651915
 40
4.7625
100
AcDbArc
 50
179.6896720999
 51
245.5635402343
  0
ARC
  5
477
100
AcDbEntity
  8
02___PRT_ALL_AXES
100
AcDbCircle
 62
7
  6
CONTINUOUS
 10
60.5140425733
 20
99.5848263295
 40
4.25
100
AcDbArc
 50
268.9347819059
 51
37.8758140714
  0
ARC
  5
478
100
AcDbEntity
  8
02___PRT_ALL_AXES
100
AcDbCircle
 62
7
  6
CONTINUOUS
 10
60.5140425733
 20
99.5848263295
 40
4.25
100
AcDbArc
 50
58.1241859286
 51
196.504149479
  0
ARC
  5
479
100
AcDbEntity
  8
7_ALL_FEATURES
100
AcDbCircle
 62
7
  6
CONTINUOUS
 10
60.4071472444
 20
93.8358200338
 40
1.5
100
AcDbArc
 50
88.9347819059
 51
104.5057839398
  0
ARC
  5
47A
100
AcDbEntity
  8
7_ALL_FEATURES
100
AcDbCircle
 62
7
  6
CONTINUOUS
 10
55.0009473839
 20
97.9513388234
 40
1.5
100
AcDbArc
 50
357.4842452394
 51
16.504149479
  0
ARC
  5
47B
100
AcDbEntity
  8
02___PRT_ALL_AXES
100
AcDbCircle
 62
7
  6
CONTINUOUS
 10
63.3578476504
 20
102.7431918378
 40
0.75
100
AcDbArc
 50
312.9379070357
 51
143.0620929643
  0
CIRCLE
  5
47C
100
AcDbEntity
  8
02___PRT_ALL_AXES
100
AcDbCircle
 62
7
  6
CONTINUOUS
 10
75.1436700994
 20
81.1396040483
 40
0.75
  0
ARC
  5
47D
100
AcDbEntity
  8
7_ALL_FEATURES
100
AcDbCircle
 62
7
  6
CONTINUOUS
 10
68.6936700994
 20
86.1396040483
 40
0.5
100
AcDbArc
 50
90.0
 51
180.0
  0
CIRCLE
  5
47E
100
AcDbEntity
  8
7_ALL_FEATURES
100
AcDbCircle
 62
7
  6
CONTINUOUS
 10
81.6936700994
 20
80.5146040483
 40
39.75
  0
CIRCLE
  5
47F
100
AcDbEntity
  8
7_ALL_FEATURES
100
AcDbCircle
 62
7
  6
CONTINUOUS
 10
81.6936700994
 20
80.5146040483
 40
39.45
  0
CIRCLE
  5
480
100
AcDbEntity
  8
7_ALL_FEATURES
100
AcDbCircle
 62
7
  6
CONTINUOUS
 10
81.6936700994
 20
80.5146040483
 40
38.05
  0
CIRCLE
  5
481
100
AcDbEntity
  8
7_ALL_FEATURES
100
AcDbCircle
 62
7
  6
CONTINUOUS
 10
81.6936700994
 20
80.5146040483
 40
37.75
  0
ARC
  5
482
100
AcDbEntity
  8
0
100
AcDbCircle
 62
2
  6
CONTINUOUS
 10
81.6936700994
 20
80.5146040483
 40
37.5
100
AcDbArc
 50
255.0
 51
195.0
  0
CIRCLE
  5
483
100
AcDbEntity
  8
7_ALL_FEATURES
100
AcDbCircle
 62
7
  6
CONTINUOUS
 10
81.6936700994
 20
80.5146040483
 40
37.2
  0
ARC
  5
484
100
AcDbEntity
  8
02___PRT_ALL_AXES
100
AcDbCircle
 62
7
  6
CONTINUOUS
 10
81.6936700994
 20
80.5146040483
 40
37.0
100
AcDbArc
 50
229.5485817163
 51
226.4514182837
  0
ARC
  5
485
100
AcDbEntity
  8
02___PRT_ALL_AXES
100
AcDbCircle
 62
7
  6
CONTINUOUS
 10
81.6936700994
 20
80.5146040483
 40
36.685
100
AcDbArc
 50
226.5876433613
 51
229.4602398494
  0
ARC
  5
486
100
AcDbEntity
  8
7_ALL_FEATURES
100
AcDbCircle
 62
7
  6
CONTINUOUS
 10
81.6936700994
 20
80.5146040483
 40
32.5
100
AcDbArc
 50
135.0182548556
 51
140.9162242902
  0
ARC
  5
487
100
AcDbEntity
  8
7_ALL_FEATURES
100
AcDbCircle
 62
7
  6
CONTINUOUS
 10
81.6936700994
 20
80.5146040483
 40
32.5
100
AcDbArc
 50
15.2228294144
 51
21.0103714347
  0
ARC
  5
488
100
AcDbEntity
  8
7_ALL_FEATURES
100
AcDbCircle
 62
7
  6
CONTINUOUS
 10
81.6936700994
 20
80.5146040483
 40
32.5
100
AcDbArc
 50
255.1718299794
 51
260.8290335847
  0
ARC
  5
489
100
AcDbEntity
  8
7_ALL_FEATURES
100
AcDbCircle
 62
7
  6
CONTINUOUS
 10
78.9546280215
 20
78.7358493248
 40
29.8659332313
100
AcDbArc
 50
34.9925476022
 51
46.4703732727
  0
ARC
  5
48A
100
AcDbEntity
  8
7_ALL_FEATURES
100
AcDbCircle
 62
7
  6
CONTINUOUS
 10
79.3187373252
 20
81.7246927376
 40
27.7345506349
100
AcDbArc
 50
155.8084740893
 51
169.5242696485
  0
ARC
  5
48B
100
AcDbEntity
  8
02___PRT_ALL_AXES
100
AcDbCircle
 62
7
  6
CONTINUOUS
 10
81.6936700994
 20
80.5146040483
 40
20.0
100
AcDbArc
 50
230.8650874751
 51
341.4630409672
  0
ARC
  5
48C
100
AcDbEntity
  8
02___PRT_ALL_AXES
100
AcDbCircle
 62
7
  6
CONTINUOUS
 10
81.6936700994
 20
80.5146040483
 40
20.0
100
AcDbArc
 50
4.5369590328
 51
225.1349125249
  0
ARC
  5
48D
100
AcDbEntity
  8
7_ALL_FEATURES
100
AcDbCircle
 62
7
  6
CONTINUOUS
 10
81.5227443607
 20
83.7760614316
 40
29.8659332313
100
AcDbArc
 50
274.9925476022
 51
286.4703732727
  0
CIRCLE
  5
48E
100
AcDbEntity
  8
02___PRT_ALL_AXES
100
AcDbCircle
 62
7
  6
CONTINUOUS
 10
102.8732976255
 20
61.4443817671
 40
6.0
  0
ARC
  5
48F
100
AcDbEntity
  8
06___PRT_ALL_SURFS
100
AcDbCircle
 62
7
  6
CONTINUOUS
 10
96.3245910238
 20
77.1325916821
 40
5.6227539913
100
AcDbArc
 50
87.8578681917
 51
90.010313226
  0
ARC
  5
490
100
AcDbEntity
  8
06___PRT_ALL_SURFS
100
AcDbCircle
 62
7
  6
CONTINUOUS
 10
96.5504580864
 20
56.666242929
 40
5.5640332376
100
AcDbArc
 50
42.8585687987
 51
43.698354463
  0
CIRCLE
  5
491
100
AcDbEntity
  8
02___PRT_ALL_AXES
100
AcDbCircle
 62
9
  6
CONTINUOUS
 10
102.8732976255
 20
61.4443817671
 40
4.0
  0
ARC
  5
492
100
AcDbEntity
  8
06___PRT_ALL_SURFS
100
AcDbCircle
 62
7
  6
CONTINUOUS
 10
99.1034867889
 20
58.2003811535
 40
2.6271965066
100
AcDbArc
 50
32.0306507195
 51
33.4724599639
  0
CIRCLE
  5
493
100
AcDbEntity
  8
02___PRT_ALL_AXES
100
AcDbCircle
 62
7
  6
CONTINUOUS
 10
102.8732976255
 20
61.4443817671
 40
2.5
  0
ARC
  5
494
100
AcDbEntity
  8
7_ALL_FEATURES
100
AcDbCircle
 62
7
  6
CONTINUOUS
 10
94.9445074442
 20
76.8725861524
 40
2.0
100
AcDbArc
 50
173.0
 51
263.0
  0
ARC
  5
495
100
AcDbEntity
  8
02___PRT_ALL_AXES
100
AcDbCircle
 62
7
  6
CONTINUOUS
 10
90.5006544391
 20
53.4094933339
 40
1.8
100
AcDbArc
 50
289.5242696485
 51
106.4703732727
  0
ARC
  5
496
100
AcDbEntity
  8
02___PRT_ALL_AXES
100
AcDbCircle
 62
7
  6
CONTINUOUS
 10
97.8045027619
 20
74.6507405099
 40
1.25
100
AcDbArc
 50
179.5884305878
 51
346.3584673986
  0
ARC
  5
497
100
AcDbEntity
  8
7_ALL_FEATURES
100
AcDbCircle
 62
7
  6
CONTINUOUS
 10
84.603637916
 20
79.0319013885
 40
29.8659332313
100
AcDbArc
 50
154.9925476022
 51
166.4703732727
  0
ARC
  5
498
100
AcDbEntity
  8
7_ALL_FEATURES
100
AcDbCircle
 62
7
  6
CONTINUOUS
 10
83.9291040323
 20
81.9663118184
 40
27.7345506349
100
AcDbArc
 50
35.8084740893
 51
49.5242696485
  0
CIRCLE
  5
499
100
AcDbEntity
  8
02___PRT_ALL_AXES
100
AcDbCircle
 62
7
  6
CONTINUOUS
 10
87.6191532877
 20
108.3918106692
 40
6.0
  0
ARC
  5
49A
100
AcDbEntity
  8
06___PRT_ALL_SURFS
100
AcDbCircle
 62
7
  6
CONTINUOUS
 10
94.8561787262
 20
78.8096795733
 40
5.6227539913
100
AcDbArc
 50
357.8578681917
 51
0.010313226
  0
ARC
  5
49B
100
AcDbEntity
  8
06___PRT_ALL_SURFS
100
AcDbCircle
 62
7
  6
CONTINUOUS
 10
96.5332666174
 20
80.2780918708
 40
5.6227539913
100
AcDbArc
 50
267.8578681917
 51
270.010313226
  0
ARC
  5
49C
100
AcDbEntity
  8
02___PRT_ALL_AXES
100
AcDbCircle
 62
7
  6
CONTINUOUS
 10
108.7987808138
 20
89.321588388
 40
4.25
100
AcDbArc
 50
148.9347819059
 51
277.8758140714
  0
ARC
  5
49D
100
AcDbEntity
  8
02___PRT_ALL_AXES
100
AcDbCircle
 62
7
  6
CONTINUOUS
 10
108.7987808138
 20
89.321588388
 40
4.25
100
AcDbArc
 50
298.1241859286
 51
76.504149479
  0
CIRCLE
  5
49E
100
AcDbEntity
  8
02___PRT_ALL_AXES
100
AcDbCircle
 62
9
  6
CONTINUOUS
 10
87.6191532877
 20
108.3918106692
 40
4.0
  0
CIRCLE
  5
49F
100
AcDbEntity
  8
02___PRT_ALL_AXES
100
AcDbCircle
 62
7
  6
CONTINUOUS
 10
87.6191532877
 20
108.3918106692
 40
2.5
  0
ARC
  5
4A0
100
AcDbEntity
  8
7_ALL_FEATURES
100
AcDbCircle
 62
7
  6
CONTINUOUS
 10
95.4319848179
 20
80.842770759
 40
2.0
100
AcDbArc
 50
83.0
 51
173.0
  0
ARC
  5
4A1
100
AcDbEntity
  8
02___PRT_ALL_AXES
100
AcDbCircle
 62
7
  6
CONTINUOUS
 10
100.7638923807
 20
101.6942315744
 40
1.8
100
AcDbArc
 50
49.5242696485
 51
226.4703732727
  0
CIRCLE
  5
4A2
100
AcDbEntity
  8
02___PRT_ALL_AXES
100
AcDbCircle
 62
7
  6
CONTINUOUS
 10
96.4289288206
 20
78.7053417764
 40
1.75
  0
CIRCLE
  5
4A3
100
AcDbEntity
  8
02___PRT_ALL_AXES
100
AcDbCircle
 62
7
  6
CONTINUOUS
 10
96.4289288206
 20
78.7053417764
 40
1.6
  0
CIRCLE
  5
4A4
100
AcDbEntity
  8
02___PRT_ALL_AXES
100
AcDbCircle
 62
7
  6
CONTINUOUS
 10
96.4289288206
 20
78.7053417764
 40
1.5
  0
ARC
  5
4A5
100
AcDbEntity
  8
7_ALL_FEATURES
100
AcDbCircle
 62
7
  6
CONTINUOUS
 10
103.8734429797
 20
92.2886656063
 40
1.5
100
AcDbArc
 50
328.9347819059
 51
344.5057839398
  0
ARC
  5
4A6
100
AcDbEntity
  8
7_ALL_FEATURES
100
AcDbCircle
 62
7
  6
CONTINUOUS
 10
110.1406867315
 20
94.9128126285
 40
1.5
100
AcDbArc
 50
237.4842452394
 51
256.504149479
  0
CIRCLE
  5
4A7
100
AcDbEntity
  8
02___PRT_ALL_AXES
100
AcDbCircle
 62
7
  6
CONTINUOUS
 10
88.9393714537
 20
96.0530607464
 40
1.25
  0
ARC
  5
4A8
100
AcDbEntity
  8
02___PRT_ALL_AXES
100
AcDbCircle
 62
7
  6
CONTINUOUS
 10
110.1121030399
 20
85.2795981937
 40
0.75
100
AcDbArc
 50
192.9379070357
 51
23.0620929643
  0
ARC
  5
4A9
100
AcDbEntity
  8
7_ALL_FEATURES
100
AcDbCircle
 62
7
  6
CONTINUOUS
 10
94.6936700994
 20
86.1396040483
 40
0.5
100
AcDbArc
 50
0.0
 51
90.0
  0
ARC
  5
4AA
100
AcDbEntity
  8
02___PRT_ALL_AXES
100
AcDbCircle
 62
7
  6
CONTINUOUS
 10
91.6191532877
 20
255.9866479403
 40
2.0
100
AcDbArc
 50
49.0486021819
 51
90.0
  0
ARC
  5
4AB
100
AcDbEntity
  8
02___PRT_ALL_AXES
100
AcDbCircle
 62
7
  6
CONTINUOUS
 10
83.6191532877
 20
255.9866479403
 40
2.0
100
AcDbArc
 50
90.0
 51
130.9513978181
  0
ARC
  5
4AC
100
AcDbEntity
  8
02___PRT_ALL_AXES
100
AcDbCircle
 62
7
  6
CONTINUOUS
 10
50.588559385
 20
255.9866479403
 40
2.0
100
AcDbArc
 50
90.0
 51
130.9513978181
  0
ARC
  5
4AD
100
AcDbEntity
  8
02___PRT_ALL_AXES
100
AcDbCircle
 62
7
  6
CONTINUOUS
 10
58.588559385
 20
255.9866479403
 40
2.0
100
AcDbArc
 50
49.0486021819
 51
90.0
  0
ARC
  5
4AE
100
AcDbEntity
  8
02___PRT_ALL_AXES
100
AcDbCircle
 62
7
  6
CONTINUOUS
 10
106.8732976255
 20
255.9866479403
 40
2.0
100
AcDbArc
 50
49.0486021819
 51
90.0
  0
ARC
  5
4AF
100
AcDbEntity
  8
02___PRT_ALL_AXES
100
AcDbCircle
 62
7
  6
CONTINUOUS
 10
98.8732976255
 20
255.9866479403
 40
2.0
100
AcDbArc
 50
90.0
 51
130.9513978181
  0
ARC
  5
4B0
100
AcDbEntity
  8
02___PRT_ALL_AXES
100
AcDbCircle
 62
7
  6
CONTINUOUS
 10
157.093526014
 20
255.9866479403
 40
2.0
100
AcDbArc
 50
90.0
 51
130.9513978181
  0
ARC
  5
4B1
100
AcDbEntity
  8
02___PRT_ALL_AXES
100
AcDbCircle
 62
7
  6
CONTINUOUS
 10
165.093526014
 20
255.9866479403
 40
2.0
100
AcDbArc
 50
49.0486021819
 51
90.0
  0
ARC
  5
4B2
100
AcDbEntity
  8
02___PRT_ALL_AXES
100
AcDbCircle
 62
7
  6
CONTINUOUS
 10
201.7777169746
 20
255.9866479403
 40
2.0
100
AcDbArc
 50
49.0486021819
 51
90.0
  0
ARC
  5
4B3
100
AcDbEntity
  8
02___PRT_ALL_AXES
100
AcDbCircle
 62
7
  6
CONTINUOUS
 10
193.7777169746
 20
255.9866479403
 40
2.0
100
AcDbArc
 50
90.0
 51
130.9513978181
  0
ARC
  5
4B4
100
AcDbEntity
  8
02___PRT_ALL_AXES
100
AcDbCircle
 62
7
  6
CONTINUOUS
 10
212.0409549162
 20
255.9866479403
 40
2.0
100
AcDbArc
 50
49.0486021819
 51
90.0
  0
ARC
  5
4B5
100
AcDbEntity
  8
02___PRT_ALL_AXES
100
AcDbCircle
 62
7
  6
CONTINUOUS
 10
204.0409549162
 20
255.9866479403
 40
2.0
100
AcDbArc
 50
90.0
 51
124.7663445645
  0
ARC
  5
4B6
100
AcDbEntity
  8
7_ALL_FEATURES
100
AcDbCircle
 62
7
  6
CONTINUOUS
 10
323.4012569793
 20
68.2949816969
 40
38.8297055264
100
AcDbArc
 50
110.4834416129
 51
111.0361834801
  0
ARC
  5
4B7
100
AcDbEntity
  8
7_ALL_FEATURES
100
AcDbCircle
 62
7
  6
CONTINUOUS
 10
358.2803352848
 20
68.3664683997
 40
38.7881183855
100
AcDbArc
 50
69.0574542736
 51
69.6021407217
  0
ARC
  5
4B8
100
AcDbEntity
  8
7_ALL_FEATURES
100
AcDbCircle
 62
7
  6
CONTINUOUS
 10
371.3234057466
 20
187.9609080784
 40
10.6410240771
100
AcDbArc
 50
47.9008534496
 51
49.8179849702
  0
ARC
  5
4B9
100
AcDbEntity
  8
7_ALL_FEATURES
100
AcDbCircle
 62
7
  6
CONTINUOUS
 10
310.0177554965
 20
188.0191768175
 40
10.4872112175
100
AcDbArc
 50
130.25449948
 51
132.2199819759
  0
ARC
  5
4BA
100
AcDbEntity
  8
7_ALL_FEATURES
100
AcDbCircle
 62
7
  6
CONTINUOUS
 10
370.0935052083
 20
92.9972398233
 40
10.2011277274
100
AcDbArc
 50
47.8973817467
 51
49.8834499111
  0
ARC
  5
4BB
100
AcDbEntity
  8
7_ALL_FEATURES
100
AcDbCircle
 62
7
  6
CONTINUOUS
 10
311.4200397359
 20
93.0640812112
 40
10.0391053709
100
AcDbArc
 50
130.2084469458
 51
132.2241292595
  0
ARC
  5
4BC
100
AcDbEntity
  8
7_ALL_FEATURES
100
AcDbCircle
 62
7
  6
CONTINUOUS
 10
309.7069426505
 20
100.2520171401
 40
9.4783335936
100
AcDbArc
 50
225.1811604303
 51
227.8875111794
  0
ARC
  5
4BD
100
AcDbEntity
  8
02___PRT_ALL_AXES
100
AcDbCircle
 62
7
  6
CONTINUOUS
 10
314.0879640113
 20
103.3748006868
 40
6.2797765519
100
AcDbArc
 50
219.8610583138
 51
222.9042012405
  0
ARC
  5
4BE
100
AcDbEntity
  8
02___PRT_ALL_AXES
100
AcDbCircle
 62
7
  6
CONTINUOUS
 10
367.6572542911
 20
103.2984417263
 40
6.0880487369
100
AcDbArc
 50
317.2435387236
 51
320.7287720545
  0
ARC
  5
4BF
100
AcDbEntity
  8
7_ALL_FEATURES
100
AcDbCircle
 62
7
  6
CONTINUOUS
 10
306.0638908154
 20
97.7432736931
 40
5.1123595243
100
AcDbArc
 50
206.7253681028
 51
210.8232195999
  0
ARC
  5
4C0
100
AcDbEntity
  8
7_ALL_FEATURES
100
AcDbCircle
 62
7
  6
CONTINUOUS
 10
374.0527333424
 20
96.4779216715
 40
4.9054718223
100
AcDbArc
 50
26.7301540041
 51
30.9883260231
  0
ARC
  5
4C1
100
AcDbEntity
  8
7_ALL_FEATURES
100
AcDbCircle
 62
7
  6
CONTINUOUS
 10
305.8884675534
 20
97.2293653654
 40
4.5819630858
100
AcDbArc
 50
202.2159585033
 51
206.6870949835
  0
ARC
  5
4C2
100
AcDbEntity
  8
7_ALL_FEATURES
100
AcDbCircle
 62
7
  6
CONTINUOUS
 10
374.2268083007
 20
96.9913346932
 40
4.3765022635
100
AcDbArc
 50
22.0297377724
 51
26.6885160664
  0
ARC
  5
4C3
100
AcDbEntity
  8
7_ALL_FEATURES
100
AcDbCircle
 62
7
  6
CONTINUOUS
 10
312.2061915396
 20
102.4420787468
 40
4.2446626606
100
AcDbArc
 50
206.7401854764
 51
211.3195073537
  0
ARC
  5
4C4
100
AcDbEntity
  8
7_ALL_FEATURES
100
AcDbCircle
 62
7
  6
CONTINUOUS
 10
370.5757267163
 20
101.7003429517
 40
3.2821463557
100
AcDbArc
 50
13.420953465
 51
17.6174076836
  0
ARC
  5
4C5
100
AcDbEntity
  8
7_ALL_FEATURES
100
AcDbCircle
 62
7
  6
CONTINUOUS
 10
311.0247990822
 20
101.6452894489
 40
3.2784874419
100
AcDbArc
 50
162.4738730987
 51
166.6734095722
  0
ARC
  5
4C6
100
AcDbEntity
  8
7_ALL_FEATURES
100
AcDbCircle
 62
7
  6
CONTINUOUS
 10
370.3597506307
 20
102.0008920457
 40
3.196034569
100
AcDbArc
 50
13.3099356984
 51
15.0214608778
  0
ARC
  5
4C7
100
AcDbEntity
  8
7_ALL_FEATURES
100
AcDbCircle
 62
7
  6
CONTINUOUS
 10
311.2394381532
 20
101.9464565868
 40
3.19157241
100
AcDbArc
 50
165.0716192756
 51
166.7990675471
  0
ARC
  5
4C8
100
AcDbEntity
  8
02___PRT_ALL_AXES
100
AcDbCircle
 62
7
  6
CONTINUOUS
 10
311.4271958999
 20
101.7353965317
 40
3.1278786867
100
AcDbArc
 50
190.2646778764
 51
195.100766924
  0
ARC
  5
4C9
100
AcDbEntity
  8
7_ALL_FEATURES
100
AcDbCircle
 62
7
  6
CONTINUOUS
 10
370.7431502865
 20
101.7403894137
 40
3.1100000174
100
AcDbArc
 50
6.6655737
 51
13.4192361436
  0
ARC
  5
4CA
100
AcDbEntity
  8
7_ALL_FEATURES
100
AcDbCircle
 62
7
  6
CONTINUOUS
 10
310.8564291952
 20
101.6852809287
 40
3.10543333
100
AcDbArc
 50
166.6753487246
 51
173.4244535599
  0
ARC
  5
4CB
100
AcDbEntity
  8
7_ALL_FEATURES
100
AcDbCircle
 62
7
  6
CONTINUOUS
 10
370.4781675551
 20
102.0276475259
 40
3.0746390834
100
AcDbArc
 50
7.09501019
 51
13.3327628863
  0
ARC
  5
4CC
100
AcDbEntity
  8
7_ALL_FEATURES
100
AcDbCircle
 62
7
  6
CONTINUOUS
 10
311.1250451157
 20
102.3873405521
 40
3.074639065
100
AcDbArc
 50
187.0950101873
 51
193.3327629238
  0
ARC
  5
4CD
100
AcDbEntity
  8
7_ALL_FEATURES
100
AcDbCircle
 62
7
  6
CONTINUOUS
 10
370.4828200924
 20
102.4418610507
 40
3.0695822119
100
AcDbArc
 50
346.7762881657
 51
353.0283413021
  0
ARC
  5
4CE
100
AcDbEntity
  8
7_ALL_FEATURES
100
AcDbCircle
 62
7
  6
CONTINUOUS
 10
311.1203925682
 20
101.9731270334
 40
3.0695821827
100
AcDbArc
 50
166.7762886428
 51
173.0283424358
  0
ARC
  5
4CF
100
AcDbEntity
  8
7_ALL_FEATURES
100
AcDbCircle
 62
7
  6
CONTINUOUS
 10
311.0243561909
 20
102.3734257171
 40
2.9730027705
100
AcDbArc
 50
183.8139152705
 51
187.0685750072
  0
ARC
  5
4D0
100
AcDbEntity
  8
7_ALL_FEATURES
100
AcDbCircle
 62
7
  6
CONTINUOUS
 10
370.5825569911
 20
102.4282777039
 40
2.9689343315
100
AcDbArc
 50
353.054915515
 51
356.3414675378
  0
ARC
  5
4D1
100
AcDbEntity
  8
7_ALL_FEATURES
100
AcDbCircle
 62
7
  6
CONTINUOUS
 10
370.5956872368
 20
102.0433064065
 40
2.9560853551
100
AcDbArc
 50
0.0781589411
 51
7.0751718878
  0
ARC
  5
4D2
100
AcDbEntity
  8
7_ALL_FEATURES
100
AcDbCircle
 62
7
  6
CONTINUOUS
 10
311.005127228
 20
101.9882983164
 40
2.953327806
100
AcDbArc
 50
173.049069738
 51
180.0448028733
  0
ARC
  5
4D3
100
AcDbEntity
  8
7_ALL_FEATURES
100
AcDbCircle
 62
7
  6
CONTINUOUS
 10
311.003718035
 20
101.9898162395
 40
2.9519201913
100
AcDbArc
 50
180.0742866325
 51
186.4690370655
  0
ARC
  5
4D4
100
AcDbEntity
  8
7_ALL_FEATURES
100
AcDbCircle
 62
7
  6
CONTINUOUS
 10
370.6023676403
 20
102.0448425334
 40
2.9494032576
100
AcDbArc
 50
353.6428115679
 51
0.0484948463
  0
ARC
  5
4D5
100
AcDbEntity
  8
02___PRT_ALL_AXES
100
AcDbCircle
 62
7
  6
CONTINUOUS
 10
311.2417267109
 20
101.7033127617
 40
2.939661102
100
AcDbArc
 50
180.0641373911
 51
190.2935147545
  0
ARC
  5
4D6
100
AcDbEntity
  8
02___PRT_ALL_AXES
100
AcDbCircle
 62
7
  6
CONTINUOUS
 10
370.3850017682
 20
102.7122260529
 40
2.9161447578
100
AcDbArc
 50
0.0538338745
 51
2.9602458234
  0
ARC
  5
4D7
100
AcDbEntity
  8
02___PRT_ALL_AXES
100
AcDbCircle
 62
7
  6
CONTINUOUS
 10
311.2171168648
 20
102.6568068095
 40
2.9159442959
100
AcDbArc
 50
177.1920954437
 51
180.051757989
  0
SPLINE
  5
4D8
100
AcDbEntity
  8
06___PRT_ALL_SURFS
100
AcDbSpline
 62
7
  6
CONTINUOUS
 70
0
 71
3
 72
9
 73
5
 74
0
 42
0.0000001
 43
0.0000001
 44
0.0000000001
 40
0.0
 40
0.0
 40
0.0
 40
0.0
 40
0.5003610328
 40
1.0
 40
1.0
 40
1.0
 40
1.0
 10
101.4133218179
 20
59.4509016354
 30
0.0
 10
101.4000391591
 20
59.4750126164
 30
0.0
 10
101.3735298672
 20
59.5232244087
 30
0.0
 10
101.3452969572
 20
59.5704637766
 30
0.0
 10
101.330730699
 20
59.59377487
 30
0.0
  0
SPLINE
  5
4D9
100
AcDbEntity
  8
06___PRT_ALL_SURFS
100
AcDbSpline
 62
7
  6
CONTINUOUS
 70
0
 71
3
 72
12
 73
8
 74
0
 42
0.0000001
 43
0.0000001
 44
0.0000000001
 40
0.0
 40
0.0
 40
0.0
 40
0.0
 40
0.1252998281
 40
0.2504418531
 40
0.5004415214
 40
0.7502713765
 40
1.0
 40
1.0
 40
1.0
 40
1.0
 10
101.2949654402
 20
59.6493748751
 30
0.0
 10
101.2709394828
 20
59.6857545978
 30
0.0
 10
101.2214403711
 20
59.7574927919
 30
0.0
 10
101.1190758954
 20
59.8983651087
 30
0.0
 10
100.984577415
 20
60.0693643877
 30
0.0
 10
100.8135632742
 20
60.2663969724
 30
0.0
 10
100.693390568
 20
60.392085781
 30
0.0
 10
100.6319488768
 20
60.453527473
 30
0.0
  0
SPLINE
  5
4DA
100
AcDbEntity
  8
06___PRT_ALL_SURFS
100
AcDbSpline
 62
7
  6
CONTINUOUS
 70
0
 71
3
 72
14
 73
10
 74
0
 42
0.0000001
 43
0.0000001
 44
0.0000000001
 40
0.0
 40
0.0
 40
0.0
 40
0.0
 40
0.2495149066
 40
0.499191229
 40
0.6241506303
 40
0.7492615777
 40
0.8745109301
 40
0.9372202056
 40
1.0
 40
1.0
 40
1.0
 40
1.0
 10
100.6290888784
 20
60.4508481569
 30
0.0
 10
100.6892677502
 20
60.3859910025
 30
0.0
 10
100.8065175486
 20
60.2532763318
 30
0.0
 10
100.9447699871
 20
60.0803294213
 30
0.0
 10
101.0500472259
 20
59.9377639602
 30
0.0
 10
101.1264223662
 20
59.8287648932
 30
0.0
 10
101.1870194482
 20
59.7356828237
 30
0.0
 10
101.2317112521
 20
59.6588042344
 30
0.0
 10
101.2531619563
 20
59.6198177847
 30
0.0
 10
101.2639036986
 20
59.6003197547
 30
0.0
  0
SPLINE
  5
4DB
100
AcDbEntity
  8
06___PRT_ALL_SURFS
100
AcDbSpline
 62
7
  6
CONTINUOUS
 70
0
 71
3
 72
14
 73
10
 74
0
 42
0.0000001
 43
0.0000001
 44
0.0000000001
 40
0.0
 40
0.0
 40
0.0
 40
0.0
 40
0.1254337207
 40
0.2506623423
 40
0.3757833189
 40
0.5007970269
 40
0.6256943464
 40
0.7505096689
 40
1.0
 40
1.0
 40
1.0
 40
1.0
 10
100.1485805391
 20
76.9186760815
 30
0.0
 10
100.1331093938
 20
76.8905925107
 30
0.0
 10
100.102226658
 20
76.8344393893
 30
0.0
 10
100.0519903883
 20
76.7525223958
 30
0.0
 10
99.9987004764
 20
76.6727165994
 30
0.0
 10
99.9436928074
 20
76.5941974717
 30
0.0
 10
99.8873028522
 20
76.5167608808
 30
0.0
 10
99.8102603969
 20
76.4150316344
 30
0.0
 10
99.7504359051
 20
76.3403274841
 30
0.0
 10
99.7096935498
 20
76.291264149
 30
0.0
  0
SPLINE
  5
4DC
100
AcDbEntity
  8
06___PRT_ALL_SURFS
100
AcDbSpline
 62
7
  6
CONTINUOUS
 70
0
 71
3
 72
16
 73
12
 74
0
 42
0.0000001
 43
0.0000001
 44
0.0000000001
 40
0.0
 40
0.0
 40
0.0
 40
0.0
 40
0.0627961829
 40
0.1255045122
 40
0.188154469
 40
0.2507672262
 40
0.3758402368
 40
0.5007757552
 40
0.6256483585
 40
0.7504733537
 40
1.0
 40
1.0
 40
1.0
 40
1.0
 10
100.322483203
 20
80.0721693016
 30
0.0
 10
100.329906579
 20
80.0465340239
 30
0.0
 10
100.3447913698
 20
79.9953091984
 30
0.0
 10
100.3644492517
 20
79.9177757528
 30
0.0
 10
100.3811954926
 20
79.8396488411
 30
0.0
 10
100.4009008028
 20
79.7350913658
 30
0.0
 10
100.4223482629
 20
79.6039453002
 30
0.0
 10
100.4432001654
 20
79.4459673159
 30
0.0
 10
100.4593302418
 20
79.287541637
 30
0.0
 10
100.4745586811
 20
79.0758954697
 30
0.0
 10
100.4789326258
 20
78.9167408251
 30
0.0
 10
100.4789326265
 20
78.8106916676
 30
0.0
  0
SPLINE
  5
4DD
100
AcDbEntity
  8
06___PRT_ALL_SURFS
100
AcDbSpline
 62
7
  6
CONTINUOUS
 70
0
 71
3
 72
14
 73
10
 74
0
 42
0.0000001
 43
0.0000001
 44
0.0000000001
 40
0.0
 40
0.0
 40
0.0
 40
0.0
 40
0.0627965362
 40
0.1255193635
 40
0.2507400668
 40
0.3758027451
 40
0.5007692999
 40
0.750456451
 40
1.0
 40
1.0
 40
1.0
 40
1.0
 10
100.3224452229
 20
77.3385142512
 30
0.0
 10
100.3298292563
 20
77.364146396
 30
0.0
 10
100.3444587056
 20
77.4154233781
 30
0.0
 10
100.3702839065
 20
77.5187744749
 30
0.0
 10
100.3967525908
 20
77.6491294669
 30
0.0
 10
100.4225272072
 20
77.8064574564
 30
0.0
 10
100.4499603414
 20
78.0169733208
 30
0.0
 10
100.473106103
 20
78.2812623327
 30
0.0
 10
100.4789326285
 20
78.4933825179
 30
0.0
 10
100.4789326278
 20
78.5993829191
 30
0.0
  0
SPLINE
  5
4DE
100
AcDbEntity
  8
06___PRT_ALL_SURFS
100
AcDbSpline
 62
7
  6
CONTINUOUS
 70
0
 71
3
 72
14
 73
10
 74
0
 42
0.0000001
 43
0.0000001
 44
0.0000000001
 40
0.0
 40
0.0
 40
0.0
 40
0.0
 40
0.0627965362
 40
0.1255193635
 40
0.2507400668
 40
0.3758027451
 40
0.5007692999
 40
0.750456451
 40
1.0
 40
1.0
 40
1.0
 40
1.0
 10
97.7957563458
 20
82.5988581787
 30
0.0
 10
97.770124201
 20
82.6062422121
 30
0.0
 10
97.7188472189
 20
82.6208716614
 30
0.0
 10
97.6154961222
 20
82.6466968623
 30
0.0
 10
97.4851411302
 20
82.6731655467
 30
0.0
 10
97.3278131406
 20
82.698940163
 30
0.0
 10
97.1172972762
 20
82.7263732972
 30
0.0
 10
96.8530082643
 20
82.7495190588
 30
0.0
 10
96.6408880791
 20
82.7553455843
 30
0.0
 10
96.5348876779
 20
82.7553455836
 30
0.0
  0
SPLINE
  5
4DF
100
AcDbEntity
  8
06___PRT_ALL_SURFS
100
AcDbSpline
 62
7
  6
CONTINUOUS
 70
0
 71
3
 72
14
 73
10
 74
0
 42
0.0000001
 43
0.0000001
 44
0.0000000001
 40
0.0
 40
0.0
 40
0.0
 40
0.0
 40
0.0627965362
 40
0.1255193635
 40
0.2507400668
 40
0.3758027451
 40
0.5007692999
 40
0.750456451
 40
1.0
 40
1.0
 40
1.0
 40
1.0
 10
95.0621012954
 20
74.8118253742
 30
0.0
 10
95.0877334402
 20
74.8044413407
 30
0.0
 10
95.1390104223
 20
74.7898118915
 30
0.0
 10
95.2423615191
 20
74.7639866906
 30
0.0
 10
95.372716511
 20
74.7375180062
 30
0.0
 10
95.5300445006
 20
74.7117433899
 30
0.0
 10
95.740560365
 20
74.6843102557
 30
0.0
 10
96.0048493769
 20
74.661164494
 30
0.0
 10
96.2169695621
 20
74.6553379685
 30
0.0
 10
96.3229699633
 20
74.6553379692
 30
0.0
  0
SPLINE
  5
4E0
100
AcDbEntity
  8
06___PRT_ALL_SURFS
100
AcDbSpline
 62
7
  6
CONTINUOUS
 70
0
 71
3
 72
14
 73
10
 74
0
 42
0.0000001
 43
0.0000001
 44
0.0000000001
 40
0.0
 40
0.0
 40
0.0
 40
0.0
 40
0.24951254
 40
0.4992276949
 40
0.6241978821
 40
0.7492688096
 40
0.8745024023
 40
0.9372221408
 40
1.0
 40
1.0
 40
1.0
 40
1.0
 10
100.4750034137
 20
78.5995092178
 30
0.0
 10
100.4716820998
 20
78.511148784
 30
0.0
 10
100.4606040998
 20
78.3344986691
 30
0.0
 10
100.4362541704
 20
78.1145469099
 30
0.0
 10
100.4100859292
 20
77.9393669291
 30
0.0
 10
100.3866747918
 20
77.8084320296
 30
0.0
 10
100.3630951364
 20
77.6999950959
 30
0.0
 10
100.3408691691
 20
77.6139534759
 30
0.0
 10
100.3286040444
 20
77.5712012701
 30
0.0
 10
100.3224452229
 20
77.5498233821
 30
0.0
  0
SPLINE
  5
4E1
100
AcDbEntity
  8
06___PRT_ALL_SURFS
100
AcDbSpline
 62
7
  6
CONTINUOUS
 70
0
 71
3
 72
10
 73
6
 74
0
 42
0.0000001
 43
0.0000001
 44
0.0000000001
 40
0.0
 40
0.0
 40
0.0
 40
0.0
 40
0.4995897617
 40
0.7497130824
 40
1.0
 40
1.0
 40
1.0
 40
1.0
 10
92.9639668339
 20
76.5915119832
 30
0.0
 10
92.9453463832
 20
76.6204485347
 30
0.0
 10
92.9181872179
 20
76.6643861382
 30
0.0
 10
92.8837318643
 20
76.72402924
 30
0.0
 10
92.8670608711
 20
76.7541969716
 30
0.0
 10
92.8587220775
 20
76.7692848182
 30
0.0
  0
SPLINE
  5
4E2
100
AcDbEntity
  8
06___PRT_ALL_SURFS
100
AcDbSpline
 62
7
  6
CONTINUOUS
 70
0
 71
3
 72
14
 73
10
 74
0
 42
0.0000001
 43
0.0000001
 44
0.0000000001
 40
0.0
 40
0.0
 40
0.0
 40
0.0
 40
0.24951254
 40
0.4992276949
 40
0.6241978821
 40
0.7492688096
 40
0.8745024023
 40
0.9372221408
 40
1.0
 40
1.0
 40
1.0
 40
1.0
 10
96.5347613793
 20
82.7514163695
 30
0.0
 10
96.623121813
 20
82.7480950556
 30
0.0
 10
96.799771928
 20
82.7370170556
 30
0.0
 10
97.0197236871
 20
82.7126671263
 30
0.0
 10
97.1949036679
 20
82.686498885
 30
0.0
 10
97.3258385674
 20
82.6630877476
 30
0.0
 10
97.4342755012
 20
82.6395080922
 30
0.0
 10
97.5203171212
 20
82.6172821249
 30
0.0
 10
97.5630693269
 20
82.6050170002
 30
0.0
 10
97.5844472149
 20
82.5988581787
 30
0.0
  0
SPLINE
  5
4E3
100
AcDbEntity
  8
06___PRT_ALL_SURFS
100
AcDbSpline
 62
7
  6
CONTINUOUS
 70
0
 71
3
 72
14
 73
10
 74
0
 42
0.0000001
 43
0.0000001
 44
0.0000000001
 40
0.0
 40
0.0
 40
0.0
 40
0.0
 40
0.24951254
 40
0.4992276949
 40
0.6241978821
 40
0.7492688096
 40
0.8745024023
 40
0.9372221408
 40
1.0
 40
1.0
 40
1.0
 40
1.0
 10
96.3230962619
 20
74.6592671833
 30
0.0
 10
96.2347358282
 20
74.6625884973
 30
0.0
 10
96.0580857133
 20
74.6736664973
 30
0.0
 10
95.8381339541
 20
74.6980164266
 30
0.0
 10
95.6629539733
 20
74.7241846679
 30
0.0
 10
95.5320190738
 20
74.7475958052
 30
0.0
 10
95.4235821401
 20
74.7711754606
 30
0.0
 10
95.3375405201
 20
74.7934014279
 30
0.0
 10
95.2947883143
 20
74.8056665526
 30
0.0
 10
95.2734104263
 20
74.8118253742
 30
0.0
  0
SPLINE
  5
4E4
100
AcDbEntity
  8
7_ALL_FEATURES
100
AcDbSpline
 62
7
  6
CONTINUOUS
 70
0
 71
3
 72
13
 73
9
 74
0
 42
0.0000001
 43
0.0000001
 44
0.0000000001
 40
0.0
 40
0.0
 40
0.0
 40
0.0
 40
0.1039519972
 40
0.2114823418
 40
0.3253109738
 40
0.446970807
 40
0.712698451
 40
1.0
 40
1.0
 40
1.0
 40
1.0
 10
77.0936700994
 20
63.0030293784
 30
0.0
 10
77.0936700994
 20
62.9152992725
 30
0.0
 10
77.0690426552
 20
62.7359613746
 30
0.0
 10
76.9611215764
 20
62.48052869
 30
0.0
 10
76.7874767659
 20
62.2458488334
 30
0.0
 10
76.4692163466
 20
61.9634092092
 30
0.0
 10
75.9467421136
 20
61.7109713621
 30
0.0
 10
75.4800142853
 20
61.6340362972
 30
0.0
 10
75.2376873967
 20
61.625775853
 30
0.0
  0
SPLINE
  5
4E5
100
AcDbEntity
  8
7_ALL_FEATURES
100
AcDbSpline
 62
7
  6
CONTINUOUS
 70
0
 71
3
 72
9
 73
5
 74
0
 42
0.0000001
 43
0.0000001
 44
0.0000000001
 40
0.0
 40
0.0
 40
0.0
 40
0.0
 40
0.5126370265
 40
1.0
 40
1.0
 40
1.0
 40
1.0
 10
73.410184867
 20
62.3715676692
 30
0.0
 10
73.3421451804
 20
62.4649639237
 30
0.0
 10
73.2329253422
 20
62.6664806103
 30
0.0
 10
73.1936689778
 20
62.8933448384
 30
0.0
 10
73.1936786564
 20
63.0031998661
 30
0.0
  0
SPLINE
  5
4E6
100
AcDbEntity
  8
7_ALL_FEATURES
100
AcDbSpline
 62
7
  6
CONTINUOUS
 70
0
 71
3
 72
13
 73
9
 74
0
 42
0.0000001
 43
0.0000001
 44
0.0000000001
 40
0.0
 40
0.0
 40
0.0
 40
0.0
 40
0.1034559914
 40
0.210668918
 40
0.3244979852
 40
0.4464317086
 40
0.7129510744
 40
1.0
 40
1.0
 40
1.0
 40
1.0
 10
77.0936700994
 20
63.0030293784
 30
0.0
 10
77.0936700994
 20
63.0935623209
 30
0.0
 10
77.067396891
 20
63.278856139
 30
0.0
 10
76.9524287695
 20
63.5417829374
 30
0.0
 10
76.768009067
 20
63.7819120842
 30
0.0
 10
76.4309274918
 20
64.0681778667
 30
0.0
 10
75.8817539749
 20
64.3164804043
 30
0.0
 10
75.3948627421
 20
64.3818876017
 30
0.0
 10
75.1436700994
 20
64.3818876017
 30
0.0
  0
SPLINE
  5
4E7
100
AcDbEntity
  8
7_ALL_FEATURES
100
AcDbSpline
 62
7
  6
CONTINUOUS
 70
0
 71
3
 72
13
 73
9
 74
0
 42
0.0000001
 43
0.0000001
 44
0.0000000001
 40
0.0
 40
0.0
 40
0.0
 40
0.0
 40
0.1034555692
 40
0.2106694697
 40
0.3245000346
 40
0.4464339196
 40
0.7129493544
 40
1.0
 40
1.0
 40
1.0
 40
1.0
 10
73.1936786564
 20
63.0031998661
 30
0.0
 10
73.1936866321
 20
63.0937263089
 30
0.0
 10
73.2200026354
 20
63.2790028397
 30
0.0
 10
73.3349923309
 20
63.5418977051
 30
0.0
 10
73.5194259671
 20
63.7819933838
 30
0.0
 10
73.856497983
 20
64.068218669
 30
0.0
 10
74.4056361311
 20
64.3164920419
 30
0.0
 10
74.8924929598
 20
64.3818876017
 30
0.0
 10
75.1436700994
 20
64.3818876017
 30
0.0
  0
SPLINE
  5
4E8
100
AcDbEntity
  8
02___PRT_ALL_AXES
100
AcDbSpline
 62
7
  6
CONTINUOUS
 70
0
 71
3
 72
15
 73
11
 74
0
 42
0.0000001
 43
0.0000001
 44
0.0000000001
 40
0.0
 40
0.0
 40
0.0
 40
0.0
 40
0.12306873
 40
0.2489058969
 40
0.3744317817
 40
0.5
 40
0.6255682183
 40
0.7510941031
 40
0.87693127
 40
1.0
 40
1.0
 40
1.0
 40
1.0
 10
57.6879569373
 20
52.3592184964
 30
0.0
 10
57.7729054535
 20
52.4535633816
 30
0.0
 10
57.9035599322
 20
52.6836852073
 30
0.0
 10
57.960708508
 20
53.0748423438
 30
0.0
 10
57.8607712802
 20
53.4614016752
 30
0.0
 10
57.6222914338
 20
53.780629653
 30
0.0
 10
57.2798842884
 20
53.9844346719
 30
0.0
 10
56.8849962845
 20
54.0434179803
 30
0.0
 10
56.5019556006
 20
53.945695416
 30
0.0
 10
56.2867515182
 20
53.7917023954
 30
0.0
 10
56.201803002
 20
53.6973575102
 30
0.0
  0
SPLINE
  5
4E9
100
AcDbEntity
  8
02___PRT_ALL_AXES
100
AcDbSpline
 62
7
  6
CONTINUOUS
 70
0
 71
3
 72
9
 73
5
 74
0
 42
0.0000001
 43
0.0000001
 44
0.0000000001
 40
0.0
 40
0.0
 40
0.0
 40
0.0
 40
0.2439499013
 40
1.0
 40
1.0
 40
1.0
 40
1.0
 10
308.4073255421
 20
100.9205296093
 30
0.0
 10
308.4223869351
 20
100.8646687626
 30
0.0
 10
308.4903155117
 20
100.6373720719
 30
0.0
 10
308.5824813193
 20
100.4175286362
 30
0.0
 10
308.6629618413
 20
100.2572985153
 30
0.0
  0
SPLINE
  5
4EA
100
AcDbEntity
  8
02___PRT_ALL_AXES
100
AcDbSpline
 62
7
  6
CONTINUOUS
 70
0
 71
3
 72
11
 73
7
 74
0
 42
0.0000001
 43
0.0000001
 44
0.0000000001
 40
0.0
 40
0.0
 40
0.0
 40
0.0
 40
0.2307227816
 40
0.4696658978
 40
0.7241330003
 40
1.0
 40
1.0
 40
1.0
 40
1.0
 10
373.3020389309
 20
101.76081538
 30
0.0
 10
373.3022191146
 20
101.5651566604
 30
0.0
 10
373.2617835524
 20
101.1657621424
 30
0.0
 10
373.0809685018
 20
100.5753251782
 30
0.0
 10
372.782328097
 20
99.99210052
 30
0.0
 10
372.5183885395
 20
99.6259134295
 30
0.0
 10
372.3703669915
 20
99.4447543888
 30
0.0
  0
SPLINE
  5
4EB
100
AcDbEntity
  8
02___PRT_ALL_AXES
100
AcDbSpline
 62
7
  6
CONTINUOUS
 70
0
 71
3
 72
29
 73
25
 74
0
 42
0.0000001
 43
0.0000001
 44
0.0000000001
 40
0.0
 40
0.0
 40
0.0
 40
0.0
 40
0.0168767008
 40
0.0359217317
 40
0.057240016
 40
0.0808550808
 40
0.1067316372
 40
0.1347903788
 40
0.196959656
 40
0.2661695995
 40
0.3409019322
 40
0.4194285727
 40
0.4998875364
 40
0.5803509562
 40
0.6588907808
 40
0.7336445842
 40
0.8028835567
 40
0.8650881715
 40
0.8931664369
 40
0.9190634247
 40
0.9426994741
 40
0.9640388661
 40
0.9831044804
 40
1.0
 40
1.0
 40
1.0
 40
1.0
 10
372.1273794563
 20
99.1653655802
 30
0.0
 10
371.877915384
 20
98.8950118721
 30
0.0
 10
371.2990048189
 20
98.3632771947
 30
0.0
 10
370.2828486968
 20
97.6357183467
 30
0.0
 10
369.0748387672
 20
96.9353863018
 30
0.0
 10
367.6824481269
 20
96.266590883
 30
0.0
 10
366.1141414829
 20
95.6332666153
 30
0.0
 10
363.718748688
 20
94.8136548413
 30
0.0
 10
360.35465578
 20
93.9241322155
 30
0.0
 10
355.9378173769
 20
93.0870039743
 30
0.0
 10
351.1253517344
 20
92.4704661354
 30
0.0
 10
346.042932185
 20
92.0913198982
 30
0.0
 10
340.8232311195
 20
91.9600973715
 30
0.0
 10
335.6029795814
 20
92.0803890568
 30
0.0
 10
330.5189236385
 20
92.4488949541
 30
0.0
 10
325.7037815479
 20
93.0553595413
 30
0.0
 10
321.2833002342
 20
93.8832426168
 30
0.0
 10
317.9154650728
 20
94.7657007091
 30
0.0
 10
315.5166172768
 20
95.5802563613
 30
0.0
 10
313.945558503
 20
96.2102938502
 30
0.0
 10
312.5502626682
 20
96.8761693164
 30
0.0
 10
311.3392126166
 20
97.5739616724
 30
0.0
 10
310.3199162044
 20
98.2993789098
 30
0.0
 10
309.7387108753
 20
98.8298636015
 30
0.0
 10
309.4880717545
 20
99.0996884348
 30
0.0
  0
SPLINE
  5
4EC
100
AcDbEntity
  8
02___PRT_ALL_AXES
100
AcDbSpline
 62
7
  6
CONTINUOUS
 70
0
 71
3
 72
9
 73
5
 74
0
 42
0.0000001
 43
0.0000001
 44
0.0000000001
 40
0.0
 40
0.0
 40
0.0
 40
0.0
 40
0.2630403935
 40
1.0
 40
1.0
 40
1.0
 40
1.0
 10
309.2676016103
 20
99.349915612
 30
0.0
 10
309.2063128536
 20
99.4234395098
 30
0.0
 10
308.9802426516
 20
99.708542391
 30
0.0
 10
308.7833303882
 20
100.0176546071
 30
0.0
 10
308.6629618413
 20
100.2572985153
 30
0.0
  0
SPLINE
  5
4ED
100
AcDbEntity
  8
02___PRT_ALL_AXES
100
AcDbSpline
 62
7
  6
CONTINUOUS
 70
0
 71
3
 72
9
 73
5
 74
0
 42
0.0000001
 43
0.0000001
 44
0.0000000001
 40
0.0
 40
0.0
 40
0.0
 40
0.0
 40
0.5098155336
 40
1.0
 40
1.0
 40
1.0
 40
1.0
 10
308.5652598416
 20
102.9384681069
 30
0.0
 10
308.4802251289
 20
102.7396003978
 30
0.0
 10
308.3477341808
 20
102.3334115183
 30
0.0
 10
308.3018759416
 20
101.9079788238
 30
0.0
 10
308.3020674507
 20
101.7000220804
 30
0.0
  0
SPLINE
  5
4EE
100
AcDbEntity
  8
02___PRT_ALL_AXES
100
AcDbSpline
 62
7
  6
CONTINUOUS
 70
0
 71
3
 72
9
 73
5
 74
0
 42
0.0000001
 43
0.0000001
 44
0.0000000001
 40
0.0
 40
0.0
 40
0.0
 40
0.0
 40
0.5099632836
 40
1.0
 40
1.0
 40
1.0
 40
1.0
 10
373.0322451647
 20
103.0087638067
 30
0.0
 10
373.1189897162
 20
102.8085592316
 30
0.0
 10
373.2544172193
 20
102.3994652139
 30
0.0
 10
373.3018458501
 20
101.9704787709
 30
0.0
 10
373.3020389309
 20
101.76081538
 30
0.0
  0
SPLINE
  5
4EF
100
AcDbEntity
  8
7_ALL_FEATURES
100
AcDbSpline
 62
7
  6
CONTINUOUS
 70
0
 71
3
 72
9
 73
5
 74
0
 42
0.0000001
 43
0.0000001
 44
0.0000000001
 40
0.0
 40
0.0
 40
0.0
 40
0.0
 40
0.2576958444
 40
1.0
 40
1.0
 40
1.0
 40
1.0
 10
308.4151124773
 20
100.9138722546
 30
0.0
 10
308.3836607995
 20
100.9764899654
 30
0.0
 10
308.2680712963
 20
101.2226318281
 30
0.0
 10
308.179735237
 20
101.481881691
 30
0.0
 10
308.1332762857
 20
101.6783097715
 30
0.0
  0
SPLINE
  5
4F0
100
AcDbEntity
  8
7_ALL_FEATURES
100
AcDbSpline
 62
7
  6
CONTINUOUS
 70
0
 71
3
 72
27
 73
23
 74
0
 42
0.0000001
 43
0.0000001
 44
0.0000000001
 40
0.0
 40
0.0
 40
0.0
 40
0.0
 40
0.0178002362
 40
0.0377176813
 40
0.0598032165
 40
0.0840498886
 40
0.1387636129
 40
0.201090482
 40
0.2698708222
 40
0.3436928965
 40
0.4209696254
 40
0.5000013329
 40
0.5790329872
 40
0.6563095746
 40
0.7301314426
 40
0.7989115233
 40
0.8612381101
 40
0.9159514446
 40
0.9401978958
 40
0.9622835285
 40
0.9821999792
 40
1.0
 40
1.0
 40
1.0
 40
1.0
 10
303.2546480522
 20
196.0435485604
 30
0.0
 10
303.5964750096
 20
196.3538465058
 30
0.0
 10
304.3660280454
 20
196.9620751534
 30
0.0
 10
305.6763909556
 20
197.7954688496
 30
0.0
 10
307.1985873339
 20
198.5960646098
 30
0.0
 10
309.5971052584
 20
199.6559662788
 30
0.0
 10
313.0717853788
 20
200.84078238
 30
0.0
 10
317.7500572789
 20
202.014242986
 30
0.0
 10
322.9835948413
 20
202.9607416492
 30
0.0
 10
328.6463750706
 20
203.6563864944
 30
0.0
 10
334.6020557934
 20
204.0833189717
 30
0.0
 10
340.7061892044
 20
204.2306878331
 30
0.0
 10
346.8105838811
 20
204.0947380894
 30
0.0
 10
352.7670426608
 20
203.6789498217
 30
0.0
 10
358.4310983556
 20
202.9939010613
 30
0.0
 10
363.6663796902
 20
202.0572015229
 30
0.0
 10
368.3468103479
 20
200.8924874418
 30
0.0
 10
371.8236877251
 20
199.7142004662
 30
0.0
 10
374.2241551993
 20
198.6587556805
 30
0.0
 10
375.7478229669
 20
197.8610253078
 30
0.0
 10
377.059712126
 20
197.0300943058
 30
0.0
 10
377.8303983487
 20
196.4233501943
 30
0.0
 10
378.1727913654
 20
196.1136852964
 30
0.0
  0
SPLINE
  5
4F1
100
AcDbEntity
  8
7_ALL_FEATURES
100
AcDbSpline
 62
7
  6
CONTINUOUS
 70
0
 71
3
 72
9
 73
5
 74
0
 42
0.0000001
 43
0.0000001
 44
0.0000000001
 40
0.0
 40
0.0
 40
0.0
 40
0.0
 40
0.2748176203
 40
1.0
 40
1.0
 40
1.0
 40
1.0
 10
378.4573139343
 20
195.856397131
 30
0.0
 10
378.6287259131
 20
195.7013939857
 30
0.0
 10
379.2321793961
 20
195.1169222938
 30
0.0
 10
379.7522850946
 20
194.4351686355
 30
0.0
 10
380.0260015097
 20
193.8902216896
 30
0.0
  0
SPLINE
  5
4F2
100
AcDbEntity
  8
7_ALL_FEATURES
100
AcDbSpline
 62
7
  6
CONTINUOUS
 70
0
 71
3
 72
27
 73
23
 74
0
 42
0.0000001
 43
0.0000001
 44
0.0000000001
 40
0.0
 40
0.0
 40
0.0
 40
0.0
 40
0.0178002361
 40
0.0377176812
 40
0.0598032163
 40
0.0840498884
 40
0.1387636126
 40
0.2010904816
 40
0.2698708218
 40
0.343692896
 40
0.420969625
 40
0.5000013325
 40
0.5790329868
 40
0.6563095743
 40
0.7301314423
 40
0.7989115231
 40
0.8612381099
 40
0.9159514445
 40
0.9401978957
 40
0.9622835285
 40
0.9821999792
 40
1.0
 40
1.0
 40
1.0
 40
1.0
 10
378.2690260731
 20
93.2908446378
 30
0.0
 10
377.9271991179
 20
92.9805466919
 30
0.0
 10
377.1576460863
 20
92.3723180428
 30
0.0
 10
375.8472831811
 20
91.5389243452
 30
0.0
 10
374.3250868076
 20
90.738328583
 30
0.0
 10
371.9265688884
 20
89.6784269116
 30
0.0
 10
368.4518887731
 20
88.4936108071
 30
0.0
 10
363.7736168769
 20
87.3201501976
 30
0.0
 10
358.5400793161
 20
86.3736515307
 30
0.0
 10
352.877299086
 20
85.6780066821
 30
0.0
 10
346.9216183605
 20
85.2510742017
 30
0.0
 10
340.8174849451
 20
85.1037053375
 30
0.0
 10
334.7130902627
 20
85.2396550789
 30
0.0
 10
328.7566314763
 20
85.6554433449
 30
0.0
 10
323.0925757743
 20
86.3404921041
 30
0.0
 10
317.8572944323
 20
87.2771916418
 30
0.0
 10
313.1768637675
 20
88.4419057228
 30
0.0
 10
309.6999863848
 20
89.6201926986
 30
0.0
 10
307.2995189067
 20
90.6756374849
 30
0.0
 10
305.7758511364
 20
91.473367858
 30
0.0
 10
304.4639619749
 20
92.3042988607
 30
0.0
 10
303.6932757506
 20
92.9110429727
 30
0.0
 10
303.3508827332
 20
93.2207078709
 30
0.0
  0
SPLINE
  5
4F3
100
AcDbEntity
  8
7_ALL_FEATURES
100
AcDbSpline
 62
7
  6
CONTINUOUS
 70
0
 71
3
 72
9
 73
5
 74
0
 42
0.0000001
 43
0.0000001
 44
0.0000000001
 40
0.0
 40
0.0
 40
0.0
 40
0.0
 40
0.5086248864
 40
1.0
 40
1.0
 40
1.0
 40
1.0
 10
378.2837790731
 20
98.6329071755
 30
0.0
 10
378.371657523
 20
98.4151126872
 30
0.0
 10
378.5082536939
 20
97.970957937
 30
0.0
 10
378.5559941607
 20
97.5081592685
 30
0.0
 10
378.5562359778
 20
97.2812690028
 30
0.0
  0
SPLINE
  5
4F4
100
AcDbEntity
  8
7_ALL_FEATURES
100
AcDbSpline
 62
7
  6
CONTINUOUS
 70
0
 71
3
 72
11
 73
7
 74
0
 42
0.0000001
 43
0.0000001
 44
0.0000000001
 40
0.0
 40
0.0
 40
0.0
 40
0.0
 40
0.2195408929
 40
0.4525421158
 40
0.7101168658
 40
1.0
 40
1.0
 40
1.0
 40
1.0
 10
300.9674315824
 20
192.0512499279
 30
0.0
 10
300.9671104592
 20
192.3701138382
 30
0.0
 10
301.0573608496
 20
193.0303544927
 30
0.0
 10
301.4543392807
 20
193.9920553599
 30
0.0
 10
302.1017693632
 20
194.9306530909
 30
0.0
 10
302.658807336
 20
195.5027276522
 30
0.0
 10
302.9705707859
 20
195.7856938474
 30
0.0
  0
SPLINE
  5
4F5
100
AcDbEntity
  8
7_ALL_FEATURES
100
AcDbSpline
 62
7
  6
CONTINUOUS
 70
0
 71
3
 72
9
 73
5
 74
0
 42
0.0000001
 43
0.0000001
 44
0.0000000001
 40
0.0
 40
0.0
 40
0.0
 40
0.0
 40
0.2708366353
 40
1.0
 40
1.0
 40
1.0
 40
1.0
 10
303.0663601671
 20
93.4779960339
 30
0.0
 10
302.9217117835
 20
93.6087975948
 30
0.0
 10
302.4021225963
 20
94.1067931501
 30
0.0
 10
301.9425198377
 20
94.672779503
 30
0.0
 10
301.6736402301
 20
95.1237470747
 30
0.0
  0
SPLINE
  5
4F6
100
AcDbEntity
  8
7_ALL_FEATURES
100
AcDbSpline
 62
7
  6
CONTINUOUS
 70
0
 71
3
 72
27
 73
23
 74
0
 42
0.0000001
 43
0.0000001
 44
0.0000000001
 40
0.0
 40
0.0
 40
0.0
 40
0.0
 40
0.0182112966
 40
0.0385064886
 40
0.0609186274
 40
0.085429472
 40
0.1404682249
 40
0.2028450374
 40
0.2714264801
 40
0.3448475848
 40
0.4215816068
 40
0.4999977331
 40
0.5784139627
 40
0.6551482911
 40
0.7285698975
 40
0.7971520142
 40
0.8595296771
 40
0.9145693151
 40
0.9390808279
 40
0.9614936057
 40
0.981788746
 40
1.0
 40
1.0
 40
1.0
 40
1.0
 10
304.9390916217
 20
100.730954641
 30
0.0
 10
305.2836081011
 20
101.0224334185
 30
0.0
 10
306.0510654789
 20
101.5931610616
 30
0.0
 10
307.3437667924
 20
102.3758422594
 30
0.0
 10
308.8320854096
 20
103.1269274612
 30
0.0
 10
311.1574081605
 20
104.118672506
 30
0.0
 10
314.5013973539
 20
105.22696033
 30
0.0
 10
318.9814067743
 20
106.324384402
 30
0.0
 10
323.9713578033
 20
107.2084472639
 30
0.0
 10
329.3550809226
 20
107.8576188578
 30
0.0
 10
335.0072624883
 20
108.2558290412
 30
0.0
 10
340.7954558692
 20
108.3933171546
 30
0.0
 10
346.5839049167
 20
108.2667043606
 30
0.0
 10
352.2368473532
 20
107.8791147595
 30
0.0
 10
357.6218173969
 20
107.2400585704
 30
0.0
 10
362.6134720876
 20
106.3653748396
 30
0.0
 10
367.0955952246
 20
105.2763642869
 30
0.0
 10
370.4417260812
 20
104.174370709
 30
0.0
 10
372.7689654291
 20
103.1869906957
 30
0.0
 10
374.2587188305
 20
102.43868743
 30
0.0
 10
375.5529283817
 20
101.6584799596
 30
0.0
 10
376.3214802981
 20
101.0892288005
 30
0.0
 10
376.6665462954
 20
100.7984024147
 30
0.0
  0
SPLINE
  5
4F7
100
AcDbEntity
  8
7_ALL_FEATURES
100
AcDbSpline
 62
7
  6
CONTINUOUS
 70
0
 71
3
 72
9
 73
5
 74
0
 42
0.0000001
 43
0.0000001
 44
0.0000000001
 40
0.0
 40
0.0
 40
0.0
 40
0.0
 40
0.27090364
 40
1.0
 40
1.0
 40
1.0
 40
1.0
 10
376.9306992814
 20
100.5568296807
 30
0.0
 10
377.0598392647
 20
100.4294919994
 30
0.0
 10
377.5211135341
 20
99.9448365927
 30
0.0
 10
377.9179604913
 20
99.3931744448
 30
0.0
 10
378.1370442648
 20
98.956996609
 30
0.0
  0
SPLINE
  5
4F8
100
AcDbEntity
  8
7_ALL_FEATURES
100
AcDbSpline
 62
7
  6
CONTINUOUS
 70
0
 71
3
 72
11
 73
7
 74
0
 42
0.0000001
 43
0.0000001
 44
0.0000000001
 40
0.0
 40
0.0
 40
0.0
 40
0.0
 40
0.223181967
 40
0.4580585597
 40
0.7145871768
 40
1.0
 40
1.0
 40
1.0
 40
1.0
 10
303.0562711092
 20
97.210552639
 30
0.0
 10
303.0559739751
 20
97.4893453849
 30
0.0
 10
303.1279789253
 20
98.0637965639
 30
0.0
 10
303.4464086336
 20
98.9051020675
 30
0.0
 10
303.9682404242
 20
99.7295513097
 30
0.0
 10
304.4207752423
 20
100.2367743056
 30
0.0
 10
304.6741246663
 20
100.4876282879
 30
0.0
  0
SPLINE
  5
4F9
100
AcDbEntity
  8
7_ALL_FEATURES
100
AcDbSpline
 62
7
  6
CONTINUOUS
 70
0
 71
3
 72
11
 73
7
 74
0
 42
0.0000001
 43
0.0000001
 44
0.0000000001
 40
0.0
 40
0.0
 40
0.0
 40
0.0
 40
0.2195408931
 40
0.4525421162
 40
0.7101168661
 40
1.0
 40
1.0
 40
1.0
 40
1.0
 10
380.5562425127
 20
97.2831432466
 30
0.0
 10
380.5565636361
 20
96.9642793386
 30
0.0
 10
380.4663132481
 20
96.3040386889
 30
0.0
 10
380.0693348229
 20
95.3423378281
 30
0.0
 10
379.4219047505
 20
94.4037401022
 30
0.0
 10
378.8648667845
 20
93.831665544
 30
0.0
 10
378.5531033386
 20
93.5486993502
 30
0.0
  0
SPLINE
  5
4FA
100
AcDbEntity
  8
7_ALL_FEATURES
100
AcDbSpline
 62
7
  6
CONTINUOUS
 70
0
 71
3
 72
9
 73
5
 74
0
 42
0.0000001
 43
0.0000001
 44
0.0000000001
 40
0.0
 40
0.0
 40
0.0
 40
0.0
 40
0.2425957994
 40
1.0
 40
1.0
 40
1.0
 40
1.0
 10
373.4710102342
 20
101.7396825604
 30
0.0
 10
373.4544459345
 20
101.6690487311
 30
0.0
 10
373.3761666975
 20
101.3802631053
 30
0.0
 10
373.2587063378
 20
101.1026214799
 30
0.0
 10
373.1533302149
 20
100.90211847
 30
0.0
  0
SPLINE
  5
4FB
100
AcDbEntity
  8
7_ALL_FEATURES
100
AcDbSpline
 62
7
  6
CONTINUOUS
 70
0
 71
3
 72
9
 73
5
 74
0
 42
0.0000001
 43
0.0000001
 44
0.0000000001
 40
0.0
 40
0.0
 40
0.0
 40
0.0
 40
0.5126262671
 40
1.0
 40
1.0
 40
1.0
 40
1.0
 10
303.1790623943
 20
95.2349818143
 30
0.0
 10
303.0186103431
 20
95.5544286846
 30
0.0
 10
302.776915123
 20
96.2187447432
 30
0.0
 10
302.739733739
 20
96.9272416987
 30
0.0
 10
302.7733032349
 20
97.2654488705
 30
0.0
  0
SPLINE
  5
4FC
100
AcDbEntity
  8
7_ALL_FEATURES
100
AcDbSpline
 62
7
  6
CONTINUOUS
 70
0
 71
3
 72
11
 73
7
 74
0
 42
0.0000001
 43
0.0000001
 44
0.0000000001
 40
0.0
 40
0.0
 40
0.0
 40
0.0
 40
0.2195505475
 40
0.4542277811
 40
0.7124193995
 40
1.0
 40
1.0
 40
1.0
 40
1.0
 10
302.7733032349
 20
97.2654488705
 30
0.0
 10
302.8009908004
 20
97.5443965571
 30
0.0
 10
302.9301197964
 20
98.1161688714
 30
0.0
 10
303.3230141556
 20
98.9430951364
 30
0.0
 10
303.9112193987
 20
99.7530318448
 30
0.0
 10
304.4015671858
 20
100.251460919
 30
0.0
 10
304.6734345703
 20
100.4982560402
 30
0.0
  0
SPLINE
  5
4FD
100
AcDbEntity
  8
7_ALL_FEATURES
100
AcDbSpline
 62
7
  6
CONTINUOUS
 70
0
 71
3
 72
27
 73
23
 74
0
 42
0.0000001
 43
0.0000001
 44
0.0000000001
 40
0.0
 40
0.0
 40
0.0
 40
0.0
 40
0.0182026311
 40
0.0384908457
 40
0.0608969323
 40
0.0854038799
 40
0.1404396338
 40
0.202820312
 40
0.2714115465
 40
0.3448469348
 40
0.4215979649
 40
0.5000318486
 40
0.5784645206
 40
0.6552119634
 40
0.7286415139
 40
0.7972248529
 40
0.859595875
 40
0.914620518
 40
0.9391216345
 40
0.961521939
 40
0.9818036702
 40
1.0
 40
1.0
 40
1.0
 40
1.0
 10
303.241088296
 20
196.0228247841
 30
0.0
 10
303.6006849947
 20
196.3275442108
 30
0.0
 10
304.4019396728
 20
196.924218653
 30
0.0
 10
305.751918775
 20
197.7424023919
 30
0.0
 10
307.3064702481
 20
198.5276399961
 30
0.0
 10
309.7357722794
 20
199.5644579335
 30
0.0
 10
313.2298393898
 20
200.7231611795
 30
0.0
 10
317.911430171
 20
201.8704503366
 30
0.0
 10
323.1263928279
 20
202.7946736877
 30
0.0
 10
328.7532096783
 20
203.473287328
 30
0.0
 10
334.6607811763
 20
203.8894781566
 30
0.0
 10
340.7105406991
 20
204.0330319596
 30
0.0
 10
346.7604570571
 20
203.9004178626
 30
0.0
 10
352.6684958471
 20
203.4949118381
 30
0.0
 10
358.2960796713
 20
202.8264763994
 30
0.0
 10
363.5120926321
 20
201.9116910483
 30
0.0
 10
368.1949881463
 20
200.7728714176
 30
0.0
 10
371.6904243889
 20
199.620490286
 30
0.0
 10
374.1209513884
 20
198.5880478773
 30
0.0
 10
375.6763923741
 20
197.8056127291
 30
0.0
 10
377.0272961066
 20
196.989886803
 30
0.0
 10
377.8292446185
 20
196.3946961719
 30
0.0
 10
378.1891849841
 20
196.0906355568
 30
0.0
  0
SPLINE
  5
4FE
100
AcDbEntity
  8
7_ALL_FEATURES
100
AcDbSpline
 62
7
  6
CONTINUOUS
 70
0
 71
3
 72
9
 73
5
 74
0
 42
0.0000001
 43
0.0000001
 44
0.0000000001
 40
0.0
 40
0.0
 40
0.0
 40
0.0
 40
0.2539092397
 40
1.0
 40
1.0
 40
1.0
 40
1.0
 10
308.4154699541
 20
100.532212007
 30
0.0
 10
308.4006544671
 20
100.5617084274
 30
0.0
 10
308.3437606541
 20
100.6786008811
 30
0.0
 10
308.2928161141
 20
100.7984061072
 30
0.0
 10
308.2585925302
 20
100.8891591894
 30
0.0
  0
SPLINE
  5
4FF
100
AcDbEntity
  8
7_ALL_FEATURES
100
AcDbSpline
 62
7
  6
CONTINUOUS
 70
0
 71
3
 72
9
 73
5
 74
0
 42
0.0000001
 43
0.0000001
 44
0.0000000001
 40
0.0
 40
0.0
 40
0.0
 40
0.0
 40
0.2557340798
 40
1.0
 40
1.0
 40
1.0
 40
1.0
 10
308.2585925302
 20
100.8891591894
 30
0.0
 10
308.2347738742
 20
100.9523207932
 30
0.0
 10
308.1487425178
 20
101.2018963916
 30
0.0
 10
308.0926989787
 20
101.4620259867
 30
0.0
 10
308.0705930555
 20
101.6572344143
 30
0.0
  0
SPLINE
  5
500
100
AcDbEntity
  8
7_ALL_FEATURES
100
AcDbSpline
 62
7
  6
CONTINUOUS
 70
0
 71
3
 72
12
 73
8
 74
0
 42
0.0000001
 43
0.0000001
 44
0.0000000001
 40
0.0
 40
0.0
 40
0.0
 40
0.0
 40
0.2403437743
 40
0.3555522557
 40
0.4714687968
 40
0.7173536038
 40
1.0
 40
1.0
 40
1.0
 40
1.0
 10
379.8184340738
 20
98.7478069422
 30
0.0
 10
380.0160480765
 20
98.3543736715
 30
0.0
 10
380.2285196362
 20
97.7222005979
 30
0.0
 10
380.2729457613
 20
96.8557364442
 30
0.0
 10
380.1603850245
 20
95.9845103073
 30
0.0
 10
379.6968795733
 20
94.8755439699
 30
0.0
 10
379.0865708874
 20
94.1115292692
 30
0.0
 10
378.7285728095
 20
93.7374719353
 30
0.0
  0
SPLINE
  5
501
100
AcDbEntity
  8
7_ALL_FEATURES
100
AcDbSpline
 62
7
  6
CONTINUOUS
 70
0
 71
3
 72
9
 73
5
 74
0
 42
0.0000001
 43
0.0000001
 44
0.0000000001
 40
0.0
 40
0.0
 40
0.0
 40
0.0
 40
0.2444082352
 40
1.0
 40
1.0
 40
1.0
 40
1.0
 10
378.7285728095
 20
93.7374719353
 30
0.0
 10
378.6924706205
 20
93.6997502563
 30
0.0
 10
378.5433085219
 20
93.5468021618
 30
0.0
 10
378.3885462362
 20
93.3993406489
 30
0.0
 10
378.2690260731
 20
93.2908446378
 30
0.0
  0
SPLINE
  5
502
100
AcDbEntity
  8
7_ALL_FEATURES
100
AcDbSpline
 62
7
  6
CONTINUOUS
 70
0
 71
3
 72
32
 73
28
 74
0
 42
0.0000001
 43
0.0000001
 44
0.0000000001
 40
0.0
 40
0.0
 40
0.0
 40
0.0
 40
0.0131444384
 40
0.0270216714
 40
0.0426112784
 40
0.0605612396
 40
0.081231964
 40
0.1047810991
 40
0.1312274546
 40
0.1604979399
 40
0.1924502467
 40
0.2268896386
 40
0.3022460216
 40
0.3843468092
 40
0.4706073235
 40
0.5582459206
 40
0.6444174453
 40
0.7263443905
 40
0.8014504834
 40
0.8357401988
 40
0.8675292544
 40
0.8966260385
 40
0.9228919481
 40
0.946258236
 40
0.9667511794
 40
0.9845429744
 40
1.0
 40
1.0
 40
1.0
 40
1.0
 10
373.8321284831
 20
102.1013794538
 30
0.0
 10
373.8681042462
 20
101.7913191195
 30
0.0
 10
373.8391029666
 20
101.1373250251
 30
0.0
 10
373.4786270374
 20
100.1775273813
 30
0.0
 10
372.8237470498
 20
99.25011368
 30
0.0
 10
371.8896844494
 20
98.3559438449
 30
0.0
 10
370.6849965149
 20
97.495987128
 30
0.0
 10
369.2186459224
 20
96.6747377992
 30
0.0
 10
367.5020464242
 20
95.8980060992
 30
0.0
 10
365.5492596232
 20
95.1724272262
 30
0.0
 10
363.3769366763
 20
94.5042876576
 30
0.0
 10
360.1139497854
 20
93.6731866128
 30
0.0
 10
355.6291662681
 20
92.8374694893
 30
0.0
 10
349.8771772754
 20
92.1655244762
 30
0.0
 10
343.8041387576
 20
91.8230154013
 30
0.0
 10
337.6250832167
 20
91.8226359465
 30
0.0
 10
331.5582414534
 20
92.1643795193
 30
0.0
 10
325.8184145306
 20
92.8355623708
 30
0.0
 10
321.3473592203
 20
93.6708624205
 30
0.0
 10
318.0981415716
 20
94.5018904319
 30
0.0
 10
315.9378176974
 20
95.1697829459
 30
0.0
 10
313.9980286275
 20
95.8951090654
 30
0.0
 10
312.2953060879
 20
96.6716893134
 30
0.0
 10
310.8435800968
 20
97.4927212467
 30
0.0
 10
309.6538660381
 20
98.3529149434
 30
0.0
 10
308.7356938307
 20
99.2468447976
 30
0.0
 10
308.2838208059
 20
99.9043624877
 30
0.0
 10
308.1190695262
 20
100.2323687885
 30
0.0
  0
SPLINE
  5
503
100
AcDbEntity
  8
7_ALL_FEATURES
100
AcDbSpline
 62
7
  6
CONTINUOUS
 70
0
 71
3
 72
9
 73
5
 74
0
 42
0.0000001
 43
0.0000001
 44
0.0000000001
 40
0.0
 40
0.0
 40
0.0
 40
0.0
 40
0.5124774322
 40
1.0
 40
1.0
 40
1.0
 40
1.0
 10
308.1190695262
 20
100.2323687885
 30
0.0
 10
307.9763195145
 20
100.5165723473
 30
0.0
 10
307.7627428394
 20
101.1088582853
 30
0.0
 10
307.7370247869
 20
101.7403030159
 30
0.0
 10
307.7714242449
 20
102.040893954
 30
0.0
  0
SPLINE
  5
504
100
AcDbEntity
  8
7_ALL_FEATURES
100
AcDbSpline
 62
7
  6
CONTINUOUS
 70
0
 71
3
 72
15
 73
11
 74
0
 42
0.0000001
 43
0.0000001
 44
0.0000000001
 40
0.0
 40
0.0
 40
0.0
 40
0.0
 40
0.0846849661
 40
0.1749482381
 40
0.2753284284
 40
0.3889147721
 40
0.5175497674
 40
0.6621684131
 40
0.8230423822
 40
1.0
 40
1.0
 40
1.0
 40
1.0
 10
301.0562645744
 20
97.2086783954
 30
0.0
 10
301.0559309235
 20
97.5399817352
 30
0.0
 10
301.1538211515
 20
98.2276896217
 30
0.0
 10
301.5830028394
 20
99.2264408137
 30
0.0
 10
302.2814517437
 20
100.1992783055
 30
0.0
 10
303.2392434988
 20
101.1438016397
 30
0.0
 10
304.4492867866
 20
102.0583051944
 30
0.0
 10
305.9044366661
 20
102.9387133006
 30
0.0
 10
307.5956966205
 20
103.7803596379
 30
0.0
 10
308.8169002742
 20
104.2883144904
 30
0.0
 10
309.463044761
 20
104.5368396987
 30
0.0
  0
SPLINE
  5
505
100
AcDbEntity
  8
7_ALL_FEATURES
100
AcDbSpline
 62
7
  6
CONTINUOUS
 70
0
 71
3
 72
19
 73
15
 74
0
 42
0.0000001
 43
0.0000001
 44
0.0000000001
 40
0.0
 40
0.0
 40
0.0
 40
0.0
 40
0.0497679674
 40
0.1043838224
 40
0.1633382475
 40
0.2260323639
 40
0.3598859766
 40
0.5000599396
 40
0.6402257807
 40
0.7740553121
 40
0.8367320964
 40
0.8956658628
 40
0.9502580882
 40
1.0
 40
1.0
 40
1.0
 40
1.0
 10
309.8133191342
 20
104.6696153911
 30
0.0
 10
310.7908484491
 20
105.0348145744
 30
0.0
 10
312.8712714161
 20
105.7210638654
 30
0.0
 10
316.1838341199
 20
106.5968016684
 30
0.0
 10
319.8018741727
 20
107.3583923205
 30
0.0
 10
325.0896915214
 20
108.2271198273
 30
0.0
 10
332.1203261335
 20
108.9477246149
 30
0.0
 10
340.8062020845
 20
109.2407735068
 30
0.0
 10
349.4920613307
 20
108.9625495409
 30
0.0
 10
356.5228725692
 20
108.2539132136
 30
0.0
 10
361.8108422428
 20
107.3941790998
 30
0.0
 10
365.4288568064
 20
106.6387557576
 30
0.0
 10
368.7413833431
 20
105.7686608292
 30
0.0
 10
370.8218688166
 20
105.0859257019
 30
0.0
 10
371.7994307788
 20
104.7223783032
 30
0.0
  0
SPLINE
  5
506
100
AcDbEntity
  8
7_ALL_FEATURES
100
AcDbSpline
 62
7
  6
CONTINUOUS
 70
0
 71
3
 72
13
 73
9
 74
0
 42
0.0000001
 43
0.0000001
 44
0.0000000001
 40
0.0
 40
0.0
 40
0.0
 40
0.0
 40
0.3170027945
 40
0.458295901
 40
0.5880210357
 40
0.7064000539
 40
0.8139555134
 40
1.0
 40
1.0
 40
1.0
 40
1.0
 10
372.1444347559
 20
104.5922171669
 30
0.0
 10
373.1207449439
 20
104.2185324192
 30
0.0
 10
374.5128322442
 20
103.6210026722
 30
0.0
 10
376.2195903909
 20
102.6980783365
 30
0.0
 10
377.3052130674
 20
102.010294191
 30
0.0
 10
378.2427150517
 20
101.3018418105
 30
0.0
 10
379.240292714
 20
100.3795978989
 30
0.0
 10
379.8394602959
 20
99.5958976227
 30
0.0
 10
380.1148345017
 20
99.0476501607
 30
0.0
  0
SPLINE
  5
507
100
AcDbEntity
  8
7_ALL_FEATURES
100
AcDbSpline
 62
7
  6
CONTINUOUS
 70
0
 71
3
 72
9
 73
5
 74
0
 42
0.0000001
 43
0.0000001
 44
0.0000000001
 40
0.0
 40
0.0
 40
0.0
 40
0.0
 40
0.2704892853
 40
1.0
 40
1.0
 40
1.0
 40
1.0
 10
303.0259734636
 20
93.5286654138
 30
0.0
 10
302.8944622526
 20
93.6595458421
 30
0.0
 10
302.4239771064
 20
94.1581858866
 30
0.0
 10
302.019210755
 20
94.7243610949
 30
0.0
 10
301.7946092285
 20
95.1715243281
 30
0.0
  0
SPLINE
  5
508
100
AcDbEntity
  8
7_ALL_FEATURES
100
AcDbSpline
 62
7
  6
CONTINUOUS
 70
0
 71
3
 72
9
 73
5
 74
0
 42
0.0000001
 43
0.0000001
 44
0.0000000001
 40
0.0
 40
0.0
 40
0.0
 40
0.0
 40
0.2706715343
 40
1.0
 40
1.0
 40
1.0
 40
1.0
 10
376.9329586542
 20
100.5659176121
 30
0.0
 10
377.0703045711
 20
100.4416966223
 30
0.0
 10
377.5640606249
 20
99.968557138
 30
0.0
 10
378.0012958075
 20
99.4314331058
 30
0.0
 10
378.2580580694
 20
99.0035696557
 30
0.0
  0
SPLINE
  5
509
100
AcDbEntity
  8
7_ALL_FEATURES
100
AcDbSpline
 62
7
  6
CONTINUOUS
 70
0
 71
3
 72
30
 73
26
 74
0
 42
0.0000001
 43
0.0000001
 44
0.0000000001
 40
0.0
 40
0.0
 40
0.0
 40
0.0
 40
0.0130155136
 40
0.0256350309
 40
0.038723451
 40
0.0530560082
 40
0.0608816497
 40
0.0692117233
 40
0.0875196953
 40
0.1081897004
 40
0.1313032428
 40
0.15686106
 40
0.1848037983
 40
0.2473849052
 40
0.3178657361
 40
0.394663432
 40
0.4759377123
 40
0.5596807899
 40
0.6437963695
 40
0.7261749005
 40
0.8047686136
 40
0.8776688172
 40
0.9431907178
 40
0.9727539073
 40
1.0
 40
1.0
 40
1.0
 40
1.0
 10
301.6466450792
 20
95.4969312926
 30
0.0
 10
301.5193360378
 20
95.80945282
 30
0.0
 10
301.3398585678
 20
96.4587927919
 30
0.0
 10
301.3517765748
 20
97.4759215755
 30
0.0
 10
301.6531886744
 20
98.4818445656
 30
0.0
 10
302.1202303
 20
99.2758433345
 30
0.0
 10
302.6117916967
 20
99.8957210265
 30
0.0
 10
303.2249917995
 20
100.5470508005
 30
0.0
 10
304.1654024651
 20
101.3407005637
 30
0.0
 10
305.5084885579
 20
102.2328467896
 30
0.0
 10
307.0919649545
 20
103.0885022667
 30
0.0
 10
308.9056092494
 20
103.9023059084
 30
0.0
 10
311.7231304009
 20
104.9647613184
 30
0.0
 10
315.7397738373
 20
106.1249914575
 30
0.0
 10
321.0716029566
 20
107.2291745216
 30
0.0
 10
326.9424148434
 20
108.0601234952
 30
0.0
 10
333.1921194982
 20
108.5941354817
 30
0.0
 10
339.6503516606
 20
108.8156439572
 30
0.0
 10
346.1402447176
 20
108.718295521
 30
0.0
 10
352.484019326
 20
108.3048674137
 30
0.0
 10
358.50845711
 20
107.5874231773
 30
0.0
 10
364.0489556683
 20
106.5864776267
 30
0.0
 10
368.2742777637
 20
105.506993728
 30
0.0
 10
371.2845636952
 20
104.5043970856
 30
0.0
 10
372.6556431967
 20
103.9633538602
 30
0.0
 10
373.3036531683
 20
103.6820908863
 30
0.0
  0
SPLINE
  5
50A
100
AcDbEntity
  8
7_ALL_FEATURES
100
AcDbSpline
 62
7
  6
CONTINUOUS
 70
0
 71
3
 72
11
 73
7
 74
0
 42
0.0000001
 43
0.0000001
 44
0.0000000001
 40
0.0
 40
0.0
 40
0.0
 40
0.0
 40
0.3113849318
 40
0.5801147522
 40
0.8078620697
 40
1.0
 40
1.0
 40
1.0
 40
1.0
 10
373.3036531683
 20
103.6820908863
 30
0.0
 10
374.0949283643
 20
103.338644914
 30
0.0
 10
375.5445310326
 20
102.6382601102
 30
0.0
 10
377.4414038013
 20
101.4381989322
 30
0.0
 10
378.8839541929
 20
100.1763333034
 30
0.0
 10
379.579533212
 20
99.2234389804
 30
0.0
 10
379.8184340738
 20
98.7478069422
 30
0.0
  0
SPLINE
  5
50B
100
AcDbEntity
  8
7_ALL_FEATURES
100
AcDbSpline
 62
7
  6
CONTINUOUS
 70
0
 71
3
 72
9
 73
5
 74
0
 42
0.0000001
 43
0.0000001
 44
0.0000000001
 40
0.0
 40
0.0
 40
0.0
 40
0.0
 40
0.5121613343
 40
1.0
 40
1.0
 40
1.0
 40
1.0
 10
378.433980908
 20
98.684349456
 30
0.0
 10
378.5423798512
 20
98.4685360533
 30
0.0
 10
378.72123655
 20
98.0293943018
 30
0.0
 10
378.816083978
 20
97.5640637283
 30
0.0
 10
378.8391746888
 20
97.3351875412
 30
0.0
  0
SPLINE
  5
50C
100
AcDbEntity
  8
7_ALL_FEATURES
100
AcDbSpline
 62
7
  6
CONTINUOUS
 70
0
 71
3
 72
32
 73
28
 74
0
 42
0.0000001
 43
0.0000001
 44
0.0000000001
 40
0.0
 40
0.0
 40
0.0
 40
0.0
 40
0.0131418189
 40
0.027066108
 40
0.0427350068
 40
0.0607797401
 40
0.0815488091
 40
0.1051926662
 40
0.1317256116
 40
0.1610717248
 40
0.1930872926
 40
0.227576612
 40
0.3029921759
 40
0.3850998303
 40
0.4713210738
 40
0.5588833032
 40
0.6449523177
 40
0.7267625743
 40
0.8017498993
 40
0.8359830687
 40
0.8677192409
 40
0.8967680243
 40
0.9229917925
 40
0.9463226158
 40
0.9667872776
 40
0.9845579166
 40
1.0
 40
1.0
 40
1.0
 40
1.0
 10
378.8391746888
 20
97.3351875412
 30
0.0
 10
378.8752168976
 20
96.9779355099
 30
0.0
 10
378.8300801277
 20
96.2249409206
 30
0.0
 10
378.3997787025
 20
95.1233109972
 30
0.0
 10
377.6326242242
 20
94.0589100348
 30
0.0
 10
376.5454666783
 20
93.0326298914
 30
0.0
 10
375.1480601823
 20
92.0457347844
 30
0.0
 10
373.450742818
 20
91.1035266512
 30
0.0
 10
371.4667357711
 20
90.2127065448
 30
0.0
 10
369.2122791883
 20
89.380871937
 30
0.0
 10
366.7065534537
 20
88.6152400644
 30
0.0
 10
362.9462816219
 20
87.6635646094
 30
0.0
 10
357.7820909568
 20
86.7073932594
 30
0.0
 10
351.162678401
 20
85.9400907578
 30
0.0
 10
344.1779711967
 20
85.5512605918
 30
0.0
 10
337.0745565081
 20
85.555268308
 30
0.0
 10
330.1025721102
 20
85.9519328174
 30
0.0
 10
323.5081312488
 20
86.7265781875
 30
0.0
 10
318.3722496153
 20
87.6888227071
 30
0.0
 10
314.6403602718
 20
88.6453660275
 30
0.0
 10
312.1592869341
 20
89.4138494643
 30
0.0
 10
309.9315426912
 20
90.2481938033
 30
0.0
 10
307.976057194
 20
91.1413188085
 30
0.0
 10
306.30877778
 20
92.0854229232
 30
0.0
 10
304.9423190902
 20
93.0744461131
 30
0.0
 10
303.8876044508
 20
94.1021708112
 30
0.0
 10
303.3684357925
 20
94.8579548963
 30
0.0
 10
303.1790623943
 20
95.2349818143
 30
0.0
  0
SPLINE
  5
50D
100
AcDbEntity
  8
7_ALL_FEATURES
100
AcDbSpline
 62
7
  6
CONTINUOUS
 70
0
 71
3
 72
32
 73
28
 74
0
 42
0.0000001
 43
0.0000001
 44
0.0000000001
 40
0.0
 40
0.0
 40
0.0
 40
0.0
 40
0.013188728
 40
0.0274690407
 40
0.0436846501
 40
0.0623628902
 40
0.0837798566
 40
0.1080417456
 40
0.1351363675
 40
0.1649702435
 40
0.1973910683
 40
0.2321977936
 40
0.3079806598
 40
0.390113558
 40
0.4760595447
 40
0.563105862
 40
0.6484903605
 40
0.7295258247
 40
0.8037271168
 40
0.8375866808
 40
0.8689736804
 40
0.8977056906
 40
0.9236514252
 40
0.9467482401
 40
0.9670261898
 40
0.9846569615
 40
1.0
 40
1.0
 40
1.0
 40
1.0
 10
378.5562359778
 20
97.2812690028
 30
0.0
 10
378.5566154307
 20
96.9252388784
 30
0.0
 10
378.4354945996
 20
96.1794910433
 30
0.0
 10
377.9112692021
 20
95.1088367953
 30
0.0
 10
377.0656075833
 20
94.0741756637
 30
0.0
 10
375.9113302162
 20
93.0766034355
 30
0.0
 10
374.4578141578
 20
92.1182724185
 30
0.0
 10
372.7155705985
 20
91.2050682779
 30
0.0
 10
370.69816032
 20
90.3437629886
 30
0.0
 10
368.4220178089
 20
89.5415468881
 30
0.0
 10
365.9062157512
 20
88.8054239582
 30
0.0
 10
362.1533940247
 20
87.8949015952
 30
0.0
 10
357.0255827486
 20
86.9851890176
 30
0.0
 10
350.4781559239
 20
86.2649030573
 30
0.0
 10
343.5961454234
 20
85.9147846003
 30
0.0
 10
336.6178247933
 20
85.9475003837
 30
0.0
 10
329.7841630424
 20
86.3617828586
 30
0.0
 10
323.3316682745
 20
87.1426189087
 30
0.0
 10
318.3119431791
 20
88.100856518
 30
0.0
 10
314.6674678034
 20
89.04838013
 30
0.0
 10
312.2455632492
 20
89.807784461
 30
0.0
 10
310.0712629556
 20
90.6308347535
 30
0.0
 10
308.162683474
 20
91.5107283425
 30
0.0
 10
306.53506721
 20
92.4399207237
 30
0.0
 10
305.2004961274
 20
93.4125929244
 30
0.0
 10
304.1694958599
 20
94.42276312
 30
0.0
 10
303.6613674979
 20
95.164704069
 30
0.0
 10
303.4754628222
 20
95.5348250328
 30
0.0
  0
SPLINE
  5
50E
100
AcDbEntity
  8
02___PRT_ALL_AXES
100
AcDbSpline
 62
7
  6
CONTINUOUS
 70
0
 71
3
 72
31
 73
27
 74
0
 42
0.0000001
 43
0.0000001
 44
0.0000000001
 40
0.0
 40
0.0
 40
0.0
 40
0.0
 40
0.0156500749
 40
0.0334675208
 40
0.0536692744
 40
0.0763468037
 40
0.1015028549
 40
0.129075538
 40
0.1589574469
 40
0.1910018556
 40
0.260842002
 40
0.3369374788
 40
0.4173451696
 40
0.4999516808
 40
0.5825601069
 40
0.6629735156
 40
0.7390783117
 40
0.8089309464
 40
0.8409825092
 40
0.8708722434
 40
0.8984532017
 40
0.9236178061
 40
0.9463042437
 40
0.9665136027
 40
0.9843399933
 40
1.0
 40
1.0
 40
1.0
 40
1.0
 10
377.7994402251
 20
99.5170179564
 30
0.0
 10
377.571584236
 20
99.1803891549
 30
0.0
 10
377.0063969768
 20
98.5124606201
 30
0.0
 10
375.94822357
 20
97.5992046307
 30
0.0
 10
374.6374408277
 20
96.7177217409
 30
0.0
 10
373.0826878088
 20
95.8734837182
 30
0.0
 10
371.2940573195
 20
95.0716364981
 30
0.0
 10
369.2838914911
 20
94.3177484095
 30
0.0
 10
367.0662931703
 20
93.6173311551
 30
0.0
 10
363.7581531114
 20
92.736286873
 30
0.0
 10
359.2221641513
 20
91.8212144747
 30
0.0
 10
353.3932255785
 20
91.0310397979
 30
0.0
 10
347.1986058372
 20
90.5445493662
 30
0.0
 10
340.8182760973
 20
90.3764628188
 30
0.0
 10
334.43748079
 20
90.5320385674
 30
0.0
 10
328.241477557
 20
91.0063751275
 30
0.0
 10
322.4102805694
 20
91.785116969
 30
0.0
 10
317.8717367615
 20
92.6912718605
 30
0.0
 10
314.5611371176
 20
93.5658238786
 30
0.0
 10
312.3415360101
 20
94.2618851985
 30
0.0
 10
310.3292066359
 20
95.0118138806
 30
0.0
 10
308.5382894848
 20
95.8101802831
 30
0.0
 10
306.9811352061
 20
96.6513445657
 30
0.0
 10
305.6678145906
 20
97.5302232788
 30
0.0
 10
304.6069905724
 20
98.4414567436
 30
0.0
 10
304.0398764747
 20
99.1083796967
 30
0.0
 10
303.8109960422
 20
99.4446249064
 30
0.0
  0
SPLINE
  5
50F
100
AcDbEntity
  8
7_ALL_FEATURES
100
AcDbSpline
 62
7
  6
CONTINUOUS
 70
0
 71
3
 72
9
 73
5
 74
0
 42
0.0000001
 43
0.0000001
 44
0.0000000001
 40
0.0
 40
0.0
 40
0.0
 40
0.0
 40
0.4749372898
 40
1.0
 40
1.0
 40
1.0
 40
1.0
 10
373.5336348157
 20
101.7182658614
 30
0.0
 10
373.4989383613
 20
101.4064657035
 30
0.0
 10
373.3189540721
 20
100.7594141882
 30
0.0
 10
372.973619254
 20
100.1883629283
 30
0.0
 10
372.766483027
 20
99.9101732743
 30
0.0
  0
SPLINE
  5
510
100
AcDbEntity
  8
7_ALL_FEATURES
100
AcDbSpline
 62
7
  6
CONTINUOUS
 70
0
 71
3
 72
9
 73
5
 74
0
 42
0.0000001
 43
0.0000001
 44
0.0000000001
 40
0.0
 40
0.0
 40
0.0
 40
0.0
 40
0.2437921891
 40
1.0
 40
1.0
 40
1.0
 40
1.0
 10
372.766483027
 20
99.9101732743
 30
0.0
 10
372.7394987819
 20
99.8739326905
 30
0.0
 10
372.6269157109
 20
99.7266967358
 30
0.0
 10
372.5070127546
 20
99.5850973292
 30
0.0
 10
372.4130303402
 20
99.4811267608
 30
0.0
  0
SPLINE
  5
511
100
AcDbEntity
  8
7_ALL_FEATURES
100
AcDbSpline
 62
7
  6
CONTINUOUS
 70
0
 71
3
 72
9
 73
5
 74
0
 42
0.0000001
 43
0.0000001
 44
0.0000000001
 40
0.0
 40
0.0
 40
0.0
 40
0.0
 40
0.2563999738
 40
1.0
 40
1.0
 40
1.0
 40
1.0
 10
309.1955972834
 20
99.42166891
 30
0.0
 10
309.1636555264
 20
99.4568716681
 30
0.0
 10
309.0405938413
 20
99.5955306514
 30
0.0
 10
308.9237614251
 20
99.739760047
 30
0.0
 10
308.8412172833
 20
99.8501728799
 30
0.0
  0
SPLINE
  5
512
100
AcDbEntity
  8
7_ALL_FEATURES
100
AcDbSpline
 62
7
  6
CONTINUOUS
 70
0
 71
3
 72
9
 73
5
 74
0
 42
0.0000001
 43
0.0000001
 44
0.0000000001
 40
0.0
 40
0.0
 40
0.0
 40
0.0
 40
0.2554412847
 40
1.0
 40
1.0
 40
1.0
 40
1.0
 10
308.8412172833
 20
99.8501728799
 30
0.0
 10
308.8174731292
 20
99.881933575
 30
0.0
 10
308.7259173413
 20
100.0073053418
 30
0.0
 10
308.6400954414
 20
100.1368925737
 30
0.0
 10
308.5800530519
 20
100.2356606608
 30
0.0
  0
ELLIPSE
  5
513
100
AcDbEntity
  8
7_ALL_FEATURES
100
AcDbEllipse
 62
7
  6
CONTINUOUS
 10
75.1436700994
 20
69.3818876017
 30
0.0
 11
0.0
 21
2.7577164466
 31
0.0
 40
0.7071067812
 41
-1.5707963268
 42
-0.6425678183
  0
ELLIPSE
  5
514
100
AcDbEntity
  8
7_ALL_FEATURES
100
AcDbEllipse
 62
7
  6
CONTINUOUS
 10
75.1436700994
 20
69.3818876017
 30
0.0
 11
0.0
 21
2.7577164466
 31
0.0
 40
0.7071067812
 41
0.6425678183
 42
1.5707963268
  0
ENDSEC
  0
SECTION
  2
OBJECTS
  0
DICTIONARY
  5
C
100
AcDbDictionary
280
0
281
1
  3
ACAD_GROUP
350
D
  3
ACAD_MLINESTYLE
350
17
  3
ACAD_LAYOUT
350
1A
  3
ACAD_PLOTSETTINGS
350
19
  3
ACAD_PLOTSTYLENAME
350
E
  3
ACAD_TABLESTYLE
350
       515
  0
DICTIONARY
  5
D
102
{ACAD_REACTORS
330
C
102
}
100
AcDbDictionary
280
0
281
1
  0
ACDBDICTIONARYWDFLT
  5
E
102
{ACAD_REACTORS
330
C
102
}
100
AcDbDictionary
281
1
  3
Normal
350
F
100
AcDbDictionaryWithDefault
340
F
  0
DICTIONARY
  5
17
102
{ACAD_REACTORS
330
C
102
}
100
AcDbDictionary
280
0
281
1
  3
Standard
350
18
  0
DICTIONARY
  5
515
330
C
100
AcDbDictionary
281
1
  3
Standard
350
       518
  3
Standard1
350
       519
  0
DICTIONARY
  5
19
102
{ACAD_REACTORS
330
C
102
}
100
AcDbDictionary
281
1
  0
DICTIONARY
  5
1A
102
{ACAD_REACTORS
330
C
102
}
100
AcDbDictionary
281
1
  3
Model
350
516
  3
Layout1
350
517
  0
ACDBPLACEHOLDER
  5
F
102
{ACAD_REACTORS
330
E
102
}
  0
MLINESTYLE
  5
18
102
{ACAD_REACTORS
330
17
102
}
100
AcDbMlineStyle
  2
STANDARD
 70
0
  3

 62
256
 51
90.0
 52
90.0
 71
2
 49
0.5
 62
256
  6
BYLAYER
 49
-0.5
 62
256
  6
BYLAYER
  0
LAYOUT
  5
516
102
{ACAD_REACTORS
330
1A
102
}
100
AcDbPlotSettings
  1

  2
none_device
  4
ISO_A3_(420.00_x_297.00_MM)
  6

 40
0.0
 41
0.0
 42
0.0
 43
0.0
 44
420.0
 45
297.0
 46
0.0
 47
0.0
 48
0.0
 49
0.0
140
0.0
141
0.0
142
1.0
143
1.0
 70
1024
 72
1
 73
0
 74
0
  7

 75
0
147
1.0
148
0.0
149
0.0
100
AcDbLayout
  1
Model
 70
0
 71
0
 10
0.0
 20
0.0
 11
420.0
 21
297.0
 12
0.0
 22
0.0
 32
0.0
 14
0.0
 24
0.0
 34
0.0
 15
0.0
 25
0.0
 35
0.0
146
0.0
 13
0.0
 23
0.0
 33
0.0
 16
1.0
 26
0.0
 36
0.0
 17
0.0
 27
1.0
 37
0.0
 76
0
330
222
345
0
346
0
  0
LAYOUT
  5
517
102
{ACAD_REACTORS
330
1A
102
}
100
AcDbPlotSettings
  1

  2
none_device
  4
ISO_A3_(420.00_x_297.00_MM)
  6

 40
0.0
 41
0.0
 42
0.0
 43
0.0
 44
420.0
 45
297.0
 46
0.0
 47
0.0
 48
0.0
 49
0.0
140
0.0
141
0.0
142
1.0
143
1.0
 70
0
 72
1
 73
0
 74
0
  7

 75
0
147
1.0
148
0.0
149
0.0
100
AcDbLayout
  1
Layout1
 70
0
 71
1
 10
0.0
 20
0.0
 11
420.0
 21
297.0
 12
0.0
 22
0.0
 32
0.0
 14
0.0
 24
0.0
 34
0.0
 15
0.0
 25
0.0
 35
0.0
146
0.0
 13
0.0
 23
0.0
 33
0.0
 16
1.0
 26
0.0
 36
0.0
 17
0.0
 27
1.0
 37
0.0
 76
0
330
223
345
0
346
0
  0
TABLESTYLE
  5
518
102
{ACAD_REACTORS
330
515
330
3B0
102
}
330
515
100
AcDbTableStyle
  3
Standard
 70
0
 71
0
 40
0.06
 41
0.06
280
1
281
1
  7
Standard
140
0.18
170
1
 62
0
 63
7
283
0
  7
Standard
140
0.18
170
1
 62
0
 63
7
283
0
  7
Standard
140
0.18
170
1
 62
0
 63
7
283
0
  0
TABLESTYLE
  5
519
102
{ACAD_REACTORS
330
515
102
}
330
515
100
AcDbTableStyle
  3
Standard1
 70
1
 71
0
 40
0.06
 41
0.06
280
1
281
1
  7
Standard
140
0.18
170
1
 62
0
 63
7
283
0
  7
Standard
140
0.18
170
1
 62
0
 63
7
283
0
  7
Standard
140
0.18
170
1
 62
0
 63
7
283
0
  0
ENDSEC
  0
EOF
