  0
SECTION
  2
HEADER
  9
$ACADVER
  1
AC1015
  9
$ACADMAINTVER
 70
     6
  9
$DWGCODEPAGE
  3
ANSI_1252
  9
$INSBASE
 10
0.0
 20
0.0
 30
0.0
  9
$EXTMIN
 10
0.0
 20
0.0
 30
0.0
  9
$EXTMAX
 10
420.0
 20
297.0
 30
0.0
  9
$LIMMIN
 10
0.0
 20
0.0
  9
$LIMMAX
 10
420.0
 20
297.0
  9
$ORTHOMODE
 70
     0
  9
$REGENMODE
 70
     1
  9
$FILLMODE
 70
     1
  9
$QTEXTMODE
 70
     0
  9
$MIRRTEXT
 70
     1
  9
$LTSCALE
 40
23.1
  9
$ATTMODE
 70
     1
  9
$TEXTSIZE
 40
0.2
  9
$TRACEWID
 40
0.05
  9
$TEXTSTYLE
  7
STANDARD
  9
$CLAYER
  8
0
  9
$CELTYPE
  6
BYLAYER
  9
$CECOLOR
 62
   256
  9
$CELTSCALE
 40
1.0
  9
$DISPSILH
 70
     0
  9
$DIMSCALE
 40
1.0
  9
$DIMASZ
 40
2.5
  9
$DIMEXO
 40
2.625
  9
$DIMDLI
 40
15.96
  9
$DIMRND
 40
0.0
  9
$DIMDLE
 40
0.0
  9
$DIMEXE
 40
7.56
  9
$DIMTP
 40
0.01
  9
$DIMTM
 40
0.01
  9
$DIMTXT
 40
3.0
  9
$DIMCEN
 40
3.78
  9
$DIMTSZ
 40
0.0
  9
$DIMTOL
 70
     1
  9
$DIMLIM
 70
     0
  9
$DIMTIH
 70
     1
  9
$DIMTOH
 70
     1
  9
$DIMSE1
 70
     0
  9
$DIMSE2
 70
     0
  9
$DIMTAD
 70
     0
  9
$DIMZIN
 70
     0
  9
$DIMBLK
  1
CLOSED
  9
$DIMASO
 70
     1
  9
$DIMSHO
 70
     1
  9
$DIMPOST
  1

  9
$DIMAPOST
  1

  9
$DIMALT
 70
     0
  9
$DIMALTD
 70
     2
  9
$DIMALTF
 40
25.4
  9
$DIMLFAC
 40
1.0
  9
$DIMTOFL
 70
     0
  9
$DIMTVP
 40
0.0
  9
$DIMTIX
 70
     0
  9
$DIMSOXD
 70
     0
  9
$DIMSAH
 70
     0
  9
$DIMBLK1
  1

  9
$DIMBLK2
  1

  9
$DIMSTYLE
  2
STANDARD
  9
$DIMCLRD
 70
     0
  9
$DIMCLRE
 70
     0
  9
$DIMCLRT
 70
     0
  9
$DIMTFAC
 40
1.0
  9
$DIMGAP
 40
0.09
  9
$DIMJUST
 70
     0
  9
$DIMSD1
 70
     0
  9
$DIMSD2
 70
     0
  9
$DIMTOLJ
 70
     1
  9
$DIMTZIN
 70
     0
  9
$DIMALTZ
 70
     0
  9
$DIMALTTZ
 70
     0
  9
$DIMUPT
 70
     0
  9
$DIMDEC
 70
     4
  9
$DIMTDEC
 70
     4
  9
$DIMALTU
 70
     2
  9
$DIMALTTD
 70
     2
  9
$DIMTXSTY
  7
STANDARD
  9
$DIMAUNIT
 70
     0
  9
$DIMADEC
 70
     0
  9
$DIMALTRND
 40
0.0
  9
$DIMAZIN
 70
     0
  9
$DIMDSEP
 70
    46
  9
$DIMATFIT
 70
     3
  9
$DIMFRAC
 70
     0
  9
$DIMLDRBLK
  1

  9
$DIMLUNIT
 70
     2
  9
$DIMLWD
 70
    -2
  9
$DIMLWE
 70
    -2
  9
$DIMTMOVE
 70
     0
  9
$LUNITS
 70
     2
  9
$LUPREC
 70
     4
  9
$SKETCHINC
 40
0.1
  9
$FILLETRAD
 40
0.5
  9
$AUNITS
 70
     0
  9
$AUPREC
 70
     0
  9
$MENU
  1
.
  9
$ELEVATION
 40
0.0
  9
$PELEVATION
 40
0.0
  9
$THICKNESS
 40
0.0
  9
$LIMCHECK
 70
     0
  9
$CHAMFERA
 40
0.0
  9
$CHAMFERB
 40
0.0
  9
$CHAMFERC
 40
0.0
  9
$CHAMFERD
 40
0.0
  9
$SKPOLY
 70
     0
  9
$TDCREATE
 40
2447893.041666667
  9
$TDUCREATE
 40
0.0
  9
$TDUPDATE
 40
2456744.594406319
  9
$TDUUPDATE
 40
2456744.552739653
  9
$TDINDWG
 40
0.0005521644
  9
$TDUSRTIMER
 40
2456744.552187616
  9
$USRTIMER
 70
     1
  9
$ANGBASE
 50
0.0
  9
$ANGDIR
 70
     0
  9
$PDMODE
 70
     3
  9
$PDSIZE
 40
0.3125
  9
$PLINEWID
 40
0.0
  9
$SPLFRAME
 70
     0
  9
$SPLINETYPE
 70
     6
  9
$SPLINESEGS
 70
     8
  9
$HANDSEED
  5
4C6
  9
$SURFTAB1
 70
     6
  9
$SURFTAB2
 70
     6
  9
$SURFTYPE
 70
     6
  9
$SURFU
 70
     6
  9
$SURFV
 70
     6
  9
$UCSBASE
  2

  9
$UCSNAME
  2

  9
$UCSORG
 10
0.0
 20
0.0
 30
0.0
  9
$UCSXDIR
 10
1.0
 20
0.0
 30
0.0
  9
$UCSYDIR
 10
0.0
 20
1.0
 30
0.0
  9
$UCSORTHOREF
  2

  9
$UCSORTHOVIEW
 70
     0
  9
$UCSORGTOP
 10
0.0
 20
0.0
 30
0.0
  9
$UCSORGBOTTOM
 10
0.0
 20
0.0
 30
0.0
  9
$UCSORGLEFT
 10
0.0
 20
0.0
 30
0.0
  9
$UCSORGRIGHT
 10
0.0
 20
0.0
 30
0.0
  9
$UCSORGFRONT
 10
0.0
 20
0.0
 30
0.0
  9
$UCSORGBACK
 10
0.0
 20
0.0
 30
0.0
  9
$PUCSBASE
  2

  9
$PUCSNAME
  2

  9
$PUCSORG
 10
0.0
 20
0.0
 30
0.0
  9
$PUCSXDIR
 10
1.0
 20
0.0
 30
0.0
  9
$PUCSYDIR
 10
0.0
 20
1.0
 30
0.0
  9
$PUCSORTHOREF
  2

  9
$PUCSORTHOVIEW
 70
     0
  9
$PUCSORGTOP
 10
0.0
 20
0.0
 30
0.0
  9
$PUCSORGBOTTOM
 10
0.0
 20
0.0
 30
0.0
  9
$PUCSORGLEFT
 10
0.0
 20
0.0
 30
0.0
  9
$PUCSORGRIGHT
 10
0.0
 20
0.0
 30
0.0
  9
$PUCSORGFRONT
 10
0.0
 20
0.0
 30
0.0
  9
$PUCSORGBACK
 10
0.0
 20
0.0
 30
0.0
  9
$USERI1
 70
     0
  9
$USERI2
 70
     0
  9
$USERI3
 70
     0
  9
$USERI4
 70
     0
  9
$USERI5
 70
     0
  9
$USERR1
 40
0.0
  9
$USERR2
 40
0.0
  9
$USERR3
 40
0.0
  9
$USERR4
 40
0.0
  9
$USERR5
 40
0.0
  9
$WORLDVIEW
 70
     1
  9
$SHADEDGE
 70
     3
  9
$SHADEDIF
 70
    70
  9
$TILEMODE
 70
     1
  9
$MAXACTVP
 70
    64
  9
$PINSBASE
 10
0.0
 20
0.0
 30
0.0
  9
$PLIMCHECK
 70
     0
  9
$PEXTMIN
 10
1.000000000000000E+20
 20
1.000000000000000E+20
 30
1.000000000000000E+20
  9
$PEXTMAX
 10
-1.000000000000000E+20
 20
-1.000000000000000E+20
 30
-1.000000000000000E+20
  9
$PLIMMIN
 10
0.0
 20
0.0
  9
$PLIMMAX
 10
420.0
 20
297.0
  9
$UNITMODE
 70
     0
  9
$VISRETAIN
 70
     1
  9
$PLINEGEN
 70
     0
  9
$PSLTSCALE
 70
     1
  9
$TREEDEPTH
 70
  3020
  9
$CMLSTYLE
  2

  9
$CMLJUST
 70
     0
  9
$CMLSCALE
 40
1.0
  9
$PROXYGRAPHICS
 70
     1
  9
$MEASUREMENT
 70
     1
  9
$CELWEIGHT
370
    -1
  9
$ENDCAPS
280
     0
  9
$JOINSTYLE
280
     0
  9
$LWDISPLAY
290
     0
  9
$INSUNITS
 70
     4
  9
$HYPERLINKBASE
  1

  9
$STYLESHEET
  1

  9
$XEDIT
290
     1
  9
$CEPSNTYPE
380
     0
  9
$PSTYLEMODE
290
     1
  9
$FINGERPRINTGUID
  2
{10D13C37-31B4-4237-8727-DAA7695C4AEF}
  9
$VERSIONGUID
  2
{FAEB1C32-E019-11D5-929B-00C0DF256EC4}
  9
$EXTNAMES
290
     1
  9
$PSVPSCALE
 40
0.0
  9
$OLESTARTUP
290
     0
  0
ENDSEC
  0
SECTION
  2
CLASSES
  0
CLASS
  1
ACDBDICTIONARYWDFLT
  2
AcDbDictionaryWithDefault
  3
ObjectDBX Classes
 90
        0
280
     0
281
     0
  0
CLASS
  1
ACDBPLACEHOLDER
  2
AcDbPlaceHolder
  3
ObjectDBX Classes
 90
        0
280
     0
281
     0
  0
CLASS
  1
LAYOUT
  2
AcDbLayout
  3
ObjectDBX Classes
 90
        0
280
     0
281
     0
  0
CLASS
  1
TABLESTYLE
  2
AcDbTableStyle
  3
ObjectDBX Classes
 90
     4095
280
     0
281
     0
  0
CLASS
  1
ACAD_TABLE
  2
AcDbTable
  3
ObjectDBX Classes
 90
     1025
280
     0
281
     1
  0
CLASS
  1
SCALE
  2
AcDbScale
  3
ObjectDBX Classes
 90
     1153
280
     0
281
     0
  0
CLASS
  1
TABLEGEOMETRY
  2
AcDbTableGeometry
  3
ObjectDBX Classes
 90
     1152
280
     0
281
     0
  0
CLASS
  1
VISUALSTYLE
  2
AcDbVisualStyle
  3
ObjectDBX Classes
 90
     4095
280
     0
281
     0
  0
CLASS
  1
MATERIAL
  2
AcDbMaterial
  3
ObjectDBX Classes
 90
     1153
280
     0
281
     0
  0
CLASS
  1
SUN
  2
AcDbSun
  3
SCENEOE
 90
     1153
280
     0
281
     0
  0
CLASS
  1
RASTERVARIABLES
  2
AcDbRasterVariables
  3
ISM
 90
        0
280
     0
281
     0
  0
ENDSEC
  0
SECTION
  2
TABLES
  0
TABLE
  2
VPORT
  5
8
330
0
100
AcDbSymbolTable
 70
     1
  0
VPORT
  5
1F4
330
8
100
AcDbSymbolTableRecord
100
AcDbViewportTableRecord
  2
*ACTIVE
 70
     0
 10
0.0
 20
0.0
 11
1.0
 21
1.0
 12
243.0464205010817
 22
168.4176543050481
 13
0.0
 23
0.0
 14
1.0
 24
1.0
 15
0.0
 25
0.0
 16
0.0
 26
0.0
 36
1.0
 17
0.0
 27
0.0
 37
0.0
 40
464.0625
 41
1.732905982905983
 42
50.0
 43
0.0
 44
0.0
 50
0.0
 51
0.0
 71
    16
 72
   100
 73
     1
 74
     1
 75
     0
 76
     0
 77
     0
 78
     0
281
     0
 65
     1
110
0.0
120
0.0
130
0.0
111
1.0
121
0.0
131
0.0
112
0.0
122
1.0
132
0.0
 79
     0
146
0.0
  0
ENDTAB
  0
TABLE
  2
LTYPE
  5
5
330
0
100
AcDbSymbolTable
 70
     6
  0
LTYPE
  5
14
330
5
100
AcDbSymbolTableRecord
100
AcDbLinetypeTableRecord
  2
BYBLOCK
 70
     0
  3

 72
    65
 73
     0
 40
0.0
  0
LTYPE
  5
15
330
5
100
AcDbSymbolTableRecord
100
AcDbLinetypeTableRecord
  2
BYLAYER
 70
     0
  3

 72
    65
 73
     0
 40
0.0
  0
LTYPE
  5
16
330
5
100
AcDbSymbolTableRecord
100
AcDbLinetypeTableRecord
  2
CONTINUOUS
 70
     0
  3
Solid line
 72
    65
 73
     0
 40
0.0
  0
LTYPE
  5
1F5
330
5
100
AcDbSymbolTableRecord
100
AcDbLinetypeTableRecord
  2
CENTER
 70
     0
  3
____ _ ____ _ ____ _ ____ _ ____ _ ____ _ ____
 72
    65
 73
     4
 40
0.6
 49
0.375
 74
     0
 49
-0.075
 74
     0
 49
0.075
 74
     0
 49
-0.075
 74
     0
  0
LTYPE
  5
1F6
330
5
100
AcDbSymbolTableRecord
100
AcDbLinetypeTableRecord
  2
HIDDEN
 70
     0
  3
- - - - - - - - - - - - - - - - - - - -
 72
    65
 73
     2
 40
0.2
 49
0.1
 74
     0
 49
-0.1
 74
     0
  0
LTYPE
  5
1F7
330
5
100
AcDbSymbolTableRecord
100
AcDbLinetypeTableRecord
  2
PHANTOM
 70
     0
  3
_____ _ _ _____ _ _ _____ _ _ _____
 72
    65
 73
     6
 40
0.8
 49
0.45
 74
     0
 49
-0.05
 74
     0
 49
0.1
 74
     0
 49
-0.05
 74
     0
 49
0.1
 74
     0
 49
-0.05
 74
     0
  0
LTYPE
  5
1F8
330
5
100
AcDbSymbolTableRecord
100
AcDbLinetypeTableRecord
  2
DOT
 70
     0
  3
. . . . . . . . . . . . . . . . . . . .
 72
    65
 73
     2
 40
0.2
 49
0.1
 74
     0
 49
-0.1
 74
     0
  0
LTYPE
  5
1F9
330
5
100
AcDbSymbolTableRecord
100
AcDbLinetypeTableRecord
  2
DASHED
 70
     0
  3
- - - - - - - - - - - - - - - - - - - -
 72
    65
 73
     2
 40
0.2
 49
0.1
 74
     0
 49
-0.1
 74
     0
  0
ENDTAB
  0
TABLE
  2
LAYER
  5
2
330
0
100
AcDbSymbolTable
 70
    36
  0
LAYER
  5
10
330
2
100
AcDbSymbolTableRecord
100
AcDbLayerTableRecord
  2
0
 70
     0
 62
     7
  6
CONTINUOUS
370
    -3
390
F
  0
LAYER
  5
1FA
330
2
100
AcDbSymbolTableRecord
100
AcDbLayerTableRecord
  2
DEFAULT_1
 70
     0
 62
     7
  6
CENTER
370
    -3
390
F
  0
LAYER
  5
1FB
330
2
100
AcDbSymbolTableRecord
100
AcDbLayerTableRecord
  2
DEFAULT_2
 70
     0
 62
     8
  6
HIDDEN
370
    -3
390
F
  0
LAYER
  5
1FC
330
2
100
AcDbSymbolTableRecord
100
AcDbLayerTableRecord
  2
DEFAULT_3
 70
     0
 62
     7
  6
PHANTOM
370
    -3
390
F
  0
LAYER
  5
1FD
330
2
100
AcDbSymbolTableRecord
100
AcDbLayerTableRecord
  2
01_ALL_DTM_PLN
 70
     0
 62
     7
  6
CONTINUOUS
370
    -3
390
F
  0
LAYER
  5
1FE
330
2
100
AcDbSymbolTableRecord
100
AcDbLayerTableRecord
  2
01__ASM_ALL_DTM_PLN
 70
     0
 62
     7
  6
CONTINUOUS
370
    -3
390
F
  0
LAYER
  5
1FF
330
2
100
AcDbSymbolTableRecord
100
AcDbLayerTableRecord
  2
01__ASM_DEF_DTM_PLN
 70
     0
 62
     7
  6
CONTINUOUS
370
    -3
390
F
  0
LAYER
  5
200
330
2
100
AcDbSymbolTableRecord
100
AcDbLayerTableRecord
  2
01___PRT_ALL_DTM_PLN
 70
     0
 62
     7
  6
CONTINUOUS
370
    -3
390
F
  0
LAYER
  5
201
330
2
100
AcDbSymbolTableRecord
100
AcDbLayerTableRecord
  2
01___PRT_DEF_DTM_PLN
 70
     0
 62
     7
  6
CONTINUOUS
370
    -3
390
F
  0
LAYER
  5
202
330
2
100
AcDbSymbolTableRecord
100
AcDbLayerTableRecord
  2
02_ALL_AXES
 70
     0
 62
     7
  6
CONTINUOUS
370
    -3
390
F
  0
LAYER
  5
203
330
2
100
AcDbSymbolTableRecord
100
AcDbLayerTableRecord
  2
02__ASM_ALL_AXES
 70
     0
 62
     7
  6
CONTINUOUS
370
    -3
390
F
  0
LAYER
  5
204
330
2
100
AcDbSymbolTableRecord
100
AcDbLayerTableRecord
  2
02___PRT_ALL_AXES
 70
     0
 62
     7
  6
CONTINUOUS
370
    -3
390
F
  0
LAYER
  5
205
330
2
100
AcDbSymbolTableRecord
100
AcDbLayerTableRecord
  2
03_ALL_CURVES
 70
     0
 62
     7
  6
CONTINUOUS
370
    -3
390
F
  0
LAYER
  5
206
330
2
100
AcDbSymbolTableRecord
100
AcDbLayerTableRecord
  2
03__ASM_ALL_CURVES
 70
     0
 62
     7
  6
CONTINUOUS
370
    -3
390
F
  0
LAYER
  5
207
330
2
100
AcDbSymbolTableRecord
100
AcDbLayerTableRecord
  2
03___PRT_ALL_CURVES
 70
     0
 62
     7
  6
CONTINUOUS
370
    -3
390
F
  0
LAYER
  5
208
330
2
100
AcDbSymbolTableRecord
100
AcDbLayerTableRecord
  2
04_ALL_DTM_PNT
 70
     0
 62
     7
  6
CONTINUOUS
370
    -3
390
F
  0
LAYER
  5
209
330
2
100
AcDbSymbolTableRecord
100
AcDbLayerTableRecord
  2
04__ASM_ALL_DTM_PNT
 70
     0
 62
     7
  6
CONTINUOUS
370
    -3
390
F
  0
LAYER
  5
20A
330
2
100
AcDbSymbolTableRecord
100
AcDbLayerTableRecord
  2
04___PRT_ALL_DTM_PNT
 70
     0
 62
     7
  6
CONTINUOUS
370
    -3
390
F
  0
LAYER
  5
20B
330
2
100
AcDbSymbolTableRecord
100
AcDbLayerTableRecord
  2
05_ALL_DTM_CSYS
 70
     0
 62
     7
  6
CONTINUOUS
370
    -3
390
F
  0
LAYER
  5
20C
330
2
100
AcDbSymbolTableRecord
100
AcDbLayerTableRecord
  2
05__ASM_ALL_DTM_CSYS
 70
     0
 62
     7
  6
CONTINUOUS
370
    -3
390
F
  0
LAYER
  5
20D
330
2
100
AcDbSymbolTableRecord
100
AcDbLayerTableRecord
  2
05__ASM_DEF_DTM_CSYS
 70
     0
 62
     7
  6
CONTINUOUS
370
    -3
390
F
  0
LAYER
  5
20E
330
2
100
AcDbSymbolTableRecord
100
AcDbLayerTableRecord
  2
05___PRT_ALL_DTM_CSYS
 70
     0
 62
     7
  6
CONTINUOUS
370
    -3
390
F
  0
LAYER
  5
20F
330
2
100
AcDbSymbolTableRecord
100
AcDbLayerTableRecord
  2
05___PRT_DEF_DTM_CSYS
 70
     0
 62
     7
  6
CONTINUOUS
370
    -3
390
F
  0
LAYER
  5
210
330
2
100
AcDbSymbolTableRecord
100
AcDbLayerTableRecord
  2
06_ALL_SURFS
 70
     0
 62
     7
  6
CONTINUOUS
370
    -3
390
F
  0
LAYER
  5
211
330
2
100
AcDbSymbolTableRecord
100
AcDbLayerTableRecord
  2
06__ASM_ALL_SURFS
 70
     0
 62
     7
  6
CONTINUOUS
370
    -3
390
F
  0
LAYER
  5
212
330
2
100
AcDbSymbolTableRecord
100
AcDbLayerTableRecord
  2
06___PRT_ALL_SURFS
 70
     0
 62
     7
  6
CONTINUOUS
370
    -3
390
F
  0
LAYER
  5
213
330
2
100
AcDbSymbolTableRecord
100
AcDbLayerTableRecord
  2
07__ASM_ALL_SKELETONS
 70
     0
 62
     7
  6
CONTINUOUS
370
    -3
390
F
  0
LAYER
  5
214
330
2
100
AcDbSymbolTableRecord
100
AcDbLayerTableRecord
  2
1_ALL_PLANES
 70
     0
 62
     7
  6
CONTINUOUS
370
    -3
390
F
  0
LAYER
  5
215
330
2
100
AcDbSymbolTableRecord
100
AcDbLayerTableRecord
  2
2_ALL_CSYS
 70
     0
 62
     7
  6
CONTINUOUS
370
    -3
390
F
  0
LAYER
  5
216
330
2
100
AcDbSymbolTableRecord
100
AcDbLayerTableRecord
  2
3_ALL_AXES
 70
     0
 62
     7
  6
CONTINUOUS
370
    -3
390
F
  0
LAYER
  5
217
330
2
100
AcDbSymbolTableRecord
100
AcDbLayerTableRecord
  2
4_ALL_POINTS
 70
     0
 62
     7
  6
CONTINUOUS
370
    -3
390
F
  0
LAYER
  5
218
330
2
100
AcDbSymbolTableRecord
100
AcDbLayerTableRecord
  2
5_ALL_CURVES
 70
     0
 62
     7
  6
CONTINUOUS
370
    -3
390
F
  0
LAYER
  5
219
330
2
100
AcDbSymbolTableRecord
100
AcDbLayerTableRecord
  2
6_ALL_SURFS
 70
     0
 62
     7
  6
CONTINUOUS
370
    -3
390
F
  0
LAYER
  5
21A
330
2
100
AcDbSymbolTableRecord
100
AcDbLayerTableRecord
  2
7_ALL_FEATURES
 70
     0
 62
     7
  6
CONTINUOUS
370
    -3
390
F
  0
LAYER
  5
21B
330
2
100
AcDbSymbolTableRecord
100
AcDbLayerTableRecord
  2
8_ALL_NOTES_BALLOONS_SYMBOLS_GT
 70
     0
 62
     7
  6
CONTINUOUS
370
    -3
390
F
  0
LAYER
  5
49F
330
2
100
AcDbSymbolTableRecord
100
AcDbLayerTableRecord
  2
Defpoints
 70
     0
 62
     7
  6
CONTINUOUS
290
     0
370
    -3
390
F
  0
ENDTAB
  0
TABLE
  2
STYLE
  5
3
330
0
100
AcDbSymbolTable
 70
     6
  0
STYLE
  5
11
330
3
100
AcDbSymbolTableRecord
100
AcDbTextStyleTableRecord
  2
STANDARD
 70
     0
 40
0.0
 41
0.85
 50
0.0
 71
     0
 42
0.2
  3
txt
  4

  0
STYLE
  5
21C
330
3
100
AcDbSymbolTableRecord
100
AcDbTextStyleTableRecord
  2
TEXTSTYLE_1
 70
     0
 40
0.0
 41
0.8
 50
0.0
 71
     0
 42
0.2
  3
gdt
  4

  0
STYLE
  5
21D
330
3
100
AcDbSymbolTableRecord
100
AcDbTextStyleTableRecord
  2
TEXTSTYLE_2
 70
     0
 40
0.0
 41
0.9
 50
0.0
 71
     0
 42
0.2
  3
txt
  4

  0
STYLE
  5
21E
330
3
100
AcDbSymbolTableRecord
100
AcDbTextStyleTableRecord
  2
TEXTSTYLE_3
 70
     0
 40
0.0
 41
0.9
 50
0.0
 71
     0
 42
0.2
  3
txt
  4

  0
STYLE
  5
21F
330
3
100
AcDbSymbolTableRecord
100
AcDbTextStyleTableRecord
  2
TEXTSTYLE_4
 70
     0
 40
0.0
 41
0.85
 50
0.0
 71
     0
 42
0.2
  3
gdt
  4

  0
STYLE
  5
220
330
3
100
AcDbSymbolTableRecord
100
AcDbTextStyleTableRecord
  2
TEXTSTYLE_5
 70
     0
 40
0.0
 41
0.85
 50
0.0
 71
     0
 42
0.2
  3
txt
  4

  0
ENDTAB
  0
TABLE
  2
VIEW
  5
6
330
0
100
AcDbSymbolTable
 70
     0
  0
ENDTAB
  0
TABLE
  2
UCS
  5
7
330
0
100
AcDbSymbolTable
 70
     0
  0
ENDTAB
  0
TABLE
  2
APPID
  5
9
330
0
100
AcDbSymbolTable
 70
     1
  0
APPID
  5
221
330
9
100
AcDbSymbolTableRecord
100
AcDbRegAppTableRecord
  2
ACAD
 70
     0
  0
ENDTAB
  0
TABLE
  2
DIMSTYLE
  5
A
330
0
100
AcDbSymbolTable
 70
     5
100
AcDbDimStyleTable
  0
DIMSTYLE
105
22B
330
A
100
AcDbSymbolTableRecord
100
AcDbDimStyleTableRecord
  2
STANDARD
 70
     0
 41
2.5
 47
0.01
 48
0.01
 71
     1
 73
     0
 74
     0
 77
     1
 78
     8
140
3.0
178
     0
271
     2
272
     2
284
     8
340
11
341
224
342
224
343
224
344
224
  0
DIMSTYLE
105
22C
330
A
100
AcDbSymbolTableRecord
100
AcDbDimStyleTableRecord
  2
DIMSTYLE_1
 70
     0
 41
2.5
 47
0.3
 48
0.3
 73
     0
 74
     0
 77
     1
 78
     8
140
3.0
178
     0
271
     2
272
     2
284
     8
340
11
341
224
342
224
343
224
344
224
  0
DIMSTYLE
105
22D
330
A
100
AcDbSymbolTableRecord
100
AcDbDimStyleTableRecord
  2
DIMSTYLE_2
 70
     0
 41
2.5
 47
0.3
 48
0.3
 73
     0
 74
     0
 77
     1
 78
     8
140
3.0
178
     0
271
     0
272
     0
284
     8
340
11
341
224
342
224
343
224
344
224
  0
DIMSTYLE
105
22E
330
A
100
AcDbSymbolTableRecord
100
AcDbDimStyleTableRecord
  2
DIMSTYLE_3
 70
     0
 41
2.5
 47
0.3
 48
0.3
 73
     0
 74
     0
 77
     1
 78
     8
140
3.0
178
     0
271
     2
272
     2
284
     8
340
11
341
224
342
224
343
224
344
224
  0
DIMSTYLE
105
22F
330
A
100
AcDbSymbolTableRecord
100
AcDbDimStyleTableRecord
  2
DIMSTYLE_4
 70
     0
 41
2.5
 47
0.1
 48
0.1
 73
     0
 74
     0
 77
     1
 78
     8
140
3.0
178
     0
271
     2
272
     2
284
     8
340
11
341
224
342
224
343
224
344
224
  0
ENDTAB
  0
TABLE
  2
BLOCK_RECORD
  5
1
330
0
100
AcDbSymbolTable
 70
     7
  0
BLOCK_RECORD
  5
222
330
1
100
AcDbSymbolTableRecord
100
AcDbBlockTableRecord
  2
*Model_Space
340
456
  0
BLOCK_RECORD
  5
223
330
1
100
AcDbSymbolTableRecord
100
AcDbBlockTableRecord
  2
*Paper_Space
340
457
  0
BLOCK_RECORD
  5
224
330
1
100
AcDbSymbolTableRecord
100
AcDbBlockTableRecord
  2
_CLOSED
340
0
102
{BLKREFS
331
275
331
0
331
0
331
0
331
0
331
0
331
0
331
285
331
284
331
290
331
28F
331
27C
331
27B
102
}
  0
BLOCK_RECORD
  5
225
330
1
100
AcDbSymbolTableRecord
100
AcDbBlockTableRecord
  2
*D1
340
0
  0
BLOCK_RECORD
  5
226
330
1
100
AcDbSymbolTableRecord
100
AcDbBlockTableRecord
  2
*D2
340
0
  0
BLOCK_RECORD
  5
227
330
1
100
AcDbSymbolTableRecord
100
AcDbBlockTableRecord
  2
*D3
340
0
  0
BLOCK_RECORD
  5
228
330
1
100
AcDbSymbolTableRecord
100
AcDbBlockTableRecord
  2
*D4
340
0
  0
BLOCK_RECORD
  5
229
330
1
100
AcDbSymbolTableRecord
100
AcDbBlockTableRecord
  2
LOGO2_BL0
340
0
102
{BLKREFS
331
2B9
102
}
  0
BLOCK_RECORD
  5
22A
330
1
100
AcDbSymbolTableRecord
100
AcDbBlockTableRecord
  2
*T6
340
0
102
{BLKREFS
331
2BA
331
2BA
102
}
  0
ENDTAB
  0
ENDSEC
  0
SECTION
  2
BLOCKS
  0
BLOCK
  5
20
330
222
100
AcDbEntity
  8
0
100
AcDbBlockBegin
  2
*Model_Space
 70
     0
 10
0.0
 20
0.0
 30
0.0
  3
*Model_Space
  1
*Model_Space
  0
ENDBLK
  5
21
330
222
100
AcDbEntity
  8
0
100
AcDbBlockEnd
  0
BLOCK
  5
1C
330
223
100
AcDbEntity
 67
     1
  8
0
100
AcDbBlockBegin
  2
*Paper_Space
 70
     0
 10
0.0
 20
0.0
 30
0.0
  3
*Paper_Space
  1
*Paper_Space
  0
ENDBLK
  5
1D
330
223
100
AcDbEntity
 67
     1
  8
0
100
AcDbBlockEnd
  0
BLOCK
  5
26C
330
224
100
AcDbEntity
  8
0
100
AcDbBlockBegin
  2
_CLOSED
 70
     0
 10
0.0
 20
0.0
 30
0.0
  3
_CLOSED
  1
_CLOSED
  0
LINE
  5
26D
330
224
100
AcDbEntity
  8
0
  6
ByBlock
 62
     0
100
AcDbLine
 10
0.0
 20
0.0
 30
0.0
 11
-1.0
 21
0.2
 31
0.0
  0
LINE
  5
26E
330
224
100
AcDbEntity
  8
0
  6
ByBlock
 62
     0
100
AcDbLine
 10
-1.0
 20
0.2
 30
0.0
 11
-1.0
 21
-0.2
 31
0.0
  0
LINE
  5
26F
330
224
100
AcDbEntity
  8
0
  6
ByBlock
 62
     0
100
AcDbLine
 10
-1.0
 20
-0.2
 30
0.0
 11
0.0
 21
0.0
 31
0.0
  0
LINE
  5
270
330
224
100
AcDbEntity
  8
0
  6
ByBlock
 62
     0
100
AcDbLine
 10
-1.0
 20
0.0
 30
0.0
 11
0.0
 21
0.0
 31
0.0
  0
ENDBLK
  5
271
330
224
100
AcDbEntity
  8
0
  6
ByBlock
 62
     0
100
AcDbBlockEnd
  0
BLOCK
  5
272
330
225
100
AcDbEntity
  8
0
100
AcDbBlockBegin
  2
*D1
 70
     1
 10
0.0
 20
0.0
 30
0.0
  3
*D1
  1
*D1
  0
LINE
  5
273
330
225
100
AcDbEntity
  8
0
  6
Continuous
 62
     0
370
    -2
100
AcDbLine
 10
103.8506877910472
 20
223.4006876472014
 30
0.0
 11
118.4775732806503
 21
226.8427230410015
 31
0.0
  0
MTEXT
  5
274
330
225
100
AcDbEntity
  8
0
 62
     0
100
AcDbMText
 10
108.766228822367
 20
229.6940014933049
 30
0.0
 40
3.0
 41
0.0
 71
     1
 72
     1
  1
\A1;%%c55
 11
0.973411006388231
 21
0.2290655204133776
 31
0.0
 73
     1
 44
1.0
  0
INSERT
  5
275
330
225
100
AcDbEntity
  8
0
 62
     0
370
    -2
100
AcDbBlockReference
  2
_CLOSED
 10
101.4171602750766
 20
222.828023846168
 30
0.0
 41
2.5
 42
2.5
 43
2.5
 50
193.2420612804823
  0
LINE
  5
4A0
330
225
100
AcDbEntity
  8
0
  6
Continuous
 62
     0
100
AcDbLine
 10
74.55835759940035
 20
216.5287220348001
 30
0.0
 11
74.73835759940036
 21
216.5287220348001
 31
0.0
  0
LINE
  5
4A1
330
225
100
AcDbEntity
  8
0
  6
Continuous
 62
     0
100
AcDbLine
 10
74.64835759940036
 20
216.4387220348001
 30
0.0
 11
74.64835759940036
 21
216.6187220348001
 31
0.0
  0
POINT
  5
4A8
330
225
100
AcDbEntity
  8
Defpoints
 62
     0
100
AcDbPoint
 10
101.4171602750766
 20
222.828023846168
 30
0.0
  0
POINT
  5
4A9
330
225
100
AcDbEntity
  8
Defpoints
 62
     0
100
AcDbPoint
 10
47.87955492372406
 20
210.2294202234322
 30
0.0
  0
ENDBLK
  5
276
330
225
100
AcDbEntity
  8
0
  6
ByBlock
 62
     0
100
AcDbBlockEnd
  0
BLOCK
  5
277
330
226
100
AcDbEntity
  8
0
100
AcDbBlockBegin
  2
*D2
 70
     1
 10
0.0
 20
0.0
 30
0.0
  3
*D2
  1
*D2
  0
LINE
  5
278
330
226
100
AcDbEntity
  8
0
  6
Continuous
 62
     0
370
    -2
100
AcDbLine
 10
103.9226456877
 20
102.0676735618
 30
0.0
 11
111.0865232357
 21
102.0676735618
 31
0.0
  0
LINE
  5
279
330
226
100
AcDbEntity
  8
0
  6
Continuous
 62
     0
370
    -2
100
AcDbLine
 10
104.0231838695
 20
50.2676735618
 30
0.0
 11
111.0865232357
 21
50.2676735618
 31
0.0
  0
LINE
  5
27A
330
226
100
AcDbEntity
  8
0
  6
Continuous
 62
     0
370
    -2
100
AcDbLine
 10
110.9065232357
 20
99.5676735618
 30
0.0
 11
110.9065232357
 21
52.7676735618
 31
0.0
  0
INSERT
  5
27B
330
226
100
AcDbEntity
  8
0
 62
     0
370
    -2
100
AcDbBlockReference
  2
_CLOSED
 10
110.9065232357
 20
102.0676735618
 30
0.0
 41
2.5
 42
2.5
 43
2.5
 50
89.99999999999999
  0
INSERT
  5
27C
330
226
100
AcDbEntity
  8
0
 62
     0
370
    -2
100
AcDbBlockReference
  2
_CLOSED
 10
110.9065232357
 20
50.2676735618
 30
0.0
 41
2.5
 42
2.5
 43
2.5
 50
270.0
  0
MTEXT
  5
27D
330
226
100
AcDbEntity
  8
0
 62
     0
100
AcDbMText
 10
105.9065232357
 20
76.1676735618
 30
0.0
 40
3.0
 41
0.0
 71
     2
 72
     1
  1
\A1;52
 11
2.743408246177993E-16
 21
1.0
 31
0.0
 73
     1
 44
1.0
  0
POINT
  5
27E
330
226
100
AcDbEntity
  8
Defpoints
 62
     0
100
AcDbPoint
 10
103.8601456877
 20
102.0676735618
 30
0.0
  0
POINT
  5
4A6
330
226
100
AcDbEntity
  8
Defpoints
 62
     0
100
AcDbPoint
 10
103.9606838695
 20
50.2676735618
 30
0.0
  0
POINT
  5
4A7
330
226
100
AcDbEntity
  8
Defpoints
 62
     0
100
AcDbPoint
 10
110.9065232357
 20
50.2676735618
 30
0.0
  0
ENDBLK
  5
27F
330
226
100
AcDbEntity
  8
0
  6
ByBlock
 62
     0
100
AcDbBlockEnd
  0
BLOCK
  5
280
330
227
100
AcDbEntity
  8
0
100
AcDbBlockBegin
  2
*D3
 70
     1
 10
0.0
 20
0.0
 30
0.0
  3
*D3
  1
*D3
  0
LINE
  5
281
330
227
100
AcDbEntity
  8
0
  6
Continuous
 62
     0
370
    -2
100
AcDbLine
 10
175.3519481415
 20
236.5287220348
 30
0.0
 11
165.7258287303
 21
236.5287220348
 31
0.0
  0
LINE
  5
282
330
227
100
AcDbEntity
  8
0
  6
Continuous
 62
     0
370
    -2
100
AcDbLine
 10
175.3519481415
 20
196.5287220348
 30
0.0
 11
165.7258287303
 21
196.5287220348
 31
0.0
  0
LINE
  5
283
330
227
100
AcDbEntity
  8
0
  6
Continuous
 62
     0
370
    -2
100
AcDbLine
 10
165.9058287303
 20
234.0287220348
 30
0.0
 11
165.9058287303
 21
199.0287220348
 31
0.0
  0
INSERT
  5
284
330
227
100
AcDbEntity
  8
0
 62
     0
370
    -2
100
AcDbBlockReference
  2
_CLOSED
 10
165.9058287303
 20
236.5287220348
 30
0.0
 41
2.5
 42
2.5
 43
2.5
 50
90.0
  0
INSERT
  5
285
330
227
100
AcDbEntity
  8
0
 62
     0
370
    -2
100
AcDbBlockReference
  2
_CLOSED
 10
165.9058287303
 20
196.5287220348
 30
0.0
 41
2.5
 42
2.5
 43
2.5
 50
270.0
  0
MTEXT
  5
286
330
227
100
AcDbEntity
  8
0
 62
     0
100
AcDbMText
 10
160.9058287303
 20
216.5287220348
 30
0.0
 40
3.0
 41
0.0
 71
     2
 72
     1
  1
\A1;%%c40
 11
0.0
 21
1.0
 31
0.0
 73
     1
 44
1.0
  0
POINT
  5
287
330
227
100
AcDbEntity
  8
Defpoints
 62
     0
100
AcDbPoint
 10
175.4144481415
 20
236.5287220348
 30
0.0
  0
POINT
  5
4A2
330
227
100
AcDbEntity
  8
Defpoints
 62
     0
100
AcDbPoint
 10
175.4144481415
 20
196.5287220348
 30
0.0
  0
POINT
  5
4A3
330
227
100
AcDbEntity
  8
Defpoints
 62
     0
100
AcDbPoint
 10
165.9058287303
 20
196.5287220348
 30
0.0
  0
ENDBLK
  5
288
330
227
100
AcDbEntity
  8
0
  6
ByBlock
 62
     0
100
AcDbBlockEnd
  0
BLOCK
  5
289
330
228
100
AcDbEntity
  8
0
100
AcDbBlockBegin
  2
*D4
 70
     1
 10
0.0
 20
0.0
 30
0.0
  3
*D4
  1
*D4
  0
LINE
  5
28A
330
228
100
AcDbEntity
  8
0
  6
Continuous
 62
     0
370
    -2
100
AcDbLine
 10
227.3796683523
 20
247.0803124927
 30
0.0
 11
227.3796683523
 21
267.3116957094923
 31
0.0
  0
LINE
  5
28B
330
228
100
AcDbEntity
  8
0
  6
Continuous
 62
     0
370
    -2
100
AcDbLine
 10
228.9796683523
 20
247.20598522
 30
0.0
 11
228.9796683523
 21
267.3116957094923
 31
0.0
  0
LINE
  5
28C
330
228
100
AcDbEntity
  8
0
  6
Continuous
 62
     0
370
    -2
100
AcDbLine
 10
228.9796683523
 20
267.1316957094923
 30
0.0
 11
242.2296683523
 21
267.1316957094923
 31
0.0
  0
LINE
  5
28D
330
228
100
AcDbEntity
  8
0
  6
Continuous
 62
     0
370
    -2
100
AcDbLine
 10
224.8796683523
 20
267.1316957094923
 30
0.0
 11
222.3796683523
 21
267.1316957094923
 31
0.0
  0
LINE
  5
28E
330
228
100
AcDbEntity
  8
0
  6
Continuous
 62
     0
370
    -2
100
AcDbLine
 10
231.4796683523
 20
267.1316957094923
 30
0.0
 11
233.9796683523
 21
267.1316957094923
 31
0.0
  0
INSERT
  5
28F
330
228
100
AcDbEntity
  8
0
 62
     0
370
    -2
100
AcDbBlockReference
  2
_CLOSED
 10
227.3796683523
 20
267.1316957094923
 30
0.0
 41
2.5
 42
2.5
 43
2.5
  0
INSERT
  5
290
330
228
100
AcDbEntity
  8
0
 62
     0
370
    -2
100
AcDbBlockReference
  2
_CLOSED
 10
228.9796683523
 20
267.1316957094923
 30
0.0
 41
2.5
 42
2.5
 43
2.5
 50
180.0
  0
MTEXT
  5
291
330
228
100
AcDbEntity
  8
0
 62
     0
100
AcDbMText
 10
235.9796683523
 20
272.1316957094923
 30
0.0
 40
3.0
 41
0.0
 71
     1
 72
     1
  1
\A1;1.6
 73
     1
 44
1.0
  0
POINT
  5
292
330
228
100
AcDbEntity
  8
Defpoints
 62
     0
100
AcDbPoint
 10
227.3796683523
 20
247.0178124927
 30
0.0
  0
POINT
  5
4A4
330
228
100
AcDbEntity
  8
Defpoints
 62
     0
100
AcDbPoint
 10
228.9796683523
 20
247.14348522
 30
0.0
  0
POINT
  5
4A5
330
228
100
AcDbEntity
  8
Defpoints
 62
     0
100
AcDbPoint
 10
228.9796683523
 20
267.1316957094923
 30
0.0
  0
ENDBLK
  5
293
330
228
100
AcDbEntity
  8
0
  6
ByBlock
 62
     0
100
AcDbBlockEnd
  0
BLOCK
  5
230
330
229
100
AcDbEntity
  8
0
100
AcDbBlockBegin
  2
LOGO2_BL0
 70
     0
 10
333.1473869546
 20
37.5239270671
 30
0.0
  3
LOGO2_BL0
  1
LOGO2_BL0
  0
LINE
  5
231
330
229
100
AcDbEntity
  8
0
  6
Continuous
 62
     7
100
AcDbLine
 10
324.8903121828
 20
40.7194184059
 30
0.0
 11
323.5859712535
 21
40.7194184059
 31
0.0
  0
LINE
  5
232
330
229
100
AcDbEntity
  8
0
  6
Continuous
 62
     7
100
AcDbLine
 10
323.5859712535
 20
40.7194184059
 30
0.0
 11
323.5859712535
 21
30.260352346
 31
0.0
  0
LINE
  5
233
330
229
100
AcDbEntity
  8
0
  6
Continuous
 62
     7
100
AcDbLine
 10
323.5859712535
 20
30.260352346
 30
0.0
 11
328.0670261417
 21
30.260352346
 31
0.0
  0
LINE
  5
234
330
229
100
AcDbEntity
  8
0
  6
Continuous
 62
     7
100
AcDbLine
 10
328.0670261417
 20
30.260352346
 30
0.0
 11
328.0670261417
 21
31.4532066711
 31
0.0
  0
LINE
  5
235
330
229
100
AcDbEntity
  8
0
  6
Continuous
 62
     7
100
AcDbLine
 10
328.0670261417
 20
31.4532066711
 30
0.0
 11
324.8903121828
 21
31.4532066711
 31
0.0
  0
LINE
  5
236
330
229
100
AcDbEntity
  8
0
  6
Continuous
 62
     7
100
AcDbLine
 10
324.8903121828
 20
31.4532066711
 30
0.0
 11
324.8903121828
 21
40.7194184059
 31
0.0
  0
LINE
  5
237
330
229
100
AcDbEntity
  8
0
  6
Continuous
 62
     7
100
AcDbLine
 10
339.8266383991
 20
40.7194184059
 30
0.0
 11
338.522820881
 21
40.7194184059
 31
0.0
  0
LINE
  5
238
330
229
100
AcDbEntity
  8
0
  6
Continuous
 62
     7
100
AcDbLine
 10
338.522820881
 20
40.7194184059
 30
0.0
 11
338.522820881
 21
30.260352346
 31
0.0
  0
LINE
  5
239
330
229
100
AcDbEntity
  8
0
  6
Continuous
 62
     7
100
AcDbLine
 10
338.522820881
 20
30.260352346
 30
0.0
 11
343.0040066221
 21
30.260352346
 31
0.0
  0
LINE
  5
23A
330
229
100
AcDbEntity
  8
0
  6
Continuous
 62
     7
100
AcDbLine
 10
343.0040066221
 20
30.260352346
 30
0.0
 11
343.0040066221
 21
31.4532066711
 31
0.0
  0
LINE
  5
23B
330
229
100
AcDbEntity
  8
0
  6
Continuous
 62
     7
100
AcDbLine
 10
343.0040066221
 20
31.4532066711
 30
0.0
 11
339.8266383991
 21
31.4532066711
 31
0.0
  0
LINE
  5
23C
330
229
100
AcDbEntity
  8
0
  6
Continuous
 62
     7
100
AcDbLine
 10
339.8266383991
 20
31.4532066711
 30
0.0
 11
339.8266383991
 21
40.7194184059
 31
0.0
  0
LWPOLYLINE
  5
23D
330
229
100
AcDbEntity
  8
0
  6
Continuous
 62
     7
100
AcDbPolyline
 90
        2
 70
     0
 43
0.2
 10
321.9403661644
 20
26.9168010391
 10
321.9403661644
 20
25.0597377898
  0
LWPOLYLINE
  5
23E
330
229
100
AcDbEntity
  8
0
  6
Continuous
 62
     7
100
AcDbPolyline
 90
        2
 70
     0
 43
0.2
 10
321.9403661644
 20
25.0597377898
 10
322.7360821748
 20
25.0597377898
  0
LWPOLYLINE
  5
23F
330
229
100
AcDbEntity
  8
0
  6
Continuous
 62
     7
100
AcDbPolyline
 90
        2
 70
     0
 43
0.2
 10
322.7360821748
 20
25.0597377898
 10
322.7360821748
 20
25.2717193614
  0
LWPOLYLINE
  5
240
330
229
100
AcDbEntity
  8
0
  6
Continuous
 62
     7
100
AcDbPolyline
 90
        2
 70
     0
 43
0.2
 10
322.7360821748
 20
25.2717193614
 10
322.1719756593
 20
25.2717193614
  0
LWPOLYLINE
  5
241
330
229
100
AcDbEntity
  8
0
  6
Continuous
 62
     7
100
AcDbPolyline
 90
        2
 70
     0
 43
0.2
 10
322.1719756593
 20
25.2717193614
 10
322.1719756593
 20
26.9168010391
  0
LWPOLYLINE
  5
242
330
229
100
AcDbEntity
  8
0
  6
Continuous
 62
     7
100
AcDbPolyline
 90
        2
 70
     0
 43
0.2
 10
322.1719756593
 20
26.9168010391
 10
321.9403661644
 20
26.9168010391
  0
SPLINE
  5
243
330
229
100
AcDbEntity
  8
0
  6
Continuous
 62
     7
100
AcDbSpline
 70
     3
 71
     3
 72
    35
 73
    31
 74
     0
 42
0.000000001
 43
0.0000001
 40
0.0
 40
0.0
 40
0.0
 40
0.0
 40
1.0
 40
1.0
 40
1.0
 40
2.0
 40
2.0
 40
2.0
 40
3.0
 40
3.0
 40
3.0
 40
4.0
 40
4.0
 40
4.0
 40
5.0
 40
5.0
 40
5.0
 40
6.0
 40
6.0
 40
6.0
 40
7.0
 40
7.0
 40
7.0
 40
8.0
 40
8.0
 40
8.0
 40
9.0
 40
9.0
 40
9.0
 40
10.0
 40
10.0
 40
10.0
 40
10.0
 10
324.1343754303
 20
26.2122894457
 30
0.0
 10
324.1343754303
 20
26.2122894457
 30
0.0
 10
324.1343754303
 20
25.5501741665
 30
0.0
 10
324.1343754303
 20
25.5501741665
 30
0.0
 10
324.1343754303
 20
25.2350805712
 30
0.0
 10
324.2822391191
 20
25.0204819432
 30
0.0
 10
324.6223256034
 20
25.0204819432
 30
0.0
 10
324.9618886764
 20
25.0204819432
 30
0.0
 10
325.1100140709
 20
25.2350805712
 30
0.0
 10
325.1100140709
 20
25.5501741665
 30
0.0
 10
325.1100140709
 20
25.5501741665
 30
0.0
 10
325.1100140709
 20
26.2122894457
 30
0.0
 10
325.1100140709
 20
26.2122894457
 30
0.0
 10
325.1100140709
 20
26.2122894457
 30
0.0
 10
324.887956832
 20
26.2122894457
 30
0.0
 10
324.887956832
 20
26.2122894457
 30
0.0
 10
324.887956832
 20
26.2122894457
 30
0.0
 10
324.887956832
 20
25.5752979083
 30
0.0
 10
324.887956832
 20
25.5752979083
 30
0.0
 10
324.887956832
 20
25.3894869011
 30
0.0
 10
324.8412423746
 20
25.2267059906
 30
0.0
 10
324.6223256034
 20
25.2267059906
 30
0.0
 10
324.402885421
 20
25.2267059906
 30
0.0
 10
324.3561709636
 20
25.3894869011
 30
0.0
 10
324.3561709636
 20
25.5752979083
 30
0.0
 10
324.3561709636
 20
25.5752979083
 30
0.0
 10
324.3561709636
 20
26.2122894457
 30
0.0
 10
324.3561709636
 20
26.2122894457
 30
0.0
 10
324.3561709636
 20
26.2122894457
 30
0.0
 10
324.1343754303
 20
26.2122894457
 30
0.0
 10
324.1343754303
 20
26.2122894457
 30
0.0
  0
SPLINE
  5
244
330
229
100
AcDbEntity
  8
0
  6
Continuous
 62
     7
100
AcDbSpline
 70
     3
 71
     3
 72
    35
 73
    31
 74
     0
 42
0.000000001
 43
0.0000001
 40
0.0
 40
0.0
 40
0.0
 40
0.0
 40
1.0
 40
1.0
 40
1.0
 40
2.0
 40
2.0
 40
2.0
 40
3.0
 40
3.0
 40
3.0
 40
4.0
 40
4.0
 40
4.0
 40
5.0
 40
5.0
 40
5.0
 40
6.0
 40
6.0
 40
6.0
 40
7.0
 40
7.0
 40
7.0
 40
8.0
 40
8.0
 40
8.0
 40
9.0
 40
9.0
 40
9.0
 40
10.0
 40
10.0
 40
10.0
 40
10.0
 10
327.5331466281
 20
26.1709399539
 30
0.0
 10
327.4446901205
 20
26.2222342601
 30
0.0
 10
327.3312407238
 20
26.2473580019
 30
0.0
 10
327.2276052888
 20
26.2473580019
 30
0.0
 10
326.8727324356
 20
26.2473580019
 30
0.0
 10
326.5972872454
 20
25.9835587129
 30
0.0
 10
326.5972872454
 20
25.6260688032
 30
0.0
 10
326.5972872454
 20
25.2811407645
 30
0.0
 10
326.8757420505
 20
25.0210053545
 30
0.0
 10
327.2153051235
 20
25.0210053545
 30
0.0
 10
327.3312407238
 20
25.0210053545
 30
0.0
 10
327.4319973967
 20
25.0429886286
 30
0.0
 10
327.5331466281
 20
25.0968999912
 30
0.0
 10
327.5331466281
 20
25.0968999912
 30
0.0
 10
327.5331466281
 20
25.3795420867
 30
0.0
 10
327.5331466281
 20
25.3795420867
 30
0.0
 10
327.4492699692
 20
25.2863748774
 30
0.0
 10
327.345765387
 20
25.2272294019
 30
0.0
 10
327.2176604743
 20
25.2272294019
 30
0.0
 10
326.9839573343
 20
25.2272294019
 30
0.0
 10
326.8186902202
 20
25.3994317156
 30
0.0
 10
326.8186902202
 20
25.6360136177
 30
0.0
 10
326.8186902202
 20
25.8479951893
 30
0.0
 10
326.9864435379
 20
26.040087132
 30
0.0
 10
327.2032666639
 20
26.040087132
 30
0.0
 10
327.3360822782
 20
26.040087132
 30
0.0
 10
327.4446901205
 20
25.9861757693
 30
0.0
 10
327.5331466281
 20
25.8851573907
 30
0.0
 10
327.5331466281
 20
25.8851573907
 30
0.0
 10
327.5331466281
 20
26.1709399539
 30
0.0
 10
327.5331466281
 20
26.1709399539
 30
0.0
  0
SPLINE
  5
245
330
229
100
AcDbEntity
  8
0
  6
Continuous
 62
     7
100
AcDbSpline
 70
     3
 71
     3
 72
    32
 73
    28
 74
     0
 42
0.000000001
 43
0.0000001
 40
0.0
 40
0.0
 40
0.0
 40
0.0
 40
1.0
 40
1.0
 40
1.0
 40
2.0
 40
2.0
 40
2.0
 40
3.0
 40
3.0
 40
3.0
 40
4.0
 40
4.0
 40
4.0
 40
5.0
 40
5.0
 40
5.0
 40
6.0
 40
6.0
 40
6.0
 40
7.0
 40
7.0
 40
7.0
 40
8.0
 40
8.0
 40
8.0
 40
9.0
 40
9.0
 40
9.0
 40
9.0
 10
330.0650178804
 20
25.5993748276
 30
0.0
 10
330.0650178804
 20
25.5993748276
 30
0.0
 10
330.0650178804
 20
25.6333965613
 30
0.0
 10
330.0650178804
 20
25.6333965613
 30
0.0
 10
330.0650178804
 20
25.9757075435
 30
0.0
 10
329.8921613025
 20
26.2473580019
 30
0.0
 10
329.5255116954
 20
26.2473580019
 30
0.0
 10
329.153889681
 20
26.2473580019
 30
0.0
 10
328.9641530891
 20
25.9809416564
 30
0.0
 10
328.9641530891
 20
25.6260688032
 30
0.0
 10
328.9641530891
 20
25.2863748774
 30
0.0
 10
329.1782283059
 20
25.0204819432
 30
0.0
 10
329.5303532498
 20
25.0204819432
 30
0.0
 10
329.754373281
 20
25.0204819432
 30
0.0
 10
329.9565408909
 20
25.1361558378
 30
0.0
 10
330.0650178804
 20
25.3355755385
 30
0.0
 10
330.0650178804
 20
25.3355755385
 30
0.0
 10
329.8773749337
 20
25.4423514412
 30
0.0
 10
329.8773749337
 20
25.4423514412
 30
0.0
 10
329.7938908332
 20
25.3036474499
 30
0.0
 10
329.7026864163
 20
25.2178079987
 30
0.0
 10
329.5331011591
 20
25.2178079987
 30
0.0
 10
329.3211195875
 20
25.2178079987
 30
0.0
 10
329.1881731204
 20
25.4025721833
 30
0.0
 10
329.1858177696
 20
25.5993748276
 30
0.0
 10
329.1858177696
 20
25.5993748276
 30
0.0
 10
330.0650178804
 20
25.5993748276
 30
0.0
 10
330.0650178804
 20
25.5993748276
 30
0.0
  0
SPLINE
  5
246
330
229
100
AcDbEntity
  8
0
  6
Continuous
 62
     7
100
AcDbSpline
 70
     3
 71
     3
 72
    14
 73
    10
 74
     0
 42
0.000000001
 43
0.0000001
 40
0.0
 40
0.0
 40
0.0
 40
0.0
 40
1.0
 40
1.0
 40
1.0
 40
2.0
 40
2.0
 40
2.0
 40
3.0
 40
3.0
 40
3.0
 40
3.0
 10
329.1978562292
 20
25.7668664397
 30
0.0
 10
329.2254661746
 20
25.9317409954
 30
0.0
 10
329.3533093817
 20
26.054742648
 30
0.0
 10
329.5255116954
 20
26.054742648
 30
0.0
 10
329.7026864163
 20
26.054742648
 30
0.0
 10
329.816135813
 20
25.9390687534
 30
0.0
 10
329.8433531999
 20
25.7668664397
 30
0.0
 10
329.8433531999
 20
25.7668664397
 30
0.0
 10
329.1978562292
 20
25.7668664397
 30
0.0
 10
329.1978562292
 20
25.7668664397
 30
0.0
  0
SPLINE
  5
247
330
229
100
AcDbEntity
  8
0
  6
Continuous
 62
     7
100
AcDbSpline
 70
     3
 71
     3
 72
    20
 73
    16
 74
     0
 42
0.000000001
 43
0.0000001
 40
0.0
 40
0.0
 40
0.0
 40
0.0
 40
1.0
 40
1.0
 40
1.0
 40
2.0
 40
2.0
 40
2.0
 40
3.0
 40
3.0
 40
3.0
 40
4.0
 40
4.0
 40
4.0
 40
5.0
 40
5.0
 40
5.0
 40
5.0
 10
332.0890493306
 20
25.9762309548
 30
0.0
 10
332.0890493306
 20
25.9762309548
 30
0.0
 10
332.5001888972
 20
25.4737561185
 30
0.0
 10
332.5001888972
 20
25.4737561185
 30
0.0
 10
332.3841224441
 20
25.3580822239
 30
0.0
 10
332.2463344226
 20
25.2277528132
 30
0.0
 10
332.0743938145
 20
25.2277528132
 30
0.0
 10
331.8969573879
 20
25.2277528132
 30
0.0
 10
331.7294657758
 20
25.3921039576
 30
0.0
 10
331.7294657758
 20
25.5690169729
 30
0.0
 10
331.7294657758
 20
25.7469768107
 30
0.0
 10
331.9392228494
 20
25.8731189311
 30
0.0
 10
332.0668043508
 20
25.9610520275
 30
0.0
 10
332.0668043508
 20
25.9610520275
 30
0.0
 10
332.0890493306
 20
25.9762309548
 30
0.0
 10
332.0890493306
 20
25.9762309548
 30
0.0
  0
SPLINE
  5
248
330
229
100
AcDbEntity
  8
0
  6
Continuous
 62
     7
100
AcDbSpline
 70
     3
 71
     3
 72
    23
 73
    19
 74
     0
 42
0.000000001
 43
0.0000001
 40
0.0
 40
0.0
 40
0.0
 40
0.0
 40
1.0
 40
1.0
 40
1.0
 40
2.0
 40
2.0
 40
2.0
 40
3.0
 40
3.0
 40
3.0
 40
4.0
 40
4.0
 40
4.0
 40
5.0
 40
5.0
 40
5.0
 40
6.0
 40
6.0
 40
6.0
 40
6.0
 10
332.1383808444
 20
26.2672476309
 30
0.0
 10
332.1383808444
 20
26.2672476309
 30
0.0
 10
332.0767491653
 20
26.3457593241
 30
0.0
 10
332.0767491653
 20
26.3457593241
 30
0.0
 10
332.0228378026
 20
26.4143262028
 30
0.0
 10
331.9660476779
 20
26.4834164928
 30
0.0
 10
331.9660476779
 20
26.5771071133
 30
0.0
 10
331.9660476779
 20
26.6959214757
 30
0.0
 10
332.0619627964
 20
26.7733863463
 30
0.0
 10
332.1729259894
 20
26.7733863463
 30
0.0
 10
332.2961893477
 20
26.7733863463
 30
0.0
 10
332.3894874098
 20
26.7022024111
 30
0.0
 10
332.3894874098
 20
26.5718730004
 30
0.0
 10
332.3894874098
 20
26.4368328882
 30
0.0
 10
332.2613824971
 20
26.3604148401
 30
0.0
 10
332.1678227294
 20
26.2866138485
 30
0.0
 10
332.1678227294
 20
26.2866138485
 30
0.0
 10
332.1383808444
 20
26.2672476309
 30
0.0
 10
332.1383808444
 20
26.2672476309
 30
0.0
  0
SPLINE
  5
249
330
229
100
AcDbEntity
  8
0
  6
Continuous
 62
     7
100
AcDbSpline
 70
     3
 71
     3
 72
    50
 73
    46
 74
     0
 42
0.000000001
 43
0.0000001
 40
0.0
 40
0.0
 40
0.0
 40
0.0
 40
1.0
 40
1.0
 40
1.0
 40
2.0
 40
2.0
 40
2.0
 40
3.0
 40
3.0
 40
3.0
 40
4.0
 40
4.0
 40
4.0
 40
5.0
 40
5.0
 40
5.0
 40
6.0
 40
6.0
 40
6.0
 40
7.0
 40
7.0
 40
7.0
 40
8.0
 40
8.0
 40
8.0
 40
9.0
 40
9.0
 40
9.0
 40
10.0
 40
10.0
 40
10.0
 40
11.0
 40
11.0
 40
11.0
 40
12.0
 40
12.0
 40
12.0
 40
13.0
 40
13.0
 40
13.0
 40
14.0
 40
14.0
 40
14.0
 40
15.0
 40
15.0
 40
15.0
 40
15.0
 10
332.8405370871
 20
25.0602612011
 30
0.0
 10
332.8405370871
 20
25.0602612011
 30
0.0
 10
333.1259270918
 20
25.0602612011
 30
0.0
 10
333.1259270918
 20
25.0602612011
 30
0.0
 10
333.1259270918
 20
25.0602612011
 30
0.0
 10
332.793560924
 20
25.471139062
 30
0.0
 10
332.793560924
 20
25.471139062
 30
0.0
 10
332.793560924
 20
25.471139062
 30
0.0
 10
333.0200671588
 20
25.7370319963
 30
0.0
 10
333.0200671588
 20
25.7370319963
 30
0.0
 10
333.0200671588
 20
25.7370319963
 30
0.0
 10
332.8718109116
 20
25.8898680923
 30
0.0
 10
332.8718109116
 20
25.8898680923
 30
0.0
 10
332.8718109116
 20
25.8898680923
 30
0.0
 10
332.6559037553
 20
25.6386306742
 30
0.0
 10
332.6559037553
 20
25.6386306742
 30
0.0
 10
332.6559037553
 20
25.6386306742
 30
0.0
 10
332.2688411079
 20
26.1065603655
 30
0.0
 10
332.2688411079
 20
26.1065603655
 30
0.0
 10
332.4242942604
 20
26.2206640263
 30
0.0
 10
332.6065722414
 20
26.3604148401
 30
0.0
 10
332.6065722414
 20
26.5697793553
 30
0.0
 10
332.6065722414
 20
26.8136890154
 30
0.0
 10
332.4045354843
 20
26.9571037083
 30
0.0
 10
332.1780292495
 20
26.9571037083
 30
0.0
 10
331.9338578837
 20
26.9571037083
 30
0.0
 10
331.7494862575
 20
26.8063612574
 30
0.0
 10
331.7494862575
 20
26.5498897263
 30
0.0
 10
331.7494862575
 20
26.3923429287
 30
0.0
 10
331.8481492853
 20
26.25468576
 30
0.0
 10
331.953485807
 20
26.1437225669
 30
0.0
 10
331.953485807
 20
26.1437225669
 30
0.0
 10
331.8379427652
 20
26.0599767609
 30
0.0
 10
331.8379427652
 20
26.0599767609
 30
0.0
 10
331.660244633
 20
25.9317409954
 30
0.0
 10
331.5129043554
 20
25.8040286411
 30
0.0
 10
331.5129043554
 20
25.5669233277
 30
0.0
 10
331.5129043554
 20
25.2465956195
 30
0.0
 10
331.7714695316
 20
25.0204819432
 30
0.0
 10
332.0818524253
 20
25.0204819432
 30
0.0
 10
332.3007691965
 20
25.0204819432
 30
0.0
 10
332.4979643992
 20
25.145577241
 30
0.0
 10
332.6382386243
 20
25.3114986192
 30
0.0
 10
332.6382386243
 20
25.3114986192
 30
0.0
 10
332.8405370871
 20
25.0602612011
 30
0.0
 10
332.8405370871
 20
25.0602612011
 30
0.0
  0
LWPOLYLINE
  5
24A
330
229
100
AcDbEntity
  8
0
  6
Continuous
 62
     7
100
AcDbPolyline
 90
        2
 70
     0
 43
0.2
 10
334.7759811768
 20
26.9168010391
 10
334.5446333876
 20
26.9168010391
  0
LWPOLYLINE
  5
24B
330
229
100
AcDbEntity
  8
0
  6
Continuous
 62
     7
100
AcDbPolyline
 90
        2
 70
     0
 43
0.2
 10
334.5446333876
 20
26.9168010391
 10
334.5446333876
 20
25.0597377898
  0
LWPOLYLINE
  5
24C
330
229
100
AcDbEntity
  8
0
  6
Continuous
 62
     7
100
AcDbPolyline
 90
        2
 70
     0
 43
0.2
 10
334.5446333876
 20
25.0597377898
 10
335.3399568395
 20
25.0597377898
  0
LWPOLYLINE
  5
24D
330
229
100
AcDbEntity
  8
0
  6
Continuous
 62
     7
100
AcDbPolyline
 90
        2
 70
     0
 43
0.2
 10
335.3399568395
 20
25.0597377898
 10
335.3399568395
 20
25.2717193614
  0
LWPOLYLINE
  5
24E
330
229
100
AcDbEntity
  8
0
  6
Continuous
 62
     7
100
AcDbPolyline
 90
        2
 70
     0
 43
0.2
 10
335.3399568395
 20
25.2717193614
 10
334.7759811768
 20
25.2717193614
  0
LWPOLYLINE
  5
24F
330
229
100
AcDbEntity
  8
0
  6
Continuous
 62
     7
100
AcDbPolyline
 90
        2
 70
     0
 43
0.2
 10
334.7759811768
 20
25.2717193614
 10
334.7759811768
 20
26.9168010391
  0
LWPOLYLINE
  5
250
330
229
100
AcDbEntity
  8
0
  6
Continuous
 62
     7
100
AcDbPolyline
 90
        2
 70
     0
 43
0.2
 10
337.019060251
 20
26.2122894457
 10
336.7979189819
 20
26.2122894457
  0
LWPOLYLINE
  5
251
330
229
100
AcDbEntity
  8
0
  6
Continuous
 62
     7
100
AcDbPolyline
 90
        2
 70
     0
 43
0.2
 10
336.7979189819
 20
26.2122894457
 10
336.7979189819
 20
25.0602612011
  0
LWPOLYLINE
  5
252
330
229
100
AcDbEntity
  8
0
  6
Continuous
 62
     7
100
AcDbPolyline
 90
        2
 70
     0
 43
0.2
 10
336.7979189819
 20
25.0602612011
 10
337.019060251
 20
25.0602612011
  0
LWPOLYLINE
  5
253
330
229
100
AcDbEntity
  8
0
  6
Continuous
 62
     7
100
AcDbPolyline
 90
        2
 70
     0
 43
0.2
 10
337.019060251
 20
25.0602612011
 10
337.019060251
 20
26.2122894457
  0
SPLINE
  5
254
330
229
100
AcDbEntity
  8
0
  6
Continuous
 62
     7
100
AcDbSpline
 70
     3
 71
     3
 72
    17
 73
    13
 74
     0
 42
0.000000001
 43
0.0000001
 40
0.0
 40
0.0
 40
0.0
 40
0.0
 40
1.0
 40
1.0
 40
1.0
 40
2.0
 40
2.0
 40
2.0
 40
3.0
 40
3.0
 40
3.0
 40
4.0
 40
4.0
 40
4.0
 40
4.0
 10
336.9086204693
 20
26.894817765
 30
0.0
 10
336.8246129576
 20
26.894817765
 30
0.0
 10
336.7560460788
 20
26.825727475
 30
0.0
 10
336.7560460788
 20
26.7398880238
 30
0.0
 10
336.7560460788
 20
26.6556188065
 30
0.0
 10
336.8246129576
 20
26.5896689842
 30
0.0
 10
336.9086204693
 20
26.5896689842
 30
0.0
 10
336.9923662753
 20
26.5896689842
 30
0.0
 10
337.0611948597
 20
26.6556188065
 30
0.0
 10
337.0611948597
 20
26.7398880238
 30
0.0
 10
337.0611948597
 20
26.825727475
 30
0.0
 10
336.9923662753
 20
26.894817765
 30
0.0
 10
336.9086204693
 20
26.894817765
 30
0.0
  0
SPLINE
  5
255
330
229
100
AcDbEntity
  8
0
  6
Continuous
 62
     7
100
AcDbSpline
 70
     3
 71
     3
 72
    17
 73
    13
 74
     0
 42
0.000000001
 43
0.0000001
 40
0.0
 40
0.0
 40
0.0
 40
0.0
 40
1.0
 40
1.0
 40
1.0
 40
2.0
 40
2.0
 40
2.0
 40
3.0
 40
3.0
 40
3.0
 40
4.0
 40
4.0
 40
4.0
 40
4.0
 10
339.1493441926
 20
25.2178079987
 30
0.0
 10
338.915379347
 20
25.2178079987
 30
0.0
 10
338.7850499363
 20
25.4198447558
 30
0.0
 10
338.7850499363
 20
25.6360136177
 30
0.0
 10
338.7850499363
 20
25.8506122457
 30
0.0
 10
338.9208751655
 20
26.0495085351
 30
0.0
 10
339.1493441926
 20
26.0495085351
 30
0.0
 10
339.3888048568
 20
26.0495085351
 30
0.0
 10
339.5243683804
 20
25.8605570602
 30
0.0
 10
339.5243683804
 20
25.6360136177
 30
0.0
 10
339.5243683804
 20
25.4098999414
 30
0.0
 10
339.3911602076
 20
25.2178079987
 30
0.0
 10
339.1493441926
 20
25.2178079987
 30
0.0
  0
SPLINE
  5
256
330
229
100
AcDbEntity
  8
0
  6
Continuous
 62
     7
100
AcDbSpline
 70
     3
 71
     3
 72
    50
 73
    46
 74
     0
 42
0.000000001
 43
0.0000001
 40
0.0
 40
0.0
 40
0.0
 40
0.0
 40
1.0
 40
1.0
 40
1.0
 40
2.0
 40
2.0
 40
2.0
 40
3.0
 40
3.0
 40
3.0
 40
4.0
 40
4.0
 40
4.0
 40
5.0
 40
5.0
 40
5.0
 40
6.0
 40
6.0
 40
6.0
 40
7.0
 40
7.0
 40
7.0
 40
8.0
 40
8.0
 40
8.0
 40
9.0
 40
9.0
 40
9.0
 40
10.0
 40
10.0
 40
10.0
 40
11.0
 40
11.0
 40
11.0
 40
12.0
 40
12.0
 40
12.0
 40
13.0
 40
13.0
 40
13.0
 40
14.0
 40
14.0
 40
14.0
 40
15.0
 40
15.0
 40
15.0
 40
15.0
 10
339.7334711899
 20
26.2128128569
 30
0.0
 10
339.7334711899
 20
26.2128128569
 30
0.0
 10
339.5118065095
 20
26.2128128569
 30
0.0
 10
339.5118065095
 20
26.2128128569
 30
0.0
 10
339.5118065095
 20
26.2128128569
 30
0.0
 10
339.5118065095
 20
26.0154868014
 30
0.0
 10
339.5118065095
 20
26.0154868014
 30
0.0
 10
339.5118065095
 20
26.0154868014
 30
0.0
 10
339.5070958079
 20
26.0154868014
 30
0.0
 10
339.5070958079
 20
26.0154868014
 30
0.0
 10
339.4157605382
 20
26.158378083
 30
0.0
 10
339.2778416638
 20
26.2468345907
 30
0.0
 10
339.1051159388
 20
26.2468345907
 30
0.0
 10
338.772749771
 20
26.2468345907
 30
0.0
 10
338.5636469615
 20
25.9589583823
 30
0.0
 10
338.5636469615
 20
25.6433413757
 30
0.0
 10
338.5636469615
 20
25.3135922644
 30
0.0
 10
338.7607113114
 20
25.0204819432
 30
0.0
 10
339.1155841646
 20
25.0204819432
 30
0.0
 10
339.2778416638
 20
25.0204819432
 30
0.0
 10
339.4178541833
 20
25.1089384508
 30
0.0
 10
339.5070958079
 20
25.2397912728
 30
0.0
 10
339.5070958079
 20
25.2397912728
 30
0.0
 10
339.5118065095
 20
25.2397912728
 30
0.0
 10
339.5118065095
 20
25.2397912728
 30
0.0
 10
339.5118065095
 20
25.2397912728
 30
0.0
 10
339.5118065095
 20
25.0204819432
 30
0.0
 10
339.5118065095
 20
25.0204819432
 30
0.0
 10
339.5118065095
 20
24.7839000411
 30
0.0
 10
339.4552780904
 20
24.5970422113
 30
0.0
 10
339.1820573981
 20
24.5970422113
 30
0.0
 10
338.9797589354
 20
24.5970422113
 30
0.0
 10
338.8371293594
 20
24.7153331624
 30
0.0
 10
338.8371293594
 20
24.9215572098
 30
0.0
 10
338.8371293594
 20
24.9215572098
 30
0.0
 10
338.615464679
 20
24.9215572098
 30
0.0
 10
338.615464679
 20
24.9215572098
 30
0.0
 10
338.6204370862
 20
24.5970422113
 30
0.0
 10
338.8515231698
 20
24.4002395671
 30
0.0
 10
339.171850878
 20
24.4002395671
 30
0.0
 10
339.6198909404
 20
24.4002395671
 30
0.0
 10
339.7334711899
 20
24.6854987189
 30
0.0
 10
339.7334711899
 20
25.0822444751
 30
0.0
 10
339.7334711899
 20
25.0822444751
 30
0.0
 10
339.7334711899
 20
26.2128128569
 30
0.0
 10
339.7334711899
 20
26.2128128569
 30
0.0
  0
SPLINE
  5
257
330
229
100
AcDbEntity
  8
0
  6
Continuous
 62
     7
100
AcDbSpline
 70
     3
 71
     3
 72
    44
 73
    40
 74
     0
 42
0.000000001
 43
0.0000001
 40
0.0
 40
0.0
 40
0.0
 40
0.0
 40
1.0
 40
1.0
 40
1.0
 40
2.0
 40
2.0
 40
2.0
 40
3.0
 40
3.0
 40
3.0
 40
4.0
 40
4.0
 40
4.0
 40
5.0
 40
5.0
 40
5.0
 40
6.0
 40
6.0
 40
6.0
 40
7.0
 40
7.0
 40
7.0
 40
8.0
 40
8.0
 40
8.0
 40
9.0
 40
9.0
 40
9.0
 40
10.0
 40
10.0
 40
10.0
 40
11.0
 40
11.0
 40
11.0
 40
12.0
 40
12.0
 40
12.0
 40
13.0
 40
13.0
 40
13.0
 40
13.0
 10
341.3023965253
 20
27.1978729007
 30
0.0
 10
341.3023965253
 20
27.1978729007
 30
0.0
 10
341.3023965253
 20
25.0597377898
 30
0.0
 10
341.3023965253
 20
25.0597377898
 30
0.0
 10
341.3023965253
 20
25.0597377898
 30
0.0
 10
341.5237995001
 20
25.0597377898
 30
0.0
 10
341.5237995001
 20
25.0597377898
 30
0.0
 10
341.5237995001
 20
25.0597377898
 30
0.0
 10
341.5237995001
 20
25.5894300131
 30
0.0
 10
341.5237995001
 20
25.5894300131
 30
0.0
 10
341.5237995001
 20
25.7993179395
 30
0.0
 10
341.5237995001
 20
26.0500319464
 30
0.0
 10
341.8090586519
 20
26.0500319464
 30
0.0
 10
342.0359574452
 20
26.0500319464
 30
0.0
 10
342.0629131266
 20
25.9170854793
 30
0.0
 10
342.0629131266
 20
25.7208062464
 30
0.0
 10
342.0629131266
 20
25.7208062464
 30
0.0
 10
342.0629131266
 20
25.0597377898
 30
0.0
 10
342.0629131266
 20
25.0597377898
 30
0.0
 10
342.0629131266
 20
25.0597377898
 30
0.0
 10
342.2848395126
 20
25.0597377898
 30
0.0
 10
342.2848395126
 20
25.0597377898
 30
0.0
 10
342.2848395126
 20
25.0597377898
 30
0.0
 10
342.2848395126
 20
25.7469768107
 30
0.0
 10
342.2848395126
 20
25.7469768107
 30
0.0
 10
342.2848395126
 20
26.027525261
 30
0.0
 10
342.2008320009
 20
26.2473580019
 30
0.0
 10
341.8757935911
 20
26.2473580019
 30
0.0
 10
341.7360427773
 20
26.2473580019
 30
0.0
 10
341.5978621973
 20
26.1808847684
 30
0.0
 10
341.5285102016
 20
26.0578831157
 30
0.0
 10
341.5285102016
 20
26.0578831157
 30
0.0
 10
341.5237995001
 20
26.0578831157
 30
0.0
 10
341.5237995001
 20
26.0578831157
 30
0.0
 10
341.5237995001
 20
26.0578831157
 30
0.0
 10
341.5237995001
 20
27.1978729007
 30
0.0
 10
341.5237995001
 20
27.1978729007
 30
0.0
 10
341.5237995001
 20
27.1978729007
 30
0.0
 10
341.3023965253
 20
27.1978729007
 30
0.0
 10
341.3023965253
 20
27.1978729007
 30
0.0
  0
LWPOLYLINE
  5
258
330
229
100
AcDbEntity
  8
0
  6
Continuous
 62
     7
100
AcDbPolyline
 90
        2
 70
     0
 43
0.2
 10
344.1246301895
 20
26.005541987
 10
344.341060757
 20
26.005541987
  0
LWPOLYLINE
  5
259
330
229
100
AcDbEntity
  8
0
  6
Continuous
 62
     7
100
AcDbPolyline
 90
        2
 70
     0
 43
0.2
 10
344.341060757
 20
26.005541987
 10
344.341060757
 20
26.2122894457
  0
LWPOLYLINE
  5
25A
330
229
100
AcDbEntity
  8
0
  6
Continuous
 62
     7
100
AcDbPolyline
 90
        2
 70
     0
 43
0.2
 10
344.341060757
 20
26.2122894457
 10
344.1246301895
 20
26.2122894457
  0
LWPOLYLINE
  5
25B
330
229
100
AcDbEntity
  8
0
  6
Continuous
 62
     7
100
AcDbPolyline
 90
        2
 70
     0
 43
0.2
 10
344.1246301895
 20
26.2122894457
 10
344.1246301895
 20
26.65300175
  0
LWPOLYLINE
  5
25C
330
229
100
AcDbEntity
  8
0
  6
Continuous
 62
     7
100
AcDbPolyline
 90
        2
 70
     0
 43
0.2
 10
344.1246301895
 20
26.65300175
 10
343.9029655091
 20
26.65300175
  0
LWPOLYLINE
  5
25D
330
229
100
AcDbEntity
  8
0
  6
Continuous
 62
     7
100
AcDbPolyline
 90
        2
 70
     0
 43
0.2
 10
343.9029655091
 20
26.65300175
 10
343.9029655091
 20
26.2122894457
  0
LWPOLYLINE
  5
25E
330
229
100
AcDbEntity
  8
0
  6
Continuous
 62
     7
100
AcDbPolyline
 90
        2
 70
     0
 43
0.2
 10
343.9029655091
 20
26.2122894457
 10
343.7823192072
 20
26.2122894457
  0
LWPOLYLINE
  5
25F
330
229
100
AcDbEntity
  8
0
  6
Continuous
 62
     7
100
AcDbPolyline
 90
        2
 70
     0
 43
0.2
 10
343.7823192072
 20
26.2122894457
 10
343.7823192072
 20
26.005541987
  0
LWPOLYLINE
  5
260
330
229
100
AcDbEntity
  8
0
  6
Continuous
 62
     7
100
AcDbPolyline
 90
        2
 70
     0
 43
0.2
 10
343.7823192072
 20
26.005541987
 10
343.9029655091
 20
26.005541987
  0
LWPOLYLINE
  5
261
330
229
100
AcDbEntity
  8
0
  6
Continuous
 62
     7
100
AcDbPolyline
 90
        2
 70
     0
 43
0.2
 10
343.9029655091
 20
26.005541987
 10
343.9029655091
 20
25.0597377898
  0
LWPOLYLINE
  5
262
330
229
100
AcDbEntity
  8
0
  6
Continuous
 62
     7
100
AcDbPolyline
 90
        2
 70
     0
 43
0.2
 10
343.9029655091
 20
25.0597377898
 10
344.1246301895
 20
25.0597377898
  0
LWPOLYLINE
  5
263
330
229
100
AcDbEntity
  8
0
  6
Continuous
 62
     7
100
AcDbPolyline
 90
        2
 70
     0
 43
0.2
 10
344.1246301895
 20
25.0597377898
 10
344.1246301895
 20
26.005541987
  0
SPLINE
  5
264
330
229
100
AcDbEntity
  8
0
  6
Continuous
 62
     7
100
AcDbSpline
 70
     3
 71
     3
 72
    20
 73
    16
 74
     0
 42
0.000000001
 43
0.0000001
 40
0.0
 40
0.0
 40
0.0
 40
0.0
 40
1.0
 40
1.0
 40
1.0
 40
2.0
 40
2.0
 40
2.0
 40
3.0
 40
3.0
 40
3.0
 40
4.0
 40
4.0
 40
4.0
 40
5.0
 40
5.0
 40
5.0
 40
5.0
 10
331.9066404967
 20
35.4206642332
 30
0.0
 10
331.9066404967
 20
35.4206642332
 30
0.0
 10
334.2229971512
 20
32.5911028109
 30
0.0
 10
334.2229971512
 20
32.5911028109
 30
0.0
 10
333.5713500978
 20
31.9389323462
 30
0.0
 10
332.7944768938
 20
31.2030160755
 30
0.0
 10
331.8232872491
 20
31.2030160755
 30
0.0
 10
330.8247493647
 20
31.2030160755
 30
0.0
 10
329.8814313711
 20
32.1325945228
 30
0.0
 10
329.8814313711
 20
33.1317866713
 30
0.0
 10
329.8814313711
 20
34.1309788198
 30
0.0
 10
331.0602844442
 20
34.8375840585
 30
0.0
 10
331.7818069046
 20
35.3374418384
 30
0.0
 10
331.7818069046
 20
35.3374418384
 30
0.0
 10
331.9066404967
 20
35.4206642332
 30
0.0
 10
331.9066404967
 20
35.4206642332
 30
0.0
  0
SPLINE
  5
265
330
229
100
AcDbEntity
  8
0
  6
Continuous
 62
     7
100
AcDbSpline
 70
     3
 71
     3
 72
    23
 73
    19
 74
     0
 42
0.000000001
 43
0.0000001
 40
0.0
 40
0.0
 40
0.0
 40
0.0
 40
1.0
 40
1.0
 40
1.0
 40
2.0
 40
2.0
 40
2.0
 40
3.0
 40
3.0
 40
3.0
 40
4.0
 40
4.0
 40
4.0
 40
5.0
 40
5.0
 40
5.0
 40
6.0
 40
6.0
 40
6.0
 40
6.0
 10
332.1840484793
 20
37.0584181529
 30
0.0
 10
332.1840484793
 20
37.0584181529
 30
0.0
 10
331.8375502067
 20
37.5017475137
 30
0.0
 10
331.8375502067
 20
37.5017475137
 30
0.0
 10
331.5317471618
 20
37.8898569837
 30
0.0
 10
331.2128588347
 20
38.2783590121
 30
0.0
 10
331.2128588347
 20
38.8053033262
 30
0.0
 10
331.2128588347
 20
39.4714750428
 30
0.0
 10
331.7541969591
 20
39.9151969621
 30
0.0
 10
332.3781032143
 20
39.9151969621
 30
0.0
 10
333.0718848763
 20
39.9151969621
 30
0.0
 10
333.5990908961
 20
39.5129553874
 30
0.0
 10
333.5990908961
 20
38.7779550864
 30
0.0
 10
333.5990908961
 20
38.0146905758
 30
0.0
 10
332.8778301414
 20
37.58457735
 30
0.0
 10
332.3507549745
 20
37.1688579346
 30
0.0
 10
332.3507549745
 20
37.1688579346
 30
0.0
 10
332.1840484793
 20
37.0584181529
 30
0.0
 10
332.1840484793
 20
37.0584181529
 30
0.0
  0
SPLINE
  5
266
330
229
100
AcDbEntity
  8
0
  6
Continuous
 62
     7
100
AcDbSpline
 70
     3
 71
     3
 72
    50
 73
    46
 74
     0
 42
0.000000001
 43
0.0000001
 40
0.0
 40
0.0
 40
0.0
 40
0.0
 40
1.0
 40
1.0
 40
1.0
 40
2.0
 40
2.0
 40
2.0
 40
3.0
 40
3.0
 40
3.0
 40
4.0
 40
4.0
 40
4.0
 40
5.0
 40
5.0
 40
5.0
 40
6.0
 40
6.0
 40
6.0
 40
7.0
 40
7.0
 40
7.0
 40
8.0
 40
8.0
 40
8.0
 40
9.0
 40
9.0
 40
9.0
 40
10.0
 40
10.0
 40
10.0
 40
11.0
 40
11.0
 40
11.0
 40
12.0
 40
12.0
 40
12.0
 40
13.0
 40
13.0
 40
13.0
 40
14.0
 40
14.0
 40
14.0
 40
15.0
 40
15.0
 40
15.0
 40
15.0
 10
336.1376356422
 20
30.2598289348
 30
0.0
 10
336.1376356422
 20
30.2598289348
 30
0.0
 10
337.7468636468
 20
30.2598289348
 30
0.0
 10
337.7468636468
 20
30.2598289348
 30
0.0
 10
337.7468636468
 20
30.2598289348
 30
0.0
 10
335.8738363531
 20
32.5769707062
 30
0.0
 10
335.8738363531
 20
32.5769707062
 30
0.0
 10
335.8738363531
 20
32.5769707062
 30
0.0
 10
337.1501747786
 20
34.0744504008
 30
0.0
 10
337.1501747786
 20
34.0744504008
 30
0.0
 10
337.1501747786
 20
34.0744504008
 30
0.0
 10
336.3179508309
 20
34.9354619693
 30
0.0
 10
336.3179508309
 20
34.9354619693
 30
0.0
 10
336.3179508309
 20
34.9354619693
 30
0.0
 10
335.0973557076
 20
33.5201578469
 30
0.0
 10
335.0973557076
 20
33.5201578469
 30
0.0
 10
335.0973557076
 20
33.5201578469
 30
0.0
 10
332.9194413388
 20
36.1555336813
 30
0.0
 10
332.9194413388
 20
36.1555336813
 30
0.0
 10
333.7930147782
 20
36.7935720412
 30
0.0
 10
334.8196860194
 20
37.58457735
 30
0.0
 10
334.8196860194
 20
38.7634304231
 30
0.0
 10
334.8196860194
 20
40.1371233482
 30
0.0
 10
333.6817898795
 20
40.9416064976
 30
0.0
 10
332.4064982766
 20
40.9416064976
 30
0.0
 10
331.0330670573
 20
40.9416064976
 30
0.0
 10
329.9921328585
 20
40.0953812979
 30
0.0
 10
329.9921328585
 20
38.6527289358
 30
0.0
 10
329.9921328585
 20
37.7651542444
 30
0.0
 10
330.547472235
 20
36.9882810403
 30
0.0
 10
331.1436376918
 20
36.3638513739
 30
0.0
 10
331.1436376918
 20
36.3638513739
 30
0.0
 10
330.4917289328
 20
35.8922578035
 30
0.0
 10
330.4917289328
 20
35.8922578035
 30
0.0
 10
329.4931910484
 20
35.1709970488
 30
0.0
 10
328.6603128365
 20
34.4497362942
 30
0.0
 10
328.6603128365
 20
33.1181779778
 30
0.0
 10
328.6603128365
 20
31.3145026798
 30
0.0
 10
330.1173590091
 20
30.0379025487
 30
0.0
 10
331.8648984465
 20
30.0379025487
 30
0.0
 10
333.0997565274
 20
30.0379025487
 30
0.0
 10
334.2091267521
 20
30.7460780212
 30
0.0
 10
335.000001208
 20
31.6746096459
 30
0.0
 10
335.000001208
 20
31.6746096459
 30
0.0
 10
336.1376356422
 20
30.2598289348
 30
0.0
 10
336.1376356422
 20
30.2598289348
 30
0.0
  0
LINE
  5
267
330
229
100
AcDbEntity
  8
0
  6
Continuous
 62
     7
100
AcDbLine
 10
321.9404970172
 20
28.2337038394
 30
0.0
 11
344.3544077449
 21
28.2337038394
 31
0.0
  0
LINE
  5
268
330
229
100
AcDbEntity
  8
0
  6
Continuous
 62
     7
100
AcDbLine
 10
344.3544077449
 20
28.2337038394
 30
0.0
 11
344.3544077449
 21
50.6476145671
 31
0.0
  0
LINE
  5
269
330
229
100
AcDbEntity
  8
0
  6
Continuous
 62
     7
100
AcDbLine
 10
344.3544077449
 20
50.6476145671
 30
0.0
 11
321.9404970172
 21
50.6476145671
 31
0.0
  0
LINE
  5
26A
330
229
100
AcDbEntity
  8
0
  6
Continuous
 62
     7
100
AcDbLine
 10
321.9404970172
 20
50.6476145671
 30
0.0
 11
321.9404970172
 21
28.2337038394
 31
0.0
  0
ENDBLK
  5
26B
330
229
100
AcDbEntity
  8
0
  6
ByBlock
 62
     0
100
AcDbBlockEnd
  0
BLOCK
  5
294
330
22A
100
AcDbEntity
  8
0
100
AcDbBlockBegin
  2
*T6
 70
     1
 10
0.0
 20
0.0
 30
0.0
  3
*T6
  1
*T6
  0
MTEXT
  5
295
330
22A
100
AcDbEntity
  8
0
  6
Continuous
 62
     0
100
AcDbMText
 10
30.28622003006668
 20
-3.0
 30
0.0
 40
3.0
 41
40.18162670675557
 71
     4
 72
     5
  1
3S5_C_051
 73
     1
 44
1.0
  0
MTEXT
  5
296
330
22A
100
AcDbEntity
  8
0
  6
Continuous
 62
     0
100
AcDbMText
 10
70.58784673682226
 20
-0.06
 30
0.0
 40
3.5
 41
20.03081335337778
 71
     1
 72
     5
  1
Rev:00
 73
     1
 44
1.0
  0
MTEXT
  5
297
330
22A
100
AcDbEntity
  8
0
  6
Continuous
 62
     0
100
AcDbMText
 10
30.28622003006668
 20
-6.06
 30
0.0
 40
3.5
 41
40.18162670675557
 71
     1
 72
     5
  1
Scale:1:1
 73
     1
 44
1.0
  0
MTEXT
  5
298
330
22A
100
AcDbEntity
  8
0
  6
Continuous
 62
     0
100
AcDbMText
 10
70.58784673682226
 20
-9.0
 30
0.0
 40
3.5
 41
20.03081335337778
 71
     4
 72
     5
  1
A3
 73
     1
 44
1.0
  0
MTEXT
  5
299
330
22A
100
AcDbEntity
  8
0
  6
Continuous
 62
     0
100
AcDbMText
 10
30.28622003006668
 20
-17.0
 30
0.0
 40
3.5
 41
60.33244006013336
 71
     4
 72
     5
  1
STEP 5.1
 73
     1
 44
1.0
  0
MTEXT
  5
29A
330
22A
100
AcDbEntity
  8
0
  6
Continuous
 62
     0
100
AcDbMText
 10
30.28622003006668
 20
-24.5
 30
0.0
 40
2.5
 41
60.33244006013336
 71
     4
 72
     5
  1
DATE:27/03/2014
 73
     1
 44
1.0
  0
MTEXT
  5
29B
330
22A
100
AcDbEntity
  8
0
  6
Continuous
 62
     0
100
AcDbMText
 10
0.06
 20
-27.06
 30
0.0
 40
1.85
 41
90.55866009020004
 71
     1
 72
     5
  1
Any integral or partial reproductions are prohibited \Pwithout prior authorisation of L & L Luce & Light s.r.l., \Pin accordance with the law in force. \PAll rights reserved.
 73
     1
 44
1.0
  0
LINE
  5
29C
330
22A
100
AcDbEntity
  8
0
  6
Continuous
 62
     0
370
    -2
100
AcDbLine
 10
0.0
 20
0.0
 30
0.0
 11
10.07540667668889
 21
0.0
 31
0.0
  0
LINE
  5
29D
330
22A
100
AcDbEntity
  8
0
  6
Continuous
 62
     0
370
    -2
100
AcDbLine
 10
10.07540667668889
 20
0.0
 30
0.0
 11
20.15081335337779
 21
0.0
 31
0.0
  0
LINE
  5
29E
330
22A
100
AcDbEntity
  8
0
  6
Continuous
 62
     0
370
    -2
100
AcDbLine
 10
20.15081335337779
 20
0.0
 30
0.0
 11
30.22622003006668
 21
0.0
 31
0.0
  0
LINE
  5
29F
330
22A
100
AcDbEntity
  8
0
  6
Continuous
 62
     0
370
    -2
100
AcDbLine
 10
0.0
 20
0.0
 30
0.0
 11
0.0
 21
-6.0
 31
0.0
  0
LINE
  5
2A0
330
22A
100
AcDbEntity
  8
0
  6
Continuous
 62
     0
370
    -2
100
AcDbLine
 10
0.0
 20
-6.0
 30
0.0
 11
0.0
 21
-12.0
 31
0.0
  0
LINE
  5
2A1
330
22A
100
AcDbEntity
  8
0
  6
Continuous
 62
     0
370
    -2
100
AcDbLine
 10
0.0
 20
-12.0
 30
0.0
 11
0.0
 21
-22.0
 31
0.0
  0
LINE
  5
2A2
330
22A
100
AcDbEntity
  8
0
  6
Continuous
 62
     0
370
    -2
100
AcDbLine
 10
0.0
 20
-22.0
 30
0.0
 11
0.0
 21
-27.0
 31
0.0
  0
LINE
  5
2A3
330
22A
100
AcDbEntity
  8
0
  6
Continuous
 62
     0
370
    -2
100
AcDbLine
 10
30.22622003006668
 20
0.0
 30
0.0
 11
70.52784673682226
 21
0.0
 31
0.0
  0
LINE
  5
2A4
330
22A
100
AcDbEntity
  8
0
  6
Continuous
 62
     0
370
    -2
100
AcDbLine
 10
30.22622003006668
 20
0.0
 30
0.0
 11
30.22622003006668
 21
-6.0
 31
0.0
  0
LINE
  5
2A5
330
22A
100
AcDbEntity
  8
0
  6
Continuous
 62
     0
370
    -2
100
AcDbLine
 10
70.52784673682226
 20
0.0
 30
0.0
 11
90.67866009020004
 21
0.0
 31
0.0
  0
LINE
  5
4AA
330
22A
100
AcDbEntity
  8
0
  6
Continuous
 62
     0
370
    -2
100
AcDbLine
 10
70.52784673682226
 20
0.0
 30
0.0
 11
70.52784673682226
 21
-6.0
 31
0.0
  0
LINE
  5
4AB
330
22A
100
AcDbEntity
  8
0
  6
Continuous
 62
     0
370
    -2
100
AcDbLine
 10
90.67866009020004
 20
0.0
 30
0.0
 11
90.67866009020004
 21
-6.0
 31
0.0
  0
LINE
  5
4AC
330
22A
100
AcDbEntity
  8
0
  6
Continuous
 62
     0
370
    -2
100
AcDbLine
 10
30.22622003006668
 20
-6.0
 30
0.0
 11
70.52784673682226
 21
-6.0
 31
0.0
  0
LINE
  5
4AD
330
22A
100
AcDbEntity
  8
0
  6
Continuous
 62
     0
370
    -2
100
AcDbLine
 10
30.22622003006668
 20
-6.0
 30
0.0
 11
30.22622003006668
 21
-12.0
 31
0.0
  0
LINE
  5
4AE
330
22A
100
AcDbEntity
  8
0
  6
Continuous
 62
     0
370
    -2
100
AcDbLine
 10
70.52784673682226
 20
-6.0
 30
0.0
 11
90.67866009020004
 21
-6.0
 31
0.0
  0
LINE
  5
4AF
330
22A
100
AcDbEntity
  8
0
  6
Continuous
 62
     0
370
    -2
100
AcDbLine
 10
70.52784673682226
 20
-6.0
 30
0.0
 11
70.52784673682226
 21
-12.0
 31
0.0
  0
LINE
  5
4B0
330
22A
100
AcDbEntity
  8
0
  6
Continuous
 62
     0
370
    -2
100
AcDbLine
 10
90.67866009020004
 20
-6.0
 30
0.0
 11
90.67866009020004
 21
-12.0
 31
0.0
  0
LINE
  5
4B1
330
22A
100
AcDbEntity
  8
0
  6
Continuous
 62
     0
370
    -2
100
AcDbLine
 10
30.22622003006668
 20
-12.0
 30
0.0
 11
70.52784673682226
 21
-12.0
 31
0.0
  0
LINE
  5
4B2
330
22A
100
AcDbEntity
  8
0
  6
Continuous
 62
     0
370
    -2
100
AcDbLine
 10
70.52784673682226
 20
-12.0
 30
0.0
 11
90.67866009020003
 21
-12.0
 31
0.0
  0
LINE
  5
4B3
330
22A
100
AcDbEntity
  8
0
  6
Continuous
 62
     0
370
    -2
100
AcDbLine
 10
30.22622003006668
 20
-12.0
 30
0.0
 11
30.22622003006668
 21
-22.0
 31
0.0
  0
LINE
  5
4B4
330
22A
100
AcDbEntity
  8
0
  6
Continuous
 62
     0
370
    -2
100
AcDbLine
 10
90.67866009020004
 20
-12.0
 30
0.0
 11
90.67866009020004
 21
-22.0
 31
0.0
  0
LINE
  5
4B5
330
22A
100
AcDbEntity
  8
0
  6
Continuous
 62
     0
370
    -2
100
AcDbLine
 10
30.22622003006668
 20
-22.0
 30
0.0
 11
70.52784673682226
 21
-22.0
 31
0.0
  0
LINE
  5
4B6
330
22A
100
AcDbEntity
  8
0
  6
Continuous
 62
     0
370
    -2
100
AcDbLine
 10
70.52784673682226
 20
-22.0
 30
0.0
 11
90.67866009020003
 21
-22.0
 31
0.0
  0
LINE
  5
4B7
330
22A
100
AcDbEntity
  8
0
  6
Continuous
 62
     0
370
    -2
100
AcDbLine
 10
30.22622003006668
 20
-22.0
 30
0.0
 11
30.22622003006668
 21
-27.0
 31
0.0
  0
LINE
  5
4B8
330
22A
100
AcDbEntity
  8
0
  6
Continuous
 62
     0
370
    -2
100
AcDbLine
 10
90.67866009020004
 20
-22.0
 30
0.0
 11
90.67866009020004
 21
-27.0
 31
0.0
  0
LINE
  5
4B9
330
22A
100
AcDbEntity
  8
0
  6
Continuous
 62
     0
370
    -2
100
AcDbLine
 10
0.0
 20
-27.0
 30
0.0
 11
10.07540667668889
 21
-27.0
 31
0.0
  0
LINE
  5
4BA
330
22A
100
AcDbEntity
  8
0
  6
Continuous
 62
     0
370
    -2
100
AcDbLine
 10
10.07540667668889
 20
-27.0
 30
0.0
 11
20.15081335337779
 21
-27.0
 31
0.0
  0
LINE
  5
4BB
330
22A
100
AcDbEntity
  8
0
  6
Continuous
 62
     0
370
    -2
100
AcDbLine
 10
20.15081335337779
 20
-27.0
 30
0.0
 11
30.22622003006668
 21
-27.0
 31
0.0
  0
LINE
  5
4BC
330
22A
100
AcDbEntity
  8
0
  6
Continuous
 62
     0
370
    -2
100
AcDbLine
 10
30.22622003006668
 20
-27.0
 30
0.0
 11
70.52784673682226
 21
-27.0
 31
0.0
  0
LINE
  5
4BD
330
22A
100
AcDbEntity
  8
0
  6
Continuous
 62
     0
370
    -2
100
AcDbLine
 10
70.52784673682226
 20
-27.0
 30
0.0
 11
90.67866009020004
 21
-27.0
 31
0.0
  0
LINE
  5
4BE
330
22A
100
AcDbEntity
  8
0
  6
Continuous
 62
     0
370
    -2
100
AcDbLine
 10
0.0
 20
-27.0
 30
0.0
 11
0.0
 21
-40.0
 31
0.0
  0
LINE
  5
4BF
330
22A
100
AcDbEntity
  8
0
  6
Continuous
 62
     0
370
    -2
100
AcDbLine
 10
90.67866009020004
 20
-27.0
 30
0.0
 11
90.67866009020004
 21
-40.0
 31
0.0
  0
LINE
  5
4C0
330
22A
100
AcDbEntity
  8
0
  6
Continuous
 62
     0
370
    -2
100
AcDbLine
 10
0.0
 20
-40.0
 30
0.0
 11
10.07540667668889
 21
-40.0
 31
0.0
  0
LINE
  5
4C1
330
22A
100
AcDbEntity
  8
0
  6
Continuous
 62
     0
370
    -2
100
AcDbLine
 10
10.07540667668889
 20
-40.0
 30
0.0
 11
20.15081335337779
 21
-40.0
 31
0.0
  0
LINE
  5
4C2
330
22A
100
AcDbEntity
  8
0
  6
Continuous
 62
     0
370
    -2
100
AcDbLine
 10
20.15081335337779
 20
-40.0
 30
0.0
 11
30.22622003006668
 21
-40.0
 31
0.0
  0
LINE
  5
4C3
330
22A
100
AcDbEntity
  8
0
  6
Continuous
 62
     0
370
    -2
100
AcDbLine
 10
30.22622003006668
 20
-40.0
 30
0.0
 11
70.52784673682226
 21
-40.0
 31
0.0
  0
LINE
  5
4C4
330
22A
100
AcDbEntity
  8
0
  6
Continuous
 62
     0
370
    -2
100
AcDbLine
 10
70.52784673682226
 20
-40.0
 30
0.0
 11
90.67866009020004
 21
-40.0
 31
0.0
  0
ENDBLK
  5
2A6
330
22A
100
AcDbEntity
  8
0
100
AcDbBlockEnd
  0
ENDSEC
  0
SECTION
  2
ENTITIES
  0
MTEXT
  5
2A7
330
222
100
AcDbEntity
  8
0
  6
Continuous
 62
     2
100
AcDbMText
 10
1.6467220993
 20
53.595027386
 30
0.0
 40
4.0
 41
2.2857142857
 71
     1
 72
     1
  1
1
  7
TEXTSTYLE_2
 73
     1
 44
0.9
  0
MTEXT
  5
2A8
330
222
100
AcDbEntity
  8
0
  6
Continuous
 62
     2
100
AcDbMText
 10
1.6467220993
 20
153.595027386
 30
0.0
 40
4.0
 41
3.1428571429
 71
     1
 72
     1
  1
2
  7
TEXTSTYLE_2
 73
     1
 44
0.9
  0
MTEXT
  5
2A9
330
222
100
AcDbEntity
  8
0
  6
Continuous
 62
     2
100
AcDbMText
 10
1.6467220993
 20
253.595027386
 30
0.0
 40
4.0
 41
2.8571428571
 71
     1
 72
     1
  1
3
  7
TEXTSTYLE_2
 73
     1
 44
0.9
  0
MTEXT
  5
2AA
330
222
100
AcDbEntity
  8
0
  6
Continuous
 62
     2
100
AcDbMText
 10
414.6467220993
 20
60.6268709614
 30
0.0
 40
4.0
 41
2.2857142857
 71
     1
 72
     1
  1
1
  7
TEXTSTYLE_2
 73
     1
 44
0.9
  0
MTEXT
  5
2AB
330
222
100
AcDbEntity
  8
0
  6
Continuous
 62
     2
100
AcDbMText
 10
414.6467220993
 20
160.6268709614
 30
0.0
 40
4.0
 41
3.1428571429
 71
     1
 72
     1
  1
2
  7
TEXTSTYLE_2
 73
     1
 44
0.9
  0
MTEXT
  5
2AC
330
222
100
AcDbEntity
  8
0
  6
Continuous
 62
     2
100
AcDbMText
 10
414.6467220993
 20
260.6268709614
 30
0.0
 40
4.0
 41
2.8571428571
 71
     1
 72
     1
  1
3
  7
TEXTSTYLE_2
 73
     1
 44
0.9
  0
MTEXT
  5
2AD
330
222
100
AcDbEntity
  8
0
  6
Continuous
 62
     2
100
AcDbMText
 10
362.154890719
 20
5.35876025
 30
0.0
 40
4.0
 41
3.6
 71
     1
 72
     1
  1
A
  7
TEXTSTYLE_3
 73
     1
 44
0.9
  0
MTEXT
  5
2AE
330
222
100
AcDbEntity
  8
0
  6
Continuous
 62
     2
100
AcDbMText
 10
262.154890719
 20
5.35876025
 30
0.0
 40
4.0
 41
3.6
 71
     1
 72
     1
  1
B
  7
TEXTSTYLE_3
 73
     1
 44
0.9
  0
MTEXT
  5
2AF
330
222
100
AcDbEntity
  8
0
  6
Continuous
 62
     2
100
AcDbMText
 10
162.154890719
 20
5.35876025
 30
0.0
 40
4.0
 41
3.6
 71
     1
 72
     1
  1
C
  7
TEXTSTYLE_3
 73
     1
 44
0.9
  0
MTEXT
  5
2B0
330
222
100
AcDbEntity
  8
0
  6
Continuous
 62
     2
100
AcDbMText
 10
55.7978688212
 20
5.5353441916
 30
0.0
 40
4.0
 41
3.6
 71
     1
 72
     1
  1
D
  7
TEXTSTYLE_3
 73
     1
 44
0.9
  0
MTEXT
  5
2B1
330
222
100
AcDbEntity
  8
0
  6
Continuous
 62
     2
100
AcDbMText
 10
362.154890719
 20
295.35876025
 30
0.0
 40
4.0
 41
3.6
 71
     1
 72
     1
  1
A
  7
TEXTSTYLE_3
 73
     1
 44
0.9
  0
MTEXT
  5
2B2
330
222
100
AcDbEntity
  8
0
  6
Continuous
 62
     2
100
AcDbMText
 10
262.154890719
 20
295.35876025
 30
0.0
 40
4.0
 41
3.6
 71
     1
 72
     1
  1
B
  7
TEXTSTYLE_3
 73
     1
 44
0.9
  0
MTEXT
  5
2B3
330
222
100
AcDbEntity
  8
0
  6
Continuous
 62
     2
100
AcDbMText
 10
162.154890719
 20
295.35876025
 30
0.0
 40
4.0
 41
3.6
 71
     1
 72
     1
  1
C
  7
TEXTSTYLE_3
 73
     1
 44
0.9
  0
MTEXT
  5
2B4
330
222
100
AcDbEntity
  8
0
  6
Continuous
 62
     2
100
AcDbMText
 10
53.9878834197
 20
295.579490177
 30
0.0
 40
4.0
 41
3.6
 71
     1
 72
     1
  1
D
  7
TEXTSTYLE_3
 73
     1
 44
0.9
  0
DIMENSION
  5
2B5
330
222
100
AcDbEntity
  8
0
  6
Continuous
 62
     2
100
AcDbDimension
  2
*D1
 10
47.87955492372406
 20
210.2294202234322
 30
0.0
 11
113.2211538461538
 21
225.6057692307692
 31
0.0
 70
   163
  1
<>
 71
     1
 42
54.99999999999988
  3
DIMSTYLE_1
100
AcDbDiametricDimension
 15
101.4171602750766
 25
222.828023846168
 35
0.0
 40
0.0
1001
ACAD
1000
DSTYLE
1002
{
1070
   147
1040
2.0
1002
}
  0
DIMENSION
  5
2B6
330
222
100
AcDbEntity
  8
0
  6
Continuous
 62
     2
100
AcDbDimension
  2
*D2
 10
110.9065232357
 20
50.2676735618
 30
0.0
 11
110.9065232357
 21
76.1676735618
 31
0.0
 70
   160
 71
     2
 42
51.8
  3
DIMSTYLE_2
100
AcDbAlignedDimension
 13
103.8601456877
 23
102.0676735618
 33
0.0
 14
103.9606838695
 24
50.2676735618
 34
0.0
 50
270.0
100
AcDbRotatedDimension
1001
ACAD
1000
DSTYLE
1002
{
1070
   147
1040
2.0
1002
}
  0
DIMENSION
  5
2B7
330
222
100
AcDbEntity
  8
0
  6
Continuous
 62
     2
100
AcDbDimension
  2
*D3
 10
165.9058287303
 20
196.5287220348
 30
0.0
 11
165.9058287303
 21
216.5287220348
 31
0.0
 70
   160
  1
%%c<>
 71
     2
 42
40.0
  3
DIMSTYLE_3
100
AcDbAlignedDimension
 13
175.4144481415
 23
236.5287220348
 33
0.0
 14
175.4144481415
 24
196.5287220348
 34
0.0
 50
270.0
100
AcDbRotatedDimension
1001
ACAD
1000
DSTYLE
1002
{
1070
   147
1040
2.0
1002
}
  0
DIMENSION
  5
2B8
330
222
100
AcDbEntity
  8
0
  6
Continuous
 62
     2
100
AcDbDimension
  2
*D4
 10
228.9796683523
 20
267.1316957094923
 30
0.0
 11
238.1046683523
 21
267.1316957094923
 31
0.0
 70
   160
 71
     1
 42
1.599999999999994
  3
DIMSTYLE_4
100
AcDbAlignedDimension
 13
227.3796683523
 23
247.0178124927
 33
0.0
 14
228.9796683523
 24
247.14348522
 34
0.0
100
AcDbRotatedDimension
1001
ACAD
1000
DSTYLE
1002
{
1070
   147
1040
2.0
1002
}
  0
INSERT
  5
2B9
330
222
100
AcDbEntity
  8
0
  6
Continuous
 62
     2
100
AcDbBlockReference
  2
LOGO2_BL0
 10
333.1473869546
 20
37.5239270671
 30
0.0
  0
INSERT
  5
2BA
330
222
100
AcDbEntity
  8
0
  6
Continuous
 62
     2
100
AcDbBlockReference
  2
*T6
 10
319.3213399098
 20
51.0239270671
 30
0.0
  0
LINE
  5
2BB
330
222
100
AcDbEntity
  8
0
  6
Continuous
 62
     7
100
AcDbLine
 10
0.0
 20
0.0
 30
0.0
 11
0.0
 21
297.0
 31
0.0
  0
LWPOLYLINE
  5
2BC
330
222
100
AcDbEntity
  8
0
  6
Continuous
 62
     7
100
AcDbPolyline
 90
        2
 70
     0
 43
0.1000000003
 10
7.0536312849
 20
0.0
 10
7.0536312849
 20
297.0
  0
LWPOLYLINE
  5
2BD
330
222
100
AcDbEntity
  8
0
  6
Continuous
 62
     7
100
AcDbPolyline
 90
        2
 70
     0
 43
0.4999999952
 10
10.0536312849
 20
10.0318435754
 10
10.0536312849
 20
287.0
  0
LINE
  5
2BE
330
222
100
AcDbEntity
  8
0
  6
Continuous
 62
     7
100
AcDbLine
 10
0.0
 20
0.0
 30
0.0
 11
420.0
 21
0.0
 31
0.0
  0
LWPOLYLINE
  5
2BF
330
222
100
AcDbEntity
  8
0
  6
Continuous
 62
     7
100
AcDbPolyline
 90
        2
 70
     0
 43
0.1000000003
 10
0.0
 20
7.0318435754
 10
420.0
 20
7.0318435754
  0
LWPOLYLINE
  5
2C0
330
222
100
AcDbEntity
  8
0
  6
Continuous
 62
     7
100
AcDbPolyline
 90
        2
 70
     0
 43
0.4999999952
 10
10.0536312849
 20
10.0318435754
 10
410.0
 20
10.0318435754
  0
LINE
  5
2C1
330
222
100
AcDbEntity
  8
0
  6
Continuous
 62
     7
100
AcDbLine
 10
113.0
 20
297.0
 30
0.0
 11
113.0
 21
290.0
 31
0.0
  0
LINE
  5
2C2
330
222
100
AcDbEntity
  8
0
  6
Continuous
 62
     7
100
AcDbLine
 10
113.0
 20
7.0
 30
0.0
 11
113.0
 21
0.0
 31
0.0
  0
LWPOLYLINE
  5
2C3
330
222
100
AcDbEntity
  8
0
  6
Continuous
 62
     7
100
AcDbPolyline
 90
        2
 70
     0
 43
0.1000000003
 10
123.0
 20
10.0
 10
123.0
 20
0.0
  0
LWPOLYLINE
  5
2C4
330
222
100
AcDbEntity
  8
0
  6
Continuous
 62
     7
100
AcDbPolyline
 90
        2
 70
     0
 43
0.1000000003
 10
123.0
 20
287.0
 10
123.0
 20
297.0
  0
LINE
  5
2C5
330
222
100
AcDbEntity
  8
0
  6
Continuous
 62
     7
100
AcDbLine
 10
0.0
 20
99.9681564246
 30
0.0
 11
7.0
 21
99.9681564246
 31
0.0
  0
LINE
  5
2C6
330
222
100
AcDbEntity
  8
0
  6
Continuous
 62
     7
100
AcDbLine
 10
413.0
 20
107.0
 30
0.0
 11
420.0
 21
107.0
 31
0.0
  0
LWPOLYLINE
  5
2C7
330
222
100
AcDbEntity
  8
0
  6
Continuous
 62
     7
100
AcDbPolyline
 90
        2
 70
     0
 43
0.1000000003
 10
210.0
 20
10.0
 10
210.0
 20
0.0
  0
LWPOLYLINE
  5
2C8
330
222
100
AcDbEntity
  8
0
  6
Continuous
 62
     7
100
AcDbPolyline
 90
        2
 70
     0
 43
0.1000000003
 10
210.0
 20
287.0
 10
210.0
 20
297.0
  0
LWPOLYLINE
  5
2C9
330
222
100
AcDbEntity
  8
0
  6
Continuous
 62
     7
100
AcDbPolyline
 90
        2
 70
     0
 43
0.1000000003
 10
10.0
 20
148.5
 10
0.0
 20
148.5
  0
LWPOLYLINE
  5
2CA
330
222
100
AcDbEntity
  8
0
  6
Continuous
 62
     7
100
AcDbPolyline
 90
        2
 70
     0
 43
0.1000000003
 10
410.0
 20
148.5
 10
420.0
 20
148.5
  0
LINE
  5
2CB
330
222
100
AcDbEntity
  8
0
  6
Continuous
 62
     7
100
AcDbLine
 10
0.0
 20
199.9681564246
 30
0.0
 11
7.0
 21
199.9681564246
 31
0.0
  0
LWPOLYLINE
  5
2CC
330
222
100
AcDbEntity
  8
0
  6
Continuous
 62
     7
100
AcDbPolyline
 90
        2
 70
     0
 43
0.1000000003
 10
10.0
 20
202.9681564246
 10
0.0
 20
202.9681564246
  0
LWPOLYLINE
  5
2CD
330
222
100
AcDbEntity
  8
0
  6
Continuous
 62
     7
100
AcDbPolyline
 90
        2
 70
     0
 43
0.1000000003
 10
410.0
 20
210.0
 10
420.0
 20
210.0
  0
LINE
  5
2CE
330
222
100
AcDbEntity
  8
0
  6
Continuous
 62
     7
100
AcDbLine
 10
313.0
 20
297.0
 30
0.0
 11
313.0
 21
290.0
 31
0.0
  0
LINE
  5
2CF
330
222
100
AcDbEntity
  8
0
  6
Continuous
 62
     7
100
AcDbLine
 10
313.0
 20
7.0
 30
0.0
 11
313.0
 21
0.0
 31
0.0
  0
LWPOLYLINE
  5
2D0
330
222
100
AcDbEntity
  8
0
  6
Continuous
 62
     7
100
AcDbPolyline
 90
        2
 70
     0
 43
0.4999999952
 10
10.0536312849
 20
287.0
 10
410.0
 20
287.0
  0
LWPOLYLINE
  5
2D1
330
222
100
AcDbEntity
  8
0
  6
Continuous
 62
     7
100
AcDbPolyline
 90
        2
 70
     0
 43
0.1000000003
 10
0.0
 20
290.0
 10
420.0
 20
290.0
  0
LINE
  5
2D2
330
222
100
AcDbEntity
  8
0
  6
Continuous
 62
     7
100
AcDbLine
 10
0.0
 20
297.0
 30
0.0
 11
420.0
 21
297.0
 31
0.0
  0
LWPOLYLINE
  5
2D3
330
222
100
AcDbEntity
  8
0
  6
Continuous
 62
     7
100
AcDbPolyline
 90
        2
 70
     0
 43
0.4999999952
 10
410.0
 20
10.0318435754
 10
410.0
 20
287.0
  0
LWPOLYLINE
  5
2D4
330
222
100
AcDbEntity
  8
0
  6
Continuous
 62
     7
100
AcDbPolyline
 90
        2
 70
     0
 43
0.1000000003
 10
413.0
 20
0.0
 10
413.0
 20
297.0
  0
LINE
  5
2D5
330
222
100
AcDbEntity
  8
0
  6
Continuous
 62
     7
100
AcDbLine
 10
420.0
 20
0.0
 30
0.0
 11
420.0
 21
297.0
 31
0.0
  0
LINE
  5
2D6
330
222
100
AcDbEntity
  8
02___PRT_ALL_AXES
  6
Continuous
 62
     7
100
AcDbLine
 10
54.9983575994
 20
171.5287220348
 30
0.0
 11
55.2983575994
 21
171.5287220348
 31
0.0
  0
LINE
  5
2D7
330
222
100
AcDbEntity
  8
02___PRT_ALL_AXES
  6
Continuous
 62
     9
100
AcDbLine
 10
54.9983575994
 20
173.2244027628
 30
0.0
 11
55.2983575994
 21
173.2244027628
 31
0.0
  0
LINE
  5
2D8
330
222
100
AcDbEntity
  8
7_ALL_FEATURES
  6
Continuous
 62
     7
100
AcDbLine
 10
54.9983575994
 20
197.3727495026
 30
0.0
 11
54.9983575994
 21
173.2244027628
 31
0.0
  0
LINE
  5
2D9
330
222
100
AcDbEntity
  8
02___PRT_ALL_AXES
  6
Continuous
 62
     7
100
AcDbLine
 10
54.9983575994
 20
173.2244027628
 30
0.0
 11
54.9983575994
 21
171.5289559379
 31
0.0
  0
LINE
  5
2DA
330
222
100
AcDbEntity
  8
7_ALL_FEATURES
  6
Continuous
 62
     7
100
AcDbLine
 10
55.2983575994
 20
197.0515222972
 30
0.0
 11
55.2983575994
 21
173.2244027628
 31
0.0
  0
LINE
  5
2DB
330
222
100
AcDbEntity
  8
02___PRT_ALL_AXES
  6
Continuous
 62
     7
100
AcDbLine
 10
55.2983575994
 20
173.2244027628
 30
0.0
 11
55.2983575994
 21
171.5289559379
 31
0.0
  0
LINE
  5
2DC
330
222
100
AcDbEntity
  8
7_ALL_FEATURES
  6
Continuous
 62
     7
100
AcDbLine
 10
93.9983575994
 20
236.0059217724
 30
0.0
 11
93.9983575994
 21
259.8330413068
 31
0.0
  0
LINE
  5
2DD
330
222
100
AcDbEntity
  8
02___PRT_ALL_AXES
  6
Continuous
 62
     7
100
AcDbLine
 10
93.9983575994
 20
259.8330413068
 30
0.0
 11
93.9983575994
 21
261.5284881317
 31
0.0
  0
LINE
  5
2DE
330
222
100
AcDbEntity
  8
7_ALL_FEATURES
  6
Continuous
 62
     7
100
AcDbLine
 10
94.2983575994
 20
235.684694567
 30
0.0
 11
94.2983575994
 21
259.8330413068
 31
0.0
  0
LINE
  5
2DF
330
222
100
AcDbEntity
  8
02___PRT_ALL_AXES
  6
Continuous
 62
     7
100
AcDbLine
 10
94.2983575994
 20
259.8330413068
 30
0.0
 11
94.2983575994
 21
261.5284881317
 31
0.0
  0
LINE
  5
2E0
330
222
100
AcDbEntity
  8
02___PRT_ALL_AXES
  6
Continuous
 62
     9
100
AcDbLine
 10
94.2983575994
 20
259.8330413068
 30
0.0
 11
93.9983575994
 21
259.8330413068
 31
0.0
  0
LINE
  5
2E1
330
222
100
AcDbEntity
  8
02___PRT_ALL_AXES
  6
Continuous
 62
     7
100
AcDbLine
 10
94.2983575994
 20
261.5287220348
 30
0.0
 11
93.9983575994
 21
261.5287220348
 31
0.0
  0
LINE
  5
2E2
330
222
100
AcDbEntity
  8
02___PRT_ALL_AXES
  6
Continuous
 62
     7
100
AcDbLine
 10
47.1483575994
 20
51.0676735618
 30
0.0
 11
47.1483575994
 21
50.2676735618
 31
0.0
  0
LINE
  5
2E3
330
222
100
AcDbEntity
  8
0
  6
Continuous
 62
     7
100
AcDbLine
 10
47.1483575994
 20
51.0676735618
 30
0.0
 11
47.1483575994
 21
51.8676735618
 31
0.0
  0
LINE
  5
2E4
330
222
100
AcDbEntity
  8
02___PRT_ALL_AXES
  6
Continuous
 62
     7
100
AcDbLine
 10
47.1483575994
 20
50.2676735618
 30
0.0
 11
102.1483575994
 21
50.2676735618
 31
0.0
  0
LINE
  5
2E5
330
222
100
AcDbEntity
  8
02___PRT_ALL_AXES
  6
Continuous
 62
     7
100
AcDbLine
 10
102.1483575994
 20
51.0676735618
 30
0.0
 11
47.1483575994
 21
51.0676735618
 31
0.0
  0
LINE
  5
2E6
330
222
100
AcDbEntity
  8
0
  6
Continuous
 62
     7
100
AcDbLine
 10
47.1483575994
 20
51.0676735618
 30
0.0
 11
102.1483575994
 21
51.0676735618
 31
0.0
  0
LINE
  5
2E7
330
222
100
AcDbEntity
  8
0
  6
Continuous
 62
     7
100
AcDbLine
 10
47.1483575994
 20
51.8676735618
 30
0.0
 11
102.1483575994
 21
51.8676735618
 31
0.0
  0
LINE
  5
2E8
330
222
100
AcDbEntity
  8
7_ALL_FEATURES
  6
Continuous
 62
     9
100
AcDbLine
 10
55.2983575994
 20
53.245023831
 30
0.0
 11
54.9983575994
 21
53.245023831
 31
0.0
  0
LINE
  5
2E9
330
222
100
AcDbEntity
  8
02___PRT_ALL_AXES
  6
Continuous
 62
     7
100
AcDbLine
 10
53.3483575994
 20
55.9126735618
 30
0.0
 11
53.3483575994
 21
59.2226735618
 31
0.0
  0
LINE
  5
2EA
330
222
100
AcDbEntity
  8
02___PRT_ALL_AXES
  6
Continuous
 62
     7
100
AcDbLine
 10
54.6183575994
 20
54.8176735618
 30
0.0
 11
54.6183575994
 21
60.3176735618
 31
0.0
  0
LINE
  5
2EB
330
222
100
AcDbEntity
  8
02___PRT_ALL_AXES
  6
Continuous
 62
     7
100
AcDbLine
 10
54.9983575994
 20
54.8176735618
 30
0.0
 11
54.6183575994
 21
54.8176735618
 31
0.0
  0
LINE
  5
2EC
330
222
100
AcDbEntity
  8
02___PRT_ALL_AXES
  6
Continuous
 62
     7
100
AcDbLine
 10
94.2983575994
 20
54.8176735618
 30
0.0
 11
94.6783575994
 21
54.8176735618
 31
0.0
  0
LINE
  5
2ED
330
222
100
AcDbEntity
  8
7_ALL_FEATURES
  6
Continuous
 62
     9
100
AcDbLine
 10
93.9983575994
 20
55.3284731148
 30
0.0
 11
94.2983575994
 21
55.3284731148
 31
0.0
  0
LINE
  5
2EE
330
222
100
AcDbEntity
  8
7_ALL_FEATURES
  6
Continuous
 62
     7
100
AcDbLine
 10
54.9983575994
 20
51.8676735618
 30
0.0
 11
54.9983575994
 21
79.6676735618
 31
0.0
  0
LINE
  5
2EF
330
222
100
AcDbEntity
  8
7_ALL_FEATURES
  6
Continuous
 62
     7
100
AcDbLine
 10
55.2983575994
 20
86.0676735618
 30
0.0
 11
55.2983575994
 21
83.8676735618
 31
0.0
  0
LINE
  5
2F0
330
222
100
AcDbEntity
  8
7_ALL_FEATURES
  6
Continuous
 62
     7
100
AcDbLine
 10
55.2983575994
 20
81.8676735618
 30
0.0
 11
55.2983575994
 21
80.0676735618
 31
0.0
  0
LINE
  5
2F1
330
222
100
AcDbEntity
  8
7_ALL_FEATURES
  6
Continuous
 62
     7
100
AcDbLine
 10
55.2983575994
 20
79.6676735618
 30
0.0
 11
55.2983575994
 21
51.8676735618
 31
0.0
  0
LINE
  5
2F2
330
222
100
AcDbEntity
  8
7_ALL_FEATURES
  6
Continuous
 62
     7
100
AcDbLine
 10
58.6483575994
 20
83.8676735618
 30
0.0
 11
58.6483575994
 21
81.8676735618
 31
0.0
  0
LINE
  5
2F3
330
222
100
AcDbEntity
  8
02___PRT_ALL_AXES
  6
Continuous
 62
     7
100
AcDbLine
 10
58.6483575994
 20
80.0676735618
 30
0.0
 11
58.6483575994
 21
78.0676735618
 31
0.0
  0
LINE
  5
2F4
330
222
100
AcDbEntity
  8
02___PRT_ALL_AXES
  6
Continuous
 62
     7
100
AcDbLine
 10
58.6483575994
 20
76.2676735618
 30
0.0
 11
58.6483575994
 21
74.2676735618
 31
0.0
  0
LINE
  5
2F5
330
222
100
AcDbEntity
  8
02___PRT_ALL_AXES
  6
Continuous
 62
     7
100
AcDbLine
 10
58.6483575994
 20
72.4676735618
 30
0.0
 11
58.6483575994
 21
70.4676735618
 31
0.0
  0
LINE
  5
2F6
330
222
100
AcDbEntity
  8
02___PRT_ALL_AXES
  6
Continuous
 62
     7
100
AcDbLine
 10
54.9983575994
 20
60.3176735618
 30
0.0
 11
54.6183575994
 21
60.3176735618
 31
0.0
  0
LINE
  5
2F7
330
222
100
AcDbEntity
  8
02___PRT_ALL_AXES
  6
Continuous
 62
     7
100
AcDbLine
 10
94.2983575994
 20
60.3176735618
 30
0.0
 11
94.6783575994
 21
60.3176735618
 31
0.0
  0
LINE
  5
2F8
330
222
100
AcDbEntity
  8
02___PRT_ALL_AXES
  6
Continuous
 62
     7
100
AcDbLine
 10
67.7201543692
 20
86.0676735618
 30
0.0
 11
67.7201543692
 21
89.5676735618
 31
0.0
  0
LINE
  5
2F9
330
222
100
AcDbEntity
  8
02___PRT_ALL_AXES
  6
Continuous
 62
     7
100
AcDbLine
 10
67.7201543692
 20
92.5676735618
 30
0.0
 11
67.7201543692
 21
99.2728356634
 31
0.0
  0
LINE
  5
2FA
330
222
100
AcDbEntity
  8
02___PRT_ALL_AXES
  6
Continuous
 62
     7
100
AcDbLine
 10
68.6483575994
 20
92.5676735618
 30
0.0
 11
68.6483575994
 21
89.5676735618
 31
0.0
  0
LINE
  5
2FB
330
222
100
AcDbEntity
  8
7_ALL_FEATURES
  6
Continuous
 62
     7
100
AcDbLine
 10
55.2983575994
 20
70.4676735618
 30
0.0
 11
93.9983575994
 21
70.4676735618
 31
0.0
  0
LINE
  5
2FC
330
222
100
AcDbEntity
  8
7_ALL_FEATURES
  6
Continuous
 62
     9
100
AcDbLine
 10
55.2983575994
 20
70.5655319067
 30
0.0
 11
54.9983575994
 21
70.5655319067
 31
0.0
  0
LINE
  5
2FD
330
222
100
AcDbEntity
  8
02___PRT_ALL_AXES
  6
Continuous
 62
     7
100
AcDbLine
 10
70.3182305805
 20
98.5676735618
 30
0.0
 11
70.3182305805
 21
98.0676735618
 31
0.0
  0
LINE
  5
2FE
330
222
100
AcDbEntity
  8
02___PRT_ALL_AXES
  6
Continuous
 62
     7
100
AcDbLine
 10
72.0502813881
 20
98.5676735618
 30
0.0
 11
72.0502813881
 21
98.0676735618
 31
0.0
  0
LINE
  5
2FF
330
222
100
AcDbEntity
  8
7_ALL_FEATURES
  6
Continuous
 62
     7
100
AcDbLine
 10
93.9983575994
 20
72.4676735618
 30
0.0
 11
55.2983575994
 21
72.4676735618
 31
0.0
  0
LINE
  5
300
330
222
100
AcDbEntity
  8
7_ALL_FEATURES
  6
Continuous
 62
     9
100
AcDbLine
 10
55.2983575994
 20
72.968943751
 30
0.0
 11
54.9983575994
 21
72.968943751
 31
0.0
  0
LINE
  5
301
330
222
100
AcDbEntity
  8
02___PRT_ALL_AXES
  6
Continuous
 62
     9
100
AcDbLine
 10
94.2983575994
 20
73.3393069317
 30
0.0
 11
93.9983575994
 21
73.3393069317
 31
0.0
  0
LINE
  5
302
330
222
100
AcDbEntity
  8
02___PRT_ALL_AXES
  6
Continuous
 62
     7
100
AcDbLine
 10
74.6483575994
 20
86.0676735618
 30
0.0
 11
74.6483575994
 21
89.5676735618
 31
0.0
  0
LINE
  5
303
330
222
100
AcDbEntity
  8
02___PRT_ALL_AXES
  6
Continuous
 62
     7
100
AcDbLine
 10
74.6483575994
 20
92.5676735618
 30
0.0
 11
74.6483575994
 21
97.0676735618
 31
0.0
  0
LINE
  5
304
330
222
100
AcDbEntity
  8
7_ALL_FEATURES
  6
Continuous
 62
     7
100
AcDbLine
 10
55.2983575994
 20
74.2676735618
 30
0.0
 11
93.9983575994
 21
74.2676735618
 31
0.0
  0
LINE
  5
305
330
222
100
AcDbEntity
  8
7_ALL_FEATURES
  6
Continuous
 62
     7
100
AcDbLine
 10
93.9983575994
 20
76.2676735618
 30
0.0
 11
55.2983575994
 21
76.2676735618
 31
0.0
  0
LINE
  5
306
330
222
100
AcDbEntity
  8
02___PRT_ALL_AXES
  6
Continuous
 62
     7
100
AcDbLine
 10
77.2464338108
 20
98.5676735618
 30
0.0
 11
77.2464338108
 21
98.0676735618
 31
0.0
  0
LINE
  5
307
330
222
100
AcDbEntity
  8
7_ALL_FEATURES
  6
Continuous
 62
     7
100
AcDbLine
 10
55.2983575994
 20
78.0676735618
 30
0.0
 11
93.9983575994
 21
78.0676735618
 31
0.0
  0
LINE
  5
308
330
222
100
AcDbEntity
  8
02___PRT_ALL_AXES
  6
Continuous
 62
     7
100
AcDbLine
 10
78.9784846184
 20
98.5676735618
 30
0.0
 11
78.9784846184
 21
98.0676735618
 31
0.0
  0
LINE
  5
309
330
222
100
AcDbEntity
  8
02___PRT_ALL_AXES
  6
Continuous
 62
     7
100
AcDbLine
 10
94.2983575994
 20
79.6676735618
 30
0.0
 11
93.9983575994
 21
79.6676735618
 31
0.0
  0
LINE
  5
30A
330
222
100
AcDbEntity
  8
7_ALL_FEATURES
  6
Continuous
 62
     7
100
AcDbLine
 10
55.2983575994
 20
79.6676735618
 30
0.0
 11
54.9983575994
 21
79.6676735618
 31
0.0
  0
LINE
  5
30B
330
222
100
AcDbEntity
  8
7_ALL_FEATURES
  6
Continuous
 62
     7
100
AcDbLine
 10
93.9983575994
 20
80.0676735618
 30
0.0
 11
55.2983575994
 21
80.0676735618
 31
0.0
  0
LINE
  5
30C
330
222
100
AcDbEntity
  8
02___PRT_ALL_AXES
  6
Continuous
 62
     7
100
AcDbLine
 10
80.6483575994
 20
92.5676735618
 30
0.0
 11
80.6483575994
 21
89.5676735618
 31
0.0
  0
LINE
  5
30D
330
222
100
AcDbEntity
  8
02___PRT_ALL_AXES
  6
Continuous
 62
     7
100
AcDbLine
 10
81.5765608297
 20
86.0676735618
 30
0.0
 11
81.5765608297
 21
89.5676735618
 31
0.0
  0
LINE
  5
30E
330
222
100
AcDbEntity
  8
02___PRT_ALL_AXES
  6
Continuous
 62
     7
100
AcDbLine
 10
81.5765608297
 20
92.5676735618
 30
0.0
 11
81.5765608297
 21
99.2728356634
 31
0.0
  0
LINE
  5
30F
330
222
100
AcDbEntity
  8
7_ALL_FEATURES
  6
Continuous
 62
     7
100
AcDbLine
 10
55.2983575994
 20
81.8676735618
 30
0.0
 11
93.9983575994
 21
81.8676735618
 31
0.0
  0
LINE
  5
310
330
222
100
AcDbEntity
  8
7_ALL_FEATURES
  6
Continuous
 62
     7
100
AcDbLine
 10
93.9983575994
 20
83.8676735618
 30
0.0
 11
55.2983575994
 21
83.8676735618
 31
0.0
  0
LINE
  5
311
330
222
100
AcDbEntity
  8
7_ALL_FEATURES
  6
Continuous
 62
     7
100
AcDbLine
 10
93.9983575994
 20
86.0676735618
 30
0.0
 11
55.2983575994
 21
86.0676735618
 31
0.0
  0
LINE
  5
312
330
222
100
AcDbEntity
  8
02___PRT_ALL_AXES
  6
Continuous
 62
     7
100
AcDbLine
 10
67.7201543692
 20
89.5676735618
 30
0.0
 11
81.5765608297
 21
89.5676735618
 31
0.0
  0
LINE
  5
313
330
222
100
AcDbEntity
  8
7_ALL_FEATURES
  6
Continuous
 62
     7
100
AcDbLine
 10
90.6483575994
 20
83.8676735618
 30
0.0
 11
90.6483575994
 21
81.8676735618
 31
0.0
  0
LINE
  5
314
330
222
100
AcDbEntity
  8
02___PRT_ALL_AXES
  6
Continuous
 62
     7
100
AcDbLine
 10
90.6483575994
 20
80.0676735618
 30
0.0
 11
90.6483575994
 21
78.0676735618
 31
0.0
  0
LINE
  5
315
330
222
100
AcDbEntity
  8
02___PRT_ALL_AXES
  6
Continuous
 62
     7
100
AcDbLine
 10
90.6483575994
 20
76.2676735618
 30
0.0
 11
90.6483575994
 21
74.2676735618
 31
0.0
  0
LINE
  5
316
330
222
100
AcDbEntity
  8
02___PRT_ALL_AXES
  6
Continuous
 62
     7
100
AcDbLine
 10
90.6483575994
 20
72.4676735618
 30
0.0
 11
90.6483575994
 21
70.4676735618
 31
0.0
  0
LINE
  5
317
330
222
100
AcDbEntity
  8
02___PRT_ALL_AXES
  6
Continuous
 62
     7
100
AcDbLine
 10
67.7201543692
 20
92.5676735618
 30
0.0
 11
81.5765608297
 21
92.5676735618
 31
0.0
  0
LINE
  5
318
330
222
100
AcDbEntity
  8
7_ALL_FEATURES
  6
Continuous
 62
     7
100
AcDbLine
 10
93.9983575994
 20
86.0676735618
 30
0.0
 11
93.9983575994
 21
83.8676735618
 31
0.0
  0
LINE
  5
319
330
222
100
AcDbEntity
  8
7_ALL_FEATURES
  6
Continuous
 62
     7
100
AcDbLine
 10
93.9983575994
 20
81.8676735618
 30
0.0
 11
93.9983575994
 21
80.0676735618
 31
0.0
  0
LINE
  5
31A
330
222
100
AcDbEntity
  8
7_ALL_FEATURES
  6
Continuous
 62
     7
100
AcDbLine
 10
93.9983575994
 20
51.8676735618
 30
0.0
 11
93.9983575994
 21
73.3393069317
 31
0.0
  0
LINE
  5
31B
330
222
100
AcDbEntity
  8
02___PRT_ALL_AXES
  6
Continuous
 62
     7
100
AcDbLine
 10
93.9983575994
 20
73.3393069317
 30
0.0
 11
93.9983575994
 21
79.6676735618
 31
0.0
  0
LINE
  5
31C
330
222
100
AcDbEntity
  8
7_ALL_FEATURES
  6
Continuous
 62
     7
100
AcDbLine
 10
94.2983575994
 20
51.8676735618
 30
0.0
 11
94.2983575994
 21
73.3393069317
 31
0.0
  0
LINE
  5
31D
330
222
100
AcDbEntity
  8
02___PRT_ALL_AXES
  6
Continuous
 62
     7
100
AcDbLine
 10
94.2983575994
 20
73.3393069317
 30
0.0
 11
94.2983575994
 21
79.6676735618
 31
0.0
  0
LINE
  5
31E
330
222
100
AcDbEntity
  8
02___PRT_ALL_AXES
  6
Continuous
 62
     7
100
AcDbLine
 10
94.6783575994
 20
54.8176735618
 30
0.0
 11
94.6783575994
 21
60.3176735618
 31
0.0
  0
LINE
  5
31F
330
222
100
AcDbEntity
  8
02___PRT_ALL_AXES
  6
Continuous
 62
     7
100
AcDbLine
 10
95.9483575994
 20
55.9126735618
 30
0.0
 11
95.9483575994
 21
59.2226735618
 31
0.0
  0
LINE
  5
320
330
222
100
AcDbEntity
  8
02___PRT_ALL_AXES
  6
Continuous
 62
     7
100
AcDbLine
 10
81.5765608297
 20
98.0676735618
 30
0.0
 11
78.9784846184
 21
98.0676735618
 31
0.0
  0
LINE
  5
321
330
222
100
AcDbEntity
  8
02___PRT_ALL_AXES
  6
Continuous
 62
     7
100
AcDbLine
 10
77.2464338108
 20
98.0676735618
 30
0.0
 11
72.0502813881
 21
98.0676735618
 31
0.0
  0
LINE
  5
322
330
222
100
AcDbEntity
  8
02___PRT_ALL_AXES
  6
Continuous
 62
     7
100
AcDbLine
 10
67.7201543692
 20
98.0676735618
 30
0.0
 11
70.3182305805
 21
98.0676735618
 31
0.0
  0
LINE
  5
323
330
222
100
AcDbEntity
  8
02___PRT_ALL_AXES
  6
Continuous
 62
     9
100
AcDbLine
 10
81.5765608297
 20
98.5676735618
 30
0.0
 11
78.9784846184
 21
98.5676735618
 31
0.0
  0
LINE
  5
324
330
222
100
AcDbEntity
  8
02___PRT_ALL_AXES
  6
Continuous
 62
     9
100
AcDbLine
 10
67.7201543692
 20
98.5676735618
 30
0.0
 11
70.3182305805
 21
98.5676735618
 31
0.0
  0
LINE
  5
325
330
222
100
AcDbEntity
  8
02___PRT_ALL_AXES
  6
Continuous
 62
     9
100
AcDbLine
 10
72.0502813881
 20
98.5676735618
 30
0.0
 11
77.2464338108
 21
98.5676735618
 31
0.0
  0
LINE
  5
326
330
222
100
AcDbEntity
  8
02___PRT_ALL_AXES
  6
Continuous
 62
     7
100
AcDbLine
 10
102.1483575994
 20
51.0676735618
 30
0.0
 11
102.1483575994
 21
50.2676735618
 31
0.0
  0
LINE
  5
327
330
222
100
AcDbEntity
  8
0
  6
Continuous
 62
     7
100
AcDbLine
 10
102.1483575994
 20
51.0676735618
 30
0.0
 11
102.1483575994
 21
51.8676735618
 31
0.0
  0
LINE
  5
328
330
222
100
AcDbEntity
  8
02___PRT_ALL_AXES
  6
Continuous
 62
     7
100
AcDbLine
 10
78.1483575994
 20
102.0676735618
 30
0.0
 11
71.1483575994
 21
102.0676735618
 31
0.0
  0
LINE
  5
329
330
222
100
AcDbEntity
  8
7_ALL_FEATURES
  6
Continuous
 62
     7
100
AcDbLine
 10
78.1483575994
 20
102.0676735618
 30
0.0
 11
71.1483575994
 21
102.0676735618
 31
0.0
  0
LINE
  5
32A
330
222
100
AcDbEntity
  8
0
  6
Continuous
 62
     7
100
AcDbLine
 10
228.1796683523
 20
189.0287220348
 30
0.0
 11
227.3796683523
 21
189.0287220348
 31
0.0
  0
LINE
  5
32B
330
222
100
AcDbEntity
  8
02___PRT_ALL_AXES
  6
Continuous
 62
     7
100
AcDbLine
 10
228.1796683523
 20
189.0287220348
 30
0.0
 11
228.9796683523
 21
189.0287220348
 31
0.0
  0
LINE
  5
32C
330
222
100
AcDbEntity
  8
02___PRT_ALL_AXES
  6
Continuous
 62
     7
100
AcDbLine
 10
177.1796683523
 20
225.0287220348
 30
0.0
 11
177.1796683523
 21
218.0287220348
 31
0.0
  0
LINE
  5
32D
330
222
100
AcDbEntity
  8
7_ALL_FEATURES
  6
Continuous
 62
     7
100
AcDbLine
 10
177.1796683523
 20
225.0287220348
 30
0.0
 11
177.1796683523
 21
218.0287220348
 31
0.0
  0
LINE
  5
32E
330
222
100
AcDbEntity
  8
02___PRT_ALL_AXES
  6
Continuous
 62
     7
100
AcDbLine
 10
181.1796683523
 20
228.5287220348
 30
0.0
 11
182.1796683523
 21
229.5287220348
 31
0.0
  0
LINE
  5
32F
330
222
100
AcDbEntity
  8
02___PRT_ALL_AXES
  6
Continuous
 62
     9
100
AcDbLine
 10
180.6796683523
 20
214.5287220348
 30
0.0
 11
180.6796683523
 21
215.0287220348
 31
0.0
  0
LINE
  5
330
330
222
100
AcDbEntity
  8
02___PRT_ALL_AXES
  6
Continuous
 62
     9
100
AcDbLine
 10
180.6796683523
 20
216.0287220348
 30
0.0
 11
180.6796683523
 21
220.5287220348
 31
0.0
  0
LINE
  5
331
330
222
100
AcDbEntity
  8
02___PRT_ALL_AXES
  6
Continuous
 62
     9
100
AcDbLine
 10
180.6796683523
 20
222.5287220348
 30
0.0
 11
180.6796683523
 21
227.0287220348
 31
0.0
  0
LINE
  5
332
330
222
100
AcDbEntity
  8
02___PRT_ALL_AXES
  6
Continuous
 62
     9
100
AcDbLine
 10
180.6796683523
 20
228.0287220348
 30
0.0
 11
180.6796683523
 21
228.5287220348
 31
0.0
  0
LINE
  5
333
330
222
100
AcDbEntity
  8
02___PRT_ALL_AXES
  6
Continuous
 62
     7
100
AcDbLine
 10
181.1796683523
 20
228.5287220348
 30
0.0
 11
181.1796683523
 21
228.0287220348
 31
0.0
  0
LINE
  5
334
330
222
100
AcDbEntity
  8
02___PRT_ALL_AXES
  6
Continuous
 62
     7
100
AcDbLine
 10
181.1796683523
 20
215.0287220348
 30
0.0
 11
181.1796683523
 21
214.5287220348
 31
0.0
  0
LINE
  5
335
330
222
100
AcDbEntity
  8
02___PRT_ALL_AXES
  6
Continuous
 62
     7
100
AcDbLine
 10
181.1796683523
 20
216.0287220348
 30
0.0
 11
181.1796683523
 21
220.5287220348
 31
0.0
  0
LINE
  5
336
330
222
100
AcDbEntity
  8
02___PRT_ALL_AXES
  6
Continuous
 62
     7
100
AcDbLine
 10
181.1796683523
 20
222.5287220348
 30
0.0
 11
181.1796683523
 21
227.0287220348
 31
0.0
  0
LINE
  5
337
330
222
100
AcDbEntity
  8
02___PRT_ALL_AXES
  6
Continuous
 62
     7
100
AcDbLine
 10
193.1796683523
 20
196.5287220348
 30
0.0
 11
195.3796683523
 21
196.5287220348
 31
0.0
  0
LINE
  5
338
330
222
100
AcDbEntity
  8
02___PRT_ALL_AXES
  6
Continuous
 62
     7
100
AcDbLine
 10
197.3796683523
 20
196.5287220348
 30
0.0
 11
199.1796683523
 21
196.5287220348
 31
0.0
  0
LINE
  5
339
330
222
100
AcDbEntity
  8
02___PRT_ALL_AXES
  6
Continuous
 62
     7
100
AcDbLine
 10
219.3627899874
 20
196.5287220348
 30
0.0
 11
227.3796683523
 21
196.5287220348
 31
0.0
  0
LINE
  5
33A
330
222
100
AcDbEntity
  8
02___PRT_ALL_AXES
  6
Continuous
 62
     7
100
AcDbLine
 10
181.1796683523
 20
214.5287220348
 30
0.0
 11
182.1796683523
 21
213.5287220348
 31
0.0
  0
LINE
  5
33B
330
222
100
AcDbEntity
  8
02___PRT_ALL_AXES
  6
Continuous
 62
     7
100
AcDbLine
 10
186.6796683523
 20
213.5287220348
 30
0.0
 11
186.6796683523
 21
229.5287220348
 31
0.0
  0
LINE
  5
33C
330
222
100
AcDbEntity
  8
02___PRT_ALL_AXES
  6
Continuous
 62
     7
100
AcDbLine
 10
189.6796683523
 20
213.5287220348
 30
0.0
 11
189.6796683523
 21
229.5287220348
 31
0.0
  0
LINE
  5
33D
330
222
100
AcDbEntity
  8
02___PRT_ALL_AXES
  6
Continuous
 62
     7
100
AcDbLine
 10
201.1796683523
 20
200.5287220348
 30
0.0
 11
199.1796683523
 21
200.5287220348
 31
0.0
  0
LINE
  5
33E
330
222
100
AcDbEntity
  8
7_ALL_FEATURES
  6
Continuous
 62
     7
100
AcDbLine
 10
197.3796683523
 20
200.5287220348
 30
0.0
 11
195.3796683523
 21
200.5287220348
 31
0.0
  0
LINE
  5
33F
330
222
100
AcDbEntity
  8
7_ALL_FEATURES
  6
Continuous
 62
     7
100
AcDbLine
 10
193.1796683523
 20
196.5288938709
 30
0.0
 11
193.1796683523
 21
236.5285501987
 31
0.0
  0
LINE
  5
340
330
222
100
AcDbEntity
  8
7_ALL_FEATURES
  6
Continuous
 62
     7
100
AcDbLine
 10
195.3796683523
 20
196.5288938709
 30
0.0
 11
195.3796683523
 21
236.5285501987
 31
0.0
  0
LINE
  5
341
330
222
100
AcDbEntity
  8
7_ALL_FEATURES
  6
Continuous
 62
     7
100
AcDbLine
 10
197.3796683523
 20
196.5288938709
 30
0.0
 11
197.3796683523
 21
236.5285501987
 31
0.0
  0
LINE
  5
342
330
222
100
AcDbEntity
  8
7_ALL_FEATURES
  6
Continuous
 62
     7
100
AcDbLine
 10
199.1796683523
 20
196.5288938709
 30
0.0
 11
199.1796683523
 21
236.5285501987
 31
0.0
  0
LINE
  5
343
330
222
100
AcDbEntity
  8
7_ALL_FEATURES
  6
Continuous
 62
     7
100
AcDbLine
 10
199.5796683523
 20
258.1373605789
 30
0.0
 11
199.5796683523
 21
248.1915534607
 31
0.0
  0
LINE
  5
344
330
222
100
AcDbEntity
  8
7_ALL_FEATURES
  6
Continuous
 62
     7
100
AcDbLine
 10
199.5796683523
 20
174.9200834907
 30
0.0
 11
199.5796683523
 21
184.8658906089
 31
0.0
  0
LINE
  5
345
330
222
100
AcDbEntity
  8
7_ALL_FEATURES
  6
Continuous
 62
     7
100
AcDbLine
 10
193.1796683523
 20
211.4713017438
 30
0.0
 11
195.3796683523
 21
211.4713017438
 31
0.0
  0
LINE
  5
346
330
222
100
AcDbEntity
  8
7_ALL_FEATURES
  6
Continuous
 62
     7
100
AcDbLine
 10
197.3796683523
 20
211.4713017438
 30
0.0
 11
199.1796683523
 21
211.4713017438
 31
0.0
  0
LINE
  5
347
330
222
100
AcDbEntity
  8
7_ALL_FEATURES
  6
Continuous
 62
     7
100
AcDbLine
 10
201.1796683523
 20
211.4713017438
 30
0.0
 11
202.9796683523
 21
211.4713017438
 31
0.0
  0
LINE
  5
348
330
222
100
AcDbEntity
  8
7_ALL_FEATURES
  6
Continuous
 62
     7
100
AcDbLine
 10
204.9796683523
 20
211.4713017438
 30
0.0
 11
206.7796683523
 21
211.4713017438
 31
0.0
  0
LINE
  5
349
330
222
100
AcDbEntity
  8
7_ALL_FEATURES
  6
Continuous
 62
     7
100
AcDbLine
 10
227.3796683523
 20
212.2787220348
 30
0.0
 11
226.8296683523
 21
212.2787220348
 31
0.0
  0
LINE
  5
34A
330
222
100
AcDbEntity
  8
0
  6
Continuous
 62
     7
100
AcDbLine
 10
226.5796683523
 20
212.5287220348
 30
0.0
 11
227.3796683523
 21
212.5287220348
 31
0.0
  0
LINE
  5
34B
330
222
100
AcDbEntity
  8
02___PRT_ALL_AXES
  6
Continuous
 62
     7
100
AcDbLine
 10
193.1796683523
 20
213.5287220348
 30
0.0
 11
189.6796683523
 21
213.5287220348
 31
0.0
  0
LINE
  5
34C
330
222
100
AcDbEntity
  8
02___PRT_ALL_AXES
  6
Continuous
 62
     7
100
AcDbLine
 10
186.6796683523
 20
213.5287220348
 30
0.0
 11
182.1796683523
 21
213.5287220348
 31
0.0
  0
LINE
  5
34D
330
222
100
AcDbEntity
  8
7_ALL_FEATURES
  6
Continuous
 62
     7
100
AcDbLine
 10
201.1796683523
 20
197.3390432142
 30
0.0
 11
201.1796683523
 21
236.5285501987
 31
0.0
  0
LINE
  5
34E
330
222
100
AcDbEntity
  8
7_ALL_FEATURES
  6
Continuous
 62
     7
100
AcDbLine
 10
202.9796683523
 20
202.8954792467
 30
0.0
 11
202.9796683523
 21
236.5285501987
 31
0.0
  0
LINE
  5
34F
330
222
100
AcDbEntity
  8
02___PRT_ALL_AXES
  6
Continuous
 62
     7
100
AcDbLine
 10
180.6796683523
 20
214.5287220348
 30
0.0
 11
181.1796683523
 21
214.5287220348
 31
0.0
  0
LINE
  5
350
330
222
100
AcDbEntity
  8
02___PRT_ALL_AXES
  6
Continuous
 62
     7
100
AcDbLine
 10
180.6796683523
 20
215.0287220348
 30
0.0
 11
181.1796683523
 21
215.0287220348
 31
0.0
  0
LINE
  5
351
330
222
100
AcDbEntity
  8
02___PRT_ALL_AXES
  6
Continuous
 62
     7
100
AcDbLine
 10
189.6796683523
 20
215.5287220348
 30
0.0
 11
186.6796683523
 21
215.5287220348
 31
0.0
  0
LINE
  5
352
330
222
100
AcDbEntity
  8
02___PRT_ALL_AXES
  6
Continuous
 62
     7
100
AcDbLine
 10
180.6796683523
 20
216.0287220348
 30
0.0
 11
181.1796683523
 21
216.0287220348
 31
0.0
  0
LINE
  5
353
330
222
100
AcDbEntity
  8
0
  6
Continuous
 62
     9
100
AcDbLine
 10
228.1796683523
 20
216.5287220348
 30
0.0
 11
227.3796683523
 21
216.5287220348
 31
0.0
  0
LINE
  5
354
330
222
100
AcDbEntity
  8
7_ALL_FEATURES
  6
Continuous
 62
     7
100
AcDbLine
 10
204.9796683523
 20
207.3710538546
 30
0.0
 11
204.9796683523
 21
236.5285501987
 31
0.0
  0
LINE
  5
355
330
222
100
AcDbEntity
  8
7_ALL_FEATURES
  6
Continuous
 62
     7
100
AcDbLine
 10
206.7796683523
 20
210.7341160449
 30
0.0
 11
206.7796683523
 21
236.5285501987
 31
0.0
  0
LINE
  5
356
330
222
100
AcDbEntity
  8
02___PRT_ALL_AXES
  6
Continuous
 62
     7
100
AcDbLine
 10
193.1796683523
 20
217.5287220348
 30
0.0
 11
189.6796683523
 21
217.5287220348
 31
0.0
  0
LINE
  5
357
330
222
100
AcDbEntity
  8
02___PRT_ALL_AXES
  6
Continuous
 62
     7
100
AcDbLine
 10
186.6796683523
 20
217.5287220348
 30
0.0
 11
182.1796683523
 21
217.5287220348
 31
0.0
  0
LINE
  5
358
330
222
100
AcDbEntity
  8
7_ALL_FEATURES
  6
Continuous
 62
     7
100
AcDbLine
 10
208.7796683523
 20
214.1751773977
 30
0.0
 11
208.7796683523
 21
236.5285501987
 31
0.0
  0
LINE
  5
359
330
222
100
AcDbEntity
  8
7_ALL_FEATURES
  6
Continuous
 62
     7
100
AcDbLine
 10
206.278398163
 20
209.8658906089
 30
0.0
 11
208.6818100074
 21
214.0287220348
 31
0.0
  0
LINE
  5
35A
330
222
100
AcDbEntity
  8
0
  6
Continuous
 62
     7
100
AcDbLine
 10
227.3796683523
 20
220.5287220348
 30
0.0
 11
226.5796683523
 21
220.5287220348
 31
0.0
  0
LINE
  5
35B
330
222
100
AcDbEntity
  8
02___PRT_ALL_AXES
  6
Continuous
 62
     7
100
AcDbLine
 10
180.6796683523
 20
220.5287220348
 30
0.0
 11
181.1796683523
 21
220.5287220348
 31
0.0
  0
LINE
  5
35C
330
222
100
AcDbEntity
  8
7_ALL_FEATURES
  6
Continuous
 62
     7
100
AcDbLine
 10
226.8296683523
 20
220.7787220348
 30
0.0
 11
227.3796683523
 21
220.7787220348
 31
0.0
  0
LINE
  5
35D
330
222
100
AcDbEntity
  8
7_ALL_FEATURES
  6
Continuous
 62
     7
100
AcDbLine
 10
193.1796683523
 20
221.5861423258
 30
0.0
 11
195.3796683523
 21
221.5861423258
 31
0.0
  0
LINE
  5
35E
330
222
100
AcDbEntity
  8
7_ALL_FEATURES
  6
Continuous
 62
     7
100
AcDbLine
 10
197.3796683523
 20
221.5861423258
 30
0.0
 11
199.1796683523
 21
221.5861423258
 31
0.0
  0
LINE
  5
35F
330
222
100
AcDbEntity
  8
7_ALL_FEATURES
  6
Continuous
 62
     7
100
AcDbLine
 10
201.1796683523
 20
221.5861423258
 30
0.0
 11
202.9796683523
 21
221.5861423258
 31
0.0
  0
LINE
  5
360
330
222
100
AcDbEntity
  8
7_ALL_FEATURES
  6
Continuous
 62
     7
100
AcDbLine
 10
204.9796683523
 20
221.5861423258
 30
0.0
 11
206.7796683523
 21
221.5861423258
 31
0.0
  0
LINE
  5
361
330
222
100
AcDbEntity
  8
7_ALL_FEATURES
  6
Continuous
 62
     7
100
AcDbLine
 10
208.7796683523
 20
221.5861423258
 30
0.0
 11
216.4827285316
 21
221.5861423258
 31
0.0
  0
LINE
  5
362
330
222
100
AcDbEntity
  8
02___PRT_ALL_AXES
  6
Continuous
 62
     7
100
AcDbLine
 10
180.6796683523
 20
222.5287220348
 30
0.0
 11
181.1796683523
 21
222.5287220348
 31
0.0
  0
LINE
  5
363
330
222
100
AcDbEntity
  8
7_ALL_FEATURES
  6
Continuous
 62
     7
100
AcDbLine
 10
221.6796683523
 20
217.6834225732
 30
0.0
 11
220.6796683523
 21
217.106072304
 31
0.0
  0
LINE
  5
364
330
222
100
AcDbEntity
  8
7_ALL_FEATURES
  6
Continuous
 62
     7
100
AcDbLine
 10
221.6796683523
 20
215.3740214964
 30
0.0
 11
222.6796683523
 21
215.9513717656
 31
0.0
  0
LINE
  5
365
330
222
100
AcDbEntity
  8
7_ALL_FEATURES
  6
Continuous
 62
     7
100
AcDbLine
 10
226.0023180831
 20
224.0287220348
 30
0.0
 11
227.3796683523
 21
224.0287220348
 31
0.0
  0
LINE
  5
366
330
222
100
AcDbEntity
  8
02___PRT_ALL_AXES
  6
Continuous
 62
     7
100
AcDbLine
 10
193.1796683523
 20
225.5287220348
 30
0.0
 11
189.6796683523
 21
225.5287220348
 31
0.0
  0
LINE
  5
367
330
222
100
AcDbEntity
  8
02___PRT_ALL_AXES
  6
Continuous
 62
     7
100
AcDbLine
 10
186.6796683523
 20
225.5287220348
 30
0.0
 11
182.1796683523
 21
225.5287220348
 31
0.0
  0
LINE
  5
368
330
222
100
AcDbEntity
  8
02___PRT_ALL_AXES
  6
Continuous
 62
     7
100
AcDbLine
 10
180.6796683523
 20
227.0287220348
 30
0.0
 11
181.1796683523
 21
227.0287220348
 31
0.0
  0
LINE
  5
369
330
222
100
AcDbEntity
  8
7_ALL_FEATURES
  6
Continuous
 62
     7
100
AcDbLine
 10
220.6796683523
 20
215.9513717656
 30
0.0
 11
221.6796683523
 21
215.3740214964
 31
0.0
  0
LINE
  5
36A
330
222
100
AcDbEntity
  8
7_ALL_FEATURES
  6
Continuous
 62
     7
100
AcDbLine
 10
222.6796683523
 20
217.106072304
 30
0.0
 11
221.6796683523
 21
217.6834225732
 31
0.0
  0
LINE
  5
36B
330
222
100
AcDbEntity
  8
7_ALL_FEATURES
  6
Continuous
 62
     7
100
AcDbLine
 10
226.5796683523
 20
220.5287220348
 30
0.0
 11
227.3796683523
 21
221.3287220348
 31
0.0
  0
LINE
  5
36C
330
222
100
AcDbEntity
  8
02___PRT_ALL_AXES
  6
Continuous
 62
     7
100
AcDbLine
 10
189.6796683523
 20
227.5287220348
 30
0.0
 11
186.6796683523
 21
227.5287220348
 31
0.0
  0
LINE
  5
36D
330
222
100
AcDbEntity
  8
02___PRT_ALL_AXES
  6
Continuous
 62
     7
100
AcDbLine
 10
180.6796683523
 20
228.0287220348
 30
0.0
 11
181.1796683523
 21
228.0287220348
 31
0.0
  0
LINE
  5
36E
330
222
100
AcDbEntity
  8
02___PRT_ALL_AXES
  6
Continuous
 62
     7
100
AcDbLine
 10
180.6796683523
 20
228.5287220348
 30
0.0
 11
181.1796683523
 21
228.5287220348
 31
0.0
  0
LINE
  5
36F
330
222
100
AcDbEntity
  8
02___PRT_ALL_AXES
  6
Continuous
 62
     7
100
AcDbLine
 10
193.1796683523
 20
229.5287220348
 30
0.0
 11
189.6796683523
 21
229.5287220348
 31
0.0
  0
LINE
  5
370
330
222
100
AcDbEntity
  8
02___PRT_ALL_AXES
  6
Continuous
 62
     7
100
AcDbLine
 10
186.6796683523
 20
229.5287220348
 30
0.0
 11
182.1796683523
 21
229.5287220348
 31
0.0
  0
LINE
  5
371
330
222
100
AcDbEntity
  8
7_ALL_FEATURES
  6
Continuous
 62
     7
100
AcDbLine
 10
227.3796683523
 20
211.7287220348
 30
0.0
 11
226.5796683523
 21
212.5287220348
 31
0.0
  0
LINE
  5
372
330
222
100
AcDbEntity
  8
7_ALL_FEATURES
  6
Continuous
 62
     7
100
AcDbLine
 10
220.6796683523
 20
217.106072304
 30
0.0
 11
220.6796683523
 21
215.9513717656
 31
0.0
  0
LINE
  5
373
330
222
100
AcDbEntity
  8
02___PRT_ALL_AXES
  6
Continuous
 62
     7
100
AcDbLine
 10
208.7796683523
 20
232.5287220348
 30
0.0
 11
206.7796683523
 21
232.5287220348
 31
0.0
  0
LINE
  5
374
330
222
100
AcDbEntity
  8
02___PRT_ALL_AXES
  6
Continuous
 62
     7
100
AcDbLine
 10
204.9796683523
 20
232.5287220348
 30
0.0
 11
202.9796683523
 21
232.5287220348
 31
0.0
  0
LINE
  5
375
330
222
100
AcDbEntity
  8
02___PRT_ALL_AXES
  6
Continuous
 62
     7
100
AcDbLine
 10
201.1796683523
 20
232.5287220348
 30
0.0
 11
199.1796683523
 21
232.5287220348
 31
0.0
  0
LINE
  5
376
330
222
100
AcDbEntity
  8
7_ALL_FEATURES
  6
Continuous
 62
     7
100
AcDbLine
 10
197.3796683523
 20
232.5287220348
 30
0.0
 11
195.3796683523
 21
232.5287220348
 31
0.0
  0
LINE
  5
377
330
222
100
AcDbEntity
  8
7_ALL_FEATURES
  6
Continuous
 62
     7
100
AcDbLine
 10
222.6796683523
 20
215.9513717656
 30
0.0
 11
222.6796683523
 21
217.106072304
 31
0.0
  0
LINE
  5
378
330
222
100
AcDbEntity
  8
02___PRT_ALL_AXES
  6
Continuous
 62
     7
100
AcDbLine
 10
193.1796683523
 20
236.5287220348
 30
0.0
 11
195.3796683523
 21
236.5287220348
 31
0.0
  0
LINE
  5
379
330
222
100
AcDbEntity
  8
02___PRT_ALL_AXES
  6
Continuous
 62
     7
100
AcDbLine
 10
197.3796683523
 20
236.5287220348
 30
0.0
 11
199.1796683523
 21
236.5287220348
 31
0.0
  0
LINE
  5
37A
330
222
100
AcDbEntity
  8
02___PRT_ALL_AXES
  6
Continuous
 62
     7
100
AcDbLine
 10
201.1796683523
 20
236.5287220348
 30
0.0
 11
202.9796683523
 21
236.5287220348
 31
0.0
  0
LINE
  5
37B
330
222
100
AcDbEntity
  8
02___PRT_ALL_AXES
  6
Continuous
 62
     7
100
AcDbLine
 10
204.9796683523
 20
236.5287220348
 30
0.0
 11
206.7796683523
 21
236.5287220348
 31
0.0
  0
LINE
  5
37C
330
222
100
AcDbEntity
  8
02___PRT_ALL_AXES
  6
Continuous
 62
     7
100
AcDbLine
 10
208.7796683523
 20
236.5287220348
 30
0.0
 11
227.3796683523
 21
236.5287220348
 31
0.0
  0
LINE
  5
37D
330
222
100
AcDbEntity
  8
7_ALL_FEATURES
  6
Continuous
 62
     7
100
AcDbLine
 10
226.5796683523
 20
212.5287220348
 30
0.0
 11
226.5796683523
 21
220.5287220348
 31
0.0
  0
LINE
  5
37E
330
222
100
AcDbEntity
  8
0
  6
Continuous
 62
     7
100
AcDbLine
 10
227.3796683523
 20
189.0289460849
 30
0.0
 11
227.3796683523
 21
244.0284979847
 31
0.0
  0
LINE
  5
37F
330
222
100
AcDbEntity
  8
7_ALL_FEATURES
  6
Continuous
 62
     7
100
AcDbLine
 10
223.9188687993
 20
204.4200820202
 30
0.0
 11
205.9080349824
 21
173.2244027628
 31
0.0
  0
LINE
  5
380
330
222
100
AcDbEntity
  8
7_ALL_FEATURES
  6
Continuous
 62
     7
100
AcDbLine
 10
219.3627899874
 20
236.5287220348
 30
0.0
 11
205.9080349824
 21
259.8330413068
 31
0.0
  0
LINE
  5
381
330
222
100
AcDbEntity
  8
02___PRT_ALL_AXES
  6
Continuous
 62
     7
100
AcDbLine
 10
228.1796683523
 20
244.0284979847
 30
0.0
 11
228.1796683523
 21
189.0289460849
 31
0.0
  0
LINE
  5
382
330
222
100
AcDbEntity
  8
0
  6
Continuous
 62
     7
100
AcDbLine
 10
228.1796683523
 20
189.0289460849
 30
0.0
 11
228.1796683523
 21
244.0284979847
 31
0.0
  0
LINE
  5
383
330
222
100
AcDbEntity
  8
02___PRT_ALL_AXES
  6
Continuous
 62
     7
100
AcDbLine
 10
228.9796683523
 20
189.0289460849
 30
0.0
 11
228.9796683523
 21
244.0284979847
 31
0.0
  0
LINE
  5
384
330
222
100
AcDbEntity
  8
0
  6
Continuous
 62
     7
100
AcDbLine
 10
228.1796683523
 20
244.0287220348
 30
0.0
 11
227.3796683523
 21
244.0287220348
 31
0.0
  0
LINE
  5
385
330
222
100
AcDbEntity
  8
02___PRT_ALL_AXES
  6
Continuous
 62
     7
100
AcDbLine
 10
228.1796683523
 20
244.0287220348
 30
0.0
 11
228.9796683523
 21
244.0287220348
 31
0.0
  0
LINE
  5
386
330
222
100
AcDbEntity
  8
02___PRT_ALL_AXES
  6
Continuous
 62
     7
100
AcDbLine
 10
328.9208222415
 20
82.4600715214
 30
0.0
 11
329.1406392394
 21
82.3978600568
 31
0.0
  0
LINE
  5
387
330
222
100
AcDbEntity
  8
02___PRT_ALL_AXES
  6
Continuous
 62
     9
100
AcDbLine
 10
327.8898487212
 20
83.3642571738
 30
0.0
 11
328.1096657191
 21
83.3020457092
 31
0.0
  0
LINE
  5
388
330
222
100
AcDbEntity
  8
7_ALL_FEATURES
  6
Continuous
 62
     7
100
AcDbLine
 10
325.1361650866
 20
88.5981060759
 30
0.0
 11
327.8898487212
 21
83.3642571738
 31
0.0
  0
LINE
  5
389
330
222
100
AcDbEntity
  8
7_ALL_FEATURES
  6
Continuous
 62
     7
100
AcDbLine
 10
325.3559820845
 20
88.5358946113
 30
0.0
 11
328.1096657191
 21
83.3020457092
 31
0.0
  0
LINE
  5
38A
330
222
100
AcDbEntity
  8
02___PRT_ALL_AXES
  6
Continuous
 62
     7
100
AcDbLine
 10
342.7445789671
 20
142.1321020726
 30
0.0
 11
341.2484518217
 21
141.5634631101
 31
0.0
  0
LINE
  5
38B
330
222
100
AcDbEntity
  8
02___PRT_ALL_AXES
  6
Continuous
 62
     7
100
AcDbLine
 10
339.888336235
 20
141.0465185988
 30
0.0
 11
338.6642322069
 21
140.5812685387
 31
0.0
  0
LINE
  5
38C
330
222
100
AcDbEntity
  8
02___PRT_ALL_AXES
  6
Continuous
 62
     7
100
AcDbLine
 10
337.3041166202
 20
140.0643240273
 30
0.0
 11
336.0800125921
 21
139.5990739672
 31
0.0
  0
LINE
  5
38D
330
222
100
AcDbEntity
  8
02___PRT_ALL_AXES
  6
Continuous
 62
     7
100
AcDbLine
 10
334.7198970054
 20
139.0821294559
 30
0.0
 11
333.4957929773
 21
138.6168793957
 31
0.0
  0
LINE
  5
38E
330
222
100
AcDbEntity
  8
02___PRT_ALL_AXES
  6
Continuous
 62
     7
100
AcDbLine
 10
332.1356773906
 20
138.0999348844
 30
0.0
 11
331.5325150688
 21
137.8706885948
 31
0.0
  0
LINE
  5
38F
330
222
100
AcDbEntity
  8
02___PRT_ALL_AXES
  6
Continuous
 62
     7
100
AcDbLine
 10
359.9640782962
 20
136.9792567185
 30
0.0
 11
359.6240493996
 21
136.8500205907
 31
0.0
  0
LINE
  5
390
330
222
100
AcDbEntity
  8
7_ALL_FEATURES
  6
Continuous
 62
     7
100
AcDbLine
 10
332.3704926638
 20
86.5376248734
 30
0.0
 11
332.3372058059
 21
87.7810773939
 31
0.0
  0
LINE
  5
391
330
222
100
AcDbEntity
  8
02___PRT_ALL_AXES
  6
Continuous
 62
     7
100
AcDbLine
 10
361.2584494982
 20
135.6765803117
 30
0.0
 11
360.9184206016
 21
135.5473441839
 31
0.0
  0
LINE
  5
392
330
222
100
AcDbEntity
  8
7_ALL_FEATURES
  6
Continuous
 62
     7
100
AcDbLine
 10
346.7701420928
 20
111.3671595601
 30
0.0
 11
346.5423637079
 21
111.431624215
 31
0.0
  0
LINE
  5
393
330
222
100
AcDbEntity
  8
7_ALL_FEATURES
  6
Continuous
 62
     7
100
AcDbLine
 10
346.7409776216
 20
112.4566176112
 30
0.0
 11
346.4492472789
 21
112.539181617
 31
0.0
  0
LINE
  5
394
330
222
100
AcDbEntity
  8
7_ALL_FEATURES
  6
Continuous
 62
     7
100
AcDbLine
 10
346.7409776216
 20
112.4566176112
 30
0.0
 11
346.4419292557
 21
112.5798535546
 31
0.0
  0
LINE
  5
395
330
222
100
AcDbEntity
  8
02___PRT_ALL_AXES
  6
Continuous
 62
     7
100
AcDbLine
 10
360.5310601674
 20
132.7081687867
 30
0.0
 11
362.1799196112
 21
133.334857318
 31
0.0
  0
LINE
  5
396
330
222
100
AcDbEntity
  8
02___PRT_ALL_AXES
  6
Continuous
 62
     7
100
AcDbLine
 10
363.2757778201
 20
130.8920706555
 30
0.0
 11
362.9357489234
 21
130.7628345277
 31
0.0
  0
LINE
  5
397
330
222
100
AcDbEntity
  8
02___PRT_ALL_AXES
  6
Continuous
 62
     7
100
AcDbLine
 10
363.326292166
 20
129.0050739582
 30
0.0
 11
362.9862632694
 21
128.8758378304
 31
0.0
  0
LINE
  5
398
330
222
100
AcDbEntity
  8
7_ALL_FEATURES
  6
Continuous
 62
     7
100
AcDbLine
 10
343.1325902155
 20
123.8390007825
 30
0.0
 11
354.278569083
 21
156.9918742247
 31
0.0
  0
LINE
  5
399
330
222
100
AcDbEntity
  8
7_ALL_FEATURES
  6
Continuous
 62
     7
100
AcDbLine
 10
343.276270818
 20
123.5503273525
 30
0.0
 11
354.4983860809
 21
156.9296627601
 31
0.0
  0
LINE
  5
39A
330
222
100
AcDbEntity
  8
7_ALL_FEATURES
  6
Continuous
 62
     7
100
AcDbLine
 10
363.9006025494
 20
124.1959178288
 30
0.0
 11
362.404475404
 21
123.6272788664
 31
0.0
  0
LINE
  5
39B
330
222
100
AcDbEntity
  8
7_ALL_FEATURES
  6
Continuous
 62
     7
100
AcDbLine
 10
361.0443598173
 20
123.1103343551
 30
0.0
 11
359.8202557892
 21
122.6450842949
 31
0.0
  0
LINE
  5
39C
330
222
100
AcDbEntity
  8
7_ALL_FEATURES
  6
Continuous
 62
     7
100
AcDbLine
 10
358.4601402025
 20
122.1281397836
 30
0.0
 11
357.2360361745
 21
121.6628897234
 31
0.0
  0
LINE
  5
39D
330
222
100
AcDbEntity
  8
7_ALL_FEATURES
  6
Continuous
 62
     7
100
AcDbLine
 10
355.8759205877
 20
121.1459452121
 30
0.0
 11
354.6518165597
 21
120.6806951519
 31
0.0
  0
LINE
  5
39E
330
222
100
AcDbEntity
  8
7_ALL_FEATURES
  6
Continuous
 62
     7
100
AcDbLine
 10
346.7701420928
 20
111.3671595601
 30
0.0
 11
346.7409776216
 21
112.4566176112
 31
0.0
  0
LINE
  5
39F
330
222
100
AcDbEntity
  8
7_ALL_FEATURES
  6
Continuous
 62
     7
100
AcDbLine
 10
346.5667579633
 20
111.1216833867
 30
0.0
 11
346.7701420928
 21
111.3671595601
 31
0.0
  0
LINE
  5
3A0
330
222
100
AcDbEntity
  8
0
  6
Continuous
 62
     9
100
AcDbLine
 10
346.1980110299
 20
108.6876430671
 30
0.0
 11
346.7420572646
 21
108.8944208716
 31
0.0
  0
LINE
  5
3A1
330
222
100
AcDbEntity
  8
7_ALL_FEATURES
  6
Continuous
 62
     7
100
AcDbLine
 10
364.1560748275
 20
114.6525824428
 30
0.0
 11
362.6599476821
 21
114.0839434804
 31
0.0
  0
LINE
  5
3A2
330
222
100
AcDbEntity
  8
7_ALL_FEATURES
  6
Continuous
 62
     7
100
AcDbLine
 10
361.2998320954
 20
113.5669989691
 30
0.0
 11
360.0757280673
 21
113.1017489089
 31
0.0
  0
LINE
  5
3A3
330
222
100
AcDbEntity
  8
7_ALL_FEATURES
  6
Continuous
 62
     7
100
AcDbLine
 10
358.7156124806
 20
112.5848043976
 30
0.0
 11
357.4915084525
 21
112.1195543374
 31
0.0
  0
LINE
  5
3A4
330
222
100
AcDbEntity
  8
7_ALL_FEATURES
  6
Continuous
 62
     7
100
AcDbLine
 10
356.1313928658
 20
111.6026098261
 30
0.0
 11
354.9072888377
 21
111.1373597659
 31
0.0
  0
LINE
  5
3A5
330
222
100
AcDbEntity
  8
7_ALL_FEATURES
  6
Continuous
 62
     7
100
AcDbLine
 10
353.547173251
 20
110.6204152546
 30
0.0
 11
348.7354965062
 21
108.7916222405
 31
0.0
  0
LINE
  5
3A6
330
222
100
AcDbEntity
  8
7_ALL_FEATURES
  6
Continuous
 62
     7
100
AcDbLine
 10
353.3758593448
 20
117.0199591703
 30
0.0
 11
353.547173251
 21
110.6204152546
 31
0.0
  0
LINE
  5
3A7
330
222
100
AcDbEntity
  8
7_ALL_FEATURES
  6
Continuous
 62
     7
100
AcDbLine
 10
354.6518165597
 20
120.6806951519
 30
0.0
 11
354.9072888377
 21
111.1373597659
 31
0.0
  0
LINE
  5
3A8
330
222
100
AcDbEntity
  8
7_ALL_FEATURES
  6
Continuous
 62
     7
100
AcDbLine
 10
355.1719781096
 20
122.2627508785
 30
0.0
 11
353.6426605075
 21
117.7139110218
 31
0.0
  0
LINE
  5
3A9
330
222
100
AcDbEntity
  8
7_ALL_FEATURES
  6
Continuous
 62
     7
100
AcDbLine
 10
355.8759205877
 20
121.1459452121
 30
0.0
 11
356.1313928658
 21
111.6026098261
 31
0.0
  0
LINE
  5
3AA
330
222
100
AcDbEntity
  8
7_ALL_FEATURES
  6
Continuous
 62
     7
100
AcDbLine
 10
357.2360361745
 20
121.6628897234
 30
0.0
 11
357.4915084525
 21
112.1195543374
 31
0.0
  0
LINE
  5
3AB
330
222
100
AcDbEntity
  8
02___PRT_ALL_AXES
  6
Continuous
 62
     7
100
AcDbLine
 10
356.9557056822
 20
104.7416771287
 30
0.0
 11
355.4595785368
 21
104.1730381662
 31
0.0
  0
LINE
  5
3AC
330
222
100
AcDbEntity
  8
02___PRT_ALL_AXES
  6
Continuous
 62
     7
100
AcDbLine
 10
354.0994629501
 20
103.6560936549
 30
0.0
 11
352.875358922
 21
103.1908435947
 31
0.0
  0
LINE
  5
3AD
330
222
100
AcDbEntity
  8
02___PRT_ALL_AXES
  6
Continuous
 62
     7
100
AcDbLine
 10
351.5152433353
 20
102.6738990834
 30
0.0
 11
350.2911393072
 21
102.2086490232
 31
0.0
  0
LINE
  5
3AE
330
222
100
AcDbEntity
  8
02___PRT_ALL_AXES
  6
Continuous
 62
     7
100
AcDbLine
 10
348.9310237205
 20
101.6917045119
 30
0.0
 11
347.7069196924
 21
101.2264544518
 31
0.0
  0
LINE
  5
3AF
330
222
100
AcDbEntity
  8
02___PRT_ALL_AXES
  6
Continuous
 62
     7
100
AcDbLine
 10
346.3468041057
 20
100.7095099405
 30
0.0
 11
345.7427042255
 21
100.4799073093
 31
0.0
  0
LINE
  5
3B0
330
222
100
AcDbEntity
  8
7_ALL_FEATURES
  6
Continuous
 62
     7
100
AcDbLine
 10
358.4601402025
 20
122.1281397836
 30
0.0
 11
358.7156124806
 21
112.5848043976
 31
0.0
  0
LINE
  5
3B1
330
222
100
AcDbEntity
  8
7_ALL_FEATURES
  6
Continuous
 62
     7
100
AcDbLine
 10
358.8448692284
 20
156.9654979909
 30
0.0
 11
359.096072199
 21
147.5816453989
 31
0.0
  0
LINE
  5
3B2
330
222
100
AcDbEntity
  8
7_ALL_FEATURES
  6
Continuous
 62
     7
100
AcDbLine
 10
359.8202557892
 20
122.6450842949
 30
0.0
 11
360.0757280673
 21
113.1017489089
 31
0.0
  0
LINE
  5
3B3
330
222
100
AcDbEntity
  8
7_ALL_FEATURES
  6
Continuous
 62
     7
100
AcDbLine
 10
361.0443598173
 20
123.1103343551
 30
0.0
 11
361.2998320954
 21
113.5669989691
 31
0.0
  0
LINE
  5
3B4
330
222
100
AcDbEntity
  8
7_ALL_FEATURES
  6
Continuous
 62
     7
100
AcDbLine
 10
362.404475404
 20
123.6272788664
 30
0.0
 11
362.6599476821
 21
114.0839434804
 31
0.0
  0
LINE
  5
3B5
330
222
100
AcDbEntity
  8
7_ALL_FEATURES
  6
Continuous
 62
     7
100
AcDbLine
 10
363.9006025494
 20
124.1959178288
 30
0.0
 11
364.1560748275
 21
114.6525824428
 31
0.0
  0
LINE
  5
3B6
330
222
100
AcDbEntity
  8
02___PRT_ALL_AXES
  6
Continuous
 62
     7
100
AcDbLine
 10
361.2665193126
 20
135.0773257519
 30
0.0
 11
360.9184206016
 21
135.5473441839
 31
0.0
  0
LINE
  5
3B7
330
222
100
AcDbEntity
  8
02___PRT_ALL_AXES
  6
Continuous
 62
     9
100
AcDbLine
 10
354.4983860809
 20
156.9296627601
 30
0.0
 11
354.278569083
 21
156.9918742247
 31
0.0
  0
LINE
  5
3B8
330
222
100
AcDbEntity
  8
02___PRT_ALL_AXES
  6
Continuous
 62
     7
100
AcDbLine
 10
357.4620790763
 20
159.352117117
 30
0.0
 11
357.2422620784
 21
159.4143285816
 31
0.0
  0
CIRCLE
  5
3B9
330
222
100
AcDbEntity
  8
02___PRT_ALL_AXES
  6
Continuous
 62
     7
100
AcDbCircle
 10
74.6483575994
 20
216.5287220348
 30
0.0
 40
27.5
  0
CIRCLE
  5
3BA
330
222
100
AcDbEntity
  8
7_ALL_FEATURES
  6
Continuous
 62
     7
100
AcDbCircle
 10
74.6483575994
 20
216.5287220348
 30
0.0
 40
10.25
  0
ARC
  5
3BB
330
222
100
AcDbEntity
  8
02___PRT_ALL_AXES
  6
Continuous
 62
     7
100
AcDbCircle
 10
71.1483575994
 20
98.5676735618
 30
0.0
 40
3.5
100
AcDbArc
 50
90.0
 51
168.4316348941
  0
ARC
  5
3BC
330
222
100
AcDbEntity
  8
02___PRT_ALL_AXES
  6
Continuous
 62
     7
100
AcDbCircle
 10
78.1483575994
 20
98.5676735618
 30
0.0
 40
3.5
100
AcDbArc
 50
11.5683651059
 51
90.0
  0
ARC
  5
3BD
330
222
100
AcDbEntity
  8
02___PRT_ALL_AXES
  6
Continuous
 62
     7
100
AcDbCircle
 10
55.830261009
 20
57.6281029407
 30
0.0
 40
2.95
100
AcDbArc
 50
114.2560242099
 51
147.2801100732
  0
ARC
  5
3BE
330
222
100
AcDbEntity
  8
02___PRT_ALL_AXES
  6
Continuous
 62
     7
100
AcDbCircle
 10
55.830261009
 20
57.5072441829
 30
0.0
 40
2.95
100
AcDbArc
 50
212.7198899268
 51
245.7439757901
  0
ARC
  5
3BF
330
222
100
AcDbEntity
  8
02___PRT_ALL_AXES
  6
Continuous
 62
     7
100
AcDbCircle
 10
93.4664541899
 20
57.6281029407
 30
0.0
 40
2.95
100
AcDbArc
 50
32.7198899268
 51
65.7439757901
  0
ARC
  5
3C0
330
222
100
AcDbEntity
  8
02___PRT_ALL_AXES
  6
Continuous
 62
     7
100
AcDbCircle
 10
93.4664541899
 20
57.5072441829
 30
0.0
 40
2.95
100
AcDbArc
 50
294.2560242099
 51
327.2801100731999
  0
ARC
  5
3C1
330
222
100
AcDbEntity
  8
0
  6
Continuous
 62
     7
100
AcDbCircle
 10
94.8483575994
 20
52.7676735618
 30
0.0
 40
0.9
100
AcDbArc
 50
231.9494904279
 51
270.0
  0
ARC
  5
3C2
330
222
100
AcDbEntity
  8
0
  6
Continuous
 62
     7
100
AcDbCircle
 10
54.4483575994
 20
52.7676735618
 30
0.0
 40
0.9
100
AcDbArc
 50
270.0
 51
308.0505095721001
  0
ARC
  5
3C3
330
222
100
AcDbEntity
  8
7_ALL_FEATURES
  6
Continuous
 62
     7
100
AcDbCircle
 10
249.5796683523
 20
248.1915534607
 30
0.0
 40
50.0
100
AcDbArc
 50
180.0
 51
194.4512358191
  0
ARC
  5
3C4
330
222
100
AcDbEntity
  8
7_ALL_FEATURES
  6
Continuous
 62
     7
100
AcDbCircle
 10
249.5796683523
 20
184.8658906089
 30
0.0
 40
50.0
100
AcDbArc
 50
150.0
 51
180.0
  0
ARC
  5
3C5
330
222
100
AcDbEntity
  8
7_ALL_FEATURES
  6
Continuous
 62
     7
100
AcDbCircle
 10
226.0023180831
 20
204.0287220348
 30
0.0
 40
20.0
100
AcDbArc
 50
90.0
 51
150.0
  0
ARC
  5
3C6
330
222
100
AcDbEntity
  8
7_ALL_FEATURES
  6
Continuous
 62
     7
100
AcDbCircle
 10
241.2393768749
 20
194.4200820202
 30
0.0
 40
20.0
100
AcDbArc
 50
133.9030972608
 51
150.0
  0
ARC
  5
3C7
330
222
100
AcDbEntity
  8
02___PRT_ALL_AXES
  6
Continuous
 62
     7
100
AcDbCircle
 10
180.6796683523
 20
225.0287220348
 30
0.0
 40
3.5
100
AcDbArc
 50
90.0
 51
180.0
  0
ARC
  5
3C8
330
222
100
AcDbEntity
  8
02___PRT_ALL_AXES
  6
Continuous
 62
     7
100
AcDbCircle
 10
180.6796683523
 20
218.0287220348
 30
0.0
 40
3.5
100
AcDbArc
 50
180.0
 51
270.0
  0
ARC
  5
3C9
330
222
100
AcDbEntity
  8
7_ALL_FEATURES
  6
Continuous
 62
     7
100
AcDbCircle
 10
180.6796683523
 20
218.0287220348
 30
0.0
 40
3.5
100
AcDbArc
 50
180.0
 51
270.0
  0
ARC
  5
3CA
330
222
100
AcDbEntity
  8
7_ALL_FEATURES
  6
Continuous
 62
     7
100
AcDbCircle
 10
180.6796683523
 20
225.0287220348
 30
0.0
 40
3.5
100
AcDbArc
 50
90.0
 51
180.0
  0
ARC
  5
3CB
330
222
100
AcDbEntity
  8
02___PRT_ALL_AXES
  6
Continuous
 62
     7
100
AcDbCircle
 10
202.9710298082
 20
258.1373605789
 30
0.0
 40
3.3913614559
100
AcDbArc
 50
30.0
 51
180.0
  0
ARC
  5
3CC
330
222
100
AcDbEntity
  8
02___PRT_ALL_AXES
  6
Continuous
 62
     7
100
AcDbCircle
 10
202.9710298082
 20
174.9200834907
 30
0.0
 40
3.3913614559
100
AcDbArc
 50
180.0
 51
330.0
  0
CIRCLE
  5
3CD
330
222
100
AcDbEntity
  8
02___PRT_ALL_AXES
  6
Continuous
 62
     7
100
AcDbCircle
 10
221.6796683523
 20
216.5287220348
 30
0.0
 40
2.75
  0
CIRCLE
  5
3CE
330
222
100
AcDbEntity
  8
02___PRT_ALL_AXES
  6
Continuous
 62
     7
100
AcDbCircle
 10
221.6796683523
 20
216.5287220348
 30
0.0
 40
1.655
  0
ARC
  5
3CF
330
222
100
AcDbEntity
  8
0
  6
Continuous
 62
     7
100
AcDbCircle
 10
306.3436082853
 20
106.9047107709
 30
0.0
 40
39.9458151149
100
AcDbArc
 50
13.3502183227
 51
23.6764355255
  0
ARC
  5
3D0
330
222
100
AcDbEntity
  8
02___PRT_ALL_AXES
  6
Continuous
 62
     7
100
AcDbCircle
 10
306.4946000075
 20
106.9552706662
 30
0.0
 40
39.7872318792
100
AcDbArc
 50
13.3297907123
 51
23.69707116129999
  0
ARC
  5
3D1
330
222
100
AcDbEntity
  8
0
  6
Continuous
 62
     7
100
AcDbCircle
 10
308.0153985167
 20
107.4063835161
 30
0.0
 40
38.7804620571
100
AcDbArc
 50
12.7753341601
 51
12.9633758906
  0
ARC
  5
3D2
330
222
100
AcDbEntity
  8
0
  6
Continuous
 62
     7
100
AcDbCircle
 10
308.1192856473
 20
107.3448443022
 30
0.0
 40
38.1164984964
100
AcDbArc
 50
7.4296980932
 51
13.3228136375
  0
ARC
  5
3D3
330
222
100
AcDbEntity
  8
0
  6
Continuous
 62
     7
100
AcDbCircle
 10
310.6711023206
 20
107.6955783298
 30
0.0
 40
35.5407573764
100
AcDbArc
 50
1.5995299658
 51
7.4009782876
  0
ARC
  5
3D4
330
222
100
AcDbEntity
  8
7_ALL_FEATURES
  6
Continuous
 62
     7
100
AcDbCircle
 10
330.118610471
 20
115.9404329601
 30
0.0
 40
29.0091368926
100
AcDbArc
 50
12.3159282298
 51
23.5316940316
  0
ARC
  5
3D5
330
222
100
AcDbEntity
  8
7_ALL_FEATURES
  6
Continuous
 62
     7
100
AcDbCircle
 10
331.5556020088
 20
116.4846868986
 30
0.0
 40
28.9282068129
100
AcDbArc
 50
12.295561233
 51
27.2706250077
  0
ARC
  5
3D6
330
222
100
AcDbEntity
  8
7_ALL_FEATURES
  6
Continuous
 62
     7
100
AcDbCircle
 10
329.1810778338
 20
115.5585915175
 30
0.0
 40
28.711376562
100
AcDbArc
 50
12.2752926233
 51
20.03779193860001
  0
ARC
  5
3D7
330
222
100
AcDbEntity
  8
7_ALL_FEATURES
  6
Continuous
 62
     7
100
AcDbCircle
 10
327.9484353892
 20
115.0706113012
 30
0.0
 40
28.5806597482
100
AcDbArc
 50
12.2728866728
 51
16.0507916595
  0
ARC
  5
3D8
330
222
100
AcDbEntity
  8
0
  6
Continuous
 62
     7
100
AcDbCircle
 10
331.1256521481
 20
100.9813773034
 30
0.0
 40
13.1624417681
100
AcDbArc
 50
293.40005177
 51
302.6958618329
  0
ARC
  5
3D9
330
222
100
AcDbEntity
  8
02___PRT_ALL_AXES
  6
Continuous
 62
     7
100
AcDbCircle
 10
330.6537205217
 20
100.626734587
 30
0.0
 40
12.9981000301
100
AcDbArc
 50
293.3671718387
 51
295.9192590494
  0
ARC
  5
3DA
330
222
100
AcDbEntity
  8
02___PRT_ALL_AXES
  6
Continuous
 62
     7
100
AcDbCircle
 10
331.2206730388
 20
100.7810056551
 30
0.0
 40
12.9408146563
100
AcDbArc
 50
290.8120081215
 51
293.3662764638
  0
ARC
  5
3DB
330
222
100
AcDbEntity
  8
02___PRT_ALL_AXES
  6
Continuous
 62
     7
100
AcDbCircle
 10
330.6766268041
 20
100.5742278506
 30
0.0
 40
12.9408146562
100
AcDbArc
 50
290.8120081215
 51
293.3662764638
  0
ARC
  5
3DC
330
222
100
AcDbEntity
  8
0
  6
Continuous
 62
     7
100
AcDbCircle
 10
331.2206730388
 20
100.781005655
 30
0.0
 40
12.9408146561
100
AcDbArc
 50
290.8120081215
 51
293.3662764638
  0
ARC
  5
3DD
330
222
100
AcDbEntity
  8
7_ALL_FEATURES
  6
Continuous
 62
     7
100
AcDbCircle
 10
327.965361714
 20
109.3507241529
 30
0.0
 40
4.8580094452
100
AcDbArc
 50
283.9588398917
 51
288.465497849
  0
ARC
  5
3DE
330
222
100
AcDbEntity
  8
7_ALL_FEATURES
  6
Continuous
 62
     7
100
AcDbCircle
 10
324.1341211673
 20
119.4321564741
 30
0.0
 40
4.8572041743
100
AcDbArc
 50
115.3850733958
 51
117.6031703012
  0
ARC
  5
3DF
330
222
100
AcDbEntity
  8
02___PRT_ALL_AXES
  6
Continuous
 62
     7
100
AcDbCircle
 10
329.9711501659
 20
84.4585717147
 30
0.0
 40
2.3514548727
100
AcDbArc
 50
207.7346655956
 51
212.2391702888
  0
ARC
  5
3E0
330
222
100
AcDbEntity
  8
02___PRT_ALL_AXES
  6
Continuous
 62
     7
100
AcDbCircle
 10
329.5409490398
 20
83.7998999209
 30
0.0
 40
1.4582388656
100
AcDbArc
 50
243.4583590701
 51
245.1213789365
  0
ARC
  5
3E1
330
222
100
AcDbEntity
  8
02___PRT_ALL_AXES
  6
Continuous
 62
     7
100
AcDbCircle
 10
329.5331975681
 20
83.782895488
 30
0.0
 40
1.4395514078
100
AcDbArc
 50
245.1165400593
 51
254.1771702256
  0
ARC
  5
3E2
330
222
100
AcDbEntity
  8
0
  6
Continuous
 62
     7
100
AcDbCircle
 10
320.9158266171
 20
127.8728493633
 30
0.0
 40
13.0738995458
100
AcDbArc
 50
99.9990867882
 51
108.24675295
  0
ARC
  5
3E3
330
222
100
AcDbEntity
  8
02___PRT_ALL_AXES
  6
Continuous
 62
     7
100
AcDbCircle
 10
320.3505346361
 20
127.734697726
 30
0.0
 40
13.0020719276
100
AcDbArc
 50
105.6978561596
 51
108.2525260981
  0
ARC
  5
3E4
330
222
100
AcDbEntity
  8
02___PRT_ALL_AXES
  6
Continuous
 62
     7
100
AcDbCircle
 10
320.8780262356
 20
127.9922410121
 30
0.0
 40
12.9486756907
100
AcDbArc
 50
108.2533152369
 51
110.8104323387
  0
ARC
  5
3E5
330
222
100
AcDbEntity
  8
02___PRT_ALL_AXES
  6
Continuous
 62
     7
100
AcDbCircle
 10
320.333980001
 20
127.7854632075
 30
0.0
 40
12.9486756907
100
AcDbArc
 50
108.2533152369
 51
110.8104323387
  0
ARC
  5
3E6
330
222
100
AcDbEntity
  8
0
  6
Continuous
 62
     7
100
AcDbCircle
 10
320.8780262357
 20
127.992241012
 30
0.0
 40
12.9486756908
100
AcDbArc
 50
108.2533152369
 51
110.8104323387
  0
ARC
  5
3E7
330
222
100
AcDbEntity
  8
7_ALL_FEATURES
  6
Continuous
 62
     7
100
AcDbCircle
 10
332.8449127053
 20
116.9721500648
 30
0.0
 40
28.8597665238
100
AcDbArc
 50
12.280040984
 51
30.6150381223
  0
ARC
  5
3E8
330
222
100
AcDbEntity
  8
7_ALL_FEATURES
  6
Continuous
 62
     7
100
AcDbCircle
 10
342.9738756476
 20
109.5746884169
 30
0.0
 40
9.4851460247
100
AcDbArc
 50
290.832826901
 51
299.5710954615
  0
ARC
  5
3E9
330
222
100
AcDbEntity
  8
7_ALL_FEATURES
  6
Continuous
 62
     7
100
AcDbCircle
 10
350.726534492
 20
112.5212721314
 30
0.0
 40
9.4851460247
100
AcDbArc
 50
290.832826901
 51
299.5710954615
  0
ARC
  5
3EA
330
222
100
AcDbEntity
  8
7_ALL_FEATURES
  6
Continuous
 62
     7
100
AcDbCircle
 10
345.5580952624
 20
110.5568829884
 30
0.0
 40
9.4851460247
100
AcDbArc
 50
290.832826901
 51
299.5710954615
  0
ARC
  5
3EB
330
222
100
AcDbEntity
  8
7_ALL_FEATURES
  6
Continuous
 62
     7
100
AcDbCircle
 10
348.1423148772
 20
111.5390775599
 30
0.0
 40
9.4851460247
100
AcDbArc
 50
290.832826901
 51
299.5710954615
  0
ARC
  5
3EC
330
222
100
AcDbEntity
  8
7_ALL_FEATURES
  6
Continuous
 62
     7
100
AcDbCircle
 10
352.0976728786
 20
113.0157801415
 30
0.0
 40
9.4602564847
100
AcDbArc
 50
290.8187590571
 51
300.460590983
  0
ARC
  5
3ED
330
222
100
AcDbEntity
  8
7_ALL_FEATURES
  6
Continuous
 62
     7
100
AcDbCircle
 10
344.3516780421
 20
110.0530681622
 30
0.0
 40
9.4428127824
100
AcDbArc
 50
290.8157451567001
 51
298.7116460033
  0
ARC
  5
3EE
330
222
100
AcDbEntity
  8
7_ALL_FEATURES
  6
Continuous
 62
     7
100
AcDbCircle
 10
346.9358976569
 20
111.0352627336
 30
0.0
 40
9.4428127824
100
AcDbArc
 50
290.8157451567001
 51
298.7116460033
  0
ARC
  5
3EF
330
222
100
AcDbEntity
  8
7_ALL_FEATURES
  6
Continuous
 62
     7
100
AcDbCircle
 10
349.5201172717
 20
112.0174573051
 30
0.0
 40
9.4428127824
100
AcDbArc
 50
290.8157451567001
 51
298.7116460033
  0
ARC
  5
3F0
330
222
100
AcDbEntity
  8
7_ALL_FEATURES
  6
Continuous
 62
     7
100
AcDbCircle
 10
352.1068646593
 20
112.9967203343
 30
0.0
 40
9.4391744009
100
AcDbArc
 50
285.9564902381
 51
290.8077265908
  0
ARC
  5
3F1
330
222
100
AcDbEntity
  8
7_ALL_FEATURES
  6
Continuous
 62
     7
100
AcDbCircle
 10
349.5226450445
 20
112.0145257628
 30
0.0
 40
9.4391744009
100
AcDbArc
 50
285.9564902381
 51
290.8077265908
  0
ARC
  5
3F2
330
222
100
AcDbEntity
  8
7_ALL_FEATURES
  6
Continuous
 62
     7
100
AcDbCircle
 10
344.3542058149
 20
110.0501366198
 30
0.0
 40
9.4391744009
100
AcDbArc
 50
285.9564902381
 51
290.8077265908
  0
ARC
  5
3F3
330
222
100
AcDbEntity
  8
7_ALL_FEATURES
  6
Continuous
 62
     7
100
AcDbCircle
 10
346.9384254297
 20
111.0323311913
 30
0.0
 40
9.4391744009
100
AcDbArc
 50
285.9564902381
 51
290.8077265908
  0
ARC
  5
3F4
330
222
100
AcDbEntity
  8
7_ALL_FEATURES
  6
Continuous
 62
     7
100
AcDbCircle
 10
344.6472329643
 20
132.5516275124
 30
0.0
 40
9.6329845315
100
AcDbArc
 50
100.4032713134
 51
101.1749011928
  0
ARC
  5
3F5
330
222
100
AcDbEntity
  8
7_ALL_FEATURES
  6
Continuous
 62
     7
100
AcDbCircle
 10
344.6197493774
 20
132.6813241261
 30
0.0
 40
9.5004206761
100
AcDbArc
 50
101.1638846104
 51
110.787256727
  0
ARC
  5
3F6
330
222
100
AcDbEntity
  8
7_ALL_FEATURES
  6
Continuous
 62
     7
100
AcDbCircle
 10
342.0280398522
 20
131.7235507916
 30
0.0
 40
9.4749311327
100
AcDbArc
 50
102.9076908819
 51
110.7973234516
  0
ARC
  5
3F7
330
222
100
AcDbEntity
  8
7_ALL_FEATURES
  6
Continuous
 62
     7
100
AcDbCircle
 10
336.8596006226
 20
129.7591616487
 30
0.0
 40
9.4749311327
100
AcDbArc
 50
102.9076908819
 51
110.7973234516
  0
ARC
  5
3F8
330
222
100
AcDbEntity
  8
7_ALL_FEATURES
  6
Continuous
 62
     7
100
AcDbCircle
 10
339.4438202374
 20
130.7413562201
 30
0.0
 40
9.4749311327
100
AcDbArc
 50
102.9076908819
 51
110.7973234517
  0
ARC
  5
3F9
330
222
100
AcDbEntity
  8
7_ALL_FEATURES
  6
Continuous
 62
     7
100
AcDbCircle
 10
343.2473221736
 20
132.205800329
 30
0.0
 40
9.4573274154
100
AcDbArc
 50
102.0208985015
 51
110.8065827588
  0
ARC
  5
3FA
330
222
100
AcDbEntity
  8
7_ALL_FEATURES
  6
Continuous
 62
     7
100
AcDbCircle
 10
340.6631025588
 20
131.2236057575
 30
0.0
 40
9.4573274154
100
AcDbArc
 50
102.0208985015
 51
110.8065827588
  0
ARC
  5
3FB
330
222
100
AcDbEntity
  8
7_ALL_FEATURES
  6
Continuous
 62
     7
100
AcDbCircle
 10
338.078882944
 20
130.241411186
 30
0.0
 40
9.4573274154
100
AcDbArc
 50
102.0208985015
 51
110.8065827588
  0
ARC
  5
3FC
330
222
100
AcDbEntity
  8
7_ALL_FEATURES
  6
Continuous
 62
     7
100
AcDbCircle
 10
335.4946633292
 20
129.2592166145
 30
0.0
 40
9.4573274154
100
AcDbArc
 50
102.0208985015
 51
110.8065827588
  0
ARC
  5
3FD
330
222
100
AcDbEntity
  8
7_ALL_FEATURES
  6
Continuous
 62
     7
100
AcDbCircle
 10
344.5962007017
 20
132.7558501366
 30
0.0
 40
9.4223896043
100
AcDbArc
 50
110.8142156637
 51
114.8307540496
  0
ARC
  5
3FE
330
222
100
AcDbEntity
  8
7_ALL_FEATURES
  6
Continuous
 62
     7
100
AcDbCircle
 10
342.0119810869
 20
131.7736555651
 30
0.0
 40
9.4223896043
100
AcDbArc
 50
110.8142156637
 51
114.8307540496
  0
ARC
  5
3FF
330
222
100
AcDbEntity
  8
7_ALL_FEATURES
  6
Continuous
 62
     7
100
AcDbCircle
 10
339.4277614721
 20
130.7914609936
 30
0.0
 40
9.4223896043
100
AcDbArc
 50
110.8142156638
 51
114.8307540496
  0
ARC
  5
400
330
222
100
AcDbEntity
  8
7_ALL_FEATURES
  6
Continuous
 62
     7
100
AcDbCircle
 10
336.8435418573
 20
129.8092664222
 30
0.0
 40
9.4223896043
100
AcDbArc
 50
110.8142156637
 51
114.8307540496
  0
ARC
  5
401
330
222
100
AcDbEntity
  8
02___PRT_ALL_AXES
  6
Continuous
 62
     7
100
AcDbCircle
 10
357.5418788105
 20
132.5906042472
 30
0.0
 40
5.6795147289
100
AcDbArc
 50
74.1895548175
 51
78.5465075115
  0
ARC
  5
402
330
222
100
AcDbEntity
  8
02___PRT_ALL_AXES
  6
Continuous
 62
     7
100
AcDbCircle
 10
357.0717907428
 20
157.9721736644
 30
0.0
 40
1.4340542727
100
AcDbArc
 50
74.224873833
 51
83.08589973069999
  0
SPLINE
  5
403
330
222
100
AcDbEntity
  8
02___PRT_ALL_AXES
  6
Continuous
 62
     7
100
AcDbSpline
 70
     0
 71
     3
 72
    11
 73
     7
 74
     0
 42
0.000000001
 43
0.0000001
 40
0.0
 40
0.0
 40
0.0
 40
0.0
 40
0.2528641712
 40
0.5038317346
 40
0.7528115376
 40
1.0
 40
1.0
 40
1.0
 40
1.0
 10
74.6483575994
 20
97.0676735618
 30
0.0
 10
74.4441113025
 20
97.1855952163
 30
0.0
 10
74.030284039
 20
97.409006094
 30
0.0
 10
73.3893725145
 20
97.6975950963
 30
0.0
 10
72.7300135822
 20
97.9262844896
 30
0.0
 10
72.2777569004
 20
98.0301498337
 30
0.0
 10
72.0502813881
 20
98.0676735618
 30
0.0
  0
SPLINE
  5
404
330
222
100
AcDbEntity
  8
02___PRT_ALL_AXES
  6
Continuous
 62
     7
100
AcDbSpline
 70
     0
 71
     3
 72
    11
 73
     7
 74
     0
 42
0.000000001
 43
0.0000001
 40
0.0
 40
0.0
 40
0.0
 40
0.0
 40
0.2528641712
 40
0.5038317346
 40
0.7528115376
 40
1.0
 40
1.0
 40
1.0
 40
1.0
 10
81.5765608297
 20
97.0676735618
 30
0.0
 10
81.3723145328
 20
97.1855952163
 30
0.0
 10
80.9584872692
 20
97.409006094
 30
0.0
 10
80.3175757447
 20
97.6975950963
 30
0.0
 10
79.6582168125
 20
97.9262844896
 30
0.0
 10
79.2059601307
 20
98.0301498337
 30
0.0
 10
78.9784846184
 20
98.0676735618
 30
0.0
  0
SPLINE
  5
405
330
222
100
AcDbEntity
  8
02___PRT_ALL_AXES
  6
Continuous
 62
     7
100
AcDbSpline
 70
     0
 71
     3
 72
    11
 73
     7
 74
     0
 42
0.000000001
 43
0.0000001
 40
0.0
 40
0.0
 40
0.0
 40
0.0
 40
0.2471884812
 40
0.4961682871
 40
0.7471358372
 40
1.0
 40
1.0
 40
1.0
 40
1.0
 10
77.2464338108
 20
98.0676735618
 30
0.0
 10
77.0189582812
 20
98.0301498309
 30
0.0
 10
76.5667015799
 20
97.9262844805
 30
0.0
 10
75.9073426429
 20
97.6975950772
 30
0.0
 10
75.2664311364
 20
97.4090060785
 30
0.0
 10
74.8526038896
 20
97.1855952124
 30
0.0
 10
74.6483575994
 20
97.0676735618
 30
0.0
  0
SPLINE
  5
406
330
222
100
AcDbEntity
  8
02___PRT_ALL_AXES
  6
Continuous
 62
     7
100
AcDbSpline
 70
     0
 71
     3
 72
    19
 73
    15
 74
     0
 42
0.000000001
 43
0.0000001
 40
0.0
 40
0.0
 40
0.0
 40
0.0
 40
0.067939647
 40
0.1343369129
 40
0.1986396402
 40
0.2610648807
 40
0.3817414899
 40
0.5000607139
 40
0.6183763092
 40
0.739024176
 40
0.8014382043
 40
0.865725454
 40
0.9320917545
 40
1.0
 40
1.0
 40
1.0
 40
1.0
 10
78.9784846184
 20
98.5676735618
 30
0.0
 10
78.9784846184
 20
98.6235592123
 30
0.0
 10
78.9620977815
 20
98.7347041772
 30
0.0
 10
78.8939230012
 20
98.8851640644
 30
0.0
 10
78.7945099664
 20
99.010850828
 30
0.0
 10
78.6370660848
 20
99.1415926616
 30
0.0
 10
78.4070748702
 20
99.2462329665
 30
0.0
 10
78.1123096492
 20
99.2862114509
 30
0.0
 10
77.8175809255
 20
99.2461470262
 30
0.0
 10
77.5876501126
 20
99.1414676231
 30
0.0
 10
77.4302710235
 20
99.010717735
 30
0.0
 10
77.3309280975
 20
98.8850367443
 30
0.0
 10
77.2628070894
 20
98.7346263529
 30
0.0
 10
77.2464338108
 20
98.6235333821
 30
0.0
 10
77.2464338108
 20
98.5676735618
 30
0.0
  0
SPLINE
  5
407
330
222
100
AcDbEntity
  8
02___PRT_ALL_AXES
  6
Continuous
 62
     7
100
AcDbSpline
 70
     0
 71
     3
 72
    11
 73
     7
 74
     0
 42
0.000000001
 43
0.0000001
 40
0.0
 40
0.0
 40
0.0
 40
0.0
 40
0.2471884812
 40
0.4961682871
 40
0.7471358372
 40
1.0
 40
1.0
 40
1.0
 40
1.0
 10
70.3182305805
 20
98.0676735618
 30
0.0
 10
70.0907550509
 20
98.0301498309
 30
0.0
 10
69.6384983496
 20
97.9262844805
 30
0.0
 10
68.9791394126
 20
97.6975950772
 30
0.0
 10
68.3382279061
 20
97.4090060785
 30
0.0
 10
67.9244006593
 20
97.1855952124
 30
0.0
 10
67.7201543692
 20
97.0676735618
 30
0.0
  0
SPLINE
  5
408
330
222
100
AcDbEntity
  8
02___PRT_ALL_AXES
  6
Continuous
 62
     7
100
AcDbSpline
 70
     0
 71
     3
 72
    19
 73
    15
 74
     0
 42
0.000000001
 43
0.0000001
 40
0.0
 40
0.0
 40
0.0
 40
0.0
 40
0.0679313718
 40
0.134330414
 40
0.1986328954
 40
0.2610542132
 40
0.3817238737
 40
0.5000536105
 40
0.6183773004
 40
0.7390372629
 40
0.8014553941
 40
0.8657396837
 40
0.9320963707
 40
1.0
 40
1.0
 40
1.0
 40
1.0
 10
72.0502813881
 20
98.5676735618
 30
0.0
 10
72.0502813881
 20
98.6235524133
 30
0.0
 10
72.0338956474
 20
98.7346914252
 30
0.0
 10
71.9657303457
 20
98.8851495014
 30
0.0
 10
71.8663207831
 20
99.0108369881
 30
0.0
 10
71.7088864555
 20
99.1415753381
 30
0.0
 10
71.4789017894
 20
99.2462284838
 30
0.0
 10
71.1841261194
 20
99.2862121908
 30
0.0
 10
70.8893717725
 20
99.2461483761
 30
0.0
 10
70.6594221802
 20
99.1414575936
 30
0.0
 10
70.5020411756
 20
99.0106919831
 30
0.0
 10
70.4027124428
 20
98.8850090928
 30
0.0
 10
70.3346002539
 20
98.7346111057
 30
0.0
 10
70.3182305805
 20
98.6235295929
 30
0.0
 10
70.3182305805
 20
98.5676735618
 30
0.0
  0
SPLINE
  5
409
330
222
100
AcDbEntity
  8
02___PRT_ALL_AXES
  6
Continuous
 62
     7
100
AcDbSpline
 70
     0
 71
     3
 72
    19
 73
    15
 74
     0
 42
0.000000001
 43
0.0000001
 40
0.0
 40
0.0
 40
0.0
 40
0.0
 40
0.062499569
 40
0.1250450196
 40
0.1876243679
 40
0.2502137548
 40
0.3750836247
 40
0.5000591496
 40
0.6250261711
 40
0.7498800617
 40
0.8124624827
 40
0.8750225901
 40
0.9375286272
 40
1.0
 40
1.0
 40
1.0
 40
1.0
 10
180.6796683523
 20
222.5287220348
 30
0.0
 10
180.6235947405
 20
222.5287220348
 30
0.0
 10
180.5106056466
 20
222.5092129198
 30
0.0
 10
180.3598832634
 20
222.4294289496
 30
0.0
 10
180.2348335545
 20
222.3143694951
 30
0.0
 10
180.1036676885
 20
222.1309257955
 30
0.0
 10
180.0005369372
 20
221.8655258581
 30
0.0
 10
179.9612805147
 20
221.528568147
 30
0.0
 10
180.0006182268
 20
221.1916363139
 30
0.0
 10
180.1037865445
 20
220.9262821271
 30
0.0
 10
180.2349777008
 20
220.7429004999
 30
0.0
 10
180.36002773
 20
220.6279297299
 30
0.0
 10
180.5106918333
 20
220.5482119542
 30
0.0
 10
180.6236200377
 20
220.5287220348
 30
0.0
 10
180.6796683523
 20
220.5287220348
 30
0.0
  0
SPLINE
  5
40A
330
222
100
AcDbEntity
  8
02___PRT_ALL_AXES
  6
Continuous
 62
     7
100
AcDbSpline
 70
     0
 71
     3
 72
    11
 73
     7
 74
     0
 42
0.000000001
 43
0.0000001
 40
0.0
 40
0.0
 40
0.0
 40
0.0
 40
0.2500103617
 40
0.5000189242
 40
0.7500124732
 40
1.0
 40
1.0
 40
1.0
 40
1.0
 10
182.1796683523
 20
225.5287220348
 30
0.0
 10
182.0613320134
 20
225.2920493571
 30
0.0
 10
181.8371472779
 20
224.8122818447
 30
0.0
 10
181.54871028
 20
224.0719911276
 30
0.0
 10
181.3203598769
 20
223.310773858
 30
0.0
 10
181.2170861704
 20
222.790646762
 30
0.0
 10
181.1796683523
 20
222.5287220348
 30
0.0
  0
SPLINE
  5
40B
330
222
100
AcDbEntity
  8
02___PRT_ALL_AXES
  6
Continuous
 62
     7
100
AcDbSpline
 70
     0
 71
     3
 72
    11
 73
     7
 74
     0
 42
0.000000001
 43
0.0000001
 40
0.0
 40
0.0
 40
0.0
 40
0.0
 40
0.2699449571
 40
0.5270499909
 40
0.7701654741
 40
1.0
 40
1.0
 40
1.0
 40
1.0
 10
182.1796683523
 20
217.5287220348
 30
0.0
 10
182.0638423874
 20
217.4128960699
 30
0.0
 10
181.844842076
 20
217.1793614552
 30
0.0
 10
181.5560834303
 20
216.8108508539
 30
0.0
 10
181.3258964302
 20
216.4308500833
 30
0.0
 10
181.2179819589
 20
216.1628196581
 30
0.0
 10
181.1796683523
 20
216.0287220348
 30
0.0
  0
SPLINE
  5
40C
330
222
100
AcDbEntity
  8
02___PRT_ALL_AXES
  6
Continuous
 62
     7
100
AcDbSpline
 70
     0
 71
     3
 72
    11
 73
     7
 74
     0
 42
0.000000001
 43
0.0000001
 40
0.0
 40
0.0
 40
0.0
 40
0.0
 40
0.2298345438
 40
0.4729500311
 40
0.7300550521
 40
1.0
 40
1.0
 40
1.0
 40
1.0
 10
181.1796683523
 20
215.0287220348
 30
0.0
 10
181.2179819619
 20
214.8946244011
 30
0.0
 10
181.32589644
 20
214.626593964
 30
0.0
 10
181.5560834492
 20
214.2465931924
 30
0.0
 10
181.8448420905
 20
213.878082602
 30
0.0
 10
182.0638423913
 20
213.6445479958
 30
0.0
 10
182.1796683523
 20
213.5287220348
 30
0.0
  0
SPLINE
  5
40D
330
222
100
AcDbEntity
  8
02___PRT_ALL_AXES
  6
Continuous
 62
     7
100
AcDbSpline
 70
     0
 71
     3
 72
    11
 73
     7
 74
     0
 42
0.000000001
 43
0.0000001
 40
0.0
 40
0.0
 40
0.0
 40
0.0
 40
0.2699449571
 40
0.5270499909
 40
0.7701654741
 40
1.0
 40
1.0
 40
1.0
 40
1.0
 10
182.1796683523
 20
229.5287220348
 30
0.0
 10
182.0638423874
 20
229.4128960699
 30
0.0
 10
181.844842076
 20
229.1793614552
 30
0.0
 10
181.5560834303
 20
228.8108508539
 30
0.0
 10
181.3258964302
 20
228.4308500833
 30
0.0
 10
181.2179819589
 20
228.1628196581
 30
0.0
 10
181.1796683523
 20
228.0287220348
 30
0.0
  0
SPLINE
  5
40E
330
222
100
AcDbEntity
  8
02___PRT_ALL_AXES
  6
Continuous
 62
     7
100
AcDbSpline
 70
     0
 71
     3
 72
    11
 73
     7
 74
     0
 42
0.000000001
 43
0.0000001
 40
0.0
 40
0.0
 40
0.0
 40
0.0
 40
0.2298345438
 40
0.4729500311
 40
0.7300550521
 40
1.0
 40
1.0
 40
1.0
 40
1.0
 10
181.1796683523
 20
227.0287220348
 30
0.0
 10
181.2179819619
 20
226.8946244011
 30
0.0
 10
181.32589644
 20
226.626593964
 30
0.0
 10
181.5560834492
 20
226.2465931924
 30
0.0
 10
181.8448420905
 20
225.878082602
 30
0.0
 10
182.0638423913
 20
225.6445479958
 30
0.0
 10
182.1796683523
 20
225.5287220348
 30
0.0
  0
SPLINE
  5
40F
330
222
100
AcDbEntity
  8
02___PRT_ALL_AXES
  6
Continuous
 62
     7
100
AcDbSpline
 70
     0
 71
     3
 72
    19
 73
    15
 74
     0
 42
0.000000001
 43
0.0000001
 40
0.0
 40
0.0
 40
0.0
 40
0.0
 40
0.1683000113
 40
0.2404505744
 40
0.3036556532
 40
0.4090388234
 40
0.4554737865
 40
0.5000393211
 40
0.5446067335
 40
0.591042408
 40
0.696430429
 40
0.7596418824
 40
0.8317824151
 40
1.0
 40
1.0
 40
1.0
 40
1.0
 10
180.6796683523
 20
228.0287220348
 30
0.0
 10
180.573062677
 20
228.0287220348
 30
0.0
 10
180.4187362505
 20
228.00454917
 30
0.0
 10
180.2423425275
 20
227.9257320936
 30
0.0
 10
180.1158096637
 20
227.8397843403
 30
0.0
 10
180.0248220072
 20
227.7323474696
 30
0.0
 10
179.9813443058
 20
227.6147119084
 30
0.0
 10
179.9709682266
 20
227.5286440983
 30
0.0
 10
179.9813713143
 20
227.4425768127
 30
0.0
 10
180.0249243242
 20
227.3249647696
 30
0.0
 10
180.1159294596
 20
227.2175419808
 30
0.0
 10
180.2424890791
 20
227.1316277559
 30
0.0
 10
180.4188525965
 20
227.0528816317
 30
0.0
 10
180.5731148881
 20
227.0287220348
 30
0.0
 10
180.6796683523
 20
227.0287220348
 30
0.0
  0
SPLINE
  5
410
330
222
100
AcDbEntity
  8
02___PRT_ALL_AXES
  6
Continuous
 62
     7
100
AcDbSpline
 70
     0
 71
     3
 72
    19
 73
    15
 74
     0
 42
0.000000001
 43
0.0000001
 40
0.0
 40
0.0
 40
0.0
 40
0.0
 40
0.1683075029
 40
0.2404576968
 40
0.3036660769
 40
0.4090527407
 40
0.4554823394
 40
0.5000445236
 40
0.5446094138
 40
0.5910415449
 40
0.6964181475
 40
0.7596236278
 40
0.8317654351
 40
1.0
 40
1.0
 40
1.0
 40
1.0
 10
180.6796683523
 20
216.0287220348
 30
0.0
 10
180.57305802
 20
216.0287220348
 30
0.0
 10
180.4187268226
 20
216.0045471078
 30
0.0
 10
180.242328901
 20
215.9257240056
 30
0.0
 10
180.1157935803
 20
215.8397723981
 30
0.0
 10
180.0248121824
 20
215.7323280115
 30
0.0
 10
179.9813419023
 20
215.6146939936
 30
0.0
 10
179.9709677237
 20
215.5286331858
 30
0.0
 10
179.9813738543
 20
215.4425724343
 30
0.0
 10
180.0249225097
 20
215.324971105
 30
0.0
 10
180.1159166611
 20
215.2175580194
 30
0.0
 10
180.2424627578
 20
215.1316427422
 30
0.0
 10
180.4188292948
 20
215.0528838975
 30
0.0
 10
180.5731042208
 20
215.0287220348
 30
0.0
 10
180.6796683523
 20
215.0287220348
 30
0.0
  0
SPLINE
  5
411
330
222
100
AcDbEntity
  8
02___PRT_ALL_AXES
  6
Continuous
 62
     7
100
AcDbSpline
 70
     0
 71
     3
 72
    11
 73
     7
 74
     0
 42
0.000000001
 43
0.0000001
 40
0.0
 40
0.0
 40
0.0
 40
0.0
 40
0.2499875457
 40
0.4999810974
 40
0.7499896465
 40
1.0
 40
1.0
 40
1.0
 40
1.0
 10
181.1796683523
 20
220.5287220348
 30
0.0
 10
181.2170861733
 20
220.2667972879
 30
0.0
 10
181.3203598859
 20
219.7466701696
 30
0.0
 10
181.5487102991
 20
218.9854528939
 30
0.0
 10
181.8371472937
 20
218.2451621973
 30
0.0
 10
182.0613320173
 20
217.7653947047
 30
0.0
 10
182.1796683523
 20
217.5287220348
 30
0.0
  0
SPLINE
  5
412
330
222
100
AcDbEntity
  8
02___PRT_ALL_AXES
  6
Continuous
 62
     7
100
AcDbSpline
 70
     0
 71
     3
 72
     9
 73
     5
 74
     0
 42
0.000000001
 43
0.0000001
 40
0.0
 40
0.0
 40
0.0
 40
0.0
 40
0.4895173751
 40
1.0
 40
1.0
 40
1.0
 40
1.0
 10
346.0996725992
 20
114.4827588495
 30
0.0
 10
346.1730470815
 20
114.4459203333
 30
0.0
 10
346.3154080876
 20
114.3548563621
 30
0.0
 10
346.4375443756
 20
114.2384134134
 30
0.0
 10
346.4943342484
 20
114.174338698
 30
0.0
  0
SPLINE
  5
413
330
222
100
AcDbEntity
  8
02___PRT_ALL_AXES
  6
Continuous
 62
     7
100
AcDbSpline
 70
     0
 71
     3
 72
    17
 73
    13
 74
     0
 42
0.000000001
 43
0.0000001
 40
0.0
 40
0.0
 40
0.0
 40
0.0
 40
0.124986207
 40
0.1875352824
 40
0.2500820138
 40
0.3750563117
 40
0.5000262475
 40
0.562565914
 40
0.6251076923
 40
0.7500711871
 40
0.8750296452
 40
1.0
 40
1.0
 40
1.0
 40
1.0
 10
346.6293115667
 20
110.3438097906
 30
0.0
 10
346.7338685657
 20
110.4813773321
 30
0.0
 10
346.8733593174
 20
110.7018985258
 30
0.0
 10
347.0194113948
 20
111.0155988624
 30
0.0
 10
347.1382690063
 20
111.3406519021
 30
0.0
 10
347.2341889324
 20
111.7641615259
 30
0.0
 10
347.256680445
 20
112.1978285157
 30
0.0
 10
347.2301775048
 20
112.5428792088
 30
0.0
 10
347.1742161796
 20
112.8843702974
 30
0.0
 10
347.0493393982
 20
113.3003703571
 30
0.0
 10
346.8160256313
 20
113.765876597
 30
0.0
 10
346.6089270064
 20
114.0450410447
 30
0.0
 10
346.4943344355
 20
114.174339011
 30
0.0
  0
SPLINE
  5
414
330
222
100
AcDbEntity
  8
02___PRT_ALL_AXES
  6
Continuous
 62
     7
100
AcDbSpline
 70
     0
 71
     3
 72
    21
 73
    17
 74
     0
 42
0.000000001
 43
0.0000001
 40
0.0
 40
0.0
 40
0.0
 40
0.0
 40
0.0479315253
 40
0.0954473684
 40
0.1440135557
 40
0.1949197065
 40
0.2490936295
 40
0.3070389272
 40
0.3688578416
 40
0.4343136483
 40
0.5029014828
 40
0.5739152286
 40
0.7195694126
 40
0.7924882836
 40
0.8641371768
 40
1.0
 40
1.0
 40
1.0
 40
1.0
 10
346.318884762
 20
113.2723147808
 30
0.0
 10
346.3734108105
 20
113.2733147651
 30
0.0
 10
346.4826775528
 20
113.2632757721
 30
0.0
 10
346.6392065191
 20
113.2100923404
 30
0.0
 10
346.782130871
 20
113.1205282314
 30
0.0
 10
346.907868385
 20
112.9973516527
 30
0.0
 10
347.0138361676
 20
112.8439131697
 30
0.0
 10
347.0980112108
 20
112.6639227498
 30
0.0
 10
347.1588029545
 20
112.4614569914
 30
0.0
 10
347.1950288178
 20
112.241020598
 30
0.0
 10
347.2059746377
 20
112.0074648352
 30
0.0
 10
347.1864192094
 20
111.6830369801
 30
0.0
 10
347.1166279439
 20
111.3584219554
 30
0.0
 10
347.0010985646
 20
111.0485949437
 30
0.0
 10
346.8602706076
 20
110.7619651298
 30
0.0
 10
346.7235898649
 20
110.5662062402
 30
0.0
 10
346.6196239594
 20
110.4518103859
 30
0.0
  0
SPLINE
  5
415
330
222
100
AcDbEntity
  8
02___PRT_ALL_AXES
  6
Continuous
 62
     7
100
AcDbSpline
 70
     0
 71
     3
 72
    19
 73
    15
 74
     0
 42
0.000000001
 43
0.0000001
 40
0.0
 40
0.0
 40
0.0
 40
0.0
 40
0.0609330688
 40
0.1221312894
 40
0.1837492108
 40
0.2459080088
 40
0.3718683537
 40
0.4996802592
 40
0.6275924384
 40
0.7537831092
 40
0.8160605226
 40
0.8777690891
 40
0.9390318035
 40
1.0
 40
1.0
 40
1.0
 40
1.0
 10
363.2064013789
 20
126.8299340849
 30
0.0
 10
363.362931453
 20
127.0593908088
 30
0.0
 10
363.6432896959
 20
127.5429936895
 30
0.0
 10
363.9598248625
 20
128.3210714526
 30
0.0
 10
364.1736111241
 20
129.1391659567
 30
0.0
 10
364.3245127775
 20
130.2699183492
 30
0.0
 10
364.2642890793
 20
131.7217020049
 30
0.0
 10
363.8278606625
 20
133.4181746708
 30
0.0
 10
363.0596443845
 20
134.9935382935
 30
0.0
 10
362.1646945129
 20
136.1405539437
 30
0.0
 10
361.3178356487
 20
136.9077840204
 30
0.0
 10
360.6261100011
 20
137.3961662108
 30
0.0
 10
359.8825118388
 20
137.7886215394
 30
0.0
 10
359.356713929
 20
137.9795699144
 30
0.0
 10
359.0892947306
 20
138.0552535064
 30
0.0
  0
SPLINE
  5
416
330
222
100
AcDbEntity
  8
02___PRT_ALL_AXES
  6
Continuous
 62
     7
100
AcDbSpline
 70
     0
 71
     3
 72
     9
 73
     5
 74
     0
 42
0.000000001
 43
0.0000001
 40
0.0
 40
0.0
 40
0.0
 40
0.0
 40
0.2470200769
 40
1.0
 40
1.0
 40
1.0
 40
1.0
 10
359.6240493996
 20
136.8500205907
 30
0.0
 10
359.5433687932
 20
136.9166184899
 30
0.0
 10
359.2127243036
 20
137.1813351028
 30
0.0
 10
358.86739411
 20
137.4274648682
 30
0.0
 10
358.6017645771
 20
137.6039214672
 30
0.0
  0
SPLINE
  5
417
330
222
100
AcDbEntity
  8
02___PRT_ALL_AXES
  6
Continuous
 62
     7
100
AcDbSpline
 70
     0
 71
     3
 72
     9
 73
     5
 74
     0
 42
0.000000001
 43
0.0000001
 40
0.0
 40
0.0
 40
0.0
 40
0.0
 40
0.2517067478
 40
1.0
 40
1.0
 40
1.0
 40
1.0
 10
362.85006114
 20
127.7694252718
 30
0.0
 10
362.8656872019
 20
127.8616611475
 30
0.0
 10
362.923948404
 20
128.2287285826
 30
0.0
 10
362.9659239809
 20
128.5984694573
 30
0.0
 10
362.9862632694
 20
128.8758378304
 30
0.0
  0
SPLINE
  5
418
330
222
100
AcDbEntity
  8
02___PRT_ALL_AXES
  6
Continuous
 62
     7
100
AcDbSpline
 70
     0
 71
     3
 72
    21
 73
    17
 74
     0
 42
0.000000001
 43
0.0000001
 40
0.0
 40
0.0
 40
0.0
 40
0.0
 40
0.0496938794
 40
0.0726600671
 40
0.095370167
 40
0.1423344812
 40
0.1936127609
 40
0.2495487407
 40
0.3096954097
 40
0.4401425101
 40
0.5810547415
 40
0.7282765001
 40
0.8022767332
 40
0.8742747605
 40
0.9413105664
 40
1.0
 40
1.0
 40
1.0
 40
1.0
 10
361.2584494982
 20
135.6765803117
 30
0.0
 10
361.2935745133
 20
135.6899304151
 30
0.0
 10
361.3426168437
 20
135.7198462993
 30
0.0
 10
361.3860831168
 20
135.7781779558
 30
0.0
 10
361.4139836355
 20
135.8430847116
 30
0.0
 10
361.4219803966
 20
135.9363757496
 30
0.0
 10
361.3984112158
 20
136.0514743883
 30
0.0
 10
361.3496979993
 20
136.1689007969
 30
0.0
 10
361.2543555922
 20
136.329601276
 30
0.0
 10
361.0910637445
 20
136.5220781521
 30
0.0
 10
360.8486177497
 20
136.7272396869
 30
0.0
 10
360.612527689
 20
136.8692347355
 30
0.0
 10
360.4071816265
 20
136.9539159347
 30
0.0
 10
360.2510568149
 20
136.9960475513
 30
0.0
 10
360.1014233636
 20
137.0102466259
 30
0.0
 10
360.0055616191
 20
136.9950234491
 30
0.0
 10
359.9640782962
 20
136.9792567185
 30
0.0
  0
SPLINE
  5
419
330
222
100
AcDbEntity
  8
02___PRT_ALL_AXES
  6
Continuous
 62
     7
100
AcDbSpline
 70
     0
 71
     3
 72
    10
 73
     6
 74
     0
 42
0.000000001
 43
0.0000001
 40
0.0
 40
0.0
 40
0.0
 40
0.0
 40
0.2626494566
 40
0.516188114
 40
1.0
 40
1.0
 40
1.0
 40
1.0
 10
362.9357489234
 20
130.7628345277
 30
0.0
 10
362.9042478047
 20
130.996136438
 30
0.0
 10
362.8229891926
 20
131.4522985982
 30
0.0
 10
362.5946409962
 20
132.3197672836
 30
0.0
 10
362.3574176261
 20
132.9391950144
 30
0.0
 10
362.1799196112
 20
133.334857318
 30
0.0
  0
SPLINE
  5
41A
330
222
100
AcDbEntity
  8
02___PRT_ALL_AXES
  6
Continuous
 62
     7
100
AcDbSpline
 70
     0
 71
     3
 72
    20
 73
    16
 74
     0
 42
0.000000001
 43
0.0000001
 40
0.0
 40
0.0
 40
0.0
 40
0.0
 40
0.0567847095
 40
0.1212821077
 40
0.1908173957
 40
0.2627578957
 40
0.4074334538
 40
0.547957442
 40
0.6801607315
 40
0.741983638
 40
0.8001235127
 40
0.8539997792
 40
0.9035556826
 40
0.9505784112
 40
1.0
 40
1.0
 40
1.0
 40
1.0
 10
363.326292166
 20
129.0050739582
 30
0.0
 10
363.3673446466
 20
129.0206769369
 30
0.0
 10
363.4476197891
 20
129.0735234634
 30
0.0
 10
363.5443961962
 20
129.186264603
 30
0.0
 10
363.6245240216
 20
129.3247682222
 30
0.0
 10
363.7081364659
 20
129.5301858782
 30
0.0
 10
363.7704236611
 20
129.8011992777
 30
0.0
 10
363.7896390533
 20
130.124619867
 30
0.0
 10
363.761808176
 20
130.3836230441
 30
0.0
 10
363.7096222498
 20
130.5719767231
 30
0.0
 10
363.656417465
 20
130.6960350673
 30
0.0
 10
363.5869389607
 20
130.8009593909
 30
0.0
 10
363.4986206028
 20
130.8797236338
 30
0.0
 10
363.3884109828
 20
130.9183257889
 30
0.0
 10
363.3115071358
 20
130.9056504379
 30
0.0
 10
363.2757778201
 20
130.8920706555
 30
0.0
  0
SPLINE
  5
41B
330
222
100
AcDbEntity
  8
02___PRT_ALL_AXES
  6
Continuous
 62
     7
100
AcDbSpline
 70
     0
 71
     3
 72
    11
 73
     7
 74
     0
 42
0.000000001
 43
0.0000001
 40
0.0
 40
0.0
 40
0.0
 40
0.0
 40
0.2483458605
 40
0.5002261175
 40
0.7519857684
 40
1.0
 40
1.0
 40
1.0
 40
1.0
 10
362.9357489234
 20
130.7628345277
 30
0.0
 10
362.884705103
 20
131.1420807457
 30
0.0
 10
362.7351166513
 20
131.9003615135
 30
0.0
 10
362.3807323152
 20
133.0060786401
 30
0.0
 10
361.9034622288
 20
134.0640161857
 30
0.0
 10
361.5068206226
 20
134.7265746987
 30
0.0
 10
361.2908248562
 20
135.0418336021
 30
0.0
  0
SPLINE
  5
41C
330
222
100
AcDbEntity
  8
02___PRT_ALL_AXES
  6
Continuous
 62
     7
100
AcDbSpline
 70
     0
 71
     3
 72
     9
 73
     5
 74
     0
 42
0.000000001
 43
0.0000001
 40
0.0
 40
0.0
 40
0.0
 40
0.0
 40
0.4857941894
 40
1.0
 40
1.0
 40
1.0
 40
1.0
 10
362.1799196112
 20
133.334857318
 30
0.0
 10
362.0630781036
 20
133.6317854994
 30
0.0
 10
361.7939492505
 20
134.2322878829
 30
0.0
 10
361.4574163353
 20
134.7986926839
 30
0.0
 10
361.2665252518
 20
135.0773265071
 30
0.0
  0
SPLINE
  5
41D
330
222
100
AcDbEntity
  8
02___PRT_ALL_AXES
  6
Continuous
 62
     9
100
AcDbSpline
 70
     0
 71
     3
 72
     9
 73
     5
 74
     0
 42
0.000000001
 43
0.0000001
 40
0.0
 40
0.0
 40
0.0
 40
0.0
 40
0.2412559524
 40
1.0
 40
1.0
 40
1.0
 40
1.0
 10
362.9905063474
 20
127.3967661564
 30
0.0
 10
363.0340673041
 20
127.5217107205
 30
0.0
 10
363.1967562714
 20
128.0457741884
 30
0.0
 10
363.2897635914
 20
128.59053571
 30
0.0
 10
363.326292166
 20
129.0050739582
 30
0.0
  0
SPLINE
  5
41E
330
222
100
AcDbEntity
  8
02___PRT_ALL_AXES
  6
Continuous
 62
     9
100
AcDbSpline
 70
     0
 71
     3
 72
    11
 73
     7
 74
     0
 42
0.000000001
 43
0.0000001
 40
0.0
 40
0.0
 40
0.0
 40
0.0
 40
0.2495635802
 40
0.5025868783
 40
0.754287836
 40
1.0
 40
1.0
 40
1.0
 40
1.0
 10
363.2757778201
 20
130.8920706555
 30
0.0
 10
363.2175296013
 20
131.3248442315
 30
0.0
 10
363.039349088
 20
132.1891930698
 30
0.0
 10
362.6053568817
 20
133.4393793716
 30
0.0
 10
362.016624437
 20
134.617092254
 30
0.0
 10
361.5253952521
 20
135.3395556179
 30
0.0
 10
361.2584494982
 20
135.6765803117
 30
0.0
  0
SPLINE
  5
41F
330
222
100
AcDbEntity
  8
02___PRT_ALL_AXES
  6
Continuous
 62
     9
100
AcDbSpline
 70
     0
 71
     3
 72
     9
 73
     5
 74
     0
 42
0.000000001
 43
0.0000001
 40
0.0
 40
0.0
 40
0.0
 40
0.0
 40
0.2595870187
 40
1.0
 40
1.0
 40
1.0
 40
1.0
 10
359.9640782962
 20
136.9792567185
 30
0.0
 10
359.8574169324
 20
137.0631838923
 30
0.0
 10
359.4371949163
 20
137.3742368491
 30
0.0
 10
358.9781049064
 20
137.634477656
 30
0.0
 10
358.6219699638
 20
137.7862223964
 30
0.0
  0
SPLINE
  5
420
330
222
100
AcDbEntity
  8
02___PRT_ALL_AXES
  6
Continuous
 62
     7
100
AcDbSpline
 70
     0
 71
     3
 72
    10
 73
     6
 74
     0
 42
0.000000001
 43
0.0000001
 40
0.0
 40
0.0
 40
0.0
 40
0.0
 40
0.5192374217
 40
0.7623634715
 40
1.0
 40
1.0
 40
1.0
 40
1.0
 10
327.9822222248
 20
83.2041771742
 30
0.0
 10
328.0951526512
 20
83.025452213
 30
0.0
 10
328.3016532212
 20
82.7830432182
 30
0.0
 10
328.6443266498
 20
82.559342647
 30
0.0
 10
328.8277675302
 20
82.4864505004
 30
0.0
 10
328.920867264
 20
82.4601009742
 30
0.0
  0
SPLINE
  5
421
330
222
100
AcDbEntity
  8
02___PRT_ALL_AXES
  6
Continuous
 62
     7
100
AcDbSpline
 70
     0
 71
     3
 72
    16
 73
    12
 74
     0
 42
0.000000001
 43
0.0000001
 40
0.0
 40
0.0
 40
0.0
 40
0.0
 40
0.0469495016
 40
0.094901377
 40
0.1967885421
 40
0.3105010864
 40
0.4367424812
 40
0.5733053879
 40
0.7161086348
 40
0.8600784807
 40
1.0
 40
1.0
 40
1.0
 40
1.0
 10
329.1406842619
 20
82.3978895096
 30
0.0
 10
329.2298626561
 20
82.3726498195
 30
0.0
 10
329.4156431665
 20
82.3392668576
 30
0.0
 10
329.8061187024
 20
82.3449442082
 30
0.0
 10
330.3146692371
 20
82.4970863602
 30
0.0
 10
330.8831942378
 20
82.8737716273
 30
0.0
 10
331.3962503413
 20
83.4191161915
 30
0.0
 10
331.8255509293
 20
84.1000461155
 30
0.0
 10
332.1466757676
 20
84.8757286752
 30
0.0
 10
332.3404952925
 20
85.6989816226
 30
0.0
 10
332.3778841844
 20
86.2615097447
 30
0.0
 10
332.3704926638
 20
86.5376248734
 30
0.0
  0
SPLINE
  5
422
330
222
100
AcDbEntity
  8
02___PRT_ALL_AXES
  6
Continuous
 62
     7
100
AcDbSpline
 70
     0
 71
     3
 72
     9
 73
     5
 74
     0
 42
0.000000001
 43
0.0000001
 40
0.0
 40
0.0
 40
0.0
 40
0.0
 40
0.5226770861
 40
1.0
 40
1.0
 40
1.0
 40
1.0
 10
328.1096657191
 20
83.3020457092
 30
0.0
 10
328.2018003594
 20
83.1269279941
 30
0.0
 10
328.4195523381
 20
82.8105296944
 30
0.0
 10
328.7276752044
 20
82.5760907332
 30
0.0
 10
328.8893377619
 20
82.4953450805
 30
0.0
  0
SPLINE
  5
423
330
222
100
AcDbEntity
  8
7_ALL_FEATURES
  6
Continuous
 62
     7
100
AcDbSpline
 70
     0
 71
     3
 72
    11
 73
     7
 74
     0
 42
0.000000001
 43
0.0000001
 40
0.0
 40
0.0
 40
0.0
 40
0.0
 40
0.2540595488
 40
0.5070353678
 40
0.7564581855
 40
1.0
 40
1.0
 40
1.0
 40
1.0
 10
355.1719781096
 20
122.2627508785
 30
0.0
 10
355.8667045226
 20
124.3291621933
 30
0.0
 10
357.078456158
 20
128.5142357044
 30
0.0
 10
358.3514881453
 20
134.8870616132
 30
0.0
 10
359.0612612852
 20
141.2563245654
 30
0.0
 10
359.151995948
 20
145.492576886
 30
0.0
 10
359.096072199
 20
147.5816453989
 30
0.0
  0
SPLINE
  5
424
330
222
100
AcDbEntity
  8
7_ALL_FEATURES
  6
Continuous
 62
     7
100
AcDbSpline
 70
     0
 71
     3
 72
    11
 73
     7
 74
     0
 42
0.000000001
 43
0.0000001
 40
0.0
 40
0.0
 40
0.0
 40
0.0
 40
0.2325787399
 40
0.4790764133
 40
0.7362395599
 40
1.0
 40
1.0
 40
1.0
 40
1.0
 10
346.6933803704
 20
106.668500841
 30
0.0
 10
347.4562844695
 20
107.3485689174
 30
0.0
 10
348.9147726056
 20
108.8794733635
 30
0.0
 10
350.8067515959
 20
111.5144717072
 30
0.0
 10
352.4205983503
 20
114.4846007425
 30
0.0
 10
353.2733083625
 20
116.6153009254
 30
0.0
 10
353.6426605075
 20
117.7139110218
 30
0.0
  0
SPLINE
  5
425
330
222
100
AcDbEntity
  8
02___PRT_ALL_AXES
  6
Continuous
 62
     7
100
AcDbSpline
 70
     0
 71
     3
 72
    14
 73
    10
 74
     0
 42
0.000000001
 43
0.0000001
 40
0.0
 40
0.0
 40
0.0
 40
0.0
 40
0.1050360672
 40
0.2128188555
 40
0.3256977952
 40
0.4453660773
 40
0.5727173738
 40
0.7080192646
 40
1.0
 40
1.0
 40
1.0
 40
1.0
 10
357.4616563131
 20
159.3522158718
 30
0.0
 10
357.5608075907
 20
159.3241700305
 30
0.0
 10
357.7561207343
 20
159.2451241385
 30
0.0
 10
358.0219514434
 20
159.0640239534
 30
0.0
 10
358.2573175405
 20
158.8244688005
 30
0.0
 10
358.4576101532
 20
158.531788395
 30
0.0
 10
358.6197895561
 20
158.1920883063
 30
0.0
 10
358.7853272625
 20
157.6724829202
 30
0.0
 10
358.8372041634
 20
157.2518315467
 30
0.0
 10
358.8448692284
 20
156.9654979909
 30
0.0
  0
SPLINE
  5
426
330
222
100
AcDbEntity
  8
02___PRT_ALL_AXES
  6
Continuous
 62
     7
100
AcDbSpline
 70
     0
 71
     3
 72
    14
 73
    10
 74
     0
 42
0.000000001
 43
0.0000001
 40
0.0
 40
0.0
 40
0.0
 40
0.0
 40
0.2959172274
 40
0.4352727083
 40
0.5658931596
 40
0.6866840407
 40
0.7978527961
 40
0.9011659203
 40
1.0
 40
1.0
 40
1.0
 40
1.0
 10
354.278569083
 20
156.9918742247
 30
0.0
 10
354.4098802979
 20
157.3824495291
 30
0.0
 10
354.6719599106
 20
157.9386121809
 30
0.0
 10
355.1463641098
 20
158.5703578518
 30
0.0
 10
355.536453421
 20
158.9532480885
 30
0.0
 10
355.9551241155
 20
159.2406957066
 30
0.0
 10
356.3896610464
 20
159.4220165976
 30
0.0
 10
356.8256872542
 20
159.4885215091
 30
0.0
 10
357.1094109662
 20
159.4518859001
 30
0.0
 10
357.2418393152
 20
159.4144273363
 30
0.0
  0
SPLINE
  5
427
330
222
100
AcDbEntity
  8
02___PRT_ALL_AXES
  6
Continuous
 62
     7
100
AcDbSpline
 70
     0
 71
     3
 72
    14
 73
    10
 74
     0
 42
0.000000001
 43
0.0000001
 40
0.0
 40
0.0
 40
0.0
 40
0.0
 40
0.2920987384
 40
0.4305997137
 40
0.5613851451
 40
0.6832982142
 40
0.7961551132
 40
0.9009539479
 40
1.0
 40
1.0
 40
1.0
 40
1.0
 10
354.4983860809
 20
156.9296627601
 30
0.0
 10
354.6211824531
 20
157.2949113072
 30
0.0
 10
354.8625807298
 20
157.8168702189
 30
0.0
 10
355.2943957188
 20
158.4204957138
 30
0.0
 10
355.650542286
 20
158.7966273821
 30
0.0
 10
356.0343301668
 20
159.0923019494
 30
0.0
 10
356.435379665
 20
159.2983757869
 30
0.0
 10
356.8422824298
 20
159.4074676627
 30
0.0
 10
357.1147135552
 20
159.4115411151
 30
0.0
 10
357.2444238438
 20
159.3957991311
 30
0.0
  0
SPLINE
  5
428
330
222
100
AcDbEntity
  8
7_ALL_FEATURES
  6
Continuous
 62
     7
100
AcDbSpline
 70
     0
 71
     3
 72
    14
 73
    10
 74
     0
 42
0.000000001
 43
0.0000001
 40
0.0
 40
0.0
 40
0.0
 40
0.0
 40
0.108317377
 40
0.2188647256
 40
0.3335814326
 40
0.4539141464
 40
0.5807306065
 40
0.7143021301
 40
1.0
 40
1.0
 40
1.0
 40
1.0
 10
329.1461603637
 20
104.602489986
 30
0.0
 10
329.4478090418
 20
104.7171574525
 30
0.0
 10
330.0354459535
 20
105.011461474
 30
0.0
 10
330.82388701
 20
105.6260311415
 30
0.0
 10
331.5087871157
 20
106.4022233786
 30
0.0
 10
332.0775685206
 20
107.3235106323
 30
0.0
 10
332.52092576
 20
108.3720331951
 30
0.0
 10
332.9444582294
 20
109.9467412791
 30
0.0
 10
333.0372649581
 20
111.2071543976
 30
0.0
 10
333.0144874167
 20
112.0580244754
 30
0.0
  0
SPLINE
  5
429
330
222
100
AcDbEntity
  8
02___PRT_ALL_AXES
  6
Continuous
 62
     7
100
AcDbSpline
 70
     0
 71
     3
 72
     9
 73
     5
 74
     0
 42
0.000000001
 43
0.0000001
 40
0.0
 40
0.0
 40
0.0
 40
0.0
 40
0.2452792259
 40
1.0
 40
1.0
 40
1.0
 40
1.0
 10
346.1980110299
 20
108.6876430671
 30
0.0
 10
346.1815720116
 20
109.3017334342
 30
0.0
 10
346.0460333735
 20
111.8032338622
 30
0.0
 10
345.6451099928
 20
114.2889967868
 30
0.0
 10
345.2099291571
 20
116.1284440236
 30
0.0
  0
LINE
  5
42A
330
222
100
AcDbEntity
  8
02___PRT_ALL_AXES
  6
Continuous
 62
     7
100
AcDbLine
 10
342.9270973812
 20
122.9457977282
 30
0.0
 11
342.9037855263
 21
122.9988608079
 31
0.0
  0
SPLINE
  5
42B
330
222
100
AcDbEntity
  8
02___PRT_ALL_AXES
  6
Continuous
 62
     7
100
AcDbSpline
 70
     0
 71
     3
 72
     9
 73
     5
 74
     0
 42
0.000000001
 43
0.0000001
 40
0.0
 40
0.0
 40
0.0
 40
0.0
 40
0.2525753876
 40
1.0
 40
1.0
 40
1.0
 40
1.0
 10
342.9037855263
 20
122.9988608079
 30
0.0
 10
342.6591978417
 20
123.5545003366
 30
0.0
 10
341.6407834147
 20
125.7319271109
 30
0.0
 10
340.4231861019
 20
127.8169940689
 30
0.0
 10
339.4061201716
 20
129.2978801371
 30
0.0
  0
SPLINE
  5
42C
330
222
100
AcDbEntity
  8
02___PRT_ALL_AXES
  6
Continuous
 62
     7
100
AcDbSpline
 70
     0
 71
     3
 72
    15
 73
    11
 74
     0
 42
0.000000001
 43
0.0000001
 40
0.0
 40
0.0
 40
0.0
 40
0.0
 40
0.1466421635
 40
0.287912294
 40
0.4227233258
 40
0.5504471595
 40
0.6710348975
 40
0.7851236118
 40
0.8940914611
 40
1.0
 40
1.0
 40
1.0
 40
1.0
 10
339.4061201716
 20
129.2978801371
 30
0.0
 10
338.6630502524
 20
130.3798177561
 30
0.0
 10
337.0884739097
 20
132.4278261434
 30
0.0
 10
334.4445915492
 20
135.1467274815
 30
0.0
 10
331.610613923
 20
137.4069929489
 30
0.0
 10
328.6472829712
 20
139.1572761733
 30
0.0
 10
325.6174956636
 20
140.3566189771
 30
0.0
 10
322.5857433083
 20
140.9734369831
 30
0.0
 10
319.6217191427
 20
140.9874986792
 30
0.0
 10
317.7224991012
 20
140.5862734402
 30
0.0
 10
316.8222581276
 20
140.2893523475
 30
0.0
  0
SPLINE
  5
42D
330
222
100
AcDbEntity
  8
7_ALL_FEATURES
  6
Continuous
 62
     7
100
AcDbSpline
 70
     0
 71
     3
 72
    17
 73
    13
 74
     0
 42
0.000000001
 43
0.0000001
 40
0.0
 40
0.0
 40
0.0
 40
0.0
 40
0.1361058456
 40
0.2762157489
 40
0.4159956411
 40
0.5511371596
 40
0.6780512935
 40
0.7945730778
 40
0.8489748794
 40
0.9010192196
 40
0.9511540374
 40
1.0
 40
1.0
 40
1.0
 40
1.0
 10
318.5377054623
 20
116.5159190255
 30
0.0
 10
318.5593481374
 20
115.7074426297
 30
0.0
 10
318.7611002249
 20
114.0680504839
 30
0.0
 10
319.4781442409
 20
111.6911477306
 30
0.0
 10
320.5753900512
 20
109.4693977873
 30
0.0
 10
321.9914233204
 20
107.5307013416
 30
0.0
 10
323.6467150476
 20
105.9859092176
 30
0.0
 10
325.1908922302
 20
105.0812860735
 30
0.0
 10
326.4501615257
 20
104.6566045494
 30
0.0
 10
327.3696379063
 20
104.4912629277
 30
0.0
 10
328.2708205702
 20
104.4754225942
 30
0.0
 10
328.8555566919
 20
104.5661472022
 30
0.0
 10
329.1372340356
 20
104.6361752846
 30
0.0
  0
SPLINE
  5
42E
330
222
100
AcDbEntity
  8
02___PRT_ALL_AXES
  6
Continuous
 62
     7
100
AcDbSpline
 70
     0
 71
     3
 72
    15
 73
    11
 74
     0
 42
0.000000001
 43
0.0000001
 40
0.0
 40
0.0
 40
0.0
 40
0.0
 40
0.1459576921
 40
0.2860230484
 40
0.4195442106
 40
0.5462976354
 40
0.6665736958
 40
0.7812367823
 40
0.8917325655
 40
1.0
 40
1.0
 40
1.0
 40
1.0
 10
305.3541818491
 20
119.8863004338
 30
0.0
 10
305.3229456705
 20
121.0531484789
 30
0.0
 10
305.3802927363
 20
123.3451822527
 30
0.0
 10
305.8447067931
 20
126.6757216931
 30
0.0
 10
306.6784713357
 20
129.7763595643
 30
0.0
 10
307.8681462236
 20
132.5891346672
 30
0.0
 10
309.3943021817
 20
135.061013304
 30
0.0
 10
311.2319826063
 20
137.1434802732
 30
0.0
 10
313.3474975945
 20
138.792322191
 30
0.0
 10
314.9242562701
 20
139.5817536348
 30
0.0
 10
315.733611168
 20
139.8893802902
 30
0.0
  0
SPLINE
  5
42F
330
222
100
AcDbEntity
  8
7_ALL_FEATURES
  6
Continuous
 62
     7
100
AcDbSpline
 70
     0
 71
     3
 72
    18
 73
    14
 74
     0
 42
0.000000001
 43
0.0000001
 40
0.0
 40
0.0
 40
0.0
 40
0.0
 40
0.1374508513
 40
0.2789264618
 40
0.4196626153
 40
0.5549942816
 40
0.6811724987
 40
0.7402361343
 40
0.7964780058
 40
0.8500809417
 40
0.9014395475
 40
0.9511551118
 40
1.0
 40
1.0
 40
1.0
 40
1.0
 10
333.0144874167
 20
112.0580244754
 30
0.0
 10
332.9919195241
 20
112.901062982
 30
0.0
 10
332.7745588605
 20
114.61045155
 30
0.0
 10
332.001365389
 20
117.0791376253
 30
0.0
 10
330.8206526002
 20
119.3680069736
 30
0.0
 10
329.3054681643
 20
121.3337320205
 30
0.0
 10
327.8033591004
 20
122.6311784062
 30
0.0
 10
326.521212454
 20
123.3809086425
 30
0.0
 10
325.5620585677
 20
123.7823407263
 30
0.0
 10
324.5999448934
 20
124.0278448744
 30
0.0
 10
323.6501357841
 20
124.1123662079
 30
0.0
 10
322.7289504114
 20
124.0334204002
 30
0.0
 10
322.1421204855
 20
123.871164755
 30
0.0
 10
321.8619862806
 20
123.7646757104
 30
0.0
  0
SPLINE
  5
430
330
222
100
AcDbEntity
  8
02___PRT_ALL_AXES
  6
Continuous
 62
     7
100
AcDbSpline
 70
     0
 71
     3
 72
    14
 73
    10
 74
     0
 42
0.000000001
 43
0.0000001
 40
0.0
 40
0.0
 40
0.0
 40
0.0
 40
0.1081770527
 40
0.2189090628
 40
0.3339502167
 40
0.454581321
 40
0.5815474113
 40
0.715070357
 40
1.0
 40
1.0
 40
1.0
 40
1.0
 10
336.3530990467
 20
88.9014902087
 30
0.0
 10
337.1279129867
 20
89.236233472
 30
0.0
 10
338.6329666562
 20
90.07010893
 30
0.0
 10
340.6424862548
 20
91.7507674307
 30
0.0
 10
342.384308741
 20
93.8348156547
 30
0.0
 10
343.8284077245
 20
96.2809188756
 30
0.0
 10
344.9525232011
 20
99.044720797
 30
0.0
 10
346.0235457315
 20
103.1726229683
 30
0.0
 10
346.2575017658
 20
106.4653274045
 30
0.0
 10
346.1980110299
 20
108.6876430671
 30
0.0
  0
SPLINE
  5
431
330
222
100
AcDbEntity
  8
02___PRT_ALL_AXES
  6
Continuous
 62
     7
100
AcDbSpline
 70
     0
 71
     3
 72
    20
 73
    16
 74
     0
 42
0.000000001
 43
0.0000001
 40
0.0
 40
0.0
 40
0.0
 40
0.0
 40
0.0488334736
 40
0.0985375699
 40
0.1498846858
 40
0.2034760448
 40
0.3185007955
 40
0.3803589171
 40
0.4448437861
 40
0.5116346175
 40
0.5803001435
 40
0.7210030064
 40
0.7920066617
 40
0.862586536
 40
1.0
 40
1.0
 40
1.0
 40
1.0
 10
335.2745354763
 20
88.4777854062
 30
0.0
 10
334.5229612926
 20
88.1921205477
 30
0.0
 10
332.9484882973
 20
87.7570628944
 30
0.0
 10
330.4771295973
 20
87.5453276763
 30
0.0
 10
327.9286590502
 20
87.772323437
 30
0.0
 10
324.4070968134
 20
88.6709811793
 30
0.0
 10
320.9824401679
 20
90.4274002389
 30
0.0
 10
317.8143966551
 20
92.8339495335
 30
0.0
 10
315.5034612489
 20
95.0281947
 30
0.0
 10
313.3560873611
 20
97.5304244546
 30
0.0
 10
310.7351432755
 20
101.2524640823
 30
0.0
 10
308.6056225216
 20
105.3808662492
 30
0.0
 10
307.0263155875
 20
109.7572154454
 30
0.0
 10
305.8498978439
 20
114.2016201819
 30
0.0
 10
305.4147261516
 20
117.6246280942
 30
0.0
 10
305.3541818491
 20
119.8863004338
 30
0.0
  0
SPLINE
  5
432
330
222
100
AcDbEntity
  8
7_ALL_FEATURES
  6
Continuous
 62
     7
100
AcDbSpline
 70
     0
 71
     3
 72
    14
 73
    10
 74
     0
 42
0.000000001
 43
0.0000001
 40
0.0
 40
0.0
 40
0.0
 40
0.0
 40
0.1081084979
 40
0.2192304137
 40
0.3348241959
 40
0.4559222282
 40
0.5830922718
 40
0.7164435791
 40
1.0
 40
1.0
 40
1.0
 40
1.0
 10
321.8835595592
 20
123.7365036765
 30
0.0
 10
321.6163408351
 20
123.5967944291
 30
0.0
 10
321.0997544728
 20
123.2622069376
 30
0.0
 10
320.4150969252
 20
122.6206506434
 30
0.0
 10
319.8236545295
 20
121.8464543008
 30
0.0
 10
319.3346393441
 20
120.9531934169
 30
0.0
 10
318.9550015956
 20
119.9554032395
 30
0.0
 10
318.5946819732
 20
118.478332565
 30
0.0
 10
318.5165409532
 20
117.3065332188
 30
0.0
 10
318.5377054623
 20
116.5159190255
 30
0.0
  0
SPLINE
  5
433
330
222
100
AcDbEntity
  8
7_ALL_FEATURES
  6
Continuous
 62
     7
100
AcDbSpline
 70
     0
 71
     3
 72
    14
 73
    10
 74
     0
 42
0.000000001
 43
0.0000001
 40
0.0
 40
0.0
 40
0.0
 40
0.0
 40
0.108317377
 40
0.2188647256
 40
0.3335814326
 40
0.4539141464
 40
0.5807306065
 40
0.7143021301
 40
1.0
 40
1.0
 40
1.0
 40
1.0
 10
321.8619862806
 20
123.7646757104
 30
0.0
 10
321.5603376025
 20
123.6500082439
 30
0.0
 10
320.9727006909
 20
123.3557042224
 30
0.0
 10
320.1842596343
 20
122.7411345549
 30
0.0
 10
319.4993595287
 20
121.9649423178
 30
0.0
 10
318.9305781237
 20
121.0436550641
 30
0.0
 10
318.4872208843
 20
119.9951325013
 30
0.0
 10
318.0636884149
 20
118.4204244173
 30
0.0
 10
317.9708816862
 20
117.1600112988
 30
0.0
 10
317.9936592276
 20
116.309141221
 30
0.0
  0
SPLINE
  5
434
330
222
100
AcDbEntity
  8
02___PRT_ALL_AXES
  6
Continuous
 62
     7
100
AcDbSpline
 70
     0
 71
     3
 72
    14
 73
    10
 74
     0
 42
0.000000001
 43
0.0000001
 40
0.0
 40
0.0
 40
0.0
 40
0.0
 40
0.2841138528
 40
0.4175486712
 40
0.5446444428
 40
0.6655611057
 40
0.7809339657
 40
0.8918886794
 40
1.0
 40
1.0
 40
1.0
 40
1.0
 10
345.6539647953
 20
108.4808652626
 30
0.0
 10
345.7118254195
 20
106.3194434956
 30
0.0
 10
345.4926339147
 20
103.1162869112
 30
0.0
 10
344.485100344
 20
99.0872692555
 30
0.0
 10
343.4250843652
 20
96.3750490569
 30
0.0
 10
342.061231331
 20
93.9577727903
 30
0.0
 10
340.4134737757
 20
91.8764763831
 30
0.0
 10
338.5084727715
 20
90.1695952697
 30
0.0
 10
337.0752507678
 20
89.2957206373
 30
0.0
 10
336.3352437983
 20
88.9361016849
 30
0.0
  0
SPLINE
  5
435
330
222
100
AcDbEntity
  8
7_ALL_FEATURES
  6
Continuous
 62
     7
100
AcDbSpline
 70
     0
 71
     3
 72
    18
 73
    14
 74
     0
 42
0.000000001
 43
0.0000001
 40
0.0
 40
0.0
 40
0.0
 40
0.0
 40
0.1374508513
 40
0.2789264618
 40
0.4196626153
 40
0.5549942816
 40
0.6811724987
 40
0.7402361343
 40
0.7964780058
 40
0.8500809417
 40
0.9014395475
 40
0.9511551118
 40
1.0
 40
1.0
 40
1.0
 40
1.0
 10
317.9936592276
 20
116.309141221
 30
0.0
 10
318.0162271202
 20
115.4661027144
 30
0.0
 10
318.2335877838
 20
113.7567141464
 30
0.0
 10
319.0067812553
 20
111.2880280711
 30
0.0
 10
320.1874940441
 20
108.9991587228
 30
0.0
 10
321.70267848
 20
107.0334336759
 30
0.0
 10
323.2047875439
 20
105.7359872902
 30
0.0
 10
324.4869341904
 20
104.986257054
 30
0.0
 10
325.4460880767
 20
104.5848249701
 30
0.0
 10
326.4082017509
 20
104.339320822
 30
0.0
 10
327.3580108603
 20
104.2547994885
 30
0.0
 10
328.2791962329
 20
104.3337452962
 30
0.0
 10
328.8660261588
 20
104.4960009414
 30
0.0
 10
329.1461603637
 20
104.602489986
 30
0.0
  0
SPLINE
  5
436
330
222
100
AcDbEntity
  8
02___PRT_ALL_AXES
  6
Continuous
 62
     7
100
AcDbSpline
 70
     0
 71
     3
 72
    18
 73
    14
 74
     0
 42
0.000000001
 43
0.0000001
 40
0.0
 40
0.0
 40
0.0
 40
0.0
 40
0.0492305846
 40
0.0994805174
 40
0.1513097007
 40
0.2051545298
 40
0.2613102477
 40
0.319929719
 40
0.4443642656
 40
0.5774806044
 40
0.716752297
 40
0.8588265871
 40
1.0
 40
1.0
 40
1.0
 40
1.0
 10
316.8326365254
 20
140.2518166954
 30
0.0
 10
317.5135117885
 20
140.44318683
 30
0.0
 10
318.9235013941
 20
140.7176657278
 30
0.0
 10
321.1041966154
 20
140.7916307561
 30
0.0
 10
323.3371024847
 20
140.5315349035
 30
0.0
 10
325.5931602305
 20
139.942133793
 30
0.0
 10
327.844947384
 20
139.0322538606
 30
0.0
 10
330.863591028
 20
137.3759524862
 30
0.0
 10
334.4605382032
 20
134.54702497
 30
0.0
 10
338.2386613661
 20
130.2421414211
 30
0.0
 10
341.396143585
 20
125.163930907
 30
0.0
 10
343.7823755783
 20
119.5586887821
 30
0.0
 10
344.7963330346
 20
115.5978305113
 30
0.0
 10
345.1404830259
 20
113.5991133663
 30
0.0
  0
SPLINE
  5
437
330
222
100
AcDbEntity
  8
02___PRT_ALL_AXES
  6
Continuous
 62
     7
100
AcDbSpline
 70
     0
 71
     3
 72
     9
 73
     5
 74
     0
 42
0.000000001
 43
0.0000001
 40
0.0
 40
0.0
 40
0.0
 40
0.0
 40
0.2534838788
 40
1.0
 40
1.0
 40
1.0
 40
1.0
 10
345.1404830259
 20
113.5991133663
 30
0.0
 10
345.2142709036
 20
113.170576101
 30
0.0
 10
345.476112857
 20
111.4751284448
 30
0.0
 10
345.6196951324
 20
109.7610311146
 30
0.0
 10
345.6539647953
 20
108.4808652626
 30
0.0
  0
SPLINE
  5
438
330
222
100
AcDbEntity
  8
0
  6
Continuous
 62
     7
100
AcDbSpline
 70
     0
 71
     3
 72
    15
 73
    11
 74
     0
 42
0.000000001
 43
0.0000001
 40
0.0
 40
0.0
 40
0.0
 40
0.0
 40
0.1459576921
 40
0.2860230484
 40
0.4195442106
 40
0.5462976354
 40
0.6665736958
 40
0.7812367823
 40
0.8917325655
 40
1.0
 40
1.0
 40
1.0
 40
1.0
 10
346.7420572646
 20
108.8944208716
 30
0.0
 10
346.7732934432
 20
107.7275728266
 30
0.0
 10
346.7159463774
 20
105.4355390528
 30
0.0
 10
346.2515323206
 20
102.1049996123
 30
0.0
 10
345.417767778
 20
99.0043617411
 30
0.0
 10
344.2280928901
 20
96.1915866383
 30
0.0
 10
342.701936932
 20
93.7197080015
 30
0.0
 10
340.8642565075
 20
91.6372410323
 30
0.0
 10
338.7487415192
 20
89.9883991145
 30
0.0
 10
337.1719828436
 20
89.1989676707
 30
0.0
 10
336.3626279457
 20
88.8913410153
 30
0.0
  0
SPLINE
  5
439
330
222
100
AcDbEntity
  8
0
  6
Continuous
 62
     7
100
AcDbSpline
 70
     0
 71
     3
 72
    18
 73
    14
 74
     0
 42
0.000000001
 43
0.0000001
 40
0.0
 40
0.0
 40
0.0
 40
0.0
 40
0.0495869496
 40
0.0998417054
 40
0.1513746907
 40
0.2046931348
 40
0.2601733605
 40
0.3180508072
 40
0.4410958488
 40
0.5733941353
 40
0.7128044817
 40
0.8562101391
 40
1.0
 40
1.0
 40
1.0
 40
1.0
 10
316.8217036374
 20
140.3029358992
 30
0.0
 10
317.472486335
 20
140.5502910523
 30
0.0
 10
318.8256952217
 20
140.9427261833
 30
0.0
 10
320.9433895375
 20
141.2030458796
 30
0.0
 10
323.1282338841
 20
141.1351013956
 30
0.0
 10
325.3518547649
 20
140.7410418905
 30
0.0
 10
327.5873535675
 20
140.0272628337
 30
0.0
 10
330.6079572467
 20
138.6347314054
 30
0.0
 10
334.2573312136
 20
136.1176783682
 30
0.0
 10
338.1602241896
 20
132.1437548293
 30
0.0
 10
341.5074883775
 20
127.3412036148
 30
0.0
 10
344.1432826172
 20
121.9385956864
 30
0.0
 10
345.3546098411
 20
118.0733062806
 30
0.0
 10
345.8074884149
 20
116.105933992
 30
0.0
  0
SPLINE
  5
43A
330
222
100
AcDbEntity
  8
0
  6
Continuous
 62
     7
100
AcDbSpline
 70
     0
 71
     3
 72
     9
 73
     5
 74
     0
 42
0.000000001
 43
0.0000001
 40
0.0
 40
0.0
 40
0.0
 40
0.0
 40
0.2542763775
 40
1.0
 40
1.0
 40
1.0
 40
1.0
 10
345.8358362976
 20
115.981855714
 30
0.0
 10
345.9698734593
 20
115.3907101655
 30
0.0
 10
346.4424335309
 20
113.054019829
 30
0.0
 10
346.6944864334
 20
110.6714606384
 30
0.0
 10
346.7420572646
 20
108.8944208716
 30
0.0
  0
SPLINE
  5
43B
330
222
100
AcDbEntity
  8
7_ALL_FEATURES
  6
Continuous
 62
     7
100
AcDbSpline
 70
     0
 71
     3
 72
    11
 73
     7
 74
     0
 42
0.000000001
 43
0.0000001
 40
0.0
 40
0.0
 40
0.0
 40
0.0
 40
0.2518900387
 40
0.5048889196
 40
0.755411327
 40
1.0
 40
1.0
 40
1.0
 40
1.0
 10
363.9006025494
 20
124.1959178288
 30
0.0
 10
363.6688311201
 20
125.262682189
 30
0.0
 10
363.0794716671
 20
127.3757283448
 30
0.0
 10
361.8487977509
 20
130.4166270722
 30
0.0
 10
360.2981144775
 20
133.2716612462
 30
0.0
 10
359.0572147651
 20
135.0297817827
 30
0.0
 10
358.3924129972
 20
135.8554075097
 30
0.0
  0
SPLINE
  5
43C
330
222
100
AcDbEntity
  8
7_ALL_FEATURES
  6
Continuous
 62
     7
100
AcDbSpline
 70
     0
 71
     3
 72
    11
 73
     7
 74
     0
 42
0.000000001
 43
0.0000001
 40
0.0
 40
0.0
 40
0.0
 40
0.0
 40
0.2616465523
 40
0.5136358287
 40
0.7586500476
 40
1.0
 40
1.0
 40
1.0
 40
1.0
 10
349.3267614433
 20
142.3119855502
 30
0.0
 10
348.764893716
 20
142.4701095051
 30
0.0
 10
347.6387422978
 20
142.7057553232
 30
0.0
 10
345.9420661702
 20
142.7988446937
 30
0.0
 10
344.2971042608
 20
142.6218091033
 30
0.0
 10
343.2474715024
 20
142.3232486712
 30
0.0
 10
342.7441863727
 20
142.1319503974
 30
0.0
  0
SPLINE
  5
43D
330
222
100
AcDbEntity
  8
7_ALL_FEATURES
  6
Continuous
 62
     7
100
AcDbSpline
 70
     0
 71
     3
 72
    13
 73
     9
 74
     0
 42
0.000000001
 43
0.0000001
 40
0.0
 40
0.0
 40
0.0
 40
0.0
 40
0.2752022859
 40
0.5317098422
 40
0.6536316014
 40
0.7718325786
 40
0.8870045483
 40
1.0
 40
1.0
 40
1.0
 40
1.0
 10
353.547173251
 20
110.6204152546
 30
0.0
 10
353.3558736853
 20
109.5971306806
 30
0.0
 10
352.8280759579
 20
107.6444306985
 30
0.0
 10
351.7385750799
 20
105.4042864774
 30
0.0
 10
350.6471544909
 20
103.8707531137
 30
0.0
 10
349.7437028758
 20
102.8712367771
 30
0.0
 10
348.7495992492
 20
102.0127028845
 30
0.0
 10
348.0266150503
 20
101.5359152725
 30
0.0
 10
347.6548251981
 20
101.3250395507
 30
0.0
  0
SPLINE
  5
43E
330
222
100
AcDbEntity
  8
7_ALL_FEATURES
  6
Continuous
 62
     7
100
AcDbSpline
 70
     0
 71
     3
 72
    13
 73
     9
 74
     0
 42
0.000000001
 43
0.0000001
 40
0.0
 40
0.0
 40
0.0
 40
0.0
 40
0.2752022859
 40
0.5317098422
 40
0.6536316014
 40
0.7718325786
 40
0.8870045483
 40
1.0
 40
1.0
 40
1.0
 40
1.0
 10
361.2998320954
 20
113.5669989691
 30
0.0
 10
361.1085325297
 20
112.5437143951
 30
0.0
 10
360.5807348023
 20
110.591014413
 30
0.0
 10
359.4912339243
 20
108.3508701919
 30
0.0
 10
358.3998133353
 20
106.8173368282
 30
0.0
 10
357.4963617202
 20
105.8178204916
 30
0.0
 10
356.5022580936
 20
104.959286599
 30
0.0
 10
355.7792738947
 20
104.482498987
 30
0.0
 10
355.4074840425
 20
104.2716232651
 30
0.0
  0
SPLINE
  5
43F
330
222
100
AcDbEntity
  8
7_ALL_FEATURES
  6
Continuous
 62
     7
100
AcDbSpline
 70
     0
 71
     3
 72
    13
 73
     9
 74
     0
 42
0.000000001
 43
0.0000001
 40
0.0
 40
0.0
 40
0.0
 40
0.0
 40
0.2752022859
 40
0.5317098422
 40
0.6536316014
 40
0.7718325786
 40
0.8870045483
 40
1.0
 40
1.0
 40
1.0
 40
1.0
 10
356.1313928658
 20
111.6026098261
 30
0.0
 10
355.9400933001
 20
110.5793252521
 30
0.0
 10
355.4122955727
 20
108.62662527
 30
0.0
 10
354.3227946947
 20
106.3864810489
 30
0.0
 10
353.2313741057
 20
104.8529476852
 30
0.0
 10
352.3279224906
 20
103.8534313486
 30
0.0
 10
351.333818864
 20
102.994897456
 30
0.0
 10
350.6108346651
 20
102.518109844
 30
0.0
 10
350.2390448129
 20
102.3072341221
 30
0.0
  0
SPLINE
  5
440
330
222
100
AcDbEntity
  8
7_ALL_FEATURES
  6
Continuous
 62
     7
100
AcDbSpline
 70
     0
 71
     3
 72
    13
 73
     9
 74
     0
 42
0.000000001
 43
0.0000001
 40
0.0
 40
0.0
 40
0.0
 40
0.0
 40
0.2752022859
 40
0.5317098422
 40
0.6536316014
 40
0.7718325786
 40
0.8870045483
 40
1.0
 40
1.0
 40
1.0
 40
1.0
 10
358.7156124806
 20
112.5848043976
 30
0.0
 10
358.5243129149
 20
111.5615198236
 30
0.0
 10
357.9965151875
 20
109.6088198415
 30
0.0
 10
356.9070143095
 20
107.3686756204
 30
0.0
 10
355.8155937205
 20
105.8351422567
 30
0.0
 10
354.9121421054
 20
104.8356259201
 30
0.0
 10
353.9180384788
 20
103.9770920275
 30
0.0
 10
353.1950542799
 20
103.5003044155
 30
0.0
 10
352.8232644277
 20
103.2894286936
 30
0.0
  0
SPLINE
  5
441
330
222
100
AcDbEntity
  8
7_ALL_FEATURES
  6
Continuous
 62
     7
100
AcDbSpline
 70
     0
 71
     3
 72
    14
 73
    10
 74
     0
 42
0.000000001
 43
0.0000001
 40
0.0
 40
0.0
 40
0.0
 40
0.0
 40
0.1132336322
 40
0.227857766
 40
0.3451527654
 40
0.4662023484
 40
0.5918362332
 40
0.7225924759
 40
1.0
 40
1.0
 40
1.0
 40
1.0
 10
356.9560982767
 20
104.7418288039
 30
0.0
 10
357.4074877557
 20
104.9134015825
 30
0.0
 10
358.2905466416
 20
105.3296658268
 30
0.0
 10
359.5154473026
 20
106.1553429079
 30
0.0
 10
360.6308281461
 20
107.1739415644
 30
0.0
 10
361.623956275
 20
108.3728613082
 30
0.0
 10
362.4844537132
 20
109.7383079651
 30
0.0
 10
363.4617273838
 20
111.7987330236
 30
0.0
 10
363.9386768311
 20
113.489694198
 30
0.0
 10
364.1560748275
 20
114.6525824428
 30
0.0
  0
SPLINE
  5
442
330
222
100
AcDbEntity
  8
7_ALL_FEATURES
  6
Continuous
 62
     7
100
AcDbSpline
 70
     0
 71
     3
 72
    11
 73
     7
 74
     0
 42
0.000000001
 43
0.0000001
 40
0.0
 40
0.0
 40
0.0
 40
0.0
 40
0.2361260229
 40
0.4796167741
 40
0.7335505531
 40
1.0
 40
1.0
 40
1.0
 40
1.0
 10
341.2776592135
 20
141.4557446351
 30
0.0
 10
341.8636626171
 20
141.58076775
 30
0.0
 10
343.0805379133
 20
141.7225915125
 30
0.0
 10
344.9471053888
 20
141.6060352872
 30
0.0
 10
346.843352832
 20
141.1675971053
 30
0.0
 10
348.0757299118
 20
140.6788779934
 30
0.0
 10
348.6863966964
 20
140.388616477
 30
0.0
  0
SPLINE
  5
443
330
222
100
AcDbEntity
  8
7_ALL_FEATURES
  6
Continuous
 62
     7
100
AcDbSpline
 70
     0
 71
     3
 72
    11
 73
     7
 74
     0
 42
0.000000001
 43
0.0000001
 40
0.0
 40
0.0
 40
0.0
 40
0.0
 40
0.2312355809
 40
0.4725430517
 40
0.7280784443
 40
1.0
 40
1.0
 40
1.0
 40
1.0
 10
338.6934395987
 20
140.4735500636
 30
0.0
 10
339.4311682579
 20
140.6309435777
 30
0.0
 10
340.9820989401
 20
140.7730505371
 30
0.0
 10
343.3537535078
 20
140.4643099481
 30
0.0
 10
345.7421761097
 20
139.6542836449
 30
0.0
 10
347.2587356022
 20
138.822718469
 30
0.0
 10
348.0026197155
 20
138.3394940723
 30
0.0
  0
SPLINE
  5
444
330
222
100
AcDbEntity
  8
7_ALL_FEATURES
  6
Continuous
 62
     7
100
AcDbSpline
 70
     0
 71
     3
 72
    13
 73
     9
 74
     0
 42
0.000000001
 43
0.0000001
 40
0.0
 40
0.0
 40
0.0
 40
0.0
 40
0.1122166825
 40
0.2267614509
 40
0.3445592803
 40
0.4663442968
 40
0.7233915942
 40
1.0
 40
1.0
 40
1.0
 40
1.0
 10
336.1092199839
 20
139.4913554921
 30
0.0
 10
336.5496687997
 20
139.5853247124
 30
0.0
 10
337.4543085239
 20
139.7123547764
 30
0.0
 10
338.8409616186
 20
139.7172433795
 30
0.0
 10
340.2547848697
 20
139.5385131102
 30
0.0
 10
342.1914291435
 20
139.0498414308
 30
0.0
 10
344.6132565138
 20
137.9702101438
 30
0.0
 10
346.3749908255
 20
136.7298883391
 30
0.0
 10
347.2279972227
 20
136.0194365434
 30
0.0
  0
SPLINE
  5
445
330
222
100
AcDbEntity
  8
7_ALL_FEATURES
  6
Continuous
 62
     7
100
AcDbSpline
 70
     0
 71
     3
 72
    13
 73
     9
 74
     0
 42
0.000000001
 43
0.0000001
 40
0.0
 40
0.0
 40
0.0
 40
0.0
 40
0.1097410611
 40
0.2223223714
 40
0.3389127393
 40
0.4603718367
 40
0.719251208
 40
1.0
 40
1.0
 40
1.0
 40
1.0
 10
333.5250003692
 20
138.5091609207
 30
0.0
 10
334.0396553233
 20
138.6189619305
 30
0.0
 10
335.1025258579
 20
138.7552703518
 30
0.0
 10
336.7329503191
 20
138.7059556236
 30
0.0
 10
338.393463051
 20
138.4069037618
 30
0.0
 10
340.6651420959
 20
137.6665837408
 30
0.0
 10
343.4641794973
 20
136.1141101708
 30
0.0
 10
345.429436807
 20
134.4034681601
 30
0.0
 10
346.3642324377
 20
133.4346612092
 30
0.0
  0
SPLINE
  5
446
330
222
100
AcDbEntity
  8
7_ALL_FEATURES
  6
Continuous
 62
     7
100
AcDbSpline
 70
     0
 71
     3
 72
     9
 73
     5
 74
     0
 42
0.000000001
 43
0.0000001
 40
0.0
 40
0.0
 40
0.0
 40
0.0
 40
0.5023364107
 40
1.0
 40
1.0
 40
1.0
 40
1.0
 10
362.404475404
 20
123.6272788664
 30
0.0
 10
362.0111276301
 20
125.4377236981
 30
0.0
 10
360.8722288939
 20
128.9720003904
 30
0.0
 10
359.0884689535
 20
132.2302660184
 30
0.0
 10
358.047153496
 20
133.7417334846
 30
0.0
  0
SPLINE
  5
447
330
222
100
AcDbEntity
  8
7_ALL_FEATURES
  6
Continuous
 62
     7
100
AcDbSpline
 70
     0
 71
     3
 72
    11
 73
     7
 74
     0
 42
0.000000001
 43
0.0000001
 40
0.0
 40
0.0
 40
0.0
 40
0.0
 40
0.2630767685
 40
0.5162567379
 40
0.7611688265
 40
1.0
 40
1.0
 40
1.0
 40
1.0
 10
349.0156536591
 20
141.3487106352
 30
0.0
 10
348.5066748471
 20
141.5445053481
 30
0.0
 10
347.4842474237
 20
141.8711182487
 30
0.0
 10
345.9275931876
 20
142.1555442882
 30
0.0
 10
344.3964308324
 20
142.2207238845
 30
0.0
 10
343.3946949851
 20
142.1156578562
 30
0.0
 10
342.9077538718
 20
142.0262569759
 30
0.0
  0
SPLINE
  5
448
330
222
100
AcDbEntity
  8
7_ALL_FEATURES
  6
Continuous
 62
     7
100
AcDbSpline
 70
     0
 71
     3
 72
    11
 73
     7
 74
     0
 42
0.000000001
 43
0.0000001
 40
0.0
 40
0.0
 40
0.0
 40
0.0
 40
0.2693423997
 40
0.5240016961
 40
0.7662831997
 40
1.0
 40
1.0
 40
1.0
 40
1.0
 10
348.3796290025
 20
139.4496613085
 30
0.0
 10
347.690686287
 20
139.8340139802
 30
0.0
 10
346.2936331909
 20
140.486882846
 30
0.0
 10
344.1203599521
 20
141.0912862877
 30
0.0
 10
341.9753668279
 20
141.2766001855
 30
0.0
 10
340.5787617281
 20
141.112054596
 30
0.0
 10
339.9115206647
 20
140.9590619577
 30
0.0
  0
SPLINE
  5
449
330
222
100
AcDbEntity
  8
7_ALL_FEATURES
  6
Continuous
 62
     7
100
AcDbSpline
 70
     0
 71
     3
 72
    13
 73
     9
 74
     0
 42
0.000000001
 43
0.0000001
 40
0.0
 40
0.0
 40
0.0
 40
0.0
 40
0.1129854467
 40
0.2280876403
 40
0.3461981336
 40
0.4680435848
 40
0.7245329772
 40
1.0
 40
1.0
 40
1.0
 40
1.0
 10
348.8880220847
 20
101.7712630467
 30
0.0
 10
349.2677150529
 20
101.979073805
 30
0.0
 10
350.0064848336
 20
102.4514586728
 30
0.0
 10
351.0229758129
 20
103.3087522483
 30
0.0
 10
351.9468829884
 20
104.3118026345
 30
0.0
 10
353.0630455695
 20
105.8564308137
 30
0.0
 10
354.176392669
 20
108.1217480278
 30
0.0
 10
354.7133635598
 20
110.1000299389
 30
0.0
 10
354.9072888377
 20
111.1373597659
 30
0.0
  0
SPLINE
  5
44A
330
222
100
AcDbEntity
  8
7_ALL_FEATURES
  6
Continuous
 62
     7
100
AcDbSpline
 70
     0
 71
     3
 72
    13
 73
     9
 74
     0
 42
0.000000001
 43
0.0000001
 40
0.0
 40
0.0
 40
0.0
 40
0.0
 40
0.1129854467
 40
0.2280876403
 40
0.3461981336
 40
0.4680435848
 40
0.7245329772
 40
1.0
 40
1.0
 40
1.0
 40
1.0
 10
351.4722416995
 20
102.7534576182
 30
0.0
 10
351.8519346677
 20
102.9612683765
 30
0.0
 10
352.5907044484
 20
103.4336532443
 30
0.0
 10
353.6071954277
 20
104.2909468198
 30
0.0
 10
354.5311026031
 20
105.293997206
 30
0.0
 10
355.6472651843
 20
106.8386253852
 30
0.0
 10
356.7606122838
 20
109.1039425993
 30
0.0
 10
357.2975831746
 20
111.0822245104
 30
0.0
 10
357.4915084525
 20
112.1195543374
 30
0.0
  0
LINE
  5
44B
330
222
100
AcDbEntity
  8
7_ALL_FEATURES
  6
Continuous
 62
     7
100
AcDbLine
 10
354.6518165597
 20
120.6806951519
 30
0.0
 11
354.6475846435
 21
120.7001399156
 31
0.0
  0
SPLINE
  5
44C
330
222
100
AcDbEntity
  8
7_ALL_FEATURES
  6
Continuous
 62
     7
100
AcDbSpline
 70
     0
 71
     3
 72
    14
 73
    10
 74
     0
 42
0.000000001
 43
0.0000001
 40
0.0
 40
0.0
 40
0.0
 40
0.0
 40
0.2788413931
 40
0.4105682786
 40
0.5370260167
 40
0.6585016424
 40
0.7755565385
 40
0.8890275822
 40
1.0
 40
1.0
 40
1.0
 40
1.0
 10
346.8285135155
 20
134.8296153291
 30
0.0
 10
345.9223715974
 20
135.6684493281
 30
0.0
 10
344.4761839604
 20
136.7947770924
 30
0.0
 10
342.3919175118
 20
137.9473801162
 30
0.0
 10
340.8356148523
 20
138.5938186856
 30
0.0
 10
339.2749250567
 20
139.0300478433
 30
0.0
 10
337.7268675815
 20
139.2504578788
 30
0.0
 10
336.2095867136
 20
139.2516900534
 30
0.0
 10
335.2220738656
 20
139.1045016602
 30
0.0
 10
334.7430814351
 20
138.9946728147
 30
0.0
  0
SPLINE
  5
44D
330
222
100
AcDbEntity
  8
7_ALL_FEATURES
  6
Continuous
 62
     7
100
AcDbSpline
 70
     0
 71
     3
 72
    13
 73
     9
 74
     0
 42
0.000000001
 43
0.0000001
 40
0.0
 40
0.0
 40
0.0
 40
0.0
 40
0.1129854467
 40
0.2280876403
 40
0.3461981336
 40
0.4680435848
 40
0.7245329772
 40
1.0
 40
1.0
 40
1.0
 40
1.0
 10
354.0564613143
 20
103.7356521897
 30
0.0
 10
354.4361542825
 20
103.943462948
 30
0.0
 10
355.1749240632
 20
104.4158478158
 30
0.0
 10
356.1914150425
 20
105.2731413913
 30
0.0
 10
357.1153222179
 20
106.2761917775
 30
0.0
 10
358.2314847991
 20
107.8208199567
 30
0.0
 10
359.3448318986
 20
110.0861371707
 30
0.0
 10
359.8818027894
 20
112.0644190819
 30
0.0
 10
360.0757280673
 20
113.1017489089
 30
0.0
  0
SPLINE
  5
44E
330
222
100
AcDbEntity
  8
7_ALL_FEATURES
  6
Continuous
 62
     7
100
AcDbSpline
 70
     0
 71
     3
 72
    13
 73
     9
 74
     0
 42
0.000000001
 43
0.0000001
 40
0.0
 40
0.0
 40
0.0
 40
0.0
 40
0.1130137723
 40
0.2282596768
 40
0.3465520123
 40
0.4685487883
 40
0.7250686976
 40
1.0
 40
1.0
 40
1.0
 40
1.0
 10
356.8935082753
 20
104.8612467028
 30
0.0
 10
357.257422071
 20
105.0749937611
 30
0.0
 10
357.9647036433
 20
105.5558099118
 30
0.0
 10
358.9365994384
 20
106.4151433439
 30
0.0
 10
359.8197865734
 20
107.4107724042
 30
0.0
 10
360.886705883
 20
108.9328573377
 30
0.0
 10
361.9526058889
 20
111.1476344133
 30
0.0
 10
362.4712752169
 20
113.0747115854
 30
0.0
 10
362.6599476821
 20
114.0839434804
 30
0.0
  0
SPLINE
  5
44F
330
222
100
AcDbEntity
  8
7_ALL_FEATURES
  6
Continuous
 62
     7
100
AcDbSpline
 70
     0
 71
     3
 72
    13
 73
     9
 74
     0
 42
0.000000001
 43
0.0000001
 40
0.0
 40
0.0
 40
0.0
 40
0.0
 40
0.2743851713
 40
0.5305064383
 40
0.6524622856
 40
0.7708790825
 40
0.8864457845
 40
1.0
 40
1.0
 40
1.0
 40
1.0
 10
347.6486716475
 20
137.2722392732
 30
0.0
 10
346.8383779441
 20
137.867690678
 30
0.0
 10
345.1765987988
 20
138.897802603
 30
0.0
 10
342.9285704388
 20
139.7628744321
 30
0.0
 10
341.1431095672
 20
140.1308044313
 30
0.0
 10
339.840639368
 20
140.246205864
 30
0.0
 10
338.5646043435
 20
140.2039664883
 30
0.0
 10
337.7329230148
 20
140.0698730149
 30
0.0
 10
337.3273010499
 20
139.9768673862
 30
0.0
  0
SPLINE
  5
450
330
222
100
AcDbEntity
  8
0
  6
Continuous
 62
     7
100
AcDbSpline
 70
     0
 71
     3
 72
     9
 73
     5
 74
     0
 42
0.000000001
 43
0.0000001
 40
0.0
 40
0.0
 40
0.0
 40
0.0
 40
0.2533425115
 40
1.0
 40
1.0
 40
1.0
 40
1.0
 10
346.1980110299
 20
108.6876430671
 30
0.0
 10
346.2058797601
 20
108.393701464
 30
0.0
 10
346.2217032879
 20
107.2331085443
 30
0.0
 10
346.176118454
 20
106.0715311087
 30
0.0
 10
346.1049186542
 20
105.2078383561
 30
0.0
  0
SPLINE
  5
451
330
222
100
AcDbEntity
  8
0
  6
Continuous
 62
     7
100
AcDbSpline
 70
     0
 71
     3
 72
    14
 73
    10
 74
     0
 42
0.000000001
 43
0.0000001
 40
0.0
 40
0.0
 40
0.0
 40
0.0
 40
0.2780600525
 40
0.4097977386
 40
0.5364701776
 40
0.6582721234
 40
0.7756362407
 40
0.8892414872
 40
1.0
 40
1.0
 40
1.0
 40
1.0
 10
346.1049186542
 20
105.2078383561
 30
0.0
 10
345.9693302758
 20
103.5630767119
 30
0.0
 10
345.569850618
 20
101.1456322174
 30
0.0
 10
344.5918587357
 20
98.1110042389
 30
0.0
 10
343.6761927663
 20
96.0433330095
 30
0.0
 10
342.5745370783
 20
94.1664401149
 30
0.0
 10
341.2974379024
 20
92.4999536775
 30
0.0
 10
339.8581120347
 20
91.0625193233
 30
0.0
 10
338.7890336416
 20
90.2594908709
 30
0.0
 10
338.2357339042
 20
89.9045270868
 30
0.0
  0
SPLINE
  5
452
330
222
100
AcDbEntity
  8
0
  6
Continuous
 62
     7
100
AcDbSpline
 70
     0
 71
     3
 72
    15
 73
    11
 74
     0
 42
0.000000001
 43
0.0000001
 40
0.0
 40
0.0
 40
0.0
 40
0.0
 40
0.1060450758
 40
0.2160093316
 40
0.3313128288
 40
0.4528176631
 40
0.58083069
 40
0.7151607304
 40
0.855198324
 40
1.0
 40
1.0
 40
1.0
 40
1.0
 10
318.6457729995
 20
140.7481631811
 30
0.0
 10
319.5152039359
 20
140.9018720142
 30
0.0
 10
321.3217897358
 20
141.0377006794
 30
0.0
 10
324.0768330778
 20
140.7280078884
 30
0.0
 10
326.8617952803
 20
139.9190852295
 30
0.0
 10
329.6238616864
 20
138.6298148052
 30
0.0
 10
332.3135231374
 20
136.8868658373
 30
0.0
 10
334.8822723779
 20
134.7238476766
 30
0.0
 10
337.2833195234
 20
132.1819096529
 30
0.0
 10
338.7235915064
 20
130.291667424
 30
0.0
 10
339.4061201716
 20
129.2978801371
 30
0.0
  0
SPLINE
  5
453
330
222
100
AcDbEntity
  8
0
  6
Continuous
 62
     7
100
AcDbSpline
 70
     0
 71
     3
 72
     9
 73
     5
 74
     0
 42
0.000000001
 43
0.0000001
 40
0.0
 40
0.0
 40
0.0
 40
0.0
 40
0.2471375714
 40
1.0
 40
1.0
 40
1.0
 40
1.0
 10
339.4061201716
 20
129.2978801371
 30
0.0
 10
339.7424192366
 20
128.8082161092
 30
0.0
 10
341.0547954695
 20
126.7939690943
 30
0.0
 10
342.1747237059
 20
124.6550994159
 30
0.0
 10
342.9037855263
 20
122.9988608079
 30
0.0
  0
LINE
  5
454
330
222
100
AcDbEntity
  8
0
  6
Continuous
 62
     7
100
AcDbLine
 10
342.9037855263
 20
122.9988608079
 30
0.0
 11
342.9270973812
 21
122.9457977282
 31
0.0
  0
ENDSEC
  0
SECTION
  2
OBJECTS
  0
DICTIONARY
  5
C
330
0
100
AcDbDictionary
281
     1
  3
ACAD_GROUP
350
D
  3
ACAD_IMAGE_VARS
350
49E
  3
ACAD_LAYOUT
350
1A
  3
ACAD_MLINESTYLE
350
17
  3
ACAD_PLOTSETTINGS
350
19
  3
ACAD_PLOTSTYLENAME
350
E
  3
ACAD_SCALELIST
350
45A
  3
APPDATA
350
49C
  3
DWGPROPS
350
4C5
  0
DICTIONARY
  5
D
102
{ACAD_REACTORS
330
C
102
}
330
C
100
AcDbDictionary
281
     1
  0
RASTERVARIABLES
  5
49E
102
{ACAD_REACTORS
330
C
102
}
330
C
100
AcDbRasterVariables
 90
        0
 70
     1
 71
     1
 72
     1
  0
DICTIONARY
  5
1A
102
{ACAD_REACTORS
330
C
102
}
330
C
100
AcDbDictionary
281
     1
  3
Layout1
350
457
  3
Model
350
456
  0
DICTIONARY
  5
17
102
{ACAD_REACTORS
330
C
102
}
330
C
100
AcDbDictionary
281
     1
  3
Standard
350
18
  0
DICTIONARY
  5
19
102
{ACAD_REACTORS
330
C
102
}
330
C
100
AcDbDictionary
281
     1
  0
ACDBDICTIONARYWDFLT
  5
E
102
{ACAD_REACTORS
330
C
102
}
330
C
100
AcDbDictionary
281
     1
  3
Normal
350
F
100
AcDbDictionaryWithDefault
340
F
  0
DICTIONARY
  5
45A
102
{ACAD_REACTORS
330
C
102
}
330
C
100
AcDbDictionary
281
     1
  3
A0
350
45B
  3
A1
350
45C
  3
A2
350
45D
  3
A3
350
45E
  3
A4
350
45F
  3
A5
350
460
  3
A6
350
461
  3
A7
350
462
  3
A8
350
463
  3
A9
350
464
  3
B0
350
465
  3
B1
350
466
  3
B2
350
467
  3
B3
350
468
  3
B4
350
469
  3
B5
350
46A
  3
B6
350
46B
  3
B7
350
46C
  3
B8
350
46D
  3
B9
350
46E
  3
C0
350
46F
  3
C1
350
470
  3
C2
350
471
  3
C3
350
472
  3
C4
350
473
  3
C5
350
474
  3
C6
350
475
  3
C7
350
476
  3
C8
350
477
  3
C9
350
478
  3
D0
350
479
  3
D1
350
47A
  3
D2
350
47B
  0
DICTIONARY
  5
49C
102
{ACAD_REACTORS
330
C
102
}
330
C
100
AcDbDictionary
281
     1
  0
XRECORD
  5
4C5
102
{ACAD_REACTORS
330
C
102
}
330
C
100
AcDbXrecord
280
     1
  1
DWGPROPS COOKIE
  2

  3

  4

  6

  7

  8
andrea.faggionato
  9

300
=
301
=
302
=
303
=
304
=
305
=
306
=
307
=
308
=
309
=
 40
0.0
 41
0.0
 42
2456744.552739653
  1

 90
        0
  0
LAYOUT
  5
457
102
{ACAD_REACTORS
330
1A
102
}
330
1A
100
AcDbPlotSettings
  1

  2
none_device
  4
ISO_A3_(420.00_x_297.00_MM)
  6

 40
0.0
 41
0.0
 42
0.0
 43
0.0
 44
420.0
 45
297.0
 46
0.0
 47
0.0
 48
0.0
 49
0.0
140
0.0
141
0.0
142
1.0
143
1.0
 70
     0
 72
     1
 73
     0
 74
     0
  7

 75
     0
147
1.0
148
0.0
149
0.0
100
AcDbLayout
  1
Layout1
 70
     0
 71
     1
 10
0.0
 20
0.0
 11
420.0
 21
297.0
 12
0.0
 22
0.0
 32
0.0
 14
0.0
 24
0.0
 34
0.0
 15
0.0
 25
0.0
 35
0.0
146
0.0
 13
0.0
 23
0.0
 33
0.0
 16
1.0
 26
0.0
 36
0.0
 17
0.0
 27
1.0
 37
0.0
 76
     0
330
223
  0
LAYOUT
  5
456
102
{ACAD_REACTORS
330
1A
102
}
330
1A
100
AcDbPlotSettings
  1

  2
none_device
  4
ISO_A3_(420.00_x_297.00_MM)
  6

 40
0.0
 41
0.0
 42
0.0
 43
0.0
 44
420.0
 45
297.0
 46
0.0
 47
0.0
 48
0.0
 49
0.0
140
0.0
141
0.0
142
1.0
143
1.0
 70
  1024
 72
     1
 73
     0
 74
     0
  7

 75
     0
147
1.0
148
0.0
149
0.0
100
AcDbLayout
  1
Model
 70
     0
 71
     0
 10
0.0
 20
0.0
 11
420.0
 21
297.0
 12
0.0
 22
0.0
 32
0.0
 14
0.0
 24
0.0
 34
0.0
 15
0.0
 25
0.0
 35
0.0
146
0.0
 13
0.0
 23
0.0
 33
0.0
 16
1.0
 26
0.0
 36
0.0
 17
0.0
 27
1.0
 37
0.0
 76
     0
330
222
331
1F4
  0
MLINESTYLE
  5
18
102
{ACAD_REACTORS
330
17
102
}
330
17
100
AcDbMlineStyle
  2
STANDARD
 70
     0
  3

 62
   256
 51
90.0
 52
90.0
 71
     2
 49
0.5
 62
   256
  6
BYLAYER
 49
-0.5
 62
   256
  6
BYLAYER
  0
ACDBPLACEHOLDER
  5
F
102
{ACAD_REACTORS
330
E
102
}
330
E
  0
SCALE
  5
45B
102
{ACAD_REACTORS
330
45A
102
}
330
45A
100
AcDbScale
 70
     0
300
1:1
140
1.0
141
1.0
290
     1
  0
SCALE
  5
45C
102
{ACAD_REACTORS
330
45A
102
}
330
45A
100
AcDbScale
 70
     0
300
1:2
140
1.0
141
2.0
290
     0
  0
SCALE
  5
45D
102
{ACAD_REACTORS
330
45A
102
}
330
45A
100
AcDbScale
 70
     0
300
1:4
140
1.0
141
4.0
290
     0
  0
SCALE
  5
45E
102
{ACAD_REACTORS
330
45A
102
}
330
45A
100
AcDbScale
 70
     0
300
1:5
140
1.0
141
5.0
290
     0
  0
SCALE
  5
45F
102
{ACAD_REACTORS
330
45A
102
}
330
45A
100
AcDbScale
 70
     0
300
1:8
140
1.0
141
8.0
290
     0
  0
SCALE
  5
460
102
{ACAD_REACTORS
330
45A
102
}
330
45A
100
AcDbScale
 70
     0
300
1:10
140
1.0
141
10.0
290
     0
  0
SCALE
  5
461
102
{ACAD_REACTORS
330
45A
102
}
330
45A
100
AcDbScale
 70
     0
300
1:16
140
1.0
141
16.0
290
     0
  0
SCALE
  5
462
102
{ACAD_REACTORS
330
45A
102
}
330
45A
100
AcDbScale
 70
     0
300
1:20
140
1.0
141
20.0
290
     0
  0
SCALE
  5
463
102
{ACAD_REACTORS
330
45A
102
}
330
45A
100
AcDbScale
 70
     0
300
1:30
140
1.0
141
30.0
290
     0
  0
SCALE
  5
464
102
{ACAD_REACTORS
330
45A
102
}
330
45A
100
AcDbScale
 70
     0
300
1:40
140
1.0
141
40.0
290
     0
  0
SCALE
  5
465
102
{ACAD_REACTORS
330
45A
102
}
330
45A
100
AcDbScale
 70
     0
300
1:50
140
1.0
141
50.0
290
     0
  0
SCALE
  5
466
102
{ACAD_REACTORS
330
45A
102
}
330
45A
100
AcDbScale
 70
     0
300
1:100
140
1.0
141
100.0
290
     0
  0
SCALE
  5
467
102
{ACAD_REACTORS
330
45A
102
}
330
45A
100
AcDbScale
 70
     0
300
2:1
140
2.0
141
1.0
290
     0
  0
SCALE
  5
468
102
{ACAD_REACTORS
330
45A
102
}
330
45A
100
AcDbScale
 70
     0
300
4:1
140
4.0
141
1.0
290
     0
  0
SCALE
  5
469
102
{ACAD_REACTORS
330
45A
102
}
330
45A
100
AcDbScale
 70
     0
300
8:1
140
8.0
141
1.0
290
     0
  0
SCALE
  5
46A
102
{ACAD_REACTORS
330
45A
102
}
330
45A
100
AcDbScale
 70
     0
300
10:1
140
10.0
141
1.0
290
     0
  0
SCALE
  5
46B
102
{ACAD_REACTORS
330
45A
102
}
330
45A
100
AcDbScale
 70
     0
300
100:1
140
100.0
141
1.0
290
     0
  0
SCALE
  5
46C
102
{ACAD_REACTORS
330
45A
102
}
330
45A
100
AcDbScale
 70
     0
300
1/128" = 1'-0"
140
0.0078125
141
12.0
290
     0
  0
SCALE
  5
46D
102
{ACAD_REACTORS
330
45A
102
}
330
45A
100
AcDbScale
 70
     0
300
1/64" = 1'-0"
140
0.015625
141
12.0
290
     0
  0
SCALE
  5
46E
102
{ACAD_REACTORS
330
45A
102
}
330
45A
100
AcDbScale
 70
     0
300
1/32" = 1'-0"
140
0.03125
141
12.0
290
     0
  0
SCALE
  5
46F
102
{ACAD_REACTORS
330
45A
102
}
330
45A
100
AcDbScale
 70
     0
300
1/16" = 1'-0"
140
0.0625
141
12.0
290
     0
  0
SCALE
  5
470
102
{ACAD_REACTORS
330
45A
102
}
330
45A
100
AcDbScale
 70
     0
300
3/32" = 1'-0"
140
0.09375
141
12.0
290
     0
  0
SCALE
  5
471
102
{ACAD_REACTORS
330
45A
102
}
330
45A
100
AcDbScale
 70
     0
300
1/8" = 1'-0"
140
0.125
141
12.0
290
     0
  0
SCALE
  5
472
102
{ACAD_REACTORS
330
45A
102
}
330
45A
100
AcDbScale
 70
     0
300
3/16" = 1'-0"
140
0.1875
141
12.0
290
     0
  0
SCALE
  5
473
102
{ACAD_REACTORS
330
45A
102
}
330
45A
100
AcDbScale
 70
     0
300
1/4" = 1'-0"
140
0.25
141
12.0
290
     0
  0
SCALE
  5
474
102
{ACAD_REACTORS
330
45A
102
}
330
45A
100
AcDbScale
 70
     0
300
3/8" = 1'-0"
140
0.375
141
12.0
290
     0
  0
SCALE
  5
475
102
{ACAD_REACTORS
330
45A
102
}
330
45A
100
AcDbScale
 70
     0
300
1/2" = 1'-0"
140
0.5
141
12.0
290
     0
  0
SCALE
  5
476
102
{ACAD_REACTORS
330
45A
102
}
330
45A
100
AcDbScale
 70
     0
300
3/4" = 1'-0"
140
0.75
141
12.0
290
     0
  0
SCALE
  5
477
102
{ACAD_REACTORS
330
45A
102
}
330
45A
100
AcDbScale
 70
     0
300
1" = 1'-0"
140
1.0
141
12.0
290
     0
  0
SCALE
  5
478
102
{ACAD_REACTORS
330
45A
102
}
330
45A
100
AcDbScale
 70
     0
300
1-1/2" = 1'-0"
140
1.5
141
12.0
290
     0
  0
SCALE
  5
479
102
{ACAD_REACTORS
330
45A
102
}
330
45A
100
AcDbScale
 70
     0
300
3" = 1'-0"
140
3.0
141
12.0
290
     0
  0
SCALE
  5
47A
102
{ACAD_REACTORS
330
45A
102
}
330
45A
100
AcDbScale
 70
     0
300
6" = 1'-0"
140
6.0
141
12.0
290
     0
  0
SCALE
  5
47B
102
{ACAD_REACTORS
330
45A
102
}
330
45A
100
AcDbScale
 70
     0
300
1'-0" = 1'-0"
140
12.0
141
12.0
290
     0
  0
ENDSEC
  0
EOF
