  0
SECTION
  2
HEADER
  9
$ACADVER
  1
AC1027
  9
$ACADMAINTVER
 70
     8
  9
$DWGCODEPAGE
  3
ANSI_1252
  9
$REQUIREDVERSIONS
160
                 0
  9
$INSBASE
 10
0.0
 20
0.0
 30
0.0
  9
$EXTMIN
 10
0.0
 20
0.0
 30
0.0
  9
$EXTMAX
 10
4266.666667
 20
3333.333333
 30
0.0
  9
$LIMMIN
 10
0.0
 20
0.0
  9
$LIMMAX
 10
4266.666667
 20
3333.333333
  9
$ORTHOMODE
 70
     0
  9
$REGENMODE
 70
     1
  9
$FILLMODE
 70
     1
  9
$QTEXTMODE
 70
     0
  9
$MIRRTEXT
 70
     1
  9
$LTSCALE
 40
234.666667
  9
$ATTMODE
 70
     1
  9
$TEXTSIZE
 40
0.2
  9
$TRACEWID
 40
0.05
  9
$TEXTSTYLE
  7
STANDARD
  9
$CLAYER
  8
0
  9
$CELTYPE
  6
BYLAYER
  9
$CECOLOR
 62
   256
  9
$CELTSCALE
 40
1.0
  9
$DISPSILH
 70
     0
  9
$DIMSCALE
 40
1.0
  9
$DIMASZ
 40
3.333333
  9
$DIMEXO
 40
0.75
  9
$DIMDLI
 40
162.133333
  9
$DIMRND
 40
0.0
  9
$DIMDLE
 40
0.0
  9
$DIMEXE
 40
0.75
  9
$DIMTP
 40
0.01
  9
$DIMTM
 40
0.01
  9
$DIMTXT
 40
4.0
  9
$DIMCEN
 40
38.4
  9
$DIMTSZ
 40
0.0
  9
$DIMTOL
 70
     1
  9
$DIMLIM
 70
     0
  9
$DIMTIH
 70
     1
  9
$DIMTOH
 70
     1
  9
$DIMSE1
 70
     0
  9
$DIMSE2
 70
     0
  9
$DIMTAD
 70
     0
  9
$DIMZIN
 70
     0
  9
$DIMBLK
  1
CLOSED
  9
$DIMASO
 70
     1
  9
$DIMSHO
 70
     1
  9
$DIMPOST
  1

  9
$DIMAPOST
  1

  9
$DIMALT
 70
     0
  9
$DIMALTD
 70
     2
  9
$DIMALTF
 40
25.4
  9
$DIMLFAC
 40
1.0
  9
$DIMTOFL
 70
     0
  9
$DIMTVP
 40
0.0
  9
$DIMTIX
 70
     0
  9
$DIMSOXD
 70
     0
  9
$DIMSAH
 70
     0
  9
$DIMBLK1
  1

  9
$DIMBLK2
  1

  9
$DIMSTYLE
  2
STANDARD
  9
$DIMCLRD
 70
     0
  9
$DIMCLRE
 70
     0
  9
$DIMCLRT
 70
     0
  9
$DIMTFAC
 40
1.0
  9
$DIMGAP
 40
0.625
  9
$DIMJUST
 70
     0
  9
$DIMSD1
 70
     0
  9
$DIMSD2
 70
     0
  9
$DIMTOLJ
 70
     1
  9
$DIMTZIN
 70
     0
  9
$DIMALTZ
 70
     0
  9
$DIMALTTZ
 70
     0
  9
$DIMUPT
 70
     0
  9
$DIMDEC
 70
     4
  9
$DIMTDEC
 70
     4
  9
$DIMALTU
 70
     2
  9
$DIMALTTD
 70
     2
  9
$DIMTXSTY
  7
STANDARD
  9
$DIMAUNIT
 70
     0
  9
$DIMADEC
 70
     0
  9
$DIMALTRND
 40
0.0
  9
$DIMAZIN
 70
     0
  9
$DIMDSEP
 70
    44
  9
$DIMATFIT
 70
     3
  9
$DIMFRAC
 70
     0
  9
$DIMLDRBLK
  1

  9
$DIMLUNIT
 70
     2
  9
$DIMLWD
 70
    -2
  9
$DIMLWE
 70
    -2
  9
$DIMTMOVE
 70
     0
  9
$DIMFXL
 40
1.0
  9
$DIMFXLON
 70
     0
  9
$DIMJOGANG
 40
0.785398
  9
$DIMTFILL
 70
     0
  9
$DIMTFILLCLR
 70
     0
  9
$DIMARCSYM
 70
     0
  9
$DIMLTYPE
  6

  9
$DIMLTEX1
  6

  9
$DIMLTEX2
  6

  9
$DIMTXTDIRECTION
 70
     0
  9
$LUNITS
 70
     2
  9
$LUPREC
 70
     4
  9
$SKETCHINC
 40
0.1
  9
$FILLETRAD
 40
0.5
  9
$AUNITS
 70
     0
  9
$AUPREC
 70
     0
  9
$MENU
  1
.
  9
$ELEVATION
 40
0.0
  9
$PELEVATION
 40
0.0
  9
$THICKNESS
 40
0.0
  9
$LIMCHECK
 70
     0
  9
$CHAMFERA
 40
0.0
  9
$CHAMFERB
 40
0.0
  9
$CHAMFERC
 40
0.0
  9
$CHAMFERD
 40
0.0
  9
$SKPOLY
 70
     0
  9
$TDCREATE
 40
2447893.083333333
  9
$TDUCREATE
 40
0.0
  9
$TDUPDATE
 40
2460209.515783044
  9
$TDUUPDATE
 40
2460209.432449711
  9
$TDINDWG
 40
0.0
  9
$TDUSRTIMER
 40
0.0
  9
$USRTIMER
 70
     1
  9
$ANGBASE
 50
0.0
  9
$ANGDIR
 70
     0
  9
$PDMODE
 70
     3
  9
$PDSIZE
 40
0.3125
  9
$PLINEWID
 40
0.0
  9
$SPLFRAME
 70
     0
  9
$SPLINETYPE
 70
     6
  9
$SPLINESEGS
 70
     8
  9
$HANDSEED
  5
631
  9
$SURFTAB1
 70
     6
  9
$SURFTAB2
 70
     6
  9
$SURFTYPE
 70
     6
  9
$SURFU
 70
     6
  9
$SURFV
 70
     6
  9
$UCSBASE
  2

  9
$UCSNAME
  2

  9
$UCSORG
 10
0.0
 20
0.0
 30
0.0
  9
$UCSXDIR
 10
1.0
 20
0.0
 30
0.0
  9
$UCSYDIR
 10
0.0
 20
1.0
 30
0.0
  9
$UCSORTHOREF
  2

  9
$UCSORTHOVIEW
 70
     0
  9
$UCSORGTOP
 10
0.0
 20
0.0
 30
0.0
  9
$UCSORGBOTTOM
 10
0.0
 20
0.0
 30
0.0
  9
$UCSORGLEFT
 10
0.0
 20
0.0
 30
0.0
  9
$UCSORGRIGHT
 10
0.0
 20
0.0
 30
0.0
  9
$UCSORGFRONT
 10
0.0
 20
0.0
 30
0.0
  9
$UCSORGBACK
 10
0.0
 20
0.0
 30
0.0
  9
$PUCSBASE
  2

  9
$PUCSNAME
  2

  9
$PUCSORG
 10
0.0
 20
0.0
 30
0.0
  9
$PUCSXDIR
 10
1.0
 20
0.0
 30
0.0
  9
$PUCSYDIR
 10
0.0
 20
1.0
 30
0.0
  9
$PUCSORTHOREF
  2

  9
$PUCSORTHOVIEW
 70
     0
  9
$PUCSORGTOP
 10
0.0
 20
0.0
 30
0.0
  9
$PUCSORGBOTTOM
 10
0.0
 20
0.0
 30
0.0
  9
$PUCSORGLEFT
 10
0.0
 20
0.0
 30
0.0
  9
$PUCSORGRIGHT
 10
0.0
 20
0.0
 30
0.0
  9
$PUCSORGFRONT
 10
0.0
 20
0.0
 30
0.0
  9
$PUCSORGBACK
 10
0.0
 20
0.0
 30
0.0
  9
$USERI1
 70
     0
  9
$USERI2
 70
     0
  9
$USERI3
 70
     0
  9
$USERI4
 70
     0
  9
$USERI5
 70
     0
  9
$USERR1
 40
0.0
  9
$USERR2
 40
0.0
  9
$USERR3
 40
0.0
  9
$USERR4
 40
0.0
  9
$USERR5
 40
0.0
  9
$WORLDVIEW
 70
     1
  9
$SHADEDGE
 70
     3
  9
$SHADEDIF
 70
    70
  9
$TILEMODE
 70
     1
  9
$MAXACTVP
 70
    64
  9
$PINSBASE
 10
0.0
 20
0.0
 30
0.0
  9
$PLIMCHECK
 70
     0
  9
$PEXTMIN
 10
1.000000E+20
 20
1.000000E+20
 30
1.000000E+20
  9
$PEXTMAX
 10
-1.000000E+20
 20
-1.000000E+20
 30
-1.000000E+20
  9
$PLIMMIN
 10
0.0
 20
0.0
  9
$PLIMMAX
 10
12.0
 20
9.0
  9
$UNITMODE
 70
     0
  9
$VISRETAIN
 70
     1
  9
$PLINEGEN
 70
     0
  9
$PSLTSCALE
 70
     0
  9
$TREEDEPTH
 70
  3020
  9
$CMLSTYLE
  2

  9
$CMLJUST
 70
     0
  9
$CMLSCALE
 40
1.0
  9
$PROXYGRAPHICS
 70
     1
  9
$MEASUREMENT
 70
     1
  9
$CELWEIGHT
370
    -1
  9
$ENDCAPS
280
     0
  9
$JOINSTYLE
280
     0
  9
$LWDISPLAY
290
     0
  9
$INSUNITS
 70
     4
  9
$HYPERLINKBASE
  1

  9
$STYLESHEET
  1

  9
$XEDIT
290
     1
  9
$CEPSNTYPE
380
     0
  9
$PSTYLEMODE
290
     1
  9
$FINGERPRINTGUID
  2
{5DC709D0-94F2-49BC-9A71-4A59E559BAF2}
  9
$VERSIONGUID
  2
{FAEB1C32-E019-11D5-929B-00C0DF256EC4}
  9
$EXTNAMES
290
     1
  9
$PSVPSCALE
 40
0.0
  9
$OLESTARTUP
290
     0
  9
$SORTENTS
280
   127
  9
$INDEXCTL
280
     0
  9
$HIDETEXT
280
     1
  9
$XCLIPFRAME
280
     2
  9
$HALOGAP
280
     0
  9
$OBSCOLOR
 70
   257
  9
$OBSLTYPE
280
     0
  9
$INTERSECTIONDISPLAY
280
     0
  9
$INTERSECTIONCOLOR
 70
   257
  9
$DIMASSOC
280
     2
  9
$PROJECTNAME
  1

  9
$CAMERADISPLAY
290
     0
  9
$LENSLENGTH
 40
50.0
  9
$CAMERAHEIGHT
 40
0.0
  9
$STEPSPERSEC
 40
2.0
  9
$STEPSIZE
 40
6.0
  9
$3DDWFPREC
 40
2.0
  9
$PSOLWIDTH
 40
0.25
  9
$PSOLHEIGHT
 40
4.0
  9
$LOFTANG1
 40
1.570796
  9
$LOFTANG2
 40
1.570796
  9
$LOFTMAG1
 40
0.0
  9
$LOFTMAG2
 40
0.0
  9
$LOFTPARAM
 70
     7
  9
$LOFTNORMALS
280
     1
  9
$LATITUDE
 40
37.795
  9
$LONGITUDE
 40
-122.394
  9
$NORTHDIRECTION
 40
0.0
  9
$TIMEZONE
 70
 -8000
  9
$LIGHTGLYPHDISPLAY
280
     1
  9
$TILEMODELIGHTSYNCH
280
     1
  9
$SOLIDHIST
280
     1
  9
$SHOWHIST
280
     1
  9
$DWFFRAME
280
     2
  9
$DGNFRAME
280
     2
  9
$REALWORLDSCALE
290
     1
  9
$INTERFERECOLOR
 62
   256
  9
$CSHADOW
280
     0
  9
$SHADOWPLANELOCATION
 40
0.0
  0
ENDSEC
  0
SECTION
  2
CLASSES
  0
CLASS
  1
ACDBDICTIONARYWDFLT
  2
AcDbDictionaryWithDefault
  3
ObjectDBX Classes
 90
        0
 91
        6
280
     0
281
     0
  0
CLASS
  1
ACDBPLACEHOLDER
  2
AcDbPlaceHolder
  3
ObjectDBX Classes
 90
        0
 91
        1
280
     0
281
     0
  0
CLASS
  1
LAYOUT
  2
AcDbLayout
  3
ObjectDBX Classes
 90
        0
 91
        1
280
     0
281
     0
  0
CLASS
  1
TABLESTYLE
  2
AcDbTableStyle
  3
ObjectDBX Classes
 90
     4095
 91
        5
280
     0
281
     0
  0
CLASS
  1
ACAD_TABLE
  2
AcDbTable
  3
ObjectDBX Classes
 90
     1025
 91
        5
280
     0
281
     1
  0
CLASS
  1
SCALE
  2
AcDbScale
  3
ObjectDBX Classes
 90
     1153
 91
        5
280
     0
281
     0
  0
CLASS
  1
TABLEGEOMETRY
  2
AcDbTableGeometry
  3
ObjectDBX Classes
 90
     1152
 91
        4
280
     0
281
     0
  0
CLASS
  1
VISUALSTYLE
  2
AcDbVisualStyle
  3
ObjectDBX Classes
 90
     4095
 91
        5
280
     0
281
     0
  0
CLASS
  1
MATERIAL
  2
AcDbMaterial
  3
ObjectDBX Classes
 90
     1153
 91
        5
280
     0
281
     0
  0
CLASS
  1
SUN
  2
AcDbSun
  3
SCENEOE
 90
     1153
 91
        5
280
     0
281
     0
  0
CLASS
  1
CSACDOCUMENTOPTIONS
  2
CDocDataContainer
  3
"DERU003_CSAPP"
 90
     4095
 91
        4
280
     0
281
     0
  0
CLASS
  1
TABLECONTENT
  2
AcDbTableContent
  3
ObjectDBX Classes
 90
     1152
 91
        4
280
     0
281
     0
  0
CLASS
  1
DICTIONARYVAR
  2
AcDbDictionaryVar
  3
ObjectDBX Classes
 90
        0
 91
        4
280
     0
281
     0
  0
CLASS
  1
CELLSTYLEMAP
  2
AcDbCellStyleMap
  3
ObjectDBX Classes
 90
     1152
 91
        4
280
     0
281
     0
  0
ENDSEC
  0
SECTION
  2
TABLES
  0
TABLE
  2
VPORT
  5
8
330
0
100
AcDbSymbolTable
 70
     1
  0
VPORT
  5
1F4
330
8
100
AcDbSymbolTableRecord
100
AcDbViewportTableRecord
  2
*ACTIVE
 70
     0
 10
0.0
 20
0.0
 11
1.0
 21
1.0
 12
2133.333333
 22
1666.666667
 13
0.0
 23
0.0
 14
1.0
 24
1.0
 15
0.0
 25
0.0
 16
0.0
 26
0.0
 36
1.0
 17
0.0
 27
0.0
 37
0.0
 40
3333.333333
 41
1.818286
 42
50.0
 43
0.0
 44
0.0
 50
0.0
 51
0.0
 71
    16
 72
   100
 73
     1
 74
     1
 75
     0
 76
     0
 77
     0
 78
     0
281
     0
 65
     1
110
0.0
120
0.0
130
0.0
111
1.0
121
0.0
131
0.0
112
0.0
122
1.0
132
0.0
 79
     0
146
0.0
 60
     3
 61
     5
292
     1
282
     1
141
0.0
142
0.0
 63
   256
361
61C
  0
ENDTAB
  0
TABLE
  2
LTYPE
  5
5
330
0
100
AcDbSymbolTable
 70
     6
  0
LTYPE
  5
14
330
5
100
AcDbSymbolTableRecord
100
AcDbLinetypeTableRecord
  2
BYBLOCK
 70
     0
  3

 72
    65
 73
     0
 40
0.0
  0
LTYPE
  5
15
330
5
100
AcDbSymbolTableRecord
100
AcDbLinetypeTableRecord
  2
BYLAYER
 70
     0
  3

 72
    65
 73
     0
 40
0.0
  0
LTYPE
  5
16
330
5
100
AcDbSymbolTableRecord
100
AcDbLinetypeTableRecord
  2
CONTINUOUS
 70
     0
  3
Solid line
 72
    65
 73
     0
 40
0.0
  0
LTYPE
  5
1F5
330
5
100
AcDbSymbolTableRecord
100
AcDbLinetypeTableRecord
  2
CENTER
 70
     0
  3
____ _ ____ _ ____ _ ____ _ ____ _ ____ _ ____
 72
    65
 73
     4
 40
0.6
 49
0.375
 74
     0
 49
-0.075
 74
     0
 49
0.075
 74
     0
 49
-0.075
 74
     0
  0
LTYPE
  5
1F6
330
5
100
AcDbSymbolTableRecord
100
AcDbLinetypeTableRecord
  2
HIDDEN
 70
     0
  3
- - - - - - - - - - - - - - - - - - - -
 72
    65
 73
     2
 40
0.2
 49
0.1
 74
     0
 49
-0.1
 74
     0
  0
LTYPE
  5
1F7
330
5
100
AcDbSymbolTableRecord
100
AcDbLinetypeTableRecord
  2
PHANTOM
 70
     0
  3
_____ _ _ _____ _ _ _____ _ _ _____
 72
    65
 73
     6
 40
0.8
 49
0.45
 74
     0
 49
-0.05
 74
     0
 49
0.1
 74
     0
 49
-0.05
 74
     0
 49
0.1
 74
     0
 49
-0.05
 74
     0
  0
LTYPE
  5
1F8
330
5
100
AcDbSymbolTableRecord
100
AcDbLinetypeTableRecord
  2
DOT
 70
     0
  3
. . . . . . . . . . . . . . . . . . . .
 72
    65
 73
     2
 40
0.2
 49
0.1
 74
     0
 49
-0.1
 74
     0
  0
LTYPE
  5
1F9
330
5
100
AcDbSymbolTableRecord
100
AcDbLinetypeTableRecord
  2
DASHED
 70
     0
  3
- - - - - - - - - - - - - - - - - - - -
 72
    65
 73
     2
 40
0.2
 49
0.1
 74
     0
 49
-0.1
 74
     0
  0
ENDTAB
  0
TABLE
  2
LAYER
  5
2
330
0
100
AcDbSymbolTable
 70
    37
  0
LAYER
  5
10
330
2
100
AcDbSymbolTableRecord
100
AcDbLayerTableRecord
  2
0
 70
     0
 62
     7
  6
CONTINUOUS
370
    -3
390
F
347
616
348
0
  0
LAYER
  5
1FA
330
2
100
AcDbSymbolTableRecord
100
AcDbLayerTableRecord
  2
DEFAULT_1
 70
     0
 62
     7
  6
CENTER
370
    -3
390
F
347
616
348
0
  0
LAYER
  5
1FB
330
2
100
AcDbSymbolTableRecord
100
AcDbLayerTableRecord
  2
DEFAULT_2
 70
     0
 62
     8
  6
HIDDEN
370
    -3
390
F
347
616
348
0
  0
LAYER
  5
1FC
330
2
100
AcDbSymbolTableRecord
100
AcDbLayerTableRecord
  2
DEFAULT_3
 70
     0
 62
     7
  6
PHANTOM
370
    -3
390
F
347
616
348
0
  0
LAYER
  5
1FD
330
2
100
AcDbSymbolTableRecord
100
AcDbLayerTableRecord
  2
01_ALL_DTM_PLN
 70
     0
 62
     7
  6
CONTINUOUS
370
    -3
390
F
347
616
348
0
  0
LAYER
  5
1FE
330
2
100
AcDbSymbolTableRecord
100
AcDbLayerTableRecord
  2
01__ASM_ALL_DTM_PLN
 70
     0
 62
     7
  6
CONTINUOUS
370
    -3
390
F
347
616
348
0
  0
LAYER
  5
1FF
330
2
100
AcDbSymbolTableRecord
100
AcDbLayerTableRecord
  2
01__ASM_DEF_DTM_PLN
 70
     0
 62
     7
  6
CONTINUOUS
370
    -3
390
F
347
616
348
0
  0
LAYER
  5
200
330
2
100
AcDbSymbolTableRecord
100
AcDbLayerTableRecord
  2
01___PRT_ALL_DTM_PLN
 70
     0
 62
     7
  6
CONTINUOUS
370
    -3
390
F
347
616
348
0
  0
LAYER
  5
201
330
2
100
AcDbSymbolTableRecord
100
AcDbLayerTableRecord
  2
01___PRT_DEF_DTM_PLN
 70
     0
 62
     7
  6
CONTINUOUS
370
    -3
390
F
347
616
348
0
  0
LAYER
  5
202
330
2
100
AcDbSymbolTableRecord
100
AcDbLayerTableRecord
  2
02_ALL_AXES
 70
     0
 62
     7
  6
CONTINUOUS
370
    -3
390
F
347
616
348
0
  0
LAYER
  5
203
330
2
100
AcDbSymbolTableRecord
100
AcDbLayerTableRecord
  2
02__ASM_ALL_AXES
 70
     0
 62
     7
  6
CONTINUOUS
370
    -3
390
F
347
616
348
0
  0
LAYER
  5
204
330
2
100
AcDbSymbolTableRecord
100
AcDbLayerTableRecord
  2
02___PRT_ALL_AXES
 70
     0
 62
     7
  6
CONTINUOUS
370
    -3
390
F
347
616
348
0
  0
LAYER
  5
205
330
2
100
AcDbSymbolTableRecord
100
AcDbLayerTableRecord
  2
03_ALL_CURVES
 70
     0
 62
     7
  6
CONTINUOUS
370
    -3
390
F
347
616
348
0
  0
LAYER
  5
206
330
2
100
AcDbSymbolTableRecord
100
AcDbLayerTableRecord
  2
03__ASM_ALL_CURVES
 70
     0
 62
     7
  6
CONTINUOUS
370
    -3
390
F
347
616
348
0
  0
LAYER
  5
207
330
2
100
AcDbSymbolTableRecord
100
AcDbLayerTableRecord
  2
03___PRT_ALL_CURVES
 70
     0
 62
     7
  6
CONTINUOUS
370
    -3
390
F
347
616
348
0
  0
LAYER
  5
208
330
2
100
AcDbSymbolTableRecord
100
AcDbLayerTableRecord
  2
04_ALL_DTM_PNT
 70
     0
 62
     7
  6
CONTINUOUS
370
    -3
390
F
347
616
348
0
  0
LAYER
  5
209
330
2
100
AcDbSymbolTableRecord
100
AcDbLayerTableRecord
  2
04__ASM_ALL_DTM_PNT
 70
     0
 62
     7
  6
CONTINUOUS
370
    -3
390
F
347
616
348
0
  0
LAYER
  5
20A
330
2
100
AcDbSymbolTableRecord
100
AcDbLayerTableRecord
  2
04___PRT_ALL_DTM_PNT
 70
     0
 62
     7
  6
CONTINUOUS
370
    -3
390
F
347
616
348
0
  0
LAYER
  5
20B
330
2
100
AcDbSymbolTableRecord
100
AcDbLayerTableRecord
  2
05_ALL_DTM_CSYS
 70
     0
 62
     7
  6
CONTINUOUS
370
    -3
390
F
347
616
348
0
  0
LAYER
  5
20C
330
2
100
AcDbSymbolTableRecord
100
AcDbLayerTableRecord
  2
05__ASM_ALL_DTM_CSYS
 70
     0
 62
     7
  6
CONTINUOUS
370
    -3
390
F
347
616
348
0
  0
LAYER
  5
20D
330
2
100
AcDbSymbolTableRecord
100
AcDbLayerTableRecord
  2
05__ASM_DEF_DTM_CSYS
 70
     0
 62
     7
  6
CONTINUOUS
370
    -3
390
F
347
616
348
0
  0
LAYER
  5
20E
330
2
100
AcDbSymbolTableRecord
100
AcDbLayerTableRecord
  2
05___PRT_ALL_DTM_CSYS
 70
     0
 62
     7
  6
CONTINUOUS
370
    -3
390
F
347
616
348
0
  0
LAYER
  5
20F
330
2
100
AcDbSymbolTableRecord
100
AcDbLayerTableRecord
  2
05___PRT_DEF_DTM_CSYS
 70
     0
 62
     7
  6
CONTINUOUS
370
    -3
390
F
347
616
348
0
  0
LAYER
  5
210
330
2
100
AcDbSymbolTableRecord
100
AcDbLayerTableRecord
  2
06_ALL_SURFS
 70
     0
 62
     7
  6
CONTINUOUS
370
    -3
390
F
347
616
348
0
  0
LAYER
  5
211
330
2
100
AcDbSymbolTableRecord
100
AcDbLayerTableRecord
  2
06__ASM_ALL_SURFS
 70
     0
 62
     7
  6
CONTINUOUS
370
    -3
390
F
347
616
348
0
  0
LAYER
  5
212
330
2
100
AcDbSymbolTableRecord
100
AcDbLayerTableRecord
  2
06___PRT_ALL_SURFS
 70
     0
 62
     7
  6
CONTINUOUS
370
    -3
390
F
347
616
348
0
  0
LAYER
  5
213
330
2
100
AcDbSymbolTableRecord
100
AcDbLayerTableRecord
  2
07__ASM_ALL_SKELETONS
 70
     0
 62
     7
  6
CONTINUOUS
370
    -3
390
F
347
616
348
0
  0
LAYER
  5
214
330
2
100
AcDbSymbolTableRecord
100
AcDbLayerTableRecord
  2
1_ALL_PLANES
 70
     0
 62
     7
  6
CONTINUOUS
370
    -3
390
F
347
616
348
0
  0
LAYER
  5
215
330
2
100
AcDbSymbolTableRecord
100
AcDbLayerTableRecord
  2
2_ALL_CSYS
 70
     0
 62
     7
  6
CONTINUOUS
370
    -3
390
F
347
616
348
0
  0
LAYER
  5
216
330
2
100
AcDbSymbolTableRecord
100
AcDbLayerTableRecord
  2
3_ALL_AXES
 70
     0
 62
     7
  6
CONTINUOUS
370
    -3
390
F
347
616
348
0
  0
LAYER
  5
217
330
2
100
AcDbSymbolTableRecord
100
AcDbLayerTableRecord
  2
4_ALL_POINTS
 70
     0
 62
     7
  6
CONTINUOUS
370
    -3
390
F
347
616
348
0
  0
LAYER
  5
218
330
2
100
AcDbSymbolTableRecord
100
AcDbLayerTableRecord
  2
5_ALL_CURVES
 70
     0
 62
     7
  6
CONTINUOUS
370
    -3
390
F
347
616
348
0
  0
LAYER
  5
219
330
2
100
AcDbSymbolTableRecord
100
AcDbLayerTableRecord
  2
6_ALL_SURFS
 70
     0
 62
     7
  6
CONTINUOUS
370
    -3
390
F
347
616
348
0
  0
LAYER
  5
21A
330
2
100
AcDbSymbolTableRecord
100
AcDbLayerTableRecord
  2
7_ALL_FEATURES
 70
     0
 62
     7
  6
CONTINUOUS
370
    -3
390
F
347
616
348
0
  0
LAYER
  5
21B
330
2
100
AcDbSymbolTableRecord
100
AcDbLayerTableRecord
  2
8_ALL_NOTES_BALLOONS_SYMBOLS_GT
 70
     0
 62
     7
  6
CONTINUOUS
370
    -3
390
F
347
616
348
0
  0
LAYER
  5
21C
330
2
100
AcDbSymbolTableRecord
100
AcDbLayerTableRecord
  2
9_SOLID
 70
     0
 62
     7
  6
CONTINUOUS
370
    -3
390
F
347
616
348
0
  0
LAYER
  5
21D
330
2
100
AcDbSymbolTableRecord
100
AcDbLayerTableRecord
  2
INTFCLR_2
 70
     0
 62
     7
  6
CONTINUOUS
370
    -3
390
F
347
616
348
0
  0
ENDTAB
  0
TABLE
  2
STYLE
  5
3
330
0
100
AcDbSymbolTable
 70
     2
  0
STYLE
  5
11
330
3
100
AcDbSymbolTableRecord
100
AcDbTextStyleTableRecord
  2
STANDARD
 70
     0
 40
0.0
 41
0.85
 50
0.0
 71
     0
 42
0.2
  3
txt
  4

  0
STYLE
  5
21E
330
3
100
AcDbSymbolTableRecord
100
AcDbTextStyleTableRecord
  2
TEXTSTYLE_1
 70
     0
 40
0.0
 41
0.8
 50
0.0
 71
     0
 42
0.2
  3
gdt
  4

  0
ENDTAB
  0
TABLE
  2
VIEW
  5
6
330
0
100
AcDbSymbolTable
 70
     0
  0
ENDTAB
  0
TABLE
  2
UCS
  5
7
330
0
100
AcDbSymbolTable
 70
     0
  0
ENDTAB
  0
TABLE
  2
APPID
  5
9
330
0
100
AcDbSymbolTable
 70
     6
  0
APPID
  5
21F
330
9
100
AcDbSymbolTableRecord
100
AcDbRegAppTableRecord
  2
ACAD
 70
     0
  0
APPID
  5
617
330
9
100
AcDbSymbolTableRecord
100
AcDbRegAppTableRecord
  2
MCS_DIM1
 70
     0
  0
APPID
  5
618
330
9
100
AcDbSymbolTableRecord
100
AcDbRegAppTableRecord
  2
McsXdata5
 70
     0
  0
APPID
  5
61B
330
9
100
AcDbSymbolTableRecord
100
AcDbRegAppTableRecord
  2
MCS_DOCUMENT_ID
 70
     0
  0
APPID
  5
621
330
9
100
AcDbSymbolTableRecord
100
AcDbRegAppTableRecord
  2
MCS_PARAMS_DATA
 70
     0
  0
APPID
  5
623
330
9
100
AcDbSymbolTableRecord
100
AcDbRegAppTableRecord
  2
MC_VERSION_DATA
 70
     0
  0
ENDTAB
  0
TABLE
  2
DIMSTYLE
  5
A
330
0
100
AcDbSymbolTable
 70
     6
100
AcDbDimStyleTable
  0
DIMSTYLE
105
22A
330
A
100
AcDbSymbolTableRecord
100
AcDbDimStyleTableRecord
  2
STANDARD
 70
     0
 41
3.333333
 42
0.75
 44
0.75
 47
0.01
 48
0.01
 71
     1
 73
     0
 74
     0
 77
     1
 78
     8
 79
     2
140
4.0
147
0.625
171
     1
178
     0
179
     2
271
     2
272
     2
278
    44
284
     8
340
11
341
222
342
222
343
222
344
222
  0
DIMSTYLE
105
22B
330
A
100
AcDbSymbolTableRecord
100
AcDbDimStyleTableRecord
  2
DIMSTYLE_1
 70
     0
 41
3.333333
 42
0.75
 44
0.75
 47
0.3
 48
0.3
 73
     0
 74
     0
 77
     1
 78
     8
 79
     2
140
4.0
147
0.75
171
     1
178
     0
271
     0
272
     0
278
    44
284
     8
340
11
341
222
342
222
343
222
344
222
  0
DIMSTYLE
105
22C
330
A
100
AcDbSymbolTableRecord
100
AcDbDimStyleTableRecord
  2
DIMSTYLE_2
 70
     0
 41
3.333333
 42
0.75
 44
0.75
 47
0.3
 48
0.3
 73
     0
 74
     0
 77
     1
 78
     8
 79
     2
140
4.0
147
0.75
171
     1
178
     0
179
     2
271
     2
272
     2
278
    44
284
     8
340
11
341
222
342
222
343
222
344
222
  0
DIMSTYLE
105
22D
330
A
100
AcDbSymbolTableRecord
100
AcDbDimStyleTableRecord
  2
DIMSTYLE_3
 70
     0
 41
3.333333
 42
0.75
 44
0.75
 47
0.2
 48
0.2
 73
     0
 74
     0
 77
     1
 78
     8
 79
     2
140
4.0
147
0.75
171
     1
178
     0
271
     0
272
     0
278
    44
284
     8
340
11
341
222
342
222
343
222
344
222
  0
DIMSTYLE
105
22E
330
A
100
AcDbSymbolTableRecord
100
AcDbDimStyleTableRecord
  2
DIMSTYLE_4
 70
     0
 41
3.333333
 42
0.75
 44
0.75
 47
0.2
 48
0.2
 73
     0
 74
     0
 77
     1
 78
     8
 79
     2
140
4.0
147
0.75
171
     1
178
     0
179
     2
271
     2
272
     2
278
    44
284
     8
340
11
341
222
342
222
343
222
344
222
  0
DIMSTYLE
105
22F
330
A
100
AcDbSymbolTableRecord
100
AcDbDimStyleTableRecord
  2
DIMSTYLE_5
 70
     0
 41
3.333333
 42
0.75
 44
0.75
 47
1.2
 48
1.2
 73
     0
 74
     0
 77
     1
 78
     8
 79
     2
140
4.0
147
0.75
171
     1
178
     0
271
     0
272
     0
278
    44
284
     8
340
11
341
222
342
222
343
222
344
222
  0
ENDTAB
  0
TABLE
  2
BLOCK_RECORD
  5
1
330
0
100
AcDbSymbolTable
 70
     8
  0
BLOCK_RECORD
  5
220
330
1
100
AcDbSymbolTableRecord
100
AcDbBlockTableRecord
  2
*Model_Space
340
5D1
 70
     0
280
     1
281
     0
  0
BLOCK_RECORD
  5
221
330
1
100
AcDbSymbolTableRecord
100
AcDbBlockTableRecord
  2
*Paper_Space
340
5D2
 70
     0
280
     1
281
     0
  0
BLOCK_RECORD
  5
222
330
1
100
AcDbSymbolTableRecord
100
AcDbBlockTableRecord
  2
_CLOSED
340
0
102
{BLKREFS
331
278
331
279
331
281
331
282
331
28A
331
28B
331
293
331
294
331
29C
331
29D
102
}
 70
     0
280
     1
281
     0
  0
BLOCK_RECORD
  5
223
330
1
100
AcDbSymbolTableRecord
100
AcDbBlockTableRecord
  2
*D1
340
0
 70
     0
280
     1
281
     0
  0
BLOCK_RECORD
  5
224
330
1
100
AcDbSymbolTableRecord
100
AcDbBlockTableRecord
  2
*D2
340
0
 70
     0
280
     1
281
     0
  0
BLOCK_RECORD
  5
225
330
1
100
AcDbSymbolTableRecord
100
AcDbBlockTableRecord
  2
*D3
340
0
 70
     0
280
     1
281
     0
  0
BLOCK_RECORD
  5
226
330
1
100
AcDbSymbolTableRecord
100
AcDbBlockTableRecord
  2
*D4
340
0
 70
     0
280
     1
281
     0
  0
BLOCK_RECORD
  5
227
330
1
100
AcDbSymbolTableRecord
100
AcDbBlockTableRecord
  2
*D5
340
0
 70
     0
280
     1
281
     0
  0
BLOCK_RECORD
  5
228
330
1
100
AcDbSymbolTableRecord
100
AcDbBlockTableRecord
  2
LOGO2_BL0
340
0
102
{BLKREFS
331
5CE
102
}
 70
     0
280
     1
281
     0
  0
BLOCK_RECORD
  5
229
330
1
100
AcDbSymbolTableRecord
100
AcDbBlockTableRecord
  2
*T7
340
0
102
{BLKREFS
331
5CF
102
}
 70
     0
280
     1
281
     0
  0
ENDTAB
  0
ENDSEC
  0
SECTION
  2
BLOCKS
  0
BLOCK
  5
20
330
220
100
AcDbEntity
  8
0
100
AcDbBlockBegin
  2
*Model_Space
 70
     0
 10
0.0
 20
0.0
 30
0.0
  3
*Model_Space
  1
*Model_Space
  0
ENDBLK
  5
21
330
220
100
AcDbEntity
  8
0
100
AcDbBlockEnd
  0
BLOCK
  5
1C
330
221
100
AcDbEntity
 67
     1
  8
0
100
AcDbBlockBegin
  2
*Paper_Space
 70
     0
 10
0.0
 20
0.0
 30
0.0
  3
*Paper_Space
  1
*Paper_Space
  0
ENDBLK
  5
1D
330
221
100
AcDbEntity
 67
     1
  8
0
100
AcDbBlockEnd
  0
BLOCK
  5
26C
330
222
100
AcDbEntity
  8
0
100
AcDbBlockBegin
  2
_CLOSED
 70
     0
 10
0.0
 20
0.0
 30
0.0
  3
_CLOSED
  1
_CLOSED
  0
LINE
  5
26D
330
222
100
AcDbEntity
  8
0
  6
ByBlock
 62
     0
100
AcDbLine
 10
0.0
 20
0.0
 30
0.0
 11
-1.0
 21
0.2
 31
0.0
  0
LINE
  5
26E
330
222
100
AcDbEntity
  8
0
  6
ByBlock
 62
     0
100
AcDbLine
 10
-1.0
 20
0.2
 30
0.0
 11
-1.0
 21
-0.2
 31
0.0
  0
LINE
  5
26F
330
222
100
AcDbEntity
  8
0
  6
ByBlock
 62
     0
100
AcDbLine
 10
-1.0
 20
-0.2
 30
0.0
 11
0.0
 21
0.0
 31
0.0
  0
LINE
  5
270
330
222
100
AcDbEntity
  8
0
  6
ByBlock
 62
     0
100
AcDbLine
 10
-1.0
 20
0.0
 30
0.0
 11
0.0
 21
0.0
 31
0.0
  0
ENDBLK
  5
271
330
222
100
AcDbEntity
  8
0
  6
ByBlock
 62
     0
100
AcDbBlockEnd
  0
BLOCK
  5
272
330
223
100
AcDbEntity
  8
0
100
AcDbBlockBegin
  2
*D1
 70
     1
 10
0.0
 20
0.0
 30
0.0
  3
*D1
  1
*D1
  0
MTEXT
  5
273
330
223
100
AcDbEntity
  8
0
  6
Continuous
 62
     2
100
AcDbMText
 10
2148.024716
 20
2015.038959
 30
0.0
 40
4.0
 41
9.0
 46
0.0
 71
     2
 72
     1
  1
43
 11
0.0
 21
1.0
 31
0.0
 73
     1
 44
0.9
  0
LINE
  5
274
330
223
100
AcDbEntity
  8
0
  6
Continuous
 62
     2
100
AcDbLine
 10
2131.188385
 20
2036.663959
 30
0.0
 11
2154.024716
 21
2036.663959
 31
0.0
  0
LINE
  5
275
330
223
100
AcDbEntity
  8
0
  6
Continuous
 62
     2
100
AcDbLine
 10
2131.113645
 20
1993.413959
 30
0.0
 11
2154.024716
 21
1993.413959
 31
0.0
  0
LINE
  5
276
330
223
100
AcDbEntity
  8
0
  6
Continuous
 62
     2
100
AcDbLine
 10
2153.024716
 20
2036.663959
 30
0.0
 11
2153.024716
 21
2015.038959
 31
0.0
  0
LINE
  5
277
330
223
100
AcDbEntity
  8
0
  6
Continuous
 62
     2
100
AcDbLine
 10
2153.024716
 20
1993.413959
 30
0.0
 11
2153.024716
 21
2015.038959
 31
0.0
  0
INSERT
  5
278
330
223
100
AcDbEntity
  8
0
  6
Continuous
 62
     2
100
AcDbBlockReference
  2
_CLOSED
 10
2153.024716
 20
2036.663959
 30
0.0
 41
3.333333
 42
3.333333
 43
3.333333
 50
90.0
  0
INSERT
  5
279
330
223
100
AcDbEntity
  8
0
  6
Continuous
 62
     2
100
AcDbBlockReference
  2
_CLOSED
 10
2153.024716
 20
1993.413959
 30
0.0
 41
3.333333
 42
3.333333
 43
3.333333
 50
270.0
  0
ENDBLK
  5
27A
330
223
100
AcDbEntity
  8
0
  6
ByBlock
 62
     0
100
AcDbBlockEnd
  0
BLOCK
  5
27B
330
224
100
AcDbEntity
  8
0
100
AcDbBlockBegin
  2
*D2
 70
     1
 10
0.0
 20
0.0
 30
0.0
  3
*D2
  1
*D2
  0
MTEXT
  5
27C
330
224
100
AcDbEntity
  8
0
  6
Continuous
 62
     2
100
AcDbMText
 10
2140.816351
 20
2743.608082
 30
0.0
 40
4.0
 41
9.428571
 46
0.0
 71
     2
 72
     1
  1
40
 11
0.0
 21
1.0
 31
0.0
 73
     1
 44
0.9
  0
LINE
  5
27D
330
224
100
AcDbEntity
  8
0
  6
Continuous
 62
     2
100
AcDbLine
 10
2127.480619
 20
2763.608082
 30
0.0
 11
2146.816351
 21
2763.608082
 31
0.0
  0
LINE
  5
27E
330
224
100
AcDbEntity
  8
0
  6
Continuous
 62
     2
100
AcDbLine
 10
2127.575982
 20
2723.608082
 30
0.0
 11
2146.816351
 21
2723.608082
 31
0.0
  0
LINE
  5
27F
330
224
100
AcDbEntity
  8
0
  6
Continuous
 62
     2
100
AcDbLine
 10
2145.816351
 20
2763.608082
 30
0.0
 11
2145.816351
 21
2743.608082
 31
0.0
  0
LINE
  5
280
330
224
100
AcDbEntity
  8
0
  6
Continuous
 62
     2
100
AcDbLine
 10
2145.816351
 20
2723.608082
 30
0.0
 11
2145.816351
 21
2743.608082
 31
0.0
  0
INSERT
  5
281
330
224
100
AcDbEntity
  8
0
  6
Continuous
 62
     2
100
AcDbBlockReference
  2
_CLOSED
 10
2145.816351
 20
2763.608082
 30
0.0
 41
3.333333
 42
3.333333
 43
3.333333
 50
90.0
  0
INSERT
  5
282
330
224
100
AcDbEntity
  8
0
  6
Continuous
 62
     2
100
AcDbBlockReference
  2
_CLOSED
 10
2145.816351
 20
2723.608082
 30
0.0
 41
3.333333
 42
3.333333
 43
3.333333
 50
270.0
  0
ENDBLK
  5
283
330
224
100
AcDbEntity
  8
0
  6
ByBlock
 62
     0
100
AcDbBlockEnd
  0
BLOCK
  5
284
330
225
100
AcDbEntity
  8
0
100
AcDbBlockBegin
  2
*D3
 70
     1
 10
0.0
 20
0.0
 30
0.0
  3
*D3
  1
*D3
  0
MTEXT
  5
285
330
225
100
AcDbEntity
  8
0
  6
Continuous
 62
     2
100
AcDbMText
 10
3486.512028
 20
2793.600016
 30
0.0
 40
4.0
 41
9.428571
 46
0.0
 71
     2
 72
     1
  1
27
 73
     1
 44
0.9
  0
LINE
  5
286
330
225
100
AcDbEntity
  8
0
  6
Continuous
 62
     2
100
AcDbLine
 10
3473.262028
 20
2777.259121
 30
0.0
 11
3473.262028
 21
2789.600016
 31
0.0
  0
LINE
  5
287
330
225
100
AcDbEntity
  8
0
  6
Continuous
 62
     2
100
AcDbLine
 10
3499.762028
 20
2777.076292
 30
0.0
 11
3499.762028
 21
2789.600016
 31
0.0
  0
LINE
  5
288
330
225
100
AcDbEntity
  8
0
  6
Continuous
 62
     2
100
AcDbLine
 10
3473.262028
 20
2788.600016
 30
0.0
 11
3486.512028
 21
2788.600016
 31
0.0
  0
LINE
  5
289
330
225
100
AcDbEntity
  8
0
  6
Continuous
 62
     2
100
AcDbLine
 10
3499.762028
 20
2788.600016
 30
0.0
 11
3486.512028
 21
2788.600016
 31
0.0
  0
INSERT
  5
28A
330
225
100
AcDbEntity
  8
0
  6
Continuous
 62
     2
100
AcDbBlockReference
  2
_CLOSED
 10
3473.262028
 20
2788.600016
 30
0.0
 41
3.333333
 42
3.333333
 43
3.333333
 50
180.0
  0
INSERT
  5
28B
330
225
100
AcDbEntity
  8
0
  6
Continuous
 62
     2
100
AcDbBlockReference
  2
_CLOSED
 10
3499.762028
 20
2788.600016
 30
0.0
 41
3.333333
 42
3.333333
 43
3.333333
  0
ENDBLK
  5
28C
330
225
100
AcDbEntity
  8
0
  6
ByBlock
 62
     0
100
AcDbBlockEnd
  0
BLOCK
  5
28D
330
226
100
AcDbEntity
  8
0
100
AcDbBlockBegin
  2
*D4
 70
     1
 10
0.0
 20
0.0
 30
0.0
  3
*D4
  1
*D4
  0
MTEXT
  5
28E
330
226
100
AcDbEntity
  8
0
  6
Continuous
 62
     2
100
AcDbMText
 10
3516.996277
 20
2751.858082
 30
0.0
 40
4.0
 41
9.428571
 46
0.0
 71
     2
 72
     1
  1
26
 11
0.0
 21
1.0
 31
0.0
 73
     1
 44
0.9
  0
LINE
  5
28F
330
226
100
AcDbEntity
  8
0
  6
Continuous
 62
     2
100
AcDbLine
 10
3510.517608
 20
2738.858082
 30
0.0
 11
3522.996277
 21
2738.858082
 31
0.0
  0
LINE
  5
290
330
226
100
AcDbEntity
  8
0
  6
Continuous
 62
     2
100
AcDbLine
 10
3510.33478
 20
2764.858082
 30
0.0
 11
3522.996277
 21
2764.858082
 31
0.0
  0
LINE
  5
291
330
226
100
AcDbEntity
  8
0
  6
Continuous
 62
     2
100
AcDbLine
 10
3521.996277
 20
2738.858082
 30
0.0
 11
3521.996277
 21
2751.858082
 31
0.0
  0
LINE
  5
292
330
226
100
AcDbEntity
  8
0
  6
Continuous
 62
     2
100
AcDbLine
 10
3521.996277
 20
2764.858082
 30
0.0
 11
3521.996277
 21
2751.858082
 31
0.0
  0
INSERT
  5
293
330
226
100
AcDbEntity
  8
0
  6
Continuous
 62
     2
100
AcDbBlockReference
  2
_CLOSED
 10
3521.996277
 20
2738.858082
 30
0.0
 41
3.333333
 42
3.333333
 43
3.333333
 50
270.0
  0
INSERT
  5
294
330
226
100
AcDbEntity
  8
0
  6
Continuous
 62
     2
100
AcDbBlockReference
  2
_CLOSED
 10
3521.996277
 20
2764.858082
 30
0.0
 41
3.333333
 42
3.333333
 43
3.333333
 50
90.0
  0
ENDBLK
  5
295
330
226
100
AcDbEntity
  8
0
  6
ByBlock
 62
     0
100
AcDbBlockEnd
  0
BLOCK
  5
296
330
227
100
AcDbEntity
  8
0
100
AcDbBlockBegin
  2
*D5
 70
     1
 10
0.0
 20
0.0
 30
0.0
  3
*D5
  1
*D5
  0
MTEXT
  5
297
330
227
100
AcDbEntity
  8
0
  6
Continuous
 62
     2
100
AcDbMText
 10
1403.938341
 20
1971.747292
 30
0.0
 40
4.0
 41
17.142857
 46
0.0
 71
     2
 72
     1
  1
1423
 73
     1
 44
0.9
  0
LINE
  5
298
330
227
100
AcDbEntity
  8
0
  6
Continuous
 62
     2
100
AcDbLine
 10
2115.288341
 20
1990.105237
 30
0.0
 11
2115.288341
 21
1965.747292
 31
0.0
  0
LINE
  5
299
330
227
100
AcDbEntity
  8
0
  6
Continuous
 62
     2
100
AcDbLine
 10
692.588341
 20
1988.92591
 30
0.0
 11
692.588341
 21
1965.747292
 31
0.0
  0
LINE
  5
29A
330
227
100
AcDbEntity
  8
0
  6
Continuous
 62
     2
100
AcDbLine
 10
2115.288341
 20
1966.747292
 30
0.0
 11
1403.938341
 21
1966.747292
 31
0.0
  0
LINE
  5
29B
330
227
100
AcDbEntity
  8
0
  6
Continuous
 62
     2
100
AcDbLine
 10
692.588341
 20
1966.747292
 30
0.0
 11
1403.938341
 21
1966.747292
 31
0.0
  0
INSERT
  5
29C
330
227
100
AcDbEntity
  8
0
  6
Continuous
 62
     2
100
AcDbBlockReference
  2
_CLOSED
 10
2115.288341
 20
1966.747292
 30
0.0
 41
3.333333
 42
3.333333
 43
3.333333
  0
INSERT
  5
29D
330
227
100
AcDbEntity
  8
0
  6
Continuous
 62
     2
100
AcDbBlockReference
  2
_CLOSED
 10
692.588341
 20
1966.747292
 30
0.0
 41
3.333333
 42
3.333333
 43
3.333333
 50
180.0
  0
ENDBLK
  5
29E
330
227
100
AcDbEntity
  8
0
  6
ByBlock
 62
     0
100
AcDbBlockEnd
  0
BLOCK
  5
230
330
228
100
AcDbEntity
  8
0
100
AcDbBlockBegin
  2
LOGO2_BL0
 70
     0
 10
4151.169025
 20
49.703489
 30
0.0
  3
LOGO2_BL0
  1
LOGO2_BL0
  0
LINE
  5
231
330
228
100
AcDbEntity
  8
0
  6
Continuous
 62
     7
100
AcDbLine
 10
4140.159592
 20
53.964145
 30
0.0
 11
4138.42047
 21
53.964145
 31
0.0
  0
LINE
  5
232
330
228
100
AcDbEntity
  8
0
  6
Continuous
 62
     7
100
AcDbLine
 10
4138.42047
 20
53.964145
 30
0.0
 11
4138.42047
 21
40.018723
 31
0.0
  0
LINE
  5
233
330
228
100
AcDbEntity
  8
0
  6
Continuous
 62
     7
100
AcDbLine
 10
4138.42047
 20
40.018723
 30
0.0
 11
4144.39521
 21
40.018723
 31
0.0
  0
LINE
  5
234
330
228
100
AcDbEntity
  8
0
  6
Continuous
 62
     7
100
AcDbLine
 10
4144.39521
 20
40.018723
 30
0.0
 11
4144.39521
 21
41.609196
 31
0.0
  0
LINE
  5
235
330
228
100
AcDbEntity
  8
0
  6
Continuous
 62
     7
100
AcDbLine
 10
4144.39521
 20
41.609196
 30
0.0
 11
4140.159592
 21
41.609196
 31
0.0
  0
LINE
  5
236
330
228
100
AcDbEntity
  8
0
  6
Continuous
 62
     7
100
AcDbLine
 10
4140.159592
 20
41.609196
 30
0.0
 11
4140.159592
 21
53.964145
 31
0.0
  0
LINE
  5
237
330
228
100
AcDbEntity
  8
0
  6
Continuous
 62
     7
100
AcDbLine
 10
4160.074693
 20
53.964145
 30
0.0
 11
4158.33627
 21
53.964145
 31
0.0
  0
LINE
  5
238
330
228
100
AcDbEntity
  8
0
  6
Continuous
 62
     7
100
AcDbLine
 10
4158.33627
 20
53.964145
 30
0.0
 11
4158.33627
 21
40.018723
 31
0.0
  0
LINE
  5
239
330
228
100
AcDbEntity
  8
0
  6
Continuous
 62
     7
100
AcDbLine
 10
4158.33627
 20
40.018723
 30
0.0
 11
4164.311184
 21
40.018723
 31
0.0
  0
LINE
  5
23A
330
228
100
AcDbEntity
  8
0
  6
Continuous
 62
     7
100
AcDbLine
 10
4164.311184
 20
40.018723
 30
0.0
 11
4164.311184
 21
41.609196
 31
0.0
  0
LINE
  5
23B
330
228
100
AcDbEntity
  8
0
  6
Continuous
 62
     7
100
AcDbLine
 10
4164.311184
 20
41.609196
 30
0.0
 11
4160.074693
 21
41.609196
 31
0.0
  0
LINE
  5
23C
330
228
100
AcDbEntity
  8
0
  6
Continuous
 62
     7
100
AcDbLine
 10
4160.074693
 20
41.609196
 30
0.0
 11
4160.074693
 21
53.964145
 31
0.0
  0
LWPOLYLINE
  5
23D
330
228
100
AcDbEntity
  8
0
  6
Continuous
 62
     7
100
AcDbPolyline
 90
        2
 70
     0
 43
0.266667
 10
4136.22633
 20
35.560655
 10
4136.22633
 20
33.08457
  0
LWPOLYLINE
  5
23E
330
228
100
AcDbEntity
  8
0
  6
Continuous
 62
     7
100
AcDbPolyline
 90
        2
 70
     0
 43
0.266667
 10
4136.22633
 20
33.08457
 10
4137.287285
 20
33.08457
  0
LWPOLYLINE
  5
23F
330
228
100
AcDbEntity
  8
0
  6
Continuous
 62
     7
100
AcDbPolyline
 90
        2
 70
     0
 43
0.266667
 10
4137.287285
 20
33.08457
 10
4137.287285
 20
33.367212
  0
LWPOLYLINE
  5
240
330
228
100
AcDbEntity
  8
0
  6
Continuous
 62
     7
100
AcDbPolyline
 90
        2
 70
     0
 43
0.266667
 10
4137.287285
 20
33.367212
 10
4136.535143
 20
33.367212
  0
LWPOLYLINE
  5
241
330
228
100
AcDbEntity
  8
0
  6
Continuous
 62
     7
100
AcDbPolyline
 90
        2
 70
     0
 43
0.266667
 10
4136.535143
 20
33.367212
 10
4136.535143
 20
35.560655
  0
LWPOLYLINE
  5
242
330
228
100
AcDbEntity
  8
0
  6
Continuous
 62
     7
100
AcDbPolyline
 90
        2
 70
     0
 43
0.266667
 10
4136.535143
 20
35.560655
 10
4136.22633
 20
35.560655
  0
SPLINE
  5
243
330
228
100
AcDbEntity
  8
0
  6
Continuous
 62
     7
100
AcDbSpline
 70
     3
 71
     3
 72
    35
 73
    31
 74
     0
 42
0.000000001
 43
0.0000001
 40
0.0
 40
0.0
 40
0.0
 40
0.0
 40
1.0
 40
1.0
 40
1.0
 40
2.0
 40
2.0
 40
2.0
 40
3.0
 40
3.0
 40
3.0
 40
4.0
 40
4.0
 40
4.0
 40
5.0
 40
5.0
 40
5.0
 40
6.0
 40
6.0
 40
6.0
 40
7.0
 40
7.0
 40
7.0
 40
8.0
 40
8.0
 40
8.0
 40
9.0
 40
9.0
 40
9.0
 40
10.0
 40
10.0
 40
10.0
 40
10.0
 10
4139.1516759362
 20
34.6213059365
 30
0.0
 10
4139.1516759362
 20
34.6213059365
 30
0.0
 10
4139.1516759362
 20
33.7384855643
 30
0.0
 10
4139.1516759362
 20
33.7384855643
 30
0.0
 10
4139.1516759362
 20
33.3183607706
 30
0.0
 10
4139.3488275213
 20
33.0322292665
 30
0.0
 10
4139.8022761671
 20
33.0322292665
 30
0.0
 10
4140.2550269311
 20
33.0322292665
 30
0.0
 10
4140.452527457
 20
33.3183607706
 30
0.0
 10
4140.452527457
 20
33.7384855643
 30
0.0
 10
4140.452527457
 20
33.7384855643
 30
0.0
 10
4140.452527457
 20
34.6213059365
 30
0.0
 10
4140.452527457
 20
34.6213059365
 30
0.0
 10
4140.452527457
 20
34.6213059365
 30
0.0
 10
4140.1564511385
 20
34.6213059365
 30
0.0
 10
4140.1564511385
 20
34.6213059365
 30
0.0
 10
4140.1564511385
 20
34.6213059365
 30
0.0
 10
4140.1564511385
 20
33.7719838867
 30
0.0
 10
4140.1564511385
 20
33.7719838867
 30
0.0
 10
4140.1564511385
 20
33.5242358771
 30
0.0
 10
4140.0941651953
 20
33.3071946631
 30
0.0
 10
4139.8022761671
 20
33.3071946631
 30
0.0
 10
4139.5096892571
 20
33.3071946631
 30
0.0
 10
4139.4474033139
 20
33.5242358771
 30
0.0
 10
4139.4474033139
 20
33.7719838867
 30
0.0
 10
4139.4474033139
 20
33.7719838867
 30
0.0
 10
4139.4474033139
 20
34.6213059365
 30
0.0
 10
4139.4474033139
 20
34.6213059365
 30
0.0
 10
4139.4474033139
 20
34.6213059365
 30
0.0
 10
4139.1516759362
 20
34.6213059365
 30
0.0
 10
4139.1516759362
 20
34.6213059365
 30
0.0
  0
SPLINE
  5
244
330
228
100
AcDbEntity
  8
0
  6
Continuous
 62
     7
100
AcDbSpline
 70
     3
 71
     3
 72
    35
 73
    31
 74
     0
 42
0.000000001
 43
0.0000001
 40
0.0
 40
0.0
 40
0.0
 40
0.0
 40
1.0
 40
1.0
 40
1.0
 40
2.0
 40
2.0
 40
2.0
 40
3.0
 40
3.0
 40
3.0
 40
4.0
 40
4.0
 40
4.0
 40
5.0
 40
5.0
 40
5.0
 40
6.0
 40
6.0
 40
6.0
 40
7.0
 40
7.0
 40
7.0
 40
8.0
 40
8.0
 40
8.0
 40
9.0
 40
9.0
 40
9.0
 40
10.0
 40
10.0
 40
10.0
 40
10.0
 10
4143.6833708666
 20
34.5661732808
 30
0.0
 10
4143.5654288564
 20
34.6345656891
 30
0.0
 10
4143.4141629942
 20
34.6680640116
 30
0.0
 10
4143.2759824142
 20
34.6680640116
 30
0.0
 10
4142.80281861
 20
34.6680640116
 30
0.0
 10
4142.4355583563
 20
34.3163316261
 30
0.0
 10
4142.4355583563
 20
33.8396784133
 30
0.0
 10
4142.4355583563
 20
33.3797743617
 30
0.0
 10
4142.8068314299
 20
33.0329271482
 30
0.0
 10
4143.2595821939
 20
33.0329271482
 30
0.0
 10
4143.4141629942
 20
33.0329271482
 30
0.0
 10
4143.5485052248
 20
33.0622381804
 30
0.0
 10
4143.6833708666
 20
33.1341199972
 30
0.0
 10
4143.6833708666
 20
33.1341199972
 30
0.0
 10
4143.6833708666
 20
33.5109761245
 30
0.0
 10
4143.6833708666
 20
33.5109761245
 30
0.0
 10
4143.5715353214
 20
33.3867531788
 30
0.0
 10
4143.4335292119
 20
33.3078925448
 30
0.0
 10
4143.2627226616
 20
33.3078925448
 30
0.0
 10
4142.9511184749
 20
33.3078925448
 30
0.0
 10
4142.7307623227
 20
33.5374956298
 30
0.0
 10
4142.7307623227
 20
33.8529381659
 30
0.0
 10
4142.7307623227
 20
34.1355802614
 30
0.0
 10
4142.954433413
 20
34.3917028516
 30
0.0
 10
4143.2435309144
 20
34.3917028516
 30
0.0
 10
4143.4206184001
 20
34.3917028516
 30
0.0
 10
4143.5654288564
 20
34.3198210347
 30
0.0
 10
4143.6833708666
 20
34.1851298633
 30
0.0
 10
4143.6833708666
 20
34.1851298633
 30
0.0
 10
4143.6833708666
 20
34.5661732808
 30
0.0
 10
4143.6833708666
 20
34.5661732808
 30
0.0
  0
SPLINE
  5
245
330
228
100
AcDbEntity
  8
0
  6
Continuous
 62
     7
100
AcDbSpline
 70
     3
 71
     3
 72
    32
 73
    28
 74
     0
 42
0.000000001
 43
0.0000001
 40
0.0
 40
0.0
 40
0.0
 40
0.0
 40
1.0
 40
1.0
 40
1.0
 40
2.0
 40
2.0
 40
2.0
 40
3.0
 40
3.0
 40
3.0
 40
4.0
 40
4.0
 40
4.0
 40
5.0
 40
5.0
 40
5.0
 40
6.0
 40
6.0
 40
6.0
 40
7.0
 40
7.0
 40
7.0
 40
8.0
 40
8.0
 40
8.0
 40
9.0
 40
9.0
 40
9.0
 40
9.0
 10
4147.0591992029
 20
33.8040864457
 30
0.0
 10
4147.0591992029
 20
33.8040864457
 30
0.0
 10
4147.0591992029
 20
33.8494487573
 30
0.0
 10
4147.0591992029
 20
33.8494487573
 30
0.0
 10
4147.0591992029
 20
34.3058634003
 30
0.0
 10
4146.8287237658
 20
34.6680640116
 30
0.0
 10
4146.339857623
 20
34.6680640116
 30
0.0
 10
4145.8443616038
 20
34.6680640116
 30
0.0
 10
4145.5913794813
 20
34.3128422175
 30
0.0
 10
4145.5913794813
 20
33.8396784133
 30
0.0
 10
4145.5913794813
 20
33.3867531788
 30
0.0
 10
4145.8768131036
 20
33.0322292665
 30
0.0
 10
4146.3463130289
 20
33.0322292665
 30
0.0
 10
4146.6450064038
 20
33.0322292665
 30
0.0
 10
4146.9145632171
 20
33.186461126
 30
0.0
 10
4147.0591992029
 20
33.4523540603
 30
0.0
 10
4147.0591992029
 20
33.4523540603
 30
0.0
 10
4146.8090086073
 20
33.5947219306
 30
0.0
 10
4146.8090086073
 20
33.5947219306
 30
0.0
 10
4146.6976964735
 20
33.4097832755
 30
0.0
 10
4146.5760905842
 20
33.2953306739
 30
0.0
 10
4146.3499769079
 20
33.2953306739
 30
0.0
 10
4146.0673348124
 20
33.2953306739
 30
0.0
 10
4145.8900728563
 20
33.5416829201
 30
0.0
 10
4145.8869323885
 20
33.8040864457
 30
0.0
 10
4145.8869323885
 20
33.8040864457
 30
0.0
 10
4147.0591992029
 20
33.8040864457
 30
0.0
 10
4147.0591992029
 20
33.8040864457
 30
0.0
  0
SPLINE
  5
246
330
228
100
AcDbEntity
  8
0
  6
Continuous
 62
     7
100
AcDbSpline
 70
     3
 71
     3
 72
    14
 73
    10
 74
     0
 42
0.000000001
 43
0.0000001
 40
0.0
 40
0.0
 40
0.0
 40
0.0
 40
1.0
 40
1.0
 40
1.0
 40
2.0
 40
2.0
 40
2.0
 40
3.0
 40
3.0
 40
3.0
 40
3.0
 10
4145.902983668
 20
34.0274085952
 30
0.0
 10
4145.9397969286
 20
34.2472413361
 30
0.0
 10
4146.110254538
 20
34.4112435396
 30
0.0
 10
4146.339857623
 20
34.4112435396
 30
0.0
 10
4146.5760905842
 20
34.4112435396
 30
0.0
 10
4146.7273564464
 20
34.2570116801
 30
0.0
 10
4146.7636462957
 20
34.0274085952
 30
0.0
 10
4146.7636462957
 20
34.0274085952
 30
0.0
 10
4145.902983668
 20
34.0274085952
 30
0.0
 10
4145.902983668
 20
34.0274085952
 30
0.0
  0
SPLINE
  5
247
330
228
100
AcDbEntity
  8
0
  6
Continuous
 62
     7
100
AcDbSpline
 70
     3
 71
     3
 72
    20
 73
    16
 74
     0
 42
0.000000001
 43
0.0000001
 40
0.0
 40
0.0
 40
0.0
 40
0.0
 40
1.0
 40
1.0
 40
1.0
 40
2.0
 40
2.0
 40
2.0
 40
3.0
 40
3.0
 40
3.0
 40
4.0
 40
4.0
 40
4.0
 40
5.0
 40
5.0
 40
5.0
 40
5.0
 10
4149.7579078032
 20
34.3065612821
 30
0.0
 10
4149.7579078032
 20
34.3065612821
 30
0.0
 10
4150.306093892
 20
33.6365948336
 30
0.0
 10
4150.306093892
 20
33.6365948336
 30
0.0
 10
4150.1513386212
 20
33.4823629741
 30
0.0
 10
4149.9676212592
 20
33.3085904265
 30
0.0
 10
4149.7383671151
 20
33.3085904265
 30
0.0
 10
4149.501785213
 20
33.3085904265
 30
0.0
 10
4149.2784630635
 20
33.5277252857
 30
0.0
 10
4149.2784630635
 20
33.7636093061
 30
0.0
 10
4149.2784630635
 20
34.0008890899
 30
0.0
 10
4149.5581391617
 20
34.1690785838
 30
0.0
 10
4149.7282478302
 20
34.2863227123
 30
0.0
 10
4149.7282478302
 20
34.2863227123
 30
0.0
 10
4149.7579078032
 20
34.3065612821
 30
0.0
 10
4149.7579078032
 20
34.3065612821
 30
0.0
  0
SPLINE
  5
248
330
228
100
AcDbEntity
  8
0
  6
Continuous
 62
     7
100
AcDbSpline
 70
     3
 71
     3
 72
    23
 73
    19
 74
     0
 42
0.000000001
 43
0.0000001
 40
0.0
 40
0.0
 40
0.0
 40
0.0
 40
1.0
 40
1.0
 40
1.0
 40
2.0
 40
2.0
 40
2.0
 40
3.0
 40
3.0
 40
3.0
 40
4.0
 40
4.0
 40
4.0
 40
5.0
 40
5.0
 40
5.0
 40
6.0
 40
6.0
 40
6.0
 40
6.0
 10
4149.823683155
 20
34.6945835168
 30
0.0
 10
4149.823683155
 20
34.6945835168
 30
0.0
 10
4149.7415075828
 20
34.7992657744
 30
0.0
 10
4149.7415075828
 20
34.7992657744
 30
0.0
 10
4149.669625766
 20
34.8906882793
 30
0.0
 10
4149.5939055997
 20
34.982808666
 30
0.0
 10
4149.5939055997
 20
35.1077294934
 30
0.0
 10
4149.5939055997
 20
35.2661486432
 30
0.0
 10
4149.7217924243
 20
35.3694351373
 30
0.0
 10
4149.8697433484
 20
35.3694351373
 30
0.0
 10
4150.0340944928
 20
35.3694351373
 30
0.0
 10
4150.1584919088
 20
35.2745232238
 30
0.0
 10
4150.1584919088
 20
35.1007506762
 30
0.0
 10
4150.1584919088
 20
34.9206971932
 30
0.0
 10
4149.9876853586
 20
34.8188064625
 30
0.0
 10
4149.8629390016
 20
34.7204051403
 30
0.0
 10
4149.8629390016
 20
34.7204051403
 30
0.0
 10
4149.823683155
 20
34.6945835168
 30
0.0
 10
4149.823683155
 20
34.6945835168
 30
0.0
  0
SPLINE
  5
249
330
228
100
AcDbEntity
  8
0
  6
Continuous
 62
     7
100
AcDbSpline
 70
     3
 71
     3
 72
    50
 73
    46
 74
     0
 42
0.000000001
 43
0.0000001
 40
0.0
 40
0.0
 40
0.0
 40
0.0
 40
1.0
 40
1.0
 40
1.0
 40
2.0
 40
2.0
 40
2.0
 40
3.0
 40
3.0
 40
3.0
 40
4.0
 40
4.0
 40
4.0
 40
5.0
 40
5.0
 40
5.0
 40
6.0
 40
6.0
 40
6.0
 40
7.0
 40
7.0
 40
7.0
 40
8.0
 40
8.0
 40
8.0
 40
9.0
 40
9.0
 40
9.0
 40
10.0
 40
10.0
 40
10.0
 40
11.0
 40
11.0
 40
11.0
 40
12.0
 40
12.0
 40
12.0
 40
13.0
 40
13.0
 40
13.0
 40
14.0
 40
14.0
 40
14.0
 40
15.0
 40
15.0
 40
15.0
 40
15.0
 10
4150.7598914786
 20
33.085268277
 30
0.0
 10
4150.7598914786
 20
33.085268277
 30
0.0
 10
4151.1404114849
 20
33.085268277
 30
0.0
 10
4151.1404114849
 20
33.085268277
 30
0.0
 10
4151.1404114849
 20
33.085268277
 30
0.0
 10
4150.6972565945
 20
33.633105425
 30
0.0
 10
4150.6972565945
 20
33.633105425
 30
0.0
 10
4150.6972565945
 20
33.633105425
 30
0.0
 10
4150.9992649076
 20
33.9876293373
 30
0.0
 10
4150.9992649076
 20
33.9876293373
 30
0.0
 10
4150.9992649076
 20
33.9876293373
 30
0.0
 10
4150.8015899112
 20
34.1914107987
 30
0.0
 10
4150.8015899112
 20
34.1914107987
 30
0.0
 10
4150.8015899112
 20
34.1914107987
 30
0.0
 10
4150.5137137029
 20
33.8564275745
 30
0.0
 10
4150.5137137029
 20
33.8564275745
 30
0.0
 10
4150.5137137029
 20
33.8564275745
 30
0.0
 10
4149.997630173
 20
34.4803338296
 30
0.0
 10
4149.997630173
 20
34.4803338296
 30
0.0
 10
4150.204901043
 20
34.632472044
 30
0.0
 10
4150.447938351
 20
34.8188064625
 30
0.0
 10
4150.447938351
 20
35.0979591493
 30
0.0
 10
4150.447938351
 20
35.4231720295
 30
0.0
 10
4150.1785560082
 20
35.61439162
 30
0.0
 10
4149.8765476951
 20
35.61439162
 30
0.0
 10
4149.5509858741
 20
35.61439162
 30
0.0
 10
4149.3051570392
 20
35.4134016855
 30
0.0
 10
4149.3051570392
 20
35.0714396441
 30
0.0
 10
4149.3051570392
 20
34.8613772472
 30
0.0
 10
4149.4367077429
 20
34.6778343556
 30
0.0
 10
4149.5771564385
 20
34.5298834316
 30
0.0
 10
4149.5771564385
 20
34.5298834316
 30
0.0
 10
4149.4230990494
 20
34.4182223568
 30
0.0
 10
4149.4230990494
 20
34.4182223568
 30
0.0
 10
4149.1861682064
 20
34.2472413361
 30
0.0
 10
4148.989714503
 20
34.0769581971
 30
0.0
 10
4148.989714503
 20
33.7608177792
 30
0.0
 10
4148.989714503
 20
33.3337141683
 30
0.0
 10
4149.3344680713
 20
33.0322292665
 30
0.0
 10
4149.7483119296
 20
33.0322292665
 30
0.0
 10
4150.0402009578
 20
33.0322292665
 30
0.0
 10
4150.3031278947
 20
33.1990229969
 30
0.0
 10
4150.4901601949
 20
33.4202515013
 30
0.0
 10
4150.4901601949
 20
33.4202515013
 30
0.0
 10
4150.7598914786
 20
33.085268277
 30
0.0
 10
4150.7598914786
 20
33.085268277
 30
0.0
  0
LWPOLYLINE
  5
24A
330
228
100
AcDbEntity
  8
0
  6
Continuous
 62
     7
100
AcDbPolyline
 90
        2
 70
     0
 43
0.266667
 10
4153.340484
 20
35.560655
 10
4153.03202
 20
35.560655
  0
LWPOLYLINE
  5
24B
330
228
100
AcDbEntity
  8
0
  6
Continuous
 62
     7
100
AcDbPolyline
 90
        2
 70
     0
 43
0.266667
 10
4153.03202
 20
35.560655
 10
4153.03202
 20
33.08457
  0
LWPOLYLINE
  5
24C
330
228
100
AcDbEntity
  8
0
  6
Continuous
 62
     7
100
AcDbPolyline
 90
        2
 70
     0
 43
0.266667
 10
4153.03202
 20
33.08457
 10
4154.092451
 20
33.08457
  0
LWPOLYLINE
  5
24D
330
228
100
AcDbEntity
  8
0
  6
Continuous
 62
     7
100
AcDbPolyline
 90
        2
 70
     0
 43
0.266667
 10
4154.092451
 20
33.08457
 10
4154.092451
 20
33.367212
  0
LWPOLYLINE
  5
24E
330
228
100
AcDbEntity
  8
0
  6
Continuous
 62
     7
100
AcDbPolyline
 90
        2
 70
     0
 43
0.266667
 10
4154.092451
 20
33.367212
 10
4153.340484
 20
33.367212
  0
LWPOLYLINE
  5
24F
330
228
100
AcDbEntity
  8
0
  6
Continuous
 62
     7
100
AcDbPolyline
 90
        2
 70
     0
 43
0.266667
 10
4153.340484
 20
33.367212
 10
4153.340484
 20
35.560655
  0
LWPOLYLINE
  5
250
330
228
100
AcDbEntity
  8
0
  6
Continuous
 62
     7
100
AcDbPolyline
 90
        2
 70
     0
 43
0.266667
 10
4156.331256
 20
34.621306
 10
4156.036401
 20
34.621306
  0
LWPOLYLINE
  5
251
330
228
100
AcDbEntity
  8
0
  6
Continuous
 62
     7
100
AcDbPolyline
 90
        2
 70
     0
 43
0.266667
 10
4156.036401
 20
34.621306
 10
4156.036401
 20
33.085268
  0
LWPOLYLINE
  5
252
330
228
100
AcDbEntity
  8
0
  6
Continuous
 62
     7
100
AcDbPolyline
 90
        2
 70
     0
 43
0.266667
 10
4156.036401
 20
33.085268
 10
4156.331256
 20
33.085268
  0
LWPOLYLINE
  5
253
330
228
100
AcDbEntity
  8
0
  6
Continuous
 62
     7
100
AcDbPolyline
 90
        2
 70
     0
 43
0.266667
 10
4156.331256
 20
33.085268
 10
4156.331256
 20
34.621306
  0
LWPOLYLINE
  5
254
330
228
100
AcDbEntity
  8
0
  6
Continuous
 62
     7
100
AcDbPolyline
 90
        2
 70
     1
 43
0.266667
 10
4155.980558
 20
35.327911
 42
1.0
 10
4156.387447
 20
35.327911
 42
1.0
  0
SPLINE
  5
255
330
228
100
AcDbEntity
  8
0
  6
Continuous
 62
     7
100
AcDbSpline
 70
     3
 71
     3
 72
    17
 73
    13
 74
     0
 42
0.000000001
 43
0.0000001
 40
0.0
 40
0.0
 40
0.0
 40
0.0
 40
1.0
 40
1.0
 40
1.0
 40
2.0
 40
2.0
 40
2.0
 40
3.0
 40
3.0
 40
3.0
 40
4.0
 40
4.0
 40
4.0
 40
4.0
 10
4159.171634286
 20
33.2953306739
 30
0.0
 10
4158.8596811584
 20
33.2953306739
 30
0.0
 10
4158.6859086108
 20
33.5647130167
 30
0.0
 10
4158.6859086108
 20
33.8529381659
 30
0.0
 10
4158.6859086108
 20
34.1390696699
 30
0.0
 10
4158.8670089164
 20
34.4042647225
 30
0.0
 10
4159.171634286
 20
34.4042647225
 30
0.0
 10
4159.4909151716
 20
34.4042647225
 30
0.0
 10
4159.6716665363
 20
34.1523294226
 30
0.0
 10
4159.6716665363
 20
33.8529381659
 30
0.0
 10
4159.6716665363
 20
33.5514532641
 30
0.0
 10
4159.4940556393
 20
33.2953306739
 30
0.0
 10
4159.171634286
 20
33.2953306739
 30
0.0
  0
SPLINE
  5
256
330
228
100
AcDbEntity
  8
0
  6
Continuous
 62
     7
100
AcDbSpline
 70
     3
 71
     3
 72
    50
 73
    46
 74
     0
 42
0.000000001
 43
0.0000001
 40
0.0
 40
0.0
 40
0.0
 40
0.0
 40
1.0
 40
1.0
 40
1.0
 40
2.0
 40
2.0
 40
2.0
 40
3.0
 40
3.0
 40
3.0
 40
4.0
 40
4.0
 40
4.0
 40
5.0
 40
5.0
 40
5.0
 40
6.0
 40
6.0
 40
6.0
 40
7.0
 40
7.0
 40
7.0
 40
8.0
 40
8.0
 40
8.0
 40
9.0
 40
9.0
 40
9.0
 40
10.0
 40
10.0
 40
10.0
 40
11.0
 40
11.0
 40
11.0
 40
12.0
 40
12.0
 40
12.0
 40
13.0
 40
13.0
 40
13.0
 40
14.0
 40
14.0
 40
14.0
 40
15.0
 40
15.0
 40
15.0
 40
15.0
 10
4159.9504702823
 20
34.6220038182
 30
0.0
 10
4159.9504702823
 20
34.6220038182
 30
0.0
 10
4159.6549173751
 20
34.6220038182
 30
0.0
 10
4159.6549173751
 20
34.6220038182
 30
0.0
 10
4159.6549173751
 20
34.6220038182
 30
0.0
 10
4159.6549173751
 20
34.3589024108
 30
0.0
 10
4159.6549173751
 20
34.3589024108
 30
0.0
 10
4159.6549173751
 20
34.3589024108
 30
0.0
 10
4159.6486364397
 20
34.3589024108
 30
0.0
 10
4159.6486364397
 20
34.3589024108
 30
0.0
 10
4159.52685608
 20
34.5494241196
 30
0.0
 10
4159.3429642475
 20
34.6673661298
 30
0.0
 10
4159.1126632809
 20
34.6673661298
 30
0.0
 10
4158.6695083905
 20
34.6673661298
 30
0.0
 10
4158.3907046445
 20
34.2835311854
 30
0.0
 10
4158.3907046445
 20
33.8627085099
 30
0.0
 10
4158.3907046445
 20
33.4230430281
 30
0.0
 10
4158.653457111
 20
33.0322292665
 30
0.0
 10
4159.1266209152
 20
33.0322292665
 30
0.0
 10
4159.3429642475
 20
33.0322292665
 30
0.0
 10
4159.5296476069
 20
33.1501712767
 30
0.0
 10
4159.6486364397
 20
33.324641706
 30
0.0
 10
4159.6486364397
 20
33.324641706
 30
0.0
 10
4159.6549173751
 20
33.324641706
 30
0.0
 10
4159.6549173751
 20
33.324641706
 30
0.0
 10
4159.6549173751
 20
33.324641706
 30
0.0
 10
4159.6549173751
 20
33.0322292665
 30
0.0
 10
4159.6549173751
 20
33.0322292665
 30
0.0
 10
4159.6549173751
 20
32.7167867304
 30
0.0
 10
4159.5795461497
 20
32.4676429573
 30
0.0
 10
4159.2152518933
 20
32.4676429573
 30
0.0
 10
4158.9455206096
 20
32.4676429573
 30
0.0
 10
4158.7553478417
 20
32.6253642254
 30
0.0
 10
4158.7553478417
 20
32.900329622
 30
0.0
 10
4158.7553478417
 20
32.900329622
 30
0.0
 10
4158.4597949345
 20
32.900329622
 30
0.0
 10
4158.4597949345
 20
32.900329622
 30
0.0
 10
4158.4664248108
 20
32.4676429573
 30
0.0
 10
4158.7745395889
 20
32.2052394317
 30
0.0
 10
4159.2016431998
 20
32.2052394317
 30
0.0
 10
4159.7990299497
 20
32.2052394317
 30
0.0
 10
4159.9504702823
 20
32.5855849675
 30
0.0
 10
4159.9504702823
 20
33.1145793092
 30
0.0
 10
4159.9504702823
 20
33.1145793092
 30
0.0
 10
4159.9504702823
 20
34.6220038182
 30
0.0
 10
4159.9504702823
 20
34.6220038182
 30
0.0
  0
SPLINE
  5
257
330
228
100
AcDbEntity
  8
0
  6
Continuous
 62
     7
100
AcDbSpline
 70
     3
 71
     3
 72
    44
 73
    40
 74
     0
 42
0.000000001
 43
0.0000001
 40
0.0
 40
0.0
 40
0.0
 40
0.0
 40
1.0
 40
1.0
 40
1.0
 40
2.0
 40
2.0
 40
2.0
 40
3.0
 40
3.0
 40
3.0
 40
4.0
 40
4.0
 40
4.0
 40
5.0
 40
5.0
 40
5.0
 40
6.0
 40
6.0
 40
6.0
 40
7.0
 40
7.0
 40
7.0
 40
8.0
 40
8.0
 40
8.0
 40
9.0
 40
9.0
 40
9.0
 40
10.0
 40
10.0
 40
10.0
 40
11.0
 40
11.0
 40
11.0
 40
12.0
 40
12.0
 40
12.0
 40
13.0
 40
13.0
 40
13.0
 40
13.0
 10
4162.0423707295
 20
35.9354172099
 30
0.0
 10
4162.0423707295
 20
35.9354172099
 30
0.0
 10
4162.0423707295
 20
33.0845703953
 30
0.0
 10
4162.0423707295
 20
33.0845703953
 30
0.0
 10
4162.0423707295
 20
33.0845703953
 30
0.0
 10
4162.3375746959
 20
33.0845703953
 30
0.0
 10
4162.3375746959
 20
33.0845703953
 30
0.0
 10
4162.3375746959
 20
33.0845703953
 30
0.0
 10
4162.3375746959
 20
33.7908266931
 30
0.0
 10
4162.3375746959
 20
33.7908266931
 30
0.0
 10
4162.3375746959
 20
34.0706772617
 30
0.0
 10
4162.3375746959
 20
34.4049626042
 30
0.0
 10
4162.7179202317
 20
34.4049626042
 30
0.0
 10
4163.0204519561
 20
34.4049626042
 30
0.0
 10
4163.0563928645
 20
34.227700648
 30
0.0
 10
4163.0563928645
 20
33.9659950041
 30
0.0
 10
4163.0563928645
 20
33.9659950041
 30
0.0
 10
4163.0563928645
 20
33.0845703953
 30
0.0
 10
4163.0563928645
 20
33.0845703953
 30
0.0
 10
4163.0563928645
 20
33.0845703953
 30
0.0
 10
4163.3522947126
 20
33.0845703953
 30
0.0
 10
4163.3522947126
 20
33.0845703953
 30
0.0
 10
4163.3522947126
 20
33.0845703953
 30
0.0
 10
4163.3522947126
 20
34.0008890899
 30
0.0
 10
4163.3522947126
 20
34.0008890899
 30
0.0
 10
4163.3522947126
 20
34.3749536903
 30
0.0
 10
4163.240284697
 20
34.6680640116
 30
0.0
 10
4162.8069001507
 20
34.6680640116
 30
0.0
 10
4162.6205657322
 20
34.6680640116
 30
0.0
 10
4162.4363249588
 20
34.5794330335
 30
0.0
 10
4162.3438556313
 20
34.4154308299
 30
0.0
 10
4162.3438556313
 20
34.4154308299
 30
0.0
 10
4162.3375746959
 20
34.4154308299
 30
0.0
 10
4162.3375746959
 20
34.4154308299
 30
0.0
 10
4162.3375746959
 20
34.4154308299
 30
0.0
 10
4162.3375746959
 20
35.9354172099
 30
0.0
 10
4162.3375746959
 20
35.9354172099
 30
0.0
 10
4162.3375746959
 20
35.9354172099
 30
0.0
 10
4162.0423707295
 20
35.9354172099
 30
0.0
 10
4162.0423707295
 20
35.9354172099
 30
0.0
  0
LWPOLYLINE
  5
258
330
228
100
AcDbEntity
  8
0
  6
Continuous
 62
     7
100
AcDbPolyline
 90
        2
 70
     0
 43
0.266667
 10
4165.805349
 20
34.345643
 10
4166.093923
 20
34.345643
  0
LWPOLYLINE
  5
259
330
228
100
AcDbEntity
  8
0
  6
Continuous
 62
     7
100
AcDbPolyline
 90
        2
 70
     0
 43
0.266667
 10
4166.093923
 20
34.345643
 10
4166.093923
 20
34.621306
  0
LWPOLYLINE
  5
25A
330
228
100
AcDbEntity
  8
0
  6
Continuous
 62
     7
100
AcDbPolyline
 90
        2
 70
     0
 43
0.266667
 10
4166.093923
 20
34.621306
 10
4165.805349
 20
34.621306
  0
LWPOLYLINE
  5
25B
330
228
100
AcDbEntity
  8
0
  6
Continuous
 62
     7
100
AcDbPolyline
 90
        2
 70
     0
 43
0.266667
 10
4165.805349
 20
34.621306
 10
4165.805349
 20
35.208922
  0
LWPOLYLINE
  5
25C
330
228
100
AcDbEntity
  8
0
  6
Continuous
 62
     7
100
AcDbPolyline
 90
        2
 70
     0
 43
0.266667
 10
4165.805349
 20
35.208922
 10
4165.509796
 20
35.208922
  0
LWPOLYLINE
  5
25D
330
228
100
AcDbEntity
  8
0
  6
Continuous
 62
     7
100
AcDbPolyline
 90
        2
 70
     0
 43
0.266667
 10
4165.509796
 20
35.208922
 10
4165.509796
 20
34.621306
  0
LWPOLYLINE
  5
25E
330
228
100
AcDbEntity
  8
0
  6
Continuous
 62
     7
100
AcDbPolyline
 90
        2
 70
     0
 43
0.266667
 10
4165.509796
 20
34.621306
 10
4165.348934
 20
34.621306
  0
LWPOLYLINE
  5
25F
330
228
100
AcDbEntity
  8
0
  6
Continuous
 62
     7
100
AcDbPolyline
 90
        2
 70
     0
 43
0.266667
 10
4165.348934
 20
34.621306
 10
4165.348934
 20
34.345643
  0
LWPOLYLINE
  5
260
330
228
100
AcDbEntity
  8
0
  6
Continuous
 62
     7
100
AcDbPolyline
 90
        2
 70
     0
 43
0.266667
 10
4165.348934
 20
34.345643
 10
4165.509796
 20
34.345643
  0
LWPOLYLINE
  5
261
330
228
100
AcDbEntity
  8
0
  6
Continuous
 62
     7
100
AcDbPolyline
 90
        2
 70
     0
 43
0.266667
 10
4165.509796
 20
34.345643
 10
4165.509796
 20
33.08457
  0
LWPOLYLINE
  5
262
330
228
100
AcDbEntity
  8
0
  6
Continuous
 62
     7
100
AcDbPolyline
 90
        2
 70
     0
 43
0.266667
 10
4165.509796
 20
33.08457
 10
4165.805349
 20
33.08457
  0
LWPOLYLINE
  5
263
330
228
100
AcDbEntity
  8
0
  6
Continuous
 62
     7
100
AcDbPolyline
 90
        2
 70
     0
 43
0.266667
 10
4165.805349
 20
33.08457
 10
4165.805349
 20
34.345643
  0
SPLINE
  5
264
330
228
100
AcDbEntity
  8
0
  6
Continuous
 62
     7
100
AcDbSpline
 70
     3
 71
     3
 72
    20
 73
    16
 74
     0
 42
0.000000001
 43
0.0000001
 40
0.0
 40
0.0
 40
0.0
 40
0.0
 40
1.0
 40
1.0
 40
1.0
 40
2.0
 40
2.0
 40
2.0
 40
3.0
 40
3.0
 40
3.0
 40
4.0
 40
4.0
 40
4.0
 40
5.0
 40
5.0
 40
5.0
 40
5.0
 10
4149.5146960248
 20
46.8991389865
 30
0.0
 10
4149.5146960248
 20
46.8991389865
 30
0.0
 10
4152.6031715641
 20
43.1263904235
 30
0.0
 10
4152.6031715641
 20
43.1263904235
 30
0.0
 10
4151.7343088262
 20
42.256829804
 30
0.0
 10
4150.6984778875
 20
41.2756081096
 30
0.0
 10
4149.4035583613
 20
41.2756081096
 30
0.0
 10
4148.0721745154
 20
41.2756081096
 30
0.0
 10
4146.8144171906
 20
42.5150460393
 30
0.0
 10
4146.8144171906
 20
43.8473022374
 30
0.0
 10
4146.8144171906
 20
45.1795584354
 30
0.0
 10
4148.3862212881
 20
46.1216987536
 30
0.0
 10
4149.3482512352
 20
46.7881757935
 30
0.0
 10
4149.3482512352
 20
46.7881757935
 30
0.0
 10
4149.5146960248
 20
46.8991389865
 30
0.0
 10
4149.5146960248
 20
46.8991389865
 30
0.0
  0
SPLINE
  5
265
330
228
100
AcDbEntity
  8
0
  6
Continuous
 62
     7
100
AcDbSpline
 70
     3
 71
     3
 72
    23
 73
    19
 74
     0
 42
0.000000001
 43
0.0000001
 40
0.0
 40
0.0
 40
0.0
 40
0.0
 40
1.0
 40
1.0
 40
1.0
 40
2.0
 40
2.0
 40
2.0
 40
3.0
 40
3.0
 40
3.0
 40
4.0
 40
4.0
 40
4.0
 40
5.0
 40
5.0
 40
5.0
 40
6.0
 40
6.0
 40
6.0
 40
6.0
 10
4149.8845733349
 20
49.0828108795
 30
0.0
 10
4149.8845733349
 20
49.0828108795
 30
0.0
 10
4149.4225756381
 20
49.6739166939
 30
0.0
 10
4149.4225756381
 20
49.6739166939
 30
0.0
 10
4149.0148382449
 20
50.1913959872
 30
0.0
 10
4148.5896538087
 20
50.7093986918
 30
0.0
 10
4148.5896538087
 20
51.4119911105
 30
0.0
 10
4148.5896538087
 20
52.300220066
 30
0.0
 10
4149.3114379746
 20
52.8918492918
 30
0.0
 10
4150.1433129815
 20
52.8918492918
 30
0.0
 10
4151.0683551976
 20
52.8918492918
 30
0.0
 10
4151.7712965572
 20
52.3555271921
 30
0.0
 10
4151.7712965572
 20
51.3755267908
 30
0.0
 10
4151.7712965572
 20
50.3578407767
 30
0.0
 10
4150.809615551
 20
49.7843564757
 30
0.0
 10
4150.1068486618
 20
49.2300639218
 30
0.0
 10
4150.1068486618
 20
49.2300639218
 30
0.0
 10
4149.8845733349
 20
49.0828108795
 30
0.0
 10
4149.8845733349
 20
49.0828108795
 30
0.0
  0
SPLINE
  5
266
330
228
100
AcDbEntity
  8
0
  6
Continuous
 62
     7
100
AcDbSpline
 70
     3
 71
     3
 72
    50
 73
    46
 74
     0
 42
0.000000001
 43
0.0000001
 40
0.0
 40
0.0
 40
0.0
 40
0.0
 40
1.0
 40
1.0
 40
1.0
 40
2.0
 40
2.0
 40
2.0
 40
3.0
 40
3.0
 40
3.0
 40
4.0
 40
4.0
 40
4.0
 40
5.0
 40
5.0
 40
5.0
 40
6.0
 40
6.0
 40
6.0
 40
7.0
 40
7.0
 40
7.0
 40
8.0
 40
8.0
 40
8.0
 40
9.0
 40
9.0
 40
9.0
 40
10.0
 40
10.0
 40
10.0
 40
11.0
 40
11.0
 40
11.0
 40
12.0
 40
12.0
 40
12.0
 40
13.0
 40
13.0
 40
13.0
 40
14.0
 40
14.0
 40
14.0
 40
15.0
 40
15.0
 40
15.0
 40
15.0
 10
4155.1560228854
 20
40.0180252553
 30
0.0
 10
4155.1560228854
 20
40.0180252553
 30
0.0
 10
4157.3016602248
 20
40.0180252553
 30
0.0
 10
4157.3016602248
 20
40.0180252553
 30
0.0
 10
4157.3016602248
 20
40.0180252553
 30
0.0
 10
4154.8042905
 20
43.1075476172
 30
0.0
 10
4154.8042905
 20
43.1075476172
 30
0.0
 10
4154.8042905
 20
43.1075476172
 30
0.0
 10
4156.5060750673
 20
45.10418721
 30
0.0
 10
4156.5060750673
 20
45.10418721
 30
0.0
 10
4156.5060750673
 20
45.10418721
 30
0.0
 10
4155.396443137
 20
46.2522026347
 30
0.0
 10
4155.396443137
 20
46.2522026347
 30
0.0
 10
4155.396443137
 20
46.2522026347
 30
0.0
 10
4153.7689829726
 20
44.3651304715
 30
0.0
 10
4153.7689829726
 20
44.3651304715
 30
0.0
 10
4153.7689829726
 20
44.3651304715
 30
0.0
 10
4150.8650971475
 20
47.8789649174
 30
0.0
 10
4150.8650971475
 20
47.8789649174
 30
0.0
 10
4152.0298617334
 20
48.7296827306
 30
0.0
 10
4153.3987567216
 20
49.7843564757
 30
0.0
 10
4153.3987567216
 20
51.3561605731
 30
0.0
 10
4153.3987567216
 20
53.1877511398
 30
0.0
 10
4151.8815618685
 20
54.2603953391
 30
0.0
 10
4150.1811730647
 20
54.2603953391
 30
0.0
 10
4148.3499314388
 20
54.2603953391
 30
0.0
 10
4146.9620191738
 20
53.1320950729
 30
0.0
 10
4146.9620191738
 20
51.20855859
 30
0.0
 10
4146.9620191738
 20
50.0251256681
 30
0.0
 10
4147.7024716757
 20
48.9892947294
 30
0.0
 10
4148.4973589516
 20
48.1567218408
 30
0.0
 10
4148.4973589516
 20
48.1567218408
 30
0.0
 10
4147.6281472729
 20
47.5279304137
 30
0.0
 10
4147.6281472729
 20
47.5279304137
 30
0.0
 10
4146.2967634269
 20
46.5662494074
 30
0.0
 10
4145.1862591445
 20
45.6045684012
 30
0.0
 10
4145.1862591445
 20
43.8291573127
 30
0.0
 10
4145.1862591445
 20
41.4242569154
 30
0.0
 10
4147.1289873747
 20
39.7221234072
 30
0.0
 10
4149.4590399578
 20
39.7221234072
 30
0.0
 10
4151.105517399
 20
39.7221234072
 30
0.0
 10
4152.5846776986
 20
40.6663573705
 30
0.0
 10
4153.6391769732
 20
41.9043995368
 30
0.0
 10
4153.6391769732
 20
41.9043995368
 30
0.0
 10
4155.1560228854
 20
40.0180252553
 30
0.0
 10
4155.1560228854
 20
40.0180252553
 30
0.0
  0
LINE
  5
267
330
228
100
AcDbEntity
  8
0
  6
Continuous
 62
     7
100
AcDbLine
 10
4136.226505
 20
37.316525
 30
0.0
 11
4166.111719
 21
37.316525
 31
0.0
  0
LINE
  5
268
330
228
100
AcDbEntity
  8
0
  6
Continuous
 62
     7
100
AcDbLine
 10
4166.111719
 20
37.316525
 30
0.0
 11
4166.111719
 21
67.201739
 31
0.0
  0
LINE
  5
269
330
228
100
AcDbEntity
  8
0
  6
Continuous
 62
     7
100
AcDbLine
 10
4166.111719
 20
67.201739
 30
0.0
 11
4136.226505
 21
67.201739
 31
0.0
  0
LINE
  5
26A
330
228
100
AcDbEntity
  8
0
  6
Continuous
 62
     7
100
AcDbLine
 10
4136.226505
 20
67.201739
 30
0.0
 11
4136.226505
 21
37.316525
 31
0.0
  0
ENDBLK
  5
26B
330
228
100
AcDbEntity
  8
0
  6
ByBlock
 62
     0
100
AcDbBlockEnd
  0
BLOCK
  5
29F
330
229
100
AcDbEntity
  8
0
100
AcDbBlockBegin
  2
*T7
 70
     1
 10
0.0
 20
0.0
 30
0.0
  3
*T7
  1
*T7
  0
LINE
  5
2A0
330
229
100
AcDbEntity
  8
0
  6
Continuous
 62
     2
100
AcDbLine
 10
0.0
 20
0.0
 30
0.0
 11
120.0
 21
0.0
 31
0.0
  0
LINE
  5
2A1
330
229
100
AcDbEntity
  8
0
  6
Continuous
 62
     2
100
AcDbLine
 10
0.0
 20
0.0
 30
0.0
 11
0.0
 21
-53.333333
 31
0.0
  0
LINE
  5
2A2
330
229
100
AcDbEntity
  8
0
  6
Continuous
 62
     2
100
AcDbLine
 10
40.0
 20
-8.0
 30
0.0
 11
120.0
 21
-8.0
 31
0.0
  0
LINE
  5
2A3
330
229
100
AcDbEntity
  8
0
  6
Continuous
 62
     2
100
AcDbLine
 10
40.0
 20
-16.0
 30
0.0
 11
120.0
 21
-16.0
 31
0.0
  0
LINE
  5
2A4
330
229
100
AcDbEntity
  8
0
  6
Continuous
 62
     2
100
AcDbLine
 10
40.0
 20
-29.333333
 30
0.0
 11
120.0
 21
-29.333333
 31
0.0
  0
LINE
  5
2A5
330
229
100
AcDbEntity
  8
0
  6
Continuous
 62
     2
100
AcDbLine
 10
0.0
 20
-36.0
 30
0.0
 11
120.0
 21
-36.0
 31
0.0
  0
LINE
  5
2A6
330
229
100
AcDbEntity
  8
0
  6
Continuous
 62
     2
100
AcDbLine
 10
0.0
 20
-53.333333
 30
0.0
 11
120.0
 21
-53.333333
 31
0.0
  0
LINE
  5
2A7
330
229
100
AcDbEntity
  8
0
  6
Continuous
 62
     2
100
AcDbLine
 10
40.0
 20
0.0
 30
0.0
 11
40.0
 21
-36.0
 31
0.0
  0
LINE
  5
2A8
330
229
100
AcDbEntity
  8
0
  6
Continuous
 62
     2
100
AcDbLine
 10
93.333333
 20
0.0
 30
0.0
 11
93.333333
 21
-16.0
 31
0.0
  0
LINE
  5
2A9
330
229
100
AcDbEntity
  8
0
  6
Continuous
 62
     2
100
AcDbLine
 10
120.0
 20
0.0
 30
0.0
 11
120.0
 21
-53.333333
 31
0.0
  0
MTEXT
  5
2AA
330
229
100
AcDbEntity
  8
9_SOLID
  6
Continuous
 62
     2
100
AcDbMText
 10
41.983333
 20
-2.0
 30
0.0
 40
4.0
 41
51.047619
 46
0.0
 71
     1
 72
     1
  1
SK3300_C
 73
     1
 44
0.9
  0
MTEXT
  5
2AB
330
229
100
AcDbEntity
  8
9_SOLID
  6
Continuous
 62
     2
100
AcDbMText
 10
95.316667
 20
-2.333333
 30
0.0
 40
4.666667
 41
40.444444
 46
0.0
 71
     1
 72
     1
  1
Rev:02
 73
     1
 44
0.9
  0
MTEXT
  5
2AC
330
229
100
AcDbEntity
  8
9_SOLID
  6
Continuous
 62
     2
100
AcDbMText
 10
41.983333
 20
-10.333333
 30
0.0
 40
4.666667
 41
50.444444
 46
0.0
 71
     1
 72
     1
  1
Scale:1:1
 73
     1
 44
0.9
  0
MTEXT
  5
2AD
330
229
100
AcDbEntity
  8
9_SOLID
  6
Continuous
 62
     2
100
AcDbMText
 10
95.316667
 20
-10.666667
 30
0.0
 40
2.666667
 41
49.269841
 46
0.0
 71
     1
 72
     1
  1
3200 by 2500
 73
     1
 44
0.9
  0
MTEXT
  5
2AE
330
229
100
AcDbEntity
  8
9_SOLID
  6
Continuous
 62
     2
100
AcDbMText
 10
41.983333
 20
-20.333333
 30
0.0
 40
4.666667
 41
65.555556
 46
0.0
 71
     1
 72
     1
  1
SNACK 3.3
 73
     1
 44
0.9
  0
MTEXT
  5
2AF
330
229
100
AcDbEntity
  8
9_SOLID
  6
Continuous
 62
     2
100
AcDbMText
 10
41.983333
 20
-31.0
 30
0.0
 40
3.333333
 41
25.873016
 46
0.0
 71
     1
 72
     1
  1
DATE:
 73
     1
 44
0.9
  0
MTEXT
  5
2B0
330
229
100
AcDbEntity
  8
9_SOLID
  6
Continuous
 62
     2
100
AcDbMText
 10
1.983333
 20
-36.416667
 30
0.0
 40
3.0
 41
239.285714
 46
0.0
 71
     1
 72
     1
  1
Any integral or partial reproductions are prohibited \Pwithout prior authorisation of L {\Ftxt.shx;\W0.190476;\H3.000000; }& L Luce & Light s.r.l., \Pin accordance with the law in force. \PAll rights reserved.
 73
     1
 44
0.9
  0
ENDBLK
  5
2B1
330
229
100
AcDbEntity
  8
0
  6
ByBlock
 62
     0
100
AcDbBlockEnd
  0
ENDSEC
  0
SECTION
  2
ENTITIES
  0
LINE
  5
2B2
330
220
100
AcDbEntity
  8
0
  6
Continuous
 62
     7
100
AcDbLine
 10
0.0
 20
0.0
 30
0.0
 11
4266.666667
 21
0.0
 31
0.0
  0
LINE
  5
2B3
330
220
100
AcDbEntity
  8
0
  6
Continuous
 62
     7
100
AcDbLine
 10
4266.666667
 20
0.0
 30
0.0
 11
4266.666667
 21
3333.333333
 31
0.0
  0
LINE
  5
2B4
330
220
100
AcDbEntity
  8
0
  6
Continuous
 62
     7
100
AcDbLine
 10
0.0
 20
3333.333333
 30
0.0
 11
4266.666667
 21
3333.333333
 31
0.0
  0
LINE
  5
2B5
330
220
100
AcDbEntity
  8
0
  6
Continuous
 62
     7
100
AcDbLine
 10
0.0
 20
0.0
 30
0.0
 11
0.0
 21
3333.333333
 31
0.0
  0
LINE
  5
2B6
330
220
100
AcDbEntity
  8
02___PRT_ALL_AXES
  6
Continuous
 62
     7
100
AcDbLine
 10
2109.088341
 20
2010.663959
 30
0.0
 11
2110.088341
 21
2010.663959
 31
0.0
  0
LINE
  5
2B7
330
220
100
AcDbEntity
  8
02___PRT_ALL_AXES
  6
Continuous
 62
     7
100
AcDbLine
 10
2109.088341
 20
2002.663959
 30
0.0
 11
2110.088341
 21
2002.663959
 31
0.0
  0
LINE
  5
2B8
330
220
100
AcDbEntity
  8
02___PRT_ALL_AXES
  6
Continuous
 62
     7
100
AcDbLine
 10
2109.088341
 20
2010.663959
 30
0.0
 11
2110.088341
 21
2010.663959
 31
0.0
  0
LINE
  5
2B9
330
220
100
AcDbEntity
  8
02___PRT_ALL_AXES
  6
Continuous
 62
     7
100
AcDbLine
 10
2109.088341
 20
2002.663959
 30
0.0
 11
2110.088341
 21
2002.663959
 31
0.0
  0
LINE
  5
2BA
330
220
100
AcDbEntity
  8
02___PRT_ALL_AXES
  6
Continuous
 62
     7
100
AcDbLine
 10
698.788341
 20
2002.663959
 30
0.0
 11
697.788341
 21
2002.663959
 31
0.0
  0
LINE
  5
2BB
330
220
100
AcDbEntity
  8
02___PRT_ALL_AXES
  6
Continuous
 62
     7
100
AcDbLine
 10
698.788341
 20
2010.663959
 30
0.0
 11
697.788341
 21
2010.663959
 31
0.0
  0
LINE
  5
2BC
330
220
100
AcDbEntity
  8
02___PRT_ALL_AXES
  6
Continuous
 62
     7
100
AcDbLine
 10
698.788341
 20
2002.663959
 30
0.0
 11
697.788341
 21
2002.663959
 31
0.0
  0
LINE
  5
2BD
330
220
100
AcDbEntity
  8
02___PRT_ALL_AXES
  6
Continuous
 62
     7
100
AcDbLine
 10
698.788341
 20
2010.663959
 30
0.0
 11
697.788341
 21
2010.663959
 31
0.0
  0
LINE
  5
2BE
330
220
100
AcDbEntity
  8
02___PRT_ALL_AXES
  6
Continuous
 62
     7
100
AcDbLine
 10
2112.088341
 20
2010.663959
 30
0.0
 11
2113.088341
 21
2010.663959
 31
0.0
  0
LINE
  5
2BF
330
220
100
AcDbEntity
  8
02___PRT_ALL_AXES
  6
Continuous
 62
     7
100
AcDbLine
 10
2112.088341
 20
2002.663959
 30
0.0
 11
2113.088341
 21
2002.663959
 31
0.0
  0
LINE
  5
2C0
330
220
100
AcDbEntity
  8
02___PRT_ALL_AXES
  6
Continuous
 62
     7
100
AcDbLine
 10
2112.088341
 20
2010.663959
 30
0.0
 11
2113.088341
 21
2010.663959
 31
0.0
  0
LINE
  5
2C1
330
220
100
AcDbEntity
  8
02___PRT_ALL_AXES
  6
Continuous
 62
     7
100
AcDbLine
 10
2113.088341
 20
2010.663959
 30
0.0
 11
2113.088341
 21
2010.463959
 31
0.0
  0
LINE
  5
2C2
330
220
100
AcDbEntity
  8
02___PRT_ALL_AXES
  6
Continuous
 62
     7
100
AcDbLine
 10
2113.088341
 20
2010.463959
 30
0.0
 11
2113.088341
 21
2008.813959
 31
0.0
  0
LINE
  5
2C3
330
220
100
AcDbEntity
  8
02___PRT_ALL_AXES
  6
Continuous
 62
     7
100
AcDbLine
 10
2113.088341
 20
2008.813959
 30
0.0
 11
2113.088341
 21
2008.663959
 31
0.0
  0
LINE
  5
2C4
330
220
100
AcDbEntity
  8
02___PRT_ALL_AXES
  6
Continuous
 62
     7
100
AcDbLine
 10
2113.088341
 20
2008.663959
 30
0.0
 11
2113.088341
 21
2004.663959
 31
0.0
  0
LINE
  5
2C5
330
220
100
AcDbEntity
  8
02___PRT_ALL_AXES
  6
Continuous
 62
     7
100
AcDbLine
 10
2113.088341
 20
2004.663959
 30
0.0
 11
2113.088341
 21
2004.513959
 31
0.0
  0
LINE
  5
2C6
330
220
100
AcDbEntity
  8
02___PRT_ALL_AXES
  6
Continuous
 62
     7
100
AcDbLine
 10
2113.088341
 20
2004.513959
 30
0.0
 11
2113.088341
 21
2002.863959
 31
0.0
  0
LINE
  5
2C7
330
220
100
AcDbEntity
  8
02___PRT_ALL_AXES
  6
Continuous
 62
     7
100
AcDbLine
 10
2113.088341
 20
2002.863959
 30
0.0
 11
2113.088341
 21
2002.663959
 31
0.0
  0
LINE
  5
2C8
330
220
100
AcDbEntity
  8
02___PRT_ALL_AXES
  6
Continuous
 62
     7
100
AcDbLine
 10
2112.088341
 20
2002.663959
 30
0.0
 11
2113.088341
 21
2002.663959
 31
0.0
  0
LINE
  5
2C9
330
220
100
AcDbEntity
  8
3_ALL_AXES
  6
Continuous
 62
     7
100
AcDbLine
 10
2113.088341
 20
2002.863959
 30
0.0
 11
2113.468341
 21
2002.863959
 31
0.0
  0
ARC
  5
2CA
330
220
100
AcDbEntity
  8
3_ALL_AXES
  6
Continuous
 62
     7
100
AcDbCircle
 10
2111.615701
 20
2006.521516
 30
0.0
 40
4.1
100
AcDbArc
 50
296.863303
 51
305.264018
  0
ARC
  5
2CB
330
220
100
AcDbEntity
  8
3_ALL_AXES
  6
Continuous
 62
     7
100
AcDbCircle
 10
2111.615701
 20
2006.521516
 30
0.0
 40
4.1
100
AcDbArc
 50
305.264018
 51
307.884515
  0
ARC
  5
2CC
330
220
100
AcDbEntity
  8
3_ALL_AXES
  6
Continuous
 62
     7
100
AcDbCircle
 10
2111.615701
 20
2006.521516
 30
0.0
 40
4.1
100
AcDbArc
 50
307.884515
 51
313.768039
  0
ARC
  5
2CD
330
220
100
AcDbEntity
  8
3_ALL_AXES
  6
Continuous
 62
     7
100
AcDbCircle
 10
2111.615701
 20
2006.521516
 30
0.0
 40
4.1
100
AcDbArc
 50
313.768039
 51
316.702239
  0
ARC
  5
2CE
330
220
100
AcDbEntity
  8
3_ALL_AXES
  6
Continuous
 62
     7
100
AcDbCircle
 10
2111.615701
 20
2006.521516
 30
0.0
 40
4.1
100
AcDbArc
 50
316.702239
 51
322.585763
  0
ARC
  5
2CF
330
220
100
AcDbEntity
  8
3_ALL_AXES
  6
Continuous
 62
     7
100
AcDbCircle
 10
2111.615701
 20
2006.521516
 30
0.0
 40
4.1
100
AcDbArc
 50
322.585763
 51
325.206259
  0
ARC
  5
2D0
330
220
100
AcDbEntity
  8
3_ALL_AXES
  6
Continuous
 62
     7
100
AcDbCircle
 10
2111.615701
 20
2006.521516
 30
0.0
 40
4.1
100
AcDbArc
 50
325.206259
 51
333.606974
  0
ARC
  5
2D1
330
220
100
AcDbEntity
  8
3_ALL_AXES
  6
Continuous
 62
     7
100
AcDbCircle
 10
2111.615701
 20
2006.806402
 30
0.0
 40
4.1
100
AcDbArc
 50
26.393026
 51
34.789417
  0
ARC
  5
2D2
330
220
100
AcDbEntity
  8
3_ALL_AXES
  6
Continuous
 62
     7
100
AcDbCircle
 10
2111.615701
 20
2006.806402
 30
0.0
 40
4.1
100
AcDbArc
 50
34.789417
 51
37.418017
  0
ARC
  5
2D3
330
220
100
AcDbEntity
  8
3_ALL_AXES
  6
Continuous
 62
     7
100
AcDbCircle
 10
2111.615701
 20
2006.806402
 30
0.0
 40
4.1
100
AcDbArc
 50
37.418017
 51
43.292467
  0
ARC
  5
2D4
330
220
100
AcDbEntity
  8
3_ALL_AXES
  6
Continuous
 62
     7
100
AcDbCircle
 10
2111.615701
 20
2006.806402
 30
0.0
 40
4.1
100
AcDbArc
 50
43.292467
 51
46.237256
  0
ARC
  5
2D5
330
220
100
AcDbEntity
  8
3_ALL_AXES
  6
Continuous
 62
     7
100
AcDbCircle
 10
2111.615701
 20
2006.806402
 30
0.0
 40
4.1
100
AcDbArc
 50
46.237256
 51
52.111705
  0
ARC
  5
2D6
330
220
100
AcDbEntity
  8
3_ALL_AXES
  6
Continuous
 62
     7
100
AcDbCircle
 10
2111.615701
 20
2006.806402
 30
0.0
 40
4.1
100
AcDbArc
 50
52.111705
 51
54.740306
  0
ARC
  5
2D7
330
220
100
AcDbEntity
  8
3_ALL_AXES
  6
Continuous
 62
     7
100
AcDbCircle
 10
2111.615701
 20
2006.806402
 30
0.0
 40
4.1
100
AcDbArc
 50
54.740306
 51
63.136697
  0
ARC
  5
2D8
330
220
100
AcDbEntity
  8
3_ALL_AXES
  6
Continuous
 62
     7
100
AcDbCircle
 10
2111.615701
 20
2006.521516
 30
0.0
 40
4.1
100
AcDbArc
 50
325.210583
 51
333.606974
  0
ARC
  5
2D9
330
220
100
AcDbEntity
  8
3_ALL_AXES
  6
Continuous
 62
     7
100
AcDbCircle
 10
2111.615701
 20
2006.521516
 30
0.0
 40
4.1
100
AcDbArc
 50
322.581983
 51
325.210583
  0
ARC
  5
2DA
330
220
100
AcDbEntity
  8
3_ALL_AXES
  6
Continuous
 62
     7
100
AcDbCircle
 10
2111.615701
 20
2006.521516
 30
0.0
 40
4.1
100
AcDbArc
 50
316.707533
 51
322.581983
  0
ARC
  5
2DB
330
220
100
AcDbEntity
  8
3_ALL_AXES
  6
Continuous
 62
     7
100
AcDbCircle
 10
2111.615701
 20
2006.521516
 30
0.0
 40
4.1
100
AcDbArc
 50
313.762744
 51
316.707533
  0
ARC
  5
2DC
330
220
100
AcDbEntity
  8
3_ALL_AXES
  6
Continuous
 62
     7
100
AcDbCircle
 10
2111.615701
 20
2006.521516
 30
0.0
 40
4.1
100
AcDbArc
 50
307.888295
 51
313.762744
  0
ARC
  5
2DD
330
220
100
AcDbEntity
  8
3_ALL_AXES
  6
Continuous
 62
     7
100
AcDbCircle
 10
2111.615701
 20
2006.521516
 30
0.0
 40
4.1
100
AcDbArc
 50
305.259694
 51
307.888295
  0
ARC
  5
2DE
330
220
100
AcDbEntity
  8
3_ALL_AXES
  6
Continuous
 62
     7
100
AcDbCircle
 10
2111.615701
 20
2006.521516
 30
0.0
 40
4.1
100
AcDbArc
 50
296.863303
 51
305.259694
  0
LINE
  5
2DF
330
220
100
AcDbEntity
  8
3_ALL_AXES
  6
Continuous
 62
     7
100
AcDbLine
 10
2113.468341
 20
2010.463959
 30
0.0
 11
2113.088341
 21
2010.463959
 31
0.0
  0
LINE
  5
2E0
330
220
100
AcDbEntity
  8
3_ALL_AXES
  6
Continuous
 62
     7
100
AcDbLine
 10
2113.468341
 20
2002.863959
 30
0.0
 11
2113.088341
 21
2002.863959
 31
0.0
  0
LINE
  5
2E1
330
220
100
AcDbEntity
  8
3_ALL_AXES
  6
Continuous
 62
     7
100
AcDbLine
 10
2113.088341
 20
2010.463959
 30
0.0
 11
2113.468341
 21
2010.463959
 31
0.0
  0
LINE
  5
2E2
330
220
100
AcDbEntity
  8
3_ALL_AXES
  6
Continuous
 62
     7
100
AcDbLine
 10
2115.288341
 20
2008.628959
 30
0.0
 11
2115.288341
 21
2008.116112
 31
0.0
  0
LINE
  5
2E3
330
220
100
AcDbEntity
  8
3_ALL_AXES
  6
Continuous
 62
     7
100
AcDbLine
 10
2115.288341
 20
2008.116112
 30
0.0
 11
2115.288341
 21
2008.107335
 31
0.0
  0
LINE
  5
2E4
330
220
100
AcDbEntity
  8
3_ALL_AXES
  6
Continuous
 62
     7
100
AcDbLine
 10
2115.288341
 20
2008.107335
 30
0.0
 11
2115.288341
 21
2007.385647
 31
0.0
  0
LINE
  5
2E5
330
220
100
AcDbEntity
  8
3_ALL_AXES
  6
Continuous
 62
     7
100
AcDbLine
 10
2115.288341
 20
2007.385647
 30
0.0
 11
2115.288341
 21
2005.942271
 31
0.0
  0
LINE
  5
2E6
330
220
100
AcDbEntity
  8
3_ALL_AXES
  6
Continuous
 62
     7
100
AcDbLine
 10
2115.288341
 20
2005.942271
 30
0.0
 11
2115.288341
 21
2005.220583
 31
0.0
  0
LINE
  5
2E7
330
220
100
AcDbEntity
  8
3_ALL_AXES
  6
Continuous
 62
     7
100
AcDbLine
 10
2115.288341
 20
2005.220583
 30
0.0
 11
2115.288341
 21
2005.211806
 31
0.0
  0
LINE
  5
2E8
330
220
100
AcDbEntity
  8
3_ALL_AXES
  6
Continuous
 62
     7
100
AcDbLine
 10
2115.288341
 20
2005.211806
 30
0.0
 11
2115.288341
 21
2004.698959
 31
0.0
  0
ARC
  5
2E9
330
220
100
AcDbEntity
  8
3_ALL_AXES
  6
Continuous
 62
     7
100
AcDbCircle
 10
2111.615701
 20
2006.806402
 30
0.0
 40
4.1
100
AcDbArc
 50
54.735982
 51
63.136697
  0
ARC
  5
2EA
330
220
100
AcDbEntity
  8
3_ALL_AXES
  6
Continuous
 62
     7
100
AcDbCircle
 10
2111.615701
 20
2006.806402
 30
0.0
 40
4.1
100
AcDbArc
 50
52.115485
 51
54.735982
  0
ARC
  5
2EB
330
220
100
AcDbEntity
  8
3_ALL_AXES
  6
Continuous
 62
     7
100
AcDbCircle
 10
2111.615701
 20
2006.806402
 30
0.0
 40
4.1
100
AcDbArc
 50
46.231961
 51
52.115485
  0
ARC
  5
2EC
330
220
100
AcDbEntity
  8
3_ALL_AXES
  6
Continuous
 62
     7
100
AcDbCircle
 10
2111.615701
 20
2006.806402
 30
0.0
 40
4.1
100
AcDbArc
 50
43.297761
 51
46.231961
  0
ARC
  5
2ED
330
220
100
AcDbEntity
  8
3_ALL_AXES
  6
Continuous
 62
     7
100
AcDbCircle
 10
2111.615701
 20
2006.806402
 30
0.0
 40
4.1
100
AcDbArc
 50
37.414237
 51
43.297761
  0
ARC
  5
2EE
330
220
100
AcDbEntity
  8
3_ALL_AXES
  6
Continuous
 62
     7
100
AcDbCircle
 10
2111.615701
 20
2006.806402
 30
0.0
 40
4.1
100
AcDbArc
 50
34.793741
 51
37.414237
  0
ARC
  5
2EF
330
220
100
AcDbEntity
  8
3_ALL_AXES
  6
Continuous
 62
     7
100
AcDbCircle
 10
2111.615701
 20
2006.806402
 30
0.0
 40
4.1
100
AcDbArc
 50
26.393026
 51
34.793741
  0
LINE
  5
2F0
330
220
100
AcDbEntity
  8
3_ALL_AXES
  6
Continuous
 62
     7
100
AcDbLine
 10
2113.468341
 20
2010.463959
 30
0.0
 11
2113.468341
 21
2002.863959
 31
0.0
  0
LINE
  5
2F1
330
220
100
AcDbEntity
  8
7_ALL_FEATURES
  6
Continuous
 62
     7
100
AcDbLine
 10
2109.088341
 20
2019.370245
 30
0.0
 11
2109.088341
 21
1993.957673
 31
0.0
  0
LINE
  5
2F2
330
220
100
AcDbEntity
  8
7_ALL_FEATURES
  6
Continuous
 62
     7
100
AcDbLine
 10
2105.688341
 20
2018.060073
 30
0.0
 11
2105.688341
 21
2017.913959
 31
0.0
  0
LINE
  5
2F3
330
220
100
AcDbEntity
  8
7_ALL_FEATURES
  6
Continuous
 62
     7
100
AcDbLine
 10
2105.688341
 20
2017.913959
 30
0.0
 11
2105.688341
 21
1995.413959
 31
0.0
  0
LINE
  5
2F4
330
220
100
AcDbEntity
  8
7_ALL_FEATURES
  6
Continuous
 62
     7
100
AcDbLine
 10
2105.688341
 20
1995.413959
 30
0.0
 11
2105.688341
 21
1995.267845
 31
0.0
  0
LINE
  5
2F5
330
220
100
AcDbEntity
  8
7_ALL_FEATURES
  6
Continuous
 62
     7
100
AcDbLine
 10
2106.088341
 20
2019.613959
 30
0.0
 11
2106.088341
 21
2019.913959
 31
0.0
  0
LINE
  5
2F6
330
220
100
AcDbEntity
  8
7_ALL_FEATURES
  6
Continuous
 62
     7
100
AcDbLine
 10
2106.088341
 20
2019.613959
 30
0.0
 11
2106.088341
 21
2018.427124
 31
0.0
  0
LINE
  5
2F7
330
220
100
AcDbEntity
  8
7_ALL_FEATURES
  6
Continuous
 62
     7
100
AcDbLine
 10
2106.088341
 20
2018.427124
 30
0.0
 11
2106.088341
 21
2013.108135
 31
0.0
  0
LINE
  5
2F8
330
220
100
AcDbEntity
  8
7_ALL_FEATURES
  6
Continuous
 62
     7
100
AcDbLine
 10
2106.088341
 20
2013.108135
 30
0.0
 11
2106.088341
 21
2012.219782
 31
0.0
  0
LINE
  5
2F9
330
220
100
AcDbEntity
  8
7_ALL_FEATURES
  6
Continuous
 62
     7
100
AcDbLine
 10
2106.088341
 20
2012.219782
 30
0.0
 11
2106.088341
 21
2001.108135
 31
0.0
  0
LINE
  5
2FA
330
220
100
AcDbEntity
  8
7_ALL_FEATURES
  6
Continuous
 62
     7
100
AcDbLine
 10
2106.088341
 20
2001.108135
 30
0.0
 11
2106.088341
 21
2000.219782
 31
0.0
  0
LINE
  5
2FB
330
220
100
AcDbEntity
  8
7_ALL_FEATURES
  6
Continuous
 62
     7
100
AcDbLine
 10
2106.088341
 20
2000.219782
 30
0.0
 11
2106.088341
 21
1994.900794
 31
0.0
  0
LINE
  5
2FC
330
220
100
AcDbEntity
  8
7_ALL_FEATURES
  6
Continuous
 62
     7
100
AcDbLine
 10
2106.088341
 20
1994.900794
 30
0.0
 11
2106.088341
 21
1993.713959
 31
0.0
  0
LINE
  5
2FD
330
220
100
AcDbEntity
  8
7_ALL_FEATURES
  6
Continuous
 62
     7
100
AcDbLine
 10
2108.597068
 20
2019.870169
 30
0.0
 11
2106.088341
 21
2019.913959
 31
0.0
  0
LINE
  5
2FE
330
220
100
AcDbEntity
  8
7_ALL_FEATURES
  6
Continuous
 62
     7
100
AcDbLine
 10
2108.597068
 20
1993.457749
 30
0.0
 11
2106.088341
 21
1993.413959
 31
0.0
  0
ARC
  5
2FF
330
220
100
AcDbEntity
  8
7_ALL_FEATURES
  6
Continuous
 62
     7
100
AcDbCircle
 10
2108.588341
 20
1993.957673
 30
0.0
 40
0.5
100
AcDbArc
 50
348.723365
 51
360.0
  0
ARC
  5
300
330
220
100
AcDbEntity
  8
7_ALL_FEATURES
  6
Continuous
 62
     7
100
AcDbCircle
 10
2108.588341
 20
2019.370245
 30
0.0
 40
0.5
100
AcDbArc
 50
0.0
 51
11.269686
  0
ARC
  5
301
330
220
100
AcDbEntity
  8
7_ALL_FEATURES
  6
Continuous
 62
     7
100
AcDbCircle
 10
2108.588341
 20
2019.370245
 30
0.0
 40
0.5
100
AcDbArc
 50
0.0
 51
89.002686
  0
ARC
  5
302
330
220
100
AcDbEntity
  8
7_ALL_FEATURES
  6
Continuous
 62
     7
100
AcDbCircle
 10
2108.588341
 20
1993.957673
 30
0.0
 40
0.5
100
AcDbArc
 50
271.011013
 51
360.0
  0
LINE
  5
303
330
220
100
AcDbEntity
  8
7_ALL_FEATURES
  6
Continuous
 62
     7
100
AcDbLine
 10
2105.438341
 20
1995.980308
 30
0.0
 11
2105.688341
 21
1995.971578
 31
0.0
  0
LINE
  5
304
330
220
100
AcDbEntity
  8
7_ALL_FEATURES
  6
Continuous
 62
     7
100
AcDbLine
 10
2105.438341
 20
2017.34761
 30
0.0
 11
2105.688341
 21
2017.35634
 31
0.0
  0
LINE
  5
305
330
220
100
AcDbEntity
  8
7_ALL_FEATURES
  6
Continuous
 62
     7
100
AcDbLine
 10
2106.088341
 20
2019.413959
 30
0.0
 11
2105.688341
 21
2019.399991
 31
0.0
  0
LINE
  5
306
330
220
100
AcDbEntity
  8
7_ALL_FEATURES
  6
Continuous
 62
     7
100
AcDbLine
 10
2106.088341
 20
1993.913959
 30
0.0
 11
2105.688341
 21
1993.927927
 31
0.0
  0
LINE
  5
307
330
220
100
AcDbEntity
  8
7_ALL_FEATURES
  6
Continuous
 62
     7
100
AcDbLine
 10
2108.597164
 20
1993.457751
 30
0.0
 11
2106.088341
 21
1993.413959
 31
0.0
  0
LINE
  5
308
330
220
100
AcDbEntity
  8
7_ALL_FEATURES
  6
Continuous
 62
     7
100
AcDbLine
 10
2106.088341
 20
1993.413959
 30
0.0
 11
2106.088341
 21
1993.713959
 31
0.0
  0
LINE
  5
309
330
220
100
AcDbEntity
  8
7_ALL_FEATURES
  6
Continuous
 62
     7
100
AcDbLine
 10
2105.438341
 20
2017.34761
 30
0.0
 11
2105.688341
 21
2017.35634
 31
0.0
  0
LINE
  5
30A
330
220
100
AcDbEntity
  8
7_ALL_FEATURES
  6
Continuous
 62
     7
100
AcDbLine
 10
2106.088341
 20
1993.913959
 30
0.0
 11
2105.688341
 21
1993.927927
 31
0.0
  0
LINE
  5
30B
330
220
100
AcDbEntity
  8
7_ALL_FEATURES
  6
Continuous
 62
     9
100
AcDbLine
 10
2105.438341
 20
1998.163959
 30
0.0
 11
2105.688341
 21
1998.163959
 31
0.0
  0
LINE
  5
30C
330
220
100
AcDbEntity
  8
7_ALL_FEATURES
  6
Continuous
 62
     9
100
AcDbLine
 10
2105.438341
 20
2015.163959
 30
0.0
 11
2105.688341
 21
2015.163959
 31
0.0
  0
LINE
  5
30D
330
220
100
AcDbEntity
  8
7_ALL_FEATURES
  6
Continuous
 62
     9
100
AcDbLine
 10
2108.597044
 20
2019.870169
 30
0.0
 11
2108.597164
 21
2019.613959
 31
0.0
  0
LINE
  5
30E
330
220
100
AcDbEntity
  8
7_ALL_FEATURES
  6
Continuous
 62
     9
100
AcDbLine
 10
2108.597068
 20
2019.613959
 30
0.0
 11
2108.597068
 21
1993.713959
 31
0.0
  0
LINE
  5
30F
330
220
100
AcDbEntity
  8
7_ALL_FEATURES
  6
Continuous
 62
     9
100
AcDbLine
 10
2108.597068
 20
1993.713959
 30
0.0
 11
2106.088341
 21
1993.713959
 31
0.0
  0
LINE
  5
310
330
220
100
AcDbEntity
  8
7_ALL_FEATURES
  6
Continuous
 62
     9
100
AcDbLine
 10
2108.597068
 20
2019.613959
 30
0.0
 11
2106.088341
 21
2019.613959
 31
0.0
  0
LINE
  5
311
330
220
100
AcDbEntity
  8
7_ALL_FEATURES
  6
Continuous
 62
     9
100
AcDbLine
 10
2108.597044
 20
1993.713959
 30
0.0
 11
2108.597164
 21
1993.457751
 31
0.0
  0
LINE
  5
312
330
220
100
AcDbEntity
  8
7_ALL_FEATURES
  6
Continuous
 62
     9
100
AcDbLine
 10
2106.088341
 20
2018.413959
 30
0.0
 11
2105.688341
 21
2018.413959
 31
0.0
  0
LINE
  5
313
330
220
100
AcDbEntity
  8
7_ALL_FEATURES
  6
Continuous
 62
     9
100
AcDbLine
 10
2106.088341
 20
1994.913959
 30
0.0
 11
2105.688341
 21
1994.913959
 31
0.0
  0
SPLINE
  5
314
330
220
100
AcDbEntity
  8
7_ALL_FEATURES
  6
Continuous
 62
     9
100
AcDbSpline
 70
     0
 71
     3
 72
    12
 73
     8
 74
     0
 42
0.000000001
 43
0.0000001
 40
0.0
 40
0.0
 40
0.0
 40
0.0
 40
0.3348136497
 40
0.5542681798
 40
0.734212422
 40
0.877193862
 40
1.0
 40
1.0
 40
1.0
 40
1.0
 10
2108.5971637056
 20
2019.6139589691
 30
0.0
 10
2108.6635020938
 20
2019.6139434916
 30
0.0
 10
2108.7737947157
 20
2019.6041599542
 30
0.0
 10
2108.914408203
 20
2019.5640191049
 30
0.0
 10
2109.0101668493
 20
2019.5130258537
 30
0.0
 10
2109.0733719414
 20
2019.4479856576
 30
0.0
 10
2109.0883277523
 20
2019.3945773902
 30
0.0
 10
2109.0883414126
 20
2019.3702451678
 30
0.0
  0
SPLINE
  5
315
330
220
100
AcDbEntity
  8
7_ALL_FEATURES
  6
Continuous
 62
     9
100
AcDbSpline
 70
     0
 71
     3
 72
    10
 73
     6
 74
     0
 42
0.000000001
 43
0.0000001
 40
0.0
 40
0.0
 40
0.0
 40
0.0
 40
0.1667375911
 40
0.5130139487
 40
1.0
 40
1.0
 40
1.0
 40
1.0
 10
2109.0883414126
 20
1993.9576728205
 30
0.0
 10
2109.0883229767
 20
1993.9248342364
 30
0.0
 10
2109.0461333231
 20
1993.8237430916
 30
0.0
 10
2108.8554113857
 20
1993.734486723
 30
0.0
 10
2108.6929549712
 20
1993.7139650369
 30
0.0
 10
2108.5970441765
 20
1993.7139589921
 30
0.0
  0
LINE
  5
316
330
220
100
AcDbEntity
  8
7_ALL_FEATURES
  6
Continuous
 62
     7
100
AcDbLine
 10
698.788341
 20
1993.957673
 30
0.0
 11
698.788341
 21
2019.370245
 31
0.0
  0
LINE
  5
317
330
220
100
AcDbEntity
  8
7_ALL_FEATURES
  6
Continuous
 62
     7
100
AcDbLine
 10
702.188341
 20
1995.267845
 30
0.0
 11
702.188341
 21
1995.413959
 31
0.0
  0
LINE
  5
318
330
220
100
AcDbEntity
  8
7_ALL_FEATURES
  6
Continuous
 62
     7
100
AcDbLine
 10
702.188341
 20
1995.413959
 30
0.0
 11
702.188341
 21
2017.913959
 31
0.0
  0
LINE
  5
319
330
220
100
AcDbEntity
  8
7_ALL_FEATURES
  6
Continuous
 62
     7
100
AcDbLine
 10
702.188341
 20
2017.913959
 30
0.0
 11
702.188341
 21
2018.060073
 31
0.0
  0
LINE
  5
31A
330
220
100
AcDbEntity
  8
7_ALL_FEATURES
  6
Continuous
 62
     7
100
AcDbLine
 10
701.788341
 20
1993.713959
 30
0.0
 11
701.788341
 21
1993.413959
 31
0.0
  0
LINE
  5
31B
330
220
100
AcDbEntity
  8
7_ALL_FEATURES
  6
Continuous
 62
     7
100
AcDbLine
 10
701.788341
 20
1993.713959
 30
0.0
 11
701.788341
 21
1994.900794
 31
0.0
  0
LINE
  5
31C
330
220
100
AcDbEntity
  8
7_ALL_FEATURES
  6
Continuous
 62
     7
100
AcDbLine
 10
701.788341
 20
1994.900794
 30
0.0
 11
701.788341
 21
2000.219782
 31
0.0
  0
LINE
  5
31D
330
220
100
AcDbEntity
  8
7_ALL_FEATURES
  6
Continuous
 62
     7
100
AcDbLine
 10
701.788341
 20
2000.219782
 30
0.0
 11
701.788341
 21
2001.108136
 31
0.0
  0
LINE
  5
31E
330
220
100
AcDbEntity
  8
7_ALL_FEATURES
  6
Continuous
 62
     7
100
AcDbLine
 10
701.788341
 20
2001.108136
 30
0.0
 11
701.788341
 21
2012.219782
 31
0.0
  0
LINE
  5
31F
330
220
100
AcDbEntity
  8
7_ALL_FEATURES
  6
Continuous
 62
     7
100
AcDbLine
 10
701.788341
 20
2012.219782
 30
0.0
 11
701.788341
 21
2013.108136
 31
0.0
  0
LINE
  5
320
330
220
100
AcDbEntity
  8
7_ALL_FEATURES
  6
Continuous
 62
     7
100
AcDbLine
 10
701.788341
 20
2013.108136
 30
0.0
 11
701.788341
 21
2018.427124
 31
0.0
  0
LINE
  5
321
330
220
100
AcDbEntity
  8
7_ALL_FEATURES
  6
Continuous
 62
     7
100
AcDbLine
 10
701.788341
 20
2018.427124
 30
0.0
 11
701.788341
 21
2019.613959
 31
0.0
  0
LINE
  5
322
330
220
100
AcDbEntity
  8
7_ALL_FEATURES
  6
Continuous
 62
     7
100
AcDbLine
 10
699.279615
 20
1993.457749
 30
0.0
 11
701.788341
 21
1993.413959
 31
0.0
  0
LINE
  5
323
330
220
100
AcDbEntity
  8
7_ALL_FEATURES
  6
Continuous
 62
     7
100
AcDbLine
 10
699.279615
 20
2019.870169
 30
0.0
 11
701.788341
 21
2019.913959
 31
0.0
  0
ARC
  5
324
330
220
100
AcDbEntity
  8
7_ALL_FEATURES
  6
Continuous
 62
     7
100
AcDbCircle
 10
699.288341
 20
2019.370245
 30
0.0
 40
0.5
100
AcDbArc
 50
168.723365
 51
180.0
  0
ARC
  5
325
330
220
100
AcDbEntity
  8
7_ALL_FEATURES
  6
Continuous
 62
     7
100
AcDbCircle
 10
699.288341
 20
1993.957673
 30
0.0
 40
0.5
100
AcDbArc
 50
180.0
 51
191.269686
  0
ARC
  5
326
330
220
100
AcDbEntity
  8
7_ALL_FEATURES
  6
Continuous
 62
     7
100
AcDbCircle
 10
699.288341
 20
1993.957673
 30
0.0
 40
0.5
100
AcDbArc
 50
180.0
 51
269.002686
  0
ARC
  5
327
330
220
100
AcDbEntity
  8
7_ALL_FEATURES
  6
Continuous
 62
     7
100
AcDbCircle
 10
699.288341
 20
2019.370245
 30
0.0
 40
0.5
100
AcDbArc
 50
91.011013
 51
180.0
  0
LINE
  5
328
330
220
100
AcDbEntity
  8
7_ALL_FEATURES
  6
Continuous
 62
     7
100
AcDbLine
 10
702.438341
 20
2017.34761
 30
0.0
 11
702.188341
 21
2017.35634
 31
0.0
  0
LINE
  5
329
330
220
100
AcDbEntity
  8
7_ALL_FEATURES
  6
Continuous
 62
     7
100
AcDbLine
 10
702.438341
 20
1995.980308
 30
0.0
 11
702.188341
 21
1995.971578
 31
0.0
  0
LINE
  5
32A
330
220
100
AcDbEntity
  8
7_ALL_FEATURES
  6
Continuous
 62
     7
100
AcDbLine
 10
701.788341
 20
1993.913959
 30
0.0
 11
702.188341
 21
1993.927927
 31
0.0
  0
LINE
  5
32B
330
220
100
AcDbEntity
  8
7_ALL_FEATURES
  6
Continuous
 62
     7
100
AcDbLine
 10
701.788341
 20
2019.413959
 30
0.0
 11
702.188341
 21
2019.399991
 31
0.0
  0
LINE
  5
32C
330
220
100
AcDbEntity
  8
7_ALL_FEATURES
  6
Continuous
 62
     7
100
AcDbLine
 10
699.279519
 20
2019.870167
 30
0.0
 11
701.788341
 21
2019.913959
 31
0.0
  0
LINE
  5
32D
330
220
100
AcDbEntity
  8
7_ALL_FEATURES
  6
Continuous
 62
     7
100
AcDbLine
 10
701.788341
 20
2019.913959
 30
0.0
 11
701.788341
 21
2019.613959
 31
0.0
  0
LINE
  5
32E
330
220
100
AcDbEntity
  8
7_ALL_FEATURES
  6
Continuous
 62
     7
100
AcDbLine
 10
702.438341
 20
1995.980308
 30
0.0
 11
702.188341
 21
1995.971578
 31
0.0
  0
LINE
  5
32F
330
220
100
AcDbEntity
  8
7_ALL_FEATURES
  6
Continuous
 62
     7
100
AcDbLine
 10
701.788341
 20
2019.413959
 30
0.0
 11
702.188341
 21
2019.399991
 31
0.0
  0
LINE
  5
330
330
220
100
AcDbEntity
  8
7_ALL_FEATURES
  6
Continuous
 62
     9
100
AcDbLine
 10
702.438341
 20
2015.163959
 30
0.0
 11
702.188341
 21
2015.163959
 31
0.0
  0
LINE
  5
331
330
220
100
AcDbEntity
  8
7_ALL_FEATURES
  6
Continuous
 62
     9
100
AcDbLine
 10
702.438341
 20
1998.163959
 30
0.0
 11
702.188341
 21
1998.163959
 31
0.0
  0
LINE
  5
332
330
220
100
AcDbEntity
  8
7_ALL_FEATURES
  6
Continuous
 62
     9
100
AcDbLine
 10
699.279639
 20
1993.457749
 30
0.0
 11
699.279519
 21
1993.713959
 31
0.0
  0
LINE
  5
333
330
220
100
AcDbEntity
  8
7_ALL_FEATURES
  6
Continuous
 62
     9
100
AcDbLine
 10
699.279615
 20
1993.713959
 30
0.0
 11
699.279615
 21
2019.613959
 31
0.0
  0
LINE
  5
334
330
220
100
AcDbEntity
  8
7_ALL_FEATURES
  6
Continuous
 62
     9
100
AcDbLine
 10
699.279615
 20
2019.613959
 30
0.0
 11
701.788341
 21
2019.613959
 31
0.0
  0
LINE
  5
335
330
220
100
AcDbEntity
  8
7_ALL_FEATURES
  6
Continuous
 62
     9
100
AcDbLine
 10
699.279615
 20
1993.713959
 30
0.0
 11
701.788341
 21
1993.713959
 31
0.0
  0
LINE
  5
336
330
220
100
AcDbEntity
  8
7_ALL_FEATURES
  6
Continuous
 62
     9
100
AcDbLine
 10
699.279639
 20
2019.613959
 30
0.0
 11
699.279519
 21
2019.870167
 31
0.0
  0
LINE
  5
337
330
220
100
AcDbEntity
  8
7_ALL_FEATURES
  6
Continuous
 62
     9
100
AcDbLine
 10
701.788341
 20
1994.913959
 30
0.0
 11
702.188341
 21
1994.913959
 31
0.0
  0
LINE
  5
338
330
220
100
AcDbEntity
  8
7_ALL_FEATURES
  6
Continuous
 62
     9
100
AcDbLine
 10
701.788341
 20
2018.413959
 30
0.0
 11
702.188341
 21
2018.413959
 31
0.0
  0
SPLINE
  5
339
330
220
100
AcDbEntity
  8
7_ALL_FEATURES
  6
Continuous
 62
     9
100
AcDbSpline
 70
     0
 71
     3
 72
    12
 73
     8
 74
     0
 42
0.000000001
 43
0.0000001
 40
0.0
 40
0.0
 40
0.0
 40
0.0
 40
0.3348136497
 40
0.5542681798
 40
0.734212422
 40
0.877193862
 40
1.0
 40
1.0
 40
1.0
 40
1.0
 10
699.2795191196
 20
1993.7139590191
 30
0.0
 10
699.2131807314
 20
1993.7139744967
 30
0.0
 10
699.1028881094
 20
1993.723758034
 30
0.0
 10
698.9622746222
 20
1993.7638988834
 30
0.0
 10
698.8665159758
 20
1993.8148921345
 30
0.0
 10
698.8033108838
 20
1993.8799323307
 30
0.0
 10
698.7883550729
 20
1993.933340598
 30
0.0
 10
698.7883414126
 20
1993.9576728205
 30
0.0
  0
SPLINE
  5
33A
330
220
100
AcDbEntity
  8
7_ALL_FEATURES
  6
Continuous
 62
     9
100
AcDbSpline
 70
     0
 71
     3
 72
    10
 73
     6
 74
     0
 42
0.000000001
 43
0.0000001
 40
0.0
 40
0.0
 40
0.0
 40
0.0
 40
0.1667375911
 40
0.5130139487
 40
1.0
 40
1.0
 40
1.0
 40
1.0
 10
698.7883414126
 20
2019.3702451678
 30
0.0
 10
698.7883598485
 20
2019.4030837519
 30
0.0
 10
698.830549502
 20
2019.5041748966
 30
0.0
 10
699.0212714395
 20
2019.5934312652
 30
0.0
 10
699.183727854
 20
2019.6139529514
 30
0.0
 10
699.2796386487
 20
2019.6139589962
 30
0.0
  0
LINE
  5
33B
330
220
100
AcDbEntity
  8
0
  6
Continuous
 62
     7
100
AcDbLine
 10
697.788341
 20
2036.663959
 30
0.0
 11
697.788341
 21
2016.663959
 31
0.0
  0
LINE
  5
33C
330
220
100
AcDbEntity
  8
0
  6
Continuous
 62
     7
100
AcDbLine
 10
697.788341
 20
2016.663959
 30
0.0
 11
697.788341
 21
2010.663959
 31
0.0
  0
LINE
  5
33D
330
220
100
AcDbEntity
  8
0
  6
Continuous
 62
     7
100
AcDbLine
 10
697.788341
 20
2010.663959
 30
0.0
 11
697.788341
 21
2009.735112
 31
0.0
  0
LINE
  5
33E
330
220
100
AcDbEntity
  8
0
  6
Continuous
 62
     7
100
AcDbLine
 10
695.788341
 20
2036.663959
 30
0.0
 11
697.788341
 21
2036.663959
 31
0.0
  0
LINE
  5
33F
330
220
100
AcDbEntity
  8
0
  6
Continuous
 62
     7
100
AcDbLine
 10
695.788341
 20
1996.663959
 30
0.0
 11
697.788341
 21
1996.663959
 31
0.0
  0
ARC
  5
340
330
220
100
AcDbEntity
  8
0
  6
Continuous
 62
     7
100
AcDbCircle
 10
709.788341
 20
2026.663959
 30
0.0
 40
2.5
100
AcDbArc
 50
270.0
 51
90.0
  0
LINE
  5
341
330
220
100
AcDbEntity
  8
0
  6
Continuous
 62
     7
100
AcDbLine
 10
704.788341
 20
2024.163959
 30
0.0
 11
709.788341
 21
2024.163959
 31
0.0
  0
ARC
  5
342
330
220
100
AcDbEntity
  8
0
  6
Continuous
 62
     7
100
AcDbCircle
 10
704.788341
 20
2026.663959
 30
0.0
 40
2.5
100
AcDbArc
 50
90.0
 51
270.0
  0
LINE
  5
343
330
220
100
AcDbEntity
  8
0
  6
Continuous
 62
     7
100
AcDbLine
 10
709.788341
 20
2029.163959
 30
0.0
 11
704.788341
 21
2029.163959
 31
0.0
  0
LINE
  5
344
330
220
100
AcDbEntity
  8
0
  6
Continuous
 62
     7
100
AcDbLine
 10
714.288341
 20
2036.663959
 30
0.0
 11
699.788341
 21
2036.663959
 31
0.0
  0
LINE
  5
345
330
220
100
AcDbEntity
  8
0
  6
Continuous
 62
     7
100
AcDbLine
 10
697.788341
 20
2009.252149
 30
0.0
 11
697.788341
 21
2008.913959
 31
0.0
  0
LINE
  5
346
330
220
100
AcDbEntity
  8
0
  6
Continuous
 62
     7
100
AcDbLine
 10
697.788341
 20
2008.913959
 30
0.0
 11
697.788341
 21
2008.813959
 31
0.0
  0
LINE
  5
347
330
220
100
AcDbEntity
  8
0
  6
Continuous
 62
     7
100
AcDbLine
 10
697.788341
 20
2008.813959
 30
0.0
 11
697.788341
 21
2004.513959
 31
0.0
  0
LINE
  5
348
330
220
100
AcDbEntity
  8
0
  6
Continuous
 62
     7
100
AcDbLine
 10
697.788341
 20
2004.513959
 30
0.0
 11
697.788341
 21
2004.413959
 31
0.0
  0
LINE
  5
349
330
220
100
AcDbEntity
  8
0
  6
Continuous
 62
     7
100
AcDbLine
 10
697.788341
 20
2004.413959
 30
0.0
 11
697.788341
 21
2002.663959
 31
0.0
  0
LINE
  5
34A
330
220
100
AcDbEntity
  8
0
  6
Continuous
 62
     7
100
AcDbLine
 10
697.788341
 20
2002.663959
 30
0.0
 11
697.788341
 21
1996.664176
 31
0.0
  0
LINE
  5
34B
330
220
100
AcDbEntity
  8
0
  6
Continuous
 62
     7
100
AcDbLine
 10
697.788341
 20
2009.735112
 30
0.0
 11
697.788341
 21
2009.252149
 31
0.0
  0
LINE
  5
34C
330
220
100
AcDbEntity
  8
0
  6
Continuous
 62
     7
100
AcDbLine
 10
715.788341
 20
2019.863959
 30
0.0
 11
715.788341
 21
2035.163959
 31
0.0
  0
ARC
  5
34D
330
220
100
AcDbEntity
  8
0
  6
Continuous
 62
     7
100
AcDbCircle
 10
714.288341
 20
2035.163959
 30
0.0
 40
1.5
100
AcDbArc
 50
0.0
 51
90.0
  0
LINE
  5
34E
330
220
100
AcDbEntity
  8
7_ALL_FEATURES
  6
Continuous
 62
     7
100
AcDbLine
 10
699.788341
 20
2036.663959
 30
0.0
 11
697.788341
 21
2036.663959
 31
0.0
  0
LINE
  5
34F
330
220
100
AcDbEntity
  8
0
  6
Continuous
 62
     7
100
AcDbLine
 10
695.788341
 20
2036.663959
 30
0.0
 11
697.788341
 21
2036.663959
 31
0.0
  0
LINE
  5
350
330
220
100
AcDbEntity
  8
7_ALL_FEATURES
  6
Continuous
 62
     7
100
AcDbLine
 10
698.788341
 20
2016.663959
 30
0.0
 11
697.788341
 21
2016.663959
 31
0.0
  0
LINE
  5
351
330
220
100
AcDbEntity
  8
7_ALL_FEATURES
  6
Continuous
 62
     9
100
AcDbLine
 10
699.788341
 20
2036.663959
 30
0.0
 11
699.788341
 21
2019.879049
 31
0.0
  0
LINE
  5
352
330
220
100
AcDbEntity
  8
0
  6
Continuous
 62
     9
100
AcDbLine
 10
695.788341
 20
2009.252149
 30
0.0
 11
697.788341
 21
2009.252149
 31
0.0
  0
LINE
  5
353
330
220
100
AcDbEntity
  8
0
  6
Continuous
 62
     9
100
AcDbLine
 10
695.788341
 20
2009.735112
 30
0.0
 11
697.788341
 21
2009.735112
 31
0.0
  0
LINE
  5
354
330
220
100
AcDbEntity
  8
7_ALL_FEATURES
  6
Continuous
 62
     7
100
AcDbLine
 10
2110.088341
 20
2036.663959
 30
0.0
 11
2112.088341
 21
2036.663959
 31
0.0
  0
LINE
  5
355
330
220
100
AcDbEntity
  8
7_ALL_FEATURES
  6
Continuous
 62
     7
100
AcDbLine
 10
2110.088341
 20
1996.663959
 30
0.0
 11
2112.088341
 21
1996.663959
 31
0.0
  0
LINE
  5
356
330
220
100
AcDbEntity
  8
7_ALL_FEATURES
  6
Continuous
 62
     7
100
AcDbLine
 10
2109.088341
 20
2016.663959
 30
0.0
 11
2110.088341
 21
2016.663959
 31
0.0
  0
LINE
  5
357
330
220
100
AcDbEntity
  8
7_ALL_FEATURES
  6
Continuous
 62
     7
100
AcDbLine
 10
2108.088341
 20
2036.663959
 30
0.0
 11
2110.088341
 21
2036.663959
 31
0.0
  0
LINE
  5
358
330
220
100
AcDbEntity
  8
7_ALL_FEATURES
  6
Continuous
 62
     7
100
AcDbLine
 10
2110.088341
 20
2036.663959
 30
0.0
 11
2110.088341
 21
2016.663959
 31
0.0
  0
LINE
  5
359
330
220
100
AcDbEntity
  8
7_ALL_FEATURES
  6
Continuous
 62
     7
100
AcDbLine
 10
2110.088341
 20
2016.663959
 30
0.0
 11
2110.088341
 21
2010.663959
 31
0.0
  0
LINE
  5
35A
330
220
100
AcDbEntity
  8
7_ALL_FEATURES
  6
Continuous
 62
     7
100
AcDbLine
 10
2110.088341
 20
2010.663959
 30
0.0
 11
2110.088341
 21
2009.735112
 31
0.0
  0
LINE
  5
35B
330
220
100
AcDbEntity
  8
7_ALL_FEATURES
  6
Continuous
 62
     7
100
AcDbLine
 10
2110.088341
 20
2009.735112
 30
0.0
 11
2110.088341
 21
2009.252149
 31
0.0
  0
LINE
  5
35C
330
220
100
AcDbEntity
  8
7_ALL_FEATURES
  6
Continuous
 62
     7
100
AcDbLine
 10
2110.088341
 20
2009.252149
 30
0.0
 11
2110.088341
 21
2008.913959
 31
0.0
  0
LINE
  5
35D
330
220
100
AcDbEntity
  8
7_ALL_FEATURES
  6
Continuous
 62
     7
100
AcDbLine
 10
2110.088341
 20
2008.913959
 30
0.0
 11
2110.088341
 21
2008.813959
 31
0.0
  0
LINE
  5
35E
330
220
100
AcDbEntity
  8
7_ALL_FEATURES
  6
Continuous
 62
     7
100
AcDbLine
 10
2110.088341
 20
2008.813959
 30
0.0
 11
2110.088341
 21
2004.513959
 31
0.0
  0
LINE
  5
35F
330
220
100
AcDbEntity
  8
7_ALL_FEATURES
  6
Continuous
 62
     7
100
AcDbLine
 10
2110.088341
 20
2004.513959
 30
0.0
 11
2110.088341
 21
2004.413959
 31
0.0
  0
LINE
  5
360
330
220
100
AcDbEntity
  8
7_ALL_FEATURES
  6
Continuous
 62
     7
100
AcDbLine
 10
2110.088341
 20
2004.413959
 30
0.0
 11
2110.088341
 21
2002.663959
 31
0.0
  0
LINE
  5
361
330
220
100
AcDbEntity
  8
7_ALL_FEATURES
  6
Continuous
 62
     7
100
AcDbLine
 10
2110.088341
 20
2002.663959
 30
0.0
 11
2110.088341
 21
1996.664176
 31
0.0
  0
LINE
  5
362
330
220
100
AcDbEntity
  8
7_ALL_FEATURES
  6
Continuous
 62
     7
100
AcDbLine
 10
2092.088341
 20
2019.863959
 30
0.0
 11
2092.088341
 21
2035.163959
 31
0.0
  0
LINE
  5
363
330
220
100
AcDbEntity
  8
7_ALL_FEATURES
  6
Continuous
 62
     7
100
AcDbLine
 10
2093.588341
 20
2036.663959
 30
0.0
 11
2108.088341
 21
2036.663959
 31
0.0
  0
LINE
  5
364
330
220
100
AcDbEntity
  8
7_ALL_FEATURES
  6
Continuous
 62
     7
100
AcDbLine
 10
2112.088341
 20
2036.663959
 30
0.0
 11
2110.088341
 21
2036.663959
 31
0.0
  0
ARC
  5
365
330
220
100
AcDbEntity
  8
7_ALL_FEATURES
  6
Continuous
 62
     7
100
AcDbCircle
 10
2093.588341
 20
2035.163959
 30
0.0
 40
1.5
100
AcDbArc
 50
90.0
 51
180.0
  0
ARC
  5
366
330
220
100
AcDbEntity
  8
02___PRT_ALL_AXES
  6
Continuous
 62
     7
100
AcDbCircle
 10
2103.088341
 20
2026.663959
 30
0.0
 40
2.5
100
AcDbArc
 50
270.0
 51
90.0
  0
LINE
  5
367
330
220
100
AcDbEntity
  8
02___PRT_ALL_AXES
  6
Continuous
 62
     7
100
AcDbLine
 10
2103.088341
 20
2024.163959
 30
0.0
 11
2098.088341
 21
2024.163959
 31
0.0
  0
ARC
  5
368
330
220
100
AcDbEntity
  8
02___PRT_ALL_AXES
  6
Continuous
 62
     7
100
AcDbCircle
 10
2098.088341
 20
2026.663959
 30
0.0
 40
2.5
100
AcDbArc
 50
90.0
 51
270.0
  0
LINE
  5
369
330
220
100
AcDbEntity
  8
02___PRT_ALL_AXES
  6
Continuous
 62
     7
100
AcDbLine
 10
2098.088341
 20
2029.163959
 30
0.0
 11
2103.088341
 21
2029.163959
 31
0.0
  0
LINE
  5
36A
330
220
100
AcDbEntity
  8
7_ALL_FEATURES
  6
Continuous
 62
     9
100
AcDbLine
 10
2108.088341
 20
2036.663959
 30
0.0
 11
2108.088341
 21
2019.879049
 31
0.0
  0
LINE
  5
36B
330
220
100
AcDbEntity
  8
7_ALL_FEATURES
  6
Continuous
 62
     9
100
AcDbLine
 10
2112.088341
 20
2009.252149
 30
0.0
 11
2110.088341
 21
2009.252149
 31
0.0
  0
LINE
  5
36C
330
220
100
AcDbEntity
  8
7_ALL_FEATURES
  6
Continuous
 62
     9
100
AcDbLine
 10
2112.088341
 20
2009.735112
 30
0.0
 11
2110.088341
 21
2009.735112
 31
0.0
  0
LINE
  5
36D
330
220
100
AcDbEntity
  8
7_ALL_FEATURES
  6
Continuous
 62
     7
100
AcDbLine
 10
702.438341
 20
1995.163959
 30
0.0
 11
702.438341
 21
1995.413959
 31
0.0
  0
LINE
  5
36E
330
220
100
AcDbEntity
  8
7_ALL_FEATURES
  6
Continuous
 62
     7
100
AcDbLine
 10
702.438341
 20
1995.413959
 30
0.0
 11
702.438341
 21
2017.913959
 31
0.0
  0
LINE
  5
36F
330
220
100
AcDbEntity
  8
7_ALL_FEATURES
  6
Continuous
 62
     7
100
AcDbLine
 10
702.438341
 20
2017.913959
 30
0.0
 11
702.438341
 21
2018.163959
 31
0.0
  0
LINE
  5
370
330
220
100
AcDbEntity
  8
7_ALL_FEATURES
  6
Continuous
 62
     7
100
AcDbLine
 10
702.438341
 20
1995.163959
 30
0.0
 11
702.438341
 21
1995.070709
 31
0.0
  0
LINE
  5
371
330
220
100
AcDbEntity
  8
7_ALL_FEATURES
  6
Continuous
 62
     7
100
AcDbLine
 10
702.438341
 20
1995.070709
 30
0.0
 11
702.438341
 21
1994.997125
 31
0.0
  0
LINE
  5
372
330
220
100
AcDbEntity
  8
7_ALL_FEATURES
  6
Continuous
 62
     7
100
AcDbLine
 10
702.438341
 20
1994.997125
 30
0.0
 11
702.438341
 21
1994.795454
 31
0.0
  0
LINE
  5
373
330
220
100
AcDbEntity
  8
7_ALL_FEATURES
  6
Continuous
 62
     7
100
AcDbLine
 10
731.938341
 20
1995.163959
 30
0.0
 11
731.938341
 21
1995.413959
 31
0.0
  0
LINE
  5
374
330
220
100
AcDbEntity
  8
7_ALL_FEATURES
  6
Continuous
 62
     7
100
AcDbLine
 10
731.938341
 20
1995.413959
 30
0.0
 11
731.938341
 21
1996.332653
 31
0.0
  0
LINE
  5
375
330
220
100
AcDbEntity
  8
7_ALL_FEATURES
  6
Continuous
 62
     7
100
AcDbLine
 10
731.938341
 20
1996.332653
 30
0.0
 11
731.938341
 21
2017.007098
 31
0.0
  0
LINE
  5
376
330
220
100
AcDbEntity
  8
7_ALL_FEATURES
  6
Continuous
 62
     7
100
AcDbLine
 10
731.938341
 20
2017.007098
 30
0.0
 11
731.938341
 21
2017.913959
 31
0.0
  0
LINE
  5
377
330
220
100
AcDbEntity
  8
7_ALL_FEATURES
  6
Continuous
 62
     7
100
AcDbLine
 10
731.938341
 20
2017.913959
 30
0.0
 11
731.938341
 21
2018.163959
 31
0.0
  0
LINE
  5
378
330
220
100
AcDbEntity
  8
7_ALL_FEATURES
  6
Continuous
 62
     7
100
AcDbLine
 10
702.438341
 20
1995.163959
 30
0.0
 11
731.938341
 21
1995.163959
 31
0.0
  0
LINE
  5
379
330
220
100
AcDbEntity
  8
7_ALL_FEATURES
  6
Continuous
 62
     7
100
AcDbLine
 10
2105.438341
 20
1995.163959
 30
0.0
 11
2075.938341
 21
1995.163959
 31
0.0
  0
LINE
  5
37A
330
220
100
AcDbEntity
  8
7_ALL_FEATURES
  6
Continuous
 62
     7
100
AcDbLine
 10
702.438341
 20
2018.330793
 30
0.0
 11
702.438341
 21
2018.266147
 31
0.0
  0
LINE
  5
37B
330
220
100
AcDbEntity
  8
7_ALL_FEATURES
  6
Continuous
 62
     7
100
AcDbLine
 10
702.438341
 20
2018.266147
 30
0.0
 11
702.438341
 21
2018.163959
 31
0.0
  0
LINE
  5
37C
330
220
100
AcDbEntity
  8
7_ALL_FEATURES
  6
Continuous
 62
     7
100
AcDbLine
 10
2075.938341
 20
2018.163959
 30
0.0
 11
2075.938341
 21
2017.913959
 31
0.0
  0
LINE
  5
37D
330
220
100
AcDbEntity
  8
7_ALL_FEATURES
  6
Continuous
 62
     7
100
AcDbLine
 10
2075.938341
 20
2017.913959
 30
0.0
 11
2075.938341
 21
2017.007098
 31
0.0
  0
LINE
  5
37E
330
220
100
AcDbEntity
  8
7_ALL_FEATURES
  6
Continuous
 62
     7
100
AcDbLine
 10
2075.938341
 20
2017.007098
 30
0.0
 11
2075.938341
 21
1996.332653
 31
0.0
  0
LINE
  5
37F
330
220
100
AcDbEntity
  8
7_ALL_FEATURES
  6
Continuous
 62
     7
100
AcDbLine
 10
2075.938341
 20
1996.332653
 30
0.0
 11
2075.938341
 21
1995.413959
 31
0.0
  0
LINE
  5
380
330
220
100
AcDbEntity
  8
7_ALL_FEATURES
  6
Continuous
 62
     7
100
AcDbLine
 10
2075.938341
 20
1995.413959
 30
0.0
 11
2075.938341
 21
1995.163959
 31
0.0
  0
LINE
  5
381
330
220
100
AcDbEntity
  8
7_ALL_FEATURES
  6
Continuous
 62
     7
100
AcDbLine
 10
2105.438341
 20
2018.163959
 30
0.0
 11
2105.438341
 21
2017.913959
 31
0.0
  0
LINE
  5
382
330
220
100
AcDbEntity
  8
7_ALL_FEATURES
  6
Continuous
 62
     7
100
AcDbLine
 10
2105.438341
 20
2017.913959
 30
0.0
 11
2105.438341
 21
1996.332653
 31
0.0
  0
LINE
  5
383
330
220
100
AcDbEntity
  8
7_ALL_FEATURES
  6
Continuous
 62
     7
100
AcDbLine
 10
2105.438341
 20
1996.332653
 30
0.0
 11
2105.438341
 21
1995.413959
 31
0.0
  0
LINE
  5
384
330
220
100
AcDbEntity
  8
7_ALL_FEATURES
  6
Continuous
 62
     7
100
AcDbLine
 10
2105.438341
 20
1995.413959
 30
0.0
 11
2105.438341
 21
1995.163959
 31
0.0
  0
LINE
  5
385
330
220
100
AcDbEntity
  8
7_ALL_FEATURES
  6
Continuous
 62
     7
100
AcDbLine
 10
2105.438341
 20
2018.163959
 30
0.0
 11
2075.938341
 21
2018.163959
 31
0.0
  0
LINE
  5
386
330
220
100
AcDbEntity
  8
7_ALL_FEATURES
  6
Continuous
 62
     7
100
AcDbLine
 10
2105.438341
 20
2018.330793
 30
0.0
 11
2105.438341
 21
2018.163959
 31
0.0
  0
LINE
  5
387
330
220
100
AcDbEntity
  8
7_ALL_FEATURES
  6
Continuous
 62
     7
100
AcDbLine
 10
702.438341
 20
2018.163959
 30
0.0
 11
731.938341
 21
2018.163959
 31
0.0
  0
LINE
  5
388
330
220
100
AcDbEntity
  8
7_ALL_FEATURES
  6
Continuous
 62
     7
100
AcDbLine
 10
851.938341
 20
2018.163959
 30
0.0
 11
755.938341
 21
2018.163959
 31
0.0
  0
LINE
  5
389
330
220
100
AcDbEntity
  8
7_ALL_FEATURES
  6
Continuous
 62
     7
100
AcDbLine
 10
851.938341
 20
1995.163959
 30
0.0
 11
851.938341
 21
1995.413959
 31
0.0
  0
LINE
  5
38A
330
220
100
AcDbEntity
  8
7_ALL_FEATURES
  6
Continuous
 62
     7
100
AcDbLine
 10
851.938341
 20
1995.413959
 30
0.0
 11
851.938341
 21
1996.332653
 31
0.0
  0
LINE
  5
38B
330
220
100
AcDbEntity
  8
7_ALL_FEATURES
  6
Continuous
 62
     7
100
AcDbLine
 10
851.938341
 20
1996.332653
 30
0.0
 11
851.938341
 21
2017.007098
 31
0.0
  0
LINE
  5
38C
330
220
100
AcDbEntity
  8
7_ALL_FEATURES
  6
Continuous
 62
     7
100
AcDbLine
 10
851.938341
 20
2017.007098
 30
0.0
 11
851.938341
 21
2017.913959
 31
0.0
  0
LINE
  5
38D
330
220
100
AcDbEntity
  8
7_ALL_FEATURES
  6
Continuous
 62
     7
100
AcDbLine
 10
851.938341
 20
2017.913959
 30
0.0
 11
851.938341
 21
2018.163959
 31
0.0
  0
LINE
  5
38E
330
220
100
AcDbEntity
  8
7_ALL_FEATURES
  6
Continuous
 62
     7
100
AcDbLine
 10
755.938341
 20
1995.163959
 30
0.0
 11
851.938341
 21
1995.163959
 31
0.0
  0
LINE
  5
38F
330
220
100
AcDbEntity
  8
7_ALL_FEATURES
  6
Continuous
 62
     7
100
AcDbLine
 10
755.938341
 20
2018.163959
 30
0.0
 11
755.938341
 21
2017.913959
 31
0.0
  0
LINE
  5
390
330
220
100
AcDbEntity
  8
7_ALL_FEATURES
  6
Continuous
 62
     7
100
AcDbLine
 10
755.938341
 20
2017.913959
 30
0.0
 11
755.938341
 21
2017.007098
 31
0.0
  0
LINE
  5
391
330
220
100
AcDbEntity
  8
7_ALL_FEATURES
  6
Continuous
 62
     7
100
AcDbLine
 10
755.938341
 20
2017.007098
 30
0.0
 11
755.938341
 21
1996.332653
 31
0.0
  0
LINE
  5
392
330
220
100
AcDbEntity
  8
7_ALL_FEATURES
  6
Continuous
 62
     7
100
AcDbLine
 10
755.938341
 20
1996.332653
 30
0.0
 11
755.938341
 21
1995.413959
 31
0.0
  0
LINE
  5
393
330
220
100
AcDbEntity
  8
7_ALL_FEATURES
  6
Continuous
 62
     7
100
AcDbLine
 10
755.938341
 20
1995.413959
 30
0.0
 11
755.938341
 21
1995.163959
 31
0.0
  0
LINE
  5
394
330
220
100
AcDbEntity
  8
7_ALL_FEATURES
  6
Continuous
 62
     7
100
AcDbLine
 10
971.938341
 20
1995.163959
 30
0.0
 11
971.938341
 21
1995.413959
 31
0.0
  0
LINE
  5
395
330
220
100
AcDbEntity
  8
7_ALL_FEATURES
  6
Continuous
 62
     7
100
AcDbLine
 10
971.938341
 20
1995.413959
 30
0.0
 11
971.938341
 21
1996.332653
 31
0.0
  0
LINE
  5
396
330
220
100
AcDbEntity
  8
7_ALL_FEATURES
  6
Continuous
 62
     7
100
AcDbLine
 10
971.938341
 20
1996.332653
 30
0.0
 11
971.938341
 21
2017.007098
 31
0.0
  0
LINE
  5
397
330
220
100
AcDbEntity
  8
7_ALL_FEATURES
  6
Continuous
 62
     7
100
AcDbLine
 10
971.938341
 20
2017.007098
 30
0.0
 11
971.938341
 21
2017.913959
 31
0.0
  0
LINE
  5
398
330
220
100
AcDbEntity
  8
7_ALL_FEATURES
  6
Continuous
 62
     7
100
AcDbLine
 10
971.938341
 20
2017.913959
 30
0.0
 11
971.938341
 21
2018.163959
 31
0.0
  0
LINE
  5
399
330
220
100
AcDbEntity
  8
7_ALL_FEATURES
  6
Continuous
 62
     7
100
AcDbLine
 10
875.938341
 20
1995.163959
 30
0.0
 11
971.938341
 21
1995.163959
 31
0.0
  0
LINE
  5
39A
330
220
100
AcDbEntity
  8
7_ALL_FEATURES
  6
Continuous
 62
     7
100
AcDbLine
 10
875.938341
 20
2018.163959
 30
0.0
 11
875.938341
 21
2017.913959
 31
0.0
  0
LINE
  5
39B
330
220
100
AcDbEntity
  8
7_ALL_FEATURES
  6
Continuous
 62
     7
100
AcDbLine
 10
875.938341
 20
2017.913959
 30
0.0
 11
875.938341
 21
2017.007098
 31
0.0
  0
LINE
  5
39C
330
220
100
AcDbEntity
  8
7_ALL_FEATURES
  6
Continuous
 62
     7
100
AcDbLine
 10
875.938341
 20
2017.007098
 30
0.0
 11
875.938341
 21
1996.332653
 31
0.0
  0
LINE
  5
39D
330
220
100
AcDbEntity
  8
7_ALL_FEATURES
  6
Continuous
 62
     7
100
AcDbLine
 10
875.938341
 20
1996.332653
 30
0.0
 11
875.938341
 21
1995.413959
 31
0.0
  0
LINE
  5
39E
330
220
100
AcDbEntity
  8
7_ALL_FEATURES
  6
Continuous
 62
     7
100
AcDbLine
 10
875.938341
 20
1995.413959
 30
0.0
 11
875.938341
 21
1995.163959
 31
0.0
  0
LINE
  5
39F
330
220
100
AcDbEntity
  8
7_ALL_FEATURES
  6
Continuous
 62
     7
100
AcDbLine
 10
971.938341
 20
2018.163959
 30
0.0
 11
875.938341
 21
2018.163959
 31
0.0
  0
LINE
  5
3A0
330
220
100
AcDbEntity
  8
7_ALL_FEATURES
  6
Continuous
 62
     7
100
AcDbLine
 10
1091.938341
 20
2018.163959
 30
0.0
 11
995.938341
 21
2018.163959
 31
0.0
  0
LINE
  5
3A1
330
220
100
AcDbEntity
  8
7_ALL_FEATURES
  6
Continuous
 62
     7
100
AcDbLine
 10
1091.938341
 20
1995.163959
 30
0.0
 11
1091.938341
 21
1995.413959
 31
0.0
  0
LINE
  5
3A2
330
220
100
AcDbEntity
  8
7_ALL_FEATURES
  6
Continuous
 62
     7
100
AcDbLine
 10
1091.938341
 20
1995.413959
 30
0.0
 11
1091.938341
 21
1996.332653
 31
0.0
  0
LINE
  5
3A3
330
220
100
AcDbEntity
  8
7_ALL_FEATURES
  6
Continuous
 62
     7
100
AcDbLine
 10
1091.938341
 20
1996.332653
 30
0.0
 11
1091.938341
 21
2017.007098
 31
0.0
  0
LINE
  5
3A4
330
220
100
AcDbEntity
  8
7_ALL_FEATURES
  6
Continuous
 62
     7
100
AcDbLine
 10
1091.938341
 20
2017.007098
 30
0.0
 11
1091.938341
 21
2017.913959
 31
0.0
  0
LINE
  5
3A5
330
220
100
AcDbEntity
  8
7_ALL_FEATURES
  6
Continuous
 62
     7
100
AcDbLine
 10
1091.938341
 20
2017.913959
 30
0.0
 11
1091.938341
 21
2018.163959
 31
0.0
  0
LINE
  5
3A6
330
220
100
AcDbEntity
  8
7_ALL_FEATURES
  6
Continuous
 62
     7
100
AcDbLine
 10
2105.438341
 20
1994.997125
 30
0.0
 11
2105.438341
 21
1994.795437
 31
0.0
  0
LINE
  5
3A7
330
220
100
AcDbEntity
  8
7_ALL_FEATURES
  6
Continuous
 62
     7
100
AcDbLine
 10
2105.438341
 20
1995.163959
 30
0.0
 11
2105.438341
 21
1995.070709
 31
0.0
  0
LINE
  5
3A8
330
220
100
AcDbEntity
  8
7_ALL_FEATURES
  6
Continuous
 62
     7
100
AcDbLine
 10
2105.438341
 20
1995.070709
 30
0.0
 11
2105.438341
 21
1994.997125
 31
0.0
  0
LINE
  5
3A9
330
220
100
AcDbEntity
  8
7_ALL_FEATURES
  6
Continuous
 62
     7
100
AcDbLine
 10
995.938341
 20
1995.163959
 30
0.0
 11
1091.938341
 21
1995.163959
 31
0.0
  0
LINE
  5
3AA
330
220
100
AcDbEntity
  8
7_ALL_FEATURES
  6
Continuous
 62
     7
100
AcDbLine
 10
995.938341
 20
2018.163959
 30
0.0
 11
995.938341
 21
2017.913959
 31
0.0
  0
LINE
  5
3AB
330
220
100
AcDbEntity
  8
7_ALL_FEATURES
  6
Continuous
 62
     7
100
AcDbLine
 10
995.938341
 20
2017.913959
 30
0.0
 11
995.938341
 21
2017.007098
 31
0.0
  0
LINE
  5
3AC
330
220
100
AcDbEntity
  8
7_ALL_FEATURES
  6
Continuous
 62
     7
100
AcDbLine
 10
995.938341
 20
2017.007098
 30
0.0
 11
995.938341
 21
1996.332653
 31
0.0
  0
LINE
  5
3AD
330
220
100
AcDbEntity
  8
7_ALL_FEATURES
  6
Continuous
 62
     7
100
AcDbLine
 10
995.938341
 20
1996.332653
 30
0.0
 11
995.938341
 21
1995.413959
 31
0.0
  0
LINE
  5
3AE
330
220
100
AcDbEntity
  8
7_ALL_FEATURES
  6
Continuous
 62
     7
100
AcDbLine
 10
995.938341
 20
1995.413959
 30
0.0
 11
995.938341
 21
1995.163959
 31
0.0
  0
LINE
  5
3AF
330
220
100
AcDbEntity
  8
7_ALL_FEATURES
  6
Continuous
 62
     7
100
AcDbLine
 10
1211.938341
 20
1995.163959
 30
0.0
 11
1211.938341
 21
1995.413959
 31
0.0
  0
LINE
  5
3B0
330
220
100
AcDbEntity
  8
7_ALL_FEATURES
  6
Continuous
 62
     7
100
AcDbLine
 10
1211.938341
 20
1995.413959
 30
0.0
 11
1211.938341
 21
1996.332653
 31
0.0
  0
LINE
  5
3B1
330
220
100
AcDbEntity
  8
7_ALL_FEATURES
  6
Continuous
 62
     7
100
AcDbLine
 10
1211.938341
 20
1996.332653
 30
0.0
 11
1211.938341
 21
2017.007098
 31
0.0
  0
LINE
  5
3B2
330
220
100
AcDbEntity
  8
7_ALL_FEATURES
  6
Continuous
 62
     7
100
AcDbLine
 10
1211.938341
 20
2017.007098
 30
0.0
 11
1211.938341
 21
2017.913959
 31
0.0
  0
LINE
  5
3B3
330
220
100
AcDbEntity
  8
7_ALL_FEATURES
  6
Continuous
 62
     7
100
AcDbLine
 10
1211.938341
 20
2017.913959
 30
0.0
 11
1211.938341
 21
2018.163959
 31
0.0
  0
LINE
  5
3B4
330
220
100
AcDbEntity
  8
7_ALL_FEATURES
  6
Continuous
 62
     7
100
AcDbLine
 10
1115.938341
 20
1995.163959
 30
0.0
 11
1211.938341
 21
1995.163959
 31
0.0
  0
LINE
  5
3B5
330
220
100
AcDbEntity
  8
7_ALL_FEATURES
  6
Continuous
 62
     7
100
AcDbLine
 10
1115.938341
 20
2018.163959
 30
0.0
 11
1115.938341
 21
2017.913959
 31
0.0
  0
LINE
  5
3B6
330
220
100
AcDbEntity
  8
7_ALL_FEATURES
  6
Continuous
 62
     7
100
AcDbLine
 10
1115.938341
 20
2017.913959
 30
0.0
 11
1115.938341
 21
2017.007098
 31
0.0
  0
LINE
  5
3B7
330
220
100
AcDbEntity
  8
7_ALL_FEATURES
  6
Continuous
 62
     7
100
AcDbLine
 10
1115.938341
 20
2017.007098
 30
0.0
 11
1115.938341
 21
1996.332653
 31
0.0
  0
LINE
  5
3B8
330
220
100
AcDbEntity
  8
7_ALL_FEATURES
  6
Continuous
 62
     7
100
AcDbLine
 10
1115.938341
 20
1996.332653
 30
0.0
 11
1115.938341
 21
1995.413959
 31
0.0
  0
LINE
  5
3B9
330
220
100
AcDbEntity
  8
7_ALL_FEATURES
  6
Continuous
 62
     7
100
AcDbLine
 10
1115.938341
 20
1995.413959
 30
0.0
 11
1115.938341
 21
1995.163959
 31
0.0
  0
LINE
  5
3BA
330
220
100
AcDbEntity
  8
7_ALL_FEATURES
  6
Continuous
 62
     7
100
AcDbLine
 10
1211.938341
 20
2018.163959
 30
0.0
 11
1115.938341
 21
2018.163959
 31
0.0
  0
LINE
  5
3BB
330
220
100
AcDbEntity
  8
7_ALL_FEATURES
  6
Continuous
 62
     7
100
AcDbLine
 10
1331.938341
 20
2018.163959
 30
0.0
 11
1235.938341
 21
2018.163959
 31
0.0
  0
LINE
  5
3BC
330
220
100
AcDbEntity
  8
7_ALL_FEATURES
  6
Continuous
 62
     7
100
AcDbLine
 10
1955.938341
 20
2018.163959
 30
0.0
 11
1955.938341
 21
2017.913959
 31
0.0
  0
LINE
  5
3BD
330
220
100
AcDbEntity
  8
7_ALL_FEATURES
  6
Continuous
 62
     7
100
AcDbLine
 10
1955.938341
 20
2017.913959
 30
0.0
 11
1955.938341
 21
2017.007098
 31
0.0
  0
LINE
  5
3BE
330
220
100
AcDbEntity
  8
7_ALL_FEATURES
  6
Continuous
 62
     7
100
AcDbLine
 10
1955.938341
 20
2017.007098
 30
0.0
 11
1955.938341
 21
1996.332653
 31
0.0
  0
LINE
  5
3BF
330
220
100
AcDbEntity
  8
7_ALL_FEATURES
  6
Continuous
 62
     7
100
AcDbLine
 10
1955.938341
 20
1996.332653
 30
0.0
 11
1955.938341
 21
1995.413959
 31
0.0
  0
LINE
  5
3C0
330
220
100
AcDbEntity
  8
7_ALL_FEATURES
  6
Continuous
 62
     7
100
AcDbLine
 10
1955.938341
 20
1995.413959
 30
0.0
 11
1955.938341
 21
1995.163959
 31
0.0
  0
LINE
  5
3C1
330
220
100
AcDbEntity
  8
7_ALL_FEATURES
  6
Continuous
 62
     7
100
AcDbLine
 10
1955.938341
 20
1995.163959
 30
0.0
 11
2051.938341
 21
1995.163959
 31
0.0
  0
LINE
  5
3C2
330
220
100
AcDbEntity
  8
7_ALL_FEATURES
  6
Continuous
 62
     7
100
AcDbLine
 10
2051.938341
 20
1995.163959
 30
0.0
 11
2051.938341
 21
1995.413959
 31
0.0
  0
LINE
  5
3C3
330
220
100
AcDbEntity
  8
7_ALL_FEATURES
  6
Continuous
 62
     7
100
AcDbLine
 10
2051.938341
 20
1995.413959
 30
0.0
 11
2051.938341
 21
1996.332653
 31
0.0
  0
LINE
  5
3C4
330
220
100
AcDbEntity
  8
7_ALL_FEATURES
  6
Continuous
 62
     7
100
AcDbLine
 10
2051.938341
 20
1996.332653
 30
0.0
 11
2051.938341
 21
2017.007098
 31
0.0
  0
LINE
  5
3C5
330
220
100
AcDbEntity
  8
7_ALL_FEATURES
  6
Continuous
 62
     7
100
AcDbLine
 10
2051.938341
 20
2017.007098
 30
0.0
 11
2051.938341
 21
2017.913959
 31
0.0
  0
LINE
  5
3C6
330
220
100
AcDbEntity
  8
7_ALL_FEATURES
  6
Continuous
 62
     7
100
AcDbLine
 10
2051.938341
 20
2017.913959
 30
0.0
 11
2051.938341
 21
2018.163959
 31
0.0
  0
LINE
  5
3C7
330
220
100
AcDbEntity
  8
7_ALL_FEATURES
  6
Continuous
 62
     7
100
AcDbLine
 10
2051.938341
 20
2018.163959
 30
0.0
 11
1955.938341
 21
2018.163959
 31
0.0
  0
LINE
  5
3C8
330
220
100
AcDbEntity
  8
7_ALL_FEATURES
  6
Continuous
 62
     7
100
AcDbLine
 10
1931.938341
 20
2018.163959
 30
0.0
 11
1835.938341
 21
2018.163959
 31
0.0
  0
LINE
  5
3C9
330
220
100
AcDbEntity
  8
7_ALL_FEATURES
  6
Continuous
 62
     7
100
AcDbLine
 10
1835.938341
 20
2018.163959
 30
0.0
 11
1835.938341
 21
2017.913959
 31
0.0
  0
LINE
  5
3CA
330
220
100
AcDbEntity
  8
7_ALL_FEATURES
  6
Continuous
 62
     7
100
AcDbLine
 10
1835.938341
 20
2017.913959
 30
0.0
 11
1835.938341
 21
2017.007098
 31
0.0
  0
LINE
  5
3CB
330
220
100
AcDbEntity
  8
7_ALL_FEATURES
  6
Continuous
 62
     7
100
AcDbLine
 10
1835.938341
 20
2017.007098
 30
0.0
 11
1835.938341
 21
1996.332653
 31
0.0
  0
LINE
  5
3CC
330
220
100
AcDbEntity
  8
7_ALL_FEATURES
  6
Continuous
 62
     7
100
AcDbLine
 10
1835.938341
 20
1996.332653
 30
0.0
 11
1835.938341
 21
1995.413959
 31
0.0
  0
LINE
  5
3CD
330
220
100
AcDbEntity
  8
7_ALL_FEATURES
  6
Continuous
 62
     7
100
AcDbLine
 10
1835.938341
 20
1995.413959
 30
0.0
 11
1835.938341
 21
1995.163959
 31
0.0
  0
LINE
  5
3CE
330
220
100
AcDbEntity
  8
7_ALL_FEATURES
  6
Continuous
 62
     7
100
AcDbLine
 10
1835.938341
 20
1995.163959
 30
0.0
 11
1931.938341
 21
1995.163959
 31
0.0
  0
LINE
  5
3CF
330
220
100
AcDbEntity
  8
7_ALL_FEATURES
  6
Continuous
 62
     7
100
AcDbLine
 10
1931.938341
 20
1995.163959
 30
0.0
 11
1931.938341
 21
1995.413959
 31
0.0
  0
LINE
  5
3D0
330
220
100
AcDbEntity
  8
7_ALL_FEATURES
  6
Continuous
 62
     7
100
AcDbLine
 10
1931.938341
 20
1995.413959
 30
0.0
 11
1931.938341
 21
1996.332653
 31
0.0
  0
LINE
  5
3D1
330
220
100
AcDbEntity
  8
7_ALL_FEATURES
  6
Continuous
 62
     7
100
AcDbLine
 10
1931.938341
 20
1996.332653
 30
0.0
 11
1931.938341
 21
2017.007098
 31
0.0
  0
LINE
  5
3D2
330
220
100
AcDbEntity
  8
7_ALL_FEATURES
  6
Continuous
 62
     7
100
AcDbLine
 10
1931.938341
 20
2017.007098
 30
0.0
 11
1931.938341
 21
2017.913959
 31
0.0
  0
LINE
  5
3D3
330
220
100
AcDbEntity
  8
7_ALL_FEATURES
  6
Continuous
 62
     7
100
AcDbLine
 10
1931.938341
 20
2017.913959
 30
0.0
 11
1931.938341
 21
2018.163959
 31
0.0
  0
LINE
  5
3D4
330
220
100
AcDbEntity
  8
7_ALL_FEATURES
  6
Continuous
 62
     7
100
AcDbLine
 10
1715.938341
 20
2018.163959
 30
0.0
 11
1715.938341
 21
2017.913959
 31
0.0
  0
LINE
  5
3D5
330
220
100
AcDbEntity
  8
7_ALL_FEATURES
  6
Continuous
 62
     7
100
AcDbLine
 10
1715.938341
 20
2017.913959
 30
0.0
 11
1715.938341
 21
2017.007098
 31
0.0
  0
LINE
  5
3D6
330
220
100
AcDbEntity
  8
7_ALL_FEATURES
  6
Continuous
 62
     7
100
AcDbLine
 10
1715.938341
 20
2017.007098
 30
0.0
 11
1715.938341
 21
1996.332653
 31
0.0
  0
LINE
  5
3D7
330
220
100
AcDbEntity
  8
7_ALL_FEATURES
  6
Continuous
 62
     7
100
AcDbLine
 10
1715.938341
 20
1996.332653
 30
0.0
 11
1715.938341
 21
1995.413959
 31
0.0
  0
LINE
  5
3D8
330
220
100
AcDbEntity
  8
7_ALL_FEATURES
  6
Continuous
 62
     7
100
AcDbLine
 10
1715.938341
 20
1995.413959
 30
0.0
 11
1715.938341
 21
1995.163959
 31
0.0
  0
LINE
  5
3D9
330
220
100
AcDbEntity
  8
7_ALL_FEATURES
  6
Continuous
 62
     7
100
AcDbLine
 10
1715.938341
 20
1995.163959
 30
0.0
 11
1811.938341
 21
1995.163959
 31
0.0
  0
LINE
  5
3DA
330
220
100
AcDbEntity
  8
7_ALL_FEATURES
  6
Continuous
 62
     7
100
AcDbLine
 10
1811.938341
 20
1995.163959
 30
0.0
 11
1811.938341
 21
1995.413959
 31
0.0
  0
LINE
  5
3DB
330
220
100
AcDbEntity
  8
7_ALL_FEATURES
  6
Continuous
 62
     7
100
AcDbLine
 10
1811.938341
 20
1995.413959
 30
0.0
 11
1811.938341
 21
1996.332653
 31
0.0
  0
LINE
  5
3DC
330
220
100
AcDbEntity
  8
7_ALL_FEATURES
  6
Continuous
 62
     7
100
AcDbLine
 10
1811.938341
 20
1996.332653
 30
0.0
 11
1811.938341
 21
2017.007098
 31
0.0
  0
LINE
  5
3DD
330
220
100
AcDbEntity
  8
7_ALL_FEATURES
  6
Continuous
 62
     7
100
AcDbLine
 10
1811.938341
 20
2017.007098
 30
0.0
 11
1811.938341
 21
2017.913959
 31
0.0
  0
LINE
  5
3DE
330
220
100
AcDbEntity
  8
7_ALL_FEATURES
  6
Continuous
 62
     7
100
AcDbLine
 10
1811.938341
 20
2017.913959
 30
0.0
 11
1811.938341
 21
2018.163959
 31
0.0
  0
LINE
  5
3DF
330
220
100
AcDbEntity
  8
7_ALL_FEATURES
  6
Continuous
 62
     7
100
AcDbLine
 10
1811.938341
 20
2018.163959
 30
0.0
 11
1715.938341
 21
2018.163959
 31
0.0
  0
LINE
  5
3E0
330
220
100
AcDbEntity
  8
7_ALL_FEATURES
  6
Continuous
 62
     7
100
AcDbLine
 10
1691.938341
 20
2018.163959
 30
0.0
 11
1595.938341
 21
2018.163959
 31
0.0
  0
LINE
  5
3E1
330
220
100
AcDbEntity
  8
7_ALL_FEATURES
  6
Continuous
 62
     7
100
AcDbLine
 10
1595.938341
 20
2018.163959
 30
0.0
 11
1595.938341
 21
2017.913959
 31
0.0
  0
LINE
  5
3E2
330
220
100
AcDbEntity
  8
7_ALL_FEATURES
  6
Continuous
 62
     7
100
AcDbLine
 10
1595.938341
 20
2017.913959
 30
0.0
 11
1595.938341
 21
2017.007098
 31
0.0
  0
LINE
  5
3E3
330
220
100
AcDbEntity
  8
7_ALL_FEATURES
  6
Continuous
 62
     7
100
AcDbLine
 10
1595.938341
 20
2017.007098
 30
0.0
 11
1595.938341
 21
1996.332653
 31
0.0
  0
LINE
  5
3E4
330
220
100
AcDbEntity
  8
7_ALL_FEATURES
  6
Continuous
 62
     7
100
AcDbLine
 10
1595.938341
 20
1996.332653
 30
0.0
 11
1595.938341
 21
1995.413959
 31
0.0
  0
LINE
  5
3E5
330
220
100
AcDbEntity
  8
7_ALL_FEATURES
  6
Continuous
 62
     7
100
AcDbLine
 10
1595.938341
 20
1995.413959
 30
0.0
 11
1595.938341
 21
1995.163959
 31
0.0
  0
LINE
  5
3E6
330
220
100
AcDbEntity
  8
7_ALL_FEATURES
  6
Continuous
 62
     7
100
AcDbLine
 10
1595.938341
 20
1995.163959
 30
0.0
 11
1691.938341
 21
1995.163959
 31
0.0
  0
LINE
  5
3E7
330
220
100
AcDbEntity
  8
7_ALL_FEATURES
  6
Continuous
 62
     7
100
AcDbLine
 10
1691.938341
 20
1995.163959
 30
0.0
 11
1691.938341
 21
1995.413959
 31
0.0
  0
LINE
  5
3E8
330
220
100
AcDbEntity
  8
7_ALL_FEATURES
  6
Continuous
 62
     7
100
AcDbLine
 10
1691.938341
 20
1995.413959
 30
0.0
 11
1691.938341
 21
1996.332653
 31
0.0
  0
LINE
  5
3E9
330
220
100
AcDbEntity
  8
7_ALL_FEATURES
  6
Continuous
 62
     7
100
AcDbLine
 10
1691.938341
 20
1996.332653
 30
0.0
 11
1691.938341
 21
2017.007098
 31
0.0
  0
LINE
  5
3EA
330
220
100
AcDbEntity
  8
7_ALL_FEATURES
  6
Continuous
 62
     7
100
AcDbLine
 10
1691.938341
 20
2017.007098
 30
0.0
 11
1691.938341
 21
2017.913959
 31
0.0
  0
LINE
  5
3EB
330
220
100
AcDbEntity
  8
7_ALL_FEATURES
  6
Continuous
 62
     7
100
AcDbLine
 10
1691.938341
 20
2017.913959
 30
0.0
 11
1691.938341
 21
2018.163959
 31
0.0
  0
LINE
  5
3EC
330
220
100
AcDbEntity
  8
7_ALL_FEATURES
  6
Continuous
 62
     7
100
AcDbLine
 10
1475.938341
 20
2018.163959
 30
0.0
 11
1475.938341
 21
2017.913959
 31
0.0
  0
LINE
  5
3ED
330
220
100
AcDbEntity
  8
7_ALL_FEATURES
  6
Continuous
 62
     7
100
AcDbLine
 10
1475.938341
 20
2017.913959
 30
0.0
 11
1475.938341
 21
2017.007098
 31
0.0
  0
LINE
  5
3EE
330
220
100
AcDbEntity
  8
7_ALL_FEATURES
  6
Continuous
 62
     7
100
AcDbLine
 10
1475.938341
 20
2017.007098
 30
0.0
 11
1475.938341
 21
1996.332653
 31
0.0
  0
LINE
  5
3EF
330
220
100
AcDbEntity
  8
7_ALL_FEATURES
  6
Continuous
 62
     7
100
AcDbLine
 10
1475.938341
 20
1996.332653
 30
0.0
 11
1475.938341
 21
1995.413959
 31
0.0
  0
LINE
  5
3F0
330
220
100
AcDbEntity
  8
7_ALL_FEATURES
  6
Continuous
 62
     7
100
AcDbLine
 10
1475.938341
 20
1995.413959
 30
0.0
 11
1475.938341
 21
1995.163959
 31
0.0
  0
LINE
  5
3F1
330
220
100
AcDbEntity
  8
7_ALL_FEATURES
  6
Continuous
 62
     7
100
AcDbLine
 10
1475.938341
 20
1995.163959
 30
0.0
 11
1571.938341
 21
1995.163959
 31
0.0
  0
LINE
  5
3F2
330
220
100
AcDbEntity
  8
7_ALL_FEATURES
  6
Continuous
 62
     7
100
AcDbLine
 10
1571.938341
 20
1995.163959
 30
0.0
 11
1571.938341
 21
1995.413959
 31
0.0
  0
LINE
  5
3F3
330
220
100
AcDbEntity
  8
7_ALL_FEATURES
  6
Continuous
 62
     7
100
AcDbLine
 10
1571.938341
 20
1995.413959
 30
0.0
 11
1571.938341
 21
1996.332653
 31
0.0
  0
LINE
  5
3F4
330
220
100
AcDbEntity
  8
7_ALL_FEATURES
  6
Continuous
 62
     7
100
AcDbLine
 10
1571.938341
 20
1996.332653
 30
0.0
 11
1571.938341
 21
2017.007098
 31
0.0
  0
LINE
  5
3F5
330
220
100
AcDbEntity
  8
7_ALL_FEATURES
  6
Continuous
 62
     7
100
AcDbLine
 10
1571.938341
 20
2017.007098
 30
0.0
 11
1571.938341
 21
2017.913959
 31
0.0
  0
LINE
  5
3F6
330
220
100
AcDbEntity
  8
7_ALL_FEATURES
  6
Continuous
 62
     7
100
AcDbLine
 10
1571.938341
 20
2017.913959
 30
0.0
 11
1571.938341
 21
2018.163959
 31
0.0
  0
LINE
  5
3F7
330
220
100
AcDbEntity
  8
7_ALL_FEATURES
  6
Continuous
 62
     7
100
AcDbLine
 10
1571.938341
 20
2018.163959
 30
0.0
 11
1475.938341
 21
2018.163959
 31
0.0
  0
LINE
  5
3F8
330
220
100
AcDbEntity
  8
7_ALL_FEATURES
  6
Continuous
 62
     7
100
AcDbLine
 10
1355.938341
 20
2018.163959
 30
0.0
 11
1451.938341
 21
2018.163959
 31
0.0
  0
LINE
  5
3F9
330
220
100
AcDbEntity
  8
7_ALL_FEATURES
  6
Continuous
 62
     7
100
AcDbLine
 10
1355.938341
 20
2018.163959
 30
0.0
 11
1355.938341
 21
2017.913959
 31
0.0
  0
LINE
  5
3FA
330
220
100
AcDbEntity
  8
7_ALL_FEATURES
  6
Continuous
 62
     7
100
AcDbLine
 10
1355.938341
 20
2017.913959
 30
0.0
 11
1355.938341
 21
2017.007098
 31
0.0
  0
LINE
  5
3FB
330
220
100
AcDbEntity
  8
7_ALL_FEATURES
  6
Continuous
 62
     7
100
AcDbLine
 10
1355.938341
 20
2017.007098
 30
0.0
 11
1355.938341
 21
1996.332653
 31
0.0
  0
LINE
  5
3FC
330
220
100
AcDbEntity
  8
7_ALL_FEATURES
  6
Continuous
 62
     7
100
AcDbLine
 10
1355.938341
 20
1996.332653
 30
0.0
 11
1355.938341
 21
1995.413959
 31
0.0
  0
LINE
  5
3FD
330
220
100
AcDbEntity
  8
7_ALL_FEATURES
  6
Continuous
 62
     7
100
AcDbLine
 10
1355.938341
 20
1995.413959
 30
0.0
 11
1355.938341
 21
1995.163959
 31
0.0
  0
LINE
  5
3FE
330
220
100
AcDbEntity
  8
7_ALL_FEATURES
  6
Continuous
 62
     7
100
AcDbLine
 10
1355.938341
 20
1995.163959
 30
0.0
 11
1451.938341
 21
1995.163959
 31
0.0
  0
LINE
  5
3FF
330
220
100
AcDbEntity
  8
7_ALL_FEATURES
  6
Continuous
 62
     7
100
AcDbLine
 10
1451.938341
 20
1995.163959
 30
0.0
 11
1451.938341
 21
1995.413959
 31
0.0
  0
LINE
  5
400
330
220
100
AcDbEntity
  8
7_ALL_FEATURES
  6
Continuous
 62
     7
100
AcDbLine
 10
1451.938341
 20
1995.413959
 30
0.0
 11
1451.938341
 21
1996.332653
 31
0.0
  0
LINE
  5
401
330
220
100
AcDbEntity
  8
7_ALL_FEATURES
  6
Continuous
 62
     7
100
AcDbLine
 10
1451.938341
 20
1996.332653
 30
0.0
 11
1451.938341
 21
2017.007098
 31
0.0
  0
LINE
  5
402
330
220
100
AcDbEntity
  8
7_ALL_FEATURES
  6
Continuous
 62
     7
100
AcDbLine
 10
1451.938341
 20
2017.007098
 30
0.0
 11
1451.938341
 21
2017.913959
 31
0.0
  0
LINE
  5
403
330
220
100
AcDbEntity
  8
7_ALL_FEATURES
  6
Continuous
 62
     7
100
AcDbLine
 10
1451.938341
 20
2017.913959
 30
0.0
 11
1451.938341
 21
2018.163959
 31
0.0
  0
LINE
  5
404
330
220
100
AcDbEntity
  8
7_ALL_FEATURES
  6
Continuous
 62
     7
100
AcDbLine
 10
1235.938341
 20
2018.163959
 30
0.0
 11
1235.938341
 21
2017.913959
 31
0.0
  0
LINE
  5
405
330
220
100
AcDbEntity
  8
7_ALL_FEATURES
  6
Continuous
 62
     7
100
AcDbLine
 10
1235.938341
 20
2017.913959
 30
0.0
 11
1235.938341
 21
2017.007098
 31
0.0
  0
LINE
  5
406
330
220
100
AcDbEntity
  8
7_ALL_FEATURES
  6
Continuous
 62
     7
100
AcDbLine
 10
1235.938341
 20
2017.007098
 30
0.0
 11
1235.938341
 21
1996.332653
 31
0.0
  0
LINE
  5
407
330
220
100
AcDbEntity
  8
7_ALL_FEATURES
  6
Continuous
 62
     7
100
AcDbLine
 10
1235.938341
 20
1996.332653
 30
0.0
 11
1235.938341
 21
1995.413959
 31
0.0
  0
LINE
  5
408
330
220
100
AcDbEntity
  8
7_ALL_FEATURES
  6
Continuous
 62
     7
100
AcDbLine
 10
1235.938341
 20
1995.413959
 30
0.0
 11
1235.938341
 21
1995.163959
 31
0.0
  0
LINE
  5
409
330
220
100
AcDbEntity
  8
7_ALL_FEATURES
  6
Continuous
 62
     7
100
AcDbLine
 10
1235.938341
 20
1995.163959
 30
0.0
 11
1331.938341
 21
1995.163959
 31
0.0
  0
LINE
  5
40A
330
220
100
AcDbEntity
  8
7_ALL_FEATURES
  6
Continuous
 62
     7
100
AcDbLine
 10
1331.938341
 20
1995.163959
 30
0.0
 11
1331.938341
 21
1995.413959
 31
0.0
  0
LINE
  5
40B
330
220
100
AcDbEntity
  8
7_ALL_FEATURES
  6
Continuous
 62
     7
100
AcDbLine
 10
1331.938341
 20
1995.413959
 30
0.0
 11
1331.938341
 21
1996.332653
 31
0.0
  0
LINE
  5
40C
330
220
100
AcDbEntity
  8
7_ALL_FEATURES
  6
Continuous
 62
     7
100
AcDbLine
 10
1331.938341
 20
1996.332653
 30
0.0
 11
1331.938341
 21
2017.007098
 31
0.0
  0
LINE
  5
40D
330
220
100
AcDbEntity
  8
7_ALL_FEATURES
  6
Continuous
 62
     7
100
AcDbLine
 10
1331.938341
 20
2017.007098
 30
0.0
 11
1331.938341
 21
2017.913959
 31
0.0
  0
LINE
  5
40E
330
220
100
AcDbEntity
  8
7_ALL_FEATURES
  6
Continuous
 62
     7
100
AcDbLine
 10
1331.938341
 20
2017.913959
 30
0.0
 11
1331.938341
 21
2018.163959
 31
0.0
  0
LINE
  5
40F
330
220
100
AcDbEntity
  8
7_ALL_FEATURES
  6
Continuous
 62
     9
100
AcDbLine
 10
702.438341
 20
2018.330793
 30
0.0
 11
2105.438341
 21
2018.330793
 31
0.0
  0
LINE
  5
410
330
220
100
AcDbEntity
  8
7_ALL_FEATURES
  6
Continuous
 62
     9
100
AcDbLine
 10
702.438341
 20
1994.997125
 30
0.0
 11
2105.438341
 21
1994.997125
 31
0.0
  0
LINE
  5
411
330
220
100
AcDbEntity
  8
7_ALL_FEATURES
  6
Continuous
 62
     7
100
AcDbLine
 10
702.188341
 20
1995.413959
 30
0.0
 11
702.188341
 21
1995.267845
 31
0.0
  0
LINE
  5
412
330
220
100
AcDbEntity
  8
7_ALL_FEATURES
  6
Continuous
 62
     7
100
AcDbLine
 10
702.188341
 20
1995.267845
 30
0.0
 11
702.188341
 21
1995.139698
 31
0.0
  0
LINE
  5
413
330
220
100
AcDbEntity
  8
7_ALL_FEATURES
  6
Continuous
 62
     7
100
AcDbLine
 10
702.188341
 20
2017.663959
 30
0.0
 11
702.438341
 21
2017.663959
 31
0.0
  0
LINE
  5
414
330
220
100
AcDbEntity
  8
7_ALL_FEATURES
  6
Continuous
 62
     7
100
AcDbLine
 10
2105.438341
 20
2017.663959
 30
0.0
 11
2105.688341
 21
2017.663959
 31
0.0
  0
LINE
  5
415
330
220
100
AcDbEntity
  8
7_ALL_FEATURES
  6
Continuous
 62
     7
100
AcDbLine
 10
702.188341
 20
2019.863959
 30
0.0
 11
702.188341
 21
2019.399991
 31
0.0
  0
LINE
  5
416
330
220
100
AcDbEntity
  8
7_ALL_FEATURES
  6
Continuous
 62
     7
100
AcDbLine
 10
702.188341
 20
2019.399991
 30
0.0
 11
702.188341
 21
2018.913959
 31
0.0
  0
LINE
  5
417
330
220
100
AcDbEntity
  8
7_ALL_FEATURES
  6
Continuous
 62
     7
100
AcDbLine
 10
702.188341
 20
2018.913959
 30
0.0
 11
702.188341
 21
2018.413959
 31
0.0
  0
LINE
  5
418
330
220
100
AcDbEntity
  8
7_ALL_FEATURES
  6
Continuous
 62
     7
100
AcDbLine
 10
702.188341
 20
2018.413959
 30
0.0
 11
702.188341
 21
2018.18822
 31
0.0
  0
LINE
  5
419
330
220
100
AcDbEntity
  8
7_ALL_FEATURES
  6
Continuous
 62
     7
100
AcDbLine
 10
702.188341
 20
2018.18822
 30
0.0
 11
702.188341
 21
2018.060073
 31
0.0
  0
LINE
  5
41A
330
220
100
AcDbEntity
  8
7_ALL_FEATURES
  6
Continuous
 62
     7
100
AcDbLine
 10
702.188341
 20
2018.060073
 30
0.0
 11
702.188341
 21
2017.913959
 31
0.0
  0
LINE
  5
41B
330
220
100
AcDbEntity
  8
7_ALL_FEATURES
  6
Continuous
 62
     7
100
AcDbLine
 10
702.188341
 20
1995.663959
 30
0.0
 11
702.438341
 21
1995.663959
 31
0.0
  0
LINE
  5
41C
330
220
100
AcDbEntity
  8
7_ALL_FEATURES
  6
Continuous
 62
     7
100
AcDbLine
 10
2105.438341
 20
1995.663959
 30
0.0
 11
2105.688341
 21
1995.663959
 31
0.0
  0
LINE
  5
41D
330
220
100
AcDbEntity
  8
7_ALL_FEATURES
  6
Continuous
 62
     7
100
AcDbLine
 10
2105.688341
 20
1995.413959
 30
0.0
 11
2105.438341
 21
1995.413959
 31
0.0
  0
LINE
  5
41E
330
220
100
AcDbEntity
  8
7_ALL_FEATURES
  6
Continuous
 62
     7
100
AcDbLine
 10
702.438341
 20
1995.413959
 30
0.0
 11
702.188341
 21
1995.413959
 31
0.0
  0
LINE
  5
41F
330
220
100
AcDbEntity
  8
7_ALL_FEATURES
  6
Continuous
 62
     7
100
AcDbLine
 10
2105.688341
 20
1993.463959
 30
0.0
 11
702.188341
 21
1993.463959
 31
0.0
  0
LINE
  5
420
330
220
100
AcDbEntity
  8
7_ALL_FEATURES
  6
Continuous
 62
     7
100
AcDbLine
 10
702.188341
 20
1993.463959
 30
0.0
 11
702.188341
 21
1993.927927
 31
0.0
  0
LINE
  5
421
330
220
100
AcDbEntity
  8
7_ALL_FEATURES
  6
Continuous
 62
     7
100
AcDbLine
 10
702.188341
 20
1993.927927
 30
0.0
 11
702.188341
 21
1994.413959
 31
0.0
  0
LINE
  5
422
330
220
100
AcDbEntity
  8
7_ALL_FEATURES
  6
Continuous
 62
     7
100
AcDbLine
 10
702.188341
 20
1994.413959
 30
0.0
 11
702.188341
 21
1994.913959
 31
0.0
  0
LINE
  5
423
330
220
100
AcDbEntity
  8
7_ALL_FEATURES
  6
Continuous
 62
     7
100
AcDbLine
 10
702.188341
 20
1994.913959
 30
0.0
 11
702.188341
 21
1995.139698
 31
0.0
  0
LINE
  5
424
330
220
100
AcDbEntity
  8
7_ALL_FEATURES
  6
Continuous
 62
     7
100
AcDbLine
 10
2105.688341
 20
2019.863959
 30
0.0
 11
702.188341
 21
2019.863959
 31
0.0
  0
LINE
  5
425
330
220
100
AcDbEntity
  8
7_ALL_FEATURES
  6
Continuous
 62
     7
100
AcDbLine
 10
2105.688341
 20
2019.863959
 30
0.0
 11
2105.688341
 21
2019.399991
 31
0.0
  0
LINE
  5
426
330
220
100
AcDbEntity
  8
7_ALL_FEATURES
  6
Continuous
 62
     7
100
AcDbLine
 10
2105.688341
 20
2019.399991
 30
0.0
 11
2105.688341
 21
2018.913959
 31
0.0
  0
LINE
  5
427
330
220
100
AcDbEntity
  8
7_ALL_FEATURES
  6
Continuous
 62
     7
100
AcDbLine
 10
2105.688341
 20
2018.913959
 30
0.0
 11
2105.688341
 21
2018.413959
 31
0.0
  0
LINE
  5
428
330
220
100
AcDbEntity
  8
7_ALL_FEATURES
  6
Continuous
 62
     7
100
AcDbLine
 10
2105.688341
 20
2018.413959
 30
0.0
 11
2105.688341
 21
2018.18822
 31
0.0
  0
LINE
  5
429
330
220
100
AcDbEntity
  8
7_ALL_FEATURES
  6
Continuous
 62
     7
100
AcDbLine
 10
2105.688341
 20
2017.913959
 30
0.0
 11
2105.688341
 21
2018.060073
 31
0.0
  0
LINE
  5
42A
330
220
100
AcDbEntity
  8
7_ALL_FEATURES
  6
Continuous
 62
     7
100
AcDbLine
 10
2105.688341
 20
2018.060073
 30
0.0
 11
2105.688341
 21
2018.18822
 31
0.0
  0
LINE
  5
42B
330
220
100
AcDbEntity
  8
7_ALL_FEATURES
  6
Continuous
 62
     7
100
AcDbLine
 10
2105.688341
 20
2017.913959
 30
0.0
 11
2105.438341
 21
2017.913959
 31
0.0
  0
LINE
  5
42C
330
220
100
AcDbEntity
  8
7_ALL_FEATURES
  6
Continuous
 62
     7
100
AcDbLine
 10
702.438341
 20
2017.913959
 30
0.0
 11
702.188341
 21
2017.913959
 31
0.0
  0
LINE
  5
42D
330
220
100
AcDbEntity
  8
7_ALL_FEATURES
  6
Continuous
 62
     7
100
AcDbLine
 10
2105.688341
 20
1993.463959
 30
0.0
 11
2105.688341
 21
1993.927927
 31
0.0
  0
LINE
  5
42E
330
220
100
AcDbEntity
  8
7_ALL_FEATURES
  6
Continuous
 62
     7
100
AcDbLine
 10
2105.688341
 20
1993.927927
 30
0.0
 11
2105.688341
 21
1994.413959
 31
0.0
  0
LINE
  5
42F
330
220
100
AcDbEntity
  8
7_ALL_FEATURES
  6
Continuous
 62
     7
100
AcDbLine
 10
2105.688341
 20
1994.413959
 30
0.0
 11
2105.688341
 21
1994.913959
 31
0.0
  0
LINE
  5
430
330
220
100
AcDbEntity
  8
7_ALL_FEATURES
  6
Continuous
 62
     7
100
AcDbLine
 10
2105.688341
 20
1994.913959
 30
0.0
 11
2105.688341
 21
1995.139698
 31
0.0
  0
LINE
  5
431
330
220
100
AcDbEntity
  8
7_ALL_FEATURES
  6
Continuous
 62
     7
100
AcDbLine
 10
2105.688341
 20
1995.139698
 30
0.0
 11
2105.688341
 21
1995.267845
 31
0.0
  0
LINE
  5
432
330
220
100
AcDbEntity
  8
7_ALL_FEATURES
  6
Continuous
 62
     7
100
AcDbLine
 10
2105.688341
 20
1995.267845
 30
0.0
 11
2105.688341
 21
1995.413959
 31
0.0
  0
LINE
  5
433
330
220
100
AcDbEntity
  8
7_ALL_FEATURES
  6
Continuous
 62
     7
100
AcDbLine
 10
2105.688341
 20
1995.139698
 30
0.0
 11
2105.438341
 21
1995.139698
 31
0.0
  0
LINE
  5
434
330
220
100
AcDbEntity
  8
7_ALL_FEATURES
  6
Continuous
 62
     7
100
AcDbLine
 10
2105.438341
 20
1995.139698
 30
0.0
 11
2075.938341
 21
1995.139698
 31
0.0
  0
LINE
  5
435
330
220
100
AcDbEntity
  8
7_ALL_FEATURES
  6
Continuous
 62
     7
100
AcDbLine
 10
2075.938341
 20
1995.139698
 30
0.0
 11
2051.938341
 21
1995.139698
 31
0.0
  0
LINE
  5
436
330
220
100
AcDbEntity
  8
7_ALL_FEATURES
  6
Continuous
 62
     7
100
AcDbLine
 10
2051.938341
 20
1995.139698
 30
0.0
 11
1955.938341
 21
1995.139698
 31
0.0
  0
LINE
  5
437
330
220
100
AcDbEntity
  8
7_ALL_FEATURES
  6
Continuous
 62
     7
100
AcDbLine
 10
1955.938341
 20
1995.139698
 30
0.0
 11
1931.938341
 21
1995.139698
 31
0.0
  0
LINE
  5
438
330
220
100
AcDbEntity
  8
7_ALL_FEATURES
  6
Continuous
 62
     7
100
AcDbLine
 10
1931.938341
 20
1995.139698
 30
0.0
 11
1835.938341
 21
1995.139698
 31
0.0
  0
LINE
  5
439
330
220
100
AcDbEntity
  8
7_ALL_FEATURES
  6
Continuous
 62
     7
100
AcDbLine
 10
1835.938341
 20
1995.139698
 30
0.0
 11
1811.938341
 21
1995.139698
 31
0.0
  0
LINE
  5
43A
330
220
100
AcDbEntity
  8
7_ALL_FEATURES
  6
Continuous
 62
     7
100
AcDbLine
 10
1811.938341
 20
1995.139698
 30
0.0
 11
1715.938341
 21
1995.139698
 31
0.0
  0
LINE
  5
43B
330
220
100
AcDbEntity
  8
7_ALL_FEATURES
  6
Continuous
 62
     7
100
AcDbLine
 10
1715.938341
 20
1995.139698
 30
0.0
 11
1691.938341
 21
1995.139698
 31
0.0
  0
LINE
  5
43C
330
220
100
AcDbEntity
  8
7_ALL_FEATURES
  6
Continuous
 62
     7
100
AcDbLine
 10
1691.938341
 20
1995.139698
 30
0.0
 11
1595.938341
 21
1995.139698
 31
0.0
  0
LINE
  5
43D
330
220
100
AcDbEntity
  8
7_ALL_FEATURES
  6
Continuous
 62
     7
100
AcDbLine
 10
1595.938341
 20
1995.139698
 30
0.0
 11
1571.938341
 21
1995.139698
 31
0.0
  0
LINE
  5
43E
330
220
100
AcDbEntity
  8
7_ALL_FEATURES
  6
Continuous
 62
     7
100
AcDbLine
 10
1571.938341
 20
1995.139698
 30
0.0
 11
1475.938341
 21
1995.139698
 31
0.0
  0
LINE
  5
43F
330
220
100
AcDbEntity
  8
7_ALL_FEATURES
  6
Continuous
 62
     7
100
AcDbLine
 10
1475.938341
 20
1995.139698
 30
0.0
 11
1451.938341
 21
1995.139698
 31
0.0
  0
LINE
  5
440
330
220
100
AcDbEntity
  8
7_ALL_FEATURES
  6
Continuous
 62
     7
100
AcDbLine
 10
1451.938341
 20
1995.139698
 30
0.0
 11
1355.938341
 21
1995.139698
 31
0.0
  0
LINE
  5
441
330
220
100
AcDbEntity
  8
7_ALL_FEATURES
  6
Continuous
 62
     7
100
AcDbLine
 10
1355.938341
 20
1995.139698
 30
0.0
 11
1331.938341
 21
1995.139698
 31
0.0
  0
LINE
  5
442
330
220
100
AcDbEntity
  8
7_ALL_FEATURES
  6
Continuous
 62
     7
100
AcDbLine
 10
1331.938341
 20
1995.139698
 30
0.0
 11
1235.938341
 21
1995.139698
 31
0.0
  0
LINE
  5
443
330
220
100
AcDbEntity
  8
7_ALL_FEATURES
  6
Continuous
 62
     7
100
AcDbLine
 10
1235.938341
 20
1995.139698
 30
0.0
 11
1211.938341
 21
1995.139698
 31
0.0
  0
LINE
  5
444
330
220
100
AcDbEntity
  8
7_ALL_FEATURES
  6
Continuous
 62
     7
100
AcDbLine
 10
1211.938341
 20
1995.139698
 30
0.0
 11
1115.938341
 21
1995.139698
 31
0.0
  0
LINE
  5
445
330
220
100
AcDbEntity
  8
7_ALL_FEATURES
  6
Continuous
 62
     7
100
AcDbLine
 10
1115.938341
 20
1995.139698
 30
0.0
 11
1091.938341
 21
1995.139698
 31
0.0
  0
LINE
  5
446
330
220
100
AcDbEntity
  8
7_ALL_FEATURES
  6
Continuous
 62
     7
100
AcDbLine
 10
1091.938341
 20
1995.139698
 30
0.0
 11
995.938341
 21
1995.139698
 31
0.0
  0
LINE
  5
447
330
220
100
AcDbEntity
  8
7_ALL_FEATURES
  6
Continuous
 62
     7
100
AcDbLine
 10
995.938341
 20
1995.139698
 30
0.0
 11
971.938341
 21
1995.139698
 31
0.0
  0
LINE
  5
448
330
220
100
AcDbEntity
  8
7_ALL_FEATURES
  6
Continuous
 62
     7
100
AcDbLine
 10
971.938341
 20
1995.139698
 30
0.0
 11
875.938341
 21
1995.139698
 31
0.0
  0
LINE
  5
449
330
220
100
AcDbEntity
  8
7_ALL_FEATURES
  6
Continuous
 62
     7
100
AcDbLine
 10
875.938341
 20
1995.139698
 30
0.0
 11
851.938341
 21
1995.139698
 31
0.0
  0
LINE
  5
44A
330
220
100
AcDbEntity
  8
7_ALL_FEATURES
  6
Continuous
 62
     7
100
AcDbLine
 10
851.938341
 20
1995.139698
 30
0.0
 11
755.938341
 21
1995.139698
 31
0.0
  0
LINE
  5
44B
330
220
100
AcDbEntity
  8
7_ALL_FEATURES
  6
Continuous
 62
     7
100
AcDbLine
 10
755.938341
 20
1995.139698
 30
0.0
 11
731.938341
 21
1995.139698
 31
0.0
  0
LINE
  5
44C
330
220
100
AcDbEntity
  8
7_ALL_FEATURES
  6
Continuous
 62
     7
100
AcDbLine
 10
731.938341
 20
1995.139698
 30
0.0
 11
702.438341
 21
1995.139698
 31
0.0
  0
LINE
  5
44D
330
220
100
AcDbEntity
  8
7_ALL_FEATURES
  6
Continuous
 62
     7
100
AcDbLine
 10
702.438341
 20
1995.139698
 30
0.0
 11
702.188341
 21
1995.139698
 31
0.0
  0
LINE
  5
44E
330
220
100
AcDbEntity
  8
7_ALL_FEATURES
  6
Continuous
 62
     7
100
AcDbLine
 10
2105.688341
 20
2018.18822
 30
0.0
 11
2105.438341
 21
2018.18822
 31
0.0
  0
LINE
  5
44F
330
220
100
AcDbEntity
  8
7_ALL_FEATURES
  6
Continuous
 62
     7
100
AcDbLine
 10
2105.438341
 20
2018.18822
 30
0.0
 11
2075.938341
 21
2018.18822
 31
0.0
  0
LINE
  5
450
330
220
100
AcDbEntity
  8
7_ALL_FEATURES
  6
Continuous
 62
     7
100
AcDbLine
 10
2075.938341
 20
2018.18822
 30
0.0
 11
2051.938341
 21
2018.18822
 31
0.0
  0
LINE
  5
451
330
220
100
AcDbEntity
  8
7_ALL_FEATURES
  6
Continuous
 62
     7
100
AcDbLine
 10
2051.938341
 20
2018.18822
 30
0.0
 11
1955.938341
 21
2018.18822
 31
0.0
  0
LINE
  5
452
330
220
100
AcDbEntity
  8
7_ALL_FEATURES
  6
Continuous
 62
     7
100
AcDbLine
 10
1955.938341
 20
2018.18822
 30
0.0
 11
1931.938341
 21
2018.18822
 31
0.0
  0
LINE
  5
453
330
220
100
AcDbEntity
  8
7_ALL_FEATURES
  6
Continuous
 62
     7
100
AcDbLine
 10
1931.938341
 20
2018.18822
 30
0.0
 11
1835.938341
 21
2018.18822
 31
0.0
  0
LINE
  5
454
330
220
100
AcDbEntity
  8
7_ALL_FEATURES
  6
Continuous
 62
     7
100
AcDbLine
 10
1835.938341
 20
2018.18822
 30
0.0
 11
1811.938341
 21
2018.18822
 31
0.0
  0
LINE
  5
455
330
220
100
AcDbEntity
  8
7_ALL_FEATURES
  6
Continuous
 62
     7
100
AcDbLine
 10
1811.938341
 20
2018.18822
 30
0.0
 11
1715.938341
 21
2018.18822
 31
0.0
  0
LINE
  5
456
330
220
100
AcDbEntity
  8
7_ALL_FEATURES
  6
Continuous
 62
     7
100
AcDbLine
 10
1715.938341
 20
2018.18822
 30
0.0
 11
1691.938341
 21
2018.18822
 31
0.0
  0
LINE
  5
457
330
220
100
AcDbEntity
  8
7_ALL_FEATURES
  6
Continuous
 62
     7
100
AcDbLine
 10
1691.938341
 20
2018.18822
 30
0.0
 11
1595.938341
 21
2018.18822
 31
0.0
  0
LINE
  5
458
330
220
100
AcDbEntity
  8
7_ALL_FEATURES
  6
Continuous
 62
     7
100
AcDbLine
 10
1595.938341
 20
2018.18822
 30
0.0
 11
1571.938341
 21
2018.18822
 31
0.0
  0
LINE
  5
459
330
220
100
AcDbEntity
  8
7_ALL_FEATURES
  6
Continuous
 62
     7
100
AcDbLine
 10
1571.938341
 20
2018.18822
 30
0.0
 11
1475.938341
 21
2018.18822
 31
0.0
  0
LINE
  5
45A
330
220
100
AcDbEntity
  8
7_ALL_FEATURES
  6
Continuous
 62
     7
100
AcDbLine
 10
1475.938341
 20
2018.18822
 30
0.0
 11
1451.938341
 21
2018.18822
 31
0.0
  0
LINE
  5
45B
330
220
100
AcDbEntity
  8
7_ALL_FEATURES
  6
Continuous
 62
     7
100
AcDbLine
 10
1451.938341
 20
2018.18822
 30
0.0
 11
1355.938341
 21
2018.18822
 31
0.0
  0
LINE
  5
45C
330
220
100
AcDbEntity
  8
7_ALL_FEATURES
  6
Continuous
 62
     7
100
AcDbLine
 10
1355.938341
 20
2018.18822
 30
0.0
 11
1331.938341
 21
2018.18822
 31
0.0
  0
LINE
  5
45D
330
220
100
AcDbEntity
  8
7_ALL_FEATURES
  6
Continuous
 62
     7
100
AcDbLine
 10
1331.938341
 20
2018.18822
 30
0.0
 11
1235.938341
 21
2018.18822
 31
0.0
  0
LINE
  5
45E
330
220
100
AcDbEntity
  8
7_ALL_FEATURES
  6
Continuous
 62
     7
100
AcDbLine
 10
1235.938341
 20
2018.18822
 30
0.0
 11
1211.938341
 21
2018.18822
 31
0.0
  0
LINE
  5
45F
330
220
100
AcDbEntity
  8
7_ALL_FEATURES
  6
Continuous
 62
     7
100
AcDbLine
 10
1211.938341
 20
2018.18822
 30
0.0
 11
1115.938341
 21
2018.18822
 31
0.0
  0
LINE
  5
460
330
220
100
AcDbEntity
  8
7_ALL_FEATURES
  6
Continuous
 62
     7
100
AcDbLine
 10
1115.938341
 20
2018.18822
 30
0.0
 11
1091.938341
 21
2018.18822
 31
0.0
  0
LINE
  5
461
330
220
100
AcDbEntity
  8
7_ALL_FEATURES
  6
Continuous
 62
     7
100
AcDbLine
 10
1091.938341
 20
2018.18822
 30
0.0
 11
995.938341
 21
2018.18822
 31
0.0
  0
LINE
  5
462
330
220
100
AcDbEntity
  8
7_ALL_FEATURES
  6
Continuous
 62
     7
100
AcDbLine
 10
995.938341
 20
2018.18822
 30
0.0
 11
971.938341
 21
2018.18822
 31
0.0
  0
LINE
  5
463
330
220
100
AcDbEntity
  8
7_ALL_FEATURES
  6
Continuous
 62
     7
100
AcDbLine
 10
971.938341
 20
2018.18822
 30
0.0
 11
875.938341
 21
2018.18822
 31
0.0
  0
LINE
  5
464
330
220
100
AcDbEntity
  8
7_ALL_FEATURES
  6
Continuous
 62
     7
100
AcDbLine
 10
875.938341
 20
2018.18822
 30
0.0
 11
851.938341
 21
2018.18822
 31
0.0
  0
LINE
  5
465
330
220
100
AcDbEntity
  8
7_ALL_FEATURES
  6
Continuous
 62
     7
100
AcDbLine
 10
851.938341
 20
2018.18822
 30
0.0
 11
755.938341
 21
2018.18822
 31
0.0
  0
LINE
  5
466
330
220
100
AcDbEntity
  8
7_ALL_FEATURES
  6
Continuous
 62
     7
100
AcDbLine
 10
755.938341
 20
2018.18822
 30
0.0
 11
731.938341
 21
2018.18822
 31
0.0
  0
LINE
  5
467
330
220
100
AcDbEntity
  8
7_ALL_FEATURES
  6
Continuous
 62
     7
100
AcDbLine
 10
731.938341
 20
2018.18822
 30
0.0
 11
702.438341
 21
2018.18822
 31
0.0
  0
LINE
  5
468
330
220
100
AcDbEntity
  8
7_ALL_FEATURES
  6
Continuous
 62
     7
100
AcDbLine
 10
702.438341
 20
2018.18822
 30
0.0
 11
702.188341
 21
2018.18822
 31
0.0
  0
LINE
  5
469
330
220
100
AcDbEntity
  8
0
  6
Continuous
 62
     3
100
AcDbLine
 10
695.788341
 20
2036.663959
 30
0.0
 11
695.788341
 21
2016.663959
 31
0.0
  0
LINE
  5
46A
330
220
100
AcDbEntity
  8
0
  6
Continuous
 62
     3
100
AcDbLine
 10
695.788341
 20
2016.663959
 30
0.0
 11
695.788341
 21
2009.735112
 31
0.0
  0
LINE
  5
46B
330
220
100
AcDbEntity
  8
0
  6
Continuous
 62
     3
100
AcDbLine
 10
695.788341
 20
2009.735112
 30
0.0
 11
695.788341
 21
2009.252149
 31
0.0
  0
LINE
  5
46C
330
220
100
AcDbEntity
  8
0
  6
Continuous
 62
     3
100
AcDbLine
 10
695.788341
 20
2009.252149
 30
0.0
 11
695.788341
 21
2008.913959
 31
0.0
  0
LINE
  5
46D
330
220
100
AcDbEntity
  8
0
  6
Continuous
 62
     3
100
AcDbLine
 10
695.788341
 20
2008.913959
 30
0.0
 11
695.788341
 21
2004.413959
 31
0.0
  0
LINE
  5
46E
330
220
100
AcDbEntity
  8
0
  6
Continuous
 62
     3
100
AcDbLine
 10
695.788341
 20
2004.413959
 30
0.0
 11
695.788341
 21
1996.664176
 31
0.0
  0
LINE
  5
46F
330
220
100
AcDbEntity
  8
7_ALL_FEATURES
  6
Continuous
 62
     3
100
AcDbLine
 10
2112.088341
 20
2009.252149
 30
0.0
 11
2112.088341
 21
2008.913959
 31
0.0
  0
LINE
  5
470
330
220
100
AcDbEntity
  8
7_ALL_FEATURES
  6
Continuous
 62
     3
100
AcDbLine
 10
2112.088341
 20
2008.913959
 30
0.0
 11
2112.088341
 21
2008.813959
 31
0.0
  0
LINE
  5
471
330
220
100
AcDbEntity
  8
7_ALL_FEATURES
  6
Continuous
 62
     3
100
AcDbLine
 10
2112.088341
 20
2008.813959
 30
0.0
 11
2112.088341
 21
2004.513959
 31
0.0
  0
LINE
  5
472
330
220
100
AcDbEntity
  8
7_ALL_FEATURES
  6
Continuous
 62
     3
100
AcDbLine
 10
2112.088341
 20
2004.513959
 30
0.0
 11
2112.088341
 21
2004.413959
 31
0.0
  0
LINE
  5
473
330
220
100
AcDbEntity
  8
7_ALL_FEATURES
  6
Continuous
 62
     3
100
AcDbLine
 10
2112.088341
 20
2004.413959
 30
0.0
 11
2112.088341
 21
2002.663959
 31
0.0
  0
LINE
  5
474
330
220
100
AcDbEntity
  8
7_ALL_FEATURES
  6
Continuous
 62
     3
100
AcDbLine
 10
2112.088341
 20
2002.663959
 30
0.0
 11
2112.088341
 21
1996.664176
 31
0.0
  0
LINE
  5
475
330
220
100
AcDbEntity
  8
7_ALL_FEATURES
  6
Continuous
 62
     3
100
AcDbLine
 10
2112.088341
 20
2009.735112
 30
0.0
 11
2112.088341
 21
2009.252149
 31
0.0
  0
LINE
  5
476
330
220
100
AcDbEntity
  8
7_ALL_FEATURES
  6
Continuous
 62
     3
100
AcDbLine
 10
2112.088341
 20
2036.663959
 30
0.0
 11
2112.088341
 21
2016.663959
 31
0.0
  0
LINE
  5
477
330
220
100
AcDbEntity
  8
7_ALL_FEATURES
  6
Continuous
 62
     3
100
AcDbLine
 10
2112.088341
 20
2016.663959
 30
0.0
 11
2112.088341
 21
2010.663959
 31
0.0
  0
LINE
  5
478
330
220
100
AcDbEntity
  8
7_ALL_FEATURES
  6
Continuous
 62
     3
100
AcDbLine
 10
2112.088341
 20
2010.663959
 30
0.0
 11
2112.088341
 21
2009.735112
 31
0.0
  0
LINE
  5
479
330
220
100
AcDbEntity
  8
02___PRT_ALL_AXES
  6
Continuous
 62
     7
100
AcDbLine
 10
698.788341
 20
2757.608082
 30
0.0
 11
697.788341
 21
2757.608082
 31
0.0
  0
LINE
  5
47A
330
220
100
AcDbEntity
  8
02___PRT_ALL_AXES
  6
Continuous
 62
     7
100
AcDbLine
 10
698.788341
 20
2749.608082
 30
0.0
 11
697.788341
 21
2749.608082
 31
0.0
  0
LINE
  5
47B
330
220
100
AcDbEntity
  8
02___PRT_ALL_AXES
  6
Continuous
 62
     7
100
AcDbLine
 10
2109.088341
 20
2757.608082
 30
0.0
 11
2110.088341
 21
2757.608082
 31
0.0
  0
LINE
  5
47C
330
220
100
AcDbEntity
  8
02___PRT_ALL_AXES
  6
Continuous
 62
     7
100
AcDbLine
 10
2109.088341
 20
2749.608082
 30
0.0
 11
2110.088341
 21
2749.608082
 31
0.0
  0
LINE
  5
47D
330
220
100
AcDbEntity
  8
02___PRT_ALL_AXES
  6
Continuous
 62
     7
100
AcDbLine
 10
2113.088341
 20
2753.608082
 30
0.0
 11
2113.088341
 21
2751.608082
 31
0.0
  0
LINE
  5
47E
330
220
100
AcDbEntity
  8
02___PRT_ALL_AXES
  6
Continuous
 62
     7
100
AcDbLine
 10
2113.088341
 20
2751.608082
 30
0.0
 11
2113.088341
 21
2751.45812
 31
0.0
  0
LINE
  5
47F
330
220
100
AcDbEntity
  8
02___PRT_ALL_AXES
  6
Continuous
 62
     7
100
AcDbLine
 10
2113.088341
 20
2751.45812
 30
0.0
 11
2113.088341
 21
2749.808082
 31
0.0
  0
LINE
  5
480
330
220
100
AcDbEntity
  8
02___PRT_ALL_AXES
  6
Continuous
 62
     7
100
AcDbLine
 10
2113.088341
 20
2749.808082
 30
0.0
 11
2113.088341
 21
2749.608082
 31
0.0
  0
LINE
  5
481
330
220
100
AcDbEntity
  8
02___PRT_ALL_AXES
  6
Continuous
 62
     7
100
AcDbLine
 10
2112.088341
 20
2757.608082
 30
0.0
 11
2113.088341
 21
2757.608082
 31
0.0
  0
LINE
  5
482
330
220
100
AcDbEntity
  8
02___PRT_ALL_AXES
  6
Continuous
 62
     7
100
AcDbLine
 10
2113.088341
 20
2757.608082
 30
0.0
 11
2113.088341
 21
2757.408082
 31
0.0
  0
LINE
  5
483
330
220
100
AcDbEntity
  8
02___PRT_ALL_AXES
  6
Continuous
 62
     7
100
AcDbLine
 10
2113.088341
 20
2757.408082
 30
0.0
 11
2113.088341
 21
2755.758045
 31
0.0
  0
LINE
  5
484
330
220
100
AcDbEntity
  8
02___PRT_ALL_AXES
  6
Continuous
 62
     7
100
AcDbLine
 10
2113.088341
 20
2755.758045
 30
0.0
 11
2113.088341
 21
2755.608082
 31
0.0
  0
LINE
  5
485
330
220
100
AcDbEntity
  8
02___PRT_ALL_AXES
  6
Continuous
 62
     7
100
AcDbLine
 10
2113.088341
 20
2755.608082
 30
0.0
 11
2113.088341
 21
2753.608082
 31
0.0
  0
LINE
  5
486
330
220
100
AcDbEntity
  8
02___PRT_ALL_AXES
  6
Continuous
 62
     7
100
AcDbLine
 10
2112.088341
 20
2749.608082
 30
0.0
 11
2113.088341
 21
2749.608082
 31
0.0
  0
LINE
  5
487
330
220
100
AcDbEntity
  8
3_ALL_AXES
  6
Continuous
 62
     7
100
AcDbLine
 10
2113.088341
 20
2749.808082
 30
0.0
 11
2113.468341
 21
2749.808082
 31
0.0
  0
LINE
  5
488
330
220
100
AcDbEntity
  8
3_ALL_AXES
  6
Continuous
 62
     7
100
AcDbLine
 10
2115.288341
 20
2751.643136
 30
0.0
 11
2115.288341
 21
2753.608082
 31
0.0
  0
ARC
  5
489
330
220
100
AcDbEntity
  8
3_ALL_AXES
  6
Continuous
 62
     7
100
AcDbCircle
 10
2111.615701
 20
2753.465639
 30
0.0
 40
4.1
100
AcDbArc
 50
296.863303
 51
333.606974
  0
LINE
  5
48A
330
220
100
AcDbEntity
  8
3_ALL_AXES
  6
Continuous
 62
     7
100
AcDbLine
 10
2113.088341
 20
2757.408082
 30
0.0
 11
2113.468341
 21
2757.408082
 31
0.0
  0
LINE
  5
48B
330
220
100
AcDbEntity
  8
3_ALL_AXES
  6
Continuous
 62
     7
100
AcDbLine
 10
2115.288341
 20
2755.573029
 30
0.0
 11
2115.288341
 21
2753.608082
 31
0.0
  0
ARC
  5
48C
330
220
100
AcDbEntity
  8
3_ALL_AXES
  6
Continuous
 62
     7
100
AcDbCircle
 10
2111.615701
 20
2753.750525
 30
0.0
 40
4.1
100
AcDbArc
 50
26.393026
 51
63.136697
  0
LINE
  5
48D
330
220
100
AcDbEntity
  8
3_ALL_AXES
  6
Continuous
 62
     7
100
AcDbLine
 10
2113.468341
 20
2749.808082
 30
0.0
 11
2113.468341
 21
2753.608082
 31
0.0
  0
LINE
  5
48E
330
220
100
AcDbEntity
  8
3_ALL_AXES
  6
Continuous
 62
     7
100
AcDbLine
 10
2113.468341
 20
2757.408082
 30
0.0
 11
2113.468341
 21
2753.608082
 31
0.0
  0
LINE
  5
48F
330
220
100
AcDbEntity
  8
02___PRT_ALL_AXES
  6
Continuous
 62
     7
100
AcDbLine
 10
2094.538341
 20
2736.658082
 30
0.0
 11
2094.538341
 21
2738.658082
 31
0.0
  0
LINE
  5
490
330
220
100
AcDbEntity
  8
7_ALL_FEATURES
  6
Continuous
 62
     7
100
AcDbLine
 10
2102.741157
 20
2738.658082
 30
0.0
 11
2102.741157
 21
2738.858082
 31
0.0
  0
LINE
  5
491
330
220
100
AcDbEntity
  8
7_ALL_FEATURES
  6
Continuous
 62
     7
100
AcDbLine
 10
2102.741157
 20
2738.658082
 30
0.0
 11
2103.257739
 21
2738.658082
 31
0.0
  0
LINE
  5
492
330
220
100
AcDbEntity
  8
02___PRT_ALL_AXES
  6
Continuous
 62
     7
100
AcDbLine
 10
2099.188341
 20
2736.658082
 30
0.0
 11
2095.988342
 21
2736.658082
 31
0.0
  0
LINE
  5
493
330
220
100
AcDbEntity
  8
02___PRT_ALL_AXES
  6
Continuous
 62
     7
100
AcDbLine
 10
2095.988342
 20
2736.658082
 30
0.0
 11
2094.538341
 21
2736.658082
 31
0.0
  0
LINE
  5
494
330
220
100
AcDbEntity
  8
02___PRT_ALL_AXES
  6
Continuous
 62
     7
100
AcDbLine
 10
2099.188341
 20
2736.658082
 30
0.0
 11
2102.388341
 21
2736.658082
 31
0.0
  0
LINE
  5
495
330
220
100
AcDbEntity
  8
02___PRT_ALL_AXES
  6
Continuous
 62
     7
100
AcDbLine
 10
2102.388341
 20
2736.658082
 30
0.0
 11
2103.838341
 21
2736.658082
 31
0.0
  0
LINE
  5
496
330
220
100
AcDbEntity
  8
02___PRT_ALL_AXES
  6
Continuous
 62
     7
100
AcDbLine
 10
2103.838341
 20
2736.658082
 30
0.0
 11
2103.838341
 21
2738.658082
 31
0.0
  0
LINE
  5
497
330
220
100
AcDbEntity
  8
7_ALL_FEATURES
  6
Continuous
 62
     7
100
AcDbLine
 10
2095.118943
 20
2738.658082
 30
0.0
 11
2095.635526
 21
2738.658082
 31
0.0
  0
LINE
  5
498
330
220
100
AcDbEntity
  8
7_ALL_FEATURES
  6
Continuous
 62
     7
100
AcDbLine
 10
2095.635526
 20
2738.658082
 30
0.0
 11
2095.635526
 21
2738.858082
 31
0.0
  0
LINE
  5
499
330
220
100
AcDbEntity
  8
7_ALL_FEATURES
  6
Continuous
 62
     7
100
AcDbLine
 10
2094.408341
 20
2738.858082
 30
0.0
 11
2094.438341
 21
2738.658082
 31
0.0
  0
LINE
  5
49A
330
220
100
AcDbEntity
  8
7_ALL_FEATURES
  6
Continuous
 62
     7
100
AcDbLine
 10
2103.938341
 20
2738.658082
 30
0.0
 11
2103.968341
 21
2738.858082
 31
0.0
  0
LINE
  5
49B
330
220
100
AcDbEntity
  8
7_ALL_FEATURES
  6
Continuous
 62
     7
100
AcDbLine
 10
2103.257739
 20
2738.658082
 30
0.0
 11
2103.838341
 21
2738.658082
 31
0.0
  0
LINE
  5
49C
330
220
100
AcDbEntity
  8
7_ALL_FEATURES
  6
Continuous
 62
     7
100
AcDbLine
 10
2103.838341
 20
2738.658082
 30
0.0
 11
2103.938341
 21
2738.658082
 31
0.0
  0
LINE
  5
49D
330
220
100
AcDbEntity
  8
7_ALL_FEATURES
  6
Continuous
 62
     7
100
AcDbLine
 10
2094.438341
 20
2738.658082
 30
0.0
 11
2094.538341
 21
2738.658082
 31
0.0
  0
LINE
  5
49E
330
220
100
AcDbEntity
  8
7_ALL_FEATURES
  6
Continuous
 62
     7
100
AcDbLine
 10
2094.538341
 20
2738.658082
 30
0.0
 11
2095.118943
 21
2738.658082
 31
0.0
  0
LINE
  5
49F
330
220
100
AcDbEntity
  8
7_ALL_FEATURES
  6
Continuous
 62
     7
100
AcDbLine
 10
698.788341
 20
2739.401796
 30
0.0
 11
698.788341
 21
2764.314368
 31
0.0
  0
LINE
  5
4A0
330
220
100
AcDbEntity
  8
7_ALL_FEATURES
  6
Continuous
 62
     7
100
AcDbLine
 10
701.788341
 20
2764.358082
 30
0.0
 11
702.188341
 21
2764.344114
 31
0.0
  0
LINE
  5
4A1
330
220
100
AcDbEntity
  8
7_ALL_FEATURES
  6
Continuous
 62
     7
100
AcDbLine
 10
701.788341
 20
2764.858082
 30
0.0
 11
701.788341
 21
2764.558082
 31
0.0
  0
LINE
  5
4A2
330
220
100
AcDbEntity
  8
7_ALL_FEATURES
  6
Continuous
 62
     7
100
AcDbLine
 10
699.279519
 20
2764.814291
 30
0.0
 11
701.788341
 21
2764.858082
 31
0.0
  0
ARC
  5
4A3
330
220
100
AcDbEntity
  8
7_ALL_FEATURES
  6
Continuous
 62
     7
100
AcDbCircle
 10
698.988341
 20
2739.24609
 30
0.0
 40
0.2
100
AcDbArc
 50
191.167982
 51
252.15795
  0
ARC
  5
4A4
330
220
100
AcDbEntity
  8
7_ALL_FEATURES
  6
Continuous
 62
     7
100
AcDbCircle
 10
698.988341
 20
2739.24609
 30
0.0
 40
0.2
100
AcDbArc
 50
180.0
 51
191.167982
  0
LINE
  5
4A5
330
220
100
AcDbEntity
  8
7_ALL_FEATURES
  6
Continuous
 62
     7
100
AcDbLine
 10
698.788341
 20
2739.259365
 30
0.0
 11
698.788341
 21
2739.24609
 31
0.0
  0
LINE
  5
4A6
330
220
100
AcDbEntity
  8
7_ALL_FEATURES
  6
Continuous
 62
     7
100
AcDbLine
 10
698.788341
 20
2739.24609
 30
0.0
 11
698.788341
 21
2739.401796
 31
0.0
  0
LINE
  5
4A7
330
220
100
AcDbEntity
  8
7_ALL_FEATURES
  6
Continuous
 62
     7
100
AcDbLine
 10
701.788341
 20
2739.158082
 30
0.0
 11
701.788341
 21
2740.342244
 31
0.0
  0
LINE
  5
4A8
330
220
100
AcDbEntity
  8
7_ALL_FEATURES
  6
Continuous
 62
     7
100
AcDbLine
 10
701.788341
 20
2740.342244
 30
0.0
 11
701.788341
 21
2749.913906
 31
0.0
  0
LINE
  5
4A9
330
220
100
AcDbEntity
  8
7_ALL_FEATURES
  6
Continuous
 62
     7
100
AcDbLine
 10
701.788341
 20
2749.913906
 30
0.0
 11
701.788341
 21
2750.802259
 31
0.0
  0
LINE
  5
4AA
330
220
100
AcDbEntity
  8
7_ALL_FEATURES
  6
Continuous
 62
     7
100
AcDbLine
 10
701.788341
 20
2750.802259
 30
0.0
 11
701.788341
 21
2757.913906
 31
0.0
  0
LINE
  5
4AB
330
220
100
AcDbEntity
  8
7_ALL_FEATURES
  6
Continuous
 62
     7
100
AcDbLine
 10
701.788341
 20
2757.913906
 30
0.0
 11
701.788341
 21
2758.802259
 31
0.0
  0
LINE
  5
4AC
330
220
100
AcDbEntity
  8
7_ALL_FEATURES
  6
Continuous
 62
     7
100
AcDbLine
 10
701.788341
 20
2758.802259
 30
0.0
 11
701.788341
 21
2763.371247
 31
0.0
  0
LINE
  5
4AD
330
220
100
AcDbEntity
  8
7_ALL_FEATURES
  6
Continuous
 62
     7
100
AcDbLine
 10
701.788341
 20
2763.371247
 30
0.0
 11
701.788341
 21
2764.358082
 31
0.0
  0
LINE
  5
4AE
330
220
100
AcDbEntity
  8
7_ALL_FEATURES
  6
Continuous
 62
     7
100
AcDbLine
 10
701.788341
 20
2764.358082
 30
0.0
 11
701.788341
 21
2764.558082
 31
0.0
  0
LINE
  5
4AF
330
220
100
AcDbEntity
  8
7_ALL_FEATURES
  6
Continuous
 62
     7
100
AcDbLine
 10
701.788341
 20
2739.158082
 30
0.0
 11
701.788341
 21
2738.858082
 31
0.0
  0
LINE
  5
4B0
330
220
100
AcDbEntity
  8
7_ALL_FEATURES
  6
Continuous
 62
     7
100
AcDbLine
 10
699.279615
 20
2738.901872
 30
0.0
 11
701.788341
 21
2738.858082
 31
0.0
  0
LINE
  5
4B1
330
220
100
AcDbEntity
  8
7_ALL_FEATURES
  6
Continuous
 62
     7
100
AcDbLine
 10
699.279615
 20
2764.814292
 30
0.0
 11
701.788341
 21
2764.858082
 31
0.0
  0
ARC
  5
4B2
330
220
100
AcDbEntity
  8
7_ALL_FEATURES
  6
Continuous
 62
     7
100
AcDbCircle
 10
699.288341
 20
2739.401796
 30
0.0
 40
0.5
100
AcDbArc
 50
180.0
 51
269.002686
  0
ARC
  5
4B3
330
220
100
AcDbEntity
  8
7_ALL_FEATURES
  6
Continuous
 62
     7
100
AcDbCircle
 10
699.288341
 20
2764.314368
 30
0.0
 40
0.5
100
AcDbArc
 50
91.011013
 51
180.0
  0
ARC
  5
4B4
330
220
100
AcDbEntity
  8
7_ALL_FEATURES
  6
Continuous
 62
     7
100
AcDbCircle
 10
699.288341
 20
2764.314368
 30
0.0
 40
0.5
100
AcDbArc
 50
168.723365
 51
180.0
  0
LINE
  5
4B5
330
220
100
AcDbEntity
  8
7_ALL_FEATURES
  6
Continuous
 62
     7
100
AcDbLine
 10
701.788341
 20
2764.358082
 30
0.0
 11
702.188341
 21
2764.344114
 31
0.0
  0
LINE
  5
4B6
330
220
100
AcDbEntity
  8
7_ALL_FEATURES
  6
Continuous
 62
     7
100
AcDbLine
 10
701.788341
 20
2739.358082
 30
0.0
 11
702.188341
 21
2739.372051
 31
0.0
  0
LINE
  5
4B7
330
220
100
AcDbEntity
  8
7_ALL_FEATURES
  6
Continuous
 62
     9
100
AcDbLine
 10
699.279639
 20
2738.901872
 30
0.0
 11
699.279519
 21
2739.158082
 31
0.0
  0
LINE
  5
4B8
330
220
100
AcDbEntity
  8
7_ALL_FEATURES
  6
Continuous
 62
     9
100
AcDbLine
 10
699.279615
 20
2739.158082
 30
0.0
 11
699.279615
 21
2764.558082
 31
0.0
  0
LINE
  5
4B9
330
220
100
AcDbEntity
  8
7_ALL_FEATURES
  6
Continuous
 62
     9
100
AcDbLine
 10
699.279615
 20
2764.558082
 30
0.0
 11
701.788341
 21
2764.558082
 31
0.0
  0
LINE
  5
4BA
330
220
100
AcDbEntity
  8
7_ALL_FEATURES
  6
Continuous
 62
     9
100
AcDbLine
 10
699.279615
 20
2739.158082
 30
0.0
 11
701.788341
 21
2739.158082
 31
0.0
  0
LINE
  5
4BB
330
220
100
AcDbEntity
  8
7_ALL_FEATURES
  6
Continuous
 62
     9
100
AcDbLine
 10
699.279639
 20
2764.558082
 30
0.0
 11
699.279519
 21
2764.814291
 31
0.0
  0
SPLINE
  5
4BC
330
220
100
AcDbEntity
  8
7_ALL_FEATURES
  6
Continuous
 62
     9
100
AcDbSpline
 70
     0
 71
     3
 72
    12
 73
     8
 74
     0
 42
0.000000001
 43
0.0000001
 40
0.0
 40
0.0
 40
0.0
 40
0.0
 40
0.3348136497
 40
0.5542681798
 40
0.734212422
 40
0.877193862
 40
1.0
 40
1.0
 40
1.0
 40
1.0
 10
699.2795191196
 20
2739.1580822707
 30
0.0
 10
699.2131807314
 20
2739.1580977482
 30
0.0
 10
699.1028881094
 20
2739.1678812856
 30
0.0
 10
698.9622746222
 20
2739.2080221349
 30
0.0
 10
698.8665159758
 20
2739.2590153861
 30
0.0
 10
698.8033108838
 20
2739.3240555822
 30
0.0
 10
698.7883550729
 20
2739.3774638496
 30
0.0
 10
698.7883414126
 20
2739.401796072
 30
0.0
  0
SPLINE
  5
4BD
330
220
100
AcDbEntity
  8
7_ALL_FEATURES
  6
Continuous
 62
     9
100
AcDbSpline
 70
     0
 71
     3
 72
    10
 73
     6
 74
     0
 42
0.000000001
 43
0.0000001
 40
0.0
 40
0.0
 40
0.0
 40
0.0
 40
0.1667375911
 40
0.5130139487
 40
1.0
 40
1.0
 40
1.0
 40
1.0
 10
698.7883414126
 20
2764.3143684193
 30
0.0
 10
698.7883598485
 20
2764.3472070034
 30
0.0
 10
698.830549502
 20
2764.4482981482
 30
0.0
 10
699.0212714395
 20
2764.5375545168
 30
0.0
 10
699.183727854
 20
2764.5580762029
 30
0.0
 10
699.2796386487
 20
2764.5580822477
 30
0.0
  0
LINE
  5
4BE
330
220
100
AcDbEntity
  8
7_ALL_FEATURES
  6
Continuous
 62
     9
100
AcDbLine
 10
701.788341
 20
2763.358082
 30
0.0
 11
702.188341
 21
2763.358082
 31
0.0
  0
LINE
  5
4BF
330
220
100
AcDbEntity
  8
7_ALL_FEATURES
  6
Continuous
 62
     9
100
AcDbLine
 10
701.788341
 20
2740.358082
 30
0.0
 11
702.188341
 21
2740.358082
 31
0.0
  0
LINE
  5
4C0
330
220
100
AcDbEntity
  8
7_ALL_FEATURES
  6
Continuous
 62
     7
100
AcDbLine
 10
2109.088341
 20
2764.314368
 30
0.0
 11
2109.088341
 21
2739.401796
 31
0.0
  0
LINE
  5
4C1
330
220
100
AcDbEntity
  8
7_ALL_FEATURES
  6
Continuous
 62
     7
100
AcDbLine
 10
2106.088341
 20
2739.358082
 30
0.0
 11
2105.688341
 21
2739.372051
 31
0.0
  0
ARC
  5
4C2
330
220
100
AcDbEntity
  8
7_ALL_FEATURES
  6
Continuous
 62
     7
100
AcDbCircle
 10
2108.888341
 20
2739.24609
 30
0.0
 40
0.2
100
AcDbArc
 50
287.84205
 51
348.832018
  0
ARC
  5
4C3
330
220
100
AcDbEntity
  8
7_ALL_FEATURES
  6
Continuous
 62
     7
100
AcDbCircle
 10
2108.888341
 20
2739.24609
 30
0.0
 40
0.2
100
AcDbArc
 50
348.832018
 51
360.0
  0
LINE
  5
4C4
330
220
100
AcDbEntity
  8
7_ALL_FEATURES
  6
Continuous
 62
     7
100
AcDbLine
 10
2109.088341
 20
2739.259365
 30
0.0
 11
2109.088341
 21
2739.24609
 31
0.0
  0
LINE
  5
4C5
330
220
100
AcDbEntity
  8
7_ALL_FEATURES
  6
Continuous
 62
     7
100
AcDbLine
 10
2109.088341
 20
2739.401796
 30
0.0
 11
2109.088341
 21
2739.259365
 31
0.0
  0
LINE
  5
4C6
330
220
100
AcDbEntity
  8
7_ALL_FEATURES
  6
Continuous
 62
     7
100
AcDbLine
 10
2106.088341
 20
2764.558082
 30
0.0
 11
2106.088341
 21
2764.858082
 31
0.0
  0
LINE
  5
4C7
330
220
100
AcDbEntity
  8
7_ALL_FEATURES
  6
Continuous
 62
     7
100
AcDbLine
 10
2106.088341
 20
2764.558082
 30
0.0
 11
2106.088341
 21
2763.371247
 31
0.0
  0
LINE
  5
4C8
330
220
100
AcDbEntity
  8
7_ALL_FEATURES
  6
Continuous
 62
     7
100
AcDbLine
 10
2106.088341
 20
2763.371247
 30
0.0
 11
2106.088341
 21
2758.802259
 31
0.0
  0
LINE
  5
4C9
330
220
100
AcDbEntity
  8
7_ALL_FEATURES
  6
Continuous
 62
     7
100
AcDbLine
 10
2106.088341
 20
2758.802259
 30
0.0
 11
2106.088341
 21
2757.913906
 31
0.0
  0
LINE
  5
4CA
330
220
100
AcDbEntity
  8
7_ALL_FEATURES
  6
Continuous
 62
     7
100
AcDbLine
 10
2106.088341
 20
2757.913906
 30
0.0
 11
2106.088341
 21
2750.802259
 31
0.0
  0
LINE
  5
4CB
330
220
100
AcDbEntity
  8
7_ALL_FEATURES
  6
Continuous
 62
     7
100
AcDbLine
 10
2106.088341
 20
2750.802259
 30
0.0
 11
2106.088341
 21
2749.913906
 31
0.0
  0
LINE
  5
4CC
330
220
100
AcDbEntity
  8
7_ALL_FEATURES
  6
Continuous
 62
     7
100
AcDbLine
 10
2106.088341
 20
2749.913906
 30
0.0
 11
2106.088341
 21
2740.342244
 31
0.0
  0
LINE
  5
4CD
330
220
100
AcDbEntity
  8
7_ALL_FEATURES
  6
Continuous
 62
     7
100
AcDbLine
 10
2106.088341
 20
2740.342244
 30
0.0
 11
2106.088341
 21
2739.358082
 31
0.0
  0
LINE
  5
4CE
330
220
100
AcDbEntity
  8
7_ALL_FEATURES
  6
Continuous
 62
     7
100
AcDbLine
 10
2106.088341
 20
2739.358082
 30
0.0
 11
2106.088341
 21
2739.158082
 31
0.0
  0
LINE
  5
4CF
330
220
100
AcDbEntity
  8
7_ALL_FEATURES
  6
Continuous
 62
     7
100
AcDbLine
 10
2106.088341
 20
2738.858082
 30
0.0
 11
2106.088341
 21
2739.158082
 31
0.0
  0
LINE
  5
4D0
330
220
100
AcDbEntity
  8
7_ALL_FEATURES
  6
Continuous
 62
     7
100
AcDbLine
 10
2108.597068
 20
2738.901872
 30
0.0
 11
2106.088341
 21
2738.858082
 31
0.0
  0
LINE
  5
4D1
330
220
100
AcDbEntity
  8
7_ALL_FEATURES
  6
Continuous
 62
     7
100
AcDbLine
 10
2108.597068
 20
2764.814292
 30
0.0
 11
2106.088341
 21
2764.858082
 31
0.0
  0
ARC
  5
4D2
330
220
100
AcDbEntity
  8
7_ALL_FEATURES
  6
Continuous
 62
     7
100
AcDbCircle
 10
2108.588341
 20
2739.401796
 30
0.0
 40
0.5
100
AcDbArc
 50
271.011013
 51
360.0
  0
ARC
  5
4D3
330
220
100
AcDbEntity
  8
7_ALL_FEATURES
  6
Continuous
 62
     7
100
AcDbCircle
 10
2108.588341
 20
2764.314368
 30
0.0
 40
0.5
100
AcDbArc
 50
0.0
 51
11.269686
  0
ARC
  5
4D4
330
220
100
AcDbEntity
  8
7_ALL_FEATURES
  6
Continuous
 62
     7
100
AcDbCircle
 10
2108.588341
 20
2764.314368
 30
0.0
 40
0.5
100
AcDbArc
 50
0.0
 51
89.002686
  0
LINE
  5
4D5
330
220
100
AcDbEntity
  8
7_ALL_FEATURES
  6
Continuous
 62
     7
100
AcDbLine
 10
2106.088341
 20
2764.358082
 30
0.0
 11
2105.688341
 21
2764.344114
 31
0.0
  0
LINE
  5
4D6
330
220
100
AcDbEntity
  8
7_ALL_FEATURES
  6
Continuous
 62
     7
100
AcDbLine
 10
2106.088341
 20
2739.358082
 30
0.0
 11
2105.688341
 21
2739.372051
 31
0.0
  0
LINE
  5
4D7
330
220
100
AcDbEntity
  8
7_ALL_FEATURES
  6
Continuous
 62
     9
100
AcDbLine
 10
2108.597044
 20
2764.814293
 30
0.0
 11
2108.597164
 21
2764.558082
 31
0.0
  0
LINE
  5
4D8
330
220
100
AcDbEntity
  8
7_ALL_FEATURES
  6
Continuous
 62
     9
100
AcDbLine
 10
2108.597068
 20
2764.558082
 30
0.0
 11
2108.597068
 21
2739.158082
 31
0.0
  0
LINE
  5
4D9
330
220
100
AcDbEntity
  8
7_ALL_FEATURES
  6
Continuous
 62
     9
100
AcDbLine
 10
2108.597068
 20
2739.158082
 30
0.0
 11
2106.088341
 21
2739.158082
 31
0.0
  0
LINE
  5
4DA
330
220
100
AcDbEntity
  8
7_ALL_FEATURES
  6
Continuous
 62
     9
100
AcDbLine
 10
2108.597068
 20
2764.558082
 30
0.0
 11
2106.088341
 21
2764.558082
 31
0.0
  0
LINE
  5
4DB
330
220
100
AcDbEntity
  8
7_ALL_FEATURES
  6
Continuous
 62
     9
100
AcDbLine
 10
2108.597044
 20
2739.158082
 30
0.0
 11
2108.597164
 21
2738.901874
 31
0.0
  0
SPLINE
  5
4DC
330
220
100
AcDbEntity
  8
7_ALL_FEATURES
  6
Continuous
 62
     9
100
AcDbSpline
 70
     0
 71
     3
 72
    10
 73
     6
 74
     0
 42
0.000000001
 43
0.0000001
 40
0.0
 40
0.0
 40
0.0
 40
0.0
 40
0.1667375911
 40
0.5130139487
 40
1.0
 40
1.0
 40
1.0
 40
1.0
 10
2109.0883414126
 20
2739.401796072
 30
0.0
 10
2109.0883229767
 20
2739.3689574879
 30
0.0
 10
2109.0461333231
 20
2739.2678663431
 30
0.0
 10
2108.8554113857
 20
2739.1786099746
 30
0.0
 10
2108.6929549712
 20
2739.1580882884
 30
0.0
 10
2108.5970441765
 20
2739.1580822436
 30
0.0
  0
SPLINE
  5
4DD
330
220
100
AcDbEntity
  8
7_ALL_FEATURES
  6
Continuous
 62
     9
100
AcDbSpline
 70
     0
 71
     3
 72
    12
 73
     8
 74
     0
 42
0.000000001
 43
0.0000001
 40
0.0
 40
0.0
 40
0.0
 40
0.0
 40
0.3348136497
 40
0.5542681798
 40
0.734212422
 40
0.877193862
 40
1.0
 40
1.0
 40
1.0
 40
1.0
 10
2108.5971637056
 20
2764.5580822207
 30
0.0
 10
2108.6635020938
 20
2764.5580667431
 30
0.0
 10
2108.7737947157
 20
2764.5482832058
 30
0.0
 10
2108.914408203
 20
2764.5081423564
 30
0.0
 10
2109.0101668493
 20
2764.4571491053
 30
0.0
 10
2109.0733719414
 20
2764.3921089091
 30
0.0
 10
2109.0883277523
 20
2764.3387006418
 30
0.0
 10
2109.0883414126
 20
2764.3143684193
 30
0.0
  0
LINE
  5
4DE
330
220
100
AcDbEntity
  8
7_ALL_FEATURES
  6
Continuous
 62
     9
100
AcDbLine
 10
2106.088341
 20
2740.358082
 30
0.0
 11
2105.688341
 21
2740.358082
 31
0.0
  0
LINE
  5
4DF
330
220
100
AcDbEntity
  8
7_ALL_FEATURES
  6
Continuous
 62
     9
100
AcDbLine
 10
2106.088341
 20
2763.358082
 30
0.0
 11
2105.688341
 21
2763.358082
 31
0.0
  0
LINE
  5
4E0
330
220
100
AcDbEntity
  8
0
  6
Continuous
 62
     7
100
AcDbLine
 10
697.788341
 20
2763.607865
 30
0.0
 11
697.788341
 21
2757.608082
 31
0.0
  0
LINE
  5
4E1
330
220
100
AcDbEntity
  8
0
  6
Continuous
 62
     7
100
AcDbLine
 10
697.788341
 20
2757.608082
 30
0.0
 11
697.788341
 21
2755.857903
 31
0.0
  0
LINE
  5
4E2
330
220
100
AcDbEntity
  8
0
  6
Continuous
 62
     7
100
AcDbLine
 10
697.788341
 20
2755.857903
 30
0.0
 11
697.788341
 21
2755.758045
 31
0.0
  0
LINE
  5
4E3
330
220
100
AcDbEntity
  8
0
  6
Continuous
 62
     7
100
AcDbLine
 10
697.788341
 20
2755.758045
 30
0.0
 11
697.788341
 21
2753.608082
 31
0.0
  0
LINE
  5
4E4
330
220
100
AcDbEntity
  8
0
  6
Continuous
 62
     7
100
AcDbLine
 10
697.788341
 20
2753.608082
 30
0.0
 11
697.788341
 21
2751.45812
 31
0.0
  0
LINE
  5
4E5
330
220
100
AcDbEntity
  8
0
  6
Continuous
 62
     7
100
AcDbLine
 10
697.788341
 20
2751.45812
 30
0.0
 11
697.788341
 21
2751.358261
 31
0.0
  0
LINE
  5
4E6
330
220
100
AcDbEntity
  8
0
  6
Continuous
 62
     7
100
AcDbLine
 10
697.788341
 20
2751.358261
 30
0.0
 11
697.788341
 21
2749.608082
 31
0.0
  0
LINE
  5
4E7
330
220
100
AcDbEntity
  8
0
  6
Continuous
 62
     7
100
AcDbLine
 10
697.788341
 20
2749.608082
 30
0.0
 11
697.788341
 21
2743.948824
 31
0.0
  0
LINE
  5
4E8
330
220
100
AcDbEntity
  8
0
  6
Continuous
 62
     7
100
AcDbLine
 10
697.788341
 20
2728.043575
 30
0.0
 11
697.788341
 21
2727.608082
 31
0.0
  0
LINE
  5
4E9
330
220
100
AcDbEntity
  8
0
  6
Continuous
 62
     7
100
AcDbLine
 10
697.788341
 20
2743.819414
 30
0.0
 11
697.788341
 21
2728.043575
 31
0.0
  0
LINE
  5
4EA
330
220
100
AcDbEntity
  8
0
  6
Continuous
 62
     7
100
AcDbLine
 10
697.788341
 20
2743.948824
 30
0.0
 11
697.788341
 21
2743.819414
 31
0.0
  0
LINE
  5
4EB
330
220
100
AcDbEntity
  8
0
  6
Continuous
 62
     7
100
AcDbLine
 10
695.788341
 20
2763.608082
 30
0.0
 11
697.788341
 21
2763.608082
 31
0.0
  0
LINE
  5
4EC
330
220
100
AcDbEntity
  8
0
  6
Continuous
 62
     7
100
AcDbLine
 10
699.788341
 20
2725.608082
 30
0.0
 11
714.288341
 21
2725.608082
 31
0.0
  0
LINE
  5
4ED
330
220
100
AcDbEntity
  8
0
  6
Continuous
 62
     7
100
AcDbLine
 10
715.788341
 20
2725.608082
 30
0.0
 11
714.288341
 21
2725.608082
 31
0.0
  0
LINE
  5
4EE
330
220
100
AcDbEntity
  8
0
  6
Continuous
 62
     7
100
AcDbLine
 10
715.788341
 20
2725.608082
 30
0.0
 11
715.788341
 21
2723.608082
 31
0.0
  0
ARC
  5
4EF
330
220
100
AcDbEntity
  8
7_ALL_FEATURES
  6
Continuous
 62
     7
100
AcDbCircle
 10
699.788341
 20
2727.608082
 30
0.0
 40
2.0
100
AcDbArc
 50
180.0
 51
270.0
  0
LINE
  5
4F0
330
220
100
AcDbEntity
  8
0
  6
Continuous
 62
     9
100
AcDbLine
 10
695.788341
 20
2743.819414
 30
0.0
 11
697.788341
 21
2743.819414
 31
0.0
  0
LINE
  5
4F1
330
220
100
AcDbEntity
  8
0
  6
Continuous
 62
     9
100
AcDbLine
 10
697.788341
 20
2743.948824
 30
0.0
 11
695.788341
 21
2743.948824
 31
0.0
  0
LINE
  5
4F2
330
220
100
AcDbEntity
  8
0
  6
Continuous
 62
     9
100
AcDbLine
 10
714.288341
 20
2725.608082
 30
0.0
 11
714.288341
 21
2723.608082
 31
0.0
  0
LINE
  5
4F3
330
220
100
AcDbEntity
  8
7_ALL_FEATURES
  6
Continuous
 62
     9
100
AcDbLine
 10
695.788341
 20
2727.608082
 30
0.0
 11
697.788341
 21
2727.608082
 31
0.0
  0
LINE
  5
4F4
330
220
100
AcDbEntity
  8
7_ALL_FEATURES
  6
Continuous
 62
     9
100
AcDbLine
 10
699.788341
 20
2723.608082
 30
0.0
 11
699.788341
 21
2725.608082
 31
0.0
  0
LINE
  5
4F5
330
220
100
AcDbEntity
  8
0
  6
Continuous
 62
     9
100
AcDbLine
 10
695.788341
 20
2728.043575
 30
0.0
 11
697.788341
 21
2728.043575
 31
0.0
  0
LINE
  5
4F6
330
220
100
AcDbEntity
  8
7_ALL_FEATURES
  6
Continuous
 62
     7
100
AcDbLine
 10
2110.088341
 20
2763.607865
 30
0.0
 11
2110.088341
 21
2757.608082
 31
0.0
  0
LINE
  5
4F7
330
220
100
AcDbEntity
  8
7_ALL_FEATURES
  6
Continuous
 62
     7
100
AcDbLine
 10
2110.088341
 20
2757.608082
 30
0.0
 11
2110.088341
 21
2755.857903
 31
0.0
  0
LINE
  5
4F8
330
220
100
AcDbEntity
  8
7_ALL_FEATURES
  6
Continuous
 62
     7
100
AcDbLine
 10
2110.088341
 20
2755.857903
 30
0.0
 11
2110.088341
 21
2755.758045
 31
0.0
  0
LINE
  5
4F9
330
220
100
AcDbEntity
  8
7_ALL_FEATURES
  6
Continuous
 62
     7
100
AcDbLine
 10
2110.088341
 20
2755.758045
 30
0.0
 11
2110.088341
 21
2753.608082
 31
0.0
  0
LINE
  5
4FA
330
220
100
AcDbEntity
  8
7_ALL_FEATURES
  6
Continuous
 62
     7
100
AcDbLine
 10
2110.088341
 20
2753.608082
 30
0.0
 11
2110.088341
 21
2751.45812
 31
0.0
  0
LINE
  5
4FB
330
220
100
AcDbEntity
  8
7_ALL_FEATURES
  6
Continuous
 62
     7
100
AcDbLine
 10
2110.088341
 20
2751.45812
 30
0.0
 11
2110.088341
 21
2751.358261
 31
0.0
  0
LINE
  5
4FC
330
220
100
AcDbEntity
  8
7_ALL_FEATURES
  6
Continuous
 62
     7
100
AcDbLine
 10
2110.088341
 20
2751.358261
 30
0.0
 11
2110.088341
 21
2749.608082
 31
0.0
  0
LINE
  5
4FD
330
220
100
AcDbEntity
  8
7_ALL_FEATURES
  6
Continuous
 62
     7
100
AcDbLine
 10
2110.088341
 20
2749.608082
 30
0.0
 11
2110.088341
 21
2743.948824
 31
0.0
  0
LINE
  5
4FE
330
220
100
AcDbEntity
  8
7_ALL_FEATURES
  6
Continuous
 62
     7
100
AcDbLine
 10
2110.088341
 20
2763.608082
 30
0.0
 11
2112.088341
 21
2763.608082
 31
0.0
  0
ARC
  5
4FF
330
220
100
AcDbEntity
  8
7_ALL_FEATURES
  6
Continuous
 62
     7
100
AcDbCircle
 10
2108.088341
 20
2727.608082
 30
0.0
 40
2.0
100
AcDbArc
 50
270.0
 51
360.0
  0
LINE
  5
500
330
220
100
AcDbEntity
  8
7_ALL_FEATURES
  6
Continuous
 62
     7
100
AcDbLine
 10
2110.088341
 20
2743.948824
 30
0.0
 11
2110.088341
 21
2743.819414
 31
0.0
  0
LINE
  5
501
330
220
100
AcDbEntity
  8
7_ALL_FEATURES
  6
Continuous
 62
     7
100
AcDbLine
 10
2110.088341
 20
2743.819414
 30
0.0
 11
2110.088341
 21
2728.043575
 31
0.0
  0
LINE
  5
502
330
220
100
AcDbEntity
  8
7_ALL_FEATURES
  6
Continuous
 62
     7
100
AcDbLine
 10
2110.088341
 20
2728.043575
 30
0.0
 11
2110.088341
 21
2727.608082
 31
0.0
  0
LINE
  5
503
330
220
100
AcDbEntity
  8
7_ALL_FEATURES
  6
Continuous
 62
     7
100
AcDbLine
 10
2092.088341
 20
2725.608082
 30
0.0
 11
2092.088341
 21
2723.608082
 31
0.0
  0
LINE
  5
504
330
220
100
AcDbEntity
  8
7_ALL_FEATURES
  6
Continuous
 62
     7
100
AcDbLine
 10
2092.088341
 20
2725.608082
 30
0.0
 11
2093.588341
 21
2725.608082
 31
0.0
  0
LINE
  5
505
330
220
100
AcDbEntity
  8
7_ALL_FEATURES
  6
Continuous
 62
     7
100
AcDbLine
 10
2108.088341
 20
2725.608082
 30
0.0
 11
2093.588341
 21
2725.608082
 31
0.0
  0
LINE
  5
506
330
220
100
AcDbEntity
  8
7_ALL_FEATURES
  6
Continuous
 62
     9
100
AcDbLine
 10
2112.088341
 20
2727.608082
 30
0.0
 11
2110.088341
 21
2727.608082
 31
0.0
  0
LINE
  5
507
330
220
100
AcDbEntity
  8
7_ALL_FEATURES
  6
Continuous
 62
     9
100
AcDbLine
 10
2093.588341
 20
2725.608082
 30
0.0
 11
2093.588341
 21
2723.608082
 31
0.0
  0
LINE
  5
508
330
220
100
AcDbEntity
  8
7_ALL_FEATURES
  6
Continuous
 62
     9
100
AcDbLine
 10
2112.088341
 20
2743.948824
 30
0.0
 11
2110.088341
 21
2743.948824
 31
0.0
  0
LINE
  5
509
330
220
100
AcDbEntity
  8
7_ALL_FEATURES
  6
Continuous
 62
     9
100
AcDbLine
 10
2112.088341
 20
2743.819414
 30
0.0
 11
2110.088341
 21
2743.819414
 31
0.0
  0
LINE
  5
50A
330
220
100
AcDbEntity
  8
7_ALL_FEATURES
  6
Continuous
 62
     9
100
AcDbLine
 10
2112.088341
 20
2728.043575
 30
0.0
 11
2110.088341
 21
2728.043575
 31
0.0
  0
LINE
  5
50B
330
220
100
AcDbEntity
  8
7_ALL_FEATURES
  6
Continuous
 62
     9
100
AcDbLine
 10
2108.088341
 20
2723.608082
 30
0.0
 11
2108.088341
 21
2725.608082
 31
0.0
  0
LINE
  5
50C
330
220
100
AcDbEntity
  8
7_ALL_FEATURES
  6
Continuous
 62
     7
100
AcDbLine
 10
2105.688341
 20
2764.858082
 30
0.0
 11
702.188341
 21
2764.858082
 31
0.0
  0
LINE
  5
50D
330
220
100
AcDbEntity
  8
7_ALL_FEATURES
  6
Continuous
 62
     7
100
AcDbLine
 10
2105.688341
 20
2738.858082
 30
0.0
 11
702.188341
 21
2738.858082
 31
0.0
  0
LINE
  5
50E
330
220
100
AcDbEntity
  8
7_ALL_FEATURES
  6
Continuous
 62
     7
100
AcDbLine
 10
702.188341
 20
2738.858082
 30
0.0
 11
702.188341
 21
2739.372051
 31
0.0
  0
LINE
  5
50F
330
220
100
AcDbEntity
  8
7_ALL_FEATURES
  6
Continuous
 62
     7
100
AcDbLine
 10
702.188341
 20
2739.372051
 30
0.0
 11
702.188341
 21
2739.858082
 31
0.0
  0
LINE
  5
510
330
220
100
AcDbEntity
  8
7_ALL_FEATURES
  6
Continuous
 62
     7
100
AcDbLine
 10
702.188341
 20
2739.858082
 30
0.0
 11
702.188341
 21
2740.358082
 31
0.0
  0
LINE
  5
511
330
220
100
AcDbEntity
  8
7_ALL_FEATURES
  6
Continuous
 62
     7
100
AcDbLine
 10
702.188341
 20
2740.358082
 30
0.0
 11
702.188341
 21
2740.858082
 31
0.0
  0
LINE
  5
512
330
220
100
AcDbEntity
  8
7_ALL_FEATURES
  6
Continuous
 62
     7
100
AcDbLine
 10
702.188341
 20
2740.858082
 30
0.0
 11
702.188341
 21
2749.698119
 31
0.0
  0
LINE
  5
513
330
220
100
AcDbEntity
  8
7_ALL_FEATURES
  6
Continuous
 62
     7
100
AcDbLine
 10
702.188341
 20
2749.698119
 30
0.0
 11
702.188341
 21
2750.358082
 31
0.0
  0
LINE
  5
514
330
220
100
AcDbEntity
  8
7_ALL_FEATURES
  6
Continuous
 62
     7
100
AcDbLine
 10
702.188341
 20
2750.358082
 30
0.0
 11
702.188341
 21
2751.018045
 31
0.0
  0
LINE
  5
515
330
220
100
AcDbEntity
  8
7_ALL_FEATURES
  6
Continuous
 62
     7
100
AcDbLine
 10
702.188341
 20
2751.018045
 30
0.0
 11
702.188341
 21
2757.698119
 31
0.0
  0
LINE
  5
516
330
220
100
AcDbEntity
  8
7_ALL_FEATURES
  6
Continuous
 62
     7
100
AcDbLine
 10
702.188341
 20
2757.698119
 30
0.0
 11
702.188341
 21
2758.358082
 31
0.0
  0
LINE
  5
517
330
220
100
AcDbEntity
  8
7_ALL_FEATURES
  6
Continuous
 62
     7
100
AcDbLine
 10
702.188341
 20
2758.358082
 30
0.0
 11
702.188341
 21
2759.018045
 31
0.0
  0
LINE
  5
518
330
220
100
AcDbEntity
  8
7_ALL_FEATURES
  6
Continuous
 62
     7
100
AcDbLine
 10
702.188341
 20
2759.018045
 30
0.0
 11
702.188341
 21
2762.858082
 31
0.0
  0
LINE
  5
519
330
220
100
AcDbEntity
  8
7_ALL_FEATURES
  6
Continuous
 62
     7
100
AcDbLine
 10
702.188341
 20
2762.858082
 30
0.0
 11
702.188341
 21
2763.358082
 31
0.0
  0
LINE
  5
51A
330
220
100
AcDbEntity
  8
7_ALL_FEATURES
  6
Continuous
 62
     7
100
AcDbLine
 10
702.188341
 20
2763.358082
 30
0.0
 11
702.188341
 21
2763.858082
 31
0.0
  0
LINE
  5
51B
330
220
100
AcDbEntity
  8
7_ALL_FEATURES
  6
Continuous
 62
     7
100
AcDbLine
 10
702.188341
 20
2763.858082
 30
0.0
 11
702.188341
 21
2764.344114
 31
0.0
  0
LINE
  5
51C
330
220
100
AcDbEntity
  8
7_ALL_FEATURES
  6
Continuous
 62
     7
100
AcDbLine
 10
702.188341
 20
2764.344114
 30
0.0
 11
702.188341
 21
2764.858082
 31
0.0
  0
LINE
  5
51D
330
220
100
AcDbEntity
  8
7_ALL_FEATURES
  6
Continuous
 62
     7
100
AcDbLine
 10
2105.688341
 20
2738.858082
 30
0.0
 11
2105.688341
 21
2739.372051
 31
0.0
  0
LINE
  5
51E
330
220
100
AcDbEntity
  8
7_ALL_FEATURES
  6
Continuous
 62
     7
100
AcDbLine
 10
2105.688341
 20
2739.372051
 30
0.0
 11
2105.688341
 21
2739.858082
 31
0.0
  0
LINE
  5
51F
330
220
100
AcDbEntity
  8
7_ALL_FEATURES
  6
Continuous
 62
     7
100
AcDbLine
 10
2105.688341
 20
2739.858082
 30
0.0
 11
2105.688341
 21
2740.358082
 31
0.0
  0
LINE
  5
520
330
220
100
AcDbEntity
  8
7_ALL_FEATURES
  6
Continuous
 62
     7
100
AcDbLine
 10
2105.688341
 20
2740.358082
 30
0.0
 11
2105.688341
 21
2740.858082
 31
0.0
  0
LINE
  5
521
330
220
100
AcDbEntity
  8
7_ALL_FEATURES
  6
Continuous
 62
     7
100
AcDbLine
 10
2105.688341
 20
2740.858082
 30
0.0
 11
2105.688341
 21
2749.698119
 31
0.0
  0
LINE
  5
522
330
220
100
AcDbEntity
  8
7_ALL_FEATURES
  6
Continuous
 62
     7
100
AcDbLine
 10
2105.688341
 20
2749.698119
 30
0.0
 11
2105.688341
 21
2750.358082
 31
0.0
  0
LINE
  5
523
330
220
100
AcDbEntity
  8
7_ALL_FEATURES
  6
Continuous
 62
     7
100
AcDbLine
 10
2105.688341
 20
2750.358082
 30
0.0
 11
2105.688341
 21
2751.018045
 31
0.0
  0
LINE
  5
524
330
220
100
AcDbEntity
  8
7_ALL_FEATURES
  6
Continuous
 62
     7
100
AcDbLine
 10
2105.688341
 20
2751.018045
 30
0.0
 11
2105.688341
 21
2757.698119
 31
0.0
  0
LINE
  5
525
330
220
100
AcDbEntity
  8
7_ALL_FEATURES
  6
Continuous
 62
     7
100
AcDbLine
 10
2105.688341
 20
2757.698119
 30
0.0
 11
2105.688341
 21
2758.358082
 31
0.0
  0
LINE
  5
526
330
220
100
AcDbEntity
  8
7_ALL_FEATURES
  6
Continuous
 62
     7
100
AcDbLine
 10
2105.688341
 20
2758.358082
 30
0.0
 11
2105.688341
 21
2759.018045
 31
0.0
  0
LINE
  5
527
330
220
100
AcDbEntity
  8
7_ALL_FEATURES
  6
Continuous
 62
     7
100
AcDbLine
 10
2105.688341
 20
2759.018045
 30
0.0
 11
2105.688341
 21
2762.858082
 31
0.0
  0
LINE
  5
528
330
220
100
AcDbEntity
  8
7_ALL_FEATURES
  6
Continuous
 62
     7
100
AcDbLine
 10
2105.688341
 20
2762.858082
 30
0.0
 11
2105.688341
 21
2763.358082
 31
0.0
  0
LINE
  5
529
330
220
100
AcDbEntity
  8
7_ALL_FEATURES
  6
Continuous
 62
     7
100
AcDbLine
 10
2105.688341
 20
2763.358082
 30
0.0
 11
2105.688341
 21
2763.858082
 31
0.0
  0
LINE
  5
52A
330
220
100
AcDbEntity
  8
7_ALL_FEATURES
  6
Continuous
 62
     7
100
AcDbLine
 10
2105.688341
 20
2763.858082
 30
0.0
 11
2105.688341
 21
2764.344114
 31
0.0
  0
LINE
  5
52B
330
220
100
AcDbEntity
  8
7_ALL_FEATURES
  6
Continuous
 62
     7
100
AcDbLine
 10
2105.688341
 20
2764.344114
 30
0.0
 11
2105.688341
 21
2764.858082
 31
0.0
  0
LINE
  5
52C
330
220
100
AcDbEntity
  8
0
  6
Continuous
 62
     3
100
AcDbLine
 10
695.788341
 20
2743.948824
 30
0.0
 11
695.788341
 21
2743.819414
 31
0.0
  0
LINE
  5
52D
330
220
100
AcDbEntity
  8
0
  6
Continuous
 62
     3
100
AcDbLine
 10
695.788341
 20
2743.819414
 30
0.0
 11
695.788341
 21
2728.043575
 31
0.0
  0
LINE
  5
52E
330
220
100
AcDbEntity
  8
0
  6
Continuous
 62
     3
100
AcDbLine
 10
695.788341
 20
2728.043575
 30
0.0
 11
695.788341
 21
2727.608082
 31
0.0
  0
LINE
  5
52F
330
220
100
AcDbEntity
  8
0
  6
Continuous
 62
     3
100
AcDbLine
 10
695.788341
 20
2763.607865
 30
0.0
 11
695.788341
 21
2755.857903
 31
0.0
  0
LINE
  5
530
330
220
100
AcDbEntity
  8
0
  6
Continuous
 62
     3
100
AcDbLine
 10
695.788341
 20
2755.857903
 30
0.0
 11
695.788341
 21
2753.608082
 31
0.0
  0
LINE
  5
531
330
220
100
AcDbEntity
  8
0
  6
Continuous
 62
     3
100
AcDbLine
 10
695.788341
 20
2753.608082
 30
0.0
 11
695.788341
 21
2751.358261
 31
0.0
  0
LINE
  5
532
330
220
100
AcDbEntity
  8
0
  6
Continuous
 62
     3
100
AcDbLine
 10
695.788341
 20
2751.358261
 30
0.0
 11
695.788341
 21
2743.948824
 31
0.0
  0
LINE
  5
533
330
220
100
AcDbEntity
  8
0
  6
Continuous
 62
     3
100
AcDbLine
 10
699.788341
 20
2723.608082
 30
0.0
 11
714.288341
 21
2723.608082
 31
0.0
  0
LINE
  5
534
330
220
100
AcDbEntity
  8
0
  6
Continuous
 62
     3
100
AcDbLine
 10
714.288341
 20
2723.608082
 30
0.0
 11
715.788341
 21
2723.608082
 31
0.0
  0
ARC
  5
535
330
220
100
AcDbEntity
  8
7_ALL_FEATURES
  6
Continuous
 62
     3
100
AcDbCircle
 10
699.788341
 20
2727.608082
 30
0.0
 40
4.0
100
AcDbArc
 50
180.0
 51
270.0
  0
LINE
  5
536
330
220
100
AcDbEntity
  8
7_ALL_FEATURES
  6
Continuous
 62
     3
100
AcDbLine
 10
2112.088341
 20
2728.043575
 30
0.0
 11
2112.088341
 21
2727.608082
 31
0.0
  0
LINE
  5
537
330
220
100
AcDbEntity
  8
7_ALL_FEATURES
  6
Continuous
 62
     3
100
AcDbLine
 10
2112.088341
 20
2743.819414
 30
0.0
 11
2112.088341
 21
2728.043575
 31
0.0
  0
LINE
  5
538
330
220
100
AcDbEntity
  8
7_ALL_FEATURES
  6
Continuous
 62
     3
100
AcDbLine
 10
2112.088341
 20
2743.948824
 30
0.0
 11
2112.088341
 21
2743.819414
 31
0.0
  0
LINE
  5
539
330
220
100
AcDbEntity
  8
7_ALL_FEATURES
  6
Continuous
 62
     3
100
AcDbLine
 10
2112.088341
 20
2763.607865
 30
0.0
 11
2112.088341
 21
2757.608082
 31
0.0
  0
LINE
  5
53A
330
220
100
AcDbEntity
  8
7_ALL_FEATURES
  6
Continuous
 62
     3
100
AcDbLine
 10
2112.088341
 20
2757.608082
 30
0.0
 11
2112.088341
 21
2755.857903
 31
0.0
  0
LINE
  5
53B
330
220
100
AcDbEntity
  8
7_ALL_FEATURES
  6
Continuous
 62
     3
100
AcDbLine
 10
2112.088341
 20
2755.857903
 30
0.0
 11
2112.088341
 21
2755.758045
 31
0.0
  0
LINE
  5
53C
330
220
100
AcDbEntity
  8
7_ALL_FEATURES
  6
Continuous
 62
     3
100
AcDbLine
 10
2112.088341
 20
2755.758045
 30
0.0
 11
2112.088341
 21
2753.608082
 31
0.0
  0
LINE
  5
53D
330
220
100
AcDbEntity
  8
7_ALL_FEATURES
  6
Continuous
 62
     3
100
AcDbLine
 10
2112.088341
 20
2753.608082
 30
0.0
 11
2112.088341
 21
2751.45812
 31
0.0
  0
LINE
  5
53E
330
220
100
AcDbEntity
  8
7_ALL_FEATURES
  6
Continuous
 62
     3
100
AcDbLine
 10
2112.088341
 20
2751.45812
 30
0.0
 11
2112.088341
 21
2751.358261
 31
0.0
  0
LINE
  5
53F
330
220
100
AcDbEntity
  8
7_ALL_FEATURES
  6
Continuous
 62
     3
100
AcDbLine
 10
2112.088341
 20
2751.358261
 30
0.0
 11
2112.088341
 21
2749.608082
 31
0.0
  0
LINE
  5
540
330
220
100
AcDbEntity
  8
7_ALL_FEATURES
  6
Continuous
 62
     3
100
AcDbLine
 10
2112.088341
 20
2749.608082
 30
0.0
 11
2112.088341
 21
2743.948824
 31
0.0
  0
ARC
  5
541
330
220
100
AcDbEntity
  8
7_ALL_FEATURES
  6
Continuous
 62
     3
100
AcDbCircle
 10
2108.088341
 20
2727.608082
 30
0.0
 40
4.0
100
AcDbArc
 50
270.0
 51
360.0
  0
LINE
  5
542
330
220
100
AcDbEntity
  8
7_ALL_FEATURES
  6
Continuous
 62
     3
100
AcDbLine
 10
2093.588341
 20
2723.608082
 30
0.0
 11
2092.088341
 21
2723.608082
 31
0.0
  0
LINE
  5
543
330
220
100
AcDbEntity
  8
7_ALL_FEATURES
  6
Continuous
 62
     3
100
AcDbLine
 10
2108.088341
 20
2723.608082
 30
0.0
 11
2093.588341
 21
2723.608082
 31
0.0
  0
LINE
  5
544
330
220
100
AcDbEntity
  8
7_ALL_FEATURES
  6
Continuous
 62
     7
100
AcDbLine
 10
3494.887028
 20
2741.108082
 30
0.0
 11
3494.887028
 21
2741.983082
 31
0.0
  0
LINE
  5
545
330
220
100
AcDbEntity
  8
7_ALL_FEATURES
  6
Continuous
 62
     7
100
AcDbLine
 10
3494.887028
 20
2741.983082
 30
0.0
 11
3495.762028
 21
2741.983082
 31
0.0
  0
LINE
  5
546
330
220
100
AcDbEntity
  8
7_ALL_FEATURES
  6
Continuous
 62
     7
100
AcDbLine
 10
3495.762028
 20
2742.733082
 30
0.0
 11
3494.887028
 21
2742.733082
 31
0.0
  0
LINE
  5
547
330
220
100
AcDbEntity
  8
7_ALL_FEATURES
  6
Continuous
 62
     7
100
AcDbLine
 10
3494.887028
 20
2742.733082
 30
0.0
 11
3494.887028
 21
2743.608082
 31
0.0
  0
LINE
  5
548
330
220
100
AcDbEntity
  8
7_ALL_FEATURES
  6
Continuous
 62
     7
100
AcDbLine
 10
3494.137028
 20
2743.608082
 30
0.0
 11
3494.137028
 21
2742.733082
 31
0.0
  0
LINE
  5
549
330
220
100
AcDbEntity
  8
7_ALL_FEATURES
  6
Continuous
 62
     7
100
AcDbLine
 10
3494.137028
 20
2742.733082
 30
0.0
 11
3493.262028
 21
2742.733082
 31
0.0
  0
LINE
  5
54A
330
220
100
AcDbEntity
  8
7_ALL_FEATURES
  6
Continuous
 62
     7
100
AcDbLine
 10
3493.262028
 20
2741.983082
 30
0.0
 11
3494.137028
 21
2741.983082
 31
0.0
  0
LINE
  5
54B
330
220
100
AcDbEntity
  8
7_ALL_FEATURES
  6
Continuous
 62
     7
100
AcDbLine
 10
3494.137028
 20
2741.983082
 30
0.0
 11
3494.137028
 21
2741.108082
 31
0.0
  0
ARC
  5
54C
330
220
100
AcDbEntity
  8
3_ALL_AXES
  6
Continuous
 62
     7
100
AcDbCircle
 10
3494.512028
 20
2742.358082
 30
0.0
 40
2.75
100
AcDbArc
 50
0.0
 51
180.0
  0
ARC
  5
54D
330
220
100
AcDbEntity
  8
3_ALL_AXES
  6
Continuous
 62
     7
100
AcDbCircle
 10
3494.512028
 20
2742.358082
 30
0.0
 40
2.75
100
AcDbArc
 50
180.0
 51
360.0
  0
LINE
  5
54E
330
220
100
AcDbEntity
  8
7_ALL_FEATURES
  6
Continuous
 62
     7
100
AcDbLine
 10
3493.262028
 20
2741.983082
 30
0.0
 11
3493.262028
 21
2742.733082
 31
0.0
  0
LINE
  5
54F
330
220
100
AcDbEntity
  8
7_ALL_FEATURES
  6
Continuous
 62
     7
100
AcDbLine
 10
3494.887028
 20
2741.108082
 30
0.0
 11
3494.137028
 21
2741.108082
 31
0.0
  0
LINE
  5
550
330
220
100
AcDbEntity
  8
7_ALL_FEATURES
  6
Continuous
 62
     7
100
AcDbLine
 10
3495.762028
 20
2742.733082
 30
0.0
 11
3495.762028
 21
2741.983082
 31
0.0
  0
LINE
  5
551
330
220
100
AcDbEntity
  8
7_ALL_FEATURES
  6
Continuous
 62
     7
100
AcDbLine
 10
3494.137028
 20
2743.608082
 30
0.0
 11
3494.887028
 21
2743.608082
 31
0.0
  0
LINE
  5
552
330
220
100
AcDbEntity
  8
02___PRT_ALL_AXES
  6
Continuous
 62
     7
100
AcDbLine
 10
3481.862028
 20
2736.658082
 30
0.0
 11
3481.862028
 21
2738.858082
 31
0.0
  0
LINE
  5
553
330
220
100
AcDbEntity
  8
02___PRT_ALL_AXES
  6
Continuous
 62
     7
100
AcDbLine
 10
3491.162028
 20
2736.658082
 30
0.0
 11
3491.162028
 21
2738.858082
 31
0.0
  0
LINE
  5
554
330
220
100
AcDbEntity
  8
7_ALL_FEATURES
  6
Continuous
 62
     7
100
AcDbLine
 10
3484.262028
 20
2738.658082
 30
0.0
 11
3484.262028
 21
2738.858082
 31
0.0
  0
LINE
  5
555
330
220
100
AcDbEntity
  8
02___PRT_ALL_AXES
  6
Continuous
 62
     7
100
AcDbLine
 10
3491.162028
 20
2736.658082
 30
0.0
 11
3489.712028
 21
2736.658082
 31
0.0
  0
LINE
  5
556
330
220
100
AcDbEntity
  8
02___PRT_ALL_AXES
  6
Continuous
 62
     7
100
AcDbLine
 10
3489.712028
 20
2736.658082
 30
0.0
 11
3483.312028
 21
2736.658082
 31
0.0
  0
LINE
  5
557
330
220
100
AcDbEntity
  8
02___PRT_ALL_AXES
  6
Continuous
 62
     7
100
AcDbLine
 10
3483.312028
 20
2736.658082
 30
0.0
 11
3481.862028
 21
2736.658082
 31
0.0
  0
LINE
  5
558
330
220
100
AcDbEntity
  8
7_ALL_FEATURES
  6
Continuous
 62
     7
100
AcDbLine
 10
3486.012028
 20
2738.658082
 30
0.0
 11
3486.012028
 21
2738.858082
 31
0.0
  0
LINE
  5
559
330
220
100
AcDbEntity
  8
7_ALL_FEATURES
  6
Continuous
 62
     7
100
AcDbLine
 10
3488.762028
 20
2738.858082
 30
0.0
 11
3488.762028
 21
2738.658082
 31
0.0
  0
LINE
  5
55A
330
220
100
AcDbEntity
  8
7_ALL_FEATURES
  6
Continuous
 62
     7
100
AcDbLine
 10
3487.012028
 20
2738.858082
 30
0.0
 11
3487.012028
 21
2738.658082
 31
0.0
  0
LINE
  5
55B
330
220
100
AcDbEntity
  8
7_ALL_FEATURES
  6
Continuous
 62
     7
100
AcDbLine
 10
3486.012028
 20
2738.658082
 30
0.0
 11
3484.262028
 21
2738.658082
 31
0.0
  0
LINE
  5
55C
330
220
100
AcDbEntity
  8
7_ALL_FEATURES
  6
Continuous
 62
     7
100
AcDbLine
 10
3488.762028
 20
2738.658082
 30
0.0
 11
3487.012028
 21
2738.658082
 31
0.0
  0
LINE
  5
55D
330
220
100
AcDbEntity
  8
7_ALL_FEATURES
  6
Continuous
 62
     7
100
AcDbLine
 10
3486.012028
 20
2738.658082
 30
0.0
 11
3487.012028
 21
2738.658082
 31
0.0
  0
LINE
  5
55E
330
220
100
AcDbEntity
  8
7_ALL_FEATURES
  6
Continuous
 62
     7
100
AcDbLine
 10
3488.762028
 20
2738.658082
 30
0.0
 11
3489.512028
 21
2738.658082
 31
0.0
  0
LINE
  5
55F
330
220
100
AcDbEntity
  8
7_ALL_FEATURES
  6
Continuous
 62
     7
100
AcDbLine
 10
3489.512028
 20
2738.658082
 30
0.0
 11
3489.512028
 21
2738.858082
 31
0.0
  0
LINE
  5
560
330
220
100
AcDbEntity
  8
02___PRT_ALL_AXES
  6
Continuous
 62
     7
100
AcDbLine
 10
3491.162028
 20
2738.858082
 30
0.0
 11
3491.162028
 21
2736.658082
 31
0.0
  0
LINE
  5
561
330
220
100
AcDbEntity
  8
02___PRT_ALL_AXES
  6
Continuous
 62
     7
100
AcDbLine
 10
3481.862028
 20
2738.858082
 30
0.0
 11
3481.862028
 21
2736.658082
 31
0.0
  0
LINE
  5
562
330
220
100
AcDbEntity
  8
7_ALL_FEATURES
  6
Continuous
 62
     7
100
AcDbLine
 10
3483.512028
 20
2738.658082
 30
0.0
 11
3484.262028
 21
2738.658082
 31
0.0
  0
LINE
  5
563
330
220
100
AcDbEntity
  8
7_ALL_FEATURES
  6
Continuous
 62
     7
100
AcDbLine
 10
3483.512028
 20
2738.658082
 30
0.0
 11
3483.512028
 21
2738.858082
 31
0.0
  0
ARC
  5
564
330
220
100
AcDbEntity
  8
3_ALL_AXES
  6
Continuous
 62
     7
100
AcDbCircle
 10
3486.512028
 20
2753.608082
 30
0.0
 40
1.5
100
AcDbArc
 50
0.0
 51
180.0
  0
ARC
  5
565
330
220
100
AcDbEntity
  8
3_ALL_AXES
  6
Continuous
 62
     7
100
AcDbCircle
 10
3486.512028
 20
2753.608082
 30
0.0
 40
1.5
100
AcDbArc
 50
180.0
 51
360.0
  0
ARC
  5
566
330
220
100
AcDbEntity
  8
02___PRT_ALL_AXES
  6
Continuous
 62
     7
100
AcDbCircle
 10
3486.512028
 20
2753.608082
 30
0.0
 40
2.15
100
AcDbArc
 50
0.0
 51
180.0
  0
ARC
  5
567
330
220
100
AcDbEntity
  8
02___PRT_ALL_AXES
  6
Continuous
 62
     7
100
AcDbCircle
 10
3486.512028
 20
2753.608082
 30
0.0
 40
2.15
100
AcDbArc
 50
180.0
 51
360.0
  0
LINE
  5
568
330
220
100
AcDbEntity
  8
7_ALL_FEATURES
  6
Continuous
 62
     7
100
AcDbLine
 10
3487.857644
 20
2752.957968
 30
0.0
 11
3487.918902
 21
2754.12683
 31
0.0
  0
LINE
  5
569
330
220
100
AcDbEntity
  8
7_ALL_FEATURES
  6
Continuous
 62
     7
100
AcDbLine
 10
3485.105155
 20
2754.12683
 30
0.0
 11
3485.166413
 21
2752.957968
 31
0.0
  0
LINE
  5
56A
330
220
100
AcDbEntity
  8
7_ALL_FEATURES
  6
Continuous
 62
     9
100
AcDbLine
 10
3485.571924
 20
2754.774008
 30
0.0
 11
3485.698787
 21
2752.353326
 31
0.0
  0
LINE
  5
56B
330
220
100
AcDbEntity
  8
7_ALL_FEATURES
  6
Continuous
 62
     9
100
AcDbLine
 10
3487.32527
 20
2752.353326
 30
0.0
 11
3487.452133
 21
2754.774008
 31
0.0
  0
LINE
  5
56C
330
220
100
AcDbEntity
  8
7_ALL_FEATURES
  6
Continuous
 62
     7
100
AcDbLine
 10
3496.597979
 20
2757.113553
 30
0.0
 11
3496.597979
 21
2760.007447
 31
0.0
  0
LINE
  5
56D
330
220
100
AcDbEntity
  8
7_ALL_FEATURES
  6
Continuous
 62
     7
100
AcDbLine
 10
3496.597979
 20
2760.007447
 30
0.0
 11
3496.190789
 21
2760.007447
 31
0.0
  0
LINE
  5
56E
330
220
100
AcDbEntity
  8
7_ALL_FEATURES
  6
Continuous
 62
     7
100
AcDbLine
 10
3496.190789
 20
2760.007447
 30
0.0
 11
3496.190789
 21
2756.741017
 31
0.0
  0
LINE
  5
56F
330
220
100
AcDbEntity
  8
7_ALL_FEATURES
  6
Continuous
 62
     7
100
AcDbLine
 10
3496.190789
 20
2756.741017
 30
0.0
 11
3497.59029
 21
2756.741017
 31
0.0
  0
LINE
  5
570
330
220
100
AcDbEntity
  8
7_ALL_FEATURES
  6
Continuous
 62
     7
100
AcDbLine
 10
3497.59029
 20
2756.741017
 30
0.0
 11
3497.59029
 21
2757.113553
 31
0.0
  0
LINE
  5
571
330
220
100
AcDbEntity
  8
7_ALL_FEATURES
  6
Continuous
 62
     7
100
AcDbLine
 10
3497.59029
 20
2757.113553
 30
0.0
 11
3496.597979
 21
2757.113553
 31
0.0
  0
LINE
  5
572
330
220
100
AcDbEntity
  8
7_ALL_FEATURES
  6
Continuous
 62
     7
100
AcDbLine
 10
3497.911171
 20
2763.007306
 30
0.0
 11
3497.911171
 21
2756.208776
 31
0.0
  0
LINE
  5
573
330
220
100
AcDbEntity
  8
7_ALL_FEATURES
  6
Continuous
 62
     7
100
AcDbLine
 10
3497.911171
 20
2756.208776
 30
0.0
 11
3496.166736
 21
2756.208776
 31
0.0
  0
LINE
  5
574
330
220
100
AcDbEntity
  8
7_ALL_FEATURES
  6
Continuous
 62
     7
100
AcDbLine
 10
3491.112804
 20
2762.454889
 30
0.0
 11
3491.112804
 21
2763.007306
 31
0.0
  0
LINE
  5
575
330
220
100
AcDbEntity
  8
7_ALL_FEATURES
  6
Continuous
 62
     7
100
AcDbLine
 10
3491.112804
 20
2763.007306
 30
0.0
 11
3497.911171
 21
2763.007306
 31
0.0
  0
LINE
  5
576
330
220
100
AcDbEntity
  8
7_ALL_FEATURES
  6
Continuous
 62
     7
100
AcDbLine
 10
3498.311171
 20
2763.407306
 30
0.0
 11
3490.712804
 21
2763.407306
 31
0.0
  0
LINE
  5
577
330
220
100
AcDbEntity
  8
7_ALL_FEATURES
  6
Continuous
 62
     7
100
AcDbLine
 10
3490.712804
 20
2763.407306
 30
0.0
 11
3490.712804
 21
2763.358082
 31
0.0
  0
LINE
  5
578
330
220
100
AcDbEntity
  8
7_ALL_FEATURES
  6
Continuous
 62
     7
100
AcDbLine
 10
3490.712804
 20
2763.358082
 30
0.0
 11
3490.712804
 21
2762.680407
 31
0.0
  0
LINE
  5
579
330
220
100
AcDbEntity
  8
7_ALL_FEATURES
  6
Continuous
 62
     7
100
AcDbLine
 10
3496.239613
 20
2755.808776
 30
0.0
 11
3498.262028
 21
2755.808776
 31
0.0
  0
LINE
  5
57A
330
220
100
AcDbEntity
  8
7_ALL_FEATURES
  6
Continuous
 62
     7
100
AcDbLine
 10
3498.262028
 20
2755.808776
 30
0.0
 11
3498.311171
 21
2755.808776
 31
0.0
  0
LINE
  5
57B
330
220
100
AcDbEntity
  8
7_ALL_FEATURES
  6
Continuous
 62
     7
100
AcDbLine
 10
3498.311171
 20
2755.808776
 30
0.0
 11
3498.311171
 21
2763.407306
 31
0.0
  0
LINE
  5
57C
330
220
100
AcDbEntity
  8
7_ALL_FEATURES
  6
Continuous
 62
     7
100
AcDbLine
 10
3495.60609
 20
2757.749139
 30
0.0
 11
3495.762103
 21
2757.932183
 31
0.0
  0
LINE
  5
57D
330
220
100
AcDbEntity
  8
7_ALL_FEATURES
  6
Continuous
 62
     7
100
AcDbLine
 10
3495.762103
 20
2757.932183
 30
0.0
 11
3495.502194
 21
2758.201082
 31
0.0
  0
LINE
  5
57E
330
220
100
AcDbEntity
  8
7_ALL_FEATURES
  6
Continuous
 62
     7
100
AcDbLine
 10
3495.502194
 20
2758.201082
 30
0.0
 11
3495.419011
 21
2758.10463
 31
0.0
  0
SPLINE
  5
57F
330
220
100
AcDbEntity
  8
7_ALL_FEATURES
  6
Continuous
 62
     7
100
AcDbSpline
 70
     0
 71
     3
 72
    11
 73
     7
 74
     0
 42
0.000000001
 43
0.0000001
 40
0.0
 40
0.0
 40
0.0
 40
0.0
 40
0.0154993679
 40
0.5879903258
 40
0.9518623597
 40
1.0
 40
1.0
 40
1.0
 40
1.0
 10
3494.1048526687
 20
2760.0610661075
 30
0.0
 10
3494.1094573756
 20
2760.0619662644
 30
0.0
 10
3494.2843700907
 20
2760.0947997252
 30
0.0
 10
3494.5789836119
 20
2760.0676399887
 30
0.0
 10
3494.8231339472
 20
2759.8947330933
 30
0.0
 10
3494.8994847017
 20
2759.7972984224
 30
0.0
 10
3494.9080333086
 20
2759.7856076389
 30
0.0
  0
SPLINE
  5
580
330
220
100
AcDbEntity
  8
7_ALL_FEATURES
  6
Continuous
 62
     7
100
AcDbSpline
 70
     0
 71
     3
 72
     9
 73
     5
 74
     0
 42
0.000000001
 43
0.0000001
 40
0.0
 40
0.0
 40
0.0
 40
0.0
 40
0.7017685103
 40
1.0
 40
1.0
 40
1.0
 40
1.0
 10
3494.3675782275
 20
2759.748651103
 30
0.0
 10
3494.4269747102
 20
2759.7372273874
 30
0.0
 10
3494.5119311274
 20
2759.7051031401
 30
0.0
 10
3494.5705643613
 20
2759.6378473311
 30
0.0
 10
3494.585594042
 20
2759.61595849
 30
0.0
  0
ARC
  5
581
330
220
100
AcDbEntity
  8
02___PRT_ALL_AXES
  6
Continuous
 62
     7
100
AcDbCircle
 10
3486.512028
 20
2753.608082
 30
0.0
 40
2.1
100
AcDbArc
 50
0.0
 51
180.0
  0
ARC
  5
582
330
220
100
AcDbEntity
  8
02___PRT_ALL_AXES
  6
Continuous
 62
     7
100
AcDbCircle
 10
3486.512028
 20
2753.608082
 30
0.0
 40
2.1
100
AcDbArc
 50
180.0
 51
360.0
  0
ARC
  5
583
330
220
100
AcDbEntity
  8
7_ALL_FEATURES
  6
Continuous
 62
     7
100
AcDbCircle
 10
3499.462028
 20
2739.158082
 30
0.0
 40
0.3
100
AcDbArc
 50
327.053773
 51
360.0
  0
ARC
  5
584
330
220
100
AcDbEntity
  8
7_ALL_FEATURES
  6
Continuous
 62
     7
100
AcDbCircle
 10
3499.462028
 20
2739.158082
 30
0.0
 40
0.3
100
AcDbArc
 50
288.0
 51
327.053773
  0
ARC
  5
585
330
220
100
AcDbEntity
  8
7_ALL_FEATURES
  6
Continuous
 62
     7
100
AcDbCircle
 10
3499.462028
 20
2739.158082
 30
0.0
 40
0.3
100
AcDbArc
 50
270.0
 51
288.0
  0
LINE
  5
586
330
220
100
AcDbEntity
  8
7_ALL_FEATURES
  6
Continuous
 62
     7
100
AcDbLine
 10
3480.677391
 20
2738.858082
 30
0.0
 11
3484.262028
 21
2738.858082
 31
0.0
  0
LINE
  5
587
330
220
100
AcDbEntity
  8
7_ALL_FEATURES
  6
Continuous
 62
     7
100
AcDbLine
 10
3484.262028
 20
2738.858082
 30
0.0
 11
3488.762028
 21
2738.858082
 31
0.0
  0
LINE
  5
588
330
220
100
AcDbEntity
  8
7_ALL_FEATURES
  6
Continuous
 62
     7
100
AcDbLine
 10
3488.762028
 20
2738.858082
 30
0.0
 11
3499.462028
 21
2738.858082
 31
0.0
  0
LINE
  5
589
330
220
100
AcDbEntity
  8
7_ALL_FEATURES
  6
Continuous
 62
     7
100
AcDbLine
 10
3473.262028
 20
2764.558082
 30
0.0
 11
3473.262028
 21
2758.573287
 31
0.0
  0
ARC
  5
58A
330
220
100
AcDbEntity
  8
7_ALL_FEATURES
  6
Continuous
 62
     7
100
AcDbCircle
 10
3473.562028
 20
2764.558082
 30
0.0
 40
0.3
100
AcDbArc
 50
147.053773
 51
180.0
  0
ARC
  5
58B
330
220
100
AcDbEntity
  8
7_ALL_FEATURES
  6
Continuous
 62
     7
100
AcDbCircle
 10
3473.562028
 20
2764.558082
 30
0.0
 40
0.3
100
AcDbArc
 50
108.0
 51
147.053773
  0
ARC
  5
58C
330
220
100
AcDbEntity
  8
7_ALL_FEATURES
  6
Continuous
 62
     7
100
AcDbCircle
 10
3473.562028
 20
2764.558082
 30
0.0
 40
0.3
100
AcDbArc
 50
90.0
 51
108.0
  0
LINE
  5
58D
330
220
100
AcDbEntity
  8
7_ALL_FEATURES
  6
Continuous
 62
     7
100
AcDbLine
 10
3499.462028
 20
2764.858082
 30
0.0
 11
3498.036289
 21
2764.858082
 31
0.0
  0
LINE
  5
58E
330
220
100
AcDbEntity
  8
7_ALL_FEATURES
  6
Continuous
 62
     7
100
AcDbLine
 10
3498.036289
 20
2764.858082
 30
0.0
 11
3474.987768
 21
2764.858082
 31
0.0
  0
LINE
  5
58F
330
220
100
AcDbEntity
  8
7_ALL_FEATURES
  6
Continuous
 62
     7
100
AcDbLine
 10
3474.987768
 20
2764.858082
 30
0.0
 11
3473.562028
 21
2764.858082
 31
0.0
  0
ARC
  5
590
330
220
100
AcDbEntity
  8
7_ALL_FEATURES
  6
Continuous
 62
     7
100
AcDbCircle
 10
3499.462028
 20
2764.558082
 30
0.0
 40
0.3
100
AcDbArc
 50
32.946227
 51
90.0
  0
ARC
  5
591
330
220
100
AcDbEntity
  8
7_ALL_FEATURES
  6
Continuous
 62
     7
100
AcDbCircle
 10
3499.462028
 20
2764.558082
 30
0.0
 40
0.3
100
AcDbArc
 50
18.0
 51
32.946227
  0
ARC
  5
592
330
220
100
AcDbEntity
  8
7_ALL_FEATURES
  6
Continuous
 62
     7
100
AcDbCircle
 10
3499.462028
 20
2764.558082
 30
0.0
 40
0.3
100
AcDbArc
 50
0.0
 51
18.0
  0
LINE
  5
593
330
220
100
AcDbEntity
  8
7_ALL_FEATURES
  6
Continuous
 62
     7
100
AcDbLine
 10
3499.762028
 20
2739.158082
 30
0.0
 11
3499.762028
 21
2764.558082
 31
0.0
  0
SPLINE
  5
594
330
220
100
AcDbEntity
  8
7_ALL_FEATURES
  6
Continuous
 62
     7
100
AcDbSpline
 70
     0
 71
     3
 72
    10
 73
     6
 74
     0
 42
0.000000001
 43
0.0000001
 40
0.0
 40
0.0
 40
0.0
 40
0.0
 40
0.498932758
 40
0.9218959672
 40
1.0
 40
1.0
 40
1.0
 40
1.0
 10
3494.9080333086
 20
2759.7856076389
 30
0.0
 10
3494.9898599023
 20
2759.673704377
 30
0.0
 10
3495.0780897715
 20
2759.4149828374
 30
0.0
 10
3494.9846138931
 20
2759.145143833
 30
0.0
 10
3494.9099598839
 20
2759.0302191448
 30
0.0
 10
3494.8977464011
 20
2759.0127448915
 30
0.0
  0
SPLINE
  5
595
330
220
100
AcDbEntity
  8
7_ALL_FEATURES
  6
Continuous
 62
     7
100
AcDbSpline
 70
     0
 71
     3
 72
     9
 73
     5
 74
     0
 42
0.000000001
 43
0.0000001
 40
0.0
 40
0.0
 40
0.0
 40
0.0
 40
0.327249702
 40
1.0
 40
1.0
 40
1.0
 40
1.0
 10
3494.585594042
 20
2759.61595849
 30
0.0
 10
3494.5997548076
 20
2759.5953351145
 30
0.0
 10
3494.6363629587
 20
2759.5273478269
 30
0.0
 10
3494.6517068066
 20
2759.4542858666
 30
0.0
 10
3494.6522677889
 20
2759.4064357221
 30
0.0
  0
ARC
  5
596
330
220
100
AcDbEntity
  8
7_ALL_FEATURES
  6
Continuous
 62
     9
100
AcDbCircle
 10
3494.512028
 20
2742.358082
 30
0.0
 40
3.1119921479
100
AcDbArc
 50
0.000001
 51
180.000001
  0
ARC
  5
597
330
220
100
AcDbEntity
  8
7_ALL_FEATURES
  6
Continuous
 62
     9
100
AcDbCircle
 10
3494.512028
 20
2742.358082
 30
0.0
 40
3.1119921479
100
AcDbArc
 50
180.000001
 51
251.798857
  0
LINE
  5
598
330
220
100
AcDbEntity
  8
7_ALL_FEATURES
  6
Continuous
 62
     9
100
AcDbLine
 10
3481.170184
 20
2739.401796
 30
0.0
 11
3493.539986
 21
2739.401796
 31
0.0
  0
ARC
  5
599
330
220
100
AcDbEntity
  8
7_ALL_FEATURES
  6
Continuous
 62
     9
100
AcDbCircle
 10
3494.512028
 20
2742.358082
 30
0.0
 40
2.9587832593
100
AcDbArc
 50
0.0
 51
180.0
  0
ARC
  5
59A
330
220
100
AcDbEntity
  8
7_ALL_FEATURES
  6
Continuous
 62
     9
100
AcDbCircle
 10
3494.512028
 20
2742.358082
 30
0.0
 40
2.9587832593
100
AcDbArc
 50
180.0
 51
0.0
  0
LINE
  5
59B
330
220
100
AcDbEntity
  8
7_ALL_FEATURES
  6
Continuous
 62
     9
100
AcDbLine
 10
3473.805742
 20
2764.314368
 30
0.0
 11
3473.805742
 21
2758.913637
 31
0.0
  0
LINE
  5
59C
330
220
100
AcDbEntity
  8
7_ALL_FEATURES
  6
Continuous
 62
     9
100
AcDbLine
 10
3499.218315
 20
2764.314368
 30
0.0
 11
3473.805742
 21
2764.314368
 31
0.0
  0
LINE
  5
59D
330
220
100
AcDbEntity
  8
7_ALL_FEATURES
  6
Continuous
 62
     9
100
AcDbLine
 10
3499.218315
 20
2739.401796
 30
0.0
 11
3499.218315
 21
2764.314368
 31
0.0
  0
LINE
  5
59E
330
220
100
AcDbEntity
  8
7_ALL_FEATURES
  6
Continuous
 62
     9
100
AcDbLine
 10
3495.484071
 20
2739.401796
 30
0.0
 11
3499.218315
 21
2739.401796
 31
0.0
  0
ARC
  5
59F
330
220
100
AcDbEntity
  8
7_ALL_FEATURES
  6
Continuous
 62
     9
100
AcDbCircle
 10
3494.512028
 20
2742.358082
 30
0.0
 40
3.1119921479
100
AcDbArc
 50
288.201143
 51
0.000001
  0
SPLINE
  5
5A0
330
220
100
AcDbEntity
  8
7_ALL_FEATURES
  6
Continuous
 62
     9
100
AcDbSpline
 70
     0
 71
     3
 72
    13
 73
     9
 74
     0
 42
0.000000001
 43
0.0000001
 40
0.0
 40
0.0
 40
0.0
 40
0.0
 40
0.0238072313
 40
0.0876164702
 40
0.1870849178
 40
0.3162150479
 40
0.6369282756
 40
1.0
 40
1.0
 40
1.0
 40
1.0
 10
3473.3058201487
 20
2764.5580822207
 30
0.0
 10
3473.3102344105
 20
2764.5580235408
 30
0.0
 10
3473.3246790131
 20
2764.5485765928
 30
0.0
 10
3473.3567715013
 20
2764.5370910279
 30
0.0
 10
3473.4058100117
 20
2764.5130342315
 30
0.0
 10
3473.4980888647
 20
2764.4703840314
 30
0.0
 10
3473.6335667412
 20
2764.4039673868
 30
0.0
 10
3473.7465352258
 20
2764.3464191994
 30
0.0
 10
3473.8057423098
 20
2764.3143684193
 30
0.0
  0
SPLINE
  5
5A1
330
220
100
AcDbEntity
  8
7_ALL_FEATURES
  6
Continuous
 62
     9
100
AcDbSpline
 70
     0
 71
     3
 72
    13
 73
     9
 74
     0
 42
0.000000001
 43
0.0000001
 40
0.0
 40
0.0
 40
0.0
 40
0.0
 40
0.3631237702
 40
0.6838764772
 40
0.8130022637
 40
0.912465993
 40
0.9762312776
 40
1.0
 40
1.0
 40
1.0
 40
1.0
 10
3473.8057423098
 20
2764.3143684193
 30
0.0
 10
3473.7736868078
 20
2764.3735842261
 30
0.0
 10
3473.7161350544
 20
2764.4865677122
 30
0.0
 10
3473.6496722162
 20
2764.6220498976
 30
0.0
 10
3473.6070846343
 20
2764.7143533696
 30
0.0
 10
3473.5829386297
 20
2764.7633611234
 30
0.0
 10
3473.5715894162
 20
2764.7954590209
 30
0.0
 10
3473.562044417
 20
2764.8098851758
 30
0.0
 10
3473.5620284814
 20
2764.8142926755
 30
0.0
  0
SPLINE
  5
5A2
330
220
100
AcDbEntity
  8
7_ALL_FEATURES
  6
Continuous
 62
     9
100
AcDbSpline
 70
     0
 71
     3
 72
    13
 73
     9
 74
     0
 42
0.000000001
 43
0.0000001
 40
0.0
 40
0.0
 40
0.0
 40
0.0
 40
0.0238072313
 40
0.0876164702
 40
0.1870849178
 40
0.3162150479
 40
0.6369282756
 40
1.0
 40
1.0
 40
1.0
 40
1.0
 10
3499.4620284585
 20
2764.8142905804
 30
0.0
 10
3499.4619697786
 20
2764.8098763187
 30
0.0
 10
3499.4525228305
 20
2764.795431716
 30
0.0
 10
3499.4410372657
 20
2764.7633392278
 30
0.0
 10
3499.4169804693
 20
2764.7143007174
 30
0.0
 10
3499.3743302692
 20
2764.6220218644
 30
0.0
 10
3499.3079136246
 20
2764.4865439879
 30
0.0
 10
3499.2503654372
 20
2764.3735755033
 30
0.0
 10
3499.2183146571
 20
2764.3143684193
 30
0.0
  0
SPLINE
  5
5A3
330
220
100
AcDbEntity
  8
7_ALL_FEATURES
  6
Continuous
 62
     9
100
AcDbSpline
 70
     0
 71
     3
 72
    13
 73
     9
 74
     0
 42
0.000000001
 43
0.0000001
 40
0.0
 40
0.0
 40
0.0
 40
0.0
 40
0.3631237702
 40
0.6838764772
 40
0.8130022637
 40
0.912465993
 40
0.9762312776
 40
1.0
 40
1.0
 40
1.0
 40
1.0
 10
3499.2183146571
 20
2764.3143684193
 30
0.0
 10
3499.2775304638
 20
2764.3464239213
 30
0.0
 10
3499.3905139499
 20
2764.4039756747
 30
0.0
 10
3499.5259961354
 20
2764.4704385129
 30
0.0
 10
3499.6182996074
 20
2764.5130260948
 30
0.0
 10
3499.6673073612
 20
2764.5371720994
 30
0.0
 10
3499.6994052587
 20
2764.548521313
 30
0.0
 10
3499.7138314136
 20
2764.5580663121
 30
0.0
 10
3499.7182389133
 20
2764.5580822477
 30
0.0
  0
SPLINE
  5
5A4
330
220
100
AcDbEntity
  8
7_ALL_FEATURES
  6
Continuous
 62
     9
100
AcDbSpline
 70
     0
 71
     3
 72
    13
 73
     9
 74
     0
 42
0.000000001
 43
0.0000001
 40
0.0
 40
0.0
 40
0.0
 40
0.0
 40
0.0238072313
 40
0.0876164702
 40
0.1870849178
 40
0.3162150479
 40
0.6369282756
 40
1.0
 40
1.0
 40
1.0
 40
1.0
 10
3499.7182368182
 20
2739.1580822707
 30
0.0
 10
3499.7138225564
 20
2739.1581409505
 30
0.0
 10
3499.6993779538
 20
2739.1675878986
 30
0.0
 10
3499.6672854656
 20
2739.1790734634
 30
0.0
 10
3499.6182469552
 20
2739.2031302599
 30
0.0
 10
3499.5259681021
 20
2739.24578046
 30
0.0
 10
3499.3904902257
 20
2739.3121971045
 30
0.0
 10
3499.2775217411
 20
2739.3697452919
 30
0.0
 10
3499.2183146571
 20
2739.401796072
 30
0.0
  0
SPLINE
  5
5A5
330
220
100
AcDbEntity
  8
7_ALL_FEATURES
  6
Continuous
 62
     9
100
AcDbSpline
 70
     0
 71
     3
 72
    13
 73
     9
 74
     0
 42
0.000000001
 43
0.0000001
 40
0.0
 40
0.0
 40
0.0
 40
0.0
 40
0.3631237702
 40
0.6838764772
 40
0.8130022637
 40
0.912465993
 40
0.9762312776
 40
1.0
 40
1.0
 40
1.0
 40
1.0
 10
3499.2183146571
 20
2739.401796072
 30
0.0
 10
3499.2503701591
 20
2739.3425802653
 30
0.0
 10
3499.3079219125
 20
2739.2295967792
 30
0.0
 10
3499.3743847507
 20
2739.0941145937
 30
0.0
 10
3499.4169723326
 20
2739.0018111217
 30
0.0
 10
3499.4411183372
 20
2738.9528033679
 30
0.0
 10
3499.4524675507
 20
2738.9207054704
 30
0.0
 10
3499.4620125499
 20
2738.9062793155
 30
0.0
 10
3499.4620284855
 20
2738.9018718158
 30
0.0
  0
LINE
  5
5A6
330
220
100
AcDbEntity
  8
7_ALL_FEATURES
  6
Continuous
 62
     9
100
AcDbLine
 10
3499.462028
 20
2738.901872
 30
0.0
 11
3480.71708
 21
2738.901872
 31
0.0
  0
SPLINE
  5
5A7
330
220
100
AcDbEntity
  8
7_ALL_FEATURES
  6
Continuous
 62
     7
100
AcDbSpline
 70
     0
 71
     3
 72
    14
 73
    10
 74
     0
 42
0.000000001
 43
0.0000001
 40
0.0
 40
0.0
 40
0.0
 40
0.0
 40
0.1255244479
 40
0.2492661095
 40
0.3741218319
 40
0.5003618598
 40
0.7507572032
 40
0.8744915898
 40
1.0
 40
1.0
 40
1.0
 40
1.0
 10
3493.5399856922
 20
2739.401796072
 30
0.0
 10
3493.6031957096
 20
2739.3396125955
 30
0.0
 10
3493.7400294887
 20
2739.2257573546
 30
0.0
 10
3493.9842229361
 20
2739.1170679208
 30
0.0
 10
3494.245478656
 20
2739.065334025
 30
0.0
 10
3494.5991169251
 20
2739.046207373
 30
0.0
 10
3494.9577590983
 20
2739.0812177297
 30
0.0
 10
3495.2840779113
 20
2739.2256617216
 30
0.0
 10
3495.4208693334
 20
2739.3396205404
 30
0.0
 10
3495.4840712747
 20
2739.401796072
 30
0.0
  0
LINE
  5
5A8
330
220
100
AcDbEntity
  8
7_ALL_FEATURES
  6
Continuous
 62
     9
100
AcDbLine
 10
3473.305818
 20
2764.558082
 30
0.0
 11
3473.262028
 21
2764.558082
 31
0.0
  0
LINE
  5
5A9
330
220
100
AcDbEntity
  8
7_ALL_FEATURES
  6
Continuous
 62
     9
100
AcDbLine
 10
3473.305818
 20
2764.558082
 30
0.0
 11
3473.305818
 21
2758.600698
 31
0.0
  0
ARC
  5
5AA
330
220
100
AcDbEntity
  8
7_ALL_FEATURES
  6
Continuous
 62
     9
100
AcDbCircle
 10
3473.562059
 20
2764.558054
 30
0.0
 40
0.2562386351
100
AcDbArc
 50
90.006773
 51
179.993694
  0
LINE
  5
5AB
330
220
100
AcDbEntity
  8
7_ALL_FEATURES
  6
Continuous
 62
     9
100
AcDbLine
 10
3499.462028
 20
2764.814292
 30
0.0
 11
3499.462028
 21
2764.858082
 31
0.0
  0
LINE
  5
5AC
330
220
100
AcDbEntity
  8
7_ALL_FEATURES
  6
Continuous
 62
     9
100
AcDbLine
 10
3473.562028
 20
2764.814292
 30
0.0
 11
3473.562028
 21
2764.858082
 31
0.0
  0
LINE
  5
5AD
330
220
100
AcDbEntity
  8
7_ALL_FEATURES
  6
Continuous
 62
     9
100
AcDbLine
 10
3499.462028
 20
2764.814292
 30
0.0
 11
3473.562028
 21
2764.814292
 31
0.0
  0
ARC
  5
5AE
330
220
100
AcDbEntity
  8
7_ALL_FEATURES
  6
Continuous
 62
     9
100
AcDbCircle
 10
3499.462
 20
2764.558052
 30
0.0
 40
0.2562386351
100
AcDbArc
 50
0.006773
 51
89.993694
  0
LINE
  5
5AF
330
220
100
AcDbEntity
  8
7_ALL_FEATURES
  6
Continuous
 62
     9
100
AcDbLine
 10
3499.718239
 20
2739.158082
 30
0.0
 11
3499.762028
 21
2739.158082
 31
0.0
  0
LINE
  5
5B0
330
220
100
AcDbEntity
  8
7_ALL_FEATURES
  6
Continuous
 62
     9
100
AcDbLine
 10
3499.718239
 20
2764.558082
 30
0.0
 11
3499.762028
 21
2764.558082
 31
0.0
  0
LINE
  5
5B1
330
220
100
AcDbEntity
  8
7_ALL_FEATURES
  6
Continuous
 62
     9
100
AcDbLine
 10
3499.718239
 20
2739.158082
 30
0.0
 11
3499.718239
 21
2764.558082
 31
0.0
  0
ARC
  5
5B2
330
220
100
AcDbEntity
  8
7_ALL_FEATURES
  6
Continuous
 62
     9
100
AcDbCircle
 10
3499.461998
 20
2739.15811
 30
0.0
 40
0.2562386351
100
AcDbArc
 50
270.006773
 51
359.993694
  0
LINE
  5
5B3
330
220
100
AcDbEntity
  8
7_ALL_FEATURES
  6
Continuous
 62
     9
100
AcDbLine
 10
3499.462028
 20
2738.901872
 30
0.0
 11
3499.462028
 21
2738.858082
 31
0.0
  0
LINE
  5
5B4
330
220
100
AcDbEntity
  8
7_ALL_FEATURES
  6
Continuous
 62
     7
100
AcDbLine
 10
3473.312028
 20
2764.558082
 30
0.0
 11
3473.312028
 21
2764.858082
 31
0.0
  0
LINE
  5
5B5
330
220
100
AcDbEntity
  8
7_ALL_FEATURES
  6
Continuous
 62
     7
100
AcDbLine
 10
3473.312028
 20
2764.858082
 30
0.0
 11
3473.562028
 21
2764.858082
 31
0.0
  0
LINE
  5
5B6
330
220
100
AcDbEntity
  8
7_ALL_FEATURES
  6
Continuous
 62
     7
100
AcDbLine
 10
3499.712028
 20
2764.858082
 30
0.0
 11
3499.462028
 21
2764.858082
 31
0.0
  0
LINE
  5
5B7
330
220
100
AcDbEntity
  8
7_ALL_FEATURES
  6
Continuous
 62
     7
100
AcDbLine
 10
3499.712028
 20
2764.558082
 30
0.0
 11
3499.712028
 21
2764.858082
 31
0.0
  0
LINE
  5
5B8
330
220
100
AcDbEntity
  8
7_ALL_FEATURES
  6
Continuous
 62
     7
100
AcDbLine
 10
3499.462028
 20
2738.858082
 30
0.0
 11
3499.712028
 21
2738.858082
 31
0.0
  0
LINE
  5
5B9
330
220
100
AcDbEntity
  8
0
  6
Continuous
 62
     3
100
AcDbLine
 10
3456.512028
 20
2727.608082
 30
0.0
 11
3456.512028
 21
2728.043575
 31
0.0
  0
ARC
  5
5BA
330
220
100
AcDbEntity
  8
0
  6
Continuous
 62
     3
100
AcDbCircle
 10
3492.84438
 20
2728.043575
 30
0.0
 40
36.3323510378
100
AcDbArc
 50
105.0
 51
180.0
  0
LINE
  5
5BB
330
220
100
AcDbEntity
  8
0
  6
Continuous
 62
     3
100
AcDbLine
 10
3483.440875
 20
2763.137931
 30
0.0
 11
3483.923838
 21
2763.267341
 31
0.0
  0
ARC
  5
5BC
330
220
100
AcDbEntity
  8
0
  6
Continuous
 62
     3
100
AcDbCircle
 10
3486.512028
 20
2753.608082
 30
0.0
 40
10.0
100
AcDbArc
 50
285.0
 51
105.0
  0
LINE
  5
5BD
330
220
100
AcDbEntity
  8
0
  6
Continuous
 62
     3
100
AcDbLine
 10
3489.100219
 20
2743.948824
 30
0.0
 11
3488.617256
 21
2743.819414
 31
0.0
  0
ARC
  5
5BE
330
220
100
AcDbEntity
  8
0
  6
Continuous
 62
     3
100
AcDbCircle
 10
3492.84438
 20
2728.043575
 30
0.0
 40
16.3323510378
100
AcDbArc
 50
105.0
 51
180.0
  0
LINE
  5
5BF
330
220
100
AcDbEntity
  8
0
  6
Continuous
 62
     3
100
AcDbLine
 10
3476.512028
 20
2728.043575
 30
0.0
 11
3476.512028
 21
2727.608082
 31
0.0
  0
ARC
  5
5C0
330
220
100
AcDbEntity
  8
0
  6
Continuous
 62
     3
100
AcDbCircle
 10
3486.512028
 20
2753.608082
 30
0.0
 40
2.25
100
AcDbArc
 50
0.0
 51
180.0
  0
ARC
  5
5C1
330
220
100
AcDbEntity
  8
0
  6
Continuous
 62
     3
100
AcDbCircle
 10
3486.512028
 20
2753.608082
 30
0.0
 40
2.25
100
AcDbArc
 50
180.0
 51
360.0
  0
LINE
  5
5C2
330
220
100
AcDbEntity
  8
7_ALL_FEATURES
  6
Continuous
 62
     3
100
AcDbLine
 10
3456.512028
 20
2723.608082
 30
0.0
 11
3456.512028
 21
2725.608082
 31
0.0
  0
LINE
  5
5C3
330
220
100
AcDbEntity
  8
7_ALL_FEATURES
  6
Continuous
 62
     3
100
AcDbLine
 10
3456.512028
 20
2725.608082
 30
0.0
 11
3456.512028
 21
2727.608082
 31
0.0
  0
LINE
  5
5C4
330
220
100
AcDbEntity
  8
7_ALL_FEATURES
  6
Continuous
 62
     3
100
AcDbLine
 10
3476.512028
 20
2723.608082
 30
0.0
 11
3476.512028
 21
2725.608082
 31
0.0
  0
LINE
  5
5C5
330
220
100
AcDbEntity
  8
7_ALL_FEATURES
  6
Continuous
 62
     3
100
AcDbLine
 10
3476.512028
 20
2725.608082
 30
0.0
 11
3476.512028
 21
2727.608082
 31
0.0
  0
LINE
  5
5C6
330
220
100
AcDbEntity
  8
7_ALL_FEATURES
  6
Continuous
 62
     3
100
AcDbLine
 10
3476.512028
 20
2723.608082
 30
0.0
 11
3456.512028
 21
2723.608082
 31
0.0
  0
LINE
  5
5C7
330
220
100
AcDbEntity
  8
7_ALL_FEATURES
  6
Continuous
 62
     3
100
AcDbLine
 10
3456.512028
 20
2723.608082
 30
0.0
 11
3476.512028
 21
2723.608082
 31
0.0
  0
LINE
  5
5C8
330
220
100
AcDbEntity
  8
7_ALL_FEATURES
  6
Continuous
 62
     9
100
AcDbLine
 10
3456.512028
 20
2727.608082
 30
0.0
 11
3476.512028
 21
2727.608082
 31
0.0
  0
DIMENSION
  5
5C9
330
220
100
AcDbEntity
  8
0
  6
Continuous
 62
     2
100
AcDbDimension
280
     0
  2
*D1
 10
2153.024716
 20
1993.413959
 30
0.0
 11
2153.024716
 21
2014.467563
 31
0.0
 70
   160
 71
     2
 42
43.25
 73
     0
 74
     0
 75
     0
  3
DIMSTYLE_1
100
AcDbAlignedDimension
 13
2130.438385
 23
2036.663959
 33
0.0
 14
2130.363645
 24
1993.413959
 34
0.0
 50
270.0
100
AcDbRotatedDimension
  0
DIMENSION
  5
5CA
330
220
100
AcDbEntity
  8
0
  6
Continuous
 62
     2
100
AcDbDimension
280
     0
  2
*D2
 10
2145.816351
 20
2723.608082
 30
0.0
 11
2145.816351
 21
2743.0367
 31
0.0
 70
   160
 71
     2
 42
40.0
 73
     0
 74
     0
 75
     0
  3
DIMSTYLE_2
100
AcDbAlignedDimension
 13
2126.730619
 23
2763.608082
 33
0.0
 14
2126.825982
 24
2723.608082
 34
0.0
 50
270.0
100
AcDbRotatedDimension
  0
DIMENSION
  5
5CB
330
220
100
AcDbEntity
  8
0
  6
Continuous
 62
     2
100
AcDbDimension
280
     0
  2
*D3
 10
3499.762028
 20
2788.600016
 30
0.0
 11
3485.940625
 21
2788.600016
 31
0.0
 70
   160
 71
     2
 42
26.5
 73
     0
 74
     0
 75
     0
  3
DIMSTYLE_3
100
AcDbAlignedDimension
 13
3473.262028
 23
2776.509121
 33
0.0
 14
3499.762028
 24
2776.326292
 34
0.0
100
AcDbRotatedDimension
  0
DIMENSION
  5
5CC
330
220
100
AcDbEntity
  8
0
  6
Continuous
 62
     2
100
AcDbDimension
280
     0
  2
*D4
 10
3521.996277
 20
2764.858082
 30
0.0
 11
3521.996277
 21
2751.286656
 31
0.0
 70
   160
 71
     2
 42
26.0
 73
     0
 74
     0
 75
     0
  3
DIMSTYLE_4
100
AcDbAlignedDimension
 13
3509.767608
 23
2738.858082
 33
0.0
 14
3509.58478
 24
2764.858082
 34
0.0
 50
90.0
100
AcDbRotatedDimension
  0
DIMENSION
  5
5CD
330
220
100
AcDbEntity
  8
0
  6
Continuous
 62
     2
100
AcDbDimension
280
     0
  2
*D5
 10
692.588341
 20
1966.747292
 30
0.0
 11
1403.366927
 21
1966.747292
 31
0.0
 70
   160
 71
     2
 42
1422.7
 73
     0
 74
     0
 75
     0
  3
DIMSTYLE_5
100
AcDbAlignedDimension
 13
2115.288341
 23
1990.855237
 33
0.0
 14
692.588341
 24
1989.67591
 34
0.0
 50
180.0
100
AcDbRotatedDimension
  0
INSERT
  5
5CE
330
220
100
AcDbEntity
  8
0
  6
Continuous
 62
     2
100
AcDbBlockReference
  2
LOGO2_BL0
 10
4151.169025
 20
49.703489
 30
0.0
  0
ACAD_TABLE
  5
5CF
102
{ACAD_XDICTIONARY
360
626
102
}
330
220
100
AcDbEntity
  8
0
  6
Continuous
 62
     2
160
              3544
310
D80D000019000000880000001D000000000000000000F03F0000000000000000000000000000000049E3C5FABB24B0400000000000000000000000000000F03F0000000000000000EC8E89F805ED504000000000000000000000000000000000000000000000F03F0000000000000000000000000000000000000000000000
310
000000000000000000000000000000F03F5400000020000000020000000000000000000000000000000000000000000000000000000000000000005E400000000000000000000000000000000000000000000000000000000000000000000000000000F03F5400000020000000020000000000000000000000000000000000
310
0000000000000000000000000000000000005798AAAAAAAA4AC0000000000000000000000000000000000000000000000000000000000000F03F540000002000000002000000000000000000444000000000000020C000000000000000000000000000005E4000000000000020C00000000000000000000000000000000000
310
00000000000000000000000000F03F540000002000000002000000000000000000444000000000000030C000000000000000000000000000005E4000000000000030C0000000000000000000000000000000000000000000000000000000000000F03F5400000020000000020000000000000000004440AF30555555553DC0
310
00000000000000000000000000005E40AF30555555553DC0000000000000000000000000000000000000000000000000000000000000F03F540000002000000002000000000000000000000000000000000042C000000000000000000000000000005E4000000000000042C000000000000000000000000000000000000000
310
0000000000000000000000F03F54000000200000000200000000000000000000005798AAAAAAAA4AC000000000000000000000000000005E405798AAAAAAAA4AC0000000000000000000000000000000000000000000000000000000000000F03F540000002000000002000000000000000000444000000000000000000000
310
000000000000000000000000444000000000000042C0000000000000000000000000000000000000000000000000000000000000F03F5400000020000000020000002C4C555555555740000000000000000000000000000000002C4C55555555574000000000000030C0000000000000000000000000000000000000000000
310
000000000000000000F03F5400000020000000020000000000000000005E40000000000000000000000000000000000000000000005E405798AAAAAAAA4AC0000000000000000000000000000000000000000000000000000000000000F03F0C0000001000000023000000C0000000260000008BCBDDDDDDFD444000000000
310
000018C0000000000000000000000000000000000000000000000000000000000000F03F000000000000F03F0000000000000000000000000000000053004B0033003300300030005F0043000000000010000000010000000000000000001040333333333333EB3F0000000000000000000000000000F03F00000000000000
310
000000000000000000000000000000000000000000000000000000000000000000740078007400000000000000BC000000260000006E4D444444D457400000000000001CC0000000000000000000000000000000000000000000000000000000000000F03F000000000000F03F000000000000000000000000000000005200
310
650076003A0030003200000000000C00000001000000453DABAAAAAA1240333333333333EB3F0000000000000000000000000000F03F00000000000000000000000000000000000000000000000000000000000000000000000000000000740078007400000000000000C0000000260000008BCBDDDDDDFD44400000000000
310
002EC0000000000000000000000000000000000000000000000000000000000000F03F000000000000F03F000000000000000000000000000000005300630061006C0065003A0031003A00310000001200000001000000453DABAAAAAA1240333333333333EB3F0000000000000000000000000000F03F0000000000000000
310
0000000000000000000000000000000000000000000000000000000000000000740078007400000000000000C8000000260000006E4D444444D45740443DABAAAAAA2AC0000000000000000000000000000000000000000000000000000000000000F03F000000000000F03F00000000000000000000000000000000330032
310
003000300020006200790020003200350030003000000000001800000001000000897A565555550540333333333333EB3F0000000000000000000000000000F03F00000000000000000000000000000000000000000000000000000000000000000000000000000000740078007400000000000000C0000000260000008BCB
310
DDDDDDFD444000000000000039C0000000000000000000000000000000000000000000000000000000000000F03F000000000000F03F0000000000000000000000000000000053004E00410043004B00200033002E00330000001200000001000000453DABAAAAAA1240333333333333EB3F00000000000000000000000000
310
00F03F00000000000000000000000000000000000000000000000000000000000000000000000000000000740078007400000000000000B8000000260000008BCBDDDDDDFD44405798AAAAAA2A41C0000000000000000000000000000000000000000000000000000000000000F03F000000000000F03F0000000000000000
310
000000000000000044004100540045003A0000000A000000010000007785A9AAAAAA0A40333333333333EB3F0000000000000000000000000000F03F0000000000000000000000000000000000000000000000000000000000000000000000000000000074007800740000000000000018010000260000005471B9BBBBBBFF
310
3FA967555555B543C0000000000000000000000000000000000000000000000000000000000000F03F000000000000F03F0000000000000000000000000000000041006E007900200069006E00740065006700720061006C0020006F00720020007000610072007400690061006C00200072006500700072006F0064007500
310
6300740069006F006E00730020006100720065002000700072006F0068006900620069007400650064000000000068000000010000000000000000000840333333333333EB3F0000000000000000000000000000F03F0000000000000000000000000000000000000000000000000000000000000000000000000000000074
310
0078007400000000000000F0000000260000005471B9BBBBBBFF3FA967555555F545C0000000000000000000000000000000000000000000000000000000000000F03F000000000000F03F0000000000000000000000000000000077006900740068006F007500740020007000720069006F00720020006100750074006800
310
6F007200690073006100740069006F006E0020006F00660020004C002000000042000000010000000000000000000840333333333333EB3F0000000000000000000000000000F03F00000000000000000000000000000000000000000000000000000000000000000000000000000000740078007400000000000000B80000
310
00260000002C4C555555D55340A967555555F545C0000000000000000000000000000000000000000000000000000000000000F03F000000000000F03F0000000000000000000000000000000020000000020000000100000000000000000008407521567F8461C83F0000000000000000000000000000F03F000000000000
310
000000000000000000000000000000000000000000000000000000000000000000007400780074002E00730068007800000000000000E0000000260000005E4D149CE7F95340A967555555F545C0000000000000000000000000000000000000000000000000000000000000F03F000000000000F03F000000000000000000
310
00000000000000260020004C0020004C007500630065002000260020004C006900670068007400200073002E0072002E006C002E002C000000000030000000010000000000000000000840333333333333EB3F0000000000000000000000000000F03F00000000000000000000000000000000000000000000000000000000
310
000000000000000000000000740078007400000000000000F8000000260000005471B9BBBBBBFF3FA9675555553548C0000000000000000000000000000000000000000000000000000000000000F03F000000000000F03F0000000000000000000000000000000069006E0020006100630063006F007200640061006E0063
310
00650020007700690074006800200074006800650020006C0061007700200069006E00200066006F007200630065002E000000000048000000010000000000000000000840333333333333EB3F0000000000000000000000000000F03F00000000000000000000000000000000000000000000000000000000000000000000
310
000000000000740078007400000000000000D8000000260000005471B9BBBBBBFF3FA967555555754AC0000000000000000000000000000000000000000000000000000000000000F03F000000000000F03F0000000000000000000000000000000041006C006C002000720069006700680074007300200072006500730065
310
0072007600650064002E000000000028000000010000000000000000000840333333333333EB3F0000000000000000000000000000F03F00000000000000000000000000000000000000000000000000000000000000000000000000000000740078007400000000000000080000001F000000
100
AcDbBlockReference
  2
*T7
 10
4132.734295
 20
67.703489
 30
0.0
100
AcDbTable
342
5F8
343
229
 11
1.0
 21
0.0
 31
0.0
 90
       22
 91
        5
 92
        5
 93
        0
 94
        0
 95
        0
 96
        0
141
8.0
141
8.0
141
13.333333
141
6.666667
141
17.333333
142
13.333333
142
13.333333
142
13.333333
142
53.333333
142
26.666667
171
     1
172
     0
173
     0
174
     0
175
     3
176
     4
 91
       32
178
     0
145
0.0
140
4.666667
 92
        0
301
CELL_VALUE
 93
        2
 90
        4
  1
 
 94
        0
300

302
 
304
ACVALUE_END
171
     1
172
     0
173
     1
174
     0
175
     1
176
     1
 91
        0
178
     0
145
0.0
 92
        0
301
CELL_VALUE
 93
        3
 90
        0
 91
        0
 94
        0
300

302

304
ACVALUE_END
171
     1
172
     0
173
     1
174
     0
175
     1
176
     1
 91
        0
178
     0
145
0.0
 92
        0
301
CELL_VALUE
 93
        3
 90
        0
 91
        0
 94
        0
300

302

304
ACVALUE_END
171
     1
172
     0
173
     0
174
     0
175
     1
176
     1
 91
       33
178
     0
145
0.0
170
     4
140
4.0
 92
        0
301
CELL_VALUE
 93
        2
 90
        4
  1
SK3300_C
 94
        0
300

302
SK3300_C
304
ACVALUE_END
171
     1
172
     0
173
     0
174
     0
175
     1
176
     1
 91
       33
178
     0
145
0.0
170
     1
140
4.666667
 92
        0
301
CELL_VALUE
 93
        2
 90
        4
  1
Rev:02
 94
        0
300

302
Rev:02
304
ACVALUE_END
171
     1
172
     0
173
     1
174
     0
175
     1
176
     1
 91
        0
178
     0
145
0.0
 92
        0
301
CELL_VALUE
 93
        3
 90
        0
 91
        0
 94
        0
300

302

304
ACVALUE_END
171
     1
172
     0
173
     1
174
     0
175
     1
176
     1
 91
        0
178
     0
145
0.0
 92
        0
301
CELL_VALUE
 93
        3
 90
        0
 91
        0
 94
        0
300

302

304
ACVALUE_END
171
     1
172
     0
173
     1
174
     0
175
     1
176
     1
 91
        0
178
     0
145
0.0
 92
        0
301
CELL_VALUE
 93
        3
 90
        0
 91
        0
 94
        0
300

302

304
ACVALUE_END
171
     1
172
     0
173
     0
174
     0
175
     1
176
     1
 91
       33
178
     0
145
0.0
170
     1
140
4.666667
 92
        0
301
CELL_VALUE
 93
        2
 90
        4
  1
Scale:1:1
 94
        0
300

302
Scale:1:1
304
ACVALUE_END
171
     1
172
     0
173
     0
174
     0
175
     1
176
     1
 91
       33
178
     0
145
0.0
170
     4
140
2.666667
 92
        0
301
CELL_VALUE
 93
        2
 90
        4
  1
3200 by 2500
 94
        0
300

302
3200 by 2500
304
ACVALUE_END
171
     1
172
     0
173
     1
174
     0
175
     1
176
     1
 91
        0
178
     0
145
0.0
 92
        0
301
CELL_VALUE
 93
        3
 90
        0
 91
        0
 94
        0
300

302

304
ACVALUE_END
171
     1
172
     0
173
     1
174
     0
175
     1
176
     1
 91
        0
178
     0
145
0.0
 92
        0
301
CELL_VALUE
 93
        3
 90
        0
 91
        0
 94
        0
300

302

304
ACVALUE_END
171
     1
172
     0
173
     1
174
     0
175
     1
176
     1
 91
        0
178
     0
145
0.0
 92
        0
301
CELL_VALUE
 93
        3
 90
        0
 91
        0
 94
        0
300

302

304
ACVALUE_END
171
     1
172
     0
173
     0
174
     0
175
     2
176
     1
 91
       33
178
     0
145
0.0
170
     4
140
4.666667
 92
        0
301
CELL_VALUE
 93
        2
 90
        4
  1
SNACK 3.3
 94
        0
300

302
SNACK 3.3
304
ACVALUE_END
171
     1
172
     0
173
     1
174
     0
175
     1
176
     1
 91
        0
178
     0
145
0.0
 92
        0
301
CELL_VALUE
 93
        3
 90
        0
 91
        0
 94
        0
300

302

304
ACVALUE_END
171
     1
172
     0
173
     1
174
     0
175
     1
176
     1
 91
        0
178
     0
145
0.0
 92
        0
301
CELL_VALUE
 93
        3
 90
        0
 91
        0
 94
        0
300

302

304
ACVALUE_END
171
     1
172
     0
173
     1
174
     0
175
     1
176
     1
 91
        0
178
     0
145
0.0
 92
        0
301
CELL_VALUE
 93
        3
 90
        0
 91
        0
 94
        0
300

302

304
ACVALUE_END
171
     1
172
     0
173
     1
174
     0
175
     1
176
     1
 91
        0
178
     0
145
0.0
 92
        0
301
CELL_VALUE
 93
        3
 90
        0
 91
        0
 94
        0
300

302

304
ACVALUE_END
171
     1
172
     0
173
     0
174
     0
175
     2
176
     1
 91
       33
178
     0
145
0.0
170
     4
140
3.333333
 92
        0
301
CELL_VALUE
 93
        2
 90
        4
  1
DATE:
 94
        0
300

302
DATE:
304
ACVALUE_END
171
     1
172
     0
173
     1
174
     0
175
     1
176
     1
 91
        0
178
     0
145
0.0
 92
        0
301
CELL_VALUE
 93
        3
 90
        0
 91
        0
 94
        0
300

302

304
ACVALUE_END
171
     1
172
     0
173
     0
174
     0
175
     5
176
     1
 91
       33
178
     0
145
0.0
170
     4
140
3.0
 92
        0
301
CELL_VALUE
 93
        2
 90
        4
  1
Any integral or partial reproductions are prohibited \Pwithout prior authorisation of L {\Ftxt.shx;\W0.190476;\H3.000000; }& L Luce & Light s.r.l., \Pin accordance with the law in force. \PAll rights reserved.
 94
        0
300

302
Any integral or partial reproductions are prohibited \Pwithout prior authorisation of L {\Ftxt.shx;\W0.190476;\H3.000000; }& L Luce & Light s.r.l., \Pin accordance with the law in force. \PAll rights reserved.
304
ACVALUE_END
171
     1
172
     0
173
     1
174
     0
175
     1
176
     1
 91
        0
178
     0
145
0.0
 92
        0
301
CELL_VALUE
 93
        3
 90
        0
 91
        0
 94
        0
300

302

304
ACVALUE_END
171
     1
172
     0
173
     1
174
     0
175
     1
176
     1
 91
        0
178
     0
145
0.0
 92
        0
301
CELL_VALUE
 93
        3
 90
        0
 91
        0
 94
        0
300

302

304
ACVALUE_END
171
     1
172
     0
173
     1
174
     0
175
     1
176
     1
 91
        0
178
     0
145
0.0
 92
        0
301
CELL_VALUE
 93
        3
 90
        0
 91
        0
 94
        0
300

302

304
ACVALUE_END
171
     1
172
     0
173
     1
174
     0
175
     1
176
     1
 91
        0
178
     0
145
0.0
 92
        0
301
CELL_VALUE
 93
        3
 90
        0
 91
        0
 94
        0
300

302

304
ACVALUE_END
  0
ENDSEC
  0
SECTION
  2
OBJECTS
  0
DICTIONARY
  5
C
330
0
100
AcDbDictionary
281
     1
  3
ACAD_DETAILVIEWSTYLE
350
62F
  3
ACAD_GROUP
350
D
  3
ACAD_IMAGE_DICT
350
61F
  3
ACAD_LAYOUT
350
1A
  3
ACAD_MATERIAL
350
613
  3
ACAD_MLEADERSTYLE
350
62E
  3
ACAD_MLINESTYLE
350
17
  3
ACAD_PLOTSETTINGS
350
19
  3
ACAD_PLOTSTYLENAME
350
E
  3
ACAD_SCALELIST
350
5D5
  3
ACAD_SECTIONVIEWSTYLE
350
630
  3
ACAD_TABLESTYLE
350
5F7
  3
ACAD_VISUALSTYLE
350
5FA
  3
ACDB_RECOMPOSE_DATA
350
62C
  3
AcDbVariableDictionary
350
628
  3
HOST_DOC_SETTINGS
350
61D
  3
MCS_STREAM_DICT
350
619
  0
SUN
  5
61C
330
1F4
100
AcDbSun
 90
        1
290
     0
 63
     7
421
 16777215
 40
1.0
291
     1
 91
  2455826
 92
 54000000
292
     0
 70
     2
 71
   256
280
     1
  0
DICTIONARY
  5
626
330
5CF
100
AcDbDictionary
280
     1
281
     1
  3
ACAD_XREC_ROUNDTRIP
360
627
  0
DICTIONARY
  5
62F
102
{ACAD_REACTORS
330
C
102
}
330
C
100
AcDbDictionary
281
     1
  0
DICTIONARY
  5
D
102
{ACAD_REACTORS
330
C
102
}
330
C
100
AcDbDictionary
281
     1
  0
DICTIONARY
  5
61F
102
{ACAD_REACTORS
330
C
102
}
330
C
100
AcDbDictionary
281
     1
  0
DICTIONARY
  5
1A
102
{ACAD_REACTORS
330
C
102
}
330
C
100
AcDbDictionary
281
     1
  3
Layout1
350
5D2
  3
Model
350
5D1
  0
DICTIONARY
  5
613
102
{ACAD_REACTORS
330
C
102
}
330
C
100
AcDbDictionary
281
     1
  3
ByBlock
350
615
  3
ByLayer
350
614
  3
Global
350
616
  0
DICTIONARY
  5
62E
102
{ACAD_REACTORS
330
C
102
}
330
C
100
AcDbDictionary
281
     1
  0
DICTIONARY
  5
17
102
{ACAD_REACTORS
330
C
102
}
330
C
100
AcDbDictionary
281
     1
  3
Standard
350
18
  0
DICTIONARY
  5
19
102
{ACAD_REACTORS
330
C
102
}
330
C
100
AcDbDictionary
281
     1
  0
ACDBDICTIONARYWDFLT
  5
E
102
{ACAD_REACTORS
330
C
102
}
330
C
100
AcDbDictionary
281
     1
  3
Normal
350
F
100
AcDbDictionaryWithDefault
340
F
  0
DICTIONARY
  5
5D5
102
{ACAD_REACTORS
330
C
102
}
330
C
100
AcDbDictionary
281
     1
  3
A0
350
5D6
  3
A1
350
5D7
  3
A2
350
5D8
  3
A3
350
5D9
  3
A4
350
5DA
  3
A5
350
5DB
  3
A6
350
5DC
  3
A7
350
5DD
  3
A8
350
5DE
  3
A9
350
5DF
  3
B0
350
5E0
  3
B1
350
5E1
  3
B2
350
5E2
  3
B3
350
5E3
  3
B4
350
5E4
  3
B5
350
5E5
  3
B6
350
5E6
  3
B7
350
5E7
  3
B8
350
5E8
  3
B9
350
5E9
  3
C0
350
5EA
  3
C1
350
5EB
  3
C2
350
5EC
  3
C3
350
5ED
  3
C4
350
5EE
  3
C5
350
5EF
  3
C6
350
5F0
  3
C7
350
5F1
  3
C8
350
5F2
  3
C9
350
5F3
  3
D0
350
5F4
  3
D1
350
5F5
  3
D2
350
5F6
  0
DICTIONARY
  5
630
102
{ACAD_REACTORS
330
C
102
}
330
C
100
AcDbDictionary
281
     1
  0
DICTIONARY
  5
5F7
102
{ACAD_REACTORS
330
C
102
}
330
C
100
AcDbDictionary
281
     1
  3
Standard
350
5F8
  0
DICTIONARY
  5
5FA
102
{ACAD_REACTORS
330
C
102
}
330
C
100
AcDbDictionary
281
     1
  3
2dWireframe
350
5FF
  3
Basic
350
602
  3
Brighten
350
606
  3
ColorChange
350
60A
  3
Conceptual
350
604
  3
Dim
350
605
  3
EdgeColorOff
350
60D
  3
Facepattern
350
609
  3
Flat
350
5FB
  3
FlatWithEdges
350
5FC
  3
Gouraud
350
5FD
  3
GouraudWithEdges
350
5FE
  3
Hidden
350
601
  3
JitterOff
350
60B
  3
Linepattern
350
608
  3
OverhangOff
350
60C
  3
Realistic
350
603
  3
Shaded
350
612
  3
Shaded with edges
350
611
  3
Shades of Gray
350
60E
  3
Sketchy
350
60F
  3
Thicken
350
607
  3
Wireframe
350
600
  3
X-Ray
350
610
  0
XRECORD
  5
62C
102
{ACAD_REACTORS
330
C
102
}
330
C
100
AcDbXrecord
280
     1
 90
        1
330
5CF
330
5F8
  0
DICTIONARY
  5
628
102
{ACAD_REACTORS
330
C
102
}
330
C
100
AcDbDictionary
281
     1
  3
CANNOSCALE
350
629
  3
CTABLESTYLE
350
62D
  0
DICTIONARY
  5
61D
102
{ACAD_REACTORS
330
C
102
}
330
C
100
AcDbDictionary
281
     1
  3
NCDocParameters
350
61E
  0
DICTIONARY
  5
619
102
{ACAD_REACTORS
330
C
102
}
330
C
100
AcDbDictionary
281
     1
  3
MC_VERSION_DATA
350
622
  3
MCS_DOCUMENT_ID
350
61A
  3
MCS_PARAMS_DATA
350
620
  0
XRECORD
  5
627
102
{ACAD_REACTORS
330
626
102
}
330
626
100
AcDbXrecord
280
     1
102
ACAD_ROUNDTRIP_2008_TABLE_ENTITY
360
624
 70
     2
 90
        1
 10
0.0
 20
0.0
 30
0.0
 90
        0
 90
        4
361
625
  0
LAYOUT
  5
5D2
102
{ACAD_REACTORS
330
1A
102
}
330
1A
100
AcDbPlotSettings
  1

  2
none_device
  4

  6

 40
0.0
 41
0.0
 42
0.0
 43
0.0
 44
3200.0
 45
2500.0
 46
0.0
 47
0.0
 48
0.0
 49
0.0
140
0.0
141
0.0
142
1.0
143
1.0
 70
     0
 72
     1
 73
     0
 74
     0
  7

 75
     0
 76
     0
 77
     2
 78
   300
147
1.0
148
0.0
149
0.0
100
AcDbLayout
  1
Layout1
 70
     0
 71
     1
 10
0.0
 20
0.0
 11
3200.0
 21
2500.0
 12
0.0
 22
0.0
 32
0.0
 14
0.0
 24
0.0
 34
0.0
 15
0.0
 25
0.0
 35
0.0
146
0.0
 13
0.0
 23
0.0
 33
0.0
 16
1.0
 26
0.0
 36
0.0
 17
0.0
 27
1.0
 37
0.0
 76
     0
330
221
  0
LAYOUT
  5
5D1
102
{ACAD_REACTORS
330
1A
102
}
330
1A
100
AcDbPlotSettings
  1

  2
none_device
  4

  6

 40
0.0
 41
0.0
 42
0.0
 43
0.0
 44
3200.0
 45
2500.0
 46
0.0
 47
0.0
 48
0.0
 49
0.0
140
0.0
141
0.0
142
1.0
143
1.0
 70
  1024
 72
     1
 73
     0
 74
     0
  7

 75
     0
 76
     0
 77
     2
 78
   300
147
1.0
148
0.0
149
0.0
100
AcDbLayout
  1
Model
 70
     0
 71
     0
 10
0.0
 20
0.0
 11
3200.0
 21
2500.0
 12
0.0
 22
0.0
 32
0.0
 14
0.0
 24
0.0
 34
0.0
 15
0.0
 25
0.0
 35
0.0
146
0.0
 13
0.0
 23
0.0
 33
0.0
 16
1.0
 26
0.0
 36
0.0
 17
0.0
 27
1.0
 37
0.0
 76
     0
330
220
331
1F4
  0
MATERIAL
  5
615
102
{ACAD_REACTORS
330
613
102
}
330
613
100
AcDbMaterial
  1
ByBlock
 72
     1
 94
      127
  0
MATERIAL
  5
614
102
{ACAD_REACTORS
330
613
102
}
330
613
100
AcDbMaterial
  1
ByLayer
 72
     1
 94
      127
  0
MATERIAL
  5
616
102
{ACAD_REACTORS
330
613
102
}
330
613
100
AcDbMaterial
  1
Global
 72
     1
 94
      127
  0
MLINESTYLE
  5
18
102
{ACAD_REACTORS
330
17
102
}
330
17
100
AcDbMlineStyle
  2
STANDARD
 70
     0
  3

 62
   256
 51
90.0
 52
90.0
 71
     2
 49
0.5
 62
   256
  6
BYLAYER
 49
-0.5
 62
   256
  6
BYLAYER
  0
ACDBPLACEHOLDER
  5
F
102
{ACAD_REACTORS
330
E
102
}
330
E
  0
SCALE
  5
5D6
102
{ACAD_REACTORS
330
5D5
102
}
330
5D5
100
AcDbScale
 70
     0
300
1:1
140
1.0
141
1.0
290
     1
  0
SCALE
  5
5D7
102
{ACAD_REACTORS
330
5D5
102
}
330
5D5
100
AcDbScale
 70
     0
300
1:2
140
1.0
141
2.0
290
     0
  0
SCALE
  5
5D8
102
{ACAD_REACTORS
330
5D5
102
}
330
5D5
100
AcDbScale
 70
     0
300
1:4
140
1.0
141
4.0
290
     0
  0
SCALE
  5
5D9
102
{ACAD_REACTORS
330
5D5
102
}
330
5D5
100
AcDbScale
 70
     0
300
1:5
140
1.0
141
5.0
290
     0
  0
SCALE
  5
5DA
102
{ACAD_REACTORS
330
5D5
102
}
330
5D5
100
AcDbScale
 70
     0
300
1:8
140
1.0
141
8.0
290
     0
  0
SCALE
  5
5DB
102
{ACAD_REACTORS
330
5D5
102
}
330
5D5
100
AcDbScale
 70
     0
300
1:10
140
1.0
141
10.0
290
     0
  0
SCALE
  5
5DC
102
{ACAD_REACTORS
330
5D5
102
}
330
5D5
100
AcDbScale
 70
     0
300
1:16
140
1.0
141
16.0
290
     0
  0
SCALE
  5
5DD
102
{ACAD_REACTORS
330
5D5
102
}
330
5D5
100
AcDbScale
 70
     0
300
1:20
140
1.0
141
20.0
290
     0
  0
SCALE
  5
5DE
102
{ACAD_REACTORS
330
5D5
102
}
330
5D5
100
AcDbScale
 70
     0
300
1:30
140
1.0
141
30.0
290
     0
  0
SCALE
  5
5DF
102
{ACAD_REACTORS
330
5D5
102
}
330
5D5
100
AcDbScale
 70
     0
300
1:40
140
1.0
141
40.0
290
     0
  0
SCALE
  5
5E0
102
{ACAD_REACTORS
330
5D5
102
}
330
5D5
100
AcDbScale
 70
     0
300
1:50
140
1.0
141
50.0
290
     0
  0
SCALE
  5
5E1
102
{ACAD_REACTORS
330
5D5
102
}
330
5D5
100
AcDbScale
 70
     0
300
1:100
140
1.0
141
100.0
290
     0
  0
SCALE
  5
5E2
102
{ACAD_REACTORS
330
5D5
102
}
330
5D5
100
AcDbScale
 70
     0
300
2:1
140
2.0
141
1.0
290
     0
  0
SCALE
  5
5E3
102
{ACAD_REACTORS
330
5D5
102
}
330
5D5
100
AcDbScale
 70
     0
300
4:1
140
4.0
141
1.0
290
     0
  0
SCALE
  5
5E4
102
{ACAD_REACTORS
330
5D5
102
}
330
5D5
100
AcDbScale
 70
     0
300
8:1
140
8.0
141
1.0
290
     0
  0
SCALE
  5
5E5
102
{ACAD_REACTORS
330
5D5
102
}
330
5D5
100
AcDbScale
 70
     0
300
10:1
140
10.0
141
1.0
290
     0
  0
SCALE
  5
5E6
102
{ACAD_REACTORS
330
5D5
102
}
330
5D5
100
AcDbScale
 70
     0
300
100:1
140
100.0
141
1.0
290
     0
  0
SCALE
  5
5E7
102
{ACAD_REACTORS
330
5D5
102
}
330
5D5
100
AcDbScale
 70
     0
300
1/128" = 1'-0"
140
0.007812
141
12.0
290
     0
  0
SCALE
  5
5E8
102
{ACAD_REACTORS
330
5D5
102
}
330
5D5
100
AcDbScale
 70
     0
300
1/64" = 1'-0"
140
0.015625
141
12.0
290
     0
  0
SCALE
  5
5E9
102
{ACAD_REACTORS
330
5D5
102
}
330
5D5
100
AcDbScale
 70
     0
300
1/32" = 1'-0"
140
0.03125
141
12.0
290
     0
  0
SCALE
  5
5EA
102
{ACAD_REACTORS
330
5D5
102
}
330
5D5
100
AcDbScale
 70
     0
300
1/16" = 1'-0"
140
0.0625
141
12.0
290
     0
  0
SCALE
  5
5EB
102
{ACAD_REACTORS
330
5D5
102
}
330
5D5
100
AcDbScale
 70
     0
300
3/32" = 1'-0"
140
0.09375
141
12.0
290
     0
  0
SCALE
  5
5EC
102
{ACAD_REACTORS
330
5D5
102
}
330
5D5
100
AcDbScale
 70
     0
300
1/8" = 1'-0"
140
0.125
141
12.0
290
     0
  0
SCALE
  5
5ED
102
{ACAD_REACTORS
330
5D5
102
}
330
5D5
100
AcDbScale
 70
     0
300
3/16" = 1'-0"
140
0.1875
141
12.0
290
     0
  0
SCALE
  5
5EE
102
{ACAD_REACTORS
330
5D5
102
}
330
5D5
100
AcDbScale
 70
     0
300
1/4" = 1'-0"
140
0.25
141
12.0
290
     0
  0
SCALE
  5
5EF
102
{ACAD_REACTORS
330
5D5
102
}
330
5D5
100
AcDbScale
 70
     0
300
3/8" = 1'-0"
140
0.375
141
12.0
290
     0
  0
SCALE
  5
5F0
102
{ACAD_REACTORS
330
5D5
102
}
330
5D5
100
AcDbScale
 70
     0
300
1/2" = 1'-0"
140
0.5
141
12.0
290
     0
  0
SCALE
  5
5F1
102
{ACAD_REACTORS
330
5D5
102
}
330
5D5
100
AcDbScale
 70
     0
300
3/4" = 1'-0"
140
0.75
141
12.0
290
     0
  0
SCALE
  5
5F2
102
{ACAD_REACTORS
330
5D5
102
}
330
5D5
100
AcDbScale
 70
     0
300
1" = 1'-0"
140
1.0
141
12.0
290
     0
  0
SCALE
  5
5F3
102
{ACAD_REACTORS
330
5D5
102
}
330
5D5
100
AcDbScale
 70
     0
300
1-1/2" = 1'-0"
140
1.5
141
12.0
290
     0
  0
SCALE
  5
5F4
102
{ACAD_REACTORS
330
5D5
102
}
330
5D5
100
AcDbScale
 70
     0
300
3" = 1'-0"
140
3.0
141
12.0
290
     0
  0
SCALE
  5
5F5
102
{ACAD_REACTORS
330
5D5
102
}
330
5D5
100
AcDbScale
 70
     0
300
6" = 1'-0"
140
6.0
141
12.0
290
     0
  0
SCALE
  5
5F6
102
{ACAD_REACTORS
330
5D5
102
}
330
5D5
100
AcDbScale
 70
     0
300
1'-0" = 1'-0"
140
12.0
141
12.0
290
     0
  0
TABLESTYLE
  5
5F8
102
{ACAD_REACTORS
330
5F7
102
}
102
{ACAD_XDICTIONARY
360
62A
102
}
330
5F7
100
AcDbTableStyle
  3
Standard
 70
     0
 71
     0
 40
0.06
 41
0.06
280
     0
281
     0
  7
STANDARD
140
4.5
170
     2
 62
     0
 63
   257
283
     0
 90
        4
 91
        0
  1

274
    -2
284
     1
 64
     0
275
    -2
285
     1
 65
     0
276
    -2
286
     1
 66
     0
277
    -2
287
     1
 67
     0
278
    -2
288
     1
 68
     0
279
    -2
289
     1
 69
     0
  7
STANDARD
140
6.0
170
     5
 62
     0
 63
   257
283
     0
 90
        4
 91
        0
  1

274
    -2
284
     1
 64
     0
275
    -2
285
     1
 65
     0
276
    -2
286
     1
 66
     0
277
    -2
287
     1
 67
     0
278
    -2
288
     1
 68
     0
279
    -2
289
     1
 69
     0
  7
STANDARD
140
4.5
170
     5
 62
     0
 63
   257
283
     0
 90
        4
 91
        0
  1

274
    -2
284
     1
 64
     0
275
    -2
285
     1
 65
     0
276
    -2
286
     1
 66
     0
277
    -2
287
     1
 67
     0
278
    -2
288
     1
 68
     0
279
    -2
289
     1
 69
     0
  0
VISUALSTYLE
  5
5FF
102
{ACAD_REACTORS
330
5FA
102
}
330
5FA
100
AcDbVisualStyle
  2
2dWireframe
 70
     4
177
     3
291
     0
 70
    58
 90
        0
176
     1
 90
        2
176
     1
 90
        0
176
     1
 90
        0
176
     1
 40
0.6
176
     1
 40
30.0
176
     1
 62
     7
420
 16777215
176
     1
 90
        1
176
     1
 90
        4
176
     1
 62
     7
176
     1
 62
   257
176
     1
 90
        1
176
     1
 90
        1
176
     1
 40
1.0
176
     1
 90
        0
176
     1
 62
   257
176
     1
 40
1.0
176
     1
 90
        1
176
     1
 90
        6
176
     1
 90
        2
176
     1
 62
     7
176
     1
 90
        5
176
     1
 90
        0
176
     1
 90
        0
176
     1
290
     0
176
     1
 90
        1
176
     1
 40
0.0
176
     1
 90
        0
176
     1
290
     1
176
     1
290
     1
176
     1
290
     0
176
     1
290
     0
176
     1
290
     0
176
     1
290
     0
176
     1
290
     0
176
     1
290
     0
176
     1
290
     0
176
     1
 90
       50
176
     1
 40
0.0
176
     1
 40
1.0
176
     1
 90
        0
176
     1
 62
    18
420
        0
176
     1
 90
       50
176
     1
 90
        3
176
     1
 62
     5
420
      255
176
     1
290
     0
176
     1
 90
       50
176
     1
 90
       50
176
     1
 90
       50
176
     1
290
     0
176
     1
 90
       50
176
     1
 62
   256
176
     0
 40
1.0
176
     0
 90
        2
176
     1
  1
strokes_ogs.tif
176
     1
290
     0
176
     1
 40
1.0
176
     1
 40
1.0
176
     1
  0
VISUALSTYLE
  5
602
102
{ACAD_REACTORS
330
5FA
102
}
330
5FA
100
AcDbVisualStyle
  2
Basic
 70
     7
177
     3
291
     1
 70
    58
 90
        1
176
     1
 90
        0
176
     1
 90
        1
176
     1
 90
        0
176
     1
 40
0.6
176
     1
 40
30.0
176
     1
 62
     7
420
 16777215
176
     1
 90
        0
176
     1
 90
        4
176
     1
 62
     7
176
     1
 62
   257
176
     1
 90
        1
176
     1
 90
        1
176
     1
 40
1.0
176
     1
 90
        8
176
     1
 62
     7
176
     1
 40
1.0
176
     1
 90
        1
176
     1
 90
        6
176
     1
 90
        2
176
     1
 62
     7
176
     1
 90
        5
176
     1
 90
        0
176
     1
 90
        0
176
     1
290
     0
176
     1
 90
        1
176
     1
 40
0.0
176
     1
 90
        0
176
     1
290
     0
176
     1
290
     1
176
     1
290
     1
176
     1
290
     0
176
     1
290
     0
176
     1
290
     0
176
     1
290
     0
176
     1
290
     0
176
     1
290
     0
176
     1
 90
       50
176
     1
 40
0.0
176
     1
 40
1.0
176
     1
 90
        0
176
     1
 62
    18
420
        0
176
     1
 90
       50
176
     1
 90
        3
176
     1
 62
     5
420
      255
176
     1
290
     0
176
     1
 90
       50
176
     1
 90
       50
176
     1
 90
       50
176
     1
290
     0
176
     1
 90
       50
176
     1
 62
   256
176
     0
 40
1.0
176
     0
 90
        2
176
     1
  1
strokes_ogs.tif
176
     1
290
     0
176
     1
 40
1.0
176
     1
 40
1.0
176
     1
  0
VISUALSTYLE
  5
606
102
{ACAD_REACTORS
330
5FA
102
}
330
5FA
100
AcDbVisualStyle
  2
Brighten
 70
    12
177
     3
291
     1
 70
    58
 90
        2
176
     1
 90
        2
176
     1
 90
        0
176
     1
 90
        0
176
     1
 40
0.6
176
     1
 40
30.0
176
     1
 62
     7
420
 16777215
176
     1
 90
        1
176
     1
 90
        4
176
     1
 62
     7
176
     1
 62
   257
176
     1
 90
        1
176
     1
 90
        1
176
     1
 40
1.0
176
     1
 90
        8
176
     1
 62
     7
176
     1
 40
1.0
176
     1
 90
        1
176
     1
 90
        6
176
     1
 90
        2
176
     1
 62
     7
176
     1
 90
        5
176
     1
 90
        0
176
     1
 90
        0
176
     1
290
     0
176
     1
 90
        1
176
     1
 40
50.0
176
     1
 90
        0
176
     1
290
     0
176
     1
290
     1
176
     1
290
     1
176
     1
290
     0
176
     1
290
     0
176
     1
290
     0
176
     1
290
     0
176
     1
290
     0
176
     1
290
     0
176
     1
 90
       50
176
     1
 40
0.0
176
     1
 40
1.0
176
     1
 90
        0
176
     1
 62
    18
420
        0
176
     1
 90
       50
176
     1
 90
        3
176
     1
 62
     5
420
      255
176
     1
290
     0
176
     1
 90
       50
176
     1
 90
       50
176
     1
 90
       50
176
     1
290
     0
176
     1
 90
       50
176
     1
 62
   256
176
     0
 40
1.0
176
     0
 90
        2
176
     1
  1
strokes_ogs.tif
176
     1
290
     0
176
     1
 40
1.0
176
     1
 40
1.0
176
     1
  0
VISUALSTYLE
  5
60A
102
{ACAD_REACTORS
330
5FA
102
}
330
5FA
100
AcDbVisualStyle
  2
ColorChange
 70
    16
177
     3
291
     1
 70
    58
 90
        2
176
     1
 90
        2
176
     1
 90
        3
176
     1
 90
        0
176
     1
 40
0.6
176
     1
 40
30.0
176
     1
 62
     8
420
  8421504
176
     1
 90
        1
176
     1
 90
        4
176
     1
 62
     7
176
     1
 62
   257
176
     1
 90
        1
176
     1
 90
        1
176
     1
 40
1.0
176
     1
 90
        8
176
     1
 62
     8
420
  8421504
176
     1
 40
1.0
176
     1
 90
        1
176
     1
 90
        6
176
     1
 90
        2
176
     1
 62
     7
176
     1
 90
        5
176
     1
 90
        0
176
     1
 90
        0
176
     1
290
     0
176
     1
 90
        1
176
     1
 40
0.0
176
     1
 90
        0
176
     1
290
     0
176
     1
290
     1
176
     1
290
     1
176
     1
290
     0
176
     1
290
     0
176
     1
290
     0
176
     1
290
     0
176
     1
290
     0
176
     1
290
     0
176
     1
 90
       50
176
     1
 40
0.0
176
     1
 40
1.0
176
     1
 90
        0
176
     1
 62
    18
420
        0
176
     1
 90
       50
176
     1
 90
        3
176
     1
 62
     5
420
      255
176
     1
290
     0
176
     1
 90
       50
176
     1
 90
       50
176
     1
 90
       50
176
     1
290
     0
176
     1
 90
       50
176
     1
 62
   256
176
     0
 40
1.0
176
     0
 90
        2
176
     1
  1
strokes_ogs.tif
176
     1
290
     0
176
     1
 40
1.0
176
     1
 40
1.0
176
     1
  0
VISUALSTYLE
  5
604
102
{ACAD_REACTORS
330
5FA
102
}
330
5FA
100
AcDbVisualStyle
  2
Conceptual
 70
     9
177
     3
291
     0
 70
    58
 90
        3
176
     1
 90
        2
176
     1
 90
        0
176
     1
 90
        0
176
     1
 40
0.6
176
     1
 40
30.0
176
     1
 62
     7
420
 16777215
176
     1
 90
        2
176
     1
 90
        2
176
     1
 62
     7
176
     1
 62
   257
176
     1
 90
        1
176
     1
 90
        1
176
     1
 40
179.0
176
     1
 90
        8
176
     1
 62
     7
176
     1
 40
1.0
176
     1
 90
        1
176
     1
 90
        6
176
     1
 90
        2
176
     1
 62
     7
176
     1
 90
        3
176
     1
 90
        0
176
     1
 90
        0
176
     1
290
     0
176
     1
 90
        1
176
     1
 40
0.0
176
     1
 90
        0
176
     1
290
     0
176
     1
290
     1
176
     1
290
     1
176
     1
290
     0
176
     1
290
     0
176
     1
290
     0
176
     1
290
     0
176
     1
290
     0
176
     1
290
     0
176
     1
 90
       50
176
     1
 40
0.0
176
     1
 40
1.0
176
     1
 90
        0
176
     1
 62
    18
420
        0
176
     1
 90
       50
176
     1
 90
        3
176
     1
 62
     5
420
      255
176
     1
290
     0
176
     1
 90
       50
176
     1
 90
       50
176
     1
 90
       50
176
     1
290
     0
176
     1
 90
       50
176
     1
 62
   256
176
     0
 40
1.0
176
     0
 90
        2
176
     1
  1
strokes_ogs.tif
176
     1
290
     0
176
     1
 40
1.0
176
     1
 40
1.0
176
     1
  0
VISUALSTYLE
  5
605
102
{ACAD_REACTORS
330
5FA
102
}
330
5FA
100
AcDbVisualStyle
  2
Dim
 70
    11
177
     3
291
     1
 70
    58
 90
        2
176
     1
 90
        2
176
     1
 90
        0
176
     1
 90
        0
176
     1
 40
0.6
176
     1
 40
30.0
176
     1
 62
     7
420
 16777215
176
     1
 90
        1
176
     1
 90
        4
176
     1
 62
     7
176
     1
 62
   257
176
     1
 90
        1
176
     1
 90
        1
176
     1
 40
1.0
176
     1
 90
        8
176
     1
 62
     7
176
     1
 40
1.0
176
     1
 90
        1
176
     1
 90
        6
176
     1
 90
        2
176
     1
 62
     7
176
     1
 90
        5
176
     1
 90
        0
176
     1
 90
        0
176
     1
290
     0
176
     1
 90
        1
176
     1
 40
-50.0
176
     1
 90
        0
176
     1
290
     0
176
     1
290
     1
176
     1
290
     1
176
     1
290
     0
176
     1
290
     0
176
     1
290
     0
176
     1
290
     0
176
     1
290
     0
176
     1
290
     0
176
     1
 90
       50
176
     1
 40
0.0
176
     1
 40
1.0
176
     1
 90
        0
176
     1
 62
    18
420
        0
176
     1
 90
       50
176
     1
 90
        3
176
     1
 62
     5
420
      255
176
     1
290
     0
176
     1
 90
       50
176
     1
 90
       50
176
     1
 90
       50
176
     1
290
     0
176
     1
 90
       50
176
     1
 62
   256
176
     0
 40
1.0
176
     0
 90
        2
176
     1
  1
strokes_ogs.tif
176
     1
290
     0
176
     1
 40
1.0
176
     1
 40
1.0
176
     1
  0
VISUALSTYLE
  5
60D
102
{ACAD_REACTORS
330
5FA
102
}
330
5FA
100
AcDbVisualStyle
  2
EdgeColorOff
 70
    22
177
     3
291
     1
 70
    58
 90
        2
176
     0
 90
        2
176
     0
 90
        0
176
     0
 90
        0
176
     0
 40
0.6
176
     0
 40
30.0
176
     0
 62
     7
420
 16777215
176
     0
 90
        1
176
     0
 90
        4
176
     0
 62
     7
176
     0
 62
   257
176
     0
 90
        1
176
     0
 90
        1
176
     0
 40
1.0
176
     0
 90
        8
176
     2
 62
     7
176
     0
 40
1.0
176
     0
 90
        1
176
     0
 90
        6
176
     0
 90
        2
176
     0
 62
     7
176
     0
 90
        5
176
     0
 90
        0
176
     0
 90
        0
176
     0
290
     0
176
     0
 90
        1
176
     0
 40
0.0
176
     0
 90
        0
176
     0
290
     0
176
     0
290
     1
176
     0
290
     1
176
     0
290
     0
176
     0
290
     0
176
     0
290
     0
176
     0
290
     0
176
     0
290
     0
176
     0
290
     0
176
     0
 90
       50
176
     0
 40
0.0
176
     0
 40
1.0
176
     0
 90
        0
176
     0
 62
    18
420
        0
176
     0
 90
       50
176
     0
 90
        3
176
     0
 62
     5
420
      255
176
     0
290
     0
176
     0
 90
       50
176
     0
 90
       50
176
     0
 90
       50
176
     0
290
     0
176
     0
 90
       50
176
     0
 62
   256
176
     0
 40
1.0
176
     0
 90
        2
176
     0
  1
strokes_ogs.tif
176
     0
290
     0
176
     0
 40
1.0
176
     0
 40
1.0
176
     0
  0
VISUALSTYLE
  5
609
102
{ACAD_REACTORS
330
5FA
102
}
330
5FA
100
AcDbVisualStyle
  2
Facepattern
 70
    15
177
     3
291
     1
 70
    58
 90
        2
176
     1
 90
        2
176
     1
 90
        0
176
     1
 90
        0
176
     1
 40
0.6
176
     1
 40
30.0
176
     1
 62
     7
420
 16777215
176
     1
 90
        1
176
     1
 90
        4
176
     1
 62
     7
176
     1
 62
   257
176
     1
 90
        1
176
     1
 90
        1
176
     1
 40
1.0
176
     1
 90
        8
176
     1
 62
     7
176
     1
 40
1.0
176
     1
 90
        1
176
     1
 90
        6
176
     1
 90
        2
176
     1
 62
     7
176
     1
 90
        5
176
     1
 90
        0
176
     1
 90
        0
176
     1
290
     0
176
     1
 90
        1
176
     1
 40
0.0
176
     1
 90
        0
176
     1
290
     0
176
     1
290
     1
176
     1
290
     1
176
     1
290
     0
176
     1
290
     0
176
     1
290
     0
176
     1
290
     0
176
     1
290
     0
176
     1
290
     0
176
     1
 90
       50
176
     1
 40
0.0
176
     1
 40
1.0
176
     1
 90
        0
176
     1
 62
    18
420
        0
176
     1
 90
       50
176
     1
 90
        3
176
     1
 62
     5
420
      255
176
     1
290
     0
176
     1
 90
       50
176
     1
 90
       50
176
     1
 90
       50
176
     1
290
     0
176
     1
 90
       50
176
     1
 62
   256
176
     0
 40
1.0
176
     0
 90
        2
176
     1
  1
strokes_ogs.tif
176
     1
290
     0
176
     1
 40
1.0
176
     1
 40
1.0
176
     1
  0
VISUALSTYLE
  5
5FB
102
{ACAD_REACTORS
330
5FA
102
}
330
5FA
100
AcDbVisualStyle
  2
Flat
 70
     0
177
     3
291
     1
 70
    58
 90
        2
176
     1
 90
        1
176
     1
 90
        1
176
     1
 90
        2
176
     1
 40
0.6
176
     1
 40
30.0
176
     1
 62
     7
420
 16777215
176
     1
 90
        0
176
     1
 90
        0
176
     1
 62
     7
176
     1
 62
   257
176
     1
 90
        1
176
     1
 90
        1
176
     1
 40
1.0
176
     1
 90
        8
176
     1
 62
     7
176
     1
 40
1.0
176
     1
 90
        1
176
     1
 90
        6
176
     1
 90
        2
176
     1
 62
     7
176
     1
 90
        5
176
     1
 90
        0
176
     1
 90
        0
176
     1
290
     0
176
     1
 90
       13
176
     1
 40
0.0
176
     1
 90
        0
176
     1
290
     0
176
     1
290
     1
176
     1
290
     1
176
     1
290
     0
176
     1
290
     0
176
     1
290
     0
176
     1
290
     0
176
     1
290
     0
176
     1
290
     0
176
     1
 90
       50
176
     1
 40
0.0
176
     1
 40
1.0
176
     1
 90
        0
176
     1
 62
    18
420
        0
176
     1
 90
       50
176
     1
 90
        3
176
     1
 62
     5
420
      255
176
     1
290
     0
176
     1
 90
       50
176
     1
 90
       50
176
     1
 90
       50
176
     1
290
     0
176
     1
 90
       50
176
     1
 62
   256
176
     0
 40
1.0
176
     0
 90
        2
176
     1
  1
strokes_ogs.tif
176
     1
290
     0
176
     1
 40
1.0
176
     1
 40
1.0
176
     1
  0
VISUALSTYLE
  5
5FC
102
{ACAD_REACTORS
330
5FA
102
}
330
5FA
100
AcDbVisualStyle
  2
FlatWithEdges
 70
     1
177
     3
291
     1
 70
    58
 90
        2
176
     1
 90
        1
176
     1
 90
        1
176
     1
 90
        2
176
     1
 40
0.6
176
     1
 40
30.0
176
     1
 62
     7
420
 16777215
176
     1
 90
        1
176
     1
 90
        0
176
     1
 62
     7
176
     1
 62
   257
176
     1
 90
        1
176
     1
 90
        1
176
     1
 40
1.0
176
     1
 90
        0
176
     1
 62
   257
176
     1
 40
1.0
176
     1
 90
        1
176
     1
 90
        6
176
     1
 90
        2
176
     1
 62
     7
176
     1
 90
        5
176
     1
 90
        0
176
     1
 90
        0
176
     1
290
     0
176
     1
 90
       13
176
     1
 40
0.0
176
     1
 90
        0
176
     1
290
     0
176
     1
290
     1
176
     1
290
     1
176
     1
290
     0
176
     1
290
     0
176
     1
290
     0
176
     1
290
     0
176
     1
290
     0
176
     1
290
     0
176
     1
 90
       50
176
     1
 40
0.0
176
     1
 40
1.0
176
     1
 90
        0
176
     1
 62
    18
420
        0
176
     1
 90
       50
176
     1
 90
        3
176
     1
 62
     5
420
      255
176
     1
290
     0
176
     1
 90
       50
176
     1
 90
       50
176
     1
 90
       50
176
     1
290
     0
176
     1
 90
       50
176
     1
 62
   256
176
     0
 40
1.0
176
     0
 90
        2
176
     1
  1
strokes_ogs.tif
176
     1
290
     0
176
     1
 40
1.0
176
     1
 40
1.0
176
     1
  0
VISUALSTYLE
  5
5FD
102
{ACAD_REACTORS
330
5FA
102
}
330
5FA
100
AcDbVisualStyle
  2
Gouraud
 70
     2
177
     3
291
     1
 70
    58
 90
        2
176
     1
 90
        2
176
     1
 90
        1
176
     1
 90
        2
176
     1
 40
0.6
176
     1
 40
30.0
176
     1
 62
     7
420
 16777215
176
     1
 90
        0
176
     1
 90
        0
176
     1
 62
     7
176
     1
 62
   257
176
     1
 90
        1
176
     1
 90
        1
176
     1
 40
1.0
176
     1
 90
        0
176
     1
 62
     7
176
     1
 40
1.0
176
     1
 90
        1
176
     1
 90
        6
176
     1
 90
        2
176
     1
 62
     7
176
     1
 90
        5
176
     1
 90
        0
176
     1
 90
        0
176
     1
290
     0
176
     1
 90
       13
176
     1
 40
0.0
176
     1
 90
        0
176
     1
290
     0
176
     1
290
     1
176
     1
290
     1
176
     1
290
     0
176
     1
290
     0
176
     1
290
     0
176
     1
290
     0
176
     1
290
     0
176
     1
290
     0
176
     1
 90
       50
176
     1
 40
0.0
176
     1
 40
1.0
176
     1
 90
        0
176
     1
 62
    18
420
        0
176
     1
 90
       50
176
     1
 90
        3
176
     1
 62
     5
420
      255
176
     1
290
     0
176
     1
 90
       50
176
     1
 90
       50
176
     1
 90
       50
176
     1
290
     0
176
     1
 90
       50
176
     1
 62
   256
176
     0
 40
1.0
176
     0
 90
        2
176
     1
  1
strokes_ogs.tif
176
     1
290
     0
176
     1
 40
1.0
176
     1
 40
1.0
176
     1
  0
VISUALSTYLE
  5
5FE
102
{ACAD_REACTORS
330
5FA
102
}
330
5FA
100
AcDbVisualStyle
  2
GouraudWithEdges
 70
     3
177
     3
291
     1
 70
    58
 90
        2
176
     1
 90
        2
176
     1
 90
        1
176
     1
 90
        2
176
     1
 40
0.6
176
     1
 40
30.0
176
     1
 62
     7
420
 16777215
176
     1
 90
        1
176
     1
 90
        0
176
     1
 62
     7
176
     1
 62
   257
176
     1
 90
        1
176
     1
 90
        1
176
     1
 40
1.0
176
     1
 90
        0
176
     1
 62
   257
176
     1
 40
1.0
176
     1
 90
        1
176
     1
 90
        6
176
     1
 90
        2
176
     1
 62
     7
176
     1
 90
        5
176
     1
 90
        0
176
     1
 90
        0
176
     1
290
     0
176
     1
 90
       13
176
     1
 40
0.0
176
     1
 90
        0
176
     1
290
     0
176
     1
290
     1
176
     1
290
     1
176
     1
290
     0
176
     1
290
     0
176
     1
290
     0
176
     1
290
     0
176
     1
290
     0
176
     1
290
     0
176
     1
 90
       50
176
     1
 40
0.0
176
     1
 40
1.0
176
     1
 90
        0
176
     1
 62
    18
420
        0
176
     1
 90
       50
176
     1
 90
        3
176
     1
 62
     5
420
      255
176
     1
290
     0
176
     1
 90
       50
176
     1
 90
       50
176
     1
 90
       50
176
     1
290
     0
176
     1
 90
       50
176
     1
 62
   256
176
     0
 40
1.0
176
     0
 90
        2
176
     1
  1
strokes_ogs.tif
176
     1
290
     0
176
     1
 40
1.0
176
     1
 40
1.0
176
     1
  0
VISUALSTYLE
  5
601
102
{ACAD_REACTORS
330
5FA
102
}
330
5FA
100
AcDbVisualStyle
  2
Hidden
 70
     6
177
     3
291
     0
 70
    58
 90
        1
176
     1
 90
        2
176
     1
 90
        2
176
     1
 90
        0
176
     1
 40
0.6
176
     1
 40
30.0
176
     1
 62
     7
420
 16777215
176
     1
 90
        2
176
     1
 90
        2
176
     1
 62
     7
176
     1
 62
   257
176
     1
 90
        2
176
     1
 90
        1
176
     1
 40
40.0
176
     1
 90
        0
176
     1
 62
   257
176
     1
 40
1.0
176
     1
 90
        1
176
     1
 90
        6
176
     1
 90
        2
176
     1
 62
     7
176
     1
 90
        3
176
     1
 90
        0
176
     1
 90
        0
176
     1
290
     0
176
     1
 90
        1
176
     1
 40
0.0
176
     1
 90
        0
176
     1
290
     0
176
     1
290
     1
176
     1
290
     1
176
     1
290
     0
176
     1
290
     0
176
     1
290
     0
176
     1
290
     0
176
     1
290
     0
176
     1
290
     0
176
     1
 90
       50
176
     1
 40
0.0
176
     1
 40
1.0
176
     1
 90
        0
176
     1
 62
    18
420
        0
176
     1
 90
       50
176
     1
 90
        3
176
     1
 62
     5
420
      255
176
     1
290
     0
176
     1
 90
       50
176
     1
 90
       50
176
     1
 90
       50
176
     1
290
     0
176
     1
 90
       50
176
     1
 62
   256
176
     0
 40
1.0
176
     0
 90
        2
176
     1
  1
strokes_ogs.tif
176
     1
290
     0
176
     1
 40
1.0
176
     1
 40
1.0
176
     1
  0
VISUALSTYLE
  5
60B
102
{ACAD_REACTORS
330
5FA
102
}
330
5FA
100
AcDbVisualStyle
  2
JitterOff
 70
    20
177
     3
291
     1
 70
    58
 90
        2
176
     0
 90
        2
176
     0
 90
        0
176
     0
 90
        0
176
     0
 40
0.6
176
     0
 40
30.0
176
     0
 62
     7
420
 16777215
176
     0
 90
        1
176
     0
 90
        4
176
     0
 62
     7
176
     0
 62
   257
176
     0
 90
        1
176
     0
 90
        1
176
     0
 40
1.0
176
     0
 90
       10
176
     2
 62
     7
176
     0
 40
1.0
176
     0
 90
        1
176
     0
 90
        6
176
     0
 90
        2
176
     0
 62
     7
176
     0
 90
        5
176
     0
 90
        0
176
     0
 90
        0
176
     0
290
     0
176
     0
 90
        1
176
     0
 40
0.0
176
     0
 90
        0
176
     0
290
     0
176
     0
290
     1
176
     0
290
     1
176
     0
290
     0
176
     0
290
     0
176
     0
290
     0
176
     0
290
     0
176
     0
290
     0
176
     0
290
     0
176
     0
 90
       50
176
     0
 40
0.0
176
     0
 40
1.0
176
     0
 90
        0
176
     0
 62
    18
420
        0
176
     0
 90
       50
176
     0
 90
        3
176
     0
 62
     5
420
      255
176
     0
290
     0
176
     0
 90
       50
176
     0
 90
       50
176
     0
 90
       50
176
     0
290
     0
176
     0
 90
       50
176
     0
 62
   256
176
     0
 40
1.0
176
     0
 90
        2
176
     0
  1
strokes_ogs.tif
176
     0
290
     0
176
     0
 40
1.0
176
     0
 40
1.0
176
     0
  0
VISUALSTYLE
  5
608
102
{ACAD_REACTORS
330
5FA
102
}
330
5FA
100
AcDbVisualStyle
  2
Linepattern
 70
    14
177
     3
291
     1
 70
    58
 90
        2
176
     1
 90
        2
176
     1
 90
        0
176
     1
 90
        0
176
     1
 40
0.6
176
     1
 40
30.0
176
     1
 62
     7
420
 16777215
176
     1
 90
        1
176
     1
 90
        4
176
     1
 62
     7
176
     1
 62
   257
176
     1
 90
        7
176
     1
 90
        7
176
     1
 40
1.0
176
     1
 90
        8
176
     1
 62
     7
176
     1
 40
1.0
176
     1
 90
        1
176
     1
 90
        6
176
     1
 90
        2
176
     1
 62
     7
176
     1
 90
        5
176
     1
 90
        0
176
     1
 90
        0
176
     1
290
     0
176
     1
 90
        1
176
     1
 40
0.0
176
     1
 90
        0
176
     1
290
     0
176
     1
290
     1
176
     1
290
     1
176
     1
290
     0
176
     1
290
     0
176
     1
290
     0
176
     1
290
     0
176
     1
290
     0
176
     1
290
     0
176
     1
 90
       50
176
     1
 40
0.0
176
     1
 40
1.0
176
     1
 90
        0
176
     1
 62
    18
420
        0
176
     1
 90
       50
176
     1
 90
        3
176
     1
 62
     5
420
      255
176
     1
290
     0
176
     1
 90
       50
176
     1
 90
       50
176
     1
 90
       50
176
     1
290
     0
176
     1
 90
       50
176
     1
 62
   256
176
     0
 40
1.0
176
     0
 90
        2
176
     1
  1
strokes_ogs.tif
176
     1
290
     0
176
     1
 40
1.0
176
     1
 40
1.0
176
     1
  0
VISUALSTYLE
  5
60C
102
{ACAD_REACTORS
330
5FA
102
}
330
5FA
100
AcDbVisualStyle
  2
OverhangOff
 70
    21
177
     3
291
     1
 70
    58
 90
        2
176
     0
 90
        2
176
     0
 90
        0
176
     0
 90
        0
176
     0
 40
0.6
176
     0
 40
30.0
176
     0
 62
     7
420
 16777215
176
     0
 90
        1
176
     0
 90
        4
176
     0
 62
     7
176
     0
 62
   257
176
     0
 90
        1
176
     0
 90
        1
176
     0
 40
1.0
176
     0
 90
        9
176
     2
 62
     7
176
     0
 40
1.0
176
     0
 90
        1
176
     0
 90
        6
176
     0
 90
        2
176
     0
 62
     7
176
     0
 90
        5
176
     0
 90
        0
176
     0
 90
        0
176
     0
290
     0
176
     0
 90
        1
176
     0
 40
0.0
176
     0
 90
        0
176
     0
290
     0
176
     0
290
     1
176
     0
290
     1
176
     0
290
     0
176
     0
290
     0
176
     0
290
     0
176
     0
290
     0
176
     0
290
     0
176
     0
290
     0
176
     0
 90
       50
176
     0
 40
0.0
176
     0
 40
1.0
176
     0
 90
        0
176
     0
 62
    18
420
        0
176
     0
 90
       50
176
     0
 90
        3
176
     0
 62
     5
420
      255
176
     0
290
     0
176
     0
 90
       50
176
     0
 90
       50
176
     0
 90
       50
176
     0
290
     0
176
     0
 90
       50
176
     0
 62
   256
176
     0
 40
1.0
176
     0
 90
        2
176
     0
  1
strokes_ogs.tif
176
     0
290
     0
176
     0
 40
1.0
176
     0
 40
1.0
176
     0
  0
VISUALSTYLE
  5
603
102
{ACAD_REACTORS
330
5FA
102
}
330
5FA
100
AcDbVisualStyle
  2
Realistic
 70
     8
177
     3
291
     0
 70
    58
 90
        2
176
     1
 90
        3
176
     1
 90
        0
176
     1
 90
        2
176
     1
 40
0.6
176
     1
 40
30.0
176
     1
 62
     7
420
 16777215
176
     1
 90
        0
176
     1
 90
        0
176
     1
 62
     7
176
     1
 62
   257
176
     1
 90
        1
176
     1
 90
        1
176
     1
 40
1.0
176
     1
 90
        8
176
     1
 62
   257
176
     1
 40
1.0
176
     1
 90
        1
176
     1
 90
        6
176
     1
 90
        2
176
     1
 62
     7
176
     1
 90
        3
176
     1
 90
        0
176
     1
 90
        0
176
     1
290
     0
176
     1
 90
       13
176
     1
 40
0.0
176
     1
 90
        0
176
     1
290
     0
176
     1
290
     1
176
     1
290
     1
176
     1
290
     0
176
     1
290
     0
176
     1
290
     0
176
     1
290
     0
176
     1
290
     0
176
     1
290
     0
176
     1
 90
       50
176
     1
 40
0.0
176
     1
 40
1.0
176
     1
 90
        0
176
     1
 62
    18
420
        0
176
     1
 90
       50
176
     1
 90
        3
176
     1
 62
     5
420
      255
176
     1
290
     0
176
     1
 90
       50
176
     1
 90
       50
176
     1
 90
       50
176
     1
290
     0
176
     1
 90
       50
176
     1
 62
   256
176
     0
 40
1.0
176
     0
 90
        2
176
     1
  1
strokes_ogs.tif
176
     1
290
     0
176
     1
 40
1.0
176
     1
 40
1.0
176
     1
  0
VISUALSTYLE
  5
612
102
{ACAD_REACTORS
330
5FA
102
}
330
5FA
100
AcDbVisualStyle
  2
Shaded
 70
    27
177
     3
291
     0
 70
    58
 90
        2
176
     1
 90
        2
176
     1
 90
        1
176
     1
 90
        2
176
     1
 40
0.6
176
     1
 40
30.0
176
     1
 62
     7
420
 16777215
176
     1
 90
        0
176
     1
 90
        4
176
     1
 62
     7
176
     1
 62
   257
176
     1
 90
        1
176
     1
 90
        1
176
     1
 40
1.0
176
     1
 90
        8
176
     1
 62
   257
176
     1
 40
1.0
176
     1
 90
        1
176
     1
 90
        6
176
     1
 90
        2
176
     1
 62
     8
420
  7895160
176
     1
 90
        3
176
     1
 90
        0
176
     1
 90
        0
176
     1
290
     0
176
     1
 90
        5
176
     1
 40
0.0
176
     1
 90
        0
176
     1
290
     0
176
     1
290
     1
176
     1
290
     1
176
     1
290
     0
176
     1
290
     0
176
     1
290
     0
176
     1
290
     0
176
     1
290
     0
176
     1
290
     0
176
     1
 90
       50
176
     1
 40
0.0
176
     1
 40
1.0
176
     1
 90
        0
176
     1
 62
    18
420
        0
176
     1
 90
       50
176
     1
 90
        3
176
     1
 62
     5
420
      255
176
     1
290
     0
176
     1
 90
       50
176
     1
 90
       50
176
     1
 90
       50
176
     1
290
     0
176
     1
 90
       50
176
     1
 62
   256
176
     0
 40
1.0
176
     0
 90
        2
176
     1
  1
strokes_ogs.tif
176
     1
290
     0
176
     1
 40
1.0
176
     1
 40
1.0
176
     1
  0
VISUALSTYLE
  5
611
102
{ACAD_REACTORS
330
5FA
102
}
330
5FA
100
AcDbVisualStyle
  2
Shaded with edges
 70
    26
177
     3
291
     0
 70
    58
 90
        2
176
     1
 90
        2
176
     1
 90
        1
176
     1
 90
        2
176
     1
 40
0.6
176
     1
 40
30.0
176
     1
 62
     7
420
 16777215
176
     1
 90
        1
176
     1
 90
       10
176
     1
 62
     7
176
     1
 62
   257
176
     1
 90
        2
176
     1
 90
        1
176
     1
 40
1.0
176
     1
 90
        8
176
     1
 62
   257
176
     1
 40
1.0
176
     1
 90
        1
176
     1
 90
        6
176
     1
 90
        2
176
     1
 62
     7
176
     1
 90
        3
176
     1
 90
        0
176
     1
 90
        0
176
     1
290
     0
176
     1
 90
        5
176
     1
 40
0.0
176
     1
 90
        0
176
     1
290
     0
176
     1
290
     1
176
     1
290
     1
176
     1
290
     0
176
     1
290
     0
176
     1
290
     0
176
     1
290
     0
176
     1
290
     0
176
     1
290
     0
176
     1
 90
       50
176
     1
 40
0.0
176
     1
 40
1.0
176
     1
 90
        0
176
     1
 62
    18
420
        0
176
     1
 90
       50
176
     1
 90
        3
176
     1
 62
     5
420
      255
176
     1
290
     0
176
     1
 90
       50
176
     1
 90
       50
176
     1
 90
       50
176
     1
290
     0
176
     1
 90
       50
176
     1
 62
   256
176
     0
 40
1.0
176
     0
 90
        2
176
     1
  1
strokes_ogs.tif
176
     1
290
     0
176
     1
 40
1.0
176
     1
 40
1.0
176
     1
  0
VISUALSTYLE
  5
60E
102
{ACAD_REACTORS
330
5FA
102
}
330
5FA
100
AcDbVisualStyle
  2
Shades of Gray
 70
    23
177
     3
291
     0
 70
    58
 90
        2
176
     1
 90
        2
176
     1
 90
        3
176
     1
 90
        0
176
     1
 40
0.6
176
     1
 40
30.0
176
     1
 62
     7
420
 16777215
176
     1
 90
        2
176
     1
 90
        2
176
     1
 62
     7
176
     1
 62
     7
176
     1
 90
        1
176
     1
 90
        1
176
     1
 40
40.0
176
     1
 90
        8
176
     1
 62
     7
176
     1
 40
1.0
176
     1
 90
        1
176
     1
 90
        6
176
     1
 90
        2
176
     1
 62
     7
176
     1
 90
        3
176
     1
 90
        0
176
     1
 90
        0
176
     1
290
     0
176
     1
 90
        1
176
     1
 40
0.0
176
     1
 90
        0
176
     1
290
     0
176
     1
290
     1
176
     1
290
     1
176
     1
290
     0
176
     1
290
     0
176
     1
290
     0
176
     1
290
     0
176
     1
290
     0
176
     1
290
     0
176
     1
 90
       50
176
     1
 40
0.0
176
     1
 40
1.0
176
     1
 90
        0
176
     1
 62
    18
420
        0
176
     1
 90
       50
176
     1
 90
        3
176
     1
 62
     5
420
      255
176
     1
290
     0
176
     1
 90
       50
176
     1
 90
       50
176
     1
 90
       50
176
     1
290
     0
176
     1
 90
       50
176
     1
 62
   256
176
     0
 40
1.0
176
     0
 90
        2
176
     1
  1
strokes_ogs.tif
176
     1
290
     0
176
     1
 40
1.0
176
     1
 40
1.0
176
     1
  0
VISUALSTYLE
  5
60F
102
{ACAD_REACTORS
330
5FA
102
}
330
5FA
100
AcDbVisualStyle
  2
Sketchy
 70
    24
177
     3
291
     0
 70
    58
 90
        1
176
     1
 90
        2
176
     1
 90
        2
176
     1
 90
        0
176
     1
 40
0.6
176
     1
 40
30.0
176
     1
 62
     7
420
 16777215
176
     1
 90
        2
176
     1
 90
        2
176
     1
 62
     7
176
     1
 62
     7
176
     1
 90
        1
176
     1
 90
        1
176
     1
 40
40.0
176
     1
 90
       11
176
     1
 62
     7
176
     1
 40
1.0
176
     1
 90
        1
176
     1
 90
        6
176
     1
 90
        2
176
     1
 62
     7
176
     1
 90
        6
176
     1
 90
        0
176
     1
 90
        0
176
     1
290
     0
176
     1
 90
        1
176
     1
 40
0.0
176
     1
 90
        0
176
     1
290
     0
176
     1
290
     1
176
     1
290
     1
176
     1
290
     0
176
     1
290
     0
176
     1
290
     0
176
     1
290
     0
176
     1
290
     0
176
     1
290
     0
176
     1
 90
       50
176
     1
 40
0.0
176
     1
 40
1.0
176
     1
 90
        0
176
     1
 62
    18
420
        0
176
     1
 90
       50
176
     1
 90
        3
176
     1
 62
     5
420
      255
176
     1
290
     0
176
     1
 90
       50
176
     1
 90
       50
176
     1
 90
       50
176
     1
290
     0
176
     1
 90
       50
176
     1
 62
   256
176
     0
 40
1.0
176
     0
 90
        2
176
     1
  1
strokes_ogs.tif
176
     1
290
     0
176
     1
 40
1.0
176
     1
 40
1.0
176
     1
  0
VISUALSTYLE
  5
607
102
{ACAD_REACTORS
330
5FA
102
}
330
5FA
100
AcDbVisualStyle
  2
Thicken
 70
    13
177
     3
291
     1
 70
    58
 90
        2
176
     1
 90
        2
176
     1
 90
        0
176
     1
 90
        0
176
     1
 40
0.6
176
     1
 40
30.0
176
     1
 62
     7
420
 16777215
176
     1
 90
        1
176
     1
 90
        4
176
     1
 62
     7
176
     1
 62
   257
176
     1
 90
        1
176
     1
 90
        1
176
     1
 40
1.0
176
     1
 90
       12
176
     1
 62
     7
176
     1
 40
1.0
176
     1
 90
        1
176
     1
 90
        6
176
     1
 90
        2
176
     1
 62
     7
176
     1
 90
        5
176
     1
 90
        0
176
     1
 90
        0
176
     1
290
     0
176
     1
 90
        1
176
     1
 40
0.0
176
     1
 90
        0
176
     1
290
     0
176
     1
290
     1
176
     1
290
     1
176
     1
290
     0
176
     1
290
     0
176
     1
290
     0
176
     1
290
     0
176
     1
290
     0
176
     1
290
     0
176
     1
 90
       50
176
     1
 40
0.0
176
     1
 40
1.0
176
     1
 90
        0
176
     1
 62
    18
420
        0
176
     1
 90
       50
176
     1
 90
        3
176
     1
 62
     5
420
      255
176
     1
290
     0
176
     1
 90
       50
176
     1
 90
       50
176
     1
 90
       50
176
     1
290
     0
176
     1
 90
       50
176
     1
 62
   256
176
     0
 40
1.0
176
     0
 90
        2
176
     1
  1
strokes_ogs.tif
176
     1
290
     0
176
     1
 40
1.0
176
     1
 40
1.0
176
     1
  0
VISUALSTYLE
  5
600
102
{ACAD_REACTORS
330
5FA
102
}
330
5FA
100
AcDbVisualStyle
  2
Wireframe
 70
     5
177
     3
291
     0
 70
    58
 90
        0
176
     1
 90
        2
176
     1
 90
        0
176
     1
 90
        0
176
     1
 40
0.6
176
     1
 40
30.0
176
     1
 62
     7
420
 16777215
176
     1
 90
        1
176
     1
 90
        4
176
     1
 62
     7
176
     1
 62
   257
176
     1
 90
        1
176
     1
 90
        1
176
     1
 40
1.0
176
     1
 90
        0
176
     1
 62
   257
176
     1
 40
1.0
176
     1
 90
        1
176
     1
 90
        6
176
     1
 90
        2
176
     1
 62
     7
176
     1
 90
        3
176
     1
 90
        0
176
     1
 90
        0
176
     1
290
     0
176
     1
 90
        1
176
     1
 40
0.0
176
     1
 90
        0
176
     1
290
     0
176
     1
290
     1
176
     1
290
     1
176
     1
290
     0
176
     1
290
     0
176
     1
290
     0
176
     1
290
     0
176
     1
290
     0
176
     1
290
     0
176
     1
 90
       50
176
     1
 40
0.0
176
     1
 40
1.0
176
     1
 90
        0
176
     1
 62
    18
420
        0
176
     1
 90
       50
176
     1
 90
        3
176
     1
 62
     5
420
      255
176
     1
290
     0
176
     1
 90
       50
176
     1
 90
       50
176
     1
 90
       50
176
     1
290
     0
176
     1
 90
       50
176
     1
 62
   256
176
     0
 40
1.0
176
     0
 90
        2
176
     1
  1
strokes_ogs.tif
176
     1
290
     0
176
     1
 40
1.0
176
     1
 40
1.0
176
     1
  0
VISUALSTYLE
  5
610
102
{ACAD_REACTORS
330
5FA
102
}
330
5FA
100
AcDbVisualStyle
  2
X-Ray
 70
    25
177
     3
291
     0
 70
    58
 90
        2
176
     1
 90
        2
176
     1
 90
        1
176
     1
 90
        1
176
     1
 40
0.5
176
     1
 40
30.0
176
     1
 62
     7
420
 16777215
176
     1
 90
        1
176
     1
 90
        0
176
     1
 62
     7
176
     1
 62
   257
176
     1
 90
        1
176
     1
 90
        1
176
     1
 40
1.0
176
     1
 90
        8
176
     1
 62
     7
176
     1
 40
1.0
176
     1
 90
        1
176
     1
 90
        6
176
     1
 90
        2
176
     1
 62
     7
176
     1
 90
        3
176
     1
 90
        0
176
     1
 90
        0
176
     1
290
     0
176
     1
 90
       13
176
     1
 40
0.0
176
     1
 90
        0
176
     1
290
     0
176
     1
290
     1
176
     1
290
     1
176
     1
290
     0
176
     1
290
     0
176
     1
290
     0
176
     1
290
     0
176
     1
290
     0
176
     1
290
     0
176
     1
 90
       50
176
     1
 40
0.0
176
     1
 40
1.0
176
     1
 90
        0
176
     1
 62
    18
420
        0
176
     1
 90
       50
176
     1
 90
        3
176
     1
 62
     5
420
      255
176
     1
290
     0
176
     1
 90
       50
176
     1
 90
       50
176
     1
 90
       50
176
     1
290
     0
176
     1
 90
       50
176
     1
 62
   256
176
     0
 40
1.0
176
     0
 90
        2
176
     1
  1
strokes_ogs.tif
176
     1
290
     0
176
     1
 40
1.0
176
     1
 40
1.0
176
     1
  0
DICTIONARYVAR
  5
629
102
{ACAD_REACTORS
330
628
102
}
330
628
100
DictionaryVariables
280
     0
  1
1:1
  0
DICTIONARYVAR
  5
62D
102
{ACAD_REACTORS
330
628
102
}
330
628
100
DictionaryVariables
280
     0
  1
Standard
  0
CSACDOCUMENTOPTIONS
  5
61E
102
{ACAD_REACTORS
330
61D
102
}
330
61D
  0
XRECORD
  5
622
102
{ACAD_REACTORS
330
619
102
}
330
619
100
AcDbXrecord
280
     1
300
MC_VERSION_DATA
 90
       95
310
0600000002000000570000001C000000E404000000000000000000007801936764E5D8CF7A8393818115C460606066E0646662626666706006F214793899F8DE3171E725E6E53B3BBA2878E6951050AF75FEFFFFFF520032DE0F3057000000
  0
XRECORD
  5
61A
102
{ACAD_REACTORS
330
619
102
}
330
619
100
AcDbXrecord
280
     1
300
MCS_DOCUMENT_ID
 90
       60
310
0600000002000000150000001C000000E404000000000000000000007801E3CDCF34781370CAD1A9A5E7BD797CD32DD3FF4000006A810BC115000000
  0
XRECORD
  5
620
102
{ACAD_REACTORS
330
619
102
}
330
619
100
AcDbXrecord
280
     1
300
MCS_PARAMS_DATA
 90
     3313
310
0600000002000000F64B00001C000000E404000000000000000000007801C55C5B905C45199EE99EBDCCE67E5DA218172C303B91307B4B8C459531245054850D55591F78B236BB49B9BAC9E6B22A082A9655BE5865596569A965F9209288CF16503EC8834088C10B092404211702988430422E9084CDAEFFD7A7FBF4DFA7CF
310
D9D99D9D39930798FF3F7DCEF7DFFAFBBBFBCC6CDBFC46297252EECB48F9CDF5ED5234493921A5206D76815820B252E4F3225F128D7D5F59BF69E3162948D9A2D485B3131313747328BF06593E960915079422437734AA3BDAA5CCD053F5ED4FD2557D257BAB94DF007A03479F859BB2B22193C9108EC1CDCADC0464C27506
310
28605703E48886E0B986E10F03BF91E33707F8E3140E7A9091C8268236920C1C662240B94888A1C8E07600AE99C32D5131CA8B3925D172EFE62D7D6D9DABBA8ADDD6F17CE16D13F0457AE8AC9268DE32DABF73B07FCFA013F9BF8491D7C17E2550D8E8FFCA8DFE4E98B3929B331718B291824FFF72EB941D9E8E2211D5A93C
310
784A44C557923911258BD0C8640531AEEC61A924855B11378280384364A422680C0A928DB9C10CD89D581114199665B722B26E4590C82B0222AB08FAA8A60626C028E0044F81BA246F5360E167F2D27C56A10E05C058C13C59DEC6207679103AFC5DEADF992F2B284F67B31C8EE359B64A9665A62453228F64269D98455E3B
310
A4B35817F7EC92C86FB8EFFE8DBD5BEEDBDCAB0CD3B5FC8E99065A7E55D536E39DE7826237F1C8BBBCB3CFADFC93302087C80397EE69C2FF69CA32234F0763E41851010DA578E8294D435524988818E84710A7B2643B4F7C034F6CE5C9368F203BE8094C6268541D70D35EE4B585DAE170F4942EB8D2D422560A9917F34B62
310
CE86919D9F1F6DDBB36DD770FFC0B6BC682E898607BEB5737424F8D83B323AF07529CFC0B69BB96D9FD3CFF9B410ED79B1A42416161FEA29AEEDEEEC5ADF532C76DEF3C5AEEEB5CAECF97A60330D2C1C3579EAD0DA7621F20269BD6768746FDBF0D0DE51F3B0EE356B3ABBD6F474F7740D76770EACED08FCFC92BEAF13F701
310
B5AF7FEBF0B6B691ED6D7D23C3DBF6F4EF840FDA9AD583C58E81E240FFEAADDD5BD70EAC0E669D2A25F27FB610851F9335859F059541B9E5971EC7A5A7E83F2CE53DB9A4040555A2661A4DDBF2C560B2E54E7D5483931EF871F7C88E5DFDA3435B878687461F6EDB313248FE3596847C70DBDEBC682809D13B22E56A5856E4
310
E9998738519B6E2A89DCE6EDDBDB542AF4E4380F8F61A4965F57116093E5A052A06AF588670205D9A715FB49B140D81A90855F902680EBB8B3A3187EEA96F2B224E392BAF898328CB1AD47DA34C1601A1B421AD816D190715CC3F276A5DE067C546F03AED6DB808FEB6DC0B57A1BB00853B49EB3E0937A47E07ABD0D188301
310
71CB797197D3603B1D06BFCB6DB024827C0C834324E60945463B3712E196397079076E990B47228783C8E09631B8F129C211385B3E540C97413DC70673C524DEAD70BD23917B079179B782793791AE77D944EFDCDC5529988B13E1069D6092C472A7F777A6F648E4C184C88239C8822913E16AE29D48176E29E0727C316496
310
EF2A967C95165E504B0C2B218EEE82DD5C63513CD614C5091F6D6FA7551865CC5C5030A1E0A3E84BEC86CFD04EC5DD01AA74CBDB05AB8C403295A124BB2908C4B032B4682A032283FB103E391B4E03172C7199C4E0F88E871E8855ADA1482D3238FA1846E0B807A77785BFF935FE1D74369F5647D0D171CA5F4F09337C2559
310
105132935A503D6DBC7A94B54D2B6DF1E0339960F436A97441791E5EC104D40283580888C4FDED577B1FD8B4B9AF6FE30605D8AAD7F1F34A62F6DD5BBEC62E92057A31FEA25A9DB3F5FBD3C1729D9CD723B0BF0DE8402BB05A67160DDE4416E59079C0D9EAA575B7321F67115FC018C76AB5B3A33D06B68CBD9BFBDC93C073
310
800CC384FD360C544F539B6F02B1820953BE9D01DE01C0D85A6C50369A5AC4065C7760793B965800321749E4B50891C0C2AB0CAE9808178444974C70F875952A9381563C01BE9D08EAFA481283ABD8C7EF7870DAABE068E68833DFAC8EA0A3E3F87C0B07AA507B2311F0889285BDC333294C4E2DB27C67BA70ABD2857B688A
310
70552AA7873DB8489E55063D5D2DCBE9BB9E49F1E554A5083C922EDCA3E9C27D2F5DB8EF7B705EE9D87E1E920E88313AAE6AECF4FBD668D3D30DB4E51ADA9BEDB0D7AFCEB4DDED85F7C4ECF6551B3BCE2AFF6E835E49458EC94883D6E73C45753FAE614C3C0A0362777435D915EC025C33F7578776011DE6F3D066954C59D6
310
D76F86AC9CD58A53F4122CF0552BAE070AEA3B5AF15752304F1F47569D50AB71F41A31FA5A51C904CD43C6B0F51D2ACEFC112ACC4CC1B0FF086CE7AD5A4D096A005126387AAD451EE384D9C035A925859E39C1AA865EE9A9B8DA21CEE289167F7CF1D4C4BC7A125EC5AED5D8BB0B5A9D9144D134CFA71BF85A8D44BE568348
310
F6AA55A2F3CAEA4F6982FD21118CC249D3CBF852A586F244BA70FBD285DB9F085793EDE56E143F0AD06C6B4CB2242BDD3DD1419166C2865E81F9CE1648F3CBD84597B22E28992A3DDCE24C77F3F311A01C8A722828EC3CF15F7D987933F818F8E59BC138E5CD4CE8AC24C94E68BA32F5C3CBAB808B6B06B9936E642F9F804C
310
903AF2F3709D37832318A078E4B37AEBDCFAA66859945B9EBB25776BAE2DD3995995E9CA1433DDFA4DAC7ECE6FE93696E96BB06712968ED2661884A9EE40230F60D0D73DE8C858453B9E8E4212D5A9B0784A762662599FEDD18C9299F4094C728A91F536658E91CDA6DFC8E89F363B15B4CB31404FD2581CF722BBF229B517
310
430944E56AB2E2A8E3461950730F2B7ECA7BC570E389706E8BA9D241C744225C40C29385944F707279EA277D998065D9EAD604B1263E66D38513E9C2490F4EE7CC6E8AA89C3D9DA588701CA708AB6414C194931EE3FC0D4515D71A4FBFE712F8CB4A26532A6E8DCF01CA61A3745BE3F3C09F6E6B442F0CD7BAD36A8D2F002E
310
AE359E3BE646F6B8926D6BBC0CD9926FBEF08C5220B9BAE91D0E14769FF44B52301E3C00E8FA74C117BD24F396E22C7F1005F2DA2902EB76053DE720B0D3EE397F2F036AE8B24A3DE750225C4DF8F8A544B81AF69C7F2482D6C4C77F067093EF36FE359541FF8E0E8A50399BA22F63681CEF0EBDEBB2C3834A9E09EF1E0654
310
1D79F708F0A7CBBB956F495E015C1CEFEE3EEC46B65FC996771F856C09285F58A7148C77872F6104D6DC9A8897D30896D457015D1FDE3DEA25B91CEFF2EBD6EB0A68F718A0D3A6DDD7CA805699768F27C2D584925E4F84AB9476A39B03E744D09CD6610FF59F44E89A78FA46BA70DDDE0ADC144A4DBCEBF1E0221D416DC23D
310
1D715254A766A8A7AC60C1FF26021ED7783E889CD89C52F24C1ACF0940D5B1F19C047E7A8DE714E0E21ACFD5436EE339AB64DB78E44B91C6730003ECCB897CE1D28548E3798246B0C6731AD0536D3CB3E90740046E0B5FD5161351555C247A084506FA9607AAEBD39C44F1E2B63A5BDCA18E17B755B2E2664A322602C34C3A
310
0393625B51C09BC60D77315EF1E1C8DB80730A9C37D5B8CD0EBF3EA3A6FB4EA2A7C18B1B2746D53A5F7BB70C687C78291FE10E3A386EE3054657F9CB297E9CF703B0E71DFC4DA3397B4068C3CF33A1A81F02C2C920DB8E7ABF712005813923946BAE06DE453454B45CC32AF6311810C751E3F85A979E7874424F9299B34AB2
310
210DC430A45A3473162283FB2F3218C7FE178FBB1CF59692CDAD957C0DECAC3739580882F7E26636C4FC0874E66F42CE013F2EB274A4C323CBB88082C5B980AE4CFD4DC879C0C5B1FFF5E7DDC89E57324556799F2F34BC006EC70CD18A8318C0D9FF0AB6807CDBB19F46B0A4BE07E8B4D9FF8207EA504E3D7E65FA3E4C7226
310
B329B0E8D703AAFEBAA304E869379E693123CD68457958A4FF2F11AE86ECFF4119D078F6E7138AD87FF2370F86D6E1E38789702D76FED2134932CCA824CB8C811832A3160D33426421BD980847AF6F0C11D33DEECB1CFE9B7175D1F926045DE5BD8DBFBDBE94081764D0049324E6DDB40A8607F372225C4D16463974B5B836
310
F393232E193EA2E499B49986C93A780A6DA631A981D7A6CD34012EAECDFCFC5937B23F52B26D33BF83CCDBCC56A5C0ECD07DE7A7A7226D661D8D6033A419D0536D33E07F56B8C4CA7C0D48229F9610695A461A0883CE7B494E8DD95B004DF38E8247AB09FE45AC1A52EDAC32A0861DD8DA85D8A76276989D08579353913989
310
700119397510D9BB4CAB9DF096393711B4263ECE4B176E7EBA700B3C389DB3F0B5335AA6A7234288EA142D784A9083AFB414616018456CF24C3293C4CD2F49D3E5A5F0410CEE7E0F2E6A6FEA11580893E29AEE529C2FC11C4DF48D4AA628982DB44A422820F8563073C8F989CF2240392BED74F7768B819FDEDE6E09E0E29A
310
EE72FA030B3CB273954C91D5916E87CC9BEEFB4FAB1E6B73B10CFB6CBEB73B4423589D2D05F4CC9AAE2E4C768646F0614DBB4BD40606DDEA2539B5A67B13A0D36EBACBCA809A9055A7E9E24B8E0D79912B896C91FE0C1655C17843E129FA335B3277F4E8510807513CB9CC44868E210AF7FE19028691B0917E39482B125CF8
310
D4FF01F0B312DAF64B0000
  0
TABLECONTENT
  5
624
330
627
100
AcDbLinkedData
  1

300

100
AcDbLinkedTableData
 90
        5
300
COLUMN
  1
LINKEDTABLEDATACOLUMN_BEGIN
300

 91
        0
301
CUSTOMDATA
  1
DATAMAP_BEGIN
 90
        0
309
DATAMAP_END
309
LINKEDTABLEDATACOLUMN_END
  1
FORMATTEDTABLEDATACOLUMN_BEGIN
300
COLUMNTABLEFORMAT
  1
TABLEFORMAT_BEGIN
 90
        3
170
     0
309
TABLEFORMAT_END
309
FORMATTEDTABLEDATACOLUMN_END
  1
TABLECOLUMN_BEGIN
 90
        0
 40
13.333333
309
TABLECOLUMN_END
300
COLUMN
  1
LINKEDTABLEDATACOLUMN_BEGIN
300

 91
        0
301
CUSTOMDATA
  1
DATAMAP_BEGIN
 90
        0
309
DATAMAP_END
309
LINKEDTABLEDATACOLUMN_END
  1
FORMATTEDTABLEDATACOLUMN_BEGIN
300
COLUMNTABLEFORMAT
  1
TABLEFORMAT_BEGIN
 90
        3
170
     0
309
TABLEFORMAT_END
309
FORMATTEDTABLEDATACOLUMN_END
  1
TABLECOLUMN_BEGIN
 90
        0
 40
13.333333
309
TABLECOLUMN_END
300
COLUMN
  1
LINKEDTABLEDATACOLUMN_BEGIN
300

 91
        0
301
CUSTOMDATA
  1
DATAMAP_BEGIN
 90
        0
309
DATAMAP_END
309
LINKEDTABLEDATACOLUMN_END
  1
FORMATTEDTABLEDATACOLUMN_BEGIN
300
COLUMNTABLEFORMAT
  1
TABLEFORMAT_BEGIN
 90
        3
170
     0
309
TABLEFORMAT_END
309
FORMATTEDTABLEDATACOLUMN_END
  1
TABLECOLUMN_BEGIN
 90
        0
 40
13.333333
309
TABLECOLUMN_END
300
COLUMN
  1
LINKEDTABLEDATACOLUMN_BEGIN
300

 91
        0
301
CUSTOMDATA
  1
DATAMAP_BEGIN
 90
        0
309
DATAMAP_END
309
LINKEDTABLEDATACOLUMN_END
  1
FORMATTEDTABLEDATACOLUMN_BEGIN
300
COLUMNTABLEFORMAT
  1
TABLEFORMAT_BEGIN
 90
        3
170
     0
309
TABLEFORMAT_END
309
FORMATTEDTABLEDATACOLUMN_END
  1
TABLECOLUMN_BEGIN
 90
        0
 40
53.333333
309
TABLECOLUMN_END
300
COLUMN
  1
LINKEDTABLEDATACOLUMN_BEGIN
300

 91
        0
301
CUSTOMDATA
  1
DATAMAP_BEGIN
 90
        0
309
DATAMAP_END
309
LINKEDTABLEDATACOLUMN_END
  1
FORMATTEDTABLEDATACOLUMN_BEGIN
300
COLUMNTABLEFORMAT
  1
TABLEFORMAT_BEGIN
 90
        3
170
     0
309
TABLEFORMAT_END
309
FORMATTEDTABLEDATACOLUMN_END
  1
TABLECOLUMN_BEGIN
 90
        0
 40
26.666667
309
TABLECOLUMN_END
 91
        5
301
ROW
  1
LINKEDTABLEDATAROW_BEGIN
 90
        5
300
CELL
  1
LINKEDTABLEDATACELL_BEGIN
 90
        0
300

 91
        0
301
CUSTOMDATA
  1
DATAMAP_BEGIN
 90
        1
300
ACAD_ROUNDTRIP_2008_CELL_CHECKSUM
301
DATAMAP_VALUE
 93
        2
 90
        2
140
32.0
 94
        0
300

302

304
ACVALUE_END
309
DATAMAP_END
 92
        0
 95
        1
302
CONTENT
  1
CELLCONTENT_BEGIN
 90
        1
300
VALUE
 93
        2
 90
        4
  1
 
 94
        0
300

302
 
304
ACVALUE_END
 91
        0
309
CELLCONTENT_END
  1
FORMATTEDCELLCONTENT_BEGIN
170
     1
300
CONTENTFORMAT
  1
CONTENTFORMAT_BEGIN
 90
      132
 91
        0
 92
      512
 93
        0
300

 40
0.0
140
1.0
 94
        1
 62
     0
340
0
144
4.666667
309
CONTENTFORMAT_END
309
FORMATTEDCELLCONTENT_END
309
LINKEDTABLEDATACELL_END
  1
FORMATTEDTABLEDATACELL_BEGIN
300
CELLTABLEFORMAT
  1
TABLEFORMAT_BEGIN
 90
        1
170
     1
 91
        0
 92
        0
 62
   257
 93
        1
300
CONTENTFORMAT
  1
CONTENTFORMAT_BEGIN
 90
        0
 91
        0
 92
      512
 93
        0
300

 40
0.0
140
1.0
 94
        1
 62
     0
340
0
144
0.18
309
CONTENTFORMAT_END
171
     0
 94
        0
309
TABLEFORMAT_END
309
FORMATTEDTABLEDATACELL_END
  1
TABLECELL_BEGIN
 90
        0
 91
        0
309
TABLECELL_END
300
CELL
  1
LINKEDTABLEDATACELL_BEGIN
 90
        0
300

 91
        0
301
CUSTOMDATA
  1
DATAMAP_BEGIN
 90
        0
309
DATAMAP_END
 92
        0
 95
        0
309
LINKEDTABLEDATACELL_END
  1
FORMATTEDTABLEDATACELL_BEGIN
300
CELLTABLEFORMAT
  1
TABLEFORMAT_BEGIN
 90
        1
170
     1
 91
        0
 92
        0
 62
   257
 93
        1
300
CONTENTFORMAT
  1
CONTENTFORMAT_BEGIN
 90
        0
 91
        0
 92
      512
 93
        0
300

 40
0.0
140
1.0
 94
        1
 62
     0
340
0
144
0.18
309
CONTENTFORMAT_END
171
     0
 94
        0
309
TABLEFORMAT_END
309
FORMATTEDTABLEDATACELL_END
  1
TABLECELL_BEGIN
 90
        0
 91
        0
309
TABLECELL_END
300
CELL
  1
LINKEDTABLEDATACELL_BEGIN
 90
        0
300

 91
        0
301
CUSTOMDATA
  1
DATAMAP_BEGIN
 90
        0
309
DATAMAP_END
 92
        0
 95
        0
309
LINKEDTABLEDATACELL_END
  1
FORMATTEDTABLEDATACELL_BEGIN
300
CELLTABLEFORMAT
  1
TABLEFORMAT_BEGIN
 90
        1
170
     1
 91
        0
 92
        0
 62
   257
 93
        1
300
CONTENTFORMAT
  1
CONTENTFORMAT_BEGIN
 90
        0
 91
        0
 92
      512
 93
        0
300

 40
0.0
140
1.0
 94
        1
 62
     0
340
0
144
0.18
309
CONTENTFORMAT_END
171
     0
 94
        0
309
TABLEFORMAT_END
309
FORMATTEDTABLEDATACELL_END
  1
TABLECELL_BEGIN
 90
        0
 91
        0
309
TABLECELL_END
300
CELL
  1
LINKEDTABLEDATACELL_BEGIN
 90
        0
300

 91
        0
301
CUSTOMDATA
  1
DATAMAP_BEGIN
 90
        1
300
ACAD_ROUNDTRIP_2008_CELL_CHECKSUM
301
DATAMAP_VALUE
 93
        2
 90
        2
140
2319.0
 94
        0
300

302

304
ACVALUE_END
309
DATAMAP_END
 92
        0
 95
        1
302
CONTENT
  1
CELLCONTENT_BEGIN
 90
        1
300
VALUE
 93
        2
 90
        4
  1
SK3300_C
 94
        0
300

302
SK3300_C
304
ACVALUE_END
 91
        0
309
CELLCONTENT_END
  1
FORMATTEDCELLCONTENT_BEGIN
170
     1
300
CONTENTFORMAT
  1
CONTENTFORMAT_BEGIN
 90
      132
 91
        0
 92
      512
 93
        0
300

 40
0.0
140
1.0
 94
        1
 62
     0
340
0
144
4.0
309
CONTENTFORMAT_END
309
FORMATTEDCELLCONTENT_END
309
LINKEDTABLEDATACELL_END
  1
FORMATTEDTABLEDATACELL_BEGIN
300
CELLTABLEFORMAT
  1
TABLEFORMAT_BEGIN
 90
        1
170
     1
 91
       16
 92
        0
 62
   257
 93
        1
300
CONTENTFORMAT
  1
CONTENTFORMAT_BEGIN
 90
       16
 91
        0
 92
      512
 93
        0
300

 40
0.0
140
1.0
 94
        4
 62
     0
340
0
144
0.18
309
CONTENTFORMAT_END
171
     0
 94
        4
 95
        1
302
GRIDFORMAT
  1
GRIDFORMAT_BEGIN
 90
       26
 91
        1
 62
     0
 92
       -2
340
0
 93
        0
 40
0.045
309
GRIDFORMAT_END
 95
        4
302
GRIDFORMAT
  1
GRIDFORMAT_BEGIN
 90
       26
 91
        1
 62
     0
 92
       -2
340
0
 93
        0
 40
0.045
309
GRIDFORMAT_END
 95
        8
302
GRIDFORMAT
  1
GRIDFORMAT_BEGIN
 90
       26
 91
        1
 62
     0
 92
       -2
340
0
 93
        0
 40
0.045
309
GRIDFORMAT_END
 95
       32
302
GRIDFORMAT
  1
GRIDFORMAT_BEGIN
 90
       26
 91
        1
 62
     0
 92
       -2
340
0
 93
        0
 40
0.045
309
GRIDFORMAT_END
309
TABLEFORMAT_END
309
FORMATTEDTABLEDATACELL_END
  1
TABLECELL_BEGIN
 90
        0
 91
        0
309
TABLECELL_END
300
CELL
  1
LINKEDTABLEDATACELL_BEGIN
 90
        0
300

 91
        0
301
CUSTOMDATA
  1
DATAMAP_BEGIN
 90
        1
300
ACAD_ROUNDTRIP_2008_CELL_CHECKSUM
301
DATAMAP_VALUE
 93
        2
 90
        2
140
1410.0
 94
        0
300

302

304
ACVALUE_END
309
DATAMAP_END
 92
        0
 95
        1
302
CONTENT
  1
CELLCONTENT_BEGIN
 90
        1
300
VALUE
 93
        2
 90
        4
  1
Rev:02
 94
        0
300

302
Rev:02
304
ACVALUE_END
 91
        0
309
CELLCONTENT_END
  1
FORMATTEDCELLCONTENT_BEGIN
170
     1
300
CONTENTFORMAT
  1
CONTENTFORMAT_BEGIN
 90
      132
 91
        0
 92
      512
 93
        0
300

 40
0.0
140
1.0
 94
        1
 62
     0
340
0
144
4.666667
309
CONTENTFORMAT_END
309
FORMATTEDCELLCONTENT_END
309
LINKEDTABLEDATACELL_END
  1
FORMATTEDTABLEDATACELL_BEGIN
300
CELLTABLEFORMAT
  1
TABLEFORMAT_BEGIN
 90
        1
170
     1
 91
       16
 92
        0
 62
   257
 93
        1
300
CONTENTFORMAT
  1
CONTENTFORMAT_BEGIN
 90
       16
 91
        0
 92
      512
 93
        0
300

 40
0.0
140
1.0
 94
        1
 62
     0
340
0
144
0.18
309
CONTENTFORMAT_END
171
     0
 94
        4
 95
        1
302
GRIDFORMAT
  1
GRIDFORMAT_BEGIN
 90
       26
 91
        1
 62
     0
 92
       -2
340
0
 93
        0
 40
0.045
309
GRIDFORMAT_END
 95
        4
302
GRIDFORMAT
  1
GRIDFORMAT_BEGIN
 90
       26
 91
        1
 62
     0
 92
       -2
340
0
 93
        0
 40
0.045
309
GRIDFORMAT_END
 95
        8
302
GRIDFORMAT
  1
GRIDFORMAT_BEGIN
 90
       26
 91
        1
 62
     0
 92
       -2
340
0
 93
        0
 40
0.045
309
GRIDFORMAT_END
 95
       32
302
GRIDFORMAT
  1
GRIDFORMAT_BEGIN
 90
       26
 91
        1
 62
     0
 92
       -2
340
0
 93
        0
 40
0.045
309
GRIDFORMAT_END
309
TABLEFORMAT_END
309
FORMATTEDTABLEDATACELL_END
  1
TABLECELL_BEGIN
 90
        0
 91
        0
309
TABLECELL_END
 91
        0
301
CUSTOMDATA
  1
DATAMAP_BEGIN
 90
        0
309
DATAMAP_END
309
LINKEDTABLEDATAROW_END
  1
FORMATTEDTABLEDATAROW_BEGIN
300
ROWTABLEFORMAT
  1
TABLEFORMAT_BEGIN
 90
        2
170
     0
309
TABLEFORMAT_END
309
FORMATTEDTABLEDATAROW_END
  1
TABLEROW_BEGIN
 90
        1
 40
8.0
309
TABLEROW_END
301
ROW
  1
LINKEDTABLEDATAROW_BEGIN
 90
        5
300
CELL
  1
LINKEDTABLEDATACELL_BEGIN
 90
        0
300

 91
        0
301
CUSTOMDATA
  1
DATAMAP_BEGIN
 90
        0
309
DATAMAP_END
 92
        0
 95
        0
309
LINKEDTABLEDATACELL_END
  1
FORMATTEDTABLEDATACELL_BEGIN
300
CELLTABLEFORMAT
  1
TABLEFORMAT_BEGIN
 90
        1
170
     1
 91
        0
 92
        0
 62
   257
 93
        1
300
CONTENTFORMAT
  1
CONTENTFORMAT_BEGIN
 90
        0
 91
        0
 92
      512
 93
        0
300

 40
0.0
140
1.0
 94
        1
 62
     0
340
0
144
0.18
309
CONTENTFORMAT_END
171
     0
 94
        0
309
TABLEFORMAT_END
309
FORMATTEDTABLEDATACELL_END
  1
TABLECELL_BEGIN
 90
        0
 91
        0
309
TABLECELL_END
300
CELL
  1
LINKEDTABLEDATACELL_BEGIN
 90
        0
300

 91
        0
301
CUSTOMDATA
  1
DATAMAP_BEGIN
 90
        0
309
DATAMAP_END
 92
        0
 95
        0
309
LINKEDTABLEDATACELL_END
  1
FORMATTEDTABLEDATACELL_BEGIN
300
CELLTABLEFORMAT
  1
TABLEFORMAT_BEGIN
 90
        1
170
     1
 91
        0
 92
        0
 62
   257
 93
        1
300
CONTENTFORMAT
  1
CONTENTFORMAT_BEGIN
 90
        0
 91
        0
 92
      512
 93
        0
300

 40
0.0
140
1.0
 94
        1
 62
     0
340
0
144
0.18
309
CONTENTFORMAT_END
171
     0
 94
        0
309
TABLEFORMAT_END
309
FORMATTEDTABLEDATACELL_END
  1
TABLECELL_BEGIN
 90
        0
 91
        0
309
TABLECELL_END
300
CELL
  1
LINKEDTABLEDATACELL_BEGIN
 90
        0
300

 91
        0
301
CUSTOMDATA
  1
DATAMAP_BEGIN
 90
        0
309
DATAMAP_END
 92
        0
 95
        0
309
LINKEDTABLEDATACELL_END
  1
FORMATTEDTABLEDATACELL_BEGIN
300
CELLTABLEFORMAT
  1
TABLEFORMAT_BEGIN
 90
        1
170
     1
 91
        0
 92
        0
 62
   257
 93
        1
300
CONTENTFORMAT
  1
CONTENTFORMAT_BEGIN
 90
        0
 91
        0
 92
      512
 93
        0
300

 40
0.0
140
1.0
 94
        1
 62
     0
340
0
144
0.18
309
CONTENTFORMAT_END
171
     0
 94
        0
309
TABLEFORMAT_END
309
FORMATTEDTABLEDATACELL_END
  1
TABLECELL_BEGIN
 90
        0
 91
        0
309
TABLECELL_END
300
CELL
  1
LINKEDTABLEDATACELL_BEGIN
 90
        0
300

 91
        0
301
CUSTOMDATA
  1
DATAMAP_BEGIN
 90
        1
300
ACAD_ROUNDTRIP_2008_CELL_CHECKSUM
301
DATAMAP_VALUE
 93
        2
 90
        2
140
3105.0
 94
        0
300

302

304
ACVALUE_END
309
DATAMAP_END
 92
        0
 95
        1
302
CONTENT
  1
CELLCONTENT_BEGIN
 90
        1
300
VALUE
 93
        2
 90
        4
  1
Scale:1:1
 94
        0
300

302
Scale:1:1
304
ACVALUE_END
 91
        0
309
CELLCONTENT_END
  1
FORMATTEDCELLCONTENT_BEGIN
170
     1
300
CONTENTFORMAT
  1
CONTENTFORMAT_BEGIN
 90
      132
 91
        0
 92
      512
 93
        0
300

 40
0.0
140
1.0
 94
        1
 62
     0
340
0
144
4.666667
309
CONTENTFORMAT_END
309
FORMATTEDCELLCONTENT_END
309
LINKEDTABLEDATACELL_END
  1
FORMATTEDTABLEDATACELL_BEGIN
300
CELLTABLEFORMAT
  1
TABLEFORMAT_BEGIN
 90
        1
170
     1
 91
       16
 92
        0
 62
   257
 93
        1
300
CONTENTFORMAT
  1
CONTENTFORMAT_BEGIN
 90
       16
 91
        0
 92
      512
 93
        0
300

 40
0.0
140
1.0
 94
        1
 62
     0
340
0
144
0.18
309
CONTENTFORMAT_END
171
     0
 94
        4
 95
        1
302
GRIDFORMAT
  1
GRIDFORMAT_BEGIN
 90
       26
 91
        1
 62
     0
 92
       -2
340
0
 93
        0
 40
0.045
309
GRIDFORMAT_END
 95
        4
302
GRIDFORMAT
  1
GRIDFORMAT_BEGIN
 90
       26
 91
        1
 62
     0
 92
       -2
340
0
 93
        0
 40
0.045
309
GRIDFORMAT_END
 95
        8
302
GRIDFORMAT
  1
GRIDFORMAT_BEGIN
 90
       26
 91
        1
 62
     0
 92
       -2
340
0
 93
        0
 40
0.045
309
GRIDFORMAT_END
 95
       32
302
GRIDFORMAT
  1
GRIDFORMAT_BEGIN
 90
       26
 91
        1
 62
     0
 92
       -2
340
0
 93
        0
 40
0.045
309
GRIDFORMAT_END
309
TABLEFORMAT_END
309
FORMATTEDTABLEDATACELL_END
  1
TABLECELL_BEGIN
 90
        0
 91
        0
309
TABLECELL_END
300
CELL
  1
LINKEDTABLEDATACELL_BEGIN
 90
        0
300

 91
        0
301
CUSTOMDATA
  1
DATAMAP_BEGIN
 90
        1
300
ACAD_ROUNDTRIP_2008_CELL_CHECKSUM
301
DATAMAP_VALUE
 93
        2
 90
        2
140
4422.0
 94
        0
300

302

304
ACVALUE_END
309
DATAMAP_END
 92
        0
 95
        1
302
CONTENT
  1
CELLCONTENT_BEGIN
 90
        1
300
VALUE
 93
        2
 90
        4
  1
3200 by 2500
 94
        0
300

302
3200 by 2500
304
ACVALUE_END
 91
        0
309
CELLCONTENT_END
  1
FORMATTEDCELLCONTENT_BEGIN
170
     1
300
CONTENTFORMAT
  1
CONTENTFORMAT_BEGIN
 90
      132
 91
        0
 92
      512
 93
        0
300

 40
0.0
140
1.0
 94
        1
 62
     0
340
0
144
2.666667
309
CONTENTFORMAT_END
309
FORMATTEDCELLCONTENT_END
309
LINKEDTABLEDATACELL_END
  1
FORMATTEDTABLEDATACELL_BEGIN
300
CELLTABLEFORMAT
  1
TABLEFORMAT_BEGIN
 90
        1
170
     1
 91
       16
 92
        0
 62
   257
 93
        1
300
CONTENTFORMAT
  1
CONTENTFORMAT_BEGIN
 90
       16
 91
        0
 92
      512
 93
        0
300

 40
0.0
140
1.0
 94
        4
 62
     0
340
0
144
0.18
309
CONTENTFORMAT_END
171
     0
 94
        4
 95
        1
302
GRIDFORMAT
  1
GRIDFORMAT_BEGIN
 90
       26
 91
        1
 62
     0
 92
       -2
340
0
 93
        0
 40
0.045
309
GRIDFORMAT_END
 95
        4
302
GRIDFORMAT
  1
GRIDFORMAT_BEGIN
 90
       26
 91
        1
 62
     0
 92
       -2
340
0
 93
        0
 40
0.045
309
GRIDFORMAT_END
 95
        8
302
GRIDFORMAT
  1
GRIDFORMAT_BEGIN
 90
       26
 91
        1
 62
     0
 92
       -2
340
0
 93
        0
 40
0.045
309
GRIDFORMAT_END
 95
       32
302
GRIDFORMAT
  1
GRIDFORMAT_BEGIN
 90
       26
 91
        1
 62
     0
 92
       -2
340
0
 93
        0
 40
0.045
309
GRIDFORMAT_END
309
TABLEFORMAT_END
309
FORMATTEDTABLEDATACELL_END
  1
TABLECELL_BEGIN
 90
        0
 91
        0
309
TABLECELL_END
 91
        0
301
CUSTOMDATA
  1
DATAMAP_BEGIN
 90
        0
309
DATAMAP_END
309
LINKEDTABLEDATAROW_END
  1
FORMATTEDTABLEDATAROW_BEGIN
300
ROWTABLEFORMAT
  1
TABLEFORMAT_BEGIN
 90
        2
170
     0
309
TABLEFORMAT_END
309
FORMATTEDTABLEDATAROW_END
  1
TABLEROW_BEGIN
 90
        2
 40
8.0
309
TABLEROW_END
301
ROW
  1
LINKEDTABLEDATAROW_BEGIN
 90
        5
300
CELL
  1
LINKEDTABLEDATACELL_BEGIN
 90
        0
300

 91
        0
301
CUSTOMDATA
  1
DATAMAP_BEGIN
 90
        0
309
DATAMAP_END
 92
        0
 95
        0
309
LINKEDTABLEDATACELL_END
  1
FORMATTEDTABLEDATACELL_BEGIN
300
CELLTABLEFORMAT
  1
TABLEFORMAT_BEGIN
 90
        1
170
     1
 91
        0
 92
        0
 62
   257
 93
        1
300
CONTENTFORMAT
  1
CONTENTFORMAT_BEGIN
 90
        0
 91
        0
 92
      512
 93
        0
300

 40
0.0
140
1.0
 94
        1
 62
     0
340
0
144
0.18
309
CONTENTFORMAT_END
171
     0
 94
        0
309
TABLEFORMAT_END
309
FORMATTEDTABLEDATACELL_END
  1
TABLECELL_BEGIN
 90
        0
 91
        0
309
TABLECELL_END
300
CELL
  1
LINKEDTABLEDATACELL_BEGIN
 90
        0
300

 91
        0
301
CUSTOMDATA
  1
DATAMAP_BEGIN
 90
        0
309
DATAMAP_END
 92
        0
 95
        0
309
LINKEDTABLEDATACELL_END
  1
FORMATTEDTABLEDATACELL_BEGIN
300
CELLTABLEFORMAT
  1
TABLEFORMAT_BEGIN
 90
        1
170
     1
 91
        0
 92
        0
 62
   257
 93
        1
300
CONTENTFORMAT
  1
CONTENTFORMAT_BEGIN
 90
        0
 91
        0
 92
      512
 93
        0
300

 40
0.0
140
1.0
 94
        1
 62
     0
340
0
144
0.18
309
CONTENTFORMAT_END
171
     0
 94
        0
309
TABLEFORMAT_END
309
FORMATTEDTABLEDATACELL_END
  1
TABLECELL_BEGIN
 90
        0
 91
        0
309
TABLECELL_END
300
CELL
  1
LINKEDTABLEDATACELL_BEGIN
 90
        0
300

 91
        0
301
CUSTOMDATA
  1
DATAMAP_BEGIN
 90
        0
309
DATAMAP_END
 92
        0
 95
        0
309
LINKEDTABLEDATACELL_END
  1
FORMATTEDTABLEDATACELL_BEGIN
300
CELLTABLEFORMAT
  1
TABLEFORMAT_BEGIN
 90
        1
170
     1
 91
        0
 92
        0
 62
   257
 93
        1
300
CONTENTFORMAT
  1
CONTENTFORMAT_BEGIN
 90
        0
 91
        0
 92
      512
 93
        0
300

 40
0.0
140
1.0
 94
        1
 62
     0
340
0
144
0.18
309
CONTENTFORMAT_END
171
     0
 94
        0
309
TABLEFORMAT_END
309
FORMATTEDTABLEDATACELL_END
  1
TABLECELL_BEGIN
 90
        0
 91
        0
309
TABLECELL_END
300
CELL
  1
LINKEDTABLEDATACELL_BEGIN
 90
        0
300

 91
        0
301
CUSTOMDATA
  1
DATAMAP_BEGIN
 90
        1
300
ACAD_ROUNDTRIP_2008_CELL_CHECKSUM
301
DATAMAP_VALUE
 93
        2
 90
        2
140
2453.0
 94
        0
300

302

304
ACVALUE_END
309
DATAMAP_END
 92
        0
 95
        1
302
CONTENT
  1
CELLCONTENT_BEGIN
 90
        1
300
VALUE
 93
        2
 90
        4
  1
SNACK 3.3
 94
        0
300

302
SNACK 3.3
304
ACVALUE_END
 91
        0
309
CELLCONTENT_END
  1
FORMATTEDCELLCONTENT_BEGIN
170
     1
300
CONTENTFORMAT
  1
CONTENTFORMAT_BEGIN
 90
      132
 91
        0
 92
      512
 93
        0
300

 40
0.0
140
1.0
 94
        1
 62
     0
340
0
144
4.666667
309
CONTENTFORMAT_END
309
FORMATTEDCELLCONTENT_END
309
LINKEDTABLEDATACELL_END
  1
FORMATTEDTABLEDATACELL_BEGIN
300
CELLTABLEFORMAT
  1
TABLEFORMAT_BEGIN
 90
        1
170
     1
 91
       16
 92
        0
 62
   257
 93
        1
300
CONTENTFORMAT
  1
CONTENTFORMAT_BEGIN
 90
       16
 91
        0
 92
      512
 93
        0
300

 40
0.0
140
1.0
 94
        4
 62
     0
340
0
144
0.18
309
CONTENTFORMAT_END
171
     0
 94
        4
 95
        1
302
GRIDFORMAT
  1
GRIDFORMAT_BEGIN
 90
       26
 91
        1
 62
     0
 92
       -2
340
0
 93
        0
 40
0.045
309
GRIDFORMAT_END
 95
        4
302
GRIDFORMAT
  1
GRIDFORMAT_BEGIN
 90
       26
 91
        1
 62
     0
 92
       -2
340
0
 93
        0
 40
0.045
309
GRIDFORMAT_END
 95
        8
302
GRIDFORMAT
  1
GRIDFORMAT_BEGIN
 90
       26
 91
        1
 62
     0
 92
       -2
340
0
 93
        0
 40
0.045
309
GRIDFORMAT_END
 95
       32
302
GRIDFORMAT
  1
GRIDFORMAT_BEGIN
 90
       26
 91
        1
 62
     0
 92
       -2
340
0
 93
        0
 40
0.045
309
GRIDFORMAT_END
309
TABLEFORMAT_END
309
FORMATTEDTABLEDATACELL_END
  1
TABLECELL_BEGIN
 90
        0
 91
        0
309
TABLECELL_END
300
CELL
  1
LINKEDTABLEDATACELL_BEGIN
 90
        0
300

 91
        0
301
CUSTOMDATA
  1
DATAMAP_BEGIN
 90
        0
309
DATAMAP_END
 92
        0
 95
        0
309
LINKEDTABLEDATACELL_END
  1
FORMATTEDTABLEDATACELL_BEGIN
300
CELLTABLEFORMAT
  1
TABLEFORMAT_BEGIN
 90
        1
170
     1
 91
        0
 92
        0
 62
   257
 93
        1
300
CONTENTFORMAT
  1
CONTENTFORMAT_BEGIN
 90
        0
 91
        0
 92
      512
 93
        0
300

 40
0.0
140
1.0
 94
        1
 62
     0
340
0
144
0.18
309
CONTENTFORMAT_END
171
     0
 94
        0
309
TABLEFORMAT_END
309
FORMATTEDTABLEDATACELL_END
  1
TABLECELL_BEGIN
 90
        0
 91
        0
309
TABLECELL_END
 91
        0
301
CUSTOMDATA
  1
DATAMAP_BEGIN
 90
        0
309
DATAMAP_END
309
LINKEDTABLEDATAROW_END
  1
FORMATTEDTABLEDATAROW_BEGIN
300
ROWTABLEFORMAT
  1
TABLEFORMAT_BEGIN
 90
        2
170
     0
309
TABLEFORMAT_END
309
FORMATTEDTABLEDATAROW_END
  1
TABLEROW_BEGIN
 90
        3
 40
13.333333
309
TABLEROW_END
301
ROW
  1
LINKEDTABLEDATAROW_BEGIN
 90
        5
300
CELL
  1
LINKEDTABLEDATACELL_BEGIN
 90
        0
300

 91
        0
301
CUSTOMDATA
  1
DATAMAP_BEGIN
 90
        0
309
DATAMAP_END
 92
        0
 95
        0
309
LINKEDTABLEDATACELL_END
  1
FORMATTEDTABLEDATACELL_BEGIN
300
CELLTABLEFORMAT
  1
TABLEFORMAT_BEGIN
 90
        1
170
     1
 91
        0
 92
        0
 62
   257
 93
        1
300
CONTENTFORMAT
  1
CONTENTFORMAT_BEGIN
 90
        0
 91
        0
 92
      512
 93
        0
300

 40
0.0
140
1.0
 94
        1
 62
     0
340
0
144
0.18
309
CONTENTFORMAT_END
171
     0
 94
        0
309
TABLEFORMAT_END
309
FORMATTEDTABLEDATACELL_END
  1
TABLECELL_BEGIN
 90
        0
 91
        0
309
TABLECELL_END
300
CELL
  1
LINKEDTABLEDATACELL_BEGIN
 90
        0
300

 91
        0
301
CUSTOMDATA
  1
DATAMAP_BEGIN
 90
        0
309
DATAMAP_END
 92
        0
 95
        0
309
LINKEDTABLEDATACELL_END
  1
FORMATTEDTABLEDATACELL_BEGIN
300
CELLTABLEFORMAT
  1
TABLEFORMAT_BEGIN
 90
        1
170
     1
 91
        0
 92
        0
 62
   257
 93
        1
300
CONTENTFORMAT
  1
CONTENTFORMAT_BEGIN
 90
        0
 91
        0
 92
      512
 93
        0
300

 40
0.0
140
1.0
 94
        1
 62
     0
340
0
144
0.18
309
CONTENTFORMAT_END
171
     0
 94
        0
309
TABLEFORMAT_END
309
FORMATTEDTABLEDATACELL_END
  1
TABLECELL_BEGIN
 90
        0
 91
        0
309
TABLECELL_END
300
CELL
  1
LINKEDTABLEDATACELL_BEGIN
 90
        0
300

 91
        0
301
CUSTOMDATA
  1
DATAMAP_BEGIN
 90
        0
309
DATAMAP_END
 92
        0
 95
        0
309
LINKEDTABLEDATACELL_END
  1
FORMATTEDTABLEDATACELL_BEGIN
300
CELLTABLEFORMAT
  1
TABLEFORMAT_BEGIN
 90
        1
170
     1
 91
        0
 92
        0
 62
   257
 93
        1
300
CONTENTFORMAT
  1
CONTENTFORMAT_BEGIN
 90
        0
 91
        0
 92
      512
 93
        0
300

 40
0.0
140
1.0
 94
        1
 62
     0
340
0
144
0.18
309
CONTENTFORMAT_END
171
     0
 94
        0
309
TABLEFORMAT_END
309
FORMATTEDTABLEDATACELL_END
  1
TABLECELL_BEGIN
 90
        0
 91
        0
309
TABLECELL_END
300
CELL
  1
LINKEDTABLEDATACELL_BEGIN
 90
        0
300

 91
        0
301
CUSTOMDATA
  1
DATAMAP_BEGIN
 90
        1
300
ACAD_ROUNDTRIP_2008_CELL_CHECKSUM
301
DATAMAP_VALUE
 93
        2
 90
        2
140
1016.0
 94
        0
300

302

304
ACVALUE_END
309
DATAMAP_END
 92
        0
 95
        1
302
CONTENT
  1
CELLCONTENT_BEGIN
 90
        1
300
VALUE
 93
        2
 90
        4
  1
DATE:
 94
        0
300

302
DATE:
304
ACVALUE_END
 91
        0
309
CELLCONTENT_END
  1
FORMATTEDCELLCONTENT_BEGIN
170
     1
300
CONTENTFORMAT
  1
CONTENTFORMAT_BEGIN
 90
      132
 91
        0
 92
      512
 93
        0
300

 40
0.0
140
1.0
 94
        1
 62
     0
340
0
144
3.333333
309
CONTENTFORMAT_END
309
FORMATTEDCELLCONTENT_END
309
LINKEDTABLEDATACELL_END
  1
FORMATTEDTABLEDATACELL_BEGIN
300
CELLTABLEFORMAT
  1
TABLEFORMAT_BEGIN
 90
        1
170
     1
 91
       16
 92
        0
 62
   257
 93
        1
300
CONTENTFORMAT
  1
CONTENTFORMAT_BEGIN
 90
       16
 91
        0
 92
      512
 93
        0
300

 40
0.0
140
1.0
 94
        4
 62
     0
340
0
144
0.18
309
CONTENTFORMAT_END
171
     0
 94
        4
 95
        1
302
GRIDFORMAT
  1
GRIDFORMAT_BEGIN
 90
       26
 91
        1
 62
     0
 92
       -2
340
0
 93
        0
 40
0.045
309
GRIDFORMAT_END
 95
        4
302
GRIDFORMAT
  1
GRIDFORMAT_BEGIN
 90
       26
 91
        1
 62
     0
 92
       -2
340
0
 93
        0
 40
0.045
309
GRIDFORMAT_END
 95
        8
302
GRIDFORMAT
  1
GRIDFORMAT_BEGIN
 90
       26
 91
        1
 62
     0
 92
       -2
340
0
 93
        0
 40
0.045
309
GRIDFORMAT_END
 95
       32
302
GRIDFORMAT
  1
GRIDFORMAT_BEGIN
 90
       26
 91
        1
 62
     0
 92
       -2
340
0
 93
        0
 40
0.045
309
GRIDFORMAT_END
309
TABLEFORMAT_END
309
FORMATTEDTABLEDATACELL_END
  1
TABLECELL_BEGIN
 90
        0
 91
        0
309
TABLECELL_END
300
CELL
  1
LINKEDTABLEDATACELL_BEGIN
 90
        0
300

 91
        0
301
CUSTOMDATA
  1
DATAMAP_BEGIN
 90
        0
309
DATAMAP_END
 92
        0
 95
        0
309
LINKEDTABLEDATACELL_END
  1
FORMATTEDTABLEDATACELL_BEGIN
300
CELLTABLEFORMAT
  1
TABLEFORMAT_BEGIN
 90
        1
170
     1
 91
        0
 92
        0
 62
   257
 93
        1
300
CONTENTFORMAT
  1
CONTENTFORMAT_BEGIN
 90
        0
 91
        0
 92
      512
 93
        0
300

 40
0.0
140
1.0
 94
        1
 62
     0
340
0
144
0.18
309
CONTENTFORMAT_END
171
     0
 94
        0
309
TABLEFORMAT_END
309
FORMATTEDTABLEDATACELL_END
  1
TABLECELL_BEGIN
 90
        0
 91
        0
309
TABLECELL_END
 91
        0
301
CUSTOMDATA
  1
DATAMAP_BEGIN
 90
        0
309
DATAMAP_END
309
LINKEDTABLEDATAROW_END
  1
FORMATTEDTABLEDATAROW_BEGIN
300
ROWTABLEFORMAT
  1
TABLEFORMAT_BEGIN
 90
        2
170
     0
309
TABLEFORMAT_END
309
FORMATTEDTABLEDATAROW_END
  1
TABLEROW_BEGIN
 90
        3
 40
6.666667
309
TABLEROW_END
301
ROW
  1
LINKEDTABLEDATAROW_BEGIN
 90
        5
300
CELL
  1
LINKEDTABLEDATACELL_BEGIN
 90
        0
300

 91
        0
301
CUSTOMDATA
  1
DATAMAP_BEGIN
 90
        1
300
ACAD_ROUNDTRIP_2008_CELL_CHECKSUM
301
DATAMAP_VALUE
 93
        2
 90
        2
140
1877690.0
 94
        0
300

302

304
ACVALUE_END
309
DATAMAP_END
 92
        0
 95
        1
302
CONTENT
  1
CELLCONTENT_BEGIN
 90
        1
300
VALUE
 93
        2
 90
        4
  1
Any integral or partial reproductions are prohibited \Pwithout prior authorisation of L {\Ftxt.shx;\W0.190476;\H3.000000; }& L Luce & Light s.r.l., \Pin accordance with the law in force. \PAll rights reserved.
 94
        0
300

302
Any integral or partial reproductions are prohibited \Pwithout prior authorisation of L {\Ftxt.shx;\W0.190476;\H3.000000; }& L Luce & Light s.r.l., \Pin accordance with the law in force. \PAll rights reserved.
304
ACVALUE_END
 91
        0
309
CELLCONTENT_END
  1
FORMATTEDCELLCONTENT_BEGIN
170
     1
300
CONTENTFORMAT
  1
CONTENTFORMAT_BEGIN
 90
      132
 91
        0
 92
      512
 93
        0
300

 40
0.0
140
1.0
 94
        1
 62
     0
340
0
144
3.0
309
CONTENTFORMAT_END
309
FORMATTEDCELLCONTENT_END
309
LINKEDTABLEDATACELL_END
  1
FORMATTEDTABLEDATACELL_BEGIN
300
CELLTABLEFORMAT
  1
TABLEFORMAT_BEGIN
 90
        1
170
     1
 91
       16
 92
        0
 62
   257
 93
        1
300
CONTENTFORMAT
  1
CONTENTFORMAT_BEGIN
 90
       16
 91
        0
 92
      512
 93
        0
300

 40
0.0
140
1.0
 94
        4
 62
     0
340
0
144
0.18
309
CONTENTFORMAT_END
171
     0
 94
        4
 95
        1
302
GRIDFORMAT
  1
GRIDFORMAT_BEGIN
 90
       26
 91
        1
 62
     0
 92
       -2
340
0
 93
        0
 40
0.045
309
GRIDFORMAT_END
 95
        4
302
GRIDFORMAT
  1
GRIDFORMAT_BEGIN
 90
       26
 91
        1
 62
     0
 92
       -2
340
0
 93
        0
 40
0.045
309
GRIDFORMAT_END
 95
        8
302
GRIDFORMAT
  1
GRIDFORMAT_BEGIN
 90
       26
 91
        1
 62
     0
 92
       -2
340
0
 93
        0
 40
0.045
309
GRIDFORMAT_END
 95
       32
302
GRIDFORMAT
  1
GRIDFORMAT_BEGIN
 90
       26
 91
        1
 62
     0
 92
       -2
340
0
 93
        0
 40
0.045
309
GRIDFORMAT_END
309
TABLEFORMAT_END
309
FORMATTEDTABLEDATACELL_END
  1
TABLECELL_BEGIN
 90
        0
 91
        0
309
TABLECELL_END
300
CELL
  1
LINKEDTABLEDATACELL_BEGIN
 90
        0
300

 91
        0
301
CUSTOMDATA
  1
DATAMAP_BEGIN
 90
        0
309
DATAMAP_END
 92
        0
 95
        0
309
LINKEDTABLEDATACELL_END
  1
FORMATTEDTABLEDATACELL_BEGIN
300
CELLTABLEFORMAT
  1
TABLEFORMAT_BEGIN
 90
        1
170
     1
 91
        0
 92
        0
 62
   257
 93
        1
300
CONTENTFORMAT
  1
CONTENTFORMAT_BEGIN
 90
        0
 91
        0
 92
      512
 93
        0
300

 40
0.0
140
1.0
 94
        1
 62
     0
340
0
144
0.18
309
CONTENTFORMAT_END
171
     0
 94
        0
309
TABLEFORMAT_END
309
FORMATTEDTABLEDATACELL_END
  1
TABLECELL_BEGIN
 90
        0
 91
        0
309
TABLECELL_END
300
CELL
  1
LINKEDTABLEDATACELL_BEGIN
 90
        0
300

 91
        0
301
CUSTOMDATA
  1
DATAMAP_BEGIN
 90
        0
309
DATAMAP_END
 92
        0
 95
        0
309
LINKEDTABLEDATACELL_END
  1
FORMATTEDTABLEDATACELL_BEGIN
300
CELLTABLEFORMAT
  1
TABLEFORMAT_BEGIN
 90
        1
170
     1
 91
        0
 92
        0
 62
   257
 93
        1
300
CONTENTFORMAT
  1
CONTENTFORMAT_BEGIN
 90
        0
 91
        0
 92
      512
 93
        0
300

 40
0.0
140
1.0
 94
        1
 62
     0
340
0
144
0.18
309
CONTENTFORMAT_END
171
     0
 94
        0
309
TABLEFORMAT_END
309
FORMATTEDTABLEDATACELL_END
  1
TABLECELL_BEGIN
 90
        0
 91
        0
309
TABLECELL_END
300
CELL
  1
LINKEDTABLEDATACELL_BEGIN
 90
        0
300

 91
        0
301
CUSTOMDATA
  1
DATAMAP_BEGIN
 90
        0
309
DATAMAP_END
 92
        0
 95
        0
309
LINKEDTABLEDATACELL_END
  1
FORMATTEDTABLEDATACELL_BEGIN
300
CELLTABLEFORMAT
  1
TABLEFORMAT_BEGIN
 90
        1
170
     1
 91
        0
 92
        0
 62
   257
 93
        1
300
CONTENTFORMAT
  1
CONTENTFORMAT_BEGIN
 90
        0
 91
        0
 92
      512
 93
        0
300

 40
0.0
140
1.0
 94
        1
 62
     0
340
0
144
0.18
309
CONTENTFORMAT_END
171
     0
 94
        0
309
TABLEFORMAT_END
309
FORMATTEDTABLEDATACELL_END
  1
TABLECELL_BEGIN
 90
        0
 91
        0
309
TABLECELL_END
300
CELL
  1
LINKEDTABLEDATACELL_BEGIN
 90
        0
300

 91
        0
301
CUSTOMDATA
  1
DATAMAP_BEGIN
 90
        0
309
DATAMAP_END
 92
        0
 95
        0
309
LINKEDTABLEDATACELL_END
  1
FORMATTEDTABLEDATACELL_BEGIN
300
CELLTABLEFORMAT
  1
TABLEFORMAT_BEGIN
 90
        1
170
     1
 91
        0
 92
        0
 62
   257
 93
        1
300
CONTENTFORMAT
  1
CONTENTFORMAT_BEGIN
 90
        0
 91
        0
 92
      512
 93
        0
300

 40
0.0
140
1.0
 94
        1
 62
     0
340
0
144
0.18
309
CONTENTFORMAT_END
171
     0
 94
        0
309
TABLEFORMAT_END
309
FORMATTEDTABLEDATACELL_END
  1
TABLECELL_BEGIN
 90
        0
 91
        0
309
TABLECELL_END
 91
        0
301
CUSTOMDATA
  1
DATAMAP_BEGIN
 90
        0
309
DATAMAP_END
309
LINKEDTABLEDATAROW_END
  1
FORMATTEDTABLEDATAROW_BEGIN
300
ROWTABLEFORMAT
  1
TABLEFORMAT_BEGIN
 90
        2
170
     0
309
TABLEFORMAT_END
309
FORMATTEDTABLEDATAROW_END
  1
TABLEROW_BEGIN
 90
        3
 40
17.333333
309
TABLEROW_END
100
AcDbFormattedTableData
300
TABLEFORMAT
  1
TABLEFORMAT_BEGIN
 90
        4
170
     1
 91
    15360
 92
        0
 62
   257
 93
        1
300
CONTENTFORMAT
  1
CONTENTFORMAT_BEGIN
 90
        0
 91
        0
 92
      512
 93
        0
300

 40
0.0
140
1.0
 94
        1
 62
     0
340
0
144
0.18
309
CONTENTFORMAT_END
171
     1
301
MARGIN
  1
CELLMARGIN_BEGIN
 40
0.06
 40
0.06
 40
0.06
 40
0.06
 40
0.06
 40
0.06
309
CELLMARGIN_END
 94
        0
309
TABLEFORMAT_END
 90
        4
 91
        0
 92
        0
 93
        3
 94
        2
 91
        2
 92
        3
 93
        2
 94
        4
 91
        3
 92
        3
 93
        3
 94
        4
 91
        4
 92
        0
 93
        4
 94
        4
100
AcDbTableContent
340
5F8
  0
TABLEGEOMETRY
  5
625
330
627
100
AcDbTableGeometry
 90
        5
 91
        5
 92
       25
 93
        0
 40
0.0
 41
0.0
330
0
 94
        0
 93
        0
 40
0.0
 41
0.0
330
0
 94
        0
 93
        0
 40
0.0
 41
0.0
330
0
 94
        0
 93
        0
 40
0.0
 41
0.0
330
0
 94
        0
 93
        0
 40
0.0
 41
0.0
330
0
 94
        0
 93
        0
 40
0.0
 41
0.0
330
0
 94
        0
 93
        0
 40
0.0
 41
0.0
330
0
 94
        0
 93
        0
 40
0.0
 41
0.0
330
0
 94
        0
 93
        0
 40
0.0
 41
0.0
330
0
 94
        0
 93
        0
 40
0.0
 41
0.0
330
0
 94
        0
 93
        0
 40
0.0
 41
0.0
330
0
 94
        0
 93
        0
 40
0.0
 41
0.0
330
0
 94
        0
 93
        0
 40
0.0
 41
0.0
330
0
 94
        0
 93
        0
 40
0.0
 41
0.0
330
0
 94
        0
 93
        0
 40
0.0
 41
0.0
330
0
 94
        0
 93
        0
 40
0.0
 41
0.0
330
0
 94
        0
 93
        0
 40
0.0
 41
0.0
330
0
 94
        0
 93
        0
 40
0.0
 41
0.0
330
0
 94
        0
 93
        0
 40
0.0
 41
0.0
330
0
 94
        0
 93
        0
 40
0.0
 41
0.0
330
0
 94
        0
 93
        0
 40
0.0
 41
0.0
330
0
 94
        0
 93
        0
 40
0.0
 41
0.0
330
0
 94
        0
 93
        0
 40
0.0
 41
0.0
330
0
 94
        0
 93
        0
 40
0.0
 41
0.0
330
0
 94
        0
 93
        0
 40
0.0
 41
0.0
330
0
 94
        0
  0
DICTIONARY
  5
62A
330
5F8
100
AcDbDictionary
280
     1
281
     1
  3
ACAD_ROUNDTRIP_2008_TABLESTYLE_CELLSTYLEMAP
360
62B
  0
CELLSTYLEMAP
  5
62B
102
{ACAD_REACTORS
330
62A
102
}
330
62A
100
AcDbCellStyleMap
 90
        3
300
CELLSTYLE
  1
TABLEFORMAT_BEGIN
 90
        5
170
     1
 91
        0
 92
        0
 62
   257
 93
        1
300
CONTENTFORMAT
  1
CONTENTFORMAT_BEGIN
 90
        0
 91
        0
 92
        4
 93
        0
300

 40
0.0
140
1.0
 94
        5
 62
     0
340
11
144
6.0
309
CONTENTFORMAT_END
171
     1
301
MARGIN
  1
CELLMARGIN_BEGIN
 40
1.5
 40
1.5
 40
1.5
 40
1.5
 40
1.5
 40
1.5
309
CELLMARGIN_END
 94
        6
 95
        1
302
GRIDFORMAT
  1
GRIDFORMAT_BEGIN
 90
        0
 91
        1
 62
     0
 92
       -2
340
14
 93
        0
 40
0.045
309
GRIDFORMAT_END
 95
        2
302
GRIDFORMAT
  1
GRIDFORMAT_BEGIN
 90
        0
 91
        1
 62
     0
 92
       -2
340
14
 93
        0
 40
0.045
309
GRIDFORMAT_END
 95
        4
302
GRIDFORMAT
  1
GRIDFORMAT_BEGIN
 90
        0
 91
        1
 62
     0
 92
       -2
340
14
 93
        0
 40
0.045
309
GRIDFORMAT_END
 95
        8
302
GRIDFORMAT
  1
GRIDFORMAT_BEGIN
 90
        0
 91
        1
 62
     0
 92
       -2
340
14
 93
        0
 40
0.045
309
GRIDFORMAT_END
 95
       16
302
GRIDFORMAT
  1
GRIDFORMAT_BEGIN
 90
        0
 91
        1
 62
     0
 92
       -2
340
14
 93
        0
 40
0.045
309
GRIDFORMAT_END
 95
       32
302
GRIDFORMAT
  1
GRIDFORMAT_BEGIN
 90
        0
 91
        1
 62
     0
 92
       -2
340
14
 93
        0
 40
0.045
309
GRIDFORMAT_END
309
TABLEFORMAT_END
  1
CELLSTYLE_BEGIN
 90
        1
 91
        1
300
_TITLE
309
CELLSTYLE_END
300
CELLSTYLE
  1
TABLEFORMAT_BEGIN
 90
        5
170
     1
 91
        0
 92
        0
 62
   257
 93
        1
300
CONTENTFORMAT
  1
CONTENTFORMAT_BEGIN
 90
        0
 91
        0
 92
        4
 93
        0
300

 40
0.0
140
1.0
 94
        5
 62
     0
340
11
144
4.5
309
CONTENTFORMAT_END
171
     1
301
MARGIN
  1
CELLMARGIN_BEGIN
 40
1.5
 40
1.5
 40
1.5
 40
1.5
 40
1.5
 40
1.5
309
CELLMARGIN_END
 94
        6
 95
        1
302
GRIDFORMAT
  1
GRIDFORMAT_BEGIN
 90
        0
 91
        1
 62
     0
 92
       -2
340
14
 93
        0
 40
0.045
309
GRIDFORMAT_END
 95
        2
302
GRIDFORMAT
  1
GRIDFORMAT_BEGIN
 90
        0
 91
        1
 62
     0
 92
       -2
340
14
 93
        0
 40
0.045
309
GRIDFORMAT_END
 95
        4
302
GRIDFORMAT
  1
GRIDFORMAT_BEGIN
 90
        0
 91
        1
 62
     0
 92
       -2
340
14
 93
        0
 40
0.045
309
GRIDFORMAT_END
 95
        8
302
GRIDFORMAT
  1
GRIDFORMAT_BEGIN
 90
        0
 91
        1
 62
     0
 92
       -2
340
14
 93
        0
 40
0.045
309
GRIDFORMAT_END
 95
       16
302
GRIDFORMAT
  1
GRIDFORMAT_BEGIN
 90
        0
 91
        1
 62
     0
 92
       -2
340
14
 93
        0
 40
0.045
309
GRIDFORMAT_END
 95
       32
302
GRIDFORMAT
  1
GRIDFORMAT_BEGIN
 90
        0
 91
        1
 62
     0
 92
       -2
340
14
 93
        0
 40
0.045
309
GRIDFORMAT_END
309
TABLEFORMAT_END
  1
CELLSTYLE_BEGIN
 90
        2
 91
        1
300
_HEADER
309
CELLSTYLE_END
300
CELLSTYLE
  1
TABLEFORMAT_BEGIN
 90
        5
170
     1
 91
        0
 92
        0
 62
   257
 93
        1
300
CONTENTFORMAT
  1
CONTENTFORMAT_BEGIN
 90
        0
 91
        0
 92
        4
 93
        0
300

 40
0.0
140
1.0
 94
        2
 62
     0
340
11
144
4.5
309
CONTENTFORMAT_END
171
     1
301
MARGIN
  1
CELLMARGIN_BEGIN
 40
1.5
 40
1.5
 40
1.5
 40
1.5
 40
1.5
 40
1.5
309
CELLMARGIN_END
 94
        6
 95
        1
302
GRIDFORMAT
  1
GRIDFORMAT_BEGIN
 90
        0
 91
        1
 62
     0
 92
       -2
340
14
 93
        0
 40
0.045
309
GRIDFORMAT_END
 95
        2
302
GRIDFORMAT
  1
GRIDFORMAT_BEGIN
 90
        0
 91
        1
 62
     0
 92
       -2
340
14
 93
        0
 40
0.045
309
GRIDFORMAT_END
 95
        4
302
GRIDFORMAT
  1
GRIDFORMAT_BEGIN
 90
        0
 91
        1
 62
     0
 92
       -2
340
14
 93
        0
 40
0.045
309
GRIDFORMAT_END
 95
        8
302
GRIDFORMAT
  1
GRIDFORMAT_BEGIN
 90
        0
 91
        1
 62
     0
 92
       -2
340
14
 93
        0
 40
0.045
309
GRIDFORMAT_END
 95
       16
302
GRIDFORMAT
  1
GRIDFORMAT_BEGIN
 90
        0
 91
        1
 62
     0
 92
       -2
340
14
 93
        0
 40
0.045
309
GRIDFORMAT_END
 95
       32
302
GRIDFORMAT
  1
GRIDFORMAT_BEGIN
 90
        0
 91
        1
 62
     0
 92
       -2
340
14
 93
        0
 40
0.045
309
GRIDFORMAT_END
309
TABLEFORMAT_END
  1
CELLSTYLE_BEGIN
 90
        3
 91
        2
300
_DATA
309
CELLSTYLE_END
  0
ENDSEC
  0
EOF
