  0
SECTION
  2
HEADER
  9
$ACADVER
  1
AC1027
  9
$ACADMAINTVER
 70
     8
  9
$DWGCODEPAGE
  3
ANSI_1252
  9
$REQUIREDVERSIONS
160
                 0
  9
$INSBASE
 10
0.0
 20
0.0
 30
0.0
  9
$EXTMIN
 10
0.0
 20
0.0
 30
0.0
  9
$EXTMAX
 10
1189.0
 20
841.0
 30
0.0
  9
$LIMMIN
 10
0.0
 20
0.0
  9
$LIMMAX
 10
1189.0
 20
841.0
  9
$ORTHOMODE
 70
     0
  9
$REGENMODE
 70
     1
  9
$FILLMODE
 70
     1
  9
$QTEXTMODE
 70
     0
  9
$MIRRTEXT
 70
     1
  9
$LTSCALE
 40
65.395
  9
$ATTMODE
 70
     1
  9
$TEXTSIZE
 40
0.2
  9
$TRACEWID
 40
0.05
  9
$TEXTSTYLE
  7
STANDARD
  9
$CLAYER
  8
0
  9
$CELTYPE
  6
BYLAYER
  9
$CECOLOR
 62
   256
  9
$CELTSCALE
 40
1.0
  9
$DISPSILH
 70
     0
  9
$DIMSCALE
 40
1.0
  9
$DIMASZ
 40
2.5
  9
$DIMEXO
 40
0.75
  9
$DIMDLI
 40
45.182
  9
$DIMRND
 40
0.0
  9
$DIMDLE
 40
0.0
  9
$DIMEXE
 40
0.75
  9
$DIMTP
 40
0.01
  9
$DIMTM
 40
0.01
  9
$DIMTXT
 40
3.0
  9
$DIMCEN
 40
10.701
  9
$DIMTSZ
 40
0.0
  9
$DIMTOL
 70
     1
  9
$DIMLIM
 70
     0
  9
$DIMTIH
 70
     1
  9
$DIMTOH
 70
     1
  9
$DIMSE1
 70
     0
  9
$DIMSE2
 70
     0
  9
$DIMTAD
 70
     0
  9
$DIMZIN
 70
     0
  9
$DIMBLK
  1
CLOSED
  9
$DIMASO
 70
     1
  9
$DIMSHO
 70
     1
  9
$DIMPOST
  1

  9
$DIMAPOST
  1

  9
$DIMALT
 70
     0
  9
$DIMALTD
 70
     2
  9
$DIMALTF
 40
25.4
  9
$DIMLFAC
 40
1.0
  9
$DIMTOFL
 70
     0
  9
$DIMTVP
 40
0.0
  9
$DIMTIX
 70
     0
  9
$DIMSOXD
 70
     0
  9
$DIMSAH
 70
     0
  9
$DIMBLK1
  1

  9
$DIMBLK2
  1

  9
$DIMSTYLE
  2
STANDARD
  9
$DIMCLRD
 70
     0
  9
$DIMCLRE
 70
     0
  9
$DIMCLRT
 70
     0
  9
$DIMTFAC
 40
1.0
  9
$DIMGAP
 40
0.625
  9
$DIMJUST
 70
     0
  9
$DIMSD1
 70
     0
  9
$DIMSD2
 70
     0
  9
$DIMTOLJ
 70
     1
  9
$DIMTZIN
 70
     0
  9
$DIMALTZ
 70
     0
  9
$DIMALTTZ
 70
     0
  9
$DIMUPT
 70
     0
  9
$DIMDEC
 70
     4
  9
$DIMTDEC
 70
     4
  9
$DIMALTU
 70
     2
  9
$DIMALTTD
 70
     2
  9
$DIMTXSTY
  7
STANDARD
  9
$DIMAUNIT
 70
     0
  9
$DIMADEC
 70
     0
  9
$DIMALTRND
 40
0.0
  9
$DIMAZIN
 70
     0
  9
$DIMDSEP
 70
    44
  9
$DIMATFIT
 70
     3
  9
$DIMFRAC
 70
     0
  9
$DIMLDRBLK
  1

  9
$DIMLUNIT
 70
     2
  9
$DIMLWD
 70
    -2
  9
$DIMLWE
 70
    -2
  9
$DIMTMOVE
 70
     0
  9
$DIMFXL
 40
1.0
  9
$DIMFXLON
 70
     0
  9
$DIMJOGANG
 40
0.785398
  9
$DIMTFILL
 70
     0
  9
$DIMTFILLCLR
 70
     0
  9
$DIMARCSYM
 70
     0
  9
$DIMLTYPE
  6

  9
$DIMLTEX1
  6

  9
$DIMLTEX2
  6

  9
$DIMTXTDIRECTION
 70
     0
  9
$LUNITS
 70
     2
  9
$LUPREC
 70
     4
  9
$SKETCHINC
 40
0.1
  9
$FILLETRAD
 40
0.5
  9
$AUNITS
 70
     0
  9
$AUPREC
 70
     0
  9
$MENU
  1
.
  9
$ELEVATION
 40
0.0
  9
$PELEVATION
 40
0.0
  9
$THICKNESS
 40
0.0
  9
$LIMCHECK
 70
     0
  9
$CHAMFERA
 40
0.0
  9
$CHAMFERB
 40
0.0
  9
$CHAMFERC
 40
0.0
  9
$CHAMFERD
 40
0.0
  9
$SKPOLY
 70
     0
  9
$TDCREATE
 40
2447893.083333333
  9
$TDUCREATE
 40
0.0
  9
$TDUPDATE
 40
2460209.512532361
  9
$TDUUPDATE
 40
2460209.429199028
  9
$TDINDWG
 40
0.0
  9
$TDUSRTIMER
 40
0.0
  9
$USRTIMER
 70
     1
  9
$ANGBASE
 50
0.0
  9
$ANGDIR
 70
     0
  9
$PDMODE
 70
     3
  9
$PDSIZE
 40
0.3125
  9
$PLINEWID
 40
0.0
  9
$SPLFRAME
 70
     0
  9
$SPLINETYPE
 70
     6
  9
$SPLINESEGS
 70
     8
  9
$HANDSEED
  5
5BC
  9
$SURFTAB1
 70
     6
  9
$SURFTAB2
 70
     6
  9
$SURFTYPE
 70
     6
  9
$SURFU
 70
     6
  9
$SURFV
 70
     6
  9
$UCSBASE
  2

  9
$UCSNAME
  2

  9
$UCSORG
 10
0.0
 20
0.0
 30
0.0
  9
$UCSXDIR
 10
1.0
 20
0.0
 30
0.0
  9
$UCSYDIR
 10
0.0
 20
1.0
 30
0.0
  9
$UCSORTHOREF
  2

  9
$UCSORTHOVIEW
 70
     0
  9
$UCSORGTOP
 10
0.0
 20
0.0
 30
0.0
  9
$UCSORGBOTTOM
 10
0.0
 20
0.0
 30
0.0
  9
$UCSORGLEFT
 10
0.0
 20
0.0
 30
0.0
  9
$UCSORGRIGHT
 10
0.0
 20
0.0
 30
0.0
  9
$UCSORGFRONT
 10
0.0
 20
0.0
 30
0.0
  9
$UCSORGBACK
 10
0.0
 20
0.0
 30
0.0
  9
$PUCSBASE
  2

  9
$PUCSNAME
  2

  9
$PUCSORG
 10
0.0
 20
0.0
 30
0.0
  9
$PUCSXDIR
 10
1.0
 20
0.0
 30
0.0
  9
$PUCSYDIR
 10
0.0
 20
1.0
 30
0.0
  9
$PUCSORTHOREF
  2

  9
$PUCSORTHOVIEW
 70
     0
  9
$PUCSORGTOP
 10
0.0
 20
0.0
 30
0.0
  9
$PUCSORGBOTTOM
 10
0.0
 20
0.0
 30
0.0
  9
$PUCSORGLEFT
 10
0.0
 20
0.0
 30
0.0
  9
$PUCSORGRIGHT
 10
0.0
 20
0.0
 30
0.0
  9
$PUCSORGFRONT
 10
0.0
 20
0.0
 30
0.0
  9
$PUCSORGBACK
 10
0.0
 20
0.0
 30
0.0
  9
$USERI1
 70
     0
  9
$USERI2
 70
     0
  9
$USERI3
 70
     0
  9
$USERI4
 70
     0
  9
$USERI5
 70
     0
  9
$USERR1
 40
0.0
  9
$USERR2
 40
0.0
  9
$USERR3
 40
0.0
  9
$USERR4
 40
0.0
  9
$USERR5
 40
0.0
  9
$WORLDVIEW
 70
     1
  9
$SHADEDGE
 70
     3
  9
$SHADEDIF
 70
    70
  9
$TILEMODE
 70
     1
  9
$MAXACTVP
 70
    64
  9
$PINSBASE
 10
0.0
 20
0.0
 30
0.0
  9
$PLIMCHECK
 70
     0
  9
$PEXTMIN
 10
1.000000E+20
 20
1.000000E+20
 30
1.000000E+20
  9
$PEXTMAX
 10
-1.000000E+20
 20
-1.000000E+20
 30
-1.000000E+20
  9
$PLIMMIN
 10
0.0
 20
0.0
  9
$PLIMMAX
 10
12.0
 20
9.0
  9
$UNITMODE
 70
     0
  9
$VISRETAIN
 70
     1
  9
$PLINEGEN
 70
     0
  9
$PSLTSCALE
 70
     0
  9
$TREEDEPTH
 70
  3020
  9
$CMLSTYLE
  2

  9
$CMLJUST
 70
     0
  9
$CMLSCALE
 40
1.0
  9
$PROXYGRAPHICS
 70
     1
  9
$MEASUREMENT
 70
     1
  9
$CELWEIGHT
370
    -1
  9
$ENDCAPS
280
     0
  9
$JOINSTYLE
280
     0
  9
$LWDISPLAY
290
     0
  9
$INSUNITS
 70
     4
  9
$HYPERLINKBASE
  1

  9
$STYLESHEET
  1

  9
$XEDIT
290
     1
  9
$CEPSNTYPE
380
     0
  9
$PSTYLEMODE
290
     1
  9
$FINGERPRINTGUID
  2
{277941A8-DBA1-438B-8093-F3E8424A28EF}
  9
$VERSIONGUID
  2
{FAEB1C32-E019-11D5-929B-00C0DF256EC4}
  9
$EXTNAMES
290
     1
  9
$PSVPSCALE
 40
0.0
  9
$OLESTARTUP
290
     0
  9
$SORTENTS
280
   127
  9
$INDEXCTL
280
     0
  9
$HIDETEXT
280
     1
  9
$XCLIPFRAME
280
     2
  9
$HALOGAP
280
     0
  9
$OBSCOLOR
 70
   257
  9
$OBSLTYPE
280
     0
  9
$INTERSECTIONDISPLAY
280
     0
  9
$INTERSECTIONCOLOR
 70
   257
  9
$DIMASSOC
280
     2
  9
$PROJECTNAME
  1

  9
$CAMERADISPLAY
290
     0
  9
$LENSLENGTH
 40
50.0
  9
$CAMERAHEIGHT
 40
0.0
  9
$STEPSPERSEC
 40
2.0
  9
$STEPSIZE
 40
6.0
  9
$3DDWFPREC
 40
2.0
  9
$PSOLWIDTH
 40
0.25
  9
$PSOLHEIGHT
 40
4.0
  9
$LOFTANG1
 40
1.570796
  9
$LOFTANG2
 40
1.570796
  9
$LOFTMAG1
 40
0.0
  9
$LOFTMAG2
 40
0.0
  9
$LOFTPARAM
 70
     7
  9
$LOFTNORMALS
280
     1
  9
$LATITUDE
 40
37.795
  9
$LONGITUDE
 40
-122.394
  9
$NORTHDIRECTION
 40
0.0
  9
$TIMEZONE
 70
 -8000
  9
$LIGHTGLYPHDISPLAY
280
     1
  9
$TILEMODELIGHTSYNCH
280
     1
  9
$SOLIDHIST
280
     1
  9
$SHOWHIST
280
     1
  9
$DWFFRAME
280
     2
  9
$DGNFRAME
280
     2
  9
$REALWORLDSCALE
290
     1
  9
$INTERFERECOLOR
 62
   256
  9
$CSHADOW
280
     0
  9
$SHADOWPLANELOCATION
 40
0.0
  0
ENDSEC
  0
SECTION
  2
CLASSES
  0
CLASS
  1
ACDBDICTIONARYWDFLT
  2
AcDbDictionaryWithDefault
  3
ObjectDBX Classes
 90
        0
 91
        6
280
     0
281
     0
  0
CLASS
  1
ACDBPLACEHOLDER
  2
AcDbPlaceHolder
  3
ObjectDBX Classes
 90
        0
 91
        1
280
     0
281
     0
  0
CLASS
  1
LAYOUT
  2
AcDbLayout
  3
ObjectDBX Classes
 90
        0
 91
        1
280
     0
281
     0
  0
CLASS
  1
TABLESTYLE
  2
AcDbTableStyle
  3
ObjectDBX Classes
 90
     4095
 91
        5
280
     0
281
     0
  0
CLASS
  1
ACAD_TABLE
  2
AcDbTable
  3
ObjectDBX Classes
 90
     1025
 91
        5
280
     0
281
     1
  0
CLASS
  1
SCALE
  2
AcDbScale
  3
ObjectDBX Classes
 90
     1153
 91
        5
280
     0
281
     0
  0
CLASS
  1
TABLEGEOMETRY
  2
AcDbTableGeometry
  3
ObjectDBX Classes
 90
     1152
 91
        4
280
     0
281
     0
  0
CLASS
  1
VISUALSTYLE
  2
AcDbVisualStyle
  3
ObjectDBX Classes
 90
     4095
 91
        5
280
     0
281
     0
  0
CLASS
  1
MATERIAL
  2
AcDbMaterial
  3
ObjectDBX Classes
 90
     1153
 91
        5
280
     0
281
     0
  0
CLASS
  1
SUN
  2
AcDbSun
  3
SCENEOE
 90
     1153
 91
        5
280
     0
281
     0
  0
CLASS
  1
CSACDOCUMENTOPTIONS
  2
CDocDataContainer
  3
"DERU003_CSAPP"
 90
     4095
 91
        4
280
     0
281
     0
  0
CLASS
  1
TABLECONTENT
  2
AcDbTableContent
  3
ObjectDBX Classes
 90
     1152
 91
        4
280
     0
281
     0
  0
CLASS
  1
DICTIONARYVAR
  2
AcDbDictionaryVar
  3
ObjectDBX Classes
 90
        0
 91
        4
280
     0
281
     0
  0
CLASS
  1
CELLSTYLEMAP
  2
AcDbCellStyleMap
  3
ObjectDBX Classes
 90
     1152
 91
        4
280
     0
281
     0
  0
ENDSEC
  0
SECTION
  2
TABLES
  0
TABLE
  2
VPORT
  5
8
330
0
100
AcDbSymbolTable
 70
     1
  0
VPORT
  5
1F4
330
8
100
AcDbSymbolTableRecord
100
AcDbViewportTableRecord
  2
*ACTIVE
 70
     0
 10
0.0
 20
0.0
 11
1.0
 21
1.0
 12
594.5
 22
420.5
 13
0.0
 23
0.0
 14
1.0
 24
1.0
 15
0.0
 25
0.0
 16
0.0
 26
0.0
 36
1.0
 17
0.0
 27
0.0
 37
0.0
 40
841.0
 41
1.818286
 42
50.0
 43
0.0
 44
0.0
 50
0.0
 51
0.0
 71
    16
 72
   100
 73
     1
 74
     1
 75
     0
 76
     0
 77
     0
 78
     0
281
     0
 65
     1
110
0.0
120
0.0
130
0.0
111
1.0
121
0.0
131
0.0
112
0.0
122
1.0
132
0.0
 79
     0
146
0.0
 60
     3
 61
     5
292
     1
282
     1
141
0.0
142
0.0
 63
   256
361
5A7
  0
ENDTAB
  0
TABLE
  2
LTYPE
  5
5
330
0
100
AcDbSymbolTable
 70
     6
  0
LTYPE
  5
14
330
5
100
AcDbSymbolTableRecord
100
AcDbLinetypeTableRecord
  2
BYBLOCK
 70
     0
  3

 72
    65
 73
     0
 40
0.0
  0
LTYPE
  5
15
330
5
100
AcDbSymbolTableRecord
100
AcDbLinetypeTableRecord
  2
BYLAYER
 70
     0
  3

 72
    65
 73
     0
 40
0.0
  0
LTYPE
  5
16
330
5
100
AcDbSymbolTableRecord
100
AcDbLinetypeTableRecord
  2
CONTINUOUS
 70
     0
  3
Solid line
 72
    65
 73
     0
 40
0.0
  0
LTYPE
  5
1F5
330
5
100
AcDbSymbolTableRecord
100
AcDbLinetypeTableRecord
  2
CENTER
 70
     0
  3
____ _ ____ _ ____ _ ____ _ ____ _ ____ _ ____
 72
    65
 73
     4
 40
0.6
 49
0.375
 74
     0
 49
-0.075
 74
     0
 49
0.075
 74
     0
 49
-0.075
 74
     0
  0
LTYPE
  5
1F6
330
5
100
AcDbSymbolTableRecord
100
AcDbLinetypeTableRecord
  2
HIDDEN
 70
     0
  3
- - - - - - - - - - - - - - - - - - - -
 72
    65
 73
     2
 40
0.2
 49
0.1
 74
     0
 49
-0.1
 74
     0
  0
LTYPE
  5
1F7
330
5
100
AcDbSymbolTableRecord
100
AcDbLinetypeTableRecord
  2
PHANTOM
 70
     0
  3
_____ _ _ _____ _ _ _____ _ _ _____
 72
    65
 73
     6
 40
0.8
 49
0.45
 74
     0
 49
-0.05
 74
     0
 49
0.1
 74
     0
 49
-0.05
 74
     0
 49
0.1
 74
     0
 49
-0.05
 74
     0
  0
LTYPE
  5
1F8
330
5
100
AcDbSymbolTableRecord
100
AcDbLinetypeTableRecord
  2
DOT
 70
     0
  3
. . . . . . . . . . . . . . . . . . . .
 72
    65
 73
     2
 40
0.2
 49
0.1
 74
     0
 49
-0.1
 74
     0
  0
LTYPE
  5
1F9
330
5
100
AcDbSymbolTableRecord
100
AcDbLinetypeTableRecord
  2
DASHED
 70
     0
  3
- - - - - - - - - - - - - - - - - - - -
 72
    65
 73
     2
 40
0.2
 49
0.1
 74
     0
 49
-0.1
 74
     0
  0
ENDTAB
  0
TABLE
  2
LAYER
  5
2
330
0
100
AcDbSymbolTable
 70
    48
  0
LAYER
  5
10
330
2
100
AcDbSymbolTableRecord
100
AcDbLayerTableRecord
  2
0
 70
     0
 62
     7
  6
CONTINUOUS
370
    -3
390
F
347
5A1
348
0
  0
LAYER
  5
1FA
330
2
100
AcDbSymbolTableRecord
100
AcDbLayerTableRecord
  2
DEFAULT_1
 70
     0
 62
     7
  6
CENTER
370
    -3
390
F
347
5A1
348
0
  0
LAYER
  5
1FB
330
2
100
AcDbSymbolTableRecord
100
AcDbLayerTableRecord
  2
DEFAULT_2
 70
     0
 62
     8
  6
HIDDEN
370
    -3
390
F
347
5A1
348
0
  0
LAYER
  5
1FC
330
2
100
AcDbSymbolTableRecord
100
AcDbLayerTableRecord
  2
DEFAULT_3
 70
     0
 62
     7
  6
PHANTOM
370
    -3
390
F
347
5A1
348
0
  0
LAYER
  5
1FD
330
2
100
AcDbSymbolTableRecord
100
AcDbLayerTableRecord
  2
01_ALL_DTM_PLN
 70
     0
 62
     7
  6
CONTINUOUS
370
    -3
390
F
347
5A1
348
0
  0
LAYER
  5
1FE
330
2
100
AcDbSymbolTableRecord
100
AcDbLayerTableRecord
  2
01__ASM_ALL_DTM_PLN
 70
     0
 62
     7
  6
CONTINUOUS
370
    -3
390
F
347
5A1
348
0
  0
LAYER
  5
1FF
330
2
100
AcDbSymbolTableRecord
100
AcDbLayerTableRecord
  2
01__ASM_DEF_DTM_PLN
 70
     0
 62
     7
  6
CONTINUOUS
370
    -3
390
F
347
5A1
348
0
  0
LAYER
  5
200
330
2
100
AcDbSymbolTableRecord
100
AcDbLayerTableRecord
  2
01___PRT_ALL_DTM_PLN
 70
     0
 62
     7
  6
CONTINUOUS
370
    -3
390
F
347
5A1
348
0
  0
LAYER
  5
201
330
2
100
AcDbSymbolTableRecord
100
AcDbLayerTableRecord
  2
01___PRT_DEF_DTM_PLN
 70
     0
 62
     7
  6
CONTINUOUS
370
    -3
390
F
347
5A1
348
0
  0
LAYER
  5
202
330
2
100
AcDbSymbolTableRecord
100
AcDbLayerTableRecord
  2
02_ALL_AXES
 70
     0
 62
     7
  6
CONTINUOUS
370
    -3
390
F
347
5A1
348
0
  0
LAYER
  5
203
330
2
100
AcDbSymbolTableRecord
100
AcDbLayerTableRecord
  2
02__ASM_ALL_AXES
 70
     0
 62
     7
  6
CONTINUOUS
370
    -3
390
F
347
5A1
348
0
  0
LAYER
  5
204
330
2
100
AcDbSymbolTableRecord
100
AcDbLayerTableRecord
  2
02___PRT_ALL_AXES
 70
     0
 62
     7
  6
CONTINUOUS
370
    -3
390
F
347
5A1
348
0
  0
LAYER
  5
205
330
2
100
AcDbSymbolTableRecord
100
AcDbLayerTableRecord
  2
03_ALL_CURVES
 70
     0
 62
     7
  6
CONTINUOUS
370
    -3
390
F
347
5A1
348
0
  0
LAYER
  5
206
330
2
100
AcDbSymbolTableRecord
100
AcDbLayerTableRecord
  2
03__ASM_ALL_CURVES
 70
     0
 62
     7
  6
CONTINUOUS
370
    -3
390
F
347
5A1
348
0
  0
LAYER
  5
207
330
2
100
AcDbSymbolTableRecord
100
AcDbLayerTableRecord
  2
03___PRT_ALL_CURVES
 70
     0
 62
     7
  6
CONTINUOUS
370
    -3
390
F
347
5A1
348
0
  0
LAYER
  5
208
330
2
100
AcDbSymbolTableRecord
100
AcDbLayerTableRecord
  2
04_ALL_DTM_PNT
 70
     0
 62
     7
  6
CONTINUOUS
370
    -3
390
F
347
5A1
348
0
  0
LAYER
  5
209
330
2
100
AcDbSymbolTableRecord
100
AcDbLayerTableRecord
  2
04__ASM_ALL_DTM_PNT
 70
     0
 62
     7
  6
CONTINUOUS
370
    -3
390
F
347
5A1
348
0
  0
LAYER
  5
20A
330
2
100
AcDbSymbolTableRecord
100
AcDbLayerTableRecord
  2
04___PRT_ALL_DTM_PNT
 70
     0
 62
     7
  6
CONTINUOUS
370
    -3
390
F
347
5A1
348
0
  0
LAYER
  5
20B
330
2
100
AcDbSymbolTableRecord
100
AcDbLayerTableRecord
  2
05_ALL_DTM_CSYS
 70
     0
 62
     7
  6
CONTINUOUS
370
    -3
390
F
347
5A1
348
0
  0
LAYER
  5
20C
330
2
100
AcDbSymbolTableRecord
100
AcDbLayerTableRecord
  2
05__ASM_ALL_DTM_CSYS
 70
     0
 62
     7
  6
CONTINUOUS
370
    -3
390
F
347
5A1
348
0
  0
LAYER
  5
20D
330
2
100
AcDbSymbolTableRecord
100
AcDbLayerTableRecord
  2
05__ASM_DEF_DTM_CSYS
 70
     0
 62
     7
  6
CONTINUOUS
370
    -3
390
F
347
5A1
348
0
  0
LAYER
  5
20E
330
2
100
AcDbSymbolTableRecord
100
AcDbLayerTableRecord
  2
05___PRT_ALL_DTM_CSYS
 70
     0
 62
     7
  6
CONTINUOUS
370
    -3
390
F
347
5A1
348
0
  0
LAYER
  5
20F
330
2
100
AcDbSymbolTableRecord
100
AcDbLayerTableRecord
  2
05___PRT_DEF_DTM_CSYS
 70
     0
 62
     7
  6
CONTINUOUS
370
    -3
390
F
347
5A1
348
0
  0
LAYER
  5
210
330
2
100
AcDbSymbolTableRecord
100
AcDbLayerTableRecord
  2
06_ALL_SURFS
 70
     0
 62
     7
  6
CONTINUOUS
370
    -3
390
F
347
5A1
348
0
  0
LAYER
  5
211
330
2
100
AcDbSymbolTableRecord
100
AcDbLayerTableRecord
  2
06__ASM_ALL_SURFS
 70
     0
 62
     7
  6
CONTINUOUS
370
    -3
390
F
347
5A1
348
0
  0
LAYER
  5
212
330
2
100
AcDbSymbolTableRecord
100
AcDbLayerTableRecord
  2
06___PRT_ALL_SURFS
 70
     0
 62
     7
  6
CONTINUOUS
370
    -3
390
F
347
5A1
348
0
  0
LAYER
  5
213
330
2
100
AcDbSymbolTableRecord
100
AcDbLayerTableRecord
  2
07__ASM_ALL_SKELETONS
 70
     0
 62
     7
  6
CONTINUOUS
370
    -3
390
F
347
5A1
348
0
  0
LAYER
  5
214
330
2
100
AcDbSymbolTableRecord
100
AcDbLayerTableRecord
  2
1_ALL_PLANES
 70
     0
 62
     7
  6
CONTINUOUS
370
    -3
390
F
347
5A1
348
0
  0
LAYER
  5
215
330
2
100
AcDbSymbolTableRecord
100
AcDbLayerTableRecord
  2
2_ALL_CSYS
 70
     0
 62
     7
  6
CONTINUOUS
370
    -3
390
F
347
5A1
348
0
  0
LAYER
  5
216
330
2
100
AcDbSymbolTableRecord
100
AcDbLayerTableRecord
  2
3_ALL_AXES
 70
     0
 62
     7
  6
CONTINUOUS
370
    -3
390
F
347
5A1
348
0
  0
LAYER
  5
217
330
2
100
AcDbSymbolTableRecord
100
AcDbLayerTableRecord
  2
4_ALL_POINTS
 70
     0
 62
     7
  6
CONTINUOUS
370
    -3
390
F
347
5A1
348
0
  0
LAYER
  5
218
330
2
100
AcDbSymbolTableRecord
100
AcDbLayerTableRecord
  2
5_ALL_CURVES
 70
     0
 62
     7
  6
CONTINUOUS
370
    -3
390
F
347
5A1
348
0
  0
LAYER
  5
219
330
2
100
AcDbSymbolTableRecord
100
AcDbLayerTableRecord
  2
5__COSMETICA
 70
     0
 62
     7
  6
CONTINUOUS
370
    -3
390
F
347
5A1
348
0
  0
LAYER
  5
21A
330
2
100
AcDbSymbolTableRecord
100
AcDbLayerTableRecord
  2
5__COSTRUZIONE
 70
     0
 62
     7
  6
CONTINUOUS
370
    -3
390
F
347
5A1
348
0
  0
LAYER
  5
21B
330
2
100
AcDbSymbolTableRecord
100
AcDbLayerTableRecord
  2
6_ALL_SURFS
 70
     0
 62
     7
  6
CONTINUOUS
370
    -3
390
F
347
5A1
348
0
  0
LAYER
  5
21C
330
2
100
AcDbSymbolTableRecord
100
AcDbLayerTableRecord
  2
7_ALL_FEATURES
 70
     0
 62
     7
  6
CONTINUOUS
370
    -3
390
F
347
5A1
348
0
  0
LAYER
  5
21D
330
2
100
AcDbSymbolTableRecord
100
AcDbLayerTableRecord
  2
8_ALL_NOTES_BALLOONS_SYMBOLS_GT
 70
     0
 62
     7
  6
CONTINUOUS
370
    -3
390
F
347
5A1
348
0
  0
LAYER
  5
21E
330
2
100
AcDbSymbolTableRecord
100
AcDbLayerTableRecord
  2
9_SOLID
 70
     0
 62
     7
  6
CONTINUOUS
370
    -3
390
F
347
5A1
348
0
  0
LAYER
  5
21F
330
2
100
AcDbSymbolTableRecord
100
AcDbLayerTableRecord
  2
INTFCLR_2
 70
     0
 62
     7
  6
CONTINUOUS
370
    -3
390
F
347
5A1
348
0
  0
LAYER
  5
220
330
2
100
AcDbSymbolTableRecord
100
AcDbLayerTableRecord
  2
INTFCLR_3
 70
     0
 62
     7
  6
CONTINUOUS
370
    -3
390
F
347
5A1
348
0
  0
LAYER
  5
221
330
2
100
AcDbSymbolTableRecord
100
AcDbLayerTableRecord
  2
INTFCLR_4
 70
     0
 62
     7
  6
CONTINUOUS
370
    -3
390
F
347
5A1
348
0
  0
LAYER
  5
222
330
2
100
AcDbSymbolTableRecord
100
AcDbLayerTableRecord
  2
INTFCLR_5
 70
     0
 62
     7
  6
CONTINUOUS
370
    -3
390
F
347
5A1
348
0
  0
LAYER
  5
223
330
2
100
AcDbSymbolTableRecord
100
AcDbLayerTableRecord
  2
INTFCLR_6
 70
     0
 62
     7
  6
CONTINUOUS
370
    -3
390
F
347
5A1
348
0
  0
LAYER
  5
224
330
2
100
AcDbSymbolTableRecord
100
AcDbLayerTableRecord
  2
INTF_CYAN
 70
     0
 62
     7
  6
CONTINUOUS
370
    -3
390
F
347
5A1
348
0
  0
LAYER
  5
225
330
2
100
AcDbSymbolTableRecord
100
AcDbLayerTableRecord
  2
INTF_GREEN
 70
     0
 62
     7
  6
CONTINUOUS
370
    -3
390
F
347
5A1
348
0
  0
LAYER
  5
226
330
2
100
AcDbSymbolTableRecord
100
AcDbLayerTableRecord
  2
INTF_MAGENTA
 70
     0
 62
     7
  6
CONTINUOUS
370
    -3
390
F
347
5A1
348
0
  0
LAYER
  5
227
330
2
100
AcDbSymbolTableRecord
100
AcDbLayerTableRecord
  2
INTF_RED
 70
     0
 62
     7
  6
CONTINUOUS
370
    -3
390
F
347
5A1
348
0
  0
LAYER
  5
228
330
2
100
AcDbSymbolTableRecord
100
AcDbLayerTableRecord
  2
XXX_SOLIDO
 70
     0
 62
     7
  6
CONTINUOUS
370
    -3
390
F
347
5A1
348
0
  0
ENDTAB
  0
TABLE
  2
STYLE
  5
3
330
0
100
AcDbSymbolTable
 70
     2
  0
STYLE
  5
11
330
3
100
AcDbSymbolTableRecord
100
AcDbTextStyleTableRecord
  2
STANDARD
 70
     0
 40
0.0
 41
0.85
 50
0.0
 71
     0
 42
0.2
  3
txt
  4

  0
STYLE
  5
229
330
3
100
AcDbSymbolTableRecord
100
AcDbTextStyleTableRecord
  2
TEXTSTYLE_1
 70
     0
 40
0.0
 41
0.8
 50
0.0
 71
     0
 42
0.2
  3
gdt
  4

  0
ENDTAB
  0
TABLE
  2
VIEW
  5
6
330
0
100
AcDbSymbolTable
 70
     0
  0
ENDTAB
  0
TABLE
  2
UCS
  5
7
330
0
100
AcDbSymbolTable
 70
     0
  0
ENDTAB
  0
TABLE
  2
APPID
  5
9
330
0
100
AcDbSymbolTable
 70
     6
  0
APPID
  5
22A
330
9
100
AcDbSymbolTableRecord
100
AcDbRegAppTableRecord
  2
ACAD
 70
     0
  0
APPID
  5
5A2
330
9
100
AcDbSymbolTableRecord
100
AcDbRegAppTableRecord
  2
MCS_DIM1
 70
     0
  0
APPID
  5
5A3
330
9
100
AcDbSymbolTableRecord
100
AcDbRegAppTableRecord
  2
McsXdata5
 70
     0
  0
APPID
  5
5A6
330
9
100
AcDbSymbolTableRecord
100
AcDbRegAppTableRecord
  2
MCS_DOCUMENT_ID
 70
     0
  0
APPID
  5
5AC
330
9
100
AcDbSymbolTableRecord
100
AcDbRegAppTableRecord
  2
MCS_PARAMS_DATA
 70
     0
  0
APPID
  5
5AE
330
9
100
AcDbSymbolTableRecord
100
AcDbRegAppTableRecord
  2
MC_VERSION_DATA
 70
     0
  0
ENDTAB
  0
TABLE
  2
DIMSTYLE
  5
A
330
0
100
AcDbSymbolTable
 70
     4
100
AcDbDimStyleTable
  0
DIMSTYLE
105
234
330
A
100
AcDbSymbolTableRecord
100
AcDbDimStyleTableRecord
  2
STANDARD
 70
     0
 41
2.5
 42
0.75
 44
0.75
 47
0.01
 48
0.01
 71
     1
 73
     0
 74
     0
 77
     1
 78
     8
 79
     2
140
3.0
147
0.625
171
     1
178
     0
179
     2
271
     2
272
     2
278
    44
284
     8
340
11
341
22D
342
22D
343
22D
344
22D
  0
DIMSTYLE
105
235
330
A
100
AcDbSymbolTableRecord
100
AcDbDimStyleTableRecord
  2
DIMSTYLE_1
 70
     0
 41
2.5
 42
0.75
 44
0.75
 47
0.2
 48
0.2
 73
     0
 74
     0
 77
     1
 78
     8
 79
     2
140
6.0
147
1.5
171
     1
178
     0
179
     2
271
     2
272
     2
278
    44
284
     8
340
11
341
22D
342
22D
343
22D
344
22D
  0
DIMSTYLE
105
236
330
A
100
AcDbSymbolTableRecord
100
AcDbDimStyleTableRecord
  2
DIMSTYLE_2
 70
     0
 41
2.5
 42
0.75
 44
0.75
 47
0.3
 48
0.3
 73
     0
 74
     0
 77
     1
 78
     8
 79
     2
140
6.0
147
1.5
171
     1
178
     0
179
     2
271
     2
272
     2
278
    44
284
     8
340
11
341
22D
342
22D
343
22D
344
22D
  0
DIMSTYLE
105
237
330
A
100
AcDbSymbolTableRecord
100
AcDbDimStyleTableRecord
  2
DIMSTYLE_3
 70
     0
 41
2.5
 42
0.75
 44
0.75
 47
1.2
 48
1.2
 73
     0
 74
     0
 77
     1
 78
     8
 79
     2
140
6.0
147
1.5
171
     1
178
     0
179
     2
271
     2
272
     2
278
    44
284
     8
340
11
341
22D
342
22D
343
22D
344
22D
  0
ENDTAB
  0
TABLE
  2
BLOCK_RECORD
  5
1
330
0
100
AcDbSymbolTable
 70
     7
  0
BLOCK_RECORD
  5
22B
330
1
100
AcDbSymbolTableRecord
100
AcDbBlockTableRecord
  2
*Model_Space
340
55C
 70
     0
280
     1
281
     0
  0
BLOCK_RECORD
  5
22C
330
1
100
AcDbSymbolTableRecord
100
AcDbBlockTableRecord
  2
*Paper_Space
340
55D
 70
     0
280
     1
281
     0
  0
BLOCK_RECORD
  5
22D
330
1
100
AcDbSymbolTableRecord
100
AcDbBlockTableRecord
  2
_CLOSED
340
0
102
{BLKREFS
331
280
331
281
331
289
331
28A
331
292
331
293
331
29B
331
29C
102
}
 70
     0
280
     1
281
     0
  0
BLOCK_RECORD
  5
22E
330
1
100
AcDbSymbolTableRecord
100
AcDbBlockTableRecord
  2
*D1
340
0
 70
     0
280
     1
281
     0
  0
BLOCK_RECORD
  5
22F
330
1
100
AcDbSymbolTableRecord
100
AcDbBlockTableRecord
  2
*D2
340
0
 70
     0
280
     1
281
     0
  0
BLOCK_RECORD
  5
230
330
1
100
AcDbSymbolTableRecord
100
AcDbBlockTableRecord
  2
*D3
340
0
 70
     0
280
     1
281
     0
  0
BLOCK_RECORD
  5
231
330
1
100
AcDbSymbolTableRecord
100
AcDbBlockTableRecord
  2
*D4
340
0
 70
     0
280
     1
281
     0
  0
BLOCK_RECORD
  5
232
330
1
100
AcDbSymbolTableRecord
100
AcDbBlockTableRecord
  2
LOGO2_BL0
340
0
102
{BLKREFS
331
559
102
}
 70
     0
280
     1
281
     0
  0
BLOCK_RECORD
  5
233
330
1
100
AcDbSymbolTableRecord
100
AcDbBlockTableRecord
  2
*T6
340
0
102
{BLKREFS
331
55A
102
}
 70
     0
280
     1
281
     0
  0
ENDTAB
  0
ENDSEC
  0
SECTION
  2
BLOCKS
  0
BLOCK
  5
20
330
22B
100
AcDbEntity
  8
0
100
AcDbBlockBegin
  2
*Model_Space
 70
     0
 10
0.0
 20
0.0
 30
0.0
  3
*Model_Space
  1
*Model_Space
  0
ENDBLK
  5
21
330
22B
100
AcDbEntity
  8
0
100
AcDbBlockEnd
  0
BLOCK
  5
1C
330
22C
100
AcDbEntity
 67
     1
  8
0
100
AcDbBlockBegin
  2
*Paper_Space
 70
     0
 10
0.0
 20
0.0
 30
0.0
  3
*Paper_Space
  1
*Paper_Space
  0
ENDBLK
  5
1D
330
22C
100
AcDbEntity
 67
     1
  8
0
100
AcDbBlockEnd
  0
BLOCK
  5
274
330
22D
100
AcDbEntity
  8
0
100
AcDbBlockBegin
  2
_CLOSED
 70
     0
 10
0.0
 20
0.0
 30
0.0
  3
_CLOSED
  1
_CLOSED
  0
LINE
  5
275
330
22D
100
AcDbEntity
  8
0
  6
ByBlock
 62
     0
100
AcDbLine
 10
0.0
 20
0.0
 30
0.0
 11
-1.0
 21
0.2
 31
0.0
  0
LINE
  5
276
330
22D
100
AcDbEntity
  8
0
  6
ByBlock
 62
     0
100
AcDbLine
 10
-1.0
 20
0.2
 30
0.0
 11
-1.0
 21
-0.2
 31
0.0
  0
LINE
  5
277
330
22D
100
AcDbEntity
  8
0
  6
ByBlock
 62
     0
100
AcDbLine
 10
-1.0
 20
-0.2
 30
0.0
 11
0.0
 21
0.0
 31
0.0
  0
LINE
  5
278
330
22D
100
AcDbEntity
  8
0
  6
ByBlock
 62
     0
100
AcDbLine
 10
-1.0
 20
0.0
 30
0.0
 11
0.0
 21
0.0
 31
0.0
  0
ENDBLK
  5
279
330
22D
100
AcDbEntity
  8
0
  6
ByBlock
 62
     0
100
AcDbBlockEnd
  0
BLOCK
  5
27A
330
22E
100
AcDbEntity
  8
0
100
AcDbBlockBegin
  2
*D1
 70
     1
 10
0.0
 20
0.0
 30
0.0
  3
*D1
  1
*D1
  0
MTEXT
  5
27B
330
22E
100
AcDbEntity
  8
0
  6
Continuous
 62
     2
100
AcDbMText
 10
1105.768985
 20
685.879151
 30
0.0
 40
6.0
 41
14.142857
 46
0.0
 71
     2
 72
     1
  1
26
 11
0.0
 21
1.0
 31
0.0
 73
     1
 44
0.9
  0
LINE
  5
27C
330
22E
100
AcDbEntity
  8
0
  6
Continuous
 62
     2
100
AcDbLine
 10
1130.161422
 20
698.879151
 30
0.0
 11
1112.518985
 21
698.879151
 31
0.0
  0
LINE
  5
27D
330
22E
100
AcDbEntity
  8
0
  6
Continuous
 62
     2
100
AcDbLine
 10
1130.161422
 20
672.879151
 30
0.0
 11
1112.518985
 21
672.879151
 31
0.0
  0
LINE
  5
27E
330
22E
100
AcDbEntity
  8
0
  6
Continuous
 62
     2
100
AcDbLine
 10
1113.268985
 20
698.879151
 30
0.0
 11
1113.268985
 21
685.879151
 31
0.0
  0
LINE
  5
27F
330
22E
100
AcDbEntity
  8
0
  6
Continuous
 62
     2
100
AcDbLine
 10
1113.268985
 20
672.879151
 30
0.0
 11
1113.268985
 21
685.879151
 31
0.0
  0
INSERT
  5
280
330
22E
100
AcDbEntity
  8
0
  6
Continuous
 62
     2
100
AcDbBlockReference
  2
_CLOSED
 10
1113.268985
 20
698.879151
 30
0.0
 41
2.5
 42
2.5
 43
2.5
 50
90.0
  0
INSERT
  5
281
330
22E
100
AcDbEntity
  8
0
  6
Continuous
 62
     2
100
AcDbBlockReference
  2
_CLOSED
 10
1113.268985
 20
672.879151
 30
0.0
 41
2.5
 42
2.5
 43
2.5
 50
270.0
  0
ENDBLK
  5
282
330
22E
100
AcDbEntity
  8
0
  6
ByBlock
 62
     0
100
AcDbBlockEnd
  0
BLOCK
  5
283
330
22F
100
AcDbEntity
  8
0
100
AcDbBlockBegin
  2
*D2
 70
     1
 10
0.0
 20
0.0
 30
0.0
  3
*D2
  1
*D2
  0
MTEXT
  5
284
330
22F
100
AcDbEntity
  8
0
  6
Continuous
 62
     2
100
AcDbMText
 10
1143.861422
 20
716.927515
 30
0.0
 40
6.0
 41
25.714286
 46
0.0
 71
     2
 72
     1
  1
26,5
 73
     1
 44
0.9
  0
LINE
  5
285
330
22F
100
AcDbEntity
  8
0
  6
Continuous
 62
     2
100
AcDbLine
 10
1130.611422
 20
699.329151
 30
0.0
 11
1130.611422
 21
710.177515
 31
0.0
  0
LINE
  5
286
330
22F
100
AcDbEntity
  8
0
  6
Continuous
 62
     2
100
AcDbLine
 10
1157.111422
 20
699.329151
 30
0.0
 11
1157.111422
 21
710.177515
 31
0.0
  0
LINE
  5
287
330
22F
100
AcDbEntity
  8
0
  6
Continuous
 62
     2
100
AcDbLine
 10
1130.611422
 20
709.427515
 30
0.0
 11
1143.861422
 21
709.427515
 31
0.0
  0
LINE
  5
288
330
22F
100
AcDbEntity
  8
0
  6
Continuous
 62
     2
100
AcDbLine
 10
1157.111422
 20
709.427515
 30
0.0
 11
1143.861422
 21
709.427515
 31
0.0
  0
INSERT
  5
289
330
22F
100
AcDbEntity
  8
0
  6
Continuous
 62
     2
100
AcDbBlockReference
  2
_CLOSED
 10
1130.611422
 20
709.427515
 30
0.0
 41
2.5
 42
2.5
 43
2.5
 50
180.0
  0
INSERT
  5
28A
330
22F
100
AcDbEntity
  8
0
  6
Continuous
 62
     2
100
AcDbBlockReference
  2
_CLOSED
 10
1157.111422
 20
709.427515
 30
0.0
 41
2.5
 42
2.5
 43
2.5
  0
ENDBLK
  5
28B
330
22F
100
AcDbEntity
  8
0
  6
ByBlock
 62
     0
100
AcDbBlockEnd
  0
BLOCK
  5
28C
330
230
100
AcDbEntity
  8
0
100
AcDbBlockBegin
  2
*D3
 70
     1
 10
0.0
 20
0.0
 30
0.0
  3
*D3
  1
*D3
  0
MTEXT
  5
28D
330
230
100
AcDbEntity
  8
0
  6
Continuous
 62
     2
100
AcDbMText
 10
1091.047231
 20
678.254151
 30
0.0
 40
6.0
 41
30.857143
 46
0.0
 71
     2
 72
     1
  1
41,25
 11
0.0
 21
1.0
 31
0.0
 73
     1
 44
0.9
  0
LINE
  5
28E
330
230
100
AcDbEntity
  8
0
  6
Continuous
 62
     2
100
AcDbLine
 10
1084.581593
 20
657.629151
 30
0.0
 11
1099.297231
 21
657.629151
 31
0.0
  0
LINE
  5
28F
330
230
100
AcDbEntity
  8
0
  6
Continuous
 62
     2
100
AcDbLine
 10
1083.840184
 20
698.879151
 30
0.0
 11
1099.297231
 21
698.879151
 31
0.0
  0
LINE
  5
290
330
230
100
AcDbEntity
  8
0
  6
Continuous
 62
     2
100
AcDbLine
 10
1098.547231
 20
657.629151
 30
0.0
 11
1098.547231
 21
678.254151
 31
0.0
  0
LINE
  5
291
330
230
100
AcDbEntity
  8
0
  6
Continuous
 62
     2
100
AcDbLine
 10
1098.547231
 20
698.879151
 30
0.0
 11
1098.547231
 21
678.254151
 31
0.0
  0
INSERT
  5
292
330
230
100
AcDbEntity
  8
0
  6
Continuous
 62
     2
100
AcDbBlockReference
  2
_CLOSED
 10
1098.547231
 20
657.629151
 30
0.0
 41
2.5
 42
2.5
 43
2.5
 50
270.0
  0
INSERT
  5
293
330
230
100
AcDbEntity
  8
0
  6
Continuous
 62
     2
100
AcDbBlockReference
  2
_CLOSED
 10
1098.547231
 20
698.879151
 30
0.0
 41
2.5
 42
2.5
 43
2.5
 50
90.0
  0
ENDBLK
  5
294
330
230
100
AcDbEntity
  8
0
  6
ByBlock
 62
     0
100
AcDbBlockEnd
  0
BLOCK
  5
295
330
231
100
AcDbEntity
  8
0
100
AcDbBlockBegin
  2
*D4
 70
     1
 10
0.0
 20
0.0
 30
0.0
  3
*D4
  1
*D4
  0
MTEXT
  5
296
330
231
100
AcDbEntity
  8
0
  6
Continuous
 62
     2
100
AcDbMText
 10
546.746396
 20
543.329764
 30
0.0
 40
6.0
 41
38.571429
 46
0.0
 71
     2
 72
     1
  1
1062,7
 73
     1
 44
0.9
  0
LINE
  5
297
330
231
100
AcDbEntity
  8
0
  6
Continuous
 62
     2
100
AcDbLine
 10
1078.096396
 20
515.331294
 30
0.0
 11
1078.096396
 21
536.579764
 31
0.0
  0
LINE
  5
298
330
231
100
AcDbEntity
  8
0
  6
Continuous
 62
     2
100
AcDbLine
 10
15.396396
 20
514.446743
 30
0.0
 11
15.396396
 21
536.579764
 31
0.0
  0
LINE
  5
299
330
231
100
AcDbEntity
  8
0
  6
Continuous
 62
     2
100
AcDbLine
 10
1078.096396
 20
535.829764
 30
0.0
 11
546.746396
 21
535.829764
 31
0.0
  0
LINE
  5
29A
330
231
100
AcDbEntity
  8
0
  6
Continuous
 62
     2
100
AcDbLine
 10
15.396396
 20
535.829764
 30
0.0
 11
546.746396
 21
535.829764
 31
0.0
  0
INSERT
  5
29B
330
231
100
AcDbEntity
  8
0
  6
Continuous
 62
     2
100
AcDbBlockReference
  2
_CLOSED
 10
1078.096396
 20
535.829764
 30
0.0
 41
2.5
 42
2.5
 43
2.5
  0
INSERT
  5
29C
330
231
100
AcDbEntity
  8
0
  6
Continuous
 62
     2
100
AcDbBlockReference
  2
_CLOSED
 10
15.396396
 20
535.829764
 30
0.0
 41
2.5
 42
2.5
 43
2.5
 50
180.0
  0
ENDBLK
  5
29D
330
231
100
AcDbEntity
  8
0
  6
ByBlock
 62
     0
100
AcDbBlockEnd
  0
BLOCK
  5
238
330
232
100
AcDbEntity
  8
0
100
AcDbBlockBegin
  2
LOGO2_BL0
 70
     0
 10
1102.806666
 20
36.519554
 30
0.0
  3
LOGO2_BL0
  1
LOGO2_BL0
  0
LINE
  5
239
330
232
100
AcDbEntity
  8
0
  6
Continuous
 62
     7
100
AcDbLine
 10
1094.549591
 20
39.715046
 30
0.0
 11
1093.24525
 21
39.715046
 31
0.0
  0
LINE
  5
23A
330
232
100
AcDbEntity
  8
0
  6
Continuous
 62
     7
100
AcDbLine
 10
1093.24525
 20
39.715046
 30
0.0
 11
1093.24525
 21
29.25598
 31
0.0
  0
LINE
  5
23B
330
232
100
AcDbEntity
  8
0
  6
Continuous
 62
     7
100
AcDbLine
 10
1093.24525
 20
29.25598
 30
0.0
 11
1097.726305
 21
29.25598
 31
0.0
  0
LINE
  5
23C
330
232
100
AcDbEntity
  8
0
  6
Continuous
 62
     7
100
AcDbLine
 10
1097.726305
 20
29.25598
 30
0.0
 11
1097.726305
 21
30.448834
 31
0.0
  0
LINE
  5
23D
330
232
100
AcDbEntity
  8
0
  6
Continuous
 62
     7
100
AcDbLine
 10
1097.726305
 20
30.448834
 30
0.0
 11
1094.549591
 21
30.448834
 31
0.0
  0
LINE
  5
23E
330
232
100
AcDbEntity
  8
0
  6
Continuous
 62
     7
100
AcDbLine
 10
1094.549591
 20
30.448834
 30
0.0
 11
1094.549591
 21
39.715046
 31
0.0
  0
LINE
  5
23F
330
232
100
AcDbEntity
  8
0
  6
Continuous
 62
     7
100
AcDbLine
 10
1109.485917
 20
39.715046
 30
0.0
 11
1108.1821
 21
39.715046
 31
0.0
  0
LINE
  5
240
330
232
100
AcDbEntity
  8
0
  6
Continuous
 62
     7
100
AcDbLine
 10
1108.1821
 20
39.715046
 30
0.0
 11
1108.1821
 21
29.25598
 31
0.0
  0
LINE
  5
241
330
232
100
AcDbEntity
  8
0
  6
Continuous
 62
     7
100
AcDbLine
 10
1108.1821
 20
29.25598
 30
0.0
 11
1112.663286
 21
29.25598
 31
0.0
  0
LINE
  5
242
330
232
100
AcDbEntity
  8
0
  6
Continuous
 62
     7
100
AcDbLine
 10
1112.663286
 20
29.25598
 30
0.0
 11
1112.663286
 21
30.448834
 31
0.0
  0
LINE
  5
243
330
232
100
AcDbEntity
  8
0
  6
Continuous
 62
     7
100
AcDbLine
 10
1112.663286
 20
30.448834
 30
0.0
 11
1109.485917
 21
30.448834
 31
0.0
  0
LINE
  5
244
330
232
100
AcDbEntity
  8
0
  6
Continuous
 62
     7
100
AcDbLine
 10
1109.485917
 20
30.448834
 30
0.0
 11
1109.485917
 21
39.715046
 31
0.0
  0
LWPOLYLINE
  5
245
330
232
100
AcDbEntity
  8
0
  6
Continuous
 62
     7
100
AcDbPolyline
 90
        2
 70
     0
 43
0.2
 10
1091.599645
 20
25.912428
 10
1091.599645
 20
24.055365
  0
LWPOLYLINE
  5
246
330
232
100
AcDbEntity
  8
0
  6
Continuous
 62
     7
100
AcDbPolyline
 90
        2
 70
     0
 43
0.2
 10
1091.599645
 20
24.055365
 10
1092.395361
 20
24.055365
  0
LWPOLYLINE
  5
247
330
232
100
AcDbEntity
  8
0
  6
Continuous
 62
     7
100
AcDbPolyline
 90
        2
 70
     0
 43
0.2
 10
1092.395361
 20
24.055365
 10
1092.395361
 20
24.267347
  0
LWPOLYLINE
  5
248
330
232
100
AcDbEntity
  8
0
  6
Continuous
 62
     7
100
AcDbPolyline
 90
        2
 70
     0
 43
0.2
 10
1092.395361
 20
24.267347
 10
1091.831255
 20
24.267347
  0
LWPOLYLINE
  5
249
330
232
100
AcDbEntity
  8
0
  6
Continuous
 62
     7
100
AcDbPolyline
 90
        2
 70
     0
 43
0.2
 10
1091.831255
 20
24.267347
 10
1091.831255
 20
25.912428
  0
LWPOLYLINE
  5
24A
330
232
100
AcDbEntity
  8
0
  6
Continuous
 62
     7
100
AcDbPolyline
 90
        2
 70
     0
 43
0.2
 10
1091.831255
 20
25.912428
 10
1091.599645
 20
25.912428
  0
SPLINE
  5
24B
330
232
100
AcDbEntity
  8
0
  6
Continuous
 62
     7
100
AcDbSpline
 70
     3
 71
     3
 72
    35
 73
    31
 74
     0
 42
0.000000001
 43
0.0000001
 40
0.0
 40
0.0
 40
0.0
 40
0.0
 40
1.0
 40
1.0
 40
1.0
 40
2.0
 40
2.0
 40
2.0
 40
3.0
 40
3.0
 40
3.0
 40
4.0
 40
4.0
 40
4.0
 40
5.0
 40
5.0
 40
5.0
 40
6.0
 40
6.0
 40
6.0
 40
7.0
 40
7.0
 40
7.0
 40
8.0
 40
8.0
 40
8.0
 40
9.0
 40
9.0
 40
9.0
 40
10.0
 40
10.0
 40
10.0
 40
10.0
 10
1093.7936545075
 20
25.2079168209
 30
0.0
 10
1093.7936545075
 20
25.2079168209
 30
0.0
 10
1093.7936545075
 20
24.5458015417
 30
0.0
 10
1093.7936545075
 20
24.5458015417
 30
0.0
 10
1093.7936545075
 20
24.2307079464
 30
0.0
 10
1093.9415181963
 20
24.0161093184
 30
0.0
 10
1094.2816046806
 20
24.0161093184
 30
0.0
 10
1094.6211677536
 20
24.0161093184
 30
0.0
 10
1094.7692931481
 20
24.2307079464
 30
0.0
 10
1094.7692931481
 20
24.5458015417
 30
0.0
 10
1094.7692931481
 20
24.5458015417
 30
0.0
 10
1094.7692931481
 20
25.2079168209
 30
0.0
 10
1094.7692931481
 20
25.2079168209
 30
0.0
 10
1094.7692931481
 20
25.2079168209
 30
0.0
 10
1094.5472359092
 20
25.2079168209
 30
0.0
 10
1094.5472359092
 20
25.2079168209
 30
0.0
 10
1094.5472359092
 20
25.2079168209
 30
0.0
 10
1094.5472359092
 20
24.5709252835
 30
0.0
 10
1094.5472359092
 20
24.5709252835
 30
0.0
 10
1094.5472359092
 20
24.3851142763
 30
0.0
 10
1094.5005214518
 20
24.2223333658
 30
0.0
 10
1094.2816046806
 20
24.2223333658
 30
0.0
 10
1094.0621644982
 20
24.2223333658
 30
0.0
 10
1094.0154500408
 20
24.3851142763
 30
0.0
 10
1094.0154500408
 20
24.5709252835
 30
0.0
 10
1094.0154500408
 20
24.5709252835
 30
0.0
 10
1094.0154500408
 20
25.2079168209
 30
0.0
 10
1094.0154500408
 20
25.2079168209
 30
0.0
 10
1094.0154500408
 20
25.2079168209
 30
0.0
 10
1093.7936545075
 20
25.2079168209
 30
0.0
 10
1093.7936545075
 20
25.2079168209
 30
0.0
  0
SPLINE
  5
24C
330
232
100
AcDbEntity
  8
0
  6
Continuous
 62
     7
100
AcDbSpline
 70
     3
 71
     3
 72
    35
 73
    31
 74
     0
 42
0.000000001
 43
0.0000001
 40
0.0
 40
0.0
 40
0.0
 40
0.0
 40
1.0
 40
1.0
 40
1.0
 40
2.0
 40
2.0
 40
2.0
 40
3.0
 40
3.0
 40
3.0
 40
4.0
 40
4.0
 40
4.0
 40
5.0
 40
5.0
 40
5.0
 40
6.0
 40
6.0
 40
6.0
 40
7.0
 40
7.0
 40
7.0
 40
8.0
 40
8.0
 40
8.0
 40
9.0
 40
9.0
 40
9.0
 40
10.0
 40
10.0
 40
10.0
 40
10.0
 10
1097.1924257053
 20
25.1665673291
 30
0.0
 10
1097.1039691977
 20
25.2178616353
 30
0.0
 10
1096.990519801
 20
25.2429853771
 30
0.0
 10
1096.886884366
 20
25.2429853771
 30
0.0
 10
1096.5320115128
 20
25.2429853771
 30
0.0
 10
1096.2565663226
 20
24.9791860881
 30
0.0
 10
1096.2565663226
 20
24.6216961784
 30
0.0
 10
1096.2565663226
 20
24.2767681397
 30
0.0
 10
1096.5350211277
 20
24.0166327297
 30
0.0
 10
1096.8745842008
 20
24.0166327297
 30
0.0
 10
1096.990519801
 20
24.0166327297
 30
0.0
 10
1097.0912764739
 20
24.0386160038
 30
0.0
 10
1097.1924257053
 20
24.0925273664
 30
0.0
 10
1097.1924257053
 20
24.0925273664
 30
0.0
 10
1097.1924257053
 20
24.3751694619
 30
0.0
 10
1097.1924257053
 20
24.3751694619
 30
0.0
 10
1097.1085490464
 20
24.2820022526
 30
0.0
 10
1097.0050444643
 20
24.2228567771
 30
0.0
 10
1096.8769395515
 20
24.2228567771
 30
0.0
 10
1096.6432364115
 20
24.2228567771
 30
0.0
 10
1096.4779692974
 20
24.3950590908
 30
0.0
 10
1096.4779692974
 20
24.6316409929
 30
0.0
 10
1096.4779692974
 20
24.8436225645
 30
0.0
 10
1096.6457226151
 20
25.0357145071
 30
0.0
 10
1096.8625457411
 20
25.0357145071
 30
0.0
 10
1096.9953613554
 20
25.0357145071
 30
0.0
 10
1097.1039691977
 20
24.9818031445
 30
0.0
 10
1097.1924257053
 20
24.8807847659
 30
0.0
 10
1097.1924257053
 20
24.8807847659
 30
0.0
 10
1097.1924257053
 20
25.1665673291
 30
0.0
 10
1097.1924257053
 20
25.1665673291
 30
0.0
  0
SPLINE
  5
24D
330
232
100
AcDbEntity
  8
0
  6
Continuous
 62
     7
100
AcDbSpline
 70
     3
 71
     3
 72
    32
 73
    28
 74
     0
 42
0.000000001
 43
0.0000001
 40
0.0
 40
0.0
 40
0.0
 40
0.0
 40
1.0
 40
1.0
 40
1.0
 40
2.0
 40
2.0
 40
2.0
 40
3.0
 40
3.0
 40
3.0
 40
4.0
 40
4.0
 40
4.0
 40
5.0
 40
5.0
 40
5.0
 40
6.0
 40
6.0
 40
6.0
 40
7.0
 40
7.0
 40
7.0
 40
8.0
 40
8.0
 40
8.0
 40
9.0
 40
9.0
 40
9.0
 40
9.0
 10
1099.7242969576
 20
24.5950022028
 30
0.0
 10
1099.7242969576
 20
24.5950022028
 30
0.0
 10
1099.7242969576
 20
24.6290239365
 30
0.0
 10
1099.7242969576
 20
24.6290239365
 30
0.0
 10
1099.7242969576
 20
24.9713349187
 30
0.0
 10
1099.5514403797
 20
25.2429853771
 30
0.0
 10
1099.1847907726
 20
25.2429853771
 30
0.0
 10
1098.8131687582
 20
25.2429853771
 30
0.0
 10
1098.6234321663
 20
24.9765690316
 30
0.0
 10
1098.6234321663
 20
24.6216961784
 30
0.0
 10
1098.6234321663
 20
24.2820022526
 30
0.0
 10
1098.8375073831
 20
24.0161093184
 30
0.0
 10
1099.189632327
 20
24.0161093184
 30
0.0
 10
1099.4136523582
 20
24.0161093184
 30
0.0
 10
1099.6158199681
 20
24.131783213
 30
0.0
 10
1099.7242969576
 20
24.3312029137
 30
0.0
 10
1099.7242969576
 20
24.3312029137
 30
0.0
 10
1099.5366540109
 20
24.4379788164
 30
0.0
 10
1099.5366540109
 20
24.4379788164
 30
0.0
 10
1099.4531699104
 20
24.2992748251
 30
0.0
 10
1099.3619654935
 20
24.2134353739
 30
0.0
 10
1099.1923802363
 20
24.2134353739
 30
0.0
 10
1098.9803986647
 20
24.2134353739
 30
0.0
 10
1098.8474521976
 20
24.3981995585
 30
0.0
 10
1098.8450968468
 20
24.5950022028
 30
0.0
 10
1098.8450968468
 20
24.5950022028
 30
0.0
 10
1099.7242969576
 20
24.5950022028
 30
0.0
 10
1099.7242969576
 20
24.5950022028
 30
0.0
  0
SPLINE
  5
24E
330
232
100
AcDbEntity
  8
0
  6
Continuous
 62
     7
100
AcDbSpline
 70
     3
 71
     3
 72
    14
 73
    10
 74
     0
 42
0.000000001
 43
0.0000001
 40
0.0
 40
0.0
 40
0.0
 40
0.0
 40
1.0
 40
1.0
 40
1.0
 40
2.0
 40
2.0
 40
2.0
 40
3.0
 40
3.0
 40
3.0
 40
3.0
 10
1098.8571353064
 20
24.7624938149
 30
0.0
 10
1098.8847452518
 20
24.9273683706
 30
0.0
 10
1099.0125884589
 20
25.0503700232
 30
0.0
 10
1099.1847907726
 20
25.0503700232
 30
0.0
 10
1099.3619654935
 20
25.0503700232
 30
0.0
 10
1099.4754148902
 20
24.9346961286
 30
0.0
 10
1099.5026322771
 20
24.7624938149
 30
0.0
 10
1099.5026322771
 20
24.7624938149
 30
0.0
 10
1098.8571353064
 20
24.7624938149
 30
0.0
 10
1098.8571353064
 20
24.7624938149
 30
0.0
  0
SPLINE
  5
24F
330
232
100
AcDbEntity
  8
0
  6
Continuous
 62
     7
100
AcDbSpline
 70
     3
 71
     3
 72
    20
 73
    16
 74
     0
 42
0.000000001
 43
0.0000001
 40
0.0
 40
0.0
 40
0.0
 40
0.0
 40
1.0
 40
1.0
 40
1.0
 40
2.0
 40
2.0
 40
2.0
 40
3.0
 40
3.0
 40
3.0
 40
4.0
 40
4.0
 40
4.0
 40
5.0
 40
5.0
 40
5.0
 40
5.0
 10
1101.7483284078
 20
24.97185833
 30
0.0
 10
1101.7483284078
 20
24.97185833
 30
0.0
 10
1102.1594679744
 20
24.4693834937
 30
0.0
 10
1102.1594679744
 20
24.4693834937
 30
0.0
 10
1102.0434015213
 20
24.3537095991
 30
0.0
 10
1101.9056134998
 20
24.2233801884
 30
0.0
 10
1101.7336728917
 20
24.2233801884
 30
0.0
 10
1101.5562364651
 20
24.2233801884
 30
0.0
 10
1101.388744853
 20
24.3877313328
 30
0.0
 10
1101.388744853
 20
24.5646443481
 30
0.0
 10
1101.388744853
 20
24.7426041859
 30
0.0
 10
1101.5985019266
 20
24.8687463063
 30
0.0
 10
1101.726083428
 20
24.9566794027
 30
0.0
 10
1101.726083428
 20
24.9566794027
 30
0.0
 10
1101.7483284078
 20
24.97185833
 30
0.0
 10
1101.7483284078
 20
24.97185833
 30
0.0
  0
SPLINE
  5
250
330
232
100
AcDbEntity
  8
0
  6
Continuous
 62
     7
100
AcDbSpline
 70
     3
 71
     3
 72
    23
 73
    19
 74
     0
 42
0.000000001
 43
0.0000001
 40
0.0
 40
0.0
 40
0.0
 40
0.0
 40
1.0
 40
1.0
 40
1.0
 40
2.0
 40
2.0
 40
2.0
 40
3.0
 40
3.0
 40
3.0
 40
4.0
 40
4.0
 40
4.0
 40
5.0
 40
5.0
 40
5.0
 40
6.0
 40
6.0
 40
6.0
 40
6.0
 10
1101.7976599216
 20
25.2628750061
 30
0.0
 10
1101.7976599216
 20
25.2628750061
 30
0.0
 10
1101.7360282425
 20
25.3413866993
 30
0.0
 10
1101.7360282425
 20
25.3413866993
 30
0.0
 10
1101.6821168798
 20
25.409953578
 30
0.0
 10
1101.6253267551
 20
25.479043868
 30
0.0
 10
1101.6253267551
 20
25.5727344885
 30
0.0
 10
1101.6253267551
 20
25.6915488509
 30
0.0
 10
1101.7212418736
 20
25.7690137215
 30
0.0
 10
1101.8322050666
 20
25.7690137215
 30
0.0
 10
1101.9554684249
 20
25.7690137215
 30
0.0
 10
1102.048766487
 20
25.6978297863
 30
0.0
 10
1102.048766487
 20
25.5675003756
 30
0.0
 10
1102.048766487
 20
25.4324602634
 30
0.0
 10
1101.9206615743
 20
25.3560422153
 30
0.0
 10
1101.8271018066
 20
25.2822412237
 30
0.0
 10
1101.8271018066
 20
25.2822412237
 30
0.0
 10
1101.7976599216
 20
25.2628750061
 30
0.0
 10
1101.7976599216
 20
25.2628750061
 30
0.0
  0
SPLINE
  5
251
330
232
100
AcDbEntity
  8
0
  6
Continuous
 62
     7
100
AcDbSpline
 70
     3
 71
     3
 72
    50
 73
    46
 74
     0
 42
0.000000001
 43
0.0000001
 40
0.0
 40
0.0
 40
0.0
 40
0.0
 40
1.0
 40
1.0
 40
1.0
 40
2.0
 40
2.0
 40
2.0
 40
3.0
 40
3.0
 40
3.0
 40
4.0
 40
4.0
 40
4.0
 40
5.0
 40
5.0
 40
5.0
 40
6.0
 40
6.0
 40
6.0
 40
7.0
 40
7.0
 40
7.0
 40
8.0
 40
8.0
 40
8.0
 40
9.0
 40
9.0
 40
9.0
 40
10.0
 40
10.0
 40
10.0
 40
11.0
 40
11.0
 40
11.0
 40
12.0
 40
12.0
 40
12.0
 40
13.0
 40
13.0
 40
13.0
 40
14.0
 40
14.0
 40
14.0
 40
15.0
 40
15.0
 40
15.0
 40
15.0
 10
1102.4998161643
 20
24.0558885763
 30
0.0
 10
1102.4998161643
 20
24.0558885763
 30
0.0
 10
1102.785206169
 20
24.0558885763
 30
0.0
 10
1102.785206169
 20
24.0558885763
 30
0.0
 10
1102.785206169
 20
24.0558885763
 30
0.0
 10
1102.4528400012
 20
24.4667664372
 30
0.0
 10
1102.4528400012
 20
24.4667664372
 30
0.0
 10
1102.4528400012
 20
24.4667664372
 30
0.0
 10
1102.6793462361
 20
24.7326593715
 30
0.0
 10
1102.6793462361
 20
24.7326593715
 30
0.0
 10
1102.6793462361
 20
24.7326593715
 30
0.0
 10
1102.5310899888
 20
24.8854954675
 30
0.0
 10
1102.5310899888
 20
24.8854954675
 30
0.0
 10
1102.5310899888
 20
24.8854954675
 30
0.0
 10
1102.3151828325
 20
24.6342580494
 30
0.0
 10
1102.3151828325
 20
24.6342580494
 30
0.0
 10
1102.3151828325
 20
24.6342580494
 30
0.0
 10
1101.9281201851
 20
25.1021877407
 30
0.0
 10
1101.9281201851
 20
25.1021877407
 30
0.0
 10
1102.0835733376
 20
25.2162914015
 30
0.0
 10
1102.2658513186
 20
25.3560422153
 30
0.0
 10
1102.2658513186
 20
25.5654067305
 30
0.0
 10
1102.2658513186
 20
25.8093163906
 30
0.0
 10
1102.0638145615
 20
25.9527310835
 30
0.0
 10
1101.8373083267
 20
25.9527310835
 30
0.0
 10
1101.5931369609
 20
25.9527310835
 30
0.0
 10
1101.4087653347
 20
25.8019886326
 30
0.0
 10
1101.4087653347
 20
25.5455171015
 30
0.0
 10
1101.4087653347
 20
25.3879703039
 30
0.0
 10
1101.5074283625
 20
25.2503131352
 30
0.0
 10
1101.6127648842
 20
25.1393499421
 30
0.0
 10
1101.6127648842
 20
25.1393499421
 30
0.0
 10
1101.4972218424
 20
25.0556041361
 30
0.0
 10
1101.4972218424
 20
25.0556041361
 30
0.0
 10
1101.3195237102
 20
24.9273683706
 30
0.0
 10
1101.1721834326
 20
24.7996560163
 30
0.0
 10
1101.1721834326
 20
24.5625507029
 30
0.0
 10
1101.1721834326
 20
24.2422229947
 30
0.0
 10
1101.4307486088
 20
24.0161093184
 30
0.0
 10
1101.7411315025
 20
24.0161093184
 30
0.0
 10
1101.9600482737
 20
24.0161093184
 30
0.0
 10
1102.1572434764
 20
24.1412046162
 30
0.0
 10
1102.2975177016
 20
24.3071259944
 30
0.0
 10
1102.2975177016
 20
24.3071259944
 30
0.0
 10
1102.4998161643
 20
24.0558885763
 30
0.0
 10
1102.4998161643
 20
24.0558885763
 30
0.0
  0
LWPOLYLINE
  5
252
330
232
100
AcDbEntity
  8
0
  6
Continuous
 62
     7
100
AcDbPolyline
 90
        2
 70
     0
 43
0.2
 10
1104.43526
 20
25.912428
 10
1104.203912
 20
25.912428
  0
LWPOLYLINE
  5
253
330
232
100
AcDbEntity
  8
0
  6
Continuous
 62
     7
100
AcDbPolyline
 90
        2
 70
     0
 43
0.2
 10
1104.203912
 20
25.912428
 10
1104.203912
 20
24.055365
  0
LWPOLYLINE
  5
254
330
232
100
AcDbEntity
  8
0
  6
Continuous
 62
     7
100
AcDbPolyline
 90
        2
 70
     0
 43
0.2
 10
1104.203912
 20
24.055365
 10
1104.999236
 20
24.055365
  0
LWPOLYLINE
  5
255
330
232
100
AcDbEntity
  8
0
  6
Continuous
 62
     7
100
AcDbPolyline
 90
        2
 70
     0
 43
0.2
 10
1104.999236
 20
24.055365
 10
1104.999236
 20
24.267347
  0
LWPOLYLINE
  5
256
330
232
100
AcDbEntity
  8
0
  6
Continuous
 62
     7
100
AcDbPolyline
 90
        2
 70
     0
 43
0.2
 10
1104.999236
 20
24.267347
 10
1104.43526
 20
24.267347
  0
LWPOLYLINE
  5
257
330
232
100
AcDbEntity
  8
0
  6
Continuous
 62
     7
100
AcDbPolyline
 90
        2
 70
     0
 43
0.2
 10
1104.43526
 20
24.267347
 10
1104.43526
 20
25.912428
  0
LWPOLYLINE
  5
258
330
232
100
AcDbEntity
  8
0
  6
Continuous
 62
     7
100
AcDbPolyline
 90
        2
 70
     0
 43
0.2
 10
1106.678339
 20
25.207917
 10
1106.457198
 20
25.207917
  0
LWPOLYLINE
  5
259
330
232
100
AcDbEntity
  8
0
  6
Continuous
 62
     7
100
AcDbPolyline
 90
        2
 70
     0
 43
0.2
 10
1106.457198
 20
25.207917
 10
1106.457198
 20
24.055889
  0
LWPOLYLINE
  5
25A
330
232
100
AcDbEntity
  8
0
  6
Continuous
 62
     7
100
AcDbPolyline
 90
        2
 70
     0
 43
0.2
 10
1106.457198
 20
24.055889
 10
1106.678339
 20
24.055889
  0
LWPOLYLINE
  5
25B
330
232
100
AcDbEntity
  8
0
  6
Continuous
 62
     7
100
AcDbPolyline
 90
        2
 70
     0
 43
0.2
 10
1106.678339
 20
24.055889
 10
1106.678339
 20
25.207917
  0
LWPOLYLINE
  5
25C
330
232
100
AcDbEntity
  8
0
  6
Continuous
 62
     7
100
AcDbPolyline
 90
        2
 70
     1
 43
0.2
 10
1106.415316
 20
25.737871
 42
1.0
 10
1106.720483
 20
25.737871
 42
1.0
  0
SPLINE
  5
25D
330
232
100
AcDbEntity
  8
0
  6
Continuous
 62
     7
100
AcDbSpline
 70
     3
 71
     3
 72
    17
 73
    13
 74
     0
 42
0.000000001
 43
0.0000001
 40
0.0
 40
0.0
 40
0.0
 40
0.0
 40
1.0
 40
1.0
 40
1.0
 40
2.0
 40
2.0
 40
2.0
 40
3.0
 40
3.0
 40
3.0
 40
4.0
 40
4.0
 40
4.0
 40
4.0
 10
1108.8086232698
 20
24.2134353739
 30
0.0
 10
1108.5746584242
 20
24.2134353739
 30
0.0
 10
1108.4443290135
 20
24.415472131
 30
0.0
 10
1108.4443290135
 20
24.6316409929
 30
0.0
 10
1108.4443290135
 20
24.8462396209
 30
0.0
 10
1108.5801542427
 20
25.0451359103
 30
0.0
 10
1108.8086232698
 20
25.0451359103
 30
0.0
 10
1109.048083934
 20
25.0451359103
 30
0.0
 10
1109.1836474576
 20
24.8561844354
 30
0.0
 10
1109.1836474576
 20
24.6316409929
 30
0.0
 10
1109.1836474576
 20
24.4055273166
 30
0.0
 10
1109.0504392848
 20
24.2134353739
 30
0.0
 10
1108.8086232698
 20
24.2134353739
 30
0.0
  0
SPLINE
  5
25E
330
232
100
AcDbEntity
  8
0
  6
Continuous
 62
     7
100
AcDbSpline
 70
     3
 71
     3
 72
    50
 73
    46
 74
     0
 42
0.000000001
 43
0.0000001
 40
0.0
 40
0.0
 40
0.0
 40
0.0
 40
1.0
 40
1.0
 40
1.0
 40
2.0
 40
2.0
 40
2.0
 40
3.0
 40
3.0
 40
3.0
 40
4.0
 40
4.0
 40
4.0
 40
5.0
 40
5.0
 40
5.0
 40
6.0
 40
6.0
 40
6.0
 40
7.0
 40
7.0
 40
7.0
 40
8.0
 40
8.0
 40
8.0
 40
9.0
 40
9.0
 40
9.0
 40
10.0
 40
10.0
 40
10.0
 40
11.0
 40
11.0
 40
11.0
 40
12.0
 40
12.0
 40
12.0
 40
13.0
 40
13.0
 40
13.0
 40
14.0
 40
14.0
 40
14.0
 40
15.0
 40
15.0
 40
15.0
 40
15.0
 10
1109.3927502671
 20
25.2084402321
 30
0.0
 10
1109.3927502671
 20
25.2084402321
 30
0.0
 10
1109.1710855867
 20
25.2084402321
 30
0.0
 10
1109.1710855867
 20
25.2084402321
 30
0.0
 10
1109.1710855867
 20
25.2084402321
 30
0.0
 10
1109.1710855867
 20
25.0111141766
 30
0.0
 10
1109.1710855867
 20
25.0111141766
 30
0.0
 10
1109.1710855867
 20
25.0111141766
 30
0.0
 10
1109.1663748851
 20
25.0111141766
 30
0.0
 10
1109.1663748851
 20
25.0111141766
 30
0.0
 10
1109.0750396154
 20
25.1540054582
 30
0.0
 10
1108.937120741
 20
25.2424619659
 30
0.0
 10
1108.764395016
 20
25.2424619659
 30
0.0
 10
1108.4320288482
 20
25.2424619659
 30
0.0
 10
1108.2229260387
 20
24.9545857575
 30
0.0
 10
1108.2229260387
 20
24.6389687509
 30
0.0
 10
1108.2229260387
 20
24.3092196396
 30
0.0
 10
1108.4199903886
 20
24.0161093184
 30
0.0
 10
1108.7748632418
 20
24.0161093184
 30
0.0
 10
1108.937120741
 20
24.0161093184
 30
0.0
 10
1109.0771332605
 20
24.104565826
 30
0.0
 10
1109.1663748851
 20
24.235418648
 30
0.0
 10
1109.1663748851
 20
24.235418648
 30
0.0
 10
1109.1710855867
 20
24.235418648
 30
0.0
 10
1109.1710855867
 20
24.235418648
 30
0.0
 10
1109.1710855867
 20
24.235418648
 30
0.0
 10
1109.1710855867
 20
24.0161093184
 30
0.0
 10
1109.1710855867
 20
24.0161093184
 30
0.0
 10
1109.1710855867
 20
23.7795274163
 30
0.0
 10
1109.1145571676
 20
23.5926695865
 30
0.0
 10
1108.8413364753
 20
23.5926695865
 30
0.0
 10
1108.6390380126
 20
23.5926695865
 30
0.0
 10
1108.4964084366
 20
23.7109605375
 30
0.0
 10
1108.4964084366
 20
23.917184585
 30
0.0
 10
1108.4964084366
 20
23.917184585
 30
0.0
 10
1108.2747437562
 20
23.917184585
 30
0.0
 10
1108.2747437562
 20
23.917184585
 30
0.0
 10
1108.2797161634
 20
23.5926695865
 30
0.0
 10
1108.510802247
 20
23.3958669423
 30
0.0
 10
1108.8311299552
 20
23.3958669423
 30
0.0
 10
1109.2791700176
 20
23.3958669423
 30
0.0
 10
1109.3927502671
 20
23.6811260941
 30
0.0
 10
1109.3927502671
 20
24.0778718503
 30
0.0
 10
1109.3927502671
 20
24.0778718503
 30
0.0
 10
1109.3927502671
 20
25.2084402321
 30
0.0
 10
1109.3927502671
 20
25.2084402321
 30
0.0
  0
SPLINE
  5
25F
330
232
100
AcDbEntity
  8
0
  6
Continuous
 62
     7
100
AcDbSpline
 70
     3
 71
     3
 72
    44
 73
    40
 74
     0
 42
0.000000001
 43
0.0000001
 40
0.0
 40
0.0
 40
0.0
 40
0.0
 40
1.0
 40
1.0
 40
1.0
 40
2.0
 40
2.0
 40
2.0
 40
3.0
 40
3.0
 40
3.0
 40
4.0
 40
4.0
 40
4.0
 40
5.0
 40
5.0
 40
5.0
 40
6.0
 40
6.0
 40
6.0
 40
7.0
 40
7.0
 40
7.0
 40
8.0
 40
8.0
 40
8.0
 40
9.0
 40
9.0
 40
9.0
 40
10.0
 40
10.0
 40
10.0
 40
11.0
 40
11.0
 40
11.0
 40
12.0
 40
12.0
 40
12.0
 40
13.0
 40
13.0
 40
13.0
 40
13.0
 10
1110.9616756025
 20
26.1935002759
 30
0.0
 10
1110.9616756025
 20
26.1935002759
 30
0.0
 10
1110.9616756025
 20
24.055365165
 30
0.0
 10
1110.9616756025
 20
24.055365165
 30
0.0
 10
1110.9616756025
 20
24.055365165
 30
0.0
 10
1111.1830785773
 20
24.055365165
 30
0.0
 10
1111.1830785773
 20
24.055365165
 30
0.0
 10
1111.1830785773
 20
24.055365165
 30
0.0
 10
1111.1830785773
 20
24.5850573883
 30
0.0
 10
1111.1830785773
 20
24.5850573883
 30
0.0
 10
1111.1830785773
 20
24.7949453147
 30
0.0
 10
1111.1830785773
 20
25.0456593216
 30
0.0
 10
1111.4683377291
 20
25.0456593216
 30
0.0
 10
1111.6952365224
 20
25.0456593216
 30
0.0
 10
1111.7221922038
 20
24.9127128545
 30
0.0
 10
1111.7221922038
 20
24.7164336215
 30
0.0
 10
1111.7221922038
 20
24.7164336215
 30
0.0
 10
1111.7221922038
 20
24.055365165
 30
0.0
 10
1111.7221922038
 20
24.055365165
 30
0.0
 10
1111.7221922038
 20
24.055365165
 30
0.0
 10
1111.9441185898
 20
24.055365165
 30
0.0
 10
1111.9441185898
 20
24.055365165
 30
0.0
 10
1111.9441185898
 20
24.055365165
 30
0.0
 10
1111.9441185898
 20
24.7426041859
 30
0.0
 10
1111.9441185898
 20
24.7426041859
 30
0.0
 10
1111.9441185898
 20
25.0231526362
 30
0.0
 10
1111.8601110781
 20
25.2429853771
 30
0.0
 10
1111.5350726683
 20
25.2429853771
 30
0.0
 10
1111.3953218545
 20
25.2429853771
 30
0.0
 10
1111.2571412745
 20
25.1765121436
 30
0.0
 10
1111.1877892788
 20
25.0535104909
 30
0.0
 10
1111.1877892788
 20
25.0535104909
 30
0.0
 10
1111.1830785773
 20
25.0535104909
 30
0.0
 10
1111.1830785773
 20
25.0535104909
 30
0.0
 10
1111.1830785773
 20
25.0535104909
 30
0.0
 10
1111.1830785773
 20
26.1935002759
 30
0.0
 10
1111.1830785773
 20
26.1935002759
 30
0.0
 10
1111.1830785773
 20
26.1935002759
 30
0.0
 10
1110.9616756025
 20
26.1935002759
 30
0.0
 10
1110.9616756025
 20
26.1935002759
 30
0.0
  0
LWPOLYLINE
  5
260
330
232
100
AcDbEntity
  8
0
  6
Continuous
 62
     7
100
AcDbPolyline
 90
        2
 70
     0
 43
0.2
 10
1113.783909
 20
25.001169
 10
1114.00034
 20
25.001169
  0
LWPOLYLINE
  5
261
330
232
100
AcDbEntity
  8
0
  6
Continuous
 62
     7
100
AcDbPolyline
 90
        2
 70
     0
 43
0.2
 10
1114.00034
 20
25.001169
 10
1114.00034
 20
25.207917
  0
LWPOLYLINE
  5
262
330
232
100
AcDbEntity
  8
0
  6
Continuous
 62
     7
100
AcDbPolyline
 90
        2
 70
     0
 43
0.2
 10
1114.00034
 20
25.207917
 10
1113.783909
 20
25.207917
  0
LWPOLYLINE
  5
263
330
232
100
AcDbEntity
  8
0
  6
Continuous
 62
     7
100
AcDbPolyline
 90
        2
 70
     0
 43
0.2
 10
1113.783909
 20
25.207917
 10
1113.783909
 20
25.648629
  0
LWPOLYLINE
  5
264
330
232
100
AcDbEntity
  8
0
  6
Continuous
 62
     7
100
AcDbPolyline
 90
        2
 70
     0
 43
0.2
 10
1113.783909
 20
25.648629
 10
1113.562245
 20
25.648629
  0
LWPOLYLINE
  5
265
330
232
100
AcDbEntity
  8
0
  6
Continuous
 62
     7
100
AcDbPolyline
 90
        2
 70
     0
 43
0.2
 10
1113.562245
 20
25.648629
 10
1113.562245
 20
25.207917
  0
LWPOLYLINE
  5
266
330
232
100
AcDbEntity
  8
0
  6
Continuous
 62
     7
100
AcDbPolyline
 90
        2
 70
     0
 43
0.2
 10
1113.562245
 20
25.207917
 10
1113.441598
 20
25.207917
  0
LWPOLYLINE
  5
267
330
232
100
AcDbEntity
  8
0
  6
Continuous
 62
     7
100
AcDbPolyline
 90
        2
 70
     0
 43
0.2
 10
1113.441598
 20
25.207917
 10
1113.441598
 20
25.001169
  0
LWPOLYLINE
  5
268
330
232
100
AcDbEntity
  8
0
  6
Continuous
 62
     7
100
AcDbPolyline
 90
        2
 70
     0
 43
0.2
 10
1113.441598
 20
25.001169
 10
1113.562245
 20
25.001169
  0
LWPOLYLINE
  5
269
330
232
100
AcDbEntity
  8
0
  6
Continuous
 62
     7
100
AcDbPolyline
 90
        2
 70
     0
 43
0.2
 10
1113.562245
 20
25.001169
 10
1113.562245
 20
24.055365
  0
LWPOLYLINE
  5
26A
330
232
100
AcDbEntity
  8
0
  6
Continuous
 62
     7
100
AcDbPolyline
 90
        2
 70
     0
 43
0.2
 10
1113.562245
 20
24.055365
 10
1113.783909
 20
24.055365
  0
LWPOLYLINE
  5
26B
330
232
100
AcDbEntity
  8
0
  6
Continuous
 62
     7
100
AcDbPolyline
 90
        2
 70
     0
 43
0.2
 10
1113.783909
 20
24.055365
 10
1113.783909
 20
25.001169
  0
SPLINE
  5
26C
330
232
100
AcDbEntity
  8
0
  6
Continuous
 62
     7
100
AcDbSpline
 70
     3
 71
     3
 72
    20
 73
    16
 74
     0
 42
0.000000001
 43
0.0000001
 40
0.0
 40
0.0
 40
0.0
 40
0.0
 40
1.0
 40
1.0
 40
1.0
 40
2.0
 40
2.0
 40
2.0
 40
3.0
 40
3.0
 40
3.0
 40
4.0
 40
4.0
 40
4.0
 40
5.0
 40
5.0
 40
5.0
 40
5.0
 10
1101.5659195739
 20
34.4162916084
 30
0.0
 10
1101.5659195739
 20
34.4162916084
 30
0.0
 10
1103.8822762284
 20
31.5867301861
 30
0.0
 10
1103.8822762284
 20
31.5867301861
 30
0.0
 10
1103.230629175
 20
30.9345597214
 30
0.0
 10
1102.453755971
 20
30.1986434507
 30
0.0
 10
1101.4825663263
 20
30.1986434507
 30
0.0
 10
1100.4840284419
 20
30.1986434507
 30
0.0
 10
1099.5407104483
 20
31.128221898
 30
0.0
 10
1099.5407104483
 20
32.1274140465
 30
0.0
 10
1099.5407104483
 20
33.126606195
 30
0.0
 10
1100.7195635214
 20
33.8332114337
 30
0.0
 10
1101.4410859818
 20
34.3330692136
 30
0.0
 10
1101.4410859818
 20
34.3330692136
 30
0.0
 10
1101.5659195739
 20
34.4162916084
 30
0.0
 10
1101.5659195739
 20
34.4162916084
 30
0.0
  0
SPLINE
  5
26D
330
232
100
AcDbEntity
  8
0
  6
Continuous
 62
     7
100
AcDbSpline
 70
     3
 71
     3
 72
    23
 73
    19
 74
     0
 42
0.000000001
 43
0.0000001
 40
0.0
 40
0.0
 40
0.0
 40
0.0
 40
1.0
 40
1.0
 40
1.0
 40
2.0
 40
2.0
 40
2.0
 40
3.0
 40
3.0
 40
3.0
 40
4.0
 40
4.0
 40
4.0
 40
5.0
 40
5.0
 40
5.0
 40
6.0
 40
6.0
 40
6.0
 40
6.0
 10
1101.8433275565
 20
36.0540455281
 30
0.0
 10
1101.8433275565
 20
36.0540455281
 30
0.0
 10
1101.4968292839
 20
36.4973748889
 30
0.0
 10
1101.4968292839
 20
36.4973748889
 30
0.0
 10
1101.191026239
 20
36.8854843589
 30
0.0
 10
1100.8721379119
 20
37.2739863873
 30
0.0
 10
1100.8721379119
 20
37.8009307014
 30
0.0
 10
1100.8721379119
 20
38.467102418
 30
0.0
 10
1101.4134760363
 20
38.9108243373
 30
0.0
 10
1102.0373822915
 20
38.9108243373
 30
0.0
 10
1102.7311639536
 20
38.9108243373
 30
0.0
 10
1103.2583699733
 20
38.5085827626
 30
0.0
 10
1103.2583699733
 20
37.7735824616
 30
0.0
 10
1103.2583699733
 20
37.010317951
 30
0.0
 10
1102.5371092186
 20
36.5802047252
 30
0.0
 10
1102.0100340517
 20
36.1644853098
 30
0.0
 10
1102.0100340517
 20
36.1644853098
 30
0.0
 10
1101.8433275565
 20
36.0540455281
 30
0.0
 10
1101.8433275565
 20
36.0540455281
 30
0.0
  0
SPLINE
  5
26E
330
232
100
AcDbEntity
  8
0
  6
Continuous
 62
     7
100
AcDbSpline
 70
     3
 71
     3
 72
    50
 73
    46
 74
     0
 42
0.000000001
 43
0.0000001
 40
0.0
 40
0.0
 40
0.0
 40
0.0
 40
1.0
 40
1.0
 40
1.0
 40
2.0
 40
2.0
 40
2.0
 40
3.0
 40
3.0
 40
3.0
 40
4.0
 40
4.0
 40
4.0
 40
5.0
 40
5.0
 40
5.0
 40
6.0
 40
6.0
 40
6.0
 40
7.0
 40
7.0
 40
7.0
 40
8.0
 40
8.0
 40
8.0
 40
9.0
 40
9.0
 40
9.0
 40
10.0
 40
10.0
 40
10.0
 40
11.0
 40
11.0
 40
11.0
 40
12.0
 40
12.0
 40
12.0
 40
13.0
 40
13.0
 40
13.0
 40
14.0
 40
14.0
 40
14.0
 40
15.0
 40
15.0
 40
15.0
 40
15.0
 10
1105.7969147194
 20
29.25545631
 30
0.0
 10
1105.7969147194
 20
29.25545631
 30
0.0
 10
1107.406142724
 20
29.25545631
 30
0.0
 10
1107.406142724
 20
29.25545631
 30
0.0
 10
1107.406142724
 20
29.25545631
 30
0.0
 10
1105.5331154303
 20
31.5725980814
 30
0.0
 10
1105.5331154303
 20
31.5725980814
 30
0.0
 10
1105.5331154303
 20
31.5725980814
 30
0.0
 10
1106.8094538558
 20
33.070077776
 30
0.0
 10
1106.8094538558
 20
33.070077776
 30
0.0
 10
1106.8094538558
 20
33.070077776
 30
0.0
 10
1105.9772299081
 20
33.9310893445
 30
0.0
 10
1105.9772299081
 20
33.9310893445
 30
0.0
 10
1105.9772299081
 20
33.9310893445
 30
0.0
 10
1104.7566347848
 20
32.5157852221
 30
0.0
 10
1104.7566347848
 20
32.5157852221
 30
0.0
 10
1104.7566347848
 20
32.5157852221
 30
0.0
 10
1102.578720416
 20
35.1511610565
 30
0.0
 10
1102.578720416
 20
35.1511610565
 30
0.0
 10
1103.4522938554
 20
35.7891994164
 30
0.0
 10
1104.4789650966
 20
36.5802047252
 30
0.0
 10
1104.4789650966
 20
37.7590577983
 30
0.0
 10
1104.4789650966
 20
39.1327507234
 30
0.0
 10
1103.3410689567
 20
39.9372338728
 30
0.0
 10
1102.0657773538
 20
39.9372338728
 30
0.0
 10
1100.6923461345
 20
39.9372338728
 30
0.0
 10
1099.6514119357
 20
39.0910086731
 30
0.0
 10
1099.6514119357
 20
37.648356311
 30
0.0
 10
1099.6514119357
 20
36.7607816195
 30
0.0
 10
1100.2067513122
 20
35.9839084155
 30
0.0
 10
1100.802916769
 20
35.3594787491
 30
0.0
 10
1100.802916769
 20
35.3594787491
 30
0.0
 10
1100.15100801
 20
34.8878851787
 30
0.0
 10
1100.15100801
 20
34.8878851787
 30
0.0
 10
1099.1524701256
 20
34.166624424
 30
0.0
 10
1098.3195919137
 20
33.4453636694
 30
0.0
 10
1098.3195919137
 20
32.113805353
 30
0.0
 10
1098.3195919137
 20
30.310130055
 30
0.0
 10
1099.7766380863
 20
29.0335299239
 30
0.0
 10
1101.5241775237
 20
29.0335299239
 30
0.0
 10
1102.7590356046
 20
29.0335299239
 30
0.0
 10
1103.8684058293
 20
29.7417053964
 30
0.0
 10
1104.6592802852
 20
30.6702370211
 30
0.0
 10
1104.6592802852
 20
30.6702370211
 30
0.0
 10
1105.7969147194
 20
29.25545631
 30
0.0
 10
1105.7969147194
 20
29.25545631
 30
0.0
  0
LINE
  5
26F
330
232
100
AcDbEntity
  8
0
  6
Continuous
 62
     7
100
AcDbLine
 10
1091.599776
 20
27.229331
 30
0.0
 11
1114.013687
 21
27.229331
 31
0.0
  0
LINE
  5
270
330
232
100
AcDbEntity
  8
0
  6
Continuous
 62
     7
100
AcDbLine
 10
1114.013687
 20
27.229331
 30
0.0
 11
1114.013687
 21
49.643242
 31
0.0
  0
LINE
  5
271
330
232
100
AcDbEntity
  8
0
  6
Continuous
 62
     7
100
AcDbLine
 10
1114.013687
 20
49.643242
 30
0.0
 11
1091.599776
 21
49.643242
 31
0.0
  0
LINE
  5
272
330
232
100
AcDbEntity
  8
0
  6
Continuous
 62
     7
100
AcDbLine
 10
1091.599776
 20
49.643242
 30
0.0
 11
1091.599776
 21
27.229331
 31
0.0
  0
ENDBLK
  5
273
330
232
100
AcDbEntity
  8
0
  6
ByBlock
 62
     0
100
AcDbBlockEnd
  0
BLOCK
  5
29E
330
233
100
AcDbEntity
  8
0
100
AcDbBlockBegin
  2
*T6
 70
     1
 10
0.0
 20
0.0
 30
0.0
  3
*T6
  1
*T6
  0
LINE
  5
29F
330
233
100
AcDbEntity
  8
0
  6
Continuous
 62
     2
100
AcDbLine
 10
0.0
 20
0.0
 30
0.0
 11
90.0
 21
0.0
 31
0.0
  0
LINE
  5
2A0
330
233
100
AcDbEntity
  8
0
  6
Continuous
 62
     2
100
AcDbLine
 10
0.0
 20
0.0
 30
0.0
 11
0.0
 21
-40.0
 31
0.0
  0
LINE
  5
2A1
330
233
100
AcDbEntity
  8
0
  6
Continuous
 62
     2
100
AcDbLine
 10
30.0
 20
-6.0
 30
0.0
 11
90.0
 21
-6.0
 31
0.0
  0
LINE
  5
2A2
330
233
100
AcDbEntity
  8
0
  6
Continuous
 62
     2
100
AcDbLine
 10
30.0
 20
-12.0
 30
0.0
 11
90.0
 21
-12.0
 31
0.0
  0
LINE
  5
2A3
330
233
100
AcDbEntity
  8
0
  6
Continuous
 62
     2
100
AcDbLine
 10
30.0
 20
-22.0
 30
0.0
 11
90.0
 21
-22.0
 31
0.0
  0
LINE
  5
2A4
330
233
100
AcDbEntity
  8
0
  6
Continuous
 62
     2
100
AcDbLine
 10
0.0
 20
-27.0
 30
0.0
 11
90.0
 21
-27.0
 31
0.0
  0
LINE
  5
2A5
330
233
100
AcDbEntity
  8
0
  6
Continuous
 62
     2
100
AcDbLine
 10
0.0
 20
-40.0
 30
0.0
 11
90.0
 21
-40.0
 31
0.0
  0
LINE
  5
2A6
330
233
100
AcDbEntity
  8
0
  6
Continuous
 62
     2
100
AcDbLine
 10
30.0
 20
0.0
 30
0.0
 11
30.0
 21
-27.0
 31
0.0
  0
LINE
  5
2A7
330
233
100
AcDbEntity
  8
0
  6
Continuous
 62
     2
100
AcDbLine
 10
70.0
 20
0.0
 30
0.0
 11
70.0
 21
-12.0
 31
0.0
  0
LINE
  5
2A8
330
233
100
AcDbEntity
  8
0
  6
Continuous
 62
     2
100
AcDbLine
 10
90.0
 20
0.0
 30
0.0
 11
90.0
 21
-40.0
 31
0.0
  0
MTEXT
  5
2A9
330
233
100
AcDbEntity
  8
9_SOLID
  6
Continuous
 62
     2
100
AcDbMText
 10
31.4875
 20
-1.5
 30
0.0
 40
3.0
 41
39.142857
 46
0.0
 71
     1
 72
     1
  1
SK2200_C
 73
     1
 44
0.9
  0
MTEXT
  5
2AA
330
233
100
AcDbEntity
  8
9_SOLID
  6
Continuous
 62
     2
100
AcDbMText
 10
71.4875
 20
-1.75
 30
0.0
 40
3.5
 41
28.833333
 46
0.0
 71
     1
 72
     1
  1
Rev:01
 73
     1
 44
0.9
  0
MTEXT
  5
2AB
330
233
100
AcDbEntity
  8
9_SOLID
  6
Continuous
 62
     2
100
AcDbMText
 10
31.4875
 20
-7.75
 30
0.0
 40
3.5
 41
37.833333
 46
0.0
 71
     1
 72
     1
  1
Scale:1:1
 73
     1
 44
0.9
  0
MTEXT
  5
2AC
330
233
100
AcDbEntity
  8
9_SOLID
  6
Continuous
 62
     2
100
AcDbMText
 10
71.4875
 20
-7.25
 30
0.0
 40
3.5
 41
12.833333
 46
0.0
 71
     1
 72
     1
  1
A0
 73
     1
 44
0.9
  0
MTEXT
  5
2AD
330
233
100
AcDbEntity
  8
9_SOLID
  6
Continuous
 62
     2
100
AcDbMText
 10
31.4875
 20
-15.75
 30
0.0
 40
2.5
 41
109.880952
 46
0.0
 71
     1
 72
     1
  1
SNACK 2.2 9LED - 15W - 24Vdc
 73
     1
 44
0.9
  0
MTEXT
  5
2AE
330
233
100
AcDbEntity
  8
9_SOLID
  6
Continuous
 62
     2
100
AcDbMText
 10
31.4875
 20
-23.25
 30
0.0
 40
2.5
 41
19.404762
 46
0.0
 71
     1
 72
     1
  1
DATE:
 73
     1
 44
0.9
  0
MTEXT
  5
2AF
330
233
100
AcDbEntity
  8
9_SOLID
  6
Continuous
 62
     2
100
AcDbMText
 10
1.4875
 20
-27.3125
 30
0.0
 40
2.25
 41
179.464286
 46
0.0
 71
     1
 72
     1
  1
Any integral or partial reproductions are prohibited \Pwithout prior authorisation of L {\Ftxt.shx;\W0.190476;\H2.250000; }& L Luce & Light s.r.l., \Pin accordance with the law in force. \PAll rights reserved.
 73
     1
 44
0.9
  0
ENDBLK
  5
2B0
330
233
100
AcDbEntity
  8
0
  6
ByBlock
 62
     0
100
AcDbBlockEnd
  0
ENDSEC
  0
SECTION
  2
ENTITIES
  0
LINE
  5
2B1
330
22B
100
AcDbEntity
  8
0
  6
Continuous
 62
     7
100
AcDbLine
 10
1189.0
 20
0.0
 30
0.0
 11
1189.0
 21
841.0
 31
0.0
  0
LINE
  5
2B2
330
22B
100
AcDbEntity
  8
0
  6
Continuous
 62
     7
100
AcDbLine
 10
0.0
 20
841.0
 30
0.0
 11
1189.0
 21
841.0
 31
0.0
  0
LINE
  5
2B3
330
22B
100
AcDbEntity
  8
0
  6
Continuous
 62
     7
100
AcDbLine
 10
0.0
 20
0.0
 30
0.0
 11
0.0
 21
841.0
 31
0.0
  0
LINE
  5
2B4
330
22B
100
AcDbEntity
  8
0
  6
Continuous
 62
     7
100
AcDbLine
 10
0.0
 20
0.0
 30
0.0
 11
1189.0
 21
0.0
 31
0.0
  0
LINE
  5
2B5
330
22B
100
AcDbEntity
  8
02___PRT_ALL_AXES
  6
Continuous
 62
     7
100
AcDbLine
 10
21.596396
 20
691.629151
 30
0.0
 11
20.596396
 21
691.629151
 31
0.0
  0
LINE
  5
2B6
330
22B
100
AcDbEntity
  8
02___PRT_ALL_AXES
  6
Continuous
 62
     7
100
AcDbLine
 10
21.596396
 20
683.629151
 30
0.0
 11
20.596396
 21
683.629151
 31
0.0
  0
LINE
  5
2B7
330
22B
100
AcDbEntity
  8
02___PRT_ALL_AXES
  6
Continuous
 62
     7
100
AcDbLine
 10
17.596396
 20
687.629151
 30
0.0
 11
17.596396
 21
689.629151
 31
0.0
  0
LINE
  5
2B8
330
22B
100
AcDbEntity
  8
02___PRT_ALL_AXES
  6
Continuous
 62
     7
100
AcDbLine
 10
17.596396
 20
689.629151
 30
0.0
 11
17.596396
 21
689.779113
 31
0.0
  0
LINE
  5
2B9
330
22B
100
AcDbEntity
  8
02___PRT_ALL_AXES
  6
Continuous
 62
     7
100
AcDbLine
 10
17.596396
 20
689.779113
 30
0.0
 11
17.596396
 21
691.409172
 31
0.0
  0
LINE
  5
2BA
330
22B
100
AcDbEntity
  8
02___PRT_ALL_AXES
  6
Continuous
 62
     7
100
AcDbLine
 10
17.596396
 20
691.409172
 30
0.0
 11
17.596396
 21
691.429151
 31
0.0
  0
LINE
  5
2BB
330
22B
100
AcDbEntity
  8
02___PRT_ALL_AXES
  6
Continuous
 62
     7
100
AcDbLine
 10
17.596396
 20
691.429151
 30
0.0
 11
17.596396
 21
691.629151
 31
0.0
  0
LINE
  5
2BC
330
22B
100
AcDbEntity
  8
02___PRT_ALL_AXES
  6
Continuous
 62
     7
100
AcDbLine
 10
18.596396
 20
691.629151
 30
0.0
 11
17.596396
 21
691.629151
 31
0.0
  0
LINE
  5
2BD
330
22B
100
AcDbEntity
  8
02___PRT_ALL_AXES
  6
Continuous
 62
     7
100
AcDbLine
 10
18.596396
 20
683.629151
 30
0.0
 11
17.596396
 21
683.629151
 31
0.0
  0
LINE
  5
2BE
330
22B
100
AcDbEntity
  8
02___PRT_ALL_AXES
  6
Continuous
 62
     7
100
AcDbLine
 10
17.596396
 20
683.629151
 30
0.0
 11
17.596396
 21
683.829151
 31
0.0
  0
LINE
  5
2BF
330
22B
100
AcDbEntity
  8
02___PRT_ALL_AXES
  6
Continuous
 62
     7
100
AcDbLine
 10
17.596396
 20
683.829151
 30
0.0
 11
17.596396
 21
683.84913
 31
0.0
  0
LINE
  5
2C0
330
22B
100
AcDbEntity
  8
02___PRT_ALL_AXES
  6
Continuous
 62
     7
100
AcDbLine
 10
17.596396
 20
683.84913
 30
0.0
 11
17.596396
 21
685.479189
 31
0.0
  0
LINE
  5
2C1
330
22B
100
AcDbEntity
  8
02___PRT_ALL_AXES
  6
Continuous
 62
     7
100
AcDbLine
 10
17.596396
 20
685.479189
 30
0.0
 11
17.596396
 21
685.629042
 31
0.0
  0
LINE
  5
2C2
330
22B
100
AcDbEntity
  8
02___PRT_ALL_AXES
  6
Continuous
 62
     7
100
AcDbLine
 10
17.596396
 20
685.629042
 30
0.0
 11
17.596396
 21
687.629151
 31
0.0
  0
LINE
  5
2C3
330
22B
100
AcDbEntity
  8
02___PRT_ALL_AXES
  6
Continuous
 62
     7
100
AcDbLine
 10
1071.896396
 20
691.629151
 30
0.0
 11
1072.896396
 21
691.629151
 31
0.0
  0
LINE
  5
2C4
330
22B
100
AcDbEntity
  8
02___PRT_ALL_AXES
  6
Continuous
 62
     7
100
AcDbLine
 10
1071.896396
 20
683.629151
 30
0.0
 11
1072.896396
 21
683.629151
 31
0.0
  0
LINE
  5
2C5
330
22B
100
AcDbEntity
  8
02___PRT_ALL_AXES
  6
Continuous
 62
     7
100
AcDbLine
 10
1075.896396
 20
687.629151
 30
0.0
 11
1075.896396
 21
685.629151
 31
0.0
  0
LINE
  5
2C6
330
22B
100
AcDbEntity
  8
02___PRT_ALL_AXES
  6
Continuous
 62
     7
100
AcDbLine
 10
1075.896396
 20
685.629151
 30
0.0
 11
1075.896396
 21
685.479189
 31
0.0
  0
LINE
  5
2C7
330
22B
100
AcDbEntity
  8
02___PRT_ALL_AXES
  6
Continuous
 62
     7
100
AcDbLine
 10
1075.896396
 20
685.479189
 30
0.0
 11
1075.896396
 21
683.84913
 31
0.0
  0
LINE
  5
2C8
330
22B
100
AcDbEntity
  8
02___PRT_ALL_AXES
  6
Continuous
 62
     7
100
AcDbLine
 10
1075.896396
 20
683.84913
 30
0.0
 11
1075.896396
 21
683.829151
 31
0.0
  0
LINE
  5
2C9
330
22B
100
AcDbEntity
  8
02___PRT_ALL_AXES
  6
Continuous
 62
     7
100
AcDbLine
 10
1075.896396
 20
683.829151
 30
0.0
 11
1075.896396
 21
683.629151
 31
0.0
  0
LINE
  5
2CA
330
22B
100
AcDbEntity
  8
02___PRT_ALL_AXES
  6
Continuous
 62
     7
100
AcDbLine
 10
1074.896396
 20
691.629151
 30
0.0
 11
1075.896396
 21
691.629151
 31
0.0
  0
LINE
  5
2CB
330
22B
100
AcDbEntity
  8
02___PRT_ALL_AXES
  6
Continuous
 62
     7
100
AcDbLine
 10
1075.896396
 20
691.629151
 30
0.0
 11
1075.896396
 21
691.429151
 31
0.0
  0
LINE
  5
2CC
330
22B
100
AcDbEntity
  8
02___PRT_ALL_AXES
  6
Continuous
 62
     7
100
AcDbLine
 10
1075.896396
 20
691.429151
 30
0.0
 11
1075.896396
 21
691.409172
 31
0.0
  0
LINE
  5
2CD
330
22B
100
AcDbEntity
  8
02___PRT_ALL_AXES
  6
Continuous
 62
     7
100
AcDbLine
 10
1075.896396
 20
691.409172
 30
0.0
 11
1075.896396
 21
689.779113
 31
0.0
  0
LINE
  5
2CE
330
22B
100
AcDbEntity
  8
02___PRT_ALL_AXES
  6
Continuous
 62
     7
100
AcDbLine
 10
1075.896396
 20
689.779113
 30
0.0
 11
1075.896396
 21
689.62926
 31
0.0
  0
LINE
  5
2CF
330
22B
100
AcDbEntity
  8
02___PRT_ALL_AXES
  6
Continuous
 62
     7
100
AcDbLine
 10
1075.896396
 20
689.62926
 30
0.0
 11
1075.896396
 21
687.629151
 31
0.0
  0
LINE
  5
2D0
330
22B
100
AcDbEntity
  8
02___PRT_ALL_AXES
  6
Continuous
 62
     7
100
AcDbLine
 10
1074.896396
 20
683.629151
 30
0.0
 11
1075.896396
 21
683.629151
 31
0.0
  0
LINE
  5
2D1
330
22B
100
AcDbEntity
  8
3_ALL_AXES
  6
Continuous
 62
     7
100
AcDbLine
 10
1075.896396
 20
683.829151
 30
0.0
 11
1076.276396
 21
683.829151
 31
0.0
  0
LINE
  5
2D2
330
22B
100
AcDbEntity
  8
3_ALL_AXES
  6
Continuous
 62
     7
100
AcDbLine
 10
1078.096396
 20
685.664205
 30
0.0
 11
1078.096396
 21
687.629151
 31
0.0
  0
ARC
  5
2D3
330
22B
100
AcDbEntity
  8
3_ALL_AXES
  6
Continuous
 62
     7
100
AcDbCircle
 10
1074.423756
 20
687.486708
 30
0.0
 40
4.1
100
AcDbArc
 50
296.863303
 51
333.606974
  0
LINE
  5
2D4
330
22B
100
AcDbEntity
  8
3_ALL_AXES
  6
Continuous
 62
     7
100
AcDbLine
 10
1075.896396
 20
691.429151
 30
0.0
 11
1076.276396
 21
691.429151
 31
0.0
  0
LINE
  5
2D5
330
22B
100
AcDbEntity
  8
3_ALL_AXES
  6
Continuous
 62
     7
100
AcDbLine
 10
1078.096396
 20
689.594098
 30
0.0
 11
1078.096396
 21
687.629151
 31
0.0
  0
ARC
  5
2D6
330
22B
100
AcDbEntity
  8
3_ALL_AXES
  6
Continuous
 62
     7
100
AcDbCircle
 10
1074.423756
 20
687.771594
 30
0.0
 40
4.1
100
AcDbArc
 50
26.393026
 51
63.136697
  0
LINE
  5
2D7
330
22B
100
AcDbEntity
  8
3_ALL_AXES
  6
Continuous
 62
     7
100
AcDbLine
 10
1076.276396
 20
683.829151
 30
0.0
 11
1076.276396
 21
687.629151
 31
0.0
  0
LINE
  5
2D8
330
22B
100
AcDbEntity
  8
3_ALL_AXES
  6
Continuous
 62
     7
100
AcDbLine
 10
1076.276396
 20
691.429151
 30
0.0
 11
1076.276396
 21
687.629151
 31
0.0
  0
LINE
  5
2D9
330
22B
100
AcDbEntity
  8
3_ALL_AXES
  6
Continuous
 62
     7
100
AcDbLine
 10
17.596396
 20
683.829151
 30
0.0
 11
17.216396
 21
683.829151
 31
0.0
  0
LINE
  5
2DA
330
22B
100
AcDbEntity
  8
3_ALL_AXES
  6
Continuous
 62
     7
100
AcDbLine
 10
15.396396
 20
687.629151
 30
0.0
 11
15.396396
 21
689.594098
 31
0.0
  0
ARC
  5
2DB
330
22B
100
AcDbEntity
  8
3_ALL_AXES
  6
Continuous
 62
     7
100
AcDbCircle
 10
19.069037
 20
687.486708
 30
0.0
 40
4.1
100
AcDbArc
 50
206.393026
 51
243.136697
  0
LINE
  5
2DC
330
22B
100
AcDbEntity
  8
3_ALL_AXES
  6
Continuous
 62
     7
100
AcDbLine
 10
15.396396
 20
687.629151
 30
0.0
 11
15.396396
 21
685.664205
 31
0.0
  0
LINE
  5
2DD
330
22B
100
AcDbEntity
  8
3_ALL_AXES
  6
Continuous
 62
     7
100
AcDbLine
 10
17.596396
 20
691.429151
 30
0.0
 11
17.216396
 21
691.429151
 31
0.0
  0
ARC
  5
2DE
330
22B
100
AcDbEntity
  8
3_ALL_AXES
  6
Continuous
 62
     7
100
AcDbCircle
 10
19.069037
 20
687.771594
 30
0.0
 40
4.1
100
AcDbArc
 50
116.863303
 51
153.606974
  0
LINE
  5
2DF
330
22B
100
AcDbEntity
  8
3_ALL_AXES
  6
Continuous
 62
     7
100
AcDbLine
 10
17.216396
 20
687.629151
 30
0.0
 11
17.216396
 21
683.829151
 31
0.0
  0
LINE
  5
2E0
330
22B
100
AcDbEntity
  8
3_ALL_AXES
  6
Continuous
 62
     7
100
AcDbLine
 10
17.216396
 20
687.629151
 30
0.0
 11
17.216396
 21
691.429151
 31
0.0
  0
LINE
  5
2E1
330
22B
100
AcDbEntity
  8
7_ALL_FEATURES
  6
Continuous
 62
     7
100
AcDbLine
 10
21.596396
 20
673.422865
 30
0.0
 11
21.596396
 21
698.335437
 31
0.0
  0
LINE
  5
2E2
330
22B
100
AcDbEntity
  8
7_ALL_FEATURES
  6
Continuous
 62
     7
100
AcDbLine
 10
24.596396
 20
673.179151
 30
0.0
 11
24.596396
 21
674.368634
 31
0.0
  0
LINE
  5
2E3
330
22B
100
AcDbEntity
  8
7_ALL_FEATURES
  6
Continuous
 62
     7
100
AcDbLine
 10
24.596396
 20
674.368634
 30
0.0
 11
24.596396
 21
683.930203
 31
0.0
  0
LINE
  5
2E4
330
22B
100
AcDbEntity
  8
7_ALL_FEATURES
  6
Continuous
 62
     7
100
AcDbLine
 10
24.596396
 20
683.930203
 30
0.0
 11
24.596396
 21
684.8281
 31
0.0
  0
LINE
  5
2E5
330
22B
100
AcDbEntity
  8
7_ALL_FEATURES
  6
Continuous
 62
     7
100
AcDbLine
 10
24.596396
 20
684.8281
 30
0.0
 11
24.596396
 21
691.930203
 31
0.0
  0
LINE
  5
2E6
330
22B
100
AcDbEntity
  8
7_ALL_FEATURES
  6
Continuous
 62
     7
100
AcDbLine
 10
24.596396
 20
691.930203
 30
0.0
 11
24.596396
 21
692.828099
 31
0.0
  0
LINE
  5
2E7
330
22B
100
AcDbEntity
  8
7_ALL_FEATURES
  6
Continuous
 62
     7
100
AcDbLine
 10
24.596396
 20
692.828099
 30
0.0
 11
24.596396
 21
697.389668
 31
0.0
  0
LINE
  5
2E8
330
22B
100
AcDbEntity
  8
7_ALL_FEATURES
  6
Continuous
 62
     7
100
AcDbLine
 10
24.596396
 20
697.389668
 30
0.0
 11
24.596396
 21
698.579151
 31
0.0
  0
LINE
  5
2E9
330
22B
100
AcDbEntity
  8
7_ALL_FEATURES
  6
Continuous
 62
     7
100
AcDbLine
 10
24.596396
 20
673.179151
 30
0.0
 11
24.596396
 21
672.879151
 31
0.0
  0
LINE
  5
2EA
330
22B
100
AcDbEntity
  8
7_ALL_FEATURES
  6
Continuous
 62
     7
100
AcDbLine
 10
22.08767
 20
672.922941
 30
0.0
 11
24.596396
 21
672.879151
 31
0.0
  0
LINE
  5
2EB
330
22B
100
AcDbEntity
  8
7_ALL_FEATURES
  6
Continuous
 62
     7
100
AcDbLine
 10
22.08767
 20
698.835361
 30
0.0
 11
24.596396
 21
698.879151
 31
0.0
  0
ARC
  5
2EC
330
22B
100
AcDbEntity
  8
7_ALL_FEATURES
  6
Continuous
 62
     7
100
AcDbCircle
 10
22.096396
 20
673.422865
 30
0.0
 40
0.5
100
AcDbArc
 50
180.0
 51
269.002686
  0
ARC
  5
2ED
330
22B
100
AcDbEntity
  8
7_ALL_FEATURES
  6
Continuous
 62
     7
100
AcDbCircle
 10
22.096396
 20
698.335437
 30
0.0
 40
0.5
100
AcDbArc
 50
91.011013
 51
180.0
  0
ARC
  5
2EE
330
22B
100
AcDbEntity
  8
7_ALL_FEATURES
  6
Continuous
 62
     7
100
AcDbCircle
 10
22.096396
 20
698.335437
 30
0.0
 40
0.5
100
AcDbArc
 50
176.225628
 51
180.0
  0
LINE
  5
2EF
330
22B
100
AcDbEntity
  8
7_ALL_FEATURES
  6
Continuous
 62
     7
100
AcDbLine
 10
24.596396
 20
673.379151
 30
0.0
 11
24.996396
 21
673.393119
 31
0.0
  0
LINE
  5
2F0
330
22B
100
AcDbEntity
  8
7_ALL_FEATURES
  6
Continuous
 62
     7
100
AcDbLine
 10
24.596396
 20
698.379151
 30
0.0
 11
24.996396
 21
698.365183
 31
0.0
  0
LINE
  5
2F1
330
22B
100
AcDbEntity
  8
7_ALL_FEATURES
  6
Continuous
 62
     7
100
AcDbLine
 10
21.596396
 20
673.267159
 30
0.0
 11
21.596396
 21
673.293782
 31
0.0
  0
LINE
  5
2F2
330
22B
100
AcDbEntity
  8
7_ALL_FEATURES
  6
Continuous
 62
     7
100
AcDbLine
 10
21.596396
 20
673.293782
 30
0.0
 11
21.596396
 21
673.422865
 31
0.0
  0
ARC
  5
2F3
330
22B
100
AcDbEntity
  8
7_ALL_FEATURES
  6
Continuous
 62
     7
100
AcDbCircle
 10
21.796396
 20
673.267159
 30
0.0
 40
0.2
100
AcDbArc
 50
180.0
 51
252.15795
  0
LINE
  5
2F4
330
22B
100
AcDbEntity
  8
7_ALL_FEATURES
  6
Continuous
 62
     7
100
AcDbLine
 10
22.087574
 20
698.835359
 30
0.0
 11
24.596396
 21
698.879151
 31
0.0
  0
LINE
  5
2F5
330
22B
100
AcDbEntity
  8
7_ALL_FEATURES
  6
Continuous
 62
     7
100
AcDbLine
 10
24.596396
 20
698.879151
 30
0.0
 11
24.596396
 21
698.579151
 31
0.0
  0
LINE
  5
2F6
330
22B
100
AcDbEntity
  8
7_ALL_FEATURES
  6
Continuous
 62
     7
100
AcDbLine
 10
24.596396
 20
698.379151
 30
0.0
 11
24.996396
 21
698.365183
 31
0.0
  0
LINE
  5
2F7
330
22B
100
AcDbEntity
  8
7_ALL_FEATURES
  6
Continuous
 62
     9
100
AcDbLine
 10
22.087694
 20
672.922941
 30
0.0
 11
22.087574
 21
673.179151
 31
0.0
  0
LINE
  5
2F8
330
22B
100
AcDbEntity
  8
7_ALL_FEATURES
  6
Continuous
 62
     9
100
AcDbLine
 10
22.08767
 20
673.179151
 30
0.0
 11
22.08767
 21
698.579151
 31
0.0
  0
LINE
  5
2F9
330
22B
100
AcDbEntity
  8
7_ALL_FEATURES
  6
Continuous
 62
     9
100
AcDbLine
 10
22.08767
 20
698.579151
 30
0.0
 11
24.596396
 21
698.579151
 31
0.0
  0
LINE
  5
2FA
330
22B
100
AcDbEntity
  8
7_ALL_FEATURES
  6
Continuous
 62
     9
100
AcDbLine
 10
22.08767
 20
673.179151
 30
0.0
 11
24.596396
 21
673.179151
 31
0.0
  0
LINE
  5
2FB
330
22B
100
AcDbEntity
  8
7_ALL_FEATURES
  6
Continuous
 62
     9
100
AcDbLine
 10
22.087694
 20
698.579151
 30
0.0
 11
22.087574
 21
698.835359
 31
0.0
  0
LINE
  5
2FC
330
22B
100
AcDbEntity
  8
7_ALL_FEATURES
  6
Continuous
 62
     9
100
AcDbLine
 10
24.596396
 20
674.379151
 30
0.0
 11
24.996396
 21
674.379151
 31
0.0
  0
LINE
  5
2FD
330
22B
100
AcDbEntity
  8
7_ALL_FEATURES
  6
Continuous
 62
     9
100
AcDbLine
 10
24.596396
 20
697.379151
 30
0.0
 11
24.996396
 21
697.379151
 31
0.0
  0
SPLINE
  5
2FE
330
22B
100
AcDbEntity
  8
7_ALL_FEATURES
  6
Continuous
 62
     9
100
AcDbSpline
 70
     0
 71
     3
 72
    13
 73
     9
 74
     0
 42
0.000000001
 43
0.0000001
 40
0.0
 40
0.0
 40
0.0
 40
0.0
 40
0.3344336316
 40
0.6177191278
 40
0.7332258528
 40
0.8321301333
 40
0.9186764636
 40
1.0
 40
1.0
 40
1.0
 40
1.0
 10
22.0875742029
 20
673.1791510928
 30
0.0
 10
22.0212358147
 20
673.1791665703
 30
0.0
 10
21.8985003893
 20
673.1901640148
 30
0.0
 10
21.7575187049
 20
673.2331811318
 30
0.0
 10
21.6727744635
 20
673.2848869923
 30
0.0
 10
21.6291822611
 20
673.3265599102
 30
0.0
 10
21.6022502824
 20
673.3731292855
 30
0.0
 10
21.5964055522
 20
673.4067335272
 30
0.0
 10
21.5963964959
 20
673.4228648941
 30
0.0
  0
SPLINE
  5
2FF
330
22B
100
AcDbEntity
  8
7_ALL_FEATURES
  6
Continuous
 62
     9
100
AcDbSpline
 70
     0
 71
     3
 72
    13
 73
     9
 74
     0
 42
0.000000001
 43
0.0000001
 40
0.0
 40
0.0
 40
0.0
 40
0.0
 40
0.0813202769
 40
0.1678729397
 40
0.2667700379
 40
0.3822855255
 40
0.6655802899
 40
1.0
 40
1.0
 40
1.0
 40
1.0
 10
21.5963964959
 20
698.3354372414
 30
0.0
 10
21.5964055537
 20
698.3515713733
 30
0.0
 10
21.6022508767
 20
698.3851833194
 30
0.0
 10
21.6291906501
 20
698.431761906
 30
0.0
 10
21.6728039741
 20
698.4734328811
 30
0.0
 10
21.7575624663
 20
698.5251571542
 30
0.0
 10
21.8985811029
 20
698.5681772796
 30
0.0
 10
22.0213440742
 20
698.5791468881
 30
0.0
 10
22.087693732
 20
698.5791510698
 30
0.0
  0
LINE
  5
300
330
22B
100
AcDbEntity
  8
7_ALL_FEATURES
  6
Continuous
 62
     7
100
AcDbLine
 10
1071.896396
 20
698.335437
 30
0.0
 11
1071.896396
 21
673.422865
 31
0.0
  0
LINE
  5
301
330
22B
100
AcDbEntity
  8
7_ALL_FEATURES
  6
Continuous
 62
     7
100
AcDbLine
 10
1068.896396
 20
698.579151
 30
0.0
 11
1068.896396
 21
698.879151
 31
0.0
  0
LINE
  5
302
330
22B
100
AcDbEntity
  8
7_ALL_FEATURES
  6
Continuous
 62
     7
100
AcDbLine
 10
1068.896396
 20
698.579151
 30
0.0
 11
1068.896396
 21
697.389668
 31
0.0
  0
LINE
  5
303
330
22B
100
AcDbEntity
  8
7_ALL_FEATURES
  6
Continuous
 62
     7
100
AcDbLine
 10
1068.896396
 20
697.389668
 30
0.0
 11
1068.896396
 21
692.828099
 31
0.0
  0
LINE
  5
304
330
22B
100
AcDbEntity
  8
7_ALL_FEATURES
  6
Continuous
 62
     7
100
AcDbLine
 10
1068.896396
 20
692.828099
 30
0.0
 11
1068.896396
 21
691.930203
 31
0.0
  0
LINE
  5
305
330
22B
100
AcDbEntity
  8
7_ALL_FEATURES
  6
Continuous
 62
     7
100
AcDbLine
 10
1068.896396
 20
691.930203
 30
0.0
 11
1068.896396
 21
684.828099
 31
0.0
  0
LINE
  5
306
330
22B
100
AcDbEntity
  8
7_ALL_FEATURES
  6
Continuous
 62
     7
100
AcDbLine
 10
1068.896396
 20
684.828099
 30
0.0
 11
1068.896396
 21
683.930203
 31
0.0
  0
LINE
  5
307
330
22B
100
AcDbEntity
  8
7_ALL_FEATURES
  6
Continuous
 62
     7
100
AcDbLine
 10
1068.896396
 20
683.930203
 30
0.0
 11
1068.896396
 21
674.368634
 31
0.0
  0
LINE
  5
308
330
22B
100
AcDbEntity
  8
7_ALL_FEATURES
  6
Continuous
 62
     7
100
AcDbLine
 10
1068.896396
 20
674.368634
 30
0.0
 11
1068.896396
 21
673.179151
 31
0.0
  0
LINE
  5
309
330
22B
100
AcDbEntity
  8
7_ALL_FEATURES
  6
Continuous
 62
     7
100
AcDbLine
 10
1068.896396
 20
672.879151
 30
0.0
 11
1068.896396
 21
673.179151
 31
0.0
  0
LINE
  5
30A
330
22B
100
AcDbEntity
  8
7_ALL_FEATURES
  6
Continuous
 62
     7
100
AcDbLine
 10
1071.405123
 20
672.922941
 30
0.0
 11
1068.896396
 21
672.879151
 31
0.0
  0
LINE
  5
30B
330
22B
100
AcDbEntity
  8
7_ALL_FEATURES
  6
Continuous
 62
     7
100
AcDbLine
 10
1071.405123
 20
698.835361
 30
0.0
 11
1068.896396
 21
698.879151
 31
0.0
  0
ARC
  5
30C
330
22B
100
AcDbEntity
  8
7_ALL_FEATURES
  6
Continuous
 62
     7
100
AcDbCircle
 10
1071.396396
 20
673.422865
 30
0.0
 40
0.5
100
AcDbArc
 50
271.011013
 51
360.0
  0
ARC
  5
30D
330
22B
100
AcDbEntity
  8
7_ALL_FEATURES
  6
Continuous
 62
     7
100
AcDbCircle
 10
1071.396396
 20
698.335437
 30
0.0
 40
0.5
100
AcDbArc
 50
3.774116
 51
88.988987
  0
ARC
  5
30E
330
22B
100
AcDbEntity
  8
7_ALL_FEATURES
  6
Continuous
 62
     7
100
AcDbCircle
 10
1071.396396
 20
698.335437
 30
0.0
 40
0.5
100
AcDbArc
 50
0.0
 51
3.774116
  0
ARC
  5
30F
330
22B
100
AcDbEntity
  8
7_ALL_FEATURES
  6
Continuous
 62
     7
100
AcDbCircle
 10
1071.396396
 20
698.335437
 30
0.0
 40
0.5
100
AcDbArc
 50
0.0
 51
89.002686
  0
LINE
  5
310
330
22B
100
AcDbEntity
  8
7_ALL_FEATURES
  6
Continuous
 62
     7
100
AcDbLine
 10
1068.896396
 20
673.379151
 30
0.0
 11
1068.496396
 21
673.393119
 31
0.0
  0
LINE
  5
311
330
22B
100
AcDbEntity
  8
7_ALL_FEATURES
  6
Continuous
 62
     7
100
AcDbLine
 10
1068.896396
 20
698.379151
 30
0.0
 11
1068.496396
 21
698.365183
 31
0.0
  0
LINE
  5
312
330
22B
100
AcDbEntity
  8
7_ALL_FEATURES
  6
Continuous
 62
     7
100
AcDbLine
 10
1071.896396
 20
673.280434
 30
0.0
 11
1071.896396
 21
673.293782
 31
0.0
  0
LINE
  5
313
330
22B
100
AcDbEntity
  8
7_ALL_FEATURES
  6
Continuous
 62
     7
100
AcDbLine
 10
1071.896396
 20
673.422865
 30
0.0
 11
1071.896396
 21
673.280434
 31
0.0
  0
LINE
  5
314
330
22B
100
AcDbEntity
  8
7_ALL_FEATURES
  6
Continuous
 62
     7
100
AcDbLine
 10
1071.896396
 20
673.280434
 30
0.0
 11
1071.896396
 21
673.293782
 31
0.0
  0
ARC
  5
315
330
22B
100
AcDbEntity
  8
7_ALL_FEATURES
  6
Continuous
 62
     7
100
AcDbCircle
 10
1071.696396
 20
673.267159
 30
0.0
 40
0.2
100
AcDbArc
 50
287.84205
 51
360.0
  0
LINE
  5
316
330
22B
100
AcDbEntity
  8
7_ALL_FEATURES
  6
Continuous
 62
     7
100
AcDbLine
 10
1068.896396
 20
673.379151
 30
0.0
 11
1068.496396
 21
673.393119
 31
0.0
  0
LINE
  5
317
330
22B
100
AcDbEntity
  8
7_ALL_FEATURES
  6
Continuous
 62
     9
100
AcDbLine
 10
1071.405099
 20
698.835361
 30
0.0
 11
1071.405219
 21
698.579151
 31
0.0
  0
LINE
  5
318
330
22B
100
AcDbEntity
  8
7_ALL_FEATURES
  6
Continuous
 62
     9
100
AcDbLine
 10
1071.405123
 20
698.579151
 30
0.0
 11
1071.405123
 21
673.179151
 31
0.0
  0
SPLINE
  5
319
330
22B
100
AcDbEntity
  8
7_ALL_FEATURES
  6
Continuous
 62
     9
100
AcDbSpline
 70
     0
 71
     3
 72
    13
 73
     9
 74
     0
 42
0.000000001
 43
0.0000001
 40
0.0
 40
0.0
 40
0.0
 40
0.0
 40
0.0813202769
 40
0.1678729397
 40
0.2667700379
 40
0.3822855255
 40
0.6655802899
 40
1.0
 40
1.0
 40
1.0
 40
1.0
 10
1071.8963964959
 20
673.4228648941
 30
0.0
 10
1071.896387438
 20
673.4067307622
 30
0.0
 10
1071.8905421151
 20
673.3731188162
 30
0.0
 10
1071.8636023417
 20
673.3265402296
 30
0.0
 10
1071.8199890177
 20
673.2848692544
 30
0.0
 10
1071.7352305254
 20
673.2331449814
 30
0.0
 10
1071.5942118889
 20
673.1901248559
 30
0.0
 10
1071.4714489175
 20
673.1791552474
 30
0.0
 10
1071.4050992598
 20
673.1791510657
 30
0.0
  0
LINE
  5
31A
330
22B
100
AcDbEntity
  8
7_ALL_FEATURES
  6
Continuous
 62
     9
100
AcDbLine
 10
1071.405123
 20
673.179151
 30
0.0
 11
1068.896396
 21
673.179151
 31
0.0
  0
LINE
  5
31B
330
22B
100
AcDbEntity
  8
7_ALL_FEATURES
  6
Continuous
 62
     9
100
AcDbLine
 10
1071.405123
 20
698.579151
 30
0.0
 11
1068.896396
 21
698.579151
 31
0.0
  0
LINE
  5
31C
330
22B
100
AcDbEntity
  8
7_ALL_FEATURES
  6
Continuous
 62
     9
100
AcDbLine
 10
1071.405099
 20
673.179151
 30
0.0
 11
1071.405219
 21
672.922943
 31
0.0
  0
SPLINE
  5
31D
330
22B
100
AcDbEntity
  8
7_ALL_FEATURES
  6
Continuous
 62
     9
100
AcDbSpline
 70
     0
 71
     3
 72
    13
 73
     9
 74
     0
 42
0.000000001
 43
0.0000001
 40
0.0
 40
0.0
 40
0.0
 40
0.0
 40
0.3344336316
 40
0.6177191278
 40
0.7332258528
 40
0.8321301333
 40
0.9186764636
 40
1.0
 40
1.0
 40
1.0
 40
1.0
 10
1071.4052187889
 20
698.5791510428
 30
0.0
 10
1071.4715571771
 20
698.5791355652
 30
0.0
 10
1071.5942926024
 20
698.5681381207
 30
0.0
 10
1071.7352742869
 20
698.5251210038
 30
0.0
 10
1071.8200185283
 20
698.4734151433
 30
0.0
 10
1071.8636107307
 20
698.4317422254
 30
0.0
 10
1071.8905427094
 20
698.3851728501
 30
0.0
 10
1071.8963874396
 20
698.3515686084
 30
0.0
 10
1071.8963964959
 20
698.3354372414
 30
0.0
  0
LINE
  5
31E
330
22B
100
AcDbEntity
  8
7_ALL_FEATURES
  6
Continuous
 62
     9
100
AcDbLine
 10
1068.896396
 20
697.379151
 30
0.0
 11
1068.496396
 21
697.379151
 31
0.0
  0
LINE
  5
31F
330
22B
100
AcDbEntity
  8
7_ALL_FEATURES
  6
Continuous
 62
     9
100
AcDbLine
 10
1068.896396
 20
674.379151
 30
0.0
 11
1068.496396
 21
674.379151
 31
0.0
  0
LINE
  5
320
330
22B
100
AcDbEntity
  8
7_ALL_FEATURES
  6
Continuous
 62
     7
100
AcDbLine
 10
20.596396
 20
661.629151
 30
0.0
 11
20.596396
 21
662.064644
 31
0.0
  0
LINE
  5
321
330
22B
100
AcDbEntity
  8
7_ALL_FEATURES
  6
Continuous
 62
     7
100
AcDbLine
 10
20.596396
 20
662.064644
 30
0.0
 11
20.596396
 21
683.629151
 31
0.0
  0
LINE
  5
322
330
22B
100
AcDbEntity
  8
7_ALL_FEATURES
  6
Continuous
 62
     7
100
AcDbLine
 10
20.596396
 20
683.629151
 30
0.0
 11
20.596396
 21
687.629151
 31
0.0
  0
LINE
  5
323
330
22B
100
AcDbEntity
  8
7_ALL_FEATURES
  6
Continuous
 62
     7
100
AcDbLine
 10
20.596396
 20
687.629151
 30
0.0
 11
20.596396
 21
691.629151
 31
0.0
  0
LINE
  5
324
330
22B
100
AcDbEntity
  8
7_ALL_FEATURES
  6
Continuous
 62
     7
100
AcDbLine
 10
20.596396
 20
691.629151
 30
0.0
 11
20.596396
 21
697.159
 31
0.0
  0
LINE
  5
325
330
22B
100
AcDbEntity
  8
7_ALL_FEATURES
  6
Continuous
 62
     7
100
AcDbLine
 10
20.596396
 20
697.159
 30
0.0
 11
20.596396
 21
697.288409
 31
0.0
  0
LINE
  5
326
330
22B
100
AcDbEntity
  8
7_ALL_FEATURES
  6
Continuous
 62
     7
100
AcDbLine
 10
20.596396
 20
697.288409
 30
0.0
 11
20.596396
 21
697.628934
 31
0.0
  0
LINE
  5
327
330
22B
100
AcDbEntity
  8
7_ALL_FEATURES
  6
Continuous
 62
     7
100
AcDbLine
 10
20.596396
 20
697.629151
 30
0.0
 11
18.596396
 21
697.629151
 31
0.0
  0
ARC
  5
328
330
22B
100
AcDbEntity
  8
7_ALL_FEATURES
  6
Continuous
 62
     7
100
AcDbCircle
 10
22.596396
 20
661.629151
 30
0.0
 40
2.0
100
AcDbArc
 50
180.0
 51
270.0
  0
LINE
  5
329
330
22B
100
AcDbEntity
  8
7_ALL_FEATURES
  6
Continuous
 62
     7
100
AcDbLine
 10
38.596396
 20
659.629151
 30
0.0
 11
38.596396
 21
657.629151
 31
0.0
  0
LINE
  5
32A
330
22B
100
AcDbEntity
  8
7_ALL_FEATURES
  6
Continuous
 62
     7
100
AcDbLine
 10
37.096396
 20
659.629151
 30
0.0
 11
22.596396
 21
659.629151
 31
0.0
  0
LINE
  5
32B
330
22B
100
AcDbEntity
  8
7_ALL_FEATURES
  6
Continuous
 62
     7
100
AcDbLine
 10
37.096396
 20
659.629151
 30
0.0
 11
38.596396
 21
659.629151
 31
0.0
  0
LINE
  5
32C
330
22B
100
AcDbEntity
  8
7_ALL_FEATURES
  6
Continuous
 62
     9
100
AcDbLine
 10
18.596396
 20
697.288409
 30
0.0
 11
20.596396
 21
697.288409
 31
0.0
  0
LINE
  5
32D
330
22B
100
AcDbEntity
  8
7_ALL_FEATURES
  6
Continuous
 62
     9
100
AcDbLine
 10
18.596396
 20
662.064644
 30
0.0
 11
20.596396
 21
662.064644
 31
0.0
  0
LINE
  5
32E
330
22B
100
AcDbEntity
  8
7_ALL_FEATURES
  6
Continuous
 62
     9
100
AcDbLine
 10
22.596396
 20
657.629151
 30
0.0
 11
22.596396
 21
659.629151
 31
0.0
  0
LINE
  5
32F
330
22B
100
AcDbEntity
  8
7_ALL_FEATURES
  6
Continuous
 62
     9
100
AcDbLine
 10
37.096396
 20
659.629151
 30
0.0
 11
37.096396
 21
657.629151
 31
0.0
  0
LINE
  5
330
330
22B
100
AcDbEntity
  8
7_ALL_FEATURES
  6
Continuous
 62
     9
100
AcDbLine
 10
18.596396
 20
697.159
 30
0.0
 11
20.596396
 21
697.159
 31
0.0
  0
LINE
  5
331
330
22B
100
AcDbEntity
  8
7_ALL_FEATURES
  6
Continuous
 62
     9
100
AcDbLine
 10
18.596396
 20
661.629151
 30
0.0
 11
20.596396
 21
661.629151
 31
0.0
  0
LINE
  5
332
330
22B
100
AcDbEntity
  8
0
  6
Continuous
 62
     7
100
AcDbLine
 10
1054.896396
 20
657.629151
 30
0.0
 11
1054.896396
 21
659.629151
 31
0.0
  0
LINE
  5
333
330
22B
100
AcDbEntity
  8
0
  6
Continuous
 62
     7
100
AcDbLine
 10
1074.896396
 20
697.629151
 30
0.0
 11
1072.896396
 21
697.629151
 31
0.0
  0
LINE
  5
334
330
22B
100
AcDbEntity
  8
0
  6
Continuous
 62
     7
100
AcDbLine
 10
1072.896396
 20
697.288409
 30
0.0
 11
1072.896396
 21
697.628934
 31
0.0
  0
LINE
  5
335
330
22B
100
AcDbEntity
  8
0
  6
Continuous
 62
     7
100
AcDbLine
 10
1072.896396
 20
697.159
 30
0.0
 11
1072.896396
 21
697.288409
 31
0.0
  0
LINE
  5
336
330
22B
100
AcDbEntity
  8
0
  6
Continuous
 62
     7
100
AcDbLine
 10
1072.896396
 20
662.064644
 30
0.0
 11
1072.896396
 21
683.629151
 31
0.0
  0
LINE
  5
337
330
22B
100
AcDbEntity
  8
0
  6
Continuous
 62
     7
100
AcDbLine
 10
1072.896396
 20
683.629151
 30
0.0
 11
1072.896396
 21
687.629151
 31
0.0
  0
LINE
  5
338
330
22B
100
AcDbEntity
  8
0
  6
Continuous
 62
     7
100
AcDbLine
 10
1072.896396
 20
687.629151
 30
0.0
 11
1072.896396
 21
691.629151
 31
0.0
  0
LINE
  5
339
330
22B
100
AcDbEntity
  8
0
  6
Continuous
 62
     7
100
AcDbLine
 10
1072.896396
 20
691.629151
 30
0.0
 11
1072.896396
 21
697.159
 31
0.0
  0
LINE
  5
33A
330
22B
100
AcDbEntity
  8
0
  6
Continuous
 62
     7
100
AcDbLine
 10
1072.896396
 20
661.629151
 30
0.0
 11
1072.896396
 21
662.064644
 31
0.0
  0
LINE
  5
33B
330
22B
100
AcDbEntity
  8
0
  6
Continuous
 62
     7
100
AcDbLine
 10
1056.396396
 20
659.629151
 30
0.0
 11
1070.896396
 21
659.629151
 31
0.0
  0
LINE
  5
33C
330
22B
100
AcDbEntity
  8
0
  6
Continuous
 62
     7
100
AcDbLine
 10
1056.396396
 20
659.629151
 30
0.0
 11
1054.896396
 21
659.629151
 31
0.0
  0
LINE
  5
33D
330
22B
100
AcDbEntity
  8
0
  6
Continuous
 62
     7
100
AcDbLine
 10
1054.896396
 20
659.629151
 30
0.0
 11
1054.896396
 21
657.629151
 31
0.0
  0
ARC
  5
33E
330
22B
100
AcDbEntity
  8
7_ALL_FEATURES
  6
Continuous
 62
     7
100
AcDbCircle
 10
1070.896396
 20
661.629151
 30
0.0
 40
2.0
100
AcDbArc
 50
270.0
 51
360.0
  0
LINE
  5
33F
330
22B
100
AcDbEntity
  8
0
  6
Continuous
 62
     9
100
AcDbLine
 10
1074.896396
 20
662.064644
 30
0.0
 11
1072.896396
 21
662.064644
 31
0.0
  0
LINE
  5
340
330
22B
100
AcDbEntity
  8
7_ALL_FEATURES
  6
Continuous
 62
     9
100
AcDbLine
 10
1070.896396
 20
657.629151
 30
0.0
 11
1070.896396
 21
659.629151
 31
0.0
  0
LINE
  5
341
330
22B
100
AcDbEntity
  8
0
  6
Continuous
 62
     9
100
AcDbLine
 10
1056.396396
 20
659.629151
 30
0.0
 11
1056.396396
 21
657.629151
 31
0.0
  0
LINE
  5
342
330
22B
100
AcDbEntity
  8
0
  6
Continuous
 62
     9
100
AcDbLine
 10
1074.896396
 20
697.288409
 30
0.0
 11
1072.896396
 21
697.288409
 31
0.0
  0
LINE
  5
343
330
22B
100
AcDbEntity
  8
0
  6
Continuous
 62
     9
100
AcDbLine
 10
1074.896396
 20
697.159
 30
0.0
 11
1072.896396
 21
697.159
 31
0.0
  0
LINE
  5
344
330
22B
100
AcDbEntity
  8
7_ALL_FEATURES
  6
Continuous
 62
     9
100
AcDbLine
 10
1074.896396
 20
661.629151
 30
0.0
 11
1072.896396
 21
661.629151
 31
0.0
  0
LINE
  5
345
330
22B
100
AcDbEntity
  8
7_ALL_FEATURES
  6
Continuous
 62
     7
100
AcDbLine
 10
1068.496396
 20
672.879151
 30
0.0
 11
1068.496396
 21
673.393119
 31
0.0
  0
LINE
  5
346
330
22B
100
AcDbEntity
  8
7_ALL_FEATURES
  6
Continuous
 62
     7
100
AcDbLine
 10
1068.496396
 20
673.393119
 30
0.0
 11
1068.496396
 21
674.379151
 31
0.0
  0
LINE
  5
347
330
22B
100
AcDbEntity
  8
7_ALL_FEATURES
  6
Continuous
 62
     7
100
AcDbLine
 10
1068.496396
 20
674.379151
 30
0.0
 11
1068.496396
 21
697.379151
 31
0.0
  0
LINE
  5
348
330
22B
100
AcDbEntity
  8
7_ALL_FEATURES
  6
Continuous
 62
     7
100
AcDbLine
 10
1068.496396
 20
697.379151
 30
0.0
 11
1068.496396
 21
698.365183
 31
0.0
  0
LINE
  5
349
330
22B
100
AcDbEntity
  8
7_ALL_FEATURES
  6
Continuous
 62
     7
100
AcDbLine
 10
1068.496396
 20
698.365183
 30
0.0
 11
1068.496396
 21
698.879151
 31
0.0
  0
LINE
  5
34A
330
22B
100
AcDbEntity
  8
7_ALL_FEATURES
  6
Continuous
 62
     7
100
AcDbLine
 10
24.996396
 20
672.879151
 30
0.0
 11
1068.496396
 21
672.879151
 31
0.0
  0
LINE
  5
34B
330
22B
100
AcDbEntity
  8
7_ALL_FEATURES
  6
Continuous
 62
     7
100
AcDbLine
 10
24.996396
 20
698.879151
 30
0.0
 11
1068.496396
 21
698.879151
 31
0.0
  0
LINE
  5
34C
330
22B
100
AcDbEntity
  8
7_ALL_FEATURES
  6
Continuous
 62
     7
100
AcDbLine
 10
24.996396
 20
672.879151
 30
0.0
 11
24.996396
 21
673.393119
 31
0.0
  0
LINE
  5
34D
330
22B
100
AcDbEntity
  8
7_ALL_FEATURES
  6
Continuous
 62
     7
100
AcDbLine
 10
24.996396
 20
673.393119
 30
0.0
 11
24.996396
 21
674.379151
 31
0.0
  0
LINE
  5
34E
330
22B
100
AcDbEntity
  8
7_ALL_FEATURES
  6
Continuous
 62
     7
100
AcDbLine
 10
24.996396
 20
674.379151
 30
0.0
 11
24.996396
 21
697.379151
 31
0.0
  0
LINE
  5
34F
330
22B
100
AcDbEntity
  8
7_ALL_FEATURES
  6
Continuous
 62
     7
100
AcDbLine
 10
24.996396
 20
697.379151
 30
0.0
 11
24.996396
 21
698.365183
 31
0.0
  0
LINE
  5
350
330
22B
100
AcDbEntity
  8
7_ALL_FEATURES
  6
Continuous
 62
     7
100
AcDbLine
 10
24.996396
 20
698.365183
 30
0.0
 11
24.996396
 21
698.879151
 31
0.0
  0
LINE
  5
351
330
22B
100
AcDbEntity
  8
7_ALL_FEATURES
  6
Continuous
 62
     3
100
AcDbLine
 10
18.596396
 20
697.288409
 30
0.0
 11
18.596396
 21
697.628934
 31
0.0
  0
LINE
  5
352
330
22B
100
AcDbEntity
  8
7_ALL_FEATURES
  6
Continuous
 62
     3
100
AcDbLine
 10
18.596396
 20
697.159
 30
0.0
 11
18.596396
 21
697.288409
 31
0.0
  0
LINE
  5
353
330
22B
100
AcDbEntity
  8
7_ALL_FEATURES
  6
Continuous
 62
     3
100
AcDbLine
 10
18.596396
 20
662.064644
 30
0.0
 11
18.596396
 21
683.629151
 31
0.0
  0
LINE
  5
354
330
22B
100
AcDbEntity
  8
7_ALL_FEATURES
  6
Continuous
 62
     3
100
AcDbLine
 10
18.596396
 20
683.629151
 30
0.0
 11
18.596396
 21
687.629151
 31
0.0
  0
LINE
  5
355
330
22B
100
AcDbEntity
  8
7_ALL_FEATURES
  6
Continuous
 62
     3
100
AcDbLine
 10
18.596396
 20
687.629151
 30
0.0
 11
18.596396
 21
691.629151
 31
0.0
  0
LINE
  5
356
330
22B
100
AcDbEntity
  8
7_ALL_FEATURES
  6
Continuous
 62
     3
100
AcDbLine
 10
18.596396
 20
691.629151
 30
0.0
 11
18.596396
 21
697.159
 31
0.0
  0
LINE
  5
357
330
22B
100
AcDbEntity
  8
7_ALL_FEATURES
  6
Continuous
 62
     3
100
AcDbLine
 10
18.596396
 20
661.629151
 30
0.0
 11
18.596396
 21
662.064644
 31
0.0
  0
ARC
  5
358
330
22B
100
AcDbEntity
  8
7_ALL_FEATURES
  6
Continuous
 62
     3
100
AcDbCircle
 10
22.596396
 20
661.629151
 30
0.0
 40
4.0
100
AcDbArc
 50
180.0
 51
270.0
  0
LINE
  5
359
330
22B
100
AcDbEntity
  8
7_ALL_FEATURES
  6
Continuous
 62
     3
100
AcDbLine
 10
38.596396
 20
657.629151
 30
0.0
 11
37.096396
 21
657.629151
 31
0.0
  0
LINE
  5
35A
330
22B
100
AcDbEntity
  8
7_ALL_FEATURES
  6
Continuous
 62
     3
100
AcDbLine
 10
37.096396
 20
657.629151
 30
0.0
 11
22.596396
 21
657.629151
 31
0.0
  0
LINE
  5
35B
330
22B
100
AcDbEntity
  8
0
  6
Continuous
 62
     3
100
AcDbLine
 10
1074.896396
 20
661.629151
 30
0.0
 11
1074.896396
 21
662.064644
 31
0.0
  0
LINE
  5
35C
330
22B
100
AcDbEntity
  8
0
  6
Continuous
 62
     3
100
AcDbLine
 10
1074.896396
 20
662.064644
 30
0.0
 11
1074.896396
 21
683.629151
 31
0.0
  0
LINE
  5
35D
330
22B
100
AcDbEntity
  8
0
  6
Continuous
 62
     3
100
AcDbLine
 10
1074.896396
 20
683.629151
 30
0.0
 11
1074.896396
 21
687.629151
 31
0.0
  0
LINE
  5
35E
330
22B
100
AcDbEntity
  8
0
  6
Continuous
 62
     3
100
AcDbLine
 10
1074.896396
 20
687.629151
 30
0.0
 11
1074.896396
 21
691.629151
 31
0.0
  0
LINE
  5
35F
330
22B
100
AcDbEntity
  8
0
  6
Continuous
 62
     3
100
AcDbLine
 10
1074.896396
 20
691.629151
 30
0.0
 11
1074.896396
 21
697.159
 31
0.0
  0
LINE
  5
360
330
22B
100
AcDbEntity
  8
0
  6
Continuous
 62
     3
100
AcDbLine
 10
1074.896396
 20
697.159
 30
0.0
 11
1074.896396
 21
697.288409
 31
0.0
  0
LINE
  5
361
330
22B
100
AcDbEntity
  8
0
  6
Continuous
 62
     3
100
AcDbLine
 10
1074.896396
 20
697.288409
 30
0.0
 11
1074.896396
 21
697.628934
 31
0.0
  0
LINE
  5
362
330
22B
100
AcDbEntity
  8
0
  6
Continuous
 62
     3
100
AcDbLine
 10
1054.896396
 20
657.629151
 30
0.0
 11
1056.396396
 21
657.629151
 31
0.0
  0
LINE
  5
363
330
22B
100
AcDbEntity
  8
0
  6
Continuous
 62
     3
100
AcDbLine
 10
1056.396396
 20
657.629151
 30
0.0
 11
1070.896396
 21
657.629151
 31
0.0
  0
ARC
  5
364
330
22B
100
AcDbEntity
  8
7_ALL_FEATURES
  6
Continuous
 62
     3
100
AcDbCircle
 10
1070.896396
 20
661.629151
 30
0.0
 40
4.0
100
AcDbArc
 50
270.0
 51
360.0
  0
LINE
  5
365
330
22B
100
AcDbEntity
  8
7_ALL_FEATURES
  6
Continuous
 62
     7
100
AcDbLine
 10
1136.236422
 20
675.129151
 30
0.0
 11
1136.236422
 21
676.004151
 31
0.0
  0
LINE
  5
366
330
22B
100
AcDbEntity
  8
7_ALL_FEATURES
  6
Continuous
 62
     7
100
AcDbLine
 10
1136.236422
 20
676.004151
 30
0.0
 11
1137.111422
 21
676.004151
 31
0.0
  0
LINE
  5
367
330
22B
100
AcDbEntity
  8
7_ALL_FEATURES
  6
Continuous
 62
     7
100
AcDbLine
 10
1137.111422
 20
676.754151
 30
0.0
 11
1136.236422
 21
676.754151
 31
0.0
  0
LINE
  5
368
330
22B
100
AcDbEntity
  8
7_ALL_FEATURES
  6
Continuous
 62
     7
100
AcDbLine
 10
1136.236422
 20
676.754151
 30
0.0
 11
1136.236422
 21
677.629151
 31
0.0
  0
LINE
  5
369
330
22B
100
AcDbEntity
  8
7_ALL_FEATURES
  6
Continuous
 62
     7
100
AcDbLine
 10
1135.486422
 20
677.629151
 30
0.0
 11
1135.486422
 21
676.754151
 31
0.0
  0
LINE
  5
36A
330
22B
100
AcDbEntity
  8
7_ALL_FEATURES
  6
Continuous
 62
     7
100
AcDbLine
 10
1135.486422
 20
676.754151
 30
0.0
 11
1134.611422
 21
676.754151
 31
0.0
  0
LINE
  5
36B
330
22B
100
AcDbEntity
  8
7_ALL_FEATURES
  6
Continuous
 62
     7
100
AcDbLine
 10
1134.611422
 20
676.004151
 30
0.0
 11
1135.486422
 21
676.004151
 31
0.0
  0
LINE
  5
36C
330
22B
100
AcDbEntity
  8
7_ALL_FEATURES
  6
Continuous
 62
     7
100
AcDbLine
 10
1135.486422
 20
676.004151
 30
0.0
 11
1135.486422
 21
675.129151
 31
0.0
  0
ARC
  5
36D
330
22B
100
AcDbEntity
  8
3_ALL_AXES
  6
Continuous
 62
     7
100
AcDbCircle
 10
1135.861422
 20
676.379151
 30
0.0
 40
2.75
100
AcDbArc
 50
0.0
 51
180.0
  0
ARC
  5
36E
330
22B
100
AcDbEntity
  8
3_ALL_AXES
  6
Continuous
 62
     7
100
AcDbCircle
 10
1135.861422
 20
676.379151
 30
0.0
 40
2.75
100
AcDbArc
 50
180.0
 51
360.0
  0
LINE
  5
36F
330
22B
100
AcDbEntity
  8
7_ALL_FEATURES
  6
Continuous
 62
     7
100
AcDbLine
 10
1134.611422
 20
676.004151
 30
0.0
 11
1134.611422
 21
676.754151
 31
0.0
  0
LINE
  5
370
330
22B
100
AcDbEntity
  8
7_ALL_FEATURES
  6
Continuous
 62
     7
100
AcDbLine
 10
1136.236422
 20
675.129151
 30
0.0
 11
1135.486422
 21
675.129151
 31
0.0
  0
LINE
  5
371
330
22B
100
AcDbEntity
  8
7_ALL_FEATURES
  6
Continuous
 62
     7
100
AcDbLine
 10
1137.111422
 20
676.754151
 30
0.0
 11
1137.111422
 21
676.004151
 31
0.0
  0
LINE
  5
372
330
22B
100
AcDbEntity
  8
7_ALL_FEATURES
  6
Continuous
 62
     7
100
AcDbLine
 10
1135.486422
 20
677.629151
 30
0.0
 11
1136.236422
 21
677.629151
 31
0.0
  0
LINE
  5
373
330
22B
100
AcDbEntity
  8
7_ALL_FEATURES
  6
Continuous
 62
     7
100
AcDbLine
 10
1143.139734
 20
688.879151
 30
0.0
 11
1142.418046
 21
687.629151
 31
0.0
  0
LINE
  5
374
330
22B
100
AcDbEntity
  8
7_ALL_FEATURES
  6
Continuous
 62
     7
100
AcDbLine
 10
1142.418046
 20
687.629151
 30
0.0
 11
1143.139734
 21
686.379151
 31
0.0
  0
LINE
  5
375
330
22B
100
AcDbEntity
  8
7_ALL_FEATURES
  6
Continuous
 62
     7
100
AcDbLine
 10
1143.139734
 20
686.379151
 30
0.0
 11
1144.58311
 21
686.379151
 31
0.0
  0
LINE
  5
376
330
22B
100
AcDbEntity
  8
7_ALL_FEATURES
  6
Continuous
 62
     7
100
AcDbLine
 10
1144.58311
 20
686.379151
 30
0.0
 11
1145.304797
 21
687.629151
 31
0.0
  0
LINE
  5
377
330
22B
100
AcDbEntity
  8
7_ALL_FEATURES
  6
Continuous
 62
     7
100
AcDbLine
 10
1145.304797
 20
687.629151
 30
0.0
 11
1144.58311
 21
688.879151
 31
0.0
  0
LINE
  5
378
330
22B
100
AcDbEntity
  8
7_ALL_FEATURES
  6
Continuous
 62
     7
100
AcDbLine
 10
1144.58311
 20
688.879151
 30
0.0
 11
1143.139734
 21
688.879151
 31
0.0
  0
ARC
  5
379
330
22B
100
AcDbEntity
  8
3_ALL_AXES
  6
Continuous
 62
     7
100
AcDbCircle
 10
1143.861422
 20
687.629151
 30
0.0
 40
3.8
100
AcDbArc
 50
0.0
 51
180.0
  0
ARC
  5
37A
330
22B
100
AcDbEntity
  8
3_ALL_AXES
  6
Continuous
 62
     7
100
AcDbCircle
 10
1143.861422
 20
687.629151
 30
0.0
 40
3.8
100
AcDbArc
 50
180.0
 51
360.0
  0
ARC
  5
37B
330
22B
100
AcDbEntity
  8
3_ALL_AXES
  6
Continuous
 62
     7
100
AcDbCircle
 10
1143.861422
 20
687.629151
 30
0.0
 40
1.965
100
AcDbArc
 50
0.0
 51
180.0
  0
ARC
  5
37C
330
22B
100
AcDbEntity
  8
3_ALL_AXES
  6
Continuous
 62
     7
100
AcDbCircle
 10
1143.861422
 20
687.629151
 30
0.0
 40
1.965
100
AcDbArc
 50
180.0
 51
360.0
  0
ARC
  5
37D
330
22B
100
AcDbEntity
  8
02___PRT_ALL_AXES
  6
Continuous
 62
     7
100
AcDbCircle
 10
1143.861422
 20
687.629151
 30
0.0
 40
4.0
100
AcDbArc
 50
180.0
 51
360.0
  0
ARC
  5
37E
330
22B
100
AcDbEntity
  8
02___PRT_ALL_AXES
  6
Continuous
 62
     7
100
AcDbCircle
 10
1143.861422
 20
687.629151
 30
0.0
 40
4.0
100
AcDbArc
 50
0.0
 51
180.0
  0
LINE
  5
37F
330
22B
100
AcDbEntity
  8
7_ALL_FEATURES
  6
Continuous
 62
     7
100
AcDbLine
 10
1155.260564
 20
697.028374
 30
0.0
 11
1155.260564
 21
693.770115
 31
0.0
  0
LINE
  5
380
330
22B
100
AcDbEntity
  8
7_ALL_FEATURES
  6
Continuous
 62
     7
100
AcDbLine
 10
1148.462198
 20
696.709965
 30
0.0
 11
1148.462198
 21
697.028374
 31
0.0
  0
LINE
  5
381
330
22B
100
AcDbEntity
  8
7_ALL_FEATURES
  6
Continuous
 62
     7
100
AcDbLine
 10
1148.462198
 20
697.028374
 30
0.0
 11
1155.260564
 21
697.028374
 31
0.0
  0
LINE
  5
382
330
22B
100
AcDbEntity
  8
7_ALL_FEATURES
  6
Continuous
 62
     7
100
AcDbLine
 10
1155.660564
 20
697.428374
 30
0.0
 11
1148.062198
 21
697.428374
 31
0.0
  0
LINE
  5
383
330
22B
100
AcDbEntity
  8
7_ALL_FEATURES
  6
Continuous
 62
     7
100
AcDbLine
 10
1148.062198
 20
697.428374
 30
0.0
 11
1148.062198
 21
697.379151
 31
0.0
  0
LINE
  5
384
330
22B
100
AcDbEntity
  8
7_ALL_FEATURES
  6
Continuous
 62
     7
100
AcDbLine
 10
1148.062198
 20
697.379151
 30
0.0
 11
1148.062198
 21
696.831921
 31
0.0
  0
LINE
  5
385
330
22B
100
AcDbEntity
  8
7_ALL_FEATURES
  6
Continuous
 62
     7
100
AcDbLine
 10
1155.660564
 20
693.541241
 30
0.0
 11
1155.660564
 21
697.428374
 31
0.0
  0
LINE
  5
386
330
22B
100
AcDbEntity
  8
7_ALL_FEATURES
  6
Continuous
 62
     7
100
AcDbLine
 10
1157.111422
 20
692.6616
 30
0.0
 11
1157.111422
 21
698.579151
 31
0.0
  0
ARC
  5
387
330
22B
100
AcDbEntity
  8
7_ALL_FEATURES
  6
Continuous
 62
     7
100
AcDbCircle
 10
1156.811422
 20
698.579151
 30
0.0
 40
0.3
100
AcDbArc
 50
33.451025
 51
90.0
  0
ARC
  5
388
330
22B
100
AcDbEntity
  8
7_ALL_FEATURES
  6
Continuous
 62
     7
100
AcDbCircle
 10
1156.811422
 20
698.579151
 30
0.0
 40
0.3
100
AcDbArc
 50
6.107723
 51
33.451025
  0
ARC
  5
389
330
22B
100
AcDbEntity
  8
7_ALL_FEATURES
  6
Continuous
 62
     7
100
AcDbCircle
 10
1156.811422
 20
698.579151
 30
0.0
 40
0.3
100
AcDbArc
 50
0.0
 51
6.107723
  0
LINE
  5
38A
330
22B
100
AcDbEntity
  8
7_ALL_FEATURES
  6
Continuous
 62
     7
100
AcDbLine
 10
1156.811422
 20
698.879151
 30
0.0
 11
1155.385683
 21
698.879151
 31
0.0
  0
LINE
  5
38B
330
22B
100
AcDbEntity
  8
7_ALL_FEATURES
  6
Continuous
 62
     7
100
AcDbLine
 10
1155.385683
 20
698.879151
 30
0.0
 11
1132.337161
 21
698.879151
 31
0.0
  0
LINE
  5
38C
330
22B
100
AcDbEntity
  8
7_ALL_FEATURES
  6
Continuous
 62
     7
100
AcDbLine
 10
1132.337161
 20
698.879151
 30
0.0
 11
1130.911422
 21
698.879151
 31
0.0
  0
ARC
  5
38D
330
22B
100
AcDbEntity
  8
7_ALL_FEATURES
  6
Continuous
 62
     7
100
AcDbCircle
 10
1130.911422
 20
698.579151
 30
0.0
 40
0.3
100
AcDbArc
 50
146.548975
 51
180.0
  0
ARC
  5
38E
330
22B
100
AcDbEntity
  8
7_ALL_FEATURES
  6
Continuous
 62
     7
100
AcDbCircle
 10
1130.911422
 20
698.579151
 30
0.0
 40
0.3
100
AcDbArc
 50
96.107723
 51
146.548975
  0
ARC
  5
38F
330
22B
100
AcDbEntity
  8
7_ALL_FEATURES
  6
Continuous
 62
     7
100
AcDbCircle
 10
1130.911422
 20
698.579151
 30
0.0
 40
0.3
100
AcDbArc
 50
90.0
 51
96.107723
  0
LINE
  5
390
330
22B
100
AcDbEntity
  8
7_ALL_FEATURES
  6
Continuous
 62
     7
100
AcDbLine
 10
1130.611422
 20
698.579151
 30
0.0
 11
1130.611422
 21
673.179151
 31
0.0
  0
ARC
  5
391
330
22B
100
AcDbEntity
  8
7_ALL_FEATURES
  6
Continuous
 62
     7
100
AcDbCircle
 10
1130.911422
 20
673.179151
 30
0.0
 40
0.3
100
AcDbArc
 50
213.451025
 51
270.0
  0
ARC
  5
392
330
22B
100
AcDbEntity
  8
7_ALL_FEATURES
  6
Continuous
 62
     7
100
AcDbCircle
 10
1130.911422
 20
673.179151
 30
0.0
 40
0.3
100
AcDbArc
 50
186.107723
 51
213.451025
  0
ARC
  5
393
330
22B
100
AcDbEntity
  8
7_ALL_FEATURES
  6
Continuous
 62
     7
100
AcDbCircle
 10
1130.911422
 20
673.179151
 30
0.0
 40
0.3
100
AcDbArc
 50
180.0
 51
186.107723
  0
LINE
  5
394
330
22B
100
AcDbEntity
  8
7_ALL_FEATURES
  6
Continuous
 62
     7
100
AcDbLine
 10
1130.911422
 20
672.879151
 30
0.0
 11
1141.611422
 21
672.879151
 31
0.0
  0
LINE
  5
395
330
22B
100
AcDbEntity
  8
7_ALL_FEATURES
  6
Continuous
 62
     7
100
AcDbLine
 10
1141.611422
 20
672.879151
 30
0.0
 11
1146.111422
 21
672.879151
 31
0.0
  0
LINE
  5
396
330
22B
100
AcDbEntity
  8
7_ALL_FEATURES
  6
Continuous
 62
     7
100
AcDbLine
 10
1146.111422
 20
672.879151
 30
0.0
 11
1149.761266
 21
672.879151
 31
0.0
  0
LINE
  5
397
330
22B
100
AcDbEntity
  8
7_ALL_FEATURES
  6
Continuous
 62
     9
100
AcDbLine
 10
1136.833465
 20
673.422865
 30
0.0
 11
1149.261836
 21
673.422865
 31
0.0
  0
ARC
  5
398
330
22B
100
AcDbEntity
  8
7_ALL_FEATURES
  6
Continuous
 62
     9
100
AcDbCircle
 10
1135.861422
 20
676.379151
 30
0.0
 40
3.1119921479
100
AcDbArc
 50
0.000001
 51
180.000001
  0
ARC
  5
399
330
22B
100
AcDbEntity
  8
7_ALL_FEATURES
  6
Continuous
 62
     9
100
AcDbCircle
 10
1135.861422
 20
676.379151
 30
0.0
 40
3.1119921479
100
AcDbArc
 50
180.000001
 51
251.798857
  0
LINE
  5
39A
330
22B
100
AcDbEntity
  8
7_ALL_FEATURES
  6
Continuous
 62
     9
100
AcDbLine
 10
1130.911422
 20
672.922941
 30
0.0
 11
1130.911422
 21
672.879151
 31
0.0
  0
LINE
  5
39B
330
22B
100
AcDbEntity
  8
7_ALL_FEATURES
  6
Continuous
 62
     9
100
AcDbLine
 10
1157.067632
 20
692.689011
 30
0.0
 11
1157.067632
 21
698.579151
 31
0.0
  0
LINE
  5
39C
330
22B
100
AcDbEntity
  8
7_ALL_FEATURES
  6
Continuous
 62
     9
100
AcDbLine
 10
1157.067632
 20
698.579151
 30
0.0
 11
1157.111422
 21
698.579151
 31
0.0
  0
ARC
  5
39D
330
22B
100
AcDbEntity
  8
7_ALL_FEATURES
  6
Continuous
 62
     9
100
AcDbCircle
 10
1156.811394
 20
698.579121
 30
0.0
 40
0.2562386351
100
AcDbArc
 50
0.006773
 51
89.993694
  0
LINE
  5
39E
330
22B
100
AcDbEntity
  8
7_ALL_FEATURES
  6
Continuous
 62
     9
100
AcDbLine
 10
1156.811422
 20
698.835361
 30
0.0
 11
1130.911422
 21
698.835361
 31
0.0
  0
LINE
  5
39F
330
22B
100
AcDbEntity
  8
7_ALL_FEATURES
  6
Continuous
 62
     9
100
AcDbLine
 10
1149.721577
 20
672.922941
 30
0.0
 11
1130.911422
 21
672.922941
 31
0.0
  0
SPLINE
  5
3A0
330
22B
100
AcDbEntity
  8
7_ALL_FEATURES
  6
Continuous
 62
     7
100
AcDbSpline
 70
     0
 71
     3
 72
    15
 73
    11
 74
     0
 42
0.000000001
 43
0.0000001
 40
0.0
 40
0.0
 40
0.0
 40
0.0
 40
0.1254369626
 40
0.2490923813
 40
0.3738610844
 40
0.5000131282
 40
0.6261667234
 40
0.7509309152
 40
0.874579064
 40
1.0
 40
1.0
 40
1.0
 40
1.0
 10
1134.8893789668
 20
673.4228648941
 30
0.0
 10
1134.9525889842
 20
673.3606814176
 30
0.0
 10
1135.089412825
 20
673.2468345611
 30
0.0
 10
1135.3336505979
 20
673.1381077324
 30
0.0
 10
1135.5947422631
 20
673.0865122408
 30
0.0
 10
1135.8614498513
 20
673.0715983114
 30
0.0
 10
1136.1281567088
 20
673.0864997717
 30
0.0
 10
1136.3892356072
 20
673.1381284551
 30
0.0
 10
1136.6334454465
 20
673.2468613275
 30
0.0
 10
1136.770262608
 20
673.3606893625
 30
0.0
 10
1136.8334645493
 20
673.4228648941
 30
0.0
  0
SPLINE
  5
3A1
330
22B
100
AcDbEntity
  8
7_ALL_FEATURES
  6
Continuous
 62
     9
100
AcDbSpline
 70
     0
 71
     3
 72
    16
 73
    12
 74
     0
 42
0.000000001
 43
0.0000001
 40
0.0
 40
0.0
 40
0.0
 40
0.0
 40
0.3631189228
 40
0.5317379564
 40
0.6838708434
 40
0.8129949063
 40
0.9124573078
 40
0.9491294365
 40
0.9762224184
 40
0.9932727605
 40
1.0
 40
1.0
 40
1.0
 40
1.0
 10
1131.1551355844
 20
673.4228648941
 30
0.0
 10
1131.0959197777
 20
673.3908093921
 30
0.0
 10
1131.0080848008
 20
673.3459434459
 30
0.0
 10
1130.8943014903
 20
673.289960245
 30
0.0
 10
1130.8191054918
 20
673.2538164636
 30
0.0
 10
1130.7552149627
 20
673.2238195767
 30
0.0
 10
1130.7105482683
 20
673.2031219387
 30
0.0
 10
1130.68292809
 20
673.1908743732
 30
0.0
 10
1130.6692413348
 20
673.1845350591
 30
0.0
 10
1130.6604942176
 20
673.1814357853
 30
0.0
 10
1130.6564587955
 20
673.179155576
 30
0.0
 10
1130.6552113283
 20
673.1791510657
 30
0.0
  0
SPLINE
  5
3A2
330
22B
100
AcDbEntity
  8
7_ALL_FEATURES
  6
Continuous
 62
     9
100
AcDbSpline
 70
     0
 71
     3
 72
    16
 73
    12
 74
     0
 42
0.000000001
 43
0.0000001
 40
0.0
 40
0.0
 40
0.0
 40
0.0
 40
0.0067460445
 40
0.0238164617
 40
0.0509431958
 40
0.087625345
 40
0.1870924268
 40
0.316220784
 40
0.4683421952
 40
0.6369332606
 40
1.0
 40
1.0
 40
1.0
 40
1.0
 10
1130.9114217831
 20
672.922942733
 30
0.0
 10
1130.9114384109
 20
672.9241935805
 30
0.0
 10
1130.9136874313
 20
672.9282386876
 30
0.0
 10
1130.9168193967
 20
672.9369965977
 30
0.0
 10
1130.9231760922
 20
672.9506830249
 30
0.0
 10
1130.935426305
 20
672.9783148765
 30
0.0
 10
1130.9561007802
 20
673.0229937357
 30
0.0
 10
1130.9861240873
 20
673.0868720743
 30
0.0
 10
1131.0222395655
 20
673.1620737
 30
0.0
 10
1131.0782438033
 20
673.275827464
 30
0.0
 10
1131.1230848043
 20
673.3636578101
 30
0.0
 10
1131.1551355844
 20
673.4228648941
 30
0.0
  0
SPLINE
  5
3A3
330
22B
100
AcDbEntity
  8
7_ALL_FEATURES
  6
Continuous
 62
     9
100
AcDbSpline
 70
     0
 71
     3
 72
    16
 73
    12
 74
     0
 42
0.000000001
 43
0.0000001
 40
0.0
 40
0.0
 40
0.0
 40
0.0
 40
0.3631189228
 40
0.5317379564
 40
0.6838708435
 40
0.8129949063
 40
0.9124573078
 40
0.9491294365
 40
0.9762224184
 40
0.9932727605
 40
1.0
 40
1.0
 40
1.0
 40
1.0
 10
1156.5677079317
 20
698.3354372414
 30
0.0
 10
1156.6269237385
 20
698.3674927434
 30
0.0
 10
1156.7147587154
 20
698.4123586897
 30
0.0
 10
1156.8285420258
 20
698.4683418906
 30
0.0
 10
1156.9037380243
 20
698.5044856719
 30
0.0
 10
1156.9676285535
 20
698.5344825589
 30
0.0
 10
1157.0122952479
 20
698.5551801969
 30
0.0
 10
1157.0399154262
 20
698.5674277623
 30
0.0
 10
1157.0536021814
 20
698.5737670764
 30
0.0
 10
1157.0623492985
 20
698.5768663503
 30
0.0
 10
1157.0663847207
 20
698.5791465595
 30
0.0
 10
1157.0676321879
 20
698.5791510698
 30
0.0
  0
ARC
  5
3A4
330
22B
100
AcDbEntity
  8
7_ALL_FEATURES
  6
Continuous
 62
     9
100
AcDbCircle
 10
1135.861422
 20
676.379151
 30
0.0
 40
2.9587832593
100
AcDbArc
 50
0.0
 51
180.0
  0
SPLINE
  5
3A5
330
22B
100
AcDbEntity
  8
7_ALL_FEATURES
  6
Continuous
 62
     9
100
AcDbSpline
 70
     0
 71
     3
 72
    16
 73
    12
 74
     0
 42
0.000000001
 43
0.0000001
 40
0.0
 40
0.0
 40
0.0
 40
0.0
 40
0.0067460445
 40
0.0238164617
 40
0.0509431958
 40
0.087625345
 40
0.1870924268
 40
0.316220784
 40
0.4683421952
 40
0.6369332606
 40
1.0
 40
1.0
 40
1.0
 40
1.0
 10
1156.8114217331
 20
698.8353594025
 30
0.0
 10
1156.8114051053
 20
698.8341085551
 30
0.0
 10
1156.8091560848
 20
698.8300634479
 30
0.0
 10
1156.8060241195
 20
698.8213055378
 30
0.0
 10
1156.7996674239
 20
698.8076191106
 30
0.0
 10
1156.7874172112
 20
698.779987259
 30
0.0
 10
1156.766742736
 20
698.7353083998
 30
0.0
 10
1156.7367194289
 20
698.6714300613
 30
0.0
 10
1156.7006039507
 20
698.5962284356
 30
0.0
 10
1156.6445997129
 20
698.4824746715
 30
0.0
 10
1156.5997587118
 20
698.3946443255
 30
0.0
 10
1156.5677079317
 20
698.3354372414
 30
0.0
  0
SPLINE
  5
3A6
330
22B
100
AcDbEntity
  8
7_ALL_FEATURES
  6
Continuous
 62
     9
100
AcDbSpline
 70
     0
 71
     3
 72
    16
 73
    12
 74
     0
 42
0.000000001
 43
0.0000001
 40
0.0
 40
0.0
 40
0.0
 40
0.0
 40
0.3631189228
 40
0.5317379564
 40
0.6838708434
 40
0.8129949063
 40
0.9124573078
 40
0.9491294365
 40
0.9762224184
 40
0.9932727605
 40
1.0
 40
1.0
 40
1.0
 40
1.0
 10
1131.1551355844
 20
698.3354372414
 30
0.0
 10
1131.1230800824
 20
698.3946530482
 30
0.0
 10
1131.0782141362
 20
698.4824880251
 30
0.0
 10
1131.0222309353
 20
698.5962713355
 30
0.0
 10
1130.9860871539
 20
698.671467334
 30
0.0
 10
1130.956090267
 20
698.7353578632
 30
0.0
 10
1130.935392629
 20
698.7800245576
 30
0.0
 10
1130.9231450635
 20
698.8076447359
 30
0.0
 10
1130.9168057494
 20
698.8213314911
 30
0.0
 10
1130.9137064756
 20
698.8300786082
 30
0.0
 10
1130.9114262663
 20
698.8341140304
 30
0.0
 10
1130.911421756
 20
698.8353614976
 30
0.0
  0
SPLINE
  5
3A7
330
22B
100
AcDbEntity
  8
7_ALL_FEATURES
  6
Continuous
 62
     9
100
AcDbSpline
 70
     0
 71
     3
 72
    16
 73
    12
 74
     0
 42
0.000000001
 43
0.0000001
 40
0.0
 40
0.0
 40
0.0
 40
0.0
 40
0.0067460445
 40
0.0238164617
 40
0.0509431958
 40
0.087625345
 40
0.1870924268
 40
0.316220784
 40
0.4683421952
 40
0.6369332606
 40
1.0
 40
1.0
 40
1.0
 40
1.0
 10
1130.6552134233
 20
698.5791510428
 30
0.0
 10
1130.6564642708
 20
698.579134415
 30
0.0
 10
1130.6605093779
 20
698.5768853945
 30
0.0
 10
1130.669267288
 20
698.5737534292
 30
0.0
 10
1130.6829537152
 20
698.5673967336
 30
0.0
 10
1130.7105855668
 20
698.5551465209
 30
0.0
 10
1130.755264426
 20
698.5344720457
 30
0.0
 10
1130.8191427646
 20
698.5044487386
 30
0.0
 10
1130.8943443903
 20
698.4683332604
 30
0.0
 10
1131.0080981543
 20
698.4123290226
 30
0.0
 10
1131.0959285004
 20
698.3674880215
 30
0.0
 10
1131.1551355844
 20
698.3354372414
 30
0.0
  0
LINE
  5
3A8
330
22B
100
AcDbEntity
  8
7_ALL_FEATURES
  6
Continuous
 62
     9
100
AcDbLine
 10
1130.911422
 20
698.835361
 30
0.0
 11
1130.911422
 21
698.879151
 31
0.0
  0
LINE
  5
3A9
330
22B
100
AcDbEntity
  8
7_ALL_FEATURES
  6
Continuous
 62
     9
100
AcDbLine
 10
1156.811422
 20
698.835361
 30
0.0
 11
1156.811422
 21
698.879151
 31
0.0
  0
ARC
  5
3AA
330
22B
100
AcDbEntity
  8
7_ALL_FEATURES
  6
Continuous
 62
     9
100
AcDbCircle
 10
1135.861422
 20
676.379151
 30
0.0
 40
2.9587832593
100
AcDbArc
 50
180.0
 51
0.0
  0
ARC
  5
3AB
330
22B
100
AcDbEntity
  8
7_ALL_FEATURES
  6
Continuous
 62
     9
100
AcDbCircle
 10
1130.911452
 20
698.579123
 30
0.0
 40
0.2562386351
100
AcDbArc
 50
90.006773
 51
179.993694
  0
LINE
  5
3AC
330
22B
100
AcDbEntity
  8
7_ALL_FEATURES
  6
Continuous
 62
     9
100
AcDbLine
 10
1130.655212
 20
698.579151
 30
0.0
 11
1130.655212
 21
673.179151
 31
0.0
  0
LINE
  5
3AD
330
22B
100
AcDbEntity
  8
7_ALL_FEATURES
  6
Continuous
 62
     9
100
AcDbLine
 10
1130.655212
 20
673.179151
 30
0.0
 11
1130.611422
 21
673.179151
 31
0.0
  0
LINE
  5
3AE
330
22B
100
AcDbEntity
  8
7_ALL_FEATURES
  6
Continuous
 62
     9
100
AcDbLine
 10
1130.655212
 20
698.579151
 30
0.0
 11
1130.611422
 21
698.579151
 31
0.0
  0
ARC
  5
3AF
330
22B
100
AcDbEntity
  8
7_ALL_FEATURES
  6
Continuous
 62
     9
100
AcDbCircle
 10
1130.91145
 20
673.179181
 30
0.0
 40
0.2562386351
100
AcDbArc
 50
180.006773
 51
269.993694
  0
LINE
  5
3B0
330
22B
100
AcDbEntity
  8
7_ALL_FEATURES
  6
Continuous
 62
     9
100
AcDbLine
 10
1131.155136
 20
673.422865
 30
0.0
 11
1134.889379
 21
673.422865
 31
0.0
  0
LINE
  5
3B1
330
22B
100
AcDbEntity
  8
7_ALL_FEATURES
  6
Continuous
 62
     9
100
AcDbLine
 10
1131.155136
 20
698.335437
 30
0.0
 11
1131.155136
 21
673.422865
 31
0.0
  0
ARC
  5
3B2
330
22B
100
AcDbEntity
  8
7_ALL_FEATURES
  6
Continuous
 62
     9
100
AcDbCircle
 10
1135.861422
 20
676.379151
 30
0.0
 40
3.1119921479
100
AcDbArc
 50
288.201143
 51
0.000001
  0
LINE
  5
3B3
330
22B
100
AcDbEntity
  8
7_ALL_FEATURES
  6
Continuous
 62
     9
100
AcDbLine
 10
1156.567708
 20
698.335437
 30
0.0
 11
1131.155136
 21
698.335437
 31
0.0
  0
LINE
  5
3B4
330
22B
100
AcDbEntity
  8
7_ALL_FEATURES
  6
Continuous
 62
     9
100
AcDbLine
 10
1156.567708
 20
693.00195
 30
0.0
 11
1156.567708
 21
698.335437
 31
0.0
  0
LINE
  5
3B5
330
22B
100
AcDbEntity
  8
7_ALL_FEATURES
  6
Continuous
 62
     7
100
AcDbLine
 10
1148.361422
 20
697.129151
 30
0.0
 11
1155.361421
 21
697.129151
 31
0.0
  0
LINE
  5
3B6
330
22B
100
AcDbEntity
  8
7_ALL_FEATURES
  6
Continuous
 62
     7
100
AcDbLine
 10
1148.462198
 20
697.028374
 30
0.0
 11
1155.260564
 21
697.028374
 31
0.0
  0
LINE
  5
3B7
330
22B
100
AcDbEntity
  8
7_ALL_FEATURES
  6
Continuous
 62
     7
100
AcDbLine
 10
1148.361422
 20
697.129151
 30
0.0
 11
1148.361422
 21
696.743506
 31
0.0
  0
LINE
  5
3B8
330
22B
100
AcDbEntity
  8
7_ALL_FEATURES
  6
Continuous
 62
     7
100
AcDbLine
 10
1148.462198
 20
697.028374
 30
0.0
 11
1148.462198
 21
696.709965
 31
0.0
  0
LINE
  5
3B9
330
22B
100
AcDbEntity
  8
7_ALL_FEATURES
  6
Continuous
 62
     7
100
AcDbLine
 10
1155.361421
 20
697.129151
 30
0.0
 11
1155.361421
 21
693.712406
 31
0.0
  0
LINE
  5
3BA
330
22B
100
AcDbEntity
  8
7_ALL_FEATURES
  6
Continuous
 62
     7
100
AcDbLine
 10
1155.260564
 20
697.028374
 30
0.0
 11
1155.260564
 21
693.770115
 31
0.0
  0
LINE
  5
3BB
330
22B
100
AcDbEntity
  8
7_ALL_FEATURES
  6
Continuous
 62
     7
100
AcDbLine
 10
1157.061422
 20
698.744216
 30
0.0
 11
1157.061422
 21
698.879151
 31
0.0
  0
LINE
  5
3BC
330
22B
100
AcDbEntity
  8
7_ALL_FEATURES
  6
Continuous
 62
     7
100
AcDbLine
 10
1157.061422
 20
698.879151
 30
0.0
 11
1156.811422
 21
698.879151
 31
0.0
  0
LINE
  5
3BD
330
22B
100
AcDbEntity
  8
7_ALL_FEATURES
  6
Continuous
 62
     7
100
AcDbLine
 10
1130.661422
 20
698.879151
 30
0.0
 11
1130.911422
 21
698.879151
 31
0.0
  0
LINE
  5
3BE
330
22B
100
AcDbEntity
  8
7_ALL_FEATURES
  6
Continuous
 62
     7
100
AcDbLine
 10
1130.661422
 20
672.879151
 30
0.0
 11
1130.661422
 21
673.014086
 31
0.0
  0
LINE
  5
3BF
330
22B
100
AcDbEntity
  8
7_ALL_FEATURES
  6
Continuous
 62
     7
100
AcDbLine
 10
1130.661422
 20
698.744216
 30
0.0
 11
1130.661422
 21
698.879151
 31
0.0
  0
LINE
  5
3C0
330
22B
100
AcDbEntity
  8
7_ALL_FEATURES
  6
Continuous
 62
     7
100
AcDbLine
 10
1130.911422
 20
672.879151
 30
0.0
 11
1130.661422
 21
672.879151
 31
0.0
  0
LINE
  5
3C1
330
22B
100
AcDbEntity
  8
7_ALL_FEATURES
  6
Continuous
 62
     3
100
AcDbLine
 10
1153.861422
 20
662.064644
 30
0.0
 11
1153.861422
 21
661.629151
 31
0.0
  0
ARC
  5
3C2
330
22B
100
AcDbEntity
  8
7_ALL_FEATURES
  6
Continuous
 62
     3
100
AcDbCircle
 10
1137.529071
 20
662.064644
 30
0.0
 40
16.3323510378
100
AcDbArc
 50
0.0
 51
75.0
  0
LINE
  5
3C3
330
22B
100
AcDbEntity
  8
7_ALL_FEATURES
  6
Continuous
 62
     3
100
AcDbLine
 10
1141.273231
 20
677.969893
 30
0.0
 11
1141.756194
 21
677.840483
 31
0.0
  0
ARC
  5
3C4
330
22B
100
AcDbEntity
  8
7_ALL_FEATURES
  6
Continuous
 62
     3
100
AcDbCircle
 10
1143.861422
 20
687.629151
 30
0.0
 40
10.0
100
AcDbArc
 50
75.0
 51
255.0
  0
LINE
  5
3C5
330
22B
100
AcDbEntity
  8
7_ALL_FEATURES
  6
Continuous
 62
     3
100
AcDbLine
 10
1146.932575
 20
697.159
 30
0.0
 11
1146.449612
 21
697.288409
 31
0.0
  0
ARC
  5
3C6
330
22B
100
AcDbEntity
  8
7_ALL_FEATURES
  6
Continuous
 62
     3
100
AcDbCircle
 10
1137.529071
 20
662.064644
 30
0.0
 40
36.3323510378
100
AcDbArc
 50
0.0
 51
75.0
  0
LINE
  5
3C7
330
22B
100
AcDbEntity
  8
7_ALL_FEATURES
  6
Continuous
 62
     3
100
AcDbLine
 10
1173.861422
 20
661.629151
 30
0.0
 11
1173.861422
 21
662.064644
 31
0.0
  0
LINE
  5
3C8
330
22B
100
AcDbEntity
  8
7_ALL_FEATURES
  6
Continuous
 62
     3
100
AcDbLine
 10
1153.861422
 20
657.629151
 30
0.0
 11
1153.861422
 21
659.629151
 31
0.0
  0
LINE
  5
3C9
330
22B
100
AcDbEntity
  8
7_ALL_FEATURES
  6
Continuous
 62
     3
100
AcDbLine
 10
1153.861422
 20
659.629151
 30
0.0
 11
1153.861422
 21
661.629151
 31
0.0
  0
LINE
  5
3CA
330
22B
100
AcDbEntity
  8
7_ALL_FEATURES
  6
Continuous
 62
     3
100
AcDbLine
 10
1173.861422
 20
657.629151
 30
0.0
 11
1173.861422
 21
659.629151
 31
0.0
  0
LINE
  5
3CB
330
22B
100
AcDbEntity
  8
7_ALL_FEATURES
  6
Continuous
 62
     3
100
AcDbLine
 10
1173.861422
 20
659.629151
 30
0.0
 11
1173.861422
 21
661.629151
 31
0.0
  0
LINE
  5
3CC
330
22B
100
AcDbEntity
  8
7_ALL_FEATURES
  6
Continuous
 62
     3
100
AcDbLine
 10
1173.861422
 20
657.629151
 30
0.0
 11
1153.861422
 21
657.629151
 31
0.0
  0
LINE
  5
3CD
330
22B
100
AcDbEntity
  8
7_ALL_FEATURES
  6
Continuous
 62
     3
100
AcDbLine
 10
1173.861422
 20
657.629151
 30
0.0
 11
1153.861422
 21
657.629151
 31
0.0
  0
LINE
  5
3CE
330
22B
100
AcDbEntity
  8
7_ALL_FEATURES
  6
Continuous
 62
     9
100
AcDbLine
 10
1173.861422
 20
661.629151
 30
0.0
 11
1153.861422
 21
661.629151
 31
0.0
  0
LINE
  5
3CF
330
22B
100
AcDbEntity
  8
02___PRT_ALL_AXES
  6
Continuous
 62
     7
100
AcDbLine
 10
1071.896396
 20
488.780051
 30
0.0
 11
1072.896396
 21
488.780051
 31
0.0
  0
LINE
  5
3D0
330
22B
100
AcDbEntity
  8
02___PRT_ALL_AXES
  6
Continuous
 62
     7
100
AcDbLine
 10
1071.896396
 20
480.780051
 30
0.0
 11
1072.896396
 21
480.780051
 31
0.0
  0
LINE
  5
3D1
330
22B
100
AcDbEntity
  8
02___PRT_ALL_AXES
  6
Continuous
 62
     7
100
AcDbLine
 10
1071.896396
 20
488.780051
 30
0.0
 11
1072.896396
 21
488.780051
 31
0.0
  0
LINE
  5
3D2
330
22B
100
AcDbEntity
  8
02___PRT_ALL_AXES
  6
Continuous
 62
     7
100
AcDbLine
 10
1071.896396
 20
480.780051
 30
0.0
 11
1072.896396
 21
480.780051
 31
0.0
  0
LINE
  5
3D3
330
22B
100
AcDbEntity
  8
02___PRT_ALL_AXES
  6
Continuous
 62
     7
100
AcDbLine
 10
1074.896396
 20
488.780051
 30
0.0
 11
1075.896396
 21
488.780051
 31
0.0
  0
LINE
  5
3D4
330
22B
100
AcDbEntity
  8
02___PRT_ALL_AXES
  6
Continuous
 62
     7
100
AcDbLine
 10
1074.896396
 20
480.780051
 30
0.0
 11
1075.896396
 21
480.780051
 31
0.0
  0
LINE
  5
3D5
330
22B
100
AcDbEntity
  8
02___PRT_ALL_AXES
  6
Continuous
 62
     7
100
AcDbLine
 10
1074.896396
 20
488.780051
 30
0.0
 11
1075.896396
 21
488.780051
 31
0.0
  0
LINE
  5
3D6
330
22B
100
AcDbEntity
  8
02___PRT_ALL_AXES
  6
Continuous
 62
     7
100
AcDbLine
 10
1075.896396
 20
488.780051
 30
0.0
 11
1075.896396
 21
488.580051
 31
0.0
  0
LINE
  5
3D7
330
22B
100
AcDbEntity
  8
02___PRT_ALL_AXES
  6
Continuous
 62
     7
100
AcDbLine
 10
1075.896396
 20
488.580051
 30
0.0
 11
1075.896396
 21
488.560073
 31
0.0
  0
LINE
  5
3D8
330
22B
100
AcDbEntity
  8
02___PRT_ALL_AXES
  6
Continuous
 62
     7
100
AcDbLine
 10
1075.896396
 20
488.560073
 30
0.0
 11
1075.896396
 21
486.930051
 31
0.0
  0
LINE
  5
3D9
330
22B
100
AcDbEntity
  8
02___PRT_ALL_AXES
  6
Continuous
 62
     7
100
AcDbLine
 10
1075.896396
 20
486.930051
 30
0.0
 11
1075.896396
 21
486.780161
 31
0.0
  0
LINE
  5
3DA
330
22B
100
AcDbEntity
  8
02___PRT_ALL_AXES
  6
Continuous
 62
     7
100
AcDbLine
 10
1075.896396
 20
486.780161
 30
0.0
 11
1075.896396
 21
482.780051
 31
0.0
  0
LINE
  5
3DB
330
22B
100
AcDbEntity
  8
02___PRT_ALL_AXES
  6
Continuous
 62
     7
100
AcDbLine
 10
1075.896396
 20
482.780051
 30
0.0
 11
1075.896396
 21
482.630051
 31
0.0
  0
LINE
  5
3DC
330
22B
100
AcDbEntity
  8
02___PRT_ALL_AXES
  6
Continuous
 62
     7
100
AcDbLine
 10
1075.896396
 20
482.630051
 30
0.0
 11
1075.896396
 21
481.00003
 31
0.0
  0
LINE
  5
3DD
330
22B
100
AcDbEntity
  8
02___PRT_ALL_AXES
  6
Continuous
 62
     7
100
AcDbLine
 10
1075.896396
 20
481.00003
 30
0.0
 11
1075.896396
 21
480.980051
 31
0.0
  0
LINE
  5
3DE
330
22B
100
AcDbEntity
  8
02___PRT_ALL_AXES
  6
Continuous
 62
     7
100
AcDbLine
 10
1075.896396
 20
480.980051
 30
0.0
 11
1075.896396
 21
480.780051
 31
0.0
  0
LINE
  5
3DF
330
22B
100
AcDbEntity
  8
02___PRT_ALL_AXES
  6
Continuous
 62
     7
100
AcDbLine
 10
1074.896396
 20
480.780051
 30
0.0
 11
1075.896396
 21
480.780051
 31
0.0
  0
LINE
  5
3E0
330
22B
100
AcDbEntity
  8
02___PRT_ALL_AXES
  6
Continuous
 62
     7
100
AcDbLine
 10
21.596396
 20
480.780051
 30
0.0
 11
20.596396
 21
480.780051
 31
0.0
  0
LINE
  5
3E1
330
22B
100
AcDbEntity
  8
02___PRT_ALL_AXES
  6
Continuous
 62
     7
100
AcDbLine
 10
21.596396
 20
488.780051
 30
0.0
 11
20.596396
 21
488.780051
 31
0.0
  0
LINE
  5
3E2
330
22B
100
AcDbEntity
  8
02___PRT_ALL_AXES
  6
Continuous
 62
     7
100
AcDbLine
 10
21.596396
 20
480.780051
 30
0.0
 11
20.596396
 21
480.780051
 31
0.0
  0
LINE
  5
3E3
330
22B
100
AcDbEntity
  8
02___PRT_ALL_AXES
  6
Continuous
 62
     7
100
AcDbLine
 10
21.596396
 20
488.780051
 30
0.0
 11
20.596396
 21
488.780051
 31
0.0
  0
LINE
  5
3E4
330
22B
100
AcDbEntity
  8
02___PRT_ALL_AXES
  6
Continuous
 62
     7
100
AcDbLine
 10
18.596396
 20
480.780051
 30
0.0
 11
17.596396
 21
480.780051
 31
0.0
  0
LINE
  5
3E5
330
22B
100
AcDbEntity
  8
02___PRT_ALL_AXES
  6
Continuous
 62
     7
100
AcDbLine
 10
18.596396
 20
488.780051
 30
0.0
 11
17.596396
 21
488.780051
 31
0.0
  0
LINE
  5
3E6
330
22B
100
AcDbEntity
  8
02___PRT_ALL_AXES
  6
Continuous
 62
     7
100
AcDbLine
 10
18.596396
 20
480.780051
 30
0.0
 11
17.596396
 21
480.780051
 31
0.0
  0
LINE
  5
3E7
330
22B
100
AcDbEntity
  8
02___PRT_ALL_AXES
  6
Continuous
 62
     7
100
AcDbLine
 10
17.596396
 20
480.780051
 30
0.0
 11
17.596396
 21
480.980051
 31
0.0
  0
LINE
  5
3E8
330
22B
100
AcDbEntity
  8
02___PRT_ALL_AXES
  6
Continuous
 62
     7
100
AcDbLine
 10
17.596396
 20
480.980051
 30
0.0
 11
17.596396
 21
481.00003
 31
0.0
  0
LINE
  5
3E9
330
22B
100
AcDbEntity
  8
02___PRT_ALL_AXES
  6
Continuous
 62
     7
100
AcDbLine
 10
17.596396
 20
481.00003
 30
0.0
 11
17.596396
 21
482.630051
 31
0.0
  0
LINE
  5
3EA
330
22B
100
AcDbEntity
  8
02___PRT_ALL_AXES
  6
Continuous
 62
     7
100
AcDbLine
 10
17.596396
 20
482.630051
 30
0.0
 11
17.596396
 21
482.779942
 31
0.0
  0
LINE
  5
3EB
330
22B
100
AcDbEntity
  8
02___PRT_ALL_AXES
  6
Continuous
 62
     7
100
AcDbLine
 10
17.596396
 20
482.779942
 30
0.0
 11
17.596396
 21
486.780051
 31
0.0
  0
LINE
  5
3EC
330
22B
100
AcDbEntity
  8
02___PRT_ALL_AXES
  6
Continuous
 62
     7
100
AcDbLine
 10
17.596396
 20
486.780051
 30
0.0
 11
17.596396
 21
486.930051
 31
0.0
  0
LINE
  5
3ED
330
22B
100
AcDbEntity
  8
02___PRT_ALL_AXES
  6
Continuous
 62
     7
100
AcDbLine
 10
17.596396
 20
486.930051
 30
0.0
 11
17.596396
 21
488.560073
 31
0.0
  0
LINE
  5
3EE
330
22B
100
AcDbEntity
  8
02___PRT_ALL_AXES
  6
Continuous
 62
     7
100
AcDbLine
 10
17.596396
 20
488.560073
 30
0.0
 11
17.596396
 21
488.580051
 31
0.0
  0
LINE
  5
3EF
330
22B
100
AcDbEntity
  8
02___PRT_ALL_AXES
  6
Continuous
 62
     7
100
AcDbLine
 10
17.596396
 20
488.580051
 30
0.0
 11
17.596396
 21
488.780051
 31
0.0
  0
LINE
  5
3F0
330
22B
100
AcDbEntity
  8
02___PRT_ALL_AXES
  6
Continuous
 62
     7
100
AcDbLine
 10
18.596396
 20
488.780051
 30
0.0
 11
17.596396
 21
488.780051
 31
0.0
  0
ARC
  5
3F1
330
22B
100
AcDbEntity
  8
3_ALL_AXES
  6
Continuous
 62
     7
100
AcDbCircle
 10
19.069037
 20
484.637609
 30
0.0
 40
4.1
100
AcDbArc
 50
206.393026
 51
209.192464
  0
ARC
  5
3F2
330
22B
100
AcDbEntity
  8
3_ALL_AXES
  6
Continuous
 62
     7
100
AcDbCircle
 10
19.069037
 20
484.637609
 30
0.0
 40
4.1
100
AcDbArc
 50
209.192464
 51
240.337259
  0
ARC
  5
3F3
330
22B
100
AcDbEntity
  8
3_ALL_AXES
  6
Continuous
 62
     7
100
AcDbCircle
 10
19.069037
 20
484.637609
 30
0.0
 40
4.1
100
AcDbArc
 50
240.337259
 51
243.136697
  0
ARC
  5
3F4
330
22B
100
AcDbEntity
  8
3_ALL_AXES
  6
Continuous
 62
     7
100
AcDbCircle
 10
19.069037
 20
484.922494
 30
0.0
 40
4.1
100
AcDbArc
 50
150.807536
 51
153.606974
  0
ARC
  5
3F5
330
22B
100
AcDbEntity
  8
3_ALL_AXES
  6
Continuous
 62
     7
100
AcDbCircle
 10
19.069037
 20
484.922494
 30
0.0
 40
4.1
100
AcDbArc
 50
119.662741
 51
150.807536
  0
ARC
  5
3F6
330
22B
100
AcDbEntity
  8
3_ALL_AXES
  6
Continuous
 62
     7
100
AcDbCircle
 10
19.069037
 20
484.922494
 30
0.0
 40
4.1
100
AcDbArc
 50
116.863303
 51
119.662741
  0
LINE
  5
3F7
330
22B
100
AcDbEntity
  8
3_ALL_AXES
  6
Continuous
 62
     7
100
AcDbLine
 10
17.216396
 20
480.980051
 30
0.0
 11
17.596396
 21
480.980051
 31
0.0
  0
LINE
  5
3F8
330
22B
100
AcDbEntity
  8
3_ALL_AXES
  6
Continuous
 62
     7
100
AcDbLine
 10
17.216396
 20
488.580051
 30
0.0
 11
17.596396
 21
488.580051
 31
0.0
  0
ARC
  5
3F9
330
22B
100
AcDbEntity
  8
3_ALL_AXES
  6
Continuous
 62
     7
100
AcDbCircle
 10
19.069037
 20
484.637609
 30
0.0
 40
4.1
100
AcDbArc
 50
240.337099
 51
243.136697
  0
ARC
  5
3FA
330
22B
100
AcDbEntity
  8
3_ALL_AXES
  6
Continuous
 62
     7
100
AcDbCircle
 10
19.069037
 20
484.637609
 30
0.0
 40
4.1
100
AcDbArc
 50
209.192624
 51
240.337099
  0
ARC
  5
3FB
330
22B
100
AcDbEntity
  8
3_ALL_AXES
  6
Continuous
 62
     7
100
AcDbCircle
 10
19.069037
 20
484.637609
 30
0.0
 40
4.1
100
AcDbArc
 50
206.393026
 51
209.192624
  0
LINE
  5
3FC
330
22B
100
AcDbEntity
  8
3_ALL_AXES
  6
Continuous
 62
     7
100
AcDbLine
 10
15.396396
 20
482.815051
 30
0.0
 11
15.396396
 21
483.327899
 31
0.0
  0
LINE
  5
3FD
330
22B
100
AcDbEntity
  8
3_ALL_AXES
  6
Continuous
 62
     7
100
AcDbLine
 10
15.396396
 20
483.327899
 30
0.0
 11
15.396396
 21
483.336676
 31
0.0
  0
LINE
  5
3FE
330
22B
100
AcDbEntity
  8
3_ALL_AXES
  6
Continuous
 62
     7
100
AcDbLine
 10
15.396396
 20
483.336676
 30
0.0
 11
15.396396
 21
484.058363
 31
0.0
  0
LINE
  5
3FF
330
22B
100
AcDbEntity
  8
3_ALL_AXES
  6
Continuous
 62
     7
100
AcDbLine
 10
15.396396
 20
484.058363
 30
0.0
 11
15.396396
 21
485.501739
 31
0.0
  0
LINE
  5
400
330
22B
100
AcDbEntity
  8
3_ALL_AXES
  6
Continuous
 62
     7
100
AcDbLine
 10
15.396396
 20
485.501739
 30
0.0
 11
15.396396
 21
486.223427
 31
0.0
  0
LINE
  5
401
330
22B
100
AcDbEntity
  8
3_ALL_AXES
  6
Continuous
 62
     7
100
AcDbLine
 10
15.396396
 20
486.223427
 30
0.0
 11
15.396396
 21
486.232204
 31
0.0
  0
LINE
  5
402
330
22B
100
AcDbEntity
  8
3_ALL_AXES
  6
Continuous
 62
     7
100
AcDbLine
 10
15.396396
 20
486.232204
 30
0.0
 11
15.396396
 21
486.745051
 31
0.0
  0
LINE
  5
403
330
22B
100
AcDbEntity
  8
3_ALL_AXES
  6
Continuous
 62
     7
100
AcDbLine
 10
17.596396
 20
480.980051
 30
0.0
 11
17.216396
 21
480.980051
 31
0.0
  0
ARC
  5
404
330
22B
100
AcDbEntity
  8
3_ALL_AXES
  6
Continuous
 62
     7
100
AcDbCircle
 10
19.069037
 20
484.922494
 30
0.0
 40
4.1
100
AcDbArc
 50
116.863303
 51
119.662901
  0
ARC
  5
405
330
22B
100
AcDbEntity
  8
3_ALL_AXES
  6
Continuous
 62
     7
100
AcDbCircle
 10
19.069037
 20
484.922494
 30
0.0
 40
4.1
100
AcDbArc
 50
119.662901
 51
150.807376
  0
ARC
  5
406
330
22B
100
AcDbEntity
  8
3_ALL_AXES
  6
Continuous
 62
     7
100
AcDbCircle
 10
19.069037
 20
484.922494
 30
0.0
 40
4.1
100
AcDbArc
 50
150.807376
 51
153.606974
  0
LINE
  5
407
330
22B
100
AcDbEntity
  8
3_ALL_AXES
  6
Continuous
 62
     7
100
AcDbLine
 10
17.596396
 20
488.580051
 30
0.0
 11
17.216396
 21
488.580051
 31
0.0
  0
LINE
  5
408
330
22B
100
AcDbEntity
  8
3_ALL_AXES
  6
Continuous
 62
     7
100
AcDbLine
 10
17.216396
 20
480.980051
 30
0.0
 11
17.216396
 21
488.580051
 31
0.0
  0
ARC
  5
409
330
22B
100
AcDbEntity
  8
3_ALL_AXES
  6
Continuous
 62
     7
100
AcDbCircle
 10
1074.423756
 20
484.922494
 30
0.0
 40
4.1
100
AcDbArc
 50
26.393026
 51
29.192464
  0
ARC
  5
40A
330
22B
100
AcDbEntity
  8
3_ALL_AXES
  6
Continuous
 62
     7
100
AcDbCircle
 10
1074.423756
 20
484.922494
 30
0.0
 40
4.1
100
AcDbArc
 50
29.192464
 51
60.337259
  0
ARC
  5
40B
330
22B
100
AcDbEntity
  8
3_ALL_AXES
  6
Continuous
 62
     7
100
AcDbCircle
 10
1074.423756
 20
484.922494
 30
0.0
 40
4.1
100
AcDbArc
 50
60.337259
 51
63.136697
  0
ARC
  5
40C
330
22B
100
AcDbEntity
  8
3_ALL_AXES
  6
Continuous
 62
     7
100
AcDbCircle
 10
1074.423756
 20
484.637609
 30
0.0
 40
4.1
100
AcDbArc
 50
330.807536
 51
333.606974
  0
ARC
  5
40D
330
22B
100
AcDbEntity
  8
3_ALL_AXES
  6
Continuous
 62
     7
100
AcDbCircle
 10
1074.423756
 20
484.637609
 30
0.0
 40
4.1
100
AcDbArc
 50
299.662741
 51
330.807536
  0
ARC
  5
40E
330
22B
100
AcDbEntity
  8
3_ALL_AXES
  6
Continuous
 62
     7
100
AcDbCircle
 10
1074.423756
 20
484.637609
 30
0.0
 40
4.1
100
AcDbArc
 50
296.863303
 51
299.662741
  0
LINE
  5
40F
330
22B
100
AcDbEntity
  8
3_ALL_AXES
  6
Continuous
 62
     7
100
AcDbLine
 10
1076.276396
 20
488.580051
 30
0.0
 11
1075.896396
 21
488.580051
 31
0.0
  0
LINE
  5
410
330
22B
100
AcDbEntity
  8
3_ALL_AXES
  6
Continuous
 62
     7
100
AcDbLine
 10
1076.276396
 20
480.980051
 30
0.0
 11
1075.896396
 21
480.980051
 31
0.0
  0
ARC
  5
411
330
22B
100
AcDbEntity
  8
3_ALL_AXES
  6
Continuous
 62
     7
100
AcDbCircle
 10
1074.423756
 20
484.922494
 30
0.0
 40
4.1
100
AcDbArc
 50
60.337099
 51
63.136697
  0
ARC
  5
412
330
22B
100
AcDbEntity
  8
3_ALL_AXES
  6
Continuous
 62
     7
100
AcDbCircle
 10
1074.423756
 20
484.922494
 30
0.0
 40
4.1
100
AcDbArc
 50
29.192624
 51
60.337099
  0
ARC
  5
413
330
22B
100
AcDbEntity
  8
3_ALL_AXES
  6
Continuous
 62
     7
100
AcDbCircle
 10
1074.423756
 20
484.922494
 30
0.0
 40
4.1
100
AcDbArc
 50
26.393026
 51
29.192624
  0
LINE
  5
414
330
22B
100
AcDbEntity
  8
3_ALL_AXES
  6
Continuous
 62
     7
100
AcDbLine
 10
1078.096396
 20
486.745051
 30
0.0
 11
1078.096396
 21
486.232204
 31
0.0
  0
LINE
  5
415
330
22B
100
AcDbEntity
  8
3_ALL_AXES
  6
Continuous
 62
     7
100
AcDbLine
 10
1078.096396
 20
486.232204
 30
0.0
 11
1078.096396
 21
486.223427
 31
0.0
  0
LINE
  5
416
330
22B
100
AcDbEntity
  8
3_ALL_AXES
  6
Continuous
 62
     7
100
AcDbLine
 10
1078.096396
 20
486.223427
 30
0.0
 11
1078.096396
 21
485.501739
 31
0.0
  0
LINE
  5
417
330
22B
100
AcDbEntity
  8
3_ALL_AXES
  6
Continuous
 62
     7
100
AcDbLine
 10
1078.096396
 20
485.501739
 30
0.0
 11
1078.096396
 21
484.058363
 31
0.0
  0
LINE
  5
418
330
22B
100
AcDbEntity
  8
3_ALL_AXES
  6
Continuous
 62
     7
100
AcDbLine
 10
1078.096396
 20
484.058363
 30
0.0
 11
1078.096396
 21
483.336676
 31
0.0
  0
LINE
  5
419
330
22B
100
AcDbEntity
  8
3_ALL_AXES
  6
Continuous
 62
     7
100
AcDbLine
 10
1078.096396
 20
483.336676
 30
0.0
 11
1078.096396
 21
483.327899
 31
0.0
  0
LINE
  5
41A
330
22B
100
AcDbEntity
  8
3_ALL_AXES
  6
Continuous
 62
     7
100
AcDbLine
 10
1078.096396
 20
483.327899
 30
0.0
 11
1078.096396
 21
482.815051
 31
0.0
  0
LINE
  5
41B
330
22B
100
AcDbEntity
  8
3_ALL_AXES
  6
Continuous
 62
     7
100
AcDbLine
 10
1075.896396
 20
488.580051
 30
0.0
 11
1076.276396
 21
488.580051
 31
0.0
  0
ARC
  5
41C
330
22B
100
AcDbEntity
  8
3_ALL_AXES
  6
Continuous
 62
     7
100
AcDbCircle
 10
1074.423756
 20
484.637609
 30
0.0
 40
4.1
100
AcDbArc
 50
296.863303
 51
299.662901
  0
ARC
  5
41D
330
22B
100
AcDbEntity
  8
3_ALL_AXES
  6
Continuous
 62
     7
100
AcDbCircle
 10
1074.423756
 20
484.637609
 30
0.0
 40
4.1
100
AcDbArc
 50
299.662901
 51
330.807376
  0
ARC
  5
41E
330
22B
100
AcDbEntity
  8
3_ALL_AXES
  6
Continuous
 62
     7
100
AcDbCircle
 10
1074.423756
 20
484.637609
 30
0.0
 40
4.1
100
AcDbArc
 50
330.807376
 51
333.606974
  0
LINE
  5
41F
330
22B
100
AcDbEntity
  8
3_ALL_AXES
  6
Continuous
 62
     7
100
AcDbLine
 10
1075.896396
 20
480.980051
 30
0.0
 11
1076.276396
 21
480.980051
 31
0.0
  0
LINE
  5
420
330
22B
100
AcDbEntity
  8
3_ALL_AXES
  6
Continuous
 62
     7
100
AcDbLine
 10
1076.276396
 20
488.580051
 30
0.0
 11
1076.276396
 21
480.980051
 31
0.0
  0
LINE
  5
421
330
22B
100
AcDbEntity
  8
7_ALL_FEATURES
  6
Continuous
 62
     7
100
AcDbLine
 10
21.596396
 20
472.073765
 30
0.0
 11
21.596396
 21
497.486337
 31
0.0
  0
LINE
  5
422
330
22B
100
AcDbEntity
  8
7_ALL_FEATURES
  6
Continuous
 62
     7
100
AcDbLine
 10
24.996396
 20
473.383937
 30
0.0
 11
24.996396
 21
473.530051
 31
0.0
  0
LINE
  5
423
330
22B
100
AcDbEntity
  8
7_ALL_FEATURES
  6
Continuous
 62
     7
100
AcDbLine
 10
24.996396
 20
473.530051
 30
0.0
 11
24.996396
 21
496.030051
 31
0.0
  0
LINE
  5
424
330
22B
100
AcDbEntity
  8
7_ALL_FEATURES
  6
Continuous
 62
     7
100
AcDbLine
 10
24.996396
 20
496.030051
 30
0.0
 11
24.996396
 21
496.176165
 31
0.0
  0
LINE
  5
425
330
22B
100
AcDbEntity
  8
7_ALL_FEATURES
  6
Continuous
 62
     7
100
AcDbLine
 10
24.596396
 20
471.830051
 30
0.0
 11
24.596396
 21
471.530051
 31
0.0
  0
LINE
  5
426
330
22B
100
AcDbEntity
  8
7_ALL_FEATURES
  6
Continuous
 62
     7
100
AcDbLine
 10
24.596396
 20
471.830051
 30
0.0
 11
24.596396
 21
473.019534
 31
0.0
  0
LINE
  5
427
330
22B
100
AcDbEntity
  8
7_ALL_FEATURES
  6
Continuous
 62
     7
100
AcDbLine
 10
24.596396
 20
473.019534
 30
0.0
 11
24.596396
 21
478.331103
 31
0.0
  0
LINE
  5
428
330
22B
100
AcDbEntity
  8
7_ALL_FEATURES
  6
Continuous
 62
     7
100
AcDbLine
 10
24.596396
 20
478.331103
 30
0.0
 11
24.596396
 21
479.229
 31
0.0
  0
LINE
  5
429
330
22B
100
AcDbEntity
  8
7_ALL_FEATURES
  6
Continuous
 62
     7
100
AcDbLine
 10
24.596396
 20
479.229
 30
0.0
 11
24.596396
 21
490.331103
 31
0.0
  0
LINE
  5
42A
330
22B
100
AcDbEntity
  8
7_ALL_FEATURES
  6
Continuous
 62
     7
100
AcDbLine
 10
24.596396
 20
490.331103
 30
0.0
 11
24.596396
 21
491.229
 31
0.0
  0
LINE
  5
42B
330
22B
100
AcDbEntity
  8
7_ALL_FEATURES
  6
Continuous
 62
     7
100
AcDbLine
 10
24.596396
 20
491.229
 30
0.0
 11
24.596396
 21
496.540568
 31
0.0
  0
LINE
  5
42C
330
22B
100
AcDbEntity
  8
7_ALL_FEATURES
  6
Continuous
 62
     7
100
AcDbLine
 10
24.596396
 20
496.540568
 30
0.0
 11
24.596396
 21
497.730051
 31
0.0
  0
LINE
  5
42D
330
22B
100
AcDbEntity
  8
7_ALL_FEATURES
  6
Continuous
 62
     7
100
AcDbLine
 10
22.08767
 20
471.573841
 30
0.0
 11
24.596396
 21
471.530051
 31
0.0
  0
LINE
  5
42E
330
22B
100
AcDbEntity
  8
7_ALL_FEATURES
  6
Continuous
 62
     7
100
AcDbLine
 10
22.08767
 20
497.986261
 30
0.0
 11
24.596396
 21
498.030051
 31
0.0
  0
ARC
  5
42F
330
22B
100
AcDbEntity
  8
7_ALL_FEATURES
  6
Continuous
 62
     7
100
AcDbCircle
 10
22.096396
 20
497.486337
 30
0.0
 40
0.5
100
AcDbArc
 50
176.225628
 51
180.0
  0
ARC
  5
430
330
22B
100
AcDbEntity
  8
7_ALL_FEATURES
  6
Continuous
 62
     7
100
AcDbCircle
 10
22.096396
 20
472.073765
 30
0.0
 40
0.5
100
AcDbArc
 50
183.774116
 51
268.988987
  0
ARC
  5
431
330
22B
100
AcDbEntity
  8
7_ALL_FEATURES
  6
Continuous
 62
     7
100
AcDbCircle
 10
22.096396
 20
472.073765
 30
0.0
 40
0.5
100
AcDbArc
 50
180.0
 51
183.774116
  0
ARC
  5
432
330
22B
100
AcDbEntity
  8
7_ALL_FEATURES
  6
Continuous
 62
     7
100
AcDbCircle
 10
22.096396
 20
472.073765
 30
0.0
 40
0.5
100
AcDbArc
 50
180.0
 51
269.002686
  0
ARC
  5
433
330
22B
100
AcDbEntity
  8
7_ALL_FEATURES
  6
Continuous
 62
     7
100
AcDbCircle
 10
22.096396
 20
497.486337
 30
0.0
 40
0.5
100
AcDbArc
 50
91.011013
 51
180.0
  0
LINE
  5
434
330
22B
100
AcDbEntity
  8
7_ALL_FEATURES
  6
Continuous
 62
     7
100
AcDbLine
 10
25.246396
 20
495.463702
 30
0.0
 11
24.996396
 21
495.472432
 31
0.0
  0
LINE
  5
435
330
22B
100
AcDbEntity
  8
7_ALL_FEATURES
  6
Continuous
 62
     7
100
AcDbLine
 10
25.246396
 20
474.096401
 30
0.0
 11
24.996396
 21
474.087671
 31
0.0
  0
LINE
  5
436
330
22B
100
AcDbEntity
  8
7_ALL_FEATURES
  6
Continuous
 62
     7
100
AcDbLine
 10
24.596396
 20
472.030051
 30
0.0
 11
24.996396
 21
472.04402
 31
0.0
  0
LINE
  5
437
330
22B
100
AcDbEntity
  8
7_ALL_FEATURES
  6
Continuous
 62
     7
100
AcDbLine
 10
24.596396
 20
497.530051
 30
0.0
 11
24.996396
 21
497.516083
 31
0.0
  0
LINE
  5
438
330
22B
100
AcDbEntity
  8
7_ALL_FEATURES
  6
Continuous
 62
     7
100
AcDbLine
 10
22.087574
 20
497.98626
 30
0.0
 11
24.596396
 21
498.030051
 31
0.0
  0
LINE
  5
439
330
22B
100
AcDbEntity
  8
7_ALL_FEATURES
  6
Continuous
 62
     7
100
AcDbLine
 10
24.596396
 20
498.030051
 30
0.0
 11
24.596396
 21
497.730051
 31
0.0
  0
LINE
  5
43A
330
22B
100
AcDbEntity
  8
7_ALL_FEATURES
  6
Continuous
 62
     7
100
AcDbLine
 10
25.246396
 20
474.096401
 30
0.0
 11
24.996396
 21
474.087671
 31
0.0
  0
LINE
  5
43B
330
22B
100
AcDbEntity
  8
7_ALL_FEATURES
  6
Continuous
 62
     7
100
AcDbLine
 10
24.596396
 20
497.530051
 30
0.0
 11
24.996396
 21
497.516083
 31
0.0
  0
LINE
  5
43C
330
22B
100
AcDbEntity
  8
7_ALL_FEATURES
  6
Continuous
 62
     9
100
AcDbLine
 10
25.246396
 20
493.280051
 30
0.0
 11
24.996396
 21
493.280051
 31
0.0
  0
LINE
  5
43D
330
22B
100
AcDbEntity
  8
7_ALL_FEATURES
  6
Continuous
 62
     9
100
AcDbLine
 10
25.246396
 20
476.280051
 30
0.0
 11
24.996396
 21
476.280051
 31
0.0
  0
LINE
  5
43E
330
22B
100
AcDbEntity
  8
7_ALL_FEATURES
  6
Continuous
 62
     9
100
AcDbLine
 10
22.087694
 20
471.573841
 30
0.0
 11
22.087574
 21
471.830051
 31
0.0
  0
LINE
  5
43F
330
22B
100
AcDbEntity
  8
7_ALL_FEATURES
  6
Continuous
 62
     9
100
AcDbLine
 10
22.08767
 20
471.830051
 30
0.0
 11
22.08767
 21
497.730051
 31
0.0
  0
LINE
  5
440
330
22B
100
AcDbEntity
  8
7_ALL_FEATURES
  6
Continuous
 62
     9
100
AcDbLine
 10
22.08767
 20
497.730051
 30
0.0
 11
24.596396
 21
497.730051
 31
0.0
  0
LINE
  5
441
330
22B
100
AcDbEntity
  8
7_ALL_FEATURES
  6
Continuous
 62
     9
100
AcDbLine
 10
22.08767
 20
471.830051
 30
0.0
 11
24.596396
 21
471.830051
 31
0.0
  0
LINE
  5
442
330
22B
100
AcDbEntity
  8
7_ALL_FEATURES
  6
Continuous
 62
     9
100
AcDbLine
 10
22.087694
 20
497.730051
 30
0.0
 11
22.087574
 21
497.98626
 31
0.0
  0
LINE
  5
443
330
22B
100
AcDbEntity
  8
7_ALL_FEATURES
  6
Continuous
 62
     9
100
AcDbLine
 10
24.596396
 20
473.030051
 30
0.0
 11
24.996396
 21
473.030051
 31
0.0
  0
LINE
  5
444
330
22B
100
AcDbEntity
  8
7_ALL_FEATURES
  6
Continuous
 62
     9
100
AcDbLine
 10
24.596396
 20
496.530051
 30
0.0
 11
24.996396
 21
496.530051
 31
0.0
  0
SPLINE
  5
445
330
22B
100
AcDbEntity
  8
7_ALL_FEATURES
  6
Continuous
 62
     9
100
AcDbSpline
 70
     0
 71
     3
 72
    13
 73
     9
 74
     0
 42
0.000000001
 43
0.0000001
 40
0.0
 40
0.0
 40
0.0
 40
0.0
 40
0.3344336316
 40
0.6177191278
 40
0.7332258528
 40
0.8321301333
 40
0.9186764636
 40
1.0
 40
1.0
 40
1.0
 40
1.0
 10
22.0875742029
 20
471.8300513445
 30
0.0
 10
22.0212358147
 20
471.830066822
 30
0.0
 10
21.8985003893
 20
471.8410642665
 30
0.0
 10
21.7575187049
 20
471.8840813835
 30
0.0
 10
21.6727744635
 20
471.935787244
 30
0.0
 10
21.6291822611
 20
471.9774601618
 30
0.0
 10
21.6022502824
 20
472.0240295372
 30
0.0
 10
21.5964055522
 20
472.0576337789
 30
0.0
 10
21.5963964959
 20
472.0737651458
 30
0.0
  0
SPLINE
  5
446
330
22B
100
AcDbEntity
  8
7_ALL_FEATURES
  6
Continuous
 62
     9
100
AcDbSpline
 70
     0
 71
     3
 72
    13
 73
     9
 74
     0
 42
0.000000001
 43
0.0000001
 40
0.0
 40
0.0
 40
0.0
 40
0.0
 40
0.0813202769
 40
0.1678729397
 40
0.2667700379
 40
0.3822855255
 40
0.6655802899
 40
1.0
 40
1.0
 40
1.0
 40
1.0
 10
21.5963964959
 20
497.4863374931
 30
0.0
 10
21.5964055537
 20
497.502471625
 30
0.0
 10
21.6022508767
 20
497.5360835711
 30
0.0
 10
21.6291906501
 20
497.5826621576
 30
0.0
 10
21.6728039741
 20
497.6243331328
 30
0.0
 10
21.7575624663
 20
497.6760574059
 30
0.0
 10
21.8985811029
 20
497.7190775313
 30
0.0
 10
22.0213440742
 20
497.7300471398
 30
0.0
 10
22.087693732
 20
497.7300513215
 30
0.0
  0
LINE
  5
447
330
22B
100
AcDbEntity
  8
7_ALL_FEATURES
  6
Continuous
 62
     7
100
AcDbLine
 10
1071.896396
 20
497.486337
 30
0.0
 11
1071.896396
 21
472.073765
 31
0.0
  0
LINE
  5
448
330
22B
100
AcDbEntity
  8
7_ALL_FEATURES
  6
Continuous
 62
     7
100
AcDbLine
 10
1068.496396
 20
496.176165
 30
0.0
 11
1068.496396
 21
496.030051
 31
0.0
  0
LINE
  5
449
330
22B
100
AcDbEntity
  8
7_ALL_FEATURES
  6
Continuous
 62
     7
100
AcDbLine
 10
1068.496396
 20
496.030051
 30
0.0
 11
1068.496396
 21
473.530051
 31
0.0
  0
LINE
  5
44A
330
22B
100
AcDbEntity
  8
7_ALL_FEATURES
  6
Continuous
 62
     7
100
AcDbLine
 10
1068.496396
 20
473.530051
 30
0.0
 11
1068.496396
 21
473.383937
 31
0.0
  0
LINE
  5
44B
330
22B
100
AcDbEntity
  8
7_ALL_FEATURES
  6
Continuous
 62
     7
100
AcDbLine
 10
1068.896396
 20
497.730051
 30
0.0
 11
1068.896396
 21
498.030051
 31
0.0
  0
LINE
  5
44C
330
22B
100
AcDbEntity
  8
7_ALL_FEATURES
  6
Continuous
 62
     7
100
AcDbLine
 10
1068.896396
 20
497.730051
 30
0.0
 11
1068.896396
 21
496.540568
 31
0.0
  0
LINE
  5
44D
330
22B
100
AcDbEntity
  8
7_ALL_FEATURES
  6
Continuous
 62
     7
100
AcDbLine
 10
1068.896396
 20
496.540568
 30
0.0
 11
1068.896396
 21
491.229
 31
0.0
  0
LINE
  5
44E
330
22B
100
AcDbEntity
  8
7_ALL_FEATURES
  6
Continuous
 62
     7
100
AcDbLine
 10
1068.896396
 20
491.229
 30
0.0
 11
1068.896396
 21
490.331103
 31
0.0
  0
LINE
  5
44F
330
22B
100
AcDbEntity
  8
7_ALL_FEATURES
  6
Continuous
 62
     7
100
AcDbLine
 10
1068.896396
 20
490.331103
 30
0.0
 11
1068.896396
 21
479.229
 31
0.0
  0
LINE
  5
450
330
22B
100
AcDbEntity
  8
7_ALL_FEATURES
  6
Continuous
 62
     7
100
AcDbLine
 10
1068.896396
 20
479.229
 30
0.0
 11
1068.896396
 21
478.331103
 31
0.0
  0
LINE
  5
451
330
22B
100
AcDbEntity
  8
7_ALL_FEATURES
  6
Continuous
 62
     7
100
AcDbLine
 10
1068.896396
 20
478.331103
 30
0.0
 11
1068.896396
 21
473.019534
 31
0.0
  0
LINE
  5
452
330
22B
100
AcDbEntity
  8
7_ALL_FEATURES
  6
Continuous
 62
     7
100
AcDbLine
 10
1068.896396
 20
473.019534
 30
0.0
 11
1068.896396
 21
471.830051
 31
0.0
  0
LINE
  5
453
330
22B
100
AcDbEntity
  8
7_ALL_FEATURES
  6
Continuous
 62
     7
100
AcDbLine
 10
1071.405123
 20
497.986261
 30
0.0
 11
1068.896396
 21
498.030051
 31
0.0
  0
LINE
  5
454
330
22B
100
AcDbEntity
  8
7_ALL_FEATURES
  6
Continuous
 62
     7
100
AcDbLine
 10
1071.405123
 20
471.573841
 30
0.0
 11
1068.896396
 21
471.530051
 31
0.0
  0
ARC
  5
455
330
22B
100
AcDbEntity
  8
7_ALL_FEATURES
  6
Continuous
 62
     7
100
AcDbCircle
 10
1071.396396
 20
472.073765
 30
0.0
 40
0.5
100
AcDbArc
 50
356.225628
 51
360.0
  0
ARC
  5
456
330
22B
100
AcDbEntity
  8
7_ALL_FEATURES
  6
Continuous
 62
     7
100
AcDbCircle
 10
1071.396396
 20
497.486337
 30
0.0
 40
0.5
100
AcDbArc
 50
3.774116
 51
88.988987
  0
ARC
  5
457
330
22B
100
AcDbEntity
  8
7_ALL_FEATURES
  6
Continuous
 62
     7
100
AcDbCircle
 10
1071.396396
 20
497.486337
 30
0.0
 40
0.5
100
AcDbArc
 50
0.0
 51
3.774116
  0
ARC
  5
458
330
22B
100
AcDbEntity
  8
7_ALL_FEATURES
  6
Continuous
 62
     7
100
AcDbCircle
 10
1071.396396
 20
497.486337
 30
0.0
 40
0.5
100
AcDbArc
 50
0.0
 51
89.002686
  0
ARC
  5
459
330
22B
100
AcDbEntity
  8
7_ALL_FEATURES
  6
Continuous
 62
     7
100
AcDbCircle
 10
1071.396396
 20
472.073765
 30
0.0
 40
0.5
100
AcDbArc
 50
271.011013
 51
360.0
  0
LINE
  5
45A
330
22B
100
AcDbEntity
  8
7_ALL_FEATURES
  6
Continuous
 62
     7
100
AcDbLine
 10
1068.246396
 20
474.096401
 30
0.0
 11
1068.496396
 21
474.087671
 31
0.0
  0
LINE
  5
45B
330
22B
100
AcDbEntity
  8
7_ALL_FEATURES
  6
Continuous
 62
     7
100
AcDbLine
 10
1068.246396
 20
495.463702
 30
0.0
 11
1068.496396
 21
495.472432
 31
0.0
  0
LINE
  5
45C
330
22B
100
AcDbEntity
  8
7_ALL_FEATURES
  6
Continuous
 62
     7
100
AcDbLine
 10
1068.896396
 20
497.530051
 30
0.0
 11
1068.496396
 21
497.516083
 31
0.0
  0
LINE
  5
45D
330
22B
100
AcDbEntity
  8
7_ALL_FEATURES
  6
Continuous
 62
     7
100
AcDbLine
 10
1068.896396
 20
472.030051
 30
0.0
 11
1068.496396
 21
472.04402
 31
0.0
  0
LINE
  5
45E
330
22B
100
AcDbEntity
  8
7_ALL_FEATURES
  6
Continuous
 62
     7
100
AcDbLine
 10
1071.405219
 20
471.573843
 30
0.0
 11
1068.896396
 21
471.530051
 31
0.0
  0
LINE
  5
45F
330
22B
100
AcDbEntity
  8
7_ALL_FEATURES
  6
Continuous
 62
     7
100
AcDbLine
 10
1068.896396
 20
471.530051
 30
0.0
 11
1068.896396
 21
471.830051
 31
0.0
  0
LINE
  5
460
330
22B
100
AcDbEntity
  8
7_ALL_FEATURES
  6
Continuous
 62
     7
100
AcDbLine
 10
1068.246396
 20
495.463702
 30
0.0
 11
1068.496396
 21
495.472432
 31
0.0
  0
LINE
  5
461
330
22B
100
AcDbEntity
  8
7_ALL_FEATURES
  6
Continuous
 62
     7
100
AcDbLine
 10
1068.896396
 20
472.030051
 30
0.0
 11
1068.496396
 21
472.04402
 31
0.0
  0
LINE
  5
462
330
22B
100
AcDbEntity
  8
7_ALL_FEATURES
  6
Continuous
 62
     9
100
AcDbLine
 10
1068.246396
 20
476.280051
 30
0.0
 11
1068.496396
 21
476.280051
 31
0.0
  0
LINE
  5
463
330
22B
100
AcDbEntity
  8
7_ALL_FEATURES
  6
Continuous
 62
     9
100
AcDbLine
 10
1068.246396
 20
493.280051
 30
0.0
 11
1068.496396
 21
493.280051
 31
0.0
  0
LINE
  5
464
330
22B
100
AcDbEntity
  8
7_ALL_FEATURES
  6
Continuous
 62
     9
100
AcDbLine
 10
1071.405099
 20
497.986262
 30
0.0
 11
1071.405219
 21
497.730051
 31
0.0
  0
LINE
  5
465
330
22B
100
AcDbEntity
  8
7_ALL_FEATURES
  6
Continuous
 62
     9
100
AcDbLine
 10
1071.405123
 20
497.730051
 30
0.0
 11
1071.405123
 21
471.830051
 31
0.0
  0
LINE
  5
466
330
22B
100
AcDbEntity
  8
7_ALL_FEATURES
  6
Continuous
 62
     9
100
AcDbLine
 10
1071.405123
 20
471.830051
 30
0.0
 11
1068.896396
 21
471.830051
 31
0.0
  0
LINE
  5
467
330
22B
100
AcDbEntity
  8
7_ALL_FEATURES
  6
Continuous
 62
     9
100
AcDbLine
 10
1071.405123
 20
497.730051
 30
0.0
 11
1068.896396
 21
497.730051
 31
0.0
  0
LINE
  5
468
330
22B
100
AcDbEntity
  8
7_ALL_FEATURES
  6
Continuous
 62
     9
100
AcDbLine
 10
1071.405099
 20
471.830051
 30
0.0
 11
1071.405219
 21
471.573843
 31
0.0
  0
LINE
  5
469
330
22B
100
AcDbEntity
  8
7_ALL_FEATURES
  6
Continuous
 62
     9
100
AcDbLine
 10
1068.896396
 20
496.530051
 30
0.0
 11
1068.496396
 21
496.530051
 31
0.0
  0
LINE
  5
46A
330
22B
100
AcDbEntity
  8
7_ALL_FEATURES
  6
Continuous
 62
     9
100
AcDbLine
 10
1068.896396
 20
473.030051
 30
0.0
 11
1068.496396
 21
473.030051
 31
0.0
  0
SPLINE
  5
46B
330
22B
100
AcDbEntity
  8
7_ALL_FEATURES
  6
Continuous
 62
     9
100
AcDbSpline
 70
     0
 71
     3
 72
    13
 73
     9
 74
     0
 42
0.000000001
 43
0.0000001
 40
0.0
 40
0.0
 40
0.0
 40
0.0
 40
0.3344336316
 40
0.6177191278
 40
0.7332258528
 40
0.8321301333
 40
0.9186764636
 40
1.0
 40
1.0
 40
1.0
 40
1.0
 10
1071.4052187889
 20
497.7300512945
 30
0.0
 10
1071.4715571771
 20
497.7300358169
 30
0.0
 10
1071.5942926024
 20
497.7190383724
 30
0.0
 10
1071.7352742869
 20
497.6760212555
 30
0.0
 10
1071.8200185283
 20
497.6243153949
 30
0.0
 10
1071.8636107307
 20
497.5826424771
 30
0.0
 10
1071.8905427094
 20
497.5360731017
 30
0.0
 10
1071.8963874396
 20
497.5024688601
 30
0.0
 10
1071.8963964959
 20
497.4863374931
 30
0.0
  0
SPLINE
  5
46C
330
22B
100
AcDbEntity
  8
7_ALL_FEATURES
  6
Continuous
 62
     9
100
AcDbSpline
 70
     0
 71
     3
 72
    13
 73
     9
 74
     0
 42
0.000000001
 43
0.0000001
 40
0.0
 40
0.0
 40
0.0
 40
0.0
 40
0.0813202769
 40
0.1678729397
 40
0.2667700379
 40
0.3822855255
 40
0.6655802899
 40
1.0
 40
1.0
 40
1.0
 40
1.0
 10
1071.8963964959
 20
472.0737651458
 30
0.0
 10
1071.896387438
 20
472.0576310139
 30
0.0
 10
1071.8905421151
 20
472.0240190678
 30
0.0
 10
1071.8636023417
 20
471.9774404813
 30
0.0
 10
1071.8199890177
 20
471.9357695061
 30
0.0
 10
1071.7352305254
 20
471.8840452331
 30
0.0
 10
1071.5942118889
 20
471.8410251076
 30
0.0
 10
1071.4714489175
 20
471.8300554991
 30
0.0
 10
1071.4050992598
 20
471.8300513174
 30
0.0
  0
LINE
  5
46D
330
22B
100
AcDbEntity
  8
0
  6
Continuous
 62
     7
100
AcDbLine
 10
1072.896396
 20
454.780051
 30
0.0
 11
1072.896396
 21
474.780051
 31
0.0
  0
LINE
  5
46E
330
22B
100
AcDbEntity
  8
0
  6
Continuous
 62
     7
100
AcDbLine
 10
1072.896396
 20
474.780051
 30
0.0
 11
1072.896396
 21
480.780051
 31
0.0
  0
LINE
  5
46F
330
22B
100
AcDbEntity
  8
0
  6
Continuous
 62
     7
100
AcDbLine
 10
1072.896396
 20
480.780051
 30
0.0
 11
1072.896396
 21
481.708898
 31
0.0
  0
LINE
  5
470
330
22B
100
AcDbEntity
  8
0
  6
Continuous
 62
     7
100
AcDbLine
 10
1074.896396
 20
454.780051
 30
0.0
 11
1072.896396
 21
454.780051
 31
0.0
  0
LINE
  5
471
330
22B
100
AcDbEntity
  8
0
  6
Continuous
 62
     7
100
AcDbLine
 10
1074.896396
 20
494.780051
 30
0.0
 11
1072.896396
 21
494.780051
 31
0.0
  0
ARC
  5
472
330
22B
100
AcDbEntity
  8
0
  6
Continuous
 62
     7
100
AcDbCircle
 10
1060.896396
 20
464.780051
 30
0.0
 40
2.5
100
AcDbArc
 50
90.0
 51
270.0
  0
LINE
  5
473
330
22B
100
AcDbEntity
  8
0
  6
Continuous
 62
     7
100
AcDbLine
 10
1065.896396
 20
467.280051
 30
0.0
 11
1060.896396
 21
467.280051
 31
0.0
  0
ARC
  5
474
330
22B
100
AcDbEntity
  8
0
  6
Continuous
 62
     7
100
AcDbCircle
 10
1065.896396
 20
464.780051
 30
0.0
 40
2.5
100
AcDbArc
 50
270.0
 51
90.0
  0
LINE
  5
475
330
22B
100
AcDbEntity
  8
0
  6
Continuous
 62
     7
100
AcDbLine
 10
1060.896396
 20
462.280051
 30
0.0
 11
1065.896396
 21
462.280051
 31
0.0
  0
LINE
  5
476
330
22B
100
AcDbEntity
  8
0
  6
Continuous
 62
     7
100
AcDbLine
 10
1056.396396
 20
454.780051
 30
0.0
 11
1070.896396
 21
454.780051
 31
0.0
  0
LINE
  5
477
330
22B
100
AcDbEntity
  8
0
  6
Continuous
 62
     7
100
AcDbLine
 10
1072.896396
 20
482.191861
 30
0.0
 11
1072.896396
 21
482.530051
 31
0.0
  0
LINE
  5
478
330
22B
100
AcDbEntity
  8
0
  6
Continuous
 62
     7
100
AcDbLine
 10
1072.896396
 20
482.530051
 30
0.0
 11
1072.896396
 21
482.630051
 31
0.0
  0
LINE
  5
479
330
22B
100
AcDbEntity
  8
0
  6
Continuous
 62
     7
100
AcDbLine
 10
1072.896396
 20
482.630051
 30
0.0
 11
1072.896396
 21
486.930051
 31
0.0
  0
LINE
  5
47A
330
22B
100
AcDbEntity
  8
0
  6
Continuous
 62
     7
100
AcDbLine
 10
1072.896396
 20
486.930051
 30
0.0
 11
1072.896396
 21
487.030051
 31
0.0
  0
LINE
  5
47B
330
22B
100
AcDbEntity
  8
0
  6
Continuous
 62
     7
100
AcDbLine
 10
1072.896396
 20
487.030051
 30
0.0
 11
1072.896396
 21
488.780051
 31
0.0
  0
LINE
  5
47C
330
22B
100
AcDbEntity
  8
0
  6
Continuous
 62
     7
100
AcDbLine
 10
1072.896396
 20
488.780051
 30
0.0
 11
1072.896396
 21
494.779834
 31
0.0
  0
LINE
  5
47D
330
22B
100
AcDbEntity
  8
0
  6
Continuous
 62
     7
100
AcDbLine
 10
1072.896396
 20
481.708898
 30
0.0
 11
1072.896396
 21
482.191861
 31
0.0
  0
LINE
  5
47E
330
22B
100
AcDbEntity
  8
0
  6
Continuous
 62
     7
100
AcDbLine
 10
1054.896396
 20
471.580051
 30
0.0
 11
1054.896396
 21
456.280051
 31
0.0
  0
ARC
  5
47F
330
22B
100
AcDbEntity
  8
0
  6
Continuous
 62
     7
100
AcDbCircle
 10
1056.396396
 20
456.280051
 30
0.0
 40
1.5
100
AcDbArc
 50
180.0
 51
270.0
  0
LINE
  5
480
330
22B
100
AcDbEntity
  8
7_ALL_FEATURES
  6
Continuous
 62
     7
100
AcDbLine
 10
1070.896396
 20
454.780051
 30
0.0
 11
1072.896396
 21
454.780051
 31
0.0
  0
LINE
  5
481
330
22B
100
AcDbEntity
  8
0
  6
Continuous
 62
     7
100
AcDbLine
 10
1074.896396
 20
454.780051
 30
0.0
 11
1072.896396
 21
454.780051
 31
0.0
  0
LINE
  5
482
330
22B
100
AcDbEntity
  8
7_ALL_FEATURES
  6
Continuous
 62
     7
100
AcDbLine
 10
1071.896396
 20
474.780051
 30
0.0
 11
1072.896396
 21
474.780051
 31
0.0
  0
LINE
  5
483
330
22B
100
AcDbEntity
  8
7_ALL_FEATURES
  6
Continuous
 62
     9
100
AcDbLine
 10
1070.896396
 20
454.780051
 30
0.0
 11
1070.896396
 21
471.564961
 31
0.0
  0
LINE
  5
484
330
22B
100
AcDbEntity
  8
0
  6
Continuous
 62
     9
100
AcDbLine
 10
1074.896396
 20
482.191861
 30
0.0
 11
1072.896396
 21
482.191861
 31
0.0
  0
LINE
  5
485
330
22B
100
AcDbEntity
  8
0
  6
Continuous
 62
     9
100
AcDbLine
 10
1074.896396
 20
481.708898
 30
0.0
 11
1072.896396
 21
481.708898
 31
0.0
  0
LINE
  5
486
330
22B
100
AcDbEntity
  8
7_ALL_FEATURES
  6
Continuous
 62
     7
100
AcDbLine
 10
20.596396
 20
454.780051
 30
0.0
 11
18.596396
 21
454.780051
 31
0.0
  0
LINE
  5
487
330
22B
100
AcDbEntity
  8
7_ALL_FEATURES
  6
Continuous
 62
     7
100
AcDbLine
 10
20.596396
 20
494.780051
 30
0.0
 11
18.596396
 21
494.780051
 31
0.0
  0
LINE
  5
488
330
22B
100
AcDbEntity
  8
7_ALL_FEATURES
  6
Continuous
 62
     7
100
AcDbLine
 10
21.596396
 20
474.780051
 30
0.0
 11
20.596396
 21
474.780051
 31
0.0
  0
LINE
  5
489
330
22B
100
AcDbEntity
  8
7_ALL_FEATURES
  6
Continuous
 62
     7
100
AcDbLine
 10
22.596396
 20
454.780051
 30
0.0
 11
20.596396
 21
454.780051
 31
0.0
  0
LINE
  5
48A
330
22B
100
AcDbEntity
  8
7_ALL_FEATURES
  6
Continuous
 62
     7
100
AcDbLine
 10
20.596396
 20
454.780051
 30
0.0
 11
20.596396
 21
474.780051
 31
0.0
  0
LINE
  5
48B
330
22B
100
AcDbEntity
  8
7_ALL_FEATURES
  6
Continuous
 62
     7
100
AcDbLine
 10
20.596396
 20
474.780051
 30
0.0
 11
20.596396
 21
480.780051
 31
0.0
  0
LINE
  5
48C
330
22B
100
AcDbEntity
  8
7_ALL_FEATURES
  6
Continuous
 62
     7
100
AcDbLine
 10
20.596396
 20
480.780051
 30
0.0
 11
20.596396
 21
481.708898
 31
0.0
  0
LINE
  5
48D
330
22B
100
AcDbEntity
  8
7_ALL_FEATURES
  6
Continuous
 62
     7
100
AcDbLine
 10
20.596396
 20
481.708898
 30
0.0
 11
20.596396
 21
482.191861
 31
0.0
  0
LINE
  5
48E
330
22B
100
AcDbEntity
  8
7_ALL_FEATURES
  6
Continuous
 62
     7
100
AcDbLine
 10
20.596396
 20
482.191861
 30
0.0
 11
20.596396
 21
482.530051
 31
0.0
  0
LINE
  5
48F
330
22B
100
AcDbEntity
  8
7_ALL_FEATURES
  6
Continuous
 62
     7
100
AcDbLine
 10
20.596396
 20
482.530051
 30
0.0
 11
20.596396
 21
482.630051
 31
0.0
  0
LINE
  5
490
330
22B
100
AcDbEntity
  8
7_ALL_FEATURES
  6
Continuous
 62
     7
100
AcDbLine
 10
20.596396
 20
482.630051
 30
0.0
 11
20.596396
 21
486.930051
 31
0.0
  0
LINE
  5
491
330
22B
100
AcDbEntity
  8
7_ALL_FEATURES
  6
Continuous
 62
     7
100
AcDbLine
 10
20.596396
 20
486.930051
 30
0.0
 11
20.596396
 21
487.030051
 31
0.0
  0
LINE
  5
492
330
22B
100
AcDbEntity
  8
7_ALL_FEATURES
  6
Continuous
 62
     7
100
AcDbLine
 10
20.596396
 20
487.030051
 30
0.0
 11
20.596396
 21
488.780051
 31
0.0
  0
LINE
  5
493
330
22B
100
AcDbEntity
  8
7_ALL_FEATURES
  6
Continuous
 62
     7
100
AcDbLine
 10
20.596396
 20
488.780051
 30
0.0
 11
20.596396
 21
494.779834
 31
0.0
  0
LINE
  5
494
330
22B
100
AcDbEntity
  8
7_ALL_FEATURES
  6
Continuous
 62
     7
100
AcDbLine
 10
38.596396
 20
471.580051
 30
0.0
 11
38.596396
 21
456.280051
 31
0.0
  0
LINE
  5
495
330
22B
100
AcDbEntity
  8
7_ALL_FEATURES
  6
Continuous
 62
     7
100
AcDbLine
 10
37.096396
 20
454.780051
 30
0.0
 11
22.596396
 21
454.780051
 31
0.0
  0
LINE
  5
496
330
22B
100
AcDbEntity
  8
7_ALL_FEATURES
  6
Continuous
 62
     7
100
AcDbLine
 10
18.596396
 20
454.780051
 30
0.0
 11
20.596396
 21
454.780051
 31
0.0
  0
ARC
  5
497
330
22B
100
AcDbEntity
  8
7_ALL_FEATURES
  6
Continuous
 62
     7
100
AcDbCircle
 10
37.096396
 20
456.280051
 30
0.0
 40
1.5
100
AcDbArc
 50
270.0
 51
360.0
  0
ARC
  5
498
330
22B
100
AcDbEntity
  8
02___PRT_ALL_AXES
  6
Continuous
 62
     7
100
AcDbCircle
 10
27.596396
 20
464.780051
 30
0.0
 40
2.5
100
AcDbArc
 50
90.0
 51
270.0
  0
LINE
  5
499
330
22B
100
AcDbEntity
  8
02___PRT_ALL_AXES
  6
Continuous
 62
     7
100
AcDbLine
 10
27.596396
 20
467.280051
 30
0.0
 11
32.596396
 21
467.280051
 31
0.0
  0
ARC
  5
49A
330
22B
100
AcDbEntity
  8
02___PRT_ALL_AXES
  6
Continuous
 62
     7
100
AcDbCircle
 10
32.596396
 20
464.780051
 30
0.0
 40
2.5
100
AcDbArc
 50
270.0
 51
90.0
  0
LINE
  5
49B
330
22B
100
AcDbEntity
  8
02___PRT_ALL_AXES
  6
Continuous
 62
     7
100
AcDbLine
 10
32.596396
 20
462.280051
 30
0.0
 11
27.596396
 21
462.280051
 31
0.0
  0
LINE
  5
49C
330
22B
100
AcDbEntity
  8
7_ALL_FEATURES
  6
Continuous
 62
     9
100
AcDbLine
 10
22.596396
 20
454.780051
 30
0.0
 11
22.596396
 21
471.564961
 31
0.0
  0
LINE
  5
49D
330
22B
100
AcDbEntity
  8
7_ALL_FEATURES
  6
Continuous
 62
     9
100
AcDbLine
 10
18.596396
 20
482.191861
 30
0.0
 11
20.596396
 21
482.191861
 31
0.0
  0
LINE
  5
49E
330
22B
100
AcDbEntity
  8
7_ALL_FEATURES
  6
Continuous
 62
     9
100
AcDbLine
 10
18.596396
 20
481.708898
 30
0.0
 11
20.596396
 21
481.708898
 31
0.0
  0
LINE
  5
49F
330
22B
100
AcDbEntity
  8
7_ALL_FEATURES
  6
Continuous
 62
     7
100
AcDbLine
 10
1068.246396
 20
473.280051
 30
0.0
 11
1068.246396
 21
474.436912
 31
0.0
  0
LINE
  5
4A0
330
22B
100
AcDbEntity
  8
7_ALL_FEATURES
  6
Continuous
 62
     7
100
AcDbLine
 10
1068.246396
 20
474.436912
 30
0.0
 11
1068.246396
 21
495.111358
 31
0.0
  0
LINE
  5
4A1
330
22B
100
AcDbEntity
  8
7_ALL_FEATURES
  6
Continuous
 62
     7
100
AcDbLine
 10
1068.246396
 20
495.111358
 30
0.0
 11
1068.246396
 21
496.280051
 31
0.0
  0
LINE
  5
4A2
330
22B
100
AcDbEntity
  8
7_ALL_FEATURES
  6
Continuous
 62
     7
100
AcDbLine
 10
1068.246396
 20
496.280051
 30
0.0
 11
1068.246396
 21
496.373301
 31
0.0
  0
LINE
  5
4A3
330
22B
100
AcDbEntity
  8
7_ALL_FEATURES
  6
Continuous
 62
     7
100
AcDbLine
 10
1068.246396
 20
496.373301
 30
0.0
 11
1068.246396
 21
496.446885
 31
0.0
  0
LINE
  5
4A4
330
22B
100
AcDbEntity
  8
7_ALL_FEATURES
  6
Continuous
 62
     7
100
AcDbLine
 10
1068.246396
 20
496.446885
 30
0.0
 11
1068.246396
 21
496.648558
 31
0.0
  0
LINE
  5
4A5
330
22B
100
AcDbEntity
  8
7_ALL_FEATURES
  6
Continuous
 62
     7
100
AcDbLine
 10
25.246396
 20
496.280051
 30
0.0
 11
54.746396
 21
496.280051
 31
0.0
  0
LINE
  5
4A6
330
22B
100
AcDbEntity
  8
7_ALL_FEATURES
  6
Continuous
 62
     7
100
AcDbLine
 10
54.746396
 20
473.280051
 30
0.0
 11
54.746396
 21
474.436912
 31
0.0
  0
LINE
  5
4A7
330
22B
100
AcDbEntity
  8
7_ALL_FEATURES
  6
Continuous
 62
     7
100
AcDbLine
 10
54.746396
 20
474.436912
 30
0.0
 11
54.746396
 21
495.111358
 31
0.0
  0
LINE
  5
4A8
330
22B
100
AcDbEntity
  8
7_ALL_FEATURES
  6
Continuous
 62
     7
100
AcDbLine
 10
54.746396
 20
495.111358
 30
0.0
 11
54.746396
 21
496.280051
 31
0.0
  0
LINE
  5
4A9
330
22B
100
AcDbEntity
  8
7_ALL_FEATURES
  6
Continuous
 62
     7
100
AcDbLine
 10
25.246396
 20
473.280051
 30
0.0
 11
54.746396
 21
473.280051
 31
0.0
  0
LINE
  5
4AA
330
22B
100
AcDbEntity
  8
7_ALL_FEATURES
  6
Continuous
 62
     7
100
AcDbLine
 10
1068.246396
 20
473.113218
 30
0.0
 11
1068.246396
 21
473.177863
 31
0.0
  0
LINE
  5
4AB
330
22B
100
AcDbEntity
  8
7_ALL_FEATURES
  6
Continuous
 62
     7
100
AcDbLine
 10
1068.246396
 20
473.177863
 30
0.0
 11
1068.246396
 21
473.280051
 31
0.0
  0
LINE
  5
4AC
330
22B
100
AcDbEntity
  8
7_ALL_FEATURES
  6
Continuous
 62
     7
100
AcDbLine
 10
25.246396
 20
473.280051
 30
0.0
 11
25.246396
 21
495.111358
 31
0.0
  0
LINE
  5
4AD
330
22B
100
AcDbEntity
  8
7_ALL_FEATURES
  6
Continuous
 62
     7
100
AcDbLine
 10
25.246396
 20
495.111358
 30
0.0
 11
25.246396
 21
496.280051
 31
0.0
  0
LINE
  5
4AE
330
22B
100
AcDbEntity
  8
7_ALL_FEATURES
  6
Continuous
 62
     7
100
AcDbLine
 10
1038.746396
 20
473.280051
 30
0.0
 11
1068.246396
 21
473.280051
 31
0.0
  0
LINE
  5
4AF
330
22B
100
AcDbEntity
  8
7_ALL_FEATURES
  6
Continuous
 62
     7
100
AcDbLine
 10
25.246396
 20
473.113218
 30
0.0
 11
25.246396
 21
473.280051
 31
0.0
  0
LINE
  5
4B0
330
22B
100
AcDbEntity
  8
7_ALL_FEATURES
  6
Continuous
 62
     7
100
AcDbLine
 10
1038.746396
 20
496.280051
 30
0.0
 11
1038.746396
 21
495.111358
 31
0.0
  0
LINE
  5
4B1
330
22B
100
AcDbEntity
  8
7_ALL_FEATURES
  6
Continuous
 62
     7
100
AcDbLine
 10
1038.746396
 20
495.111358
 30
0.0
 11
1038.746396
 21
474.436912
 31
0.0
  0
LINE
  5
4B2
330
22B
100
AcDbEntity
  8
7_ALL_FEATURES
  6
Continuous
 62
     7
100
AcDbLine
 10
1038.746396
 20
474.436912
 30
0.0
 11
1038.746396
 21
473.280051
 31
0.0
  0
LINE
  5
4B3
330
22B
100
AcDbEntity
  8
7_ALL_FEATURES
  6
Continuous
 62
     7
100
AcDbLine
 10
1068.246396
 20
496.280051
 30
0.0
 11
1038.746396
 21
496.280051
 31
0.0
  0
LINE
  5
4B4
330
22B
100
AcDbEntity
  8
7_ALL_FEATURES
  6
Continuous
 62
     7
100
AcDbLine
 10
918.746396
 20
496.280051
 30
0.0
 11
918.746396
 21
495.111358
 31
0.0
  0
LINE
  5
4B5
330
22B
100
AcDbEntity
  8
7_ALL_FEATURES
  6
Continuous
 62
     7
100
AcDbLine
 10
918.746396
 20
495.111358
 30
0.0
 11
918.746396
 21
474.436912
 31
0.0
  0
LINE
  5
4B6
330
22B
100
AcDbEntity
  8
7_ALL_FEATURES
  6
Continuous
 62
     7
100
AcDbLine
 10
918.746396
 20
474.436912
 30
0.0
 11
918.746396
 21
473.280051
 31
0.0
  0
LINE
  5
4B7
330
22B
100
AcDbEntity
  8
7_ALL_FEATURES
  6
Continuous
 62
     7
100
AcDbLine
 10
1014.746396
 20
496.280051
 30
0.0
 11
918.746396
 21
496.280051
 31
0.0
  0
LINE
  5
4B8
330
22B
100
AcDbEntity
  8
7_ALL_FEATURES
  6
Continuous
 62
     7
100
AcDbLine
 10
1014.746396
 20
473.280051
 30
0.0
 11
1014.746396
 21
474.436912
 31
0.0
  0
LINE
  5
4B9
330
22B
100
AcDbEntity
  8
7_ALL_FEATURES
  6
Continuous
 62
     7
100
AcDbLine
 10
1014.746396
 20
474.436912
 30
0.0
 11
1014.746396
 21
495.111358
 31
0.0
  0
LINE
  5
4BA
330
22B
100
AcDbEntity
  8
7_ALL_FEATURES
  6
Continuous
 62
     7
100
AcDbLine
 10
1014.746396
 20
495.111358
 30
0.0
 11
1014.746396
 21
496.280051
 31
0.0
  0
LINE
  5
4BB
330
22B
100
AcDbEntity
  8
7_ALL_FEATURES
  6
Continuous
 62
     7
100
AcDbLine
 10
918.746396
 20
473.280051
 30
0.0
 11
1014.746396
 21
473.280051
 31
0.0
  0
LINE
  5
4BC
330
22B
100
AcDbEntity
  8
7_ALL_FEATURES
  6
Continuous
 62
     7
100
AcDbLine
 10
798.746396
 20
473.280051
 30
0.0
 11
894.746396
 21
473.280051
 31
0.0
  0
LINE
  5
4BD
330
22B
100
AcDbEntity
  8
7_ALL_FEATURES
  6
Continuous
 62
     7
100
AcDbLine
 10
798.746396
 20
496.280051
 30
0.0
 11
798.746396
 21
495.111358
 31
0.0
  0
LINE
  5
4BE
330
22B
100
AcDbEntity
  8
7_ALL_FEATURES
  6
Continuous
 62
     7
100
AcDbLine
 10
798.746396
 20
495.111358
 30
0.0
 11
798.746396
 21
474.436912
 31
0.0
  0
LINE
  5
4BF
330
22B
100
AcDbEntity
  8
7_ALL_FEATURES
  6
Continuous
 62
     7
100
AcDbLine
 10
798.746396
 20
474.436912
 30
0.0
 11
798.746396
 21
473.280051
 31
0.0
  0
LINE
  5
4C0
330
22B
100
AcDbEntity
  8
7_ALL_FEATURES
  6
Continuous
 62
     7
100
AcDbLine
 10
894.746396
 20
496.280051
 30
0.0
 11
798.746396
 21
496.280051
 31
0.0
  0
LINE
  5
4C1
330
22B
100
AcDbEntity
  8
7_ALL_FEATURES
  6
Continuous
 62
     7
100
AcDbLine
 10
894.746396
 20
473.280051
 30
0.0
 11
894.746396
 21
474.436912
 31
0.0
  0
LINE
  5
4C2
330
22B
100
AcDbEntity
  8
7_ALL_FEATURES
  6
Continuous
 62
     7
100
AcDbLine
 10
894.746396
 20
474.436912
 30
0.0
 11
894.746396
 21
495.111358
 31
0.0
  0
LINE
  5
4C3
330
22B
100
AcDbEntity
  8
7_ALL_FEATURES
  6
Continuous
 62
     7
100
AcDbLine
 10
894.746396
 20
495.111358
 30
0.0
 11
894.746396
 21
496.280051
 31
0.0
  0
LINE
  5
4C4
330
22B
100
AcDbEntity
  8
7_ALL_FEATURES
  6
Continuous
 62
     7
100
AcDbLine
 10
678.746396
 20
496.280051
 30
0.0
 11
678.746396
 21
495.111358
 31
0.0
  0
LINE
  5
4C5
330
22B
100
AcDbEntity
  8
7_ALL_FEATURES
  6
Continuous
 62
     7
100
AcDbLine
 10
678.746396
 20
495.111358
 30
0.0
 11
678.746396
 21
474.436912
 31
0.0
  0
LINE
  5
4C6
330
22B
100
AcDbEntity
  8
7_ALL_FEATURES
  6
Continuous
 62
     7
100
AcDbLine
 10
678.746396
 20
474.436912
 30
0.0
 11
678.746396
 21
473.280051
 31
0.0
  0
LINE
  5
4C7
330
22B
100
AcDbEntity
  8
7_ALL_FEATURES
  6
Continuous
 62
     7
100
AcDbLine
 10
774.746396
 20
496.280051
 30
0.0
 11
678.746396
 21
496.280051
 31
0.0
  0
LINE
  5
4C8
330
22B
100
AcDbEntity
  8
7_ALL_FEATURES
  6
Continuous
 62
     7
100
AcDbLine
 10
25.246396
 20
496.446885
 30
0.0
 11
25.246396
 21
496.648574
 31
0.0
  0
LINE
  5
4C9
330
22B
100
AcDbEntity
  8
7_ALL_FEATURES
  6
Continuous
 62
     7
100
AcDbLine
 10
25.246396
 20
496.280051
 30
0.0
 11
25.246396
 21
496.373301
 31
0.0
  0
LINE
  5
4CA
330
22B
100
AcDbEntity
  8
7_ALL_FEATURES
  6
Continuous
 62
     7
100
AcDbLine
 10
25.246396
 20
496.373301
 30
0.0
 11
25.246396
 21
496.446885
 31
0.0
  0
LINE
  5
4CB
330
22B
100
AcDbEntity
  8
7_ALL_FEATURES
  6
Continuous
 62
     7
100
AcDbLine
 10
774.746396
 20
473.280051
 30
0.0
 11
774.746396
 21
474.436912
 31
0.0
  0
LINE
  5
4CC
330
22B
100
AcDbEntity
  8
7_ALL_FEATURES
  6
Continuous
 62
     7
100
AcDbLine
 10
774.746396
 20
474.436912
 30
0.0
 11
774.746396
 21
495.111358
 31
0.0
  0
LINE
  5
4CD
330
22B
100
AcDbEntity
  8
7_ALL_FEATURES
  6
Continuous
 62
     7
100
AcDbLine
 10
774.746396
 20
495.111358
 30
0.0
 11
774.746396
 21
496.280051
 31
0.0
  0
LINE
  5
4CE
330
22B
100
AcDbEntity
  8
7_ALL_FEATURES
  6
Continuous
 62
     7
100
AcDbLine
 10
774.746396
 20
473.280051
 30
0.0
 11
678.746396
 21
473.280051
 31
0.0
  0
LINE
  5
4CF
330
22B
100
AcDbEntity
  8
7_ALL_FEATURES
  6
Continuous
 62
     7
100
AcDbLine
 10
558.746396
 20
473.280051
 30
0.0
 11
654.746396
 21
473.280051
 31
0.0
  0
LINE
  5
4D0
330
22B
100
AcDbEntity
  8
7_ALL_FEATURES
  6
Continuous
 62
     7
100
AcDbLine
 10
558.746396
 20
496.280051
 30
0.0
 11
558.746396
 21
495.111358
 31
0.0
  0
LINE
  5
4D1
330
22B
100
AcDbEntity
  8
7_ALL_FEATURES
  6
Continuous
 62
     7
100
AcDbLine
 10
558.746396
 20
495.111358
 30
0.0
 11
558.746396
 21
474.436912
 31
0.0
  0
LINE
  5
4D2
330
22B
100
AcDbEntity
  8
7_ALL_FEATURES
  6
Continuous
 62
     7
100
AcDbLine
 10
558.746396
 20
474.436912
 30
0.0
 11
558.746396
 21
473.280051
 31
0.0
  0
LINE
  5
4D3
330
22B
100
AcDbEntity
  8
7_ALL_FEATURES
  6
Continuous
 62
     7
100
AcDbLine
 10
654.746396
 20
496.280051
 30
0.0
 11
558.746396
 21
496.280051
 31
0.0
  0
LINE
  5
4D4
330
22B
100
AcDbEntity
  8
7_ALL_FEATURES
  6
Continuous
 62
     7
100
AcDbLine
 10
654.746396
 20
473.280051
 30
0.0
 11
654.746396
 21
474.436912
 31
0.0
  0
LINE
  5
4D5
330
22B
100
AcDbEntity
  8
7_ALL_FEATURES
  6
Continuous
 62
     7
100
AcDbLine
 10
654.746396
 20
474.436912
 30
0.0
 11
654.746396
 21
495.111358
 31
0.0
  0
LINE
  5
4D6
330
22B
100
AcDbEntity
  8
7_ALL_FEATURES
  6
Continuous
 62
     7
100
AcDbLine
 10
654.746396
 20
495.111358
 30
0.0
 11
654.746396
 21
496.280051
 31
0.0
  0
LINE
  5
4D7
330
22B
100
AcDbEntity
  8
7_ALL_FEATURES
  6
Continuous
 62
     7
100
AcDbLine
 10
438.746396
 20
496.280051
 30
0.0
 11
438.746396
 21
495.111358
 31
0.0
  0
LINE
  5
4D8
330
22B
100
AcDbEntity
  8
7_ALL_FEATURES
  6
Continuous
 62
     7
100
AcDbLine
 10
438.746396
 20
495.111358
 30
0.0
 11
438.746396
 21
474.436912
 31
0.0
  0
LINE
  5
4D9
330
22B
100
AcDbEntity
  8
7_ALL_FEATURES
  6
Continuous
 62
     7
100
AcDbLine
 10
438.746396
 20
474.436912
 30
0.0
 11
438.746396
 21
473.280051
 31
0.0
  0
LINE
  5
4DA
330
22B
100
AcDbEntity
  8
7_ALL_FEATURES
  6
Continuous
 62
     7
100
AcDbLine
 10
174.746396
 20
473.280051
 30
0.0
 11
174.746396
 21
474.436912
 31
0.0
  0
LINE
  5
4DB
330
22B
100
AcDbEntity
  8
7_ALL_FEATURES
  6
Continuous
 62
     7
100
AcDbLine
 10
174.746396
 20
474.436912
 30
0.0
 11
174.746396
 21
495.111358
 31
0.0
  0
LINE
  5
4DC
330
22B
100
AcDbEntity
  8
7_ALL_FEATURES
  6
Continuous
 62
     7
100
AcDbLine
 10
174.746396
 20
495.111358
 30
0.0
 11
174.746396
 21
496.280051
 31
0.0
  0
LINE
  5
4DD
330
22B
100
AcDbEntity
  8
7_ALL_FEATURES
  6
Continuous
 62
     7
100
AcDbLine
 10
174.746396
 20
496.280051
 30
0.0
 11
78.746396
 21
496.280051
 31
0.0
  0
LINE
  5
4DE
330
22B
100
AcDbEntity
  8
7_ALL_FEATURES
  6
Continuous
 62
     7
100
AcDbLine
 10
78.746396
 20
496.280051
 30
0.0
 11
78.746396
 21
495.111358
 31
0.0
  0
LINE
  5
4DF
330
22B
100
AcDbEntity
  8
7_ALL_FEATURES
  6
Continuous
 62
     7
100
AcDbLine
 10
78.746396
 20
495.111358
 30
0.0
 11
78.746396
 21
474.436912
 31
0.0
  0
LINE
  5
4E0
330
22B
100
AcDbEntity
  8
7_ALL_FEATURES
  6
Continuous
 62
     7
100
AcDbLine
 10
78.746396
 20
474.436912
 30
0.0
 11
78.746396
 21
473.280051
 31
0.0
  0
LINE
  5
4E1
330
22B
100
AcDbEntity
  8
7_ALL_FEATURES
  6
Continuous
 62
     7
100
AcDbLine
 10
78.746396
 20
473.280051
 30
0.0
 11
174.746396
 21
473.280051
 31
0.0
  0
LINE
  5
4E2
330
22B
100
AcDbEntity
  8
7_ALL_FEATURES
  6
Continuous
 62
     7
100
AcDbLine
 10
198.746396
 20
473.280051
 30
0.0
 11
294.746396
 21
473.280051
 31
0.0
  0
LINE
  5
4E3
330
22B
100
AcDbEntity
  8
7_ALL_FEATURES
  6
Continuous
 62
     7
100
AcDbLine
 10
294.746396
 20
473.280051
 30
0.0
 11
294.746396
 21
474.436912
 31
0.0
  0
LINE
  5
4E4
330
22B
100
AcDbEntity
  8
7_ALL_FEATURES
  6
Continuous
 62
     7
100
AcDbLine
 10
294.746396
 20
474.436912
 30
0.0
 11
294.746396
 21
495.111358
 31
0.0
  0
LINE
  5
4E5
330
22B
100
AcDbEntity
  8
7_ALL_FEATURES
  6
Continuous
 62
     7
100
AcDbLine
 10
294.746396
 20
495.111358
 30
0.0
 11
294.746396
 21
496.280051
 31
0.0
  0
LINE
  5
4E6
330
22B
100
AcDbEntity
  8
7_ALL_FEATURES
  6
Continuous
 62
     7
100
AcDbLine
 10
294.746396
 20
496.280051
 30
0.0
 11
198.746396
 21
496.280051
 31
0.0
  0
LINE
  5
4E7
330
22B
100
AcDbEntity
  8
7_ALL_FEATURES
  6
Continuous
 62
     7
100
AcDbLine
 10
198.746396
 20
496.280051
 30
0.0
 11
198.746396
 21
495.111358
 31
0.0
  0
LINE
  5
4E8
330
22B
100
AcDbEntity
  8
7_ALL_FEATURES
  6
Continuous
 62
     7
100
AcDbLine
 10
198.746396
 20
495.111358
 30
0.0
 11
198.746396
 21
474.436912
 31
0.0
  0
LINE
  5
4E9
330
22B
100
AcDbEntity
  8
7_ALL_FEATURES
  6
Continuous
 62
     7
100
AcDbLine
 10
198.746396
 20
474.436912
 30
0.0
 11
198.746396
 21
473.280051
 31
0.0
  0
LINE
  5
4EA
330
22B
100
AcDbEntity
  8
7_ALL_FEATURES
  6
Continuous
 62
     7
100
AcDbLine
 10
414.746396
 20
473.280051
 30
0.0
 11
414.746396
 21
474.436912
 31
0.0
  0
LINE
  5
4EB
330
22B
100
AcDbEntity
  8
7_ALL_FEATURES
  6
Continuous
 62
     7
100
AcDbLine
 10
414.746396
 20
474.436912
 30
0.0
 11
414.746396
 21
495.111358
 31
0.0
  0
LINE
  5
4EC
330
22B
100
AcDbEntity
  8
7_ALL_FEATURES
  6
Continuous
 62
     7
100
AcDbLine
 10
414.746396
 20
495.111358
 30
0.0
 11
414.746396
 21
496.280051
 31
0.0
  0
LINE
  5
4ED
330
22B
100
AcDbEntity
  8
7_ALL_FEATURES
  6
Continuous
 62
     7
100
AcDbLine
 10
414.746396
 20
496.280051
 30
0.0
 11
318.746396
 21
496.280051
 31
0.0
  0
LINE
  5
4EE
330
22B
100
AcDbEntity
  8
7_ALL_FEATURES
  6
Continuous
 62
     7
100
AcDbLine
 10
318.746396
 20
496.280051
 30
0.0
 11
318.746396
 21
495.111358
 31
0.0
  0
LINE
  5
4EF
330
22B
100
AcDbEntity
  8
7_ALL_FEATURES
  6
Continuous
 62
     7
100
AcDbLine
 10
318.746396
 20
495.111358
 30
0.0
 11
318.746396
 21
474.436912
 31
0.0
  0
LINE
  5
4F0
330
22B
100
AcDbEntity
  8
7_ALL_FEATURES
  6
Continuous
 62
     7
100
AcDbLine
 10
318.746396
 20
474.436912
 30
0.0
 11
318.746396
 21
473.280051
 31
0.0
  0
LINE
  5
4F1
330
22B
100
AcDbEntity
  8
7_ALL_FEATURES
  6
Continuous
 62
     7
100
AcDbLine
 10
318.746396
 20
473.280051
 30
0.0
 11
414.746396
 21
473.280051
 31
0.0
  0
LINE
  5
4F2
330
22B
100
AcDbEntity
  8
7_ALL_FEATURES
  6
Continuous
 62
     7
100
AcDbLine
 10
438.746396
 20
473.280051
 30
0.0
 11
534.746396
 21
473.280051
 31
0.0
  0
LINE
  5
4F3
330
22B
100
AcDbEntity
  8
7_ALL_FEATURES
  6
Continuous
 62
     7
100
AcDbLine
 10
534.746396
 20
473.280051
 30
0.0
 11
534.746396
 21
474.436912
 31
0.0
  0
LINE
  5
4F4
330
22B
100
AcDbEntity
  8
7_ALL_FEATURES
  6
Continuous
 62
     7
100
AcDbLine
 10
534.746396
 20
474.436912
 30
0.0
 11
534.746396
 21
495.111358
 31
0.0
  0
LINE
  5
4F5
330
22B
100
AcDbEntity
  8
7_ALL_FEATURES
  6
Continuous
 62
     7
100
AcDbLine
 10
534.746396
 20
495.111358
 30
0.0
 11
534.746396
 21
496.280051
 31
0.0
  0
LINE
  5
4F6
330
22B
100
AcDbEntity
  8
7_ALL_FEATURES
  6
Continuous
 62
     7
100
AcDbLine
 10
534.746396
 20
496.280051
 30
0.0
 11
438.746396
 21
496.280051
 31
0.0
  0
LINE
  5
4F7
330
22B
100
AcDbEntity
  8
7_ALL_FEATURES
  6
Continuous
 62
     9
100
AcDbLine
 10
1068.246396
 20
496.446885
 30
0.0
 11
25.246396
 21
496.446885
 31
0.0
  0
LINE
  5
4F8
330
22B
100
AcDbEntity
  8
7_ALL_FEATURES
  6
Continuous
 62
     9
100
AcDbLine
 10
1068.246396
 20
473.113218
 30
0.0
 11
25.246396
 21
473.113218
 31
0.0
  0
LINE
  5
4F9
330
22B
100
AcDbEntity
  8
7_ALL_FEATURES
  6
Continuous
 62
     7
100
AcDbLine
 10
1068.496396
 20
496.030051
 30
0.0
 11
1068.496396
 21
496.176165
 31
0.0
  0
LINE
  5
4FA
330
22B
100
AcDbEntity
  8
7_ALL_FEATURES
  6
Continuous
 62
     7
100
AcDbLine
 10
1068.496396
 20
496.176165
 30
0.0
 11
1068.496396
 21
496.304312
 31
0.0
  0
LINE
  5
4FB
330
22B
100
AcDbEntity
  8
7_ALL_FEATURES
  6
Continuous
 62
     7
100
AcDbLine
 10
1068.496396
 20
473.780051
 30
0.0
 11
1068.246396
 21
473.780051
 31
0.0
  0
LINE
  5
4FC
330
22B
100
AcDbEntity
  8
7_ALL_FEATURES
  6
Continuous
 62
     7
100
AcDbLine
 10
25.246396
 20
473.780051
 30
0.0
 11
24.996396
 21
473.780051
 31
0.0
  0
LINE
  5
4FD
330
22B
100
AcDbEntity
  8
7_ALL_FEATURES
  6
Continuous
 62
     7
100
AcDbLine
 10
1068.496396
 20
471.580051
 30
0.0
 11
1068.496396
 21
472.04402
 31
0.0
  0
LINE
  5
4FE
330
22B
100
AcDbEntity
  8
7_ALL_FEATURES
  6
Continuous
 62
     7
100
AcDbLine
 10
1068.496396
 20
472.04402
 30
0.0
 11
1068.496396
 21
473.030051
 31
0.0
  0
LINE
  5
4FF
330
22B
100
AcDbEntity
  8
7_ALL_FEATURES
  6
Continuous
 62
     7
100
AcDbLine
 10
1068.496396
 20
473.030051
 30
0.0
 11
1068.496396
 21
473.255791
 31
0.0
  0
LINE
  5
500
330
22B
100
AcDbEntity
  8
7_ALL_FEATURES
  6
Continuous
 62
     7
100
AcDbLine
 10
1068.496396
 20
473.255791
 30
0.0
 11
1068.496396
 21
473.383937
 31
0.0
  0
LINE
  5
501
330
22B
100
AcDbEntity
  8
7_ALL_FEATURES
  6
Continuous
 62
     7
100
AcDbLine
 10
1068.496396
 20
473.383937
 30
0.0
 11
1068.496396
 21
473.530051
 31
0.0
  0
LINE
  5
502
330
22B
100
AcDbEntity
  8
7_ALL_FEATURES
  6
Continuous
 62
     7
100
AcDbLine
 10
1068.496396
 20
495.780051
 30
0.0
 11
1068.246396
 21
495.780051
 31
0.0
  0
LINE
  5
503
330
22B
100
AcDbEntity
  8
7_ALL_FEATURES
  6
Continuous
 62
     7
100
AcDbLine
 10
25.246396
 20
495.780051
 30
0.0
 11
24.996396
 21
495.780051
 31
0.0
  0
LINE
  5
504
330
22B
100
AcDbEntity
  8
7_ALL_FEATURES
  6
Continuous
 62
     7
100
AcDbLine
 10
24.996396
 20
496.030051
 30
0.0
 11
25.246396
 21
496.030051
 31
0.0
  0
LINE
  5
505
330
22B
100
AcDbEntity
  8
7_ALL_FEATURES
  6
Continuous
 62
     7
100
AcDbLine
 10
1068.246396
 20
496.030051
 30
0.0
 11
1068.496396
 21
496.030051
 31
0.0
  0
LINE
  5
506
330
22B
100
AcDbEntity
  8
7_ALL_FEATURES
  6
Continuous
 62
     7
100
AcDbLine
 10
24.996396
 20
497.980051
 30
0.0
 11
1068.496396
 21
497.980051
 31
0.0
  0
LINE
  5
507
330
22B
100
AcDbEntity
  8
7_ALL_FEATURES
  6
Continuous
 62
     7
100
AcDbLine
 10
1068.496396
 20
497.980051
 30
0.0
 11
1068.496396
 21
497.516083
 31
0.0
  0
LINE
  5
508
330
22B
100
AcDbEntity
  8
7_ALL_FEATURES
  6
Continuous
 62
     7
100
AcDbLine
 10
1068.496396
 20
497.516083
 30
0.0
 11
1068.496396
 21
496.530051
 31
0.0
  0
LINE
  5
509
330
22B
100
AcDbEntity
  8
7_ALL_FEATURES
  6
Continuous
 62
     7
100
AcDbLine
 10
1068.496396
 20
496.530051
 30
0.0
 11
1068.496396
 21
496.304312
 31
0.0
  0
LINE
  5
50A
330
22B
100
AcDbEntity
  8
7_ALL_FEATURES
  6
Continuous
 62
     7
100
AcDbLine
 10
24.996396
 20
471.580051
 30
0.0
 11
1068.496396
 21
471.580051
 31
0.0
  0
LINE
  5
50B
330
22B
100
AcDbEntity
  8
7_ALL_FEATURES
  6
Continuous
 62
     7
100
AcDbLine
 10
24.996396
 20
471.580051
 30
0.0
 11
24.996396
 21
472.04402
 31
0.0
  0
LINE
  5
50C
330
22B
100
AcDbEntity
  8
7_ALL_FEATURES
  6
Continuous
 62
     7
100
AcDbLine
 10
24.996396
 20
472.04402
 30
0.0
 11
24.996396
 21
473.030051
 31
0.0
  0
LINE
  5
50D
330
22B
100
AcDbEntity
  8
7_ALL_FEATURES
  6
Continuous
 62
     7
100
AcDbLine
 10
24.996396
 20
473.030051
 30
0.0
 11
24.996396
 21
473.255791
 31
0.0
  0
LINE
  5
50E
330
22B
100
AcDbEntity
  8
7_ALL_FEATURES
  6
Continuous
 62
     7
100
AcDbLine
 10
24.996396
 20
473.530051
 30
0.0
 11
24.996396
 21
473.383937
 31
0.0
  0
LINE
  5
50F
330
22B
100
AcDbEntity
  8
7_ALL_FEATURES
  6
Continuous
 62
     7
100
AcDbLine
 10
24.996396
 20
473.383937
 30
0.0
 11
24.996396
 21
473.255791
 31
0.0
  0
LINE
  5
510
330
22B
100
AcDbEntity
  8
7_ALL_FEATURES
  6
Continuous
 62
     7
100
AcDbLine
 10
24.996396
 20
473.530051
 30
0.0
 11
25.246396
 21
473.530051
 31
0.0
  0
LINE
  5
511
330
22B
100
AcDbEntity
  8
7_ALL_FEATURES
  6
Continuous
 62
     7
100
AcDbLine
 10
1068.246396
 20
473.530051
 30
0.0
 11
1068.496396
 21
473.530051
 31
0.0
  0
LINE
  5
512
330
22B
100
AcDbEntity
  8
7_ALL_FEATURES
  6
Continuous
 62
     7
100
AcDbLine
 10
24.996396
 20
497.980051
 30
0.0
 11
24.996396
 21
497.516083
 31
0.0
  0
LINE
  5
513
330
22B
100
AcDbEntity
  8
7_ALL_FEATURES
  6
Continuous
 62
     7
100
AcDbLine
 10
24.996396
 20
497.516083
 30
0.0
 11
24.996396
 21
496.530051
 31
0.0
  0
LINE
  5
514
330
22B
100
AcDbEntity
  8
7_ALL_FEATURES
  6
Continuous
 62
     7
100
AcDbLine
 10
24.996396
 20
496.530051
 30
0.0
 11
24.996396
 21
496.304312
 31
0.0
  0
LINE
  5
515
330
22B
100
AcDbEntity
  8
7_ALL_FEATURES
  6
Continuous
 62
     7
100
AcDbLine
 10
24.996396
 20
496.304312
 30
0.0
 11
24.996396
 21
496.176165
 31
0.0
  0
LINE
  5
516
330
22B
100
AcDbEntity
  8
7_ALL_FEATURES
  6
Continuous
 62
     7
100
AcDbLine
 10
24.996396
 20
496.176165
 30
0.0
 11
24.996396
 21
496.030051
 31
0.0
  0
LINE
  5
517
330
22B
100
AcDbEntity
  8
7_ALL_FEATURES
  6
Continuous
 62
     7
100
AcDbLine
 10
24.996396
 20
496.304312
 30
0.0
 11
25.246396
 21
496.304312
 31
0.0
  0
LINE
  5
518
330
22B
100
AcDbEntity
  8
7_ALL_FEATURES
  6
Continuous
 62
     7
100
AcDbLine
 10
25.246396
 20
496.304312
 30
0.0
 11
54.746396
 21
496.304312
 31
0.0
  0
LINE
  5
519
330
22B
100
AcDbEntity
  8
7_ALL_FEATURES
  6
Continuous
 62
     7
100
AcDbLine
 10
54.746396
 20
496.304312
 30
0.0
 11
78.746396
 21
496.304312
 31
0.0
  0
LINE
  5
51A
330
22B
100
AcDbEntity
  8
7_ALL_FEATURES
  6
Continuous
 62
     7
100
AcDbLine
 10
78.746396
 20
496.304312
 30
0.0
 11
174.746396
 21
496.304312
 31
0.0
  0
LINE
  5
51B
330
22B
100
AcDbEntity
  8
7_ALL_FEATURES
  6
Continuous
 62
     7
100
AcDbLine
 10
174.746396
 20
496.304312
 30
0.0
 11
198.746396
 21
496.304312
 31
0.0
  0
LINE
  5
51C
330
22B
100
AcDbEntity
  8
7_ALL_FEATURES
  6
Continuous
 62
     7
100
AcDbLine
 10
198.746396
 20
496.304312
 30
0.0
 11
294.746396
 21
496.304312
 31
0.0
  0
LINE
  5
51D
330
22B
100
AcDbEntity
  8
7_ALL_FEATURES
  6
Continuous
 62
     7
100
AcDbLine
 10
294.746396
 20
496.304312
 30
0.0
 11
318.746396
 21
496.304312
 31
0.0
  0
LINE
  5
51E
330
22B
100
AcDbEntity
  8
7_ALL_FEATURES
  6
Continuous
 62
     7
100
AcDbLine
 10
318.746396
 20
496.304312
 30
0.0
 11
414.746396
 21
496.304312
 31
0.0
  0
LINE
  5
51F
330
22B
100
AcDbEntity
  8
7_ALL_FEATURES
  6
Continuous
 62
     7
100
AcDbLine
 10
414.746396
 20
496.304312
 30
0.0
 11
438.746396
 21
496.304312
 31
0.0
  0
LINE
  5
520
330
22B
100
AcDbEntity
  8
7_ALL_FEATURES
  6
Continuous
 62
     7
100
AcDbLine
 10
438.746396
 20
496.304312
 30
0.0
 11
534.746396
 21
496.304312
 31
0.0
  0
LINE
  5
521
330
22B
100
AcDbEntity
  8
7_ALL_FEATURES
  6
Continuous
 62
     7
100
AcDbLine
 10
534.746396
 20
496.304312
 30
0.0
 11
558.746396
 21
496.304312
 31
0.0
  0
LINE
  5
522
330
22B
100
AcDbEntity
  8
7_ALL_FEATURES
  6
Continuous
 62
     7
100
AcDbLine
 10
558.746396
 20
496.304312
 30
0.0
 11
654.746396
 21
496.304312
 31
0.0
  0
LINE
  5
523
330
22B
100
AcDbEntity
  8
7_ALL_FEATURES
  6
Continuous
 62
     7
100
AcDbLine
 10
654.746396
 20
496.304312
 30
0.0
 11
678.746396
 21
496.304312
 31
0.0
  0
LINE
  5
524
330
22B
100
AcDbEntity
  8
7_ALL_FEATURES
  6
Continuous
 62
     7
100
AcDbLine
 10
678.746396
 20
496.304312
 30
0.0
 11
774.746396
 21
496.304312
 31
0.0
  0
LINE
  5
525
330
22B
100
AcDbEntity
  8
7_ALL_FEATURES
  6
Continuous
 62
     7
100
AcDbLine
 10
774.746396
 20
496.304312
 30
0.0
 11
798.746396
 21
496.304312
 31
0.0
  0
LINE
  5
526
330
22B
100
AcDbEntity
  8
7_ALL_FEATURES
  6
Continuous
 62
     7
100
AcDbLine
 10
798.746396
 20
496.304312
 30
0.0
 11
894.746396
 21
496.304312
 31
0.0
  0
LINE
  5
527
330
22B
100
AcDbEntity
  8
7_ALL_FEATURES
  6
Continuous
 62
     7
100
AcDbLine
 10
894.746396
 20
496.304312
 30
0.0
 11
918.746396
 21
496.304312
 31
0.0
  0
LINE
  5
528
330
22B
100
AcDbEntity
  8
7_ALL_FEATURES
  6
Continuous
 62
     7
100
AcDbLine
 10
918.746396
 20
496.304312
 30
0.0
 11
1014.746396
 21
496.304312
 31
0.0
  0
LINE
  5
529
330
22B
100
AcDbEntity
  8
7_ALL_FEATURES
  6
Continuous
 62
     7
100
AcDbLine
 10
1014.746396
 20
496.304312
 30
0.0
 11
1038.746396
 21
496.304312
 31
0.0
  0
LINE
  5
52A
330
22B
100
AcDbEntity
  8
7_ALL_FEATURES
  6
Continuous
 62
     7
100
AcDbLine
 10
1038.746396
 20
496.304312
 30
0.0
 11
1068.246396
 21
496.304312
 31
0.0
  0
LINE
  5
52B
330
22B
100
AcDbEntity
  8
7_ALL_FEATURES
  6
Continuous
 62
     7
100
AcDbLine
 10
1068.246396
 20
496.304312
 30
0.0
 11
1068.496396
 21
496.304312
 31
0.0
  0
LINE
  5
52C
330
22B
100
AcDbEntity
  8
7_ALL_FEATURES
  6
Continuous
 62
     7
100
AcDbLine
 10
24.996396
 20
473.255791
 30
0.0
 11
25.246396
 21
473.255791
 31
0.0
  0
LINE
  5
52D
330
22B
100
AcDbEntity
  8
7_ALL_FEATURES
  6
Continuous
 62
     7
100
AcDbLine
 10
25.246396
 20
473.255791
 30
0.0
 11
54.746396
 21
473.255791
 31
0.0
  0
LINE
  5
52E
330
22B
100
AcDbEntity
  8
7_ALL_FEATURES
  6
Continuous
 62
     7
100
AcDbLine
 10
54.746396
 20
473.255791
 30
0.0
 11
78.746396
 21
473.255791
 31
0.0
  0
LINE
  5
52F
330
22B
100
AcDbEntity
  8
7_ALL_FEATURES
  6
Continuous
 62
     7
100
AcDbLine
 10
78.746396
 20
473.255791
 30
0.0
 11
174.746396
 21
473.255791
 31
0.0
  0
LINE
  5
530
330
22B
100
AcDbEntity
  8
7_ALL_FEATURES
  6
Continuous
 62
     7
100
AcDbLine
 10
174.746396
 20
473.255791
 30
0.0
 11
198.746396
 21
473.255791
 31
0.0
  0
LINE
  5
531
330
22B
100
AcDbEntity
  8
7_ALL_FEATURES
  6
Continuous
 62
     7
100
AcDbLine
 10
198.746396
 20
473.255791
 30
0.0
 11
294.746396
 21
473.255791
 31
0.0
  0
LINE
  5
532
330
22B
100
AcDbEntity
  8
7_ALL_FEATURES
  6
Continuous
 62
     7
100
AcDbLine
 10
294.746396
 20
473.255791
 30
0.0
 11
318.746396
 21
473.255791
 31
0.0
  0
LINE
  5
533
330
22B
100
AcDbEntity
  8
7_ALL_FEATURES
  6
Continuous
 62
     7
100
AcDbLine
 10
318.746396
 20
473.255791
 30
0.0
 11
414.746396
 21
473.255791
 31
0.0
  0
LINE
  5
534
330
22B
100
AcDbEntity
  8
7_ALL_FEATURES
  6
Continuous
 62
     7
100
AcDbLine
 10
414.746396
 20
473.255791
 30
0.0
 11
438.746396
 21
473.255791
 31
0.0
  0
LINE
  5
535
330
22B
100
AcDbEntity
  8
7_ALL_FEATURES
  6
Continuous
 62
     7
100
AcDbLine
 10
438.746396
 20
473.255791
 30
0.0
 11
534.746396
 21
473.255791
 31
0.0
  0
LINE
  5
536
330
22B
100
AcDbEntity
  8
7_ALL_FEATURES
  6
Continuous
 62
     7
100
AcDbLine
 10
534.746396
 20
473.255791
 30
0.0
 11
558.746396
 21
473.255791
 31
0.0
  0
LINE
  5
537
330
22B
100
AcDbEntity
  8
7_ALL_FEATURES
  6
Continuous
 62
     7
100
AcDbLine
 10
558.746396
 20
473.255791
 30
0.0
 11
654.746396
 21
473.255791
 31
0.0
  0
LINE
  5
538
330
22B
100
AcDbEntity
  8
7_ALL_FEATURES
  6
Continuous
 62
     7
100
AcDbLine
 10
654.746396
 20
473.255791
 30
0.0
 11
678.746396
 21
473.255791
 31
0.0
  0
LINE
  5
539
330
22B
100
AcDbEntity
  8
7_ALL_FEATURES
  6
Continuous
 62
     7
100
AcDbLine
 10
678.746396
 20
473.255791
 30
0.0
 11
774.746396
 21
473.255791
 31
0.0
  0
LINE
  5
53A
330
22B
100
AcDbEntity
  8
7_ALL_FEATURES
  6
Continuous
 62
     7
100
AcDbLine
 10
774.746396
 20
473.255791
 30
0.0
 11
798.746396
 21
473.255791
 31
0.0
  0
LINE
  5
53B
330
22B
100
AcDbEntity
  8
7_ALL_FEATURES
  6
Continuous
 62
     7
100
AcDbLine
 10
798.746396
 20
473.255791
 30
0.0
 11
894.746396
 21
473.255791
 31
0.0
  0
LINE
  5
53C
330
22B
100
AcDbEntity
  8
7_ALL_FEATURES
  6
Continuous
 62
     7
100
AcDbLine
 10
894.746396
 20
473.255791
 30
0.0
 11
918.746396
 21
473.255791
 31
0.0
  0
LINE
  5
53D
330
22B
100
AcDbEntity
  8
7_ALL_FEATURES
  6
Continuous
 62
     7
100
AcDbLine
 10
918.746396
 20
473.255791
 30
0.0
 11
1014.746396
 21
473.255791
 31
0.0
  0
LINE
  5
53E
330
22B
100
AcDbEntity
  8
7_ALL_FEATURES
  6
Continuous
 62
     7
100
AcDbLine
 10
1014.746396
 20
473.255791
 30
0.0
 11
1038.746396
 21
473.255791
 31
0.0
  0
LINE
  5
53F
330
22B
100
AcDbEntity
  8
7_ALL_FEATURES
  6
Continuous
 62
     7
100
AcDbLine
 10
1038.746396
 20
473.255791
 30
0.0
 11
1068.246396
 21
473.255791
 31
0.0
  0
LINE
  5
540
330
22B
100
AcDbEntity
  8
7_ALL_FEATURES
  6
Continuous
 62
     7
100
AcDbLine
 10
1068.246396
 20
473.255791
 30
0.0
 11
1068.496396
 21
473.255791
 31
0.0
  0
LINE
  5
541
330
22B
100
AcDbEntity
  8
0
  6
Continuous
 62
     3
100
AcDbLine
 10
1074.896396
 20
454.780051
 30
0.0
 11
1074.896396
 21
474.780051
 31
0.0
  0
LINE
  5
542
330
22B
100
AcDbEntity
  8
0
  6
Continuous
 62
     3
100
AcDbLine
 10
1074.896396
 20
474.780051
 30
0.0
 11
1074.896396
 21
480.780051
 31
0.0
  0
LINE
  5
543
330
22B
100
AcDbEntity
  8
0
  6
Continuous
 62
     3
100
AcDbLine
 10
1074.896396
 20
480.780051
 30
0.0
 11
1074.896396
 21
481.708898
 31
0.0
  0
LINE
  5
544
330
22B
100
AcDbEntity
  8
0
  6
Continuous
 62
     3
100
AcDbLine
 10
1074.896396
 20
481.708898
 30
0.0
 11
1074.896396
 21
482.191861
 31
0.0
  0
LINE
  5
545
330
22B
100
AcDbEntity
  8
0
  6
Continuous
 62
     3
100
AcDbLine
 10
1074.896396
 20
482.191861
 30
0.0
 11
1074.896396
 21
482.530051
 31
0.0
  0
LINE
  5
546
330
22B
100
AcDbEntity
  8
0
  6
Continuous
 62
     3
100
AcDbLine
 10
1074.896396
 20
482.530051
 30
0.0
 11
1074.896396
 21
482.630051
 31
0.0
  0
LINE
  5
547
330
22B
100
AcDbEntity
  8
0
  6
Continuous
 62
     3
100
AcDbLine
 10
1074.896396
 20
482.630051
 30
0.0
 11
1074.896396
 21
486.930051
 31
0.0
  0
LINE
  5
548
330
22B
100
AcDbEntity
  8
0
  6
Continuous
 62
     3
100
AcDbLine
 10
1074.896396
 20
486.930051
 30
0.0
 11
1074.896396
 21
487.030051
 31
0.0
  0
LINE
  5
549
330
22B
100
AcDbEntity
  8
0
  6
Continuous
 62
     3
100
AcDbLine
 10
1074.896396
 20
487.030051
 30
0.0
 11
1074.896396
 21
488.780051
 31
0.0
  0
LINE
  5
54A
330
22B
100
AcDbEntity
  8
0
  6
Continuous
 62
     3
100
AcDbLine
 10
1074.896396
 20
488.780051
 30
0.0
 11
1074.896396
 21
494.779834
 31
0.0
  0
LINE
  5
54B
330
22B
100
AcDbEntity
  8
7_ALL_FEATURES
  6
Continuous
 62
     3
100
AcDbLine
 10
18.596396
 20
482.191861
 30
0.0
 11
18.596396
 21
482.530051
 31
0.0
  0
LINE
  5
54C
330
22B
100
AcDbEntity
  8
7_ALL_FEATURES
  6
Continuous
 62
     3
100
AcDbLine
 10
18.596396
 20
482.530051
 30
0.0
 11
18.596396
 21
482.630051
 31
0.0
  0
LINE
  5
54D
330
22B
100
AcDbEntity
  8
7_ALL_FEATURES
  6
Continuous
 62
     3
100
AcDbLine
 10
18.596396
 20
482.630051
 30
0.0
 11
18.596396
 21
486.930051
 31
0.0
  0
LINE
  5
54E
330
22B
100
AcDbEntity
  8
7_ALL_FEATURES
  6
Continuous
 62
     3
100
AcDbLine
 10
18.596396
 20
486.930051
 30
0.0
 11
18.596396
 21
487.030051
 31
0.0
  0
LINE
  5
54F
330
22B
100
AcDbEntity
  8
7_ALL_FEATURES
  6
Continuous
 62
     3
100
AcDbLine
 10
18.596396
 20
487.030051
 30
0.0
 11
18.596396
 21
488.780051
 31
0.0
  0
LINE
  5
550
330
22B
100
AcDbEntity
  8
7_ALL_FEATURES
  6
Continuous
 62
     3
100
AcDbLine
 10
18.596396
 20
488.780051
 30
0.0
 11
18.596396
 21
494.779834
 31
0.0
  0
LINE
  5
551
330
22B
100
AcDbEntity
  8
7_ALL_FEATURES
  6
Continuous
 62
     3
100
AcDbLine
 10
18.596396
 20
481.708898
 30
0.0
 11
18.596396
 21
482.191861
 31
0.0
  0
LINE
  5
552
330
22B
100
AcDbEntity
  8
7_ALL_FEATURES
  6
Continuous
 62
     3
100
AcDbLine
 10
18.596396
 20
454.780051
 30
0.0
 11
18.596396
 21
474.780051
 31
0.0
  0
LINE
  5
553
330
22B
100
AcDbEntity
  8
7_ALL_FEATURES
  6
Continuous
 62
     3
100
AcDbLine
 10
18.596396
 20
474.780051
 30
0.0
 11
18.596396
 21
480.780051
 31
0.0
  0
LINE
  5
554
330
22B
100
AcDbEntity
  8
7_ALL_FEATURES
  6
Continuous
 62
     3
100
AcDbLine
 10
18.596396
 20
480.780051
 30
0.0
 11
18.596396
 21
481.708898
 31
0.0
  0
DIMENSION
  5
555
330
22B
100
AcDbEntity
  8
0
  6
Continuous
 62
     2
100
AcDbDimension
280
     0
  2
*D1
 10
1113.268985
 20
672.879151
 30
0.0
 11
1113.268985
 21
685.022011
 31
0.0
 70
   160
 71
     2
 42
26.0
 73
     0
 74
     0
 75
     0
  3
DIMSTYLE_1
100
AcDbAlignedDimension
 13
1130.911422
 23
698.879151
 33
0.0
 14
1130.911422
 24
672.879151
 34
0.0
 50
270.0
100
AcDbRotatedDimension
  0
DIMENSION
  5
556
330
22B
100
AcDbEntity
  8
0
  6
Continuous
 62
     2
100
AcDbDimension
280
     0
  2
*D2
 10
1157.111422
 20
709.427515
 30
0.0
 11
1143.004264
 21
709.427515
 31
0.0
 70
   160
 71
     2
 42
26.5
 73
     0
 74
     0
 75
     0
  3
DIMSTYLE_1
100
AcDbAlignedDimension
 13
1130.611422
 23
698.579151
 33
0.0
 14
1157.111422
 24
698.579151
 34
0.0
100
AcDbRotatedDimension
  0
DIMENSION
  5
557
330
22B
100
AcDbEntity
  8
0
  6
Continuous
 62
     2
100
AcDbDimension
280
     0
  2
*D3
 10
1098.547231
 20
698.879151
 30
0.0
 11
1098.547231
 21
677.396993
 31
0.0
 70
   160
 71
     2
 42
41.25
 73
     0
 74
     0
 75
     0
  3
DIMSTYLE_2
100
AcDbAlignedDimension
 13
1083.831593
 23
657.629151
 33
0.0
 14
1083.090184
 24
698.879151
 34
0.0
 50
90.0
100
AcDbRotatedDimension
  0
DIMENSION
  5
558
330
22B
100
AcDbEntity
  8
0
  6
Continuous
 62
     2
100
AcDbDimension
280
     0
  2
*D4
 10
15.396396
 20
535.829764
 30
0.0
 11
545.889266
 21
535.829764
 31
0.0
 70
   160
 71
     2
 42
1062.7
 73
     0
 74
     0
 75
     0
  3
DIMSTYLE_3
100
AcDbAlignedDimension
 13
1078.096396
 23
514.581294
 33
0.0
 14
15.396396
 24
513.696743
 34
0.0
 50
180.0
100
AcDbRotatedDimension
  0
INSERT
  5
559
330
22B
100
AcDbEntity
  8
0
  6
Continuous
 62
     2
100
AcDbBlockReference
  2
LOGO2_BL0
 10
1102.806666
 20
36.519554
 30
0.0
  0
ACAD_TABLE
  5
55A
102
{ACAD_XDICTIONARY
360
5B1
102
}
330
22B
100
AcDbEntity
  8
0
  6
Continuous
 62
     2
160
              3564
310
EC0D000019000000880000001D000000000000000000F03F00000000000000000000000000000000023C6227EC0391400000000000000000000000000000F03F0000000000000000C3158DC28002494000000000000000000000000000000000000000000000F03F0000000000000000000000000000000000000000000000
310
000000000000000000000000000000F03F54000000200000000200000000000000000000000000000000000000000000000000000000000000008056400000000000000000000000000000000000000000000000000000000000000000000000000000F03F5400000020000000020000000000000000000000000000000000
310
00000000000000000000000000000000000000000000000044C0000000000000000000000000000000000000000000000000000000000000F03F5400000020000000020000000000000000003E4000000000000018C00000000000000000000000000080564000000000000018C00000000000000000000000000000000000
310
00000000000000000000000000F03F5400000020000000020000000000000000003E4000000000000028C00000000000000000000000000080564000000000000028C0000000000000000000000000000000000000000000000000000000000000F03F5400000020000000020000000000000000003E4000000000000036C0
310
0000000000000000000000000080564000000000000036C0000000000000000000000000000000000000000000000000000000000000F03F54000000200000000200000000000000000000000000000000003BC0000000000000000000000000008056400000000000003BC000000000000000000000000000000000000000
310
0000000000000000000000F03F540000002000000002000000000000000000000000000000000044C00000000000000000000000000080564000000000000044C0000000000000000000000000000000000000000000000000000000000000F03F5400000020000000020000000000000000003E4000000000000000000000
310
0000000000000000000000003E400000000000003BC0000000000000000000000000000000000000000000000000000000000000F03F540000002000000002000000000000000080514000000000000000000000000000000000000000000080514000000000000028C0000000000000000000000000000000000000000000
310
000000000000000000F03F540000002000000002000000000000000080564000000000000000000000000000000000000000000080564000000000000044C0000000000000000000000000000000000000000000000000000000000000F03F0C0000001000000025000000C000000026000000CDCCCCCCCC7C3F4000000000
310
000012C0000000000000000000000000000000000000000000000000000000000000F03F000000000000F03F0000000000000000000000000000000053004B0032003200300030005F0043000000000010000000010000000000000000000840333333333333EB3F0000000000000000000000000000F03F00000000000000
310
000000000000000000000000000000000000000000000000000000000000000000740078007400000000000000BC000000260000003333333333DF514000000000000015C0000000000000000000000000000000000000000000000000000000000000F03F000000000000F03F000000000000000000000000000000005200
310
650076003A0030003100000000000C000000010000000000000000000C40333333333333EB3F0000000000000000000000000000F03F00000000000000000000000000000000000000000000000000000000000000000000000000000000740078007400000000000000C000000026000000CDCCCCCCCC7C3F400000000000
310
8026C0000000000000000000000000000000000000000000000000000000000000F03F000000000000F03F000000000000000000000000000000005300630061006C0065003A0031003A003100000012000000010000000000000000000C40333333333333EB3F0000000000000000000000000000F03F0000000000000000
310
0000000000000000000000000000000000000000000000000000000000000000740078007400000000000000B4000000260000003333333333DF514000000000008025C0000000000000000000000000000000000000000000000000000000000000F03F000000000000F03F00000000000000000000000000000000410030
310
000000000004000000010000000000000000000C40333333333333EB3F0000000000000000000000000000F03F00000000000000000000000000000000000000000000000000000000000000000000000000000000740078007400000000000000E800000026000000CDCCCCCCCC7C3F4000000000004032C0000000000000
310
000000000000000000000000000000000000000000000000F03F000000000000F03F0000000000000000000000000000000053004E00410043004B00200032002E003200200039004C004500440020002D00200031003500570020002D00200032003400560064006300000000003800000001000000000000000000044033
310
3333333333EB3F0000000000000000000000000000F03F00000000000000000000000000000000000000000000000000000000000000000000000000000000740078007400000000000000B800000026000000CDCCCCCCCC7C3F400000000000C039C000000000000000000000000000000000000000000000000000000000
310
0000F03F000000000000F03F0000000000000000000000000000000044004100540045003A0000000A000000010000000000000000000440333333333333EB3F0000000000000000000000000000F03F0000000000000000000000000000000000000000000000000000000000000000000000000000000074007800740000
310
00000000001801000026000000CDCCCCCCCCCCF73F0000000000903DC0000000000000000000000000000000000000000000000000000000000000F03F000000000000F03F0000000000000000000000000000000041006E007900200069006E00740065006700720061006C0020006F007200200070006100720074006900
310
61006C00200072006500700072006F00640075006300740069006F006E00730020006100720065002000700072006F0068006900620069007400650064000000000068000000010000000000000000000240333333333333EB3F0000000000000000000000000000F03F000000000000000000000000000000000000000000
310
00000000000000000000000000000000000000740078007400000000000000F000000026000000CDCCCCCCCCCCF73F00000000007840C0000000000000000000000000000000000000000000000000000000000000F03F000000000000F03F0000000000000000000000000000000077006900740068006F00750074002000
310
7000720069006F007200200061007500740068006F007200690073006100740069006F006E0020006F00660020004C002000000042000000010000000000000000000240333333333333EB3F0000000000000000000000000000F03F0000000000000000000000000000000000000000000000000000000000000000000000
310
0000000000740078007400000000000000B8000000260000000000000000C04D4000000000007840C0000000000000000000000000000000000000000000000000000000000000F03F000000000000F03F0000000000000000000000000000000020000000020000000100000000000000000002407521567F8461C83F0000
310
000000000000000000000000F03F000000000000000000000000000000000000000000000000000000000000000000000000000000007400780074002E00730068007800000000000000E000000026000000CB811E6ADBF64D4000000000007840C00000000000000000000000000000000000000000000000000000000000
310
00F03F000000000000F03F00000000000000000000000000000000260020004C0020004C007500630065002000260020004C006900670068007400200073002E0072002E006C002E002C000000000030000000010000000000000000000240333333333333EB3F0000000000000000000000000000F03F0000000000000000
310
0000000000000000000000000000000000000000000000000000000000000000740078007400000000000000F800000026000000CDCCCCCCCCCCF73F00000000002842C0000000000000000000000000000000000000000000000000000000000000F03F000000000000F03F0000000000000000000000000000000069006E
310
0020006100630063006F007200640061006E006300650020007700690074006800200074006800650020006C0061007700200069006E00200066006F007200630065002E000000000048000000010000000000000000000240333333333333EB3F0000000000000000000000000000F03F0000000000000000000000000000
310
0000000000000000000000000000000000000000000000000000740078007400000000000000D800000026000000CDCCCCCCCCCCF73F0000000000D843C0000000000000000000000000000000000000000000000000000000000000F03F000000000000F03F0000000000000000000000000000000041006C006C00200072
310
00690067006800740073002000720065007300650072007600650064002E000000000028000000010000000000000000000240333333333333EB3F0000000000000000000000000000F03F00000000000000000000000000000000000000000000000000000000000000000000000000000000740078007400000000000000
310
080000001F000000
100
AcDbBlockReference
  2
*T6
 10
1088.980619
 20
50.019554
 30
0.0
100
AcDbTable
342
583
343
233
 11
1.0
 21
0.0
 31
0.0
 90
       22
 91
        5
 92
        5
 93
        0
 94
        0
 95
        0
 96
        0
141
6.0
141
6.0
141
10.0
141
5.0
141
13.0
142
10.0
142
10.0
142
10.0
142
40.0
142
20.0
171
     1
172
     0
173
     0
174
     0
175
     3
176
     4
 91
       32
178
     0
145
0.0
140
3.5
 92
        0
301
CELL_VALUE
 93
        2
 90
        4
  1
 
 94
        0
300

302
 
304
ACVALUE_END
171
     1
172
     0
173
     1
174
     0
175
     1
176
     1
 91
        0
178
     0
145
0.0
 92
        0
301
CELL_VALUE
 93
        3
 90
        0
 91
        0
 94
        0
300

302

304
ACVALUE_END
171
     1
172
     0
173
     1
174
     0
175
     1
176
     1
 91
        0
178
     0
145
0.0
 92
        0
301
CELL_VALUE
 93
        3
 90
        0
 91
        0
 94
        0
300

302

304
ACVALUE_END
171
     1
172
     0
173
     0
174
     0
175
     1
176
     1
 91
       33
178
     0
145
0.0
170
     4
140
3.0
 92
        0
301
CELL_VALUE
 93
        2
 90
        4
  1
SK2200_C
 94
        0
300

302
SK2200_C
304
ACVALUE_END
171
     1
172
     0
173
     0
174
     0
175
     1
176
     1
 91
       33
178
     0
145
0.0
170
     1
140
3.5
 92
        0
301
CELL_VALUE
 93
        2
 90
        4
  1
Rev:01
 94
        0
300

302
Rev:01
304
ACVALUE_END
171
     1
172
     0
173
     1
174
     0
175
     1
176
     1
 91
        0
178
     0
145
0.0
 92
        0
301
CELL_VALUE
 93
        3
 90
        0
 91
        0
 94
        0
300

302

304
ACVALUE_END
171
     1
172
     0
173
     1
174
     0
175
     1
176
     1
 91
        0
178
     0
145
0.0
 92
        0
301
CELL_VALUE
 93
        3
 90
        0
 91
        0
 94
        0
300

302

304
ACVALUE_END
171
     1
172
     0
173
     1
174
     0
175
     1
176
     1
 91
        0
178
     0
145
0.0
 92
        0
301
CELL_VALUE
 93
        3
 90
        0
 91
        0
 94
        0
300

302

304
ACVALUE_END
171
     1
172
     0
173
     0
174
     0
175
     1
176
     1
 91
       33
178
     0
145
0.0
170
     1
140
3.5
 92
        0
301
CELL_VALUE
 93
        2
 90
        4
  1
Scale:1:1
 94
        0
300

302
Scale:1:1
304
ACVALUE_END
171
     1
172
     0
173
     0
174
     0
175
     1
176
     1
 91
       33
178
     0
145
0.0
170
     4
140
3.5
 92
        0
301
CELL_VALUE
 93
        2
 90
        4
  1
A0
 94
        0
300

302
A0
304
ACVALUE_END
171
     1
172
     0
173
     1
174
     0
175
     1
176
     1
 91
        0
178
     0
145
0.0
 92
        0
301
CELL_VALUE
 93
        3
 90
        0
 91
        0
 94
        0
300

302

304
ACVALUE_END
171
     1
172
     0
173
     1
174
     0
175
     1
176
     1
 91
        0
178
     0
145
0.0
 92
        0
301
CELL_VALUE
 93
        3
 90
        0
 91
        0
 94
        0
300

302

304
ACVALUE_END
171
     1
172
     0
173
     1
174
     0
175
     1
176
     1
 91
        0
178
     0
145
0.0
 92
        0
301
CELL_VALUE
 93
        3
 90
        0
 91
        0
 94
        0
300

302

304
ACVALUE_END
171
     1
172
     0
173
     0
174
     0
175
     2
176
     1
 91
       33
178
     0
145
0.0
170
     4
140
2.5
 92
        0
301
CELL_VALUE
 93
        2
 90
        4
  1
SNACK 2.2 9LED - 15W - 24Vdc
 94
        0
300

302
SNACK 2.2 9LED - 15W - 24Vdc
304
ACVALUE_END
171
     1
172
     0
173
     1
174
     0
175
     1
176
     1
 91
        0
178
     0
145
0.0
 92
        0
301
CELL_VALUE
 93
        3
 90
        0
 91
        0
 94
        0
300

302

304
ACVALUE_END
171
     1
172
     0
173
     1
174
     0
175
     1
176
     1
 91
        0
178
     0
145
0.0
 92
        0
301
CELL_VALUE
 93
        3
 90
        0
 91
        0
 94
        0
300

302

304
ACVALUE_END
171
     1
172
     0
173
     1
174
     0
175
     1
176
     1
 91
        0
178
     0
145
0.0
 92
        0
301
CELL_VALUE
 93
        3
 90
        0
 91
        0
 94
        0
300

302

304
ACVALUE_END
171
     1
172
     0
173
     1
174
     0
175
     1
176
     1
 91
        0
178
     0
145
0.0
 92
        0
301
CELL_VALUE
 93
        3
 90
        0
 91
        0
 94
        0
300

302

304
ACVALUE_END
171
     1
172
     0
173
     0
174
     0
175
     2
176
     1
 91
       33
178
     0
145
0.0
170
     4
140
2.5
 92
        0
301
CELL_VALUE
 93
        2
 90
        4
  1
DATE:
 94
        0
300

302
DATE:
304
ACVALUE_END
171
     1
172
     0
173
     1
174
     0
175
     1
176
     1
 91
        0
178
     0
145
0.0
 92
        0
301
CELL_VALUE
 93
        3
 90
        0
 91
        0
 94
        0
300

302

304
ACVALUE_END
171
     1
172
     0
173
     0
174
     0
175
     5
176
     1
 91
       33
178
     0
145
0.0
170
     4
140
2.25
 92
        0
301
CELL_VALUE
 93
        2
 90
        4
  1
Any integral or partial reproductions are prohibited \Pwithout prior authorisation of L {\Ftxt.shx;\W0.190476;\H2.250000; }& L Luce & Light s.r.l., \Pin accordance with the law in force. \PAll rights reserved.
 94
        0
300

302
Any integral or partial reproductions are prohibited \Pwithout prior authorisation of L {\Ftxt.shx;\W0.190476;\H2.250000; }& L Luce & Light s.r.l., \Pin accordance with the law in force. \PAll rights reserved.
304
ACVALUE_END
171
     1
172
     0
173
     1
174
     0
175
     1
176
     1
 91
        0
178
     0
145
0.0
 92
        0
301
CELL_VALUE
 93
        3
 90
        0
 91
        0
 94
        0
300

302

304
ACVALUE_END
171
     1
172
     0
173
     1
174
     0
175
     1
176
     1
 91
        0
178
     0
145
0.0
 92
        0
301
CELL_VALUE
 93
        3
 90
        0
 91
        0
 94
        0
300

302

304
ACVALUE_END
171
     1
172
     0
173
     1
174
     0
175
     1
176
     1
 91
        0
178
     0
145
0.0
 92
        0
301
CELL_VALUE
 93
        3
 90
        0
 91
        0
 94
        0
300

302

304
ACVALUE_END
171
     1
172
     0
173
     1
174
     0
175
     1
176
     1
 91
        0
178
     0
145
0.0
 92
        0
301
CELL_VALUE
 93
        3
 90
        0
 91
        0
 94
        0
300

302

304
ACVALUE_END
  0
ENDSEC
  0
SECTION
  2
OBJECTS
  0
DICTIONARY
  5
C
330
0
100
AcDbDictionary
281
     1
  3
ACAD_DETAILVIEWSTYLE
350
5BA
  3
ACAD_GROUP
350
D
  3
ACAD_IMAGE_DICT
350
5AA
  3
ACAD_LAYOUT
350
1A
  3
ACAD_MATERIAL
350
59E
  3
ACAD_MLEADERSTYLE
350
5B9
  3
ACAD_MLINESTYLE
350
17
  3
ACAD_PLOTSETTINGS
350
19
  3
ACAD_PLOTSTYLENAME
350
E
  3
ACAD_SCALELIST
350
560
  3
ACAD_SECTIONVIEWSTYLE
350
5BB
  3
ACAD_TABLESTYLE
350
582
  3
ACAD_VISUALSTYLE
350
585
  3
ACDB_RECOMPOSE_DATA
350
5B7
  3
AcDbVariableDictionary
350
5B3
  3
HOST_DOC_SETTINGS
350
5A8
  3
MCS_STREAM_DICT
350
5A4
  0
SUN
  5
5A7
330
1F4
100
AcDbSun
 90
        1
290
     0
 63
     7
421
 16777215
 40
1.0
291
     1
 91
  2455826
 92
 54000000
292
     0
 70
     2
 71
   256
280
     1
  0
DICTIONARY
  5
5B1
330
55A
100
AcDbDictionary
280
     1
281
     1
  3
ACAD_XREC_ROUNDTRIP
360
5B2
  0
DICTIONARY
  5
5BA
102
{ACAD_REACTORS
330
C
102
}
330
C
100
AcDbDictionary
281
     1
  0
DICTIONARY
  5
D
102
{ACAD_REACTORS
330
C
102
}
330
C
100
AcDbDictionary
281
     1
  0
DICTIONARY
  5
5AA
102
{ACAD_REACTORS
330
C
102
}
330
C
100
AcDbDictionary
281
     1
  0
DICTIONARY
  5
1A
102
{ACAD_REACTORS
330
C
102
}
330
C
100
AcDbDictionary
281
     1
  3
Layout1
350
55D
  3
Model
350
55C
  0
DICTIONARY
  5
59E
102
{ACAD_REACTORS
330
C
102
}
330
C
100
AcDbDictionary
281
     1
  3
ByBlock
350
5A0
  3
ByLayer
350
59F
  3
Global
350
5A1
  0
DICTIONARY
  5
5B9
102
{ACAD_REACTORS
330
C
102
}
330
C
100
AcDbDictionary
281
     1
  0
DICTIONARY
  5
17
102
{ACAD_REACTORS
330
C
102
}
330
C
100
AcDbDictionary
281
     1
  3
Standard
350
18
  0
DICTIONARY
  5
19
102
{ACAD_REACTORS
330
C
102
}
330
C
100
AcDbDictionary
281
     1
  0
ACDBDICTIONARYWDFLT
  5
E
102
{ACAD_REACTORS
330
C
102
}
330
C
100
AcDbDictionary
281
     1
  3
Normal
350
F
100
AcDbDictionaryWithDefault
340
F
  0
DICTIONARY
  5
560
102
{ACAD_REACTORS
330
C
102
}
330
C
100
AcDbDictionary
281
     1
  3
A0
350
561
  3
A1
350
562
  3
A2
350
563
  3
A3
350
564
  3
A4
350
565
  3
A5
350
566
  3
A6
350
567
  3
A7
350
568
  3
A8
350
569
  3
A9
350
56A
  3
B0
350
56B
  3
B1
350
56C
  3
B2
350
56D
  3
B3
350
56E
  3
B4
350
56F
  3
B5
350
570
  3
B6
350
571
  3
B7
350
572
  3
B8
350
573
  3
B9
350
574
  3
C0
350
575
  3
C1
350
576
  3
C2
350
577
  3
C3
350
578
  3
C4
350
579
  3
C5
350
57A
  3
C6
350
57B
  3
C7
350
57C
  3
C8
350
57D
  3
C9
350
57E
  3
D0
350
57F
  3
D1
350
580
  3
D2
350
581
  0
DICTIONARY
  5
5BB
102
{ACAD_REACTORS
330
C
102
}
330
C
100
AcDbDictionary
281
     1
  0
DICTIONARY
  5
582
102
{ACAD_REACTORS
330
C
102
}
330
C
100
AcDbDictionary
281
     1
  3
Standard
350
583
  0
DICTIONARY
  5
585
102
{ACAD_REACTORS
330
C
102
}
330
C
100
AcDbDictionary
281
     1
  3
2dWireframe
350
58A
  3
Basic
350
58D
  3
Brighten
350
591
  3
ColorChange
350
595
  3
Conceptual
350
58F
  3
Dim
350
590
  3
EdgeColorOff
350
598
  3
Facepattern
350
594
  3
Flat
350
586
  3
FlatWithEdges
350
587
  3
Gouraud
350
588
  3
GouraudWithEdges
350
589
  3
Hidden
350
58C
  3
JitterOff
350
596
  3
Linepattern
350
593
  3
OverhangOff
350
597
  3
Realistic
350
58E
  3
Shaded
350
59D
  3
Shaded with edges
350
59C
  3
Shades of Gray
350
599
  3
Sketchy
350
59A
  3
Thicken
350
592
  3
Wireframe
350
58B
  3
X-Ray
350
59B
  0
XRECORD
  5
5B7
102
{ACAD_REACTORS
330
C
102
}
330
C
100
AcDbXrecord
280
     1
 90
        1
330
55A
330
583
  0
DICTIONARY
  5
5B3
102
{ACAD_REACTORS
330
C
102
}
330
C
100
AcDbDictionary
281
     1
  3
CANNOSCALE
350
5B4
  3
CTABLESTYLE
350
5B8
  0
DICTIONARY
  5
5A8
102
{ACAD_REACTORS
330
C
102
}
330
C
100
AcDbDictionary
281
     1
  3
NCDocParameters
350
5A9
  0
DICTIONARY
  5
5A4
102
{ACAD_REACTORS
330
C
102
}
330
C
100
AcDbDictionary
281
     1
  3
MC_VERSION_DATA
350
5AD
  3
MCS_DOCUMENT_ID
350
5A5
  3
MCS_PARAMS_DATA
350
5AB
  0
XRECORD
  5
5B2
102
{ACAD_REACTORS
330
5B1
102
}
330
5B1
100
AcDbXrecord
280
     1
102
ACAD_ROUNDTRIP_2008_TABLE_ENTITY
360
5AF
 70
     2
 90
        1
 10
0.0
 20
0.0
 30
0.0
 90
        0
 90
        4
361
5B0
  0
LAYOUT
  5
55D
102
{ACAD_REACTORS
330
1A
102
}
330
1A
100
AcDbPlotSettings
  1

  2
none_device
  4
ISO_A0_(1189.00_x_841.00_MM)
  6

 40
0.0
 41
0.0
 42
0.0
 43
0.0
 44
1189.0
 45
841.0
 46
0.0
 47
0.0
 48
0.0
 49
0.0
140
0.0
141
0.0
142
1.0
143
1.0
 70
     0
 72
     1
 73
     0
 74
     0
  7

 75
     0
 76
     0
 77
     2
 78
   300
147
1.0
148
0.0
149
0.0
100
AcDbLayout
  1
Layout1
 70
     0
 71
     1
 10
0.0
 20
0.0
 11
1189.0
 21
841.0
 12
0.0
 22
0.0
 32
0.0
 14
0.0
 24
0.0
 34
0.0
 15
0.0
 25
0.0
 35
0.0
146
0.0
 13
0.0
 23
0.0
 33
0.0
 16
1.0
 26
0.0
 36
0.0
 17
0.0
 27
1.0
 37
0.0
 76
     0
330
22C
  0
LAYOUT
  5
55C
102
{ACAD_REACTORS
330
1A
102
}
330
1A
100
AcDbPlotSettings
  1

  2
none_device
  4
ISO_A0_(1189.00_x_841.00_MM)
  6

 40
0.0
 41
0.0
 42
0.0
 43
0.0
 44
1189.0
 45
841.0
 46
0.0
 47
0.0
 48
0.0
 49
0.0
140
0.0
141
0.0
142
1.0
143
1.0
 70
  1024
 72
     1
 73
     0
 74
     0
  7

 75
     0
 76
     0
 77
     2
 78
   300
147
1.0
148
0.0
149
0.0
100
AcDbLayout
  1
Model
 70
     0
 71
     0
 10
0.0
 20
0.0
 11
1189.0
 21
841.0
 12
0.0
 22
0.0
 32
0.0
 14
0.0
 24
0.0
 34
0.0
 15
0.0
 25
0.0
 35
0.0
146
0.0
 13
0.0
 23
0.0
 33
0.0
 16
1.0
 26
0.0
 36
0.0
 17
0.0
 27
1.0
 37
0.0
 76
     0
330
22B
331
1F4
  0
MATERIAL
  5
5A0
102
{ACAD_REACTORS
330
59E
102
}
330
59E
100
AcDbMaterial
  1
ByBlock
 72
     1
 94
      127
  0
MATERIAL
  5
59F
102
{ACAD_REACTORS
330
59E
102
}
330
59E
100
AcDbMaterial
  1
ByLayer
 72
     1
 94
      127
  0
MATERIAL
  5
5A1
102
{ACAD_REACTORS
330
59E
102
}
330
59E
100
AcDbMaterial
  1
Global
 72
     1
 94
      127
  0
MLINESTYLE
  5
18
102
{ACAD_REACTORS
330
17
102
}
330
17
100
AcDbMlineStyle
  2
STANDARD
 70
     0
  3

 62
   256
 51
90.0
 52
90.0
 71
     2
 49
0.5
 62
   256
  6
BYLAYER
 49
-0.5
 62
   256
  6
BYLAYER
  0
ACDBPLACEHOLDER
  5
F
102
{ACAD_REACTORS
330
E
102
}
330
E
  0
SCALE
  5
561
102
{ACAD_REACTORS
330
560
102
}
330
560
100
AcDbScale
 70
     0
300
1:1
140
1.0
141
1.0
290
     1
  0
SCALE
  5
562
102
{ACAD_REACTORS
330
560
102
}
330
560
100
AcDbScale
 70
     0
300
1:2
140
1.0
141
2.0
290
     0
  0
SCALE
  5
563
102
{ACAD_REACTORS
330
560
102
}
330
560
100
AcDbScale
 70
     0
300
1:4
140
1.0
141
4.0
290
     0
  0
SCALE
  5
564
102
{ACAD_REACTORS
330
560
102
}
330
560
100
AcDbScale
 70
     0
300
1:5
140
1.0
141
5.0
290
     0
  0
SCALE
  5
565
102
{ACAD_REACTORS
330
560
102
}
330
560
100
AcDbScale
 70
     0
300
1:8
140
1.0
141
8.0
290
     0
  0
SCALE
  5
566
102
{ACAD_REACTORS
330
560
102
}
330
560
100
AcDbScale
 70
     0
300
1:10
140
1.0
141
10.0
290
     0
  0
SCALE
  5
567
102
{ACAD_REACTORS
330
560
102
}
330
560
100
AcDbScale
 70
     0
300
1:16
140
1.0
141
16.0
290
     0
  0
SCALE
  5
568
102
{ACAD_REACTORS
330
560
102
}
330
560
100
AcDbScale
 70
     0
300
1:20
140
1.0
141
20.0
290
     0
  0
SCALE
  5
569
102
{ACAD_REACTORS
330
560
102
}
330
560
100
AcDbScale
 70
     0
300
1:30
140
1.0
141
30.0
290
     0
  0
SCALE
  5
56A
102
{ACAD_REACTORS
330
560
102
}
330
560
100
AcDbScale
 70
     0
300
1:40
140
1.0
141
40.0
290
     0
  0
SCALE
  5
56B
102
{ACAD_REACTORS
330
560
102
}
330
560
100
AcDbScale
 70
     0
300
1:50
140
1.0
141
50.0
290
     0
  0
SCALE
  5
56C
102
{ACAD_REACTORS
330
560
102
}
330
560
100
AcDbScale
 70
     0
300
1:100
140
1.0
141
100.0
290
     0
  0
SCALE
  5
56D
102
{ACAD_REACTORS
330
560
102
}
330
560
100
AcDbScale
 70
     0
300
2:1
140
2.0
141
1.0
290
     0
  0
SCALE
  5
56E
102
{ACAD_REACTORS
330
560
102
}
330
560
100
AcDbScale
 70
     0
300
4:1
140
4.0
141
1.0
290
     0
  0
SCALE
  5
56F
102
{ACAD_REACTORS
330
560
102
}
330
560
100
AcDbScale
 70
     0
300
8:1
140
8.0
141
1.0
290
     0
  0
SCALE
  5
570
102
{ACAD_REACTORS
330
560
102
}
330
560
100
AcDbScale
 70
     0
300
10:1
140
10.0
141
1.0
290
     0
  0
SCALE
  5
571
102
{ACAD_REACTORS
330
560
102
}
330
560
100
AcDbScale
 70
     0
300
100:1
140
100.0
141
1.0
290
     0
  0
SCALE
  5
572
102
{ACAD_REACTORS
330
560
102
}
330
560
100
AcDbScale
 70
     0
300
1/128" = 1'-0"
140
0.007812
141
12.0
290
     0
  0
SCALE
  5
573
102
{ACAD_REACTORS
330
560
102
}
330
560
100
AcDbScale
 70
     0
300
1/64" = 1'-0"
140
0.015625
141
12.0
290
     0
  0
SCALE
  5
574
102
{ACAD_REACTORS
330
560
102
}
330
560
100
AcDbScale
 70
     0
300
1/32" = 1'-0"
140
0.03125
141
12.0
290
     0
  0
SCALE
  5
575
102
{ACAD_REACTORS
330
560
102
}
330
560
100
AcDbScale
 70
     0
300
1/16" = 1'-0"
140
0.0625
141
12.0
290
     0
  0
SCALE
  5
576
102
{ACAD_REACTORS
330
560
102
}
330
560
100
AcDbScale
 70
     0
300
3/32" = 1'-0"
140
0.09375
141
12.0
290
     0
  0
SCALE
  5
577
102
{ACAD_REACTORS
330
560
102
}
330
560
100
AcDbScale
 70
     0
300
1/8" = 1'-0"
140
0.125
141
12.0
290
     0
  0
SCALE
  5
578
102
{ACAD_REACTORS
330
560
102
}
330
560
100
AcDbScale
 70
     0
300
3/16" = 1'-0"
140
0.1875
141
12.0
290
     0
  0
SCALE
  5
579
102
{ACAD_REACTORS
330
560
102
}
330
560
100
AcDbScale
 70
     0
300
1/4" = 1'-0"
140
0.25
141
12.0
290
     0
  0
SCALE
  5
57A
102
{ACAD_REACTORS
330
560
102
}
330
560
100
AcDbScale
 70
     0
300
3/8" = 1'-0"
140
0.375
141
12.0
290
     0
  0
SCALE
  5
57B
102
{ACAD_REACTORS
330
560
102
}
330
560
100
AcDbScale
 70
     0
300
1/2" = 1'-0"
140
0.5
141
12.0
290
     0
  0
SCALE
  5
57C
102
{ACAD_REACTORS
330
560
102
}
330
560
100
AcDbScale
 70
     0
300
3/4" = 1'-0"
140
0.75
141
12.0
290
     0
  0
SCALE
  5
57D
102
{ACAD_REACTORS
330
560
102
}
330
560
100
AcDbScale
 70
     0
300
1" = 1'-0"
140
1.0
141
12.0
290
     0
  0
SCALE
  5
57E
102
{ACAD_REACTORS
330
560
102
}
330
560
100
AcDbScale
 70
     0
300
1-1/2" = 1'-0"
140
1.5
141
12.0
290
     0
  0
SCALE
  5
57F
102
{ACAD_REACTORS
330
560
102
}
330
560
100
AcDbScale
 70
     0
300
3" = 1'-0"
140
3.0
141
12.0
290
     0
  0
SCALE
  5
580
102
{ACAD_REACTORS
330
560
102
}
330
560
100
AcDbScale
 70
     0
300
6" = 1'-0"
140
6.0
141
12.0
290
     0
  0
SCALE
  5
581
102
{ACAD_REACTORS
330
560
102
}
330
560
100
AcDbScale
 70
     0
300
1'-0" = 1'-0"
140
12.0
141
12.0
290
     0
  0
TABLESTYLE
  5
583
102
{ACAD_REACTORS
330
582
102
}
102
{ACAD_XDICTIONARY
360
5B5
102
}
330
582
100
AcDbTableStyle
  3
Standard
 70
     0
 71
     0
 40
0.06
 41
0.06
280
     0
281
     0
  7
STANDARD
140
4.5
170
     2
 62
     0
 63
   257
283
     0
 90
        4
 91
        0
  1

274
    -2
284
     1
 64
     0
275
    -2
285
     1
 65
     0
276
    -2
286
     1
 66
     0
277
    -2
287
     1
 67
     0
278
    -2
288
     1
 68
     0
279
    -2
289
     1
 69
     0
  7
STANDARD
140
6.0
170
     5
 62
     0
 63
   257
283
     0
 90
        4
 91
        0
  1

274
    -2
284
     1
 64
     0
275
    -2
285
     1
 65
     0
276
    -2
286
     1
 66
     0
277
    -2
287
     1
 67
     0
278
    -2
288
     1
 68
     0
279
    -2
289
     1
 69
     0
  7
STANDARD
140
4.5
170
     5
 62
     0
 63
   257
283
     0
 90
        4
 91
        0
  1

274
    -2
284
     1
 64
     0
275
    -2
285
     1
 65
     0
276
    -2
286
     1
 66
     0
277
    -2
287
     1
 67
     0
278
    -2
288
     1
 68
     0
279
    -2
289
     1
 69
     0
  0
VISUALSTYLE
  5
58A
102
{ACAD_REACTORS
330
585
102
}
330
585
100
AcDbVisualStyle
  2
2dWireframe
 70
     4
177
     3
291
     0
 70
    58
 90
        0
176
     1
 90
        2
176
     1
 90
        0
176
     1
 90
        0
176
     1
 40
0.6
176
     1
 40
30.0
176
     1
 62
     7
420
 16777215
176
     1
 90
        1
176
     1
 90
        4
176
     1
 62
     7
176
     1
 62
   257
176
     1
 90
        1
176
     1
 90
        1
176
     1
 40
1.0
176
     1
 90
        0
176
     1
 62
   257
176
     1
 40
1.0
176
     1
 90
        1
176
     1
 90
        6
176
     1
 90
        2
176
     1
 62
     7
176
     1
 90
        5
176
     1
 90
        0
176
     1
 90
        0
176
     1
290
     0
176
     1
 90
        1
176
     1
 40
0.0
176
     1
 90
        0
176
     1
290
     1
176
     1
290
     1
176
     1
290
     0
176
     1
290
     0
176
     1
290
     0
176
     1
290
     0
176
     1
290
     0
176
     1
290
     0
176
     1
290
     0
176
     1
 90
       50
176
     1
 40
0.0
176
     1
 40
1.0
176
     1
 90
        0
176
     1
 62
    18
420
        0
176
     1
 90
       50
176
     1
 90
        3
176
     1
 62
     5
420
      255
176
     1
290
     0
176
     1
 90
       50
176
     1
 90
       50
176
     1
 90
       50
176
     1
290
     0
176
     1
 90
       50
176
     1
 62
   256
176
     0
 40
1.0
176
     0
 90
        2
176
     1
  1
strokes_ogs.tif
176
     1
290
     0
176
     1
 40
1.0
176
     1
 40
1.0
176
     1
  0
VISUALSTYLE
  5
58D
102
{ACAD_REACTORS
330
585
102
}
330
585
100
AcDbVisualStyle
  2
Basic
 70
     7
177
     3
291
     1
 70
    58
 90
        1
176
     1
 90
        0
176
     1
 90
        1
176
     1
 90
        0
176
     1
 40
0.6
176
     1
 40
30.0
176
     1
 62
     7
420
 16777215
176
     1
 90
        0
176
     1
 90
        4
176
     1
 62
     7
176
     1
 62
   257
176
     1
 90
        1
176
     1
 90
        1
176
     1
 40
1.0
176
     1
 90
        8
176
     1
 62
     7
176
     1
 40
1.0
176
     1
 90
        1
176
     1
 90
        6
176
     1
 90
        2
176
     1
 62
     7
176
     1
 90
        5
176
     1
 90
        0
176
     1
 90
        0
176
     1
290
     0
176
     1
 90
        1
176
     1
 40
0.0
176
     1
 90
        0
176
     1
290
     0
176
     1
290
     1
176
     1
290
     1
176
     1
290
     0
176
     1
290
     0
176
     1
290
     0
176
     1
290
     0
176
     1
290
     0
176
     1
290
     0
176
     1
 90
       50
176
     1
 40
0.0
176
     1
 40
1.0
176
     1
 90
        0
176
     1
 62
    18
420
        0
176
     1
 90
       50
176
     1
 90
        3
176
     1
 62
     5
420
      255
176
     1
290
     0
176
     1
 90
       50
176
     1
 90
       50
176
     1
 90
       50
176
     1
290
     0
176
     1
 90
       50
176
     1
 62
   256
176
     0
 40
1.0
176
     0
 90
        2
176
     1
  1
strokes_ogs.tif
176
     1
290
     0
176
     1
 40
1.0
176
     1
 40
1.0
176
     1
  0
VISUALSTYLE
  5
591
102
{ACAD_REACTORS
330
585
102
}
330
585
100
AcDbVisualStyle
  2
Brighten
 70
    12
177
     3
291
     1
 70
    58
 90
        2
176
     1
 90
        2
176
     1
 90
        0
176
     1
 90
        0
176
     1
 40
0.6
176
     1
 40
30.0
176
     1
 62
     7
420
 16777215
176
     1
 90
        1
176
     1
 90
        4
176
     1
 62
     7
176
     1
 62
   257
176
     1
 90
        1
176
     1
 90
        1
176
     1
 40
1.0
176
     1
 90
        8
176
     1
 62
     7
176
     1
 40
1.0
176
     1
 90
        1
176
     1
 90
        6
176
     1
 90
        2
176
     1
 62
     7
176
     1
 90
        5
176
     1
 90
        0
176
     1
 90
        0
176
     1
290
     0
176
     1
 90
        1
176
     1
 40
50.0
176
     1
 90
        0
176
     1
290
     0
176
     1
290
     1
176
     1
290
     1
176
     1
290
     0
176
     1
290
     0
176
     1
290
     0
176
     1
290
     0
176
     1
290
     0
176
     1
290
     0
176
     1
 90
       50
176
     1
 40
0.0
176
     1
 40
1.0
176
     1
 90
        0
176
     1
 62
    18
420
        0
176
     1
 90
       50
176
     1
 90
        3
176
     1
 62
     5
420
      255
176
     1
290
     0
176
     1
 90
       50
176
     1
 90
       50
176
     1
 90
       50
176
     1
290
     0
176
     1
 90
       50
176
     1
 62
   256
176
     0
 40
1.0
176
     0
 90
        2
176
     1
  1
strokes_ogs.tif
176
     1
290
     0
176
     1
 40
1.0
176
     1
 40
1.0
176
     1
  0
VISUALSTYLE
  5
595
102
{ACAD_REACTORS
330
585
102
}
330
585
100
AcDbVisualStyle
  2
ColorChange
 70
    16
177
     3
291
     1
 70
    58
 90
        2
176
     1
 90
        2
176
     1
 90
        3
176
     1
 90
        0
176
     1
 40
0.6
176
     1
 40
30.0
176
     1
 62
     8
420
  8421504
176
     1
 90
        1
176
     1
 90
        4
176
     1
 62
     7
176
     1
 62
   257
176
     1
 90
        1
176
     1
 90
        1
176
     1
 40
1.0
176
     1
 90
        8
176
     1
 62
     8
420
  8421504
176
     1
 40
1.0
176
     1
 90
        1
176
     1
 90
        6
176
     1
 90
        2
176
     1
 62
     7
176
     1
 90
        5
176
     1
 90
        0
176
     1
 90
        0
176
     1
290
     0
176
     1
 90
        1
176
     1
 40
0.0
176
     1
 90
        0
176
     1
290
     0
176
     1
290
     1
176
     1
290
     1
176
     1
290
     0
176
     1
290
     0
176
     1
290
     0
176
     1
290
     0
176
     1
290
     0
176
     1
290
     0
176
     1
 90
       50
176
     1
 40
0.0
176
     1
 40
1.0
176
     1
 90
        0
176
     1
 62
    18
420
        0
176
     1
 90
       50
176
     1
 90
        3
176
     1
 62
     5
420
      255
176
     1
290
     0
176
     1
 90
       50
176
     1
 90
       50
176
     1
 90
       50
176
     1
290
     0
176
     1
 90
       50
176
     1
 62
   256
176
     0
 40
1.0
176
     0
 90
        2
176
     1
  1
strokes_ogs.tif
176
     1
290
     0
176
     1
 40
1.0
176
     1
 40
1.0
176
     1
  0
VISUALSTYLE
  5
58F
102
{ACAD_REACTORS
330
585
102
}
330
585
100
AcDbVisualStyle
  2
Conceptual
 70
     9
177
     3
291
     0
 70
    58
 90
        3
176
     1
 90
        2
176
     1
 90
        0
176
     1
 90
        0
176
     1
 40
0.6
176
     1
 40
30.0
176
     1
 62
     7
420
 16777215
176
     1
 90
        2
176
     1
 90
        2
176
     1
 62
     7
176
     1
 62
   257
176
     1
 90
        1
176
     1
 90
        1
176
     1
 40
179.0
176
     1
 90
        8
176
     1
 62
     7
176
     1
 40
1.0
176
     1
 90
        1
176
     1
 90
        6
176
     1
 90
        2
176
     1
 62
     7
176
     1
 90
        3
176
     1
 90
        0
176
     1
 90
        0
176
     1
290
     0
176
     1
 90
        1
176
     1
 40
0.0
176
     1
 90
        0
176
     1
290
     0
176
     1
290
     1
176
     1
290
     1
176
     1
290
     0
176
     1
290
     0
176
     1
290
     0
176
     1
290
     0
176
     1
290
     0
176
     1
290
     0
176
     1
 90
       50
176
     1
 40
0.0
176
     1
 40
1.0
176
     1
 90
        0
176
     1
 62
    18
420
        0
176
     1
 90
       50
176
     1
 90
        3
176
     1
 62
     5
420
      255
176
     1
290
     0
176
     1
 90
       50
176
     1
 90
       50
176
     1
 90
       50
176
     1
290
     0
176
     1
 90
       50
176
     1
 62
   256
176
     0
 40
1.0
176
     0
 90
        2
176
     1
  1
strokes_ogs.tif
176
     1
290
     0
176
     1
 40
1.0
176
     1
 40
1.0
176
     1
  0
VISUALSTYLE
  5
590
102
{ACAD_REACTORS
330
585
102
}
330
585
100
AcDbVisualStyle
  2
Dim
 70
    11
177
     3
291
     1
 70
    58
 90
        2
176
     1
 90
        2
176
     1
 90
        0
176
     1
 90
        0
176
     1
 40
0.6
176
     1
 40
30.0
176
     1
 62
     7
420
 16777215
176
     1
 90
        1
176
     1
 90
        4
176
     1
 62
     7
176
     1
 62
   257
176
     1
 90
        1
176
     1
 90
        1
176
     1
 40
1.0
176
     1
 90
        8
176
     1
 62
     7
176
     1
 40
1.0
176
     1
 90
        1
176
     1
 90
        6
176
     1
 90
        2
176
     1
 62
     7
176
     1
 90
        5
176
     1
 90
        0
176
     1
 90
        0
176
     1
290
     0
176
     1
 90
        1
176
     1
 40
-50.0
176
     1
 90
        0
176
     1
290
     0
176
     1
290
     1
176
     1
290
     1
176
     1
290
     0
176
     1
290
     0
176
     1
290
     0
176
     1
290
     0
176
     1
290
     0
176
     1
290
     0
176
     1
 90
       50
176
     1
 40
0.0
176
     1
 40
1.0
176
     1
 90
        0
176
     1
 62
    18
420
        0
176
     1
 90
       50
176
     1
 90
        3
176
     1
 62
     5
420
      255
176
     1
290
     0
176
     1
 90
       50
176
     1
 90
       50
176
     1
 90
       50
176
     1
290
     0
176
     1
 90
       50
176
     1
 62
   256
176
     0
 40
1.0
176
     0
 90
        2
176
     1
  1
strokes_ogs.tif
176
     1
290
     0
176
     1
 40
1.0
176
     1
 40
1.0
176
     1
  0
VISUALSTYLE
  5
598
102
{ACAD_REACTORS
330
585
102
}
330
585
100
AcDbVisualStyle
  2
EdgeColorOff
 70
    22
177
     3
291
     1
 70
    58
 90
        2
176
     0
 90
        2
176
     0
 90
        0
176
     0
 90
        0
176
     0
 40
0.6
176
     0
 40
30.0
176
     0
 62
     7
420
 16777215
176
     0
 90
        1
176
     0
 90
        4
176
     0
 62
     7
176
     0
 62
   257
176
     0
 90
        1
176
     0
 90
        1
176
     0
 40
1.0
176
     0
 90
        8
176
     2
 62
     7
176
     0
 40
1.0
176
     0
 90
        1
176
     0
 90
        6
176
     0
 90
        2
176
     0
 62
     7
176
     0
 90
        5
176
     0
 90
        0
176
     0
 90
        0
176
     0
290
     0
176
     0
 90
        1
176
     0
 40
0.0
176
     0
 90
        0
176
     0
290
     0
176
     0
290
     1
176
     0
290
     1
176
     0
290
     0
176
     0
290
     0
176
     0
290
     0
176
     0
290
     0
176
     0
290
     0
176
     0
290
     0
176
     0
 90
       50
176
     0
 40
0.0
176
     0
 40
1.0
176
     0
 90
        0
176
     0
 62
    18
420
        0
176
     0
 90
       50
176
     0
 90
        3
176
     0
 62
     5
420
      255
176
     0
290
     0
176
     0
 90
       50
176
     0
 90
       50
176
     0
 90
       50
176
     0
290
     0
176
     0
 90
       50
176
     0
 62
   256
176
     0
 40
1.0
176
     0
 90
        2
176
     0
  1
strokes_ogs.tif
176
     0
290
     0
176
     0
 40
1.0
176
     0
 40
1.0
176
     0
  0
VISUALSTYLE
  5
594
102
{ACAD_REACTORS
330
585
102
}
330
585
100
AcDbVisualStyle
  2
Facepattern
 70
    15
177
     3
291
     1
 70
    58
 90
        2
176
     1
 90
        2
176
     1
 90
        0
176
     1
 90
        0
176
     1
 40
0.6
176
     1
 40
30.0
176
     1
 62
     7
420
 16777215
176
     1
 90
        1
176
     1
 90
        4
176
     1
 62
     7
176
     1
 62
   257
176
     1
 90
        1
176
     1
 90
        1
176
     1
 40
1.0
176
     1
 90
        8
176
     1
 62
     7
176
     1
 40
1.0
176
     1
 90
        1
176
     1
 90
        6
176
     1
 90
        2
176
     1
 62
     7
176
     1
 90
        5
176
     1
 90
        0
176
     1
 90
        0
176
     1
290
     0
176
     1
 90
        1
176
     1
 40
0.0
176
     1
 90
        0
176
     1
290
     0
176
     1
290
     1
176
     1
290
     1
176
     1
290
     0
176
     1
290
     0
176
     1
290
     0
176
     1
290
     0
176
     1
290
     0
176
     1
290
     0
176
     1
 90
       50
176
     1
 40
0.0
176
     1
 40
1.0
176
     1
 90
        0
176
     1
 62
    18
420
        0
176
     1
 90
       50
176
     1
 90
        3
176
     1
 62
     5
420
      255
176
     1
290
     0
176
     1
 90
       50
176
     1
 90
       50
176
     1
 90
       50
176
     1
290
     0
176
     1
 90
       50
176
     1
 62
   256
176
     0
 40
1.0
176
     0
 90
        2
176
     1
  1
strokes_ogs.tif
176
     1
290
     0
176
     1
 40
1.0
176
     1
 40
1.0
176
     1
  0
VISUALSTYLE
  5
586
102
{ACAD_REACTORS
330
585
102
}
330
585
100
AcDbVisualStyle
  2
Flat
 70
     0
177
     3
291
     1
 70
    58
 90
        2
176
     1
 90
        1
176
     1
 90
        1
176
     1
 90
        2
176
     1
 40
0.6
176
     1
 40
30.0
176
     1
 62
     7
420
 16777215
176
     1
 90
        0
176
     1
 90
        0
176
     1
 62
     7
176
     1
 62
   257
176
     1
 90
        1
176
     1
 90
        1
176
     1
 40
1.0
176
     1
 90
        8
176
     1
 62
     7
176
     1
 40
1.0
176
     1
 90
        1
176
     1
 90
        6
176
     1
 90
        2
176
     1
 62
     7
176
     1
 90
        5
176
     1
 90
        0
176
     1
 90
        0
176
     1
290
     0
176
     1
 90
       13
176
     1
 40
0.0
176
     1
 90
        0
176
     1
290
     0
176
     1
290
     1
176
     1
290
     1
176
     1
290
     0
176
     1
290
     0
176
     1
290
     0
176
     1
290
     0
176
     1
290
     0
176
     1
290
     0
176
     1
 90
       50
176
     1
 40
0.0
176
     1
 40
1.0
176
     1
 90
        0
176
     1
 62
    18
420
        0
176
     1
 90
       50
176
     1
 90
        3
176
     1
 62
     5
420
      255
176
     1
290
     0
176
     1
 90
       50
176
     1
 90
       50
176
     1
 90
       50
176
     1
290
     0
176
     1
 90
       50
176
     1
 62
   256
176
     0
 40
1.0
176
     0
 90
        2
176
     1
  1
strokes_ogs.tif
176
     1
290
     0
176
     1
 40
1.0
176
     1
 40
1.0
176
     1
  0
VISUALSTYLE
  5
587
102
{ACAD_REACTORS
330
585
102
}
330
585
100
AcDbVisualStyle
  2
FlatWithEdges
 70
     1
177
     3
291
     1
 70
    58
 90
        2
176
     1
 90
        1
176
     1
 90
        1
176
     1
 90
        2
176
     1
 40
0.6
176
     1
 40
30.0
176
     1
 62
     7
420
 16777215
176
     1
 90
        1
176
     1
 90
        0
176
     1
 62
     7
176
     1
 62
   257
176
     1
 90
        1
176
     1
 90
        1
176
     1
 40
1.0
176
     1
 90
        0
176
     1
 62
   257
176
     1
 40
1.0
176
     1
 90
        1
176
     1
 90
        6
176
     1
 90
        2
176
     1
 62
     7
176
     1
 90
        5
176
     1
 90
        0
176
     1
 90
        0
176
     1
290
     0
176
     1
 90
       13
176
     1
 40
0.0
176
     1
 90
        0
176
     1
290
     0
176
     1
290
     1
176
     1
290
     1
176
     1
290
     0
176
     1
290
     0
176
     1
290
     0
176
     1
290
     0
176
     1
290
     0
176
     1
290
     0
176
     1
 90
       50
176
     1
 40
0.0
176
     1
 40
1.0
176
     1
 90
        0
176
     1
 62
    18
420
        0
176
     1
 90
       50
176
     1
 90
        3
176
     1
 62
     5
420
      255
176
     1
290
     0
176
     1
 90
       50
176
     1
 90
       50
176
     1
 90
       50
176
     1
290
     0
176
     1
 90
       50
176
     1
 62
   256
176
     0
 40
1.0
176
     0
 90
        2
176
     1
  1
strokes_ogs.tif
176
     1
290
     0
176
     1
 40
1.0
176
     1
 40
1.0
176
     1
  0
VISUALSTYLE
  5
588
102
{ACAD_REACTORS
330
585
102
}
330
585
100
AcDbVisualStyle
  2
Gouraud
 70
     2
177
     3
291
     1
 70
    58
 90
        2
176
     1
 90
        2
176
     1
 90
        1
176
     1
 90
        2
176
     1
 40
0.6
176
     1
 40
30.0
176
     1
 62
     7
420
 16777215
176
     1
 90
        0
176
     1
 90
        0
176
     1
 62
     7
176
     1
 62
   257
176
     1
 90
        1
176
     1
 90
        1
176
     1
 40
1.0
176
     1
 90
        0
176
     1
 62
     7
176
     1
 40
1.0
176
     1
 90
        1
176
     1
 90
        6
176
     1
 90
        2
176
     1
 62
     7
176
     1
 90
        5
176
     1
 90
        0
176
     1
 90
        0
176
     1
290
     0
176
     1
 90
       13
176
     1
 40
0.0
176
     1
 90
        0
176
     1
290
     0
176
     1
290
     1
176
     1
290
     1
176
     1
290
     0
176
     1
290
     0
176
     1
290
     0
176
     1
290
     0
176
     1
290
     0
176
     1
290
     0
176
     1
 90
       50
176
     1
 40
0.0
176
     1
 40
1.0
176
     1
 90
        0
176
     1
 62
    18
420
        0
176
     1
 90
       50
176
     1
 90
        3
176
     1
 62
     5
420
      255
176
     1
290
     0
176
     1
 90
       50
176
     1
 90
       50
176
     1
 90
       50
176
     1
290
     0
176
     1
 90
       50
176
     1
 62
   256
176
     0
 40
1.0
176
     0
 90
        2
176
     1
  1
strokes_ogs.tif
176
     1
290
     0
176
     1
 40
1.0
176
     1
 40
1.0
176
     1
  0
VISUALSTYLE
  5
589
102
{ACAD_REACTORS
330
585
102
}
330
585
100
AcDbVisualStyle
  2
GouraudWithEdges
 70
     3
177
     3
291
     1
 70
    58
 90
        2
176
     1
 90
        2
176
     1
 90
        1
176
     1
 90
        2
176
     1
 40
0.6
176
     1
 40
30.0
176
     1
 62
     7
420
 16777215
176
     1
 90
        1
176
     1
 90
        0
176
     1
 62
     7
176
     1
 62
   257
176
     1
 90
        1
176
     1
 90
        1
176
     1
 40
1.0
176
     1
 90
        0
176
     1
 62
   257
176
     1
 40
1.0
176
     1
 90
        1
176
     1
 90
        6
176
     1
 90
        2
176
     1
 62
     7
176
     1
 90
        5
176
     1
 90
        0
176
     1
 90
        0
176
     1
290
     0
176
     1
 90
       13
176
     1
 40
0.0
176
     1
 90
        0
176
     1
290
     0
176
     1
290
     1
176
     1
290
     1
176
     1
290
     0
176
     1
290
     0
176
     1
290
     0
176
     1
290
     0
176
     1
290
     0
176
     1
290
     0
176
     1
 90
       50
176
     1
 40
0.0
176
     1
 40
1.0
176
     1
 90
        0
176
     1
 62
    18
420
        0
176
     1
 90
       50
176
     1
 90
        3
176
     1
 62
     5
420
      255
176
     1
290
     0
176
     1
 90
       50
176
     1
 90
       50
176
     1
 90
       50
176
     1
290
     0
176
     1
 90
       50
176
     1
 62
   256
176
     0
 40
1.0
176
     0
 90
        2
176
     1
  1
strokes_ogs.tif
176
     1
290
     0
176
     1
 40
1.0
176
     1
 40
1.0
176
     1
  0
VISUALSTYLE
  5
58C
102
{ACAD_REACTORS
330
585
102
}
330
585
100
AcDbVisualStyle
  2
Hidden
 70
     6
177
     3
291
     0
 70
    58
 90
        1
176
     1
 90
        2
176
     1
 90
        2
176
     1
 90
        0
176
     1
 40
0.6
176
     1
 40
30.0
176
     1
 62
     7
420
 16777215
176
     1
 90
        2
176
     1
 90
        2
176
     1
 62
     7
176
     1
 62
   257
176
     1
 90
        2
176
     1
 90
        1
176
     1
 40
40.0
176
     1
 90
        0
176
     1
 62
   257
176
     1
 40
1.0
176
     1
 90
        1
176
     1
 90
        6
176
     1
 90
        2
176
     1
 62
     7
176
     1
 90
        3
176
     1
 90
        0
176
     1
 90
        0
176
     1
290
     0
176
     1
 90
        1
176
     1
 40
0.0
176
     1
 90
        0
176
     1
290
     0
176
     1
290
     1
176
     1
290
     1
176
     1
290
     0
176
     1
290
     0
176
     1
290
     0
176
     1
290
     0
176
     1
290
     0
176
     1
290
     0
176
     1
 90
       50
176
     1
 40
0.0
176
     1
 40
1.0
176
     1
 90
        0
176
     1
 62
    18
420
        0
176
     1
 90
       50
176
     1
 90
        3
176
     1
 62
     5
420
      255
176
     1
290
     0
176
     1
 90
       50
176
     1
 90
       50
176
     1
 90
       50
176
     1
290
     0
176
     1
 90
       50
176
     1
 62
   256
176
     0
 40
1.0
176
     0
 90
        2
176
     1
  1
strokes_ogs.tif
176
     1
290
     0
176
     1
 40
1.0
176
     1
 40
1.0
176
     1
  0
VISUALSTYLE
  5
596
102
{ACAD_REACTORS
330
585
102
}
330
585
100
AcDbVisualStyle
  2
JitterOff
 70
    20
177
     3
291
     1
 70
    58
 90
        2
176
     0
 90
        2
176
     0
 90
        0
176
     0
 90
        0
176
     0
 40
0.6
176
     0
 40
30.0
176
     0
 62
     7
420
 16777215
176
     0
 90
        1
176
     0
 90
        4
176
     0
 62
     7
176
     0
 62
   257
176
     0
 90
        1
176
     0
 90
        1
176
     0
 40
1.0
176
     0
 90
       10
176
     2
 62
     7
176
     0
 40
1.0
176
     0
 90
        1
176
     0
 90
        6
176
     0
 90
        2
176
     0
 62
     7
176
     0
 90
        5
176
     0
 90
        0
176
     0
 90
        0
176
     0
290
     0
176
     0
 90
        1
176
     0
 40
0.0
176
     0
 90
        0
176
     0
290
     0
176
     0
290
     1
176
     0
290
     1
176
     0
290
     0
176
     0
290
     0
176
     0
290
     0
176
     0
290
     0
176
     0
290
     0
176
     0
290
     0
176
     0
 90
       50
176
     0
 40
0.0
176
     0
 40
1.0
176
     0
 90
        0
176
     0
 62
    18
420
        0
176
     0
 90
       50
176
     0
 90
        3
176
     0
 62
     5
420
      255
176
     0
290
     0
176
     0
 90
       50
176
     0
 90
       50
176
     0
 90
       50
176
     0
290
     0
176
     0
 90
       50
176
     0
 62
   256
176
     0
 40
1.0
176
     0
 90
        2
176
     0
  1
strokes_ogs.tif
176
     0
290
     0
176
     0
 40
1.0
176
     0
 40
1.0
176
     0
  0
VISUALSTYLE
  5
593
102
{ACAD_REACTORS
330
585
102
}
330
585
100
AcDbVisualStyle
  2
Linepattern
 70
    14
177
     3
291
     1
 70
    58
 90
        2
176
     1
 90
        2
176
     1
 90
        0
176
     1
 90
        0
176
     1
 40
0.6
176
     1
 40
30.0
176
     1
 62
     7
420
 16777215
176
     1
 90
        1
176
     1
 90
        4
176
     1
 62
     7
176
     1
 62
   257
176
     1
 90
        7
176
     1
 90
        7
176
     1
 40
1.0
176
     1
 90
        8
176
     1
 62
     7
176
     1
 40
1.0
176
     1
 90
        1
176
     1
 90
        6
176
     1
 90
        2
176
     1
 62
     7
176
     1
 90
        5
176
     1
 90
        0
176
     1
 90
        0
176
     1
290
     0
176
     1
 90
        1
176
     1
 40
0.0
176
     1
 90
        0
176
     1
290
     0
176
     1
290
     1
176
     1
290
     1
176
     1
290
     0
176
     1
290
     0
176
     1
290
     0
176
     1
290
     0
176
     1
290
     0
176
     1
290
     0
176
     1
 90
       50
176
     1
 40
0.0
176
     1
 40
1.0
176
     1
 90
        0
176
     1
 62
    18
420
        0
176
     1
 90
       50
176
     1
 90
        3
176
     1
 62
     5
420
      255
176
     1
290
     0
176
     1
 90
       50
176
     1
 90
       50
176
     1
 90
       50
176
     1
290
     0
176
     1
 90
       50
176
     1
 62
   256
176
     0
 40
1.0
176
     0
 90
        2
176
     1
  1
strokes_ogs.tif
176
     1
290
     0
176
     1
 40
1.0
176
     1
 40
1.0
176
     1
  0
VISUALSTYLE
  5
597
102
{ACAD_REACTORS
330
585
102
}
330
585
100
AcDbVisualStyle
  2
OverhangOff
 70
    21
177
     3
291
     1
 70
    58
 90
        2
176
     0
 90
        2
176
     0
 90
        0
176
     0
 90
        0
176
     0
 40
0.6
176
     0
 40
30.0
176
     0
 62
     7
420
 16777215
176
     0
 90
        1
176
     0
 90
        4
176
     0
 62
     7
176
     0
 62
   257
176
     0
 90
        1
176
     0
 90
        1
176
     0
 40
1.0
176
     0
 90
        9
176
     2
 62
     7
176
     0
 40
1.0
176
     0
 90
        1
176
     0
 90
        6
176
     0
 90
        2
176
     0
 62
     7
176
     0
 90
        5
176
     0
 90
        0
176
     0
 90
        0
176
     0
290
     0
176
     0
 90
        1
176
     0
 40
0.0
176
     0
 90
        0
176
     0
290
     0
176
     0
290
     1
176
     0
290
     1
176
     0
290
     0
176
     0
290
     0
176
     0
290
     0
176
     0
290
     0
176
     0
290
     0
176
     0
290
     0
176
     0
 90
       50
176
     0
 40
0.0
176
     0
 40
1.0
176
     0
 90
        0
176
     0
 62
    18
420
        0
176
     0
 90
       50
176
     0
 90
        3
176
     0
 62
     5
420
      255
176
     0
290
     0
176
     0
 90
       50
176
     0
 90
       50
176
     0
 90
       50
176
     0
290
     0
176
     0
 90
       50
176
     0
 62
   256
176
     0
 40
1.0
176
     0
 90
        2
176
     0
  1
strokes_ogs.tif
176
     0
290
     0
176
     0
 40
1.0
176
     0
 40
1.0
176
     0
  0
VISUALSTYLE
  5
58E
102
{ACAD_REACTORS
330
585
102
}
330
585
100
AcDbVisualStyle
  2
Realistic
 70
     8
177
     3
291
     0
 70
    58
 90
        2
176
     1
 90
        3
176
     1
 90
        0
176
     1
 90
        2
176
     1
 40
0.6
176
     1
 40
30.0
176
     1
 62
     7
420
 16777215
176
     1
 90
        0
176
     1
 90
        0
176
     1
 62
     7
176
     1
 62
   257
176
     1
 90
        1
176
     1
 90
        1
176
     1
 40
1.0
176
     1
 90
        8
176
     1
 62
   257
176
     1
 40
1.0
176
     1
 90
        1
176
     1
 90
        6
176
     1
 90
        2
176
     1
 62
     7
176
     1
 90
        3
176
     1
 90
        0
176
     1
 90
        0
176
     1
290
     0
176
     1
 90
       13
176
     1
 40
0.0
176
     1
 90
        0
176
     1
290
     0
176
     1
290
     1
176
     1
290
     1
176
     1
290
     0
176
     1
290
     0
176
     1
290
     0
176
     1
290
     0
176
     1
290
     0
176
     1
290
     0
176
     1
 90
       50
176
     1
 40
0.0
176
     1
 40
1.0
176
     1
 90
        0
176
     1
 62
    18
420
        0
176
     1
 90
       50
176
     1
 90
        3
176
     1
 62
     5
420
      255
176
     1
290
     0
176
     1
 90
       50
176
     1
 90
       50
176
     1
 90
       50
176
     1
290
     0
176
     1
 90
       50
176
     1
 62
   256
176
     0
 40
1.0
176
     0
 90
        2
176
     1
  1
strokes_ogs.tif
176
     1
290
     0
176
     1
 40
1.0
176
     1
 40
1.0
176
     1
  0
VISUALSTYLE
  5
59D
102
{ACAD_REACTORS
330
585
102
}
330
585
100
AcDbVisualStyle
  2
Shaded
 70
    27
177
     3
291
     0
 70
    58
 90
        2
176
     1
 90
        2
176
     1
 90
        1
176
     1
 90
        2
176
     1
 40
0.6
176
     1
 40
30.0
176
     1
 62
     7
420
 16777215
176
     1
 90
        0
176
     1
 90
        4
176
     1
 62
     7
176
     1
 62
   257
176
     1
 90
        1
176
     1
 90
        1
176
     1
 40
1.0
176
     1
 90
        8
176
     1
 62
   257
176
     1
 40
1.0
176
     1
 90
        1
176
     1
 90
        6
176
     1
 90
        2
176
     1
 62
     8
420
  7895160
176
     1
 90
        3
176
     1
 90
        0
176
     1
 90
        0
176
     1
290
     0
176
     1
 90
        5
176
     1
 40
0.0
176
     1
 90
        0
176
     1
290
     0
176
     1
290
     1
176
     1
290
     1
176
     1
290
     0
176
     1
290
     0
176
     1
290
     0
176
     1
290
     0
176
     1
290
     0
176
     1
290
     0
176
     1
 90
       50
176
     1
 40
0.0
176
     1
 40
1.0
176
     1
 90
        0
176
     1
 62
    18
420
        0
176
     1
 90
       50
176
     1
 90
        3
176
     1
 62
     5
420
      255
176
     1
290
     0
176
     1
 90
       50
176
     1
 90
       50
176
     1
 90
       50
176
     1
290
     0
176
     1
 90
       50
176
     1
 62
   256
176
     0
 40
1.0
176
     0
 90
        2
176
     1
  1
strokes_ogs.tif
176
     1
290
     0
176
     1
 40
1.0
176
     1
 40
1.0
176
     1
  0
VISUALSTYLE
  5
59C
102
{ACAD_REACTORS
330
585
102
}
330
585
100
AcDbVisualStyle
  2
Shaded with edges
 70
    26
177
     3
291
     0
 70
    58
 90
        2
176
     1
 90
        2
176
     1
 90
        1
176
     1
 90
        2
176
     1
 40
0.6
176
     1
 40
30.0
176
     1
 62
     7
420
 16777215
176
     1
 90
        1
176
     1
 90
       10
176
     1
 62
     7
176
     1
 62
   257
176
     1
 90
        2
176
     1
 90
        1
176
     1
 40
1.0
176
     1
 90
        8
176
     1
 62
   257
176
     1
 40
1.0
176
     1
 90
        1
176
     1
 90
        6
176
     1
 90
        2
176
     1
 62
     7
176
     1
 90
        3
176
     1
 90
        0
176
     1
 90
        0
176
     1
290
     0
176
     1
 90
        5
176
     1
 40
0.0
176
     1
 90
        0
176
     1
290
     0
176
     1
290
     1
176
     1
290
     1
176
     1
290
     0
176
     1
290
     0
176
     1
290
     0
176
     1
290
     0
176
     1
290
     0
176
     1
290
     0
176
     1
 90
       50
176
     1
 40
0.0
176
     1
 40
1.0
176
     1
 90
        0
176
     1
 62
    18
420
        0
176
     1
 90
       50
176
     1
 90
        3
176
     1
 62
     5
420
      255
176
     1
290
     0
176
     1
 90
       50
176
     1
 90
       50
176
     1
 90
       50
176
     1
290
     0
176
     1
 90
       50
176
     1
 62
   256
176
     0
 40
1.0
176
     0
 90
        2
176
     1
  1
strokes_ogs.tif
176
     1
290
     0
176
     1
 40
1.0
176
     1
 40
1.0
176
     1
  0
VISUALSTYLE
  5
599
102
{ACAD_REACTORS
330
585
102
}
330
585
100
AcDbVisualStyle
  2
Shades of Gray
 70
    23
177
     3
291
     0
 70
    58
 90
        2
176
     1
 90
        2
176
     1
 90
        3
176
     1
 90
        0
176
     1
 40
0.6
176
     1
 40
30.0
176
     1
 62
     7
420
 16777215
176
     1
 90
        2
176
     1
 90
        2
176
     1
 62
     7
176
     1
 62
     7
176
     1
 90
        1
176
     1
 90
        1
176
     1
 40
40.0
176
     1
 90
        8
176
     1
 62
     7
176
     1
 40
1.0
176
     1
 90
        1
176
     1
 90
        6
176
     1
 90
        2
176
     1
 62
     7
176
     1
 90
        3
176
     1
 90
        0
176
     1
 90
        0
176
     1
290
     0
176
     1
 90
        1
176
     1
 40
0.0
176
     1
 90
        0
176
     1
290
     0
176
     1
290
     1
176
     1
290
     1
176
     1
290
     0
176
     1
290
     0
176
     1
290
     0
176
     1
290
     0
176
     1
290
     0
176
     1
290
     0
176
     1
 90
       50
176
     1
 40
0.0
176
     1
 40
1.0
176
     1
 90
        0
176
     1
 62
    18
420
        0
176
     1
 90
       50
176
     1
 90
        3
176
     1
 62
     5
420
      255
176
     1
290
     0
176
     1
 90
       50
176
     1
 90
       50
176
     1
 90
       50
176
     1
290
     0
176
     1
 90
       50
176
     1
 62
   256
176
     0
 40
1.0
176
     0
 90
        2
176
     1
  1
strokes_ogs.tif
176
     1
290
     0
176
     1
 40
1.0
176
     1
 40
1.0
176
     1
  0
VISUALSTYLE
  5
59A
102
{ACAD_REACTORS
330
585
102
}
330
585
100
AcDbVisualStyle
  2
Sketchy
 70
    24
177
     3
291
     0
 70
    58
 90
        1
176
     1
 90
        2
176
     1
 90
        2
176
     1
 90
        0
176
     1
 40
0.6
176
     1
 40
30.0
176
     1
 62
     7
420
 16777215
176
     1
 90
        2
176
     1
 90
        2
176
     1
 62
     7
176
     1
 62
     7
176
     1
 90
        1
176
     1
 90
        1
176
     1
 40
40.0
176
     1
 90
       11
176
     1
 62
     7
176
     1
 40
1.0
176
     1
 90
        1
176
     1
 90
        6
176
     1
 90
        2
176
     1
 62
     7
176
     1
 90
        6
176
     1
 90
        0
176
     1
 90
        0
176
     1
290
     0
176
     1
 90
        1
176
     1
 40
0.0
176
     1
 90
        0
176
     1
290
     0
176
     1
290
     1
176
     1
290
     1
176
     1
290
     0
176
     1
290
     0
176
     1
290
     0
176
     1
290
     0
176
     1
290
     0
176
     1
290
     0
176
     1
 90
       50
176
     1
 40
0.0
176
     1
 40
1.0
176
     1
 90
        0
176
     1
 62
    18
420
        0
176
     1
 90
       50
176
     1
 90
        3
176
     1
 62
     5
420
      255
176
     1
290
     0
176
     1
 90
       50
176
     1
 90
       50
176
     1
 90
       50
176
     1
290
     0
176
     1
 90
       50
176
     1
 62
   256
176
     0
 40
1.0
176
     0
 90
        2
176
     1
  1
strokes_ogs.tif
176
     1
290
     0
176
     1
 40
1.0
176
     1
 40
1.0
176
     1
  0
VISUALSTYLE
  5
592
102
{ACAD_REACTORS
330
585
102
}
330
585
100
AcDbVisualStyle
  2
Thicken
 70
    13
177
     3
291
     1
 70
    58
 90
        2
176
     1
 90
        2
176
     1
 90
        0
176
     1
 90
        0
176
     1
 40
0.6
176
     1
 40
30.0
176
     1
 62
     7
420
 16777215
176
     1
 90
        1
176
     1
 90
        4
176
     1
 62
     7
176
     1
 62
   257
176
     1
 90
        1
176
     1
 90
        1
176
     1
 40
1.0
176
     1
 90
       12
176
     1
 62
     7
176
     1
 40
1.0
176
     1
 90
        1
176
     1
 90
        6
176
     1
 90
        2
176
     1
 62
     7
176
     1
 90
        5
176
     1
 90
        0
176
     1
 90
        0
176
     1
290
     0
176
     1
 90
        1
176
     1
 40
0.0
176
     1
 90
        0
176
     1
290
     0
176
     1
290
     1
176
     1
290
     1
176
     1
290
     0
176
     1
290
     0
176
     1
290
     0
176
     1
290
     0
176
     1
290
     0
176
     1
290
     0
176
     1
 90
       50
176
     1
 40
0.0
176
     1
 40
1.0
176
     1
 90
        0
176
     1
 62
    18
420
        0
176
     1
 90
       50
176
     1
 90
        3
176
     1
 62
     5
420
      255
176
     1
290
     0
176
     1
 90
       50
176
     1
 90
       50
176
     1
 90
       50
176
     1
290
     0
176
     1
 90
       50
176
     1
 62
   256
176
     0
 40
1.0
176
     0
 90
        2
176
     1
  1
strokes_ogs.tif
176
     1
290
     0
176
     1
 40
1.0
176
     1
 40
1.0
176
     1
  0
VISUALSTYLE
  5
58B
102
{ACAD_REACTORS
330
585
102
}
330
585
100
AcDbVisualStyle
  2
Wireframe
 70
     5
177
     3
291
     0
 70
    58
 90
        0
176
     1
 90
        2
176
     1
 90
        0
176
     1
 90
        0
176
     1
 40
0.6
176
     1
 40
30.0
176
     1
 62
     7
420
 16777215
176
     1
 90
        1
176
     1
 90
        4
176
     1
 62
     7
176
     1
 62
   257
176
     1
 90
        1
176
     1
 90
        1
176
     1
 40
1.0
176
     1
 90
        0
176
     1
 62
   257
176
     1
 40
1.0
176
     1
 90
        1
176
     1
 90
        6
176
     1
 90
        2
176
     1
 62
     7
176
     1
 90
        3
176
     1
 90
        0
176
     1
 90
        0
176
     1
290
     0
176
     1
 90
        1
176
     1
 40
0.0
176
     1
 90
        0
176
     1
290
     0
176
     1
290
     1
176
     1
290
     1
176
     1
290
     0
176
     1
290
     0
176
     1
290
     0
176
     1
290
     0
176
     1
290
     0
176
     1
290
     0
176
     1
 90
       50
176
     1
 40
0.0
176
     1
 40
1.0
176
     1
 90
        0
176
     1
 62
    18
420
        0
176
     1
 90
       50
176
     1
 90
        3
176
     1
 62
     5
420
      255
176
     1
290
     0
176
     1
 90
       50
176
     1
 90
       50
176
     1
 90
       50
176
     1
290
     0
176
     1
 90
       50
176
     1
 62
   256
176
     0
 40
1.0
176
     0
 90
        2
176
     1
  1
strokes_ogs.tif
176
     1
290
     0
176
     1
 40
1.0
176
     1
 40
1.0
176
     1
  0
VISUALSTYLE
  5
59B
102
{ACAD_REACTORS
330
585
102
}
330
585
100
AcDbVisualStyle
  2
X-Ray
 70
    25
177
     3
291
     0
 70
    58
 90
        2
176
     1
 90
        2
176
     1
 90
        1
176
     1
 90
        1
176
     1
 40
0.5
176
     1
 40
30.0
176
     1
 62
     7
420
 16777215
176
     1
 90
        1
176
     1
 90
        0
176
     1
 62
     7
176
     1
 62
   257
176
     1
 90
        1
176
     1
 90
        1
176
     1
 40
1.0
176
     1
 90
        8
176
     1
 62
     7
176
     1
 40
1.0
176
     1
 90
        1
176
     1
 90
        6
176
     1
 90
        2
176
     1
 62
     7
176
     1
 90
        3
176
     1
 90
        0
176
     1
 90
        0
176
     1
290
     0
176
     1
 90
       13
176
     1
 40
0.0
176
     1
 90
        0
176
     1
290
     0
176
     1
290
     1
176
     1
290
     1
176
     1
290
     0
176
     1
290
     0
176
     1
290
     0
176
     1
290
     0
176
     1
290
     0
176
     1
290
     0
176
     1
 90
       50
176
     1
 40
0.0
176
     1
 40
1.0
176
     1
 90
        0
176
     1
 62
    18
420
        0
176
     1
 90
       50
176
     1
 90
        3
176
     1
 62
     5
420
      255
176
     1
290
     0
176
     1
 90
       50
176
     1
 90
       50
176
     1
 90
       50
176
     1
290
     0
176
     1
 90
       50
176
     1
 62
   256
176
     0
 40
1.0
176
     0
 90
        2
176
     1
  1
strokes_ogs.tif
176
     1
290
     0
176
     1
 40
1.0
176
     1
 40
1.0
176
     1
  0
DICTIONARYVAR
  5
5B4
102
{ACAD_REACTORS
330
5B3
102
}
330
5B3
100
DictionaryVariables
280
     0
  1
1:1
  0
DICTIONARYVAR
  5
5B8
102
{ACAD_REACTORS
330
5B3
102
}
330
5B3
100
DictionaryVariables
280
     0
  1
Standard
  0
CSACDOCUMENTOPTIONS
  5
5A9
102
{ACAD_REACTORS
330
5A8
102
}
330
5A8
  0
XRECORD
  5
5AD
102
{ACAD_REACTORS
330
5A4
102
}
330
5A4
100
AcDbXrecord
280
     1
300
MC_VERSION_DATA
 90
       95
310
0600000002000000570000001C000000E404000000000000000000007801936764E5D8CF7A8393818115C460606066E0646662626666706006F214793899F8DE3171E725E6E53B3BBA2878E6951050AF75FEFFFFFF520032DE0F3057000000
  0
XRECORD
  5
5A5
102
{ACAD_REACTORS
330
5A4
102
}
330
5A4
100
AcDbXrecord
280
     1
300
MCS_DOCUMENT_ID
 90
       60
310
0600000002000000150000001C000000E404000000000000000000007801E3F5DC3CBFA8F656B0CFE43E8703A76F14D7FF07020075800CC315000000
  0
XRECORD
  5
5AB
102
{ACAD_REACTORS
330
5A4
102
}
330
5A4
100
AcDbXrecord
280
     1
300
MCS_PARAMS_DATA
 90
     3313
310
0600000002000000F64B00001C000000E404000000000000000000007801C55C5B905C45199EE99EBDCCE67E5DA218172C303B91307B4B8C459531245054850D55591F78B236BB49B9BAC9E6B22A082A9655BE5865596569A965F9209288CF16503EC8834088C10B092404211702988430422E9084CDAEFFD7A7FBF4DFA7CF
310
D9D99D9D39930798FF3F7DCEF7DFFAFBBBFBCC6CDBFC46297252EECB48F9CDF5ED5234493921A5206D76815820B252E4F3225F128D7D5F59BF69E3162948D9A2D485B3131313747328BF06593E960915079422437734AA3BDAA5CCD053F5ED4FD2557D257BAB94DF007A03479F859BB2B22193C9108EC1CDCADC0464C27506
310
28605703E48886E0B986E10F03BF91E33707F8E3140E7A9091C8268236920C1C662240B94888A1C8E07600AE99C32D5131CA8B3925D172EFE62D7D6D9DABBA8ADDD6F17CE16D13F0457AE8AC9268DE32DABF73B07FCFA013F9BF8491D7C17E2550D8E8FFCA8DFE4E98B3929B331718B291824FFF72EB941D9E8E2211D5A93C
310
784A44C557923911258BD0C8640531AEEC61A924855B11378280384364A422680C0A928DB9C10CD89D581114199665B722B26E4590C82B0222AB08FAA8A60626C028E0044F81BA246F5360E167F2D27C56A10E05C058C13C59DEC6207679103AFC5DEADF992F2B284F67B31C8EE359B64A9665A62453228F64269D98455E3B
310
A4B35817F7EC92C86FB8EFFE8DBD5BEEDBDCAB0CD3B5FC8E99065A7E55D536E39DE7826237F1C8BBBCB3CFADFC93302087C80397EE69C2FF69CA32234F0763E41851010DA578E8294D435524988818E84710A7B2643B4F7C034F6CE5C9368F203BE8094C6268541D70D35EE4B585DAE170F4942EB8D2D422560A9917F34B62
310
CE86919D9F1F6DDBB36DD770FFC0B6BC682E898607BEB5737424F8D83B323AF07529CFC0B69BB96D9FD3CFF9B410ED79B1A42416161FEA29AEEDEEEC5ADF532C76DEF3C5AEEEB5CAECF97A60330D2C1C3579EAD0DA7621F20269BD6768746FDBF0D0DE51F3B0EE356B3ABBD6F474F7740D76770EACED08FCFC92BEAF13F701
310
B5AF7FEBF0B6B691ED6D7D23C3DBF6F4EF840FDA9AD583C58E81E240FFEAADDD5BD70EAC0E669D2A25F27FB610851F9335859F059541B9E5971EC7A5A7E83F2CE53DB9A4040555A2661A4DDBF2C560B2E54E7D5483931EF871F7C88E5DFDA3435B878687461F6EDB313248FE3596847C70DBDEBC682809D13B22E56A5856E4
310
E9998738519B6E2A89DCE6EDDBDB542AF4E4380F8F61A4965F57116093E5A052A06AF588670205D9A715FB49B140D81A90855F902680EBB8B3A3187EEA96F2B224E392BAF898328CB1AD47DA34C1601A1B421AD816D190715CC3F276A5DE067C546F03AED6DB808FEB6DC0B57A1BB00853B49EB3E0937A47E07ABD0D188301
310
71CB797197D3603B1D06BFCB6DB024827C0C834324E60945463B3712E196397079076E990B47228783C8E09631B8F129C211385B3E540C97413DC70673C524DEAD70BD23917B079179B782793791AE77D944EFDCDC5529988B13E1069D6092C472A7F777A6F648E4C184C88239C8822913E16AE29D48176E29E0727C316496
310
EF2A967C95165E504B0C2B218EEE82DD5C63513CD614C5091F6D6FA7551865CC5C5030A1E0A3E84BEC86CFD04EC5DD01AA74CBDB05AB8C403295A124BB2908C4B032B4682A032283FB103E391B4E03172C7199C4E0F88E871E8855ADA1482D3238FA1846E0B807A77785BFF935FE1D74369F5647D0D171CA5F4F09337C2559
310
105132935A503D6DBC7A94B54D2B6DF1E0339960F436A97441791E5EC104D40283580888C4FDED577B1FD8B4B9AF6FE30605D8AAD7F1F34A62F6DD5BBEC62E92057A31FEA25A9DB3F5FBD3C1729D9CD723B0BF0DE8402BB05A67160DDE4416E59079C0D9EAA575B7321F67115FC018C76AB5B3A33D06B68CBD9BFBDC93C073
310
800CC384FD360C544F539B6F02B1820953BE9D01DE01C0D85A6C50369A5AC4065C7760793B965800321749E4B50891C0C2AB0CAE9808178444974C70F875952A9381563C01BE9D08EAFA481283ABD8C7EF7870DAABE068E68833DFAC8EA0A3E3F87C0B07AA507B2311F0889285BDC333294C4E2DB27C67BA70ABD2857B688A
310
70552AA7873DB8489E55063D5D2DCBE9BB9E49F1E554A5083C922EDCA3E9C27D2F5DB8EF7B705EE9D87E1E920E88313AAE6AECF4FBD668D3D30DB4E51ADA9BEDB0D7AFCEB4DDED85F7C4ECF6551B3BCE2AFF6E835E49458EC94883D6E73C45753FAE614C3C0A0362777435D915EC025C33F7578776011DE6F3D066954C59D6
310
D76F86AC9CD58A53F4122CF0552BAE070AEA3B5AF15752304F1F47569D50AB71F41A31FA5A51C904CD43C6B0F51D2ACEFC112ACC4CC1B0FF086CE7AD5A4D096A005126387AAD451EE384D9C035A925859E39C1AA865EE9A9B8DA21CEE289167F7CF1D4C4BC7A125EC5AED5D8BB0B5A9D9144D134CFA71BF85A8D44BE568348
310
F6AA55A2F3CAEA4F6982FD21118CC249D3CBF852A586F244BA70FBD285DB9F085793EDE56E143F0AD06C6B4CB2242BDD3DD1419166C2865E81F9CE1648F3CBD84597B22E28992A3DDCE24C77F3F311A01C8A722828EC3CF15F7D987933F818F8E59BC138E5CD4CE8AC24C94E68BA32F5C3CBAB808B6B06B9936E642F9F804C
310
903AF2F3709D37832318A078E4B37AEBDCFAA66859945B9EBB25776BAE2DD3995995E9CA1433DDFA4DAC7ECE6FE93696E96BB06712968ED2661884A9EE40230F60D0D73DE8C858453B9E8E4212D5A9B0784A762662599FEDD18C9299F4094C728A91F536658E91CDA6DFC8E89F363B15B4CB31404FD2581CF722BBF229B517
310
430944E56AB2E2A8E3461950730F2B7ECA7BC570E389706E8BA9D241C744225C40C29385944F707279EA277D998065D9EAD604B1263E66D38513E9C2490F4EE7CC6E8AA89C3D9DA588701CA708AB6414C194931EE3FC0D4515D71A4FBFE712F8CB4A26532A6E8DCF01CA61A3745BE3F3C09F6E6B442F0CD7BAD36A8D2F002E
310
AE359E3BE646F6B8926D6BBC0CD9926FBEF08C5220B9BAE91D0E14769FF44B52301E3C00E8FA74C117BD24F396E22C7F1005F2DA2902EB76053DE720B0D3EE397F2F036AE8B24A3DE750225C4DF8F8A544B81AF69C7F2482D6C4C77F067093EF36FE359541FF8E0E8A50399BA22F63681CEF0EBDEBB2C3834A9E09EF1E0654
310
1D79F708F0A7CBBB956F495E015C1CEFEE3EEC46B65FC996771F856C09285F58A7148C77872F6104D6DC9A8897D30896D457015D1FDE3DEA25B91CEFF2EBD6EB0A68F718A0D3A6DDD7CA805699768F27C2D584925E4F84AB9476A39B03E744D09CD6610FF59F44E89A78FA46BA70DDDE0ADC144A4DBCEBF1E0221D416DC23D
310
1D715254A766A8A7AC60C1FF26021ED7783E889CD89C52F24C1ACF0940D5B1F19C047E7A8DE714E0E21ACFD5436EE339AB64DB78E44B91C6730003ECCB897CE1D28548E3798246B0C6731AD0536D3CB3E90740046E0B5FD5161351555C247A084506FA9607AAEBD39C44F1E2B63A5BDCA18E17B755B2E2664A322602C34C3A
310
0393625B51C09BC60D77315EF1E1C8DB80730A9C37D5B8CD0EBF3EA3A6FB4EA2A7C18B1B2746D53A5F7BB70C687C78291FE10E3A386EE3054657F9CB297E9CF703B0E71DFC4DA3397B4068C3CF33A1A81F02C2C920DB8E7ABF712005813923946BAE06DE453454B45CC32AF6311810C751E3F85A979E7874424F9299B34AB2
310
210DC430A45A3473162283FB2F3218C7FE178FBB1CF59692CDAD957C0DECAC3739580882F7E26636C4FC0874E66F42CE013F2EB274A4C323CBB88082C5B980AE4CFD4DC879C0C5B1FFF5E7DDC89E57324556799F2F34BC006EC70CD18A8318C0D9FF0AB6807CDBB19F46B0A4BE07E8B4D9FF8207EA504E3D7E65FA3E4C7226
310
B329B0E8D703AAFEBAA304E869379E693123CD68457958A4FF2F11AE86ECFF4119D078F6E7138AD87FF2370F86D6E1E38789702D76FED2134932CCA824CB8C811832A3160D33426421BD980847AF6F0C11D33DEECB1CFE9B7175D1F926045DE5BD8DBFBDBE94081764D0049324E6DDB40A8607F372225C4D16463974B5B836
310
F393232E193EA2E499B49986C93A780A6DA631A981D7A6CD34012EAECDFCFC5937B23F52B26D33BF83CCDBCC56A5C0ECD07DE7A7A7226D661D8D6033A419D0536D33E07F56B8C4CA7C0D48229F9610695A461A0883CE7B494E8DD95B004DF38E8247AB09FE45AC1A52EDAC32A0861DD8DA85D8A76276989D08579353913989
310
700119397510D9BB4CAB9DF096393711B4263ECE4B176E7EBA700B3C389DB3F0B5335AA6A7234288EA142D784A9083AFB414616018456CF24C3293C4CD2F49D3E5A5F0410CEE7E0F2E6A6FEA11580893E29AEE529C2FC11C4DF48D4AA628982DB44A422820F8563073C8F989CF2240392BED74F7768B819FDEDE6E09E0E29A
310
EE72FA030B3CB273954C91D5916E87CC9BEEFB4FAB1E6B73B10CFB6CBEB73B4423589D2D05F4CC9AAE2E4C768646F0614DBB4BD40606DDEA2539B5A67B13A0D36EBACBCA809A9055A7E9E24B8E0D79912B896C91FE0C1655C17843E129FA335B3277F4E8510807513CB9CC44868E210AF7FE19028691B0917E39482B125CF8
310
D4FF01F0B312DAF64B0000
  0
TABLECONTENT
  5
5AF
330
5B2
100
AcDbLinkedData
  1

300

100
AcDbLinkedTableData
 90
        5
300
COLUMN
  1
LINKEDTABLEDATACOLUMN_BEGIN
300

 91
        0
301
CUSTOMDATA
  1
DATAMAP_BEGIN
 90
        0
309
DATAMAP_END
309
LINKEDTABLEDATACOLUMN_END
  1
FORMATTEDTABLEDATACOLUMN_BEGIN
300
COLUMNTABLEFORMAT
  1
TABLEFORMAT_BEGIN
 90
        3
170
     0
309
TABLEFORMAT_END
309
FORMATTEDTABLEDATACOLUMN_END
  1
TABLECOLUMN_BEGIN
 90
        0
 40
10.0
309
TABLECOLUMN_END
300
COLUMN
  1
LINKEDTABLEDATACOLUMN_BEGIN
300

 91
        0
301
CUSTOMDATA
  1
DATAMAP_BEGIN
 90
        0
309
DATAMAP_END
309
LINKEDTABLEDATACOLUMN_END
  1
FORMATTEDTABLEDATACOLUMN_BEGIN
300
COLUMNTABLEFORMAT
  1
TABLEFORMAT_BEGIN
 90
        3
170
     0
309
TABLEFORMAT_END
309
FORMATTEDTABLEDATACOLUMN_END
  1
TABLECOLUMN_BEGIN
 90
        0
 40
10.0
309
TABLECOLUMN_END
300
COLUMN
  1
LINKEDTABLEDATACOLUMN_BEGIN
300

 91
        0
301
CUSTOMDATA
  1
DATAMAP_BEGIN
 90
        0
309
DATAMAP_END
309
LINKEDTABLEDATACOLUMN_END
  1
FORMATTEDTABLEDATACOLUMN_BEGIN
300
COLUMNTABLEFORMAT
  1
TABLEFORMAT_BEGIN
 90
        3
170
     0
309
TABLEFORMAT_END
309
FORMATTEDTABLEDATACOLUMN_END
  1
TABLECOLUMN_BEGIN
 90
        0
 40
10.0
309
TABLECOLUMN_END
300
COLUMN
  1
LINKEDTABLEDATACOLUMN_BEGIN
300

 91
        0
301
CUSTOMDATA
  1
DATAMAP_BEGIN
 90
        0
309
DATAMAP_END
309
LINKEDTABLEDATACOLUMN_END
  1
FORMATTEDTABLEDATACOLUMN_BEGIN
300
COLUMNTABLEFORMAT
  1
TABLEFORMAT_BEGIN
 90
        3
170
     0
309
TABLEFORMAT_END
309
FORMATTEDTABLEDATACOLUMN_END
  1
TABLECOLUMN_BEGIN
 90
        0
 40
40.0
309
TABLECOLUMN_END
300
COLUMN
  1
LINKEDTABLEDATACOLUMN_BEGIN
300

 91
        0
301
CUSTOMDATA
  1
DATAMAP_BEGIN
 90
        0
309
DATAMAP_END
309
LINKEDTABLEDATACOLUMN_END
  1
FORMATTEDTABLEDATACOLUMN_BEGIN
300
COLUMNTABLEFORMAT
  1
TABLEFORMAT_BEGIN
 90
        3
170
     0
309
TABLEFORMAT_END
309
FORMATTEDTABLEDATACOLUMN_END
  1
TABLECOLUMN_BEGIN
 90
        0
 40
20.0
309
TABLECOLUMN_END
 91
        5
301
ROW
  1
LINKEDTABLEDATAROW_BEGIN
 90
        5
300
CELL
  1
LINKEDTABLEDATACELL_BEGIN
 90
        0
300

 91
        0
301
CUSTOMDATA
  1
DATAMAP_BEGIN
 90
        1
300
ACAD_ROUNDTRIP_2008_CELL_CHECKSUM
301
DATAMAP_VALUE
 93
        2
 90
        2
140
32.0
 94
        0
300

302

304
ACVALUE_END
309
DATAMAP_END
 92
        0
 95
        1
302
CONTENT
  1
CELLCONTENT_BEGIN
 90
        1
300
VALUE
 93
        2
 90
        4
  1
 
 94
        0
300

302
 
304
ACVALUE_END
 91
        0
309
CELLCONTENT_END
  1
FORMATTEDCELLCONTENT_BEGIN
170
     1
300
CONTENTFORMAT
  1
CONTENTFORMAT_BEGIN
 90
      132
 91
        0
 92
      512
 93
        0
300

 40
0.0
140
1.0
 94
        1
 62
     0
340
0
144
3.5
309
CONTENTFORMAT_END
309
FORMATTEDCELLCONTENT_END
309
LINKEDTABLEDATACELL_END
  1
FORMATTEDTABLEDATACELL_BEGIN
300
CELLTABLEFORMAT
  1
TABLEFORMAT_BEGIN
 90
        1
170
     1
 91
        0
 92
        0
 62
   257
 93
        1
300
CONTENTFORMAT
  1
CONTENTFORMAT_BEGIN
 90
        0
 91
        0
 92
      512
 93
        0
300

 40
0.0
140
1.0
 94
        1
 62
     0
340
0
144
0.18
309
CONTENTFORMAT_END
171
     0
 94
        0
309
TABLEFORMAT_END
309
FORMATTEDTABLEDATACELL_END
  1
TABLECELL_BEGIN
 90
        0
 91
        0
309
TABLECELL_END
300
CELL
  1
LINKEDTABLEDATACELL_BEGIN
 90
        0
300

 91
        0
301
CUSTOMDATA
  1
DATAMAP_BEGIN
 90
        0
309
DATAMAP_END
 92
        0
 95
        0
309
LINKEDTABLEDATACELL_END
  1
FORMATTEDTABLEDATACELL_BEGIN
300
CELLTABLEFORMAT
  1
TABLEFORMAT_BEGIN
 90
        1
170
     1
 91
        0
 92
        0
 62
   257
 93
        1
300
CONTENTFORMAT
  1
CONTENTFORMAT_BEGIN
 90
        0
 91
        0
 92
      512
 93
        0
300

 40
0.0
140
1.0
 94
        1
 62
     0
340
0
144
0.18
309
CONTENTFORMAT_END
171
     0
 94
        0
309
TABLEFORMAT_END
309
FORMATTEDTABLEDATACELL_END
  1
TABLECELL_BEGIN
 90
        0
 91
        0
309
TABLECELL_END
300
CELL
  1
LINKEDTABLEDATACELL_BEGIN
 90
        0
300

 91
        0
301
CUSTOMDATA
  1
DATAMAP_BEGIN
 90
        0
309
DATAMAP_END
 92
        0
 95
        0
309
LINKEDTABLEDATACELL_END
  1
FORMATTEDTABLEDATACELL_BEGIN
300
CELLTABLEFORMAT
  1
TABLEFORMAT_BEGIN
 90
        1
170
     1
 91
        0
 92
        0
 62
   257
 93
        1
300
CONTENTFORMAT
  1
CONTENTFORMAT_BEGIN
 90
        0
 91
        0
 92
      512
 93
        0
300

 40
0.0
140
1.0
 94
        1
 62
     0
340
0
144
0.18
309
CONTENTFORMAT_END
171
     0
 94
        0
309
TABLEFORMAT_END
309
FORMATTEDTABLEDATACELL_END
  1
TABLECELL_BEGIN
 90
        0
 91
        0
309
TABLECELL_END
300
CELL
  1
LINKEDTABLEDATACELL_BEGIN
 90
        0
300

 91
        0
301
CUSTOMDATA
  1
DATAMAP_BEGIN
 90
        1
300
ACAD_ROUNDTRIP_2008_CELL_CHECKSUM
301
DATAMAP_VALUE
 93
        2
 90
        2
140
2312.0
 94
        0
300

302

304
ACVALUE_END
309
DATAMAP_END
 92
        0
 95
        1
302
CONTENT
  1
CELLCONTENT_BEGIN
 90
        1
300
VALUE
 93
        2
 90
        4
  1
SK2200_C
 94
        0
300

302
SK2200_C
304
ACVALUE_END
 91
        0
309
CELLCONTENT_END
  1
FORMATTEDCELLCONTENT_BEGIN
170
     1
300
CONTENTFORMAT
  1
CONTENTFORMAT_BEGIN
 90
      132
 91
        0
 92
      512
 93
        0
300

 40
0.0
140
1.0
 94
        1
 62
     0
340
0
144
3.0
309
CONTENTFORMAT_END
309
FORMATTEDCELLCONTENT_END
309
LINKEDTABLEDATACELL_END
  1
FORMATTEDTABLEDATACELL_BEGIN
300
CELLTABLEFORMAT
  1
TABLEFORMAT_BEGIN
 90
        1
170
     1
 91
       16
 92
        0
 62
   257
 93
        1
300
CONTENTFORMAT
  1
CONTENTFORMAT_BEGIN
 90
       16
 91
        0
 92
      512
 93
        0
300

 40
0.0
140
1.0
 94
        4
 62
     0
340
0
144
0.18
309
CONTENTFORMAT_END
171
     0
 94
        4
 95
        1
302
GRIDFORMAT
  1
GRIDFORMAT_BEGIN
 90
       26
 91
        1
 62
     0
 92
       -2
340
0
 93
        0
 40
0.045
309
GRIDFORMAT_END
 95
        4
302
GRIDFORMAT
  1
GRIDFORMAT_BEGIN
 90
       26
 91
        1
 62
     0
 92
       -2
340
0
 93
        0
 40
0.045
309
GRIDFORMAT_END
 95
        8
302
GRIDFORMAT
  1
GRIDFORMAT_BEGIN
 90
       26
 91
        1
 62
     0
 92
       -2
340
0
 93
        0
 40
0.045
309
GRIDFORMAT_END
 95
       32
302
GRIDFORMAT
  1
GRIDFORMAT_BEGIN
 90
       26
 91
        1
 62
     0
 92
       -2
340
0
 93
        0
 40
0.045
309
GRIDFORMAT_END
309
TABLEFORMAT_END
309
FORMATTEDTABLEDATACELL_END
  1
TABLECELL_BEGIN
 90
        0
 91
        0
309
TABLECELL_END
300
CELL
  1
LINKEDTABLEDATACELL_BEGIN
 90
        0
300

 91
        0
301
CUSTOMDATA
  1
DATAMAP_BEGIN
 90
        1
300
ACAD_ROUNDTRIP_2008_CELL_CHECKSUM
301
DATAMAP_VALUE
 93
        2
 90
        2
140
1404.0
 94
        0
300

302

304
ACVALUE_END
309
DATAMAP_END
 92
        0
 95
        1
302
CONTENT
  1
CELLCONTENT_BEGIN
 90
        1
300
VALUE
 93
        2
 90
        4
  1
Rev:01
 94
        0
300

302
Rev:01
304
ACVALUE_END
 91
        0
309
CELLCONTENT_END
  1
FORMATTEDCELLCONTENT_BEGIN
170
     1
300
CONTENTFORMAT
  1
CONTENTFORMAT_BEGIN
 90
      132
 91
        0
 92
      512
 93
        0
300

 40
0.0
140
1.0
 94
        1
 62
     0
340
0
144
3.5
309
CONTENTFORMAT_END
309
FORMATTEDCELLCONTENT_END
309
LINKEDTABLEDATACELL_END
  1
FORMATTEDTABLEDATACELL_BEGIN
300
CELLTABLEFORMAT
  1
TABLEFORMAT_BEGIN
 90
        1
170
     1
 91
       16
 92
        0
 62
   257
 93
        1
300
CONTENTFORMAT
  1
CONTENTFORMAT_BEGIN
 90
       16
 91
        0
 92
      512
 93
        0
300

 40
0.0
140
1.0
 94
        1
 62
     0
340
0
144
0.18
309
CONTENTFORMAT_END
171
     0
 94
        4
 95
        1
302
GRIDFORMAT
  1
GRIDFORMAT_BEGIN
 90
       26
 91
        1
 62
     0
 92
       -2
340
0
 93
        0
 40
0.045
309
GRIDFORMAT_END
 95
        4
302
GRIDFORMAT
  1
GRIDFORMAT_BEGIN
 90
       26
 91
        1
 62
     0
 92
       -2
340
0
 93
        0
 40
0.045
309
GRIDFORMAT_END
 95
        8
302
GRIDFORMAT
  1
GRIDFORMAT_BEGIN
 90
       26
 91
        1
 62
     0
 92
       -2
340
0
 93
        0
 40
0.045
309
GRIDFORMAT_END
 95
       32
302
GRIDFORMAT
  1
GRIDFORMAT_BEGIN
 90
       26
 91
        1
 62
     0
 92
       -2
340
0
 93
        0
 40
0.045
309
GRIDFORMAT_END
309
TABLEFORMAT_END
309
FORMATTEDTABLEDATACELL_END
  1
TABLECELL_BEGIN
 90
        0
 91
        0
309
TABLECELL_END
 91
        0
301
CUSTOMDATA
  1
DATAMAP_BEGIN
 90
        0
309
DATAMAP_END
309
LINKEDTABLEDATAROW_END
  1
FORMATTEDTABLEDATAROW_BEGIN
300
ROWTABLEFORMAT
  1
TABLEFORMAT_BEGIN
 90
        2
170
     0
309
TABLEFORMAT_END
309
FORMATTEDTABLEDATAROW_END
  1
TABLEROW_BEGIN
 90
        1
 40
6.0
309
TABLEROW_END
301
ROW
  1
LINKEDTABLEDATAROW_BEGIN
 90
        5
300
CELL
  1
LINKEDTABLEDATACELL_BEGIN
 90
        0
300

 91
        0
301
CUSTOMDATA
  1
DATAMAP_BEGIN
 90
        0
309
DATAMAP_END
 92
        0
 95
        0
309
LINKEDTABLEDATACELL_END
  1
FORMATTEDTABLEDATACELL_BEGIN
300
CELLTABLEFORMAT
  1
TABLEFORMAT_BEGIN
 90
        1
170
     1
 91
        0
 92
        0
 62
   257
 93
        1
300
CONTENTFORMAT
  1
CONTENTFORMAT_BEGIN
 90
        0
 91
        0
 92
      512
 93
        0
300

 40
0.0
140
1.0
 94
        1
 62
     0
340
0
144
0.18
309
CONTENTFORMAT_END
171
     0
 94
        0
309
TABLEFORMAT_END
309
FORMATTEDTABLEDATACELL_END
  1
TABLECELL_BEGIN
 90
        0
 91
        0
309
TABLECELL_END
300
CELL
  1
LINKEDTABLEDATACELL_BEGIN
 90
        0
300

 91
        0
301
CUSTOMDATA
  1
DATAMAP_BEGIN
 90
        0
309
DATAMAP_END
 92
        0
 95
        0
309
LINKEDTABLEDATACELL_END
  1
FORMATTEDTABLEDATACELL_BEGIN
300
CELLTABLEFORMAT
  1
TABLEFORMAT_BEGIN
 90
        1
170
     1
 91
        0
 92
        0
 62
   257
 93
        1
300
CONTENTFORMAT
  1
CONTENTFORMAT_BEGIN
 90
        0
 91
        0
 92
      512
 93
        0
300

 40
0.0
140
1.0
 94
        1
 62
     0
340
0
144
0.18
309
CONTENTFORMAT_END
171
     0
 94
        0
309
TABLEFORMAT_END
309
FORMATTEDTABLEDATACELL_END
  1
TABLECELL_BEGIN
 90
        0
 91
        0
309
TABLECELL_END
300
CELL
  1
LINKEDTABLEDATACELL_BEGIN
 90
        0
300

 91
        0
301
CUSTOMDATA
  1
DATAMAP_BEGIN
 90
        0
309
DATAMAP_END
 92
        0
 95
        0
309
LINKEDTABLEDATACELL_END
  1
FORMATTEDTABLEDATACELL_BEGIN
300
CELLTABLEFORMAT
  1
TABLEFORMAT_BEGIN
 90
        1
170
     1
 91
        0
 92
        0
 62
   257
 93
        1
300
CONTENTFORMAT
  1
CONTENTFORMAT_BEGIN
 90
        0
 91
        0
 92
      512
 93
        0
300

 40
0.0
140
1.0
 94
        1
 62
     0
340
0
144
0.18
309
CONTENTFORMAT_END
171
     0
 94
        0
309
TABLEFORMAT_END
309
FORMATTEDTABLEDATACELL_END
  1
TABLECELL_BEGIN
 90
        0
 91
        0
309
TABLECELL_END
300
CELL
  1
LINKEDTABLEDATACELL_BEGIN
 90
        0
300

 91
        0
301
CUSTOMDATA
  1
DATAMAP_BEGIN
 90
        1
300
ACAD_ROUNDTRIP_2008_CELL_CHECKSUM
301
DATAMAP_VALUE
 93
        2
 90
        2
140
3105.0
 94
        0
300

302

304
ACVALUE_END
309
DATAMAP_END
 92
        0
 95
        1
302
CONTENT
  1
CELLCONTENT_BEGIN
 90
        1
300
VALUE
 93
        2
 90
        4
  1
Scale:1:1
 94
        0
300

302
Scale:1:1
304
ACVALUE_END
 91
        0
309
CELLCONTENT_END
  1
FORMATTEDCELLCONTENT_BEGIN
170
     1
300
CONTENTFORMAT
  1
CONTENTFORMAT_BEGIN
 90
      132
 91
        0
 92
      512
 93
        0
300

 40
0.0
140
1.0
 94
        1
 62
     0
340
0
144
3.5
309
CONTENTFORMAT_END
309
FORMATTEDCELLCONTENT_END
309
LINKEDTABLEDATACELL_END
  1
FORMATTEDTABLEDATACELL_BEGIN
300
CELLTABLEFORMAT
  1
TABLEFORMAT_BEGIN
 90
        1
170
     1
 91
       16
 92
        0
 62
   257
 93
        1
300
CONTENTFORMAT
  1
CONTENTFORMAT_BEGIN
 90
       16
 91
        0
 92
      512
 93
        0
300

 40
0.0
140
1.0
 94
        1
 62
     0
340
0
144
0.18
309
CONTENTFORMAT_END
171
     0
 94
        4
 95
        1
302
GRIDFORMAT
  1
GRIDFORMAT_BEGIN
 90
       26
 91
        1
 62
     0
 92
       -2
340
0
 93
        0
 40
0.045
309
GRIDFORMAT_END
 95
        4
302
GRIDFORMAT
  1
GRIDFORMAT_BEGIN
 90
       26
 91
        1
 62
     0
 92
       -2
340
0
 93
        0
 40
0.045
309
GRIDFORMAT_END
 95
        8
302
GRIDFORMAT
  1
GRIDFORMAT_BEGIN
 90
       26
 91
        1
 62
     0
 92
       -2
340
0
 93
        0
 40
0.045
309
GRIDFORMAT_END
 95
       32
302
GRIDFORMAT
  1
GRIDFORMAT_BEGIN
 90
       26
 91
        1
 62
     0
 92
       -2
340
0
 93
        0
 40
0.045
309
GRIDFORMAT_END
309
TABLEFORMAT_END
309
FORMATTEDTABLEDATACELL_END
  1
TABLECELL_BEGIN
 90
        0
 91
        0
309
TABLECELL_END
300
CELL
  1
LINKEDTABLEDATACELL_BEGIN
 90
        0
300

 91
        0
301
CUSTOMDATA
  1
DATAMAP_BEGIN
 90
        1
300
ACAD_ROUNDTRIP_2008_CELL_CHECKSUM
301
DATAMAP_VALUE
 93
        2
 90
        2
140
161.0
 94
        0
300

302

304
ACVALUE_END
309
DATAMAP_END
 92
        0
 95
        1
302
CONTENT
  1
CELLCONTENT_BEGIN
 90
        1
300
VALUE
 93
        2
 90
        4
  1
A0
 94
        0
300

302
A0
304
ACVALUE_END
 91
        0
309
CELLCONTENT_END
  1
FORMATTEDCELLCONTENT_BEGIN
170
     1
300
CONTENTFORMAT
  1
CONTENTFORMAT_BEGIN
 90
      132
 91
        0
 92
      512
 93
        0
300

 40
0.0
140
1.0
 94
        1
 62
     0
340
0
144
3.5
309
CONTENTFORMAT_END
309
FORMATTEDCELLCONTENT_END
309
LINKEDTABLEDATACELL_END
  1
FORMATTEDTABLEDATACELL_BEGIN
300
CELLTABLEFORMAT
  1
TABLEFORMAT_BEGIN
 90
        1
170
     1
 91
       16
 92
        0
 62
   257
 93
        1
300
CONTENTFORMAT
  1
CONTENTFORMAT_BEGIN
 90
       16
 91
        0
 92
      512
 93
        0
300

 40
0.0
140
1.0
 94
        4
 62
     0
340
0
144
0.18
309
CONTENTFORMAT_END
171
     0
 94
        4
 95
        1
302
GRIDFORMAT
  1
GRIDFORMAT_BEGIN
 90
       26
 91
        1
 62
     0
 92
       -2
340
0
 93
        0
 40
0.045
309
GRIDFORMAT_END
 95
        4
302
GRIDFORMAT
  1
GRIDFORMAT_BEGIN
 90
       26
 91
        1
 62
     0
 92
       -2
340
0
 93
        0
 40
0.045
309
GRIDFORMAT_END
 95
        8
302
GRIDFORMAT
  1
GRIDFORMAT_BEGIN
 90
       26
 91
        1
 62
     0
 92
       -2
340
0
 93
        0
 40
0.045
309
GRIDFORMAT_END
 95
       32
302
GRIDFORMAT
  1
GRIDFORMAT_BEGIN
 90
       26
 91
        1
 62
     0
 92
       -2
340
0
 93
        0
 40
0.045
309
GRIDFORMAT_END
309
TABLEFORMAT_END
309
FORMATTEDTABLEDATACELL_END
  1
TABLECELL_BEGIN
 90
        0
 91
        0
309
TABLECELL_END
 91
        0
301
CUSTOMDATA
  1
DATAMAP_BEGIN
 90
        0
309
DATAMAP_END
309
LINKEDTABLEDATAROW_END
  1
FORMATTEDTABLEDATAROW_BEGIN
300
ROWTABLEFORMAT
  1
TABLEFORMAT_BEGIN
 90
        2
170
     0
309
TABLEFORMAT_END
309
FORMATTEDTABLEDATAROW_END
  1
TABLEROW_BEGIN
 90
        2
 40
6.0
309
TABLEROW_END
301
ROW
  1
LINKEDTABLEDATAROW_BEGIN
 90
        5
300
CELL
  1
LINKEDTABLEDATACELL_BEGIN
 90
        0
300

 91
        0
301
CUSTOMDATA
  1
DATAMAP_BEGIN
 90
        0
309
DATAMAP_END
 92
        0
 95
        0
309
LINKEDTABLEDATACELL_END
  1
FORMATTEDTABLEDATACELL_BEGIN
300
CELLTABLEFORMAT
  1
TABLEFORMAT_BEGIN
 90
        1
170
     1
 91
        0
 92
        0
 62
   257
 93
        1
300
CONTENTFORMAT
  1
CONTENTFORMAT_BEGIN
 90
        0
 91
        0
 92
      512
 93
        0
300

 40
0.0
140
1.0
 94
        1
 62
     0
340
0
144
0.18
309
CONTENTFORMAT_END
171
     0
 94
        0
309
TABLEFORMAT_END
309
FORMATTEDTABLEDATACELL_END
  1
TABLECELL_BEGIN
 90
        0
 91
        0
309
TABLECELL_END
300
CELL
  1
LINKEDTABLEDATACELL_BEGIN
 90
        0
300

 91
        0
301
CUSTOMDATA
  1
DATAMAP_BEGIN
 90
        0
309
DATAMAP_END
 92
        0
 95
        0
309
LINKEDTABLEDATACELL_END
  1
FORMATTEDTABLEDATACELL_BEGIN
300
CELLTABLEFORMAT
  1
TABLEFORMAT_BEGIN
 90
        1
170
     1
 91
        0
 92
        0
 62
   257
 93
        1
300
CONTENTFORMAT
  1
CONTENTFORMAT_BEGIN
 90
        0
 91
        0
 92
      512
 93
        0
300

 40
0.0
140
1.0
 94
        1
 62
     0
340
0
144
0.18
309
CONTENTFORMAT_END
171
     0
 94
        0
309
TABLEFORMAT_END
309
FORMATTEDTABLEDATACELL_END
  1
TABLECELL_BEGIN
 90
        0
 91
        0
309
TABLECELL_END
300
CELL
  1
LINKEDTABLEDATACELL_BEGIN
 90
        0
300

 91
        0
301
CUSTOMDATA
  1
DATAMAP_BEGIN
 90
        0
309
DATAMAP_END
 92
        0
 95
        0
309
LINKEDTABLEDATACELL_END
  1
FORMATTEDTABLEDATACELL_BEGIN
300
CELLTABLEFORMAT
  1
TABLEFORMAT_BEGIN
 90
        1
170
     1
 91
        0
 92
        0
 62
   257
 93
        1
300
CONTENTFORMAT
  1
CONTENTFORMAT_BEGIN
 90
        0
 91
        0
 92
      512
 93
        0
300

 40
0.0
140
1.0
 94
        1
 62
     0
340
0
144
0.18
309
CONTENTFORMAT_END
171
     0
 94
        0
309
TABLEFORMAT_END
309
FORMATTEDTABLEDATACELL_END
  1
TABLECELL_BEGIN
 90
        0
 91
        0
309
TABLECELL_END
300
CELL
  1
LINKEDTABLEDATACELL_BEGIN
 90
        0
300

 91
        0
301
CUSTOMDATA
  1
DATAMAP_BEGIN
 90
        1
300
ACAD_ROUNDTRIP_2008_CELL_CHECKSUM
301
DATAMAP_VALUE
 93
        2
 90
        2
140
24124.0
 94
        0
300

302

304
ACVALUE_END
309
DATAMAP_END
 92
        0
 95
        1
302
CONTENT
  1
CELLCONTENT_BEGIN
 90
        1
300
VALUE
 93
        2
 90
        4
  1
SNACK 2.2 9LED - 15W - 24Vdc
 94
        0
300

302
SNACK 2.2 9LED - 15W - 24Vdc
304
ACVALUE_END
 91
        0
309
CELLCONTENT_END
  1
FORMATTEDCELLCONTENT_BEGIN
170
     1
300
CONTENTFORMAT
  1
CONTENTFORMAT_BEGIN
 90
      132
 91
        0
 92
      512
 93
        0
300

 40
0.0
140
1.0
 94
        1
 62
     0
340
0
144
2.5
309
CONTENTFORMAT_END
309
FORMATTEDCELLCONTENT_END
309
LINKEDTABLEDATACELL_END
  1
FORMATTEDTABLEDATACELL_BEGIN
300
CELLTABLEFORMAT
  1
TABLEFORMAT_BEGIN
 90
        1
170
     1
 91
       16
 92
        0
 62
   257
 93
        1
300
CONTENTFORMAT
  1
CONTENTFORMAT_BEGIN
 90
       16
 91
        0
 92
      512
 93
        0
300

 40
0.0
140
1.0
 94
        4
 62
     0
340
0
144
0.18
309
CONTENTFORMAT_END
171
     0
 94
        4
 95
        1
302
GRIDFORMAT
  1
GRIDFORMAT_BEGIN
 90
       26
 91
        1
 62
     0
 92
       -2
340
0
 93
        0
 40
0.045
309
GRIDFORMAT_END
 95
        4
302
GRIDFORMAT
  1
GRIDFORMAT_BEGIN
 90
       26
 91
        1
 62
     0
 92
       -2
340
0
 93
        0
 40
0.045
309
GRIDFORMAT_END
 95
        8
302
GRIDFORMAT
  1
GRIDFORMAT_BEGIN
 90
       26
 91
        1
 62
     0
 92
       -2
340
0
 93
        0
 40
0.045
309
GRIDFORMAT_END
 95
       32
302
GRIDFORMAT
  1
GRIDFORMAT_BEGIN
 90
       26
 91
        1
 62
     0
 92
       -2
340
0
 93
        0
 40
0.045
309
GRIDFORMAT_END
309
TABLEFORMAT_END
309
FORMATTEDTABLEDATACELL_END
  1
TABLECELL_BEGIN
 90
        0
 91
        0
309
TABLECELL_END
300
CELL
  1
LINKEDTABLEDATACELL_BEGIN
 90
        0
300

 91
        0
301
CUSTOMDATA
  1
DATAMAP_BEGIN
 90
        0
309
DATAMAP_END
 92
        0
 95
        0
309
LINKEDTABLEDATACELL_END
  1
FORMATTEDTABLEDATACELL_BEGIN
300
CELLTABLEFORMAT
  1
TABLEFORMAT_BEGIN
 90
        1
170
     1
 91
        0
 92
        0
 62
   257
 93
        1
300
CONTENTFORMAT
  1
CONTENTFORMAT_BEGIN
 90
        0
 91
        0
 92
      512
 93
        0
300

 40
0.0
140
1.0
 94
        1
 62
     0
340
0
144
0.18
309
CONTENTFORMAT_END
171
     0
 94
        0
309
TABLEFORMAT_END
309
FORMATTEDTABLEDATACELL_END
  1
TABLECELL_BEGIN
 90
        0
 91
        0
309
TABLECELL_END
 91
        0
301
CUSTOMDATA
  1
DATAMAP_BEGIN
 90
        0
309
DATAMAP_END
309
LINKEDTABLEDATAROW_END
  1
FORMATTEDTABLEDATAROW_BEGIN
300
ROWTABLEFORMAT
  1
TABLEFORMAT_BEGIN
 90
        2
170
     0
309
TABLEFORMAT_END
309
FORMATTEDTABLEDATAROW_END
  1
TABLEROW_BEGIN
 90
        3
 40
10.0
309
TABLEROW_END
301
ROW
  1
LINKEDTABLEDATAROW_BEGIN
 90
        5
300
CELL
  1
LINKEDTABLEDATACELL_BEGIN
 90
        0
300

 91
        0
301
CUSTOMDATA
  1
DATAMAP_BEGIN
 90
        0
309
DATAMAP_END
 92
        0
 95
        0
309
LINKEDTABLEDATACELL_END
  1
FORMATTEDTABLEDATACELL_BEGIN
300
CELLTABLEFORMAT
  1
TABLEFORMAT_BEGIN
 90
        1
170
     1
 91
        0
 92
        0
 62
   257
 93
        1
300
CONTENTFORMAT
  1
CONTENTFORMAT_BEGIN
 90
        0
 91
        0
 92
      512
 93
        0
300

 40
0.0
140
1.0
 94
        1
 62
     0
340
0
144
0.18
309
CONTENTFORMAT_END
171
     0
 94
        0
309
TABLEFORMAT_END
309
FORMATTEDTABLEDATACELL_END
  1
TABLECELL_BEGIN
 90
        0
 91
        0
309
TABLECELL_END
300
CELL
  1
LINKEDTABLEDATACELL_BEGIN
 90
        0
300

 91
        0
301
CUSTOMDATA
  1
DATAMAP_BEGIN
 90
        0
309
DATAMAP_END
 92
        0
 95
        0
309
LINKEDTABLEDATACELL_END
  1
FORMATTEDTABLEDATACELL_BEGIN
300
CELLTABLEFORMAT
  1
TABLEFORMAT_BEGIN
 90
        1
170
     1
 91
        0
 92
        0
 62
   257
 93
        1
300
CONTENTFORMAT
  1
CONTENTFORMAT_BEGIN
 90
        0
 91
        0
 92
      512
 93
        0
300

 40
0.0
140
1.0
 94
        1
 62
     0
340
0
144
0.18
309
CONTENTFORMAT_END
171
     0
 94
        0
309
TABLEFORMAT_END
309
FORMATTEDTABLEDATACELL_END
  1
TABLECELL_BEGIN
 90
        0
 91
        0
309
TABLECELL_END
300
CELL
  1
LINKEDTABLEDATACELL_BEGIN
 90
        0
300

 91
        0
301
CUSTOMDATA
  1
DATAMAP_BEGIN
 90
        0
309
DATAMAP_END
 92
        0
 95
        0
309
LINKEDTABLEDATACELL_END
  1
FORMATTEDTABLEDATACELL_BEGIN
300
CELLTABLEFORMAT
  1
TABLEFORMAT_BEGIN
 90
        1
170
     1
 91
        0
 92
        0
 62
   257
 93
        1
300
CONTENTFORMAT
  1
CONTENTFORMAT_BEGIN
 90
        0
 91
        0
 92
      512
 93
        0
300

 40
0.0
140
1.0
 94
        1
 62
     0
340
0
144
0.18
309
CONTENTFORMAT_END
171
     0
 94
        0
309
TABLEFORMAT_END
309
FORMATTEDTABLEDATACELL_END
  1
TABLECELL_BEGIN
 90
        0
 91
        0
309
TABLECELL_END
300
CELL
  1
LINKEDTABLEDATACELL_BEGIN
 90
        0
300

 91
        0
301
CUSTOMDATA
  1
DATAMAP_BEGIN
 90
        1
300
ACAD_ROUNDTRIP_2008_CELL_CHECKSUM
301
DATAMAP_VALUE
 93
        2
 90
        2
140
1016.0
 94
        0
300

302

304
ACVALUE_END
309
DATAMAP_END
 92
        0
 95
        1
302
CONTENT
  1
CELLCONTENT_BEGIN
 90
        1
300
VALUE
 93
        2
 90
        4
  1
DATE:
 94
        0
300

302
DATE:
304
ACVALUE_END
 91
        0
309
CELLCONTENT_END
  1
FORMATTEDCELLCONTENT_BEGIN
170
     1
300
CONTENTFORMAT
  1
CONTENTFORMAT_BEGIN
 90
      132
 91
        0
 92
      512
 93
        0
300

 40
0.0
140
1.0
 94
        1
 62
     0
340
0
144
2.5
309
CONTENTFORMAT_END
309
FORMATTEDCELLCONTENT_END
309
LINKEDTABLEDATACELL_END
  1
FORMATTEDTABLEDATACELL_BEGIN
300
CELLTABLEFORMAT
  1
TABLEFORMAT_BEGIN
 90
        1
170
     1
 91
       16
 92
        0
 62
   257
 93
        1
300
CONTENTFORMAT
  1
CONTENTFORMAT_BEGIN
 90
       16
 91
        0
 92
      512
 93
        0
300

 40
0.0
140
1.0
 94
        4
 62
     0
340
0
144
0.18
309
CONTENTFORMAT_END
171
     0
 94
        4
 95
        1
302
GRIDFORMAT
  1
GRIDFORMAT_BEGIN
 90
       26
 91
        1
 62
     0
 92
       -2
340
0
 93
        0
 40
0.045
309
GRIDFORMAT_END
 95
        4
302
GRIDFORMAT
  1
GRIDFORMAT_BEGIN
 90
       26
 91
        1
 62
     0
 92
       -2
340
0
 93
        0
 40
0.045
309
GRIDFORMAT_END
 95
        8
302
GRIDFORMAT
  1
GRIDFORMAT_BEGIN
 90
       26
 91
        1
 62
     0
 92
       -2
340
0
 93
        0
 40
0.045
309
GRIDFORMAT_END
 95
       32
302
GRIDFORMAT
  1
GRIDFORMAT_BEGIN
 90
       26
 91
        1
 62
     0
 92
       -2
340
0
 93
        0
 40
0.045
309
GRIDFORMAT_END
309
TABLEFORMAT_END
309
FORMATTEDTABLEDATACELL_END
  1
TABLECELL_BEGIN
 90
        0
 91
        0
309
TABLECELL_END
300
CELL
  1
LINKEDTABLEDATACELL_BEGIN
 90
        0
300

 91
        0
301
CUSTOMDATA
  1
DATAMAP_BEGIN
 90
        0
309
DATAMAP_END
 92
        0
 95
        0
309
LINKEDTABLEDATACELL_END
  1
FORMATTEDTABLEDATACELL_BEGIN
300
CELLTABLEFORMAT
  1
TABLEFORMAT_BEGIN
 90
        1
170
     1
 91
        0
 92
        0
 62
   257
 93
        1
300
CONTENTFORMAT
  1
CONTENTFORMAT_BEGIN
 90
        0
 91
        0
 92
      512
 93
        0
300

 40
0.0
140
1.0
 94
        1
 62
     0
340
0
144
0.18
309
CONTENTFORMAT_END
171
     0
 94
        0
309
TABLEFORMAT_END
309
FORMATTEDTABLEDATACELL_END
  1
TABLECELL_BEGIN
 90
        0
 91
        0
309
TABLECELL_END
 91
        0
301
CUSTOMDATA
  1
DATAMAP_BEGIN
 90
        0
309
DATAMAP_END
309
LINKEDTABLEDATAROW_END
  1
FORMATTEDTABLEDATAROW_BEGIN
300
ROWTABLEFORMAT
  1
TABLEFORMAT_BEGIN
 90
        2
170
     0
309
TABLEFORMAT_END
309
FORMATTEDTABLEDATAROW_END
  1
TABLEROW_BEGIN
 90
        3
 40
5.0
309
TABLEROW_END
301
ROW
  1
LINKEDTABLEDATAROW_BEGIN
 90
        5
300
CELL
  1
LINKEDTABLEDATACELL_BEGIN
 90
        0
300

 91
        0
301
CUSTOMDATA
  1
DATAMAP_BEGIN
 90
        1
300
ACAD_ROUNDTRIP_2008_CELL_CHECKSUM
301
DATAMAP_VALUE
 93
        2
 90
        2
140
1878387.0
 94
        0
300

302

304
ACVALUE_END
309
DATAMAP_END
 92
        0
 95
        1
302
CONTENT
  1
CELLCONTENT_BEGIN
 90
        1
300
VALUE
 93
        2
 90
        4
  1
Any integral or partial reproductions are prohibited \Pwithout prior authorisation of L {\Ftxt.shx;\W0.190476;\H2.250000; }& L Luce & Light s.r.l., \Pin accordance with the law in force. \PAll rights reserved.
 94
        0
300

302
Any integral or partial reproductions are prohibited \Pwithout prior authorisation of L {\Ftxt.shx;\W0.190476;\H2.250000; }& L Luce & Light s.r.l., \Pin accordance with the law in force. \PAll rights reserved.
304
ACVALUE_END
 91
        0
309
CELLCONTENT_END
  1
FORMATTEDCELLCONTENT_BEGIN
170
     1
300
CONTENTFORMAT
  1
CONTENTFORMAT_BEGIN
 90
      132
 91
        0
 92
      512
 93
        0
300

 40
0.0
140
1.0
 94
        1
 62
     0
340
0
144
2.25
309
CONTENTFORMAT_END
309
FORMATTEDCELLCONTENT_END
309
LINKEDTABLEDATACELL_END
  1
FORMATTEDTABLEDATACELL_BEGIN
300
CELLTABLEFORMAT
  1
TABLEFORMAT_BEGIN
 90
        1
170
     1
 91
       16
 92
        0
 62
   257
 93
        1
300
CONTENTFORMAT
  1
CONTENTFORMAT_BEGIN
 90
       16
 91
        0
 92
      512
 93
        0
300

 40
0.0
140
1.0
 94
        4
 62
     0
340
0
144
0.18
309
CONTENTFORMAT_END
171
     0
 94
        4
 95
        1
302
GRIDFORMAT
  1
GRIDFORMAT_BEGIN
 90
       26
 91
        1
 62
     0
 92
       -2
340
0
 93
        0
 40
0.045
309
GRIDFORMAT_END
 95
        4
302
GRIDFORMAT
  1
GRIDFORMAT_BEGIN
 90
       26
 91
        1
 62
     0
 92
       -2
340
0
 93
        0
 40
0.045
309
GRIDFORMAT_END
 95
        8
302
GRIDFORMAT
  1
GRIDFORMAT_BEGIN
 90
       26
 91
        1
 62
     0
 92
       -2
340
0
 93
        0
 40
0.045
309
GRIDFORMAT_END
 95
       32
302
GRIDFORMAT
  1
GRIDFORMAT_BEGIN
 90
       26
 91
        1
 62
     0
 92
       -2
340
0
 93
        0
 40
0.045
309
GRIDFORMAT_END
309
TABLEFORMAT_END
309
FORMATTEDTABLEDATACELL_END
  1
TABLECELL_BEGIN
 90
        0
 91
        0
309
TABLECELL_END
300
CELL
  1
LINKEDTABLEDATACELL_BEGIN
 90
        0
300

 91
        0
301
CUSTOMDATA
  1
DATAMAP_BEGIN
 90
        0
309
DATAMAP_END
 92
        0
 95
        0
309
LINKEDTABLEDATACELL_END
  1
FORMATTEDTABLEDATACELL_BEGIN
300
CELLTABLEFORMAT
  1
TABLEFORMAT_BEGIN
 90
        1
170
     1
 91
        0
 92
        0
 62
   257
 93
        1
300
CONTENTFORMAT
  1
CONTENTFORMAT_BEGIN
 90
        0
 91
        0
 92
      512
 93
        0
300

 40
0.0
140
1.0
 94
        1
 62
     0
340
0
144
0.18
309
CONTENTFORMAT_END
171
     0
 94
        0
309
TABLEFORMAT_END
309
FORMATTEDTABLEDATACELL_END
  1
TABLECELL_BEGIN
 90
        0
 91
        0
309
TABLECELL_END
300
CELL
  1
LINKEDTABLEDATACELL_BEGIN
 90
        0
300

 91
        0
301
CUSTOMDATA
  1
DATAMAP_BEGIN
 90
        0
309
DATAMAP_END
 92
        0
 95
        0
309
LINKEDTABLEDATACELL_END
  1
FORMATTEDTABLEDATACELL_BEGIN
300
CELLTABLEFORMAT
  1
TABLEFORMAT_BEGIN
 90
        1
170
     1
 91
        0
 92
        0
 62
   257
 93
        1
300
CONTENTFORMAT
  1
CONTENTFORMAT_BEGIN
 90
        0
 91
        0
 92
      512
 93
        0
300

 40
0.0
140
1.0
 94
        1
 62
     0
340
0
144
0.18
309
CONTENTFORMAT_END
171
     0
 94
        0
309
TABLEFORMAT_END
309
FORMATTEDTABLEDATACELL_END
  1
TABLECELL_BEGIN
 90
        0
 91
        0
309
TABLECELL_END
300
CELL
  1
LINKEDTABLEDATACELL_BEGIN
 90
        0
300

 91
        0
301
CUSTOMDATA
  1
DATAMAP_BEGIN
 90
        0
309
DATAMAP_END
 92
        0
 95
        0
309
LINKEDTABLEDATACELL_END
  1
FORMATTEDTABLEDATACELL_BEGIN
300
CELLTABLEFORMAT
  1
TABLEFORMAT_BEGIN
 90
        1
170
     1
 91
        0
 92
        0
 62
   257
 93
        1
300
CONTENTFORMAT
  1
CONTENTFORMAT_BEGIN
 90
        0
 91
        0
 92
      512
 93
        0
300

 40
0.0
140
1.0
 94
        1
 62
     0
340
0
144
0.18
309
CONTENTFORMAT_END
171
     0
 94
        0
309
TABLEFORMAT_END
309
FORMATTEDTABLEDATACELL_END
  1
TABLECELL_BEGIN
 90
        0
 91
        0
309
TABLECELL_END
300
CELL
  1
LINKEDTABLEDATACELL_BEGIN
 90
        0
300

 91
        0
301
CUSTOMDATA
  1
DATAMAP_BEGIN
 90
        0
309
DATAMAP_END
 92
        0
 95
        0
309
LINKEDTABLEDATACELL_END
  1
FORMATTEDTABLEDATACELL_BEGIN
300
CELLTABLEFORMAT
  1
TABLEFORMAT_BEGIN
 90
        1
170
     1
 91
        0
 92
        0
 62
   257
 93
        1
300
CONTENTFORMAT
  1
CONTENTFORMAT_BEGIN
 90
        0
 91
        0
 92
      512
 93
        0
300

 40
0.0
140
1.0
 94
        1
 62
     0
340
0
144
0.18
309
CONTENTFORMAT_END
171
     0
 94
        0
309
TABLEFORMAT_END
309
FORMATTEDTABLEDATACELL_END
  1
TABLECELL_BEGIN
 90
        0
 91
        0
309
TABLECELL_END
 91
        0
301
CUSTOMDATA
  1
DATAMAP_BEGIN
 90
        0
309
DATAMAP_END
309
LINKEDTABLEDATAROW_END
  1
FORMATTEDTABLEDATAROW_BEGIN
300
ROWTABLEFORMAT
  1
TABLEFORMAT_BEGIN
 90
        2
170
     0
309
TABLEFORMAT_END
309
FORMATTEDTABLEDATAROW_END
  1
TABLEROW_BEGIN
 90
        3
 40
13.0
309
TABLEROW_END
100
AcDbFormattedTableData
300
TABLEFORMAT
  1
TABLEFORMAT_BEGIN
 90
        4
170
     1
 91
    15360
 92
        0
 62
   257
 93
        1
300
CONTENTFORMAT
  1
CONTENTFORMAT_BEGIN
 90
        0
 91
        0
 92
      512
 93
        0
300

 40
0.0
140
1.0
 94
        1
 62
     0
340
0
144
0.18
309
CONTENTFORMAT_END
171
     1
301
MARGIN
  1
CELLMARGIN_BEGIN
 40
0.06
 40
0.06
 40
0.06
 40
0.06
 40
0.06
 40
0.06
309
CELLMARGIN_END
 94
        0
309
TABLEFORMAT_END
 90
        4
 91
        0
 92
        0
 93
        3
 94
        2
 91
        2
 92
        3
 93
        2
 94
        4
 91
        3
 92
        3
 93
        3
 94
        4
 91
        4
 92
        0
 93
        4
 94
        4
100
AcDbTableContent
340
583
  0
TABLEGEOMETRY
  5
5B0
330
5B2
100
AcDbTableGeometry
 90
        5
 91
        5
 92
       25
 93
        0
 40
0.0
 41
0.0
330
0
 94
        0
 93
        0
 40
0.0
 41
0.0
330
0
 94
        0
 93
        0
 40
0.0
 41
0.0
330
0
 94
        0
 93
        0
 40
0.0
 41
0.0
330
0
 94
        0
 93
        0
 40
0.0
 41
0.0
330
0
 94
        0
 93
        0
 40
0.0
 41
0.0
330
0
 94
        0
 93
        0
 40
0.0
 41
0.0
330
0
 94
        0
 93
        0
 40
0.0
 41
0.0
330
0
 94
        0
 93
        0
 40
0.0
 41
0.0
330
0
 94
        0
 93
        0
 40
0.0
 41
0.0
330
0
 94
        0
 93
        0
 40
0.0
 41
0.0
330
0
 94
        0
 93
        0
 40
0.0
 41
0.0
330
0
 94
        0
 93
        0
 40
0.0
 41
0.0
330
0
 94
        0
 93
        0
 40
0.0
 41
0.0
330
0
 94
        0
 93
        0
 40
0.0
 41
0.0
330
0
 94
        0
 93
        0
 40
0.0
 41
0.0
330
0
 94
        0
 93
        0
 40
0.0
 41
0.0
330
0
 94
        0
 93
        0
 40
0.0
 41
0.0
330
0
 94
        0
 93
        0
 40
0.0
 41
0.0
330
0
 94
        0
 93
        0
 40
0.0
 41
0.0
330
0
 94
        0
 93
        0
 40
0.0
 41
0.0
330
0
 94
        0
 93
        0
 40
0.0
 41
0.0
330
0
 94
        0
 93
        0
 40
0.0
 41
0.0
330
0
 94
        0
 93
        0
 40
0.0
 41
0.0
330
0
 94
        0
 93
        0
 40
0.0
 41
0.0
330
0
 94
        0
  0
DICTIONARY
  5
5B5
330
583
100
AcDbDictionary
280
     1
281
     1
  3
ACAD_ROUNDTRIP_2008_TABLESTYLE_CELLSTYLEMAP
360
5B6
  0
CELLSTYLEMAP
  5
5B6
102
{ACAD_REACTORS
330
5B5
102
}
330
5B5
100
AcDbCellStyleMap
 90
        3
300
CELLSTYLE
  1
TABLEFORMAT_BEGIN
 90
        5
170
     1
 91
        0
 92
        0
 62
   257
 93
        1
300
CONTENTFORMAT
  1
CONTENTFORMAT_BEGIN
 90
        0
 91
        0
 92
        4
 93
        0
300

 40
0.0
140
1.0
 94
        5
 62
     0
340
11
144
6.0
309
CONTENTFORMAT_END
171
     1
301
MARGIN
  1
CELLMARGIN_BEGIN
 40
1.5
 40
1.5
 40
1.5
 40
1.5
 40
1.5
 40
1.5
309
CELLMARGIN_END
 94
        6
 95
        1
302
GRIDFORMAT
  1
GRIDFORMAT_BEGIN
 90
        0
 91
        1
 62
     0
 92
       -2
340
14
 93
        0
 40
0.045
309
GRIDFORMAT_END
 95
        2
302
GRIDFORMAT
  1
GRIDFORMAT_BEGIN
 90
        0
 91
        1
 62
     0
 92
       -2
340
14
 93
        0
 40
0.045
309
GRIDFORMAT_END
 95
        4
302
GRIDFORMAT
  1
GRIDFORMAT_BEGIN
 90
        0
 91
        1
 62
     0
 92
       -2
340
14
 93
        0
 40
0.045
309
GRIDFORMAT_END
 95
        8
302
GRIDFORMAT
  1
GRIDFORMAT_BEGIN
 90
        0
 91
        1
 62
     0
 92
       -2
340
14
 93
        0
 40
0.045
309
GRIDFORMAT_END
 95
       16
302
GRIDFORMAT
  1
GRIDFORMAT_BEGIN
 90
        0
 91
        1
 62
     0
 92
       -2
340
14
 93
        0
 40
0.045
309
GRIDFORMAT_END
 95
       32
302
GRIDFORMAT
  1
GRIDFORMAT_BEGIN
 90
        0
 91
        1
 62
     0
 92
       -2
340
14
 93
        0
 40
0.045
309
GRIDFORMAT_END
309
TABLEFORMAT_END
  1
CELLSTYLE_BEGIN
 90
        1
 91
        1
300
_TITLE
309
CELLSTYLE_END
300
CELLSTYLE
  1
TABLEFORMAT_BEGIN
 90
        5
170
     1
 91
        0
 92
        0
 62
   257
 93
        1
300
CONTENTFORMAT
  1
CONTENTFORMAT_BEGIN
 90
        0
 91
        0
 92
        4
 93
        0
300

 40
0.0
140
1.0
 94
        5
 62
     0
340
11
144
4.5
309
CONTENTFORMAT_END
171
     1
301
MARGIN
  1
CELLMARGIN_BEGIN
 40
1.5
 40
1.5
 40
1.5
 40
1.5
 40
1.5
 40
1.5
309
CELLMARGIN_END
 94
        6
 95
        1
302
GRIDFORMAT
  1
GRIDFORMAT_BEGIN
 90
        0
 91
        1
 62
     0
 92
       -2
340
14
 93
        0
 40
0.045
309
GRIDFORMAT_END
 95
        2
302
GRIDFORMAT
  1
GRIDFORMAT_BEGIN
 90
        0
 91
        1
 62
     0
 92
       -2
340
14
 93
        0
 40
0.045
309
GRIDFORMAT_END
 95
        4
302
GRIDFORMAT
  1
GRIDFORMAT_BEGIN
 90
        0
 91
        1
 62
     0
 92
       -2
340
14
 93
        0
 40
0.045
309
GRIDFORMAT_END
 95
        8
302
GRIDFORMAT
  1
GRIDFORMAT_BEGIN
 90
        0
 91
        1
 62
     0
 92
       -2
340
14
 93
        0
 40
0.045
309
GRIDFORMAT_END
 95
       16
302
GRIDFORMAT
  1
GRIDFORMAT_BEGIN
 90
        0
 91
        1
 62
     0
 92
       -2
340
14
 93
        0
 40
0.045
309
GRIDFORMAT_END
 95
       32
302
GRIDFORMAT
  1
GRIDFORMAT_BEGIN
 90
        0
 91
        1
 62
     0
 92
       -2
340
14
 93
        0
 40
0.045
309
GRIDFORMAT_END
309
TABLEFORMAT_END
  1
CELLSTYLE_BEGIN
 90
        2
 91
        1
300
_HEADER
309
CELLSTYLE_END
300
CELLSTYLE
  1
TABLEFORMAT_BEGIN
 90
        5
170
     1
 91
        0
 92
        0
 62
   257
 93
        1
300
CONTENTFORMAT
  1
CONTENTFORMAT_BEGIN
 90
        0
 91
        0
 92
        4
 93
        0
300

 40
0.0
140
1.0
 94
        2
 62
     0
340
11
144
4.5
309
CONTENTFORMAT_END
171
     1
301
MARGIN
  1
CELLMARGIN_BEGIN
 40
1.5
 40
1.5
 40
1.5
 40
1.5
 40
1.5
 40
1.5
309
CELLMARGIN_END
 94
        6
 95
        1
302
GRIDFORMAT
  1
GRIDFORMAT_BEGIN
 90
        0
 91
        1
 62
     0
 92
       -2
340
14
 93
        0
 40
0.045
309
GRIDFORMAT_END
 95
        2
302
GRIDFORMAT
  1
GRIDFORMAT_BEGIN
 90
        0
 91
        1
 62
     0
 92
       -2
340
14
 93
        0
 40
0.045
309
GRIDFORMAT_END
 95
        4
302
GRIDFORMAT
  1
GRIDFORMAT_BEGIN
 90
        0
 91
        1
 62
     0
 92
       -2
340
14
 93
        0
 40
0.045
309
GRIDFORMAT_END
 95
        8
302
GRIDFORMAT
  1
GRIDFORMAT_BEGIN
 90
        0
 91
        1
 62
     0
 92
       -2
340
14
 93
        0
 40
0.045
309
GRIDFORMAT_END
 95
       16
302
GRIDFORMAT
  1
GRIDFORMAT_BEGIN
 90
        0
 91
        1
 62
     0
 92
       -2
340
14
 93
        0
 40
0.045
309
GRIDFORMAT_END
 95
       32
302
GRIDFORMAT
  1
GRIDFORMAT_BEGIN
 90
        0
 91
        1
 62
     0
 92
       -2
340
14
 93
        0
 40
0.045
309
GRIDFORMAT_END
309
TABLEFORMAT_END
  1
CELLSTYLE_BEGIN
 90
        3
 91
        2
300
_DATA
309
CELLSTYLE_END
  0
ENDSEC
  0
EOF
